  0
SECTION
  2
HEADER
  9
$ACADVER
  1
AC1021
  9
$ACADMAINTVER
 70
    25
  9
$DWGCODEPAGE
  3
ANSI_932
  9
$LASTSAVEDBY
  1
howeNelson
  9
$INSBASE
 10
0.0
 20
0.0
 30
0.0
  9
$EXTMIN
 10
0.0
 20
-0.0000000000001137
 30
0.0
  9
$EXTMAX
 10
840.0
 20
593.9999999999999
 30
0.0
  9
$LIMMIN
 10
419.9999999999999
 20
-0.0000000000001137
  9
$LIMMAX
 10
840.0
 20
296.9999999999998
  9
$ORTHOMODE
 70
     0
  9
$REGENMODE
 70
     1
  9
$FILLMODE
 70
     1
  9
$QTEXTMODE
 70
     0
  9
$MIRRTEXT
 70
     1
  9
$LTSCALE
 40
1.0
  9
$ATTMODE
 70
     1
  9
$TEXTSIZE
 40
0.2
  9
$TRACEWID
 40
0.05
  9
$TEXTSTYLE
  7
Standard
  9
$CLAYER
  8
0
  9
$CELTYPE
  6
ByLayer
  9
$CECOLOR
 62
   256
  9
$CELTSCALE
 40
1.0
  9
$DISPSILH
 70
     0
  9
$DIMSCALE
 40
1.0
  9
$DIMASZ
 40
0.18
  9
$DIMEXO
 40
0.0625
  9
$DIMDLI
 40
0.38
  9
$DIMRND
 40
0.0
  9
$DIMDLE
 40
0.0
  9
$DIMEXE
 40
0.18
  9
$DIMTP
 40
0.0
  9
$DIMTM
 40
0.0
  9
$DIMTXT
 40
0.18
  9
$DIMCEN
 40
0.09
  9
$DIMTSZ
 40
0.0
  9
$DIMTOL
 70
     0
  9
$DIMLIM
 70
     0
  9
$DIMTIH
 70
     1
  9
$DIMTOH
 70
     1
  9
$DIMSE1
 70
     0
  9
$DIMSE2
 70
     0
  9
$DIMTAD
 70
     0
  9
$DIMZIN
 70
     0
  9
$DIMBLK
  1

  9
$DIMASO
 70
     1
  9
$DIMSHO
 70
     1
  9
$DIMPOST
  1

  9
$DIMAPOST
  1

  9
$DIMALT
 70
     0
  9
$DIMALTD
 70
     2
  9
$DIMALTF
 40
25.4
  9
$DIMLFAC
 40
1.0
  9
$DIMTOFL
 70
     0
  9
$DIMTVP
 40
0.0
  9
$DIMTIX
 70
     0
  9
$DIMSOXD
 70
     0
  9
$DIMSAH
 70
     0
  9
$DIMBLK1
  1

  9
$DIMBLK2
  1

  9
$DIMSTYLE
  2
Standard
  9
$DIMCLRD
 70
     0
  9
$DIMCLRE
 70
     0
  9
$DIMCLRT
 70
     0
  9
$DIMTFAC
 40
1.0
  9
$DIMGAP
 40
0.09
  9
$DIMJUST
 70
     0
  9
$DIMSD1
 70
     0
  9
$DIMSD2
 70
     0
  9
$DIMTOLJ
 70
     1
  9
$DIMTZIN
 70
     0
  9
$DIMALTZ
 70
     0
  9
$DIMALTTZ
 70
     0
  9
$DIMUPT
 70
     0
  9
$DIMDEC
 70
     4
  9
$DIMTDEC
 70
     4
  9
$DIMALTU
 70
     2
  9
$DIMALTTD
 70
     2
  9
$DIMTXSTY
  7
Standard
  9
$DIMAUNIT
 70
     0
  9
$DIMADEC
 70
     0
  9
$DIMALTRND
 40
0.0
  9
$DIMAZIN
 70
     0
  9
$DIMDSEP
 70
    46
  9
$DIMATFIT
 70
     3
  9
$DIMFRAC
 70
     0
  9
$DIMLDRBLK
  1

  9
$DIMLUNIT
 70
     2
  9
$DIMLWD
 70
    -2
  9
$DIMLWE
 70
    -2
  9
$DIMTMOVE
 70
     0
  9
$DIMFXL
 40
1.0
  9
$DIMFXLON
 70
     0
  9
$DIMJOGANG
 40
0.7853981633974483
  9
$DIMTFILL
 70
     0
  9
$DIMTFILLCLR
 70
     0
  9
$DIMARCSYM
 70
     0
  9
$DIMLTYPE
  6

  9
$DIMLTEX1
  6

  9
$DIMLTEX2
  6

  9
$LUNITS
 70
     2
  9
$LUPREC
 70
     4
  9
$SKETCHINC
 40
0.1
  9
$FILLETRAD
 40
0.5
  9
$AUNITS
 70
     0
  9
$AUPREC
 70
     0
  9
$MENU
  1
.
  9
$ELEVATION
 40
0.0
  9
$PELEVATION
 40
0.0
  9
$THICKNESS
 40
0.0
  9
$LIMCHECK
 70
     0
  9
$CHAMFERA
 40
0.5
  9
$CHAMFERB
 40
0.5
  9
$CHAMFERC
 40
1.0
  9
$CHAMFERD
 40
0.0
  9
$SKPOLY
 70
     0
  9
$TDCREATE
 40
2458341.635873183
  9
$TDUCREATE
 40
2458341.260873183
  9
$TDUPDATE
 40
2458391.700669005
  9
$TDUUPDATE
 40
2458391.325669005
  9
$TDINDWG
 40
0.0264935995
  9
$TDUSRTIMER
 40
0.0000916204
  9
$USRTIMER
 70
     1
  9
$ANGBASE
 50
0.0
  9
$ANGDIR
 70
     0
  9
$PDMODE
 70
     0
  9
$PDSIZE
 40
0.0
  9
$PLINEWID
 40
0.0
  9
$SPLFRAME
 70
     0
  9
$SPLINETYPE
 70
     6
  9
$SPLINESEGS
 70
     8
  9
$HANDSEED
  5
125C
  9
$SURFTAB1
 70
     6
  9
$SURFTAB2
 70
     6
  9
$SURFTYPE
 70
     6
  9
$SURFU
 70
     6
  9
$SURFV
 70
     6
  9
$UCSBASE
  2

  9
$UCSNAME
  2

  9
$UCSORG
 10
0.0
 20
0.0
 30
0.0
  9
$UCSXDIR
 10
1.0
 20
0.0
 30
0.0
  9
$UCSYDIR
 10
0.0
 20
1.0
 30
0.0
  9
$UCSORTHOREF
  2

  9
$UCSORTHOVIEW
 70
     0
  9
$UCSORGTOP
 10
0.0
 20
0.0
 30
0.0
  9
$UCSORGBOTTOM
 10
0.0
 20
0.0
 30
0.0
  9
$UCSORGLEFT
 10
0.0
 20
0.0
 30
0.0
  9
$UCSORGRIGHT
 10
0.0
 20
0.0
 30
0.0
  9
$UCSORGFRONT
 10
0.0
 20
0.0
 30
0.0
  9
$UCSORGBACK
 10
0.0
 20
0.0
 30
0.0
  9
$PUCSBASE
  2

  9
$PUCSNAME
  2

  9
$PUCSORG
 10
0.0
 20
0.0
 30
0.0
  9
$PUCSXDIR
 10
1.0
 20
0.0
 30
0.0
  9
$PUCSYDIR
 10
0.0
 20
1.0
 30
0.0
  9
$PUCSORTHOREF
  2

  9
$PUCSORTHOVIEW
 70
     0
  9
$PUCSORGTOP
 10
0.0
 20
0.0
 30
0.0
  9
$PUCSORGBOTTOM
 10
0.0
 20
0.0
 30
0.0
  9
$PUCSORGLEFT
 10
0.0
 20
0.0
 30
0.0
  9
$PUCSORGRIGHT
 10
0.0
 20
0.0
 30
0.0
  9
$PUCSORGFRONT
 10
0.0
 20
0.0
 30
0.0
  9
$PUCSORGBACK
 10
0.0
 20
0.0
 30
0.0
  9
$USERI1
 70
     0
  9
$USERI2
 70
     0
  9
$USERI3
 70
     0
  9
$USERI4
 70
     0
  9
$USERI5
 70
     0
  9
$USERR1
 40
0.0
  9
$USERR2
 40
0.0
  9
$USERR3
 40
0.0
  9
$USERR4
 40
0.0
  9
$USERR5
 40
0.0
  9
$WORLDVIEW
 70
     1
  9
$SHADEDGE
 70
     3
  9
$SHADEDIF
 70
    70
  9
$TILEMODE
 70
     1
  9
$MAXACTVP
 70
    64
  9
$PINSBASE
 10
0.0
 20
0.0
 30
0.0
  9
$PLIMCHECK
 70
     0
  9
$PEXTMIN
 10
1.000000000000000E+20
 20
1.000000000000000E+20
 30
1.000000000000000E+20
  9
$PEXTMAX
 10
-1.000000000000000E+20
 20
-1.000000000000000E+20
 30
-1.000000000000000E+20
  9
$PLIMMIN
 10
0.0
 20
0.0
  9
$PLIMMAX
 10
0.0
 20
0.0
  9
$UNITMODE
 70
     0
  9
$VISRETAIN
 70
     1
  9
$PLINEGEN
 70
     0
  9
$PSLTSCALE
 70
     1
  9
$TREEDEPTH
 70
  3020
  9
$CMLSTYLE
  2
Standard
  9
$CMLJUST
 70
     0
  9
$CMLSCALE
 40
1.0
  9
$PROXYGRAPHICS
 70
     1
  9
$MEASUREMENT
 70
     0
  9
$CELWEIGHT
370
    -1
  9
$ENDCAPS
280
     0
  9
$JOINSTYLE
280
     0
  9
$LWDISPLAY
290
     1
  9
$INSUNITS
 70
     1
  9
$HYPERLINKBASE
  1

  9
$STYLESHEET
  1

  9
$XEDIT
290
     1
  9
$CEPSNTYPE
380
     0
  9
$PSTYLEMODE
290
     1
  9
$FINGERPRINTGUID
  2
{C72CA0CE-9389-4B26-999F-139C7FC1E5CB}
  9
$VERSIONGUID
  2
{FAEB1C32-E019-11D5-929B-00C0DF256EC4}
  9
$EXTNAMES
290
     1
  9
$PSVPSCALE
 40
0.0
  9
$OLESTARTUP
290
     0
  9
$SORTENTS
280
   127
  9
$INDEXCTL
280
     0
  9
$HIDETEXT
280
     1
  9
$XCLIPFRAME
290
     0
  9
$HALOGAP
280
     0
  9
$OBSCOLOR
 70
   257
  9
$OBSLTYPE
280
     0
  9
$INTERSECTIONDISPLAY
280
     0
  9
$INTERSECTIONCOLOR
 70
   257
  9
$DIMASSOC
280
     2
  9
$PROJECTNAME
  1

  9
$CAMERADISPLAY
290
     0
  9
$LENSLENGTH
 40
50.0
  9
$CAMERAHEIGHT
 40
0.0
  9
$STEPSPERSEC
 40
2.0
  9
$STEPSIZE
 40
6.0
  9
$3DDWFPREC
 40
2.0
  9
$PSOLWIDTH
 40
0.25
  9
$PSOLHEIGHT
 40
4.0
  9
$LOFTANG1
 40
1.570796326794897
  9
$LOFTANG2
 40
1.570796326794897
  9
$LOFTMAG1
 40
0.0
  9
$LOFTMAG2
 40
0.0
  9
$LOFTPARAM
 70
     7
  9
$LOFTNORMALS
280
     1
  9
$LATITUDE
 40
37.795
  9
$LONGITUDE
 40
-122.394
  9
$NORTHDIRECTION
 40
0.0
  9
$TIMEZONE
 70
 -8000
  9
$LIGHTGLYPHDISPLAY
280
     1
  9
$TILEMODELIGHTSYNCH
280
     1
  9
$SOLIDHIST
280
     0
  9
$SHOWHIST
280
     1
  9
$DWFFRAME
280
     2
  9
$DGNFRAME
280
     2
  9
$REALWORLDSCALE
290
     1
  9
$INTERFERECOLOR
 62
   256
  9
$CSHADOW
280
     0
  9
$SHADOWPLANELOCATION
 40
0.0
  0
ENDSEC
  0
SECTION
  2
CLASSES
  0
CLASS
  1
ACDBDICTIONARYWDFLT
  2
AcDbDictionaryWithDefault
  3
ObjectDBX Classes
 90
        0
 91
        4
280
     0
281
     0
  0
CLASS
  1
VISUALSTYLE
  2
AcDbVisualStyle
  3
ObjectDBX Classes
 90
     4095
 91
        4
280
     0
281
     0
  0
CLASS
  1
SCALE
  2
AcDbScale
  3
ObjectDBX Classes
 90
     1153
 91
        4
280
     0
281
     0
  0
CLASS
  1
MATERIAL
  2
AcDbMaterial
  3
ObjectDBX Classes
 90
     1153
 91
        4
280
     0
281
     0
  0
CLASS
  1
TABLESTYLE
  2
AcDbTableStyle
  3
ObjectDBX Classes
 90
     4095
 91
        4
280
     0
281
     0
  0
CLASS
  1
MLEADERSTYLE
  2
AcDbMLeaderStyle
  3
ACDB_MLEADERSTYLE_CLASS
 90
     4095
 91
        4
280
     0
281
     0
  0
CLASS
  1
DIMASSOC
  2
AcDbDimAssoc
  3
"AcDbDimAssoc|Product Desc:     AcDim ARX App For Dimension|Company:          Autodesk, Inc.|WEB Address:      www.autodesk.com"
 90
        0
 91
        4
280
     0
281
     0
  0
CLASS
  1
DICTIONARYVAR
  2
AcDbDictionaryVar
  3
ObjectDBX Classes
 90
        0
 91
        4
280
     0
281
     0
  0
CLASS
  1
CELLSTYLEMAP
  2
AcDbCellStyleMap
  3
ObjectDBX Classes
 90
     1152
 91
        4
280
     0
281
     0
  0
CLASS
  1
SUN
  2
AcDbSun
  3
SCENEOE
 90
     1153
 91
        4
280
     0
281
     0
  0
CLASS
  1
SORTENTSTABLE
  2
AcDbSortentsTable
  3
ObjectDBX Classes
 90
        0
 91
        4
280
     0
281
     0
  0
ENDSEC
  0
SECTION
  2
TABLES
  0
TABLE
  2
VPORT
  5
8
330
0
100
AcDbSymbolTable
 70
     1
  0
VPORT
  5
29
330
8
100
AcDbSymbolTableRecord
100
AcDbViewportTableRecord
  2
*Active
 70
     0
 10
0.0
 20
0.0
 11
1.0
 21
1.0
 12
-422.0
 22
-895.0000000000001
 13
0.0
 23
0.0
 14
0.5
 24
0.5
 15
0.5
 25
0.5
 16
0.0
 26
0.0
 36
1.0
 17
842.0
 27
1192.0
 37
0.0
 40
605.88
 41
2.389057750759878
 42
50.0
 43
0.0
 44
0.0
 50
0.0
 51
0.0
 71
    16
 72
   100
 73
     1
 74
     3
 75
     0
 76
     0
 77
     0
 78
     0
281
     0
 65
     1
110
0.0
120
0.0
130
0.0
111
1.0
121
0.0
131
0.0
112
0.0
122
1.0
132
0.0
 79
     0
146
0.0
348
2F
 60
     3
 61
     5
292
     1
282
     1
141
0.0
142
0.0
 63
   250
361
F75
  0
ENDTAB
  0
TABLE
  2
LTYPE
  5
5
330
0
100
AcDbSymbolTable
 70
     3
  0
LTYPE
  5
14
330
5
100
AcDbSymbolTableRecord
100
AcDbLinetypeTableRecord
  2
ByBlock
 70
     0
  3

 72
    65
 73
     0
 40
0.0
  0
LTYPE
  5
15
330
5
100
AcDbSymbolTableRecord
100
AcDbLinetypeTableRecord
  2
ByLayer
 70
     0
  3

 72
    65
 73
     0
 40
0.0
  0
LTYPE
  5
16
330
5
100
AcDbSymbolTableRecord
100
AcDbLinetypeTableRecord
  2
Continuous
 70
     0
  3
Solid line
 72
    65
 73
     0
 40
0.0
  0
LTYPE
  5
F80
330
5
100
AcDbSymbolTableRecord
100
AcDbLinetypeTableRecord
  2
HIDDEN2
 70
     0
  3
Hidden (.5x) _ _ _ _ _ _ _ _ _ _ _ _ _ _ _ _ _ 
 72
    65
 73
     2
 40
4.762499999999999
 49
3.175
 74
     0
 49
-1.5875
 74
     0
  0
LTYPE
  5
109B
330
5
100
AcDbSymbolTableRecord
100
AcDbLinetypeTableRecord
  2
HIDDEN
 70
     0
  3
 Hidden _ _ _ _ _ _ _ _ _ _ _ _ _ _ _ _ _ _ _ _
 72
    65
 73
     2
 40
0.375
 49
0.25
 74
     0
 49
-0.125
 74
     0
  0
ENDTAB
  0
TABLE
  2
LAYER
  5
2
102
{ACAD_XDICTIONARY
360
FF7
102
}
330
0
100
AcDbSymbolTable
 70
     5
  0
LAYER
  5
10
330
2
100
AcDbSymbolTableRecord
100
AcDbLayerTableRecord
  2
0
 70
     0
 62
     7
  6
Continuous
370
    -3
390
F
347
CFF
  0
LAYER
  5
3B
330
2
100
AcDbSymbolTableRecord
100
AcDbLayerTableRecord
  2
レイヤー 1
 70
     0
 62
     7
  6
Continuous
370
    -3
390
F
347
CFF
  0
LAYER
  5
D0E
330
2
100
AcDbSymbolTableRecord
100
AcDbLayerTableRecord
  2
Defpoints
 70
     0
 62
     7
  6
Continuous
290
     0
370
    -3
390
F
347
CFF
  0
LAYER
  5
F7A
102
{ACAD_XDICTIONARY
360
F7B
102
}
330
2
100
AcDbSymbolTableRecord
100
AcDbLayerTableRecord
  2
Quote
 70
     0
 62
     5
  6
Continuous
370
     9
390
F
347
CFF
  0
LAYER
  5
F7E
330
2
100
AcDbSymbolTableRecord
100
AcDbLayerTableRecord
  2
Scasso
 70
     0
 62
    30
  6
Continuous
370
    20
390
F
347
CFF
1001
AcAecLayerStandard
1000

1000

  0
ENDTAB
  0
TABLE
  2
STYLE
  5
3
330
0
100
AcDbSymbolTable
 70
     1
  0
STYLE
  5
11
330
3
100
AcDbSymbolTableRecord
100
AcDbTextStyleTableRecord
  2
Standard
 70
     0
 40
0.0
 41
1.0
 50
0.0
 71
     0
 42
0.2
  3
txt
  4

  0
ENDTAB
  0
TABLE
  2
VIEW
  5
6
330
0
100
AcDbSymbolTable
 70
     0
  0
ENDTAB
  0
TABLE
  2
UCS
  5
7
330
0
100
AcDbSymbolTable
 70
     0
  0
ENDTAB
  0
TABLE
  2
APPID
  5
9
330
0
100
AcDbSymbolTable
 70
     8
  0
APPID
  5
12
330
9
100
AcDbSymbolTableRecord
100
AcDbRegAppTableRecord
  2
ACAD
 70
     0
  0
APPID
  5
F73
330
9
100
AcDbSymbolTableRecord
100
AcDbRegAppTableRecord
  2
ACAD_MLEADERVER
 70
     0
  0
APPID
  5
F7F
330
9
100
AcDbSymbolTableRecord
100
AcDbRegAppTableRecord
  2
AcAecLayerStandard
 70
     0
  0
APPID
  5
F86
330
9
100
AcDbSymbolTableRecord
100
AcDbRegAppTableRecord
  2
ACAD_DSTYLE_DIMJAG
 70
     0
  0
APPID
  5
F87
330
9
100
AcDbSymbolTableRecord
100
AcDbRegAppTableRecord
  2
ACAD_DSTYLE_DIMTALN
 70
     0
  0
APPID
  5
F88
330
9
100
AcDbSymbolTableRecord
100
AcDbRegAppTableRecord
  2
ACAD_PSEXT
 70
     0
  0
APPID
  5
F89
330
9
100
AcDbSymbolTableRecord
100
AcDbRegAppTableRecord
  2
ACAD_NAV_VCDISPLAY
 70
     0
  0
APPID
  5
F8A
330
9
100
AcDbSymbolTableRecord
100
AcDbRegAppTableRecord
  2
AcLayerTools
 70
     0
  0
ENDTAB
  0
TABLE
  2
DIMSTYLE
  5
A
330
0
100
AcDbSymbolTable
 70
     1
100
AcDbDimStyleTable
  0
DIMSTYLE
105
27
102
{ACAD_REACTORS
330
101B
330
101C
330
101D
330
1022
330
1023
102
}
330
A
100
AcDbSymbolTableRecord
100
AcDbDimStyleTableRecord
  2
Standard
 70
     0
178
     0
340
11
  0
ENDTAB
  0
TABLE
  2
BLOCK_RECORD
  5
1
330
0
100
AcDbSymbolTable
 70
    28
  0
BLOCK_RECORD
  5
1F
330
1
100
AcDbSymbolTableRecord
100
AcDbBlockTableRecord
  2
*Model_Space
340
22
 70
     0
280
     1
281
     0
  0
BLOCK_RECORD
  5
1B
330
1
100
AcDbSymbolTableRecord
100
AcDbBlockTableRecord
  2
*Paper_Space
340
1E
 70
     0
280
     1
281
     0
  0
BLOCK_RECORD
  5
23
330
1
100
AcDbSymbolTableRecord
100
AcDbBlockTableRecord
  2
*Paper_Space0
340
26
 70
     0
280
     1
281
     0
  0
BLOCK_RECORD
  5
D12
330
1
100
AcDbSymbolTableRecord
100
AcDbBlockTableRecord
  2
*D1
340
0
 70
     0
280
     1
281
     0
  0
BLOCK_RECORD
  5
D23
330
1
100
AcDbSymbolTableRecord
100
AcDbBlockTableRecord
  2
*D2
340
0
 70
     0
280
     1
281
     0
  0
BLOCK_RECORD
  5
D33
330
1
100
AcDbSymbolTableRecord
100
AcDbBlockTableRecord
  2
*D3
340
0
 70
     0
280
     1
281
     0
  0
BLOCK_RECORD
  5
D45
330
1
100
AcDbSymbolTableRecord
100
AcDbBlockTableRecord
  2
*D4
340
0
 70
     0
280
     1
281
     0
  0
BLOCK_RECORD
  5
D55
330
1
100
AcDbSymbolTableRecord
100
AcDbBlockTableRecord
  2
*D5
340
0
 70
     0
280
     1
281
     0
  0
BLOCK_RECORD
  5
D65
330
1
100
AcDbSymbolTableRecord
100
AcDbBlockTableRecord
  2
*D6
340
0
 70
     0
280
     1
281
     0
  0
BLOCK_RECORD
  5
D78
330
1
100
AcDbSymbolTableRecord
100
AcDbBlockTableRecord
  2
*D7
340
0
 70
     0
280
     1
281
     0
  0
BLOCK_RECORD
  5
E0A
330
1
100
AcDbSymbolTableRecord
100
AcDbBlockTableRecord
  2
*D8
340
0
 70
     0
280
     1
281
     0
  0
BLOCK_RECORD
  5
E34
330
1
100
AcDbSymbolTableRecord
100
AcDbBlockTableRecord
  2
*D9
340
0
 70
     0
280
     1
281
     0
  0
BLOCK_RECORD
  5
E44
330
1
100
AcDbSymbolTableRecord
100
AcDbBlockTableRecord
  2
*D10
340
0
 70
     0
280
     1
281
     0
  0
BLOCK_RECORD
  5
F83
330
1
100
AcDbSymbolTableRecord
100
AcDbBlockTableRecord
  2
_None
340
0
 70
     0
280
     1
281
     0
  0
BLOCK_RECORD
  5
FBD
330
1
100
AcDbSymbolTableRecord
100
AcDbBlockTableRecord
  2
*D12
340
0
 70
     0
280
     1
281
     0
  0
BLOCK_RECORD
  5
FC8
330
1
100
AcDbSymbolTableRecord
100
AcDbBlockTableRecord
  2
*D13
340
0
 70
     0
280
     1
281
     0
  0
BLOCK_RECORD
  5
FD3
330
1
100
AcDbSymbolTableRecord
100
AcDbBlockTableRecord
  2
*D14
340
0
 70
     0
280
     1
281
     0
  0
BLOCK_RECORD
  5
FE2
330
1
100
AcDbSymbolTableRecord
100
AcDbBlockTableRecord
  2
*D15
340
0
 70
     0
280
     1
281
     0
  0
BLOCK_RECORD
  5
FED
330
1
100
AcDbSymbolTableRecord
100
AcDbBlockTableRecord
  2
*D16
340
0
 70
     0
280
     1
281
     0
  0
BLOCK_RECORD
  5
1024
330
1
100
AcDbSymbolTableRecord
100
AcDbBlockTableRecord
  2
*D17
340
0
 70
     0
280
     1
281
     0
  0
BLOCK_RECORD
  5
1031
330
1
100
AcDbSymbolTableRecord
100
AcDbBlockTableRecord
  2
*D18
340
0
 70
     0
280
     1
281
     0
  0
BLOCK_RECORD
  5
103E
330
1
100
AcDbSymbolTableRecord
100
AcDbBlockTableRecord
  2
*D19
340
0
 70
     0
280
     1
281
     0
  0
BLOCK_RECORD
  5
104B
330
1
100
AcDbSymbolTableRecord
100
AcDbBlockTableRecord
  2
*D20
340
0
 70
     0
280
     1
281
     0
  0
BLOCK_RECORD
  5
1058
330
1
100
AcDbSymbolTableRecord
100
AcDbBlockTableRecord
  2
*D21
340
0
 70
     0
280
     1
281
     0
  0
BLOCK_RECORD
  5
1068
330
1
100
AcDbSymbolTableRecord
100
AcDbBlockTableRecord
  2
*D22
340
0
 70
     0
280
     1
281
     0
  0
BLOCK_RECORD
  5
1078
330
1
100
AcDbSymbolTableRecord
100
AcDbBlockTableRecord
  2
*D23
340
0
 70
     0
280
     1
281
     0
  0
BLOCK_RECORD
  5
1088
330
1
100
AcDbSymbolTableRecord
100
AcDbBlockTableRecord
  2
*D24
340
0
 70
     0
280
     1
281
     0
  0
BLOCK_RECORD
  5
1223
330
1
100
AcDbSymbolTableRecord
100
AcDbBlockTableRecord
  2
*D25
340
0
 70
     0
280
     1
281
     0
  0
BLOCK_RECORD
  5
1236
330
1
100
AcDbSymbolTableRecord
100
AcDbBlockTableRecord
  2
*D26
340
0
 70
     0
280
     1
281
     0
  0
BLOCK_RECORD
  5
1246
330
1
100
AcDbSymbolTableRecord
100
AcDbBlockTableRecord
  2
*D27
340
0
 70
     0
280
     1
281
     0
  0
ENDTAB
  0
ENDSEC
  0
SECTION
  2
BLOCKS
  0
BLOCK
  5
20
330
1F
100
AcDbEntity
  8
0
100
AcDbBlockBegin
  2
*Model_Space
 70
     0
 10
0.0
 20
0.0
 30
0.0
  3
*Model_Space
  1

  0
ENDBLK
  5
21
330
1F
100
AcDbEntity
  8
0
100
AcDbBlockEnd
  0
BLOCK
  5
1C
330
1B
100
AcDbEntity
 67
     1
  8
0
100
AcDbBlockBegin
  2
*Paper_Space
 70
     0
 10
0.0
 20
0.0
 30
0.0
  3
*Paper_Space
  1

  0
ENDBLK
  5
1D
330
1B
100
AcDbEntity
 67
     1
  8
0
100
AcDbBlockEnd
  0
BLOCK
  5
24
330
23
100
AcDbEntity
  8
0
100
AcDbBlockBegin
  2
*Paper_Space0
 70
     0
 10
0.0
 20
0.0
 30
0.0
  3
*Paper_Space0
  1

  0
ENDBLK
  5
25
330
23
100
AcDbEntity
  8
0
100
AcDbBlockEnd
  0
BLOCK
  5
D13
330
D12
100
AcDbEntity
  8
0
100
AcDbBlockBegin
  2
*D1
 70
     1
 10
0.0
 20
0.0
 30
0.0
  3
*D1
  1

  0
LINE
  5
D15
330
D12
100
AcDbEntity
  8
0
 62
     0
370
    -2
100
AcDbLine
 10
610.3915997501405
 20
1506.409342648697
 30
0.0
 11
610.3915997501405
 21
1562.302889024978
 31
0.0
  0
LINE
  5
D16
330
D12
100
AcDbEntity
  8
0
 62
     0
370
    -2
100
AcDbLine
 10
1086.197878232278
 20
1506.409342648697
 30
0.0
 11
1086.197878232278
 21
1562.302889024978
 31
0.0
  0
LINE
  5
D17
330
D12
100
AcDbEntity
  8
0
 62
     0
370
    -2
100
AcDbLine
 10
610.5715997501404
 20
1562.122889024978
 30
0.0
 11
847.2297389912089
 21
1562.122889024978
 31
0.0
  0
LINE
  5
D18
330
D12
100
AcDbEntity
  8
0
 62
     0
370
    -2
100
AcDbLine
 10
1086.017878232278
 20
1562.122889024978
 30
0.0
 11
849.359738991209
 21
1562.122889024978
 31
0.0
  0
SOLID
  5
D19
330
D12
100
AcDbEntity
  8
0
 62
     0
100
AcDbTrace
 10
610.5715997501404
 20
1562.152889024978
 30
0.0
 11
610.5715997501404
 21
1562.092889024978
 31
0.0
 12
610.3915997501405
 22
1562.122889024978
 32
0.0
 13
610.3915997501405
 23
1562.122889024978
 33
0.0
  0
SOLID
  5
D1A
330
D12
100
AcDbEntity
  8
0
 62
     0
100
AcDbTrace
 10
1086.017878232278
 20
1562.092889024978
 30
0.0
 11
1086.017878232278
 21
1562.152889024978
 31
0.0
 12
1086.197878232278
 22
1562.122889024978
 32
0.0
 13
1086.197878232278
 23
1562.122889024978
 33
0.0
  0
MTEXT
  5
D1B
330
D12
100
AcDbEntity
  8
0
 62
     0
100
AcDbMText
 10
848.294738991209
 20
1562.122889024978
 30
0.0
 40
0.18
 41
0.0
 46
0.0
 71
     5
 72
     1
  1
\A1;475.80627848
 73
     1
 44
1.0
  0
POINT
  5
D1C
330
D12
100
AcDbEntity
  8
Defpoints
 62
     0
100
AcDbPoint
 10
610.3915997501405
 20
1506.346842648697
 30
0.0
  0
POINT
  5
D1D
330
D12
100
AcDbEntity
  8
Defpoints
 62
     0
100
AcDbPoint
 10
1086.197878232278
 20
1506.346842648697
 30
0.0
  0
POINT
  5
D1E
330
D12
100
AcDbEntity
  8
Defpoints
 62
     0
100
AcDbPoint
 10
1086.197878232278
 20
1562.122889024978
 30
0.0
  0
ENDBLK
  5
D14
330
D12
100
AcDbEntity
  8
0
100
AcDbBlockEnd
  0
BLOCK
  5
D24
330
D23
100
AcDbEntity
  8
0
100
AcDbBlockBegin
  2
*D2
 70
     1
 10
0.0
 20
0.0
 30
0.0
  3
*D2
  1

  0
LINE
  5
D26
330
D23
100
AcDbEntity
  8
0
 62
     0
370
    -2
100
AcDbLine
 10
843.3623046875
 20
339.25927734375
 30
0.0
 11
863.4996634848839
 21
339.25927734375
 31
0.0
  0
LINE
  5
D27
330
D23
100
AcDbEntity
  8
0
 62
     0
370
    -2
100
AcDbLine
 10
843.9358214083087
 20
378.076567593607
 30
0.0
 11
863.4996634848839
 21
378.076567593607
 31
0.0
  0
LINE
  5
D28
330
D23
100
AcDbEntity
  8
0
 62
     0
370
    -2
100
AcDbLine
 10
863.3196634848839
 20
339.43927734375
 30
0.0
 11
863.3196634848839
 21
358.4879224686786
 31
0.0
  0
LINE
  5
D29
330
D23
100
AcDbEntity
  8
0
 62
     0
370
    -2
100
AcDbLine
 10
863.3196634848839
 20
377.896567593607
 30
0.0
 11
863.3196634848839
 21
358.8479224686785
 31
0.0
  0
SOLID
  5
D2A
330
D23
100
AcDbEntity
  8
0
 62
     0
100
AcDbTrace
 10
863.2896634848839
 20
339.43927734375
 30
0.0
 11
863.3496634848839
 21
339.43927734375
 31
0.0
 12
863.3196634848839
 22
339.25927734375
 32
0.0
 13
863.3196634848839
 23
339.25927734375
 33
0.0
  0
SOLID
  5
D2B
330
D23
100
AcDbEntity
  8
0
 62
     0
100
AcDbTrace
 10
863.3496634848839
 20
377.896567593607
 30
0.0
 11
863.2896634848839
 21
377.896567593607
 31
0.0
 12
863.3196634848839
 22
378.076567593607
 32
0.0
 13
863.3196634848839
 23
378.076567593607
 33
0.0
  0
MTEXT
  5
D2C
330
D23
100
AcDbEntity
  8
0
 62
     0
100
AcDbMText
 10
863.3196634848839
 20
358.6679224686785
 30
0.0
 40
0.18
 41
0.0
 46
0.0
 71
     5
 72
     1
  1
\A1;38.8173
 73
     1
 44
1.0
  0
POINT
  5
D2D
330
D23
100
AcDbEntity
  8
Defpoints
 62
     0
100
AcDbPoint
 10
843.2998046875
 20
339.25927734375
 30
0.0
  0
POINT
  5
D2E
330
D23
100
AcDbEntity
  8
Defpoints
 62
     0
100
AcDbPoint
 10
843.8733214083087
 20
378.076567593607
 30
0.0
  0
POINT
  5
D2F
330
D23
100
AcDbEntity
  8
Defpoints
 62
     0
100
AcDbPoint
 10
863.3196634848839
 20
378.076567593607
 30
0.0
  0
ENDBLK
  5
D25
330
D23
100
AcDbEntity
  8
0
100
AcDbBlockEnd
  0
BLOCK
  5
D34
330
D33
100
AcDbEntity
  8
0
100
AcDbBlockBegin
  2
*D3
 70
     1
 10
0.0
 20
0.0
 30
0.0
  3
*D3
  1

  0
LINE
  5
D36
330
D33
100
AcDbEntity
  8
0
 62
     0
370
    -2
100
AcDbLine
 10
832.6413058520931
 20
895.4350590132901
 30
0.0
 11
838.8498828508524
 21
895.4350590132901
 31
0.0
  0
LINE
  5
D37
330
D33
100
AcDbEntity
  8
0
 62
     0
370
    -2
100
AcDbLine
 10
831.2659013685022
 20
909.1302357124756
 30
0.0
 11
838.8498828508524
 21
909.1302357124756
 31
0.0
  0
LINE
  5
D38
330
D33
100
AcDbEntity
  8
0
 62
     0
370
    -2
100
AcDbLine
 10
838.6698828508524
 20
895.6150590132901
 30
0.0
 11
838.6698828508524
 21
902.1026473628829
 31
0.0
  0
LINE
  5
D39
330
D33
100
AcDbEntity
  8
0
 62
     0
370
    -2
100
AcDbLine
 10
838.6698828508524
 20
908.9502357124757
 30
0.0
 11
838.6698828508524
 21
902.462647362883
 31
0.0
  0
SOLID
  5
D3A
330
D33
100
AcDbEntity
  8
0
 62
     0
100
AcDbTrace
 10
838.6398828508525
 20
895.6150590132901
 30
0.0
 11
838.6998828508524
 21
895.6150590132901
 31
0.0
 12
838.6698828508524
 22
895.4350590132901
 32
0.0
 13
838.6698828508524
 23
895.4350590132901
 33
0.0
  0
SOLID
  5
D3B
330
D33
100
AcDbEntity
  8
0
 62
     0
100
AcDbTrace
 10
838.6998828508524
 20
908.9502357124757
 30
0.0
 11
838.6398828508525
 21
908.9502357124757
 31
0.0
 12
838.6698828508524
 22
909.1302357124756
 32
0.0
 13
838.6698828508524
 23
909.1302357124756
 33
0.0
  0
MTEXT
  5
D3C
330
D33
100
AcDbEntity
  8
0
 62
     0
100
AcDbMText
 10
838.6698828508524
 20
902.2826473628829
 30
0.0
 40
0.18
 41
0.0
 46
0.0
 71
     5
 72
     1
  1
\A1;13.6952
 73
     1
 44
1.0
  0
POINT
  5
D3D
330
D33
100
AcDbEntity
  8
Defpoints
 62
     0
100
AcDbPoint
 10
832.5788058520931
 20
895.4350590132901
 30
0.0
  0
POINT
  5
D3E
330
D33
100
AcDbEntity
  8
Defpoints
 62
     0
100
AcDbPoint
 10
831.2034013685022
 20
909.1302357124756
 30
0.0
  0
POINT
  5
D3F
330
D33
100
AcDbEntity
  8
Defpoints
 62
     0
100
AcDbPoint
 10
838.6698828508524
 20
909.1302357124756
 30
0.0
  0
ENDBLK
  5
D35
330
D33
100
AcDbEntity
  8
0
100
AcDbBlockEnd
  0
BLOCK
  5
D46
330
D45
100
AcDbEntity
  8
0
100
AcDbBlockBegin
  2
*D4
 70
     1
 10
0.0
 20
0.0
 30
0.0
  3
*D4
  1

  0
LINE
  5
D48
330
D45
100
AcDbEntity
  8
0
 62
     0
370
    -2
100
AcDbLine
 10
1047.260934129462
 20
909.2242151116754
 30
0.0
 11
1160.586239669282
 21
909.2242151116754
 31
0.0
  0
LINE
  5
D49
330
D45
100
AcDbEntity
  8
0
 62
     0
370
    -2
100
AcDbLine
 10
1033.183279554562
 20
1489.224215111063
 30
0.0
 11
1160.586239669282
 21
1489.224215111063
 31
0.0
  0
LINE
  5
D4A
330
D45
100
AcDbEntity
  8
0
 62
     0
370
    -2
100
AcDbLine
 10
1160.406239669282
 20
909.4042151116754
 30
0.0
 11
1160.406239669282
 21
1199.044215111369
 31
0.0
  0
LINE
  5
D4B
330
D45
100
AcDbEntity
  8
0
 62
     0
370
    -2
100
AcDbLine
 10
1160.406239669282
 20
1489.044215111063
 30
0.0
 11
1160.406239669282
 21
1199.404215111369
 31
0.0
  0
SOLID
  5
D4C
330
D45
100
AcDbEntity
  8
0
 62
     0
100
AcDbTrace
 10
1160.376239669282
 20
909.4042151116754
 30
0.0
 11
1160.436239669282
 21
909.4042151116754
 31
0.0
 12
1160.406239669282
 22
909.2242151116754
 32
0.0
 13
1160.406239669282
 23
909.2242151116754
 33
0.0
  0
SOLID
  5
D4D
330
D45
100
AcDbEntity
  8
0
 62
     0
100
AcDbTrace
 10
1160.436239669282
 20
1489.044215111063
 30
0.0
 11
1160.376239669282
 21
1489.044215111063
 31
0.0
 12
1160.406239669282
 22
1489.224215111063
 32
0.0
 13
1160.406239669282
 23
1489.224215111063
 33
0.0
  0
MTEXT
  5
D4E
330
D45
100
AcDbEntity
  8
0
 62
     0
100
AcDbMText
 10
1160.406239669282
 20
1199.224215111369
 30
0.0
 40
0.18
 41
0.0
 46
0.0
 71
     5
 72
     1
  1
\A1;580.00000000
 73
     1
 44
1.0
  0
POINT
  5
D4F
330
D45
100
AcDbEntity
  8
Defpoints
 62
     0
100
AcDbPoint
 10
1047.198434129462
 20
909.2242151116754
 30
0.0
  0
POINT
  5
D50
330
D45
100
AcDbEntity
  8
Defpoints
 62
     0
100
AcDbPoint
 10
1033.120779554562
 20
1489.224215111063
 30
0.0
  0
POINT
  5
D51
330
D45
100
AcDbEntity
  8
Defpoints
 62
     0
100
AcDbPoint
 10
1160.406239669282
 20
1489.224215111063
 30
0.0
  0
ENDBLK
  5
D47
330
D45
100
AcDbEntity
  8
0
100
AcDbBlockEnd
  0
BLOCK
  5
D56
330
D55
100
AcDbEntity
  8
0
100
AcDbBlockBegin
  2
*D5
 70
     1
 10
0.0
 20
0.0
 30
0.0
  3
*D5
  1

  0
LINE
  5
D58
330
D55
100
AcDbEntity
  8
0
 62
     0
370
    -2
100
AcDbLine
 10
809.1991894508307
 20
909.2238700027906
 30
0.0
 11
813.8751728821602
 21
909.2238700027906
 31
0.0
  0
LINE
  5
D59
330
D55
100
AcDbEntity
  8
0
 62
     0
370
    -2
100
AcDbLine
 10
810.3781075796228
 20
895.5054467219977
 30
0.0
 11
813.8751728821602
 21
895.5054467219977
 31
0.0
  0
LINE
  5
D5A
330
D55
100
AcDbEntity
  8
0
 62
     0
370
    -2
100
AcDbLine
 10
813.6951728821603
 20
909.0438700027906
 30
0.0
 11
813.6951728821603
 21
902.5446583623942
 31
0.0
  0
LINE
  5
D5B
330
D55
100
AcDbEntity
  8
0
 62
     0
370
    -2
100
AcDbLine
 10
813.6951728821603
 20
895.6854467219977
 30
0.0
 11
813.6951728821603
 21
902.1846583623941
 31
0.0
  0
SOLID
  5
D5C
330
D55
100
AcDbEntity
  8
0
 62
     0
100
AcDbTrace
 10
813.7251728821602
 20
909.0438700027906
 30
0.0
 11
813.6651728821603
 21
909.0438700027906
 31
0.0
 12
813.6951728821603
 22
909.2238700027906
 32
0.0
 13
813.6951728821603
 23
909.2238700027906
 33
0.0
  0
SOLID
  5
D5D
330
D55
100
AcDbEntity
  8
0
 62
     0
100
AcDbTrace
 10
813.6651728821603
 20
895.6854467219977
 30
0.0
 11
813.7251728821602
 21
895.6854467219977
 31
0.0
 12
813.6951728821603
 22
895.5054467219977
 32
0.0
 13
813.6951728821603
 23
895.5054467219977
 33
0.0
  0
MTEXT
  5
D5E
330
D55
100
AcDbEntity
  8
0
 62
     0
100
AcDbMText
 10
813.6951728821603
 20
902.3646583623942
 30
0.0
 40
0.18
 41
0.0
 46
0.0
 71
     5
 72
     1
  1
\A1;13.7184
 73
     1
 44
1.0
  0
POINT
  5
D5F
330
D55
100
AcDbEntity
  8
Defpoints
 62
     0
100
AcDbPoint
 10
809.1366894508307
 20
909.2238700027906
 30
0.0
  0
POINT
  5
D60
330
D55
100
AcDbEntity
  8
Defpoints
 62
     0
100
AcDbPoint
 10
810.3156075796228
 20
895.5054467219977
 30
0.0
  0
POINT
  5
D61
330
D55
100
AcDbEntity
  8
Defpoints
 62
     0
100
AcDbPoint
 10
813.6951728821603
 20
895.5054467219977
 30
0.0
  0
ENDBLK
  5
D57
330
D55
100
AcDbEntity
  8
0
100
AcDbBlockEnd
  0
BLOCK
  5
D66
330
D65
100
AcDbEntity
  8
0
100
AcDbBlockBegin
  2
*D6
 70
     1
 10
0.0
 20
0.0
 30
0.0
  3
*D6
  1

  0
LINE
  5
D68
330
D65
100
AcDbEntity
  8
0
 62
     0
370
    -2
100
AcDbLine
 10
1086.197878232278
 20
1555.061898772005
 30
0.0
 11
1086.197878232278
 21
1575.710687798821
 31
0.0
  0
LINE
  5
D69
330
D65
100
AcDbEntity
  8
0
 62
     0
370
    -2
100
AcDbLine
 10
610.3915997501405
 20
1547.386650537681
 30
0.0
 11
610.3915997501405
 21
1575.710687798821
 31
0.0
  0
LINE
  5
D6A
330
D65
100
AcDbEntity
  8
0
 62
     0
370
    -2
100
AcDbLine
 10
1086.017878232278
 20
1575.530687798821
 30
0.0
 11
848.999738991209
 21
1575.530687798821
 31
0.0
  0
LINE
  5
D6B
330
D65
100
AcDbEntity
  8
0
 62
     0
370
    -2
100
AcDbLine
 10
610.5715997501404
 20
1575.530687798821
 30
0.0
 11
847.589738991209
 21
1575.530687798821
 31
0.0
  0
SOLID
  5
D6C
330
D65
100
AcDbEntity
  8
0
 62
     0
100
AcDbTrace
 10
1086.017878232278
 20
1575.500687798821
 30
0.0
 11
1086.017878232278
 21
1575.560687798821
 31
0.0
 12
1086.197878232278
 22
1575.530687798821
 32
0.0
 13
1086.197878232278
 23
1575.530687798821
 33
0.0
  0
SOLID
  5
D6D
330
D65
100
AcDbEntity
  8
0
 62
     0
100
AcDbTrace
 10
610.5715997501404
 20
1575.560687798821
 30
0.0
 11
610.5715997501404
 21
1575.500687798821
 31
0.0
 12
610.3915997501405
 22
1575.530687798821
 32
0.0
 13
610.3915997501405
 23
1575.530687798821
 33
0.0
  0
MTEXT
  5
D6E
330
D65
100
AcDbEntity
  8
0
 62
     0
100
AcDbMText
 10
848.294738991209
 20
1575.530687798821
 30
0.0
 40
0.18
 41
0.0
 46
0.0
 71
     5
 72
     1
  1
\A1;475.8063
 73
     1
 44
1.0
  0
POINT
  5
D6F
330
D65
100
AcDbEntity
  8
Defpoints
 62
     0
100
AcDbPoint
 10
1086.197878232278
 20
1554.999398772005
 30
0.0
  0
POINT
  5
D70
330
D65
100
AcDbEntity
  8
Defpoints
 62
     0
100
AcDbPoint
 10
610.3915997501405
 20
1547.324150537681
 30
0.0
  0
POINT
  5
D71
330
D65
100
AcDbEntity
  8
Defpoints
 62
     0
100
AcDbPoint
 10
610.3915997501405
 20
1575.530687798821
 30
0.0
  0
ENDBLK
  5
D67
330
D65
100
AcDbEntity
  8
0
100
AcDbBlockEnd
  0
BLOCK
  5
D79
330
D78
100
AcDbEntity
  8
0
100
AcDbBlockBegin
  2
*D7
 70
     1
 10
0.0
 20
0.0
 30
0.0
  3
*D7
  1

  0
LINE
  5
D7B
330
D78
100
AcDbEntity
  8
0
 62
     0
370
    -2
100
AcDbLine
 10
594.5689911304456
 20
947.3994542652068
 30
0.0
 11
599.9056599297858
 21
947.3994542652068
 31
0.0
  0
LINE
  5
D7C
330
D78
100
AcDbEntity
  8
0
 62
     0
370
    -2
100
AcDbLine
 10
594.5689911304456
 20
937.3994542652068
 30
0.0
 11
599.9056599297858
 21
937.3994542652068
 31
0.0
  0
LINE
  5
D7D
330
D78
100
AcDbEntity
  8
0
 62
     0
370
    -2
100
AcDbLine
 10
599.7256599297858
 20
947.2194542652069
 30
0.0
 11
599.7256599297858
 21
942.5794542652069
 31
0.0
  0
LINE
  5
D7E
330
D78
100
AcDbEntity
  8
0
 62
     0
370
    -2
100
AcDbLine
 10
599.7256599297858
 20
937.5794542652068
 30
0.0
 11
599.7256599297858
 21
942.2194542652068
 31
0.0
  0
SOLID
  5
D7F
330
D78
100
AcDbEntity
  8
0
 62
     0
100
AcDbTrace
 10
599.7556599297858
 20
947.2194542652069
 30
0.0
 11
599.6956599297858
 21
947.2194542652069
 31
0.0
 12
599.7256599297858
 22
947.3994542652068
 32
0.0
 13
599.7256599297858
 23
947.3994542652068
 33
0.0
  0
SOLID
  5
D80
330
D78
100
AcDbEntity
  8
0
 62
     0
100
AcDbTrace
 10
599.6956599297858
 20
937.5794542652068
 30
0.0
 11
599.7556599297858
 21
937.5794542652068
 31
0.0
 12
599.7256599297858
 22
937.3994542652068
 32
0.0
 13
599.7256599297858
 23
937.3994542652068
 33
0.0
  0
MTEXT
  5
D81
330
D78
100
AcDbEntity
  8
0
 62
     0
100
AcDbMText
 10
599.7256599297858
 20
942.3994542652068
 30
0.0
 40
0.18
 41
0.0
 46
0.0
 71
     5
 72
     1
  1
\A1;10.0000
 73
     1
 44
1.0
  0
POINT
  5
D82
330
D78
100
AcDbEntity
  8
Defpoints
 62
     0
100
AcDbPoint
 10
594.5064911304456
 20
947.3994542652068
 30
0.0
  0
POINT
  5
D83
330
D78
100
AcDbEntity
  8
Defpoints
 62
     0
100
AcDbPoint
 10
594.5064911304456
 20
937.3994542652068
 30
0.0
  0
POINT
  5
D84
330
D78
100
AcDbEntity
  8
Defpoints
 62
     0
100
AcDbPoint
 10
599.7256599297858
 20
937.3994542652068
 30
0.0
  0
ENDBLK
  5
D7A
330
D78
100
AcDbEntity
  8
0
100
AcDbBlockEnd
  0
BLOCK
  5
E0B
330
E0A
100
AcDbEntity
  8
0
100
AcDbBlockBegin
  2
*D8
 70
     1
 10
0.0
 20
0.0
 30
0.0
  3
*D8
  1

  0
LINE
  5
E0D
330
E0A
100
AcDbEntity
  8
0
 62
     0
370
    -2
100
AcDbLine
 10
1132.58099868097
 20
1006.654209535062
 30
0.0
 11
1132.58099868097
 21
1009.783495004158
 31
0.0
  0
LINE
  5
E0E
330
E0A
100
AcDbEntity
  8
0
 62
     0
370
    -2
100
AcDbLine
 10
1142.58099868097
 20
1006.654209535062
 30
0.0
 11
1142.58099868097
 21
1009.783495004158
 31
0.0
  0
LINE
  5
E0F
330
E0A
100
AcDbEntity
  8
0
 62
     0
370
    -2
100
AcDbLine
 10
1132.76099868097
 20
1009.603495004159
 30
0.0
 11
1137.05599868097
 21
1009.603495004159
 31
0.0
  0
LINE
  5
E10
330
E0A
100
AcDbEntity
  8
0
 62
     0
370
    -2
100
AcDbLine
 10
1142.400998680969
 20
1009.603495004159
 30
0.0
 11
1138.105998680969
 21
1009.603495004159
 31
0.0
  0
SOLID
  5
E11
330
E0A
100
AcDbEntity
  8
0
 62
     0
100
AcDbTrace
 10
1132.76099868097
 20
1009.633495004158
 30
0.0
 11
1132.76099868097
 21
1009.573495004159
 31
0.0
 12
1132.58099868097
 22
1009.603495004159
 32
0.0
 13
1132.58099868097
 23
1009.603495004159
 33
0.0
  0
SOLID
  5
E12
330
E0A
100
AcDbEntity
  8
0
 62
     0
100
AcDbTrace
 10
1142.400998680969
 20
1009.573495004159
 30
0.0
 11
1142.400998680969
 21
1009.633495004158
 31
0.0
 12
1142.58099868097
 22
1009.603495004159
 32
0.0
 13
1142.58099868097
 23
1009.603495004159
 33
0.0
  0
MTEXT
  5
E13
330
E0A
100
AcDbEntity
  8
0
 62
     0
100
AcDbMText
 10
1137.58099868097
 20
1009.603495004159
 30
0.0
 40
0.18
 41
0.0
 46
0.0
 71
     5
 72
     1
  1
\A1;10.0000
 73
     1
 44
1.0
  0
POINT
  5
E14
330
E0A
100
AcDbEntity
  8
Defpoints
 62
     0
100
AcDbPoint
 10
1132.58099868097
 20
1006.591709535062
 30
0.0
  0
POINT
  5
E15
330
E0A
100
AcDbEntity
  8
Defpoints
 62
     0
100
AcDbPoint
 10
1142.58099868097
 20
1006.591709535062
 30
0.0
  0
POINT
  5
E16
330
E0A
100
AcDbEntity
  8
Defpoints
 62
     0
100
AcDbPoint
 10
1142.58099868097
 20
1009.603495004159
 30
0.0
  0
ENDBLK
  5
E0C
330
E0A
100
AcDbEntity
  8
0
100
AcDbBlockEnd
  0
BLOCK
  5
E35
330
E34
100
AcDbEntity
  8
0
100
AcDbBlockBegin
  2
*D9
 70
     1
 10
0.0
 20
0.0
 30
0.0
  3
*D9
  1

  0
LINE
  5
E37
330
E34
100
AcDbEntity
  8
0
 62
     0
370
    -2
100
AcDbLine
 10
554.6743949136294
 20
991.8939000106666
 30
0.0
 11
416.6904281046119
 21
991.8939000106666
 31
0.0
  0
LINE
  5
E38
330
E34
100
AcDbEntity
  8
0
 62
     0
370
    -2
100
AcDbLine
 10
554.6743949136278
 20
1571.533606334293
 30
0.0
 11
416.690428104612
 21
1571.533606334293
 31
0.0
  0
LINE
  5
E39
330
E34
100
AcDbEntity
  8
0
 62
     0
370
    -2
100
AcDbLine
 10
416.8704281046119
 20
992.0739000106665
 30
0.0
 11
416.8704281046119
 21
1281.53375317248
 31
0.0
  0
LINE
  5
E3A
330
E34
100
AcDbEntity
  8
0
 62
     0
370
    -2
100
AcDbLine
 10
416.870428104612
 20
1571.353606334293
 30
0.0
 11
416.870428104612
 21
1281.89375317248
 31
0.0
  0
SOLID
  5
E3B
330
E34
100
AcDbEntity
  8
0
 62
     0
100
AcDbTrace
 10
416.8404281046119
 20
992.0739000106665
 30
0.0
 11
416.9004281046119
 21
992.0739000106665
 31
0.0
 12
416.8704281046119
 22
991.8939000106666
 32
0.0
 13
416.8704281046119
 23
991.8939000106666
 33
0.0
  0
SOLID
  5
E3C
330
E34
100
AcDbEntity
  8
0
 62
     0
100
AcDbTrace
 10
416.9004281046119
 20
1571.353606334293
 30
0.0
 11
416.840428104612
 21
1571.353606334293
 31
0.0
 12
416.870428104612
 22
1571.533606334293
 32
0.0
 13
416.870428104612
 23
1571.533606334293
 33
0.0
  0
MTEXT
  5
E3D
330
E34
100
AcDbEntity
  8
0
 62
     0
100
AcDbMText
 10
416.870428104612
 20
1281.71375317248
 30
0.0
 40
0.18
 41
0.0
 46
0.0
 71
     5
 72
     1
  1
\A1;579.6397
 73
     1
 44
1.0
  0
POINT
  5
E3E
330
E34
100
AcDbEntity
  8
Defpoints
 62
     0
100
AcDbPoint
 10
554.7368949136294
 20
991.8939000106666
 30
0.0
  0
POINT
  5
E3F
330
E34
100
AcDbEntity
  8
Defpoints
 62
     0
100
AcDbPoint
 10
554.7368949136278
 20
1571.533606334293
 30
0.0
  0
POINT
  5
E40
330
E34
100
AcDbEntity
  8
Defpoints
 62
     0
100
AcDbPoint
 10
416.870428104612
 20
1571.533606334293
 30
0.0
  0
ENDBLK
  5
E36
330
E34
100
AcDbEntity
  8
0
100
AcDbBlockEnd
  0
BLOCK
  5
E45
330
E44
100
AcDbEntity
  8
0
100
AcDbBlockBegin
  2
*D10
 70
     1
 10
0.0
 20
0.0
 30
0.0
  3
*D10
  1

  0
LINE
  5
E47
330
E44
100
AcDbEntity
  8
0
 62
     0
370
    -2
100
AcDbLine
 10
-0.0625
 20
0.0
 30
0.0
 11
-37.70111315784506
 21
0.0
 31
0.0
  0
LINE
  5
E48
330
E44
100
AcDbEntity
  8
0
 62
     0
370
    -2
100
AcDbLine
 10
-0.0624999999992042
 20
420.0000000000001
 30
0.0
 11
-37.70111315784503
 21
420.0000000000001
 31
0.0
  0
LINE
  5
E49
330
E44
100
AcDbEntity
  8
0
 62
     0
370
    -2
100
AcDbLine
 10
-37.52111315784506
 20
0.18
 30
0.0
 11
-37.52111315784504
 21
209.82
 31
0.0
  0
LINE
  5
E4A
330
E44
100
AcDbEntity
  8
0
 62
     0
370
    -2
100
AcDbLine
 10
-37.52111315784503
 20
419.8200000000001
 30
0.0
 11
-37.52111315784504
 21
210.18
 31
0.0
  0
SOLID
  5
E4B
330
E44
100
AcDbEntity
  8
0
 62
     0
100
AcDbTrace
 10
-37.55111315784506
 20
0.18
 30
0.0
 11
-37.49111315784506
 21
0.18
 31
0.0
 12
-37.52111315784506
 22
0.0
 32
0.0
 13
-37.52111315784506
 23
0.0
 33
0.0
  0
SOLID
  5
E4C
330
E44
100
AcDbEntity
  8
0
 62
     0
100
AcDbTrace
 10
-37.49111315784503
 20
419.8200000000001
 30
0.0
 11
-37.55111315784503
 21
419.8200000000001
 31
0.0
 12
-37.52111315784503
 22
420.0000000000001
 32
0.0
 13
-37.52111315784503
 23
420.0000000000001
 33
0.0
  0
MTEXT
  5
E4D
330
E44
100
AcDbEntity
  8
0
 62
     0
100
AcDbMText
 10
-37.52111315784504
 20
210.0
 30
0.0
 40
0.18
 41
0.0
 46
0.0
 71
     5
 72
     1
  1
\A1;420.0000
 73
     1
 44
1.0
  0
POINT
  5
E4E
330
E44
100
AcDbEntity
  8
Defpoints
 62
     0
100
AcDbPoint
 10
0.0
 20
0.0
 30
0.0
  0
POINT
  5
E4F
330
E44
100
AcDbEntity
  8
Defpoints
 62
     0
100
AcDbPoint
 10
0.0000000000007958
 20
420.0000000000001
 30
0.0
  0
POINT
  5
E50
330
E44
100
AcDbEntity
  8
Defpoints
 62
     0
100
AcDbPoint
 10
-37.52111315784503
 20
420.0000000000001
 30
0.0
  0
ENDBLK
  5
E46
330
E44
100
AcDbEntity
  8
0
100
AcDbBlockEnd
  0
BLOCK
  5
F84
330
F83
100
AcDbEntity
  8
0
100
AcDbBlockBegin
  2
_None
 70
     0
 10
0.0
 20
0.0
 30
0.0
  3
_None
  1

  0
ENDBLK
  5
F85
330
F83
100
AcDbEntity
  8
0
100
AcDbBlockEnd
  0
BLOCK
  5
FBE
330
FBD
100
AcDbEntity
  8
0
 48
0.5
100
AcDbBlockBegin
  2
*D12
 70
     1
 10
0.0
 20
0.0
 30
0.0
  3
*D12
  1

  0
LINE
  5
FBF
330
FBD
100
AcDbEntity
  8
Quote
 62
     0
 48
0.5
370
    -2
100
AcDbLine
 10
77.83464294401529
 20
49.95184701329475
 30
0.0
 11
77.83464294401529
 21
17.44225319006046
 31
0.0
  0
LINE
  5
FC0
330
FBD
100
AcDbEntity
  8
Quote
 62
     0
 48
0.5
370
    -2
100
AcDbLine
 10
677.8130517574918
 20
46.13251107579475
 30
0.0
 11
677.8130517574918
 21
17.44225319006046
 31
0.0
  0
LINE
  5
FC1
330
FBD
100
AcDbEntity
  8
Quote
 62
     0
 48
0.5
370
    -2
100
AcDbLine
 10
78.01464294401529
 20
17.62225319006046
 30
0.0
 11
377.1038473507536
 21
17.62225319006046
 31
0.0
  0
LINE
  5
FC2
330
FBD
100
AcDbEntity
  8
Quote
 62
     0
 48
0.5
370
    -2
100
AcDbLine
 10
677.6330517574919
 20
17.62225319006046
 30
0.0
 11
378.5438473507535
 21
17.62225319006046
 31
0.0
  0
SOLID
  5
FC3
330
FBD
100
AcDbEntity
  8
Quote
 62
     0
100
AcDbTrace
 10
78.01464294401529
 20
17.65225319006046
 30
0.0
 11
78.01464294401529
 21
17.59225319006046
 31
0.0
 12
77.83464294401529
 22
17.62225319006046
 32
0.0
 13
77.83464294401529
 23
17.62225319006046
 33
0.0
  0
SOLID
  5
FC4
330
FBD
100
AcDbEntity
  8
Quote
 62
     0
100
AcDbTrace
 10
677.6330517574919
 20
17.59225319006046
 30
0.0
 11
677.6330517574919
 21
17.65225319006046
 31
0.0
 12
677.8130517574918
 22
17.62225319006046
 32
0.0
 13
677.8130517574918
 23
17.62225319006046
 33
0.0
  0
MTEXT
  5
FC5
330
FBD
100
AcDbEntity
  8
Quote
 62
     0
100
AcDbMText
 10
377.8238473507536
 20
17.62225319006046
 30
0.0
 40
0.18
 41
0.0
 46
0.0
 71
     5
 72
     1
  1
\A1;599.9784
 73
     1
 44
1.0
  0
POINT
  5
FFB
330
FBD
100
AcDbEntity
  8
Defpoints
 62
     0
100
AcDbPoint
 10
77.83464294401529
 20
50.01434701329475
 30
0.0
  0
POINT
  5
FFC
330
FBD
100
AcDbEntity
  8
Defpoints
 62
     0
100
AcDbPoint
 10
677.8130517574918
 20
46.19501107579475
 30
0.0
  0
POINT
  5
FFD
330
FBD
100
AcDbEntity
  8
Defpoints
 62
     0
100
AcDbPoint
 10
677.8130517574918
 20
17.62225319006046
 30
0.0
  0
ENDBLK
  5
FC6
330
FBD
100
AcDbEntity
  8
0
 48
0.5
100
AcDbBlockEnd
  0
BLOCK
  5
FC9
330
FC8
100
AcDbEntity
  8
0
 48
0.5
100
AcDbBlockBegin
  2
*D13
 70
     1
 10
0.0
 20
0.0
 30
0.0
  3
*D13
  1

  0
LINE
  5
FCA
330
FC8
100
AcDbEntity
  8
Quote
 62
     0
 48
0.5
370
    -2
100
AcDbLine
 10
734.3231370961021
 20
83.25544841520554
 30
0.0
 11
758.1351137639173
 21
83.25544841520554
 31
0.0
  0
LINE
  5
FCB
330
FC8
100
AcDbEntity
  8
Quote
 62
     0
 48
0.5
370
    -2
100
AcDbLine
 10
736.2433183705161
 20
483.2517863058305
 30
0.0
 11
758.1351137639173
 21
483.2517863058305
 31
0.0
  0
LINE
  5
FCC
330
FC8
100
AcDbEntity
  8
Quote
 62
     0
 48
0.5
370
    -2
100
AcDbLine
 10
757.9551137639173
 20
83.43544841520554
 30
0.0
 11
757.9551137639173
 21
283.0736173605181
 31
0.0
  0
LINE
  5
FCD
330
FC8
100
AcDbEntity
  8
Quote
 62
     0
 48
0.5
370
    -2
100
AcDbLine
 10
757.9551137639173
 20
483.0717863058305
 30
0.0
 11
757.9551137639173
 21
283.4336173605179
 31
0.0
  0
SOLID
  5
FCE
330
FC8
100
AcDbEntity
  8
Quote
 62
     0
100
AcDbTrace
 10
757.9251137639174
 20
83.43544841520554
 30
0.0
 11
757.9851137639173
 21
83.43544841520554
 31
0.0
 12
757.9551137639173
 22
83.25544841520554
 32
0.0
 13
757.9551137639173
 23
83.25544841520554
 33
0.0
  0
SOLID
  5
FCF
330
FC8
100
AcDbEntity
  8
Quote
 62
     0
100
AcDbTrace
 10
757.9851137639173
 20
483.0717863058305
 30
0.0
 11
757.9251137639174
 21
483.0717863058305
 31
0.0
 12
757.9551137639173
 22
483.2517863058305
 32
0.0
 13
757.9551137639173
 23
483.2517863058305
 33
0.0
  0
MTEXT
  5
FD0
330
FC8
100
AcDbEntity
  8
Quote
 62
     0
100
AcDbMText
 10
757.9551137639173
 20
283.253617360518
 30
0.0
 40
0.18
 41
0.0
 46
0.0
 71
     5
 72
     1
  1
\A1;399.9963
 73
     1
 44
1.0
  0
POINT
  5
FFE
330
FC8
100
AcDbEntity
  8
Defpoints
 62
     0
100
AcDbPoint
 10
734.2606370961021
 20
83.25544841520554
 30
0.0
  0
POINT
  5
FFF
330
FC8
100
AcDbEntity
  8
Defpoints
 62
     0
100
AcDbPoint
 10
736.1808183705161
 20
483.2517863058305
 30
0.0
  0
POINT
  5
1000
330
FC8
100
AcDbEntity
  8
Defpoints
 62
     0
100
AcDbPoint
 10
757.9551137639173
 20
483.2517863058305
 30
0.0
  0
ENDBLK
  5
FD1
330
FC8
100
AcDbEntity
  8
0
 48
0.5
100
AcDbBlockEnd
  0
BLOCK
  5
FD4
330
FD3
100
AcDbEntity
  8
0
 48
0.5
100
AcDbBlockBegin
  2
*D14
 70
     1
 10
0.0
 20
0.0
 30
0.0
  3
*D14
  1

  0
LINE
  5
FD5
330
FD3
100
AcDbEntity
  8
Quote
 62
     0
 48
0.5
370
    -2
100
AcDbLine
 10
38.7560805238445
 20
378.1089335226276
 30
0.0
 11
17.44225319006028
 21
378.1089335226276
 31
0.0
  0
LINE
  5
FD6
330
FD3
100
AcDbEntity
  8
Quote
 62
     0
 48
0.5
370
    -2
100
AcDbLine
 10
38.75614155900075
 20
483.2474833273149
 30
0.0
 11
17.44225319006029
 21
483.2474833273149
 31
0.0
  0
LINE
  5
FD7
330
FD3
100
AcDbEntity
  8
Quote
 62
     0
 48
0.5
370
    -2
100
AcDbLine
 10
17.62225319006028
 20
378.2889335226276
 30
0.0
 11
17.62225319006029
 21
430.4982084249713
 31
0.0
  0
LINE
  5
FD8
330
FD3
100
AcDbEntity
  8
Quote
 62
     0
 48
0.5
370
    -2
100
AcDbLine
 10
17.62225319006029
 20
483.0674833273149
 30
0.0
 11
17.62225319006029
 21
430.8582084249712
 31
0.0
  0
SOLID
  5
FD9
330
FD3
100
AcDbEntity
  8
Quote
 62
     0
100
AcDbTrace
 10
17.59225319006028
 20
378.2889335226276
 30
0.0
 11
17.65225319006029
 21
378.2889335226276
 31
0.0
 12
17.62225319006028
 22
378.1089335226276
 32
0.0
 13
17.62225319006028
 23
378.1089335226276
 33
0.0
  0
SOLID
  5
FDA
330
FD3
100
AcDbEntity
  8
Quote
 62
     0
100
AcDbTrace
 10
17.65225319006029
 20
483.0674833273149
 30
0.0
 11
17.59225319006029
 21
483.0674833273149
 31
0.0
 12
17.62225319006029
 22
483.2474833273149
 32
0.0
 13
17.62225319006029
 23
483.2474833273149
 33
0.0
  0
MTEXT
  5
FDB
330
FD3
100
AcDbEntity
  8
Quote
 62
     0
100
AcDbMText
 10
17.62225319006029
 20
430.6782084249713
 30
0.0
 40
0.18
 41
0.0
 46
0.0
 71
     5
 72
     1
  1
\A1;105.1385
 73
     1
 44
1.0
  0
POINT
  5
1001
330
FD3
100
AcDbEntity
  8
Defpoints
 62
     0
100
AcDbPoint
 10
38.8185805238445
 20
378.1089335226276
 30
0.0
  0
POINT
  5
1002
330
FD3
100
AcDbEntity
  8
Defpoints
 62
     0
100
AcDbPoint
 10
38.81864155900075
 20
483.2474833273149
 30
0.0
  0
POINT
  5
1003
330
FD3
100
AcDbEntity
  8
Defpoints
 62
     0
100
AcDbPoint
 10
17.62225319006029
 20
483.2474833273149
 30
0.0
  0
ENDBLK
  5
FDC
330
FD3
100
AcDbEntity
  8
0
 48
0.5
100
AcDbBlockEnd
  0
BLOCK
  5
FE3
330
FE2
100
AcDbEntity
  8
0
 48
0.5
100
AcDbBlockBegin
  2
*D15
 70
     1
 10
0.0
 20
0.0
 30
0.0
  3
*D15
  1

  0
LINE
  5
FE4
330
FE2
100
AcDbEntity
  8
Quote
 62
     0
 48
0.5
370
    -2
100
AcDbLine
 10
100.7688470455778
 20
83.28017495025182
 30
0.0
 11
100.7688470455778
 21
50.77058112701753
 31
0.0
  0
LINE
  5
FE5
330
FE2
100
AcDbEntity
  8
Quote
 62
     0
 48
0.5
370
    -2
100
AcDbLine
 10
654.6364207294719
 20
83.28017495025182
 30
0.0
 11
654.6364207294719
 21
50.77058112701753
 31
0.0
  0
LINE
  5
FE6
330
FE2
100
AcDbEntity
  8
Quote
 62
     0
 48
0.5
370
    -2
100
AcDbLine
 10
100.9488470455778
 20
50.95058112701753
 30
0.0
 11
377.3726338875248
 21
50.95058112701753
 31
0.0
  0
LINE
  5
FE7
330
FE2
100
AcDbEntity
  8
Quote
 62
     0
 48
0.5
370
    -2
100
AcDbLine
 10
654.4564207294719
 20
50.95058112701753
 30
0.0
 11
378.0326338875248
 21
50.95058112701753
 31
0.0
  0
SOLID
  5
FE8
330
FE2
100
AcDbEntity
  8
Quote
 62
     0
100
AcDbTrace
 10
100.9488470455778
 20
50.98058112701753
 30
0.0
 11
100.9488470455778
 21
50.92058112701753
 31
0.0
 12
100.7688470455778
 22
50.95058112701753
 32
0.0
 13
100.7688470455778
 23
50.95058112701753
 33
0.0
  0
SOLID
  5
FE9
330
FE2
100
AcDbEntity
  8
Quote
 62
     0
100
AcDbTrace
 10
654.4564207294719
 20
50.92058112701753
 30
0.0
 11
654.4564207294719
 21
50.98058112701753
 31
0.0
 12
654.6364207294719
 22
50.95058112701753
 32
0.0
 13
654.6364207294719
 23
50.95058112701753
 33
0.0
  0
MTEXT
  5
FEA
330
FE2
100
AcDbEntity
  8
Quote
 62
     0
100
AcDbMText
 10
377.7026338875248
 20
50.95058112701753
 30
0.0
 40
0.18
 41
0.0
 46
0.0
 71
     5
 72
     1
  1
\A1;555
 73
     1
 44
1.0
  0
POINT
  5
1004
330
FE2
100
AcDbEntity
  8
Defpoints
 62
     0
100
AcDbPoint
 10
100.7688470455778
 20
83.34267495025182
 30
0.0
  0
POINT
  5
1005
330
FE2
100
AcDbEntity
  8
Defpoints
 62
     0
100
AcDbPoint
 10
654.6364207294719
 20
83.34267495025182
 30
0.0
  0
POINT
  5
1006
330
FE2
100
AcDbEntity
  8
Defpoints
 62
     0
100
AcDbPoint
 10
654.6364207294719
 20
50.95058112701753
 30
0.0
  0
ENDBLK
  5
FEB
330
FE2
100
AcDbEntity
  8
0
 48
0.5
100
AcDbBlockEnd
  0
BLOCK
  5
FEE
330
FED
100
AcDbEntity
  8
0
 48
0.5
100
AcDbBlockBegin
  2
*D16
 70
     1
 10
0.0
 20
0.0
 30
0.0
  3
*D16
  1

  0
LINE
  5
FEF
330
FED
100
AcDbEntity
  8
Quote
 62
     0
 48
0.5
370
    -2
100
AcDbLine
 10
702.3349953191118
 20
106.2080240987993
 30
0.0
 11
726.146971986927
 21
106.2080240987993
 31
0.0
  0
LINE
  5
FF0
330
FED
100
AcDbEntity
  8
Quote
 62
     0
 48
0.5
370
    -2
100
AcDbLine
 10
704.2551765935277
 20
457.697426621976
 30
0.0
 11
726.146971986927
 21
457.697426621976
 31
0.0
  0
LINE
  5
FF1
330
FED
100
AcDbEntity
  8
Quote
 62
     0
 48
0.5
370
    -2
100
AcDbLine
 10
725.9669719869271
 20
106.3880240987993
 30
0.0
 11
725.9669719869271
 21
281.7727253603877
 31
0.0
  0
LINE
  5
FF2
330
FED
100
AcDbEntity
  8
Quote
 62
     0
 48
0.5
370
    -2
100
AcDbLine
 10
725.9669719869271
 20
457.517426621976
 30
0.0
 11
725.9669719869271
 21
282.1327253603876
 31
0.0
  0
SOLID
  5
FF3
330
FED
100
AcDbEntity
  8
Quote
 62
     0
100
AcDbTrace
 10
725.9369719869271
 20
106.3880240987993
 30
0.0
 11
725.9969719869271
 21
106.3880240987993
 31
0.0
 12
725.9669719869271
 22
106.2080240987993
 32
0.0
 13
725.9669719869271
 23
106.2080240987993
 33
0.0
  0
SOLID
  5
FF4
330
FED
100
AcDbEntity
  8
Quote
 62
     0
100
AcDbTrace
 10
725.9969719869271
 20
457.517426621976
 30
0.0
 11
725.9369719869271
 21
457.517426621976
 31
0.0
 12
725.9669719869271
 22
457.697426621976
 32
0.0
 13
725.9669719869271
 23
457.697426621976
 33
0.0
  0
MTEXT
  5
FF5
330
FED
100
AcDbEntity
  8
Quote
 62
     0
100
AcDbMText
 10
725.9669719869271
 20
281.9527253603877
 30
0.0
 40
0.18
 41
0.0
 46
0.0
 71
     5
 72
     1
  1
\A1;350
 73
     1
 44
1.0
  0
POINT
  5
1007
330
FED
100
AcDbEntity
  8
Defpoints
 62
     0
100
AcDbPoint
 10
702.2724953191118
 20
106.2080240987993
 30
0.0
  0
POINT
  5
1008
330
FED
100
AcDbEntity
  8
Defpoints
 62
     0
100
AcDbPoint
 10
704.1926765935277
 20
457.697426621976
 30
0.0
  0
POINT
  5
1009
330
FED
100
AcDbEntity
  8
Defpoints
 62
     0
100
AcDbPoint
 10
725.9669719869271
 20
457.697426621976
 30
0.0
  0
ENDBLK
  5
FF6
330
FED
100
AcDbEntity
  8
0
 48
0.5
100
AcDbBlockEnd
  0
BLOCK
  5
1025
330
1024
100
AcDbEntity
  8
0
100
AcDbBlockBegin
  2
*D17
 70
     1
 10
0.0
 20
0.0
 30
0.0
  3
*D17
  1

  0
LINE
  5
1027
330
1024
100
AcDbEntity
  8
Quote
 62
     0
 48
0.5
370
    -2
100
AcDbLine
 10
120.0181274414061
 20
63.70147977484692
 30
0.0
 11
120.0181274414061
 21
31.19188595161263
 31
0.0
  0
LINE
  5
1028
330
1024
100
AcDbEntity
  8
Quote
 62
     0
 48
0.5
370
    -2
100
AcDbLine
 10
719.9965362548827
 20
59.88214383734692
 30
0.0
 11
719.9965362548827
 21
31.19188595161263
 31
0.0
  0
LINE
  5
1029
330
1024
100
AcDbEntity
  8
Quote
 62
     0
 48
0.5
370
    -2
100
AcDbLine
 10
120.1981274414061
 20
31.37188595161263
 30
0.0
 11
719.8165362548827
 21
31.37188595161263
 31
0.0
  0
SOLID
  5
102A
330
1024
100
AcDbEntity
  8
Quote
 62
     0
100
AcDbTrace
 10
120.1981274414061
 20
31.40188595161263
 30
0.0
 11
120.1981274414061
 21
31.34188595161262
 31
0.0
 12
120.0181274414061
 22
31.37188595161263
 32
0.0
 13
120.0181274414061
 23
31.37188595161263
 33
0.0
  0
SOLID
  5
102B
330
1024
100
AcDbEntity
  8
Quote
 62
     0
100
AcDbTrace
 10
719.8165362548827
 20
31.34188595161262
 30
0.0
 11
719.8165362548827
 21
31.40188595161263
 31
0.0
 12
719.9965362548827
 22
31.37188595161263
 32
0.0
 13
719.9965362548827
 23
31.37188595161263
 33
0.0
  0
MTEXT
  5
102C
330
1024
100
AcDbEntity
  8
Quote
 62
     0
100
AcDbMText
 10
420.0073318481444
 20
38.87188595161263
 30
0.0
 40
5.0
 41
0.0
 46
0.0
 71
     5
 72
     1
  1
\A1;600
 73
     1
 44
1.0
  0
POINT
  5
102D
330
1024
100
AcDbEntity
  8
Defpoints
 62
     0
100
AcDbPoint
 10
120.0181274414061
 20
63.76397977484692
 30
0.0
  0
POINT
  5
102E
330
1024
100
AcDbEntity
  8
Defpoints
 62
     0
100
AcDbPoint
 10
719.9965362548827
 20
59.94464383734692
 30
0.0
  0
POINT
  5
102F
330
1024
100
AcDbEntity
  8
Defpoints
 62
     0
100
AcDbPoint
 10
719.9965362548827
 20
31.37188595161263
 30
0.0
  0
ENDBLK
  5
1026
330
1024
100
AcDbEntity
  8
0
100
AcDbBlockEnd
  0
BLOCK
  5
1032
330
1031
100
AcDbEntity
  8
0
100
AcDbBlockBegin
  2
*D18
 70
     1
 10
0.0
 20
0.0
 30
0.0
  3
*D18
  1

  0
LINE
  5
1034
330
1031
100
AcDbEntity
  8
Quote
 62
     0
 48
0.5
370
    -2
100
AcDbLine
 10
776.5066215934929
 20
97.0050811767577
 30
0.0
 11
800.3185982613081
 21
97.0050811767577
 31
0.0
  0
LINE
  5
1035
330
1031
100
AcDbEntity
  8
Quote
 62
     0
 48
0.5
370
    -2
100
AcDbLine
 10
778.426802867907
 20
497.0014190673827
 30
0.0
 11
800.3185982613081
 21
497.0014190673827
 31
0.0
  0
LINE
  5
1036
330
1031
100
AcDbEntity
  8
Quote
 62
     0
 48
0.5
370
    -2
100
AcDbLine
 10
800.1385982613082
 20
97.1850811767577
 30
0.0
 11
800.1385982613082
 21
496.8214190673827
 31
0.0
  0
SOLID
  5
1037
330
1031
100
AcDbEntity
  8
Quote
 62
     0
100
AcDbTrace
 10
800.1085982613082
 20
97.1850811767577
 30
0.0
 11
800.1685982613081
 21
97.1850811767577
 31
0.0
 12
800.1385982613082
 22
97.0050811767577
 32
0.0
 13
800.1385982613082
 23
97.0050811767577
 33
0.0
  0
SOLID
  5
1038
330
1031
100
AcDbEntity
  8
Quote
 62
     0
100
AcDbTrace
 10
800.1685982613081
 20
496.8214190673827
 30
0.0
 11
800.1085982613082
 21
496.8214190673827
 31
0.0
 12
800.1385982613082
 22
497.0014190673827
 32
0.0
 13
800.1385982613082
 23
497.0014190673827
 33
0.0
  0
MTEXT
  5
1039
330
1031
100
AcDbEntity
  8
Quote
 62
     0
100
AcDbMText
 10
792.6385982613082
 20
297.0032501220702
 30
0.0
 40
5.0
 41
0.0
 46
0.0
 71
     5
 72
     1
  1
\A1;400
 11
0.0
 21
1.0
 31
0.0
 73
     1
 44
1.0
  0
POINT
  5
103A
330
1031
100
AcDbEntity
  8
Defpoints
 62
     0
100
AcDbPoint
 10
776.4441215934929
 20
97.0050811767577
 30
0.0
  0
POINT
  5
103B
330
1031
100
AcDbEntity
  8
Defpoints
 62
     0
100
AcDbPoint
 10
778.364302867907
 20
497.0014190673827
 30
0.0
  0
POINT
  5
103C
330
1031
100
AcDbEntity
  8
Defpoints
 62
     0
100
AcDbPoint
 10
800.1385982613082
 20
497.0014190673827
 30
0.0
  0
ENDBLK
  5
1033
330
1031
100
AcDbEntity
  8
0
100
AcDbBlockEnd
  0
BLOCK
  5
103F
330
103E
100
AcDbEntity
  8
0
100
AcDbBlockBegin
  2
*D19
 70
     1
 10
0.0
 20
0.0
 30
0.0
  3
*D19
  1

  0
LINE
  5
1041
330
103E
100
AcDbEntity
  8
Quote
 62
     0
 48
0.5
370
    -2
100
AcDbLine
 10
80.93956502123535
 20
391.8585662841798
 30
0.0
 11
59.62573768745102
 21
391.8585662841798
 31
0.0
  0
LINE
  5
1042
330
103E
100
AcDbEntity
  8
Quote
 62
     0
 48
0.5
370
    -2
100
AcDbLine
 10
80.9396260563916
 20
496.9971160888671
 30
0.0
 11
59.62573768745103
 21
496.9971160888671
 31
0.0
  0
LINE
  5
1043
330
103E
100
AcDbEntity
  8
Quote
 62
     0
 48
0.5
370
    -2
100
AcDbLine
 10
59.80573768745102
 20
392.0385662841798
 30
0.0
 11
59.80573768745103
 21
496.8171160888671
 31
0.0
  0
SOLID
  5
1044
330
103E
100
AcDbEntity
  8
Quote
 62
     0
100
AcDbTrace
 10
59.77573768745102
 20
392.0385662841798
 30
0.0
 11
59.83573768745102
 21
392.0385662841798
 31
0.0
 12
59.80573768745102
 22
391.8585662841798
 32
0.0
 13
59.80573768745102
 23
391.8585662841798
 33
0.0
  0
SOLID
  5
1045
330
103E
100
AcDbEntity
  8
Quote
 62
     0
100
AcDbTrace
 10
59.83573768745103
 20
496.8171160888671
 30
0.0
 11
59.77573768745103
 21
496.8171160888671
 31
0.0
 12
59.80573768745103
 22
496.9971160888671
 32
0.0
 13
59.80573768745103
 23
496.9971160888671
 33
0.0
  0
MTEXT
  5
1046
330
103E
100
AcDbEntity
  8
Quote
 62
     0
100
AcDbMText
 10
52.30573768745103
 20
444.4278411865234
 30
0.0
 40
5.0
 41
0.0
 46
0.0
 71
     5
 72
     1
  1
\A1;105
 11
6.758156138543419E-17
 21
1.0
 31
0.0
 73
     1
 44
1.0
  0
POINT
  5
1047
330
103E
100
AcDbEntity
  8
Defpoints
 62
     0
100
AcDbPoint
 10
81.00206502123535
 20
391.8585662841798
 30
0.0
  0
POINT
  5
1048
330
103E
100
AcDbEntity
  8
Defpoints
 62
     0
100
AcDbPoint
 10
81.0021260563916
 20
496.9971160888671
 30
0.0
  0
POINT
  5
1049
330
103E
100
AcDbEntity
  8
Defpoints
 62
     0
100
AcDbPoint
 10
59.80573768745103
 20
496.9971160888671
 30
0.0
  0
ENDBLK
  5
1040
330
103E
100
AcDbEntity
  8
0
100
AcDbBlockEnd
  0
BLOCK
  5
104C
330
104B
100
AcDbEntity
  8
0
100
AcDbBlockBegin
  2
*D20
 70
     1
 10
0.0
 20
0.0
 30
0.0
  3
*D20
  1

  0
LINE
  5
104E
330
104B
100
AcDbEntity
  8
Quote
 62
     0
 48
0.5
370
    -2
100
AcDbLine
 10
142.9523315429686
 20
97.02980771180398
 30
0.0
 11
142.9523315429686
 21
64.52021388856969
 31
0.0
  0
LINE
  5
104F
330
104B
100
AcDbEntity
  8
Quote
 62
     0
 48
0.5
370
    -2
100
AcDbLine
 10
696.8199052268627
 20
97.02980771180398
 30
0.0
 11
696.8199052268627
 21
64.52021388856969
 31
0.0
  0
LINE
  5
1050
330
104B
100
AcDbEntity
  8
Quote
 62
     0
 48
0.5
370
    -2
100
AcDbLine
 10
143.1323315429686
 20
64.70021388856969
 30
0.0
 11
696.6399052268628
 21
64.70021388856969
 31
0.0
  0
SOLID
  5
1051
330
104B
100
AcDbEntity
  8
Quote
 62
     0
100
AcDbTrace
 10
143.1323315429686
 20
64.7302138885697
 30
0.0
 11
143.1323315429686
 21
64.67021388856969
 31
0.0
 12
142.9523315429686
 22
64.70021388856969
 32
0.0
 13
142.9523315429686
 23
64.70021388856969
 33
0.0
  0
SOLID
  5
1052
330
104B
100
AcDbEntity
  8
Quote
 62
     0
100
AcDbTrace
 10
696.6399052268628
 20
64.67021388856969
 30
0.0
 11
696.6399052268628
 21
64.7302138885697
 31
0.0
 12
696.8199052268627
 22
64.70021388856969
 32
0.0
 13
696.8199052268627
 23
64.70021388856969
 33
0.0
  0
MTEXT
  5
1053
330
104B
100
AcDbEntity
  8
Quote
 62
     0
100
AcDbMText
 10
419.8861183849157
 20
72.20021388856969
 30
0.0
 40
5.0
 41
0.0
 46
0.0
 71
     5
 72
     1
  1
\A1;555
 73
     1
 44
1.0
  0
POINT
  5
1054
330
104B
100
AcDbEntity
  8
Defpoints
 62
     0
100
AcDbPoint
 10
142.9523315429686
 20
97.09230771180398
 30
0.0
  0
POINT
  5
1055
330
104B
100
AcDbEntity
  8
Defpoints
 62
     0
100
AcDbPoint
 10
696.8199052268627
 20
97.09230771180398
 30
0.0
  0
POINT
  5
1056
330
104B
100
AcDbEntity
  8
Defpoints
 62
     0
100
AcDbPoint
 10
696.8199052268627
 20
64.70021388856969
 30
0.0
  0
ENDBLK
  5
104D
330
104B
100
AcDbEntity
  8
0
100
AcDbBlockEnd
  0
BLOCK
  5
1059
330
1058
100
AcDbEntity
  8
0
100
AcDbBlockBegin
  2
*D21
 70
     1
 10
0.0
 20
0.0
 30
0.0
  3
*D21
  1

  0
LINE
  5
105B
330
1058
100
AcDbEntity
  8
Quote
 62
     0
 48
0.5
370
    -2
100
AcDbLine
 10
744.5184798165027
 20
119.9576568603514
 30
0.0
 11
768.3304564843179
 21
119.9576568603514
 31
0.0
  0
LINE
  5
105C
330
1058
100
AcDbEntity
  8
Quote
 62
     0
 48
0.5
370
    -2
100
AcDbLine
 10
746.4386610909186
 20
471.4470593835282
 30
0.0
 11
768.3304564843179
 21
471.4470593835282
 31
0.0
  0
LINE
  5
105D
330
1058
100
AcDbEntity
  8
Quote
 62
     0
 48
0.5
370
    -2
100
AcDbLine
 10
768.1504564843179
 20
120.1376568603515
 30
0.0
 11
768.1504564843179
 21
471.2670593835282
 31
0.0
  0
SOLID
  5
105E
330
1058
100
AcDbEntity
  8
Quote
 62
     0
100
AcDbTrace
 10
768.120456484318
 20
120.1376568603515
 30
0.0
 11
768.1804564843179
 21
120.1376568603515
 31
0.0
 12
768.1504564843179
 22
119.9576568603514
 32
0.0
 13
768.1504564843179
 23
119.9576568603514
 33
0.0
  0
SOLID
  5
105F
330
1058
100
AcDbEntity
  8
Quote
 62
     0
100
AcDbTrace
 10
768.1804564843179
 20
471.2670593835282
 30
0.0
 11
768.120456484318
 21
471.2670593835282
 31
0.0
 12
768.1504564843179
 22
471.4470593835282
 32
0.0
 13
768.1504564843179
 23
471.4470593835282
 33
0.0
  0
MTEXT
  5
1060
330
1058
100
AcDbEntity
  8
Quote
 62
     0
100
AcDbMText
 10
760.6504564843179
 20
295.7023581219398
 30
0.0
 40
5.0
 41
0.0
 46
0.0
 71
     5
 72
     1
  1
\A1;350
 11
0.0
 21
1.0
 31
0.0
 73
     1
 44
1.0
  0
POINT
  5
1061
330
1058
100
AcDbEntity
  8
Defpoints
 62
     0
100
AcDbPoint
 10
744.4559798165027
 20
119.9576568603514
 30
0.0
  0
POINT
  5
1062
330
1058
100
AcDbEntity
  8
Defpoints
 62
     0
100
AcDbPoint
 10
746.3761610909186
 20
471.4470593835282
 30
0.0
  0
POINT
  5
1063
330
1058
100
AcDbEntity
  8
Defpoints
 62
     0
100
AcDbPoint
 10
768.1504564843179
 20
471.4470593835282
 30
0.0
  0
ENDBLK
  5
105A
330
1058
100
AcDbEntity
  8
0
100
AcDbBlockEnd
  0
BLOCK
  5
1069
330
1068
100
AcDbEntity
  8
0
100
AcDbBlockBegin
  2
*D22
 70
     1
 10
0.0
 20
0.0
 30
0.0
  3
*D22
  1

  0
LINE
  5
106B
330
1068
100
AcDbEntity
  8
0
 62
     0
370
    -2
100
AcDbLine
 10
1083.245321093621
 20
69.41300449360972
 30
0.0
 11
1083.245321093621
 21
-10.01754970866133
 31
0.0
  0
LINE
  5
106C
330
1068
100
AcDbEntity
  8
0
 62
     0
370
    -2
100
AcDbLine
 10
1683.223729907098
 20
65.59366855610972
 30
0.0
 11
1683.223729907098
 21
-10.01754970866133
 31
0.0
  0
LINE
  5
106D
330
1068
100
AcDbEntity
  8
0
 62
     0
370
    -2
100
AcDbLine
 10
1083.425321093622
 20
-9.837549708661328
 30
0.0
 11
1382.51452550036
 21
-9.837549708661328
 31
0.0
  0
LINE
  5
106E
330
1068
100
AcDbEntity
  8
0
 62
     0
370
    -2
100
AcDbLine
 10
1683.043729907098
 20
-9.837549708661328
 30
0.0
 11
1383.95452550036
 21
-9.837549708661328
 31
0.0
  0
SOLID
  5
106F
330
1068
100
AcDbEntity
  8
0
 62
     0
100
AcDbTrace
 10
1083.425321093622
 20
-9.807549708661329
 30
0.0
 11
1083.425321093622
 21
-9.867549708661327
 31
0.0
 12
1083.245321093621
 22
-9.837549708661328
 32
0.0
 13
1083.245321093621
 23
-9.837549708661328
 33
0.0
  0
SOLID
  5
1070
330
1068
100
AcDbEntity
  8
0
 62
     0
100
AcDbTrace
 10
1683.043729907098
 20
-9.867549708661327
 30
0.0
 11
1683.043729907098
 21
-9.807549708661329
 31
0.0
 12
1683.223729907098
 22
-9.837549708661328
 32
0.0
 13
1683.223729907098
 23
-9.837549708661328
 33
0.0
  0
MTEXT
  5
1071
330
1068
100
AcDbEntity
  8
0
 62
     0
100
AcDbMText
 10
1383.23452550036
 20
-9.837549708661328
 30
0.0
 40
0.18
 41
0.0
 46
0.0
 71
     5
 72
     1
  1
\A1;599.9784
 73
     1
 44
1.0
  0
POINT
  5
1072
330
1068
100
AcDbEntity
  8
Defpoints
 62
     0
100
AcDbPoint
 10
1083.245321093621
 20
69.47550449360972
 30
0.0
  0
POINT
  5
1073
330
1068
100
AcDbEntity
  8
Defpoints
 62
     0
100
AcDbPoint
 10
1683.223729907098
 20
65.65616855610972
 30
0.0
  0
POINT
  5
1074
330
1068
100
AcDbEntity
  8
Defpoints
 62
     0
100
AcDbPoint
 10
1683.223729907098
 20
-9.837549708661328
 30
0.0
  0
ENDBLK
  5
106A
330
1068
100
AcDbEntity
  8
0
100
AcDbBlockEnd
  0
BLOCK
  5
1079
330
1078
100
AcDbEntity
  8
0
100
AcDbBlockBegin
  2
*D23
 70
     1
 10
0.0
 20
0.0
 30
0.0
  3
*D23
  1

  0
LINE
  5
107B
330
1078
100
AcDbEntity
  8
0
 62
     0
370
    -2
100
AcDbLine
 10
1106.179525195184
 20
102.7413324305668
 30
0.0
 11
1106.179525195184
 21
49.00255917351625
 31
0.0
  0
LINE
  5
107C
330
1078
100
AcDbEntity
  8
0
 62
     0
370
    -2
100
AcDbLine
 10
1660.047098879078
 20
102.7413324305668
 30
0.0
 11
1660.047098879078
 21
49.00255917351625
 31
0.0
  0
LINE
  5
107D
330
1078
100
AcDbEntity
  8
0
 62
     0
370
    -2
100
AcDbLine
 10
1106.359525195184
 20
49.18255917351625
 30
0.0
 11
1382.393312037131
 21
49.18255917351625
 31
0.0
  0
LINE
  5
107E
330
1078
100
AcDbEntity
  8
0
 62
     0
370
    -2
100
AcDbLine
 10
1659.867098879078
 20
49.18255917351625
 30
0.0
 11
1383.833312037131
 21
49.18255917351625
 31
0.0
  0
SOLID
  5
107F
330
1078
100
AcDbEntity
  8
0
 62
     0
100
AcDbTrace
 10
1106.359525195184
 20
49.21255917351625
 30
0.0
 11
1106.359525195184
 21
49.15255917351625
 31
0.0
 12
1106.179525195184
 22
49.18255917351625
 32
0.0
 13
1106.179525195184
 23
49.18255917351625
 33
0.0
  0
SOLID
  5
1080
330
1078
100
AcDbEntity
  8
0
 62
     0
100
AcDbTrace
 10
1659.867098879078
 20
49.15255917351625
 30
0.0
 11
1659.867098879078
 21
49.21255917351625
 31
0.0
 12
1660.047098879078
 22
49.18255917351625
 32
0.0
 13
1660.047098879078
 23
49.18255917351625
 33
0.0
  0
MTEXT
  5
1081
330
1078
100
AcDbEntity
  8
0
 62
     0
100
AcDbMText
 10
1383.113312037131
 20
49.18255917351625
 30
0.0
 40
0.18
 41
0.0
 46
0.0
 71
     5
 72
     1
  1
\A1;553.8676
 73
     1
 44
1.0
  0
POINT
  5
1082
330
1078
100
AcDbEntity
  8
Defpoints
 62
     0
100
AcDbPoint
 10
1106.179525195184
 20
102.8038324305668
 30
0.0
  0
POINT
  5
1083
330
1078
100
AcDbEntity
  8
Defpoints
 62
     0
100
AcDbPoint
 10
1660.047098879078
 20
102.8038324305668
 30
0.0
  0
POINT
  5
1084
330
1078
100
AcDbEntity
  8
Defpoints
 62
     0
100
AcDbPoint
 10
1660.047098879078
 20
49.18255917351625
 30
0.0
  0
ENDBLK
  5
107A
330
1078
100
AcDbEntity
  8
0
100
AcDbBlockEnd
  0
BLOCK
  5
1089
330
1088
100
AcDbEntity
  8
0
100
AcDbBlockBegin
  2
*D24
 70
     1
 10
0.0
 20
0.0
 30
0.0
  3
*D24
  1

  0
LINE
  5
108B
330
1088
100
AcDbEntity
  8
0
 62
     0
370
    -2
100
AcDbLine
 10
1365.727239428582
 20
442.3579866613987
 30
0.0
 11
1365.727239428582
 21
466.7542788935576
 31
0.0
  0
LINE
  5
108C
330
1088
100
AcDbEntity
  8
0
 62
     0
370
    -2
100
AcDbLine
 10
1400.727239428582
 20
442.3579866613987
 30
0.0
 11
1400.727239428582
 21
466.7542788935576
 31
0.0
  0
LINE
  5
108D
330
1088
100
AcDbEntity
  8
0
 62
     0
370
    -2
100
AcDbLine
 10
1365.907239428582
 20
466.5742788935576
 30
0.0
 11
1382.657239428582
 21
466.5742788935576
 31
0.0
  0
LINE
  5
108E
330
1088
100
AcDbEntity
  8
0
 62
     0
370
    -2
100
AcDbLine
 10
1400.547239428582
 20
466.5742788935576
 30
0.0
 11
1383.797239428582
 21
466.5742788935576
 31
0.0
  0
SOLID
  5
108F
330
1088
100
AcDbEntity
  8
0
 62
     0
100
AcDbTrace
 10
1365.907239428582
 20
466.6042788935575
 30
0.0
 11
1365.907239428582
 21
466.5442788935576
 31
0.0
 12
1365.727239428582
 22
466.5742788935576
 32
0.0
 13
1365.727239428582
 23
466.5742788935576
 33
0.0
  0
SOLID
  5
1090
330
1088
100
AcDbEntity
  8
0
 62
     0
100
AcDbTrace
 10
1400.547239428582
 20
466.5442788935576
 30
0.0
 11
1400.547239428582
 21
466.6042788935575
 31
0.0
 12
1400.727239428582
 22
466.5742788935576
 32
0.0
 13
1400.727239428582
 23
466.5742788935576
 33
0.0
  0
MTEXT
  5
1091
330
1088
100
AcDbEntity
  8
0
 62
     0
100
AcDbMText
 10
1383.227239428582
 20
466.5742788935576
 30
0.0
 40
0.18
 41
0.0
 46
0.0
 71
     5
 72
     1
  1
\A1;35.0000
 73
     1
 44
1.0
  0
POINT
  5
1092
330
1088
100
AcDbEntity
  8
Defpoints
 62
     0
100
AcDbPoint
 10
1365.727239428582
 20
442.2954866613987
 30
0.0
  0
POINT
  5
1093
330
1088
100
AcDbEntity
  8
Defpoints
 62
     0
100
AcDbPoint
 10
1400.727239428582
 20
442.2954866613987
 30
0.0
  0
POINT
  5
1094
330
1088
100
AcDbEntity
  8
Defpoints
 62
     0
100
AcDbPoint
 10
1400.727239428582
 20
466.5742788935576
 30
0.0
  0
ENDBLK
  5
108A
330
1088
100
AcDbEntity
  8
0
100
AcDbBlockEnd
  0
BLOCK
  5
1224
330
1223
100
AcDbEntity
  8
0
100
AcDbBlockBegin
  2
*D25
 70
     1
 10
0.0
 20
0.0
 30
0.0
  3
*D25
  1

  0
LINE
  5
1226
330
1223
100
AcDbEntity
  8
0
 62
     0
370
    -2
100
AcDbLine
 10
720.0000610351561
 20
297.0632781982421
 30
0.0
 11
720.0000610351561
 21
530.1815989270784
 31
0.0
  0
LINE
  5
1227
330
1223
100
AcDbEntity
  8
0
 62
     0
370
    -2
100
AcDbLine
 10
120.0069274902343
 20
293.3118133544921
 30
0.0
 11
120.0069274902343
 21
530.1815989270784
 31
0.0
  0
LINE
  5
1228
330
1223
100
AcDbEntity
  8
0
 62
     0
370
    -2
100
AcDbLine
 10
719.8200610351562
 20
530.0015989270785
 30
0.0
 11
420.6934942626952
 21
530.0015989270785
 31
0.0
  0
LINE
  5
1229
330
1223
100
AcDbEntity
  8
0
 62
     0
370
    -2
100
AcDbLine
 10
120.1869274902343
 20
530.0015989270785
 30
0.0
 11
419.3134942626952
 21
530.0015989270785
 31
0.0
  0
SOLID
  5
122A
330
1223
100
AcDbEntity
  8
0
 62
     0
100
AcDbTrace
 10
719.8200610351562
 20
529.9715989270785
 30
0.0
 11
719.8200610351562
 21
530.0315989270784
 31
0.0
 12
720.0000610351561
 22
530.0015989270785
 32
0.0
 13
720.0000610351561
 23
530.0015989270785
 33
0.0
  0
SOLID
  5
122B
330
1223
100
AcDbEntity
  8
0
 62
     0
100
AcDbTrace
 10
120.1869274902343
 20
530.0315989270784
 30
0.0
 11
120.1869274902343
 21
529.9715989270785
 31
0.0
 12
120.0069274902343
 22
530.0015989270785
 32
0.0
 13
120.0069274902343
 23
530.0015989270785
 33
0.0
  0
MTEXT
  5
122C
330
1223
100
AcDbEntity
  8
0
 62
     0
100
AcDbMText
 10
420.0034942626952
 20
530.0015989270785
 30
0.0
 40
0.18
 41
0.0
 46
0.0
 71
     5
 72
     1
  1
\A1;599.9931
 73
     1
 44
1.0
  0
POINT
  5
122D
330
1223
100
AcDbEntity
  8
Defpoints
 62
     0
100
AcDbPoint
 10
720.0000610351561
 20
297.0007781982421
 30
0.0
  0
POINT
  5
122E
330
1223
100
AcDbEntity
  8
Defpoints
 62
     0
100
AcDbPoint
 10
120.0069274902343
 20
293.2493133544921
 30
0.0
  0
POINT
  5
122F
330
1223
100
AcDbEntity
  8
Defpoints
 62
     0
100
AcDbPoint
 10
120.0069274902343
 20
530.0015989270785
 30
0.0
  0
ENDBLK
  5
1225
330
1223
100
AcDbEntity
  8
0
100
AcDbBlockEnd
  0
BLOCK
  5
1237
330
1236
100
AcDbEntity
  8
0
100
AcDbBlockBegin
  2
*D26
 70
     1
 10
0.0
 20
0.0
 30
0.0
  3
*D26
  1

  0
LINE
  5
1239
330
1236
100
AcDbEntity
  8
0
 62
     0
370
    -2
100
AcDbLine
 10
0.0000000000000568
 20
297.0624999999999
 30
0.0
 11
0.0000000000000568
 21
553.8696183206106
 31
0.0
  0
LINE
  5
123A
330
1236
100
AcDbEntity
  8
0
 62
     0
370
    -2
100
AcDbLine
 10
420.0
 20
593.9374999999998
 30
0.0
 11
420.0
 21
553.5096183206107
 31
0.0
  0
LINE
  5
123B
330
1236
100
AcDbEntity
  8
0
 62
     0
370
    -2
100
AcDbLine
 10
0.1800000000000568
 20
553.6896183206106
 30
0.0
 11
209.355
 21
553.6896183206106
 31
0.0
  0
LINE
  5
123C
330
1236
100
AcDbEntity
  8
0
 62
     0
370
    -2
100
AcDbLine
 10
419.82
 20
553.6896183206106
 30
0.0
 11
210.645
 21
553.6896183206106
 31
0.0
  0
SOLID
  5
123D
330
1236
100
AcDbEntity
  8
0
 62
     0
100
AcDbTrace
 10
0.1800000000000568
 20
553.7196183206106
 30
0.0
 11
0.1800000000000568
 21
553.6596183206107
 31
0.0
 12
0.0000000000000568
 22
553.6896183206106
 32
0.0
 13
0.0000000000000568
 23
553.6896183206106
 33
0.0
  0
SOLID
  5
123E
330
1236
100
AcDbEntity
  8
0
 62
     0
100
AcDbTrace
 10
419.82
 20
553.6596183206107
 30
0.0
 11
419.82
 21
553.7196183206106
 31
0.0
 12
420.0
 22
553.6896183206106
 32
0.0
 13
420.0
 23
553.6896183206106
 33
0.0
  0
MTEXT
  5
123F
330
1236
100
AcDbEntity
  8
0
 62
     0
100
AcDbMText
 10
210.0
 20
553.6896183206106
 30
0.0
 40
0.18
 41
0.0
 46
0.0
 71
     5
 72
     1
  1
\A1;420.0000
 73
     1
 44
1.0
  0
POINT
  5
1240
330
1236
100
AcDbEntity
  8
Defpoints
 62
     0
100
AcDbPoint
 10
0.0000000000000568
 20
296.9999999999999
 30
0.0
  0
POINT
  5
1241
330
1236
100
AcDbEntity
  8
Defpoints
 62
     0
100
AcDbPoint
 10
420.0
 20
593.9999999999998
 30
0.0
  0
POINT
  5
1242
330
1236
100
AcDbEntity
  8
Defpoints
 62
     0
100
AcDbPoint
 10
420.0
 20
553.6896183206106
 30
0.0
  0
ENDBLK
  5
1238
330
1236
100
AcDbEntity
  8
0
100
AcDbBlockEnd
  0
BLOCK
  5
1247
330
1246
100
AcDbEntity
  8
0
100
AcDbBlockBegin
  2
*D27
 70
     1
 10
0.0
 20
0.0
 30
0.0
  3
*D27
  1

  0
LINE
  5
1249
330
1246
100
AcDbEntity
  8
0
 62
     0
370
    -2
100
AcDbLine
 10
43.26049997005781
 20
593.9999999999999
 30
0.0
 11
-19.75751911391163
 21
593.9999999999999
 31
0.0
  0
LINE
  5
124A
330
1246
100
AcDbEntity
  8
0
 62
     0
370
    -2
100
AcDbLine
 10
66.94069538990516
 20
296.9999999999999
 30
0.0
 11
-19.75751911391165
 21
296.9999999999999
 31
0.0
  0
LINE
  5
124B
330
1246
100
AcDbEntity
  8
0
 62
     0
370
    -2
100
AcDbLine
 10
-19.57751911391163
 20
593.8199999999999
 30
0.0
 11
-19.57751911391164
 21
445.6799999999998
 31
0.0
  0
LINE
  5
124C
330
1246
100
AcDbEntity
  8
0
 62
     0
370
    -2
100
AcDbLine
 10
-19.57751911391165
 20
297.1799999999999
 30
0.0
 11
-19.57751911391164
 21
445.3199999999999
 31
0.0
  0
SOLID
  5
124D
330
1246
100
AcDbEntity
  8
0
 62
     0
100
AcDbTrace
 10
-19.54751911391163
 20
593.8199999999999
 30
0.0
 11
-19.60751911391163
 21
593.8199999999999
 31
0.0
 12
-19.57751911391163
 22
593.9999999999999
 32
0.0
 13
-19.57751911391163
 23
593.9999999999999
 33
0.0
  0
SOLID
  5
124E
330
1246
100
AcDbEntity
  8
0
 62
     0
100
AcDbTrace
 10
-19.60751911391165
 20
297.1799999999999
 30
0.0
 11
-19.54751911391165
 21
297.1799999999999
 31
0.0
 12
-19.57751911391165
 22
296.9999999999999
 32
0.0
 13
-19.57751911391165
 23
296.9999999999999
 33
0.0
  0
MTEXT
  5
124F
330
1246
100
AcDbEntity
  8
0
 62
     0
100
AcDbMText
 10
-19.57751911391164
 20
445.4999999999999
 30
0.0
 40
0.18
 41
0.0
 46
0.0
 71
     5
 72
     1
  1
\A1;297.0000
 73
     1
 44
1.0
  0
POINT
  5
1250
330
1246
100
AcDbEntity
  8
Defpoints
 62
     0
100
AcDbPoint
 10
43.32299997005781
 20
593.9999999999999
 30
0.0
  0
POINT
  5
1251
330
1246
100
AcDbEntity
  8
Defpoints
 62
     0
100
AcDbPoint
 10
67.00319538990516
 20
296.9999999999999
 30
0.0
  0
POINT
  5
1252
330
1246
100
AcDbEntity
  8
Defpoints
 62
     0
100
AcDbPoint
 10
-19.57751911391165
 20
296.9999999999999
 30
0.0
  0
ENDBLK
  5
1248
330
1246
100
AcDbEntity
  8
0
100
AcDbBlockEnd
  0
ENDSEC
  0
SECTION
  2
ENTITIES
  0
LINE
  5
D89
330
1F
100
AcDbEntity
  8
0
100
AcDbLine
 10
719.4964455780504
 20
11.90859272601705
 30
0.0
 11
719.4964455780504
 21
19.76804691796457
 31
0.0
  0
LINE
  5
D8A
330
1F
100
AcDbEntity
  8
0
100
AcDbLine
 10
719.4964455780504
 20
11.90859272601705
 30
0.0
 11
729.4964455780504
 21
11.90859272601705
 31
0.0
  0
LINE
  5
D8C
330
1F
100
AcDbEntity
  8
0
100
AcDbLine
 10
724.4964455780504
 20
11.90859272601705
 30
0.0
 11
724.4964455780504
 21
16.56138960764992
 31
0.0
  0
LINE
  5
D8E
330
1F
100
AcDbEntity
  8
0
100
AcDbLine
 10
720.4964455780504
 20
14.10923989976237
 30
0.0
 11
720.4964455780504
 21
11.90859272601705
 31
0.0
  0
LINE
  5
D8F
330
1F
100
AcDbEntity
  8
0
100
AcDbLine
 10
721.4964455780504
 20
14.10923989976237
 30
0.0
 11
721.4964455780504
 21
11.90859272601705
 31
0.0
  0
LINE
  5
D90
330
1F
100
AcDbEntity
  8
0
100
AcDbLine
 10
722.4964455780502
 20
14.10923989976237
 30
0.0
 11
722.4964455780502
 21
11.90859272601705
 31
0.0
  0
LINE
  5
D91
330
1F
100
AcDbEntity
  8
0
100
AcDbLine
 10
723.4964455780499
 20
14.10923989976237
 30
0.0
 11
723.4964455780499
 21
11.90859272601705
 31
0.0
  0
LINE
  5
D93
330
1F
100
AcDbEntity
  8
0
100
AcDbLine
 10
725.4964455780504
 20
14.10923989976237
 30
0.0
 11
725.4964455780504
 21
11.90859272601705
 31
0.0
  0
LINE
  5
D94
330
1F
100
AcDbEntity
  8
0
100
AcDbLine
 10
726.4964455780504
 20
14.10923989976237
 30
0.0
 11
726.4964455780504
 21
11.90859272601705
 31
0.0
  0
LINE
  5
D95
330
1F
100
AcDbEntity
  8
0
100
AcDbLine
 10
727.4964455780502
 20
14.10923989976237
 30
0.0
 11
727.4964455780502
 21
11.90859272601705
 31
0.0
  0
LINE
  5
D96
330
1F
100
AcDbEntity
  8
0
100
AcDbLine
 10
728.4964455780499
 20
14.10923989976237
 30
0.0
 11
728.4964455780499
 21
11.90859272601705
 31
0.0
  0
LINE
  5
D97
330
1F
100
AcDbEntity
  8
0
100
AcDbLine
 10
729.4964455780504
 20
11.90859272601705
 30
0.0
 11
729.4964455780504
 21
19.76804691796457
 31
0.0
  0
LINE
  5
D98
330
1F
100
AcDbEntity
  8
0
100
AcDbLine
 10
729.4964455780504
 20
11.90859272601705
 30
0.0
 11
739.4964455780504
 21
11.90859272601705
 31
0.0
  0
LINE
  5
D99
330
1F
100
AcDbEntity
  8
0
100
AcDbLine
 10
734.4964455780504
 20
11.90859272601705
 30
0.0
 11
734.4964455780504
 21
16.56138960764992
 31
0.0
  0
LINE
  5
D9A
330
1F
100
AcDbEntity
  8
0
100
AcDbLine
 10
730.4964455780504
 20
14.10923989976237
 30
0.0
 11
730.4964455780504
 21
11.90859272601705
 31
0.0
  0
LINE
  5
D9B
330
1F
100
AcDbEntity
  8
0
100
AcDbLine
 10
731.4964455780504
 20
14.10923989976237
 30
0.0
 11
731.4964455780504
 21
11.90859272601705
 31
0.0
  0
LINE
  5
D9C
330
1F
100
AcDbEntity
  8
0
100
AcDbLine
 10
732.4964455780502
 20
14.10923989976237
 30
0.0
 11
732.4964455780502
 21
11.90859272601705
 31
0.0
  0
LINE
  5
D9D
330
1F
100
AcDbEntity
  8
0
100
AcDbLine
 10
733.4964455780499
 20
14.10923989976237
 30
0.0
 11
733.4964455780499
 21
11.90859272601705
 31
0.0
  0
LINE
  5
D9E
330
1F
100
AcDbEntity
  8
0
100
AcDbLine
 10
735.4964455780504
 20
14.10923989976237
 30
0.0
 11
735.4964455780504
 21
11.90859272601705
 31
0.0
  0
LINE
  5
D9F
330
1F
100
AcDbEntity
  8
0
100
AcDbLine
 10
736.4964455780504
 20
14.10923989976237
 30
0.0
 11
736.4964455780504
 21
11.90859272601705
 31
0.0
  0
LINE
  5
DA0
330
1F
100
AcDbEntity
  8
0
100
AcDbLine
 10
737.4964455780502
 20
14.10923989976237
 30
0.0
 11
737.4964455780502
 21
11.90859272601705
 31
0.0
  0
LINE
  5
DA1
330
1F
100
AcDbEntity
  8
0
100
AcDbLine
 10
738.4964455780499
 20
14.10923989976237
 30
0.0
 11
738.4964455780499
 21
11.90859272601705
 31
0.0
  0
LINE
  5
DA2
330
1F
100
AcDbEntity
  8
0
100
AcDbLine
 10
739.4964455780504
 20
11.90859272601705
 30
0.0
 11
739.4964455780504
 21
19.76804691796457
 31
0.0
  0
LINE
  5
DA3
330
1F
100
AcDbEntity
  8
0
100
AcDbLine
 10
739.4964455780504
 20
11.90859272601705
 30
0.0
 11
749.4964455780504
 21
11.90859272601716
 31
0.0
  0
LINE
  5
DA4
330
1F
100
AcDbEntity
  8
0
100
AcDbLine
 10
744.4964455780504
 20
11.90859272601716
 30
0.0
 11
744.4964455780504
 21
16.56138960765003
 31
0.0
  0
LINE
  5
DA5
330
1F
100
AcDbEntity
  8
0
100
AcDbLine
 10
740.4964455780504
 20
14.10923989976237
 30
0.0
 11
740.4964455780504
 21
11.90859272601705
 31
0.0
  0
LINE
  5
DA6
330
1F
100
AcDbEntity
  8
0
100
AcDbLine
 10
741.4964455780504
 20
14.10923989976237
 30
0.0
 11
741.4964455780504
 21
11.90859272601705
 31
0.0
  0
LINE
  5
DA7
330
1F
100
AcDbEntity
  8
0
100
AcDbLine
 10
742.4964455780502
 20
14.10923989976237
 30
0.0
 11
742.4964455780502
 21
11.90859272601705
 31
0.0
  0
LINE
  5
DA8
330
1F
100
AcDbEntity
  8
0
100
AcDbLine
 10
743.4964455780499
 20
14.10923989976249
 30
0.0
 11
743.4964455780499
 21
11.90859272601716
 31
0.0
  0
LINE
  5
DA9
330
1F
100
AcDbEntity
  8
0
100
AcDbLine
 10
745.4964455780504
 20
14.10923989976249
 30
0.0
 11
745.4964455780504
 21
11.90859272601716
 31
0.0
  0
LINE
  5
DAA
330
1F
100
AcDbEntity
  8
0
100
AcDbLine
 10
746.4964455780504
 20
14.10923989976249
 30
0.0
 11
746.4964455780504
 21
11.90859272601716
 31
0.0
  0
LINE
  5
DAB
330
1F
100
AcDbEntity
  8
0
100
AcDbLine
 10
747.4964455780502
 20
14.10923989976249
 30
0.0
 11
747.4964455780502
 21
11.90859272601716
 31
0.0
  0
LINE
  5
DAC
330
1F
100
AcDbEntity
  8
0
100
AcDbLine
 10
748.4964455780499
 20
14.10923989976249
 30
0.0
 11
748.4964455780499
 21
11.90859272601716
 31
0.0
  0
LINE
  5
DAD
330
1F
100
AcDbEntity
  8
0
100
AcDbLine
 10
749.4964455780504
 20
11.90859272601716
 30
0.0
 11
749.4964455780504
 21
19.76804691796469
 31
0.0
  0
LINE
  5
DAE
330
1F
100
AcDbEntity
  8
0
100
AcDbLine
 10
749.4964455780504
 20
11.90859272601716
 30
0.0
 11
759.4964455780504
 21
11.90859272601716
 31
0.0
  0
LINE
  5
DAF
330
1F
100
AcDbEntity
  8
0
100
AcDbLine
 10
754.4964455780504
 20
11.90859272601716
 30
0.0
 11
754.4964455780504
 21
16.56138960765003
 31
0.0
  0
LINE
  5
DB0
330
1F
100
AcDbEntity
  8
0
100
AcDbLine
 10
750.4964455780504
 20
14.10923989976249
 30
0.0
 11
750.4964455780504
 21
11.90859272601716
 31
0.0
  0
LINE
  5
DB1
330
1F
100
AcDbEntity
  8
0
100
AcDbLine
 10
751.4964455780504
 20
14.10923989976249
 30
0.0
 11
751.4964455780504
 21
11.90859272601716
 31
0.0
  0
LINE
  5
DB2
330
1F
100
AcDbEntity
  8
0
100
AcDbLine
 10
752.4964455780502
 20
14.10923989976249
 30
0.0
 11
752.4964455780502
 21
11.90859272601716
 31
0.0
  0
LINE
  5
DB3
330
1F
100
AcDbEntity
  8
0
100
AcDbLine
 10
753.4964455780499
 20
14.10923989976249
 30
0.0
 11
753.4964455780499
 21
11.90859272601716
 31
0.0
  0
LINE
  5
DB4
330
1F
100
AcDbEntity
  8
0
100
AcDbLine
 10
755.4964455780504
 20
14.10923989976249
 30
0.0
 11
755.4964455780504
 21
11.90859272601716
 31
0.0
  0
LINE
  5
DB5
330
1F
100
AcDbEntity
  8
0
100
AcDbLine
 10
756.4964455780504
 20
14.10923989976249
 30
0.0
 11
756.4964455780504
 21
11.90859272601716
 31
0.0
  0
LINE
  5
DB6
330
1F
100
AcDbEntity
  8
0
100
AcDbLine
 10
757.4964455780502
 20
14.10923989976249
 30
0.0
 11
757.4964455780502
 21
11.90859272601716
 31
0.0
  0
LINE
  5
DB7
330
1F
100
AcDbEntity
  8
0
100
AcDbLine
 10
758.4964455780499
 20
14.10923989976249
 30
0.0
 11
758.4964455780499
 21
11.90859272601716
 31
0.0
  0
LINE
  5
DB8
330
1F
100
AcDbEntity
  8
0
100
AcDbLine
 10
759.4964455780504
 20
11.90859272601716
 30
0.0
 11
759.4964455780504
 21
19.76804691796469
 31
0.0
  0
LINE
  5
DB9
330
1F
100
AcDbEntity
  8
0
100
AcDbLine
 10
759.4964455780504
 20
11.90859272601716
 30
0.0
 11
769.4964455780504
 21
11.90859272601716
 31
0.0
  0
LINE
  5
DBA
330
1F
100
AcDbEntity
  8
0
100
AcDbLine
 10
764.4964455780504
 20
11.90859272601716
 30
0.0
 11
764.4964455780504
 21
16.56138960765003
 31
0.0
  0
LINE
  5
DBB
330
1F
100
AcDbEntity
  8
0
100
AcDbLine
 10
760.4964455780504
 20
14.10923989976249
 30
0.0
 11
760.4964455780504
 21
11.90859272601716
 31
0.0
  0
LINE
  5
DBC
330
1F
100
AcDbEntity
  8
0
100
AcDbLine
 10
761.4964455780504
 20
14.10923989976249
 30
0.0
 11
761.4964455780504
 21
11.90859272601716
 31
0.0
  0
LINE
  5
DBD
330
1F
100
AcDbEntity
  8
0
100
AcDbLine
 10
762.4964455780502
 20
14.10923989976249
 30
0.0
 11
762.4964455780502
 21
11.90859272601716
 31
0.0
  0
LINE
  5
DBE
330
1F
100
AcDbEntity
  8
0
100
AcDbLine
 10
763.4964455780499
 20
14.10923989976249
 30
0.0
 11
763.4964455780499
 21
11.90859272601716
 31
0.0
  0
LINE
  5
DBF
330
1F
100
AcDbEntity
  8
0
100
AcDbLine
 10
765.4964455780504
 20
14.10923989976249
 30
0.0
 11
765.4964455780504
 21
11.90859272601716
 31
0.0
  0
LINE
  5
DC0
330
1F
100
AcDbEntity
  8
0
100
AcDbLine
 10
766.4964455780504
 20
14.10923989976249
 30
0.0
 11
766.4964455780504
 21
11.90859272601716
 31
0.0
  0
LINE
  5
DC1
330
1F
100
AcDbEntity
  8
0
100
AcDbLine
 10
767.4964455780502
 20
14.10923989976249
 30
0.0
 11
767.4964455780502
 21
11.90859272601716
 31
0.0
  0
LINE
  5
DC2
330
1F
100
AcDbEntity
  8
0
100
AcDbLine
 10
768.4964455780499
 20
14.10923989976249
 30
0.0
 11
768.4964455780499
 21
11.90859272601716
 31
0.0
  0
LINE
  5
DC3
330
1F
100
AcDbEntity
  8
0
100
AcDbLine
 10
769.4964455780504
 20
11.90859272601716
 30
0.0
 11
769.4964455780504
 21
19.76804691796469
 31
0.0
  0
LINE
  5
DC4
330
1F
100
AcDbEntity
  8
0
100
AcDbLine
 10
769.4964455780504
 20
11.90859272601716
 30
0.0
 11
779.4964455780504
 21
11.90859272601716
 31
0.0
  0
LINE
  5
DC5
330
1F
100
AcDbEntity
  8
0
100
AcDbLine
 10
774.4964455780504
 20
11.90859272601716
 30
0.0
 11
774.4964455780504
 21
16.56138960765003
 31
0.0
  0
LINE
  5
DC6
330
1F
100
AcDbEntity
  8
0
100
AcDbLine
 10
770.4964455780504
 20
14.10923989976249
 30
0.0
 11
770.4964455780504
 21
11.90859272601716
 31
0.0
  0
LINE
  5
DC7
330
1F
100
AcDbEntity
  8
0
100
AcDbLine
 10
771.4964455780504
 20
14.10923989976249
 30
0.0
 11
771.4964455780504
 21
11.90859272601716
 31
0.0
  0
LINE
  5
DC8
330
1F
100
AcDbEntity
  8
0
100
AcDbLine
 10
772.4964455780502
 20
14.10923989976249
 30
0.0
 11
772.4964455780502
 21
11.90859272601716
 31
0.0
  0
LINE
  5
DC9
330
1F
100
AcDbEntity
  8
0
100
AcDbLine
 10
773.4964455780499
 20
14.10923989976249
 30
0.0
 11
773.4964455780499
 21
11.90859272601716
 31
0.0
  0
LINE
  5
DCA
330
1F
100
AcDbEntity
  8
0
100
AcDbLine
 10
775.4964455780504
 20
14.10923989976249
 30
0.0
 11
775.4964455780504
 21
11.90859272601716
 31
0.0
  0
LINE
  5
DCB
330
1F
100
AcDbEntity
  8
0
100
AcDbLine
 10
776.4964455780504
 20
14.10923989976249
 30
0.0
 11
776.4964455780504
 21
11.90859272601716
 31
0.0
  0
LINE
  5
DCC
330
1F
100
AcDbEntity
  8
0
100
AcDbLine
 10
777.4964455780502
 20
14.10923989976249
 30
0.0
 11
777.4964455780502
 21
11.90859272601716
 31
0.0
  0
LINE
  5
DCD
330
1F
100
AcDbEntity
  8
0
100
AcDbLine
 10
778.4964455780499
 20
14.10923989976249
 30
0.0
 11
778.4964455780499
 21
11.90859272601716
 31
0.0
  0
LINE
  5
DCE
330
1F
100
AcDbEntity
  8
0
100
AcDbLine
 10
779.4964455780504
 20
11.90859272601716
 30
0.0
 11
779.4964455780504
 21
19.76804691796469
 31
0.0
  0
LINE
  5
DCF
330
1F
100
AcDbEntity
  8
0
100
AcDbLine
 10
779.4964455780504
 20
11.90859272601716
 30
0.0
 11
789.4964455780504
 21
11.90859272601728
 31
0.0
  0
LINE
  5
DD0
330
1F
100
AcDbEntity
  8
0
100
AcDbLine
 10
784.4964455780504
 20
11.90859272601716
 30
0.0
 11
784.4964455780504
 21
16.56138960765003
 31
0.0
  0
LINE
  5
DD1
330
1F
100
AcDbEntity
  8
0
100
AcDbLine
 10
780.4964455780504
 20
14.10923989976249
 30
0.0
 11
780.4964455780504
 21
11.90859272601716
 31
0.0
  0
LINE
  5
DD2
330
1F
100
AcDbEntity
  8
0
100
AcDbLine
 10
781.4964455780504
 20
14.10923989976249
 30
0.0
 11
781.4964455780504
 21
11.90859272601716
 31
0.0
  0
LINE
  5
DD3
330
1F
100
AcDbEntity
  8
0
100
AcDbLine
 10
782.4964455780502
 20
14.10923989976249
 30
0.0
 11
782.4964455780502
 21
11.90859272601716
 31
0.0
  0
LINE
  5
DD4
330
1F
100
AcDbEntity
  8
0
100
AcDbLine
 10
783.4964455780499
 20
14.10923989976249
 30
0.0
 11
783.4964455780499
 21
11.90859272601716
 31
0.0
  0
LINE
  5
DD5
330
1F
100
AcDbEntity
  8
0
100
AcDbLine
 10
785.4964455780504
 20
14.10923989976249
 30
0.0
 11
785.4964455780504
 21
11.90859272601716
 31
0.0
  0
LINE
  5
DD6
330
1F
100
AcDbEntity
  8
0
100
AcDbLine
 10
786.4964455780504
 20
14.1092398997626
 30
0.0
 11
786.4964455780504
 21
11.90859272601728
 31
0.0
  0
LINE
  5
DD7
330
1F
100
AcDbEntity
  8
0
100
AcDbLine
 10
787.4964455780502
 20
14.1092398997626
 30
0.0
 11
787.4964455780502
 21
11.90859272601728
 31
0.0
  0
LINE
  5
DD8
330
1F
100
AcDbEntity
  8
0
100
AcDbLine
 10
788.4964455780499
 20
14.1092398997626
 30
0.0
 11
788.4964455780499
 21
11.90859272601728
 31
0.0
  0
LINE
  5
DD9
330
1F
100
AcDbEntity
  8
0
100
AcDbLine
 10
789.4964455780504
 20
11.90859272601728
 30
0.0
 11
789.4964455780504
 21
19.7680469179648
 31
0.0
  0
LINE
  5
DDA
330
1F
100
AcDbEntity
  8
0
100
AcDbLine
 10
789.4964455780504
 20
11.90859272601728
 30
0.0
 11
799.4964455780504
 21
11.90859272601728
 31
0.0
  0
LINE
  5
DDB
330
1F
100
AcDbEntity
  8
0
100
AcDbLine
 10
794.4964455780504
 20
11.90859272601728
 30
0.0
 11
794.4964455780504
 21
16.56138960765015
 31
0.0
  0
LINE
  5
DDC
330
1F
100
AcDbEntity
  8
0
100
AcDbLine
 10
790.4964455780504
 20
14.1092398997626
 30
0.0
 11
790.4964455780504
 21
11.90859272601728
 31
0.0
  0
LINE
  5
DDD
330
1F
100
AcDbEntity
  8
0
100
AcDbLine
 10
791.4964455780504
 20
14.1092398997626
 30
0.0
 11
791.4964455780504
 21
11.90859272601728
 31
0.0
  0
LINE
  5
DDE
330
1F
100
AcDbEntity
  8
0
100
AcDbLine
 10
792.4964455780502
 20
14.1092398997626
 30
0.0
 11
792.4964455780502
 21
11.90859272601728
 31
0.0
  0
LINE
  5
DDF
330
1F
100
AcDbEntity
  8
0
100
AcDbLine
 10
793.4964455780499
 20
14.1092398997626
 30
0.0
 11
793.4964455780499
 21
11.90859272601728
 31
0.0
  0
LINE
  5
DE0
330
1F
100
AcDbEntity
  8
0
100
AcDbLine
 10
795.4964455780504
 20
14.1092398997626
 30
0.0
 11
795.4964455780504
 21
11.90859272601728
 31
0.0
  0
LINE
  5
DE1
330
1F
100
AcDbEntity
  8
0
100
AcDbLine
 10
796.4964455780504
 20
14.1092398997626
 30
0.0
 11
796.4964455780504
 21
11.90859272601728
 31
0.0
  0
LINE
  5
DE2
330
1F
100
AcDbEntity
  8
0
100
AcDbLine
 10
797.4964455780502
 20
14.1092398997626
 30
0.0
 11
797.4964455780502
 21
11.90859272601728
 31
0.0
  0
LINE
  5
DE3
330
1F
100
AcDbEntity
  8
0
100
AcDbLine
 10
798.4964455780499
 20
14.1092398997626
 30
0.0
 11
798.4964455780499
 21
11.90859272601728
 31
0.0
  0
LINE
  5
DE4
330
1F
100
AcDbEntity
  8
0
100
AcDbLine
 10
799.4964455780504
 20
11.90859272601728
 30
0.0
 11
799.4964455780504
 21
19.7680469179648
 31
0.0
  0
LINE
  5
DE5
330
1F
100
AcDbEntity
  8
0
100
AcDbLine
 10
799.4964455780504
 20
11.90859272601728
 30
0.0
 11
809.4964455780504
 21
11.90859272601728
 31
0.0
  0
LINE
  5
DE6
330
1F
100
AcDbEntity
  8
0
100
AcDbLine
 10
804.4964455780504
 20
11.90859272601728
 30
0.0
 11
804.4964455780504
 21
16.56138960765015
 31
0.0
  0
LINE
  5
DE7
330
1F
100
AcDbEntity
  8
0
100
AcDbLine
 10
800.4964455780504
 20
14.1092398997626
 30
0.0
 11
800.4964455780504
 21
11.90859272601728
 31
0.0
  0
LINE
  5
DE8
330
1F
100
AcDbEntity
  8
0
100
AcDbLine
 10
801.4964455780504
 20
14.1092398997626
 30
0.0
 11
801.4964455780504
 21
11.90859272601728
 31
0.0
  0
LINE
  5
DE9
330
1F
100
AcDbEntity
  8
0
100
AcDbLine
 10
802.4964455780502
 20
14.1092398997626
 30
0.0
 11
802.4964455780502
 21
11.90859272601728
 31
0.0
  0
LINE
  5
DEA
330
1F
100
AcDbEntity
  8
0
100
AcDbLine
 10
803.4964455780499
 20
14.1092398997626
 30
0.0
 11
803.4964455780499
 21
11.90859272601728
 31
0.0
  0
LINE
  5
DEB
330
1F
100
AcDbEntity
  8
0
100
AcDbLine
 10
805.4964455780504
 20
14.1092398997626
 30
0.0
 11
805.4964455780504
 21
11.90859272601728
 31
0.0
  0
LINE
  5
DEC
330
1F
100
AcDbEntity
  8
0
100
AcDbLine
 10
806.4964455780504
 20
14.1092398997626
 30
0.0
 11
806.4964455780504
 21
11.90859272601728
 31
0.0
  0
LINE
  5
DED
330
1F
100
AcDbEntity
  8
0
100
AcDbLine
 10
807.4964455780502
 20
14.1092398997626
 30
0.0
 11
807.4964455780502
 21
11.90859272601728
 31
0.0
  0
LINE
  5
DEE
330
1F
100
AcDbEntity
  8
0
100
AcDbLine
 10
808.4964455780499
 20
14.1092398997626
 30
0.0
 11
808.4964455780499
 21
11.90859272601728
 31
0.0
  0
LINE
  5
DEF
330
1F
100
AcDbEntity
  8
0
100
AcDbLine
 10
809.4964455780504
 20
11.90859272601728
 30
0.0
 11
809.4964455780504
 21
19.7680469179648
 31
0.0
  0
LINE
  5
DF0
330
1F
100
AcDbEntity
  8
0
100
AcDbLine
 10
809.4964455780504
 20
11.90859272601728
 30
0.0
 11
819.4964455780504
 21
11.90859272601728
 31
0.0
  0
LINE
  5
DF1
330
1F
100
AcDbEntity
  8
0
100
AcDbLine
 10
814.4964455780504
 20
11.90859272601728
 30
0.0
 11
814.4964455780504
 21
16.56138960765015
 31
0.0
  0
LINE
  5
DF2
330
1F
100
AcDbEntity
  8
0
100
AcDbLine
 10
810.4964455780504
 20
14.1092398997626
 30
0.0
 11
810.4964455780504
 21
11.90859272601728
 31
0.0
  0
LINE
  5
DF3
330
1F
100
AcDbEntity
  8
0
100
AcDbLine
 10
811.4964455780504
 20
14.1092398997626
 30
0.0
 11
811.4964455780504
 21
11.90859272601728
 31
0.0
  0
LINE
  5
DF4
330
1F
100
AcDbEntity
  8
0
100
AcDbLine
 10
812.4964455780502
 20
14.1092398997626
 30
0.0
 11
812.4964455780502
 21
11.90859272601728
 31
0.0
  0
LINE
  5
DF5
330
1F
100
AcDbEntity
  8
0
100
AcDbLine
 10
813.4964455780499
 20
14.1092398997626
 30
0.0
 11
813.4964455780499
 21
11.90859272601728
 31
0.0
  0
LINE
  5
DF6
330
1F
100
AcDbEntity
  8
0
100
AcDbLine
 10
815.4964455780504
 20
14.1092398997626
 30
0.0
 11
815.4964455780504
 21
11.90859272601728
 31
0.0
  0
LINE
  5
DF7
330
1F
100
AcDbEntity
  8
0
100
AcDbLine
 10
816.4964455780504
 20
14.1092398997626
 30
0.0
 11
816.4964455780504
 21
11.90859272601728
 31
0.0
  0
LINE
  5
DF8
330
1F
100
AcDbEntity
  8
0
100
AcDbLine
 10
817.4964455780502
 20
14.1092398997626
 30
0.0
 11
817.4964455780502
 21
11.90859272601728
 31
0.0
  0
LINE
  5
DF9
330
1F
100
AcDbEntity
  8
0
100
AcDbLine
 10
818.4964455780499
 20
14.1092398997626
 30
0.0
 11
818.4964455780499
 21
11.90859272601728
 31
0.0
  0
LINE
  5
DFA
330
1F
100
AcDbEntity
  8
0
100
AcDbLine
 10
819.4964455780504
 20
11.90859272601728
 30
0.0
 11
819.4964455780504
 21
19.7680469179648
 31
0.0
  0
MTEXT
  5
E17
330
1F
100
AcDbEntity
  8
0
100
AcDbMText
 10
728.6977363246009
 20
24.51016864304194
 30
0.0
 40
3.0
 41
0.5894590643961237
 46
3.0
 71
     1
 72
     5
  1
{\fＭＳ ゴシック|b0|i0|c0|p0;1}
 73
     1
 44
1.0
1001
ACAD
1000
ACAD_MTEXT_DEFINED_HEIGHT_BEGIN
1070
    46
1040
3.0
1000
ACAD_MTEXT_DEFINED_HEIGHT_END
  0
MTEXT
  5
E18
330
1F
100
AcDbEntity
  8
0
100
AcDbMText
 10
738.6977363246009
 20
24.51016864304194
 30
0.0
 40
3.0
 41
0.5894590643961237
 46
3.0
 71
     1
 72
     5
  1
{\fＭＳ ゴシック|b0|i0|c0|p0;2}
 73
     1
 44
1.0
1001
ACAD
1000
ACAD_MTEXT_DEFINED_HEIGHT_BEGIN
1070
    46
1040
3.0
1000
ACAD_MTEXT_DEFINED_HEIGHT_END
  0
MTEXT
  5
E19
330
1F
100
AcDbEntity
  8
0
100
AcDbMText
 10
748.6977363246009
 20
24.51016864304205
 30
0.0
 40
3.0
 41
0.5894590643961237
 46
3.0
 71
     1
 72
     5
  1
{\fＭＳ ゴシック|b0|i0|c0|p0;3}
 73
     1
 44
1.0
1001
ACAD
1000
ACAD_MTEXT_DEFINED_HEIGHT_BEGIN
1070
    46
1040
3.0
1000
ACAD_MTEXT_DEFINED_HEIGHT_END
  0
MTEXT
  5
E1A
330
1F
100
AcDbEntity
  8
0
100
AcDbMText
 10
758.6977363246009
 20
24.51016864304205
 30
0.0
 40
3.0
 41
0.5894590643961237
 46
3.0
 71
     1
 72
     5
  1
{\fＭＳ ゴシック|b0|i0|c0|p0;4}
 73
     1
 44
1.0
1001
ACAD
1000
ACAD_MTEXT_DEFINED_HEIGHT_BEGIN
1070
    46
1040
3.0
1000
ACAD_MTEXT_DEFINED_HEIGHT_END
  0
MTEXT
  5
E1B
330
1F
100
AcDbEntity
  8
0
100
AcDbMText
 10
768.6977363246009
 20
24.51016864304205
 30
0.0
 40
3.0
 41
0.5894590643961237
 46
3.0
 71
     1
 72
     5
  1
{\fＭＳ ゴシック|b0|i0|c0|p0;5}
 73
     1
 44
1.0
1001
ACAD
1000
ACAD_MTEXT_DEFINED_HEIGHT_BEGIN
1070
    46
1040
3.0
1000
ACAD_MTEXT_DEFINED_HEIGHT_END
  0
MTEXT
  5
E1C
330
1F
100
AcDbEntity
  8
0
100
AcDbMText
 10
778.6977363246009
 20
24.51016864304205
 30
0.0
 40
3.0
 41
0.5894590643961237
 46
3.0
 71
     1
 72
     5
  1
{\fＭＳ ゴシック|b0|i0|c0|p0;6}
 73
     1
 44
1.0
1001
ACAD
1000
ACAD_MTEXT_DEFINED_HEIGHT_BEGIN
1070
    46
1040
3.0
1000
ACAD_MTEXT_DEFINED_HEIGHT_END
  0
MTEXT
  5
E1D
330
1F
100
AcDbEntity
  8
0
100
AcDbMText
 10
788.6977363246009
 20
24.51016864304217
 30
0.0
 40
3.0
 41
0.5894590643961237
 46
3.0
 71
     1
 72
     5
  1
{\fＭＳ ゴシック|b0|i0|c0|p0;7}
 73
     1
 44
1.0
1001
ACAD
1000
ACAD_MTEXT_DEFINED_HEIGHT_BEGIN
1070
    46
1040
3.0
1000
ACAD_MTEXT_DEFINED_HEIGHT_END
  0
MTEXT
  5
E1E
330
1F
100
AcDbEntity
  8
0
100
AcDbMText
 10
798.6977363246009
 20
24.51016864304217
 30
0.0
 40
3.0
 41
0.5894590643961237
 46
3.0
 71
     1
 72
     5
  1
{\fＭＳ ゴシック|b0|i0|c0|p0;8}
 73
     1
 44
1.0
1001
ACAD
1000
ACAD_MTEXT_DEFINED_HEIGHT_BEGIN
1070
    46
1040
3.0
1000
ACAD_MTEXT_DEFINED_HEIGHT_END
  0
MTEXT
  5
E1F
330
1F
100
AcDbEntity
  8
0
100
AcDbMText
 10
808.6977363246009
 20
24.51016864304217
 30
0.0
 40
3.0
 41
0.5894590643961237
 46
3.0
 71
     1
 72
     5
  1
{\fＭＳ ゴシック|b0|i0|c0|p0;9}
 73
     1
 44
1.0
1001
ACAD
1000
ACAD_MTEXT_DEFINED_HEIGHT_BEGIN
1070
    46
1040
3.0
1000
ACAD_MTEXT_DEFINED_HEIGHT_END
  0
MTEXT
  5
E20
330
1F
100
AcDbEntity
  8
0
100
AcDbMText
 10
817.9117909054063
 20
24.51016864304217
 30
0.0
 40
3.0
 41
0.5894590643961237
 46
3.0
 71
     1
 72
     5
  1
{\fＭＳ ゴシック|b0|i0|c0|p0;10}
 73
     1
 44
1.0
1001
ACAD
1000
ACAD_MTEXT_DEFINED_HEIGHT_BEGIN
1070
    46
1040
3.0
1000
ACAD_MTEXT_DEFINED_HEIGHT_END
  0
LWPOLYLINE
  5
E51
102
{ACAD_REACTORS
330
E55
102
}
330
1F
100
AcDbEntity
  8
0
100
AcDbPolyline
 90
        4
 70
     1
 43
0.0
 10
0.0000000000001137
 20
593.9999999999999
 10
420.0
 20
593.9999999999998
 10
419.9999999999999
 20
296.9999999999999
 10
0.0000000000000568
 20
296.9999999999999
  0
LWPOLYLINE
  5
E52
102
{ACAD_REACTORS
330
E55
102
}
330
1F
100
AcDbEntity
  8
0
100
AcDbPolyline
 90
        4
 70
     1
 43
0.0
 10
420.0
 20
593.9999999999998
 10
840.0
 20
593.9999999999998
 10
840.0
 20
296.9999999999998
 10
419.9999999999999
 20
296.9999999999999
  0
LWPOLYLINE
  5
E53
102
{ACAD_REACTORS
330
E55
102
}
330
1F
100
AcDbEntity
  8
0
100
AcDbPolyline
 90
        4
 70
     1
 43
0.0
 10
419.9999999999999
 20
296.9999999999999
 10
840.0
 20
296.9999999999998
 10
839.9999999999998
 20
-0.0000000000001137
 10
419.9999999999999
 20
-0.0000000000001137
  0
LWPOLYLINE
  5
E54
102
{ACAD_REACTORS
330
E55
102
}
330
1F
100
AcDbEntity
  8
0
100
AcDbPolyline
 90
        4
 70
     1
 43
0.0
 10
0.0000000000000568
 20
296.9999999999999
 10
419.9999999999999
 20
296.9999999999999
 10
419.9999999999999
 20
-0.0000000000001137
 10
0.0
 20
0.0
  0
LINE
  5
EF8
330
1F
100
AcDbEntity
  8
0
100
AcDbLine
 10
5.817231174720746
 20
588.0646381258947
 30
0.0
 11
13.67668536666827
 21
588.0646381258947
 31
0.0
  0
LINE
  5
EF9
330
1F
100
AcDbEntity
  8
0
100
AcDbLine
 10
5.817231174720746
 20
588.0646381258947
 30
0.0
 11
5.817231174720746
 21
578.0646381258947
 31
0.0
  0
LINE
  5
EFA
330
1F
100
AcDbEntity
  8
0
100
AcDbLine
 10
5.817231174720746
 20
583.0646381258947
 30
0.0
 11
10.47002805635361
 21
583.0646381258947
 31
0.0
  0
LINE
  5
EFB
330
1F
100
AcDbEntity
  8
0
100
AcDbLine
 10
8.01787834846607
 20
587.0646381258947
 30
0.0
 11
5.817231174720746
 21
587.0646381258947
 31
0.0
  0
LINE
  5
EFC
330
1F
100
AcDbEntity
  8
0
100
AcDbLine
 10
8.01787834846607
 20
586.0646381258947
 30
0.0
 11
5.817231174720746
 21
586.0646381258947
 31
0.0
  0
LINE
  5
EFD
330
1F
100
AcDbEntity
  8
0
100
AcDbLine
 10
8.01787834846607
 20
585.0646381258949
 30
0.0
 11
5.817231174720746
 21
585.0646381258949
 31
0.0
  0
LINE
  5
EFE
330
1F
100
AcDbEntity
  8
0
100
AcDbLine
 10
8.01787834846607
 20
584.0646381258952
 30
0.0
 11
5.817231174720746
 21
584.0646381258952
 31
0.0
  0
LINE
  5
EFF
330
1F
100
AcDbEntity
  8
0
100
AcDbLine
 10
8.01787834846607
 20
582.0646381258947
 30
0.0
 11
5.817231174720746
 21
582.0646381258947
 31
0.0
  0
LINE
  5
F00
330
1F
100
AcDbEntity
  8
0
100
AcDbLine
 10
8.01787834846607
 20
581.0646381258947
 30
0.0
 11
5.817231174720746
 21
581.0646381258947
 31
0.0
  0
LINE
  5
F01
330
1F
100
AcDbEntity
  8
0
100
AcDbLine
 10
8.01787834846607
 20
580.0646381258949
 30
0.0
 11
5.817231174720746
 21
580.0646381258949
 31
0.0
  0
LINE
  5
F02
330
1F
100
AcDbEntity
  8
0
100
AcDbLine
 10
8.01787834846607
 20
579.0646381258952
 30
0.0
 11
5.817231174720746
 21
579.0646381258952
 31
0.0
  0
LINE
  5
F03
330
1F
100
AcDbEntity
  8
0
100
AcDbLine
 10
5.817231174720746
 20
578.0646381258947
 30
0.0
 11
13.67668536666827
 21
578.0646381258947
 31
0.0
  0
LINE
  5
F04
330
1F
100
AcDbEntity
  8
0
100
AcDbLine
 10
5.817231174720746
 20
578.0646381258947
 30
0.0
 11
5.817231174720746
 21
568.0646381258947
 31
0.0
  0
LINE
  5
F05
330
1F
100
AcDbEntity
  8
0
100
AcDbLine
 10
5.817231174720746
 20
573.0646381258947
 30
0.0
 11
10.47002805635361
 21
573.0646381258947
 31
0.0
  0
LINE
  5
F06
330
1F
100
AcDbEntity
  8
0
100
AcDbLine
 10
8.01787834846607
 20
577.0646381258947
 30
0.0
 11
5.817231174720746
 21
577.0646381258947
 31
0.0
  0
LINE
  5
F07
330
1F
100
AcDbEntity
  8
0
100
AcDbLine
 10
8.01787834846607
 20
576.0646381258947
 30
0.0
 11
5.817231174720746
 21
576.0646381258947
 31
0.0
  0
LINE
  5
F08
330
1F
100
AcDbEntity
  8
0
100
AcDbLine
 10
8.01787834846607
 20
575.0646381258949
 30
0.0
 11
5.817231174720746
 21
575.0646381258949
 31
0.0
  0
LINE
  5
F09
330
1F
100
AcDbEntity
  8
0
100
AcDbLine
 10
8.01787834846607
 20
574.0646381258952
 30
0.0
 11
5.817231174720746
 21
574.0646381258952
 31
0.0
  0
LINE
  5
F0A
330
1F
100
AcDbEntity
  8
0
100
AcDbLine
 10
8.01787834846607
 20
572.0646381258947
 30
0.0
 11
5.817231174720746
 21
572.0646381258947
 31
0.0
  0
LINE
  5
F0B
330
1F
100
AcDbEntity
  8
0
100
AcDbLine
 10
8.01787834846607
 20
571.0646381258947
 30
0.0
 11
5.817231174720746
 21
571.0646381258947
 31
0.0
  0
LINE
  5
F0C
330
1F
100
AcDbEntity
  8
0
100
AcDbLine
 10
8.01787834846607
 20
570.0646381258949
 30
0.0
 11
5.817231174720746
 21
570.0646381258949
 31
0.0
  0
LINE
  5
F0D
330
1F
100
AcDbEntity
  8
0
100
AcDbLine
 10
8.01787834846607
 20
569.0646381258952
 30
0.0
 11
5.817231174720746
 21
569.0646381258952
 31
0.0
  0
LINE
  5
F0E
330
1F
100
AcDbEntity
  8
0
100
AcDbLine
 10
5.817231174720746
 20
568.0646381258947
 30
0.0
 11
13.67668536666827
 21
568.0646381258947
 31
0.0
  0
LINE
  5
F0F
330
1F
100
AcDbEntity
  8
0
100
AcDbLine
 10
5.817231174720746
 20
568.0646381258947
 30
0.0
 11
5.81723117472086
 21
558.0646381258947
 31
0.0
  0
LINE
  5
F10
330
1F
100
AcDbEntity
  8
0
100
AcDbLine
 10
5.81723117472086
 20
563.0646381258947
 30
0.0
 11
10.47002805635373
 21
563.0646381258947
 31
0.0
  0
LINE
  5
F11
330
1F
100
AcDbEntity
  8
0
100
AcDbLine
 10
8.01787834846607
 20
567.0646381258947
 30
0.0
 11
5.817231174720746
 21
567.0646381258947
 31
0.0
  0
LINE
  5
F12
330
1F
100
AcDbEntity
  8
0
100
AcDbLine
 10
8.01787834846607
 20
566.0646381258947
 30
0.0
 11
5.817231174720746
 21
566.0646381258947
 31
0.0
  0
LINE
  5
F13
330
1F
100
AcDbEntity
  8
0
100
AcDbLine
 10
8.01787834846607
 20
565.0646381258949
 30
0.0
 11
5.817231174720746
 21
565.0646381258949
 31
0.0
  0
LINE
  5
F14
330
1F
100
AcDbEntity
  8
0
100
AcDbLine
 10
8.017878348466184
 20
564.0646381258952
 30
0.0
 11
5.81723117472086
 21
564.0646381258952
 31
0.0
  0
LINE
  5
F15
330
1F
100
AcDbEntity
  8
0
100
AcDbLine
 10
8.017878348466184
 20
562.0646381258947
 30
0.0
 11
5.81723117472086
 21
562.0646381258947
 31
0.0
  0
LINE
  5
F16
330
1F
100
AcDbEntity
  8
0
100
AcDbLine
 10
8.017878348466184
 20
561.0646381258947
 30
0.0
 11
5.81723117472086
 21
561.0646381258947
 31
0.0
  0
LINE
  5
F17
330
1F
100
AcDbEntity
  8
0
100
AcDbLine
 10
8.017878348466184
 20
560.0646381258949
 30
0.0
 11
5.81723117472086
 21
560.0646381258949
 31
0.0
  0
LINE
  5
F18
330
1F
100
AcDbEntity
  8
0
100
AcDbLine
 10
8.017878348466184
 20
559.0646381258952
 30
0.0
 11
5.81723117472086
 21
559.0646381258952
 31
0.0
  0
LINE
  5
F19
330
1F
100
AcDbEntity
  8
0
100
AcDbLine
 10
5.81723117472086
 20
558.0646381258947
 30
0.0
 11
13.67668536666838
 21
558.0646381258947
 31
0.0
  0
LINE
  5
F1A
330
1F
100
AcDbEntity
  8
0
100
AcDbLine
 10
5.81723117472086
 20
558.0646381258947
 30
0.0
 11
5.81723117472086
 21
548.0646381258947
 31
0.0
  0
LINE
  5
F1B
330
1F
100
AcDbEntity
  8
0
100
AcDbLine
 10
5.81723117472086
 20
553.0646381258947
 30
0.0
 11
10.47002805635373
 21
553.0646381258947
 31
0.0
  0
LINE
  5
F1C
330
1F
100
AcDbEntity
  8
0
100
AcDbLine
 10
8.017878348466184
 20
557.0646381258947
 30
0.0
 11
5.81723117472086
 21
557.0646381258947
 31
0.0
  0
LINE
  5
F1D
330
1F
100
AcDbEntity
  8
0
100
AcDbLine
 10
8.017878348466184
 20
556.0646381258947
 30
0.0
 11
5.81723117472086
 21
556.0646381258947
 31
0.0
  0
LINE
  5
F1E
330
1F
100
AcDbEntity
  8
0
100
AcDbLine
 10
8.017878348466184
 20
555.0646381258949
 30
0.0
 11
5.81723117472086
 21
555.0646381258949
 31
0.0
  0
LINE
  5
F1F
330
1F
100
AcDbEntity
  8
0
100
AcDbLine
 10
8.017878348466184
 20
554.0646381258952
 30
0.0
 11
5.81723117472086
 21
554.0646381258952
 31
0.0
  0
LINE
  5
F20
330
1F
100
AcDbEntity
  8
0
100
AcDbLine
 10
8.017878348466184
 20
552.0646381258947
 30
0.0
 11
5.81723117472086
 21
552.0646381258947
 31
0.0
  0
LINE
  5
F21
330
1F
100
AcDbEntity
  8
0
100
AcDbLine
 10
8.017878348466184
 20
551.0646381258947
 30
0.0
 11
5.81723117472086
 21
551.0646381258947
 31
0.0
  0
LINE
  5
F22
330
1F
100
AcDbEntity
  8
0
100
AcDbLine
 10
8.017878348466184
 20
550.0646381258949
 30
0.0
 11
5.81723117472086
 21
550.0646381258949
 31
0.0
  0
LINE
  5
F23
330
1F
100
AcDbEntity
  8
0
100
AcDbLine
 10
8.017878348466184
 20
549.0646381258952
 30
0.0
 11
5.81723117472086
 21
549.0646381258952
 31
0.0
  0
LINE
  5
F24
330
1F
100
AcDbEntity
  8
0
100
AcDbLine
 10
5.81723117472086
 20
548.0646381258947
 30
0.0
 11
13.67668536666838
 21
548.0646381258947
 31
0.0
  0
LINE
  5
F25
330
1F
100
AcDbEntity
  8
0
100
AcDbLine
 10
5.81723117472086
 20
548.0646381258947
 30
0.0
 11
5.81723117472086
 21
538.0646381258947
 31
0.0
  0
LINE
  5
F26
330
1F
100
AcDbEntity
  8
0
100
AcDbLine
 10
5.81723117472086
 20
543.0646381258947
 30
0.0
 11
10.47002805635373
 21
543.0646381258947
 31
0.0
  0
LINE
  5
F27
330
1F
100
AcDbEntity
  8
0
100
AcDbLine
 10
8.017878348466184
 20
547.0646381258947
 30
0.0
 11
5.81723117472086
 21
547.0646381258947
 31
0.0
  0
LINE
  5
F28
330
1F
100
AcDbEntity
  8
0
100
AcDbLine
 10
8.017878348466184
 20
546.0646381258947
 30
0.0
 11
5.81723117472086
 21
546.0646381258947
 31
0.0
  0
LINE
  5
F29
330
1F
100
AcDbEntity
  8
0
100
AcDbLine
 10
8.017878348466184
 20
545.0646381258949
 30
0.0
 11
5.81723117472086
 21
545.0646381258949
 31
0.0
  0
LINE
  5
F2A
330
1F
100
AcDbEntity
  8
0
100
AcDbLine
 10
8.017878348466184
 20
544.0646381258952
 30
0.0
 11
5.81723117472086
 21
544.0646381258952
 31
0.0
  0
LINE
  5
F2B
330
1F
100
AcDbEntity
  8
0
100
AcDbLine
 10
8.017878348466184
 20
542.0646381258947
 30
0.0
 11
5.81723117472086
 21
542.0646381258947
 31
0.0
  0
LINE
  5
F2C
330
1F
100
AcDbEntity
  8
0
100
AcDbLine
 10
8.017878348466184
 20
541.0646381258947
 30
0.0
 11
5.81723117472086
 21
541.0646381258947
 31
0.0
  0
LINE
  5
F2D
330
1F
100
AcDbEntity
  8
0
100
AcDbLine
 10
8.017878348466184
 20
540.0646381258949
 30
0.0
 11
5.81723117472086
 21
540.0646381258949
 31
0.0
  0
LINE
  5
F2E
330
1F
100
AcDbEntity
  8
0
100
AcDbLine
 10
8.017878348466184
 20
539.0646381258952
 30
0.0
 11
5.81723117472086
 21
539.0646381258952
 31
0.0
  0
LINE
  5
F2F
330
1F
100
AcDbEntity
  8
0
100
AcDbLine
 10
5.81723117472086
 20
538.0646381258947
 30
0.0
 11
13.67668536666838
 21
538.0646381258947
 31
0.0
  0
LINE
  5
F30
330
1F
100
AcDbEntity
  8
0
100
AcDbLine
 10
5.81723117472086
 20
538.0646381258947
 30
0.0
 11
5.81723117472086
 21
528.0646381258947
 31
0.0
  0
LINE
  5
F31
330
1F
100
AcDbEntity
  8
0
100
AcDbLine
 10
5.81723117472086
 20
533.0646381258947
 30
0.0
 11
10.47002805635373
 21
533.0646381258947
 31
0.0
  0
LINE
  5
F32
330
1F
100
AcDbEntity
  8
0
100
AcDbLine
 10
8.017878348466184
 20
537.0646381258947
 30
0.0
 11
5.81723117472086
 21
537.0646381258947
 31
0.0
  0
LINE
  5
F33
330
1F
100
AcDbEntity
  8
0
100
AcDbLine
 10
8.017878348466184
 20
536.0646381258947
 30
0.0
 11
5.81723117472086
 21
536.0646381258947
 31
0.0
  0
LINE
  5
F34
330
1F
100
AcDbEntity
  8
0
100
AcDbLine
 10
8.017878348466184
 20
535.0646381258949
 30
0.0
 11
5.81723117472086
 21
535.0646381258949
 31
0.0
  0
LINE
  5
F35
330
1F
100
AcDbEntity
  8
0
100
AcDbLine
 10
8.017878348466184
 20
534.0646381258952
 30
0.0
 11
5.81723117472086
 21
534.0646381258952
 31
0.0
  0
LINE
  5
F36
330
1F
100
AcDbEntity
  8
0
100
AcDbLine
 10
8.017878348466184
 20
532.0646381258947
 30
0.0
 11
5.81723117472086
 21
532.0646381258947
 31
0.0
  0
LINE
  5
F37
330
1F
100
AcDbEntity
  8
0
100
AcDbLine
 10
8.017878348466184
 20
531.0646381258947
 30
0.0
 11
5.81723117472086
 21
531.0646381258947
 31
0.0
  0
LINE
  5
F38
330
1F
100
AcDbEntity
  8
0
100
AcDbLine
 10
8.017878348466184
 20
530.0646381258949
 30
0.0
 11
5.81723117472086
 21
530.0646381258949
 31
0.0
  0
LINE
  5
F39
330
1F
100
AcDbEntity
  8
0
100
AcDbLine
 10
8.017878348466184
 20
529.0646381258952
 30
0.0
 11
5.81723117472086
 21
529.0646381258952
 31
0.0
  0
LINE
  5
F3A
330
1F
100
AcDbEntity
  8
0
100
AcDbLine
 10
5.81723117472086
 20
528.0646381258947
 30
0.0
 11
13.67668536666838
 21
528.0646381258947
 31
0.0
  0
LINE
  5
F3B
330
1F
100
AcDbEntity
  8
0
100
AcDbLine
 10
5.81723117472086
 20
528.0646381258947
 30
0.0
 11
5.817231174720973
 21
518.0646381258947
 31
0.0
  0
LINE
  5
F3C
330
1F
100
AcDbEntity
  8
0
100
AcDbLine
 10
5.81723117472086
 20
523.0646381258947
 30
0.0
 11
10.47002805635373
 21
523.0646381258947
 31
0.0
  0
LINE
  5
F3D
330
1F
100
AcDbEntity
  8
0
100
AcDbLine
 10
8.017878348466184
 20
527.0646381258947
 30
0.0
 11
5.81723117472086
 21
527.0646381258947
 31
0.0
  0
LINE
  5
F3E
330
1F
100
AcDbEntity
  8
0
100
AcDbLine
 10
8.017878348466184
 20
526.0646381258947
 30
0.0
 11
5.81723117472086
 21
526.0646381258947
 31
0.0
  0
LINE
  5
F3F
330
1F
100
AcDbEntity
  8
0
100
AcDbLine
 10
8.017878348466184
 20
525.0646381258949
 30
0.0
 11
5.81723117472086
 21
525.0646381258949
 31
0.0
  0
LINE
  5
F40
330
1F
100
AcDbEntity
  8
0
100
AcDbLine
 10
8.017878348466184
 20
524.0646381258952
 30
0.0
 11
5.81723117472086
 21
524.0646381258952
 31
0.0
  0
LINE
  5
F41
330
1F
100
AcDbEntity
  8
0
100
AcDbLine
 10
8.017878348466184
 20
522.0646381258947
 30
0.0
 11
5.81723117472086
 21
522.0646381258947
 31
0.0
  0
LINE
  5
F42
330
1F
100
AcDbEntity
  8
0
100
AcDbLine
 10
8.017878348466297
 20
521.0646381258947
 30
0.0
 11
5.817231174720973
 21
521.0646381258947
 31
0.0
  0
LINE
  5
F43
330
1F
100
AcDbEntity
  8
0
100
AcDbLine
 10
8.017878348466297
 20
520.0646381258949
 30
0.0
 11
5.817231174720973
 21
520.0646381258949
 31
0.0
  0
LINE
  5
F44
330
1F
100
AcDbEntity
  8
0
100
AcDbLine
 10
8.017878348466297
 20
519.0646381258952
 30
0.0
 11
5.817231174720973
 21
519.0646381258952
 31
0.0
  0
LINE
  5
F45
330
1F
100
AcDbEntity
  8
0
100
AcDbLine
 10
5.817231174720973
 20
518.0646381258947
 30
0.0
 11
13.67668536666849
 21
518.0646381258947
 31
0.0
  0
LINE
  5
F46
330
1F
100
AcDbEntity
  8
0
100
AcDbLine
 10
5.817231174720973
 20
518.0646381258947
 30
0.0
 11
5.817231174720973
 21
508.0646381258947
 31
0.0
  0
LINE
  5
F47
330
1F
100
AcDbEntity
  8
0
100
AcDbLine
 10
5.817231174720973
 20
513.0646381258947
 30
0.0
 11
10.47002805635384
 21
513.0646381258947
 31
0.0
  0
LINE
  5
F48
330
1F
100
AcDbEntity
  8
0
100
AcDbLine
 10
8.017878348466297
 20
517.0646381258947
 30
0.0
 11
5.817231174720973
 21
517.0646381258947
 31
0.0
  0
LINE
  5
F49
330
1F
100
AcDbEntity
  8
0
100
AcDbLine
 10
8.017878348466297
 20
516.0646381258947
 30
0.0
 11
5.817231174720973
 21
516.0646381258947
 31
0.0
  0
LINE
  5
F4A
330
1F
100
AcDbEntity
  8
0
100
AcDbLine
 10
8.017878348466297
 20
515.0646381258949
 30
0.0
 11
5.817231174720973
 21
515.0646381258949
 31
0.0
  0
LINE
  5
F4B
330
1F
100
AcDbEntity
  8
0
100
AcDbLine
 10
8.017878348466297
 20
514.0646381258952
 30
0.0
 11
5.817231174720973
 21
514.0646381258952
 31
0.0
  0
LINE
  5
F4C
330
1F
100
AcDbEntity
  8
0
100
AcDbLine
 10
8.017878348466297
 20
512.0646381258947
 30
0.0
 11
5.817231174720973
 21
512.0646381258947
 31
0.0
  0
LINE
  5
F4D
330
1F
100
AcDbEntity
  8
0
100
AcDbLine
 10
8.017878348466297
 20
511.0646381258947
 30
0.0
 11
5.817231174720973
 21
511.0646381258947
 31
0.0
  0
LINE
  5
F4E
330
1F
100
AcDbEntity
  8
0
100
AcDbLine
 10
8.017878348466297
 20
510.0646381258949
 30
0.0
 11
5.817231174720973
 21
510.0646381258949
 31
0.0
  0
LINE
  5
F4F
330
1F
100
AcDbEntity
  8
0
100
AcDbLine
 10
8.017878348466297
 20
509.0646381258952
 30
0.0
 11
5.817231174720973
 21
509.0646381258952
 31
0.0
  0
LINE
  5
F50
330
1F
100
AcDbEntity
  8
0
100
AcDbLine
 10
5.817231174720973
 20
508.0646381258947
 30
0.0
 11
13.67668536666849
 21
508.0646381258947
 31
0.0
  0
LINE
  5
F51
330
1F
100
AcDbEntity
  8
0
100
AcDbLine
 10
5.817231174720973
 20
508.0646381258947
 30
0.0
 11
5.817231174720973
 21
498.0646381258947
 31
0.0
  0
LINE
  5
F52
330
1F
100
AcDbEntity
  8
0
100
AcDbLine
 10
5.817231174720973
 20
503.0646381258947
 30
0.0
 11
10.47002805635384
 21
503.0646381258947
 31
0.0
  0
LINE
  5
F53
330
1F
100
AcDbEntity
  8
0
100
AcDbLine
 10
8.017878348466297
 20
507.0646381258947
 30
0.0
 11
5.817231174720973
 21
507.0646381258947
 31
0.0
  0
LINE
  5
F54
330
1F
100
AcDbEntity
  8
0
100
AcDbLine
 10
8.017878348466297
 20
506.0646381258947
 30
0.0
 11
5.817231174720973
 21
506.0646381258947
 31
0.0
  0
LINE
  5
F55
330
1F
100
AcDbEntity
  8
0
100
AcDbLine
 10
8.017878348466297
 20
505.0646381258949
 30
0.0
 11
5.817231174720973
 21
505.0646381258949
 31
0.0
  0
LINE
  5
F56
330
1F
100
AcDbEntity
  8
0
100
AcDbLine
 10
8.017878348466297
 20
504.0646381258952
 30
0.0
 11
5.817231174720973
 21
504.0646381258952
 31
0.0
  0
LINE
  5
F57
330
1F
100
AcDbEntity
  8
0
100
AcDbLine
 10
8.017878348466297
 20
502.0646381258947
 30
0.0
 11
5.817231174720973
 21
502.0646381258947
 31
0.0
  0
LINE
  5
F58
330
1F
100
AcDbEntity
  8
0
100
AcDbLine
 10
8.017878348466297
 20
501.0646381258947
 30
0.0
 11
5.817231174720973
 21
501.0646381258947
 31
0.0
  0
LINE
  5
F59
330
1F
100
AcDbEntity
  8
0
100
AcDbLine
 10
8.017878348466297
 20
500.0646381258949
 30
0.0
 11
5.817231174720973
 21
500.0646381258949
 31
0.0
  0
LINE
  5
F5A
330
1F
100
AcDbEntity
  8
0
100
AcDbLine
 10
8.017878348466297
 20
499.0646381258952
 30
0.0
 11
5.817231174720973
 21
499.0646381258952
 31
0.0
  0
LINE
  5
F5B
330
1F
100
AcDbEntity
  8
0
100
AcDbLine
 10
5.817231174720973
 20
498.0646381258947
 30
0.0
 11
13.67668536666849
 21
498.0646381258947
 31
0.0
  0
LINE
  5
F5C
330
1F
100
AcDbEntity
  8
0
100
AcDbLine
 10
5.817231174720973
 20
498.0646381258947
 30
0.0
 11
5.817231174720973
 21
488.0646381258947
 31
0.0
  0
LINE
  5
F5D
330
1F
100
AcDbEntity
  8
0
100
AcDbLine
 10
5.817231174720973
 20
493.0646381258947
 30
0.0
 11
10.47002805635384
 21
493.0646381258947
 31
0.0
  0
LINE
  5
F5E
330
1F
100
AcDbEntity
  8
0
100
AcDbLine
 10
8.017878348466297
 20
497.0646381258947
 30
0.0
 11
5.817231174720973
 21
497.0646381258947
 31
0.0
  0
LINE
  5
F5F
330
1F
100
AcDbEntity
  8
0
100
AcDbLine
 10
8.017878348466297
 20
496.0646381258947
 30
0.0
 11
5.817231174720973
 21
496.0646381258947
 31
0.0
  0
LINE
  5
F60
330
1F
100
AcDbEntity
  8
0
100
AcDbLine
 10
8.017878348466297
 20
495.0646381258949
 30
0.0
 11
5.817231174720973
 21
495.0646381258949
 31
0.0
  0
LINE
  5
F61
330
1F
100
AcDbEntity
  8
0
100
AcDbLine
 10
8.017878348466297
 20
494.0646381258952
 30
0.0
 11
5.817231174720973
 21
494.0646381258952
 31
0.0
  0
LINE
  5
F62
330
1F
100
AcDbEntity
  8
0
100
AcDbLine
 10
8.017878348466297
 20
492.0646381258947
 30
0.0
 11
5.817231174720973
 21
492.0646381258947
 31
0.0
  0
LINE
  5
F63
330
1F
100
AcDbEntity
  8
0
100
AcDbLine
 10
8.017878348466297
 20
491.0646381258947
 30
0.0
 11
5.817231174720973
 21
491.0646381258947
 31
0.0
  0
LINE
  5
F64
330
1F
100
AcDbEntity
  8
0
100
AcDbLine
 10
8.017878348466297
 20
490.0646381258949
 30
0.0
 11
5.817231174720973
 21
490.0646381258949
 31
0.0
  0
LINE
  5
F65
330
1F
100
AcDbEntity
  8
0
100
AcDbLine
 10
8.017878348466297
 20
489.0646381258952
 30
0.0
 11
5.817231174720973
 21
489.0646381258952
 31
0.0
  0
LINE
  5
F66
330
1F
100
AcDbEntity
  8
0
100
AcDbLine
 10
5.817231174720973
 20
488.0646381258947
 30
0.0
 11
13.67668536666849
 21
488.0646381258947
 31
0.0
  0
MTEXT
  5
F67
330
1F
100
AcDbEntity
  8
0
100
AcDbMText
 10
18.41880709174563
 20
578.8633473793442
 30
0.0
 40
3.0
 41
0.5894590643961237
 46
3.0
 71
     1
 72
     5
  1
{\fＭＳ ゴシック|b0|i0|c0|p0;1}
 11
-1.836970198721030E-16
 21
-1.0
 31
0.0
 73
     1
 44
1.0
1001
ACAD
1000
ACAD_MTEXT_DEFINED_HEIGHT_BEGIN
1070
    46
1040
3.0
1000
ACAD_MTEXT_DEFINED_HEIGHT_END
  0
MTEXT
  5
F68
330
1F
100
AcDbEntity
  8
0
100
AcDbMText
 10
18.41880709174563
 20
568.8633473793442
 30
0.0
 40
3.0
 41
0.5894590643961237
 46
3.0
 71
     1
 72
     5
  1
{\fＭＳ ゴシック|b0|i0|c0|p0;2}
 11
-1.836970198721030E-16
 21
-1.0
 31
0.0
 73
     1
 44
1.0
1001
ACAD
1000
ACAD_MTEXT_DEFINED_HEIGHT_BEGIN
1070
    46
1040
3.0
1000
ACAD_MTEXT_DEFINED_HEIGHT_END
  0
MTEXT
  5
F69
330
1F
100
AcDbEntity
  8
0
100
AcDbMText
 10
18.41880709174575
 20
558.8633473793442
 30
0.0
 40
3.0
 41
0.5894590643961237
 46
3.0
 71
     1
 72
     5
  1
{\fＭＳ ゴシック|b0|i0|c0|p0;3}
 11
-1.836970198721030E-16
 21
-1.0
 31
0.0
 73
     1
 44
1.0
1001
ACAD
1000
ACAD_MTEXT_DEFINED_HEIGHT_BEGIN
1070
    46
1040
3.0
1000
ACAD_MTEXT_DEFINED_HEIGHT_END
  0
MTEXT
  5
F6A
330
1F
100
AcDbEntity
  8
0
100
AcDbMText
 10
18.41880709174575
 20
548.8633473793442
 30
0.0
 40
3.0
 41
0.5894590643961237
 46
3.0
 71
     1
 72
     5
  1
{\fＭＳ ゴシック|b0|i0|c0|p0;4}
 11
-1.836970198721030E-16
 21
-1.0
 31
0.0
 73
     1
 44
1.0
1001
ACAD
1000
ACAD_MTEXT_DEFINED_HEIGHT_BEGIN
1070
    46
1040
3.0
1000
ACAD_MTEXT_DEFINED_HEIGHT_END
  0
MTEXT
  5
F6B
330
1F
100
AcDbEntity
  8
0
100
AcDbMText
 10
18.41880709174575
 20
538.8633473793442
 30
0.0
 40
3.0
 41
0.5894590643961237
 46
3.0
 71
     1
 72
     5
  1
{\fＭＳ ゴシック|b0|i0|c0|p0;5}
 11
-1.836970198721030E-16
 21
-1.0
 31
0.0
 73
     1
 44
1.0
1001
ACAD
1000
ACAD_MTEXT_DEFINED_HEIGHT_BEGIN
1070
    46
1040
3.0
1000
ACAD_MTEXT_DEFINED_HEIGHT_END
  0
MTEXT
  5
F6C
330
1F
100
AcDbEntity
  8
0
100
AcDbMText
 10
18.41880709174575
 20
528.8633473793442
 30
0.0
 40
3.0
 41
0.5894590643961237
 46
3.0
 71
     1
 72
     5
  1
{\fＭＳ ゴシック|b0|i0|c0|p0;6}
 11
-1.836970198721030E-16
 21
-1.0
 31
0.0
 73
     1
 44
1.0
1001
ACAD
1000
ACAD_MTEXT_DEFINED_HEIGHT_BEGIN
1070
    46
1040
3.0
1000
ACAD_MTEXT_DEFINED_HEIGHT_END
  0
MTEXT
  5
F6D
330
1F
100
AcDbEntity
  8
0
100
AcDbMText
 10
18.41880709174586
 20
518.8633473793442
 30
0.0
 40
3.0
 41
0.5894590643961237
 46
3.0
 71
     1
 72
     5
  1
{\fＭＳ ゴシック|b0|i0|c0|p0;7}
 11
-1.836970198721030E-16
 21
-1.0
 31
0.0
 73
     1
 44
1.0
1001
ACAD
1000
ACAD_MTEXT_DEFINED_HEIGHT_BEGIN
1070
    46
1040
3.0
1000
ACAD_MTEXT_DEFINED_HEIGHT_END
  0
MTEXT
  5
F6E
330
1F
100
AcDbEntity
  8
0
100
AcDbMText
 10
18.41880709174586
 20
508.8633473793442
 30
0.0
 40
3.0
 41
0.5894590643961237
 46
3.0
 71
     1
 72
     5
  1
{\fＭＳ ゴシック|b0|i0|c0|p0;8}
 11
-1.836970198721030E-16
 21
-1.0
 31
0.0
 73
     1
 44
1.0
1001
ACAD
1000
ACAD_MTEXT_DEFINED_HEIGHT_BEGIN
1070
    46
1040
3.0
1000
ACAD_MTEXT_DEFINED_HEIGHT_END
  0
MTEXT
  5
F6F
330
1F
100
AcDbEntity
  8
0
100
AcDbMText
 10
18.41880709174586
 20
498.8633473793442
 30
0.0
 40
3.0
 41
0.5894590643961237
 46
3.0
 71
     1
 72
     5
  1
{\fＭＳ ゴシック|b0|i0|c0|p0;9}
 11
-1.836970198721030E-16
 21
-1.0
 31
0.0
 73
     1
 44
1.0
1001
ACAD
1000
ACAD_MTEXT_DEFINED_HEIGHT_BEGIN
1070
    46
1040
3.0
1000
ACAD_MTEXT_DEFINED_HEIGHT_END
  0
MTEXT
  5
F70
330
1F
100
AcDbEntity
  8
0
100
AcDbMText
 10
18.41880709174586
 20
489.6492927985388
 30
0.0
 40
3.0
 41
0.5894590643961237
 46
3.0
 71
     1
 72
     5
  1
{\fＭＳ ゴシック|b0|i0|c0|p0;10}
 11
-1.836970198721030E-16
 21
-1.0
 31
0.0
 73
     1
 44
1.0
1001
ACAD
1000
ACAD_MTEXT_DEFINED_HEIGHT_BEGIN
1070
    46
1040
3.0
1000
ACAD_MTEXT_DEFINED_HEIGHT_END
  0
CIRCLE
  5
100B
330
1F
100
AcDbEntity
  8
レイヤー 1
  6
HIDDEN2
 62
   253
100
AcDbCircle
 10
420.0000457763671
 20
297.0006561279296
 30
0.0
 40
21.90000000000001
  0
CIRCLE
  5
100C
330
1F
100
AcDbEntity
  8
レイヤー 1
  6
HIDDEN2
 62
   253
100
AcDbCircle
 10
420.0000457763671
 20
436.5214619426359
 30
0.0
 40
17.5
  0
LWPOLYLINE
  5
100D
330
1F
100
AcDbEntity
  8
レイヤー 1
  6
HIDDEN
 62
   253
 48
15.0
100
AcDbPolyline
 90
      115
 70
     0
 43
0.0
 10
120.0000457763671
 20
297.0007781982421
 10
120.0069274902343
 20
300.7522430419921
 10
120.0278472900389
 20
304.5037078857421
 10
120.0632019042968
 20
308.2551727294921
 10
120.1133575439452
 20
312.0061492919921
 10
120.1787719726561
 20
315.7571258544921
 10
120.2602233886718
 20
319.5081024169921
 10
120.3587341308593
 20
323.2581024169921
 10
120.4754638671874
 20
327.0081024169921
 10
120.611846923828
 20
330.7571258544921
 10
120.7694091796874
 20
334.5051727294921
 10
120.9499206542968
 20
338.2527313232421
 10
121.1555328369139
 20
341.9983367919921
 10
121.3883972167968
 20
345.7429656982421
 10
121.651153564453
 20
349.4851531982421
 10
121.9466247558593
 20
353.2248992919921
 10
122.2779541015624
 20
356.9617156982421
 10
122.6486511230468
 20
360.6951141357421
 10
123.0624847412108
 20
364.4236297607421
 10
123.5236968994139
 20
368.1467742919921
 10
124.0366973876952
 20
371.8630828857421
 10
124.6064453124999
 20
375.5710906982421
 10
125.2382507324218
 20
379.2688446044921
 10
125.9376525878905
 20
382.9548797607421
 10
126.7106628417968
 20
386.6257781982421
 10
127.5635833740233
 20
390.2790985107421
 10
128.5031433105468
 20
393.9109344482421
 10
129.536163330078
 20
397.5173797607421
 10
130.6693115234374
 20
401.0935516357421
 10
131.9092483520507
 20
404.6340789794921
 10
133.2620391845702
 20
408.1331024169921
 10
134.7333526611327
 20
411.5837860107421
 10
136.3281707763671
 20
414.9792938232421
 10
138.0501174926757
 20
418.3123016357421
 10
139.9022903442382
 20
421.5745086669921
 10
141.8853912353514
 20
424.7585906982421
 10
143.9991149902343
 20
427.8577117919921
 10
146.241485595703
 20
430.8650360107421
 10
148.6085052490233
 20
433.7751922607421
 10
151.0955810546874
 20
436.5832977294921
 10
153.6962432861327
 20
439.2869110107421
 10
156.4035720825194
 20
441.8835906982421
 10
159.2100372314452
 20
444.3728485107421
 10
162.1076889038085
 20
446.7551727294921
 10
165.0887374877929
 20
449.0325164794921
 10
168.1455993652343
 20
451.2073211669921
 10
171.2708206176757
 20
453.2825164794921
 10
174.457679748535
 20
455.2615203857421
 10
177.6997680664061
 20
457.1487274169921
 10
180.9911956787108
 20
458.9485321044921
 10
184.3269729614257
 20
460.6653289794921
 10
187.7022552490233
 20
462.3025360107421
 10
191.11270904541
 20
463.8655242919921
 10
194.5548362731932
 20
465.3572235107421
 10
198.0251922607421
 20
466.7825164794921
 10
201.5206031799315
 20
468.1443328857421
 10
205.038719177246
 20
469.4470672607421
 10
208.5773277282714
 20
470.6931610107421
 10
212.1342201232909
 20
471.8860321044921
 10
215.7074165344237
 20
473.0290985107421
 10
219.2954597473143
 20
474.1243133544921
 10
222.8969535827636
 20
475.1746063232421
 10
226.5105152130126
 20
476.1829071044921
 10
230.1350231170653
 20
477.1506805419921
 10
233.7696018218993
 20
478.0798797607421
 10
237.4133892059325
 20
478.9724578857421
 10
241.0655193328856
 20
479.8308563232421
 10
244.7251529693602
 20
480.6565399169921
 10
248.3916654586791
 20
481.4504852294921
 10
252.0645561218261
 20
482.2146453857421
 10
255.7433276176451
 20
482.9499969482421
 10
259.4274822473525
 20
483.6580047607421
 10
263.1165442466735
 20
484.3401336669921
 10
266.8101568222045
 20
484.9968719482421
 10
270.5080003738402
 20
485.6291961669921
 10
274.2097558975219
 20
486.2385711669921
 10
277.9151096343993
 20
486.8254852294921
 10
281.6237983703612
 20
487.3909149169921
 10
285.3356113433837
 20
487.9353485107421
 10
289.0503349304198
 20
488.4597625732421
 10
292.7677612304686
 20
488.9651336669921
 10
296.4876823425292
 20
489.4509735107421
 10
300.209934234619
 20
489.9192352294921
 10
303.9343795776366
 20
490.3694305419921
 10
307.6608810424804
 20
490.8020477294921
 10
311.3892936706542
 20
491.2180633544921
 10
315.1194953918456
 20
491.6179656982421
 10
318.8513717651366
 20
492.0017547607421
 10
322.5848312377929
 20
492.3694305419921
 10
326.3197784423827
 20
492.7224578857421
 10
330.0561141967772
 20
493.0598602294921
 10
333.7937545776366
 20
493.3826141357421
 10
337.5326232910155
 20
493.6912078857421
 10
341.2726516723632
 20
493.9846649169921
 10
345.0137710571288
 20
494.2644500732421
 10
348.7559051513671
 20
494.5300750732421
 10
352.4990005493163
 20
494.7820281982421
 10
356.2429885864257
 20
495.0203094482421
 10
359.9878158569335
 20
495.2449188232421
 10
363.7334213256835
 20
495.4558563232421
 10
367.479766845703
 20
495.6536102294921
 10
371.2267913818358
 20
495.8381805419921
 10
374.9744491577147
 20
496.0090789794921
 10
378.7226943969725
 20
496.1663055419921
 10
382.4714889526366
 20
496.3103485107421
 10
386.2207717895507
 20
496.4407196044921
 10
389.9705200195311
 20
496.5574188232421
 10
393.7206573486327
 20
496.6609344482421
 10
397.4711608886718
 20
496.7507781982421
 10
401.2219848632811
 20
496.8264617919921
 10
404.9730529785155
 20
496.8889617919921
 10
408.7243194580077
 20
496.9377899169921
 10
412.4757080078124
 20
496.9724578857421
 10
416.2271881103514
 20
496.9934539794921
 10
420.0000457763671
 20
497.0007781982421
  0
LWPOLYLINE
  5
100E
330
1F
100
AcDbEntity
  8
レイヤー 1
  6
HIDDEN
 62
   253
 48
15.0
100
AcDbPolyline
 90
      115
 70
     0
 43
0.0
 10
720.0000610351561
 20
297.0007781982421
 10
719.9931640624999
 20
300.7522430419921
 10
719.9722290039061
 20
304.5037078857421
 10
719.9368896484374
 20
308.2551727294921
 10
719.8867187499999
 20
312.0061492919921
 10
719.821319580078
 20
315.7571258544921
 10
719.7398681640624
 20
319.5081024169921
 10
719.6413574218749
 20
323.2581024169921
 10
719.5246276855468
 20
327.0081024169921
 10
719.3882446289061
 20
330.7571258544921
 10
719.2306823730468
 20
334.5051727294921
 10
719.0501708984374
 20
338.2527313232421
 10
718.8445739746093
 20
341.9983367919921
 10
718.6116943359374
 20
345.7429656982421
 10
718.3489379882811
 20
349.4851531982421
 10
718.0534667968749
 20
353.2248992919921
 10
717.7221374511718
 20
356.9617156982421
 10
717.3514404296874
 20
360.6951141357421
 10
716.9376220703124
 20
364.4236297607421
 10
716.4764099121093
 20
368.1467742919921
 10
715.9633789062499
 20
371.8630828857421
 10
715.3936462402343
 20
375.5710906982421
 10
714.7618408203124
 20
379.2688446044921
 10
714.0624389648436
 20
382.9548797607421
 10
713.2894287109374
 20
386.6257781982421
 10
712.4365234374999
 20
390.2790985107421
 10
711.4969482421874
 20
393.9109344482421
 10
710.4639282226561
 20
397.5173797607421
 10
709.3307800292968
 20
401.0935516357421
 10
708.090850830078
 20
404.6340789794921
 10
706.738067626953
 20
408.1331024169921
 10
705.2667541503905
 20
411.5837860107421
 10
703.6719360351561
 20
414.9792938232421
 10
701.949981689453
 20
418.3123016357421
 10
700.0978088378905
 20
421.5745086669921
 10
698.1147155761718
 20
424.7585906982421
 10
696.0009765624999
 20
427.8577117919921
 10
693.7586059570311
 20
430.8650360107421
 10
691.3915710449218
 20
433.7751922607421
 10
688.9045104980468
 20
436.5832977294921
 10
686.3038635253905
 20
439.2869110107421
 10
683.5965270996093
 20
441.8835906982421
 10
680.7900390624999
 20
444.3728485107421
 10
677.8923950195311
 20
446.7551727294921
 10
674.9113464355468
 20
449.0325164794921
 10
671.8544921874999
 20
451.2073211669921
 10
668.729278564453
 20
453.2825164794921
 10
665.5424194335936
 20
455.2615203857421
 10
662.300323486328
 20
457.1487274169921
 10
659.0089111328124
 20
458.9485321044921
 10
655.673126220703
 20
460.6653289794921
 10
652.2978210449218
 20
462.3025360107421
 10
648.8873901367186
 20
463.8655242919921
 10
645.4452514648436
 20
465.3572235107421
 10
641.9749145507811
 20
466.7825164794921
 10
638.4794921874999
 20
468.1443328857421
 10
634.9613647460936
 20
469.4470672607421
 10
631.4227600097655
 20
470.6931610107421
 10
627.8658752441405
 20
471.8860321044921
 10
624.2926635742186
 20
473.0290985107421
 10
620.704620361328
 20
474.1243133544921
 10
617.1031494140624
 20
475.1746063232421
 10
613.4895629882811
 20
476.1829071044921
 10
609.8650817871093
 20
477.1506805419921
 10
606.230499267578
 20
478.0798797607421
 10
602.586700439453
 20
478.9724578857421
 10
598.9345703124999
 20
479.8308563232421
 10
595.274932861328
 20
480.6565399169921
 10
591.608428955078
 20
481.4504852294921
 10
587.9355468749999
 20
482.2146453857421
 10
584.2567749023436
 20
482.9499969482421
 10
580.5726013183593
 20
483.6580047607421
 10
576.8835449218749
 20
484.3401336669921
 10
573.1899414062499
 20
484.9968719482421
 10
569.4920959472655
 20
485.6291961669921
 10
565.7903442382811
 20
486.2385711669921
 10
562.084991455078
 20
486.8254852294921
 10
558.3762817382811
 20
487.3909149169921
 10
554.6644897460936
 20
487.9353485107421
 10
550.9497680664061
 20
488.4597625732421
 10
547.2323303222655
 20
488.9651336669921
 10
543.5124206542968
 20
489.4509735107421
 10
539.7901611328124
 20
489.9192352294921
 10
536.065704345703
 20
490.3694305419921
 10
532.3392028808593
 20
490.8020477294921
 10
528.6108093261718
 20
491.2180633544921
 10
524.8805847167968
 20
491.6179656982421
 10
521.148712158203
 20
492.0017547607421
 10
517.4152526855468
 20
492.3694305419921
 10
513.6803131103514
 20
492.7224578857421
 10
509.9439697265624
 20
493.0598602294921
 10
506.206329345703
 20
493.3826141357421
 10
502.4674682617186
 20
493.6912078857421
 10
498.7274322509764
 20
493.9846649169921
 10
494.9863281249999
 20
494.2644500732421
 10
491.2441864013671
 20
494.5300750732421
 10
487.5010986328124
 20
494.7820281982421
 10
483.757110595703
 20
495.0203094482421
 10
480.0122833251952
 20
495.2449188232421
 10
476.2666625976561
 20
495.4558563232421
 10
472.5203247070311
 20
495.6536102294921
 10
468.7733001708983
 20
495.8381805419921
 10
465.0256500244139
 20
496.0090789794921
 10
461.2773895263671
 20
496.1663055419921
 10
457.5286102294921
 20
496.3103485107421
 10
453.7793121337889
 20
496.4407196044921
 10
450.029571533203
 20
496.5574188232421
 10
446.2794342041014
 20
496.6609344482421
 10
442.5289306640624
 20
496.7507781982421
 10
438.778106689453
 20
496.8264617919921
 10
435.0270385742186
 20
496.8889617919921
 10
431.2757720947264
 20
496.9377899169921
 10
427.5243835449218
 20
496.9724578857421
 10
423.7729034423827
 20
496.9934539794921
 10
420.0000457763671
 20
497.0007781982421
  0
LWPOLYLINE
  5
100F
330
1F
100
AcDbEntity
  8
レイヤー 1
  6
HIDDEN
 62
   253
 48
15.0
100
AcDbPolyline
 90
      115
 70
     0
 43
0.0
 10
120.0000457763671
 20
297.0007781982421
 10
120.0069274902343
 20
293.2493133544921
 10
120.0278472900389
 20
289.4978485107421
 10
120.0632019042968
 20
285.7463836669921
 10
120.1133575439452
 20
281.9949188232421
 10
120.1787719726561
 20
278.2439422607421
 10
120.2602233886718
 20
274.4934539794921
 10
120.3587341308593
 20
270.7429656982421
 10
120.4754638671874
 20
266.9934539794921
 10
120.611846923828
 20
263.2444305419921
 10
120.7694091796874
 20
259.4958953857421
 10
120.9499206542968
 20
255.7488250732421
 10
121.1555328369139
 20
252.0027313232421
 10
121.3883972167968
 20
248.2585906982421
 10
121.651153564453
 20
244.5164031982421
 10
121.9466247558593
 20
240.7761688232421
 10
122.2779541015624
 20
237.0393524169921
 10
122.6486511230468
 20
233.3064422607421
 10
123.0624847412108
 20
229.5774383544921
 10
123.5236968994139
 20
225.8547821044921
 10
124.0366973876952
 20
222.1384735107421
 10
124.6064453124999
 20
218.4304656982421
 10
125.2382507324218
 20
214.7322235107421
 10
125.9376525878905
 20
211.0466766357421
 10
126.7106628417968
 20
207.3757781982421
 10
127.5635833740233
 20
203.7224578857421
 10
128.5031433105468
 20
200.0906219482421
 10
129.536163330078
 20
196.4841766357421
 10
130.6693115234374
 20
192.9080047607421
 10
131.9092483520507
 20
189.3669891357421
 10
133.2620391845702
 20
185.8684539794921
 10
134.7333526611327
 20
182.4172821044921
 10
136.3281707763671
 20
179.0217742919921
 10
138.0501174926757
 20
175.6892547607421
 10
139.9022903442382
 20
172.4270477294921
 10
141.8853912353514
 20
169.2429656982421
 10
143.9991149902343
 20
166.1438446044921
 10
146.241485595703
 20
163.1365203857421
 10
148.6085052490233
 20
160.2263641357421
 10
151.0955810546874
 20
157.4177703857421
 10
153.6962432861327
 20
154.7141571044921
 10
156.4035720825194
 20
152.1174774169921
 10
159.2100372314452
 20
149.6282196044921
 10
162.1076889038085
 20
147.2458953857421
 10
165.0887374877929
 20
144.9685516357421
 10
168.1455993652343
 20
142.7942352294921
 10
171.2708206176757
 20
140.7190399169921
 10
174.457679748535
 20
138.7400360107421
 10
177.6997680664061
 20
136.8523406982421
 10
180.9911956787108
 20
135.0525360107421
 10
184.3269729614257
 20
133.3362274169921
 10
187.7022552490233
 20
131.6985321044921
 10
191.11270904541
 20
130.1360321044921
 10
194.5548362731932
 20
128.6438446044921
 10
198.0251922607421
 20
127.2190399169921
 10
201.5206031799315
 20
125.8567352294921
 10
205.038719177246
 20
124.5544891357421
 10
208.5773277282714
 20
123.3083953857421
 10
212.1342201232909
 20
122.1155242919921
 10
215.7074165344237
 20
120.9724578857421
 10
219.2954597473143
 20
119.8772430419921
 10
222.8969535827636
 20
118.8264617919921
 10
226.5105152130126
 20
117.8186492919921
 10
230.1350231170653
 20
116.8508758544921
 10
233.7696018218993
 20
115.9216766357421
 10
237.4133892059325
 20
115.0286102294921
 10
241.0655193328856
 20
114.1702117919921
 10
244.7251529693602
 20
113.3450164794921
 10
248.3916654586791
 20
112.5505828857421
 10
252.0645561218261
 20
111.7869110107421
 10
255.7433276176451
 20
111.0510711669921
 10
259.4274822473525
 20
110.3430633544921
 10
263.1165442466735
 20
109.6614227294921
 10
266.8101568222045
 20
109.0046844482421
 10
270.5080003738402
 20
108.3718719482421
 10
274.2097558975219
 20
107.7629852294921
 10
277.9151096343993
 20
107.1755828857421
 10
281.6237983703612
 20
106.6101531982421
 10
285.3356113433837
 20
106.0657196044921
 10
289.0503349304198
 20
105.5413055419921
 10
292.7677612304686
 20
105.0364227294921
 10
296.4876823425292
 20
104.5500946044921
 10
300.209934234619
 20
104.0823211669921
 10
303.9343795776366
 20
103.6321258544921
 10
307.6608810424804
 20
103.1990203857421
 10
311.3892936706542
 20
102.7830047607421
 10
315.1194953918456
 20
102.3835906982421
 10
318.8513717651366
 20
101.9998016357421
 10
322.5848312377929
 20
101.6316375732421
 10
326.3197784423827
 20
101.2790985107421
 10
330.0561141967772
 20
100.9412078857421
 10
333.7937545776366
 20
100.6184539794921
 10
337.5326232910155
 20
100.3103485107421
 10
341.2726516723632
 20
100.0164031982421
 10
345.0137710571288
 20
99.73661804199207
 10
348.7559051513671
 20
99.47099304199207
 10
352.4990005493163
 20
99.21903991699207
 10
356.2429885864257
 20
98.98075866699207
 10
359.9878158569335
 20
98.75614929199207
 10
363.7334213256835
 20
98.54521179199207
 10
367.479766845703
 20
98.34745788574207
 10
371.2267913818358
 20
98.16337585449207
 10
374.9744491577147
 20
97.99247741699207
 10
378.7226943969725
 20
97.83476257324207
 10
382.4714889526366
 20
97.69120788574207
 10
386.2207717895507
 20
97.56083679199207
 10
389.9705200195311
 20
97.44364929199207
 10
393.7206573486327
 20
97.34062194824207
 10
397.4711608886718
 20
97.25077819824207
 10
401.2219848632811
 20
97.17460632324207
 10
404.9730529785155
 20
97.11210632324207
 10
408.7243194580077
 20
97.06376647949207
 10
412.4757080078124
 20
97.02861022949207
 10
416.2271881103514
 20
97.00761413574207
 10
420.0000457763671
 20
97.00077819824207
  0
LWPOLYLINE
  5
1010
330
1F
100
AcDbEntity
  8
レイヤー 1
  6
HIDDEN
 62
   253
 48
15.0
100
AcDbPolyline
 90
      115
 70
     0
 43
0.0
 10
720.0000610351561
 20
297.0007781982421
 10
719.9931640624999
 20
293.2493133544921
 10
719.9722290039061
 20
289.4978485107421
 10
719.9368896484374
 20
285.7463836669921
 10
719.8867187499999
 20
281.9949188232421
 10
719.821319580078
 20
278.2439422607421
 10
719.7398681640624
 20
274.4934539794921
 10
719.6413574218749
 20
270.7429656982421
 10
719.5246276855468
 20
266.9934539794921
 10
719.3882446289061
 20
263.2444305419921
 10
719.2306823730468
 20
259.4958953857421
 10
719.0501708984374
 20
255.7488250732421
 10
718.8445739746093
 20
252.0027313232421
 10
718.6116943359374
 20
248.2585906982421
 10
718.3489379882811
 20
244.5164031982421
 10
718.0534667968749
 20
240.7761688232421
 10
717.7221374511718
 20
237.0393524169921
 10
717.3514404296874
 20
233.3064422607421
 10
716.9376220703124
 20
229.5774383544921
 10
716.4764099121093
 20
225.8547821044921
 10
715.9633789062499
 20
222.1384735107421
 10
715.3936462402343
 20
218.4304656982421
 10
714.7618408203124
 20
214.7322235107421
 10
714.0624389648436
 20
211.0466766357421
 10
713.2894287109374
 20
207.3757781982421
 10
712.4365234374999
 20
203.7224578857421
 10
711.4969482421874
 20
200.0906219482421
 10
710.4639282226561
 20
196.4841766357421
 10
709.3307800292968
 20
192.9080047607421
 10
708.090850830078
 20
189.3669891357421
 10
706.738067626953
 20
185.8684539794921
 10
705.2667541503905
 20
182.4172821044921
 10
703.6719360351561
 20
179.0217742919921
 10
701.949981689453
 20
175.6892547607421
 10
700.0978088378905
 20
172.4270477294921
 10
698.1147155761718
 20
169.2429656982421
 10
696.0009765624999
 20
166.1438446044921
 10
693.7586059570311
 20
163.1365203857421
 10
691.3915710449218
 20
160.2263641357421
 10
688.9045104980468
 20
157.4177703857421
 10
686.3038635253905
 20
154.7141571044921
 10
683.5965270996093
 20
152.1174774169921
 10
680.7900390624999
 20
149.6282196044921
 10
677.8923950195311
 20
147.2458953857421
 10
674.9113464355468
 20
144.9685516357421
 10
671.8544921874999
 20
142.7942352294921
 10
668.729278564453
 20
140.7190399169921
 10
665.5424194335936
 20
138.7400360107421
 10
662.300323486328
 20
136.8523406982421
 10
659.0089111328124
 20
135.0525360107421
 10
655.673126220703
 20
133.3362274169921
 10
652.2978210449218
 20
131.6985321044921
 10
648.8873901367186
 20
130.1360321044921
 10
645.4452514648436
 20
128.6438446044921
 10
641.9749145507811
 20
127.2190399169921
 10
638.4794921874999
 20
125.8567352294921
 10
634.9613647460936
 20
124.5544891357421
 10
631.4227600097655
 20
123.3083953857421
 10
627.8658752441405
 20
122.1155242919921
 10
624.2926635742186
 20
120.9724578857421
 10
620.704620361328
 20
119.8772430419921
 10
617.1031494140624
 20
118.8264617919921
 10
613.4895629882811
 20
117.8186492919921
 10
609.8650817871093
 20
116.8508758544921
 10
606.230499267578
 20
115.9216766357421
 10
602.586700439453
 20
115.0286102294921
 10
598.9345703124999
 20
114.1702117919921
 10
595.274932861328
 20
113.3450164794921
 10
591.608428955078
 20
112.5505828857421
 10
587.9355468749999
 20
111.7869110107421
 10
584.2567749023436
 20
111.0510711669921
 10
580.5726013183593
 20
110.3430633544921
 10
576.8835449218749
 20
109.6614227294921
 10
573.1899414062499
 20
109.0046844482421
 10
569.4920959472655
 20
108.3718719482421
 10
565.7903442382811
 20
107.7629852294921
 10
562.084991455078
 20
107.1755828857421
 10
558.3762817382811
 20
106.6101531982421
 10
554.6644897460936
 20
106.0657196044921
 10
550.9497680664061
 20
105.5413055419921
 10
547.2323303222655
 20
105.0364227294921
 10
543.5124206542968
 20
104.5500946044921
 10
539.7901611328124
 20
104.0823211669921
 10
536.065704345703
 20
103.6321258544921
 10
532.3392028808593
 20
103.1990203857421
 10
528.6108093261718
 20
102.7830047607421
 10
524.8805847167968
 20
102.3835906982421
 10
521.148712158203
 20
101.9998016357421
 10
517.4152526855468
 20
101.6316375732421
 10
513.6803131103514
 20
101.2790985107421
 10
509.9439697265624
 20
100.9412078857421
 10
506.206329345703
 20
100.6184539794921
 10
502.4674682617186
 20
100.3103485107421
 10
498.7274322509764
 20
100.0164031982421
 10
494.9863281249999
 20
99.73661804199207
 10
491.2441864013671
 20
99.47099304199207
 10
487.5010986328124
 20
99.21903991699207
 10
483.757110595703
 20
98.98075866699207
 10
480.0122833251952
 20
98.75614929199207
 10
476.2666625976561
 20
98.54521179199207
 10
472.5203247070311
 20
98.34745788574207
 10
468.7733001708983
 20
98.16337585449207
 10
465.0256500244139
 20
97.99247741699207
 10
461.2773895263671
 20
97.83476257324207
 10
457.5286102294921
 20
97.69120788574207
 10
453.7793121337889
 20
97.56083679199207
 10
450.029571533203
 20
97.44364929199207
 10
446.2794342041014
 20
97.34062194824207
 10
442.5289306640624
 20
97.25077819824207
 10
438.778106689453
 20
97.17460632324207
 10
435.0270385742186
 20
97.11210632324207
 10
431.2757720947264
 20
97.06376647949207
 10
427.5243835449218
 20
97.02861022949207
 10
423.7729034423827
 20
97.00761413574207
 10
420.0000457763671
 20
97.00077819824207
  0
ARC
  5
1011
330
1F
100
AcDbEntity
  8
レイヤー 1
  6
HIDDEN2
 62
   253
100
AcDbCircle
 10
419.9999999999999
 20
296.9999999999999
 30
0.0
 40
36.95000000000001
100
AcDbArc
 50
180.0000000002084
 51
270.0
  0
ARC
  5
1012
330
1F
100
AcDbEntity
  8
レイヤー 1
  6
HIDDEN2
 62
   253
100
AcDbCircle
 10
419.9999999999999
 20
296.9999999999999
 30
0.0
 40
36.95000000000001
100
AcDbArc
 50
90.00000000046822
 51
180.0000000002084
  0
ARC
  5
1013
330
1F
100
AcDbEntity
  8
レイヤー 1
  6
HIDDEN2
 62
   253
100
AcDbCircle
 10
419.9999999999999
 20
296.9999999999999
 30
0.0
 40
36.95000000000001
100
AcDbArc
 50
0.000000000677468
 51
90.00000000046822
  0
ARC
  5
1014
330
1F
100
AcDbEntity
  8
レイヤー 1
  6
HIDDEN2
 62
   253
100
AcDbCircle
 10
419.9999999999999
 20
296.9999999999999
 30
0.0
 40
36.95000000000001
100
AcDbArc
 50
270.0000000008857
 51
0.000000000677468
  0
LWPOLYLINE
  5
1015
330
1F
100
AcDbEntity
  8
レイヤー 1
  6
HIDDEN
 62
   253
 48
15.0
100
AcDbPolyline
 90
      147
 70
     0
 43
0.0
 10
419.9999999999999
 20
488.5300750732421
 10
423.6252136230468
 20
488.5237274169921
 10
427.2504425048827
 20
488.5037078857421
 10
430.8756256103514
 20
488.4709930419921
 10
434.5007171630858
 20
488.4250946044921
 10
438.1256561279296
 20
488.3665008544921
 10
441.7503814697264
 20
488.2947235107421
 10
445.3748321533202
 20
488.2102508544921
 10
448.9989776611327
 20
488.1125946044921
 10
452.6227569580077
 20
488.0022430419921
 10
456.2461090087889
 20
487.8796844482421
 10
459.8689727783202
 20
487.7439422607421
 10
463.4913330078124
 20
487.5959930419921
 10
467.1131439208983
 20
487.4348602294921
 10
470.7343597412108
 20
487.2615203857421
 10
474.3549499511718
 20
487.0749969482421
 10
477.9748687744139
 20
486.8762664794921
 10
481.5940704345702
 20
486.6648406982421
 10
485.2124938964843
 20
486.4402313232421
 10
488.830108642578
 20
486.2029266357421
 10
492.4468383789061
 20
485.9524383544921
 10
496.0626373291014
 20
485.6887664794921
 10
499.6774444580077
 20
485.4123992919921
 10
503.2911834716796
 20
485.1218719482421
 10
506.9038085937499
 20
484.8181610107421
 10
510.5152282714843
 20
484.5002899169921
 10
514.1253814697264
 20
484.1682586669921
 10
517.7341918945311
 20
483.8220672607421
 10
521.341583251953
 20
483.4612274169921
 10
524.9474182128905
 20
483.0852508544921
 10
528.5516052246093
 20
482.6936492919921
 10
532.154083251953
 20
482.2869110107421
 10
535.7546997070311
 20
481.8640594482421
 10
539.3533325195311
 20
481.4241180419921
 10
542.9498596191405
 20
480.9675750732421
 10
546.5441284179686
 20
480.4939422607421
 10
550.1359558105468
 20
480.0017547607421
 10
553.7251892089843
 20
479.4910125732421
 10
557.3116455078124
 20
478.9612274169921
 10
560.8950805664061
 20
478.4114227294921
 10
564.4753112792968
 20
477.8411102294921
 10
568.0520629882811
 20
477.2493133544921
 10
571.6250610351561
 20
476.6350555419921
 10
575.1940307617186
 20
475.9978485107421
 10
578.7586059570311
 20
475.3367156982421
 10
582.3184509277343
 20
474.6506805419921
 10
585.8731384277343
 20
473.9382781982421
 10
589.4222717285155
 20
473.1985321044921
 10
592.9652709960936
 20
472.4299774169921
 10
596.5016174316405
 20
471.6316375732421
 10
600.0307312011718
 20
470.8015594482421
 10
603.5519104003905
 20
469.9387664794921
 10
607.0644226074218
 20
469.0413055419921
 10
610.5674438476561
 20
468.1072235107421
 10
614.0599670410155
 20
467.1345672607421
 10
617.5407409667968
 20
466.1208953857421
 10
621.0086364746093
 20
465.0642547607421
 10
624.4624023437499
 20
463.9622039794921
 10
627.9004821777343
 20
462.8123016357421
 10
631.3211059570311
 20
461.6111297607421
 10
634.7222290039061
 20
460.3557586669921
 10
638.1015319824218
 20
459.0432586669921
 10
641.456573486328
 20
457.6692352294921
 10
644.7843322753905
 20
456.2312469482421
 10
648.0814819335936
 20
454.7239227294921
 10
651.3443298339843
 20
453.1438446044921
 10
654.5687561035155
 20
451.4866180419921
 10
657.7497558593749
 20
449.7473602294921
 10
660.881622314453
 20
447.9216766357421
 10
663.9586181640624
 20
446.0046844482421
 10
666.9743041992186
 20
443.9929656982421
 10
669.9210205078124
 20
441.8811492919921
 10
672.7909851074218
 20
439.6663055419921
 10
675.5759277343749
 20
437.3455047607421
 10
678.2671508789061
 20
434.9167938232421
 10
680.8561096191405
 20
432.3796844482421
 10
683.3347778320311
 20
429.7341766357421
 10
685.6954956054686
 20
426.9832000732421
 10
687.9320373535155
 20
424.1301727294921
 10
690.0393066406249
 20
421.1804656982421
 10
692.0148315429686
 20
418.1409149169921
 10
693.8568420410155
 20
415.0188446044921
 10
695.5662231445311
 20
411.8220672607421
 10
697.145538330078
 20
408.5588836669921
 10
698.5988464355468
 20
405.2380828857421
 10
699.5948794445247
 20
402.7180625767679
 42
-0.5128365362733318
 10
694.3252444556473
 20
394.5206261524884
 10
692.0657958984374
 20
394.4036102294921
 10
689.1397399902343
 20
394.2629852294921
 10
686.0748291015624
 20
394.1257781982421
 10
682.8769226074218
 20
393.9929656982421
 10
679.5518493652343
 20
393.8635711669921
 10
676.1053466796874
 20
393.7380828857421
 10
672.5425415039061
 20
393.6165008544921
 10
668.8664550781249
 20
393.4993133544921
 10
665.0797119140624
 20
393.3865203857421
 10
661.1860961914061
 20
393.2781219482421
 10
657.189971923828
 20
393.1746063232421
 10
653.0958251953124
 20
393.0754852294921
 10
648.9088745117186
 20
392.9817352294921
 10
644.6347351074218
 20
392.8923797607421
 10
640.279327392578
 20
392.8083953857421
 10
635.8487854003905
 20
392.7288055419921
 10
631.3494567871093
 20
392.6545867919921
 10
626.7877807617186
 20
392.5847625732421
 10
622.1700439453124
 20
392.5198211669921
 10
617.5023498535155
 20
392.4592742919921
 10
612.7906188964843
 20
392.4031219482421
 10
608.0401611328124
 20
392.3508758544921
 10
603.2560729980468
 20
392.3030242919921
 10
598.4427490234374
 20
392.2581024169921
 10
593.6041259765624
 20
392.2170867919921
 10
588.743927001953
 20
392.1794891357421
 10
583.8651733398436
 20
392.1448211669921
 10
578.970489501953
 20
392.1125946044921
 10
574.0623168945311
 20
392.0832977294921
 10
569.1426391601561
 20
392.0564422607421
 10
564.2132568359374
 20
392.0320281982421
 10
559.2755432128905
 20
392.0095672607421
 10
554.3307189941405
 20
391.9890594482421
 10
549.3800048828124
 20
391.9705047607421
 10
544.4243774414061
 20
391.9534149169921
 10
539.4645385742186
 20
391.9377899169921
 10
534.501251220703
 20
391.9241180419921
 10
529.5350341796874
 20
391.9114227294921
 10
524.5663757324218
 20
391.8997039794921
 10
519.595733642578
 20
391.8894500732421
 10
514.6234741210936
 20
391.8801727294921
 10
509.6497802734374
 20
391.8718719482421
 10
504.6749267578124
 20
391.8640594482421
 10
499.6991729736327
 20
391.8572235107421
 10
494.7227020263671
 20
391.8513641357421
 10
489.7456207275389
 20
391.8459930419921
 10
484.7680358886718
 20
391.8411102294921
 10
479.7900238037108
 20
391.8367156982421
 10
474.8117065429686
 20
391.8328094482421
 10
469.8331298828124
 20
391.8293914794921
 10
464.8543090820311
 20
391.8264617919921
 10
459.8753204345702
 20
391.8240203857421
 10
454.8961944580077
 20
391.8220672607421
 10
449.9169616699218
 20
391.8201141357421
 10
444.9376373291014
 20
391.8186492919921
 10
439.9582519531249
 20
391.8171844482421
 10
434.9788055419921
 20
391.8162078857421
 10
429.9993133544921
 20
391.8157196044921
 10
425.019805908203
 20
391.8152313232421
 10
419.9999999999999
 20
391.8147430419921
  0
LWPOLYLINE
  5
1016
330
1F
100
AcDbEntity
  8
レイヤー 1
  6
HIDDEN
 62
   253
 48
15.0
100
AcDbPolyline
 90
      147
 70
     0
 43
0.0
 10
419.9999999999999
 20
488.5300750732421
 10
416.374786376953
 20
488.5237274169921
 10
412.7495574951171
 20
488.5037078857421
 10
409.1243743896483
 20
488.4709930419921
 10
405.4992828369139
 20
488.4250946044921
 10
401.8743438720702
 20
488.3665008544921
 10
398.2496185302733
 20
488.2947235107421
 10
394.6251678466796
 20
488.2102508544921
 10
391.0010223388671
 20
488.1125946044921
 10
387.3772430419921
 20
488.0022430419921
 10
383.7538986206054
 20
487.8796844482421
 10
380.1310272216796
 20
487.7439422607421
 10
376.5086669921874
 20
487.5959930419921
 10
372.886863708496
 20
487.4348602294921
 10
369.2656478881835
 20
487.2615203857421
 10
365.6450576782225
 20
487.0749969482421
 10
362.0251312255858
 20
486.8762664794921
 10
358.4059295654296
 20
486.6648406982421
 10
354.787498474121
 20
486.4402313232421
 10
351.1698913574218
 20
486.2029266357421
 10
347.5531616210936
 20
485.9524383544921
 10
343.9373703002929
 20
485.6887664794921
 10
340.3225631713866
 20
485.4123992919921
 10
336.7088165283202
 20
485.1218719482421
 10
333.0961990356444
 20
484.8181610107421
 10
329.4847717285155
 20
484.5002899169921
 10
325.8746185302733
 20
484.1682586669921
 10
322.2658042907714
 20
483.8220672607421
 10
318.6584320068358
 20
483.4612274169921
 10
315.0525932312011
 20
483.0852508544921
 10
311.4483909606932
 20
482.6936492919921
 10
307.845920562744
 20
482.2869110107421
 10
304.2453002929686
 20
481.8640594482421
 10
300.6466636657714
 20
481.4241180419921
 10
297.0501441955565
 20
480.9675750732421
 10
293.4558753967284
 20
480.4939422607421
 10
289.8640384674071
 20
480.0017547607421
 10
286.2748069763182
 20
479.4910125732421
 10
282.6883659362792
 20
478.9612274169921
 10
279.1049098968505
 20
478.4114227294921
 10
275.5246829986571
 20
477.8411102294921
 10
271.947937965393
 20
477.2493133544921
 10
268.3749332427977
 20
476.6350555419921
 10
264.8059673309325
 20
475.9978485107421
 10
261.2413918972014
 20
475.3367156982421
 10
257.6815631985663
 20
474.6506805419921
 10
254.1268520355223
 20
473.9382781982421
 10
250.577736377716
 20
473.1985321044921
 10
247.0347394943236
 20
472.4299774169921
 10
243.4983835220336
 20
471.6316375732421
 10
239.9692573547362
 20
470.8015594482421
 10
236.4480800628661
 20
469.9387664794921
 10
232.9355888366698
 20
469.0413055419921
 10
229.4325561523436
 20
468.1072235107421
 10
225.9400444030761
 20
467.1345672607421
 10
222.4592475891112
 20
466.1208953857421
 10
218.9913597106932
 20
465.0642547607421
 10
215.5375900268554
 20
463.9622039794921
 10
212.0995025634764
 20
462.8123016357421
 10
208.6788940429686
 20
461.6111297607421
 10
205.2777824401854
 20
460.3557586669921
 10
201.8984756469725
 20
459.0432586669921
 10
198.5434188842772
 20
457.6692352294921
 10
195.2156791687011
 20
456.2312469482421
 10
191.9185256958007
 20
454.7239227294921
 10
188.6556854248046
 20
453.1438446044921
 10
185.4312515258788
 20
451.4866180419921
 10
182.2502365112304
 20
449.7473602294921
 10
179.1183700561522
 20
447.9216766357421
 10
176.0413970947264
 20
446.0046844482421
 10
173.0257110595702
 20
443.9929656982421
 10
170.0789642333983
 20
441.8811492919921
 10
167.2090072631835
 20
439.6663055419921
 10
164.4240798950194
 20
437.3455047607421
 10
161.7328414916991
 20
434.9167938232421
 10
159.1438751220702
 20
432.3796844482421
 10
156.6652221679686
 20
429.7341766357421
 10
154.3044967651366
 20
426.9832000732421
 10
152.0679626464843
 20
424.1301727294921
 10
149.9606781005858
 20
421.1804656982421
 10
147.9851837158202
 20
418.1409149169921
 10
146.1431579589843
 20
415.0188446044921
 10
144.4337692260741
 20
411.8220672607421
 10
142.8544616699218
 20
408.5588836669921
 10
141.401153564453
 20
405.2380828857421
 10
140.4051195037263
 20
402.7180743432034
 42
0.512837020020416
 10
145.6747476293402
 20
394.520627130245
 10
147.9341964721679
 20
394.4036102294921
 10
150.860252380371
 20
394.2629852294921
 10
153.9251632690429
 20
394.1257781982421
 10
157.1230697631835
 20
393.9929656982421
 10
160.4481658935546
 20
393.8635711669921
 10
163.8946456909179
 20
393.7380828857421
 10
167.4574432373046
 20
393.6165008544921
 10
171.1335525512694
 20
393.4993133544921
 10
174.9202728271483
 20
393.3865203857421
 10
178.8139038085936
 20
393.2781219482421
 10
182.8100357055663
 20
393.1746063232421
 10
186.9041671752929
 20
393.0754852294921
 10
191.0911102294921
 20
392.9817352294921
 10
195.3652687072753
 20
392.8923797607421
 10
199.7206687927245
 20
392.8083953857421
 10
204.1512145996093
 20
392.7288055419921
 10
208.650535583496
 20
392.6545867919921
 10
213.2122039794921
 20
392.5847625732421
 10
217.8299522399901
 20
392.5198211669921
 10
222.4976615905761
 20
392.4592742919921
 10
227.2093925476073
 20
392.4031219482421
 10
231.959840774536
 20
392.3508758544921
 10
236.7439136505126
 20
392.3030242919921
 10
241.5572471618651
 20
392.2581024169921
 10
246.3958835601806
 20
392.2170867919921
 10
251.256058692932
 20
392.1794891357421
 10
256.1348359584807
 20
392.1448211669921
 10
261.0295114517211
 20
392.1125946044921
 10
265.9376688003539
 20
392.0832977294921
 10
270.857361793518
 20
392.0564422607421
 10
275.7867546081542
 20
392.0320281982421
 10
280.7244644165038
 20
392.0095672607421
 10
285.6692790985106
 20
391.9890594482421
 10
290.6199951171874
 20
391.9705047607421
 10
295.5756301879882
 20
391.9534149169921
 10
300.5354461669921
 20
391.9377899169921
 10
305.498752593994
 20
391.9241180419921
 10
310.4649810791014
 20
391.9114227294921
 10
315.4336318969725
 20
391.8997039794921
 10
320.4042510986327
 20
391.8894500732421
 10
325.3765335083007
 20
391.8801727294921
 10
330.3502273559569
 20
391.8718719482421
 10
335.3250732421874
 20
391.8640594482421
 10
340.3008270263671
 20
391.8572235107421
 10
345.2772979736327
 20
391.8513641357421
 10
350.2543792724608
 20
391.8459930419921
 10
355.2319717407225
 20
391.8411102294921
 10
360.2099685668944
 20
391.8367156982421
 10
365.1882934570311
 20
391.8328094482421
 10
370.1668777465819
 20
391.8293914794921
 10
375.1456909179686
 20
391.8264617919921
 10
380.1246795654296
 20
391.8240203857421
 10
385.1037979125975
 20
391.8220672607421
 10
390.083038330078
 20
391.8201141357421
 10
395.0623626708983
 20
391.8186492919921
 10
400.0417480468749
 20
391.8171844482421
 10
405.0211944580077
 20
391.8162078857421
 10
410.0006866455077
 20
391.8157196044921
 10
414.9801940917968
 20
391.8152313232421
 10
419.9999999999999
 20
391.8147430419921
  0
LWPOLYLINE
  5
1017
330
1F
100
AcDbEntity
  8
レイヤー 1
  6
HIDDEN
 62
   253
 48
15.0
100
AcDbPolyline
 90
      112
 70
     0
 43
0.0
 10
715.181030273441
 20
296.9998016357421
 10
715.173706054691
 20
293.1658172607421
 10
715.1516418457066
 20
289.3313446044921
 10
715.1145629882848
 20
285.4978485107421
 10
715.0619812011754
 20
281.6653289794921
 10
714.9932556152379
 20
277.8337860107421
 10
714.9075622558629
 20
274.0041961669921
 10
714.803833007816
 20
270.1760711669921
 10
714.680786132816
 20
266.3508758544921
 10
714.5368957519566
 20
262.5281219482421
 10
714.3705139160191
 20
258.7082977294921
 10
714.1796569824254
 20
254.8928680419921
 10
713.9620971679723
 20
251.0818328857421
 10
713.7154235839879
 20
247.2756805419921
 10
713.4367980957066
 20
243.4758758544921
 10
713.1232299804723
 20
239.6829071044921
 10
712.7712707519566
 20
235.8982391357421
 10
712.3772277832066
 20
232.1228485107421
 10
711.9370727539098
 20
228.3582000732421
 10
711.4463806152379
 20
224.6062469482421
 10
710.9004516601598
 20
220.8689422607421
 10
710.2941284179723
 20
217.1487274169921
 10
709.6220092773473
 20
213.4475555419921
 10
708.8783569335973
 20
209.7693328857421
 10
708.0570678710973
 20
206.1169891357421
 10
707.1518249511754
 20
202.4944305419921
 10
706.1561584472691
 20
198.9070281982421
 10
705.0636291503941
 20
195.3586883544921
 10
703.8679199218785
 20
191.8552703857421
 10
702.5630798339879
 20
188.4026336669921
 10
701.1436157226598
 20
185.0066375732421
 10
699.6047363281285
 20
181.6736297607421
 10
697.9422912597691
 20
178.4104461669921
 10
696.153442382816
 20
175.2229461669921
 10
694.236450195316
 20
172.1179656982421
 10
692.1910095214879
 20
169.1003875732421
 10
690.018188476566
 20
166.1750946044921
 10
687.7203979492223
 20
163.3469696044921
 10
685.3014221191441
 20
160.6179656982421
 10
682.7661132812535
 20
157.9910125732421
 10
680.1202697753941
 20
155.4665985107421
 10
677.3704223632848
 20
153.0452117919921
 10
674.523559570316
 20
150.7253875732421
 10
671.5868530273473
 20
148.5056610107421
 10
668.5674743652379
 20
146.3840789794921
 10
665.4724731445348
 20
144.3567352294921
 10
662.3086853027379
 20
142.4211883544921
 10
659.0825195312535
 20
140.5730438232421
 10
655.7999572753941
 20
138.8088836669921
 10
652.4664611816441
 20
137.1248016357421
 10
649.087036132816
 20
135.5168914794921
 10
645.6662902832066
 20
133.9812469482421
 10
642.2082824707066
 20
132.5134735107421
 10
638.7167358398473
 20
131.1111297607421
 10
635.1950073242223
 20
129.7703094482421
 10
631.6460266113316
 20
128.4871063232421
 10
628.0724792480504
 20
127.2590789794921
 10
624.476684570316
 20
126.0828094482421
 10
620.8608093261754
 20
124.9558563232421
 10
617.2267150878941
 20
123.8752899169921
 10
613.5760803222691
 20
122.8391571044921
 10
609.9104309082066
 20
121.8445281982421
 10
606.2311096191441
 20
120.8899383544921
 10
602.5393066406285
 20
119.9734344482421
 10
598.8361511230504
 20
119.0925750732421
 10
595.1225891113316
 20
118.2458953857421
 10
591.3995056152379
 20
117.4319305419921
 10
587.6677246093785
 20
116.6492156982421
 10
583.9279174804723
 20
115.8962860107421
 10
580.1807250976598
 20
115.1721649169921
 10
576.4267578125035
 20
114.4748992919921
 10
572.6665344238316
 20
113.8035125732421
 10
568.900512695316
 20
113.1575164794921
 10
565.1291503906285
 20
112.5359344482421
 10
561.3528137207066
 20
111.9373016357421
 10
557.5718688964879
 20
111.3611297607421
 10
553.7866516113316
 20
110.8064422607421
 10
549.9974670410191
 20
110.2732391357421
 10
546.2045898437535
 20
109.7595672607421
 10
542.408325195316
 20
109.2659149169921
 10
538.6088867187535
 20
108.7908172607421
 10
534.8064880371129
 20
108.3342742919921
 10
531.001342773441
 20
107.8957977294921
 10
527.1936645507848
 20
107.4748992919921
 10
523.3835754394566
 20
107.0706024169921
 10
519.5712890625035
 20
106.6833953857421
 10
515.7568969726598
 20
106.3123016357421
 10
511.9405975341832
 20
105.9573211669921
 10
508.1224975585973
 20
105.6174774169921
 10
504.3027038574254
 20
105.2937469482421
 10
500.4813537597691
 20
104.9846649169921
 10
496.6585388183629
 20
104.6907196044921
 10
492.8343811035191
 20
104.4119110107421
 10
489.0089721679723
 20
104.1472625732421
 10
485.1824340820348
 20
103.8967742919921
 10
481.3548278808629
 20
103.6614227294921
 10
477.5262603759801
 20
103.4397430419921
 10
473.6968078613316
 20
103.2322235107421
 10
469.866577148441
 20
103.0388641357421
 10
466.0356292724645
 20
102.8596649169921
 10
462.2040405273473
 20
102.6941375732421
 10
458.3718872070348
 20
102.5432586669921
 10
454.5392456054723
 20
102.4065399169921
 10
450.7061920166051
 20
102.2834930419921
 10
446.8727874755895
 20
102.1750946044921
 10
443.0390777587926
 20
102.0808563232421
 10
439.2051391601598
 20
102.0007781982421
 10
435.3710021972691
 20
101.9353485107421
 10
431.536743164066
 20
101.8840789794921
 10
427.7023773193395
 20
101.8474578857421
 10
423.8679504394566
 20
101.8254852294921
 10
419.9989929199254
 20
101.8181610107421
  0
LWPOLYLINE
  5
1018
330
1F
100
AcDbEntity
  8
レイヤー 1
  6
HIDDEN
 62
   253
 48
15.0
100
AcDbPolyline
 90
      112
 70
     0
 43
0.0
 10
124.8169555664098
 20
296.9998016357421
 10
124.8242797851598
 20
293.1658172607421
 10
124.8463439941441
 20
289.3313446044921
 10
124.8834381103551
 20
285.4978485107421
 10
124.9360046386754
 20
281.6653289794921
 10
125.0047149658238
 20
277.8337860107421
 10
125.0904083251988
 20
274.0041961669921
 10
125.1941528320348
 20
270.1760711669921
 10
125.3172149658238
 20
266.3508758544921
 10
125.4610748291051
 20
262.5281219482421
 10
125.6274719238316
 20
258.7082977294921
 10
125.8183288574254
 20
254.8928680419921
 10
126.0358886718785
 20
251.0818328857421
 10
126.282577514652
 20
247.2756805419921
 10
126.5611724853551
 20
243.4758758544921
 10
126.8747558593785
 20
239.6829071044921
 10
127.2267150878941
 20
235.8982391357421
 10
127.6207427978551
 20
232.1228485107421
 10
128.060913085941
 20
228.3582000732421
 10
128.5515899658238
 20
224.6062469482421
 10
129.097534179691
 20
220.8689422607421
 10
129.7038421630895
 20
217.1487274169921
 10
130.3759765625035
 20
213.4475555419921
 10
131.1196441650426
 20
209.7693328857421
 10
131.9409179687535
 20
206.1169891357421
 10
132.8461456298863
 20
202.4944305419921
 10
133.8418121337926
 20
198.9070281982421
 10
134.9343643188512
 20
195.3586883544921
 10
136.1300811767613
 20
191.8552703857421
 10
137.4349136352574
 20
188.4026336669921
 10
138.854354858402
 20
185.0066375732421
 10
140.3932647705113
 20
181.6736297607421
 10
142.0556793212926
 20
178.4104461669921
 10
143.8445510864293
 20
175.2229461669921
 10
145.7615280151402
 20
172.1179656982421
 10
147.8069610595738
 20
169.1003875732421
 10
149.9797973632848
 20
166.1750946044921
 10
152.2775726318395
 20
163.3469696044921
 10
154.6965637207066
 20
160.6179656982421
 10
157.2318801879918
 20
157.9910125732421
 10
159.8777160644566
 20
155.4665985107421
 10
162.6275558471715
 20
153.0452117919921
 10
165.4744186401402
 20
150.7253875732421
 10
168.411125183109
 20
148.5056610107421
 10
171.4305191040074
 20
146.3840789794921
 10
174.5255203247106
 20
144.3567352294921
 10
177.689315795902
 20
142.4211883544921
 10
180.9154663085973
 20
140.5730438232421
 10
184.1980361938512
 20
138.8088836669921
 10
187.5315322876012
 20
137.1248016357421
 10
190.9109420776402
 20
135.5168914794921
 10
194.3317070007359
 20
133.9812469482421
 10
197.7897071838414
 20
132.5134735107421
 10
201.2812385559117
 20
131.1111297607421
 10
204.8029747009313
 20
129.7703094482421
 10
208.3519439697301
 20
128.4871063232421
 10
211.9255027771031
 20
127.2590789794921
 10
215.5212860107457
 20
126.0828094482421
 10
219.1371765136754
 20
124.9558563232421
 10
222.7712821960484
 20
123.8752899169921
 10
226.4219131469762
 20
122.8391571044921
 10
230.0875644683873
 20
121.8445281982421
 10
233.7668876647984
 20
120.8899383544921
 10
237.458675384525
 20
119.9734344482421
 10
241.1618385314977
 20
119.0925750732421
 10
244.8753976821935
 20
118.2458953857421
 10
248.5984735488927
 20
117.4319305419921
 10
252.3302731514012
 20
116.6492156982421
 10
256.0700824260747
 20
115.8962860107421
 10
259.8172593116795
 20
115.1721649169921
 10
263.57122421265
 20
114.4748992919921
 10
267.3314533233678
 20
113.8035125732421
 10
271.0974712371861
 20
113.1575164794921
 10
274.8688449859654
 20
112.5359344482421
 10
278.6451835632359
 20
111.9373016357421
 10
282.4261283874547
 20
111.3611297607421
 10
286.2113437652623
 20
110.8064422607421
 10
290.0005245208775
 20
110.2732391357421
 10
293.7933807373082
 20
109.7595672607421
 10
297.5896530151402
 20
109.2659149169921
 10
301.3890991210973
 20
108.7908172607421
 10
305.1914939880406
 20
108.3342742919921
 10
308.9966354370152
 20
107.8957977294921
 10
312.8043327331578
 20
107.4748992919921
 10
316.6144104003941
 20
107.0706024169921
 10
320.4267082214391
 20
106.6833953857421
 10
324.2410812377965
 20
106.3123016357421
 10
328.0573806762731
 20
105.9573211669921
 10
331.8754882812535
 20
105.6174774169921
 10
335.6952819824254
 20
105.2937469482421
 10
339.5166397094762
 20
104.9846649169921
 10
343.3394470214879
 20
104.6907196044921
 10
347.1636123657262
 20
104.4119110107421
 10
350.9890136718785
 20
104.1472625732421
 10
354.8155593872106
 20
103.8967742919921
 10
358.6431579589879
 20
103.6614227294921
 10
362.4717254638707
 20
103.4397430419921
 10
366.3011703491246
 20
103.2322235107421
 10
370.1314086914098
 20
103.0388641357421
 10
373.9623641967809
 20
102.8596649169921
 10
377.7939529418981
 20
102.6941375732421
 10
381.626098632816
 20
102.5432586669921
 10
385.458732604984
 20
102.4065399169921
 10
389.2917938232457
 20
102.2834930419921
 10
393.1251983642613
 20
102.1750946044921
 10
396.9589080810582
 20
102.0808563232421
 10
400.792846679691
 20
102.0007781982421
 10
404.6269836425816
 20
101.9353485107421
 10
408.4612426757848
 20
101.8840789794921
 10
412.2956085205113
 20
101.8474578857421
 10
416.1300354003941
 20
101.8254852294921
 10
419.9989929199254
 20
101.8181610107421
  0
LWPOLYLINE
  5
1019
330
1F
100
AcDbEntity
  8
レイヤー 1
  6
HIDDEN
 62
   253
 48
15.0
100
AcDbPolyline
 90
      112
 70
     0
 43
0.0
 10
715.181030273441
 20
296.9998016357421
 10
715.173706054691
 20
300.8342742919921
 10
715.1516418457066
 20
304.6687469482421
 10
715.1145629882848
 20
308.5022430419921
 10
715.0619812011754
 20
312.3347625732421
 10
714.9932556152379
 20
316.1658172607421
 10
714.9075622558629
 20
319.9958953857421
 10
714.803833007816
 20
323.8235321044921
 10
714.680786132816
 20
327.6492156982421
 10
714.5368957519566
 20
331.4719696044921
 10
714.3705139160191
 20
335.2917938232421
 10
714.1796569824254
 20
339.1072235107421
 10
713.9620971679723
 20
342.9182586669921
 10
713.7154235839879
 20
346.7244110107421
 10
713.4367980957066
 20
350.5242156982421
 10
713.1232299804723
 20
354.3171844482421
 10
712.7712707519566
 20
358.1018524169921
 10
712.3772277832066
 20
361.8772430419921
 10
711.9370727539098
 20
365.6418914794921
 10
711.4463806152379
 20
369.3938446044921
 10
710.9004516601598
 20
373.1311492919921
 10
710.2941284179723
 20
376.8513641357421
 10
709.6220092773473
 20
380.5525360107421
 10
708.8783569335973
 20
384.2307586669921
 10
708.0570678710973
 20
387.8831024169921
 10
707.1518249511754
 20
391.5051727294921
 10
706.1561584472691
 20
395.0930633544921
 10
705.0636291503941
 20
398.6414031982421
 10
703.8679199218785
 20
402.1448211669921
 10
702.5630798339879
 20
405.5974578857421
 10
701.1436157226598
 20
408.9934539794921
 10
699.6047363281285
 20
412.3264617919921
 10
697.9422912597691
 20
415.5896453857421
 10
696.153442382816
 20
418.7771453857421
 10
694.236450195316
 20
421.8821258544921
 10
692.1910095214879
 20
424.8997039794921
 10
690.018188476566
 20
427.8245086669921
 10
687.7203979492223
 20
430.6531219482421
 10
685.3014221191441
 20
433.3816375732421
 10
682.7661132812535
 20
436.0090789794921
 10
680.1202697753941
 20
438.5330047607421
 10
677.3704223632848
 20
440.9548797607421
 10
674.523559570316
 20
443.2747039794921
 10
671.5868530273473
 20
445.4944305419921
 10
668.5674743652379
 20
447.6160125732421
 10
665.4724731445348
 20
449.6433563232421
 10
662.3086853027379
 20
451.5789031982421
 10
659.0825195312535
 20
453.4270477294921
 10
655.7999572753941
 20
455.1912078857421
 10
652.4664611816441
 20
456.8752899169921
 10
649.087036132816
 20
458.4832000732421
 10
645.6662902832066
 20
460.0188446044921
 10
642.2082824707066
 20
461.4861297607421
 10
638.7167358398473
 20
462.8889617919921
 10
635.1950073242223
 20
464.2297821044921
 10
631.6460266113316
 20
465.5129852294921
 10
628.0724792480504
 20
466.7410125732421
 10
624.476684570316
 20
467.9172821044921
 10
620.8608093261754
 20
469.0442352294921
 10
617.2267150878941
 20
470.1248016357421
 10
613.5760803222691
 20
471.1609344482421
 10
609.9104309082066
 20
472.1550750732421
 10
606.2311096191441
 20
473.1096649169921
 10
602.5393066406285
 20
474.0266571044921
 10
598.8361511230504
 20
474.9075164794921
 10
595.1225891113316
 20
475.7541961669921
 10
591.3995056152379
 20
476.5676727294921
 10
587.6677246093785
 20
477.3503875732421
 10
583.9279174804723
 20
478.1038055419921
 10
580.1807250976598
 20
478.8279266357421
 10
576.4267578125035
 20
479.5251922607421
 10
572.6665344238316
 20
480.1965789794921
 10
568.900512695316
 20
480.8420867919921
 10
565.1291503906285
 20
481.4641571044921
 10
561.3528137207066
 20
482.0627899169921
 10
557.5718688964879
 20
482.6389617919921
 10
553.7866516113316
 20
483.1931610107421
 10
549.9974670410191
 20
483.7268524169921
 10
546.2045898437535
 20
484.2405242919921
 10
542.408325195316
 20
484.7341766357421
 10
538.6088867187535
 20
485.2092742919921
 10
534.8064880371129
 20
485.6658172607421
 10
531.001342773441
 20
486.1042938232421
 10
527.1936645507848
 20
486.5251922607421
 10
523.3835754394566
 20
486.9294891357421
 10
519.5712890625035
 20
487.3166961669921
 10
515.7568969726598
 20
487.6877899169921
 10
511.9405975341832
 20
488.0427703857421
 10
508.1224975585973
 20
488.3821258544921
 10
504.3027038574254
 20
488.7063446044921
 10
500.4813537597691
 20
489.0154266357421
 10
496.6585388183629
 20
489.3093719482421
 10
492.8343811035191
 20
489.5881805419921
 10
489.0089721679723
 20
489.8528289794921
 10
485.1824340820348
 20
490.1028289794921
 10
481.3548278808629
 20
490.3386688232421
 10
477.5262603759801
 20
490.5603485107421
 10
473.6968078613316
 20
490.7678680419921
 10
469.866577148441
 20
490.9612274169921
 10
466.0356292724645
 20
491.1404266357421
 10
462.2040405273473
 20
491.3054656982421
 10
458.3718872070348
 20
491.4568328857421
 10
454.5392456054723
 20
491.5935516357421
 10
450.7061920166051
 20
491.7165985107421
 10
446.8727874755895
 20
491.8249969482421
 10
443.0390777587926
 20
491.9192352294921
 10
439.2051391601598
 20
491.9993133544921
 10
435.3710021972691
 20
492.0647430419921
 10
431.536743164066
 20
492.1160125732421
 10
427.7023773193395
 20
492.1526336669921
 10
423.8679504394566
 20
492.1746063232421
 10
419.9989929199254
 20
492.1819305419921
  0
LWPOLYLINE
  5
101A
330
1F
100
AcDbEntity
  8
レイヤー 1
  6
HIDDEN
 62
   253
 48
15.0
100
AcDbPolyline
 90
      112
 70
     0
 43
0.0
 10
124.8169555664098
 20
296.9998016357421
 10
124.8242797851598
 20
300.8342742919921
 10
124.8463439941441
 20
304.6687469482421
 10
124.8834381103551
 20
308.5022430419921
 10
124.9360046386754
 20
312.3347625732421
 10
125.0047149658238
 20
316.1658172607421
 10
125.0904083251988
 20
319.9958953857421
 10
125.1941528320348
 20
323.8235321044921
 10
125.3172149658238
 20
327.6492156982421
 10
125.4610748291051
 20
331.4719696044921
 10
125.6274719238316
 20
335.2917938232421
 10
125.8183288574254
 20
339.1072235107421
 10
126.0358886718785
 20
342.9182586669921
 10
126.282577514652
 20
346.7244110107421
 10
126.5611724853551
 20
350.5242156982421
 10
126.8747558593785
 20
354.3171844482421
 10
127.2267150878941
 20
358.1018524169921
 10
127.6207427978551
 20
361.8772430419921
 10
128.060913085941
 20
365.6418914794921
 10
128.5515899658238
 20
369.3938446044921
 10
129.097534179691
 20
373.1311492919921
 10
129.7038421630895
 20
376.8513641357421
 10
130.3759765625035
 20
380.5525360107421
 10
131.1196441650426
 20
384.2307586669921
 10
131.9409179687535
 20
387.8831024169921
 10
132.8461456298863
 20
391.5051727294921
 10
133.8418121337926
 20
395.0930633544921
 10
134.9343643188512
 20
398.6414031982421
 10
136.1300811767613
 20
402.1448211669921
 10
137.4349136352574
 20
405.5974578857421
 10
138.854354858402
 20
408.9934539794921
 10
140.3932647705113
 20
412.3264617919921
 10
142.0556793212926
 20
415.5896453857421
 10
143.8445510864293
 20
418.7771453857421
 10
145.7615280151402
 20
421.8821258544921
 10
147.8069610595738
 20
424.8997039794921
 10
149.9797973632848
 20
427.8245086669921
 10
152.2775726318395
 20
430.6531219482421
 10
154.6965637207066
 20
433.3816375732421
 10
157.2318801879918
 20
436.0090789794921
 10
159.8777160644566
 20
438.5330047607421
 10
162.6275558471715
 20
440.9548797607421
 10
165.4744186401402
 20
443.2747039794921
 10
168.411125183109
 20
445.4944305419921
 10
171.4305191040074
 20
447.6160125732421
 10
174.5255203247106
 20
449.6433563232421
 10
177.689315795902
 20
451.5789031982421
 10
180.9154663085973
 20
453.4270477294921
 10
184.1980361938512
 20
455.1912078857421
 10
187.5315322876012
 20
456.8752899169921
 10
190.9109420776402
 20
458.4832000732421
 10
194.3317070007359
 20
460.0188446044921
 10
197.7897071838414
 20
461.4861297607421
 10
201.2812385559117
 20
462.8889617919921
 10
204.8029747009313
 20
464.2297821044921
 10
208.3519439697301
 20
465.5129852294921
 10
211.9255027771031
 20
466.7410125732421
 10
215.5212860107457
 20
467.9172821044921
 10
219.1371765136754
 20
469.0442352294921
 10
222.7712821960484
 20
470.1248016357421
 10
226.4219131469762
 20
471.1609344482421
 10
230.0875644683873
 20
472.1550750732421
 10
233.7668876647984
 20
473.1096649169921
 10
237.458675384525
 20
474.0266571044921
 10
241.1618385314977
 20
474.9075164794921
 10
244.8753976821935
 20
475.7541961669921
 10
248.5984735488927
 20
476.5676727294921
 10
252.3302731514012
 20
477.3503875732421
 10
256.0700824260747
 20
478.1038055419921
 10
259.8172593116795
 20
478.8279266357421
 10
263.57122421265
 20
479.5251922607421
 10
267.3314533233678
 20
480.1965789794921
 10
271.0974712371861
 20
480.8420867919921
 10
274.8688449859654
 20
481.4641571044921
 10
278.6451835632359
 20
482.0627899169921
 10
282.4261283874547
 20
482.6389617919921
 10
286.2113437652623
 20
483.1931610107421
 10
290.0005245208775
 20
483.7268524169921
 10
293.7933807373082
 20
484.2405242919921
 10
297.5896530151402
 20
484.7341766357421
 10
301.3890991210973
 20
485.2092742919921
 10
305.1914939880406
 20
485.6658172607421
 10
308.9966354370152
 20
486.1042938232421
 10
312.8043327331578
 20
486.5251922607421
 10
316.6144104003941
 20
486.9294891357421
 10
320.4267082214391
 20
487.3166961669921
 10
324.2410812377965
 20
487.6877899169921
 10
328.0573806762731
 20
488.0427703857421
 10
331.8754882812535
 20
488.3821258544921
 10
335.6952819824254
 20
488.7063446044921
 10
339.5166397094762
 20
489.0154266357421
 10
343.3394470214879
 20
489.3093719482421
 10
347.1636123657262
 20
489.5881805419921
 10
350.9890136718785
 20
489.8528289794921
 10
354.8155593872106
 20
490.1028289794921
 10
358.6431579589879
 20
490.3386688232421
 10
362.4717254638707
 20
490.5603485107421
 10
366.3011703491246
 20
490.7678680419921
 10
370.1314086914098
 20
490.9612274169921
 10
373.9623641967809
 20
491.1404266357421
 10
377.7939529418981
 20
491.3054656982421
 10
381.626098632816
 20
491.4568328857421
 10
385.458732604984
 20
491.5935516357421
 10
389.2917938232457
 20
491.7165985107421
 10
393.1251983642613
 20
491.8249969482421
 10
396.9589080810582
 20
491.9192352294921
 10
400.792846679691
 20
491.9993133544921
 10
404.6269836425816
 20
492.0647430419921
 10
408.4612426757848
 20
492.1160125732421
 10
412.2956085205113
 20
492.1526336669921
 10
416.1300354003941
 20
492.1746063232421
 10
419.9989929199254
 20
492.1819305419921
  0
DIMENSION
  5
101B
330
1F
100
AcDbEntity
  8
Quote
 48
0.5
100
AcDbDimension
  2
*D17
 10
719.9965362548827
 20
31.37188595161263
 30
0.0
 11
420.0073318481444
 21
38.87188595161263
 31
0.0
 70
    32
 71
     5
 42
599.9784088134766
 73
     0
 74
     0
 75
     0
  3
Standard
100
AcDbAlignedDimension
 13
120.0181274414061
 23
63.76397977484692
 33
0.0
 14
719.9965362548827
 24
59.94464383734692
 34
0.0
100
AcDbRotatedDimension
1001
ACAD
1000
DSTYLE
1002
{
1070
   147
1040
5.0
1070
    73
1070
     0
1070
    77
1070
     1
1070
   140
1040
5.0
1070
   271
1070
     0
1002
}
  0
DIMENSION
  5
101C
330
1F
100
AcDbEntity
  8
Quote
 48
0.5
100
AcDbDimension
  2
*D18
 10
800.1385982613082
 20
497.0014190673827
 30
0.0
 11
792.6385982613082
 21
297.0032501220702
 31
0.0
 70
    32
 71
     5
 42
399.996337890625
 73
     0
 74
     0
 75
     0
  3
Standard
100
AcDbAlignedDimension
 13
776.4441215934929
 23
97.0050811767577
 33
0.0
 14
778.364302867907
 24
497.0014190673827
 34
0.0
 50
90.0
100
AcDbRotatedDimension
1001
ACAD
1000
DSTYLE
1002
{
1070
   147
1040
5.0
1070
    73
1070
     0
1070
    77
1070
     1
1070
   140
1040
5.0
1070
   271
1070
     0
1002
}
  0
DIMENSION
  5
101D
330
1F
100
AcDbEntity
  8
Quote
 48
0.5
100
AcDbDimension
  2
*D19
 10
59.80573768745103
 20
496.9971160888671
 30
0.0
 11
52.30573768745103
 21
444.4278411865234
 31
0.0
 70
    32
 71
     5
 42
105.1385498046873
 73
     0
 74
     0
 75
     0
  3
Standard
100
AcDbAlignedDimension
 13
81.00206502123535
 23
391.8585662841798
 33
0.0
 14
81.0021260563916
 24
496.9971160888671
 34
0.0
 50
90.0
100
AcDbRotatedDimension
1001
ACAD
1000
DSTYLE
1002
{
1070
   147
1040
5.0
1070
    73
1070
     0
1070
    77
1070
     1
1070
   140
1040
5.0
1070
   271
1070
     0
1002
}
  0
LWPOLYLINE
  5
101E
330
1F
100
AcDbEntity
  8
Scasso
 62
     7
100
AcDbPolyline
 90
      173
 70
   128
 43
0.0
 10
142.9510192871093
 20
296.9999999999999
 10
142.9536132812499
 20
294.7229783535003
 10
142.961456298828
 20
292.4459686279296
 10
142.974639892578
 20
290.1689839363097
 10
142.9932250976561
 20
287.8920373916625
 10
143.0173034667968
 20
285.6151428222655
 10
143.0469360351561
 20
283.3383131027221
 10
143.0822753906249
 20
281.0615606307982
 10
143.1234130859374
 20
278.784906387329
 10
143.1706542968749
 20
276.5083713531493
 10
143.2242126464843
 20
274.2319793701171
 10
143.2843933105468
 20
271.9557571411132
 10
143.3514709472655
 20
269.6797237396239
 10
143.4256286621093
 20
267.4039096832274
 10
143.5073242187499
 20
265.1283473968505
 10
143.5969238281249
 20
262.8530883789061
 10
143.694854736328
 20
260.5781745910643
 10
143.8015747070311
 20
258.3036613464354
 10
143.9175720214843
 20
256.0296020507811
 10
144.0433654785155
 20
253.7560653686522
 10
144.1795959472655
 20
251.4831199645995
 10
144.3267517089843
 20
249.2108306884764
 10
144.4855651855468
 20
246.9393081665038
 10
144.6568908691405
 20
244.6687049865722
 10
144.8416137695311
 20
242.3991851806639
 10
145.0406188964843
 20
240.1309013366698
 10
145.2547912597655
 20
237.8640213012694
 10
145.4850158691405
 20
235.5987052917479
 10
145.7322692871093
 20
233.3351516723632
 10
145.9978027343749
 20
231.0736694335936
 10
146.2828674316405
 20
228.8145599365233
 10
146.5888061523436
 20
226.5581817626952
 10
146.9171142578124
 20
224.304962158203
 10
147.2692871093749
 20
222.0553588867186
 10
147.6468811035155
 20
219.8098526000975
 10
148.0517272949218
 20
217.5691299438475
 10
148.4856872558593
 20
215.3338699340819
 10
148.9506530761718
 20
213.1048278808593
 10
149.4488525390624
 20
210.8830032348632
 10
149.9825744628905
 20
208.6694488525389
 10
150.554229736328
 20
206.4653320312499
 10
151.1663818359374
 20
204.2721786499022
 10
151.8216552734374
 20
202.0915603637694
 10
152.5226745605468
 20
199.9251480102538
 10
153.2721557617186
 20
197.7750549316405
 10
154.0727539062499
 20
195.6435165405272
 10
154.9271850585936
 20
193.5328903198241
 10
155.8378906249999
 20
191.4460067749022
 10
156.8073730468749
 20
189.3858184814452
 10
157.8378295898436
 20
187.3553466796874
 10
158.9307556152343
 20
185.3578720092772
 10
160.0875244140624
 20
183.3967361450194
 10
161.3089904785155
 20
181.4751434326171
 10
162.5947875976561
 20
179.5960311889647
 10
163.9443969726561
 20
177.7622680664061
 10
165.356719970703
 20
175.9763183593749
 10
166.8294982910155
 20
174.2398452758788
 10
168.3603973388671
 20
172.5544281005858
 10
169.9466400146483
 20
170.9210205078124
 10
171.5849304199218
 20
169.3396987915038
 10
173.2718963623046
 20
167.8104705810546
 10
175.004180908203
 20
166.3328094482421
 10
176.7783966064452
 20
164.9056243896483
 10
178.5911407470702
 20
163.5277709960936
 10
180.4393005371093
 20
162.1978149414061
 10
182.3199310302733
 20
160.914093017578
 10
184.2301940917968
 20
159.6749420166014
 10
186.1675567626952
 20
158.4786224365233
 10
188.1297607421874
 20
157.3233947753905
 10
190.1145477294921
 20
156.2075347900389
 10
192.1200408935546
 20
155.1293487548827
 10
194.1445770263671
 20
154.0871734619139
 10
196.1864624023436
 20
153.0793609619139
 10
198.2441253662108
 20
152.1043243408202
 10
200.3163452148436
 20
151.1605987548827
 10
202.4019775390624
 20
150.2468261718749
 10
204.4998779296874
 20
149.3616180419921
 10
206.6091003417968
 20
148.5037231445311
 10
208.7286987304686
 20
147.6718749999999
 10
210.8578491210936
 20
146.8648986816405
 10
212.9958953857421
 20
146.081817626953
 10
215.1422576904296
 20
145.3217010498046
 10
217.2963562011718
 20
144.5836029052733
 10
219.4576110839843
 20
143.8665771484374
 10
221.6254577636718
 20
143.169708251953
 10
223.7993316650389
 20
142.4920959472655
 10
225.9788513183593
 20
141.8330230712889
 10
228.1637115478514
 20
141.1918334960936
 10
230.3535766601561
 20
140.5678863525389
 10
232.5481109619139
 20
139.9605407714843
 10
234.7469940185546
 20
139.3691101074218
 10
236.9499206542968
 20
138.792999267578
 10
239.1566467285155
 20
138.2316741943358
 10
241.366973876953
 20
137.6846618652343
 10
243.5807037353514
 20
137.1515045166014
 10
245.7976226806639
 20
136.6317443847655
 10
248.0175323486327
 20
136.1249084472655
 10
250.2402496337889
 20
135.6305389404296
 10
252.4655914306639
 20
135.1482391357421
 10
254.6934509277343
 20
134.6776885986327
 10
256.9237060546874
 20
134.2185211181639
 10
259.1562042236327
 20
133.7704010009764
 10
261.3908233642577
 20
133.3329772949218
 10
263.6274261474608
 20
132.9059295654296
 10
265.8659362792968
 20
132.4889526367186
 10
268.1062469482421
 20
132.0818023681639
 10
270.3482818603514
 20
131.6842346191405
 10
272.5919647216796
 20
131.2960205078124
 10
274.8372192382811
 20
130.9169158935546
 10
277.0839538574218
 20
130.546661376953
 10
279.3320922851561
 20
130.1850433349608
 10
281.5815582275389
 20
129.831817626953
 10
283.8322906494139
 20
129.4867858886718
 10
286.0842285156249
 20
129.1497955322264
 10
288.3373413085936
 20
128.8206481933593
 10
290.5915527343749
 20
128.4991760253905
 10
292.846824645996
 20
128.1852264404296
 10
295.1031112670897
 20
127.8786163330077
 10
297.3603591918944
 20
127.5792388916014
 10
299.6185455322264
 20
127.2869110107421
 10
301.8776168823241
 20
127.0015411376952
 10
304.1375350952147
 20
126.7229461669921
 10
306.3982620239257
 20
126.4510192871093
 10
308.6597595214843
 20
126.1855926513671
 10
310.9219970703124
 20
125.9265899658202
 10
313.1849365234374
 20
125.6739044189452
 10
315.4485702514647
 20
125.4274597167968
 10
317.7128753662108
 20
125.1871795654296
 10
319.977813720703
 20
124.9529876708983
 10
322.2433700561522
 20
124.7247924804686
 10
324.5095214843749
 20
124.5025024414061
 10
326.7762451171874
 20
124.2860717773436
 10
329.0435104370116
 20
124.0753936767577
 10
331.3113021850585
 20
123.870391845703
 10
333.5795898437499
 20
123.6709899902343
 10
335.8483581542968
 20
123.4770965576171
 10
338.117576599121
 20
123.2886505126952
 10
340.3872299194335
 20
123.1056213378905
 10
342.6573104858397
 20
122.9279632568358
 10
344.9278030395507
 20
122.7556610107421
 10
347.1986846923827
 20
122.588653564453
 10
349.4699554443358
 20
122.4269409179686
 10
351.741600036621
 20
122.2704620361327
 10
354.01358795166
 20
122.1192016601561
 10
356.2859230041503
 20
121.9731292724608
 10
358.5585823059081
 20
121.8321990966796
 10
360.8315544128417
 20
121.6963806152343
 10
363.104824066162
 20
121.5656433105468
 10
365.3783798217772
 20
121.439971923828
 10
367.6522064208983
 20
121.3193359374999
 10
369.9262962341307
 20
121.2037506103514
 10
372.2006340026854
 20
121.0932312011718
 10
374.4752120971679
 20
120.9877624511718
 10
376.7500228881835
 20
120.8873748779296
 10
379.025047302246
 20
120.7920379638671
 10
381.3002777099608
 20
120.7017822265624
 10
383.5757064819335
 20
120.6166076660155
 10
385.8513183593749
 20
120.5364990234374
 10
388.1271057128905
 20
120.4614868164061
 10
390.4030551910399
 20
120.3915710449218
 10
392.6791553497313
 20
120.3267364501952
 10
394.9553966522216
 20
120.2670135498046
 10
397.2317657470702
 20
120.2124176025389
 10
399.5082530975341
 20
120.1629333496093
 10
401.7848453521727
 20
120.1186065673827
 10
404.0615320205687
 20
120.0794525146483
 10
406.3383016586303
 20
120.0454559326171
 10
408.6151418685912
 20
120.0166625976561
 10
410.8920412063597
 20
119.9930572509764
 10
413.1689882278441
 20
119.9746856689452
 10
415.4459714889525
 20
119.9615325927733
 10
417.7229793071746
 20
119.953643798828
 10
419.9999999999999
 20
119.9510040283202
  0
LWPOLYLINE
  5
101F
330
1F
100
AcDbEntity
  8
Scasso
 62
     7
100
AcDbPolyline
 90
      172
 70
   128
 43
0.0
 10
419.9999999999999
 20
474.0489959716796
 10
417.7096633911132
 20
474.0463256835936
 10
415.4193401336669
 20
474.038360595703
 10
413.12904214859
 20
474.0250854492186
 10
410.8387813568114
 20
474.0065155029296
 10
408.5485687255858
 20
473.9826812744139
 10
406.2584171295165
 20
473.9535827636718
 10
403.9683361053466
 20
473.919219970703
 10
401.6783409118651
 20
473.8796234130858
 10
399.3884391784667
 20
473.8348083496093
 10
397.0986461639403
 20
473.7847595214843
 10
394.8089694976806
 20
473.729522705078
 10
392.5194263458251
 20
473.6690826416014
 10
390.2300224304198
 20
473.6034698486327
 10
387.9407730102538
 20
473.5326843261718
 10
385.6516914367675
 20
473.4567413330077
 10
383.3627853393554
 20
473.3756561279296
 10
381.0740699768065
 20
473.2894439697264
 10
378.7855529785155
 20
473.1981048583983
 10
376.4972457885741
 20
473.1016387939452
 10
374.2091598510741
 20
473.0000457763671
 10
371.9213104248046
 20
472.8933563232421
 10
369.6337013244628
 20
472.7815399169921
 10
367.3463478088378
 20
472.6646270751952
 10
365.0592613220214
 20
472.5426177978514
 10
362.7724494934081
 20
472.4155120849608
 10
360.4859313964843
 20
472.2832794189452
 10
358.1997146606444
 20
472.1458892822264
 10
355.9138183593749
 20
472.0033111572264
 10
353.6282501220702
 20
471.855499267578
 10
351.3430328369139
 20
471.7024536132811
 10
349.0581741333007
 20
471.5441284179686
 10
346.7736892700194
 20
471.3805084228514
 10
344.4895935058593
 20
471.2115173339843
 10
342.2058944702147
 20
471.0371551513671
 10
339.9226226806639
 20
470.8573760986327
 10
337.639793395996
 20
470.6721343994139
 10
335.3574066162108
 20
470.4813995361327
 10
333.0754928588866
 20
470.2851257324218
 10
330.7940673828124
 20
470.0832519531249
 10
328.5131530761718
 20
469.8756866455077
 10
326.2327651977538
 20
469.662384033203
 10
323.9529342651366
 20
469.4432525634764
 10
321.6736831665038
 20
469.2182159423827
 10
319.3950195312499
 20
468.9871826171874
 10
317.1169891357421
 20
468.7500762939452
 10
314.8396072387694
 20
468.5068054199218
 10
312.5628967285155
 20
468.2572631835936
 10
310.2869033813475
 20
468.0013885498046
 10
308.01163482666
 20
467.7390747070311
 10
305.7371292114257
 20
467.4702301025389
 10
303.463409423828
 20
467.1947631835936
 10
301.1905212402343
 20
466.9125671386718
 10
298.9184951782225
 20
466.6234588623046
 10
296.6473846435546
 20
466.3273010253905
 10
294.377227783203
 20
466.0239410400389
 10
292.108070373535
 20
465.7132110595702
 10
289.8399505615233
 20
465.3949737548827
 10
287.5729370117186
 20
465.0690460205077
 10
285.3070373535155
 20
464.7353057861327
 10
283.0423278808593
 20
464.3935394287108
 10
280.7788848876952
 20
464.0435485839843
 10
278.5167541503905
 20
463.6851348876952
 10
276.2560272216796
 20
463.3180999755858
 10
273.9967498779296
 20
462.9422149658202
 10
271.7389831542968
 20
462.5573120117186
 10
269.4828186035155
 20
462.1631774902343
 10
267.2283172607421
 20
461.7595825195311
 10
264.9755706787108
 20
461.3462524414061
 10
262.7247009277343
 20
460.9228668212889
 10
260.4758148193358
 20
460.4891357421874
 10
258.2290191650389
 20
460.0447235107421
 10
255.9844207763671
 20
459.5893402099608
 10
253.7421417236327
 20
459.1226654052733
 10
251.5022888183593
 20
458.6443786621093
 10
249.2649841308593
 20
458.1541595458983
 10
247.0304260253905
 20
457.6515350341796
 10
244.7988128662108
 20
457.1360626220702
 10
242.5703582763671
 20
456.6072540283202
 10
240.345245361328
 20
456.0646362304686
 10
238.1236724853514
 20
455.5077362060546
 10
235.9058837890624
 20
454.9360961914061
 10
233.6920318603514
 20
454.3492279052733
 10
231.4823913574218
 20
453.746612548828
 10
229.2772979736327
 20
453.1275939941405
 10
227.0770568847655
 20
452.4915161132811
 10
224.8820343017577
 20
451.8377227783202
 10
222.6925506591796
 20
451.1655426025389
 10
220.509063720703
 20
450.4741821289061
 10
218.3320159912108
 20
449.7628021240233
 10
216.1618652343749
 20
449.0305633544921
 10
213.9991912841796
 20
448.2765655517577
 10
211.8446044921874
 20
447.4998016357421
 10
209.6987457275389
 20
446.6992950439452
 10
207.5622558593749
 20
445.8740692138671
 10
205.4359130859374
 20
445.0229949951171
 10
203.3206329345702
 20
444.1448516845702
 10
201.2173309326171
 20
443.2384185791014
 10
199.1269683837889
 20
442.3024291992186
 10
197.0507659912108
 20
441.3354339599608
 10
194.9901123046874
 20
440.3358306884764
 10
192.9464416503905
 20
439.3020172119139
 10
190.9212188720702
 20
438.2323760986327
 10
188.9162597656249
 20
437.1252288818358
 10
186.9335174560546
 20
435.9788970947264
 10
184.9749908447264
 20
434.7916870117186
 10
183.0427703857421
 20
433.5619049072264
 10
181.1395721435546
 20
432.2877655029296
 10
179.2682189941405
 20
430.9675140380858
 10
177.4315185546874
 20
429.5993804931639
 10
175.6325378417968
 20
428.1818084716796
 10
173.8747253417968
 20
426.713653564453
 10
172.1616210937499
 20
425.1937866210936
 10
170.4966888427733
 20
423.6211700439452
 10
168.8833007812499
 20
421.9955825805663
 10
167.3246002197264
 20
420.3175888061522
 10
165.8237915039061
 20
418.5877761840819
 10
164.3838348388671
 20
416.8069305419921
 10
163.0065002441405
 20
414.9771270751952
 10
161.6931152343749
 20
413.100860595703
 10
160.4450683593749
 20
411.1806716918944
 10
159.2626037597655
 20
409.2194213867186
 10
158.1447753906249
 20
407.2204742431639
 10
157.0904541015624
 20
405.1872177124022
 10
156.0983886718749
 20
403.1230316162108
 10
155.1665649414061
 20
401.0310134887694
 10
154.2923583984374
 20
398.914093017578
 10
153.473175048828
 20
396.7751998901366
 10
152.7063903808593
 20
394.6171340942382
 10
151.9893188476561
 20
392.4420471191405
 10
151.3192443847655
 20
390.2519073486327
 10
150.6934509277343
 20
388.0487060546874
 10
150.1092529296874
 20
385.8342056274413
 10
149.5641174316405
 20
383.6097412109374
 10
149.0554809570311
 20
381.3765640258788
 10
148.5807800292968
 20
379.1359405517577
 10
148.1378173828124
 20
376.8889007568358
 10
147.7247314453124
 20
374.6361541748046
 10
147.3396911621093
 20
372.3783950805663
 10
146.9808654785155
 20
370.1163330078124
 10
146.6465454101561
 20
367.8505325317382
 10
146.3350219726561
 20
365.5814971923827
 10
146.0446777343749
 20
363.3096542358397
 10
145.7743225097655
 20
361.0353393554686
 10
145.522735595703
 20
358.7588539123534
 10
145.2886657714843
 20
356.480499267578
 10
145.071075439453
 20
354.2005233764647
 10
144.868927001953
 20
351.9191246032714
 10
144.6812133789061
 20
349.6364936828612
 10
144.5070190429686
 20
347.3528022766112
 10
144.3455505371093
 20
345.0681724548339
 10
144.1961059570311
 20
342.7827110290526
 10
144.0579223632811
 20
340.4965362548827
 10
143.9302978515624
 20
338.2097511291503
 10
143.8126525878905
 20
335.9224433898925
 10
143.7044677734374
 20
333.6346626281737
 10
143.6052246093749
 20
331.3464736938475
 10
143.5144042968749
 20
329.0579338073729
 10
143.4315795898436
 20
326.7690925598143
 10
143.3563537597655
 20
324.4799880981444
 10
143.2883911132811
 20
322.1906585693358
 10
143.2273559570311
 20
319.9011383056639
 10
143.1730041503905
 20
317.6114501953124
 10
143.1250915527343
 20
315.3216171264647
 10
143.0834350585936
 20
313.0316562652587
 10
143.0477905273436
 20
310.7415904998778
 10
143.0179748535155
 20
308.4514398574828
 10
142.9937438964843
 20
306.1612243652343
 10
142.9749755859374
 20
303.8709611892699
 10
142.9616394042968
 20
301.5806612968444
 10
142.953643798828
 20
299.2903370857238
 10
142.9510192871093
 20
296.9999999999981
  0
LWPOLYLINE
  5
1020
330
1F
100
AcDbEntity
  8
Scasso
 62
     7
100
AcDbPolyline
 90
      173
 70
   128
 43
0.0
 10
697.0489807128905
 20
296.9999999999999
 10
697.0463867187499
 20
299.2770216464995
 10
697.0385437011718
 20
301.5540313720702
 10
697.0253601074218
 20
303.8310160636901
 10
697.0067749023436
 20
306.1079626083373
 10
696.982696533203
 20
308.3848571777343
 10
696.9530639648436
 20
310.6616868972777
 10
696.9177246093749
 20
312.9384393692015
 10
696.8765869140624
 20
315.2150936126708
 10
696.8293457031249
 20
317.4916286468505
 10
696.7757873535155
 20
319.7680206298827
 10
696.715606689453
 20
322.0442428588866
 10
696.6485290527343
 20
324.3202762603759
 10
696.5743713378905
 20
326.5960903167723
 10
696.4926757812499
 20
328.8716526031493
 10
696.4030761718749
 20
331.1469116210936
 10
696.3051452636718
 20
333.4218254089354
 10
696.1984252929686
 20
335.6963386535643
 10
696.0824279785155
 20
337.9703979492186
 10
695.9566345214843
 20
340.2439346313475
 10
695.8204040527343
 20
342.5168800354003
 10
695.6732482910155
 20
344.7891693115233
 10
695.514434814453
 20
347.060691833496
 10
695.3431091308593
 20
349.3312950134276
 10
695.1583862304686
 20
351.6008148193358
 10
694.9593811035155
 20
353.86909866333
 10
694.7452087402343
 20
356.1359786987304
 10
694.5149841308593
 20
358.4012947082518
 10
694.2677307128905
 20
360.6648483276366
 10
694.0021972656249
 20
362.9263305664061
 10
693.7171325683593
 20
365.1854400634764
 10
693.4111938476561
 20
367.4418182373046
 10
693.0828857421874
 20
369.6950378417968
 10
692.7307128906249
 20
371.9446411132811
 10
692.3531188964843
 20
374.1901473999022
 10
691.948272705078
 20
376.4308700561522
 10
691.5143127441405
 20
378.6661300659179
 10
691.049346923828
 20
380.8951721191405
 10
690.5511474609374
 20
383.1169967651366
 10
690.0174255371093
 20
385.3305511474608
 10
689.4457702636718
 20
387.5346679687499
 10
688.8336181640624
 20
389.7278213500975
 10
688.1783447265624
 20
391.9084396362304
 10
687.477325439453
 20
394.074851989746
 10
686.7278442382811
 20
396.2249450683593
 10
685.9272460937499
 20
398.3564834594725
 10
685.0728149414061
 20
400.4671096801757
 10
684.1621093749999
 20
402.5539932250975
 10
683.1926269531249
 20
404.6141815185546
 10
682.1621704101561
 20
406.6446533203124
 10
681.0692443847655
 20
408.6421279907225
 10
679.9124755859374
 20
410.6032638549804
 10
678.6910095214843
 20
412.5248565673827
 10
677.4052124023436
 20
414.403968811035
 10
676.0556030273436
 20
416.2377319335936
 10
674.6432800292968
 20
418.0236816406249
 10
673.1705017089843
 20
419.760154724121
 10
671.6396026611327
 20
421.4455718994139
 10
670.0533599853514
 20
423.0789794921874
 10
668.415069580078
 20
424.660301208496
 10
666.7281036376952
 20
426.1895294189452
 10
664.9958190917968
 20
427.6671905517577
 10
663.2216033935546
 20
429.0943756103514
 10
661.4088592529296
 20
430.4722290039061
 10
659.5606994628905
 20
431.8021850585936
 10
657.6800689697264
 20
433.0859069824218
 10
655.769805908203
 20
434.3250579833983
 10
653.8324432373046
 20
435.5213775634764
 10
651.8702392578124
 20
436.6766052246093
 10
649.8854522705077
 20
437.7924652099608
 10
647.8799591064452
 20
438.8706512451171
 10
645.8554229736327
 20
439.9128265380858
 10
643.8135375976561
 20
440.9206390380858
 10
641.755874633789
 20
441.8956756591796
 10
639.6836547851561
 20
442.8394012451171
 10
637.5980224609374
 20
443.7531738281249
 10
635.5001220703124
 20
444.6383819580077
 10
633.390899658203
 20
445.4962768554686
 10
631.2713012695311
 20
446.3281249999999
 10
629.1421508789061
 20
447.1351013183593
 10
627.0041046142577
 20
447.9181823730468
 10
624.8577423095702
 20
448.6782989501952
 10
622.703643798828
 20
449.4163970947264
 10
620.5423889160155
 20
450.1334228515624
 10
618.374542236328
 20
450.8302917480468
 10
616.2006683349608
 20
451.5079040527343
 10
614.0211486816405
 20
452.1669769287108
 10
611.8362884521483
 20
452.8081665039061
 10
609.6464233398436
 20
453.4321136474608
 10
607.4518890380858
 20
454.0394592285155
 10
605.2530059814452
 20
454.630889892578
 10
603.050079345703
 20
455.2070007324218
 10
600.8433532714843
 20
455.7683258056639
 10
598.6330261230468
 20
456.3153381347655
 10
596.4192962646483
 20
456.8484954833983
 10
594.2023773193358
 20
457.3682556152343
 10
591.9824676513671
 20
457.8750915527343
 10
589.7597503662108
 20
458.3694610595702
 10
587.5344085693358
 20
458.8517608642577
 10
585.3065490722655
 20
459.3223114013671
 10
583.0762939453124
 20
459.7814788818358
 10
580.8437957763671
 20
460.2295989990233
 10
578.6091766357421
 20
460.667022705078
 10
576.372573852539
 20
461.0940704345702
 10
574.134063720703
 20
461.5110473632811
 10
571.8937530517577
 20
461.9181976318358
 10
569.6517181396483
 20
462.3157653808593
 10
567.4080352783202
 20
462.7039794921874
 10
565.1627807617186
 20
463.0830841064452
 10
562.916046142578
 20
463.4533386230468
 10
560.6679077148436
 20
463.8149566650389
 10
558.4184417724608
 20
464.1681823730468
 10
556.1677093505858
 20
464.513214111328
 10
553.9157714843749
 20
464.8502044677733
 10
551.6626586914061
 20
465.1793518066405
 10
549.4084472656249
 20
465.5008239746093
 10
547.1531753540038
 20
465.8147735595702
 10
544.89688873291
 20
466.1213836669921
 10
542.6396408081054
 20
466.4207611083983
 10
540.3814544677733
 20
466.7130889892577
 10
538.1223831176757
 20
466.9984588623046
 10
535.862464904785
 20
467.2770538330077
 10
533.6017379760741
 20
467.5489807128905
 10
531.3402404785155
 20
467.8144073486327
 10
529.0780029296874
 20
468.0734100341796
 10
526.8150634765624
 20
468.3260955810546
 10
524.551429748535
 20
468.572540283203
 10
522.287124633789
 20
468.8128204345702
 10
520.0221862792968
 20
469.0470123291014
 10
517.7566299438475
 20
469.2752075195311
 10
515.4904785156249
 20
469.4974975585936
 10
513.2237548828124
 20
469.7139282226561
 10
510.9564895629882
 20
469.9246063232421
 10
508.6886978149413
 20
470.1296081542968
 10
506.4204101562499
 20
470.3290100097655
 10
504.151641845703
 20
470.5229034423827
 10
501.8824234008788
 20
470.7113494873046
 10
499.6127700805663
 20
470.8943786621093
 10
497.34268951416
 20
471.0720367431639
 10
495.0721969604491
 20
471.2443389892577
 10
492.8013153076171
 20
471.4113464355468
 10
490.5300445556639
 20
471.5730590820311
 10
488.2583999633788
 20
471.7295379638671
 10
485.9864120483397
 20
471.8807983398436
 10
483.7140769958495
 20
472.0268707275389
 10
481.4414176940917
 20
472.1678009033202
 10
479.1684455871581
 20
472.3036193847655
 10
476.8951759338378
 20
472.434356689453
 10
474.6216201782225
 20
472.5600280761718
 10
472.3477935791014
 20
472.6806640624999
 10
470.073703765869
 20
472.7962493896483
 10
467.7993659973143
 20
472.906768798828
 10
465.5247879028319
 20
473.012237548828
 10
463.2499771118163
 20
473.1126251220702
 10
460.9749526977538
 20
473.2079620361327
 10
458.6997222900389
 20
473.2982177734374
 10
456.4242935180663
 20
473.3833923339843
 10
454.1486816406249
 20
473.4635009765624
 10
451.8728942871093
 20
473.5385131835936
 10
449.5969448089598
 20
473.608428955078
 10
447.3208446502684
 20
473.6732635498046
 10
445.0446033477782
 20
473.7329864501952
 10
442.7682342529296
 20
473.7875823974608
 10
440.4917469024657
 20
473.8370666503905
 10
438.215154647827
 20
473.8813934326171
 10
435.938467979431
 20
473.9205474853514
 10
433.6616983413695
 20
473.9545440673827
 10
431.3848581314086
 20
473.9833374023436
 10
429.10795879364
 20
474.0069427490233
 10
426.8310117721556
 20
474.0253143310546
 10
424.5540285110472
 20
474.0384674072264
 10
422.2770206928252
 20
474.0463562011718
 10
419.9999999999999
 20
474.0489959716796
  0
LWPOLYLINE
  5
1021
330
1F
100
AcDbEntity
  8
Scasso
 62
     7
100
AcDbPolyline
 90
      172
 70
   128
 43
0.0
 10
419.9999999999999
 20
119.9510040283202
 10
422.2903366088866
 20
119.9536743164061
 10
424.5806598663329
 20
119.9616394042968
 10
426.8709578514098
 20
119.9749145507811
 10
429.1612186431884
 20
119.9934844970702
 10
431.4514312744139
 20
120.0173187255858
 10
433.7415828704833
 20
120.046417236328
 10
436.0316638946532
 20
120.0807800292968
 10
438.3216590881347
 20
120.1203765869139
 10
440.6115608215331
 20
120.1651916503905
 10
442.9013538360595
 20
120.2152404785155
 10
445.1910305023192
 20
120.2704772949218
 10
447.4805736541747
 20
120.3309173583983
 10
449.76997756958
 20
120.3965301513671
 10
452.059226989746
 20
120.467315673828
 10
454.3483085632323
 20
120.5432586669921
 10
456.6372146606444
 20
120.6243438720702
 10
458.9259300231932
 20
120.7105560302733
 10
461.2144470214843
 20
120.8018951416014
 10
463.5027542114257
 20
120.8983612060546
 10
465.7908401489257
 20
120.9999542236327
 10
468.0786895751952
 20
121.1066436767577
 10
470.366298675537
 20
121.2184600830077
 10
472.653652191162
 20
121.3353729248046
 10
474.9407386779784
 20
121.4573822021483
 10
477.2275505065917
 20
121.5844879150389
 10
479.5140686035155
 20
121.7167205810546
 10
481.8002853393554
 20
121.8541107177733
 10
484.0861816406249
 20
121.9966888427733
 10
486.3717498779296
 20
122.1445007324218
 10
488.6569671630858
 20
122.2975463867186
 10
490.9418258666991
 20
122.4558715820311
 10
493.2263107299804
 20
122.6194915771483
 10
495.5104064941405
 20
122.7884826660155
 10
497.794105529785
 20
122.9628448486327
 10
500.0773773193358
 20
123.1426239013671
 10
502.3602066040038
 20
123.3278656005858
 10
504.6425933837889
 20
123.5186004638671
 10
506.9245071411132
 20
123.714874267578
 10
509.2059326171874
 20
123.9167480468749
 10
511.486846923828
 20
124.1243133544921
 10
513.767234802246
 20
124.3376159667968
 10
516.0470657348632
 20
124.5567474365233
 10
518.326316833496
 20
124.7817840576171
 10
520.6049804687499
 20
125.0128173828124
 10
522.8830108642577
 20
125.2499237060546
 10
525.1603927612304
 20
125.493194580078
 10
527.4371032714843
 20
125.7427368164061
 10
529.7130966186522
 20
125.9986114501952
 10
531.9883651733397
 20
126.2609252929686
 10
534.2628707885741
 20
126.5297698974608
 10
536.5365905761718
 20
126.8052368164061
 10
538.8094787597655
 20
127.087432861328
 10
541.0815048217772
 20
127.3765411376952
 10
543.3526153564452
 20
127.6726989746093
 10
545.6227722167968
 20
127.9760589599608
 10
547.8919296264647
 20
128.2867889404296
 10
550.1600494384764
 20
128.6050262451171
 10
552.4270629882811
 20
128.9309539794921
 10
554.6929626464843
 20
129.2646942138671
 10
556.9576721191405
 20
129.6064605712889
 10
559.2211151123046
 20
129.9564514160155
 10
561.4832458496093
 20
130.3148651123046
 10
563.7439727783202
 20
130.6819000244139
 10
566.0032501220702
 20
131.0577850341796
 10
568.261016845703
 20
131.4426879882811
 10
570.5171813964843
 20
131.8368225097655
 10
572.7716827392577
 20
132.2404174804686
 10
575.024429321289
 20
132.6537475585936
 10
577.2752990722655
 20
133.0771331787108
 10
579.524185180664
 20
133.5108642578124
 10
581.7709808349608
 20
133.9552764892577
 10
584.0155792236327
 20
134.4106597900389
 10
586.2578582763671
 20
134.8773345947264
 10
588.4977111816405
 20
135.3556213378905
 10
590.7350158691405
 20
135.8458404541014
 10
592.9695739746093
 20
136.3484649658202
 10
595.201187133789
 20
136.8639373779296
 10
597.4296417236327
 20
137.3927459716796
 10
599.6547546386718
 20
137.9353637695311
 10
601.8763275146483
 20
138.4922637939452
 10
604.0941162109374
 20
139.0639038085936
 10
606.3079681396483
 20
139.6507720947264
 10
608.517608642578
 20
140.2533874511718
 10
610.7227020263671
 20
140.8724060058593
 10
612.9229431152343
 20
141.5084838867186
 10
615.1179656982421
 20
142.1622772216796
 10
617.3074493408202
 20
142.8344573974608
 10
619.4909362792968
 20
143.5258178710936
 10
621.667984008789
 20
144.2371978759764
 10
623.8381347656249
 20
144.9694366455077
 10
626.0008087158202
 20
145.7234344482421
 10
628.1553955078124
 20
146.5001983642577
 10
630.3012542724608
 20
147.3007049560546
 10
632.4377441406249
 20
148.1259307861327
 10
634.5640869140624
 20
148.9770050048827
 10
636.6793670654296
 20
149.8551483154296
 10
638.7826690673827
 20
150.7615814208983
 10
640.8730316162108
 20
151.6975708007811
 10
642.949234008789
 20
152.6645660400389
 10
645.0098876953124
 20
153.6641693115233
 10
647.0535583496093
 20
154.6979827880858
 10
649.0787811279296
 20
155.7676239013671
 10
651.0837402343749
 20
156.8747711181639
 10
653.0664825439452
 20
158.0211029052733
 10
655.0250091552733
 20
159.2083129882811
 10
656.9572296142577
 20
160.4380950927733
 10
658.8604278564452
 20
161.7122344970702
 10
660.7317810058593
 20
163.0324859619139
 10
662.5684814453124
 20
164.4006195068358
 10
664.367462158203
 20
165.8181915283202
 10
666.125274658203
 20
167.2863464355468
 10
667.8383789062499
 20
168.8062133789061
 10
669.5033111572264
 20
170.3788299560546
 10
671.1166992187499
 20
172.0044174194335
 10
672.6753997802733
 20
173.6824111938475
 10
674.1762084960936
 20
175.4122238159179
 10
675.6161651611327
 20
177.1930694580077
 10
676.9934997558593
 20
179.0228729248046
 10
678.3068847656249
 20
180.8991394042968
 10
679.5549316406249
 20
182.8193283081054
 10
680.7373962402343
 20
184.7805786132811
 10
681.8552246093749
 20
186.7795257568358
 10
682.9095458984374
 20
188.8127822875975
 10
683.9016113281249
 20
190.8769683837889
 10
684.8334350585936
 20
192.9689865112304
 10
685.7076416015624
 20
195.0859069824218
 10
686.5268249511718
 20
197.2248001098632
 10
687.2936096191405
 20
199.3828659057616
 10
688.0106811523436
 20
201.5579528808593
 10
688.6807556152343
 20
203.7480926513671
 10
689.3065490722655
 20
205.9512939453124
 10
689.8907470703124
 20
208.1657943725585
 10
690.4358825683593
 20
210.3902587890624
 10
690.9445190429686
 20
212.623435974121
 10
691.419219970703
 20
214.8640594482421
 10
691.8621826171874
 20
217.1110992431639
 10
692.2752685546874
 20
219.3638458251952
 10
692.6603088378905
 20
221.6216049194335
 10
693.0191345214843
 20
223.8836669921874
 10
693.3534545898436
 20
226.1494674682616
 10
693.6649780273436
 20
228.4185028076171
 10
693.9553222656249
 20
230.69034576416
 10
694.2256774902343
 20
232.9646606445311
 10
694.4772644042968
 20
235.2411460876464
 10
694.7113342285155
 20
237.5195007324218
 10
694.9289245605468
 20
239.799476623535
 10
695.1310729980468
 20
242.0808753967284
 10
695.3187866210936
 20
244.3635063171386
 10
695.4929809570311
 20
246.6471977233886
 10
695.6544494628905
 20
248.9318275451659
 10
695.8038940429686
 20
251.2172889709472
 10
695.9420776367186
 20
253.5034637451171
 10
696.0697021484374
 20
255.7902488708495
 10
696.1873474121093
 20
258.0775566101073
 10
696.2955322265624
 20
260.3653373718261
 10
696.3947753906249
 20
262.6535263061522
 10
696.4855957031249
 20
264.9420661926268
 10
696.5684204101561
 20
267.2309074401854
 10
696.6436462402343
 20
269.5200119018554
 10
696.7116088867186
 20
271.8093414306639
 10
696.7726440429686
 20
274.0988616943358
 10
696.8269958496093
 20
276.3885498046874
 10
696.8749084472655
 20
278.678382873535
 10
696.9165649414061
 20
280.9683437347411
 10
696.9522094726561
 20
283.258409500122
 10
696.9820251464843
 20
285.548560142517
 10
697.0062561035155
 20
287.8387756347655
 10
697.0250244140624
 20
290.1290388107299
 10
697.038360595703
 20
292.4193387031554
 10
697.0463562011718
 20
294.709662914276
 10
697.0489807128905
 20
297.0000000000017
  0
DIMENSION
  5
1022
330
1F
100
AcDbEntity
  8
Quote
 62
    30
 48
0.5
100
AcDbDimension
  2
*D20
 10
696.8199052268627
 20
64.70021388856969
 30
0.0
 11
419.8861183849157
 21
72.20021388856969
 31
0.0
 70
    32
  1
555
 71
     5
 42
553.8675736838941
 73
     0
 74
     0
 75
     0
  3
Standard
100
AcDbAlignedDimension
 13
142.9523315429686
 23
97.09230771180398
 33
0.0
 14
696.8199052268627
 24
97.09230771180398
 34
0.0
100
AcDbRotatedDimension
1001
ACAD
1000
DSTYLE
1002
{
1070
   147
1040
5.0
1070
    73
1070
     0
1070
    77
1070
     1
1070
   140
1040
5.0
1070
   271
1070
     0
1002
}
  0
DIMENSION
  5
1023
330
1F
100
AcDbEntity
  8
Quote
 62
    30
 48
0.5
100
AcDbDimension
  2
*D21
 10
768.1504564843179
 20
471.4470593835282
 30
0.0
 11
760.6504564843179
 21
295.7023581219398
 31
0.0
 70
    32
  1
350
 71
     5
 42
351.4894025231768
 73
     0
 74
     0
 75
     0
  3
Standard
100
AcDbAlignedDimension
 13
744.4559798165027
 23
119.9576568603514
 33
0.0
 14
746.3761610909186
 24
471.4470593835282
 34
0.0
 50
90.0
100
AcDbRotatedDimension
1001
ACAD
1000
DSTYLE
1002
{
1070
   147
1040
5.0
1070
    73
1070
     0
1070
    77
1070
     1
1070
   140
1040
5.0
1070
   271
1070
     0
1002
}
  0
ENDSEC
  0
SECTION
  2
OBJECTS
  0
DICTIONARY
  5
C
330
0
100
AcDbDictionary
281
     1
  3
ACAD_COLOR
350
F8C
  3
ACAD_DETAILVIEWSTYLE
350
E05
  3
ACAD_GROUP
350
D
  3
ACAD_LAYOUT
350
1A
  3
ACAD_MATERIAL
350
CFC
  3
ACAD_MLEADERSTYLE
350
D0B
  3
ACAD_MLINESTYLE
350
17
  3
ACAD_PLOTSETTINGS
350
19
  3
ACAD_PLOTSTYLENAME
350
E
  3
ACAD_SCALELIST
350
CDA
  3
ACAD_SECTIONVIEWSTYLE
350
E06
  3
ACAD_TABLESTYLE
350
CD9
  3
ACAD_VISUALSTYLE
350
2A
  3
ACDB_RECOMPOSE_DATA
350
125B
  3
AcDbVariableDictionary
350
DFB
  3
APPDATA
350
D0D
  0
SUN
  5
F75
330
29
100
AcDbSun
 90
        1
290
     0
 63
     7
421
 16777215
 40
1.0
291
     1
 91
  2455826
 92
 54000000
292
     0
 70
     2
 71
   256
280
     1
  0
DICTIONARY
  5
FF7
330
2
100
AcDbDictionary
280
     1
281
     1
  3
ACAD_LAYERSTATES
360
FF8
  3
ACLYDICTIONARY
360
109A
  0
DICTIONARY
  5
F7B
330
F7A
100
AcDbDictionary
280
     1
281
     1
  3
ADSK_XREC_LAYER_RECONCILED
360
F7C
  0
DICTIONARY
  5
F8C
102
{ACAD_REACTORS
330
C
102
}
330
C
100
AcDbDictionary
281
     1
  0
DICTIONARY
  5
E05
102
{ACAD_REACTORS
330
C
102
}
330
C
100
AcDbDictionary
281
     1
  0
DICTIONARY
  5
D
102
{ACAD_REACTORS
330
C
102
}
330
C
100
AcDbDictionary
281
     1
  3
*A1
350
E55
  0
DICTIONARY
  5
1A
102
{ACAD_REACTORS
330
C
102
}
330
C
100
AcDbDictionary
281
     1
  3
Layout1
350
1E
  3
Layout2
350
26
  3
Model
350
22
  0
DICTIONARY
  5
CFC
102
{ACAD_REACTORS
330
C
102
}
330
C
100
AcDbDictionary
281
     1
  3
ByBlock
350
CFE
  3
ByLayer
350
CFD
  3
Global
350
CFF
  0
DICTIONARY
  5
D0B
102
{ACAD_REACTORS
330
C
102
}
330
C
100
AcDbDictionary
281
     1
  3
Standard
350
D0C
  0
DICTIONARY
  5
17
102
{ACAD_REACTORS
330
C
102
}
330
C
100
AcDbDictionary
281
     1
  3
Standard
350
18
  0
DICTIONARY
  5
19
102
{ACAD_REACTORS
330
C
102
}
330
C
100
AcDbDictionary
281
     1
  0
ACDBDICTIONARYWDFLT
  5
E
102
{ACAD_REACTORS
330
C
102
}
330
C
100
AcDbDictionary
281
     1
  3
Normal
350
F
100
AcDbDictionaryWithDefault
340
F
  0
DICTIONARY
  5
CDA
102
{ACAD_REACTORS
330
C
102
}
330
C
100
AcDbDictionary
281
     1
  3
A0
350
CDB
  3
A1
350
CDC
  3
A2
350
CDD
  3
A3
350
CDE
  3
A4
350
CDF
  3
A5
350
CE0
  3
A6
350
CE1
  3
A7
350
CE2
  3
A8
350
CE3
  3
A9
350
CE4
  3
B0
350
CE5
  3
B1
350
CE6
  3
B2
350
CE7
  3
B3
350
CE8
  3
B4
350
CE9
  3
B5
350
CEA
  3
B6
350
CEB
  3
B7
350
CEC
  3
B8
350
CED
  3
B9
350
CEE
  3
C0
350
CEF
  3
C1
350
CF0
  3
C2
350
CF1
  3
C3
350
CF2
  3
C4
350
CF3
  3
C5
350
CF4
  3
C6
350
CF5
  3
C7
350
CF6
  3
C8
350
CF7
  3
C9
350
CF8
  3
D0
350
CF9
  3
D1
350
CFA
  3
D2
350
CFB
  0
DICTIONARY
  5
E06
102
{ACAD_REACTORS
330
C
102
}
330
C
100
AcDbDictionary
281
     1
  0
DICTIONARY
  5
CD9
102
{ACAD_REACTORS
330
C
102
}
330
C
100
AcDbDictionary
281
     1
  3
Standard
350
D0A
  0
DICTIONARY
  5
2A
102
{ACAD_REACTORS
330
C
102
}
330
C
100
AcDbDictionary
281
     1
  3
2dWireframe
350
2F
  3
3D Hidden
350
31
  3
3dWireframe
350
30
  3
Basic
350
32
  3
Brighten
350
36
  3
ColorChange
350
3A
  3
Conceptual
350
34
  3
Dim
350
35
  3
EdgeColorOff
350
D04
  3
Facepattern
350
39
  3
Flat
350
2B
  3
FlatWithEdges
350
2C
  3
Gouraud
350
2D
  3
GouraudWithEdges
350
2E
  3
Hidden
350
D01
  3
JitterOff
350
D02
  3
Linepattern
350
38
  3
OverhangOff
350
D03
  3
Realistic
350
33
  3
Shaded
350
D09
  3
Shaded with edges
350
D08
  3
Shades of Gray
350
D05
  3
Sketchy
350
D06
  3
Thicken
350
37
  3
Wireframe
350
D00
  3
X-Ray
350
D07
  0
XRECORD
  5
125B
102
{ACAD_REACTORS
330
C
102
}
330
C
100
AcDbXrecord
280
     1
 90
        1
330
D0A
  0
DICTIONARY
  5
DFB
102
{ACAD_REACTORS
330
C
102
}
330
C
100
AcDbDictionary
281
     1
  3
CANNOSCALE
350
DFC
  3
CMLEADERSTYLE
350
E02
  3
CTABLESTYLE
350
E01
  3
MSLTSCALE
350
E03
  3
XCLIPFRAME
350
E04
  0
DICTIONARY
  5
D0D
102
{ACAD_REACTORS
330
C
102
}
330
C
100
AcDbDictionary
281
     1
  0
DICTIONARY
  5
FF8
102
{ACAD_REACTORS
330
FF7
102
}
330
FF7
100
AcDbDictionary
281
     1
  0
DICTIONARY
  5
109A
102
{ACAD_REACTORS
330
FF7
102
}
330
FF7
100
AcDbDictionary
281
     1
1001
ACAD
1000
<All
  0
XRECORD
  5
F7C
102
{ACAD_REACTORS
330
F7B
102
}
330
F7B
100
AcDbXrecord
280
     1
290
     1
  0
GROUP
  5
E55
102
{ACAD_REACTORS
330
D
102
}
330
D
100
AcDbGroup
300

 70
     1
 71
     1
340
E51
340
E52
340
E53
340
E54
  0
LAYOUT
  5
1E
102
{ACAD_REACTORS
330
1A
102
}
330
1A
100
AcDbPlotSettings
  1

  2
none_device
  4

  6

 40
0.0
 41
0.0
 42
0.0
 43
0.0
 44
0.0
 45
0.0
 46
0.0
 47
0.0
 48
0.0
 49
0.0
140
0.0
141
0.0
142
1.0
143
1.0
 70
   688
 72
     0
 73
     0
 74
     5
  7

 75
    16
 76
     0
 77
     2
 78
   300
147
1.0
148
0.0
149
0.0
100
AcDbLayout
  1
Layout1
 70
     1
 71
     1
 10
0.0
 20
0.0
 11
12.0
 21
9.0
 12
0.0
 22
0.0
 32
0.0
 14
1.000000000000000E+20
 24
1.000000000000000E+20
 34
1.000000000000000E+20
 15
-1.000000000000000E+20
 25
-1.000000000000000E+20
 35
-1.000000000000000E+20
146
0.0
 13
0.0
 23
0.0
 33
0.0
 16
1.0
 26
0.0
 36
0.0
 17
0.0
 27
1.0
 37
0.0
 76
     0
330
1B
  0
LAYOUT
  5
26
102
{ACAD_REACTORS
330
1A
102
}
330
1A
100
AcDbPlotSettings
  1

  2
none_device
  4

  6

 40
0.0
 41
0.0
 42
0.0
 43
0.0
 44
0.0
 45
0.0
 46
0.0
 47
0.0
 48
0.0
 49
0.0
140
0.0
141
0.0
142
1.0
143
1.0
 70
   688
 72
     0
 73
     0
 74
     5
  7

 75
    16
 76
     0
 77
     2
 78
   300
147
1.0
148
0.0
149
0.0
100
AcDbLayout
  1
Layout2
 70
     1
 71
     2
 10
0.0
 20
0.0
 11
0.0
 21
0.0
 12
0.0
 22
0.0
 32
0.0
 14
0.0
 24
0.0
 34
0.0
 15
0.0
 25
0.0
 35
0.0
146
0.0
 13
0.0
 23
0.0
 33
0.0
 16
1.0
 26
0.0
 36
0.0
 17
0.0
 27
1.0
 37
0.0
 76
     0
330
23
  0
LAYOUT
  5
22
102
{ACAD_REACTORS
330
1A
102
}
330
1A
100
AcDbPlotSettings
  1

  2
none_device
  4

  6

 40
0.0
 41
0.0
 42
0.0
 43
0.0
 44
0.0
 45
0.0
 46
0.0
 47
0.0
 48
0.0
 49
0.0
140
0.0
141
0.0
142
1.0
143
1.0
 70
  1712
 72
     0
 73
     0
 74
     0
  7

 75
     0
 76
     0
 77
     2
 78
   300
147
1.0
148
0.0
149
0.0
100
AcDbLayout
  1
Model
 70
     1
 71
     0
 10
419.9999999999999
 20
-0.0000000000001137
 11
840.0
 21
296.9999999999998
 12
0.0
 22
0.0
 32
0.0
 14
0.0
 24
-0.0000000000001137
 34
0.0
 15
840.0
 25
593.9999999999999
 35
0.0
146
0.0
 13
0.0
 23
0.0
 33
0.0
 16
1.0
 26
0.0
 36
0.0
 17
0.0
 27
1.0
 37
0.0
 76
     0
330
1F
331
29
  0
MATERIAL
  5
CFE
102
{ACAD_REACTORS
330
CFC
102
}
330
CFC
100
AcDbMaterial
  1
ByBlock
 72
     1
 94
      127
  0
MATERIAL
  5
CFD
102
{ACAD_REACTORS
330
CFC
102
}
330
CFC
100
AcDbMaterial
  1
ByLayer
 72
     1
 94
      127
  0
MATERIAL
  5
CFF
102
{ACAD_REACTORS
330
CFC
102
}
330
CFC
100
AcDbMaterial
  1
Global
 72
     1
 94
      127
  0
MLEADERSTYLE
  5
D0C
102
{ACAD_REACTORS
330
D0B
102
}
330
D0B
100
AcDbMLeaderStyle
170
     2
171
     1
172
     0
 90
        2
 40
0.0
 41
0.0
173
     1
 91
-1056964608
340
14
 92
       -2
290
     1
 42
0.09
291
     1
 43
0.36
  3
Standard
341
0
 44
0.18
300

342
11
174
     1
178
     1
175
     1
176
     0
 93
-1056964608
 45
0.18
292
     0
297
     0
 46
0.18
343
0
 94
-1056964608
 47
1.0
 49
1.0
140
1.0
293
     1
141
0.0
294
     1
177
     0
142
1.0
295
     0
296
     0
143
0.125
1001
ACAD_MLEADERVER
1070
     2
  0
MLINESTYLE
  5
18
102
{ACAD_REACTORS
330
17
102
}
330
17
100
AcDbMlineStyle
  2
Standard
 70
     0
  3

 62
   256
 51
90.0
 52
90.0
 71
     2
 49
0.5
 62
   256
  6
BYLAYER
 49
-0.5
 62
   256
  6
BYLAYER
  0
ACDBPLACEHOLDER
  5
F
102
{ACAD_REACTORS
330
E
102
}
330
E
  0
SCALE
  5
CDB
102
{ACAD_REACTORS
330
CDA
102
}
330
CDA
100
AcDbScale
 70
     0
300
1:1
140
1.0
141
1.0
290
     1
  0
SCALE
  5
CDC
102
{ACAD_REACTORS
330
CDA
102
}
330
CDA
100
AcDbScale
 70
     0
300
1:2
140
1.0
141
2.0
290
     0
  0
SCALE
  5
CDD
102
{ACAD_REACTORS
330
CDA
102
}
330
CDA
100
AcDbScale
 70
     0
300
1:4
140
1.0
141
4.0
290
     0
  0
SCALE
  5
CDE
102
{ACAD_REACTORS
330
CDA
102
}
330
CDA
100
AcDbScale
 70
     0
300
1:5
140
1.0
141
5.0
290
     0
  0
SCALE
  5
CDF
102
{ACAD_REACTORS
330
CDA
102
}
330
CDA
100
AcDbScale
 70
     0
300
1:8
140
1.0
141
8.0
290
     0
  0
SCALE
  5
CE0
102
{ACAD_REACTORS
330
CDA
102
}
330
CDA
100
AcDbScale
 70
     0
300
1:10
140
1.0
141
10.0
290
     0
  0
SCALE
  5
CE1
102
{ACAD_REACTORS
330
CDA
102
}
330
CDA
100
AcDbScale
 70
     0
300
1:16
140
1.0
141
16.0
290
     0
  0
SCALE
  5
CE2
102
{ACAD_REACTORS
330
CDA
102
}
330
CDA
100
AcDbScale
 70
     0
300
1:20
140
1.0
141
20.0
290
     0
  0
SCALE
  5
CE3
102
{ACAD_REACTORS
330
CDA
102
}
330
CDA
100
AcDbScale
 70
     0
300
1:30
140
1.0
141
30.0
290
     0
  0
SCALE
  5
CE4
102
{ACAD_REACTORS
330
CDA
102
}
330
CDA
100
AcDbScale
 70
     0
300
1:40
140
1.0
141
40.0
290
     0
  0
SCALE
  5
CE5
102
{ACAD_REACTORS
330
CDA
102
}
330
CDA
100
AcDbScale
 70
     0
300
1:50
140
1.0
141
50.0
290
     0
  0
SCALE
  5
CE6
102
{ACAD_REACTORS
330
CDA
102
}
330
CDA
100
AcDbScale
 70
     0
300
1:100
140
1.0
141
100.0
290
     0
  0
SCALE
  5
CE7
102
{ACAD_REACTORS
330
CDA
102
}
330
CDA
100
AcDbScale
 70
     0
300
2:1
140
2.0
141
1.0
290
     0
  0
SCALE
  5
CE8
102
{ACAD_REACTORS
330
CDA
102
}
330
CDA
100
AcDbScale
 70
     0
300
4:1
140
4.0
141
1.0
290
     0
  0
SCALE
  5
CE9
102
{ACAD_REACTORS
330
CDA
102
}
330
CDA
100
AcDbScale
 70
     0
300
8:1
140
8.0
141
1.0
290
     0
  0
SCALE
  5
CEA
102
{ACAD_REACTORS
330
CDA
102
}
330
CDA
100
AcDbScale
 70
     0
300
10:1
140
10.0
141
1.0
290
     0
  0
SCALE
  5
CEB
102
{ACAD_REACTORS
330
CDA
102
}
330
CDA
100
AcDbScale
 70
     0
300
100:1
140
100.0
141
1.0
290
     0
  0
SCALE
  5
CEC
102
{ACAD_REACTORS
330
CDA
102
}
330
CDA
100
AcDbScale
 70
     0
300
1/128" = 1'-0"
140
0.0078125
141
12.0
290
     0
  0
SCALE
  5
CED
102
{ACAD_REACTORS
330
CDA
102
}
330
CDA
100
AcDbScale
 70
     0
300
1/64" = 1'-0"
140
0.015625
141
12.0
290
     0
  0
SCALE
  5
CEE
102
{ACAD_REACTORS
330
CDA
102
}
330
CDA
100
AcDbScale
 70
     0
300
1/32" = 1'-0"
140
0.03125
141
12.0
290
     0
  0
SCALE
  5
CEF
102
{ACAD_REACTORS
330
CDA
102
}
330
CDA
100
AcDbScale
 70
     0
300
1/16" = 1'-0"
140
0.0625
141
12.0
290
     0
  0
SCALE
  5
CF0
102
{ACAD_REACTORS
330
CDA
102
}
330
CDA
100
AcDbScale
 70
     0
300
3/32" = 1'-0"
140
0.09375
141
12.0
290
     0
  0
SCALE
  5
CF1
102
{ACAD_REACTORS
330
CDA
102
}
330
CDA
100
AcDbScale
 70
     0
300
1/8" = 1'-0"
140
0.125
141
12.0
290
     0
  0
SCALE
  5
CF2
102
{ACAD_REACTORS
330
CDA
102
}
330
CDA
100
AcDbScale
 70
     0
300
3/16" = 1'-0"
140
0.1875
141
12.0
290
     0
  0
SCALE
  5
CF3
102
{ACAD_REACTORS
330
CDA
102
}
330
CDA
100
AcDbScale
 70
     0
300
1/4" = 1'-0"
140
0.25
141
12.0
290
     0
  0
SCALE
  5
CF4
102
{ACAD_REACTORS
330
CDA
102
}
330
CDA
100
AcDbScale
 70
     0
300
3/8" = 1'-0"
140
0.375
141
12.0
290
     0
  0
SCALE
  5
CF5
102
{ACAD_REACTORS
330
CDA
102
}
330
CDA
100
AcDbScale
 70
     0
300
1/2" = 1'-0"
140
0.5
141
12.0
290
     0
  0
SCALE
  5
CF6
102
{ACAD_REACTORS
330
CDA
102
}
330
CDA
100
AcDbScale
 70
     0
300
3/4" = 1'-0"
140
0.75
141
12.0
290
     0
  0
SCALE
  5
CF7
102
{ACAD_REACTORS
330
CDA
102
}
330
CDA
100
AcDbScale
 70
     0
300
1" = 1'-0"
140
1.0
141
12.0
290
     0
  0
SCALE
  5
CF8
102
{ACAD_REACTORS
330
CDA
102
}
330
CDA
100
AcDbScale
 70
     0
300
1-1/2" = 1'-0"
140
1.5
141
12.0
290
     0
  0
SCALE
  5
CF9
102
{ACAD_REACTORS
330
CDA
102
}
330
CDA
100
AcDbScale
 70
     0
300
3" = 1'-0"
140
3.0
141
12.0
290
     0
  0
SCALE
  5
CFA
102
{ACAD_REACTORS
330
CDA
102
}
330
CDA
100
AcDbScale
 70
     0
300
6" = 1'-0"
140
6.0
141
12.0
290
     0
  0
SCALE
  5
CFB
102
{ACAD_REACTORS
330
CDA
102
}
330
CDA
100
AcDbScale
 70
     0
300
1'-0" = 1'-0"
140
12.0
141
12.0
290
     0
  0
TABLESTYLE
  5
D0A
102
{ACAD_REACTORS
330
CD9
102
}
102
{ACAD_XDICTIONARY
360
1259
102
}
330
CD9
100
AcDbTableStyle
  3
Standard
 70
     0
 71
     0
 40
0.06
 41
0.06
280
     0
281
     0
  7
Standard
140
0.18
170
     2
 62
     0
 63
   257
283
     0
 90
        4
 91
        0
  1

274
    -2
284
     1
 64
     0
275
    -2
285
     1
 65
     0
276
    -2
286
     1
 66
     0
277
    -2
287
     1
 67
     0
278
    -2
288
     1
 68
     0
279
    -2
289
     1
 69
     0
  7
Standard
140
0.25
170
     5
 62
     0
 63
   257
283
     0
 90
        4
 91
        0
  1

274
    -2
284
     1
 64
     0
275
    -2
285
     1
 65
     0
276
    -2
286
     1
 66
     0
277
    -2
287
     1
 67
     0
278
    -2
288
     1
 68
     0
279
    -2
289
     1
 69
     0
  7
Standard
140
0.18
170
     5
 62
     0
 63
   257
283
     0
 90
        4
 91
        0
  1

274
    -2
284
     1
 64
     0
275
    -2
285
     1
 65
     0
276
    -2
286
     1
 66
     0
277
    -2
287
     1
 67
     0
278
    -2
288
     1
 68
     0
279
    -2
289
     1
 69
     0
  0
VISUALSTYLE
  5
2F
102
{ACAD_REACTORS
330
2A
102
}
330
2A
100
AcDbVisualStyle
  2
2dWireframe
 70
     4
 71
     0
 72
     2
 73
     0
 90
        0
 40
-0.6
 41
-30.0
 62
     5
 63
     7
421
 16777215
 74
     1
 91
        4
 64
     7
 65
   257
 75
     1
175
     1
 42
1.0
 92
        0
 66
   257
 43
1.0
 76
     1
 77
     6
 78
     2
 67
     7
 79
     5
170
     0
171
     0
290
     0
174
     0
 93
        1
 44
0.0
173
     0
291
     0
 45
0.0
  0
VISUALSTYLE
  5
31
102
{ACAD_REACTORS
330
2A
102
}
330
2A
100
AcDbVisualStyle
  2
3D Hidden
 70
     6
 71
     1
 72
     2
 73
     2
 90
        0
 40
-0.6
 41
-30.0
 62
     5
 63
     7
421
 16777215
 74
     2
 91
        2
 64
     7
 65
   257
 75
     2
175
     1
 42
40.0
 92
        0
 66
   257
 43
1.0
 76
     1
 77
     6
 78
     2
 67
     7
 79
     3
170
     0
171
     0
290
     0
174
     0
 93
        1
 44
0.0
173
     0
291
     0
 45
0.0
  0
VISUALSTYLE
  5
30
102
{ACAD_REACTORS
330
2A
102
}
330
2A
100
AcDbVisualStyle
  2
3dWireframe
 70
     5
 71
     0
 72
     2
 73
     0
 90
        0
 40
-0.6
 41
-30.0
 62
     5
 63
     7
421
 16777215
 74
     1
 91
        4
 64
     7
 65
   257
 75
     1
175
     1
 42
1.0
 92
        0
 66
   257
 43
1.0
 76
     1
 77
     6
 78
     2
 67
     7
 79
     5
170
     0
171
     0
290
     0
174
     0
 93
        1
 44
0.0
173
     0
291
     0
 45
0.0
  0
VISUALSTYLE
  5
32
102
{ACAD_REACTORS
330
2A
102
}
330
2A
100
AcDbVisualStyle
  2
Basic
 70
     7
 71
     1
 72
     0
 73
     1
 90
        0
 40
-0.6
 41
-30.0
 62
     5
 63
     7
421
 16777215
 74
     0
 91
        4
 64
     7
 65
   257
 75
     1
175
     1
 42
1.0
 92
        8
 66
     7
 43
1.0
 76
     1
 77
     6
 78
     2
 67
     7
 79
     5
170
     0
171
     0
290
     0
174
     0
 93
        1
 44
0.0
173
     0
291
     1
 45
0.0
  0
VISUALSTYLE
  5
36
102
{ACAD_REACTORS
330
2A
102
}
330
2A
100
AcDbVisualStyle
  2
Brighten
 70
    12
 71
     2
 72
     2
 73
     0
 90
        0
 40
-0.6
 41
-30.0
 62
     5
 63
     7
421
 16777215
 74
     1
 91
        4
 64
     7
 65
   257
 75
     1
175
     1
 42
1.0
 92
        8
 66
     7
 43
1.0
 76
     1
 77
     6
 78
     2
 67
     7
 79
     5
170
     0
171
     0
290
     0
174
     0
 93
        1
 44
50.0
173
     0
291
     1
 45
0.0
  0
VISUALSTYLE
  5
3A
102
{ACAD_REACTORS
330
2A
102
}
330
2A
100
AcDbVisualStyle
  2
ColorChange
 70
    16
 71
     2
 72
     2
 73
     3
 90
        0
 40
-0.6
 41
-30.0
 62
     5
 63
     8
421
  8421504
 74
     1
 91
        4
 64
     7
 65
   257
 75
     1
175
     1
 42
1.0
 92
        8
 66
     8
424
  8421504
 43
1.0
 76
     1
 77
     6
 78
     2
 67
     7
 79
     5
170
     0
171
     0
290
     0
174
     0
 93
        1
 44
0.0
173
     0
291
     1
 45
0.0
  0
VISUALSTYLE
  5
34
102
{ACAD_REACTORS
330
2A
102
}
330
2A
100
AcDbVisualStyle
  2
Conceptual
 70
     9
 71
     3
 72
     2
 73
     0
 90
        0
 40
-0.6
 41
-30.0
 62
     5
 63
     7
421
 16777215
 74
     2
 91
        2
 64
     7
 65
   257
 75
     1
175
     1
 42
40.0
 92
        8
 66
     7
 43
1.0
 76
     1
 77
     6
 78
     2
 67
     7
 79
     3
170
     0
171
     0
290
     0
174
     0
 93
        1
 44
0.0
173
     0
291
     0
 45
0.0
  0
VISUALSTYLE
  5
35
102
{ACAD_REACTORS
330
2A
102
}
330
2A
100
AcDbVisualStyle
  2
Dim
 70
    11
 71
     2
 72
     2
 73
     0
 90
        0
 40
-0.6
 41
-30.0
 62
     5
 63
     7
421
 16777215
 74
     1
 91
        4
 64
     7
 65
   257
 75
     1
175
     1
 42
1.0
 92
        8
 66
     7
 43
1.0
 76
     1
 77
     6
 78
     2
 67
     7
 79
     5
170
     0
171
     0
290
     0
174
     0
 93
        1
 44
-50.0
173
     0
291
     1
 45
0.0
  0
VISUALSTYLE
  5
D04
102
{ACAD_REACTORS
330
2A
102
}
330
2A
100
AcDbVisualStyle
  2
EdgeColorOff
 70
    22
 71
     2
 72
     2
 73
     0
 90
        0
 40
0.6
 41
30.0
 62
     5
 63
     7
421
 16777215
 74
     1
 91
        4
 64
     7
 65
   257
 75
     1
175
     1
 42
1.0
 92
        8
 66
     7
 43
1.0
 76
     1
 77
     6
 78
     2
 67
     7
 79
     5
170
     0
171
     0
290
     0
174
     0
 93
        1
 44
0.0
173
     0
291
     1
 45
0.0
  0
VISUALSTYLE
  5
39
102
{ACAD_REACTORS
330
2A
102
}
330
2A
100
AcDbVisualStyle
  2
Facepattern
 70
    15
 71
     2
 72
     2
 73
     0
 90
        0
 40
-0.6
 41
-30.0
 62
     5
 63
     7
421
 16777215
 74
     1
 91
        4
 64
     7
 65
   257
 75
     1
175
     1
 42
1.0
 92
        8
 66
     7
 43
1.0
 76
     1
 77
     6
 78
     2
 67
     7
 79
     5
170
     0
171
     0
290
     0
174
     0
 93
        1
 44
0.0
173
     0
291
     1
 45
0.0
  0
VISUALSTYLE
  5
2B
102
{ACAD_REACTORS
330
2A
102
}
330
2A
100
AcDbVisualStyle
  2
Flat
 70
     0
 71
     2
 72
     1
 73
     1
 90
        2
 40
-0.6
 41
30.0
 62
     5
 63
     7
421
 16777215
 74
     0
 91
        4
 64
     7
 65
   257
 75
     1
175
     1
 42
1.0
 92
        8
 66
     7
 43
1.0
 76
     1
 77
     6
 78
     2
 67
     7
 79
     5
170
     0
171
     0
290
     0
174
     0
 93
       13
 44
0.0
173
     0
291
     1
 45
0.0
  0
VISUALSTYLE
  5
2C
102
{ACAD_REACTORS
330
2A
102
}
330
2A
100
AcDbVisualStyle
  2
FlatWithEdges
 70
     1
 71
     2
 72
     1
 73
     1
 90
        2
 40
-0.6
 41
30.0
 62
     5
 63
     7
421
 16777215
 74
     1
 91
        4
 64
     7
 65
   257
 75
     1
175
     1
 42
1.0
 92
        0
 66
   257
 43
1.0
 76
     1
 77
     6
 78
     2
 67
     7
 79
     5
170
     0
171
     0
290
     0
174
     0
 93
       13
 44
0.0
173
     0
291
     1
 45
0.0
  0
VISUALSTYLE
  5
2D
102
{ACAD_REACTORS
330
2A
102
}
330
2A
100
AcDbVisualStyle
  2
Gouraud
 70
     2
 71
     2
 72
     2
 73
     1
 90
        2
 40
-0.6
 41
30.0
 62
     5
 63
     7
421
 16777215
 74
     0
 91
        4
 64
     7
 65
   257
 75
     1
175
     1
 42
1.0
 92
        0
 66
     7
 43
1.0
 76
     1
 77
     6
 78
     2
 67
     7
 79
     5
170
     0
171
     0
290
     0
174
     0
 93
       13
 44
0.0
173
     0
291
     1
 45
0.0
  0
VISUALSTYLE
  5
2E
102
{ACAD_REACTORS
330
2A
102
}
330
2A
100
AcDbVisualStyle
  2
GouraudWithEdges
 70
     3
 71
     2
 72
     2
 73
     1
 90
        2
 40
-0.6
 41
30.0
 62
     5
 63
     7
421
 16777215
 74
     1
 91
        4
 64
     7
 65
   257
 75
     1
175
     1
 42
1.0
 92
        0
 66
   257
 43
1.0
 76
     1
 77
     6
 78
     2
 67
     7
 79
     5
170
     0
171
     0
290
     0
174
     0
 93
       13
 44
0.0
173
     0
291
     1
 45
0.0
  0
VISUALSTYLE
  5
D01
102
{ACAD_REACTORS
330
2A
102
}
330
2A
100
AcDbVisualStyle
  2
Hidden
 70
     6
 71
     1
 72
     2
 73
     2
 90
        0
 40
0.6
 41
30.0
 62
     5
 63
     7
421
 16777215
 74
     2
 91
        2
 64
     7
 65
   257
 75
     2
175
     1
 42
40.0
 92
        0
 66
   257
 43
1.0
 76
     1
 77
     6
 78
     2
 67
     7
 79
     3
170
     0
171
     0
290
     0
174
     0
 93
        1
 44
0.0
173
     0
291
     0
 45
0.0
  0
VISUALSTYLE
  5
D02
102
{ACAD_REACTORS
330
2A
102
}
330
2A
100
AcDbVisualStyle
  2
JitterOff
 70
    20
 71
     2
 72
     2
 73
     0
 90
        0
 40
0.6
 41
30.0
 62
     5
 63
     7
421
 16777215
 74
     1
 91
        4
 64
     7
 65
   257
 75
     1
175
     1
 42
1.0
 92
       10
 66
     7
 43
1.0
 76
     1
 77
     6
 78
     2
 67
     7
 79
     5
170
     0
171
     0
290
     0
174
     0
 93
        1
 44
0.0
173
     0
291
     1
 45
0.0
  0
VISUALSTYLE
  5
38
102
{ACAD_REACTORS
330
2A
102
}
330
2A
100
AcDbVisualStyle
  2
Linepattern
 70
    14
 71
     2
 72
     2
 73
     0
 90
        0
 40
-0.6
 41
-30.0
 62
     5
 63
     7
421
 16777215
 74
     1
 91
        4
 64
     7
 65
   257
 75
     7
175
     7
 42
1.0
 92
        8
 66
     7
 43
1.0
 76
     1
 77
     6
 78
     2
 67
     7
 79
     5
170
     0
171
     0
290
     0
174
     0
 93
        1
 44
0.0
173
     0
291
     1
 45
0.0
  0
VISUALSTYLE
  5
D03
102
{ACAD_REACTORS
330
2A
102
}
330
2A
100
AcDbVisualStyle
  2
OverhangOff
 70
    21
 71
     2
 72
     2
 73
     0
 90
        0
 40
0.6
 41
30.0
 62
     5
 63
     7
421
 16777215
 74
     1
 91
        4
 64
     7
 65
   257
 75
     1
175
     1
 42
1.0
 92
        9
 66
     7
 43
1.0
 76
     1
 77
     6
 78
     2
 67
     7
 79
     5
170
     0
171
     0
290
     0
174
     0
 93
        1
 44
0.0
173
     0
291
     1
 45
0.0
  0
VISUALSTYLE
  5
33
102
{ACAD_REACTORS
330
2A
102
}
330
2A
100
AcDbVisualStyle
  2
Realistic
 70
     8
 71
     2
 72
     2
 73
     0
 90
        0
 40
-0.6
 41
-30.0
 62
     5
 63
     7
421
 16777215
 74
     1
 91
        0
 64
     7
 65
   257
 75
     1
175
     1
 42
1.0
 92
        8
 66
     8
424
  7895160
 43
1.0
 76
     1
 77
     6
 78
     2
 67
     7
 79
     5
170
     0
171
     0
290
     0
174
     0
 93
       13
 44
0.0
173
     0
291
     0
 45
0.0
  0
VISUALSTYLE
  5
D09
102
{ACAD_REACTORS
330
2A
102
}
330
2A
100
AcDbVisualStyle
  2
Shaded
 70
    27
 71
     2
 72
     2
 73
     1
 90
        2
 40
0.6
 41
30.0
 62
     5
 63
     7
421
 16777215
 74
     0
 91
        4
 64
     7
 65
   257
 75
     1
175
     1
 42
1.0
 92
        8
 66
   257
 43
1.0
 76
     1
 77
     6
 78
     2
 67
     8
425
  7895160
 79
     3
170
     0
171
     0
290
     0
174
     0
 93
        5
 44
0.0
173
     0
291
     0
 45
0.0
  0
VISUALSTYLE
  5
D08
102
{ACAD_REACTORS
330
2A
102
}
330
2A
100
AcDbVisualStyle
  2
Shaded with edges
 70
    26
 71
     2
 72
     2
 73
     1
 90
        2
 40
0.6
 41
30.0
 62
     5
 63
     7
421
 16777215
 74
     1
 91
       10
 64
     7
 65
   257
 75
     2
175
     1
 42
1.0
 92
        8
 66
   257
 43
1.0
 76
     1
 77
     6
 78
     2
 67
     7
 79
     3
170
     0
171
     0
290
     0
174
     0
 93
        5
 44
0.0
173
     0
291
     0
 45
0.0
  0
VISUALSTYLE
  5
D05
102
{ACAD_REACTORS
330
2A
102
}
330
2A
100
AcDbVisualStyle
  2
Shades of Gray
 70
    23
 71
     2
 72
     2
 73
     3
 90
        0
 40
0.6
 41
30.0
 62
     5
 63
     7
421
 16777215
 74
     2
 91
        2
 64
     7
 65
     7
 75
     1
175
     1
 42
40.0
 92
        8
 66
     7
 43
1.0
 76
     1
 77
     6
 78
     2
 67
     7
 79
     3
170
     0
171
     0
290
     0
174
     0
 93
        1
 44
0.0
173
     0
291
     0
 45
0.0
  0
VISUALSTYLE
  5
D06
102
{ACAD_REACTORS
330
2A
102
}
330
2A
100
AcDbVisualStyle
  2
Sketchy
 70
    24
 71
     1
 72
     2
 73
     2
 90
        0
 40
0.6
 41
30.0
 62
     5
 63
     7
421
 16777215
 74
     2
 91
        2
 64
     7
 65
     7
 75
     1
175
     1
 42
40.0
 92
       11
 66
     7
 43
1.0
 76
     1
 77
     6
 78
     2
 67
     7
 79
     6
170
     0
171
     0
290
     0
174
     0
 93
        1
 44
0.0
173
     0
291
     0
 45
0.0
  0
VISUALSTYLE
  5
37
102
{ACAD_REACTORS
330
2A
102
}
330
2A
100
AcDbVisualStyle
  2
Thicken
 70
    13
 71
     2
 72
     2
 73
     0
 90
        0
 40
-0.6
 41
-30.0
 62
     5
 63
     7
421
 16777215
 74
     1
 91
        4
 64
     7
 65
   257
 75
     1
175
     1
 42
1.0
 92
       12
 66
     7
 43
1.0
 76
     1
 77
     6
 78
     2
 67
     7
 79
     5
170
     0
171
     0
290
     0
174
     0
 93
        1
 44
0.0
173
     0
291
     1
 45
0.0
  0
VISUALSTYLE
  5
D00
102
{ACAD_REACTORS
330
2A
102
}
330
2A
100
AcDbVisualStyle
  2
Wireframe
 70
     5
 71
     0
 72
     2
 73
     0
 90
        0
 40
0.6
 41
30.0
 62
     5
 63
     7
421
 16777215
 74
     1
 91
        4
 64
     7
 65
   257
 75
     1
175
     1
 42
1.0
 92
        0
 66
   257
 43
1.0
 76
     1
 77
     6
 78
     2
 67
     7
 79
     3
170
     0
171
     0
290
     0
174
     0
 93
        1
 44
0.0
173
     0
291
     0
 45
0.0
  0
VISUALSTYLE
  5
D07
102
{ACAD_REACTORS
330
2A
102
}
330
2A
100
AcDbVisualStyle
  2
X-Ray
 70
    25
 71
     2
 72
     2
 73
     1
 90
        1
 40
0.5
 41
30.0
 62
     5
 63
     7
421
 16777215
 74
     1
 91
        0
 64
     7
 65
   257
 75
     1
175
     1
 42
1.0
 92
        8
 66
     7
 43
1.0
 76
     1
 77
     6
 78
     2
 67
     7
 79
     3
170
     0
171
     0
290
     0
174
     0
 93
       13
 44
0.0
173
     0
291
     0
 45
0.0
  0
DICTIONARYVAR
  5
DFC
102
{ACAD_REACTORS
330
DFB
102
}
330
DFB
100
DictionaryVariables
280
     0
  1
1:1
  0
DICTIONARYVAR
  5
E02
102
{ACAD_REACTORS
330
DFB
102
}
330
DFB
100
DictionaryVariables
280
     0
  1
Standard
  0
DICTIONARYVAR
  5
E01
102
{ACAD_REACTORS
330
DFB
102
}
330
DFB
100
DictionaryVariables
280
     0
  1
Standard
  0
DICTIONARYVAR
  5
E03
102
{ACAD_REACTORS
330
DFB
102
}
330
DFB
100
DictionaryVariables
280
     0
  1
0
  0
DICTIONARYVAR
  5
E04
102
{ACAD_REACTORS
330
DFB
102
}
330
DFB
100
DictionaryVariables
280
     0
  1
0
  0
DICTIONARY
  5
1259
330
D0A
100
AcDbDictionary
280
     1
281
     1
  3
ACAD_ROUNDTRIP_2008_TABLESTYLE_CELLSTYLEMAP
360
125A
  0
CELLSTYLEMAP
  5
125A
102
{ACAD_REACTORS
330
1259
102
}
330
1259
100
AcDbCellStyleMap
 90
        3
300
CELLSTYLE
  1
TABLEFORMAT_BEGIN
 90
        5
170
     1
 91
        0
 92
    32768
 62
   257
 93
        1
300
CONTENTFORMAT
  1
CONTENTFORMAT_BEGIN
 90
        0
 91
        0
 92
        4
 93
        0
300

 40
0.0
140
1.0
 94
        5
 62
     0
340
11
144
0.25
309
CONTENTFORMAT_END
171
     1
301
MARGIN
  1
CELLMARGIN_BEGIN
 40
0.06
 40
0.06
 40
0.06
 40
0.06
 40
0.06
 40
0.06
309
CELLMARGIN_END
 94
        6
 95
        1
302
GRIDFORMAT
  1
GRIDFORMAT_BEGIN
 90
        0
 91
        1
 62
     0
 92
       -2
340
14
 93
        0
 40
0.045
309
GRIDFORMAT_END
 95
        2
302
GRIDFORMAT
  1
GRIDFORMAT_BEGIN
 90
        0
 91
        1
 62
     0
 92
       -2
340
14
 93
        0
 40
0.045
309
GRIDFORMAT_END
 95
        4
302
GRIDFORMAT
  1
GRIDFORMAT_BEGIN
 90
        0
 91
        1
 62
     0
 92
       -2
340
14
 93
        0
 40
0.045
309
GRIDFORMAT_END
 95
        8
302
GRIDFORMAT
  1
GRIDFORMAT_BEGIN
 90
        0
 91
        1
 62
     0
 92
       -2
340
14
 93
        0
 40
0.045
309
GRIDFORMAT_END
 95
       16
302
GRIDFORMAT
  1
GRIDFORMAT_BEGIN
 90
        0
 91
        1
 62
     0
 92
       -2
340
14
 93
        0
 40
0.045
309
GRIDFORMAT_END
 95
       32
302
GRIDFORMAT
  1
GRIDFORMAT_BEGIN
 90
        0
 91
        1
 62
     0
 92
       -2
340
14
 93
        0
 40
0.045
309
GRIDFORMAT_END
309
TABLEFORMAT_END
  1
CELLSTYLE_BEGIN
 90
        1
 91
        1
300
_TITLE
309
CELLSTYLE_END
300
CELLSTYLE
  1
TABLEFORMAT_BEGIN
 90
        5
170
     1
 91
        0
 92
        0
 62
   257
 93
        1
300
CONTENTFORMAT
  1
CONTENTFORMAT_BEGIN
 90
        0
 91
        0
 92
        4
 93
        0
300

 40
0.0
140
1.0
 94
        5
 62
     0
340
11
144
0.18
309
CONTENTFORMAT_END
171
     1
301
MARGIN
  1
CELLMARGIN_BEGIN
 40
0.06
 40
0.06
 40
0.06
 40
0.06
 40
0.06
 40
0.06
309
CELLMARGIN_END
 94
        6
 95
        1
302
GRIDFORMAT
  1
GRIDFORMAT_BEGIN
 90
        0
 91
        1
 62
     0
 92
       -2
340
14
 93
        0
 40
0.045
309
GRIDFORMAT_END
 95
        2
302
GRIDFORMAT
  1
GRIDFORMAT_BEGIN
 90
        0
 91
        1
 62
     0
 92
       -2
340
14
 93
        0
 40
0.045
309
GRIDFORMAT_END
 95
        4
302
GRIDFORMAT
  1
GRIDFORMAT_BEGIN
 90
        0
 91
        1
 62
     0
 92
       -2
340
14
 93
        0
 40
0.045
309
GRIDFORMAT_END
 95
        8
302
GRIDFORMAT
  1
GRIDFORMAT_BEGIN
 90
        0
 91
        1
 62
     0
 92
       -2
340
14
 93
        0
 40
0.045
309
GRIDFORMAT_END
 95
       16
302
GRIDFORMAT
  1
GRIDFORMAT_BEGIN
 90
        0
 91
        1
 62
     0
 92
       -2
340
14
 93
        0
 40
0.045
309
GRIDFORMAT_END
 95
       32
302
GRIDFORMAT
  1
GRIDFORMAT_BEGIN
 90
        0
 91
        1
 62
     0
 92
       -2
340
14
 93
        0
 40
0.045
309
GRIDFORMAT_END
309
TABLEFORMAT_END
  1
CELLSTYLE_BEGIN
 90
        2
 91
        1
300
_HEADER
309
CELLSTYLE_END
300
CELLSTYLE
  1
TABLEFORMAT_BEGIN
 90
        5
170
     1
 91
        0
 92
        0
 62
   257
 93
        1
300
CONTENTFORMAT
  1
CONTENTFORMAT_BEGIN
 90
        0
 91
        0
 92
        4
 93
        0
300

 40
0.0
140
1.0
 94
        2
 62
     0
340
11
144
0.18
309
CONTENTFORMAT_END
171
     1
301
MARGIN
  1
CELLMARGIN_BEGIN
 40
0.06
 40
0.06
 40
0.06
 40
0.06
 40
0.06
 40
0.06
309
CELLMARGIN_END
 94
        6
 95
        1
302
GRIDFORMAT
  1
GRIDFORMAT_BEGIN
 90
        0
 91
        1
 62
     0
 92
       -2
340
14
 93
        0
 40
0.045
309
GRIDFORMAT_END
 95
        2
302
GRIDFORMAT
  1
GRIDFORMAT_BEGIN
 90
        0
 91
        1
 62
     0
 92
       -2
340
14
 93
        0
 40
0.045
309
GRIDFORMAT_END
 95
        4
302
GRIDFORMAT
  1
GRIDFORMAT_BEGIN
 90
        0
 91
        1
 62
     0
 92
       -2
340
14
 93
        0
 40
0.045
309
GRIDFORMAT_END
 95
        8
302
GRIDFORMAT
  1
GRIDFORMAT_BEGIN
 90
        0
 91
        1
 62
     0
 92
       -2
340
14
 93
        0
 40
0.045
309
GRIDFORMAT_END
 95
       16
302
GRIDFORMAT
  1
GRIDFORMAT_BEGIN
 90
        0
 91
        1
 62
     0
 92
       -2
340
14
 93
        0
 40
0.045
309
GRIDFORMAT_END
 95
       32
302
GRIDFORMAT
  1
GRIDFORMAT_BEGIN
 90
        0
 91
        1
 62
     0
 92
       -2
340
14
 93
        0
 40
0.045
309
GRIDFORMAT_END
309
TABLEFORMAT_END
  1
CELLSTYLE_BEGIN
 90
        3
 91
        2
300
_DATA
309
CELLSTYLE_END
  0
ENDSEC
  0
EOF
