  0
SECTION
  2
HEADER
  9
$ACADVER
  1
AC1021
  9
$ACADMAINTVER
 70
    25
  9
$DWGCODEPAGE
  3
ANSI_932
  9
$LASTSAVEDBY
  1
howeNelson
  9
$INSBASE
 10
0.0
 20
0.0
 30
0.0
  9
$EXTMIN
 10
0.0
 20
0.0
 30
0.0
  9
$EXTMAX
 10
2100.0
 20
2970.0
 30
34.99521132346015
  9
$LIMMIN
 10
0.0
 20
0.0
  9
$LIMMAX
 10
2100.0
 20
2970.0
  9
$ORTHOMODE
 70
     0
  9
$REGENMODE
 70
     1
  9
$FILLMODE
 70
     1
  9
$QTEXTMODE
 70
     0
  9
$MIRRTEXT
 70
     1
  9
$LTSCALE
 40
5.0
  9
$ATTMODE
 70
     1
  9
$TEXTSIZE
 40
533.0403732820173
  9
$TRACEWID
 40
1.0
  9
$TEXTSTYLE
  7
Standard
  9
$CLAYER
  8
Dim
  9
$CELTYPE
  6
ByLayer
  9
$CECOLOR
 62
   256
  9
$CELTSCALE
 40
1.0
  9
$DISPSILH
 70
     0
  9
$DIMSCALE
 40
1.0
  9
$DIMASZ
 40
9.999389648437498
  9
$DIMEXO
 40
25.0
  9
$DIMDLI
 40
0.9999999999999999
  9
$DIMRND
 40
0.0
  9
$DIMDLE
 40
0.0
  9
$DIMEXE
 40
0.0
  9
$DIMTP
 40
0.0
  9
$DIMTM
 40
0.0
  9
$DIMTXT
 40
24.4326171875
  9
$DIMCEN
 40
0.0
  9
$DIMTSZ
 40
0.0
  9
$DIMTOL
 70
     0
  9
$DIMLIM
 70
     0
  9
$DIMTIH
 70
     0
  9
$DIMTOH
 70
     0
  9
$DIMSE1
 70
     0
  9
$DIMSE2
 70
     0
  9
$DIMTAD
 70
     1
  9
$DIMZIN
 70
    11
  9
$DIMBLK
  1
DOT
  9
$DIMASO
 70
     1
  9
$DIMSHO
 70
     1
  9
$DIMPOST
  1
<>
  9
$DIMAPOST
  1
[]
  9
$DIMALT
 70
     0
  9
$DIMALTD
 70
     1
  9
$DIMALTF
 40
1.0
  9
$DIMLFAC
 40
1.0
  9
$DIMTOFL
 70
     1
  9
$DIMTVP
 40
0.0
  9
$DIMTIX
 70
     1
  9
$DIMSOXD
 70
     0
  9
$DIMSAH
 70
     0
  9
$DIMBLK1
  1

  9
$DIMBLK2
  1

  9
$DIMSTYLE
  2
tform線あり
  9
$DIMCLRD
 70
     0
  9
$DIMCLRE
 70
     0
  9
$DIMCLRT
 70
     0
  9
$DIMTFAC
 40
0.8
  9
$DIMGAP
 40
10.0
  9
$DIMJUST
 70
     0
  9
$DIMSD1
 70
     0
  9
$DIMSD2
 70
     0
  9
$DIMTOLJ
 70
     1
  9
$DIMTZIN
 70
    11
  9
$DIMALTZ
 70
    11
  9
$DIMALTTZ
 70
    11
  9
$DIMUPT
 70
     0
  9
$DIMDEC
 70
     0
  9
$DIMTDEC
 70
     1
  9
$DIMALTU
 70
     2
  9
$DIMALTTD
 70
     2
  9
$DIMTXSTY
  7
ＭＳ ゴシック
  9
$DIMAUNIT
 70
     0
  9
$DIMADEC
 70
     2
  9
$DIMALTRND
 40
0.0
  9
$DIMAZIN
 70
     0
  9
$DIMDSEP
 70
    46
  9
$DIMATFIT
 70
     0
  9
$DIMFRAC
 70
     2
  9
$DIMLDRBLK
  1
DOT
  9
$DIMLUNIT
 70
     2
  9
$DIMLWD
 70
    -2
  9
$DIMLWE
 70
    -2
  9
$DIMTMOVE
 70
     0
  9
$DIMFXL
 40
1.0
  9
$DIMFXLON
 70
     0
  9
$DIMJOGANG
 40
0.7853981633974483
  9
$DIMTFILL
 70
     0
  9
$DIMTFILLCLR
 70
     0
  9
$DIMARCSYM
 70
     0
  9
$DIMLTYPE
  6

  9
$DIMLTEX1
  6

  9
$DIMLTEX2
  6

  9
$LUNITS
 70
     2
  9
$LUPREC
 70
     0
  9
$SKETCHINC
 40
0.1
  9
$FILLETRAD
 40
0.0
  9
$AUNITS
 70
     0
  9
$AUPREC
 70
     0
  9
$MENU
  1
acad
  9
$ELEVATION
 40
0.0
  9
$PELEVATION
 40
0.0
  9
$THICKNESS
 40
0.0
  9
$LIMCHECK
 70
     0
  9
$CHAMFERA
 40
0.0
  9
$CHAMFERB
 40
0.0
  9
$CHAMFERC
 40
0.0
  9
$CHAMFERD
 40
0.0
  9
$SKPOLY
 70
     0
  9
$TDCREATE
 40
2447893.375
  9
$TDUCREATE
 40
0.0
  9
$TDUPDATE
 40
2458810.641952222
  9
$TDUUPDATE
 40
2458810.266952222
  9
$TDINDWG
 40
0.6011546065
  9
$TDUSRTIMER
 40
0.0024375231
  9
$USRTIMER
 70
     1
  9
$ANGBASE
 50
0.0
  9
$ANGDIR
 70
     0
  9
$PDMODE
 70
     1
  9
$PDSIZE
 40
-2.0
  9
$PLINEWID
 40
0.0
  9
$SPLFRAME
 70
     0
  9
$SPLINETYPE
 70
     6
  9
$SPLINESEGS
 70
     8
  9
$HANDSEED
  5
8150
  9
$SURFTAB1
 70
     6
  9
$SURFTAB2
 70
     6
  9
$SURFTYPE
 70
     6
  9
$SURFU
 70
     6
  9
$SURFV
 70
     6
  9
$UCSBASE
  2

  9
$UCSNAME
  2

  9
$UCSORG
 10
0.0
 20
0.0
 30
0.0
  9
$UCSXDIR
 10
1.0
 20
0.0
 30
0.0
  9
$UCSYDIR
 10
0.0
 20
1.0
 30
0.0
  9
$UCSORTHOREF
  2

  9
$UCSORTHOVIEW
 70
     0
  9
$UCSORGTOP
 10
0.0
 20
0.0
 30
0.0
  9
$UCSORGBOTTOM
 10
0.0
 20
0.0
 30
0.0
  9
$UCSORGLEFT
 10
0.0
 20
0.0
 30
0.0
  9
$UCSORGRIGHT
 10
0.0
 20
0.0
 30
0.0
  9
$UCSORGFRONT
 10
0.0
 20
0.0
 30
0.0
  9
$UCSORGBACK
 10
0.0
 20
0.0
 30
0.0
  9
$PUCSBASE
  2

  9
$PUCSNAME
  2

  9
$PUCSORG
 10
0.0
 20
0.0
 30
0.0
  9
$PUCSXDIR
 10
1.0
 20
0.0
 30
0.0
  9
$PUCSYDIR
 10
0.0
 20
1.0
 30
0.0
  9
$PUCSORTHOREF
  2

  9
$PUCSORTHOVIEW
 70
     0
  9
$PUCSORGTOP
 10
0.0
 20
0.0
 30
0.0
  9
$PUCSORGBOTTOM
 10
0.0
 20
0.0
 30
0.0
  9
$PUCSORGLEFT
 10
0.0
 20
0.0
 30
0.0
  9
$PUCSORGRIGHT
 10
0.0
 20
0.0
 30
0.0
  9
$PUCSORGFRONT
 10
0.0
 20
0.0
 30
0.0
  9
$PUCSORGBACK
 10
0.0
 20
0.0
 30
0.0
  9
$USERI1
 70
     0
  9
$USERI2
 70
     0
  9
$USERI3
 70
     0
  9
$USERI4
 70
     0
  9
$USERI5
 70
     0
  9
$USERR1
 40
0.0
  9
$USERR2
 40
0.0
  9
$USERR3
 40
0.0
  9
$USERR4
 40
0.0
  9
$USERR5
 40
0.0
  9
$WORLDVIEW
 70
     1
  9
$SHADEDGE
 70
     3
  9
$SHADEDIF
 70
    70
  9
$TILEMODE
 70
     1
  9
$MAXACTVP
 70
    64
  9
$PINSBASE
 10
0.0
 20
0.0
 30
0.0
  9
$PLIMCHECK
 70
     0
  9
$PEXTMIN
 10
0.0
 20
0.0
 30
0.0
  9
$PEXTMAX
 10
0.0
 20
0.0
 30
0.0
  9
$PLIMMIN
 10
-7.5
 20
-20.0
  9
$PLIMMAX
 10
412.5
 20
277.0
  9
$UNITMODE
 70
     0
  9
$VISRETAIN
 70
     0
  9
$PLINEGEN
 70
     1
  9
$PSLTSCALE
 70
     0
  9
$TREEDEPTH
 70
  3020
  9
$CMLSTYLE
  2
Standard
  9
$CMLJUST
 70
     0
  9
$CMLSCALE
 40
1.0
  9
$PROXYGRAPHICS
 70
     0
  9
$MEASUREMENT
 70
     1
  9
$CELWEIGHT
370
    -1
  9
$ENDCAPS
280
     0
  9
$JOINSTYLE
280
     0
  9
$LWDISPLAY
290
     1
  9
$INSUNITS
 70
     4
  9
$HYPERLINKBASE
  1

  9
$STYLESHEET
  1

  9
$XEDIT
290
     1
  9
$CEPSNTYPE
380
     0
  9
$PSTYLEMODE
290
     1
  9
$FINGERPRINTGUID
  2

  9
$VERSIONGUID
  2

  9
$EXTNAMES
290
     1
  9
$PSVPSCALE
 40
0.0
  9
$OLESTARTUP
290
     0
  9
$SORTENTS
280
   127
  9
$INDEXCTL
280
     0
  9
$HIDETEXT
280
     1
  9
$XCLIPFRAME
290
     0
  9
$HALOGAP
280
     0
  9
$OBSCOLOR
 70
   257
  9
$OBSLTYPE
280
     0
  9
$INTERSECTIONDISPLAY
280
     0
  9
$INTERSECTIONCOLOR
 70
   257
  9
$DIMASSOC
280
     2
  9
$PROJECTNAME
  1

  9
$CAMERADISPLAY
290
     0
  9
$LENSLENGTH
 40
50.0
  9
$CAMERAHEIGHT
 40
0.0
  9
$STEPSPERSEC
 40
2.0
  9
$STEPSIZE
 40
6.0
  9
$3DDWFPREC
 40
2.0
  9
$PSOLWIDTH
 40
0.25
  9
$PSOLHEIGHT
 40
4.0
  9
$LOFTANG1
 40
1.570796326794897
  9
$LOFTANG2
 40
1.570796326794897
  9
$LOFTMAG1
 40
0.0
  9
$LOFTMAG2
 40
0.0
  9
$LOFTPARAM
 70
     7
  9
$LOFTNORMALS
280
     1
  9
$LATITUDE
 40
37.795
  9
$LONGITUDE
 40
-122.394
  9
$NORTHDIRECTION
 40
0.0
  9
$TIMEZONE
 70
 -8000
  9
$LIGHTGLYPHDISPLAY
280
     1
  9
$TILEMODELIGHTSYNCH
280
     1
  9
$SOLIDHIST
280
     1
  9
$SHOWHIST
280
     1
  9
$DWFFRAME
280
     2
  9
$DGNFRAME
280
     2
  9
$REALWORLDSCALE
290
     1
  9
$INTERFERECOLOR
 62
   256
  9
$CSHADOW
280
     0
  9
$SHADOWPLANELOCATION
 40
0.0
  0
ENDSEC
  0
SECTION
  2
CLASSES
  0
CLASS
  1
LWPOLYLINE
  2
AcDbPolyline
  3
ObjectDBX Classes
 90
        0
 91
        1
280
     0
281
     1
  0
CLASS
  1
IMAGE
  2
AcDbRasterImage
  3
ISM
 90
      127
 91
        5
280
     0
281
     1
  0
CLASS
  1
OLE2FRAME
  2
AcDbOle2Frame
  3
ObjectDBX Classes
 90
        0
 91
        1
280
     0
281
     1
  0
CLASS
  1
HATCH
  2
AcDbHatch
  3
ObjectDBX Classes
 90
        0
 91
        1
280
     0
281
     1
  0
CLASS
  1
DICTIONARYVAR
  2
AcDbDictionaryVar
  3
ObjectDBX Classes
 90
        0
 91
        4
280
     0
281
     0
  0
CLASS
  1
RASTERVARIABLES
  2
AcDbRasterVariables
  3
ISM
 90
        0
 91
        4
280
     0
281
     0
  0
CLASS
  1
IMAGEDEF
  2
AcDbRasterImageDef
  3
ISM
 90
        0
 91
        4
280
     0
281
     0
  0
CLASS
  1
IMAGEDEF_REACTOR
  2
AcDbRasterImageDefReactor
  3
ISM
 90
        1
 91
        4
280
     0
281
     0
  0
CLASS
  1
IDBUFFER
  2
AcDbIdBuffer
  3
ObjectDBX Classes
 90
        0
 91
        4
280
     0
281
     0
  0
CLASS
  1
SPATIAL_FILTER
  2
AcDbSpatialFilter
  3
ObjectDBX Classes
 90
        0
 91
        4
280
     0
281
     0
  0
CLASS
  1
XRECORD
  2
AcDbXrecord
  3
ObjectDBX Classes
 90
        0
 91
        1
280
     0
281
     0
  0
CLASS
  1
SORTENTSTABLE
  2
AcDbSortentsTable
  3
ObjectDBX Classes
 90
        0
 91
        4
280
     0
281
     0
  0
CLASS
  1
LAYER_INDEX
  2
AcDbLayerIndex
  3
ObjectDBX Classes
 90
        0
 91
        4
280
     0
281
     0
  0
CLASS
  1
SPATIAL_INDEX
  2
AcDbSpatialIndex
  3
AutoCAD 2000
 90
        0
 91
        4
280
     0
281
     0
  0
CLASS
  1
OBJECT_PTR
  2
CAseDLPNTableRecord
  3
ASE-LPNTableRecord
 90
        1
 91
        4
280
     0
281
     0
  0
CLASS
  1
LAYOUT
  2
AcDbLayout
  3
ObjectDBX Classes
 90
        0
 91
        1
280
     0
281
     0
  0
CLASS
  1
PLOTSETTINGS
  2
AcDbPlotSettings
  3
ObjectDBX Classes
 90
        0
 91
        4
280
     0
281
     0
  0
CLASS
  1
ACDBDICTIONARYWDFLT
  2
AcDbDictionaryWithDefault
  3
ObjectDBX Classes
 90
        0
 91
        4
280
     0
281
     0
  0
CLASS
  1
ACDBPLACEHOLDER
  2
AcDbPlaceHolder
  3
ObjectDBX Classes
 90
        0
 91
        1
280
     0
281
     0
  0
CLASS
  1
SCALE
  2
AcDbScale
  3
ObjectDBX Classes
 90
     1153
 91
        4
280
     0
281
     0
  0
CLASS
  1
MATERIAL
  2
AcDbMaterial
  3
ObjectDBX Classes
 90
     1153
 91
        4
280
     0
281
     0
  0
CLASS
  1
VISUALSTYLE
  2
AcDbVisualStyle
  3
ObjectDBX Classes
 90
     4095
 91
        4
280
     0
281
     0
  0
CLASS
  1
TABLESTYLE
  2
AcDbTableStyle
  3
ObjectDBX Classes
 90
     4095
 91
        4
280
     0
281
     0
  0
CLASS
  1
DIMASSOC
  2
AcDbDimAssoc
  3
"AcDbDimAssoc|Product Desc:     AcDim ARX App For Dimension|Company:          Autodesk, Inc.|WEB Address:      www.autodesk.com"
 90
        0
 91
        4
280
     0
281
     0
  0
CLASS
  1
CELLSTYLEMAP
  2
AcDbCellStyleMap
  3
ObjectDBX Classes
 90
     1152
 91
        4
280
     0
281
     0
  0
CLASS
  1
SUN
  2
AcDbSun
  3
SCENEOE
 90
     1153
 91
        4
280
     0
281
     0
  0
CLASS
  1
MLEADERSTYLE
  2
AcDbMLeaderStyle
  3
ACDB_MLEADERSTYLE_CLASS
 90
     4095
 91
        4
280
     0
281
     0
  0
CLASS
  1
FIELD
  2
AcDbField
  3
ObjectDBX Classes
 90
     1152
 91
        4
280
     0
281
     0
  0
CLASS
  1
FIELDLIST
  2
AcDbFieldList
  3
ObjectDBX Classes
 90
     1152
 91
        4
280
     0
281
     0
  0
CLASS
  1
ACDB_ALDIMOBJECTCONTEXTDATA_CLASS
  2
AcDbAlignedDimensionObjectContextData
  3
ObjectDBX Classes
 90
     1153
 91
        4
280
     0
281
     0
  0
ENDSEC
  0
SECTION
  2
TABLES
  0
TABLE
  2
VPORT
  5
7
330
0
100
AcDbSymbolTable
 70
     1
  0
VPORT
  5
15
330
7
100
AcDbSymbolTableRecord
100
AcDbViewportTableRecord
  2
*ACTIVE
 70
     0
 10
0.0
 20
0.0
 11
1.0
 21
1.0
 12
672.9525617540357
 22
1782.612370234523
 13
0.0
 23
0.0
 14
1.0
 24
1.0
 15
0.0
 25
0.0
 16
0.0
 26
0.0
 36
1.0
 17
377.0474382459643
 27
-297.6123702345235
 37
0.0
 40
3029.4
 41
2.310294117647059
 42
50.0
 43
0.0
 44
0.0
 50
0.0
 51
0.0
 71
    16
 72
  2000
 73
     1
 74
     1
 75
     0
 76
     0
 77
     0
 78
     0
281
     0
 65
     1
110
0.0
120
0.0
130
0.0
111
1.0
121
0.0
131
0.0
112
0.0
122
1.0
132
0.0
 79
     0
146
0.0
348
26C
 60
     3
 61
     5
292
     1
282
     1
141
0.0
142
0.0
 63
   256
361
8C2
  0
ENDTAB
  0
TABLE
  2
LTYPE
  5
4
330
0
100
AcDbSymbolTable
 70
     4
  0
LTYPE
  5
11
330
4
100
AcDbSymbolTableRecord
100
AcDbLinetypeTableRecord
  2
ByBlock
 70
     0
  3

 72
    65
 73
     0
 40
0.0
  0
LTYPE
  5
12
330
4
100
AcDbSymbolTableRecord
100
AcDbLinetypeTableRecord
  2
ByLayer
 70
     0
  3

 72
    65
 73
     0
 40
0.0
  0
LTYPE
  5
13
330
4
100
AcDbSymbolTableRecord
100
AcDbLinetypeTableRecord
  2
Continuous
 70
     0
  3
Solid line
 72
    65
 73
     0
 40
0.0
  0
LTYPE
  5
8D4
330
4
100
AcDbSymbolTableRecord
100
AcDbLinetypeTableRecord
  2
HIDDEN
 70
     0
  3
Hidden _ _ _ _ _ _ _ _ _ _ _ _ _ _ _ _ _ _ _ _ 
 72
    65
 73
     2
 40
9.524999999999999
 49
6.35
 74
     0
 49
-3.175
 74
     0
  0
LTYPE
  5
BF2
330
4
100
AcDbSymbolTableRecord
100
AcDbLinetypeTableRecord
  2
BORDER
 70
     0
  3
Border __  __  . __  __  . __  __  . __  __  . 
 72
    65
 73
     6
 40
44.45
 49
12.7
 74
     0
 49
-6.35
 74
     0
 49
12.7
 74
     0
 49
-6.35
 74
     0
 49
0.0
 74
     0
 49
-6.35
 74
     0
  0
LTYPE
  5
4337
330
4
100
AcDbSymbolTableRecord
100
AcDbLinetypeTableRecord
  2
HIDDEN2
 70
     0
  3
Hidden (.5x) _ _ _ _ _ _ _ _ _ _ _ _ _ _ _ _ _ 
 72
    65
 73
     2
 40
4.762499999999999
 49
3.175
 74
     0
 49
-1.5875
 74
     0
  0
ENDTAB
  0
TABLE
  2
LAYER
  5
2
102
{ACAD_XDICTIONARY
360
2E1
102
}
330
0
100
AcDbSymbolTable
 70
    13
  0
LAYER
  5
14
330
2
100
AcDbSymbolTableRecord
100
AcDbLayerTableRecord
  2
0
 70
     0
 62
     7
  6
Continuous
370
    -3
390
1D
347
266
  0
LAYER
  5
4A
330
2
100
AcDbSymbolTableRecord
100
AcDbLayerTableRecord
  2
Defpoints
 70
     0
 62
     7
  6
Continuous
290
     0
370
    20
390
1D
347
266
  0
LAYER
  5
4B
330
2
100
AcDbSymbolTableRecord
100
AcDbLayerTableRecord
  2
template
 70
     0
 62
     7
  6
Continuous
370
    20
390
1D
347
266
  0
LAYER
  5
4D
330
2
100
AcDbSymbolTableRecord
100
AcDbLayerTableRecord
  2
MODEL
 70
     0
 62
     7
  6
Continuous
370
    20
390
1D
347
266
  0
LAYER
  5
382
330
2
100
AcDbSymbolTableRecord
100
AcDbLayerTableRecord
  2
レイヤー 1
 70
     0
 62
     7
  6
Continuous
370
    -3
390
1D
347
266
  0
LAYER
  5
5C4
330
2
100
AcDbSymbolTableRecord
100
AcDbLayerTableRecord
  2
HIDDEN
 70
     0
 62
   253
  6
HIDDEN
370
    20
390
1D
347
266
1001
AcAecLayerStandard
1000

1000

  0
LAYER
  5
5EB
330
2
100
AcDbSymbolTableRecord
100
AcDbLayerTableRecord
  2
Dim
 70
     0
 62
     3
  6
Continuous
370
    13
390
1D
347
266
1001
AcAecLayerStandard
1000

1000

  0
LAYER
  5
BF1
330
2
100
AcDbSymbolTableRecord
100
AcDbLayerTableRecord
  2
PRINT BORDER
 70
     0
 62
     4
  6
BORDER
290
     0
370
    20
390
1D
347
266
1001
AcAecLayerStandard
1000

1000

  0
LAYER
  5
1BD2
330
2
100
AcDbSymbolTableRecord
100
AcDbLayerTableRecord
  2
retino
 70
     0
 62
   253
  6
Continuous
370
     0
390
1D
347
266
  0
LAYER
  5
4336
330
2
100
AcDbSymbolTableRecord
100
AcDbLayerTableRecord
  2
tratteggio
 70
     0
 62
    74
  6
HIDDEN2
370
     0
390
1D
347
266
  0
LAYER
  5
78AD
102
{ACAD_XDICTIONARY
360
78AE
102
}
330
2
100
AcDbSymbolTableRecord
100
AcDbLayerTableRecord
  2
FLM_Ceramica
 70
     0
 62
     7
  6
Continuous
370
    -3
390
1D
347
266
1001
AcAecLayerStandard
1000

1000
Prospetti e Piante
  0
LAYER
  5
78B4
102
{ACAD_XDICTIONARY
360
78B5
102
}
330
2
100
AcDbSymbolTableRecord
100
AcDbLayerTableRecord
  2
FLM_Cer_Sez
 70
     0
 62
     1
  6
Continuous
370
    -3
390
1D
347
266
1001
AcAecLayerStandard
1000

1000
Sezioni
  0
LAYER
  5
78C0
102
{ACAD_XDICTIONARY
360
78C1
102
}
330
2
100
AcDbSymbolTableRecord
100
AcDbLayerTableRecord
  2
FLM_Testi
 70
     0
 62
     7
  6
Continuous
370
    -3
390
1D
347
266
1001
AcAecLayerStandard
1000

1000
Testo indicazioni
  0
ENDTAB
  0
TABLE
  2
STYLE
  5
3
330
0
100
AcDbSymbolTable
 70
     3
  0
STYLE
  5
17
330
3
100
AcDbSymbolTableRecord
100
AcDbTextStyleTableRecord
  2
Standard
 70
     0
 40
0.0
 41
1.0
 50
0.0
 71
     0
 42
533.0403732820173
  3
txt
  4
BIGFONT.SHX
  0
STYLE
  5
39
330
3
100
AcDbSymbolTableRecord
100
AcDbTextStyleTableRecord
  2
ＭＳ ゴシック
 70
     0
 40
0.0
 41
1.0
 50
0.0
 71
     0
 42
533.0403732820173
  3
msgothic.ttc
  4
ＭＳ ゴシック
1001
ACAD
1000
ＭＳ ゴシック
1071
        0
  0
STYLE
  5
78D0
330
3
100
AcDbSymbolTableRecord
100
AcDbTextStyleTableRecord
  2
FLM_Ind
 70
     0
 40
30.0
 41
1.0
 50
0.0
 71
     0
 42
533.0403732820173
  3
arial.ttf
  4

1001
ACAD
1000
Arial
1071
       34
  0
ENDTAB
  0
TABLE
  2
VIEW
  5
5
330
0
100
AcDbSymbolTable
 70
     0
  0
ENDTAB
  0
TABLE
  2
UCS
  5
6
330
0
100
AcDbSymbolTable
 70
     0
  0
ENDTAB
  0
TABLE
  2
APPID
  5
8
330
0
100
AcDbSymbolTable
 70
    14
  0
APPID
  5
16
330
8
100
AcDbSymbolTableRecord
100
AcDbRegAppTableRecord
  2
ACAD
 70
     0
  0
APPID
  5
5C5
330
8
100
AcDbSymbolTableRecord
100
AcDbRegAppTableRecord
  2
AcAecLayerStandard
 70
     0
  0
APPID
  5
913
330
8
100
AcDbSymbolTableRecord
100
AcDbRegAppTableRecord
  2
ACAD_DSTYLE_DIMBREAK
 70
     0
  0
APPID
  5
914
330
8
100
AcDbSymbolTableRecord
100
AcDbRegAppTableRecord
  2
ACAD_DSTYLE_DIMJAG
 70
     0
  0
APPID
  5
915
330
8
100
AcDbSymbolTableRecord
100
AcDbRegAppTableRecord
  2
ACAD_DSTYLE_DIMTALN
 70
     0
  0
APPID
  5
E4F
330
8
100
AcDbSymbolTableRecord
100
AcDbRegAppTableRecord
  2
ACAD_MLEADERVER
 70
     0
  0
APPID
  5
E79
330
8
100
AcDbSymbolTableRecord
100
AcDbRegAppTableRecord
  2
ACAD_PSEXT
 70
     0
  0
APPID
  5
E7A
330
8
100
AcDbSymbolTableRecord
100
AcDbRegAppTableRecord
  2
ACAD_NAV_VCDISPLAY
 70
     0
  0
APPID
  5
166E
330
8
100
AcDbSymbolTableRecord
100
AcDbRegAppTableRecord
  2
AcadAnnotative
 70
     0
  0
APPID
  5
166F
330
8
100
AcDbSymbolTableRecord
100
AcDbRegAppTableRecord
  2
GradientColor1ACI
 70
     0
  0
APPID
  5
1670
330
8
100
AcDbSymbolTableRecord
100
AcDbRegAppTableRecord
  2
GradientColor2ACI
 70
     0
  0
APPID
  5
20FE
330
8
100
AcDbSymbolTableRecord
100
AcDbRegAppTableRecord
  2
AcLayerTools
 70
     0
  0
APPID
  5
27AB
330
8
100
AcDbSymbolTableRecord
100
AcDbRegAppTableRecord
  2
ACAD_DSTYLE_DIMRADIAL_EXTENSION
 70
     0
  0
APPID
  5
4342
330
8
100
AcDbSymbolTableRecord
100
AcDbRegAppTableRecord
  2
AcadAnnoAV
 70
     0
  0
ENDTAB
  0
TABLE
  2
DIMSTYLE
  5
9
330
0
100
AcDbSymbolTable
 70
     2
100
AcDbDimStyleTable
  0
DIMSTYLE
105
18
330
9
100
AcDbSymbolTableRecord
100
AcDbDimStyleTableRecord
  2
Standard
 70
     0
178
     0
340
17
  0
DIMSTYLE
105
56
102
{ACAD_REACTORS
330
7BD5
330
7BD6
330
7BD8
330
7BD9
330
7BDA
330
7BDB
330
7BDD
330
7BDE
330
7BE1
330
7BE3
330
7BE7
330
7FA5
330
7FB2
330
7FBF
330
7FCE
330
8013
330
8025
330
80CE
330
80DD
330
80EF
330
8104
330
8113
330
8122
102
}
330
9
100
AcDbSymbolTableRecord
100
AcDbDimStyleTableRecord
  2
tform線あり
 70
     0
  3
<>
  4
[]
 41
9.999389648437498
 42
25.0
 43
0.9999999999999999
 44
0.0
 73
     0
 74
     0
 77
     1
 78
    11
140
24.4326171875
141
0.0
143
1.0
146
0.8
147
10.0
171
     1
172
     1
174
     1
178
     0
179
     2
271
     0
272
     1
276
     2
284
    11
285
    11
286
    11
289
     0
340
39
341
4E
342
4E
  0
ENDTAB
  0
TABLE
  2
BLOCK_RECORD
  5
1
330
0
100
AcDbSymbolTable
 70
    97
  0
BLOCK_RECORD
  5
A
102
{ACAD_XDICTIONARY
360
6587
102
}
330
1
100
AcDbSymbolTableRecord
100
AcDbBlockTableRecord
  2
*MODEL_SPACE
340
20
 70
     0
280
     1
281
     0
  0
BLOCK_RECORD
  5
B
330
1
100
AcDbSymbolTableRecord
100
AcDbBlockTableRecord
  2
*PAPER_SPACE
340
21
 70
     0
280
     1
281
     0
  0
BLOCK_RECORD
  5
4E
330
1
100
AcDbSymbolTableRecord
100
AcDbBlockTableRecord
  2
_DOT
340
0
102
{BLKREFS
331
7326
331
7327
331
7333
331
7334
331
735A
331
735B
331
7367
331
7368
331
7382
331
7383
331
738F
331
7390
331
739C
331
739D
331
73A9
331
73AA
331
73C4
331
73C5
331
73F9
331
73FA
331
7406
331
7407
331
7413
331
7414
331
763D
331
763E
331
764E
331
764F
331
765F
331
7660
331
7679
331
767A
331
76CF
331
76D0
331
76E8
331
76E9
331
76F9
331
76FA
331
770D
331
770E
331
771C
331
771D
331
7851
331
7852
331
7861
331
7862
331
7870
331
7871
331
7C80
331
7C81
331
7C8D
331
7C8E
331
7C9A
331
7C9B
331
7CA7
331
7CA8
331
7CB4
331
7CB5
331
7CC1
331
7CC2
331
7CCE
331
7CCF
331
7CDC
331
7CDD
331
7CE9
331
7CEA
331
7CF6
331
7CF7
331
7D03
331
7D04
331
7D10
331
7D11
331
7D1E
331
7D1F
331
7D2B
331
7D2C
331
7D38
331
7D39
331
7D46
331
7D47
331
7D53
331
7D54
331
7D60
331
7D61
331
7D6D
331
7D6E
331
7D7A
331
7D7B
331
7D87
331
7D88
331
7D94
331
7D95
331
7DA1
331
7DA2
331
7DAE
331
7DAF
331
7DBB
331
7DBC
331
7DC8
331
7DC9
331
7DD5
331
7DD6
331
7DE2
331
7DE3
331
7DEF
331
7DF0
331
7DFC
331
7DFD
331
7E0B
331
7E0C
331
7E17
331
7E18
331
7E24
331
7E25
331
7E33
331
7E34
331
7E3F
331
7E40
331
7E4C
331
7E4D
331
7E59
331
7E5A
331
7E67
331
7E68
331
7E76
331
7E77
331
7E94
331
7E95
331
7EA1
331
7EA2
331
7FAC
331
7FAD
331
7FB9
331
7FBA
331
7FC8
331
7FC9
331
7FD7
331
7FD8
331
801C
331
801D
331
8031
331
8032
331
8054
331
8055
331
8060
331
8061
331
806C
331
806D
331
8078
331
8079
331
8084
331
8085
331
8090
331
8091
331
809C
331
809D
331
80A8
331
80A9
331
80B4
331
80B5
331
80C0
331
80C1
331
80D7
331
80D8
331
80E6
331
80E7
331
80FA
331
80FB
331
810D
331
810E
331
811C
331
811D
331
812B
331
812C
102
}
 70
     0
280
     1
281
     0
  0
BLOCK_RECORD
  5
3A5
330
1
100
AcDbSymbolTableRecord
100
AcDbBlockTableRecord
  2
名称未設定-1
340
0
102
{BLKREFS
331
3D0
102
}
 70
     1
280
     1
281
     0
  0
BLOCK_RECORD
  5
3A8
330
1
100
AcDbSymbolTableRecord
100
AcDbBlockTableRecord
  2
block 2
340
0
102
{BLKREFS
331
3A7
102
}
 70
     0
280
     1
281
     0
  0
BLOCK_RECORD
  5
3AB
330
1
100
AcDbSymbolTableRecord
100
AcDbBlockTableRecord
  2
block 3
340
0
102
{BLKREFS
331
3AA
102
}
 70
     0
280
     1
281
     0
  0
BLOCK_RECORD
  5
3AE
330
1
100
AcDbSymbolTableRecord
100
AcDbBlockTableRecord
  2
block 4
340
0
102
{BLKREFS
331
3AD
102
}
 70
     0
280
     1
281
     0
  0
BLOCK_RECORD
  5
3BD
330
1
100
AcDbSymbolTableRecord
100
AcDbBlockTableRecord
  2
block 5
340
0
102
{BLKREFS
331
3BC
102
}
 70
     0
280
     1
281
     0
  0
BLOCK_RECORD
  5
11F0
330
1
100
AcDbSymbolTableRecord
100
AcDbBlockTableRecord
  2
BLOCK_2
340
0
102
{BLKREFS
331
1273
331
127B
331
127C
102
}
 70
     0
280
     1
281
     0
  0
BLOCK_RECORD
  5
38B6
330
1
100
AcDbSymbolTableRecord
100
AcDbBlockTableRecord
  2
mobile_latù
340
0
310
2800000020000000200000000100080000000000000400000000000000000000000000000000000000000000000080000080000000808000800000008000800080800000C0C0C000C0DCC000F0CAA6000020400000206000002080000020A0000020C0000020E00000400000004020000040400000406000004080000040A0
310
000040C0000040E00000600000006020000060400000606000006080000060A0000060C0000060E00000800000008020000080400000806000008080000080A0000080C0000080E00000A0000000A0200000A0400000A0600000A0800000A0A00000A0C00000A0E00000C0000000C0200000C0400000C0600000C0800000C0
310
A00000C0C00000C0E00000E0000000E0200000E0400000E0600000E0800000E0A00000E0C00000E0E00040000000400020004000400040006000400080004000A0004000C0004000E00040200000402020004020400040206000402080004020A0004020C0004020E000404000004040200040404000404060004040800040
310
40A0004040C0004040E00040600000406020004060400040606000406080004060A0004060C0004060E00040800000408020004080400040806000408080004080A0004080C0004080E00040A0000040A0200040A0400040A0600040A0800040A0A00040A0C00040A0E00040C0000040C0200040C0400040C0600040C08000
310
40C0A00040C0C00040C0E00040E0000040E0200040E0400040E0600040E0800040E0A00040E0C00040E0E00080000000800020008000400080006000800080008000A0008000C0008000E00080200000802020008020400080206000802080008020A0008020C0008020E00080400000804020008040400080406000804080
310
008040A0008040C0008040E00080600000806020008060400080606000806080008060A0008060C0008060E00080800000808020008080400080806000808080008080A0008080C0008080E00080A0000080A0200080A0400080A0600080A0800080A0A00080A0C00080A0E00080C0000080C0200080C0400080C0600080C0
310
800080C0A00080C0C00080C0E00080E0000080E0200080E0400080E0600080E0800080E0A00080E0C00080E0E000C0000000C0002000C0004000C0006000C0008000C000A000C000C000C000E000C0200000C0202000C0204000C0206000C0208000C020A000C020C000C020E000C0400000C0402000C0404000C0406000C0
310
408000C040A000C040C000C040E000C0600000C0602000C0604000C0606000C0608000C060A000C060C000C060E000C0800000C0802000C0804000C0806000C0808000C080A000C080C000C080E000C0A00000C0A02000C0A04000C0A06000C0A08000C0A0A000C0A0C000C0A0E000C0C00000C0C02000C0C04000C0C06000
310
C0C08000C0C0A000F0FBFF00A4A0A000808080000000FF0000FF000000FFFF00FF000000FF00FF00FFFF0000FFFFFF0049494949494949494949494949494949494949494949494949494949494949494949494949494949494949494949494949494949494949494949494949494949494949494949494949494949494949
310
49494949494949494949494949494949494949494949494949494949494949494949494949494949494949494949494949494949494949494949494949494949494949494949494949494949494949494949FAFAFAFAFAFAFAFAFAFAFAFAFAFAFAFAFAFAFAFAFAFAFAFAFAFAFAFAFAFA4949FAFA4949494949494949494949
310
494949494949494949494949494949FAFA4949FAFA4949494949494949494949494949494949494949494949494949FAFA4949FAFA4949494949494949494949494949494949494949494949494949FAFA4949FAFA4949494949494949494949494949494949494949494949494949FAFA4949FAFA49494949494949494949
310
49494949494949494949494949494949FAFA4949FAFA4949494949494949494949494949494949494949494949494949FAFA4949FAFA4949494949494949494949494949494949494949494949494949FAFA4949FAFA4949494949494949494949494949494949494949494949494949FAFA4949FAFA494949494949494949
310
4949494949494949494949494949494949FAFA4949FAFA4949494949494949494949494949494949494949494949494949FAFA4949FAFA4949494949494949494949494949494949494949494949494949FAFA4949FAFA4949494949494949494949494949494949494949494949494949FAFA4949FAFA4949494949494949
310
494949494949494949494949494949494949FAFA4949FAFA4949494949494949494949494949494949494949494949494949FAFA4949FAFA4949494949494949494949494949494949494949494949494949FAFA4949FAFA4949494949494949494949494949494949494949494949494949FAFA4949FAFA49494949494949
310
49494949494949494949494949494949494949FAFA4949FAFAFAFAFAFAFAFAFAFAFAFAFAFAFAFAFAFAFAFAFAFAFAFAFAFAFAFAFAFA4949FAFAFAFAFAFAFAFAFAFAFAFAFAFAFAFAFAFAFAFAFAFAFAFAFAFAFAFAFAFA4949FAFA4949494949494949494949494949494949494949494949494949FAFA4949FAFAFAFAFAFAFAFA
310
FAFAFAFAFAFAFAFAFAFAFAFAFAFAFAFAFAFAFAFAFAFA494949494949494949494949494949494949494949494949494949494949494949494949494949494949494949494949494949494949494949494949494949494949494949494949494949494949494949494949494949494949494949494949494949494949494949
310
4949494949494949494949494949494949494949494949494949494949494949494949494949494949494949494949494949494949494949
102
{BLKREFS
331
3B99
331
45C2
102
}
 70
     4
280
     1
281
     0
  0
BLOCK_RECORD
  5
436B
330
1
100
AcDbSymbolTableRecord
100
AcDbBlockTableRecord
  2
.TD_SECTION_1
340
0
102
{BLKREFS
331
45C3
331
45C5
331
45C7
331
45C9
331
45CB
331
45CD
331
4611
102
}
 70
     0
280
     1
281
     0
  0
BLOCK_RECORD
  5
436F
330
1
100
AcDbSymbolTableRecord
100
AcDbBlockTableRecord
  2
.TD_SECTION_2
340
0
102
{BLKREFS
331
45C4
331
45C6
331
45C8
331
45CA
331
45CC
331
45CE
331
4612
102
}
 70
     0
280
     1
281
     0
  0
BLOCK_RECORD
  5
7320
330
1
100
AcDbSymbolTableRecord
100
AcDbBlockTableRecord
  2
*D10
340
0
 70
     0
280
     1
281
     0
  0
BLOCK_RECORD
  5
732D
330
1
100
AcDbSymbolTableRecord
100
AcDbBlockTableRecord
  2
*D11
340
0
 70
     0
280
     1
281
     0
  0
BLOCK_RECORD
  5
7354
330
1
100
AcDbSymbolTableRecord
100
AcDbBlockTableRecord
  2
*D12
340
0
 70
     0
280
     1
281
     0
  0
BLOCK_RECORD
  5
7361
330
1
100
AcDbSymbolTableRecord
100
AcDbBlockTableRecord
  2
*D13
340
0
 70
     0
280
     1
281
     0
  0
BLOCK_RECORD
  5
737C
330
1
100
AcDbSymbolTableRecord
100
AcDbBlockTableRecord
  2
*D14
340
0
 70
     0
280
     1
281
     0
  0
BLOCK_RECORD
  5
7389
330
1
100
AcDbSymbolTableRecord
100
AcDbBlockTableRecord
  2
*D15
340
0
 70
     0
280
     1
281
     0
  0
BLOCK_RECORD
  5
7396
330
1
100
AcDbSymbolTableRecord
100
AcDbBlockTableRecord
  2
*D16
340
0
 70
     0
280
     1
281
     0
  0
BLOCK_RECORD
  5
73A3
330
1
100
AcDbSymbolTableRecord
100
AcDbBlockTableRecord
  2
*D17
340
0
 70
     0
280
     1
281
     0
  0
BLOCK_RECORD
  5
73BE
330
1
100
AcDbSymbolTableRecord
100
AcDbBlockTableRecord
  2
*D18
340
0
 70
     0
280
     1
281
     0
  0
BLOCK_RECORD
  5
73F3
330
1
100
AcDbSymbolTableRecord
100
AcDbBlockTableRecord
  2
*D19
340
0
 70
     0
280
     1
281
     0
  0
BLOCK_RECORD
  5
7400
330
1
100
AcDbSymbolTableRecord
100
AcDbBlockTableRecord
  2
*D20
340
0
 70
     0
280
     1
281
     0
  0
BLOCK_RECORD
  5
740D
330
1
100
AcDbSymbolTableRecord
100
AcDbBlockTableRecord
  2
*D21
340
0
 70
     0
280
     1
281
     0
  0
BLOCK_RECORD
  5
7637
330
1
100
AcDbSymbolTableRecord
100
AcDbBlockTableRecord
  2
*D22
340
0
 70
     0
280
     1
281
     0
  0
BLOCK_RECORD
  5
7648
330
1
100
AcDbSymbolTableRecord
100
AcDbBlockTableRecord
  2
*D23
340
0
 70
     0
280
     1
281
     0
  0
BLOCK_RECORD
  5
7659
330
1
100
AcDbSymbolTableRecord
100
AcDbBlockTableRecord
  2
*D24
340
0
 70
     0
280
     1
281
     0
  0
BLOCK_RECORD
  5
7673
330
1
100
AcDbSymbolTableRecord
100
AcDbBlockTableRecord
  2
*D25
340
0
 70
     0
280
     1
281
     0
  0
BLOCK_RECORD
  5
76C9
330
1
100
AcDbSymbolTableRecord
100
AcDbBlockTableRecord
  2
*D26
340
0
 70
     0
280
     1
281
     0
  0
BLOCK_RECORD
  5
76E2
330
1
100
AcDbSymbolTableRecord
100
AcDbBlockTableRecord
  2
*D27
340
0
 70
     0
280
     1
281
     0
  0
BLOCK_RECORD
  5
76F1
330
1
100
AcDbSymbolTableRecord
100
AcDbBlockTableRecord
  2
*D28
340
0
 70
     0
280
     1
281
     0
  0
BLOCK_RECORD
  5
7707
330
1
100
AcDbSymbolTableRecord
100
AcDbBlockTableRecord
  2
*D29
340
0
 70
     0
280
     1
281
     0
  0
BLOCK_RECORD
  5
7716
330
1
100
AcDbSymbolTableRecord
100
AcDbBlockTableRecord
  2
*D30
340
0
 70
     0
280
     1
281
     0
  0
BLOCK_RECORD
  5
7849
330
1
100
AcDbSymbolTableRecord
100
AcDbBlockTableRecord
  2
*D31
340
0
 70
     0
280
     1
281
     0
  0
BLOCK_RECORD
  5
785B
330
1
100
AcDbSymbolTableRecord
100
AcDbBlockTableRecord
  2
*D32
340
0
 70
     0
280
     1
281
     0
  0
BLOCK_RECORD
  5
786A
330
1
100
AcDbSymbolTableRecord
100
AcDbBlockTableRecord
  2
*D33
340
0
 70
     0
280
     1
281
     0
  0
BLOCK_RECORD
  5
7C7A
330
1
100
AcDbSymbolTableRecord
100
AcDbBlockTableRecord
  2
*D34
340
0
 70
     0
280
     1
281
     0
  0
BLOCK_RECORD
  5
7C87
330
1
100
AcDbSymbolTableRecord
100
AcDbBlockTableRecord
  2
*D35
340
0
 70
     0
280
     1
281
     0
  0
BLOCK_RECORD
  5
7C94
330
1
100
AcDbSymbolTableRecord
100
AcDbBlockTableRecord
  2
*D36
340
0
 70
     0
280
     1
281
     0
  0
BLOCK_RECORD
  5
7CA1
330
1
100
AcDbSymbolTableRecord
100
AcDbBlockTableRecord
  2
*D37
340
0
 70
     0
280
     1
281
     0
  0
BLOCK_RECORD
  5
7CAE
330
1
100
AcDbSymbolTableRecord
100
AcDbBlockTableRecord
  2
*D38
340
0
 70
     0
280
     1
281
     0
  0
BLOCK_RECORD
  5
7CBB
330
1
100
AcDbSymbolTableRecord
100
AcDbBlockTableRecord
  2
*D39
340
0
 70
     0
280
     1
281
     0
  0
BLOCK_RECORD
  5
7CC8
330
1
100
AcDbSymbolTableRecord
100
AcDbBlockTableRecord
  2
*D40
340
0
 70
     0
280
     1
281
     0
  0
BLOCK_RECORD
  5
7CD6
330
1
100
AcDbSymbolTableRecord
100
AcDbBlockTableRecord
  2
*D41
340
0
 70
     0
280
     1
281
     0
  0
BLOCK_RECORD
  5
7CE3
330
1
100
AcDbSymbolTableRecord
100
AcDbBlockTableRecord
  2
*D42
340
0
 70
     0
280
     1
281
     0
  0
BLOCK_RECORD
  5
7CF0
330
1
100
AcDbSymbolTableRecord
100
AcDbBlockTableRecord
  2
*D43
340
0
 70
     0
280
     1
281
     0
  0
BLOCK_RECORD
  5
7CFD
330
1
100
AcDbSymbolTableRecord
100
AcDbBlockTableRecord
  2
*D44
340
0
 70
     0
280
     1
281
     0
  0
BLOCK_RECORD
  5
7D0A
330
1
100
AcDbSymbolTableRecord
100
AcDbBlockTableRecord
  2
*D45
340
0
 70
     0
280
     1
281
     0
  0
BLOCK_RECORD
  5
7D18
330
1
100
AcDbSymbolTableRecord
100
AcDbBlockTableRecord
  2
*D46
340
0
 70
     0
280
     1
281
     0
  0
BLOCK_RECORD
  5
7D25
330
1
100
AcDbSymbolTableRecord
100
AcDbBlockTableRecord
  2
*D47
340
0
 70
     0
280
     1
281
     0
  0
BLOCK_RECORD
  5
7D32
330
1
100
AcDbSymbolTableRecord
100
AcDbBlockTableRecord
  2
*D48
340
0
 70
     0
280
     1
281
     0
  0
BLOCK_RECORD
  5
7D40
330
1
100
AcDbSymbolTableRecord
100
AcDbBlockTableRecord
  2
*D49
340
0
 70
     0
280
     1
281
     0
  0
BLOCK_RECORD
  5
7D4D
330
1
100
AcDbSymbolTableRecord
100
AcDbBlockTableRecord
  2
*D50
340
0
 70
     0
280
     1
281
     0
  0
BLOCK_RECORD
  5
7D5A
330
1
100
AcDbSymbolTableRecord
100
AcDbBlockTableRecord
  2
*D51
340
0
 70
     0
280
     1
281
     0
  0
BLOCK_RECORD
  5
7D67
330
1
100
AcDbSymbolTableRecord
100
AcDbBlockTableRecord
  2
*D52
340
0
 70
     0
280
     1
281
     0
  0
BLOCK_RECORD
  5
7D74
330
1
100
AcDbSymbolTableRecord
100
AcDbBlockTableRecord
  2
*D53
340
0
 70
     0
280
     1
281
     0
  0
BLOCK_RECORD
  5
7D81
330
1
100
AcDbSymbolTableRecord
100
AcDbBlockTableRecord
  2
*D54
340
0
 70
     0
280
     1
281
     0
  0
BLOCK_RECORD
  5
7D8E
330
1
100
AcDbSymbolTableRecord
100
AcDbBlockTableRecord
  2
*D55
340
0
 70
     0
280
     1
281
     0
  0
BLOCK_RECORD
  5
7D9B
330
1
100
AcDbSymbolTableRecord
100
AcDbBlockTableRecord
  2
*D56
340
0
 70
     0
280
     1
281
     0
  0
BLOCK_RECORD
  5
7DA8
330
1
100
AcDbSymbolTableRecord
100
AcDbBlockTableRecord
  2
*D57
340
0
 70
     0
280
     1
281
     0
  0
BLOCK_RECORD
  5
7DB5
330
1
100
AcDbSymbolTableRecord
100
AcDbBlockTableRecord
  2
*D58
340
0
 70
     0
280
     1
281
     0
  0
BLOCK_RECORD
  5
7DC2
330
1
100
AcDbSymbolTableRecord
100
AcDbBlockTableRecord
  2
*D59
340
0
 70
     0
280
     1
281
     0
  0
BLOCK_RECORD
  5
7DCF
330
1
100
AcDbSymbolTableRecord
100
AcDbBlockTableRecord
  2
*D60
340
0
 70
     0
280
     1
281
     0
  0
BLOCK_RECORD
  5
7DDC
330
1
100
AcDbSymbolTableRecord
100
AcDbBlockTableRecord
  2
*D61
340
0
 70
     0
280
     1
281
     0
  0
BLOCK_RECORD
  5
7DE9
330
1
100
AcDbSymbolTableRecord
100
AcDbBlockTableRecord
  2
*D62
340
0
 70
     0
280
     1
281
     0
  0
BLOCK_RECORD
  5
7DF6
330
1
100
AcDbSymbolTableRecord
100
AcDbBlockTableRecord
  2
*D63
340
0
 70
     0
280
     1
281
     0
  0
BLOCK_RECORD
  5
7E03
330
1
100
AcDbSymbolTableRecord
100
AcDbBlockTableRecord
  2
*D64
340
0
 70
     0
280
     1
281
     0
  0
BLOCK_RECORD
  5
7E11
330
1
100
AcDbSymbolTableRecord
100
AcDbBlockTableRecord
  2
*D65
340
0
 70
     0
280
     1
281
     0
  0
BLOCK_RECORD
  5
7E1E
330
1
100
AcDbSymbolTableRecord
100
AcDbBlockTableRecord
  2
*D66
340
0
 70
     0
280
     1
281
     0
  0
BLOCK_RECORD
  5
7E2B
330
1
100
AcDbSymbolTableRecord
100
AcDbBlockTableRecord
  2
*D67
340
0
 70
     0
280
     1
281
     0
  0
BLOCK_RECORD
  5
7E39
330
1
100
AcDbSymbolTableRecord
100
AcDbBlockTableRecord
  2
*D68
340
0
 70
     0
280
     1
281
     0
  0
BLOCK_RECORD
  5
7E46
330
1
100
AcDbSymbolTableRecord
100
AcDbBlockTableRecord
  2
*D69
340
0
 70
     0
280
     1
281
     0
  0
BLOCK_RECORD
  5
7E53
330
1
100
AcDbSymbolTableRecord
100
AcDbBlockTableRecord
  2
*D70
340
0
 70
     0
280
     1
281
     0
  0
BLOCK_RECORD
  5
7E61
330
1
100
AcDbSymbolTableRecord
100
AcDbBlockTableRecord
  2
*D71
340
0
 70
     0
280
     1
281
     0
  0
BLOCK_RECORD
  5
7E6E
330
1
100
AcDbSymbolTableRecord
100
AcDbBlockTableRecord
  2
*D72
340
0
 70
     0
280
     1
281
     0
  0
BLOCK_RECORD
  5
7E8E
330
1
100
AcDbSymbolTableRecord
100
AcDbBlockTableRecord
  2
*D73
340
0
 70
     0
280
     1
281
     0
  0
BLOCK_RECORD
  5
7E9B
330
1
100
AcDbSymbolTableRecord
100
AcDbBlockTableRecord
  2
*D74
340
0
 70
     0
280
     1
281
     0
  0
BLOCK_RECORD
  5
7FA6
330
1
100
AcDbSymbolTableRecord
100
AcDbBlockTableRecord
  2
*D75
340
0
 70
     0
280
     1
281
     0
  0
BLOCK_RECORD
  5
7FB3
330
1
100
AcDbSymbolTableRecord
100
AcDbBlockTableRecord
  2
*D76
340
0
 70
     0
280
     1
281
     0
  0
BLOCK_RECORD
  5
7FC2
330
1
100
AcDbSymbolTableRecord
100
AcDbBlockTableRecord
  2
*D77
340
0
 70
     0
280
     1
281
     0
  0
BLOCK_RECORD
  5
7FD1
330
1
100
AcDbSymbolTableRecord
100
AcDbBlockTableRecord
  2
*D78
340
0
 70
     0
280
     1
281
     0
  0
BLOCK_RECORD
  5
8016
330
1
100
AcDbSymbolTableRecord
100
AcDbBlockTableRecord
  2
*D79
340
0
 70
     0
280
     1
281
     0
  0
BLOCK_RECORD
  5
8029
330
1
100
AcDbSymbolTableRecord
100
AcDbBlockTableRecord
  2
*D80
340
0
 70
     0
280
     1
281
     0
  0
BLOCK_RECORD
  5
804E
330
1
100
AcDbSymbolTableRecord
100
AcDbBlockTableRecord
  2
*D81
340
0
 70
     0
280
     1
281
     0
  0
BLOCK_RECORD
  5
805A
330
1
100
AcDbSymbolTableRecord
100
AcDbBlockTableRecord
  2
*D82
340
0
 70
     0
280
     1
281
     0
  0
BLOCK_RECORD
  5
8066
330
1
100
AcDbSymbolTableRecord
100
AcDbBlockTableRecord
  2
*D83
340
0
 70
     0
280
     1
281
     0
  0
BLOCK_RECORD
  5
8072
330
1
100
AcDbSymbolTableRecord
100
AcDbBlockTableRecord
  2
*D84
340
0
 70
     0
280
     1
281
     0
  0
BLOCK_RECORD
  5
807E
330
1
100
AcDbSymbolTableRecord
100
AcDbBlockTableRecord
  2
*D85
340
0
 70
     0
280
     1
281
     0
  0
BLOCK_RECORD
  5
808A
330
1
100
AcDbSymbolTableRecord
100
AcDbBlockTableRecord
  2
*D86
340
0
 70
     0
280
     1
281
     0
  0
BLOCK_RECORD
  5
8096
330
1
100
AcDbSymbolTableRecord
100
AcDbBlockTableRecord
  2
*D87
340
0
 70
     0
280
     1
281
     0
  0
BLOCK_RECORD
  5
80A2
330
1
100
AcDbSymbolTableRecord
100
AcDbBlockTableRecord
  2
*D88
340
0
 70
     0
280
     1
281
     0
  0
BLOCK_RECORD
  5
80AE
330
1
100
AcDbSymbolTableRecord
100
AcDbBlockTableRecord
  2
*D89
340
0
 70
     0
280
     1
281
     0
  0
BLOCK_RECORD
  5
80BA
330
1
100
AcDbSymbolTableRecord
100
AcDbBlockTableRecord
  2
*D90
340
0
 70
     0
280
     1
281
     0
  0
BLOCK_RECORD
  5
80D1
330
1
100
AcDbSymbolTableRecord
100
AcDbBlockTableRecord
  2
*D91
340
0
 70
     0
280
     1
281
     0
  0
BLOCK_RECORD
  5
80E0
330
1
100
AcDbSymbolTableRecord
100
AcDbBlockTableRecord
  2
*D92
340
0
 70
     0
280
     1
281
     0
  0
BLOCK_RECORD
  5
80F2
330
1
100
AcDbSymbolTableRecord
100
AcDbBlockTableRecord
  2
*D93
340
0
 70
     0
280
     1
281
     0
  0
BLOCK_RECORD
  5
8107
330
1
100
AcDbSymbolTableRecord
100
AcDbBlockTableRecord
  2
*D94
340
0
 70
     0
280
     1
281
     0
  0
BLOCK_RECORD
  5
8116
330
1
100
AcDbSymbolTableRecord
100
AcDbBlockTableRecord
  2
*D95
340
0
 70
     0
280
     1
281
     0
  0
BLOCK_RECORD
  5
8125
330
1
100
AcDbSymbolTableRecord
100
AcDbBlockTableRecord
  2
*D96
340
0
 70
     0
280
     1
281
     0
  0
ENDTAB
  0
ENDSEC
  0
SECTION
  2
BLOCKS
  0
BLOCK
  5
D
330
A
100
AcDbEntity
  8
0
390
1D
100
AcDbBlockBegin
  2
*MODEL_SPACE
 70
     0
 10
0.0
 20
0.0
 30
0.0
  3
*MODEL_SPACE
  1
*MODEL_SPACE
  0
ENDBLK
  5
E
330
A
100
AcDbEntity
  8
0
390
1D
100
AcDbBlockEnd
  0
BLOCK
  5
F
330
B
100
AcDbEntity
 67
     1
  8
0
390
1D
100
AcDbBlockBegin
  2
*PAPER_SPACE
 70
     0
 10
0.0
 20
0.0
 30
0.0
  3
*PAPER_SPACE
  1
*PAPER_SPACE
  0
ENDBLK
  5
10
330
B
100
AcDbEntity
 67
     1
  8
0
390
1D
100
AcDbBlockEnd
  0
BLOCK
  5
490E
330
4E
100
AcDbEntity
  8
0
390
1D
100
AcDbBlockBegin
  2
_DOT
 70
     0
 10
0.0
 20
0.0
 30
0.0
  3
_DOT
  1
_DOT
  0
POLYLINE
  5
4910
330
4E
100
AcDbEntity
  8
0
  6
ByBlock
 62
     0
370
    -2
390
1D
100
AcDb2dPolyline
 66
     1
 10
0.0
 20
0.0
 30
0.0
 70
     1
 40
0.5
 41
0.5
  0
VERTEX
  5
4911
330
4910
100
AcDbEntity
  8
0
  6
ByBlock
 62
     0
370
    -2
390
1D
100
AcDbVertex
100
AcDb2dVertex
 10
-0.25
 20
0.0
 30
0.0
 42
1.0
  0
VERTEX
  5
4912
330
4910
100
AcDbEntity
  8
0
  6
ByBlock
 62
     0
370
    -2
390
1D
100
AcDbVertex
100
AcDb2dVertex
 10
0.25
 20
0.0
 30
0.0
 42
1.0
  0
SEQEND
  5
4913
330
4910
100
AcDbEntity
  8
0
390
1D
  0
LINE
  5
4914
330
4E
100
AcDbEntity
  8
0
  6
ByBlock
 62
     0
370
    -2
390
1D
100
AcDbLine
 10
-0.5
 20
0.0
 30
0.0
 11
-1.0
 21
0.0
 31
0.0
  0
ENDBLK
  5
4915
330
4E
100
AcDbEntity
  8
0
390
1D
100
AcDbBlockEnd
  0
BLOCK
  5
3A6
330
3A5
100
AcDbEntity
  8
0
100
AcDbBlockBegin
  2
名称未設定-1
 70
     0
 10
0.0
 20
0.0
 30
0.0
  3
名称未設定-1
  1
名称未設定-1
  0
INSERT
  5
3A7
330
3A5
100
AcDbEntity
  8
レイヤー 1
100
AcDbBlockReference
  2
block 2
 10
0.0
 20
0.0
 30
0.0
  0
ENDBLK
  5
3CC
330
3A5
100
AcDbEntity
  8
0
100
AcDbBlockEnd
  0
BLOCK
  5
3A9
330
3A8
100
AcDbEntity
  8
0
100
AcDbBlockBegin
  2
block 2
 70
     0
 10
0.0
 20
0.0
 30
0.0
  3
block 2
  1
block 2
  0
INSERT
  5
3AA
330
3A8
100
AcDbEntity
  8
レイヤー 1
100
AcDbBlockReference
  2
block 3
 10
0.0
 20
0.0
 30
0.0
  0
ENDBLK
  5
3CB
330
3A8
100
AcDbEntity
  8
0
100
AcDbBlockEnd
  0
BLOCK
  5
3AC
330
3AB
100
AcDbEntity
  8
0
100
AcDbBlockBegin
  2
block 3
 70
     0
 10
0.0
 20
0.0
 30
0.0
  3
block 3
  1
block 3
  0
INSERT
  5
3AD
330
3AB
100
AcDbEntity
  8
レイヤー 1
100
AcDbBlockReference
  2
block 4
 10
0.0
 20
0.0
 30
0.0
  0
ENDBLK
  5
3CA
330
3AB
100
AcDbEntity
  8
0
100
AcDbBlockEnd
  0
BLOCK
  5
3AF
330
3AE
100
AcDbEntity
  8
0
100
AcDbBlockBegin
  2
block 4
 70
     0
 10
0.0
 20
0.0
 30
0.0
  3
block 4
  1
block 4
  0
POLYLINE
  5
3B0
330
3AE
100
AcDbEntity
  8
レイヤー 1
370
     0
100
AcDb2dPolyline
 66
     1
 10
0.0
 20
0.0
 30
0.0
  0
VERTEX
  5
3B1
330
3B0
100
AcDbEntity
  8
レイヤー 1
370
     0
100
AcDbVertex
100
AcDb2dVertex
 10
83.79545727667795
 20
167.6444858234922
 30
0.0
  0
VERTEX
  5
3B2
330
3B0
100
AcDbEntity
  8
レイヤー 1
370
     0
100
AcDbVertex
100
AcDb2dVertex
 10
83.79545727667795
 20
159.7968976406313
 30
0.0
  0
VERTEX
  5
3B3
330
3B0
100
AcDbEntity
  8
レイヤー 1
370
     0
100
AcDbVertex
100
AcDb2dVertex
 10
71.3631329975216
 20
159.7968976406313
 30
0.0
  0
VERTEX
  5
3B4
330
3B0
100
AcDbEntity
  8
レイヤー 1
370
     0
100
AcDbVertex
100
AcDb2dVertex
 10
71.3631329975216
 20
127.8027915271048
 30
0.0
  0
VERTEX
  5
3B5
330
3B0
100
AcDbEntity
  8
レイヤー 1
370
     0
100
AcDbVertex
100
AcDb2dVertex
 10
60.43011526263018
 20
127.8027915271048
 30
0.0
  0
VERTEX
  5
3B6
330
3B0
100
AcDbEntity
  8
レイヤー 1
370
     0
100
AcDbVertex
100
AcDb2dVertex
 10
60.43011526263018
 20
159.7968976406313
 30
0.0
  0
VERTEX
  5
3B7
330
3B0
100
AcDbEntity
  8
レイヤー 1
370
     0
100
AcDbVertex
100
AcDb2dVertex
 10
48.21793273020759
 20
159.7968976406313
 30
0.0
  0
VERTEX
  5
3B8
330
3B0
100
AcDbEntity
  8
レイヤー 1
370
     0
100
AcDbVertex
100
AcDb2dVertex
 10
48.21793273020759
 20
167.6444858234922
 30
0.0
  0
VERTEX
  5
3B9
330
3B0
100
AcDbEntity
  8
レイヤー 1
370
     0
100
AcDbVertex
100
AcDb2dVertex
 10
83.79545727667795
 20
167.6444858234922
 30
0.0
  0
SEQEND
  5
3BA
330
3B0
100
AcDbEntity
  8
レイヤー 1
370
     0
  0
HATCH
  5
3BB
330
3AE
100
AcDbEntity
  8
レイヤー 1
 62
   250
420
  2234388
100
AcDbHatch
 10
0.0
 20
0.0
 30
0.0
210
0.0
220
0.0
230
1.0
  2
SOLID
 70
     1
 71
     0
 91
        1
 92
        1
 93
        8
 72
     1
 10
83.79545727667795
 20
167.6444858234922
 11
83.79545727667795
 21
159.7968976406313
 72
     1
 10
83.79545727667795
 20
159.7968976406313
 11
71.3631329975216
 21
159.7968976406313
 72
     1
 10
71.3631329975216
 20
159.7968976406313
 11
71.3631329975216
 21
127.8027915271048
 72
     1
 10
71.3631329975216
 20
127.8027915271048
 11
60.43011526263018
 21
127.8027915271048
 72
     1
 10
60.43011526263018
 20
127.8027915271048
 11
60.43011526263018
 21
159.7968976406313
 72
     1
 10
60.43011526263018
 20
159.7968976406313
 11
48.21793273020759
 21
159.7968976406313
 72
     1
 10
48.21793273020759
 20
159.7968976406313
 11
48.21793273020759
 21
167.6444858234922
 72
     1
 10
48.21793273020759
 20
167.6444858234922
 11
83.79545727667795
 21
167.6444858234922
 97
        0
 75
     2
 76
     1
 98
        0
  0
INSERT
  5
3BC
330
3AE
100
AcDbEntity
  8
レイヤー 1
100
AcDbBlockReference
  2
block 5
 10
0.0
 20
0.0
 30
0.0
  0
ENDBLK
  5
3C9
330
3AE
100
AcDbEntity
  8
0
100
AcDbBlockEnd
  0
BLOCK
  5
3BE
330
3BD
100
AcDbEntity
  8
0
100
AcDbBlockBegin
  2
block 5
 70
     0
 10
0.0
 20
0.0
 30
0.0
  3
block 5
  1
block 5
  0
SPLINE
  5
3BF
330
3BD
100
AcDbEntity
  8
レイヤー 1
370
     0
100
AcDbSpline
210
0.0
220
0.0
230
1.0
 70
    11
 71
     3
 72
    56
 73
    52
 74
     0
 42
0.000000001
 43
0.0000000001
 40
0.0
 40
0.0
 40
0.0
 40
0.0
 40
1.0
 40
1.0
 40
1.0
 40
2.0
 40
2.0
 40
2.0
 40
3.0
 40
3.0
 40
3.0
 40
4.0
 40
4.0
 40
4.0
 40
5.0
 40
5.0
 40
5.0
 40
6.0
 40
6.0
 40
6.0
 40
7.0
 40
7.0
 40
7.0
 40
8.0
 40
8.0
 40
8.0
 40
9.0
 40
9.0
 40
9.0
 40
10.0
 40
10.0
 40
10.0
 40
11.0
 40
11.0
 40
11.0
 40
12.0
 40
12.0
 40
12.0
 40
13.0
 40
13.0
 40
13.0
 40
14.0
 40
14.0
 40
14.0
 40
15.0
 40
15.0
 40
15.0
 40
16.0
 40
16.0
 40
16.0
 40
17.0
 40
17.0
 40
17.0
 40
17.0
 10
100.4504378777679
 20
166.69157178364
 30
0.0
 10
101.9848844191641
 20
167.1313385124438
 30
0.0
 10
103.9637485713373
 20
166.7649523658846
 30
0.0
 10
103.9637485713373
 20
166.7649523658846
 30
0.0
 10
103.9637485713373
 20
166.7649523658846
 30
0.0
 10
103.0132460999156
 20
163.911205638077
 30
0.0
 10
103.0132460999156
 20
163.911205638077
 30
0.0
 10
103.0132460999156
 20
163.911205638077
 30
0.0
 10
101.0674548862189
 20
164.3601018759394
 30
0.0
 10
99.57090442016032
 20
163.1805004036133
 30
0.0
 10
98.40508333886608
 20
162.258247733807
 30
0.0
 10
97.65301849830304
 20
159.804132345923
 30
0.0
 10
97.3598406791005
 20
158.8699940888517
 30
0.0
 10
97.3598406791005
 20
158.8699940888517
 30
0.0
 10
96.07137411762282
 20
154.9119212747295
 30
0.0
 10
96.07137411762282
 20
154.9119212747295
 30
0.0
 10
96.07137411762282
 20
154.9119212747295
 30
0.0
 10
100.3012651448482
 20
154.9119212747295
 30
0.0
 10
100.3012651448482
 20
154.9119212747295
 30
0.0
 10
100.3012651448482
 20
154.9119212747295
 30
0.0
 10
99.64152892419852
 20
152.4199098115079
 30
0.0
 10
99.64152892419852
 20
152.4199098115079
 30
0.0
 10
99.64152892419852
 20
152.4199098115079
 30
0.0
 10
95.38097652692731
 20
152.4199098115079
 30
0.0
 10
95.38097652692731
 20
152.4199098115079
 30
0.0
 10
95.38097652692731
 20
152.4199098115079
 30
0.0
 10
87.75353009080013
 20
127.8027915271048
 30
0.0
 10
87.75353009080013
 20
127.8027915271048
 30
0.0
 10
87.75353009080013
 20
127.8027915271048
 30
0.0
 10
85.36538832498108
 20
127.8027915271048
 30
0.0
 10
85.36538832498108
 20
127.8027915271048
 30
0.0
 10
85.36538832498108
 20
127.8027915271048
 30
0.0
 10
93.00006946639998
 20
152.4199098115079
 30
0.0
 10
93.00006946639998
 20
152.4199098115079
 30
0.0
 10
93.00006946639998
 20
152.4199098115079
 30
0.0
 10
89.85297266450198
 20
152.4199098115079
 30
0.0
 10
89.85297266450198
 20
152.4199098115079
 30
0.0
 10
89.85297266450198
 20
152.4199098115079
 30
0.0
 10
90.51270888515164
 20
154.9119212747295
 30
0.0
 10
90.51270888515164
 20
154.9119212747295
 30
0.0
 10
90.51270888515164
 20
154.9119212747295
 30
0.0
 10
93.6904670570955
 20
154.9119212747295
 30
0.0
 10
93.6904670570955
 20
154.9119212747295
 30
0.0
 10
93.6904670570955
 20
154.9119212747295
 30
0.0
 10
94.81598049462158
 20
158.3616699146644
 30
0.0
 10
94.81598049462158
 20
158.3616699146644
 30
0.0
 10
95.7237637538445
 20
161.2605474231013
 30
0.0
 10
96.4968436907311
 20
162.8139420021662
 30
0.0
 10
97.15657991138076
 20
163.9844139654337
 30
0.0
 10
97.81183750494507
 20
165.1523021053827
 30
0.0
 10
99.1047826935081
 20
166.3084769129547
 30
0.0
 10
100.4504378777679
 20
166.69157178364
 30
0.0
  0
HATCH
  5
3C0
330
3BD
100
AcDbEntity
  8
レイヤー 1
 62
   250
420
  2234388
100
AcDbHatch
 10
0.0
 20
0.0
 30
0.0
210
0.0
220
0.0
230
1.0
  2
SOLID
 70
     1
 71
     0
 91
        1
 92
        1
 93
        1
 72
     4
 94
        3
 73
     0
 74
     1
 95
       56
 96
       52
 40
0.0
 40
0.0
 40
0.0
 40
0.0
 40
1.0
 40
1.0
 40
1.0
 40
2.0
 40
2.0
 40
2.0
 40
3.0
 40
3.0
 40
3.0
 40
4.0
 40
4.0
 40
4.0
 40
5.0
 40
5.0
 40
5.0
 40
6.0
 40
6.0
 40
6.0
 40
7.0
 40
7.0
 40
7.0
 40
8.0
 40
8.0
 40
8.0
 40
9.0
 40
9.0
 40
9.0
 40
10.0
 40
10.0
 40
10.0
 40
11.0
 40
11.0
 40
11.0
 40
12.0
 40
12.0
 40
12.0
 40
13.0
 40
13.0
 40
13.0
 40
14.0
 40
14.0
 40
14.0
 40
15.0
 40
15.0
 40
15.0
 40
16.0
 40
16.0
 40
16.0
 40
17.0
 40
17.0
 40
17.0
 40
17.0
 10
100.4504378777679
 20
166.69157178364
 10
101.9848844191641
 20
167.1313385124438
 10
103.9637485713373
 20
166.7649523658846
 10
103.9637485713373
 20
166.7649523658846
 10
103.9637485713373
 20
166.7649523658846
 10
103.0132460999156
 20
163.911205638077
 10
103.0132460999156
 20
163.911205638077
 10
103.0132460999156
 20
163.911205638077
 10
101.0674548862189
 20
164.3601018759394
 10
99.57090442016032
 20
163.1805004036133
 10
98.40508333886608
 20
162.258247733807
 10
97.65301849830304
 20
159.804132345923
 10
97.3598406791005
 20
158.8699940888517
 10
97.3598406791005
 20
158.8699940888517
 10
96.07137411762282
 20
154.9119212747295
 10
96.07137411762282
 20
154.9119212747295
 10
96.07137411762282
 20
154.9119212747295
 10
100.3012651448482
 20
154.9119212747295
 10
100.3012651448482
 20
154.9119212747295
 10
100.3012651448482
 20
154.9119212747295
 10
99.64152892419852
 20
152.4199098115079
 10
99.64152892419852
 20
152.4199098115079
 10
99.64152892419852
 20
152.4199098115079
 10
95.38097652692731
 20
152.4199098115079
 10
95.38097652692731
 20
152.4199098115079
 10
95.38097652692731
 20
152.4199098115079
 10
87.75353009080013
 20
127.8027915271048
 10
87.75353009080013
 20
127.8027915271048
 10
87.75353009080013
 20
127.8027915271048
 10
85.36538832498108
 20
127.8027915271048
 10
85.36538832498108
 20
127.8027915271048
 10
85.36538832498108
 20
127.8027915271048
 10
93.00006946639998
 20
152.4199098115079
 10
93.00006946639998
 20
152.4199098115079
 10
93.00006946639998
 20
152.4199098115079
 10
89.85297266450198
 20
152.4199098115079
 10
89.85297266450198
 20
152.4199098115079
 10
89.85297266450198
 20
152.4199098115079
 10
90.51270888515164
 20
154.9119212747295
 10
90.51270888515164
 20
154.9119212747295
 10
90.51270888515164
 20
154.9119212747295
 10
93.6904670570955
 20
154.9119212747295
 10
93.6904670570955
 20
154.9119212747295
 10
93.6904670570955
 20
154.9119212747295
 10
94.81598049462158
 20
158.3616699146644
 10
94.81598049462158
 20
158.3616699146644
 10
95.7237637538445
 20
161.2605474231013
 10
96.4968436907311
 20
162.8139420021662
 10
97.15657991138076
 20
163.9844139654337
 10
97.81183750494507
 20
165.1523021053827
 10
99.1047826935081
 20
166.3084769129547
 10
100.4504378777679
 20
166.69157178364
 97
        0
 75
     2
 76
     1
 98
        0
  0
SPLINE
  5
3C1
330
3BD
100
AcDbEntity
  8
レイヤー 1
370
     0
100
AcDbSpline
210
0.0
220
0.0
230
1.0
 70
    11
 71
     3
 72
    38
 73
    34
 74
     0
 42
0.000000001
 43
0.0000000001
 40
0.0
 40
0.0
 40
0.0
 40
0.0
 40
1.0
 40
1.0
 40
1.0
 40
2.0
 40
2.0
 40
2.0
 40
3.0
 40
3.0
 40
3.0
 40
4.0
 40
4.0
 40
4.0
 40
5.0
 40
5.0
 40
5.0
 40
6.0
 40
6.0
 40
6.0
 40
7.0
 40
7.0
 40
7.0
 40
8.0
 40
8.0
 40
8.0
 40
9.0
 40
9.0
 40
9.0
 40
10.0
 40
10.0
 40
10.0
 40
11.0
 40
11.0
 40
11.0
 40
11.0
 10
126.377554584636
 20
154.8151140277308
 30
0.0
 10
126.377554584636
 20
154.8151140277308
 30
0.0
 10
128.8311532078563
 20
154.8151140277308
 30
0.0
 10
128.8311532078563
 20
154.8151140277308
 30
0.0
 10
128.8311532078563
 20
154.8151140277308
 30
0.0
 10
127.7345785914971
 20
151.3062819612468
 30
0.0
 10
127.7345785914971
 20
151.3062819612468
 30
0.0
 10
128.571392836906
 20
152.2922689395754
 30
0.0
 10
129.8860421413442
 20
153.604506675583
 30
0.0
 10
131.0163787157314
 20
154.2664822097754
 30
0.0
 10
132.7044766171327
 20
155.2500576196734
 30
0.0
 10
133.6642808525008
 20
155.3847609420097
 30
0.0
 10
134.7284715499351
 20
155.3565111403944
 30
0.0
 10
134.7284715499351
 20
155.3565111403944
 30
0.0
 10
133.6877075172549
 20
152.0345756272799
 30
0.0
 10
133.6877075172549
 20
152.0345756272799
 30
0.0
 10
133.011434827367
 20
152.3184516825359
 30
0.0
 10
130.930940291334
 20
151.7768823149844
 30
0.0
 10
129.739280976855
 20
150.9162968950455
 30
0.0
 10
128.66613302525
 20
150.1454562717016
 30
0.0
 10
127.9192358313239
 20
149.4857200510519
 30
0.0
 10
127.0393578639405
 20
147.8282835196966
 30
0.0
 10
126.164647543194
 20
146.1699857139017
 30
0.0
 10
125.4742499524985
 20
143.5262176944419
 30
0.0
 10
124.2822461282437
 20
139.6959580071401
 30
0.0
 10
124.2822461282437
 20
139.6959580071401
 30
0.0
 10
120.5753209406769
 20
127.8027915271048
 30
0.0
 10
120.5753209406769
 20
127.8027915271048
 30
0.0
 10
120.5753209406769
 20
127.8027915271048
 30
0.0
 10
118.1964809388044
 20
127.8027915271048
 30
0.0
 10
118.1964809388044
 20
127.8027915271048
 30
0.0
 10
118.1964809388044
 20
127.8027915271048
 30
0.0
 10
126.377554584636
 20
154.8151140277308
 30
0.0
 10
126.377554584636
 20
154.8151140277308
 30
0.0
  0
HATCH
  5
3C2
330
3BD
100
AcDbEntity
  8
レイヤー 1
 62
   250
420
  2234388
100
AcDbHatch
 10
0.0
 20
0.0
 30
0.0
210
0.0
220
0.0
230
1.0
  2
SOLID
 70
     1
 71
     0
 91
        1
 92
        1
 93
        1
 72
     4
 94
        3
 73
     0
 74
     1
 95
       38
 96
       34
 40
0.0
 40
0.0
 40
0.0
 40
0.0
 40
1.0
 40
1.0
 40
1.0
 40
2.0
 40
2.0
 40
2.0
 40
3.0
 40
3.0
 40
3.0
 40
4.0
 40
4.0
 40
4.0
 40
5.0
 40
5.0
 40
5.0
 40
6.0
 40
6.0
 40
6.0
 40
7.0
 40
7.0
 40
7.0
 40
8.0
 40
8.0
 40
8.0
 40
9.0
 40
9.0
 40
9.0
 40
10.0
 40
10.0
 40
10.0
 40
11.0
 40
11.0
 40
11.0
 40
11.0
 10
126.377554584636
 20
154.8151140277308
 10
126.377554584636
 20
154.8151140277308
 10
128.8311532078563
 20
154.8151140277308
 10
128.8311532078563
 20
154.8151140277308
 10
128.8311532078563
 20
154.8151140277308
 10
127.7345785914971
 20
151.3062819612468
 10
127.7345785914971
 20
151.3062819612468
 10
128.571392836906
 20
152.2922689395754
 10
129.8860421413442
 20
153.604506675583
 10
131.0163787157314
 20
154.2664822097754
 10
132.7044766171327
 20
155.2500576196734
 10
133.6642808525008
 20
155.3847609420097
 10
134.7284715499351
 20
155.3565111403944
 10
134.7284715499351
 20
155.3565111403944
 10
133.6877075172549
 20
152.0345756272799
 10
133.6877075172549
 20
152.0345756272799
 10
133.011434827367
 20
152.3184516825359
 10
130.930940291334
 20
151.7768823149844
 10
129.739280976855
 20
150.9162968950455
 10
128.66613302525
 20
150.1454562717016
 10
127.9192358313239
 20
149.4857200510519
 10
127.0393578639405
 20
147.8282835196966
 10
126.164647543194
 20
146.1699857139017
 10
125.4742499524985
 20
143.5262176944419
 10
124.2822461282437
 20
139.6959580071401
 10
124.2822461282437
 20
139.6959580071401
 10
120.5753209406769
 20
127.8027915271048
 10
120.5753209406769
 20
127.8027915271048
 10
120.5753209406769
 20
127.8027915271048
 10
118.1964809388044
 20
127.8027915271048
 10
118.1964809388044
 20
127.8027915271048
 10
118.1964809388044
 20
127.8027915271048
 10
126.377554584636
 20
154.8151140277308
 10
126.377554584636
 20
154.8151140277308
 97
        0
 75
     2
 76
     1
 98
        0
  0
SPLINE
  5
3C3
330
3BD
100
AcDbEntity
  8
レイヤー 1
370
     0
100
AcDbSpline
210
0.0
220
0.0
230
1.0
 70
    11
 71
     3
 72
   104
 73
   100
 74
     0
 42
0.000000001
 43
0.0000000001
 40
0.0
 40
0.0
 40
0.0
 40
0.0
 40
1.0
 40
1.0
 40
1.0
 40
2.0
 40
2.0
 40
2.0
 40
3.0
 40
3.0
 40
3.0
 40
4.0
 40
4.0
 40
4.0
 40
5.0
 40
5.0
 40
5.0
 40
6.0
 40
6.0
 40
6.0
 40
7.0
 40
7.0
 40
7.0
 40
8.0
 40
8.0
 40
8.0
 40
9.0
 40
9.0
 40
9.0
 40
10.0
 40
10.0
 40
10.0
 40
11.0
 40
11.0
 40
11.0
 40
12.0
 40
12.0
 40
12.0
 40
13.0
 40
13.0
 40
13.0
 40
14.0
 40
14.0
 40
14.0
 40
15.0
 40
15.0
 40
15.0
 40
16.0
 40
16.0
 40
16.0
 40
17.0
 40
17.0
 40
17.0
 40
18.0
 40
18.0
 40
18.0
 40
19.0
 40
19.0
 40
19.0
 40
20.0
 40
20.0
 40
20.0
 40
21.0
 40
21.0
 40
21.0
 40
22.0
 40
22.0
 40
22.0
 40
23.0
 40
23.0
 40
23.0
 40
24.0
 40
24.0
 40
24.0
 40
25.0
 40
25.0
 40
25.0
 40
26.0
 40
26.0
 40
26.0
 40
27.0
 40
27.0
 40
27.0
 40
28.0
 40
28.0
 40
28.0
 40
29.0
 40
29.0
 40
29.0
 40
30.0
 40
30.0
 40
30.0
 40
31.0
 40
31.0
 40
31.0
 40
32.0
 40
32.0
 40
32.0
 40
33.0
 40
33.0
 40
33.0
 40
33.0
 10
139.8926730891197
 20
154.8294111834263
 30
0.0
 10
139.8926730891197
 20
154.8294111834263
 30
0.0
 10
142.0344903652445
 20
154.8294111834263
 30
0.0
 10
142.0344903652445
 20
154.8294111834263
 30
0.0
 10
142.0344903652445
 20
154.8294111834263
 30
0.0
 10
140.9516961399171
 20
151.3157559800812
 30
0.0
 10
140.9516961399171
 20
151.3157559800812
 30
0.0
 10
141.8928968473923
 20
152.7887075264977
 30
0.0
 10
142.7341897198865
 20
153.4484437471474
 30
0.0
 10
143.8552245303272
 20
154.2926649527359
 30
0.0
 10
144.9803934580775
 20
155.1296514530327
 30
0.0
 10
146.3139908001845
 20
155.3044901642492
 30
0.0
 10
147.241066606852
 20
155.3044901642492
 30
0.0
 10
148.3855280820469
 20
155.3044901642492
 30
0.0
 10
149.4969166187653
 20
155.0752189084569
 30
0.0
 10
150.0784491203092
 20
153.8172414621372
 30
0.0
 10
150.5228667310863
 20
152.833838307127
 30
0.0
 10
150.5414702589793
 20
152.7201500811143
 30
0.0
 10
150.4140016419347
 20
150.7765981809602
 30
0.0
 10
151.5818897818837
 20
152.7699317437168
 30
0.0
 10
152.4424752018226
 20
153.6256940267945
 30
0.0
 10
153.9038856707499
 20
154.4507949398263
 30
0.0
 10
155.4455669174378
 20
155.3044901642492
 30
0.0
 10
156.339225275853
 20
155.3659851592288
 30
0.0
 10
157.3748216618963
 20
155.2147453676543
 30
0.0
 10
158.911679771723
 20
154.9877134254046
 30
0.0
 10
159.8859534176746
 20
154.4390816074493
 30
0.0
 10
160.3965169054045
 20
152.7816450760939
 30
0.0
 10
160.9070803931344
 20
151.1219692311958
 30
0.0
 10
160.6328506116007
 20
150.2303779314354
 30
0.0
 10
159.9992971339115
 20
147.597634224801
 30
0.0
 10
159.7105979417943
 20
146.4014962832367
 30
0.0
 10
159.2947746424084
 20
144.9400858143094
 30
0.0
 10
158.7463150793409
 20
143.2092687007094
 30
0.0
 10
158.7463150793409
 20
143.2092687007094
 30
0.0
 10
153.9038856707499
 20
127.8027915271048
 30
0.0
 10
153.9038856707499
 20
127.8027915271048
 30
0.0
 10
153.9038856707499
 20
127.8027915271048
 30
0.0
 10
151.3882752878863
 20
127.8027915271048
 30
0.0
 10
151.3882752878863
 20
127.8027915271048
 30
0.0
 10
151.3882752878863
 20
127.8027915271048
 30
0.0
 10
155.6250565106276
 20
141.2751908193897
 30
0.0
 10
155.6250565106276
 20
141.2751908193897
 30
0.0
 10
156.5094131050963
 20
144.0936252951782
 30
0.0
 10
157.109893644309
 20
146.1506931664571
 30
0.0
 10
157.4220195011804
 20
147.4415712963654
 30
0.0
 10
157.8095929989511
 20
149.0530157726519
 30
0.0
 10
157.9656559273867
 20
149.5826995529385
 30
0.0
 10
157.7816877071116
 20
150.7529992613181
 30
0.0
 10
157.6111553680925
 20
151.8430281919372
 30
0.0
 10
157.0582171779396
 20
152.5547853887321
 30
0.0
 10
156.1170164704645
 20
152.5547853887321
 30
0.0
 10
155.1096698860365
 20
152.5547853887321
 30
0.0
 10
154.2962823053817
 20
152.4412694176073
 30
0.0
 10
153.156643967048
 20
151.2945686288697
 30
0.0
 10
152.0170056287143
 20
150.1476955852443
 30
0.0
 10
151.076149431015
 20
148.7930831468137
 30
0.0
 10
150.3337308641742
 20
147.2290087646991
 30
0.0
 10
149.5957909244188
 20
145.6683794803425
 30
0.0
 10
148.8530278478023
 20
143.6822806228776
 30
0.0
 10
148.0964843801539
 20
141.2751908193897
 30
0.0
 10
148.0964843801539
 20
141.2751908193897
 30
0.0
 10
143.8552245303272
 20
127.8027915271048
 30
0.0
 10
143.8552245303272
 20
127.8027915271048
 30
0.0
 10
143.8552245303272
 20
127.8027915271048
 30
0.0
 10
141.486030802177
 20
127.8027915271048
 30
0.0
 10
141.486030802177
 20
127.8027915271048
 30
0.0
 10
141.486030802177
 20
127.8027915271048
 30
0.0
 10
146.3329388378533
 20
143.2092687007094
 30
0.0
 10
146.3329388378533
 20
143.2092687007094
 30
0.0
 10
146.8483254624444
 20
144.8408669988801
 30
0.0
 10
147.2314203331297
 20
146.1837661049335
 30
0.0
 10
147.4867020769946
 20
147.224185627838
 30
0.0
 10
147.9169947869641
 20
149.0197705792876
 30
0.0
 10
148.0306830129768
 20
150.2400242051577
 30
0.0
 10
147.709255392159
 20
151.3157559800812
 30
0.0
 10
147.3874832615654
 20
152.3916600098926
 30
0.0
 10
146.8245542879144
 20
152.6683013598569
 30
0.0
 10
145.8840425999909
 20
152.6683013598569
 30
0.0
 10
145.0989048209514
 20
152.6683013598569
 30
0.0
 10
144.3282364524954
 20
152.3275811915945
 30
0.0
 10
143.4531816219731
 20
151.6538923250251
 30
0.0
 10
142.34627171234
 20
150.8074318058939
 30
0.0
 10
141.901854101563
 20
150.1097995099067
 30
0.0
 10
141.3578731655808
 20
149.289521733736
 30
0.0
 10
140.6299240093235
 20
148.192602607601
 30
0.0
 10
140.2850697237515
 20
147.455696197173
 30
0.0
 10
139.6652966370942
 20
145.8385673095858
 30
0.0
 10
139.0506911970739
 20
144.2214384219986
 30
0.0
 10
138.463991048893
 20
142.3252566160164
 30
0.0
 10
138.0571250036777
 20
141.0154304484394
 30
0.0
 10
138.0571250036777
 20
141.0154304484394
 30
0.0
 10
133.9009590684727
 20
127.8027915271048
 30
0.0
 10
133.9009590684727
 20
127.8027915271048
 30
0.0
 10
133.9009590684727
 20
127.8027915271048
 30
0.0
 10
131.4180771143097
 20
127.8027915271048
 30
0.0
 10
131.4180771143097
 20
127.8027915271048
 30
0.0
 10
131.4180771143097
 20
127.8027915271048
 30
0.0
 10
139.8926730891197
 20
154.8294111834263
 30
0.0
 10
139.8926730891197
 20
154.8294111834263
 30
0.0
  0
HATCH
  5
3C4
330
3BD
100
AcDbEntity
  8
レイヤー 1
 62
   250
420
  2234388
100
AcDbHatch
 10
0.0
 20
0.0
 30
0.0
210
0.0
220
0.0
230
1.0
  2
SOLID
 70
     1
 71
     0
 91
        1
 92
        1
 93
        1
 72
     4
 94
        3
 73
     0
 74
     1
 95
      104
 96
      100
 40
0.0
 40
0.0
 40
0.0
 40
0.0
 40
1.0
 40
1.0
 40
1.0
 40
2.0
 40
2.0
 40
2.0
 40
3.0
 40
3.0
 40
3.0
 40
4.0
 40
4.0
 40
4.0
 40
5.0
 40
5.0
 40
5.0
 40
6.0
 40
6.0
 40
6.0
 40
7.0
 40
7.0
 40
7.0
 40
8.0
 40
8.0
 40
8.0
 40
9.0
 40
9.0
 40
9.0
 40
10.0
 40
10.0
 40
10.0
 40
11.0
 40
11.0
 40
11.0
 40
12.0
 40
12.0
 40
12.0
 40
13.0
 40
13.0
 40
13.0
 40
14.0
 40
14.0
 40
14.0
 40
15.0
 40
15.0
 40
15.0
 40
16.0
 40
16.0
 40
16.0
 40
17.0
 40
17.0
 40
17.0
 40
18.0
 40
18.0
 40
18.0
 40
19.0
 40
19.0
 40
19.0
 40
20.0
 40
20.0
 40
20.0
 40
21.0
 40
21.0
 40
21.0
 40
22.0
 40
22.0
 40
22.0
 40
23.0
 40
23.0
 40
23.0
 40
24.0
 40
24.0
 40
24.0
 40
25.0
 40
25.0
 40
25.0
 40
26.0
 40
26.0
 40
26.0
 40
27.0
 40
27.0
 40
27.0
 40
28.0
 40
28.0
 40
28.0
 40
29.0
 40
29.0
 40
29.0
 40
30.0
 40
30.0
 40
30.0
 40
31.0
 40
31.0
 40
31.0
 40
32.0
 40
32.0
 40
32.0
 40
33.0
 40
33.0
 40
33.0
 40
33.0
 10
139.8926730891197
 20
154.8294111834263
 10
139.8926730891197
 20
154.8294111834263
 10
142.0344903652445
 20
154.8294111834263
 10
142.0344903652445
 20
154.8294111834263
 10
142.0344903652445
 20
154.8294111834263
 10
140.9516961399171
 20
151.3157559800812
 10
140.9516961399171
 20
151.3157559800812
 10
141.8928968473923
 20
152.7887075264977
 10
142.7341897198865
 20
153.4484437471474
 10
143.8552245303272
 20
154.2926649527359
 10
144.9803934580775
 20
155.1296514530327
 10
146.3139908001845
 20
155.3044901642492
 10
147.241066606852
 20
155.3044901642492
 10
148.3855280820469
 20
155.3044901642492
 10
149.4969166187653
 20
155.0752189084569
 10
150.0784491203092
 20
153.8172414621372
 10
150.5228667310863
 20
152.833838307127
 10
150.5414702589793
 20
152.7201500811143
 10
150.4140016419347
 20
150.7765981809602
 10
151.5818897818837
 20
152.7699317437168
 10
152.4424752018226
 20
153.6256940267945
 10
153.9038856707499
 20
154.4507949398263
 10
155.4455669174378
 20
155.3044901642492
 10
156.339225275853
 20
155.3659851592288
 10
157.3748216618963
 20
155.2147453676543
 10
158.911679771723
 20
154.9877134254046
 10
159.8859534176746
 20
154.4390816074493
 10
160.3965169054045
 20
152.7816450760939
 10
160.9070803931344
 20
151.1219692311958
 10
160.6328506116007
 20
150.2303779314354
 10
159.9992971339115
 20
147.597634224801
 10
159.7105979417943
 20
146.4014962832367
 10
159.2947746424084
 20
144.9400858143094
 10
158.7463150793409
 20
143.2092687007094
 10
158.7463150793409
 20
143.2092687007094
 10
153.9038856707499
 20
127.8027915271048
 10
153.9038856707499
 20
127.8027915271048
 10
153.9038856707499
 20
127.8027915271048
 10
151.3882752878863
 20
127.8027915271048
 10
151.3882752878863
 20
127.8027915271048
 10
151.3882752878863
 20
127.8027915271048
 10
155.6250565106276
 20
141.2751908193897
 10
155.6250565106276
 20
141.2751908193897
 10
156.5094131050963
 20
144.0936252951782
 10
157.109893644309
 20
146.1506931664571
 10
157.4220195011804
 20
147.4415712963654
 10
157.8095929989511
 20
149.0530157726519
 10
157.9656559273867
 20
149.5826995529385
 10
157.7816877071116
 20
150.7529992613181
 10
157.6111553680925
 20
151.8430281919372
 10
157.0582171779396
 20
152.5547853887321
 10
156.1170164704645
 20
152.5547853887321
 10
155.1096698860365
 20
152.5547853887321
 10
154.2962823053817
 20
152.4412694176073
 10
153.156643967048
 20
151.2945686288697
 10
152.0170056287143
 20
150.1476955852443
 10
151.076149431015
 20
148.7930831468137
 10
150.3337308641742
 20
147.2290087646991
 10
149.5957909244188
 20
145.6683794803425
 10
148.8530278478023
 20
143.6822806228776
 10
148.0964843801539
 20
141.2751908193897
 10
148.0964843801539
 20
141.2751908193897
 10
143.8552245303272
 20
127.8027915271048
 10
143.8552245303272
 20
127.8027915271048
 10
143.8552245303272
 20
127.8027915271048
 10
141.486030802177
 20
127.8027915271048
 10
141.486030802177
 20
127.8027915271048
 10
141.486030802177
 20
127.8027915271048
 10
146.3329388378533
 20
143.2092687007094
 10
146.3329388378533
 20
143.2092687007094
 10
146.8483254624444
 20
144.8408669988801
 10
147.2314203331297
 20
146.1837661049335
 10
147.4867020769946
 20
147.224185627838
 10
147.9169947869641
 20
149.0197705792876
 10
148.0306830129768
 20
150.2400242051577
 10
147.709255392159
 20
151.3157559800812
 10
147.3874832615654
 20
152.3916600098926
 10
146.8245542879144
 20
152.6683013598569
 10
145.8840425999909
 20
152.6683013598569
 10
145.0989048209514
 20
152.6683013598569
 10
144.3282364524954
 20
152.3275811915945
 10
143.4531816219731
 20
151.6538923250251
 10
142.34627171234
 20
150.8074318058939
 10
141.901854101563
 20
150.1097995099067
 10
141.3578731655808
 20
149.289521733736
 10
140.6299240093235
 20
148.192602607601
 10
140.2850697237515
 20
147.455696197173
 10
139.6652966370942
 20
145.8385673095858
 10
139.0506911970739
 20
144.2214384219986
 10
138.463991048893
 20
142.3252566160164
 10
138.0571250036777
 20
141.0154304484394
 10
138.0571250036777
 20
141.0154304484394
 10
133.9009590684727
 20
127.8027915271048
 10
133.9009590684727
 20
127.8027915271048
 10
133.9009590684727
 20
127.8027915271048
 10
131.4180771143097
 20
127.8027915271048
 10
131.4180771143097
 20
127.8027915271048
 10
131.4180771143097
 20
127.8027915271048
 10
139.8926730891197
 20
154.8294111834263
 10
139.8926730891197
 20
154.8294111834263
 97
        0
 75
     2
 76
     1
 98
        0
  0
SPLINE
  5
3C5
330
3BD
100
AcDbEntity
  8
レイヤー 1
370
     0
100
AcDbSpline
210
0.0
220
0.0
230
1.0
 70
    11
 71
     3
 72
    29
 73
    25
 74
     0
 42
0.000000001
 43
0.0000000001
 40
0.0
 40
0.0
 40
0.0
 40
0.0
 40
1.0
 40
1.0
 40
1.0
 40
2.0
 40
2.0
 40
2.0
 40
3.0
 40
3.0
 40
3.0
 40
4.0
 40
4.0
 40
4.0
 40
5.0
 40
5.0
 40
5.0
 40
6.0
 40
6.0
 40
6.0
 40
7.0
 40
7.0
 40
7.0
 40
8.0
 40
8.0
 40
8.0
 40
8.0
 10
101.6420971922469
 20
132.8388354296931
 30
0.0
 10
101.630039350094
 20
134.7164137077823
 30
0.0
 10
102.2236296937908
 20
138.0598810818841
 30
0.0
 10
103.7487744712405
 20
142.5378191476827
 30
0.0
 10
105.819967243327
 20
148.5896501242061
 30
0.0
 10
107.0602024361932
 20
150.8074318058939
 30
0.0
 10
108.1522984254671
 20
151.8833358357054
 30
0.0
 10
109.741177511439
 20
153.4532668840085
 30
0.0
 10
111.8740375333931
 20
153.5290590346837
 30
0.0
 10
112.5075910110823
 20
153.4532668840085
 30
0.0
 10
113.4012493694975
 20
153.3490526768302
 30
0.0
 10
114.6683563248758
 20
152.7580461564518
 30
0.0
 10
114.7493161221879
 20
150.7838328862519
 30
0.0
 10
114.8106388622796
 20
149.0909118479895
 30
0.0
 10
114.3186789024427
 20
145.9191825971221
 30
0.0
 10
112.6164561002338
 20
140.9489400617108
 30
0.0
 10
110.6444821435766
 20
135.1746117095912
 30
0.0
 10
109.4669477299053
 20
132.8960240524753
 30
0.0
 10
108.5212683953448
 20
131.9072809959403
 30
0.0
 10
106.7346406980658
 20
130.0538184021569
 30
0.0
 10
104.8222669326213
 20
130.2336525051225
 30
0.0
 10
104.5408024457958
 20
130.2336525051225
 30
0.0
 10
104.1721769856939
 20
130.2336525051225
 30
0.0
 10
101.6465758193322
 20
130.6305277668397
 30
0.0
 10
101.6420971922469
 20
132.8388354296931
 30
0.0
  0
SPLINE
  5
3C6
330
3BD
100
AcDbEntity
  8
レイヤー 1
370
     0
100
AcDbSpline
210
0.0
220
0.0
230
1.0
 70
    11
 71
     3
 72
    32
 73
    28
 74
     0
 42
0.000000001
 43
0.0000000001
 40
0.0
 40
0.0
 40
0.0
 40
0.0
 40
1.0
 40
1.0
 40
1.0
 40
2.0
 40
2.0
 40
2.0
 40
3.0
 40
3.0
 40
3.0
 40
4.0
 40
4.0
 40
4.0
 40
5.0
 40
5.0
 40
5.0
 40
6.0
 40
6.0
 40
6.0
 40
7.0
 40
7.0
 40
7.0
 40
8.0
 40
8.0
 40
8.0
 40
9.0
 40
9.0
 40
9.0
 40
9.0
 10
106.2595617172429
 20
153.4105476718098
 30
0.0
 10
104.8222669326213
 20
151.5474388043041
 30
0.0
 10
103.7177685914188
 20
149.8758773721411
 30
0.0
 10
101.9232171692965
 20
144.6141795664062
 30
0.0
 10
100.2754269116635
 20
139.7999999594306
 30
0.0
 10
99.22777268346732
 20
136.3052927937542
 30
0.0
 10
99.06964269637689
 20
132.039572749846
 30
0.0
 10
98.94665270641765
 20
128.8673267343149
 30
0.0
 10
100.8807305877373
 20
127.8027915271048
 30
0.0
 10
103.7129454545577
 20
127.8027915271048
 30
0.0
 10
104.9352661390825
 20
127.8027915271048
 30
0.0
 10
108.0151835347002
 20
127.8827177950895
 30
0.0
 10
110.2045431598849
 20
130.5926316915021
 30
0.0
 10
111.7417457794874
 20
132.4984597712065
 30
0.0
 10
113.155269389579
 20
134.475256864725
 30
0.0
 10
115.0562743324223
 20
140.9489400617108
 30
0.0
 10
116.6361961642235
 20
146.3680788349845
 30
0.0
 10
117.7282921534974
 20
149.8639917848761
 30
0.0
 10
117.6480213757369
 20
151.8595646611754
 30
0.0
 10
117.6480213757369
 20
151.8595646611754
 30
0.0
 10
117.6480213757369
 20
151.8595646611754
 30
0.0
 10
117.6480213757369
 20
151.8595646611754
 30
0.0
 10
117.13229024137
 20
155.18150017429
 30
0.0
 10
114.7162431837115
 20
155.886194920681
 30
0.0
 10
113.3351034925446
 20
155.886194920681
 30
0.0
 10
111.9829026225447
 20
155.886194920681
 30
0.0
 10
108.3414342923792
 20
156.1251124501957
 30
0.0
 10
106.2595617172429
 20
153.4105476718098
 30
0.0
  0
HATCH
  5
3C7
330
3BD
100
AcDbEntity
  8
レイヤー 1
 62
   250
420
  2234388
100
AcDbHatch
 10
0.0
 20
0.0
 30
0.0
210
0.0
220
0.0
230
1.0
  2
SOLID
 70
     1
 71
     0
 91
        2
 92
        1
 93
        1
 72
     4
 94
        3
 73
     0
 74
     1
 95
       29
 96
       25
 40
0.0
 40
0.0
 40
0.0
 40
0.0
 40
1.0
 40
1.0
 40
1.0
 40
2.0
 40
2.0
 40
2.0
 40
3.0
 40
3.0
 40
3.0
 40
4.0
 40
4.0
 40
4.0
 40
5.0
 40
5.0
 40
5.0
 40
6.0
 40
6.0
 40
6.0
 40
7.0
 40
7.0
 40
7.0
 40
8.0
 40
8.0
 40
8.0
 40
8.0
 10
101.6420971922469
 20
132.8388354296931
 10
101.630039350094
 20
134.7164137077823
 10
102.2236296937908
 20
138.0598810818841
 10
103.7487744712405
 20
142.5378191476827
 10
105.819967243327
 20
148.5896501242061
 10
107.0602024361932
 20
150.8074318058939
 10
108.1522984254671
 20
151.8833358357054
 10
109.741177511439
 20
153.4532668840085
 10
111.8740375333931
 20
153.5290590346837
 10
112.5075910110823
 20
153.4532668840085
 10
113.4012493694975
 20
153.3490526768302
 10
114.6683563248758
 20
152.7580461564518
 10
114.7493161221879
 20
150.7838328862519
 10
114.8106388622796
 20
149.0909118479895
 10
114.3186789024427
 20
145.9191825971221
 10
112.6164561002338
 20
140.9489400617108
 10
110.6444821435766
 20
135.1746117095912
 10
109.4669477299053
 20
132.8960240524753
 10
108.5212683953448
 20
131.9072809959403
 10
106.7346406980658
 20
130.0538184021569
 10
104.8222669326213
 20
130.2336525051225
 10
104.5408024457958
 20
130.2336525051225
 10
104.1721769856939
 20
130.2336525051225
 10
101.6465758193322
 20
130.6305277668397
 10
101.6420971922469
 20
132.8388354296931
 97
        0
 92
        1
 93
        1
 72
     4
 94
        3
 73
     0
 74
     1
 95
       32
 96
       28
 40
0.0
 40
0.0
 40
0.0
 40
0.0
 40
1.0
 40
1.0
 40
1.0
 40
2.0
 40
2.0
 40
2.0
 40
3.0
 40
3.0
 40
3.0
 40
4.0
 40
4.0
 40
4.0
 40
5.0
 40
5.0
 40
5.0
 40
6.0
 40
6.0
 40
6.0
 40
7.0
 40
7.0
 40
7.0
 40
8.0
 40
8.0
 40
8.0
 40
9.0
 40
9.0
 40
9.0
 40
9.0
 10
106.2595617172429
 20
153.4105476718098
 10
104.8222669326213
 20
151.5474388043041
 10
103.7177685914188
 20
149.8758773721411
 10
101.9232171692965
 20
144.6141795664062
 10
100.2754269116635
 20
139.7999999594306
 10
99.22777268346732
 20
136.3052927937542
 10
99.06964269637689
 20
132.039572749846
 10
98.94665270641765
 20
128.8673267343149
 10
100.8807305877373
 20
127.8027915271048
 10
103.7129454545577
 20
127.8027915271048
 10
104.9352661390825
 20
127.8027915271048
 10
108.0151835347002
 20
127.8827177950895
 10
110.2045431598849
 20
130.5926316915021
 10
111.7417457794874
 20
132.4984597712065
 10
113.155269389579
 20
134.475256864725
 10
115.0562743324223
 20
140.9489400617108
 10
116.6361961642235
 20
146.3680788349845
 10
117.7282921534974
 20
149.8639917848761
 10
117.6480213757369
 20
151.8595646611754
 10
117.6480213757369
 20
151.8595646611754
 10
117.6480213757369
 20
151.8595646611754
 10
117.6480213757369
 20
151.8595646611754
 10
117.13229024137
 20
155.18150017429
 10
114.7162431837115
 20
155.886194920681
 10
113.3351034925446
 20
155.886194920681
 10
111.9829026225447
 20
155.886194920681
 10
108.3414342923792
 20
156.1251124501957
 10
106.2595617172429
 20
153.4105476718098
 97
        0
 75
     2
 76
     1
 98
        0
  0
ENDBLK
  5
3C8
330
3BD
100
AcDbEntity
  8
0
100
AcDbBlockEnd
  0
BLOCK
  5
11F1
330
11F0
100
AcDbEntity
  8
0
100
AcDbBlockBegin
  2
BLOCK_2
 70
     0
 10
0.0
 20
0.0
 30
0.0
  3
BLOCK_2
  1
BLOCK_2
  0
ENDBLK
  5
11F2
330
11F0
100
AcDbEntity
  8
0
100
AcDbBlockEnd
  0
BLOCK
  5
38B7
330
38B6
100
AcDbEntity
  8
0
100
AcDbBlockBegin
  2
mobile_latù
 70
     0
 10
0.0
 20
0.0
 30
0.0
  3
mobile_latù
  1
mobile_latù
  0
ENDBLK
  5
38B8
330
38B6
100
AcDbEntity
  8
0
100
AcDbBlockEnd
  0
BLOCK
  5
436C
330
436B
100
AcDbEntity
  8
0
100
AcDbBlockBegin
  2
.TD_SECTION_1
 70
     0
 10
225818116096.0
 20
0.0
 30
0.0
  3
.TD_SECTION_1
  1
.TD_SECTION_1
  0
ENDBLK
  5
436D
330
436B
100
AcDbEntity
  8
0
100
AcDbBlockEnd
  0
BLOCK
  5
4370
330
436F
100
AcDbEntity
  8
0
100
AcDbBlockBegin
  2
.TD_SECTION_2
 70
     0
 10
225818181632.0
 20
0.0
 30
0.0
  3
.TD_SECTION_2
  1
.TD_SECTION_2
  0
ENDBLK
  5
4371
330
436F
100
AcDbEntity
  8
0
100
AcDbBlockEnd
  0
BLOCK
  5
7321
330
7320
100
AcDbEntity
  8
0
100
AcDbBlockBegin
  2
*D10
 70
     1
 10
0.0
 20
0.0
 30
0.0
  3
*D10
  1

  0
LINE
  5
7323
330
7320
100
AcDbEntity
  8
Dim
 62
     0
370
    -2
100
AcDbLine
 10
-1724.780296687867
 20
2218.512997544414
 30
0.0
 11
-1724.780296687867
 21
2305.05256454858
 31
0.0
  0
LINE
  5
7324
330
7320
100
AcDbEntity
  8
Dim
 62
     0
370
    -2
100
AcDbLine
 10
-1624.780296687867
 20
2217.512997544415
 30
0.0
 11
-1624.780296687867
 21
2305.05256454858
 31
0.0
  0
LINE
  5
7325
330
7320
100
AcDbEntity
  8
Dim
 62
     0
370
    -2
100
AcDbLine
 10
-1714.780907039429
 20
2305.05256454858
 30
0.0
 11
-1634.779686336304
 21
2305.05256454858
 31
0.0
  0
INSERT
  5
7326
330
7320
100
AcDbEntity
  8
Dim
 62
     0
370
    -2
100
AcDbBlockReference
  2
_DOT
 10
-1724.780296687867
 20
2305.05256454858
 30
0.0
 41
9.999389648437498
 42
9.999389648437498
 43
9.999389648437498
 50
180.0
  0
INSERT
  5
7327
330
7320
100
AcDbEntity
  8
Dim
 62
     0
370
    -2
100
AcDbBlockReference
  2
_DOT
 10
-1624.780296687867
 20
2305.05256454858
 30
0.0
 41
9.999389648437498
 42
9.999389648437498
 43
9.999389648437498
  0
MTEXT
  5
7328
330
7320
100
AcDbEntity
  8
Dim
 62
     0
100
AcDbMText
 10
-1674.780296687867
 20
2327.26887314233
 30
0.0
 40
24.4326171875
 41
0.0
 46
0.0
 71
     5
 72
     1
  1
\A1;100
  7
ＭＳ ゴシック
 73
     1
 44
1.0
  0
POINT
  5
7329
330
7320
100
AcDbEntity
  8
Defpoints
 62
     0
100
AcDbPoint
 10
-1724.780296687867
 20
2193.512997544414
 30
0.0
  0
POINT
  5
732A
330
7320
100
AcDbEntity
  8
Defpoints
 62
     0
100
AcDbPoint
 10
-1624.780296687867
 20
2192.512997544415
 30
0.0
  0
POINT
  5
732B
330
7320
100
AcDbEntity
  8
Defpoints
 62
     0
100
AcDbPoint
 10
-1624.780296687867
 20
2305.05256454858
 30
0.0
  0
ENDBLK
  5
7322
330
7320
100
AcDbEntity
  8
0
100
AcDbBlockEnd
  0
BLOCK
  5
732E
330
732D
100
AcDbEntity
  8
0
100
AcDbBlockBegin
  2
*D11
 70
     1
 10
0.0
 20
0.0
 30
0.0
  3
*D11
  1

  0
LINE
  5
7330
330
732D
100
AcDbEntity
  8
Dim
 62
     0
370
    -2
100
AcDbLine
 10
-1624.780296687867
 20
2218.512997544414
 30
0.0
 11
-1624.780296687867
 21
2305.05256454858
 31
0.0
  0
LINE
  5
7331
330
732D
100
AcDbEntity
  8
Dim
 62
     0
370
    -2
100
AcDbLine
 10
-1524.780296687867
 20
2218.512997544414
 30
0.0
 11
-1524.780296687867
 21
2305.05256454858
 31
0.0
  0
LINE
  5
7332
330
732D
100
AcDbEntity
  8
Dim
 62
     0
370
    -2
100
AcDbLine
 10
-1614.780907039429
 20
2305.05256454858
 30
0.0
 11
-1534.779686336304
 21
2305.05256454858
 31
0.0
  0
INSERT
  5
7333
330
732D
100
AcDbEntity
  8
Dim
 62
     0
370
    -2
100
AcDbBlockReference
  2
_DOT
 10
-1624.780296687867
 20
2305.05256454858
 30
0.0
 41
9.999389648437498
 42
9.999389648437498
 43
9.999389648437498
 50
180.0
  0
INSERT
  5
7334
330
732D
100
AcDbEntity
  8
Dim
 62
     0
370
    -2
100
AcDbBlockReference
  2
_DOT
 10
-1524.780296687867
 20
2305.05256454858
 30
0.0
 41
9.999389648437498
 42
9.999389648437498
 43
9.999389648437498
  0
MTEXT
  5
7335
330
732D
100
AcDbEntity
  8
Dim
 62
     0
100
AcDbMText
 10
-1574.780296687867
 20
2327.26887314233
 30
0.0
 40
24.4326171875
 41
0.0
 46
0.0
 71
     5
 72
     1
  1
\A1;100
  7
ＭＳ ゴシック
 73
     1
 44
1.0
  0
POINT
  5
7336
330
732D
100
AcDbEntity
  8
Defpoints
 62
     0
100
AcDbPoint
 10
-1624.780296687867
 20
2193.512997544414
 30
0.0
  0
POINT
  5
7337
330
732D
100
AcDbEntity
  8
Defpoints
 62
     0
100
AcDbPoint
 10
-1524.780296687867
 20
2193.512997544414
 30
0.0
  0
POINT
  5
7338
330
732D
100
AcDbEntity
  8
Defpoints
 62
     0
100
AcDbPoint
 10
-1524.780296687867
 20
2305.05256454858
 30
0.0
  0
ENDBLK
  5
732F
330
732D
100
AcDbEntity
  8
0
100
AcDbBlockEnd
  0
BLOCK
  5
7355
330
7354
100
AcDbEntity
  8
0
100
AcDbBlockBegin
  2
*D12
 70
     1
 10
0.0
 20
0.0
 30
0.0
  3
*D12
  1

  0
LINE
  5
7357
330
7354
100
AcDbEntity
  8
Dim
 62
     0
370
    -2
100
AcDbLine
 10
-2024.780296687867
 20
2235.012997544415
 30
0.0
 11
-2086.794369423116
 21
2235.012997544415
 31
0.0
  0
LINE
  5
7358
330
7354
100
AcDbEntity
  8
Dim
 62
     0
370
    -2
100
AcDbLine
 10
-1944.780296687867
 20
2090.012997544413
 30
0.0
 11
-2086.794369423116
 21
2090.012997544413
 31
0.0
  0
LINE
  5
7359
330
7354
100
AcDbEntity
  8
Dim
 62
     0
370
    -2
100
AcDbLine
 10
-2086.794369423116
 20
2225.013607895978
 30
0.0
 11
-2086.794369423116
 21
2100.01238719285
 31
0.0
  0
INSERT
  5
735A
330
7354
100
AcDbEntity
  8
Dim
 62
     0
370
    -2
100
AcDbBlockReference
  2
_DOT
 10
-2086.794369423116
 20
2235.012997544415
 30
0.0
 41
9.999389648437498
 42
9.999389648437498
 43
9.999389648437498
 50
90.00000000000018
  0
INSERT
  5
735B
330
7354
100
AcDbEntity
  8
Dim
 62
     0
370
    -2
100
AcDbBlockReference
  2
_DOT
 10
-2086.794369423116
 20
2090.012997544413
 30
0.0
 41
9.999389648437498
 42
9.999389648437498
 43
9.999389648437498
 50
270.0000000000002
  0
MTEXT
  5
735C
330
7354
100
AcDbEntity
  8
Dim
 62
     0
100
AcDbMText
 10
-2109.010678016866
 20
2162.512997544414
 30
0.0
 40
24.4326171875
 41
0.0
 46
0.0
 71
     5
 72
     1
  1
\A1;145
  7
ＭＳ ゴシック
 11
-3.136188626803151E-15
 21
1.0
 31
0.0
 73
     1
 44
1.0
  0
POINT
  5
735D
330
7354
100
AcDbEntity
  8
Defpoints
 62
     0
100
AcDbPoint
 10
-1999.780296687867
 20
2235.012997544415
 30
0.0
  0
POINT
  5
735E
330
7354
100
AcDbEntity
  8
Defpoints
 62
     0
100
AcDbPoint
 10
-1919.780296687867
 20
2090.012997544413
 30
0.0
  0
POINT
  5
735F
330
7354
100
AcDbEntity
  8
Defpoints
 62
     0
100
AcDbPoint
 10
-2086.794369423116
 20
2090.012997544413
 30
0.0
  0
ENDBLK
  5
7356
330
7354
100
AcDbEntity
  8
0
100
AcDbBlockEnd
  0
BLOCK
  5
7362
330
7361
100
AcDbEntity
  8
0
100
AcDbBlockBegin
  2
*D13
 70
     1
 10
0.0
 20
0.0
 30
0.0
  3
*D13
  1

  0
LINE
  5
7364
330
7361
100
AcDbEntity
  8
Dim
 62
     0
370
    -2
100
AcDbLine
 10
-1944.780296687867
 20
2090.012997544413
 30
0.0
 11
-2086.794369423116
 21
2090.012997544413
 31
0.0
  0
LINE
  5
7365
330
7361
100
AcDbEntity
  8
Dim
 62
     0
370
    -2
100
AcDbLine
 10
-1944.925832145627
 20
1780.012997544414
 30
0.0
 11
-2086.794369423115
 21
1780.012997544414
 31
0.0
  0
LINE
  5
7366
330
7361
100
AcDbEntity
  8
Dim
 62
     0
370
    -2
100
AcDbLine
 10
-2086.794369423116
 20
2080.013607895975
 30
0.0
 11
-2086.794369423115
 21
1790.012387192851
 31
0.0
  0
INSERT
  5
7367
330
7361
100
AcDbEntity
  8
Dim
 62
     0
370
    -2
100
AcDbBlockReference
  2
_DOT
 10
-2086.794369423116
 20
2090.012997544413
 30
0.0
 41
9.999389648437498
 42
9.999389648437498
 43
9.999389648437498
 50
90.00000000000009
  0
INSERT
  5
7368
330
7361
100
AcDbEntity
  8
Dim
 62
     0
370
    -2
100
AcDbBlockReference
  2
_DOT
 10
-2086.794369423115
 20
1780.012997544414
 30
0.0
 41
9.999389648437498
 42
9.999389648437498
 43
9.999389648437498
 50
270.0000000000001
  0
MTEXT
  5
7369
330
7361
100
AcDbEntity
  8
Dim
 62
     0
100
AcDbMText
 10
-2109.010678016865
 20
1935.012997544413
 30
0.0
 40
24.4326171875
 41
0.0
 46
0.0
 71
     5
 72
     1
  1
\A1;310
  7
ＭＳ ゴシック
 11
-1.466926938343437E-15
 21
1.0
 31
0.0
 73
     1
 44
1.0
  0
POINT
  5
736A
330
7361
100
AcDbEntity
  8
Defpoints
 62
     0
100
AcDbPoint
 10
-1919.780296687867
 20
2090.012997544413
 30
0.0
  0
POINT
  5
736B
330
7361
100
AcDbEntity
  8
Defpoints
 62
     0
100
AcDbPoint
 10
-1919.925832145627
 20
1780.012997544414
 30
0.0
  0
POINT
  5
736C
330
7361
100
AcDbEntity
  8
Defpoints
 62
     0
100
AcDbPoint
 10
-2086.794369423115
 20
1780.012997544414
 30
0.0
  0
ENDBLK
  5
7363
330
7361
100
AcDbEntity
  8
0
100
AcDbBlockEnd
  0
BLOCK
  5
737D
330
737C
100
AcDbEntity
  8
0
100
AcDbBlockBegin
  2
*D14
 70
     1
 10
0.0
 20
0.0
 30
0.0
  3
*D14
  1

  0
LINE
  5
737F
330
737C
100
AcDbEntity
  8
Dim
 62
     0
370
    -2
100
AcDbLine
 10
-1999.780296687867
 20
1755.294584974484
 30
0.0
 11
-1999.780296687867
 21
1658.019181677169
 31
0.0
  0
LINE
  5
7380
330
737C
100
AcDbEntity
  8
Dim
 62
     0
370
    -2
100
AcDbLine
 10
-1919.780296687867
 20
1755.294584974484
 30
0.0
 11
-1919.780296687867
 21
1658.019181677169
 31
0.0
  0
LINE
  5
7381
330
737C
100
AcDbEntity
  8
Dim
 62
     0
370
    -2
100
AcDbLine
 10
-1989.780907039429
 20
1658.019181677169
 30
0.0
 11
-1929.779686336304
 21
1658.019181677169
 31
0.0
  0
INSERT
  5
7382
330
737C
100
AcDbEntity
  8
Dim
 62
     0
370
    -2
100
AcDbBlockReference
  2
_DOT
 10
-1999.780296687867
 20
1658.019181677169
 30
0.0
 41
9.999389648437498
 42
9.999389648437498
 43
9.999389648437498
 50
180.0
  0
INSERT
  5
7383
330
737C
100
AcDbEntity
  8
Dim
 62
     0
370
    -2
100
AcDbBlockReference
  2
_DOT
 10
-1919.780296687867
 20
1658.019181677169
 30
0.0
 41
9.999389648437498
 42
9.999389648437498
 43
9.999389648437498
  0
MTEXT
  5
7384
330
737C
100
AcDbEntity
  8
Dim
 62
     0
100
AcDbMText
 10
-1959.780296687867
 20
1680.235490270919
 30
0.0
 40
24.4326171875
 41
0.0
 46
0.0
 71
     5
 72
     1
  1
\A1;80
  7
ＭＳ ゴシック
 73
     1
 44
1.0
  0
POINT
  5
7385
330
737C
100
AcDbEntity
  8
Defpoints
 62
     0
100
AcDbPoint
 10
-1999.780296687867
 20
1780.294584974484
 30
0.0
  0
POINT
  5
7386
330
737C
100
AcDbEntity
  8
Defpoints
 62
     0
100
AcDbPoint
 10
-1919.780296687867
 20
1780.294584974484
 30
0.0
  0
POINT
  5
7387
330
737C
100
AcDbEntity
  8
Defpoints
 62
     0
100
AcDbPoint
 10
-1919.780296687867
 20
1658.019181677169
 30
0.0
  0
ENDBLK
  5
737E
330
737C
100
AcDbEntity
  8
0
100
AcDbBlockEnd
  0
BLOCK
  5
738A
330
7389
100
AcDbEntity
  8
0
100
AcDbBlockBegin
  2
*D15
 70
     1
 10
0.0
 20
0.0
 30
0.0
  3
*D15
  1

  0
LINE
  5
738C
330
7389
100
AcDbEntity
  8
Dim
 62
     0
370
    -2
100
AcDbLine
 10
-1919.780296687867
 20
1755.294584974484
 30
0.0
 11
-1919.780296687867
 21
1658.019181677169
 31
0.0
  0
LINE
  5
738D
330
7389
100
AcDbEntity
  8
Dim
 62
     0
370
    -2
100
AcDbLine
 10
-1329.780296687867
 20
1755.294584974484
 30
0.0
 11
-1329.780296687867
 21
1658.019181677169
 31
0.0
  0
LINE
  5
738E
330
7389
100
AcDbEntity
  8
Dim
 62
     0
370
    -2
100
AcDbLine
 10
-1909.780907039429
 20
1658.019181677169
 30
0.0
 11
-1339.779686336304
 21
1658.019181677169
 31
0.0
  0
INSERT
  5
738F
330
7389
100
AcDbEntity
  8
Dim
 62
     0
370
    -2
100
AcDbBlockReference
  2
_DOT
 10
-1919.780296687867
 20
1658.019181677169
 30
0.0
 41
9.999389648437498
 42
9.999389648437498
 43
9.999389648437498
 50
180.0
  0
INSERT
  5
7390
330
7389
100
AcDbEntity
  8
Dim
 62
     0
370
    -2
100
AcDbBlockReference
  2
_DOT
 10
-1329.780296687867
 20
1658.019181677169
 30
0.0
 41
9.999389648437498
 42
9.999389648437498
 43
9.999389648437498
  0
MTEXT
  5
7391
330
7389
100
AcDbEntity
  8
Dim
 62
     0
100
AcDbMText
 10
-1624.780296687867
 20
1680.235490270919
 30
0.0
 40
24.4326171875
 41
0.0
 46
0.0
 71
     5
 72
     1
  1
\A1;590
  7
ＭＳ ゴシック
 73
     1
 44
1.0
  0
POINT
  5
7392
330
7389
100
AcDbEntity
  8
Defpoints
 62
     0
100
AcDbPoint
 10
-1919.780296687867
 20
1780.294584974484
 30
0.0
  0
POINT
  5
7393
330
7389
100
AcDbEntity
  8
Defpoints
 62
     0
100
AcDbPoint
 10
-1329.780296687867
 20
1780.294584974484
 30
0.0
  0
POINT
  5
7394
330
7389
100
AcDbEntity
  8
Defpoints
 62
     0
100
AcDbPoint
 10
-1329.780296687867
 20
1658.019181677169
 30
0.0
  0
ENDBLK
  5
738B
330
7389
100
AcDbEntity
  8
0
100
AcDbBlockEnd
  0
BLOCK
  5
7397
330
7396
100
AcDbEntity
  8
0
100
AcDbBlockBegin
  2
*D16
 70
     1
 10
0.0
 20
0.0
 30
0.0
  3
*D16
  1

  0
LINE
  5
7399
330
7396
100
AcDbEntity
  8
Dim
 62
     0
370
    -2
100
AcDbLine
 10
-1329.780296687867
 20
1755.294584974484
 30
0.0
 11
-1329.780296687867
 21
1658.019181677169
 31
0.0
  0
LINE
  5
739A
330
7396
100
AcDbEntity
  8
Dim
 62
     0
370
    -2
100
AcDbLine
 10
-1249.780296687867
 20
1755.294584974484
 30
0.0
 11
-1249.780296687867
 21
1658.019181677169
 31
0.0
  0
LINE
  5
739B
330
7396
100
AcDbEntity
  8
Dim
 62
     0
370
    -2
100
AcDbLine
 10
-1319.780907039429
 20
1658.019181677169
 30
0.0
 11
-1259.779686336304
 21
1658.019181677169
 31
0.0
  0
INSERT
  5
739C
330
7396
100
AcDbEntity
  8
Dim
 62
     0
370
    -2
100
AcDbBlockReference
  2
_DOT
 10
-1329.780296687867
 20
1658.019181677169
 30
0.0
 41
9.999389648437498
 42
9.999389648437498
 43
9.999389648437498
 50
180.0
  0
INSERT
  5
739D
330
7396
100
AcDbEntity
  8
Dim
 62
     0
370
    -2
100
AcDbBlockReference
  2
_DOT
 10
-1249.780296687867
 20
1658.019181677169
 30
0.0
 41
9.999389648437498
 42
9.999389648437498
 43
9.999389648437498
  0
MTEXT
  5
739E
330
7396
100
AcDbEntity
  8
Dim
 62
     0
100
AcDbMText
 10
-1289.780296687867
 20
1680.235490270919
 30
0.0
 40
24.4326171875
 41
0.0
 46
0.0
 71
     5
 72
     1
  1
\A1;80
  7
ＭＳ ゴシック
 73
     1
 44
1.0
  0
POINT
  5
739F
330
7396
100
AcDbEntity
  8
Defpoints
 62
     0
100
AcDbPoint
 10
-1329.780296687867
 20
1780.294584974484
 30
0.0
  0
POINT
  5
73A0
330
7396
100
AcDbEntity
  8
Defpoints
 62
     0
100
AcDbPoint
 10
-1249.780296687867
 20
1780.294584974484
 30
0.0
  0
POINT
  5
73A1
330
7396
100
AcDbEntity
  8
Defpoints
 62
     0
100
AcDbPoint
 10
-1249.780296687867
 20
1658.019181677169
 30
0.0
  0
ENDBLK
  5
7398
330
7396
100
AcDbEntity
  8
0
100
AcDbBlockEnd
  0
BLOCK
  5
73A4
330
73A3
100
AcDbEntity
  8
0
100
AcDbBlockBegin
  2
*D17
 70
     1
 10
0.0
 20
0.0
 30
0.0
  3
*D17
  1

  0
LINE
  5
73A6
330
73A3
100
AcDbEntity
  8
Dim
 62
     0
370
    -2
100
AcDbLine
 10
-1999.780296687866
 20
2271.502930344414
 30
0.0
 11
-1999.780296687866
 21
2395.584869915449
 31
0.0
  0
LINE
  5
73A7
330
73A3
100
AcDbEntity
  8
Dim
 62
     0
370
    -2
100
AcDbLine
 10
-1249.780296687866
 20
2271.502930344414
 30
0.0
 11
-1249.780296687866
 21
2395.584869915449
 31
0.0
  0
LINE
  5
73A8
330
73A3
100
AcDbEntity
  8
Dim
 62
     0
370
    -2
100
AcDbLine
 10
-1989.780907039428
 20
2395.584869915449
 30
0.0
 11
-1259.779686336303
 21
2395.584869915449
 31
0.0
  0
INSERT
  5
73A9
330
73A3
100
AcDbEntity
  8
Dim
 62
     0
370
    -2
100
AcDbBlockReference
  2
_DOT
 10
-1999.780296687866
 20
2395.584869915449
 30
0.0
 41
9.999389648437498
 42
9.999389648437498
 43
9.999389648437498
 50
180.0
  0
INSERT
  5
73AA
330
73A3
100
AcDbEntity
  8
Dim
 62
     0
370
    -2
100
AcDbBlockReference
  2
_DOT
 10
-1249.780296687866
 20
2395.584869915449
 30
0.0
 41
9.999389648437498
 42
9.999389648437498
 43
9.999389648437498
  0
MTEXT
  5
73AB
330
73A3
100
AcDbEntity
  8
Dim
 62
     0
100
AcDbMText
 10
-1624.780296687866
 20
2417.801178509199
 30
0.0
 40
24.4326171875
 41
0.0
 46
0.0
 71
     5
 72
     1
  1
\A1;750
  7
ＭＳ ゴシック
 73
     1
 44
1.0
  0
POINT
  5
73AC
330
73A3
100
AcDbEntity
  8
Defpoints
 62
     0
100
AcDbPoint
 10
-1999.780296687866
 20
2246.502930344414
 30
0.0
  0
POINT
  5
73AD
330
73A3
100
AcDbEntity
  8
Defpoints
 62
     0
100
AcDbPoint
 10
-1249.780296687866
 20
2246.502930344414
 30
0.0
  0
POINT
  5
73AE
330
73A3
100
AcDbEntity
  8
Defpoints
 62
     0
100
AcDbPoint
 10
-1249.780296687866
 20
2395.584869915449
 30
0.0
  0
ENDBLK
  5
73A5
330
73A3
100
AcDbEntity
  8
0
100
AcDbBlockEnd
  0
BLOCK
  5
73BF
330
73BE
100
AcDbEntity
  8
0
100
AcDbBlockBegin
  2
*D18
 70
     1
 10
0.0
 20
0.0
 30
0.0
  3
*D18
  1

  0
LINE
  5
73C1
330
73BE
100
AcDbEntity
  8
Dim
 62
     0
370
    -2
100
AcDbLine
 10
-909.8259955525391
 20
949.9475084827355
 30
0.0
 11
-945.2587020742053
 21
949.9475084827355
 31
0.0
  0
LINE
  5
73C2
330
73BE
100
AcDbEntity
  8
Dim
 62
     0
370
    -2
100
AcDbLine
 10
-888.0863927936766
 20
824.9475084827357
 30
0.0
 11
-945.2587020742053
 21
824.9475084827357
 31
0.0
  0
LINE
  5
73C3
330
73BE
100
AcDbEntity
  8
Dim
 62
     0
370
    -2
100
AcDbLine
 10
-945.2587020742053
 20
939.948118834298
 30
0.0
 11
-945.2587020742053
 21
834.9468981311732
 31
0.0
  0
INSERT
  5
73C4
330
73BE
100
AcDbEntity
  8
Dim
 62
     0
370
    -2
100
AcDbBlockReference
  2
_DOT
 10
-945.2587020742053
 20
949.9475084827355
 30
0.0
 41
9.999389648437498
 42
9.999389648437498
 43
9.999389648437498
 50
90.0
  0
INSERT
  5
73C5
330
73BE
100
AcDbEntity
  8
Dim
 62
     0
370
    -2
100
AcDbBlockReference
  2
_DOT
 10
-945.2587020742053
 20
824.9475084827357
 30
0.0
 41
9.999389648437498
 42
9.999389648437498
 43
9.999389648437498
 50
270.0
  0
MTEXT
  5
73C6
330
73BE
100
AcDbEntity
  8
Dim
 62
     0
100
AcDbMText
 10
-967.4750106679553
 20
887.4475084827357
 30
0.0
 40
24.4326171875
 41
0.0
 46
0.0
 71
     5
 72
     1
  1
\A1;125
  7
ＭＳ ゴシック
 11
0.0
 21
1.0
 31
0.0
 73
     1
 44
1.0
  0
POINT
  5
73C7
330
73BE
100
AcDbEntity
  8
Defpoints
 62
     0
100
AcDbPoint
 10
-884.8259955525391
 20
949.9475084827355
 30
0.0
  0
POINT
  5
73C8
330
73BE
100
AcDbEntity
  8
Defpoints
 62
     0
100
AcDbPoint
 10
-863.0863927936766
 20
824.9475084827357
 30
0.0
  0
POINT
  5
73C9
330
73BE
100
AcDbEntity
  8
Defpoints
 62
     0
100
AcDbPoint
 10
-945.2587020742053
 20
824.9475084827357
 30
0.0
  0
ENDBLK
  5
73C0
330
73BE
100
AcDbEntity
  8
0
100
AcDbBlockEnd
  0
BLOCK
  5
73F4
330
73F3
100
AcDbEntity
  8
0
100
AcDbBlockBegin
  2
*D19
 70
     1
 10
0.0
 20
0.0
 30
0.0
  3
*D19
  1

  0
LINE
  5
73F6
330
73F3
100
AcDbEntity
  8
Dim
 62
     0
370
    -2
100
AcDbLine
 10
-1999.780296687867
 20
993.0185996827356
 30
0.0
 11
-1999.780296687867
 21
1078.259872575008
 31
0.0
  0
LINE
  5
73F7
330
73F3
100
AcDbEntity
  8
Dim
 62
     0
370
    -2
100
AcDbLine
 10
-1249.780296687867
 20
993.0185996827356
 30
0.0
 11
-1249.780296687867
 21
1078.259872575008
 31
0.0
  0
LINE
  5
73F8
330
73F3
100
AcDbEntity
  8
Dim
 62
     0
370
    -2
100
AcDbLine
 10
-1989.780907039429
 20
1078.259872575008
 30
0.0
 11
-1259.779686336304
 21
1078.259872575008
 31
0.0
  0
INSERT
  5
73F9
330
73F3
100
AcDbEntity
  8
Dim
 62
     0
370
    -2
100
AcDbBlockReference
  2
_DOT
 10
-1999.780296687867
 20
1078.259872575008
 30
0.0
 41
9.999389648437498
 42
9.999389648437498
 43
9.999389648437498
 50
180.0
  0
INSERT
  5
73FA
330
73F3
100
AcDbEntity
  8
Dim
 62
     0
370
    -2
100
AcDbBlockReference
  2
_DOT
 10
-1249.780296687867
 20
1078.259872575008
 30
0.0
 41
9.999389648437498
 42
9.999389648437498
 43
9.999389648437498
  0
MTEXT
  5
73FB
330
73F3
100
AcDbEntity
  8
Dim
 62
     0
100
AcDbMText
 10
-1624.780296687866
 20
1100.476181168758
 30
0.0
 40
24.4326171875
 41
0.0
 46
0.0
 71
     5
 72
     1
  1
\A1;750
  7
ＭＳ ゴシック
 73
     1
 44
1.0
  0
POINT
  5
73FC
330
73F3
100
AcDbEntity
  8
Defpoints
 62
     0
100
AcDbPoint
 10
-1999.780296687867
 20
968.0185996827356
 30
0.0
  0
POINT
  5
73FD
330
73F3
100
AcDbEntity
  8
Defpoints
 62
     0
100
AcDbPoint
 10
-1249.780296687867
 20
968.0185996827356
 30
0.0
  0
POINT
  5
73FE
330
73F3
100
AcDbEntity
  8
Defpoints
 62
     0
100
AcDbPoint
 10
-1249.780296687867
 20
1078.259872575008
 30
0.0
  0
ENDBLK
  5
73F5
330
73F3
100
AcDbEntity
  8
0
100
AcDbBlockEnd
  0
BLOCK
  5
7401
330
7400
100
AcDbEntity
  8
0
100
AcDbBlockBegin
  2
*D20
 70
     1
 10
0.0
 20
0.0
 30
0.0
  3
*D20
  1

  0
LINE
  5
7403
330
7400
100
AcDbEntity
  8
Dim
 62
     0
370
    -2
100
AcDbLine
 10
-1229.863327727866
 20
964.947508482736
 30
0.0
 11
-1177.876906066755
 21
964.947508482736
 31
0.0
  0
LINE
  5
7404
330
7400
100
AcDbEntity
  8
Dim
 62
     0
370
    -2
100
AcDbLine
 10
-1229.863327727866
 20
824.9475084827358
 30
0.0
 11
-1177.876906066755
 21
824.9475084827358
 31
0.0
  0
LINE
  5
7405
330
7400
100
AcDbEntity
  8
Dim
 62
     0
370
    -2
100
AcDbLine
 10
-1177.876906066755
 20
954.9481188342985
 30
0.0
 11
-1177.876906066755
 21
834.9468981311733
 31
0.0
  0
INSERT
  5
7406
330
7400
100
AcDbEntity
  8
Dim
 62
     0
370
    -2
100
AcDbBlockReference
  2
_DOT
 10
-1177.876906066755
 20
964.947508482736
 30
0.0
 41
9.999389648437498
 42
9.999389648437498
 43
9.999389648437498
 50
90.0
  0
INSERT
  5
7407
330
7400
100
AcDbEntity
  8
Dim
 62
     0
370
    -2
100
AcDbBlockReference
  2
_DOT
 10
-1177.876906066755
 20
824.9475084827358
 30
0.0
 41
9.999389648437498
 42
9.999389648437498
 43
9.999389648437498
 50
270.0
  0
MTEXT
  5
7408
330
7400
100
AcDbEntity
  8
Dim
 62
     0
100
AcDbMText
 10
-1200.093214660505
 20
894.9475084827358
 30
0.0
 40
24.4326171875
 41
0.0
 46
0.0
 71
     5
 72
     1
  1
\A1;140
  7
ＭＳ ゴシック
 11
0.0
 21
1.0
 31
0.0
 73
     1
 44
1.0
  0
POINT
  5
7409
330
7400
100
AcDbEntity
  8
Defpoints
 62
     0
100
AcDbPoint
 10
-1254.863327727866
 20
964.947508482736
 30
0.0
  0
POINT
  5
740A
330
7400
100
AcDbEntity
  8
Defpoints
 62
     0
100
AcDbPoint
 10
-1254.863327727866
 20
824.9475084827358
 30
0.0
  0
POINT
  5
740B
330
7400
100
AcDbEntity
  8
Defpoints
 62
     0
100
AcDbPoint
 10
-1177.876906066755
 20
824.9475084827358
 30
0.0
  0
ENDBLK
  5
7402
330
7400
100
AcDbEntity
  8
0
100
AcDbBlockEnd
  0
BLOCK
  5
740E
330
740D
100
AcDbEntity
  8
0
100
AcDbBlockBegin
  2
*D21
 70
     1
 10
0.0
 20
0.0
 30
0.0
  3
*D21
  1

  0
LINE
  5
7410
330
740D
100
AcDbEntity
  8
Dim
 62
     0
370
    -2
100
AcDbLine
 10
-1206.34785786843
 20
964.9475084827357
 30
0.0
 11
-1113.645072466755
 21
964.9475084827357
 31
0.0
  0
LINE
  5
7411
330
740D
100
AcDbEntity
  8
Dim
 62
     0
370
    -2
100
AcDbLine
 10
-1554.526050287868
 20
784.9475084827429
 30
0.0
 11
-1113.645072466755
 21
784.9475084827429
 31
0.0
  0
LINE
  5
7412
330
740D
100
AcDbEntity
  8
Dim
 62
     0
370
    -2
100
AcDbLine
 10
-1113.645072466755
 20
954.9481188342982
 30
0.0
 11
-1113.645072466755
 21
794.9468981311804
 31
0.0
  0
INSERT
  5
7413
330
740D
100
AcDbEntity
  8
Dim
 62
     0
370
    -2
100
AcDbBlockReference
  2
_DOT
 10
-1113.645072466755
 20
964.9475084827357
 30
0.0
 41
9.999389648437498
 42
9.999389648437498
 43
9.999389648437498
 50
90.0
  0
INSERT
  5
7414
330
740D
100
AcDbEntity
  8
Dim
 62
     0
370
    -2
100
AcDbBlockReference
  2
_DOT
 10
-1113.645072466755
 20
784.9475084827429
 30
0.0
 41
9.999389648437498
 42
9.999389648437498
 43
9.999389648437498
 50
270.0
  0
MTEXT
  5
7415
330
740D
100
AcDbEntity
  8
Dim
 62
     0
100
AcDbMText
 10
-1135.861381060505
 20
874.9475084827393
 30
0.0
 40
24.4326171875
 41
0.0
 46
0.0
 71
     5
 72
     1
  1
\A1;180
  7
ＭＳ ゴシック
 11
0.0
 21
1.0
 31
0.0
 73
     1
 44
1.0
  0
POINT
  5
7416
330
740D
100
AcDbEntity
  8
Defpoints
 62
     0
100
AcDbPoint
 10
-1231.34785786843
 20
964.9475084827357
 30
0.0
  0
POINT
  5
7417
330
740D
100
AcDbEntity
  8
Defpoints
 62
     0
100
AcDbPoint
 10
-1579.526050287868
 20
784.9475084827429
 30
0.0
  0
POINT
  5
7418
330
740D
100
AcDbEntity
  8
Defpoints
 62
     0
100
AcDbPoint
 10
-1113.645072466755
 20
784.9475084827429
 30
0.0
  0
ENDBLK
  5
740F
330
740D
100
AcDbEntity
  8
0
100
AcDbBlockEnd
  0
BLOCK
  5
7638
330
7637
100
AcDbEntity
  8
0
100
AcDbBlockBegin
  2
*D22
 70
     1
 10
0.0
 20
0.0
 30
0.0
  3
*D22
  1

  0
LINE
  5
763A
330
7637
100
AcDbEntity
  8
Dim
 62
     0
370
    -2
100
AcDbLine
 10
-2024.780296687866
 20
1780.012997544413
 30
0.0
 11
-2086.794369423115
 21
1780.012997544413
 31
0.0
  0
LINE
  5
763B
330
7637
100
AcDbEntity
  8
Dim
 62
     0
370
    -2
100
AcDbLine
 10
-1977.61924023062
 20
1735.012997544413
 30
0.0
 11
-2086.794369423115
 21
1735.012997544413
 31
0.0
  0
LINE
  5
763C
330
7637
100
AcDbEntity
  8
Dim
 62
     0
370
    -2
100
AcDbLine
 10
-2086.794369423115
 20
1770.013607895976
 30
0.0
 11
-2086.794369423115
 21
1745.012387192851
 31
0.0
  0
INSERT
  5
763D
330
7637
100
AcDbEntity
  8
Dim
 62
     0
370
    -2
100
AcDbBlockReference
  2
_DOT
 10
-2086.794369423115
 20
1780.012997544413
 30
0.0
 41
9.999389648437498
 42
9.999389648437498
 43
9.999389648437498
 50
90.0
  0
INSERT
  5
763E
330
7637
100
AcDbEntity
  8
Dim
 62
     0
370
    -2
100
AcDbBlockReference
  2
_DOT
 10
-2086.794369423115
 20
1735.012997544413
 30
0.0
 41
9.999389648437498
 42
9.999389648437498
 43
9.999389648437498
 50
270.0
  0
MTEXT
  5
763F
330
7637
100
AcDbEntity
  8
Dim
 62
     0
100
AcDbMText
 10
-2109.010678016865
 20
1757.512997544413
 30
0.0
 40
24.4326171875
 41
0.0
 46
0.0
 71
     5
 72
     1
  1
\A1;45
  7
ＭＳ ゴシック
 11
0.0
 21
1.0
 31
0.0
 73
     1
 44
1.0
  0
POINT
  5
7640
330
7637
100
AcDbEntity
  8
Defpoints
 62
     0
100
AcDbPoint
 10
-1999.780296687866
 20
1780.012997544413
 30
0.0
  0
POINT
  5
7641
330
7637
100
AcDbEntity
  8
Defpoints
 62
     0
100
AcDbPoint
 10
-1952.61924023062
 20
1735.012997544413
 30
0.0
  0
POINT
  5
7642
330
7637
100
AcDbEntity
  8
Defpoints
 62
     0
100
AcDbPoint
 10
-2086.794369423115
 20
1735.012997544413
 30
0.0
  0
ENDBLK
  5
7639
330
7637
100
AcDbEntity
  8
0
100
AcDbBlockEnd
  0
BLOCK
  5
7649
330
7648
100
AcDbEntity
  8
0
100
AcDbBlockBegin
  2
*D23
 70
     1
 10
0.0
 20
0.0
 30
0.0
  3
*D23
  1

  0
LINE
  5
764B
330
7648
100
AcDbEntity
  8
Dim
 62
     0
370
    -2
100
AcDbLine
 10
-926.9396578625715
 20
949.9475084827357
 30
0.0
 11
-945.2587020742053
 21
949.9475084827357
 31
0.0
  0
LINE
  5
764C
330
7648
100
AcDbEntity
  8
Dim
 62
     0
370
    -2
100
AcDbLine
 10
-907.3464132052727
 20
964.9475084827357
 30
0.0
 11
-945.2587020742053
 21
964.9475084827357
 31
0.0
  0
LINE
  5
764D
330
7648
100
AcDbEntity
  8
Dim
 62
     0
370
    -2
100
AcDbLine
 10
-945.2587020742053
 20
959.9468981311732
 30
0.0
 11
-945.2587020742053
 21
954.9481188342982
 31
0.0
  0
INSERT
  5
764E
330
7648
100
AcDbEntity
  8
Dim
 62
     0
370
    -2
100
AcDbBlockReference
  2
_DOT
 10
-945.2587020742053
 20
949.9475084827357
 30
0.0
 41
9.999389648437498
 42
9.999389648437498
 43
9.999389648437498
 50
270.0
  0
INSERT
  5
764F
330
7648
100
AcDbEntity
  8
Dim
 62
     0
370
    -2
100
AcDbBlockReference
  2
_DOT
 10
-945.2587020742053
 20
964.9475084827357
 30
0.0
 41
9.999389648437498
 42
9.999389648437498
 43
9.999389648437498
 50
90.0
  0
MTEXT
  5
7650
330
7648
100
AcDbEntity
  8
Dim
 62
     0
100
AcDbMText
 10
-967.4750106679553
 20
957.4475084827357
 30
0.0
 40
24.4326171875
 41
0.0
 46
0.0
 71
     5
 72
     1
  1
\A1;15
  7
ＭＳ ゴシック
 11
0.0
 21
1.0
 31
0.0
 73
     1
 44
1.0
  0
POINT
  5
7651
330
7648
100
AcDbEntity
  8
Defpoints
 62
     0
100
AcDbPoint
 10
-901.9396578625715
 20
949.9475084827357
 30
0.0
  0
POINT
  5
7652
330
7648
100
AcDbEntity
  8
Defpoints
 62
     0
100
AcDbPoint
 10
-882.3464132052727
 20
964.9475084827357
 30
0.0
  0
POINT
  5
7653
330
7648
100
AcDbEntity
  8
Defpoints
 62
     0
100
AcDbPoint
 10
-945.2587020742053
 20
964.9475084827357
 30
0.0
  0
ENDBLK
  5
764A
330
7648
100
AcDbEntity
  8
0
100
AcDbBlockEnd
  0
BLOCK
  5
765A
330
7659
100
AcDbEntity
  8
0
100
AcDbBlockBegin
  2
*D24
 70
     1
 10
0.0
 20
0.0
 30
0.0
  3
*D24
  1

  0
LINE
  5
765C
330
7659
100
AcDbEntity
  8
Dim
 62
     0
370
    -2
100
AcDbLine
 10
-913.0863927936766
 20
824.9475084827357
 30
0.0
 11
-945.2587020742053
 21
824.9475084827357
 31
0.0
  0
LINE
  5
765D
330
7659
100
AcDbEntity
  8
Dim
 62
     0
370
    -2
100
AcDbLine
 10
-663.3493962982179
 20
784.9475084827357
 30
0.0
 11
-945.2587020742053
 21
784.9475084827357
 31
0.0
  0
LINE
  5
765E
330
7659
100
AcDbEntity
  8
Dim
 62
     0
370
    -2
100
AcDbLine
 10
-945.2587020742053
 20
814.9481188342982
 30
0.0
 11
-945.2587020742053
 21
794.9468981311732
 31
0.0
  0
INSERT
  5
765F
330
7659
100
AcDbEntity
  8
Dim
 62
     0
370
    -2
100
AcDbBlockReference
  2
_DOT
 10
-945.2587020742053
 20
824.9475084827357
 30
0.0
 41
9.999389648437498
 42
9.999389648437498
 43
9.999389648437498
 50
90.0
  0
INSERT
  5
7660
330
7659
100
AcDbEntity
  8
Dim
 62
     0
370
    -2
100
AcDbBlockReference
  2
_DOT
 10
-945.2587020742053
 20
784.9475084827357
 30
0.0
 41
9.999389648437498
 42
9.999389648437498
 43
9.999389648437498
 50
270.0
  0
MTEXT
  5
7661
330
7659
100
AcDbEntity
  8
Dim
 62
     0
100
AcDbMText
 10
-967.4750106679553
 20
804.9475084827357
 30
0.0
 40
24.4326171875
 41
0.0
 46
0.0
 71
     5
 72
     1
  1
\A1;40
  7
ＭＳ ゴシック
 11
0.0
 21
1.0
 31
0.0
 73
     1
 44
1.0
  0
POINT
  5
7662
330
7659
100
AcDbEntity
  8
Defpoints
 62
     0
100
AcDbPoint
 10
-888.0863927936766
 20
824.9475084827357
 30
0.0
  0
POINT
  5
7663
330
7659
100
AcDbEntity
  8
Defpoints
 62
     0
100
AcDbPoint
 10
-638.3493962982179
 20
784.9475084827357
 30
0.0
  0
POINT
  5
7664
330
7659
100
AcDbEntity
  8
Defpoints
 62
     0
100
AcDbPoint
 10
-945.2587020742053
 20
784.9475084827357
 30
0.0
  0
ENDBLK
  5
765B
330
7659
100
AcDbEntity
  8
0
100
AcDbBlockEnd
  0
BLOCK
  5
7674
330
7673
100
AcDbEntity
  8
0
100
AcDbBlockBegin
  2
*D25
 70
     1
 10
0.0
 20
0.0
 30
0.0
  3
*D25
  1

  0
LINE
  5
7676
330
7673
100
AcDbEntity
  8
Dim
 62
     0
370
    -2
100
AcDbLine
 10
-1227.527624687867
 20
2235.012997544415
 30
0.0
 11
-1144.338192783113
 21
2235.012997544415
 31
0.0
  0
LINE
  5
7677
330
7673
100
AcDbEntity
  8
Dim
 62
     0
370
    -2
100
AcDbLine
 10
-1280.205021196266
 20
1735.012997544414
 30
0.0
 11
-1144.338192783115
 21
1735.012997544414
 31
0.0
  0
LINE
  5
7678
330
7673
100
AcDbEntity
  8
Dim
 62
     0
370
    -2
100
AcDbLine
 10
-1144.338192783113
 20
2225.013607895977
 30
0.0
 11
-1144.338192783115
 21
1745.012387192851
 31
0.0
  0
INSERT
  5
7679
330
7673
100
AcDbEntity
  8
Dim
 62
     0
370
    -2
100
AcDbBlockReference
  2
_DOT
 10
-1144.338192783113
 20
2235.012997544415
 30
0.0
 41
9.999389648437498
 42
9.999389648437498
 43
9.999389648437498
 50
89.99999999999982
  0
INSERT
  5
767A
330
7673
100
AcDbEntity
  8
Dim
 62
     0
370
    -2
100
AcDbBlockReference
  2
_DOT
 10
-1144.338192783115
 20
1735.012997544414
 30
0.0
 41
9.999389648437498
 42
9.999389648437498
 43
9.999389648437498
 50
269.9999999999998
  0
MTEXT
  5
767B
330
7673
100
AcDbEntity
  8
Dim
 62
     0
100
AcDbMText
 10
-1166.554501376864
 20
1985.012997544413
 30
0.0
 40
24.4326171875
 41
0.0
 46
0.0
 71
     5
 72
     1
  1
\A1;500
  7
ＭＳ ゴシック
 11
3.637978807091708E-15
 21
1.0
 31
0.0
 73
     1
 44
1.0
  0
POINT
  5
767C
330
7673
100
AcDbEntity
  8
Defpoints
 62
     0
100
AcDbPoint
 10
-1252.527624687867
 20
2235.012997544415
 30
0.0
  0
POINT
  5
767D
330
7673
100
AcDbEntity
  8
Defpoints
 62
     0
100
AcDbPoint
 10
-1305.205021196266
 20
1735.012997544414
 30
0.0
  0
POINT
  5
767E
330
7673
100
AcDbEntity
  8
Defpoints
 62
     0
100
AcDbPoint
 10
-1144.338192783115
 20
1735.012997544414
 30
0.0
  0
ENDBLK
  5
7675
330
7673
100
AcDbEntity
  8
0
100
AcDbBlockEnd
  0
BLOCK
  5
76CA
330
76C9
100
AcDbEntity
  8
0
100
AcDbBlockBegin
  2
*D26
 70
     1
 10
0.0
 20
0.0
 30
0.0
  3
*D26
  1

  0
LINE
  5
76CC
330
76C9
100
AcDbEntity
  8
Dim
 62
     0
370
    -2
100
AcDbLine
 10
-382.6206136509395
 20
993.2530383387436
 30
0.0
 11
-382.6206136509395
 21
1030.786979068729
 31
0.0
  0
LINE
  5
76CD
330
76C9
100
AcDbEntity
  8
Dim
 62
     0
370
    -2
100
AcDbLine
 10
-442.6206136509395
 20
993.2530383387439
 30
0.0
 11
-442.6206136509395
 21
1030.786979068729
 31
0.0
  0
LINE
  5
76CE
330
76C9
100
AcDbEntity
  8
Dim
 62
     0
370
    -2
100
AcDbLine
 10
-392.620003299377
 20
1030.786979068729
 30
0.0
 11
-432.621224002502
 21
1030.786979068729
 31
0.0
  0
INSERT
  5
76CF
330
76C9
100
AcDbEntity
  8
Dim
 62
     0
370
    -2
100
AcDbBlockReference
  2
_DOT
 10
-382.6206136509395
 20
1030.786979068729
 30
0.0
 41
9.999389648437498
 42
9.999389648437498
 43
9.999389648437498
  0
INSERT
  5
76D0
330
76C9
100
AcDbEntity
  8
Dim
 62
     0
370
    -2
100
AcDbBlockReference
  2
_DOT
 10
-442.6206136509395
 20
1030.786979068729
 30
0.0
 41
9.999389648437498
 42
9.999389648437498
 43
9.999389648437498
 50
180.0
  0
MTEXT
  5
76D1
330
76C9
100
AcDbEntity
  8
Dim
 62
     0
100
AcDbMText
 10
-412.6206136509395
 20
1053.003287662479
 30
0.0
 40
24.4326171875
 41
0.0
 46
0.0
 71
     5
 72
     1
  1
\A1;60
  7
ＭＳ ゴシック
 73
     1
 44
1.0
  0
POINT
  5
76D2
330
76C9
100
AcDbEntity
  8
Defpoints
 62
     0
100
AcDbPoint
 10
-382.6206136509395
 20
968.2530383387436
 30
0.0
  0
POINT
  5
76D3
330
76C9
100
AcDbEntity
  8
Defpoints
 62
     0
100
AcDbPoint
 10
-442.6206136509395
 20
968.2530383387439
 30
0.0
  0
POINT
  5
76D4
330
76C9
100
AcDbEntity
  8
Defpoints
 62
     0
100
AcDbPoint
 10
-442.6206136509395
 20
1030.786979068729
 30
0.0
  0
ENDBLK
  5
76CB
330
76C9
100
AcDbEntity
  8
0
100
AcDbBlockEnd
  0
BLOCK
  5
76E3
330
76E2
100
AcDbEntity
  8
0
100
AcDbBlockBegin
  2
*D27
 70
     1
 10
0.0
 20
0.0
 30
0.0
  3
*D27
  1

  0
LINE
  5
76E5
330
76E2
100
AcDbEntity
  8
Dim
 62
     0
370
    -2
100
AcDbLine
 10
-597.6206136509377
 20
759.9475084827357
 30
0.0
 11
-597.6206136509377
 21
688.6198854543827
 31
0.0
  0
LINE
  5
76E6
330
76E2
100
AcDbEntity
  8
Dim
 62
     0
370
    -2
100
AcDbLine
 10
-382.6206136509377
 20
799.006343796229
 30
0.0
 11
-382.6206136509377
 21
688.6198854543827
 31
0.0
  0
LINE
  5
76E7
330
76E2
100
AcDbEntity
  8
Dim
 62
     0
370
    -2
100
AcDbLine
 10
-587.6212240025002
 20
688.6198854543827
 30
0.0
 11
-392.6200032993752
 21
688.6198854543827
 31
0.0
  0
INSERT
  5
76E8
330
76E2
100
AcDbEntity
  8
Dim
 62
     0
370
    -2
100
AcDbBlockReference
  2
_DOT
 10
-597.6206136509377
 20
688.6198854543827
 30
0.0
 41
9.999389648437498
 42
9.999389648437498
 43
9.999389648437498
 50
180.0
  0
INSERT
  5
76E9
330
76E2
100
AcDbEntity
  8
Dim
 62
     0
370
    -2
100
AcDbBlockReference
  2
_DOT
 10
-382.6206136509377
 20
688.6198854543827
 30
0.0
 41
9.999389648437498
 42
9.999389648437498
 43
9.999389648437498
  0
MTEXT
  5
76EA
330
76E2
100
AcDbEntity
  8
Dim
 62
     0
100
AcDbMText
 10
-490.1206136509377
 20
710.8361940481327
 30
0.0
 40
24.4326171875
 41
0.0
 46
0.0
 71
     5
 72
     1
  1
\A1;215
  7
ＭＳ ゴシック
 73
     1
 44
1.0
  0
POINT
  5
76EB
330
76E2
100
AcDbEntity
  8
Defpoints
 62
     0
100
AcDbPoint
 10
-597.6206136509377
 20
784.9475084827357
 30
0.0
  0
POINT
  5
76EC
330
76E2
100
AcDbEntity
  8
Defpoints
 62
     0
100
AcDbPoint
 10
-382.6206136509377
 20
824.006343796229
 30
0.0
  0
POINT
  5
76ED
330
76E2
100
AcDbEntity
  8
Defpoints
 62
     0
100
AcDbPoint
 10
-382.6206136509377
 20
688.6198854543827
 30
0.0
  0
ENDBLK
  5
76E4
330
76E2
100
AcDbEntity
  8
0
100
AcDbBlockEnd
  0
BLOCK
  5
76F2
330
76F1
100
AcDbEntity
  8
0
100
AcDbBlockBegin
  2
*D28
 70
     1
 10
0.0
 20
0.0
 30
0.0
  3
*D28
  1

  0
LINE
  5
76F4
330
76F1
100
AcDbEntity
  8
Dim
 62
     0
370
    -2
100
AcDbLine
 10
-606.9636748347552
 20
834.9475084827357
 30
0.0
 11
-599.7150179387559
 21
834.9475084827357
 31
0.0
  0
LINE
  5
76F5
330
76F1
100
AcDbEntity
  8
Dim
 62
     0
370
    -2
100
AcDbLine
 10
-606.9636748347552
 20
964.9475084827359
 30
0.0
 11
-599.7150179387559
 21
964.9475084827359
 31
0.0
  0
LINE
  5
76F6
330
76F1
100
AcDbEntity
  8
Dim
 62
     0
370
    -2
100
AcDbLine
 10
-599.7150179387559
 20
964.9475084827359
 30
0.0
 11
-599.7150179387559
 21
1156.961058573167
 31
0.0
  0
LINE
  5
76F7
330
76F1
100
AcDbEntity
  8
Dim
 62
     0
370
    -2
100
AcDbLine
 10
-599.7150179387559
 20
844.9468981311732
 30
0.0
 11
-599.7150179387559
 21
954.9481188342984
 31
0.0
  0
LINE
  5
76F8
330
76F1
100
AcDbEntity
  8
Dim
 62
     0
370
    -2
100
AcDbLine
 10
-599.7150179387559
 20
954.9481188342984
 30
0.0
 11
-599.7150179387559
 21
944.9487291858609
 31
0.0
  0
INSERT
  5
76F9
330
76F1
100
AcDbEntity
  8
Dim
 62
     0
370
    -2
100
AcDbBlockReference
  2
_DOT
 10
-599.7150179387559
 20
834.9475084827357
 30
0.0
 41
9.999389648437498
 42
9.999389648437498
 43
9.999389648437498
 50
270.0
  0
INSERT
  5
76FA
330
76F1
100
AcDbEntity
  8
Dim
 62
     0
370
    -2
100
AcDbBlockReference
  2
_DOT
 10
-599.7150179387559
 20
964.9475084827359
 30
0.0
 41
9.999389648437498
 42
9.999389648437498
 43
9.999389648437498
 50
90.0
  0
MTEXT
  5
76FB
330
76F1
100
AcDbEntity
  8
Dim
 62
     0
100
AcDbMText
 10
-624.0936131535996
 20
1080.773098612229
 30
0.0
 40
24.4326171875
 41
0.0
 46
0.0
 71
     5
 72
     1
  1
\A1;130(深さ)
  7
ＭＳ ゴシック
 11
0.0
 21
1.0
 31
0.0
 73
     1
 44
1.0
  0
POINT
  5
76FC
330
76F1
100
AcDbEntity
  8
Defpoints
 62
     0
100
AcDbPoint
 10
-581.9636748347552
 20
834.9475084827357
 30
0.0
  0
POINT
  5
76FD
330
76F1
100
AcDbEntity
  8
Defpoints
 62
     0
100
AcDbPoint
 10
-581.9636748347552
 20
964.9475084827359
 30
0.0
  0
POINT
  5
76FE
330
76F1
100
AcDbEntity
  8
Defpoints
 62
     0
100
AcDbPoint
 10
-599.7150179387559
 20
964.9475084827359
 30
0.0
  0
ENDBLK
  5
76F3
330
76F1
100
AcDbEntity
  8
0
100
AcDbBlockEnd
  0
BLOCK
  5
7708
330
7707
100
AcDbEntity
  8
0
100
AcDbBlockBegin
  2
*D29
 70
     1
 10
0.0
 20
0.0
 30
0.0
  3
*D29
  1

  0
LINE
  5
770A
330
7707
100
AcDbEntity
  8
Dim
 62
     0
370
    -2
100
AcDbLine
 10
-1764.780296687868
 20
937.0494723850293
 30
0.0
 11
-1764.780296687868
 21
1015.754687361029
 31
0.0
  0
LINE
  5
770B
330
7707
100
AcDbEntity
  8
Dim
 62
     0
370
    -2
100
AcDbLine
 10
-1484.780296687868
 20
937.0494723850293
 30
0.0
 11
-1484.780296687868
 21
1015.754687361029
 31
0.0
  0
LINE
  5
770C
330
7707
100
AcDbEntity
  8
Dim
 62
     0
370
    -2
100
AcDbLine
 10
-1754.78090703943
 20
1015.754687361029
 30
0.0
 11
-1494.779686336305
 21
1015.754687361029
 31
0.0
  0
INSERT
  5
770D
330
7707
100
AcDbEntity
  8
Dim
 62
     0
370
    -2
100
AcDbBlockReference
  2
_DOT
 10
-1764.780296687868
 20
1015.754687361029
 30
0.0
 41
9.999389648437498
 42
9.999389648437498
 43
9.999389648437498
 50
180.0
  0
INSERT
  5
770E
330
7707
100
AcDbEntity
  8
Dim
 62
     0
370
    -2
100
AcDbBlockReference
  2
_DOT
 10
-1484.780296687868
 20
1015.754687361029
 30
0.0
 41
9.999389648437498
 42
9.999389648437498
 43
9.999389648437498
  0
MTEXT
  5
770F
330
7707
100
AcDbEntity
  8
Dim
 62
     0
100
AcDbMText
 10
-1624.780296687868
 20
1037.970995954779
 30
0.0
 40
24.4326171875
 41
0.0
 46
0.0
 71
     5
 72
     1
  1
\A1;280
  7
ＭＳ ゴシック
 73
     1
 44
1.0
  0
POINT
  5
7710
330
7707
100
AcDbEntity
  8
Defpoints
 62
     0
100
AcDbPoint
 10
-1764.780296687868
 20
912.0494723850293
 30
0.0
  0
POINT
  5
7711
330
7707
100
AcDbEntity
  8
Defpoints
 62
     0
100
AcDbPoint
 10
-1484.780296687868
 20
912.0494723850293
 30
0.0
  0
POINT
  5
7712
330
7707
100
AcDbEntity
  8
Defpoints
 62
     0
100
AcDbPoint
 10
-1484.780296687868
 20
1015.754687361029
 30
0.0
  0
ENDBLK
  5
7709
330
7707
100
AcDbEntity
  8
0
100
AcDbBlockEnd
  0
BLOCK
  5
7717
330
7716
100
AcDbEntity
  8
0
100
AcDbBlockBegin
  2
*D30
 70
     1
 10
0.0
 20
0.0
 30
0.0
  3
*D30
  1

  0
LINE
  5
7719
330
7716
100
AcDbEntity
  8
Dim
 62
     0
370
    -2
100
AcDbLine
 10
-2025.428624387395
 20
964.9475084827361
 30
0.0
 11
-2068.35460591546
 21
964.9475084827361
 31
0.0
  0
LINE
  5
771A
330
7716
100
AcDbEntity
  8
Dim
 62
     0
370
    -2
100
AcDbLine
 10
-1811.786183954928
 20
904.9475084827363
 30
0.0
 11
-2068.35460591546
 21
904.9475084827363
 31
0.0
  0
LINE
  5
771B
330
7716
100
AcDbEntity
  8
Dim
 62
     0
370
    -2
100
AcDbLine
 10
-2068.35460591546
 20
954.9481188342986
 30
0.0
 11
-2068.35460591546
 21
914.9468981311738
 31
0.0
  0
INSERT
  5
771C
330
7716
100
AcDbEntity
  8
Dim
 62
     0
370
    -2
100
AcDbBlockReference
  2
_DOT
 10
-2068.35460591546
 20
964.9475084827361
 30
0.0
 41
9.999389648437498
 42
9.999389648437498
 43
9.999389648437498
 50
90.0
  0
INSERT
  5
771D
330
7716
100
AcDbEntity
  8
Dim
 62
     0
370
    -2
100
AcDbBlockReference
  2
_DOT
 10
-2068.35460591546
 20
904.9475084827363
 30
0.0
 41
9.999389648437498
 42
9.999389648437498
 43
9.999389648437498
 50
270.0
  0
MTEXT
  5
771E
330
7716
100
AcDbEntity
  8
Dim
 62
     0
100
AcDbMText
 10
-2090.57091450921
 20
934.9475084827362
 30
0.0
 40
24.4326171875
 41
0.0
 46
0.0
 71
     5
 72
     1
  1
\A1;60
  7
ＭＳ ゴシック
 11
0.0
 21
1.0
 31
0.0
 73
     1
 44
1.0
  0
POINT
  5
771F
330
7716
100
AcDbEntity
  8
Defpoints
 62
     0
100
AcDbPoint
 10
-2000.428624387395
 20
964.9475084827361
 30
0.0
  0
POINT
  5
7720
330
7716
100
AcDbEntity
  8
Defpoints
 62
     0
100
AcDbPoint
 10
-1786.786183954928
 20
904.9475084827363
 30
0.0
  0
POINT
  5
7721
330
7716
100
AcDbEntity
  8
Defpoints
 62
     0
100
AcDbPoint
 10
-2068.35460591546
 20
904.9475084827363
 30
0.0
  0
ENDBLK
  5
7718
330
7716
100
AcDbEntity
  8
0
100
AcDbBlockEnd
  0
BLOCK
  5
784A
330
7849
100
AcDbEntity
  8
0
100
AcDbBlockBegin
  2
*D31
 70
     1
 10
0.0
 20
0.0
 30
0.0
  3
*D31
  1

  0
LINE
  5
784C
330
7849
100
AcDbEntity
  8
Dim
 62
     0
370
    -2
100
AcDbLine
 10
-498.1424006878669
 20
2205.012997544415
 30
0.0
 11
-434.3715382717346
 21
2205.012997544415
 31
0.0
  0
LINE
  5
784D
330
7849
100
AcDbEntity
  8
Dim
 62
     0
370
    -2
100
AcDbLine
 10
-411.871385683844
 20
2235.012997544415
 30
0.0
 11
-434.3715382717346
 21
2235.012997544415
 31
0.0
  0
LINE
  5
784E
330
7849
100
AcDbEntity
  8
Dim
 62
     0
370
    -2
100
AcDbLine
 10
-434.3715382717346
 20
2235.012997544415
 30
0.0
 11
-434.3715382717346
 21
2304.159889145978
 31
0.0
  0
LINE
  5
784F
330
7849
100
AcDbEntity
  8
Dim
 62
     0
370
    -2
100
AcDbLine
 10
-434.3715382717346
 20
2215.012387192853
 30
0.0
 11
-434.3715382717346
 21
2225.013607895978
 31
0.0
  0
LINE
  5
7850
330
7849
100
AcDbEntity
  8
Dim
 62
     0
370
    -2
100
AcDbLine
 10
-434.3715382717346
 20
2225.013607895978
 30
0.0
 11
-434.3715382717346
 21
2215.01421824754
 31
0.0
  0
INSERT
  5
7851
330
7849
100
AcDbEntity
  8
Dim
 62
     0
370
    -2
100
AcDbBlockReference
  2
_DOT
 10
-434.3715382717346
 20
2205.012997544415
 30
0.0
 41
9.999389648437498
 42
9.999389648437498
 43
9.999389648437498
 50
270.0
  0
INSERT
  5
7852
330
7849
100
AcDbEntity
  8
Dim
 62
     0
370
    -2
100
AcDbBlockReference
  2
_DOT
 10
-434.3715382717346
 20
2235.012997544415
 30
0.0
 41
9.999389648437498
 42
9.999389648437498
 43
9.999389648437498
 50
90.0
  0
MTEXT
  5
7853
330
7849
100
AcDbEntity
  8
Dim
 62
     0
100
AcDbMText
 10
-456.5878468654846
 20
2279.585832993634
 30
0.0
 40
24.4326171875
 41
0.0
 46
0.0
 71
     5
 72
     1
  1
\A1;30
  7
ＭＳ ゴシック
 11
0.0
 21
1.0
 31
0.0
 73
     1
 44
1.0
  0
POINT
  5
7854
330
7849
100
AcDbEntity
  8
Defpoints
 62
     0
100
AcDbPoint
 10
-523.1424006878669
 20
2205.012997544415
 30
0.0
  0
POINT
  5
7855
330
7849
100
AcDbEntity
  8
Defpoints
 62
     0
100
AcDbPoint
 10
-436.871385683844
 20
2235.012997544415
 30
0.0
  0
POINT
  5
7856
330
7849
100
AcDbEntity
  8
Defpoints
 62
     0
100
AcDbPoint
 10
-434.3715382717346
 20
2235.012997544415
 30
0.0
  0
ENDBLK
  5
784B
330
7849
100
AcDbEntity
  8
0
100
AcDbBlockEnd
  0
BLOCK
  5
785C
330
785B
100
AcDbEntity
  8
0
100
AcDbBlockBegin
  2
*D32
 70
     1
 10
0.0
 20
0.0
 30
0.0
  3
*D32
  1

  0
LINE
  5
785E
330
785B
100
AcDbEntity
  8
Dim
 62
     0
370
    -2
100
AcDbLine
 10
-498.1424006878669
 20
1905.012997544415
 30
0.0
 11
-434.3715382717346
 21
1905.012997544415
 31
0.0
  0
LINE
  5
785F
330
785B
100
AcDbEntity
  8
Dim
 62
     0
370
    -2
100
AcDbLine
 10
-498.1424006878669
 20
2205.012997544415
 30
0.0
 11
-434.3715382717346
 21
2205.012997544415
 31
0.0
  0
LINE
  5
7860
330
785B
100
AcDbEntity
  8
Dim
 62
     0
370
    -2
100
AcDbLine
 10
-434.3715382717346
 20
1915.012387192853
 30
0.0
 11
-434.3715382717346
 21
2195.013607895978
 31
0.0
  0
INSERT
  5
7861
330
785B
100
AcDbEntity
  8
Dim
 62
     0
370
    -2
100
AcDbBlockReference
  2
_DOT
 10
-434.3715382717346
 20
1905.012997544415
 30
0.0
 41
9.999389648437498
 42
9.999389648437498
 43
9.999389648437498
 50
270.0
  0
INSERT
  5
7862
330
785B
100
AcDbEntity
  8
Dim
 62
     0
370
    -2
100
AcDbBlockReference
  2
_DOT
 10
-434.3715382717346
 20
2205.012997544415
 30
0.0
 41
9.999389648437498
 42
9.999389648437498
 43
9.999389648437498
 50
90.0
  0
MTEXT
  5
7863
330
785B
100
AcDbEntity
  8
Dim
 62
     0
100
AcDbMText
 10
-456.5878468654846
 20
2055.012997544415
 30
0.0
 40
24.4326171875
 41
0.0
 46
0.0
 71
     5
 72
     1
  1
\A1;300
  7
ＭＳ ゴシック
 11
0.0
 21
1.0
 31
0.0
 73
     1
 44
1.0
  0
POINT
  5
7864
330
785B
100
AcDbEntity
  8
Defpoints
 62
     0
100
AcDbPoint
 10
-523.1424006878669
 20
1905.012997544415
 30
0.0
  0
POINT
  5
7865
330
785B
100
AcDbEntity
  8
Defpoints
 62
     0
100
AcDbPoint
 10
-523.1424006878669
 20
2205.012997544415
 30
0.0
  0
POINT
  5
7866
330
785B
100
AcDbEntity
  8
Defpoints
 62
     0
100
AcDbPoint
 10
-434.3715382717346
 20
2205.012997544415
 30
0.0
  0
ENDBLK
  5
785D
330
785B
100
AcDbEntity
  8
0
100
AcDbBlockEnd
  0
BLOCK
  5
786B
330
786A
100
AcDbEntity
  8
0
100
AcDbBlockBegin
  2
*D33
 70
     1
 10
0.0
 20
0.0
 30
0.0
  3
*D33
  1

  0
LINE
  5
786D
330
786A
100
AcDbEntity
  8
Dim
 62
     0
370
    -2
100
AcDbLine
 10
-823.1424006878669
 20
1880.012997544416
 30
0.0
 11
-823.1424006878669
 21
1820.862080491808
 31
0.0
  0
LINE
  5
786E
330
786A
100
AcDbEntity
  8
Dim
 62
     0
370
    -2
100
AcDbLine
 10
-523.1424006878669
 20
1880.012997544415
 30
0.0
 11
-523.1424006878669
 21
1820.862080491808
 31
0.0
  0
LINE
  5
786F
330
786A
100
AcDbEntity
  8
Dim
 62
     0
370
    -2
100
AcDbLine
 10
-813.1430110394294
 20
1820.862080491808
 30
0.0
 11
-533.1417903363044
 21
1820.862080491808
 31
0.0
  0
INSERT
  5
7870
330
786A
100
AcDbEntity
  8
Dim
 62
     0
370
    -2
100
AcDbBlockReference
  2
_DOT
 10
-823.1424006878669
 20
1820.862080491808
 30
0.0
 41
9.999389648437498
 42
9.999389648437498
 43
9.999389648437498
 50
180.0
  0
INSERT
  5
7871
330
786A
100
AcDbEntity
  8
Dim
 62
     0
370
    -2
100
AcDbBlockReference
  2
_DOT
 10
-523.1424006878669
 20
1820.862080491808
 30
0.0
 41
9.999389648437498
 42
9.999389648437498
 43
9.999389648437498
  0
MTEXT
  5
7872
330
786A
100
AcDbEntity
  8
Dim
 62
     0
100
AcDbMText
 10
-673.1424006878669
 20
1843.078389085558
 30
0.0
 40
24.4326171875
 41
0.0
 46
0.0
 71
     5
 72
     1
  1
\A1;300
  7
ＭＳ ゴシック
 73
     1
 44
1.0
  0
POINT
  5
7873
330
786A
100
AcDbEntity
  8
Defpoints
 62
     0
100
AcDbPoint
 10
-823.1424006878669
 20
1905.012997544416
 30
0.0
  0
POINT
  5
7874
330
786A
100
AcDbEntity
  8
Defpoints
 62
     0
100
AcDbPoint
 10
-523.1424006878669
 20
1905.012997544415
 30
0.0
  0
POINT
  5
7875
330
786A
100
AcDbEntity
  8
Defpoints
 62
     0
100
AcDbPoint
 10
-523.1424006878669
 20
1820.862080491808
 30
0.0
  0
ENDBLK
  5
786C
330
786A
100
AcDbEntity
  8
0
100
AcDbBlockEnd
  0
BLOCK
  5
7C7B
330
7C7A
100
AcDbEntity
  8
0
100
AcDbBlockBegin
  2
*D34
 70
     1
 10
0.0
 20
0.0
 30
0.0
  3
*D34
  1

  0
LINE
  5
7C7D
330
7C7A
100
AcDbEntity
  8
Dim
 62
     0
370
    -2
100
AcDbLine
 10
369.5954952687175
 20
970.5271165099773
 30
0.0
 11
283.0559282645527
 21
970.5271165099773
 31
0.0
  0
LINE
  5
7C7E
330
7C7A
100
AcDbEntity
  8
Dim
 62
     0
370
    -2
100
AcDbLine
 10
370.5954952687166
 20
1070.527116509977
 30
0.0
 11
283.0559282645527
 21
1070.527116509977
 31
0.0
  0
LINE
  5
7C7F
330
7C7A
100
AcDbEntity
  8
Dim
 62
     0
370
    -2
100
AcDbLine
 10
283.0559282645527
 20
980.5265061584148
 30
0.0
 11
283.0559282645527
 21
1060.52772686154
 31
0.0
  0
INSERT
  5
7C80
330
7C7A
100
AcDbEntity
  8
Dim
 62
     0
370
    -2
100
AcDbBlockReference
  2
_DOT
 10
283.0559282645527
 20
970.5271165099773
 30
0.0
 41
9.999389648437498
 42
9.999389648437498
 43
9.999389648437498
 50
270.0
  0
INSERT
  5
7C81
330
7C7A
100
AcDbEntity
  8
Dim
 62
     0
370
    -2
100
AcDbBlockReference
  2
_DOT
 10
283.0559282645527
 20
1070.527116509977
 30
0.0
 41
9.999389648437498
 42
9.999389648437498
 43
9.999389648437498
 50
90.0
  0
MTEXT
  5
7C82
330
7C7A
100
AcDbEntity
  8
Dim
 62
     0
100
AcDbMText
 10
260.8396196708027
 20
1020.527116509977
 30
0.0
 40
24.4326171875
 41
0.0
 46
0.0
 71
     5
 72
     1
  1
\A1;100
  7
ＭＳ ゴシック
 11
0.0
 21
1.0
 31
0.0
 73
     1
 44
1.0
  0
POINT
  5
7C83
330
7C7A
100
AcDbEntity
  8
Defpoints
 62
     0
100
AcDbPoint
 10
394.5954952687175
 20
970.5271165099773
 30
0.0
  0
POINT
  5
7C84
330
7C7A
100
AcDbEntity
  8
Defpoints
 62
     0
100
AcDbPoint
 10
395.5954952687166
 20
1070.527116509977
 30
0.0
  0
POINT
  5
7C85
330
7C7A
100
AcDbEntity
  8
Defpoints
 62
     0
100
AcDbPoint
 10
283.0559282645527
 20
1070.527116509977
 30
0.0
  0
ENDBLK
  5
7C7C
330
7C7A
100
AcDbEntity
  8
0
100
AcDbBlockEnd
  0
BLOCK
  5
7C88
330
7C87
100
AcDbEntity
  8
0
100
AcDbBlockBegin
  2
*D35
 70
     1
 10
0.0
 20
0.0
 30
0.0
  3
*D35
  1

  0
LINE
  5
7C8A
330
7C87
100
AcDbEntity
  8
Dim
 62
     0
370
    -2
100
AcDbLine
 10
369.5954952687175
 20
1070.527116509977
 30
0.0
 11
283.0559282645527
 21
1070.527116509977
 31
0.0
  0
LINE
  5
7C8B
330
7C87
100
AcDbEntity
  8
Dim
 62
     0
370
    -2
100
AcDbLine
 10
369.5954952687175
 20
1170.527116509977
 30
0.0
 11
283.0559282645527
 21
1170.527116509977
 31
0.0
  0
LINE
  5
7C8C
330
7C87
100
AcDbEntity
  8
Dim
 62
     0
370
    -2
100
AcDbLine
 10
283.0559282645527
 20
1080.526506158415
 30
0.0
 11
283.0559282645527
 21
1160.52772686154
 31
0.0
  0
INSERT
  5
7C8D
330
7C87
100
AcDbEntity
  8
Dim
 62
     0
370
    -2
100
AcDbBlockReference
  2
_DOT
 10
283.0559282645527
 20
1070.527116509977
 30
0.0
 41
9.999389648437498
 42
9.999389648437498
 43
9.999389648437498
 50
270.0
  0
INSERT
  5
7C8E
330
7C87
100
AcDbEntity
  8
Dim
 62
     0
370
    -2
100
AcDbBlockReference
  2
_DOT
 10
283.0559282645527
 20
1170.527116509977
 30
0.0
 41
9.999389648437498
 42
9.999389648437498
 43
9.999389648437498
 50
90.0
  0
MTEXT
  5
7C8F
330
7C87
100
AcDbEntity
  8
Dim
 62
     0
100
AcDbMText
 10
260.8396196708027
 20
1120.527116509977
 30
0.0
 40
24.4326171875
 41
0.0
 46
0.0
 71
     5
 72
     1
  1
\A1;100
  7
ＭＳ ゴシック
 11
0.0
 21
1.0
 31
0.0
 73
     1
 44
1.0
  0
POINT
  5
7C90
330
7C87
100
AcDbEntity
  8
Defpoints
 62
     0
100
AcDbPoint
 10
394.5954952687175
 20
1070.527116509977
 30
0.0
  0
POINT
  5
7C91
330
7C87
100
AcDbEntity
  8
Defpoints
 62
     0
100
AcDbPoint
 10
394.5954952687175
 20
1170.527116509977
 30
0.0
  0
POINT
  5
7C92
330
7C87
100
AcDbEntity
  8
Defpoints
 62
     0
100
AcDbPoint
 10
283.0559282645527
 20
1170.527116509977
 30
0.0
  0
ENDBLK
  5
7C89
330
7C87
100
AcDbEntity
  8
0
100
AcDbBlockEnd
  0
BLOCK
  5
7C95
330
7C94
100
AcDbEntity
  8
0
100
AcDbBlockBegin
  2
*D36
 70
     1
 10
0.0
 20
0.0
 30
0.0
  3
*D36
  1

  0
LINE
  5
7C97
330
7C94
100
AcDbEntity
  8
Dim
 62
     0
370
    -2
100
AcDbLine
 10
3293.270374128647
 20
2370.890497544416
 30
0.0
 11
2775.868220106889
 21
2370.890497544416
 31
0.0
  0
LINE
  5
7C98
330
7C94
100
AcDbEntity
  8
Dim
 62
     0
370
    -2
100
AcDbLine
 10
3274.770374128647
 20
2310.890497544415
 30
0.0
 11
2775.868220106889
 21
2310.890497544415
 31
0.0
  0
LINE
  5
7C99
330
7C94
100
AcDbEntity
  8
Dim
 62
     0
370
    -2
100
AcDbLine
 10
2775.868220106889
 20
2360.891107895979
 30
0.0
 11
2775.868220106889
 21
2320.889887192853
 31
0.0
  0
INSERT
  5
7C9A
330
7C94
100
AcDbEntity
  8
Dim
 62
     0
370
    -2
100
AcDbBlockReference
  2
_DOT
 10
2775.868220106889
 20
2370.890497544416
 30
0.0
 41
9.999389648437498
 42
9.999389648437498
 43
9.999389648437498
 50
90.0
  0
INSERT
  5
7C9B
330
7C94
100
AcDbEntity
  8
Dim
 62
     0
370
    -2
100
AcDbBlockReference
  2
_DOT
 10
2775.868220106889
 20
2310.890497544415
 30
0.0
 41
9.999389648437498
 42
9.999389648437498
 43
9.999389648437498
 50
270.0
  0
MTEXT
  5
7C9C
330
7C94
100
AcDbEntity
  8
Dim
 62
     0
100
AcDbMText
 10
2753.651911513139
 20
2340.890497544416
 30
0.0
 40
24.4326171875
 41
0.0
 46
0.0
 71
     5
 72
     1
  1
\A1;60
  7
ＭＳ ゴシック
 11
0.0
 21
1.0
 31
0.0
 73
     1
 44
1.0
  0
POINT
  5
7C9D
330
7C94
100
AcDbEntity
  8
Defpoints
 62
     0
100
AcDbPoint
 10
3318.270374128647
 20
2370.890497544416
 30
0.0
  0
POINT
  5
7C9E
330
7C94
100
AcDbEntity
  8
Defpoints
 62
     0
100
AcDbPoint
 10
3299.770374128647
 20
2310.890497544415
 30
0.0
  0
POINT
  5
7C9F
330
7C94
100
AcDbEntity
  8
Defpoints
 62
     0
100
AcDbPoint
 10
2775.868220106889
 20
2310.890497544415
 30
0.0
  0
ENDBLK
  5
7C96
330
7C94
100
AcDbEntity
  8
0
100
AcDbBlockEnd
  0
BLOCK
  5
7CA2
330
7CA1
100
AcDbEntity
  8
0
100
AcDbBlockBegin
  2
*D37
 70
     1
 10
0.0
 20
0.0
 30
0.0
  3
*D37
  1

  0
LINE
  5
7CA4
330
7CA1
100
AcDbEntity
  8
Dim
 62
     0
370
    -2
100
AcDbLine
 10
353.0954952687171
 20
1578.816921309978
 30
0.0
 11
353.0954952687171
 21
1677.928362597231
 31
0.0
  0
LINE
  5
7CA5
330
7CA1
100
AcDbEntity
  8
Dim
 62
     0
370
    -2
100
AcDbLine
 10
853.095495268718
 20
1529.136361902402
 30
0.0
 11
853.095495268718
 21
1677.928362597231
 31
0.0
  0
LINE
  5
7CA6
330
7CA1
100
AcDbEntity
  8
Dim
 62
     0
370
    -2
100
AcDbLine
 10
363.0948849171546
 20
1677.928362597231
 30
0.0
 11
843.0961056202805
 21
1677.928362597231
 31
0.0
  0
INSERT
  5
7CA7
330
7CA1
100
AcDbEntity
  8
Dim
 62
     0
370
    -2
100
AcDbBlockReference
  2
_DOT
 10
353.0954952687171
 20
1677.928362597231
 30
0.0
 41
9.999389648437498
 42
9.999389648437498
 43
9.999389648437498
 50
180.0
  0
INSERT
  5
7CA8
330
7CA1
100
AcDbEntity
  8
Dim
 62
     0
370
    -2
100
AcDbBlockReference
  2
_DOT
 10
853.095495268718
 20
1677.928362597231
 30
0.0
 41
9.999389648437498
 42
9.999389648437498
 43
9.999389648437498
  0
MTEXT
  5
7CA9
330
7CA1
100
AcDbEntity
  8
Dim
 62
     0
100
AcDbMText
 10
603.0954952687175
 20
1700.144671190981
 30
0.0
 40
24.4326171875
 41
0.0
 46
0.0
 71
     5
 72
     1
  1
\A1;500
  7
ＭＳ ゴシック
 73
     1
 44
1.0
  0
POINT
  5
7CAA
330
7CA1
100
AcDbEntity
  8
Defpoints
 62
     0
100
AcDbPoint
 10
353.0954952687171
 20
1553.816921309978
 30
0.0
  0
POINT
  5
7CAB
330
7CA1
100
AcDbEntity
  8
Defpoints
 62
     0
100
AcDbPoint
 10
853.095495268718
 20
1504.136361902402
 30
0.0
  0
POINT
  5
7CAC
330
7CA1
100
AcDbEntity
  8
Defpoints
 62
     0
100
AcDbPoint
 10
853.095495268718
 20
1677.928362597231
 30
0.0
  0
ENDBLK
  5
7CA3
330
7CA1
100
AcDbEntity
  8
0
100
AcDbBlockEnd
  0
BLOCK
  5
7CAF
330
7CAE
100
AcDbEntity
  8
0
100
AcDbBlockBegin
  2
*D38
 70
     1
 10
0.0
 20
0.0
 30
0.0
  3
*D38
  1

  0
LINE
  5
7CB1
330
7CAE
100
AcDbEntity
  8
Dim
 62
     0
370
    -2
100
AcDbLine
 10
353.0954952687171
 20
570.5271165099773
 30
0.0
 11
353.0954952687171
 21
477.4926426260879
 31
0.0
  0
LINE
  5
7CB2
330
7CAE
100
AcDbEntity
  8
Dim
 62
     0
370
    -2
100
AcDbLine
 10
498.095495268718
 20
651.4215971024021
 30
0.0
 11
498.095495268718
 21
477.4926426260879
 31
0.0
  0
LINE
  5
7CB3
330
7CAE
100
AcDbEntity
  8
Dim
 62
     0
370
    -2
100
AcDbLine
 10
363.0948849171546
 20
477.4926426260879
 30
0.0
 11
488.0961056202805
 21
477.4926426260879
 31
0.0
  0
INSERT
  5
7CB4
330
7CAE
100
AcDbEntity
  8
Dim
 62
     0
370
    -2
100
AcDbBlockReference
  2
_DOT
 10
353.0954952687171
 20
477.4926426260879
 30
0.0
 41
9.999389648437498
 42
9.999389648437498
 43
9.999389648437498
 50
180.0
  0
INSERT
  5
7CB5
330
7CAE
100
AcDbEntity
  8
Dim
 62
     0
370
    -2
100
AcDbBlockReference
  2
_DOT
 10
498.095495268718
 20
477.4926426260879
 30
0.0
 41
9.999389648437498
 42
9.999389648437498
 43
9.999389648437498
  0
MTEXT
  5
7CB6
330
7CAE
100
AcDbEntity
  8
Dim
 62
     0
100
AcDbMText
 10
425.5954952687175
 20
499.7089512198379
 30
0.0
 40
24.4326171875
 41
0.0
 46
0.0
 71
     5
 72
     1
  1
\A1;145
  7
ＭＳ ゴシック
 73
     1
 44
1.0
  0
POINT
  5
7CB7
330
7CAE
100
AcDbEntity
  8
Defpoints
 62
     0
100
AcDbPoint
 10
353.0954952687171
 20
595.5271165099773
 30
0.0
  0
POINT
  5
7CB8
330
7CAE
100
AcDbEntity
  8
Defpoints
 62
     0
100
AcDbPoint
 10
498.095495268718
 20
676.4215971024021
 30
0.0
  0
POINT
  5
7CB9
330
7CAE
100
AcDbEntity
  8
Defpoints
 62
     0
100
AcDbPoint
 10
498.095495268718
 20
477.4926426260879
 30
0.0
  0
ENDBLK
  5
7CB0
330
7CAE
100
AcDbEntity
  8
0
100
AcDbBlockEnd
  0
BLOCK
  5
7CBC
330
7CBB
100
AcDbEntity
  8
0
100
AcDbBlockBegin
  2
*D39
 70
     1
 10
0.0
 20
0.0
 30
0.0
  3
*D39
  1

  0
LINE
  5
7CBE
330
7CBB
100
AcDbEntity
  8
Dim
 62
     0
370
    -2
100
AcDbLine
 10
498.095495268718
 20
651.4215971024021
 30
0.0
 11
498.095495268718
 21
477.4926426260878
 31
0.0
  0
LINE
  5
7CBF
330
7CBB
100
AcDbEntity
  8
Dim
 62
     0
370
    -2
100
AcDbLine
 10
808.0954952687184
 20
658.7206691024023
 30
0.0
 11
808.0954952687184
 21
477.4926426260879
 31
0.0
  0
LINE
  5
7CC0
330
7CBB
100
AcDbEntity
  8
Dim
 62
     0
370
    -2
100
AcDbLine
 10
508.0948849171555
 20
477.4926426260878
 30
0.0
 11
798.0961056202809
 21
477.4926426260879
 31
0.0
  0
INSERT
  5
7CC1
330
7CBB
100
AcDbEntity
  8
Dim
 62
     0
370
    -2
100
AcDbBlockReference
  2
_DOT
 10
498.095495268718
 20
477.4926426260878
 30
0.0
 41
9.999389648437498
 42
9.999389648437498
 43
9.999389648437498
 50
180.0
  0
INSERT
  5
7CC2
330
7CBB
100
AcDbEntity
  8
Dim
 62
     0
370
    -2
100
AcDbBlockReference
  2
_DOT
 10
808.0954952687184
 20
477.4926426260879
 30
0.0
 41
9.999389648437498
 42
9.999389648437498
 43
9.999389648437498
 50
0.0000000000000105
  0
MTEXT
  5
7CC3
330
7CBB
100
AcDbEntity
  8
Dim
 62
     0
100
AcDbMText
 10
653.0954952687182
 20
499.7089512198379
 30
0.0
 40
24.4326171875
 41
0.0
 46
0.0
 71
     5
 72
     1
  1
\A1;310
  7
ＭＳ ゴシック
 73
     1
 44
1.0
  0
POINT
  5
7CC4
330
7CBB
100
AcDbEntity
  8
Defpoints
 62
     0
100
AcDbPoint
 10
498.095495268718
 20
676.4215971024021
 30
0.0
  0
POINT
  5
7CC5
330
7CBB
100
AcDbEntity
  8
Defpoints
 62
     0
100
AcDbPoint
 10
808.0954952687184
 20
683.7206691024023
 30
0.0
  0
POINT
  5
7CC6
330
7CBB
100
AcDbEntity
  8
Defpoints
 62
     0
100
AcDbPoint
 10
808.0954952687184
 20
477.4926426260879
 30
0.0
  0
ENDBLK
  5
7CBD
330
7CBB
100
AcDbEntity
  8
0
100
AcDbBlockEnd
  0
BLOCK
  5
7CC9
330
7CC8
100
AcDbEntity
  8
0
100
AcDbBlockBegin
  2
*D40
 70
     1
 10
0.0
 20
0.0
 30
0.0
  3
*D40
  1

  0
LINE
  5
7CCB
330
7CC8
100
AcDbEntity
  8
Dim
 62
     0
370
    -2
100
AcDbLine
 10
808.0954952687184
 20
658.7206691024023
 30
0.0
 11
808.0954952687184
 21
477.4926426260879
 31
0.0
  0
LINE
  5
7CCC
330
7CC8
100
AcDbEntity
  8
Dim
 62
     0
370
    -2
100
AcDbLine
 10
853.0954952687184
 20
649.9617827024024
 30
0.0
 11
853.0954952687184
 21
477.4926426260879
 31
0.0
  0
LINE
  5
7CCD
330
7CC8
100
AcDbEntity
  8
Dim
 62
     0
370
    -2
100
AcDbLine
 10
818.0948849171559
 20
477.4926426260879
 30
0.0
 11
843.0961056202809
 21
477.4926426260879
 31
0.0
  0
INSERT
  5
7CCE
330
7CC8
100
AcDbEntity
  8
Dim
 62
     0
370
    -2
100
AcDbBlockReference
  2
_DOT
 10
808.0954952687184
 20
477.4926426260879
 30
0.0
 41
9.999389648437498
 42
9.999389648437498
 43
9.999389648437498
 50
180.0
  0
INSERT
  5
7CCF
330
7CC8
100
AcDbEntity
  8
Dim
 62
     0
370
    -2
100
AcDbBlockReference
  2
_DOT
 10
853.0954952687184
 20
477.4926426260879
 30
0.0
 41
9.999389648437498
 42
9.999389648437498
 43
9.999389648437498
  0
MTEXT
  5
7CD0
330
7CC8
100
AcDbEntity
  8
Dim
 62
     0
100
AcDbMText
 10
830.5954952687184
 20
499.7089512198379
 30
0.0
 40
24.4326171875
 41
0.0
 46
0.0
 71
     5
 72
     1
  1
\A1;45
  7
ＭＳ ゴシック
 73
     1
 44
1.0
  0
POINT
  5
7CD1
330
7CC8
100
AcDbEntity
  8
Defpoints
 62
     0
100
AcDbPoint
 10
808.0954952687184
 20
683.7206691024023
 30
0.0
  0
POINT
  5
7CD2
330
7CC8
100
AcDbEntity
  8
Defpoints
 62
     0
100
AcDbPoint
 10
853.0954952687184
 20
674.9617827024024
 30
0.0
  0
POINT
  5
7CD3
330
7CC8
100
AcDbEntity
  8
Defpoints
 62
     0
100
AcDbPoint
 10
853.0954952687184
 20
477.4926426260879
 30
0.0
  0
ENDBLK
  5
7CCA
330
7CC8
100
AcDbEntity
  8
0
100
AcDbBlockEnd
  0
BLOCK
  5
7CD7
330
7CD6
100
AcDbEntity
  8
0
100
AcDbBlockBegin
  2
*D41
 70
     1
 10
0.0
 20
0.0
 30
0.0
  3
*D41
  1

  0
LINE
  5
7CD9
330
7CD6
100
AcDbEntity
  8
Dim
 62
     0
370
    -2
100
AcDbLine
 10
2843.270374128647
 20
1751.374977544415
 30
0.0
 11
2843.270374128648
 21
1449.0995742471
 31
0.0
  0
LINE
  5
7CDA
330
7CD6
100
AcDbEntity
  8
Dim
 62
     0
370
    -2
100
AcDbLine
 10
2993.270374128647
 20
1846.374977544416
 30
0.0
 11
2993.270374128648
 21
1449.0995742471
 31
0.0
  0
LINE
  5
7CDB
330
7CD6
100
AcDbEntity
  8
Dim
 62
     0
370
    -2
100
AcDbLine
 10
2853.269763777085
 20
1449.0995742471
 30
0.0
 11
2983.27098448021
 21
1449.0995742471
 31
0.0
  0
INSERT
  5
7CDC
330
7CD6
100
AcDbEntity
  8
Dim
 62
     0
370
    -2
100
AcDbBlockReference
  2
_DOT
 10
2843.270374128648
 20
1449.0995742471
 30
0.0
 41
9.999389648437498
 42
9.999389648437498
 43
9.999389648437498
 50
180.0
  0
INSERT
  5
7CDD
330
7CD6
100
AcDbEntity
  8
Dim
 62
     0
370
    -2
100
AcDbBlockReference
  2
_DOT
 10
2993.270374128648
 20
1449.0995742471
 30
0.0
 41
9.999389648437498
 42
9.999389648437498
 43
9.999389648437498
  0
MTEXT
  5
7CDE
330
7CD6
100
AcDbEntity
  8
Dim
 62
     0
100
AcDbMText
 10
2918.270374128648
 20
1471.31588284085
 30
0.0
 40
24.4326171875
 41
0.0
 46
0.0
 71
     5
 72
     1
  1
\A1;150
  7
ＭＳ ゴシック
 73
     1
 44
1.0
  0
POINT
  5
7CDF
330
7CD6
100
AcDbEntity
  8
Defpoints
 62
     0
100
AcDbPoint
 10
2843.270374128647
 20
1776.374977544415
 30
0.0
  0
POINT
  5
7CE0
330
7CD6
100
AcDbEntity
  8
Defpoints
 62
     0
100
AcDbPoint
 10
2993.270374128647
 20
1871.374977544416
 30
0.0
  0
POINT
  5
7CE1
330
7CD6
100
AcDbEntity
  8
Defpoints
 62
     0
100
AcDbPoint
 10
2993.270374128648
 20
1449.0995742471
 30
0.0
  0
ENDBLK
  5
7CD8
330
7CD6
100
AcDbEntity
  8
0
100
AcDbBlockEnd
  0
BLOCK
  5
7CE4
330
7CE3
100
AcDbEntity
  8
0
100
AcDbBlockBegin
  2
*D42
 70
     1
 10
0.0
 20
0.0
 30
0.0
  3
*D42
  1

  0
LINE
  5
7CE6
330
7CE3
100
AcDbEntity
  8
Dim
 62
     0
370
    -2
100
AcDbLine
 10
877.611015268717
 20
745.5271165099778
 30
0.0
 11
981.9530425301857
 21
745.5271165099779
 31
0.0
  0
LINE
  5
7CE7
330
7CE3
100
AcDbEntity
  8
Dim
 62
     0
370
    -2
100
AcDbLine
 10
877.611015268717
 20
1395.527116509978
 30
0.0
 11
981.953042530185
 21
1395.527116509978
 31
0.0
  0
LINE
  5
7CE8
330
7CE3
100
AcDbEntity
  8
Dim
 62
     0
370
    -2
100
AcDbLine
 10
981.9530425301857
 20
755.5265061584154
 30
0.0
 11
981.953042530185
 21
1385.52772686154
 31
0.0
  0
INSERT
  5
7CE9
330
7CE3
100
AcDbEntity
  8
Dim
 62
     0
370
    -2
100
AcDbBlockReference
  2
_DOT
 10
981.9530425301857
 20
745.5271165099779
 30
0.0
 41
9.999389648437498
 42
9.999389648437498
 43
9.999389648437498
 50
270.0000000000001
  0
INSERT
  5
7CEA
330
7CE3
100
AcDbEntity
  8
Dim
 62
     0
370
    -2
100
AcDbBlockReference
  2
_DOT
 10
981.953042530185
 20
1395.527116509978
 30
0.0
 41
9.999389648437498
 42
9.999389648437498
 43
9.999389648437498
 50
90.00000000000006
  0
MTEXT
  5
7CEB
330
7CE3
100
AcDbEntity
  8
Dim
 62
     0
100
AcDbMText
 10
959.7367339364354
 20
1070.527116509978
 30
0.0
 40
24.4326171875
 41
0.0
 46
0.0
 71
     5
 72
     1
  1
\A1;650
  7
ＭＳ ゴシック
 11
-1.049416963584148E-15
 21
1.0
 31
0.0
 73
     1
 44
1.0
  0
POINT
  5
7CEC
330
7CE3
100
AcDbEntity
  8
Defpoints
 62
     0
100
AcDbPoint
 10
852.611015268717
 20
745.5271165099778
 30
0.0
  0
POINT
  5
7CED
330
7CE3
100
AcDbEntity
  8
Defpoints
 62
     0
100
AcDbPoint
 10
852.611015268717
 20
1395.527116509978
 30
0.0
  0
POINT
  5
7CEE
330
7CE3
100
AcDbEntity
  8
Defpoints
 62
     0
100
AcDbPoint
 10
981.953042530185
 20
1395.527116509978
 30
0.0
  0
ENDBLK
  5
7CE5
330
7CE3
100
AcDbEntity
  8
0
100
AcDbBlockEnd
  0
BLOCK
  5
7CF1
330
7CF0
100
AcDbEntity
  8
0
100
AcDbBlockBegin
  2
*D43
 70
     1
 10
0.0
 20
0.0
 30
0.0
  3
*D43
  1

  0
LINE
  5
7CF3
330
7CF0
100
AcDbEntity
  8
Dim
 62
     0
370
    -2
100
AcDbLine
 10
877.611015268717
 20
1395.527116509978
 30
0.0
 11
981.9530425301847
 21
1395.527116509978
 31
0.0
  0
LINE
  5
7CF4
330
7CF0
100
AcDbEntity
  8
Dim
 62
     0
370
    -2
100
AcDbLine
 10
833.095495268718
 20
1545.527116509978
 30
0.0
 11
981.9530425301846
 21
1545.527116509978
 31
0.0
  0
LINE
  5
7CF5
330
7CF0
100
AcDbEntity
  8
Dim
 62
     0
370
    -2
100
AcDbLine
 10
981.9530425301847
 20
1405.526506158415
 30
0.0
 11
981.9530425301846
 21
1535.52772686154
 31
0.0
  0
INSERT
  5
7CF6
330
7CF0
100
AcDbEntity
  8
Dim
 62
     0
370
    -2
100
AcDbBlockReference
  2
_DOT
 10
981.9530425301847
 20
1395.527116509978
 30
0.0
 41
9.999389648437498
 42
9.999389648437498
 43
9.999389648437498
 50
270.0000000000001
  0
INSERT
  5
7CF7
330
7CF0
100
AcDbEntity
  8
Dim
 62
     0
370
    -2
100
AcDbBlockReference
  2
_DOT
 10
981.9530425301846
 20
1545.527116509978
 30
0.0
 41
9.999389648437498
 42
9.999389648437498
 43
9.999389648437498
 50
90.00000000000006
  0
MTEXT
  5
7CF8
330
7CF0
100
AcDbEntity
  8
Dim
 62
     0
100
AcDbMText
 10
959.7367339364346
 20
1470.527116509978
 30
0.0
 40
24.4326171875
 41
0.0
 46
0.0
 71
     5
 72
     1
  1
\A1;150
  7
ＭＳ ゴシック
 11
-7.579122514774402E-16
 21
1.0
 31
0.0
 73
     1
 44
1.0
  0
POINT
  5
7CF9
330
7CF0
100
AcDbEntity
  8
Defpoints
 62
     0
100
AcDbPoint
 10
852.611015268717
 20
1395.527116509978
 30
0.0
  0
POINT
  5
7CFA
330
7CF0
100
AcDbEntity
  8
Defpoints
 62
     0
100
AcDbPoint
 10
808.095495268718
 20
1545.527116509978
 30
0.0
  0
POINT
  5
7CFB
330
7CF0
100
AcDbEntity
  8
Defpoints
 62
     0
100
AcDbPoint
 10
981.9530425301846
 20
1545.527116509978
 30
0.0
  0
ENDBLK
  5
7CF2
330
7CF0
100
AcDbEntity
  8
0
100
AcDbBlockEnd
  0
BLOCK
  5
7CFE
330
7CFD
100
AcDbEntity
  8
0
100
AcDbBlockBegin
  2
*D44
 70
     1
 10
0.0
 20
0.0
 30
0.0
  3
*D44
  1

  0
LINE
  5
7D00
330
7CFD
100
AcDbEntity
  8
Dim
 62
     0
370
    -2
100
AcDbLine
 10
2843.270374128647
 20
2139.890497544415
 30
0.0
 11
2843.270374128647
 21
1789.849724017107
 31
0.0
  0
LINE
  5
7D01
330
7CFD
100
AcDbEntity
  8
Dim
 62
     0
370
    -2
100
AcDbLine
 10
3793.270374128647
 20
2139.890497544415
 30
0.0
 11
3793.270374128647
 21
1789.849724017107
 31
0.0
  0
LINE
  5
7D02
330
7CFD
100
AcDbEntity
  8
Dim
 62
     0
370
    -2
100
AcDbLine
 10
2853.269763777084
 20
1789.849724017107
 30
0.0
 11
3783.270984480209
 21
1789.849724017107
 31
0.0
  0
INSERT
  5
7D03
330
7CFD
100
AcDbEntity
  8
Dim
 62
     0
370
    -2
100
AcDbBlockReference
  2
_DOT
 10
2843.270374128647
 20
1789.849724017107
 30
0.0
 41
9.999389648437498
 42
9.999389648437498
 43
9.999389648437498
 50
180.0
  0
INSERT
  5
7D04
330
7CFD
100
AcDbEntity
  8
Dim
 62
     0
370
    -2
100
AcDbBlockReference
  2
_DOT
 10
3793.270374128647
 20
1789.849724017107
 30
0.0
 41
9.999389648437498
 42
9.999389648437498
 43
9.999389648437498
  0
MTEXT
  5
7D05
330
7CFD
100
AcDbEntity
  8
Dim
 62
     0
100
AcDbMText
 10
3318.270374128647
 20
1812.066032610857
 30
0.0
 40
24.4326171875
 41
0.0
 46
0.0
 71
     5
 72
     1
  1
\A1;950
  7
ＭＳ ゴシック
 73
     1
 44
1.0
  0
POINT
  5
7D06
330
7CFD
100
AcDbEntity
  8
Defpoints
 62
     0
100
AcDbPoint
 10
2843.270374128647
 20
2164.890497544415
 30
0.0
  0
POINT
  5
7D07
330
7CFD
100
AcDbEntity
  8
Defpoints
 62
     0
100
AcDbPoint
 10
3793.270374128647
 20
2164.890497544415
 30
0.0
  0
POINT
  5
7D08
330
7CFD
100
AcDbEntity
  8
Defpoints
 62
     0
100
AcDbPoint
 10
3793.270374128647
 20
1789.849724017107
 30
0.0
  0
ENDBLK
  5
7CFF
330
7CFD
100
AcDbEntity
  8
0
100
AcDbBlockEnd
  0
BLOCK
  5
7D0B
330
7D0A
100
AcDbEntity
  8
0
100
AcDbBlockBegin
  2
*D45
 70
     1
 10
0.0
 20
0.0
 30
0.0
  3
*D45
  1

  0
LINE
  5
7D0D
330
7D0A
100
AcDbEntity
  8
Dim
 62
     0
370
    -2
100
AcDbLine
 10
1626.658310813133
 20
2098.586999546907
 30
0.0
 11
1626.658310813133
 21
2054.948911123639
 31
0.0
  0
LINE
  5
7D0E
330
7D0A
100
AcDbEntity
  8
Dim
 62
     0
370
    -2
100
AcDbLine
 10
1641.658310813133
 20
2094.586999546906
 30
0.0
 11
1641.658310813133
 21
2054.948911123639
 31
0.0
  0
LINE
  5
7D0F
330
7D0A
100
AcDbEntity
  8
Dim
 62
     0
370
    -2
100
AcDbLine
 10
1636.65770046157
 20
2054.948911123639
 30
0.0
 11
1631.658921164695
 21
2054.948911123639
 31
0.0
  0
INSERT
  5
7D10
330
7D0A
100
AcDbEntity
  8
Dim
 62
     0
370
    -2
100
AcDbBlockReference
  2
_DOT
 10
1626.658310813133
 20
2054.948911123639
 30
0.0
 41
9.999389648437498
 42
9.999389648437498
 43
9.999389648437498
 50
180.0
  0
INSERT
  5
7D11
330
7D0A
100
AcDbEntity
  8
Dim
 62
     0
370
    -2
100
AcDbBlockReference
  2
_DOT
 10
1641.658310813133
 20
2054.948911123639
 30
0.0
 41
9.999389648437498
 42
9.999389648437498
 43
9.999389648437498
  0
MTEXT
  5
7D12
330
7D0A
100
AcDbEntity
  8
Dim
 62
     0
100
AcDbMText
 10
1634.158310813133
 20
2077.165219717389
 30
0.0
 40
24.4326171875
 41
0.0
 46
0.0
 71
     5
 72
     1
  1
\A1;15
  7
ＭＳ ゴシック
 73
     1
 44
1.0
  0
POINT
  5
7D13
330
7D0A
100
AcDbEntity
  8
Defpoints
 62
     0
100
AcDbPoint
 10
1626.658310813133
 20
2123.586999546907
 30
0.0
  0
POINT
  5
7D14
330
7D0A
100
AcDbEntity
  8
Defpoints
 62
     0
100
AcDbPoint
 10
1641.658310813133
 20
2119.586999546906
 30
0.0
  0
POINT
  5
7D15
330
7D0A
100
AcDbEntity
  8
Defpoints
 62
     0
100
AcDbPoint
 10
1641.658310813133
 20
2054.948911123639
 30
0.0
  0
ENDBLK
  5
7D0C
330
7D0A
100
AcDbEntity
  8
0
100
AcDbBlockEnd
  0
BLOCK
  5
7D19
330
7D18
100
AcDbEntity
  8
0
100
AcDbBlockBegin
  2
*D46
 70
     1
 10
0.0
 20
0.0
 30
0.0
  3
*D46
  1

  0
LINE
  5
7D1B
330
7D18
100
AcDbEntity
  8
Dim
 62
     0
370
    -2
100
AcDbLine
 10
1626.658310813133
 20
2087.9224919117
 30
0.0
 11
1626.658310813133
 21
2054.948911123639
 31
0.0
  0
LINE
  5
7D1C
330
7D18
100
AcDbEntity
  8
Dim
 62
     0
370
    -2
100
AcDbLine
 10
1766.658310813133
 20
2110.245756525094
 30
0.0
 11
1766.658310813133
 21
2054.948911123639
 31
0.0
  0
LINE
  5
7D1D
330
7D18
100
AcDbEntity
  8
Dim
 62
     0
370
    -2
100
AcDbLine
 10
1636.657700461571
 20
2054.948911123639
 30
0.0
 11
1756.658921164696
 21
2054.948911123639
 31
0.0
  0
INSERT
  5
7D1E
330
7D18
100
AcDbEntity
  8
Dim
 62
     0
370
    -2
100
AcDbBlockReference
  2
_DOT
 10
1626.658310813133
 20
2054.948911123639
 30
0.0
 41
9.999389648437498
 42
9.999389648437498
 43
9.999389648437498
 50
180.0
  0
INSERT
  5
7D1F
330
7D18
100
AcDbEntity
  8
Dim
 62
     0
370
    -2
100
AcDbBlockReference
  2
_DOT
 10
1766.658310813133
 20
2054.948911123639
 30
0.0
 41
9.999389648437498
 42
9.999389648437498
 43
9.999389648437498
  0
MTEXT
  5
7D20
330
7D18
100
AcDbEntity
  8
Dim
 62
     0
100
AcDbMText
 10
1696.658310813133
 20
2077.165219717389
 30
0.0
 40
24.4326171875
 41
0.0
 46
0.0
 71
     5
 72
     1
  1
\A1;140
  7
ＭＳ ゴシック
 73
     1
 44
1.0
  0
POINT
  5
7D21
330
7D18
100
AcDbEntity
  8
Defpoints
 62
     0
100
AcDbPoint
 10
1626.658310813133
 20
2112.9224919117
 30
0.0
  0
POINT
  5
7D22
330
7D18
100
AcDbEntity
  8
Defpoints
 62
     0
100
AcDbPoint
 10
1766.658310813133
 20
2135.245756525094
 30
0.0
  0
POINT
  5
7D23
330
7D18
100
AcDbEntity
  8
Defpoints
 62
     0
100
AcDbPoint
 10
1766.658310813133
 20
2054.948911123639
 30
0.0
  0
ENDBLK
  5
7D1A
330
7D18
100
AcDbEntity
  8
0
100
AcDbBlockEnd
  0
BLOCK
  5
7D26
330
7D25
100
AcDbEntity
  8
0
100
AcDbBlockBegin
  2
*D47
 70
     1
 10
0.0
 20
0.0
 30
0.0
  3
*D47
  1

  0
LINE
  5
7D28
330
7D25
100
AcDbEntity
  8
Dim
 62
     0
370
    -2
100
AcDbLine
 10
4545.211257165574
 20
1097.327681999999
 30
0.0
 11
4825.456021678964
 21
1097.327681999999
 31
0.0
  0
LINE
  5
7D29
330
7D25
100
AcDbEntity
  8
Dim
 62
     0
370
    -2
100
AcDbLine
 10
4553.211257165575
 20
957.3276819999994
 30
0.0
 11
4825.456021678964
 21
957.3276819999994
 31
0.0
  0
LINE
  5
7D2A
330
7D25
100
AcDbEntity
  8
Dim
 62
     0
370
    -2
100
AcDbLine
 10
4825.456021678964
 20
1087.328292351562
 30
0.0
 11
4825.456021678964
 21
967.3270716484369
 31
0.0
  0
INSERT
  5
7D2B
330
7D25
100
AcDbEntity
  8
Dim
 62
     0
370
    -2
100
AcDbBlockReference
  2
_DOT
 10
4825.456021678964
 20
1097.327681999999
 30
0.0
 41
9.999389648437498
 42
9.999389648437498
 43
9.999389648437498
 50
90.0
  0
INSERT
  5
7D2C
330
7D25
100
AcDbEntity
  8
Dim
 62
     0
370
    -2
100
AcDbBlockReference
  2
_DOT
 10
4825.456021678964
 20
957.3276819999994
 30
0.0
 41
9.999389648437498
 42
9.999389648437498
 43
9.999389648437498
 50
270.0
  0
MTEXT
  5
7D2D
330
7D25
100
AcDbEntity
  8
Dim
 62
     0
100
AcDbMText
 10
4803.239713085214
 20
1027.327681999999
 30
0.0
 40
24.4326171875
 41
0.0
 46
0.0
 71
     5
 72
     1
  1
\A1;140
  7
ＭＳ ゴシック
 11
0.0
 21
1.0
 31
0.0
 73
     1
 44
1.0
  0
POINT
  5
7D2E
330
7D25
100
AcDbEntity
  8
Defpoints
 62
     0
100
AcDbPoint
 10
4520.211257165574
 20
1097.327681999999
 30
0.0
  0
POINT
  5
7D2F
330
7D25
100
AcDbEntity
  8
Defpoints
 62
     0
100
AcDbPoint
 10
4528.211257165575
 20
957.3276819999994
 30
0.0
  0
POINT
  5
7D30
330
7D25
100
AcDbEntity
  8
Defpoints
 62
     0
100
AcDbPoint
 10
4825.456021678964
 20
957.3276819999994
 30
0.0
  0
ENDBLK
  5
7D27
330
7D25
100
AcDbEntity
  8
0
100
AcDbBlockEnd
  0
BLOCK
  5
7D33
330
7D32
100
AcDbEntity
  8
0
100
AcDbBlockBegin
  2
*D48
 70
     1
 10
0.0
 20
0.0
 30
0.0
  3
*D48
  1

  0
LINE
  5
7D35
330
7D32
100
AcDbEntity
  8
Dim
 62
     0
370
    -2
100
AcDbLine
 10
1766.658310813132
 20
2101.276656851494
 30
0.0
 11
1766.658310813132
 21
2054.948911123638
 31
0.0
  0
LINE
  5
7D36
330
7D32
100
AcDbEntity
  8
Dim
 62
     0
370
    -2
100
AcDbLine
 10
1806.658310813129
 20
2339.854708169254
 30
0.0
 11
1806.658310813129
 21
2054.948911123637
 31
0.0
  0
LINE
  5
7D37
330
7D32
100
AcDbEntity
  8
Dim
 62
     0
370
    -2
100
AcDbLine
 10
1776.657700461569
 20
2054.948911123638
 30
0.0
 11
1796.658921164691
 21
2054.948911123638
 31
0.0
  0
INSERT
  5
7D38
330
7D32
100
AcDbEntity
  8
Dim
 62
     0
370
    -2
100
AcDbBlockReference
  2
_DOT
 10
1766.658310813132
 20
2054.948911123638
 30
0.0
 41
9.999389648437498
 42
9.999389648437498
 43
9.999389648437498
 50
179.999999999998
  0
INSERT
  5
7D39
330
7D32
100
AcDbEntity
  8
Dim
 62
     0
370
    -2
100
AcDbBlockReference
  2
_DOT
 10
1806.658310813129
 20
2054.948911123637
 30
0.0
 41
9.999389648437498
 42
9.999389648437498
 43
9.999389648437498
 50
359.9999999999981
  0
MTEXT
  5
7D3A
330
7D32
100
AcDbEntity
  8
Dim
 62
     0
100
AcDbMText
 10
1786.658310813131
 20
2077.165219717388
 30
0.0
 40
24.4326171875
 41
0.0
 46
0.0
 71
     5
 72
     1
  1
\A1;40
  7
ＭＳ ゴシック
 73
     1
 44
1.0
  0
POINT
  5
7D3B
330
7D32
100
AcDbEntity
  8
Defpoints
 62
     0
100
AcDbPoint
 10
1766.658310813132
 20
2126.276656851494
 30
0.0
  0
POINT
  5
7D3C
330
7D32
100
AcDbEntity
  8
Defpoints
 62
     0
100
AcDbPoint
 10
1806.658310813129
 20
2364.854708169254
 30
0.0
  0
POINT
  5
7D3D
330
7D32
100
AcDbEntity
  8
Defpoints
 62
     0
100
AcDbPoint
 10
1806.658310813129
 20
2054.948911123637
 30
0.0
  0
ENDBLK
  5
7D34
330
7D32
100
AcDbEntity
  8
0
100
AcDbBlockEnd
  0
BLOCK
  5
7D41
330
7D40
100
AcDbEntity
  8
0
100
AcDbBlockBegin
  2
*D49
 70
     1
 10
0.0
 20
0.0
 30
0.0
  3
*D49
  1

  0
LINE
  5
7D43
330
7D40
100
AcDbEntity
  8
Dim
 62
     0
370
    -2
100
AcDbLine
 10
4268.211257165575
 20
1116.327681999999
 30
0.0
 11
4268.211257165575
 21
1165.684176101112
 31
0.0
  0
LINE
  5
7D44
330
7D40
100
AcDbEntity
  8
Dim
 62
     0
370
    -2
100
AcDbLine
 10
4768.211257165574
 20
1062.327682000008
 30
0.0
 11
4768.211257165574
 21
1165.684176101112
 31
0.0
  0
LINE
  5
7D45
330
7D40
100
AcDbEntity
  8
Dim
 62
     0
370
    -2
100
AcDbLine
 10
4278.210646814013
 20
1165.684176101112
 30
0.0
 11
4758.211867517137
 21
1165.684176101112
 31
0.0
  0
INSERT
  5
7D46
330
7D40
100
AcDbEntity
  8
Dim
 62
     0
370
    -2
100
AcDbBlockReference
  2
_DOT
 10
4268.211257165575
 20
1165.684176101112
 30
0.0
 41
9.999389648437498
 42
9.999389648437498
 43
9.999389648437498
 50
180.0
  0
INSERT
  5
7D47
330
7D40
100
AcDbEntity
  8
Dim
 62
     0
370
    -2
100
AcDbBlockReference
  2
_DOT
 10
4768.211257165574
 20
1165.684176101112
 30
0.0
 41
9.999389648437498
 42
9.999389648437498
 43
9.999389648437498
  0
MTEXT
  5
7D48
330
7D40
100
AcDbEntity
  8
Dim
 62
     0
100
AcDbMText
 10
4518.211257165574
 20
1187.900484694862
 30
0.0
 40
24.4326171875
 41
0.0
 46
0.0
 71
     5
 72
     1
  1
\A1;500
  7
ＭＳ ゴシック
 73
     1
 44
1.0
  0
POINT
  5
7D49
330
7D40
100
AcDbEntity
  8
Defpoints
 62
     0
100
AcDbPoint
 10
4268.211257165575
 20
1091.327681999999
 30
0.0
  0
POINT
  5
7D4A
330
7D40
100
AcDbEntity
  8
Defpoints
 62
     0
100
AcDbPoint
 10
4768.211257165574
 20
1037.327682000008
 30
0.0
  0
POINT
  5
7D4B
330
7D40
100
AcDbEntity
  8
Defpoints
 62
     0
100
AcDbPoint
 10
4768.211257165574
 20
1165.684176101112
 30
0.0
  0
ENDBLK
  5
7D42
330
7D40
100
AcDbEntity
  8
0
100
AcDbBlockEnd
  0
BLOCK
  5
7D4E
330
7D4D
100
AcDbEntity
  8
0
100
AcDbBlockBegin
  2
*D50
 70
     1
 10
0.0
 20
0.0
 30
0.0
  3
*D50
  1

  0
LINE
  5
7D50
330
7D4D
100
AcDbEntity
  8
Dim
 62
     0
370
    -2
100
AcDbLine
 10
1608.440966813133
 20
595.5271165099755
 30
0.0
 11
1515.647508115901
 21
595.5271165099755
 31
0.0
  0
LINE
  5
7D51
330
7D4D
100
AcDbEntity
  8
Dim
 62
     0
370
    -2
100
AcDbLine
 10
1608.440966813133
 20
1545.527116509977
 30
0.0
 11
1515.647508115901
 21
1545.527116509977
 31
0.0
  0
LINE
  5
7D52
330
7D4D
100
AcDbEntity
  8
Dim
 62
     0
370
    -2
100
AcDbLine
 10
1515.647508115901
 20
605.526506158413
 30
0.0
 11
1515.647508115901
 21
1535.52772686154
 31
0.0
  0
INSERT
  5
7D53
330
7D4D
100
AcDbEntity
  8
Dim
 62
     0
370
    -2
100
AcDbBlockReference
  2
_DOT
 10
1515.647508115901
 20
595.5271165099755
 30
0.0
 41
9.999389648437498
 42
9.999389648437498
 43
9.999389648437498
 50
270.0
  0
INSERT
  5
7D54
330
7D4D
100
AcDbEntity
  8
Dim
 62
     0
370
    -2
100
AcDbBlockReference
  2
_DOT
 10
1515.647508115901
 20
1545.527116509977
 30
0.0
 41
9.999389648437498
 42
9.999389648437498
 43
9.999389648437498
 50
90.0
  0
MTEXT
  5
7D55
330
7D4D
100
AcDbEntity
  8
Dim
 62
     0
100
AcDbMText
 10
1493.431199522151
 20
1070.527116509976
 30
0.0
 40
24.4326171875
 41
0.0
 46
0.0
 71
     5
 72
     1
  1
\A1;950
  7
ＭＳ ゴシック
 11
0.0
 21
1.0
 31
0.0
 73
     1
 44
1.0
  0
POINT
  5
7D56
330
7D4D
100
AcDbEntity
  8
Defpoints
 62
     0
100
AcDbPoint
 10
1633.440966813133
 20
595.5271165099755
 30
0.0
  0
POINT
  5
7D57
330
7D4D
100
AcDbEntity
  8
Defpoints
 62
     0
100
AcDbPoint
 10
1633.440966813133
 20
1545.527116509977
 30
0.0
  0
POINT
  5
7D58
330
7D4D
100
AcDbEntity
  8
Defpoints
 62
     0
100
AcDbPoint
 10
1515.647508115901
 20
1545.527116509977
 30
0.0
  0
ENDBLK
  5
7D4F
330
7D4D
100
AcDbEntity
  8
0
100
AcDbBlockEnd
  0
BLOCK
  5
7D5B
330
7D5A
100
AcDbEntity
  8
0
100
AcDbBlockBegin
  2
*D51
 70
     1
 10
0.0
 20
0.0
 30
0.0
  3
*D51
  1

  0
LINE
  5
7D5D
330
7D5A
100
AcDbEntity
  8
Dim
 62
     0
370
    -2
100
AcDbLine
 10
1626.658310813134
 20
1578.806068978471
 30
0.0
 11
1626.658310813134
 21
1620.68869556047
 31
0.0
  0
LINE
  5
7D5E
330
7D5A
100
AcDbEntity
  8
Dim
 62
     0
370
    -2
100
AcDbLine
 10
1766.658310813134
 20
1568.528975602472
 30
0.0
 11
1766.658310813134
 21
1620.688695560469
 31
0.0
  0
LINE
  5
7D5F
330
7D5A
100
AcDbEntity
  8
Dim
 62
     0
370
    -2
100
AcDbLine
 10
1636.657700461571
 20
1620.68869556047
 30
0.0
 11
1756.658921164696
 21
1620.688695560469
 31
0.0
  0
INSERT
  5
7D60
330
7D5A
100
AcDbEntity
  8
Dim
 62
     0
370
    -2
100
AcDbBlockReference
  2
_DOT
 10
1626.658310813134
 20
1620.68869556047
 30
0.0
 41
9.999389648437498
 42
9.999389648437498
 43
9.999389648437498
 50
179.9999999999996
  0
INSERT
  5
7D61
330
7D5A
100
AcDbEntity
  8
Dim
 62
     0
370
    -2
100
AcDbBlockReference
  2
_DOT
 10
1766.658310813134
 20
1620.688695560469
 30
0.0
 41
9.999389648437498
 42
9.999389648437498
 43
9.999389648437498
 50
359.9999999999997
  0
MTEXT
  5
7D62
330
7D5A
100
AcDbEntity
  8
Dim
 62
     0
100
AcDbMText
 10
1696.658310813134
 20
1642.905004154219
 30
0.0
 40
24.4326171875
 41
0.0
 46
0.0
 71
     5
 72
     1
  1
\A1;140
  7
ＭＳ ゴシック
 73
     1
 44
1.0
  0
POINT
  5
7D63
330
7D5A
100
AcDbEntity
  8
Defpoints
 62
     0
100
AcDbPoint
 10
1626.658310813134
 20
1553.806068978471
 30
0.0
  0
POINT
  5
7D64
330
7D5A
100
AcDbEntity
  8
Defpoints
 62
     0
100
AcDbPoint
 10
1766.658310813134
 20
1543.528975602472
 30
0.0
  0
POINT
  5
7D65
330
7D5A
100
AcDbEntity
  8
Defpoints
 62
     0
100
AcDbPoint
 10
1766.658310813134
 20
1620.688695560469
 30
0.0
  0
ENDBLK
  5
7D5C
330
7D5A
100
AcDbEntity
  8
0
100
AcDbBlockEnd
  0
BLOCK
  5
7D68
330
7D67
100
AcDbEntity
  8
0
100
AcDbBlockBegin
  2
*D52
 70
     1
 10
0.0
 20
0.0
 30
0.0
  3
*D52
  1

  0
LINE
  5
7D6A
330
7D67
100
AcDbEntity
  8
Dim
 62
     0
370
    -2
100
AcDbLine
 10
1626.658310813134
 20
1577.871787762472
 30
0.0
 11
1626.658310813134
 21
1626.280370491392
 31
0.0
  0
LINE
  5
7D6B
330
7D67
100
AcDbEntity
  8
Dim
 62
     0
370
    -2
100
AcDbLine
 10
1806.658310813126
 20
1140.628178674471
 30
0.0
 11
1806.658310813126
 21
1626.280370491392
 31
0.0
  0
LINE
  5
7D6C
330
7D67
100
AcDbEntity
  8
Dim
 62
     0
370
    -2
100
AcDbLine
 10
1636.657700461571
 20
1626.280370491392
 30
0.0
 11
1796.658921164689
 21
1626.280370491392
 31
0.0
  0
INSERT
  5
7D6D
330
7D67
100
AcDbEntity
  8
Dim
 62
     0
370
    -2
100
AcDbBlockReference
  2
_DOT
 10
1626.658310813134
 20
1626.280370491392
 30
0.0
 41
9.999389648437498
 42
9.999389648437498
 43
9.999389648437498
 50
180.0
  0
INSERT
  5
7D6E
330
7D67
100
AcDbEntity
  8
Dim
 62
     0
370
    -2
100
AcDbBlockReference
  2
_DOT
 10
1806.658310813126
 20
1626.280370491392
 30
0.0
 41
9.999389648437498
 42
9.999389648437498
 43
9.999389648437498
  0
MTEXT
  5
7D6F
330
7D67
100
AcDbEntity
  8
Dim
 62
     0
100
AcDbMText
 10
1716.65831081313
 20
1648.496679085142
 30
0.0
 40
24.4326171875
 41
0.0
 46
0.0
 71
     5
 72
     1
  1
\A1;180
  7
ＭＳ ゴシック
 73
     1
 44
1.0
  0
POINT
  5
7D70
330
7D67
100
AcDbEntity
  8
Defpoints
 62
     0
100
AcDbPoint
 10
1626.658310813134
 20
1552.871787762472
 30
0.0
  0
POINT
  5
7D71
330
7D67
100
AcDbEntity
  8
Defpoints
 62
     0
100
AcDbPoint
 10
1806.658310813126
 20
1115.628178674471
 30
0.0
  0
POINT
  5
7D72
330
7D67
100
AcDbEntity
  8
Defpoints
 62
     0
100
AcDbPoint
 10
1806.658310813126
 20
1626.280370491392
 30
0.0
  0
ENDBLK
  5
7D69
330
7D67
100
AcDbEntity
  8
0
100
AcDbBlockEnd
  0
BLOCK
  5
7D75
330
7D74
100
AcDbEntity
  8
0
100
AcDbBlockBegin
  2
*D53
 70
     1
 10
0.0
 20
0.0
 30
0.0
  3
*D53
  1

  0
LINE
  5
7D77
330
7D74
100
AcDbEntity
  8
Dim
 62
     0
370
    -2
100
AcDbLine
 10
3048.270374128648
 20
-414.4274415337276
 30
0.0
 11
3048.270374128648
 21
-328.9258685940838
 31
0.0
  0
LINE
  5
7D78
330
7D74
100
AcDbEntity
  8
Dim
 62
     0
370
    -2
100
AcDbLine
 10
3178.270374128647
 20
-414.4274415337276
 30
0.0
 11
3178.270374128647
 21
-328.9258685940838
 31
0.0
  0
LINE
  5
7D79
330
7D74
100
AcDbEntity
  8
Dim
 62
     0
370
    -2
100
AcDbLine
 10
3058.269763777085
 20
-328.9258685940838
 30
0.0
 11
3168.270984480209
 21
-328.9258685940838
 31
0.0
  0
INSERT
  5
7D7A
330
7D74
100
AcDbEntity
  8
Dim
 62
     0
370
    -2
100
AcDbBlockReference
  2
_DOT
 10
3048.270374128648
 20
-328.9258685940838
 30
0.0
 41
9.999389648437498
 42
9.999389648437498
 43
9.999389648437498
 50
180.0
  0
INSERT
  5
7D7B
330
7D74
100
AcDbEntity
  8
Dim
 62
     0
370
    -2
100
AcDbBlockReference
  2
_DOT
 10
3178.270374128647
 20
-328.9258685940838
 30
0.0
 41
9.999389648437498
 42
9.999389648437498
 43
9.999389648437498
  0
MTEXT
  5
7D7C
330
7D74
100
AcDbEntity
  8
Dim
 62
     0
100
AcDbMText
 10
3113.270374128647
 20
-306.7095600003338
 30
0.0
 40
24.4326171875
 41
0.0
 46
0.0
 71
     5
 72
     1
  1
\A1;130
  7
ＭＳ ゴシック
 73
     1
 44
1.0
  0
POINT
  5
7D7D
330
7D74
100
AcDbEntity
  8
Defpoints
 62
     0
100
AcDbPoint
 10
3048.270374128648
 20
-439.4274415337276
 30
0.0
  0
POINT
  5
7D7E
330
7D74
100
AcDbEntity
  8
Defpoints
 62
     0
100
AcDbPoint
 10
3178.270374128647
 20
-439.4274415337276
 30
0.0
  0
POINT
  5
7D7F
330
7D74
100
AcDbEntity
  8
Defpoints
 62
     0
100
AcDbPoint
 10
3178.270374128647
 20
-328.9258685940838
 30
0.0
  0
ENDBLK
  5
7D76
330
7D74
100
AcDbEntity
  8
0
100
AcDbBlockEnd
  0
BLOCK
  5
7D82
330
7D81
100
AcDbEntity
  8
0
100
AcDbBlockBegin
  2
*D54
 70
     1
 10
0.0
 20
0.0
 30
0.0
  3
*D54
  1

  0
LINE
  5
7D84
330
7D81
100
AcDbEntity
  8
Dim
 62
     0
370
    -2
100
AcDbLine
 10
3178.270374128647
 20
-414.4274415337276
 30
0.0
 11
3178.270374128647
 21
-328.9258685940838
 31
0.0
  0
LINE
  5
7D85
330
7D81
100
AcDbEntity
  8
Dim
 62
     0
370
    -2
100
AcDbLine
 10
3458.270374128647
 20
-414.4274415337276
 30
0.0
 11
3458.270374128647
 21
-328.9258685940838
 31
0.0
  0
LINE
  5
7D86
330
7D81
100
AcDbEntity
  8
Dim
 62
     0
370
    -2
100
AcDbLine
 10
3188.269763777084
 20
-328.9258685940838
 30
0.0
 11
3448.270984480209
 21
-328.9258685940838
 31
0.0
  0
INSERT
  5
7D87
330
7D81
100
AcDbEntity
  8
Dim
 62
     0
370
    -2
100
AcDbBlockReference
  2
_DOT
 10
3178.270374128647
 20
-328.9258685940838
 30
0.0
 41
9.999389648437498
 42
9.999389648437498
 43
9.999389648437498
 50
180.0
  0
INSERT
  5
7D88
330
7D81
100
AcDbEntity
  8
Dim
 62
     0
370
    -2
100
AcDbBlockReference
  2
_DOT
 10
3458.270374128647
 20
-328.9258685940838
 30
0.0
 41
9.999389648437498
 42
9.999389648437498
 43
9.999389648437498
  0
MTEXT
  5
7D89
330
7D81
100
AcDbEntity
  8
Dim
 62
     0
100
AcDbMText
 10
3318.270374128647
 20
-306.7095600003338
 30
0.0
 40
24.4326171875
 41
0.0
 46
0.0
 71
     5
 72
     1
  1
\A1;280
  7
ＭＳ ゴシック
 73
     1
 44
1.0
  0
POINT
  5
7D8A
330
7D81
100
AcDbEntity
  8
Defpoints
 62
     0
100
AcDbPoint
 10
3178.270374128647
 20
-439.4274415337276
 30
0.0
  0
POINT
  5
7D8B
330
7D81
100
AcDbEntity
  8
Defpoints
 62
     0
100
AcDbPoint
 10
3458.270374128647
 20
-439.4274415337276
 30
0.0
  0
POINT
  5
7D8C
330
7D81
100
AcDbEntity
  8
Defpoints
 62
     0
100
AcDbPoint
 10
3458.270374128647
 20
-328.9258685940838
 30
0.0
  0
ENDBLK
  5
7D83
330
7D81
100
AcDbEntity
  8
0
100
AcDbBlockEnd
  0
BLOCK
  5
7D8F
330
7D8E
100
AcDbEntity
  8
0
100
AcDbBlockBegin
  2
*D55
 70
     1
 10
0.0
 20
0.0
 30
0.0
  3
*D55
  1

  0
LINE
  5
7D91
330
7D8E
100
AcDbEntity
  8
Dim
 62
     0
370
    -2
100
AcDbLine
 10
3458.270374128647
 20
-414.4274415337276
 30
0.0
 11
3458.270374128647
 21
-328.9258685940838
 31
0.0
  0
LINE
  5
7D92
330
7D8E
100
AcDbEntity
  8
Dim
 62
     0
370
    -2
100
AcDbLine
 10
3588.270374128648
 20
-414.4274415337276
 30
0.0
 11
3588.270374128648
 21
-328.9258685940838
 31
0.0
  0
LINE
  5
7D93
330
7D8E
100
AcDbEntity
  8
Dim
 62
     0
370
    -2
100
AcDbLine
 10
3468.269763777084
 20
-328.9258685940838
 30
0.0
 11
3578.27098448021
 21
-328.9258685940838
 31
0.0
  0
INSERT
  5
7D94
330
7D8E
100
AcDbEntity
  8
Dim
 62
     0
370
    -2
100
AcDbBlockReference
  2
_DOT
 10
3458.270374128647
 20
-328.9258685940838
 30
0.0
 41
9.999389648437498
 42
9.999389648437498
 43
9.999389648437498
 50
180.0
  0
INSERT
  5
7D95
330
7D8E
100
AcDbEntity
  8
Dim
 62
     0
370
    -2
100
AcDbBlockReference
  2
_DOT
 10
3588.270374128648
 20
-328.9258685940838
 30
0.0
 41
9.999389648437498
 42
9.999389648437498
 43
9.999389648437498
  0
MTEXT
  5
7D96
330
7D8E
100
AcDbEntity
  8
Dim
 62
     0
100
AcDbMText
 10
3523.270374128647
 20
-306.7095600003338
 30
0.0
 40
24.4326171875
 41
0.0
 46
0.0
 71
     5
 72
     1
  1
\A1;130
  7
ＭＳ ゴシック
 73
     1
 44
1.0
  0
POINT
  5
7D97
330
7D8E
100
AcDbEntity
  8
Defpoints
 62
     0
100
AcDbPoint
 10
3458.270374128647
 20
-439.4274415337276
 30
0.0
  0
POINT
  5
7D98
330
7D8E
100
AcDbEntity
  8
Defpoints
 62
     0
100
AcDbPoint
 10
3588.270374128648
 20
-439.4274415337276
 30
0.0
  0
POINT
  5
7D99
330
7D8E
100
AcDbEntity
  8
Defpoints
 62
     0
100
AcDbPoint
 10
3588.270374128648
 20
-328.9258685940838
 30
0.0
  0
ENDBLK
  5
7D90
330
7D8E
100
AcDbEntity
  8
0
100
AcDbBlockEnd
  0
BLOCK
  5
7D9C
330
7D9B
100
AcDbEntity
  8
0
100
AcDbBlockBegin
  2
*D56
 70
     1
 10
0.0
 20
0.0
 30
0.0
  3
*D56
  1

  0
LINE
  5
7D9E
330
7D9B
100
AcDbEntity
  8
Dim
 62
     0
370
    -2
100
AcDbLine
 10
3293.270374128647
 20
-389.4274415337275
 30
0.0
 11
2786.429512641648
 21
-389.4274415337274
 31
0.0
  0
LINE
  5
7D9F
330
7D9B
100
AcDbEntity
  8
Dim
 62
     0
370
    -2
100
AcDbLine
 10
3138.270374128647
 20
-449.4274415337275
 30
0.0
 11
2786.429512641648
 21
-449.4274415337275
 31
0.0
  0
LINE
  5
7DA0
330
7D9B
100
AcDbEntity
  8
Dim
 62
     0
370
    -2
100
AcDbLine
 10
2786.429512641648
 20
-399.4268311821649
 30
0.0
 11
2786.429512641648
 21
-439.42805188529
 31
0.0
  0
INSERT
  5
7DA1
330
7D9B
100
AcDbEntity
  8
Dim
 62
     0
370
    -2
100
AcDbBlockReference
  2
_DOT
 10
2786.429512641648
 20
-389.4274415337274
 30
0.0
 41
9.999389648437498
 42
9.999389648437498
 43
9.999389648437498
 50
90.0
  0
INSERT
  5
7DA2
330
7D9B
100
AcDbEntity
  8
Dim
 62
     0
370
    -2
100
AcDbBlockReference
  2
_DOT
 10
2786.429512641648
 20
-449.4274415337275
 30
0.0
 41
9.999389648437498
 42
9.999389648437498
 43
9.999389648437498
 50
270.0
  0
MTEXT
  5
7DA3
330
7D9B
100
AcDbEntity
  8
Dim
 62
     0
100
AcDbMText
 10
2764.213204047898
 20
-419.4274415337275
 30
0.0
 40
24.4326171875
 41
0.0
 46
0.0
 71
     5
 72
     1
  1
\A1;60
  7
ＭＳ ゴシック
 11
0.0
 21
1.0
 31
0.0
 73
     1
 44
1.0
  0
POINT
  5
7DA4
330
7D9B
100
AcDbEntity
  8
Defpoints
 62
     0
100
AcDbPoint
 10
3318.270374128647
 20
-389.4274415337275
 30
0.0
  0
POINT
  5
7DA5
330
7D9B
100
AcDbEntity
  8
Defpoints
 62
     0
100
AcDbPoint
 10
3163.270374128647
 20
-449.4274415337275
 30
0.0
  0
POINT
  5
7DA6
330
7D9B
100
AcDbEntity
  8
Defpoints
 62
     0
100
AcDbPoint
 10
2786.429512641648
 20
-449.4274415337275
 30
0.0
  0
ENDBLK
  5
7D9D
330
7D9B
100
AcDbEntity
  8
0
100
AcDbBlockEnd
  0
BLOCK
  5
7DA9
330
7DA8
100
AcDbEntity
  8
0
100
AcDbBlockBegin
  2
*D57
 70
     1
 10
0.0
 20
0.0
 30
0.0
  3
*D57
  1

  0
LINE
  5
7DAB
330
7DA8
100
AcDbEntity
  8
Dim
 62
     0
370
    -2
100
AcDbLine
 10
3138.270374128647
 20
-449.4274415337275
 30
0.0
 11
2786.429512641648
 21
-449.4274415337275
 31
0.0
  0
LINE
  5
7DAC
330
7DA8
100
AcDbEntity
  8
Dim
 62
     0
370
    -2
100
AcDbLine
 10
3293.270374128647
 20
-529.4274415337276
 30
0.0
 11
2786.429512641648
 21
-529.4274415337276
 31
0.0
  0
LINE
  5
7DAD
330
7DA8
100
AcDbEntity
  8
Dim
 62
     0
370
    -2
100
AcDbLine
 10
2786.429512641648
 20
-459.426831182165
 30
0.0
 11
2786.429512641648
 21
-519.4280518852901
 31
0.0
  0
INSERT
  5
7DAE
330
7DA8
100
AcDbEntity
  8
Dim
 62
     0
370
    -2
100
AcDbBlockReference
  2
_DOT
 10
2786.429512641648
 20
-449.4274415337275
 30
0.0
 41
9.999389648437498
 42
9.999389648437498
 43
9.999389648437498
 50
90.0
  0
INSERT
  5
7DAF
330
7DA8
100
AcDbEntity
  8
Dim
 62
     0
370
    -2
100
AcDbBlockReference
  2
_DOT
 10
2786.429512641648
 20
-529.4274415337276
 30
0.0
 41
9.999389648437498
 42
9.999389648437498
 43
9.999389648437498
 50
270.0
  0
MTEXT
  5
7DB0
330
7DA8
100
AcDbEntity
  8
Dim
 62
     0
100
AcDbMText
 10
2764.213204047898
 20
-489.4274415337275
 30
0.0
 40
24.4326171875
 41
0.0
 46
0.0
 71
     5
 72
     1
  1
\A1;80
  7
ＭＳ ゴシック
 11
0.0
 21
1.0
 31
0.0
 73
     1
 44
1.0
  0
POINT
  5
7DB1
330
7DA8
100
AcDbEntity
  8
Defpoints
 62
     0
100
AcDbPoint
 10
3163.270374128647
 20
-449.4274415337275
 30
0.0
  0
POINT
  5
7DB2
330
7DA8
100
AcDbEntity
  8
Defpoints
 62
     0
100
AcDbPoint
 10
3318.270374128647
 20
-529.4274415337276
 30
0.0
  0
POINT
  5
7DB3
330
7DA8
100
AcDbEntity
  8
Defpoints
 62
     0
100
AcDbPoint
 10
2786.429512641648
 20
-529.4274415337276
 30
0.0
  0
ENDBLK
  5
7DAA
330
7DA8
100
AcDbEntity
  8
0
100
AcDbBlockEnd
  0
BLOCK
  5
7DB6
330
7DB5
100
AcDbEntity
  8
0
100
AcDbBlockBegin
  2
*D58
 70
     1
 10
0.0
 20
0.0
 30
0.0
  3
*D58
  1

  0
LINE
  5
7DB8
330
7DB5
100
AcDbEntity
  8
Dim
 62
     0
370
    -2
100
AcDbLine
 10
3343.270374128647
 20
-389.4274415337275
 30
0.0
 11
3844.122145933082
 21
-389.4274415337275
 31
0.0
  0
LINE
  5
7DB9
330
7DB5
100
AcDbEntity
  8
Dim
 62
     0
370
    -2
100
AcDbLine
 10
3343.270374128647
 20
-529.4274415337276
 30
0.0
 11
3844.122145933082
 21
-529.4274415337276
 31
0.0
  0
LINE
  5
7DBA
330
7DB5
100
AcDbEntity
  8
Dim
 62
     0
370
    -2
100
AcDbLine
 10
3844.122145933082
 20
-399.426831182165
 30
0.0
 11
3844.122145933082
 21
-519.4280518852901
 31
0.0
  0
INSERT
  5
7DBB
330
7DB5
100
AcDbEntity
  8
Dim
 62
     0
370
    -2
100
AcDbBlockReference
  2
_DOT
 10
3844.122145933082
 20
-389.4274415337275
 30
0.0
 41
9.999389648437498
 42
9.999389648437498
 43
9.999389648437498
 50
90.0
  0
INSERT
  5
7DBC
330
7DB5
100
AcDbEntity
  8
Dim
 62
     0
370
    -2
100
AcDbBlockReference
  2
_DOT
 10
3844.122145933082
 20
-529.4274415337276
 30
0.0
 41
9.999389648437498
 42
9.999389648437498
 43
9.999389648437498
 50
270.0
  0
MTEXT
  5
7DBD
330
7DB5
100
AcDbEntity
  8
Dim
 62
     0
100
AcDbMText
 10
3821.905837339332
 20
-459.4274415337275
 30
0.0
 40
24.4326171875
 41
0.0
 46
0.0
 71
     5
 72
     1
  1
\A1;140
  7
ＭＳ ゴシック
 11
0.0
 21
1.0
 31
0.0
 73
     1
 44
1.0
  0
POINT
  5
7DBE
330
7DB5
100
AcDbEntity
  8
Defpoints
 62
     0
100
AcDbPoint
 10
3318.270374128647
 20
-389.4274415337275
 30
0.0
  0
POINT
  5
7DBF
330
7DB5
100
AcDbEntity
  8
Defpoints
 62
     0
100
AcDbPoint
 10
3318.270374128647
 20
-529.4274415337276
 30
0.0
  0
POINT
  5
7DC0
330
7DB5
100
AcDbEntity
  8
Defpoints
 62
     0
100
AcDbPoint
 10
3844.122145933082
 20
-529.4274415337276
 30
0.0
  0
ENDBLK
  5
7DB7
330
7DB5
100
AcDbEntity
  8
0
100
AcDbBlockEnd
  0
BLOCK
  5
7DC3
330
7DC2
100
AcDbEntity
  8
0
100
AcDbBlockBegin
  2
*D59
 70
     1
 10
0.0
 20
0.0
 30
0.0
  3
*D59
  1

  0
LINE
  5
7DC5
330
7DC2
100
AcDbEntity
  8
Dim
 62
     0
370
    -2
100
AcDbLine
 10
4839.225745614285
 20
-389.4274415337275
 30
0.0
 11
4283.290087549246
 21
-389.4274415337275
 31
0.0
  0
LINE
  5
7DC6
330
7DC2
100
AcDbEntity
  8
Dim
 62
     0
370
    -2
100
AcDbLine
 10
4839.225745614263
 20
-519.3882295794963
 30
0.0
 11
4283.290087549246
 21
-519.3882295794963
 31
0.0
  0
LINE
  5
7DC7
330
7DC2
100
AcDbEntity
  8
Dim
 62
     0
370
    -2
100
AcDbLine
 10
4283.290087549246
 20
-399.426831182165
 30
0.0
 11
4283.290087549246
 21
-509.3888399310588
 31
0.0
  0
INSERT
  5
7DC8
330
7DC2
100
AcDbEntity
  8
Dim
 62
     0
370
    -2
100
AcDbBlockReference
  2
_DOT
 10
4283.290087549246
 20
-389.4274415337275
 30
0.0
 41
9.999389648437498
 42
9.999389648437498
 43
9.999389648437498
 50
90.0
  0
INSERT
  5
7DC9
330
7DC2
100
AcDbEntity
  8
Dim
 62
     0
370
    -2
100
AcDbBlockReference
  2
_DOT
 10
4283.290087549246
 20
-519.3882295794963
 30
0.0
 41
9.999389648437498
 42
9.999389648437498
 43
9.999389648437498
 50
270.0
  0
MTEXT
  5
7DCA
330
7DC2
100
AcDbEntity
  8
Dim
 62
     0
100
AcDbMText
 10
4261.073778955496
 20
-454.4078355566119
 30
0.0
 40
24.4326171875
 41
0.0
 46
0.0
 71
     5
 72
     1
  1
\A1;130
  7
ＭＳ ゴシック
 11
0.0
 21
1.0
 31
0.0
 73
     1
 44
1.0
  0
POINT
  5
7DCB
330
7DC2
100
AcDbEntity
  8
Defpoints
 62
     0
100
AcDbPoint
 10
4864.225745614285
 20
-389.4274415337275
 30
0.0
  0
POINT
  5
7DCC
330
7DC2
100
AcDbEntity
  8
Defpoints
 62
     0
100
AcDbPoint
 10
4864.225745614263
 20
-519.3882295794963
 30
0.0
  0
POINT
  5
7DCD
330
7DC2
100
AcDbEntity
  8
Defpoints
 62
     0
100
AcDbPoint
 10
4283.290087549246
 20
-519.3882295794963
 30
0.0
  0
ENDBLK
  5
7DC4
330
7DC2
100
AcDbEntity
  8
0
100
AcDbBlockEnd
  0
BLOCK
  5
7DD0
330
7DCF
100
AcDbEntity
  8
0
100
AcDbBlockBegin
  2
*D60
 70
     1
 10
0.0
 20
0.0
 30
0.0
  3
*D60
  1

  0
LINE
  5
7DD2
330
7DCF
100
AcDbEntity
  8
Dim
 62
     0
370
    -2
100
AcDbLine
 10
4389.225745614282
 20
-431.4274415337203
 30
0.0
 11
4389.225745614282
 21
-328.9258685940838
 31
0.0
  0
LINE
  5
7DD3
330
7DCF
100
AcDbEntity
  8
Dim
 62
     0
370
    -2
100
AcDbLine
 10
4539.225745614283
 20
-379.4274415337202
 30
0.0
 11
4539.225745614283
 21
-328.9258685940838
 31
0.0
  0
LINE
  5
7DD4
330
7DCF
100
AcDbEntity
  8
Dim
 62
     0
370
    -2
100
AcDbLine
 10
4399.225135262719
 20
-328.9258685940838
 30
0.0
 11
4529.226355965846
 21
-328.9258685940838
 31
0.0
  0
INSERT
  5
7DD5
330
7DCF
100
AcDbEntity
  8
Dim
 62
     0
370
    -2
100
AcDbBlockReference
  2
_DOT
 10
4389.225745614282
 20
-328.9258685940838
 30
0.0
 41
9.999389648437498
 42
9.999389648437498
 43
9.999389648437498
 50
180.0
  0
INSERT
  5
7DD6
330
7DCF
100
AcDbEntity
  8
Dim
 62
     0
370
    -2
100
AcDbBlockReference
  2
_DOT
 10
4539.225745614283
 20
-328.9258685940838
 30
0.0
 41
9.999389648437498
 42
9.999389648437498
 43
9.999389648437498
  0
MTEXT
  5
7DD7
330
7DCF
100
AcDbEntity
  8
Dim
 62
     0
100
AcDbMText
 10
4464.225745614282
 20
-306.7095600003338
 30
0.0
 40
24.4326171875
 41
0.0
 46
0.0
 71
     5
 72
     1
  1
\A1;150
  7
ＭＳ ゴシック
 73
     1
 44
1.0
  0
POINT
  5
7DD8
330
7DCF
100
AcDbEntity
  8
Defpoints
 62
     0
100
AcDbPoint
 10
4389.225745614282
 20
-456.4274415337203
 30
0.0
  0
POINT
  5
7DD9
330
7DCF
100
AcDbEntity
  8
Defpoints
 62
     0
100
AcDbPoint
 10
4539.225745614283
 20
-404.4274415337202
 30
0.0
  0
POINT
  5
7DDA
330
7DCF
100
AcDbEntity
  8
Defpoints
 62
     0
100
AcDbPoint
 10
4539.225745614283
 20
-328.9258685940838
 30
0.0
  0
ENDBLK
  5
7DD1
330
7DCF
100
AcDbEntity
  8
0
100
AcDbBlockEnd
  0
BLOCK
  5
7DDD
330
7DDC
100
AcDbEntity
  8
0
100
AcDbBlockBegin
  2
*D61
 70
     1
 10
0.0
 20
0.0
 30
0.0
  3
*D61
  1

  0
LINE
  5
7DDF
330
7DDC
100
AcDbEntity
  8
Dim
 62
     0
370
    -2
100
AcDbLine
 10
4539.225745614283
 20
-379.4274415337202
 30
0.0
 11
4539.225745614283
 21
-328.9258685940838
 31
0.0
  0
LINE
  5
7DE0
330
7DDC
100
AcDbEntity
  8
Dim
 62
     0
370
    -2
100
AcDbLine
 10
5189.225745614282
 20
-375.4984347403085
 30
0.0
 11
5189.225745614282
 21
-328.9258685940838
 31
0.0
  0
LINE
  5
7DE1
330
7DDC
100
AcDbEntity
  8
Dim
 62
     0
370
    -2
100
AcDbLine
 10
4549.225135262721
 20
-328.9258685940838
 30
0.0
 11
5179.226355965844
 21
-328.9258685940838
 31
0.0
  0
INSERT
  5
7DE2
330
7DDC
100
AcDbEntity
  8
Dim
 62
     0
370
    -2
100
AcDbBlockReference
  2
_DOT
 10
4539.225745614283
 20
-328.9258685940838
 30
0.0
 41
9.999389648437498
 42
9.999389648437498
 43
9.999389648437498
 50
180.0
  0
INSERT
  5
7DE3
330
7DDC
100
AcDbEntity
  8
Dim
 62
     0
370
    -2
100
AcDbBlockReference
  2
_DOT
 10
5189.225745614282
 20
-328.9258685940838
 30
0.0
 41
9.999389648437498
 42
9.999389648437498
 43
9.999389648437498
  0
MTEXT
  5
7DE4
330
7DDC
100
AcDbEntity
  8
Dim
 62
     0
100
AcDbMText
 10
4864.225745614282
 20
-306.7095600003338
 30
0.0
 40
24.4326171875
 41
0.0
 46
0.0
 71
     5
 72
     1
  1
\A1;650
  7
ＭＳ ゴシック
 73
     1
 44
1.0
  0
POINT
  5
7DE5
330
7DDC
100
AcDbEntity
  8
Defpoints
 62
     0
100
AcDbPoint
 10
4539.225745614283
 20
-404.4274415337202
 30
0.0
  0
POINT
  5
7DE6
330
7DDC
100
AcDbEntity
  8
Defpoints
 62
     0
100
AcDbPoint
 10
5189.225745614282
 20
-400.4984347403085
 30
0.0
  0
POINT
  5
7DE7
330
7DDC
100
AcDbEntity
  8
Defpoints
 62
     0
100
AcDbPoint
 10
5189.225745614282
 20
-328.9258685940838
 30
0.0
  0
ENDBLK
  5
7DDE
330
7DDC
100
AcDbEntity
  8
0
100
AcDbBlockEnd
  0
BLOCK
  5
7DEA
330
7DE9
100
AcDbEntity
  8
0
100
AcDbBlockBegin
  2
*D62
 70
     1
 10
0.0
 20
0.0
 30
0.0
  3
*D62
  1

  0
LINE
  5
7DEC
330
7DE9
100
AcDbEntity
  8
Dim
 62
     0
370
    -2
100
AcDbLine
 10
5189.225745614282
 20
-375.4984347403085
 30
0.0
 11
5189.225745614282
 21
-328.9258685940838
 31
0.0
  0
LINE
  5
7DED
330
7DE9
100
AcDbEntity
  8
Dim
 62
     0
370
    -2
100
AcDbLine
 10
5339.225745614282
 20
-431.4274415337347
 30
0.0
 11
5339.225745614282
 21
-328.9258685940838
 31
0.0
  0
LINE
  5
7DEE
330
7DE9
100
AcDbEntity
  8
Dim
 62
     0
370
    -2
100
AcDbLine
 10
5199.225135262719
 20
-328.9258685940838
 30
0.0
 11
5329.226355965844
 21
-328.9258685940838
 31
0.0
  0
INSERT
  5
7DEF
330
7DE9
100
AcDbEntity
  8
Dim
 62
     0
370
    -2
100
AcDbBlockReference
  2
_DOT
 10
5189.225745614282
 20
-328.9258685940838
 30
0.0
 41
9.999389648437498
 42
9.999389648437498
 43
9.999389648437498
 50
180.0
  0
INSERT
  5
7DF0
330
7DE9
100
AcDbEntity
  8
Dim
 62
     0
370
    -2
100
AcDbBlockReference
  2
_DOT
 10
5339.225745614282
 20
-328.9258685940838
 30
0.0
 41
9.999389648437498
 42
9.999389648437498
 43
9.999389648437498
  0
MTEXT
  5
7DF1
330
7DE9
100
AcDbEntity
  8
Dim
 62
     0
100
AcDbMText
 10
5264.225745614282
 20
-306.7095600003338
 30
0.0
 40
24.4326171875
 41
0.0
 46
0.0
 71
     5
 72
     1
  1
\A1;150
  7
ＭＳ ゴシック
 73
     1
 44
1.0
  0
POINT
  5
7DF2
330
7DE9
100
AcDbEntity
  8
Defpoints
 62
     0
100
AcDbPoint
 10
5189.225745614282
 20
-400.4984347403085
 30
0.0
  0
POINT
  5
7DF3
330
7DE9
100
AcDbEntity
  8
Defpoints
 62
     0
100
AcDbPoint
 10
5339.225745614282
 20
-456.4274415337347
 30
0.0
  0
POINT
  5
7DF4
330
7DE9
100
AcDbEntity
  8
Defpoints
 62
     0
100
AcDbPoint
 10
5339.225745614282
 20
-328.9258685940838
 30
0.0
  0
ENDBLK
  5
7DEB
330
7DE9
100
AcDbEntity
  8
0
100
AcDbBlockEnd
  0
BLOCK
  5
7DF7
330
7DF6
100
AcDbEntity
  8
0
100
AcDbBlockBegin
  2
*D63
 70
     1
 10
0.0
 20
0.0
 30
0.0
  3
*D63
  1

  0
LINE
  5
7DF9
330
7DF6
100
AcDbEntity
  8
Dim
 62
     0
370
    -2
100
AcDbLine
 10
4889.225745614285
 20
-389.4274415337275
 30
0.0
 11
5400.32051887264
 21
-389.4274415337275
 31
0.0
  0
LINE
  5
7DFA
330
7DF6
100
AcDbEntity
  8
Dim
 62
     0
370
    -2
100
AcDbLine
 10
4889.225745614285
 20
-569.4274415337276
 30
0.0
 11
5400.32051887264
 21
-569.4274415337276
 31
0.0
  0
LINE
  5
7DFB
330
7DF6
100
AcDbEntity
  8
Dim
 62
     0
370
    -2
100
AcDbLine
 10
5400.32051887264
 20
-399.426831182165
 30
0.0
 11
5400.32051887264
 21
-559.4280518852901
 31
0.0
  0
INSERT
  5
7DFC
330
7DF6
100
AcDbEntity
  8
Dim
 62
     0
370
    -2
100
AcDbBlockReference
  2
_DOT
 10
5400.32051887264
 20
-389.4274415337275
 30
0.0
 41
9.999389648437498
 42
9.999389648437498
 43
9.999389648437498
 50
90.0
  0
INSERT
  5
7DFD
330
7DF6
100
AcDbEntity
  8
Dim
 62
     0
370
    -2
100
AcDbBlockReference
  2
_DOT
 10
5400.32051887264
 20
-569.4274415337276
 30
0.0
 41
9.999389648437498
 42
9.999389648437498
 43
9.999389648437498
 50
270.0
  0
MTEXT
  5
7DFE
330
7DF6
100
AcDbEntity
  8
Dim
 62
     0
100
AcDbMText
 10
5378.10421027889
 20
-479.4274415337275
 30
0.0
 40
24.4326171875
 41
0.0
 46
0.0
 71
     5
 72
     1
  1
\A1;180
  7
ＭＳ ゴシック
 11
0.0
 21
1.0
 31
0.0
 73
     1
 44
1.0
  0
POINT
  5
7DFF
330
7DF6
100
AcDbEntity
  8
Defpoints
 62
     0
100
AcDbPoint
 10
4864.225745614285
 20
-389.4274415337275
 30
0.0
  0
POINT
  5
7E00
330
7DF6
100
AcDbEntity
  8
Defpoints
 62
     0
100
AcDbPoint
 10
4864.225745614285
 20
-569.4274415337276
 30
0.0
  0
POINT
  5
7E01
330
7DF6
100
AcDbEntity
  8
Defpoints
 62
     0
100
AcDbPoint
 10
5400.32051887264
 20
-569.4274415337276
 30
0.0
  0
ENDBLK
  5
7DF8
330
7DF6
100
AcDbEntity
  8
0
100
AcDbBlockEnd
  0
BLOCK
  5
7E04
330
7E03
100
AcDbEntity
  8
0
100
AcDbBlockBegin
  2
*D64
 70
     1
 10
0.0
 20
0.0
 30
0.0
  3
*D64
  1

  0
LINE
  5
7E06
330
7E03
100
AcDbEntity
  8
Dim
 62
     0
370
    -2
100
AcDbLine
 10
5814.16662865121
 20
-371.4274415337275
 30
0.0
 11
5814.16662865121
 21
-328.9258685940838
 31
0.0
  0
LINE
  5
7E07
330
7E03
100
AcDbEntity
  8
Dim
 62
     0
370
    -2
100
AcDbLine
 10
5858.808833739302
 20
-368.5818014786933
 30
0.0
 11
5858.808833739302
 21
-328.9258685940838
 31
0.0
  0
LINE
  5
7E08
330
7E03
100
AcDbEntity
  8
Dim
 62
     0
370
    -2
100
AcDbLine
 10
5814.16662865121
 20
-328.9258685940838
 30
0.0
 11
5858.808833739302
 21
-328.9258685940838
 31
0.0
  0
LINE
  5
7E09
330
7E03
100
AcDbEntity
  8
Dim
 62
     0
370
    -2
100
AcDbLine
 10
5804.167239002772
 20
-328.9258685940838
 30
0.0
 11
5794.167849354335
 21
-328.9258685940838
 31
0.0
  0
LINE
  5
7E0A
330
7E03
100
AcDbEntity
  8
Dim
 62
     0
370
    -2
100
AcDbLine
 10
5868.808223387739
 20
-328.9258685940838
 30
0.0
 11
5878.807613036177
 21
-328.9258685940838
 31
0.0
  0
INSERT
  5
7E0B
330
7E03
100
AcDbEntity
  8
Dim
 62
     0
370
    -2
100
AcDbBlockReference
  2
_DOT
 10
5814.16662865121
 20
-328.9258685940838
 30
0.0
 41
9.999389648437498
 42
9.999389648437498
 43
9.999389648437498
  0
INSERT
  5
7E0C
330
7E03
100
AcDbEntity
  8
Dim
 62
     0
370
    -2
100
AcDbBlockReference
  2
_DOT
 10
5858.808833739302
 20
-328.9258685940838
 30
0.0
 41
9.999389648437498
 42
9.999389648437498
 43
9.999389648437498
 50
180.0
  0
MTEXT
  5
7E0D
330
7E03
100
AcDbEntity
  8
Dim
 62
     0
100
AcDbMText
 10
5836.487731195256
 20
-306.7095600003338
 30
0.0
 40
24.4326171875
 41
0.0
 46
0.0
 71
     5
 72
     1
  1
\A1;45
  7
ＭＳ ゴシック
 73
     1
 44
1.0
  0
POINT
  5
7E0E
330
7E03
100
AcDbEntity
  8
Defpoints
 62
     0
100
AcDbPoint
 10
5814.16662865121
 20
-396.4274415337275
 30
0.0
  0
POINT
  5
7E0F
330
7E03
100
AcDbEntity
  8
Defpoints
 62
     0
100
AcDbPoint
 10
5858.808833739302
 20
-393.5818014786933
 30
0.0
  0
POINT
  5
7E10
330
7E03
100
AcDbEntity
  8
Defpoints
 62
     0
100
AcDbPoint
 10
5858.808833739302
 20
-328.9258685940838
 30
0.0
  0
ENDBLK
  5
7E05
330
7E03
100
AcDbEntity
  8
0
100
AcDbBlockEnd
  0
BLOCK
  5
7E12
330
7E11
100
AcDbEntity
  8
0
100
AcDbBlockBegin
  2
*D65
 70
     1
 10
0.0
 20
0.0
 30
0.0
  3
*D65
  1

  0
LINE
  5
7E14
330
7E11
100
AcDbEntity
  8
Dim
 62
     0
370
    -2
100
AcDbLine
 10
5858.808833739302
 20
-368.5818014786933
 30
0.0
 11
5858.808833739302
 21
-328.9258685940838
 31
0.0
  0
LINE
  5
7E15
330
7E11
100
AcDbEntity
  8
Dim
 62
     0
370
    -2
100
AcDbLine
 10
6169.166628651209
 20
-375.8975952784242
 30
0.0
 11
6169.166628651209
 21
-328.9258685940838
 31
0.0
  0
LINE
  5
7E16
330
7E11
100
AcDbEntity
  8
Dim
 62
     0
370
    -2
100
AcDbLine
 10
5868.808223387739
 20
-328.9258685940838
 30
0.0
 11
6159.167239002772
 21
-328.9258685940838
 31
0.0
  0
INSERT
  5
7E17
330
7E11
100
AcDbEntity
  8
Dim
 62
     0
370
    -2
100
AcDbBlockReference
  2
_DOT
 10
5858.808833739302
 20
-328.9258685940838
 30
0.0
 41
9.999389648437498
 42
9.999389648437498
 43
9.999389648437498
 50
180.0
  0
INSERT
  5
7E18
330
7E11
100
AcDbEntity
  8
Dim
 62
     0
370
    -2
100
AcDbBlockReference
  2
_DOT
 10
6169.166628651209
 20
-328.9258685940838
 30
0.0
 41
9.999389648437498
 42
9.999389648437498
 43
9.999389648437498
  0
MTEXT
  5
7E19
330
7E11
100
AcDbEntity
  8
Dim
 62
     0
100
AcDbMText
 10
6013.987731195255
 20
-306.7095600003338
 30
0.0
 40
24.4326171875
 41
0.0
 46
0.0
 71
     5
 72
     1
  1
\A1;310
  7
ＭＳ ゴシック
 73
     1
 44
1.0
  0
POINT
  5
7E1A
330
7E11
100
AcDbEntity
  8
Defpoints
 62
     0
100
AcDbPoint
 10
5858.808833739302
 20
-393.5818014786933
 30
0.0
  0
POINT
  5
7E1B
330
7E11
100
AcDbEntity
  8
Defpoints
 62
     0
100
AcDbPoint
 10
6169.166628651209
 20
-400.8975952784242
 30
0.0
  0
POINT
  5
7E1C
330
7E11
100
AcDbEntity
  8
Defpoints
 62
     0
100
AcDbPoint
 10
6169.166628651209
 20
-328.9258685940838
 30
0.0
  0
ENDBLK
  5
7E13
330
7E11
100
AcDbEntity
  8
0
100
AcDbBlockEnd
  0
BLOCK
  5
7E1F
330
7E1E
100
AcDbEntity
  8
0
100
AcDbBlockBegin
  2
*D66
 70
     1
 10
0.0
 20
0.0
 30
0.0
  3
*D66
  1

  0
LINE
  5
7E21
330
7E1E
100
AcDbEntity
  8
Dim
 62
     0
370
    -2
100
AcDbLine
 10
6169.166628651209
 20
-375.8975952784242
 30
0.0
 11
6169.166628651209
 21
-328.9258685940838
 31
0.0
  0
LINE
  5
7E22
330
7E1E
100
AcDbEntity
  8
Dim
 62
     0
370
    -2
100
AcDbLine
 10
6314.16662865121
 20
-434.4274415337277
 30
0.0
 11
6314.16662865121
 21
-328.9258685940838
 31
0.0
  0
LINE
  5
7E23
330
7E1E
100
AcDbEntity
  8
Dim
 62
     0
370
    -2
100
AcDbLine
 10
6179.166018299647
 20
-328.9258685940838
 30
0.0
 11
6304.167239002772
 21
-328.9258685940838
 31
0.0
  0
INSERT
  5
7E24
330
7E1E
100
AcDbEntity
  8
Dim
 62
     0
370
    -2
100
AcDbBlockReference
  2
_DOT
 10
6169.166628651209
 20
-328.9258685940838
 30
0.0
 41
9.999389648437498
 42
9.999389648437498
 43
9.999389648437498
 50
180.0
  0
INSERT
  5
7E25
330
7E1E
100
AcDbEntity
  8
Dim
 62
     0
370
    -2
100
AcDbBlockReference
  2
_DOT
 10
6314.16662865121
 20
-328.9258685940838
 30
0.0
 41
9.999389648437498
 42
9.999389648437498
 43
9.999389648437498
  0
MTEXT
  5
7E26
330
7E1E
100
AcDbEntity
  8
Dim
 62
     0
100
AcDbMText
 10
6241.66662865121
 20
-306.7095600003338
 30
0.0
 40
24.4326171875
 41
0.0
 46
0.0
 71
     5
 72
     1
  1
\A1;145
  7
ＭＳ ゴシック
 73
     1
 44
1.0
  0
POINT
  5
7E27
330
7E1E
100
AcDbEntity
  8
Defpoints
 62
     0
100
AcDbPoint
 10
6169.166628651209
 20
-400.8975952784242
 30
0.0
  0
POINT
  5
7E28
330
7E1E
100
AcDbEntity
  8
Defpoints
 62
     0
100
AcDbPoint
 10
6314.16662865121
 20
-459.4274415337277
 30
0.0
  0
POINT
  5
7E29
330
7E1E
100
AcDbEntity
  8
Defpoints
 62
     0
100
AcDbPoint
 10
6314.16662865121
 20
-328.9258685940838
 30
0.0
  0
ENDBLK
  5
7E20
330
7E1E
100
AcDbEntity
  8
0
100
AcDbBlockEnd
  0
BLOCK
  5
7E2C
330
7E2B
100
AcDbEntity
  8
0
100
AcDbBlockBegin
  2
*D67
 70
     1
 10
0.0
 20
0.0
 30
0.0
  3
*D67
  1

  0
LINE
  5
7E2E
330
7E2B
100
AcDbEntity
  8
Dim
 62
     0
370
    -2
100
AcDbLine
 10
5989.930993209293
 20
-389.4274415337275
 30
0.0
 11
5751.636242402508
 21
-389.4274415337275
 31
0.0
  0
LINE
  5
7E2F
330
7E2B
100
AcDbEntity
  8
Dim
 62
     0
370
    -2
100
AcDbLine
 10
6009.166628651209
 20
-414.4274415337275
 30
0.0
 11
5751.636242402508
 21
-414.4274415337275
 31
0.0
  0
LINE
  5
7E30
330
7E2B
100
AcDbEntity
  8
Dim
 62
     0
370
    -2
100
AcDbLine
 10
5751.636242402508
 20
-389.4274415337275
 30
0.0
 11
5751.636242402508
 21
-414.4274415337275
 31
0.0
  0
LINE
  5
7E31
330
7E2B
100
AcDbEntity
  8
Dim
 62
     0
370
    -2
100
AcDbLine
 10
5751.636242402508
 20
-379.42805188529
 30
0.0
 11
5751.636242402508
 21
-369.4286622368525
 31
0.0
  0
LINE
  5
7E32
330
7E2B
100
AcDbEntity
  8
Dim
 62
     0
370
    -2
100
AcDbLine
 10
5751.636242402508
 20
-424.426831182165
 30
0.0
 11
5751.636242402508
 21
-434.4262208306025
 31
0.0
  0
INSERT
  5
7E33
330
7E2B
100
AcDbEntity
  8
Dim
 62
     0
370
    -2
100
AcDbBlockReference
  2
_DOT
 10
5751.636242402508
 20
-389.4274415337275
 30
0.0
 41
9.999389648437498
 42
9.999389648437498
 43
9.999389648437498
 50
270.0
  0
INSERT
  5
7E34
330
7E2B
100
AcDbEntity
  8
Dim
 62
     0
370
    -2
100
AcDbBlockReference
  2
_DOT
 10
5751.636242402508
 20
-414.4274415337275
 30
0.0
 41
9.999389648437498
 42
9.999389648437498
 43
9.999389648437498
 50
90.0
  0
MTEXT
  5
7E35
330
7E2B
100
AcDbEntity
  8
Dim
 62
     0
100
AcDbMText
 10
5729.419933808758
 20
-401.9274415337275
 30
0.0
 40
24.4326171875
 41
0.0
 46
0.0
 71
     5
 72
     1
  1
\A1;25
  7
ＭＳ ゴシック
 11
0.0
 21
1.0
 31
0.0
 73
     1
 44
1.0
  0
POINT
  5
7E36
330
7E2B
100
AcDbEntity
  8
Defpoints
 62
     0
100
AcDbPoint
 10
6014.930993209293
 20
-389.4274415337275
 30
0.0
  0
POINT
  5
7E37
330
7E2B
100
AcDbEntity
  8
Defpoints
 62
     0
100
AcDbPoint
 10
6034.166628651209
 20
-414.4274415337275
 30
0.0
  0
POINT
  5
7E38
330
7E2B
100
AcDbEntity
  8
Defpoints
 62
     0
100
AcDbPoint
 10
5751.636242402508
 20
-414.4274415337275
 30
0.0
  0
ENDBLK
  5
7E2D
330
7E2B
100
AcDbEntity
  8
0
100
AcDbBlockEnd
  0
BLOCK
  5
7E3A
330
7E39
100
AcDbEntity
  8
0
100
AcDbBlockBegin
  2
*D68
 70
     1
 10
0.0
 20
0.0
 30
0.0
  3
*D68
  1

  0
LINE
  5
7E3C
330
7E39
100
AcDbEntity
  8
Dim
 62
     0
370
    -2
100
AcDbLine
 10
6009.166628651209
 20
-414.4274415337275
 30
0.0
 11
5751.636242402508
 21
-414.4274415337275
 31
0.0
  0
LINE
  5
7E3D
330
7E39
100
AcDbEntity
  8
Dim
 62
     0
370
    -2
100
AcDbLine
 10
6074.16662865121
 20
-569.4274415337276
 30
0.0
 11
5751.636242402508
 21
-569.4274415337276
 31
0.0
  0
LINE
  5
7E3E
330
7E39
100
AcDbEntity
  8
Dim
 62
     0
370
    -2
100
AcDbLine
 10
5751.636242402508
 20
-424.426831182165
 30
0.0
 11
5751.636242402508
 21
-559.4280518852901
 31
0.0
  0
INSERT
  5
7E3F
330
7E39
100
AcDbEntity
  8
Dim
 62
     0
370
    -2
100
AcDbBlockReference
  2
_DOT
 10
5751.636242402508
 20
-414.4274415337275
 30
0.0
 41
9.999389648437498
 42
9.999389648437498
 43
9.999389648437498
 50
90.0
  0
INSERT
  5
7E40
330
7E39
100
AcDbEntity
  8
Dim
 62
     0
370
    -2
100
AcDbBlockReference
  2
_DOT
 10
5751.636242402508
 20
-569.4274415337276
 30
0.0
 41
9.999389648437498
 42
9.999389648437498
 43
9.999389648437498
 50
270.0
  0
MTEXT
  5
7E41
330
7E39
100
AcDbEntity
  8
Dim
 62
     0
100
AcDbMText
 10
5729.419933808758
 20
-491.9274415337275
 30
0.0
 40
24.4326171875
 41
0.0
 46
0.0
 71
     5
 72
     1
  1
\A1;155
  7
ＭＳ ゴシック
 11
0.0
 21
1.0
 31
0.0
 73
     1
 44
1.0
  0
POINT
  5
7E42
330
7E39
100
AcDbEntity
  8
Defpoints
 62
     0
100
AcDbPoint
 10
6034.166628651209
 20
-414.4274415337275
 30
0.0
  0
POINT
  5
7E43
330
7E39
100
AcDbEntity
  8
Defpoints
 62
     0
100
AcDbPoint
 10
6099.16662865121
 20
-569.4274415337276
 30
0.0
  0
POINT
  5
7E44
330
7E39
100
AcDbEntity
  8
Defpoints
 62
     0
100
AcDbPoint
 10
5751.636242402508
 20
-569.4274415337276
 30
0.0
  0
ENDBLK
  5
7E3B
330
7E39
100
AcDbEntity
  8
0
100
AcDbBlockEnd
  0
BLOCK
  5
7E47
330
7E46
100
AcDbEntity
  8
0
100
AcDbBlockBegin
  2
*D69
 70
     1
 10
0.0
 20
0.0
 30
0.0
  3
*D69
  1

  0
LINE
  5
7E49
330
7E46
100
AcDbEntity
  8
Dim
 62
     0
370
    -2
100
AcDbLine
 10
6039.930993209293
 20
-389.4274415337275
 30
0.0
 11
6368.573154699681
 21
-389.4274415337275
 31
0.0
  0
LINE
  5
7E4A
330
7E46
100
AcDbEntity
  8
Dim
 62
     0
370
    -2
100
AcDbLine
 10
6124.166628651257
 20
-519.4274415337278
 30
0.0
 11
6368.573154699681
 21
-519.4274415337278
 31
0.0
  0
LINE
  5
7E4B
330
7E46
100
AcDbEntity
  8
Dim
 62
     0
370
    -2
100
AcDbLine
 10
6368.573154699681
 20
-399.426831182165
 30
0.0
 11
6368.573154699681
 21
-509.4280518852903
 31
0.0
  0
INSERT
  5
7E4C
330
7E46
100
AcDbEntity
  8
Dim
 62
     0
370
    -2
100
AcDbBlockReference
  2
_DOT
 10
6368.573154699681
 20
-389.4274415337275
 30
0.0
 41
9.999389648437498
 42
9.999389648437498
 43
9.999389648437498
 50
90.0
  0
INSERT
  5
7E4D
330
7E46
100
AcDbEntity
  8
Dim
 62
     0
370
    -2
100
AcDbBlockReference
  2
_DOT
 10
6368.573154699681
 20
-519.4274415337278
 30
0.0
 41
9.999389648437498
 42
9.999389648437498
 43
9.999389648437498
 50
270.0
  0
MTEXT
  5
7E4E
330
7E46
100
AcDbEntity
  8
Dim
 62
     0
100
AcDbMText
 10
6346.356846105931
 20
-454.4274415337276
 30
0.0
 40
24.4326171875
 41
0.0
 46
0.0
 71
     5
 72
     1
  1
\A1;130
  7
ＭＳ ゴシック
 11
0.0
 21
1.0
 31
0.0
 73
     1
 44
1.0
  0
POINT
  5
7E4F
330
7E46
100
AcDbEntity
  8
Defpoints
 62
     0
100
AcDbPoint
 10
6014.930993209293
 20
-389.4274415337275
 30
0.0
  0
POINT
  5
7E50
330
7E46
100
AcDbEntity
  8
Defpoints
 62
     0
100
AcDbPoint
 10
6099.166628651257
 20
-519.4274415337278
 30
0.0
  0
POINT
  5
7E51
330
7E46
100
AcDbEntity
  8
Defpoints
 62
     0
100
AcDbPoint
 10
6368.573154699681
 20
-519.4274415337278
 30
0.0
  0
ENDBLK
  5
7E48
330
7E46
100
AcDbEntity
  8
0
100
AcDbBlockEnd
  0
BLOCK
  5
7E54
330
7E53
100
AcDbEntity
  8
0
100
AcDbBlockBegin
  2
*D70
 70
     1
 10
0.0
 20
0.0
 30
0.0
  3
*D70
  1

  0
LINE
  5
7E56
330
7E53
100
AcDbEntity
  8
Dim
 62
     0
370
    -2
100
AcDbLine
 10
6124.166628651257
 20
-519.4274415337276
 30
0.0
 11
6368.573154699681
 21
-519.4274415337276
 31
0.0
  0
LINE
  5
7E57
330
7E53
100
AcDbEntity
  8
Dim
 62
     0
370
    -2
100
AcDbLine
 10
6124.16662865121
 20
-569.4274415337276
 30
0.0
 11
6368.573154699681
 21
-569.4274415337276
 31
0.0
  0
LINE
  5
7E58
330
7E53
100
AcDbEntity
  8
Dim
 62
     0
370
    -2
100
AcDbLine
 10
6368.573154699681
 20
-529.4268311821651
 30
0.0
 11
6368.573154699681
 21
-559.4280518852901
 31
0.0
  0
INSERT
  5
7E59
330
7E53
100
AcDbEntity
  8
Dim
 62
     0
370
    -2
100
AcDbBlockReference
  2
_DOT
 10
6368.573154699681
 20
-519.4274415337276
 30
0.0
 41
9.999389648437498
 42
9.999389648437498
 43
9.999389648437498
 50
90.0
  0
INSERT
  5
7E5A
330
7E53
100
AcDbEntity
  8
Dim
 62
     0
370
    -2
100
AcDbBlockReference
  2
_DOT
 10
6368.573154699681
 20
-569.4274415337276
 30
0.0
 41
9.999389648437498
 42
9.999389648437498
 43
9.999389648437498
 50
270.0
  0
MTEXT
  5
7E5B
330
7E53
100
AcDbEntity
  8
Dim
 62
     0
100
AcDbMText
 10
6346.356846105931
 20
-544.4274415337276
 30
0.0
 40
24.4326171875
 41
0.0
 46
0.0
 71
     5
 72
     1
  1
\A1;50
  7
ＭＳ ゴシック
 11
0.0
 21
1.0
 31
0.0
 73
     1
 44
1.0
  0
POINT
  5
7E5C
330
7E53
100
AcDbEntity
  8
Defpoints
 62
     0
100
AcDbPoint
 10
6099.166628651257
 20
-519.4274415337276
 30
0.0
  0
POINT
  5
7E5D
330
7E53
100
AcDbEntity
  8
Defpoints
 62
     0
100
AcDbPoint
 10
6099.16662865121
 20
-569.4274415337276
 30
0.0
  0
POINT
  5
7E5E
330
7E53
100
AcDbEntity
  8
Defpoints
 62
     0
100
AcDbPoint
 10
6368.573154699681
 20
-569.4274415337276
 30
0.0
  0
ENDBLK
  5
7E55
330
7E53
100
AcDbEntity
  8
0
100
AcDbBlockEnd
  0
BLOCK
  5
7E62
330
7E61
100
AcDbEntity
  8
0
100
AcDbBlockBegin
  2
*D71
 70
     1
 10
0.0
 20
0.0
 30
0.0
  3
*D71
  1

  0
LINE
  5
7E64
330
7E61
100
AcDbEntity
  8
Dim
 62
     0
370
    -2
100
AcDbLine
 10
6099.16662865121
 20
-594.4274415337276
 30
0.0
 11
6099.16662865121
 21
-606.3379605532149
 31
0.0
  0
LINE
  5
7E65
330
7E61
100
AcDbEntity
  8
Dim
 62
     0
370
    -2
100
AcDbLine
 10
6314.166628651214
 20
-469.4078355566115
 30
0.0
 11
6314.166628651214
 21
-606.3379605532149
 31
0.0
  0
LINE
  5
7E66
330
7E61
100
AcDbEntity
  8
Dim
 62
     0
370
    -2
100
AcDbLine
 10
6109.166018299647
 20
-606.3379605532149
 30
0.0
 11
6304.167239002776
 21
-606.3379605532149
 31
0.0
  0
INSERT
  5
7E67
330
7E61
100
AcDbEntity
  8
Dim
 62
     0
370
    -2
100
AcDbBlockReference
  2
_DOT
 10
6099.16662865121
 20
-606.3379605532149
 30
0.0
 41
9.999389648437498
 42
9.999389648437498
 43
9.999389648437498
 50
180.0
  0
INSERT
  5
7E68
330
7E61
100
AcDbEntity
  8
Dim
 62
     0
370
    -2
100
AcDbBlockReference
  2
_DOT
 10
6314.166628651214
 20
-606.3379605532149
 30
0.0
 41
9.999389648437498
 42
9.999389648437498
 43
9.999389648437498
  0
MTEXT
  5
7E69
330
7E61
100
AcDbEntity
  8
Dim
 62
     0
100
AcDbMText
 10
6206.666628651212
 20
-584.1216519594649
 30
0.0
 40
24.4326171875
 41
0.0
 46
0.0
 71
     5
 72
     1
  1
\A1;215
  7
ＭＳ ゴシック
 73
     1
 44
1.0
  0
POINT
  5
7E6A
330
7E61
100
AcDbEntity
  8
Defpoints
 62
     0
100
AcDbPoint
 10
6099.16662865121
 20
-569.4274415337276
 30
0.0
  0
POINT
  5
7E6B
330
7E61
100
AcDbEntity
  8
Defpoints
 62
     0
100
AcDbPoint
 10
6314.166628651214
 20
-444.4078355566115
 30
0.0
  0
POINT
  5
7E6C
330
7E61
100
AcDbEntity
  8
Defpoints
 62
     0
100
AcDbPoint
 10
6314.166628651214
 20
-606.3379605532149
 30
0.0
  0
ENDBLK
  5
7E63
330
7E61
100
AcDbEntity
  8
0
100
AcDbBlockEnd
  0
BLOCK
  5
7E6F
330
7E6E
100
AcDbEntity
  8
0
100
AcDbBlockBegin
  2
*D72
 70
     1
 10
0.0
 20
0.0
 30
0.0
  3
*D72
  1

  0
LINE
  5
7E71
330
7E6E
100
AcDbEntity
  8
Dim
 62
     0
370
    -2
100
AcDbLine
 10
4839.225745614285
 20
-389.4274415337275
 30
0.0
 11
4345.915511360286
 21
-389.4274415337275
 31
0.0
  0
LINE
  5
7E72
330
7E6E
100
AcDbEntity
  8
Dim
 62
     0
370
    -2
100
AcDbLine
 10
4816.725745614285
 20
-429.427441533724
 30
0.0
 11
4345.915511360286
 21
-429.427441533724
 31
0.0
  0
LINE
  5
7E73
330
7E6E
100
AcDbEntity
  8
Dim
 62
     0
370
    -2
100
AcDbLine
 10
4345.915511360286
 20
-389.4274415337275
 30
0.0
 11
4345.915511360286
 21
-429.427441533724
 31
0.0
  0
LINE
  5
7E74
330
7E6E
100
AcDbEntity
  8
Dim
 62
     0
370
    -2
100
AcDbLine
 10
4345.915511360286
 20
-379.42805188529
 30
0.0
 11
4345.915511360286
 21
-369.4286622368525
 31
0.0
  0
LINE
  5
7E75
330
7E6E
100
AcDbEntity
  8
Dim
 62
     0
370
    -2
100
AcDbLine
 10
4345.915511360286
 20
-439.4268311821615
 30
0.0
 11
4345.915511360286
 21
-449.426220830599
 31
0.0
  0
INSERT
  5
7E76
330
7E6E
100
AcDbEntity
  8
Dim
 62
     0
370
    -2
100
AcDbBlockReference
  2
_DOT
 10
4345.915511360286
 20
-389.4274415337275
 30
0.0
 41
9.999389648437498
 42
9.999389648437498
 43
9.999389648437498
 50
270.0
  0
INSERT
  5
7E77
330
7E6E
100
AcDbEntity
  8
Dim
 62
     0
370
    -2
100
AcDbBlockReference
  2
_DOT
 10
4345.915511360286
 20
-429.427441533724
 30
0.0
 41
9.999389648437498
 42
9.999389648437498
 43
9.999389648437498
 50
90.0
  0
MTEXT
  5
7E78
330
7E6E
100
AcDbEntity
  8
Dim
 62
     0
100
AcDbMText
 10
4323.699202766536
 20
-409.4274415337258
 30
0.0
 40
24.4326171875
 41
0.0
 46
0.0
 71
     5
 72
     1
  1
\A1;40
  7
ＭＳ ゴシック
 11
0.0
 21
1.0
 31
0.0
 73
     1
 44
1.0
  0
POINT
  5
7E79
330
7E6E
100
AcDbEntity
  8
Defpoints
 62
     0
100
AcDbPoint
 10
4864.225745614285
 20
-389.4274415337275
 30
0.0
  0
POINT
  5
7E7A
330
7E6E
100
AcDbEntity
  8
Defpoints
 62
     0
100
AcDbPoint
 10
4841.725745614285
 20
-429.427441533724
 30
0.0
  0
POINT
  5
7E7B
330
7E6E
100
AcDbEntity
  8
Defpoints
 62
     0
100
AcDbPoint
 10
4345.915511360286
 20
-429.427441533724
 30
0.0
  0
ENDBLK
  5
7E70
330
7E6E
100
AcDbEntity
  8
0
100
AcDbBlockEnd
  0
BLOCK
  5
7E8F
330
7E8E
100
AcDbEntity
  8
0
100
AcDbBlockBegin
  2
*D73
 70
     1
 10
0.0
 20
0.0
 30
0.0
  3
*D73
  1

  0
LINE
  5
7E91
330
7E8E
100
AcDbEntity
  8
Dim
 62
     0
370
    -2
100
AcDbLine
 10
3588.270374128648
 20
-414.4274415337276
 30
0.0
 11
3588.270374128648
 21
-328.9258685940838
 31
0.0
  0
LINE
  5
7E92
330
7E8E
100
AcDbEntity
  8
Dim
 62
     0
370
    -2
100
AcDbLine
 10
3793.270374128648
 20
-431.4274415337276
 30
0.0
 11
3793.270374128648
 21
-328.9258685940838
 31
0.0
  0
LINE
  5
7E93
330
7E8E
100
AcDbEntity
  8
Dim
 62
     0
370
    -2
100
AcDbLine
 10
3598.269763777085
 20
-328.9258685940838
 30
0.0
 11
3783.27098448021
 21
-328.9258685940838
 31
0.0
  0
INSERT
  5
7E94
330
7E8E
100
AcDbEntity
  8
Dim
 62
     0
370
    -2
100
AcDbBlockReference
  2
_DOT
 10
3588.270374128648
 20
-328.9258685940838
 30
0.0
 41
9.999389648437498
 42
9.999389648437498
 43
9.999389648437498
 50
180.0
  0
INSERT
  5
7E95
330
7E8E
100
AcDbEntity
  8
Dim
 62
     0
370
    -2
100
AcDbBlockReference
  2
_DOT
 10
3793.270374128648
 20
-328.9258685940838
 30
0.0
 41
9.999389648437498
 42
9.999389648437498
 43
9.999389648437498
  0
MTEXT
  5
7E96
330
7E8E
100
AcDbEntity
  8
Dim
 62
     0
100
AcDbMText
 10
3690.770374128648
 20
-306.7095600003338
 30
0.0
 40
24.4326171875
 41
0.0
 46
0.0
 71
     5
 72
     1
  1
\A1;205
  7
ＭＳ ゴシック
 73
     1
 44
1.0
  0
POINT
  5
7E97
330
7E8E
100
AcDbEntity
  8
Defpoints
 62
     0
100
AcDbPoint
 10
3588.270374128648
 20
-439.4274415337276
 30
0.0
  0
POINT
  5
7E98
330
7E8E
100
AcDbEntity
  8
Defpoints
 62
     0
100
AcDbPoint
 10
3793.270374128648
 20
-456.4274415337276
 30
0.0
  0
POINT
  5
7E99
330
7E8E
100
AcDbEntity
  8
Defpoints
 62
     0
100
AcDbPoint
 10
3793.270374128648
 20
-328.9258685940838
 30
0.0
  0
ENDBLK
  5
7E90
330
7E8E
100
AcDbEntity
  8
0
100
AcDbBlockEnd
  0
BLOCK
  5
7E9C
330
7E9B
100
AcDbEntity
  8
0
100
AcDbBlockBegin
  2
*D74
 70
     1
 10
0.0
 20
0.0
 30
0.0
  3
*D74
  1

  0
LINE
  5
7E9E
330
7E9B
100
AcDbEntity
  8
Dim
 62
     0
370
    -2
100
AcDbLine
 10
2843.270374128648
 20
-431.4274415337276
 30
0.0
 11
2843.270374128648
 21
-328.9258685940838
 31
0.0
  0
LINE
  5
7E9F
330
7E9B
100
AcDbEntity
  8
Dim
 62
     0
370
    -2
100
AcDbLine
 10
3048.270374128648
 20
-414.4274415337276
 30
0.0
 11
3048.270374128648
 21
-328.9258685940838
 31
0.0
  0
LINE
  5
7EA0
330
7E9B
100
AcDbEntity
  8
Dim
 62
     0
370
    -2
100
AcDbLine
 10
2853.269763777085
 20
-328.9258685940838
 30
0.0
 11
3038.27098448021
 21
-328.9258685940838
 31
0.0
  0
INSERT
  5
7EA1
330
7E9B
100
AcDbEntity
  8
Dim
 62
     0
370
    -2
100
AcDbBlockReference
  2
_DOT
 10
2843.270374128648
 20
-328.9258685940838
 30
0.0
 41
9.999389648437498
 42
9.999389648437498
 43
9.999389648437498
 50
180.0
  0
INSERT
  5
7EA2
330
7E9B
100
AcDbEntity
  8
Dim
 62
     0
370
    -2
100
AcDbBlockReference
  2
_DOT
 10
3048.270374128648
 20
-328.9258685940838
 30
0.0
 41
9.999389648437498
 42
9.999389648437498
 43
9.999389648437498
  0
MTEXT
  5
7EA3
330
7E9B
100
AcDbEntity
  8
Dim
 62
     0
100
AcDbMText
 10
2945.770374128648
 20
-306.7095600003338
 30
0.0
 40
24.4326171875
 41
0.0
 46
0.0
 71
     5
 72
     1
  1
\A1;205
  7
ＭＳ ゴシック
 73
     1
 44
1.0
  0
POINT
  5
7EA4
330
7E9B
100
AcDbEntity
  8
Defpoints
 62
     0
100
AcDbPoint
 10
2843.270374128648
 20
-456.4274415337276
 30
0.0
  0
POINT
  5
7EA5
330
7E9B
100
AcDbEntity
  8
Defpoints
 62
     0
100
AcDbPoint
 10
3048.270374128648
 20
-439.4274415337276
 30
0.0
  0
POINT
  5
7EA6
330
7E9B
100
AcDbEntity
  8
Defpoints
 62
     0
100
AcDbPoint
 10
3048.270374128648
 20
-328.9258685940838
 30
0.0
  0
ENDBLK
  5
7E9D
330
7E9B
100
AcDbEntity
  8
0
100
AcDbBlockEnd
  0
BLOCK
  5
7FA7
330
7FA6
100
AcDbEntity
  8
0
100
AcDbBlockBegin
  2
*D75
 70
     1
 10
0.0
 20
0.0
 30
0.0
  3
*D75
  1

  0
LINE
  5
7FA9
330
7FA6
100
AcDbEntity
  8
Dim
 62
     0
370
    -2
100
AcDbLine
 10
313.3074952687175
 20
595.5271165099773
 30
0.0
 11
215.2968748772923
 21
595.5271165099773
 31
0.0
  0
LINE
  5
7FAA
330
7FA6
100
AcDbEntity
  8
Dim
 62
     0
370
    -2
100
AcDbLine
 10
313.307495268718
 20
1545.527116509977
 30
0.0
 11
215.2968748772923
 21
1545.527116509977
 31
0.0
  0
LINE
  5
7FAB
330
7FA6
100
AcDbEntity
  8
Dim
 62
     0
370
    -2
100
AcDbLine
 10
215.2968748772923
 20
605.5265061584148
 30
0.0
 11
215.2968748772923
 21
1535.52772686154
 31
0.0
  0
INSERT
  5
7FAC
330
7FA6
100
AcDbEntity
  8
Dim
 62
     0
370
    -2
100
AcDbBlockReference
  2
_DOT
 10
215.2968748772923
 20
595.5271165099773
 30
0.0
 41
9.999389648437498
 42
9.999389648437498
 43
9.999389648437498
 50
270.0
  0
INSERT
  5
7FAD
330
7FA6
100
AcDbEntity
  8
Dim
 62
     0
370
    -2
100
AcDbBlockReference
  2
_DOT
 10
215.2968748772923
 20
1545.527116509977
 30
0.0
 41
9.999389648437498
 42
9.999389648437498
 43
9.999389648437498
 50
90.0
  0
MTEXT
  5
7FAE
330
7FA6
100
AcDbEntity
  8
Dim
 62
     0
100
AcDbMText
 10
193.0805662835423
 20
1070.527116509977
 30
0.0
 40
24.4326171875
 41
0.0
 46
0.0
 71
     5
 72
     1
  1
\A1;950
  7
ＭＳ ゴシック
 11
5.983517774821896E-17
 21
1.0
 31
0.0
 73
     1
 44
1.0
  0
POINT
  5
7FAF
330
7FA6
100
AcDbEntity
  8
Defpoints
 62
     0
100
AcDbPoint
 10
338.3074952687175
 20
595.5271165099773
 30
0.0
  0
POINT
  5
7FB0
330
7FA6
100
AcDbEntity
  8
Defpoints
 62
     0
100
AcDbPoint
 10
338.307495268718
 20
1545.527116509977
 30
0.0
  0
POINT
  5
7FB1
330
7FA6
100
AcDbEntity
  8
Defpoints
 62
     0
100
AcDbPoint
 10
215.2968748772923
 20
1545.527116509977
 30
0.0
  0
ENDBLK
  5
7FA8
330
7FA6
100
AcDbEntity
  8
0
100
AcDbBlockEnd
  0
BLOCK
  5
7FB4
330
7FB3
100
AcDbEntity
  8
0
100
AcDbBlockBegin
  2
*D76
 70
     1
 10
0.0
 20
0.0
 30
0.0
  3
*D76
  1

  0
LINE
  5
7FB6
330
7FB3
100
AcDbEntity
  8
Dim
 62
     0
370
    -2
100
AcDbLine
 10
877.611015268717
 20
745.5271165099778
 30
0.0
 11
981.9530425301847
 21
745.5271165099776
 31
0.0
  0
LINE
  5
7FB7
330
7FB3
100
AcDbEntity
  8
Dim
 62
     0
370
    -2
100
AcDbLine
 10
833.095495268718
 20
595.5271165099778
 30
0.0
 11
981.9530425301846
 21
595.5271165099775
 31
0.0
  0
LINE
  5
7FB8
330
7FB3
100
AcDbEntity
  8
Dim
 62
     0
370
    -2
100
AcDbLine
 10
981.9530425301847
 20
735.5277268615401
 30
0.0
 11
981.9530425301846
 21
605.526506158415
 31
0.0
  0
INSERT
  5
7FB9
330
7FB3
100
AcDbEntity
  8
Dim
 62
     0
370
    -2
100
AcDbBlockReference
  2
_DOT
 10
981.9530425301847
 20
745.5271165099776
 30
0.0
 41
9.999389648437498
 42
9.999389648437498
 43
9.999389648437498
 50
89.99999999999996
  0
INSERT
  5
7FBA
330
7FB3
100
AcDbEntity
  8
Dim
 62
     0
370
    -2
100
AcDbBlockReference
  2
_DOT
 10
981.9530425301846
 20
595.5271165099775
 30
0.0
 41
9.999389648437498
 42
9.999389648437498
 43
9.999389648437498
 50
269.9999999999999
  0
MTEXT
  5
7FBB
330
7FB3
100
AcDbEntity
  8
Dim
 62
     0
100
AcDbMText
 10
959.7367339364346
 20
670.5271165099775
 30
0.0
 40
24.4326171875
 41
0.0
 46
0.0
 71
     5
 72
     1
  1
\A1;150
  7
ＭＳ ゴシック
 11
7.579122514774397E-16
 21
1.0
 31
0.0
 73
     1
 44
1.0
  0
POINT
  5
7FBC
330
7FB3
100
AcDbEntity
  8
Defpoints
 62
     0
100
AcDbPoint
 10
852.611015268717
 20
745.5271165099778
 30
0.0
  0
POINT
  5
7FBD
330
7FB3
100
AcDbEntity
  8
Defpoints
 62
     0
100
AcDbPoint
 10
808.095495268718
 20
595.5271165099778
 30
0.0
  0
POINT
  5
7FBE
330
7FB3
100
AcDbEntity
  8
Defpoints
 62
     0
100
AcDbPoint
 10
981.9530425301846
 20
595.5271165099775
 30
0.0
  0
ENDBLK
  5
7FB5
330
7FB3
100
AcDbEntity
  8
0
100
AcDbBlockEnd
  0
BLOCK
  5
7FC3
330
7FC2
100
AcDbEntity
  8
0
100
AcDbBlockBegin
  2
*D77
 70
     1
 10
0.0
 20
0.0
 30
0.0
  3
*D77
  1

  0
LINE
  5
7FC5
330
7FC2
100
AcDbEntity
  8
Dim
 62
     0
370
    -2
100
AcDbLine
 10
1611.235973444103
 20
2617.586999546906
 30
0.0
 11
1574.528567689735
 21
2617.586999546906
 31
0.0
  0
LINE
  5
7FC6
330
7FC2
100
AcDbEntity
  8
Dim
 62
     0
370
    -2
100
AcDbLine
 10
1611.235973444103
 20
2557.586999546906
 30
0.0
 11
1574.528567689735
 21
2557.586999546906
 31
0.0
  0
LINE
  5
7FC7
330
7FC2
100
AcDbEntity
  8
Dim
 62
     0
370
    -2
100
AcDbLine
 10
1574.528567689735
 20
2607.587609898468
 30
0.0
 11
1574.528567689735
 21
2567.586389195343
 31
0.0
  0
INSERT
  5
7FC8
330
7FC2
100
AcDbEntity
  8
Dim
 62
     0
370
    -2
100
AcDbBlockReference
  2
_DOT
 10
1574.528567689735
 20
2617.586999546906
 30
0.0
 41
9.999389648437498
 42
9.999389648437498
 43
9.999389648437498
 50
90.0
  0
INSERT
  5
7FC9
330
7FC2
100
AcDbEntity
  8
Dim
 62
     0
370
    -2
100
AcDbBlockReference
  2
_DOT
 10
1574.528567689735
 20
2557.586999546906
 30
0.0
 41
9.999389648437498
 42
9.999389648437498
 43
9.999389648437498
 50
270.0
  0
MTEXT
  5
7FCA
330
7FC2
100
AcDbEntity
  8
Dim
 62
     0
100
AcDbMText
 10
1552.312259095985
 20
2587.586999546906
 30
0.0
 40
24.4326171875
 41
0.0
 46
0.0
 71
     5
 72
     1
  1
\A1;60
  7
ＭＳ ゴシック
 11
0.0
 21
1.0
 31
0.0
 73
     1
 44
1.0
  0
POINT
  5
7FCB
330
7FC2
100
AcDbEntity
  8
Defpoints
 62
     0
100
AcDbPoint
 10
1636.235973444103
 20
2617.586999546906
 30
0.0
  0
POINT
  5
7FCC
330
7FC2
100
AcDbEntity
  8
Defpoints
 62
     0
100
AcDbPoint
 10
1636.235973444103
 20
2557.586999546906
 30
0.0
  0
POINT
  5
7FCD
330
7FC2
100
AcDbEntity
  8
Defpoints
 62
     0
100
AcDbPoint
 10
1574.528567689735
 20
2557.586999546906
 30
0.0
  0
ENDBLK
  5
7FC4
330
7FC2
100
AcDbEntity
  8
0
100
AcDbBlockEnd
  0
BLOCK
  5
7FD2
330
7FD1
100
AcDbEntity
  8
0
100
AcDbBlockBegin
  2
*D78
 70
     1
 10
0.0
 20
0.0
 30
0.0
  3
*D78
  1

  0
LINE
  5
7FD4
330
7FD1
100
AcDbEntity
  8
Dim
 62
     0
370
    -2
100
AcDbLine
 10
1686.658310813134
 20
770.5271165099763
 30
0.0
 11
1686.658310813134
 21
530.2507792351114
 31
0.0
  0
LINE
  5
7FD5
330
7FD1
100
AcDbEntity
  8
Dim
 62
     0
370
    -2
100
AcDbLine
 10
1626.658310813134
 20
572.817996776231
 30
0.0
 11
1626.658310813134
 21
530.2507792351114
 31
0.0
  0
LINE
  5
7FD6
330
7FD1
100
AcDbEntity
  8
Dim
 62
     0
370
    -2
100
AcDbLine
 10
1676.658921164696
 20
530.2507792351114
 30
0.0
 11
1636.657700461571
 21
530.2507792351114
 31
0.0
  0
INSERT
  5
7FD7
330
7FD1
100
AcDbEntity
  8
Dim
 62
     0
370
    -2
100
AcDbBlockReference
  2
_DOT
 10
1686.658310813134
 20
530.2507792351114
 30
0.0
 41
9.999389648437498
 42
9.999389648437498
 43
9.999389648437498
  0
INSERT
  5
7FD8
330
7FD1
100
AcDbEntity
  8
Dim
 62
     0
370
    -2
100
AcDbBlockReference
  2
_DOT
 10
1626.658310813134
 20
530.2507792351114
 30
0.0
 41
9.999389648437498
 42
9.999389648437498
 43
9.999389648437498
 50
180.0
  0
MTEXT
  5
7FD9
330
7FD1
100
AcDbEntity
  8
Dim
 62
     0
100
AcDbMText
 10
1656.658310813134
 20
552.4670878288614
 30
0.0
 40
24.4326171875
 41
0.0
 46
0.0
 71
     5
 72
     1
  1
\A1;60
  7
ＭＳ ゴシック
 73
     1
 44
1.0
  0
POINT
  5
7FDA
330
7FD1
100
AcDbEntity
  8
Defpoints
 62
     0
100
AcDbPoint
 10
1686.658310813134
 20
795.5271165099763
 30
0.0
  0
POINT
  5
7FDB
330
7FD1
100
AcDbEntity
  8
Defpoints
 62
     0
100
AcDbPoint
 10
1626.658310813134
 20
597.817996776231
 30
0.0
  0
POINT
  5
7FDC
330
7FD1
100
AcDbEntity
  8
Defpoints
 62
     0
100
AcDbPoint
 10
1626.658310813134
 20
530.2507792351114
 30
0.0
  0
ENDBLK
  5
7FD3
330
7FD1
100
AcDbEntity
  8
0
100
AcDbBlockEnd
  0
BLOCK
  5
8017
330
8016
100
AcDbEntity
  8
0
100
AcDbBlockBegin
  2
*D79
 70
     1
 10
0.0
 20
0.0
 30
0.0
  3
*D79
  1

  0
LINE
  5
8019
330
8016
100
AcDbEntity
  8
Dim
 62
     0
370
    -2
100
AcDbLine
 10
1831.658310813133
 20
2402.586999546906
 30
0.0
 11
1899.258875819576
 21
2402.586999546906
 31
0.0
  0
LINE
  5
801A
330
8016
100
AcDbEntity
  8
Dim
 62
     0
370
    -2
100
AcDbLine
 10
1757.956819371576
 20
2617.586999546907
 30
0.0
 11
1899.258875819576
 21
2617.586999546907
 31
0.0
  0
LINE
  5
801B
330
8016
100
AcDbEntity
  8
Dim
 62
     0
370
    -2
100
AcDbLine
 10
1899.258875819576
 20
2412.586389195343
 30
0.0
 11
1899.258875819576
 21
2607.587609898469
 31
0.0
  0
INSERT
  5
801C
330
8016
100
AcDbEntity
  8
Dim
 62
     0
370
    -2
100
AcDbBlockReference
  2
_DOT
 10
1899.258875819576
 20
2402.586999546906
 30
0.0
 41
9.999389648437498
 42
9.999389648437498
 43
9.999389648437498
 50
270.0
  0
INSERT
  5
801D
330
8016
100
AcDbEntity
  8
Dim
 62
     0
370
    -2
100
AcDbBlockReference
  2
_DOT
 10
1899.258875819576
 20
2617.586999546907
 30
0.0
 41
9.999389648437498
 42
9.999389648437498
 43
9.999389648437498
 50
90.0
  0
MTEXT
  5
801E
330
8016
100
AcDbEntity
  8
Dim
 62
     0
100
AcDbMText
 10
1877.042567225826
 20
2510.086999546906
 30
0.0
 40
24.4326171875
 41
0.0
 46
0.0
 71
     5
 72
     1
  1
\A1;215
  7
ＭＳ ゴシック
 11
0.0
 21
1.0
 31
0.0
 73
     1
 44
1.0
  0
POINT
  5
801F
330
8016
100
AcDbEntity
  8
Defpoints
 62
     0
100
AcDbPoint
 10
1806.658310813133
 20
2402.586999546906
 30
0.0
  0
POINT
  5
8020
330
8016
100
AcDbEntity
  8
Defpoints
 62
     0
100
AcDbPoint
 10
1732.956819371576
 20
2617.586999546907
 30
0.0
  0
POINT
  5
8021
330
8016
100
AcDbEntity
  8
Defpoints
 62
     0
100
AcDbPoint
 10
1899.258875819576
 20
2617.586999546907
 30
0.0
  0
ENDBLK
  5
8018
330
8016
100
AcDbEntity
  8
0
100
AcDbBlockEnd
  0
BLOCK
  5
802A
330
8029
100
AcDbEntity
  8
0
100
AcDbBlockBegin
  2
*D80
 70
     1
 10
0.0
 20
0.0
 30
0.0
  3
*D80
  1

  0
LINE
  5
802C
330
8029
100
AcDbEntity
  8
Dim
 62
     0
370
    -2
100
AcDbLine
 10
1756.658310813133
 20
2393.24393836309
 30
0.0
 11
1756.658310813133
 21
2400.492595259089
 31
0.0
  0
LINE
  5
802D
330
8029
100
AcDbEntity
  8
Dim
 62
     0
370
    -2
100
AcDbLine
 10
1626.658310813133
 20
2393.24393836309
 30
0.0
 11
1626.658310813133
 21
2400.492595259089
 31
0.0
  0
LINE
  5
802E
330
8029
100
AcDbEntity
  8
Dim
 62
     0
370
    -2
100
AcDbLine
 10
1626.658310813133
 20
2400.492595259089
 30
0.0
 11
1434.644760722702
 21
2400.492595259089
 31
0.0
  0
LINE
  5
802F
330
8029
100
AcDbEntity
  8
Dim
 62
     0
370
    -2
100
AcDbLine
 10
1746.658921164695
 20
2400.492595259089
 30
0.0
 11
1636.65770046157
 21
2400.492595259089
 31
0.0
  0
LINE
  5
8030
330
8029
100
AcDbEntity
  8
Dim
 62
     0
370
    -2
100
AcDbLine
 10
1636.65770046157
 20
2400.492595259089
 30
0.0
 11
1646.657090110008
 21
2400.492595259089
 31
0.0
  0
INSERT
  5
8031
330
8029
100
AcDbEntity
  8
Dim
 62
     0
370
    -2
100
AcDbBlockReference
  2
_DOT
 10
1756.658310813133
 20
2400.492595259089
 30
0.0
 41
9.999389648437498
 42
9.999389648437498
 43
9.999389648437498
  0
INSERT
  5
8032
330
8029
100
AcDbEntity
  8
Dim
 62
     0
370
    -2
100
AcDbBlockReference
  2
_DOT
 10
1626.658310813133
 20
2400.492595259089
 30
0.0
 41
9.999389648437498
 42
9.999389648437498
 43
9.999389648437498
 50
180.0
  0
MTEXT
  5
8033
330
8029
100
AcDbEntity
  8
Dim
 62
     0
100
AcDbMText
 10
1510.832720683639
 20
2424.871190473933
 30
0.0
 40
24.4326171875
 41
0.0
 46
0.0
 71
     5
 72
     1
  1
\A1;130(深さ)
  7
ＭＳ ゴシック
 73
     1
 44
1.0
  0
POINT
  5
8034
330
8029
100
AcDbEntity
  8
Defpoints
 62
     0
100
AcDbPoint
 10
1756.658310813133
 20
2418.24393836309
 30
0.0
  0
POINT
  5
8035
330
8029
100
AcDbEntity
  8
Defpoints
 62
     0
100
AcDbPoint
 10
1626.658310813133
 20
2418.24393836309
 30
0.0
  0
POINT
  5
8036
330
8029
100
AcDbEntity
  8
Defpoints
 62
     0
100
AcDbPoint
 10
1626.658310813133
 20
2400.492595259089
 30
0.0
  0
ENDBLK
  5
802B
330
8029
100
AcDbEntity
  8
0
100
AcDbBlockEnd
  0
BLOCK
  5
804F
330
804E
100
AcDbEntity
  8
0
100
AcDbBlockBegin
  2
*D81
 70
     1
 10
0.0
 20
0.0
 30
0.0
  3
*D81
  1

  0
LINE
  5
8051
330
804E
100
AcDbEntity
  8
Dim
 62
     0
370
    -2
100
AcDbLine
 10
4568.135374128648
 20
2354.390497544415
 30
0.0
 11
4568.135374128648
 21
2440.93006454858
 31
0.0
  0
LINE
  5
8052
330
804E
100
AcDbEntity
  8
Dim
 62
     0
370
    -2
100
AcDbLine
 10
4668.135374128648
 20
2353.390497544416
 30
0.0
 11
4668.135374128648
 21
2440.93006454858
 31
0.0
  0
LINE
  5
8053
330
804E
100
AcDbEntity
  8
Dim
 62
     0
370
    -2
100
AcDbLine
 10
4578.134763777085
 20
2440.93006454858
 30
0.0
 11
4658.13598448021
 21
2440.93006454858
 31
0.0
  0
INSERT
  5
8054
330
804E
100
AcDbEntity
  8
Dim
 62
     0
370
    -2
100
AcDbBlockReference
  2
_DOT
 10
4568.135374128648
 20
2440.93006454858
 30
0.0
 41
9.999389648437498
 42
9.999389648437498
 43
9.999389648437498
 50
180.0
  0
INSERT
  5
8055
330
804E
100
AcDbEntity
  8
Dim
 62
     0
370
    -2
100
AcDbBlockReference
  2
_DOT
 10
4668.135374128648
 20
2440.93006454858
 30
0.0
 41
9.999389648437498
 42
9.999389648437498
 43
9.999389648437498
  0
MTEXT
  5
8056
330
804E
100
AcDbEntity
  8
Dim
 62
     0
100
AcDbMText
 10
4618.135374128648
 20
2463.14637314233
 30
0.0
 40
24.4326171875
 41
0.0
 46
0.0
 71
     5
 72
     1
  1
\A1;100
  7
ＭＳ ゴシック
 73
     1
 44
1.0
  0
POINT
  5
8057
330
804E
100
AcDbEntity
  8
Defpoints
 62
     0
100
AcDbPoint
 10
4568.135374128648
 20
2329.390497544415
 30
0.0
  0
POINT
  5
8058
330
804E
100
AcDbEntity
  8
Defpoints
 62
     0
100
AcDbPoint
 10
4668.135374128648
 20
2328.390497544416
 30
0.0
  0
POINT
  5
8059
330
804E
100
AcDbEntity
  8
Defpoints
 62
     0
100
AcDbPoint
 10
4668.135374128648
 20
2440.93006454858
 30
0.0
  0
ENDBLK
  5
8050
330
804E
100
AcDbEntity
  8
0
100
AcDbBlockEnd
  0
BLOCK
  5
805B
330
805A
100
AcDbEntity
  8
0
100
AcDbBlockBegin
  2
*D82
 70
     1
 10
0.0
 20
0.0
 30
0.0
  3
*D82
  1

  0
LINE
  5
805D
330
805A
100
AcDbEntity
  8
Dim
 62
     0
370
    -2
100
AcDbLine
 10
4668.135374128648
 20
2354.390497544415
 30
0.0
 11
4668.135374128648
 21
2440.93006454858
 31
0.0
  0
LINE
  5
805E
330
805A
100
AcDbEntity
  8
Dim
 62
     0
370
    -2
100
AcDbLine
 10
4768.135374128648
 20
2354.390497544415
 30
0.0
 11
4768.135374128648
 21
2440.93006454858
 31
0.0
  0
LINE
  5
805F
330
805A
100
AcDbEntity
  8
Dim
 62
     0
370
    -2
100
AcDbLine
 10
4678.134763777085
 20
2440.93006454858
 30
0.0
 11
4758.13598448021
 21
2440.93006454858
 31
0.0
  0
INSERT
  5
8060
330
805A
100
AcDbEntity
  8
Dim
 62
     0
370
    -2
100
AcDbBlockReference
  2
_DOT
 10
4668.135374128648
 20
2440.93006454858
 30
0.0
 41
9.999389648437498
 42
9.999389648437498
 43
9.999389648437498
 50
180.0
  0
INSERT
  5
8061
330
805A
100
AcDbEntity
  8
Dim
 62
     0
370
    -2
100
AcDbBlockReference
  2
_DOT
 10
4768.135374128648
 20
2440.93006454858
 30
0.0
 41
9.999389648437498
 42
9.999389648437498
 43
9.999389648437498
  0
MTEXT
  5
8062
330
805A
100
AcDbEntity
  8
Dim
 62
     0
100
AcDbMText
 10
4718.135374128648
 20
2463.14637314233
 30
0.0
 40
24.4326171875
 41
0.0
 46
0.0
 71
     5
 72
     1
  1
\A1;100
  7
ＭＳ ゴシック
 73
     1
 44
1.0
  0
POINT
  5
8063
330
805A
100
AcDbEntity
  8
Defpoints
 62
     0
100
AcDbPoint
 10
4668.135374128648
 20
2329.390497544415
 30
0.0
  0
POINT
  5
8064
330
805A
100
AcDbEntity
  8
Defpoints
 62
     0
100
AcDbPoint
 10
4768.135374128648
 20
2329.390497544415
 30
0.0
  0
POINT
  5
8065
330
805A
100
AcDbEntity
  8
Defpoints
 62
     0
100
AcDbPoint
 10
4768.135374128648
 20
2440.93006454858
 30
0.0
  0
ENDBLK
  5
805C
330
805A
100
AcDbEntity
  8
0
100
AcDbBlockEnd
  0
BLOCK
  5
8067
330
8066
100
AcDbEntity
  8
0
100
AcDbBlockBegin
  2
*D83
 70
     1
 10
0.0
 20
0.0
 30
0.0
  3
*D83
  1

  0
LINE
  5
8069
330
8066
100
AcDbEntity
  8
Dim
 62
     0
370
    -2
100
AcDbLine
 10
5176.425178928648
 20
2370.890497544416
 30
0.0
 11
5246.266245121072
 21
2370.890497544416
 31
0.0
  0
LINE
  5
806A
330
8066
100
AcDbEntity
  8
Dim
 62
     0
370
    -2
100
AcDbLine
 10
5126.744619521072
 20
1870.890497544415
 30
0.0
 11
5246.266245121072
 21
1870.890497544415
 31
0.0
  0
LINE
  5
806B
330
8066
100
AcDbEntity
  8
Dim
 62
     0
370
    -2
100
AcDbLine
 10
5246.266245121072
 20
2360.891107895979
 30
0.0
 11
5246.266245121072
 21
1880.889887192852
 31
0.0
  0
INSERT
  5
806C
330
8066
100
AcDbEntity
  8
Dim
 62
     0
370
    -2
100
AcDbBlockReference
  2
_DOT
 10
5246.266245121072
 20
2370.890497544416
 30
0.0
 41
9.999389648437498
 42
9.999389648437498
 43
9.999389648437498
 50
90.0
  0
INSERT
  5
806D
330
8066
100
AcDbEntity
  8
Dim
 62
     0
370
    -2
100
AcDbBlockReference
  2
_DOT
 10
5246.266245121072
 20
1870.890497544415
 30
0.0
 41
9.999389648437498
 42
9.999389648437498
 43
9.999389648437498
 50
270.0
  0
MTEXT
  5
806E
330
8066
100
AcDbEntity
  8
Dim
 62
     0
100
AcDbMText
 10
5224.049936527322
 20
2120.890497544416
 30
0.0
 40
24.4326171875
 41
0.0
 46
0.0
 71
     5
 72
     1
  1
\A1;500
  7
ＭＳ ゴシック
 11
0.0
 21
1.0
 31
0.0
 73
     1
 44
1.0
  0
POINT
  5
806F
330
8066
100
AcDbEntity
  8
Defpoints
 62
     0
100
AcDbPoint
 10
5151.425178928648
 20
2370.890497544416
 30
0.0
  0
POINT
  5
8070
330
8066
100
AcDbEntity
  8
Defpoints
 62
     0
100
AcDbPoint
 10
5101.744619521072
 20
1870.890497544415
 30
0.0
  0
POINT
  5
8071
330
8066
100
AcDbEntity
  8
Defpoints
 62
     0
100
AcDbPoint
 10
5246.266245121072
 20
1870.890497544415
 30
0.0
  0
ENDBLK
  5
8068
330
8066
100
AcDbEntity
  8
0
100
AcDbBlockEnd
  0
BLOCK
  5
8073
330
8072
100
AcDbEntity
  8
0
100
AcDbBlockBegin
  2
*D84
 70
     1
 10
0.0
 20
0.0
 30
0.0
  3
*D84
  1

  0
LINE
  5
8075
330
8072
100
AcDbEntity
  8
Dim
 62
     0
370
    -2
100
AcDbLine
 10
4168.135374128648
 20
2370.890497544416
 30
0.0
 11
4075.100900244758
 21
2370.890497544416
 31
0.0
  0
LINE
  5
8076
330
8072
100
AcDbEntity
  8
Dim
 62
     0
370
    -2
100
AcDbLine
 10
4249.029854721072
 20
2225.890497544415
 30
0.0
 11
4075.100900244758
 21
2225.890497544415
 31
0.0
  0
LINE
  5
8077
330
8072
100
AcDbEntity
  8
Dim
 62
     0
370
    -2
100
AcDbLine
 10
4075.100900244758
 20
2360.891107895978
 30
0.0
 11
4075.100900244758
 21
2235.889887192852
 31
0.0
  0
INSERT
  5
8078
330
8072
100
AcDbEntity
  8
Dim
 62
     0
370
    -2
100
AcDbBlockReference
  2
_DOT
 10
4075.100900244758
 20
2370.890497544416
 30
0.0
 41
9.999389648437498
 42
9.999389648437498
 43
9.999389648437498
 50
90.0
  0
INSERT
  5
8079
330
8072
100
AcDbEntity
  8
Dim
 62
     0
370
    -2
100
AcDbBlockReference
  2
_DOT
 10
4075.100900244758
 20
2225.890497544415
 30
0.0
 41
9.999389648437498
 42
9.999389648437498
 43
9.999389648437498
 50
270.0
  0
MTEXT
  5
807A
330
8072
100
AcDbEntity
  8
Dim
 62
     0
100
AcDbMText
 10
4052.884591651008
 20
2298.390497544415
 30
0.0
 40
24.4326171875
 41
0.0
 46
0.0
 71
     5
 72
     1
  1
\A1;145
  7
ＭＳ ゴシック
 11
0.0
 21
1.0
 31
0.0
 73
     1
 44
1.0
  0
POINT
  5
807B
330
8072
100
AcDbEntity
  8
Defpoints
 62
     0
100
AcDbPoint
 10
4193.135374128648
 20
2370.890497544416
 30
0.0
  0
POINT
  5
807C
330
8072
100
AcDbEntity
  8
Defpoints
 62
     0
100
AcDbPoint
 10
4274.029854721072
 20
2225.890497544415
 30
0.0
  0
POINT
  5
807D
330
8072
100
AcDbEntity
  8
Defpoints
 62
     0
100
AcDbPoint
 10
4075.100900244758
 20
2225.890497544415
 30
0.0
  0
ENDBLK
  5
8074
330
8072
100
AcDbEntity
  8
0
100
AcDbBlockEnd
  0
BLOCK
  5
807F
330
807E
100
AcDbEntity
  8
0
100
AcDbBlockBegin
  2
*D85
 70
     1
 10
0.0
 20
0.0
 30
0.0
  3
*D85
  1

  0
LINE
  5
8081
330
807E
100
AcDbEntity
  8
Dim
 62
     0
370
    -2
100
AcDbLine
 10
4249.029854721072
 20
2225.890497544415
 30
0.0
 11
4075.100900244758
 21
2225.890497544415
 31
0.0
  0
LINE
  5
8082
330
807E
100
AcDbEntity
  8
Dim
 62
     0
370
    -2
100
AcDbLine
 10
4256.328926721073
 20
1915.890497544415
 30
0.0
 11
4075.100900244758
 21
1915.890497544415
 31
0.0
  0
LINE
  5
8083
330
807E
100
AcDbEntity
  8
Dim
 62
     0
370
    -2
100
AcDbLine
 10
4075.100900244758
 20
2215.891107895977
 30
0.0
 11
4075.100900244758
 21
1925.889887192852
 31
0.0
  0
INSERT
  5
8084
330
807E
100
AcDbEntity
  8
Dim
 62
     0
370
    -2
100
AcDbBlockReference
  2
_DOT
 10
4075.100900244758
 20
2225.890497544415
 30
0.0
 41
9.999389648437498
 42
9.999389648437498
 43
9.999389648437498
 50
90.0
  0
INSERT
  5
8085
330
807E
100
AcDbEntity
  8
Dim
 62
     0
370
    -2
100
AcDbBlockReference
  2
_DOT
 10
4075.100900244758
 20
1915.890497544415
 30
0.0
 41
9.999389648437498
 42
9.999389648437498
 43
9.999389648437498
 50
270.0
  0
MTEXT
  5
8086
330
807E
100
AcDbEntity
  8
Dim
 62
     0
100
AcDbMText
 10
4052.884591651008
 20
2070.890497544415
 30
0.0
 40
24.4326171875
 41
0.0
 46
0.0
 71
     5
 72
     1
  1
\A1;310
  7
ＭＳ ゴシック
 11
0.0
 21
1.0
 31
0.0
 73
     1
 44
1.0
  0
POINT
  5
8087
330
807E
100
AcDbEntity
  8
Defpoints
 62
     0
100
AcDbPoint
 10
4274.029854721072
 20
2225.890497544415
 30
0.0
  0
POINT
  5
8088
330
807E
100
AcDbEntity
  8
Defpoints
 62
     0
100
AcDbPoint
 10
4281.328926721073
 20
1915.890497544415
 30
0.0
  0
POINT
  5
8089
330
807E
100
AcDbEntity
  8
Defpoints
 62
     0
100
AcDbPoint
 10
4075.100900244758
 20
1915.890497544415
 30
0.0
  0
ENDBLK
  5
8080
330
807E
100
AcDbEntity
  8
0
100
AcDbBlockEnd
  0
BLOCK
  5
808B
330
808A
100
AcDbEntity
  8
0
100
AcDbBlockBegin
  2
*D86
 70
     1
 10
0.0
 20
0.0
 30
0.0
  3
*D86
  1

  0
LINE
  5
808D
330
808A
100
AcDbEntity
  8
Dim
 62
     0
370
    -2
100
AcDbLine
 10
4256.328926721073
 20
1915.890497544415
 30
0.0
 11
4075.100900244758
 21
1915.890497544415
 31
0.0
  0
LINE
  5
808E
330
808A
100
AcDbEntity
  8
Dim
 62
     0
370
    -2
100
AcDbLine
 10
4247.570040321072
 20
1870.890497544415
 30
0.0
 11
4075.100900244758
 21
1870.890497544415
 31
0.0
  0
LINE
  5
808F
330
808A
100
AcDbEntity
  8
Dim
 62
     0
370
    -2
100
AcDbLine
 10
4075.100900244758
 20
1905.891107895977
 30
0.0
 11
4075.100900244758
 21
1880.889887192852
 31
0.0
  0
INSERT
  5
8090
330
808A
100
AcDbEntity
  8
Dim
 62
     0
370
    -2
100
AcDbBlockReference
  2
_DOT
 10
4075.100900244758
 20
1915.890497544415
 30
0.0
 41
9.999389648437498
 42
9.999389648437498
 43
9.999389648437498
 50
90.0
  0
INSERT
  5
8091
330
808A
100
AcDbEntity
  8
Dim
 62
     0
370
    -2
100
AcDbBlockReference
  2
_DOT
 10
4075.100900244758
 20
1870.890497544415
 30
0.0
 41
9.999389648437498
 42
9.999389648437498
 43
9.999389648437498
 50
270.0
  0
MTEXT
  5
8092
330
808A
100
AcDbEntity
  8
Dim
 62
     0
100
AcDbMText
 10
4052.884591651008
 20
1893.390497544415
 30
0.0
 40
24.4326171875
 41
0.0
 46
0.0
 71
     5
 72
     1
  1
\A1;45
  7
ＭＳ ゴシック
 11
0.0
 21
1.0
 31
0.0
 73
     1
 44
1.0
  0
POINT
  5
8093
330
808A
100
AcDbEntity
  8
Defpoints
 62
     0
100
AcDbPoint
 10
4281.328926721073
 20
1915.890497544415
 30
0.0
  0
POINT
  5
8094
330
808A
100
AcDbEntity
  8
Defpoints
 62
     0
100
AcDbPoint
 10
4272.570040321072
 20
1870.890497544415
 30
0.0
  0
POINT
  5
8095
330
808A
100
AcDbEntity
  8
Defpoints
 62
     0
100
AcDbPoint
 10
4075.100900244758
 20
1870.890497544415
 30
0.0
  0
ENDBLK
  5
808C
330
808A
100
AcDbEntity
  8
0
100
AcDbBlockEnd
  0
BLOCK
  5
8097
330
8096
100
AcDbEntity
  8
0
100
AcDbBlockBegin
  2
*D87
 70
     1
 10
0.0
 20
0.0
 30
0.0
  3
*D87
  1

  0
LINE
  5
8099
330
8096
100
AcDbEntity
  8
Dim
 62
     0
370
    -2
100
AcDbLine
 10
4343.135374128648
 20
1846.374977544416
 30
0.0
 11
4343.135374128648
 21
1742.032950282948
 31
0.0
  0
LINE
  5
809A
330
8096
100
AcDbEntity
  8
Dim
 62
     0
370
    -2
100
AcDbLine
 10
4993.135374128648
 20
1846.374977544416
 30
0.0
 11
4993.135374128648
 21
1742.032950282948
 31
0.0
  0
LINE
  5
809B
330
8096
100
AcDbEntity
  8
Dim
 62
     0
370
    -2
100
AcDbLine
 10
4353.134763777085
 20
1742.032950282948
 30
0.0
 11
4983.13598448021
 21
1742.032950282948
 31
0.0
  0
INSERT
  5
809C
330
8096
100
AcDbEntity
  8
Dim
 62
     0
370
    -2
100
AcDbBlockReference
  2
_DOT
 10
4343.135374128648
 20
1742.032950282948
 30
0.0
 41
9.999389648437498
 42
9.999389648437498
 43
9.999389648437498
 50
180.0
  0
INSERT
  5
809D
330
8096
100
AcDbEntity
  8
Dim
 62
     0
370
    -2
100
AcDbBlockReference
  2
_DOT
 10
4993.135374128648
 20
1742.032950282948
 30
0.0
 41
9.999389648437498
 42
9.999389648437498
 43
9.999389648437498
  0
MTEXT
  5
809E
330
8096
100
AcDbEntity
  8
Dim
 62
     0
100
AcDbMText
 10
4668.135374128648
 20
1764.249258876698
 30
0.0
 40
24.4326171875
 41
0.0
 46
0.0
 71
     5
 72
     1
  1
\A1;650
  7
ＭＳ ゴシック
 73
     1
 44
1.0
  0
POINT
  5
809F
330
8096
100
AcDbEntity
  8
Defpoints
 62
     0
100
AcDbPoint
 10
4343.135374128648
 20
1871.374977544416
 30
0.0
  0
POINT
  5
80A0
330
8096
100
AcDbEntity
  8
Defpoints
 62
     0
100
AcDbPoint
 10
4993.135374128648
 20
1871.374977544416
 30
0.0
  0
POINT
  5
80A1
330
8096
100
AcDbEntity
  8
Defpoints
 62
     0
100
AcDbPoint
 10
4993.135374128648
 20
1742.032950282948
 30
0.0
  0
ENDBLK
  5
8098
330
8096
100
AcDbEntity
  8
0
100
AcDbBlockEnd
  0
BLOCK
  5
80A3
330
80A2
100
AcDbEntity
  8
0
100
AcDbBlockBegin
  2
*D88
 70
     1
 10
0.0
 20
0.0
 30
0.0
  3
*D88
  1

  0
LINE
  5
80A5
330
80A2
100
AcDbEntity
  8
Dim
 62
     0
370
    -2
100
AcDbLine
 10
4993.135374128648
 20
1846.374977544416
 30
0.0
 11
4993.135374128648
 21
1742.032950282948
 31
0.0
  0
LINE
  5
80A6
330
80A2
100
AcDbEntity
  8
Dim
 62
     0
370
    -2
100
AcDbLine
 10
5143.135374128648
 20
1890.890497544415
 30
0.0
 11
5143.135374128648
 21
1742.032950282948
 31
0.0
  0
LINE
  5
80A7
330
80A2
100
AcDbEntity
  8
Dim
 62
     0
370
    -2
100
AcDbLine
 10
5003.134763777085
 20
1742.032950282948
 30
0.0
 11
5133.13598448021
 21
1742.032950282948
 31
0.0
  0
INSERT
  5
80A8
330
80A2
100
AcDbEntity
  8
Dim
 62
     0
370
    -2
100
AcDbBlockReference
  2
_DOT
 10
4993.135374128648
 20
1742.032950282948
 30
0.0
 41
9.999389648437498
 42
9.999389648437498
 43
9.999389648437498
 50
180.0
  0
INSERT
  5
80A9
330
80A2
100
AcDbEntity
  8
Dim
 62
     0
370
    -2
100
AcDbBlockReference
  2
_DOT
 10
5143.135374128648
 20
1742.032950282948
 30
0.0
 41
9.999389648437498
 42
9.999389648437498
 43
9.999389648437498
  0
MTEXT
  5
80AA
330
80A2
100
AcDbEntity
  8
Dim
 62
     0
100
AcDbMText
 10
5068.135374128648
 20
1764.249258876698
 30
0.0
 40
24.4326171875
 41
0.0
 46
0.0
 71
     5
 72
     1
  1
\A1;150
  7
ＭＳ ゴシック
 73
     1
 44
1.0
  0
POINT
  5
80AB
330
80A2
100
AcDbEntity
  8
Defpoints
 62
     0
100
AcDbPoint
 10
4993.135374128648
 20
1871.374977544416
 30
0.0
  0
POINT
  5
80AC
330
80A2
100
AcDbEntity
  8
Defpoints
 62
     0
100
AcDbPoint
 10
5143.135374128648
 20
1915.890497544415
 30
0.0
  0
POINT
  5
80AD
330
80A2
100
AcDbEntity
  8
Defpoints
 62
     0
100
AcDbPoint
 10
5143.135374128648
 20
1742.032950282948
 30
0.0
  0
ENDBLK
  5
80A4
330
80A2
100
AcDbEntity
  8
0
100
AcDbBlockEnd
  0
BLOCK
  5
80AF
330
80AE
100
AcDbEntity
  8
0
100
AcDbBlockBegin
  2
*D89
 70
     1
 10
0.0
 20
0.0
 30
0.0
  3
*D89
  1

  0
LINE
  5
80B1
330
80AE
100
AcDbEntity
  8
Dim
 62
     0
370
    -2
100
AcDbLine
 10
4193.135374128648
 20
2410.678497544415
 30
0.0
 11
4193.135374128648
 21
2549.745637988093
 31
0.0
  0
LINE
  5
80B2
330
80AE
100
AcDbEntity
  8
Dim
 62
     0
370
    -2
100
AcDbLine
 10
5143.135374128648
 20
2410.678497544415
 30
0.0
 11
5143.135374128648
 21
2549.745637988093
 31
0.0
  0
LINE
  5
80B3
330
80AE
100
AcDbEntity
  8
Dim
 62
     0
370
    -2
100
AcDbLine
 10
4203.134763777085
 20
2549.745637988093
 30
0.0
 11
5133.13598448021
 21
2549.745637988093
 31
0.0
  0
INSERT
  5
80B4
330
80AE
100
AcDbEntity
  8
Dim
 62
     0
370
    -2
100
AcDbBlockReference
  2
_DOT
 10
4193.135374128648
 20
2549.745637988093
 30
0.0
 41
9.999389648437498
 42
9.999389648437498
 43
9.999389648437498
 50
180.0
  0
INSERT
  5
80B5
330
80AE
100
AcDbEntity
  8
Dim
 62
     0
370
    -2
100
AcDbBlockReference
  2
_DOT
 10
5143.135374128648
 20
2549.745637988093
 30
0.0
 41
9.999389648437498
 42
9.999389648437498
 43
9.999389648437498
  0
MTEXT
  5
80B6
330
80AE
100
AcDbEntity
  8
Dim
 62
     0
100
AcDbMText
 10
4668.135374128648
 20
2571.961946581843
 30
0.0
 40
24.4326171875
 41
0.0
 46
0.0
 71
     5
 72
     1
  1
\A1;950
  7
ＭＳ ゴシック
 73
     1
 44
1.0
  0
POINT
  5
80B7
330
80AE
100
AcDbEntity
  8
Defpoints
 62
     0
100
AcDbPoint
 10
4193.135374128648
 20
2385.678497544415
 30
0.0
  0
POINT
  5
80B8
330
80AE
100
AcDbEntity
  8
Defpoints
 62
     0
100
AcDbPoint
 10
5143.135374128648
 20
2385.678497544415
 30
0.0
  0
POINT
  5
80B9
330
80AE
100
AcDbEntity
  8
Defpoints
 62
     0
100
AcDbPoint
 10
5143.135374128648
 20
2549.745637988093
 30
0.0
  0
ENDBLK
  5
80B0
330
80AE
100
AcDbEntity
  8
0
100
AcDbBlockEnd
  0
BLOCK
  5
80BB
330
80BA
100
AcDbEntity
  8
0
100
AcDbBlockBegin
  2
*D90
 70
     1
 10
0.0
 20
0.0
 30
0.0
  3
*D90
  1

  0
LINE
  5
80BD
330
80BA
100
AcDbEntity
  8
Dim
 62
     0
370
    -2
100
AcDbLine
 10
4343.135374128648
 20
1846.374977544416
 30
0.0
 11
4343.135374128648
 21
1742.032950282948
 31
0.0
  0
LINE
  5
80BE
330
80BA
100
AcDbEntity
  8
Dim
 62
     0
370
    -2
100
AcDbLine
 10
4193.135374128648
 20
1890.890497544415
 30
0.0
 11
4193.135374128648
 21
1742.032950282948
 31
0.0
  0
LINE
  5
80BF
330
80BA
100
AcDbEntity
  8
Dim
 62
     0
370
    -2
100
AcDbLine
 10
4333.13598448021
 20
1742.032950282948
 30
0.0
 11
4203.134763777085
 21
1742.032950282948
 31
0.0
  0
INSERT
  5
80C0
330
80BA
100
AcDbEntity
  8
Dim
 62
     0
370
    -2
100
AcDbBlockReference
  2
_DOT
 10
4343.135374128648
 20
1742.032950282948
 30
0.0
 41
9.999389648437498
 42
9.999389648437498
 43
9.999389648437498
 50
359.9999999999998
  0
INSERT
  5
80C1
330
80BA
100
AcDbEntity
  8
Dim
 62
     0
370
    -2
100
AcDbBlockReference
  2
_DOT
 10
4193.135374128648
 20
1742.032950282948
 30
0.0
 41
9.999389648437498
 42
9.999389648437498
 43
9.999389648437498
 50
179.9999999999999
  0
MTEXT
  5
80C2
330
80BA
100
AcDbEntity
  8
Dim
 62
     0
100
AcDbMText
 10
4268.135374128648
 20
1764.249258876698
 30
0.0
 40
24.4326171875
 41
0.0
 46
0.0
 71
     5
 72
     1
  1
\A1;150
  7
ＭＳ ゴシック
 73
     1
 44
1.0
  0
POINT
  5
80C3
330
80BA
100
AcDbEntity
  8
Defpoints
 62
     0
100
AcDbPoint
 10
4343.135374128648
 20
1871.374977544416
 30
0.0
  0
POINT
  5
80C4
330
80BA
100
AcDbEntity
  8
Defpoints
 62
     0
100
AcDbPoint
 10
4193.135374128648
 20
1915.890497544415
 30
0.0
  0
POINT
  5
80C5
330
80BA
100
AcDbEntity
  8
Defpoints
 62
     0
100
AcDbPoint
 10
4193.135374128648
 20
1742.032950282948
 30
0.0
  0
ENDBLK
  5
80BC
330
80BA
100
AcDbEntity
  8
0
100
AcDbBlockEnd
  0
BLOCK
  5
80D2
330
80D1
100
AcDbEntity
  8
0
100
AcDbBlockBegin
  2
*D91
 70
     1
 10
0.0
 20
0.0
 30
0.0
  3
*D91
  1

  0
LINE
  5
80D4
330
80D1
100
AcDbEntity
  8
Dim
 62
     0
370
    -2
100
AcDbLine
 10
383.0954952687161
 20
2524.216116509978
 30
0.0
 11
383.0954952687161
 21
2603.884385278809
 31
0.0
  0
LINE
  5
80D5
330
80D1
100
AcDbEntity
  8
Dim
 62
     0
370
    -2
100
AcDbLine
 10
703.0954952687161
 20
2524.216116509977
 30
0.0
 11
703.0954952687161
 21
2603.884385278809
 31
0.0
  0
LINE
  5
80D6
330
80D1
100
AcDbEntity
  8
Dim
 62
     0
370
    -2
100
AcDbLine
 10
393.0948849171536
 20
2603.884385278809
 30
0.0
 11
693.0961056202786
 21
2603.884385278809
 31
0.0
  0
INSERT
  5
80D7
330
80D1
100
AcDbEntity
  8
Dim
 62
     0
370
    -2
100
AcDbBlockReference
  2
_DOT
 10
383.0954952687161
 20
2603.884385278809
 30
0.0
 41
9.999389648437498
 42
9.999389648437498
 43
9.999389648437498
 50
180.0
  0
INSERT
  5
80D8
330
80D1
100
AcDbEntity
  8
Dim
 62
     0
370
    -2
100
AcDbBlockReference
  2
_DOT
 10
703.0954952687161
 20
2603.884385278809
 30
0.0
 41
9.999389648437498
 42
9.999389648437498
 43
9.999389648437498
  0
MTEXT
  5
80D9
330
80D1
100
AcDbEntity
  8
Dim
 62
     0
100
AcDbMText
 10
543.0954952687161
 20
2626.100693872559
 30
0.0
 40
24.4326171875
 41
0.0
 46
0.0
 71
     5
 72
     1
  1
\A1;320
  7
ＭＳ ゴシック
 73
     1
 44
1.0
  0
POINT
  5
80DA
330
80D1
100
AcDbEntity
  8
Defpoints
 62
     0
100
AcDbPoint
 10
383.0954952687161
 20
2499.216116509978
 30
0.0
  0
POINT
  5
80DB
330
80D1
100
AcDbEntity
  8
Defpoints
 62
     0
100
AcDbPoint
 10
703.0954952687161
 20
2499.216116509977
 30
0.0
  0
POINT
  5
80DC
330
80D1
100
AcDbEntity
  8
Defpoints
 62
     0
100
AcDbPoint
 10
703.0954952687161
 20
2603.884385278809
 30
0.0
  0
ENDBLK
  5
80D3
330
80D1
100
AcDbEntity
  8
0
100
AcDbBlockEnd
  0
BLOCK
  5
80E1
330
80E0
100
AcDbEntity
  8
0
100
AcDbBlockBegin
  2
*D92
 70
     1
 10
0.0
 20
0.0
 30
0.0
  3
*D92
  1

  0
LINE
  5
80E3
330
80E0
100
AcDbEntity
  8
Dim
 62
     0
370
    -2
100
AcDbLine
 10
728.0954952687161
 20
2499.216116509977
 30
0.0
 11
779.9232784711012
 21
2499.216116509977
 31
0.0
  0
LINE
  5
80E4
330
80E0
100
AcDbEntity
  8
Dim
 62
     0
370
    -2
100
AcDbLine
 10
728.0954952687161
 20
2099.216116509977
 30
0.0
 11
779.9232784711012
 21
2099.216116509977
 31
0.0
  0
LINE
  5
80E5
330
80E0
100
AcDbEntity
  8
Dim
 62
     0
370
    -2
100
AcDbLine
 10
779.9232784711012
 20
2489.216726861539
 30
0.0
 11
779.9232784711012
 21
2109.215506158414
 31
0.0
  0
INSERT
  5
80E6
330
80E0
100
AcDbEntity
  8
Dim
 62
     0
370
    -2
100
AcDbBlockReference
  2
_DOT
 10
779.9232784711012
 20
2499.216116509977
 30
0.0
 41
9.999389648437498
 42
9.999389648437498
 43
9.999389648437498
 50
90.0
  0
INSERT
  5
80E7
330
80E0
100
AcDbEntity
  8
Dim
 62
     0
370
    -2
100
AcDbBlockReference
  2
_DOT
 10
779.9232784711012
 20
2099.216116509977
 30
0.0
 41
9.999389648437498
 42
9.999389648437498
 43
9.999389648437498
 50
270.0
  0
MTEXT
  5
80E8
330
80E0
100
AcDbEntity
  8
Dim
 62
     0
100
AcDbMText
 10
757.7069698773512
 20
2299.216116509977
 30
0.0
 40
24.4326171875
 41
0.0
 46
0.0
 71
     5
 72
     1
  1
\A1;400
  7
ＭＳ ゴシック
 11
0.0
 21
1.0
 31
0.0
 73
     1
 44
1.0
  0
POINT
  5
80E9
330
80E0
100
AcDbEntity
  8
Defpoints
 62
     0
100
AcDbPoint
 10
703.0954952687161
 20
2499.216116509977
 30
0.0
  0
POINT
  5
80EA
330
80E0
100
AcDbEntity
  8
Defpoints
 62
     0
100
AcDbPoint
 10
703.0954952687161
 20
2099.216116509977
 30
0.0
  0
POINT
  5
80EB
330
80E0
100
AcDbEntity
  8
Defpoints
 62
     0
100
AcDbPoint
 10
779.9232784711012
 20
2099.216116509977
 30
0.0
  0
ENDBLK
  5
80E2
330
80E0
100
AcDbEntity
  8
0
100
AcDbBlockEnd
  0
BLOCK
  5
80F3
330
80F2
100
AcDbEntity
  8
0
100
AcDbBlockBegin
  2
*D93
 70
     1
 10
0.0
 20
0.0
 30
0.0
  3
*D93
  1

  0
LINE
  5
80F5
330
80F2
100
AcDbEntity
  8
Dim
 62
     0
370
    -2
100
AcDbLine
 10
383.0954952687161
 20
2549.216116509978
 30
0.0
 11
383.0954952687161
 21
2603.884385278809
 31
0.0
  0
LINE
  5
80F6
330
80F2
100
AcDbEntity
  8
Dim
 62
     0
370
    -2
100
AcDbLine
 10
353.0954952687161
 20
2628.884385278809
 30
0.0
 11
353.0954952687161
 21
2603.884385278809
 31
0.0
  0
LINE
  5
80F7
330
80F2
100
AcDbEntity
  8
Dim
 62
     0
370
    -2
100
AcDbLine
 10
353.0954952687161
 20
2603.884385278809
 30
0.0
 11
283.9486036671535
 21
2603.884385278809
 31
0.0
  0
LINE
  5
80F8
330
80F2
100
AcDbEntity
  8
Dim
 62
     0
370
    -2
100
AcDbLine
 10
373.0961056202786
 20
2603.884385278809
 30
0.0
 11
363.0948849171536
 21
2603.884385278809
 31
0.0
  0
LINE
  5
80F9
330
80F2
100
AcDbEntity
  8
Dim
 62
     0
370
    -2
100
AcDbLine
 10
363.0948849171536
 20
2603.884385278809
 30
0.0
 11
373.0942745655911
 21
2603.884385278809
 31
0.0
  0
INSERT
  5
80FA
330
80F2
100
AcDbEntity
  8
Dim
 62
     0
370
    -2
100
AcDbBlockReference
  2
_DOT
 10
383.0954952687161
 20
2603.884385278809
 30
0.0
 41
9.999389648437498
 42
9.999389648437498
 43
9.999389648437498
  0
INSERT
  5
80FB
330
80F2
100
AcDbEntity
  8
Dim
 62
     0
370
    -2
100
AcDbBlockReference
  2
_DOT
 10
353.0954952687161
 20
2603.884385278809
 30
0.0
 41
9.999389648437498
 42
9.999389648437498
 43
9.999389648437498
 50
180.0
  0
MTEXT
  5
80FC
330
80F2
100
AcDbEntity
  8
Dim
 62
     0
100
AcDbMText
 10
308.5226598194972
 20
2626.100693872559
 30
0.0
 40
24.4326171875
 41
0.0
 46
0.0
 71
     5
 72
     1
  1
\A1;30
  7
ＭＳ ゴシック
 73
     1
 44
1.0
  0
POINT
  5
80FD
330
80F2
100
AcDbEntity
  8
Defpoints
 62
     0
100
AcDbPoint
 10
383.0954952687161
 20
2524.216116509978
 30
0.0
  0
POINT
  5
80FE
330
80F2
100
AcDbEntity
  8
Defpoints
 62
     0
100
AcDbPoint
 10
353.0954952687161
 20
2603.884385278809
 30
0.0
  0
POINT
  5
80FF
330
80F2
100
AcDbEntity
  8
Defpoints
 62
     0
100
AcDbPoint
 10
353.0954952687161
 20
2603.884385278809
 30
0.0
  0
ENDBLK
  5
80F4
330
80F2
100
AcDbEntity
  8
0
100
AcDbBlockEnd
  0
BLOCK
  5
8108
330
8107
100
AcDbEntity
  8
0
100
AcDbBlockBegin
  2
*D94
 70
     1
 10
0.0
 20
0.0
 30
0.0
  3
*D94
  1

  0
LINE
  5
810A
330
8107
100
AcDbEntity
  8
Dim
 62
     0
370
    -2
100
AcDbLine
 10
1651.658310813134
 20
800.5271165099764
 30
0.0
 11
1577.419019603902
 21
800.5271165099764
 31
0.0
  0
LINE
  5
810B
330
8107
100
AcDbEntity
  8
Dim
 62
     0
370
    -2
100
AcDbLine
 10
1651.658310813134
 20
930.5271165099764
 30
0.0
 11
1577.419019603902
 21
930.5271165099764
 31
0.0
  0
LINE
  5
810C
330
8107
100
AcDbEntity
  8
Dim
 62
     0
370
    -2
100
AcDbLine
 10
1577.419019603902
 20
810.5265061584139
 30
0.0
 11
1577.419019603902
 21
920.5277268615389
 31
0.0
  0
INSERT
  5
810D
330
8107
100
AcDbEntity
  8
Dim
 62
     0
370
    -2
100
AcDbBlockReference
  2
_DOT
 10
1577.419019603902
 20
800.5271165099764
 30
0.0
 41
9.999389648437498
 42
9.999389648437498
 43
9.999389648437498
 50
270.0
  0
INSERT
  5
810E
330
8107
100
AcDbEntity
  8
Dim
 62
     0
370
    -2
100
AcDbBlockReference
  2
_DOT
 10
1577.419019603902
 20
930.5271165099764
 30
0.0
 41
9.999389648437498
 42
9.999389648437498
 43
9.999389648437498
 50
90.0
  0
MTEXT
  5
810F
330
8107
100
AcDbEntity
  8
Dim
 62
     0
100
AcDbMText
 10
1555.202711010152
 20
865.5271165099764
 30
0.0
 40
24.4326171875
 41
0.0
 46
0.0
 71
     5
 72
     1
  1
\A1;130
  7
ＭＳ ゴシック
 11
0.0
 21
1.0
 31
0.0
 73
     1
 44
1.0
  0
POINT
  5
8110
330
8107
100
AcDbEntity
  8
Defpoints
 62
     0
100
AcDbPoint
 10
1676.658310813134
 20
800.5271165099764
 30
0.0
  0
POINT
  5
8111
330
8107
100
AcDbEntity
  8
Defpoints
 62
     0
100
AcDbPoint
 10
1676.658310813134
 20
930.5271165099764
 30
0.0
  0
POINT
  5
8112
330
8107
100
AcDbEntity
  8
Defpoints
 62
     0
100
AcDbPoint
 10
1577.419019603902
 20
930.5271165099764
 30
0.0
  0
ENDBLK
  5
8109
330
8107
100
AcDbEntity
  8
0
100
AcDbBlockEnd
  0
BLOCK
  5
8117
330
8116
100
AcDbEntity
  8
0
100
AcDbBlockBegin
  2
*D95
 70
     1
 10
0.0
 20
0.0
 30
0.0
  3
*D95
  1

  0
LINE
  5
8119
330
8116
100
AcDbEntity
  8
Dim
 62
     0
370
    -2
100
AcDbLine
 10
1651.658310813134
 20
930.5271165099764
 30
0.0
 11
1577.419019603902
 21
930.5271165099764
 31
0.0
  0
LINE
  5
811A
330
8116
100
AcDbEntity
  8
Dim
 62
     0
370
    -2
100
AcDbLine
 10
1651.658310813134
 20
1210.527116509976
 30
0.0
 11
1577.419019603902
 21
1210.527116509976
 31
0.0
  0
LINE
  5
811B
330
8116
100
AcDbEntity
  8
Dim
 62
     0
370
    -2
100
AcDbLine
 10
1577.419019603902
 20
940.5265061584139
 30
0.0
 11
1577.419019603902
 21
1200.527726861538
 31
0.0
  0
INSERT
  5
811C
330
8116
100
AcDbEntity
  8
Dim
 62
     0
370
    -2
100
AcDbBlockReference
  2
_DOT
 10
1577.419019603902
 20
930.5271165099764
 30
0.0
 41
9.999389648437498
 42
9.999389648437498
 43
9.999389648437498
 50
270.0
  0
INSERT
  5
811D
330
8116
100
AcDbEntity
  8
Dim
 62
     0
370
    -2
100
AcDbBlockReference
  2
_DOT
 10
1577.419019603902
 20
1210.527116509976
 30
0.0
 41
9.999389648437498
 42
9.999389648437498
 43
9.999389648437498
 50
90.0
  0
MTEXT
  5
811E
330
8116
100
AcDbEntity
  8
Dim
 62
     0
100
AcDbMText
 10
1555.202711010152
 20
1070.527116509976
 30
0.0
 40
24.4326171875
 41
0.0
 46
0.0
 71
     5
 72
     1
  1
\A1;280
  7
ＭＳ ゴシック
 11
0.0
 21
1.0
 31
0.0
 73
     1
 44
1.0
  0
POINT
  5
811F
330
8116
100
AcDbEntity
  8
Defpoints
 62
     0
100
AcDbPoint
 10
1676.658310813134
 20
930.5271165099764
 30
0.0
  0
POINT
  5
8120
330
8116
100
AcDbEntity
  8
Defpoints
 62
     0
100
AcDbPoint
 10
1676.658310813134
 20
1210.527116509976
 30
0.0
  0
POINT
  5
8121
330
8116
100
AcDbEntity
  8
Defpoints
 62
     0
100
AcDbPoint
 10
1577.419019603902
 20
1210.527116509976
 30
0.0
  0
ENDBLK
  5
8118
330
8116
100
AcDbEntity
  8
0
100
AcDbBlockEnd
  0
BLOCK
  5
8126
330
8125
100
AcDbEntity
  8
0
100
AcDbBlockBegin
  2
*D96
 70
     1
 10
0.0
 20
0.0
 30
0.0
  3
*D96
  1

  0
LINE
  5
8128
330
8125
100
AcDbEntity
  8
Dim
 62
     0
370
    -2
100
AcDbLine
 10
1651.658310813134
 20
1340.527116509976
 30
0.0
 11
1577.419019603902
 21
1340.527116509976
 31
0.0
  0
LINE
  5
8129
330
8125
100
AcDbEntity
  8
Dim
 62
     0
370
    -2
100
AcDbLine
 10
1651.658310813134
 20
1210.527116509976
 30
0.0
 11
1577.419019603902
 21
1210.527116509976
 31
0.0
  0
LINE
  5
812A
330
8125
100
AcDbEntity
  8
Dim
 62
     0
370
    -2
100
AcDbLine
 10
1577.419019603902
 20
1330.527726861538
 30
0.0
 11
1577.419019603902
 21
1220.526506158413
 31
0.0
  0
INSERT
  5
812B
330
8125
100
AcDbEntity
  8
Dim
 62
     0
370
    -2
100
AcDbBlockReference
  2
_DOT
 10
1577.419019603902
 20
1340.527116509976
 30
0.0
 41
9.999389648437498
 42
9.999389648437498
 43
9.999389648437498
 50
90.0
  0
INSERT
  5
812C
330
8125
100
AcDbEntity
  8
Dim
 62
     0
370
    -2
100
AcDbBlockReference
  2
_DOT
 10
1577.419019603902
 20
1210.527116509976
 30
0.0
 41
9.999389648437498
 42
9.999389648437498
 43
9.999389648437498
 50
270.0
  0
MTEXT
  5
812D
330
8125
100
AcDbEntity
  8
Dim
 62
     0
100
AcDbMText
 10
1555.202711010152
 20
1275.527116509976
 30
0.0
 40
24.4326171875
 41
0.0
 46
0.0
 71
     5
 72
     1
  1
\A1;130
  7
ＭＳ ゴシック
 11
0.0
 21
1.0
 31
0.0
 73
     1
 44
1.0
  0
POINT
  5
812E
330
8125
100
AcDbEntity
  8
Defpoints
 62
     0
100
AcDbPoint
 10
1676.658310813134
 20
1340.527116509976
 30
0.0
  0
POINT
  5
812F
330
8125
100
AcDbEntity
  8
Defpoints
 62
     0
100
AcDbPoint
 10
1676.658310813134
 20
1210.527116509976
 30
0.0
  0
POINT
  5
8130
330
8125
100
AcDbEntity
  8
Defpoints
 62
     0
100
AcDbPoint
 10
1577.419019603902
 20
1210.527116509976
 30
0.0
  0
ENDBLK
  5
8127
330
8125
100
AcDbEntity
  8
0
100
AcDbBlockEnd
  0
ENDSEC
  0
SECTION
  2
ENTITIES
  0
MTEXT
  5
177
330
A
100
AcDbEntity
  8
template
390
1D
100
AcDbMText
 10
82.00000000048226
 20
348.023957835319
 30
0.0
 40
16.28841145833333
 41
0.0
 46
0.0
 71
     1
 72
     1
  1
品名
  7
ＭＳ ゴシック
 73
     1
 44
0.7828267384257843
  0
MTEXT
  5
178
330
A
100
AcDbEntity
  8
template
390
1D
100
AcDbMText
 10
82.00000000048226
 20
263.0239578353188
 30
0.0
 40
16.28841145833333
 41
0.0
 46
0.0
 71
     1
 72
     1
  1
仕様
  7
ＭＳ ゴシック
 73
     1
 44
0.7828267384257843
  0
LINE
  5
179
330
A
100
AcDbEntity
  8
template
390
1D
100
AcDbLine
 10
2025.0
 20
271.4388797103189
 30
0.0
 11
75.00000000000023
 21
271.4388797103189
 31
0.0
  0
LWPOLYLINE
  5
17A
330
A
100
AcDbEntity
  8
template
390
1D
100
AcDbPolyline
 90
        5
 70
   128
 43
0.0
 10
2025.0
 20
2901.438879710319
 10
75.00000000000023
 20
2901.438879710319
 10
75.00000000000023
 20
101.4388797103188
 10
2025.0
 20
101.4388797103188
 10
2025.0
 20
2901.438879710319
  0
LINE
  5
17B
330
A
100
AcDbEntity
  8
template
390
1D
100
AcDbLine
 10
2025.0
 20
356.4388797103188
 30
0.0
 11
75.00000000000023
 21
356.4388797103188
 31
0.0
  0
LINE
  5
17C
330
A
100
AcDbEntity
  8
template
390
1D
100
AcDbLine
 10
2025.000000000482
 20
186.4388797103189
 30
0.0
 11
1272.000000000482
 21
186.4388797103189
 31
0.0
  0
MTEXT
  5
17E
330
A
100
AcDbEntity
  8
template
390
1D
100
AcDbMText
 10
1301.871406252743
 20
156.5284852370108
 30
0.0
 40
24.4326171875
 41
0.0
 46
0.0
 71
     1
 72
     1
  1
大洋金物株式会社 ティーフォルム事業部
  7
ＭＳ ゴシック
 73
     1
 44
0.7828267384257843
  0
MTEXT
  5
180
330
A
100
AcDbEntity
  8
template
390
1D
100
AcDbMText
 10
1834.000000000742
 20
234.4414968978188
 30
0.0
 40
24.4326171875
 41
0.0
 46
0.0
 71
     1
 72
     1
  1
1:10
  7
ＭＳ ゴシック
 73
     1
 44
0.7828267384257843
  0
MTEXT
  5
181
330
A
100
AcDbEntity
  8
template
390
1D
100
AcDbMText
 10
1781.000000000742
 20
263.0239578353188
 30
0.0
 40
16.28841145833333
 41
0.0
 46
0.0
 71
     1
 72
     1
  1
縮尺
  7
ＭＳ ゴシック
 73
     1
 44
0.7828267384257843
  0
LINE
  5
182
330
A
100
AcDbEntity
  8
template
390
1D
100
AcDbLine
 10
1774.000000000742
 20
186.4388797103189
 30
0.0
 11
1774.000000000742
 21
271.4388797103189
 31
0.0
  0
MTEXT
  5
183
330
A
100
AcDbEntity
  8
template
390
1D
100
AcDbMText
 10
1530.000000000742
 20
263.0239578353188
 30
0.0
 40
16.28841145833333
 41
0.0
 46
0.0
 71
     1
 72
     1
  1
容量
  7
ＭＳ ゴシック
 73
     1
 44
0.7828267384257843
  0
LINE
  5
184
330
A
100
AcDbEntity
  8
template
390
1D
100
AcDbLine
 10
1523.000000000742
 20
186.4388797103189
 30
0.0
 11
1523.000000000742
 21
271.4388797103189
 31
0.0
  0
MTEXT
  5
185
330
A
100
AcDbEntity
  8
template
390
1D
100
AcDbMText
 10
1279.000000000742
 20
348.023957835319
 30
0.0
 40
16.28841145833333
 41
0.0
 46
0.0
 71
     1
 72
     1
  1
品番
  7
ＭＳ ゴシック
 73
     1
 44
0.7828267384257843
  0
MTEXT
  5
186
330
A
100
AcDbEntity
  8
template
390
1D
100
AcDbMText
 10
1279.000000000742
 20
263.0239578353188
 30
0.0
 40
16.28841145833333
 41
0.0
 46
0.0
 71
     1
 72
     1
  1
重量
  7
ＭＳ ゴシック
 73
     1
 44
0.7828267384257843
  0
MTEXT
  5
187
330
A
100
AcDbEntity
  8
template
390
1D
100
AcDbMText
 10
1332.000000000742
 20
319.4414968978188
 30
0.0
 40
24.4326171875
 41
0.0
 46
24.4326171875
 71
     1
 72
     1
  1
{AAA70-1501}
  7
ＭＳ ゴシック
 73
     1
 44
0.7828267384257843
1001
ACAD
1000
ACAD_MTEXT_DEFINED_HEIGHT_BEGIN
1070
    46
1040
24.4326171875
1000
ACAD_MTEXT_DEFINED_HEIGHT_END
  0
LINE
  5
188
330
A
100
AcDbEntity
  8
template
390
1D
100
AcDbLine
 10
1272.000000000742
 20
101.4388797103188
 30
0.0
 11
1272.000000000742
 21
356.4388797103188
 31
0.0
  0
MTEXT
  5
189
330
A
100
AcDbEntity
  8
template
390
1D
100
AcDbMText
 10
135.0000000004822
 20
319.4414968978188
 30
0.0
 40
24.4326171875
 41
0.0
 46
27.5355595703125
 71
     1
 72
     1
  1
{洗面器 -FLAMINIA, Madre-}
  7
ＭＳ ゴシック
 73
     1
 44
0.7828267384257843
1001
ACAD
1000
ACAD_MTEXT_DEFINED_HEIGHT_BEGIN
1070
    46
1040
27.5355595703125
1000
ACAD_MTEXT_DEFINED_HEIGHT_END
  0
MTEXT
  5
18A
330
A
100
AcDbEntity
  8
template
390
1D
100
AcDbMText
 10
135.0000000004822
 20
234.4414968978188
 30
0.0
 40
24.4326171875
 41
0.0
 46
68.99651757812501
 71
     1
 72
     1
  1
{壁掛け、カウンター置き/オーバーフロー付き/壁取付ボルト付属\P陶器/ホワイト}
  7
ＭＳ ゴシック
 73
     1
 44
0.9822934569727008
1001
ACAD
1000
ACAD_MTEXT_DEFINED_HEIGHT_BEGIN
1070
    46
1040
68.99651757812501
1000
ACAD_MTEXT_DEFINED_HEIGHT_END
  0
MTEXT
  5
1A6
330
A
100
AcDbEntity
  8
template
390
1D
100
AcDbMText
 10
1332.000000000742
 20
234.4414968978188
 30
0.0
 40
24.4326171875
 41
0.0
 46
28.390701171875
 71
     1
 72
     1
  1
{32kg}
  7
ＭＳ ゴシック
 73
     1
 44
0.7828267384257843
1001
ACAD
1000
ACAD_MTEXT_DEFINED_HEIGHT_BEGIN
1070
    46
1040
28.390701171875
1000
ACAD_MTEXT_DEFINED_HEIGHT_END
  0
MTEXT
  5
374
330
A
100
AcDbEntity
  8
template
390
1D
100
AcDbMText
 10
1581.992122669024
 20
234.4414968978188
 30
0.0
 40
24.4326171875
 41
0.0
 46
24.4326171875
 71
     1
 72
     1
  1
{13.5L}
  7
ＭＳ ゴシック
 73
     1
 44
0.7828267384257843
1001
ACAD
1000
ACAD_MTEXT_DEFINED_HEIGHT_BEGIN
1070
    46
1040
24.4326171875
1000
ACAD_MTEXT_DEFINED_HEIGHT_END
  0
INSERT
  5
3D0
330
A
100
AcDbEntity
  8
template
100
AcDbBlockReference
  2
名称未設定-1
 10
1873.559250554905
 20
30.23897196054438
 30
0.0
 41
0.7619999999999999
 42
0.7619999999999999
 43
0.7619999999999999
  0
MTEXT
  5
BDB
102
{ACAD_XDICTIONARY
360
BDC
102
}
330
A
100
AcDbEntity
  8
template
  6
Continuous
100
AcDbMText
 10
78.95663872901252
 20
86.10730750352229
 30
0.0
 40
23.0
 41
0.0
 46
23.0
 71
     1
 72
     1
  1
{20191123N}
  7
ＭＳ ゴシック
 73
     1
 44
1.0
1001
ACAD
1000
ACAD_MTEXT_DEFINED_HEIGHT_BEGIN
1070
    46
1040
23.0
1000
ACAD_MTEXT_DEFINED_HEIGHT_END
  0
LWPOLYLINE
  5
BEE
330
A
100
AcDbEntity
  8
PRINT BORDER
100
AcDbPolyline
 90
        4
 70
     1
 43
0.0
 10
0.0
 20
0.0
 10
0.0
 20
2970.0
 10
2100.0
 20
2970.0
 10
2100.0
 20
0.0
  0
INSERT
  5
1273
330
A
100
AcDbEntity
  8
0
 62
     7
100
AcDbBlockReference
  2
BLOCK_2
 10
591.2037060744204
 20
943.564364962162
 30
0.0
  0
INSERT
  5
127B
330
A
100
AcDbEntity
  8
0
 62
     7
100
AcDbBlockReference
  2
BLOCK_2
 10
1291.863324028138
 20
1038.76992320659
 30
0.0
  0
INSERT
  5
127C
330
A
100
AcDbEntity
  8
0
 62
     7
100
AcDbBlockReference
  2
BLOCK_2
 10
652.1648429406905
 20
1595.641631888467
 30
0.0
  0
INSERT
  5
3B99
330
A
100
AcDbEntity
  8
retino
100
AcDbBlockReference
  2
mobile_latù
 10
-92101.31485198285
 20
1730.415535296608
 30
0.0
  0
INSERT
  5
45C2
330
A
100
AcDbEntity
  8
retino
100
AcDbBlockReference
  2
mobile_latù
 10
-86439.67799028098
 20
684.0045377191276
 30
0.0
  0
INSERT
  5
45C3
330
A
100
AcDbEntity
  8
0
100
AcDbBlockReference
  2
.TD_SECTION_1
 10
225818108268.3253
 20
1093.456007493889
 30
0.0
  0
INSERT
  5
45C4
330
A
100
AcDbEntity
  8
0
100
AcDbBlockReference
  2
.TD_SECTION_2
 10
225818173804.3253
 20
1093.456007493889
 30
0.0
  0
INSERT
  5
45C5
330
A
100
AcDbEntity
  8
0
  6
Continuous
 62
     0
370
     0
100
AcDbBlockReference
  2
.TD_SECTION_1
 10
-5309.067341990833
 20
1307.927120367214
 30
0.0
  0
INSERT
  5
45C6
330
A
100
AcDbEntity
  8
0
  6
Continuous
 62
     0
370
     0
100
AcDbBlockReference
  2
.TD_SECTION_2
 10
-5866.445500560169
 20
1615.480640569851
 30
0.0
  0
INSERT
  5
45C7
330
A
100
AcDbEntity
  8
0
  6
Continuous
 62
     0
370
     0
100
AcDbBlockReference
  2
.TD_SECTION_1
 10
-7732.562264964368
 20
-610.0674069533197
 30
0.0
  0
INSERT
  5
45C8
330
A
100
AcDbEntity
  8
0
  6
Continuous
 62
     0
370
     0
100
AcDbBlockReference
  2
.TD_SECTION_2
 10
-7444.601476237562
 20
-908.1755612501947
 30
0.0
  0
INSERT
  5
45C9
330
A
100
AcDbEntity
  8
0
  6
Continuous
 62
     0
370
     0
100
AcDbBlockReference
  2
.TD_SECTION_1
 10
-7604.211434120536
 20
-675.956232615647
 30
0.0
  0
INSERT
  5
45CA
330
A
100
AcDbEntity
  8
0
  6
Continuous
 62
     0
370
     0
100
AcDbBlockReference
  2
.TD_SECTION_2
 10
-7316.160069221854
 20
-974.1548715316626
 30
0.0
  0
INSERT
  5
45CB
330
A
100
AcDbEntity
  8
0
  6
Continuous
 62
     0
370
     0
100
AcDbBlockReference
  2
.TD_SECTION_1
 10
1998.261972039336
 20
584.7577436013784
 30
0.0
  0
INSERT
  5
45CC
330
A
100
AcDbEntity
  8
0
  6
Continuous
 62
     0
370
     0
100
AcDbBlockReference
  2
.TD_SECTION_2
 10
2325.569123833769
 20
298.7106092019643
 30
0.0
  0
INSERT
  5
45CD
330
A
100
AcDbEntity
  8
0
  6
Continuous
 62
     0
370
     0
100
AcDbBlockReference
  2
.TD_SECTION_1
 10
4096.079043894448
 20
729.9229578437947
 30
0.0
  0
INSERT
  5
45CE
330
A
100
AcDbEntity
  8
0
  6
Continuous
 62
     0
370
     0
100
AcDbBlockReference
  2
.TD_SECTION_2
 10
4527.386195688881
 20
443.5448297920369
 30
0.0
  0
INSERT
  5
4611
330
A
100
AcDbEntity
  8
0
  6
Continuous
 62
     0
370
     0
100
AcDbBlockReference
  2
.TD_SECTION_1
 10
6135.868573041045
 20
-239.8054397977554
 30
0.0
  0
INSERT
  5
4612
330
A
100
AcDbEntity
  8
0
  6
Continuous
 62
     0
370
     0
100
AcDbBlockReference
  2
.TD_SECTION_2
 10
6878.171818585479
 20
-958.2465713895522
 30
0.0
  0
ELLIPSE
  5
543D
330
A
100
AcDbEntity
  8
tratteggio
  6
HIDDEN2
 62
     3
 60
     1
370
     0
100
AcDbEllipse
 10
-4096.49475666334
 20
1623.797447106776
 30
0.0
 11
300.0
 21
0.0
 31
0.0
210
0.0
220
0.0
230
1.0
 40
0.5
 41
5.728374274199514
 42
6.837996340159658
  0
ELLIPSE
  5
62B3
330
A
100
AcDbEntity
  8
tratteggio
  6
HIDDEN2
 62
     3
 60
     1
370
     0
100
AcDbEllipse
 10
-3728.470049359251
 20
2199.237967545522
 30
0.0
 11
300.0
 21
0.0
 31
0.0
210
0.0
220
0.0
230
1.0
 40
0.5
 41
5.728374274199514
 42
6.837996340159658
  0
MTEXT
  5
69F0
330
A
100
AcDbEntity
  8
template
390
1D
100
AcDbMText
 10
109.9913836583539
 20
735.5401602155133
 30
0.0
 40
24.4326171875
 41
0.0
 46
24.4326171875
 71
     1
 72
     1
  1
{  }
  7
ＭＳ ゴシック
 73
     1
 44
0.7828267384257843
1001
ACAD
1000
ACAD_MTEXT_DEFINED_HEIGHT_BEGIN
1070
    46
1040
24.4326171875
1000
ACAD_MTEXT_DEFINED_HEIGHT_END
  0
ELLIPSE
  5
6C52
330
A
100
AcDbEntity
  8
tratteggio
  6
HIDDEN2
 62
     3
 60
     1
370
     0
100
AcDbEllipse
 10
-4166.469641787739
 20
1291.912361046218
 30
0.0
 11
300.0
 21
0.0
 31
0.0
210
0.0
220
0.0
230
1.0
 40
0.5
 41
5.728374274199514
 42
6.837996340159658
  0
DIMENSION
  5
7BD5
330
A
100
AcDbEntity
  8
Dim
100
AcDbDimension
  2
*D34
 10
283.0559282645527
 20
1070.527116509977
 30
0.0
 11
260.8396196708027
 21
1020.527116509977
 31
0.0
 70
    32
 71
     5
 42
100.0
 73
     0
 74
     0
 75
     0
  3
tform線あり
100
AcDbAlignedDimension
 13
394.5954952687175
 23
970.5271165099773
 33
0.0
 14
395.5954952687166
 24
1070.527116509977
 34
0.0
 50
90.0
100
AcDbRotatedDimension
  0
DIMENSION
  5
7BD6
330
A
100
AcDbEntity
  8
Dim
100
AcDbDimension
  2
*D35
 10
283.0559282645527
 20
1170.527116509977
 30
0.0
 11
260.8396196708027
 21
1120.527116509977
 31
0.0
 70
    32
 71
     5
 42
100.0
 73
     0
 74
     0
 75
     0
  3
tform線あり
100
AcDbAlignedDimension
 13
394.5954952687175
 23
1070.527116509977
 33
0.0
 14
394.5954952687175
 24
1170.527116509977
 34
0.0
 50
90.0
100
AcDbRotatedDimension
  0
DIMENSION
  5
7BD8
330
A
100
AcDbEntity
  8
Dim
100
AcDbDimension
  2
*D37
 10
853.095495268718
 20
1677.928362597231
 30
0.0
 11
603.0954952687175
 21
1677.928362597231
 31
0.0
 70
   160
 71
     5
 42
500.0000000000009
 73
     0
 74
     0
 75
     0
 52
270.0
  3
tform線あり
100
AcDbAlignedDimension
 13
353.0954952687171
 23
1553.816921309978
 33
0.0
 14
853.095495268718
 24
1504.136361902402
 34
0.0
 50
-180.0
100
AcDbRotatedDimension
  0
DIMENSION
  5
7BD9
330
A
100
AcDbEntity
  8
Dim
100
AcDbDimension
  2
*D38
 10
498.095495268718
 20
477.4926426260879
 30
0.0
 11
425.5954952687175
 21
499.7089512198379
 31
0.0
 70
    32
 71
     5
 42
145.0000000000009
 73
     0
 74
     0
 75
     0
 52
270.0
  3
tform線あり
100
AcDbAlignedDimension
 13
353.0954952687171
 23
595.5271165099773
 33
0.0
 14
498.095495268718
 24
676.4215971024021
 34
0.0
 50
-180.0
100
AcDbRotatedDimension
  0
DIMENSION
  5
7BDA
330
A
100
AcDbEntity
  8
Dim
100
AcDbDimension
  2
*D39
 10
808.0954952687184
 20
477.4926426260879
 30
0.0
 11
653.0954952687182
 21
499.7089512198379
 31
0.0
 70
    32
 71
     5
 42
310.0000000000005
 73
     0
 74
     0
 75
     0
 52
270.0
  3
tform線あり
100
AcDbAlignedDimension
 13
498.095495268718
 23
676.4215971024021
 33
0.0
 14
808.0954952687184
 24
683.7206691024023
 34
0.0
 50
-180.0
100
AcDbRotatedDimension
  0
DIMENSION
  5
7BDB
330
A
100
AcDbEntity
  8
Dim
100
AcDbDimension
  2
*D40
 10
853.0954952687184
 20
477.4926426260879
 30
0.0
 11
830.5954952687184
 21
499.7089512198379
 31
0.0
 70
    32
 71
     5
 42
45.0
 73
     0
 74
     1
 75
     1
 52
270.0
  3
tform線あり
100
AcDbAlignedDimension
 13
808.0954952687184
 23
683.7206691024023
 33
0.0
 14
853.0954952687184
 24
674.9617827024024
 34
0.0
 50
-180.0
100
AcDbRotatedDimension
  0
DIMENSION
  5
7BDD
330
A
100
AcDbEntity
  8
Dim
100
AcDbDimension
  2
*D42
 10
981.953042530185
 20
1395.527116509978
 30
0.0
 11
959.7367339364354
 21
1070.527116509978
 31
0.0
 70
    32
 71
     5
 42
650.0
 73
     0
 74
     0
 75
     0
 52
-90.0
  3
tform線あり
100
AcDbAlignedDimension
 13
852.611015268717
 23
745.5271165099778
 33
0.0
 14
852.611015268717
 24
1395.527116509978
 34
0.0
 50
90.00000000000006
100
AcDbRotatedDimension
  0
DIMENSION
  5
7BDE
330
A
100
AcDbEntity
  8
Dim
100
AcDbDimension
  2
*D43
 10
981.9530425301846
 20
1545.527116509978
 30
0.0
 11
959.7367339364346
 21
1470.527116509978
 31
0.0
 70
    32
 71
     5
 42
150.0000000000001
 73
     0
 74
     0
 75
     0
 52
-90.0
  3
tform線あり
100
AcDbAlignedDimension
 13
852.611015268717
 23
1395.527116509978
 33
0.0
 14
808.095495268718
 24
1545.527116509978
 34
0.0
 50
90.00000000000006
100
AcDbRotatedDimension
  0
DIMENSION
  5
7BE1
330
A
100
AcDbEntity
  8
Dim
100
AcDbDimension
  2
*D46
 10
1766.658310813133
 20
2054.948911123639
 30
0.0
 11
1696.658310813133
 21
2077.165219717389
 31
0.0
 70
    32
 71
     5
 42
139.9999999999998
 73
     0
 74
     0
 75
     0
 52
-270.0
  3
tform線あり
100
AcDbAlignedDimension
 13
1626.658310813133
 23
2112.9224919117
 33
0.0
 14
1766.658310813133
 24
2135.245756525094
 34
0.0
 50
180.0
100
AcDbRotatedDimension
  0
DIMENSION
  5
7BE3
330
A
100
AcDbEntity
  8
Dim
100
AcDbDimension
  2
*D48
 10
1806.658310813129
 20
2054.948911123637
 30
0.0
 11
1786.658310813131
 21
2077.165219717388
 31
0.0
 70
    32
 71
     5
 42
39.99999999998834
 73
     0
 74
     1
 75
     1
 52
-90.0
  3
tform線あり
100
AcDbAlignedDimension
 13
1766.658310813132
 23
2126.276656851494
 33
0.0
 14
1806.658310813129
 24
2364.854708169254
 34
0.0
 50
179.9999999999979
100
AcDbRotatedDimension
  0
DIMENSION
  5
7BE7
330
A
100
AcDbEntity
  8
Dim
100
AcDbDimension
  2
*D52
 10
1806.658310813126
 20
1626.280370491392
 30
0.0
 11
1716.65831081313
 21
1648.496679085142
 31
0.0
 70
    32
 71
     5
 42
179.9999999999921
 73
     0
 74
     0
 75
     0
 52
-270.0
  3
tform線あり
100
AcDbAlignedDimension
 13
1626.658310813134
 23
1552.871787762472
 33
0.0
 14
1806.658310813126
 24
1115.628178674471
 34
0.0
 50
180.0
100
AcDbRotatedDimension
  0
LINE
  5
7BFB
102
{ACAD_REACTORS
330
8015
102
}
330
A
100
AcDbEntity
  8
MODEL
100
AcDbLine
 10
1628.658310813133
 20
2617.586999546907
 30
0.0
 11
1764.658310813133
 21
2617.586999546907
 31
0.0
  0
ARC
  5
7BFC
330
A
100
AcDbEntity
  8
MODEL
100
AcDbCircle
 10
1628.658310813133
 20
2615.586999546906
 30
0.0
 40
2.0
100
AcDbArc
 50
90.0
 51
180.0
  0
LINE
  5
7BFD
330
A
100
AcDbEntity
  8
MODEL
100
AcDbLine
 10
1766.658310813133
 20
2615.586999546906
 30
0.0
 11
1766.658310813133
 21
2139.586999546906
 31
0.0
  0
ARC
  5
7BFE
330
A
100
AcDbEntity
  8
MODEL
100
AcDbCircle
 10
1764.658310813133
 20
2615.586999546906
 30
0.0
 40
2.0
100
AcDbArc
 50
0.0
 51
90.0
  0
ARC
  5
7BFF
330
A
100
AcDbEntity
  8
MODEL
100
AcDbCircle
 10
1764.658310813133
 20
2139.586999546906
 30
0.0
 40
2.0
100
AcDbArc
 50
270.0
 51
0.0
  0
LINE
  5
7C00
102
{ACAD_REACTORS
330
8015
102
}
330
A
100
AcDbEntity
  8
MODEL
100
AcDbLine
 10
1806.658310813133
 20
2435.586999546907
 30
0.0
 11
1806.658310813133
 21
2369.586999546905
 31
0.0
  0
ARC
  5
7C01
330
A
100
AcDbEntity
  8
MODEL
100
AcDbCircle
 10
1804.658310813133
 20
2369.586999546905
 30
0.0
 40
2.0
100
AcDbArc
 50
270.0
 51
0.0
  0
LINE
  5
7C02
330
A
100
AcDbEntity
  8
MODEL
100
AcDbLine
 10
1756.658310813133
 20
2617.586999546907
 30
0.0
 11
1756.658310813133
 21
2129.586999546906
 31
0.0
  0
ARC
  5
7C03
330
A
100
AcDbEntity
  8
MODEL
100
AcDbCircle
 10
1758.658310813133
 20
2135.586999546906
 30
0.0
 40
2.0
100
AcDbArc
 50
90.0
 51
180.0
  0
ARC
  5
7C04
330
A
100
AcDbEntity
  8
MODEL
100
AcDbCircle
 10
1754.658310813133
 20
2129.586999546906
 30
0.0
 40
2.0
100
AcDbArc
 50
270.0
 51
0.0
  0
LINE
  5
7C05
330
A
100
AcDbEntity
  8
MODEL
100
AcDbLine
 10
1633.658310813133
 20
2117.586999546907
 30
0.0
 11
1632.658310813133
 21
2117.586999546907
 31
0.0
  0
ARC
  5
7C06
330
A
100
AcDbEntity
  8
MODEL
100
AcDbCircle
 10
1632.658310813133
 20
2123.586999546907
 30
0.0
 40
6.0
100
AcDbArc
 50
180.0
 51
270.0
  0
LINE
  5
7C07
330
A
100
AcDbEntity
  8
MODEL
100
AcDbLine
 10
1754.658310813133
 20
2127.586999546907
 30
0.0
 11
1648.490707787323
 21
2127.586999546907
 31
0.0
  0
LINE
  5
7C08
330
A
100
AcDbEntity
  8
MODEL
100
AcDbLine
 10
1764.658310813133
 20
2137.586999546906
 30
0.0
 11
1758.658310813133
 21
2137.586999546906
 31
0.0
  0
LINE
  5
7C09
330
A
100
AcDbEntity
  8
MODEL
100
AcDbLine
 10
1626.658310813133
 20
2123.586999546907
 30
0.0
 11
1626.658310813133
 21
2615.586999546906
 31
0.0
  0
LINE
  5
7C0A
330
A
100
AcDbEntity
  8
MODEL
100
AcDbLine
 10
1641.658310813133
 20
2125.586999546906
 30
0.0
 11
1641.658310813133
 21
2207.586999546907
 31
0.0
  0
ARC
  5
7C0B
330
A
100
AcDbEntity
  8
MODEL
100
AcDbCircle
 10
1633.658310813133
 20
2125.586999546906
 30
0.0
 40
8.0
100
AcDbArc
 50
270.0
 51
337.9756871629579
  0
ARC
  5
7C0C
330
A
100
AcDbEntity
  8
MODEL
100
AcDbCircle
 10
1648.490707787323
 20
2119.586999546906
 30
0.0
 40
8.0
100
AcDbArc
 50
90.0
 51
157.9756871629579
  0
LINE
  5
7C0D
330
A
100
AcDbEntity
  8
MODEL
100
AcDbLine
 10
1803.658310813133
 20
2437.586999546906
 30
0.0
 11
1804.658310813133
 21
2437.586999546906
 31
0.0
  0
ARC
  5
7C0E
330
A
100
AcDbEntity
  8
MODEL
100
AcDbCircle
 10
1804.658310813133
 20
2435.586999546907
 30
0.0
 40
2.0
100
AcDbArc
 50
0.0
 51
90.0
  0
LINE
  5
7C0F
330
A
100
AcDbEntity
  8
MODEL
100
AcDbLine
 10
1766.658310813133
 20
2367.586999546907
 30
0.0
 11
1804.658310813133
 21
2367.586999546904
 31
0.0
  0
LINE
  5
7C10
330
A
100
AcDbEntity
  8
MODEL
100
AcDbLine
 10
1766.658310813133
 20
2420.614755924226
 30
0.0
 11
1799.658310813133
 21
2420.614755924226
 31
0.0
  0
ARC
  5
7C11
330
A
100
AcDbEntity
  8
MODEL
100
AcDbCircle
 10
1799.658310813133
 20
2422.614755924226
 30
0.0
 40
2.0
100
AcDbArc
 50
270.0
 51
0.0
  0
LINE
  5
7C12
330
A
100
AcDbEntity
  8
MODEL
100
AcDbLine
 10
1801.658310813133
 20
2422.614755924226
 30
0.0
 11
1801.658310813133
 21
2456.862899676545
 31
0.0
  0
ARC
  5
7C13
330
A
100
AcDbEntity
  8
MODEL
100
AcDbCircle
 10
1803.658310813133
 20
2439.586999546906
 30
0.0
 40
2.0
100
AcDbArc
 50
180.0
 51
270.0
  0
LINE
  5
7C14
330
A
100
AcDbEntity
  8
MODEL
100
AcDbLine
 10
1766.658310813133
 20
2499.58699954691
 30
0.0
 11
1801.194753372328
 21
2458.143268475874
 31
0.0
  0
ARC
  5
7C15
330
A
100
AcDbEntity
  8
MODEL
100
AcDbCircle
 10
1799.658310813133
 20
2456.862899676545
 30
0.0
 40
2.0
100
AcDbArc
 50
0.0
 51
39.80557109227437
  0
LWPOLYLINE
  5
7C2F
330
A
100
AcDbEntity
  8
MODEL
100
AcDbPolyline
 90
        8
 70
     1
 43
0.0
 10
853.095495268718
 20
1455.527116509977
 42
0.4142135623730951
 10
763.095495268718
 20
1545.527116509977
 10
355.095495268718
 20
1545.527116509977
 42
0.4142135623730951
 10
353.0954952687171
 20
1543.527116509977
 10
353.0954952687166
 20
597.5271165099773
 42
0.4142135623730951
 10
355.0954952687175
 20
595.5271165099773
 10
763.095495268718
 20
595.5271165099773
 42
0.4142135623730951
 10
853.095495268718
 20
685.5271165099773
  0
LWPOLYLINE
  5
7C30
330
A
100
AcDbEntity
  8
MODEL
100
AcDbPolyline
 90
        8
 70
     1
 43
0.0
 10
808.095495268718
 20
775.5271165099773
 10
808.095495268718
 20
1365.527116509977
 42
0.4142135623730951
 10
778.095495268718
 20
1395.527116509977
 10
528.0954952687175
 20
1395.527116509977
 42
0.4142135623730951
 10
498.0954952687175
 20
1365.527116509977
 10
498.0954952687175
 20
775.5271165099773
 42
0.4142135623730951
 10
528.0954952687175
 20
745.5271165099773
 10
778.095495268718
 20
745.5271165099773
 42
0.4142135623730951
  0
CIRCLE
  5
7C31
330
A
100
AcDbEntity
  8
MODEL
100
AcDbCircle
 10
568.0954952687175
 20
1070.527116509977
 30
0.0
 40
22.5
  0
CIRCLE
  5
7C32
330
A
100
AcDbEntity
  8
MODEL
100
AcDbCircle
 10
568.0954952687175
 20
1070.527116509977
 30
0.0
 40
40.0
  0
CIRCLE
  5
7C33
330
A
100
AcDbEntity
  8
HIDDEN
 48
0.5
100
AcDbCircle
 10
413.0954952687175
 20
1170.527116509977
 30
0.0
 40
18.5
  0
CIRCLE
  5
7C34
330
A
100
AcDbEntity
  8
HIDDEN
 48
0.5
100
AcDbCircle
 10
413.0954952687175
 20
1070.527116509977
 30
0.0
 40
18.5
  0
CIRCLE
  5
7C35
330
A
100
AcDbEntity
  8
HIDDEN
 48
0.5
100
AcDbCircle
 10
413.0954952687175
 20
970.5271165099773
 30
0.0
 40
18.5
  0
LINE
  5
7C36
330
A
100
AcDbEntity
  8
MODEL
100
AcDbLine
 10
1626.658310813134
 20
601.5271165099755
 30
0.0
 11
1626.658310813134
 21
1539.527116509977
 31
0.0
  0
LINE
  5
7C37
330
A
100
AcDbEntity
  8
MODEL
100
AcDbLine
 10
1766.658310813134
 20
1533.527116509977
 30
0.0
 11
1766.658310813134
 21
607.5271165099755
 31
0.0
  0
ARC
  5
7C38
330
A
100
AcDbEntity
  8
MODEL
100
AcDbCircle
 10
1764.658310813134
 20
1533.527116509977
 30
0.0
 40
2.0
100
AcDbArc
 50
0.0
 51
90.0
  0
ARC
  5
7C39
330
A
100
AcDbEntity
  8
MODEL
100
AcDbCircle
 10
1764.658310813134
 20
607.5271165099755
 30
0.0
 40
2.0
100
AcDbArc
 50
270.0
 51
0.0
  0
LINE
  5
7C3A
330
A
100
AcDbEntity
  8
MODEL
100
AcDbLine
 10
1641.658310813134
 20
603.5271165099755
 30
0.0
 11
1641.658310813134
 21
1537.527116509977
 31
0.0
  0
LINE
  5
7C3B
330
A
100
AcDbEntity
  8
MODEL
100
AcDbLine
 10
1632.658310813134
 20
595.5271165099755
 30
0.0
 11
1754.658310813134
 21
595.5271165099755
 31
0.0
  0
ARC
  5
7C3C
330
A
100
AcDbEntity
  8
MODEL
100
AcDbCircle
 10
1632.658310813134
 20
601.5271165099755
 30
0.0
 40
6.0
100
AcDbArc
 50
180.0
 51
270.0
  0
ARC
  5
7C3D
330
A
100
AcDbEntity
  8
MODEL
100
AcDbCircle
 10
1649.658310813134
 20
603.5271165099755
 30
0.0
 40
8.0
100
AcDbArc
 50
180.0
 51
270.0
  0
ARC
  5
7C3E
330
A
100
AcDbEntity
  8
MODEL
100
AcDbCircle
 10
1754.658310813134
 20
597.5271165099755
 30
0.0
 40
2.0
100
AcDbArc
 50
270.0
 51
0.0
  0
LINE
  5
7C3F
330
A
100
AcDbEntity
  8
MODEL
100
AcDbLine
 10
1756.658310813134
 20
597.5271165099755
 30
0.0
 11
1756.658310813134
 21
1543.527116509975
 31
0.0
  0
LINE
  5
7C40
330
A
100
AcDbEntity
  8
MODEL
100
AcDbLine
 10
1758.658310813134
 20
605.5271165099773
 30
0.0
 11
1764.658310813134
 21
605.5271165099773
 31
0.0
  0
ARC
  5
7C41
330
A
100
AcDbEntity
  8
MODEL
100
AcDbCircle
 10
1758.658310813134
 20
603.5271165099755
 30
0.0
 40
2.0
100
AcDbArc
 50
90.0
 51
180.0
  0
LINE
  5
7C42
330
A
100
AcDbEntity
  8
MODEL
100
AcDbLine
 10
1758.658310813134
 20
1535.527116509975
 30
0.0
 11
1764.658310813134
 21
1535.527116509975
 31
0.0
  0
ARC
  5
7C43
330
A
100
AcDbEntity
  8
MODEL
100
AcDbCircle
 10
1758.658310813134
 20
1537.527116509977
 30
0.0
 40
2.0
100
AcDbArc
 50
180.0
 51
270.0
  0
LINE
  5
7C44
330
A
100
AcDbEntity
  8
MODEL
100
AcDbLine
 10
1632.658310813134
 20
1545.527116509977
 30
0.0
 11
1754.658310813134
 21
1545.527116509977
 31
0.0
  0
ARC
  5
7C45
330
A
100
AcDbEntity
  8
MODEL
100
AcDbCircle
 10
1632.658310813134
 20
1539.527116509977
 30
0.0
 40
6.0
100
AcDbArc
 50
90.0
 51
180.0
  0
ARC
  5
7C46
330
A
100
AcDbEntity
  8
MODEL
100
AcDbCircle
 10
1649.658310813134
 20
1537.527116509977
 30
0.0
 40
8.0
100
AcDbArc
 50
90.0
 51
180.0
  0
ARC
  5
7C47
330
A
100
AcDbEntity
  8
MODEL
100
AcDbCircle
 10
1754.658310813134
 20
1543.527116509975
 30
0.0
 40
2.0
100
AcDbArc
 50
0.0
 51
90.0
  0
LINE
  5
7C63
330
A
100
AcDbEntity
  8
MODEL
100
AcDbLine
 10
1806.658310813126
 20
1103.527116509977
 30
0.0
 11
1806.658310813126
 21
1037.527116509974
 31
0.0
  0
LINE
  5
7C64
330
A
100
AcDbEntity
  8
MODEL
100
AcDbLine
 10
1770.653872933594
 20
1035.527116509975
 30
0.0
 11
1804.658310813126
 21
1035.527116509974
 31
0.0
  0
ARC
  5
7C65
330
A
100
AcDbEntity
  8
MODEL
100
AcDbCircle
 10
1804.658310813126
 20
1037.527116509974
 30
0.0
 40
2.0
100
AcDbArc
 50
270.0
 51
0.0
  0
LINE
  5
7C66
330
A
100
AcDbEntity
  8
MODEL
100
AcDbLine
 10
1770.653872933594
 20
1105.527116509975
 30
0.0
 11
1804.658310813126
 21
1105.527116509978
 31
0.0
  0
ARC
  5
7C67
330
A
100
AcDbEntity
  8
MODEL
100
AcDbCircle
 10
1804.658310813126
 20
1103.527116509977
 30
0.0
 40
2.0
100
AcDbArc
 50
0.0
 51
90.0
  0
ARC
  5
7C68
330
A
100
AcDbEntity
  8
MODEL
100
AcDbCircle
 10
1770.653872933594
 20
1031.527116509975
 30
0.0
 40
4.0
100
AcDbArc
 50
90.0
 51
180.1695143878922
  0
ARC
  5
7C69
330
A
100
AcDbEntity
  8
MODEL
100
AcDbCircle
 10
1770.653872933594
 20
1109.527116509975
 30
0.0
 40
4.0
100
AcDbArc
 50
179.8304856121078
 51
269.9999999998957
  0
LINE
  5
7F0F
102
{ACAD_REACTORS
330
7F26
102
}
330
A
100
AcDbEntity
  8
HIDDEN
 48
0.5
100
AcDbLine
 10
1780.658310813129
 20
2425.086999546907
 30
0.0
 11
1792.658310813129
 21
2425.086999546905
 31
0.0
  0
LINE
  5
7F10
102
{ACAD_REACTORS
330
7F26
102
}
330
A
100
AcDbEntity
  8
HIDDEN
 48
0.5
100
AcDbLine
 10
1766.658310813133
 20
2379.71577301774
 30
0.0
 11
1766.658310813133
 21
2425.45822607607
 31
0.0
  0
LINE
  5
7F11
102
{ACAD_REACTORS
330
7F26
102
}
330
A
100
AcDbEntity
  8
HIDDEN
 48
0.5
100
AcDbLine
 10
1756.658310813133
 20
2361.583116535717
 30
0.0
 11
1756.658310813133
 21
2443.590882558193
 31
0.0
  0
ARC
  5
7F12
102
{ACAD_REACTORS
330
7F26
102
}
330
A
100
AcDbEntity
  8
HIDDEN
 48
0.5
100
AcDbCircle
 10
1688.047610192802
 20
2233.646174746525
 30
0.0
 40
60.00000000002495
100
AcDbArc
 50
279.4623222079984
 51
352.2388687214284
  0
LINE
  5
7F13
102
{ACAD_REACTORS
330
7F26
102
}
330
A
100
AcDbEntity
  8
HIDDEN
 48
0.5
100
AcDbLine
 10
1697.911549431099
 20
2174.462539316567
 30
0.0
 11
1635.014320940079
 21
2163.979667901397
 31
0.0
  0
ARC
  5
7F14
102
{ACAD_REACTORS
330
7F26
102
}
330
A
100
AcDbEntity
  8
HIDDEN
 48
0.5
100
AcDbCircle
 10
1636.658310813133
 20
2154.115728663075
 30
0.0
 40
10.00000000000034
100
AcDbArc
 50
99.46232220802305
 51
179.9999999999948
  0
LINE
  5
7F15
102
{ACAD_REACTORS
330
7F26
102
}
330
A
100
AcDbEntity
  8
HIDDEN
 48
0.5
100
AcDbLine
 10
1804.658310813133
 20
2380.086999546907
 30
0.0
 11
1767.818955884073
 21
2380.086999546905
 31
0.0
  0
ARC
  5
7F16
102
{ACAD_REACTORS
330
7F26
102
}
330
A
100
AcDbEntity
  8
HIDDEN
 48
0.5
100
AcDbCircle
 10
1767.818955884073
 20
2378.086999546906
 30
0.0
 40
1.99999999999891
100
AcDbArc
 50
90.0
 51
150.2551187030545
  0
LINE
  5
7F17
102
{ACAD_REACTORS
330
7F26
102
}
330
A
100
AcDbEntity
  8
HIDDEN
 48
0.5
100
AcDbLine
 10
1766.082469599825
 20
2379.079277423619
 30
0.0
 11
1757.184901030325
 21
2363.508532426996
 31
0.0
  0
ARC
  5
7F18
102
{ACAD_REACTORS
330
7F26
102
}
330
A
100
AcDbEntity
  8
HIDDEN
 48
0.5
100
AcDbCircle
 10
1760.657873598825
 20
2361.52397667357
 30
0.0
 40
4.000000000000736
100
AcDbArc
 50
150.2551187030966
 51
180.0534709588521
  0
ARC
  5
7F19
102
{ACAD_REACTORS
330
7F26
102
}
330
A
100
AcDbEntity
  8
HIDDEN
 48
0.5
100
AcDbCircle
 10
756.6583108131354
 20
2360.586999546897
 30
0.0
 40
999.9999999999953
100
AcDbArc
 50
352.2388687214117
 51
0.0534709588160519
  0
LINE
  5
7F1A
102
{ACAD_REACTORS
330
7F26
102
}
330
A
100
AcDbEntity
  8
HIDDEN
 48
0.5
100
AcDbLine
 10
1780.658310813129
 20
2425.086999546905
 30
0.0
 11
1767.818955884073
 21
2425.086999546907
 31
0.0
  0
ARC
  5
7F1B
102
{ACAD_REACTORS
330
7F26
102
}
330
A
100
AcDbEntity
  8
HIDDEN
 48
0.5
100
AcDbCircle
 10
1767.818955884074
 20
2427.086999546906
 30
0.0
 40
1.999999999999062
100
AcDbArc
 50
209.7448812969099
 51
269.999999999974
  0
LINE
  5
7F1C
102
{ACAD_REACTORS
330
7F26
102
}
330
A
100
AcDbEntity
  8
HIDDEN
 48
0.5
100
AcDbLine
 10
1766.082469599825
 20
2426.094721670192
 30
0.0
 11
1757.184901030329
 21
2441.665466666814
 31
0.0
  0
ARC
  5
7F1D
102
{ACAD_REACTORS
330
7F26
102
}
330
A
100
AcDbEntity
  8
HIDDEN
 48
0.5
100
AcDbCircle
 10
1760.657873598827
 20
2443.650022420238
 30
0.0
 40
3.999999999998638
100
AcDbArc
 50
179.9465290411348
 51
209.7448812969051
  0
ARC
  5
7F1E
102
{ACAD_REACTORS
330
7F26
102
}
330
A
100
AcDbEntity
  8
HIDDEN
 48
0.5
100
AcDbCircle
 10
756.6583108491141
 20
2444.586999546852
 30
0.0
 40
999.99999996402
100
AcDbArc
 50
359.9465290411856
 51
0.3309795010631016
  0
ARC
  5
7F1F
102
{ACAD_REACTORS
330
7F26
102
}
330
A
100
AcDbEntity
  8
HIDDEN
 48
0.5
100
AcDbCircle
 10
1726.642126381204
 20
2450.190349971144
 30
0.0
 40
30.00000000001624
100
AcDbArc
 50
0.3309795010892802
 51
84.47245984831402
  0
LINE
  5
7F20
102
{ACAD_REACTORS
330
7F26
102
}
330
A
100
AcDbEntity
  8
HIDDEN
 48
0.5
100
AcDbLine
 10
1729.531852227026
 20
2480.050850377818
 30
0.0
 11
1656.04360759257
 21
2487.162615987608
 31
0.0
  0
ARC
  5
7F21
102
{ACAD_REACTORS
330
7F26
102
}
330
A
100
AcDbEntity
  8
HIDDEN
 48
0.5
100
AcDbCircle
 10
1655.658310813131
 20
2483.181215933388
 30
0.0
 40
3.99999999999865
100
AcDbArc
 50
84.47245984836518
 51
180.000000000013
  0
ARC
  5
7F22
102
{ACAD_REACTORS
330
7F26
102
}
330
A
100
AcDbEntity
  8
HIDDEN
 48
0.5
100
AcDbCircle
 10
1641.658310813133
 20
2482.586999546907
 30
0.0
 40
10.0
100
AcDbArc
 50
270.0
 51
0.0
  0
LINE
  5
7F23
102
{ACAD_REACTORS
330
7F26
102
}
330
A
100
AcDbEntity
  8
HIDDEN
 48
0.5
100
AcDbLine
 10
1641.658310813133
 20
2472.586999546907
 30
0.0
 11
1636.658310813133
 21
2472.586999546907
 31
0.0
  0
ARC
  5
7F24
102
{ACAD_REACTORS
330
7F26
102
}
330
A
100
AcDbEntity
  8
HIDDEN
 48
0.5
100
AcDbCircle
 10
1636.658310813133
 20
2482.586999546907
 30
0.0
 40
9.999999999999932
100
AcDbArc
 50
180.0
 51
270.0
  0
LINE
  5
7F25
102
{ACAD_REACTORS
330
7F26
102
}
330
A
100
AcDbEntity
  8
HIDDEN
 48
0.5
100
AcDbLine
 10
1804.658310813133
 20
2425.086999546907
 30
0.0
 11
1792.658310813129
 21
2425.086999546905
 31
0.0
  0
LINE
  5
7F7F
102
{ACAD_REACTORS
330
7F96
102
}
330
A
100
AcDbEntity
  8
HIDDEN
 48
0.5
100
AcDbLine
 10
1766.658310813126
 20
1047.65588998081
 30
0.0
 11
1766.658310813126
 21
1093.398343039142
 31
0.0
  0
LINE
  5
7F80
102
{ACAD_REACTORS
330
7F96
102
}
330
A
100
AcDbEntity
  8
HIDDEN
 48
0.5
100
AcDbLine
 10
1756.658310813126
 20
1029.523233498453
 30
0.0
 11
1756.658310813126
 21
1111.530999521532
 31
0.0
  0
LINE
  5
7F81
102
{ACAD_REACTORS
330
7F96
102
}
330
A
100
AcDbEntity
  8
HIDDEN
 48
0.5
100
AcDbLine
 10
1804.658310813126
 20
1093.027116509975
 30
0.0
 11
1767.81895588407
 21
1093.027116509977
 31
0.0
  0
LINE
  5
7F82
102
{ACAD_REACTORS
330
7F96
102
}
330
A
100
AcDbEntity
  8
HIDDEN
 48
0.5
100
AcDbLine
 10
1766.082469599819
 20
1094.034838633263
 30
0.0
 11
1757.184901030329
 21
1109.60558362987
 31
0.0
  0
ARC
  5
7F83
102
{ACAD_REACTORS
330
7F96
102
}
330
A
100
AcDbEntity
  8
HIDDEN
 48
0.5
100
AcDbCircle
 10
1760.657873598825
 20
1111.590139383301
 30
0.0
 40
4.000000000000467
100
AcDbArc
 50
179.946529041239
 51
209.7448812969972
  0
ARC
  5
7F84
102
{ACAD_REACTORS
330
7F96
102
}
330
A
100
AcDbEntity
  8
HIDDEN
 48
0.5
100
AcDbCircle
 10
756.6583108165405
 20
1112.5271165104
 30
0.0
 40
999.9999999965914
100
AcDbArc
 50
359.946529041159
 51
14.20860077352229
  0
ARC
  5
7F85
102
{ACAD_REACTORS
330
7F96
102
}
330
A
100
AcDbEntity
  8
HIDDEN
 48
0.5
100
AcDbCircle
 10
1667.902315322638
 20
1343.252850327133
 30
0.0
 40
60.00000000000682
100
AcDbArc
 50
14.20860077355028
 51
80.53767779196875
  0
LINE
  5
7F86
102
{ACAD_REACTORS
330
7F96
102
}
330
A
100
AcDbEntity
  8
HIDDEN
 48
0.5
100
AcDbLine
 10
1677.766254560966
 20
1402.436485757068
 30
0.0
 11
1655.898865470182
 21
1406.081050605531
 31
0.0
  0
ARC
  5
7F87
102
{ACAD_REACTORS
330
7F96
102
}
330
A
100
AcDbEntity
  8
HIDDEN
 48
0.5
100
AcDbCircle
 10
1655.24126952096
 20
1402.135474910203
 30
0.0
 40
3.999999999999703
100
AcDbArc
 50
80.53767779196528
 51
165.980027383044
  0
ARC
  5
7F88
102
{ACAD_REACTORS
330
7F96
102
}
330
A
100
AcDbEntity
  8
HIDDEN
 48
0.5
100
AcDbCircle
 10
1641.658310813126
 20
1405.527116509975
 30
0.0
 40
10.00000000000113
100
AcDbArc
 50
270.0
 51
345.9800273830413
  0
LINE
  5
7F89
102
{ACAD_REACTORS
330
7F96
102
}
330
A
100
AcDbEntity
  8
HIDDEN
 48
0.5
100
AcDbLine
 10
1641.658310813126
 20
1395.527116509974
 30
0.0
 11
1636.658310813126
 21
1395.527116509974
 31
0.0
  0
ARC
  5
7F8A
102
{ACAD_REACTORS
330
7F96
102
}
330
A
100
AcDbEntity
  8
HIDDEN
 48
0.5
100
AcDbCircle
 10
1636.658310813127
 20
1405.527116509975
 30
0.0
 40
10.00000000000097
100
AcDbArc
 50
179.9999999999948
 51
269.9999999999948
  0
LINE
  5
7F8B
102
{ACAD_REACTORS
330
7F96
102
}
330
A
100
AcDbEntity
  8
HIDDEN
 48
0.5
100
AcDbLine
 10
1804.658310813126
 20
1048.027116509975
 30
0.0
 11
1767.81895588407
 21
1048.027116509974
 31
0.0
  0
ARC
  5
7F8C
102
{ACAD_REACTORS
330
7F96
102
}
330
A
100
AcDbEntity
  8
HIDDEN
 48
0.5
100
AcDbCircle
 10
1767.818955884069
 20
1046.027116509972
 30
0.0
 40
2.000000000001994
100
AcDbArc
 50
89.99999999994789
 51
150.2551187030101
  0
LINE
  5
7F8D
102
{ACAD_REACTORS
330
7F96
102
}
330
A
100
AcDbEntity
  8
HIDDEN
 48
0.5
100
AcDbLine
 10
1766.082469599819
 20
1047.019394386688
 30
0.0
 11
1757.184901030329
 21
1031.448649390081
 31
0.0
  0
ARC
  5
7F8E
102
{ACAD_REACTORS
330
7F96
102
}
330
A
100
AcDbEntity
  8
HIDDEN
 48
0.5
100
AcDbCircle
 10
1760.657873598825
 20
1029.46409363665
 30
0.0
 40
4.000000000000467
100
AcDbArc
 50
150.255118703
 51
180.053470958761
  0
ARC
  5
7F8F
102
{ACAD_REACTORS
330
7F96
102
}
330
A
100
AcDbEntity
  8
HIDDEN
 48
0.5
100
AcDbCircle
 10
756.6583108165405
 20
1028.527116509551
 30
0.0
 40
999.9999999965914
100
AcDbArc
 50
345.7913992264778
 51
0.0534709588410123
  0
ARC
  5
7F90
102
{ACAD_REACTORS
330
7F96
102
}
330
A
100
AcDbEntity
  8
HIDDEN
 48
0.5
100
AcDbCircle
 10
1667.902315322638
 20
797.8013826928179
 30
0.0
 40
60.00000000000682
100
AcDbArc
 50
279.4623222080313
 51
345.7913992264498
  0
LINE
  5
7F91
102
{ACAD_REACTORS
330
7F96
102
}
330
A
100
AcDbEntity
  8
HIDDEN
 48
0.5
100
AcDbLine
 10
1677.766254560966
 20
738.6177472628831
 30
0.0
 11
1655.898865470182
 21
734.9731824144199
 31
0.0
  0
ARC
  5
7F92
102
{ACAD_REACTORS
330
7F96
102
}
330
A
100
AcDbEntity
  8
HIDDEN
 48
0.5
100
AcDbCircle
 10
1655.24126952096
 20
738.9187581097483
 30
0.0
 40
3.999999999999703
100
AcDbArc
 50
194.019972616956
 51
279.4623222080347
  0
ARC
  5
7F93
102
{ACAD_REACTORS
330
7F96
102
}
330
A
100
AcDbEntity
  8
HIDDEN
 48
0.5
100
AcDbCircle
 10
1641.658310813126
 20
735.5271165099764
 30
0.0
 40
10.00000000000113
100
AcDbArc
 50
14.0199726169603
 51
90.0
  0
LINE
  5
7F94
102
{ACAD_REACTORS
330
7F96
102
}
330
A
100
AcDbEntity
  8
HIDDEN
 48
0.5
100
AcDbLine
 10
1641.658310813126
 20
745.5271165099773
 30
0.0
 11
1636.658310813126
 21
745.5271165099773
 31
0.0
  0
ARC
  5
7F95
102
{ACAD_REACTORS
330
7F96
102
}
330
A
100
AcDbEntity
  8
HIDDEN
 48
0.5
100
AcDbCircle
 10
1636.658310813127
 20
735.5271165099764
 30
0.0
 40
10.00000000000097
100
AcDbArc
 50
90.00000000000522
 51
180.0000000000052
  0
LWPOLYLINE
  5
7F97
330
A
100
AcDbEntity
  8
HIDDEN
 48
0.5
100
AcDbPolyline
 90
        4
 70
     1
 43
0.0
 10
1662.658310813126
 20
1052.027116509975
 42
0.9999999999999998
 10
1670.658310813126
 20
1052.027116509975
 10
1670.658310813126
 20
1089.027116509975
 42
0.9999999999999998
 10
1662.658310813126
 20
1089.027116509975
  0
LWPOLYLINE
  5
7F99
102
{ACAD_REACTORS
330
7F9D
330
8106
330
8115
102
}
330
A
100
AcDbEntity
  8
HIDDEN
 48
0.5
100
AcDbPolyline
 90
        4
 70
     1
 43
0.0
 10
1696.658310813134
 20
925.5271165099764
 42
-0.9999999999999998
 10
1676.658310813134
 20
925.5271165099764
 10
1676.658310813134
 20
935.5271165099764
 42
-0.9999999999999998
 10
1696.658310813134
 20
935.5271165099764
  0
LWPOLYLINE
  5
7F9A
102
{ACAD_REACTORS
330
7F9D
330
8115
102
}
330
A
100
AcDbEntity
  8
HIDDEN
 48
0.5
100
AcDbPolyline
 90
        4
 70
     1
 43
0.0
 10
1696.658310813134
 20
1205.527116509976
 42
-0.9999999999999998
 10
1676.658310813134
 20
1205.527116509976
 10
1676.658310813134
 20
1215.527116509976
 42
-0.9999999999999998
 10
1696.658310813134
 20
1215.527116509976
  0
LWPOLYLINE
  5
7F9B
102
{ACAD_REACTORS
330
7F9D
330
8106
102
}
330
A
100
AcDbEntity
  8
HIDDEN
 48
0.5
100
AcDbPolyline
 90
        4
 70
     1
 43
0.0
 10
1696.658310813134
 20
795.5271165099764
 42
-0.9999999999999998
 10
1676.658310813134
 20
795.5271165099764
 10
1676.658310813134
 20
805.5271165099764
 42
-0.9999999999999998
 10
1696.658310813134
 20
805.5271165099764
  0
LWPOLYLINE
  5
7F9C
102
{ACAD_REACTORS
330
7F9D
102
}
330
A
100
AcDbEntity
  8
HIDDEN
 48
0.5
100
AcDbPolyline
 90
        4
 70
     1
 43
0.0
 10
1696.658310813134
 20
1335.527116509976
 42
-0.9999999999999998
 10
1676.658310813134
 20
1335.527116509976
 10
1676.658310813134
 20
1345.527116509976
 42
-0.9999999999999998
 10
1696.658310813134
 20
1345.527116509976
  0
DIMENSION
  5
7FA5
330
A
100
AcDbEntity
  8
Dim
100
AcDbDimension
  2
*D75
 10
215.2968748772923
 20
1545.527116509977
 30
0.0
 11
193.0805662835423
 21
1070.527116509977
 31
0.0
 70
    32
 71
     5
 42
950.0
 73
     0
 74
     0
 75
     0
 52
-90.0
  3
tform線あり
100
AcDbAlignedDimension
 13
338.3074952687175
 23
595.5271165099773
 33
0.0
 14
338.307495268718
 24
1545.527116509977
 34
0.0
 50
90.0
100
AcDbRotatedDimension
  0
DIMENSION
  5
7FB2
330
A
100
AcDbEntity
  8
Dim
100
AcDbDimension
  2
*D76
 10
981.9530425301846
 20
595.5271165099775
 30
0.0
 11
959.7367339364346
 21
670.5271165099775
 31
0.0
 70
    32
 71
     5
 42
150.0000000000001
 73
     0
 74
     0
 75
     0
  3
tform線あり
100
AcDbAlignedDimension
 13
852.611015268717
 23
745.5271165099778
 33
0.0
 14
808.095495268718
 24
595.5271165099778
 34
0.0
 50
-90.00000000000006
100
AcDbRotatedDimension
  0
DIMENSION
  5
7FBF
330
A
100
AcDbEntity
  8
Dim
100
AcDbDimension
  2
*D77
 10
1574.528567689735
 20
2557.586999546906
 30
0.0
 11
1552.312259095985
 21
2587.586999546906
 31
0.0
 70
    32
 71
     5
 42
60.0
 73
     0
 74
     0
 75
     0
  3
tform線あり
100
AcDbAlignedDimension
 13
1636.235973444103
 23
2617.586999546906
 33
0.0
 14
1636.235973444103
 24
2557.586999546906
 34
0.0
 50
90.0
100
AcDbRotatedDimension
1001
ACAD
1000
DSTYLE
1002
{
1070
   144
1040
1.0
1002
}
  0
DIMENSION
  5
7FCE
330
A
100
AcDbEntity
  8
Dim
100
AcDbDimension
  2
*D78
 10
1626.658310813134
 20
530.2507792351114
 30
0.0
 11
1656.658310813134
 21
552.4670878288614
 31
0.0
 70
    32
 71
     5
 42
59.99999999999998
 73
     0
 74
     0
 75
     0
 52
-270.0
  3
tform線あり
100
AcDbAlignedDimension
 13
1686.658310813134
 23
795.5271165099763
 33
0.0
 14
1626.658310813134
 24
597.817996776231
 34
0.0
 50
180.0
100
AcDbRotatedDimension
1001
ACAD
1000
DSTYLE
1002
{
1070
   144
1040
1.0
1002
}
  0
LINE
  5
7FDD
330
A
100
AcDbEntity
  8
Dim
100
AcDbLine
 10
1676.658310813134
 20
1340.527116509976
 30
0.0
 11
1470.647632933838
 21
1421.298131964711
 31
0.0
  0
LINE
  5
7FDE
330
A
100
AcDbEntity
  8
Dim
100
AcDbLine
 10
1470.647632933838
 20
1421.298131964711
 30
0.0
 11
1470.647632933838
 21
1770.036957564711
 31
0.0
  0
MTEXT
  5
8012
330
A
100
AcDbEntity
  8
Dim
390
1D
100
AcDbMText
 10
1426.016956057276
 20
1432.819831164711
 30
0.0
 40
24.4326171875
 41
0.0
 46
27.2912333984375
 71
     1
 72
     1
  1
{壁取付ボルト穴(4ヶ所)}
  7
ＭＳ ゴシック
 11
6.123233995736766E-17
 21
1.0
 31
0.0
 73
     1
 44
0.7828267384257843
1001
ACAD
1000
ACAD_MTEXT_DEFINED_HEIGHT_BEGIN
1070
    46
1040
27.2912333984375
1000
ACAD_MTEXT_DEFINED_HEIGHT_END
  0
DIMENSION
  5
8013
102
{ACAD_REACTORS
330
8015
102
}
102
{ACAD_XDICTIONARY
360
8014
102
}
330
A
100
AcDbEntity
  8
Dim
100
AcDbDimension
  2
*D79
 10
1899.258875819576
 20
2617.586999546907
 30
0.0
 11
1877.042567225826
 21
2510.086999546906
 31
0.0
 70
    32
 71
     5
 42
215.0000000000009
 73
     0
 74
     0
 75
     0
  3
tform線あり
100
AcDbAlignedDimension
 13
1806.658310813133
 23
2402.586999546906
 33
0.0
 14
1732.956819371576
 24
2617.586999546907
 34
0.0
 50
90.0
100
AcDbRotatedDimension
1001
ACAD
1000
DSTYLE
1002
{
1070
   144
1040
1.0
1002
}
  0
DIMENSION
  5
8025
330
A
100
AcDbEntity
  8
Dim
100
AcDbDimension
  2
*D80
 10
1626.658310813133
 20
2400.492595259089
 30
0.0
 11
1510.832720683639
 21
2400.492595259089
 31
0.0
 70
   160
  1
130(深さ)
 71
     5
 42
130.0
 73
     0
 74
     1
 75
     1
 52
-270.0
  3
tform線あり
100
AcDbAlignedDimension
 13
1756.658310813133
 23
2418.24393836309
 33
0.0
 14
1626.658310813133
 24
2418.24393836309
 34
0.0
 50
180.0
100
AcDbRotatedDimension
  0
LINE
  5
8027
330
A
100
AcDbEntity
  8
HIDDEN
 48
0.25
100
AcDbLine
 10
1626.658310813133
 20
2540.086999546906
 30
0.0
 11
1646.88482584506
 21
2540.086999546904
 31
0.0
  0
LINE
  5
8028
330
A
100
AcDbEntity
  8
HIDDEN
 48
0.25
100
AcDbLine
 10
1626.658310813131
 20
2575.086999546907
 30
0.0
 11
1646.884825845057
 21
2575.086999546911
 31
0.0
  0
MTEXT
  5
803A
330
A
100
AcDbEntity
  8
Dim
390
1D
100
AcDbMText
 10
1091.781156998826
 20
701.8331982231628
 30
34.99521132346015
 40
24.4326171875
 41
833.929798641839
 46
0.0
 71
     1
 72
     1
  1
＝φ30もしくはφ35の水栓取付用穴あけ加工を承ります。\P  必要な場合、ご注文の際にご指示ください。
  7
ＭＳ ゴシック
 11
6.123233995736766E-17
 21
1.0
 31
0.0
 73
     1
 44
0.9822934569727008
  0
CIRCLE
  5
803B
330
A
100
AcDbEntity
  8
HIDDEN
 48
0.58
390
1D
100
AcDbCircle
 10
1106.369981455109
 20
670.4661685250746
 30
34.99521132346015
 40
17.5
  0
MTEXT
  5
803C
330
A
100
AcDbEntity
  8
Dim
390
1D
100
AcDbMText
 10
1092.46688264587
 20
1990.936911012713
 30
34.99521132346015
 40
24.0
 41
1169.771715461011
 46
0.0
 71
     1
 72
     1
  1
※陶器製品には寸法公差があります。\P  洗面器の収め方をご確認の上、必ず現物を合わせて\P  カウンターに切込を行ってください。
  7
ＭＳ ゴシック
 11
6.123233995736766E-17
 21
1.0
 31
0.0
 73
     1
 44
1.174240107638677
  0
LWPOLYLINE
  5
8045
330
A
100
AcDbEntity
  8
HIDDEN
100
AcDbPolyline
 90
        8
 70
     1
 43
0.0
 10
853.0954952687171
 20
2684.216116509978
 42
0.4142135623730951
 10
763.0954952687171
 20
2774.216116509978
 10
355.0954952687171
 20
2774.216116509978
 42
0.4142135623730951
 10
353.0954952687161
 20
2772.216116509978
 10
353.0954952687161
 20
1826.216116509978
 42
0.4142135623730951
 10
355.0954952687171
 20
1824.216116509978
 10
763.0954952687171
 20
1824.216116509978
 42
0.4142135623730951
 10
853.0954952687171
 20
1914.216116509978
  0
LWPOLYLINE
  5
8046
330
A
100
AcDbEntity
  8
HIDDEN
100
AcDbPolyline
 90
        8
 70
     1
 43
0.0
 10
808.0954952687171
 20
2004.216116509978
 10
808.0954952687171
 20
2594.216116509978
 42
0.4142135623730951
 10
778.0954952687171
 20
2624.216116509978
 10
528.0954952687171
 20
2624.216116509978
 42
0.4142135623730951
 10
498.0954952687171
 20
2594.216116509978
 10
498.0954952687171
 20
2004.216116509978
 42
0.4142135623730951
 10
528.0954952687171
 20
1974.216116509978
 10
778.0954952687171
 20
1974.216116509978
 42
0.4142135623730951
  0
CIRCLE
  5
8047
330
A
100
AcDbEntity
  8
HIDDEN
100
AcDbCircle
 10
568.0954952687171
 20
2299.216116509978
 30
0.0
 40
22.5
  0
CIRCLE
  5
8049
330
A
100
AcDbEntity
  8
HIDDEN
 48
0.5
100
AcDbCircle
 10
413.0954952687171
 20
2399.216116509978
 30
0.0
 40
18.5
  0
CIRCLE
  5
804A
330
A
100
AcDbEntity
  8
HIDDEN
 48
0.5
100
AcDbCircle
 10
413.0954952687171
 20
2299.216116509978
 30
0.0
 40
18.5
  0
CIRCLE
  5
804B
330
A
100
AcDbEntity
  8
HIDDEN
 48
0.5
100
AcDbCircle
 10
413.0954952687171
 20
2199.216116509978
 30
0.0
 40
18.5
  0
LINE
  5
80C7
102
{ACAD_REACTORS
330
80CB
330
80EE
102
}
330
A
100
AcDbEntity
  8
MODEL
100
AcDbLine
 10
383.0954952687161
 20
2099.216116509978
 30
0.0
 11
383.0954952687161
 21
2499.216116509978
 31
0.0
  0
LINE
  5
80C8
102
{ACAD_REACTORS
330
80CB
330
80D0
330
80EE
102
}
330
A
100
AcDbEntity
  8
MODEL
100
AcDbLine
 10
383.0954952687161
 20
2499.216116509978
 30
0.0
 11
703.0954952687161
 21
2499.216116509977
 31
0.0
  0
LINE
  5
80C9
102
{ACAD_REACTORS
330
80CB
330
80D0
330
80DF
330
80EE
102
}
330
A
100
AcDbEntity
  8
MODEL
100
AcDbLine
 10
703.0954952687161
 20
2499.216116509977
 30
0.0
 11
703.0954952687161
 21
2099.216116509977
 31
0.0
  0
LINE
  5
80CA
102
{ACAD_REACTORS
330
80CB
330
80DF
330
80EE
102
}
330
A
100
AcDbEntity
  8
MODEL
100
AcDbLine
 10
703.0954952687161
 20
2099.216116509977
 30
0.0
 11
383.0954952687161
 21
2099.216116509976
 31
0.0
  0
DIMENSION
  5
80CE
102
{ACAD_REACTORS
330
80D0
102
}
102
{ACAD_XDICTIONARY
360
80CF
102
}
330
A
100
AcDbEntity
  8
Dim
100
AcDbDimension
  2
*D91
 10
703.0954952687161
 20
2603.884385278809
 30
0.0
 11
543.0954952687161
 21
2626.100693872559
 31
0.0
 70
    32
 71
     5
 42
320.0
 73
     0
 74
     0
 75
     0
 52
-270.0
  3
tform線あり
100
AcDbAlignedDimension
 13
383.0954952687161
 23
2499.216116509978
 33
0.0
 14
703.0954952687161
 24
2499.216116509977
 34
0.0
 50
180.0
100
AcDbRotatedDimension
1001
ACAD
1000
DSTYLE
1002
{
1070
   144
1040
1.0
1002
}
  0
DIMENSION
  5
80DD
102
{ACAD_REACTORS
330
80DF
102
}
102
{ACAD_XDICTIONARY
360
80DE
102
}
330
A
100
AcDbEntity
  8
Dim
100
AcDbDimension
  2
*D92
 10
779.9232784711012
 20
2099.216116509977
 30
0.0
 11
757.7069698773512
 21
2299.216116509977
 31
0.0
 70
    32
 71
     5
 42
400.0
 73
     0
 74
     0
 75
     0
  3
tform線あり
100
AcDbAlignedDimension
 13
703.0954952687161
 23
2499.216116509977
 33
0.0
 14
703.0954952687161
 24
2099.216116509977
 34
0.0
 50
90.0
100
AcDbRotatedDimension
1001
ACAD
1000
DSTYLE
1002
{
1070
   144
1040
1.0
1002
}
  0
HATCH
  5
80EE
330
A
100
AcDbEntity
  8
Dim
100
AcDbHatch
 10
0.0
 20
0.0
 30
0.0
210
0.0
220
0.0
230
1.0
  2
ANSI31
 70
     0
 71
     1
 91
        1
 92
        1
 93
        4
 72
     1
 10
383.0954952687161
 20
2099.216116509978
 11
383.0954952687161
 21
2499.216116509978
 72
     1
 10
383.0954952687161
 20
2499.216116509978
 11
703.0954952687161
 21
2499.216116509977
 72
     1
 10
703.0954952687161
 20
2499.216116509977
 11
703.0954952687161
 21
2099.216116509977
 72
     1
 10
703.0954952687161
 20
2099.216116509977
 11
383.0954952687161
 21
2099.216116509976
 97
        4
330
80C7
330
80C8
330
80C9
330
80CA
 75
     0
 76
     1
 52
90.0
 41
6.0
 77
     0
 78
     1
 53
135.0
 43
2723.985992813132
 44
-2368.91925761867
 45
-13.47038418160373
 46
-13.47038418160373
 79
     0
 98
        1
 10
2723.985992813132
 20
-2368.91925761867
1001
ACAD
1010
0.0
1020
0.0
1030
0.0
  0
DIMENSION
  5
80EF
330
A
100
AcDbEntity
  8
Dim
100
AcDbDimension
  2
*D93
 10
353.0954952687161
 20
2603.884385278809
 30
0.0
 11
308.5226598194972
 21
2603.884385278809
 31
0.0
 70
   160
 71
     5
 42
30.00000000000001
 73
     0
 74
     1
 75
     1
 52
-270.0
  3
tform線あり
100
AcDbAlignedDimension
 13
383.0954952687161
 23
2524.216116509978
 33
0.0
 14
353.0954952687161
 24
2603.884385278809
 34
0.0
 50
180.0
100
AcDbRotatedDimension
1001
ACAD
1000
DSTYLE
1002
{
1070
   144
1040
1.0
1002
}
  0
DIMENSION
  5
8104
102
{ACAD_REACTORS
330
8106
102
}
102
{ACAD_XDICTIONARY
360
8105
102
}
330
A
100
AcDbEntity
  8
Dim
100
AcDbDimension
  2
*D94
 10
1577.419019603902
 20
930.5271165099764
 30
0.0
 11
1555.202711010152
 21
865.5271165099764
 31
0.0
 70
    32
 71
     5
 42
130.0
 73
     0
 74
     0
 75
     0
  3
tform線あり
100
AcDbAlignedDimension
 13
1676.658310813134
 23
800.5271165099764
 33
0.0
 14
1676.658310813134
 24
930.5271165099764
 34
0.0
 50
90.0
100
AcDbRotatedDimension
1001
ACAD
1000
DSTYLE
1002
{
1070
   144
1040
1.0
1002
}
  0
DIMENSION
  5
8113
102
{ACAD_REACTORS
330
8115
102
}
102
{ACAD_XDICTIONARY
360
8114
102
}
330
A
100
AcDbEntity
  8
Dim
100
AcDbDimension
  2
*D95
 10
1577.419019603902
 20
1210.527116509976
 30
0.0
 11
1555.202711010152
 21
1070.527116509976
 31
0.0
 70
    32
 71
     5
 42
279.9999999999995
 73
     0
 74
     0
 75
     0
  3
tform線あり
100
AcDbAlignedDimension
 13
1676.658310813134
 23
930.5271165099764
 33
0.0
 14
1676.658310813134
 24
1210.527116509976
 34
0.0
 50
90.0
100
AcDbRotatedDimension
1001
ACAD
1000
DSTYLE
1002
{
1070
   144
1040
1.0
1002
}
  0
DIMENSION
  5
8122
102
{ACAD_XDICTIONARY
360
8123
102
}
330
A
100
AcDbEntity
  8
Dim
100
AcDbDimension
  2
*D96
 10
1577.419019603902
 20
1210.527116509976
 30
0.0
 11
1555.202711010152
 21
1275.527116509976
 31
0.0
 70
    32
 71
     5
 42
130.0
 73
     0
 74
     0
 75
     0
 52
-89.99999999999997
  3
tform線あり
100
AcDbAlignedDimension
 13
1676.658310813134
 23
1340.527116509976
 33
0.0
 14
1676.658310813134
 24
1210.527116509976
 34
0.0
 50
-90.00000000000001
100
AcDbRotatedDimension
1001
ACAD
1000
DSTYLE
1002
{
1070
   144
1040
1.0
1002
}
  0
MTEXT
  5
8134
330
A
100
AcDbEntity
  8
Dim
390
1D
100
AcDbMText
 10
174.4484782158997
 20
2157.782542677232
 30
0.0
 40
24.0
 41
1169.771715461011
 46
26.928
 71
     1
 72
     1
  1
{カウンター切込寸法 }
  7
ＭＳ ゴシック
 11
6.123233995736766E-17
 21
1.0
 31
0.0
 73
     1
 44
1.174240107638677
1001
ACAD
1000
ACAD_MTEXT_DEFINED_HEIGHT_BEGIN
1070
    46
1040
26.928
1000
ACAD_MTEXT_DEFINED_HEIGHT_END
  0
VIEWPORT
  5
349
330
B
100
AcDbEntity
 67
     1
  8
0
100
AcDbViewport
 10
202.5
 20
128.5
 30
0.0
 40
486.0
 41
308.4
 68
     1
 69
     1
 12
202.5
 22
128.5
 13
0.0
 23
0.0
 14
0.5
 24
0.5
 15
0.0
 25
0.0
 16
0.0
 26
0.0
 36
1.0
 17
0.0
 27
0.0
 37
0.0
 42
50.0
 43
0.0
 44
0.0
 45
308.4
 50
0.0
 51
0.0
 72
   100
 90
   557152
  1

281
     0
 71
     1
 74
     0
110
0.0
120
0.0
130
0.0
111
1.0
121
0.0
131
0.0
112
0.0
122
1.0
132
0.0
 79
     0
146
0.0
170
     0
 61
     5
348
26C
292
     1
282
     1
141
0.0
142
0.0
 63
   256
  0
VIEWPORT
  5
34A
330
B
100
AcDbEntity
 67
     1
  8
0
100
AcDbViewport
 10
202.5
 20
128.5
 30
0.0
 40
324.0
 41
205.6
 68
     2
 69
     2
 12
986.6781359294573
 22
1427.077061889956
 13
0.0
 23
0.0
 14
0.5
 24
0.5
 15
0.0
 25
0.0
 16
0.0
 26
0.0
 36
1.0
 17
0.0
 27
0.0
 37
0.0
 42
50.0
 43
0.0
 44
0.0
 45
2890.021615685494
 50
0.0
 51
0.0
 72
   100
 90
   557152
  1

281
     0
 71
     1
 74
     0
110
0.0
120
0.0
130
0.0
111
1.0
121
0.0
131
0.0
112
0.0
122
1.0
132
0.0
 79
     0
146
0.0
170
     0
 61
     5
348
26C
292
     1
282
     1
141
0.0
142
0.0
 63
   256
  0
ENDSEC
  0
SECTION
  2
OBJECTS
  0
DICTIONARY
  5
19
330
0
100
AcDbDictionary
281
     1
  3
ACAD_COLOR
350
38F
  3
ACAD_DETAILVIEWSTYLE
350
8CF
  3
ACAD_FIELDLIST
350
BA6
  3
ACAD_GROUP
350
1A
  3
ACAD_IMAGE_VARS
350
27B
  3
ACAD_LAYOUT
350
1E
  3
ACAD_MATERIAL
350
263
  3
ACAD_MLEADERSTYLE
350
336
  3
ACAD_MLINESTYLE
350
1B
  3
ACAD_PLOTSETTINGS
350
22
  3
ACAD_PLOTSTYLENAME
350
1F
  3
ACAD_SCALELIST
350
241
  3
ACAD_SECTIONVIEWSTYLE
350
8D0
  3
ACAD_TABLESTYLE
350
278
  3
ACAD_VISUALSTYLE
350
267
  3
ACDB_RECOMPOSE_DATA
350
814F
  3
AcDbVariableDictionary
350
330
  3
APPDATA
350
27A
  3
DimOffsetDictionary
350
C08
  0
SUN
  5
8C2
330
15
100
AcDbSun
 90
        1
290
     0
 63
     7
421
 16777215
 40
1.0
291
     1
 91
  2455826
 92
 54000000
292
     0
 70
     2
 71
   256
280
     1
  0
DICTIONARY
  5
2E1
330
2
100
AcDbDictionary
280
     1
281
     1
  3
ACAD_LAYERSTATES
360
2E2
  3
ACLYDICTIONARY
360
BFE
  0
DICTIONARY
  5
78AE
330
78AD
100
AcDbDictionary
280
     1
281
     1
  3
ADSK_XREC_LAYER_RECONCILED
360
78AF
  0
DICTIONARY
  5
78B5
330
78B4
100
AcDbDictionary
280
     1
281
     1
  3
ADSK_XREC_LAYER_RECONCILED
360
78B6
  0
DICTIONARY
  5
78C1
330
78C0
100
AcDbDictionary
280
     1
281
     1
  3
ADSK_XREC_LAYER_RECONCILED
360
78C2
  0
DICTIONARY
  5
6587
330
A
100
AcDbDictionary
280
     1
281
     1
  3
ACAD_SORTENTS
360
6588
  0
DICTIONARY
  5
BDC
330
BDB
100
AcDbDictionary
280
     1
281
     1
  3
ACAD_FIELD
360
8146
  0
DICTIONARY
  5
8014
330
8013
100
AcDbDictionary
280
     1
281
     1
  3
ACAD_DIMASSOC
360
8015
  0
DICTIONARY
  5
80CF
330
80CE
100
AcDbDictionary
280
     1
281
     1
  3
ACAD_DIMASSOC
360
80D0
  0
DICTIONARY
  5
80DE
330
80DD
100
AcDbDictionary
280
     1
281
     1
  3
ACAD_DIMASSOC
360
80DF
  0
DICTIONARY
  5
8105
330
8104
100
AcDbDictionary
280
     1
281
     1
  3
ACAD_DIMASSOC
360
8106
  0
DICTIONARY
  5
8114
330
8113
100
AcDbDictionary
280
     1
281
     1
  3
ACAD_DIMASSOC
360
8115
  0
DICTIONARY
  5
8123
330
8122
100
AcDbDictionary
280
     1
281
     1
  3
ACAD_DIMASSOC
360
8124
  0
DICTIONARY
  5
38F
102
{ACAD_REACTORS
330
19
102
}
330
19
100
AcDbDictionary
281
     1
  0
DICTIONARY
  5
8CF
102
{ACAD_REACTORS
330
19
102
}
330
19
100
AcDbDictionary
281
     1
  0
FIELDLIST
  5
BA6
102
{ACAD_REACTORS
330
19
102
}
330
19
100
AcDbIdSet
 90
        2
330
BDF
330
BDE
100
AcDbFieldList
  0
DICTIONARY
  5
1A
102
{ACAD_REACTORS
330
19
102
}
330
19
100
AcDbDictionary
281
     1
  3
*A11
350
7F96
  3
*A13
350
7F9D
  3
*A14
350
80CB
  3
*A9
350
7F26
  0
RASTERVARIABLES
  5
27B
102
{ACAD_REACTORS
330
19
102
}
330
19
100
AcDbRasterVariables
 90
        0
 70
     1
 71
     1
 72
     1
  0
DICTIONARY
  5
1E
102
{ACAD_REACTORS
330
19
102
}
330
19
100
AcDbDictionary
281
     1
  3
Layout1
350
21
  3
Model
350
20
  0
DICTIONARY
  5
263
102
{ACAD_REACTORS
330
19
102
}
330
19
100
AcDbDictionary
281
     1
  3
ByBlock
350
3F68
  3
ByLayer
350
264
  3
Global
350
266
  0
DICTIONARY
  5
336
102
{ACAD_REACTORS
330
19
102
}
330
19
100
AcDbDictionary
281
     1
  3
Standard
350
8D1
  0
DICTIONARY
  5
1B
102
{ACAD_REACTORS
330
19
102
}
330
19
100
AcDbDictionary
281
     1
  3
Standard
350
1C
  0
DICTIONARY
  5
22
102
{ACAD_REACTORS
330
19
102
}
330
19
100
AcDbDictionary
281
     1
  0
ACDBDICTIONARYWDFLT
  5
1F
102
{ACAD_REACTORS
330
19
102
}
330
19
100
AcDbDictionary
281
     1
  3
Normal
350
1D
100
AcDbDictionaryWithDefault
340
1D
  0
DICTIONARY
  5
241
102
{ACAD_REACTORS
330
19
102
}
330
19
100
AcDbDictionary
281
     1
  3
A0
350
242
  3
A1
350
243
  3
A2
350
244
  3
A3
350
245
  3
A4
350
246
  3
A5
350
247
  3
A6
350
248
  3
A7
350
249
  3
A8
350
24A
  3
A9
350
24B
  3
B0
350
24C
  3
B1
350
24D
  3
B2
350
24E
  3
B3
350
24F
  3
B4
350
250
  3
B5
350
251
  3
B6
350
252
  3
B7
350
253
  3
B8
350
254
  3
B9
350
255
  3
C0
350
256
  3
C1
350
257
  3
C2
350
258
  3
C3
350
259
  3
C4
350
25A
  3
C5
350
25B
  3
C6
350
25C
  3
C7
350
25D
  3
C8
350
25E
  3
C9
350
25F
  3
D0
350
260
  3
D1
350
261
  3
D2
350
262
  0
DICTIONARY
  5
8D0
102
{ACAD_REACTORS
330
19
102
}
330
19
100
AcDbDictionary
281
     1
  0
DICTIONARY
  5
278
102
{ACAD_REACTORS
330
19
102
}
330
19
100
AcDbDictionary
281
     1
  3
Standard
350
279
  0
DICTIONARY
  5
267
102
{ACAD_REACTORS
330
19
102
}
330
19
100
AcDbDictionary
281
     1
  3
2dWireframe
350
26C
  3
3D Hidden
350
26E
  3
3dWireframe
350
26D
  3
Basic
350
26F
  3
Brighten
350
273
  3
ColorChange
350
277
  3
Conceptual
350
271
  3
Dim
350
272
  3
EdgeColorOff
350
8BC
  3
Facepattern
350
276
  3
Flat
350
268
  3
FlatWithEdges
350
269
  3
Gouraud
350
26A
  3
GouraudWithEdges
350
26B
  3
Hidden
350
8B9
  3
JitterOff
350
8BA
  3
Linepattern
350
275
  3
OverhangOff
350
8BB
  3
Realistic
350
270
  3
Shaded
350
8C1
  3
Shaded with edges
350
8C0
  3
Shades of Gray
350
8BD
  3
Sketchy
350
8BE
  3
Thicken
350
274
  3
Wireframe
350
8B8
  3
X-Ray
350
8BF
  0
XRECORD
  5
814F
102
{ACAD_REACTORS
330
19
102
}
330
19
100
AcDbXrecord
280
     1
 90
        1
330
279
  0
DICTIONARY
  5
330
102
{ACAD_REACTORS
330
19
102
}
330
19
100
AcDbDictionary
281
     1
  3
CANNOSCALE
350
331
  3
CMLEADERSTYLE
350
8DA
  3
CTABLESTYLE
350
335
  3
HPTRANSPARENCY
350
C07
  3
XCLIPFRAME
350
64A
  0
DICTIONARY
  5
27A
102
{ACAD_REACTORS
330
19
102
}
330
19
100
AcDbDictionary
281
     1
  0
DICTIONARY
  5
C08
102
{ACAD_REACTORS
330
19
102
}
330
19
100
AcDbDictionary
281
     1
  3
DIMRAILANGLE
350
4918
  3
DIMRAILFIRSTOFFSET
350
4916
  3
DIMRAILOFFSET
350
4917
  3
DIMRAILSENABLED
350
4919
  0
DICTIONARY
  5
2E2
102
{ACAD_REACTORS
330
2E1
102
}
330
2E1
100
AcDbDictionary
281
     1
  0
DICTIONARY
  5
BFE
102
{ACAD_REACTORS
330
2E1
102
}
330
2E1
100
AcDbDictionary
281
     1
1001
ACAD
1000
<All
  0
XRECORD
  5
78AF
102
{ACAD_REACTORS
330
78AE
102
}
330
78AE
100
AcDbXrecord
280
     1
290
     1
  0
XRECORD
  5
78B6
102
{ACAD_REACTORS
330
78B5
102
}
330
78B5
100
AcDbXrecord
280
     1
290
     1
  0
XRECORD
  5
78C2
102
{ACAD_REACTORS
330
78C1
102
}
330
78C1
100
AcDbXrecord
280
     1
290
     1
  0
SORTENTSTABLE
  5
6588
102
{ACAD_REACTORS
330
6587
102
}
330
6587
100
AcDbSortentsTable
330
A
331
0
  5
6DBE
331
80C7
  5
80C9
331
80C8
  5
80CA
331
80C9
  5
80CC
331
80CA
  5
80CE
331
80CE
  5
80EC
331
80DD
  5
80ED
331
80EE
  5
80C8
  0
DICTIONARY
  5
8146
102
{ACAD_REACTORS
330
BDC
102
}
330
BDC
100
AcDbDictionary
280
     1
281
     1
  3
TEXT
360
BDE
  0
DIMASSOC
  5
8015
102
{ACAD_REACTORS
330
8014
102
}
330
8014
100
AcDbDimAssoc
330
8013
 90
        3
 70
     0
 71
     1
  1
AcDbOsnapPointRef
 72
     2
331
7C00
 73
     0
 91
        0
 40
0.5
 10
0.0
 20
0.0
 30
0.0
 75
     0
  1
AcDbOsnapPointRef
 72
    10
331
7BFB
 73
     0
 91
        0
 40
0.7669007982238457
 10
0.0
 20
0.0
 30
0.0
 75
     0
  0
DIMASSOC
  5
80D0
102
{ACAD_REACTORS
330
80CF
102
}
330
80CF
100
AcDbDimAssoc
330
80CE
 90
        3
 70
     0
 71
     1
  1
AcDbOsnapPointRef
 72
    13
331
80C8
 73
     0
 91
        0
 40
0.0
 10
0.0
 20
0.0
 30
0.0
 75
     0
  1
AcDbOsnapPointRef
 72
    13
331
80C9
 73
     0
 91
        0
 40
0.0
 10
0.0
 20
0.0
 30
0.0
 75
     0
  0
DIMASSOC
  5
80DF
102
{ACAD_REACTORS
330
80DE
102
}
330
80DE
100
AcDbDimAssoc
330
80DD
 90
        3
 70
     0
 71
     1
  1
AcDbOsnapPointRef
 72
    13
331
80C9
 73
     0
 91
        0
 40
0.0
 10
0.0
 20
0.0
 30
0.0
 75
     0
  1
AcDbOsnapPointRef
 72
    13
331
80CA
 73
     0
 91
        0
 40
0.0
 10
0.0
 20
0.0
 30
0.0
 75
     0
  0
DIMASSOC
  5
8106
102
{ACAD_REACTORS
330
8105
102
}
330
8105
100
AcDbDimAssoc
330
8104
 90
        3
 70
     0
 71
     1
  1
AcDbOsnapPointRef
 72
     2
331
7F9B
 73
     2
 91
        2
 40
0.5
 10
0.0
 20
0.0
 30
0.0
 75
     0
  1
AcDbOsnapPointRef
 72
     2
331
7F99
 73
     2
 91
        2
 40
0.5
 10
0.0
 20
0.0
 30
0.0
 75
     0
  0
DIMASSOC
  5
8115
102
{ACAD_REACTORS
330
8114
102
}
330
8114
100
AcDbDimAssoc
330
8113
 90
        3
 70
     0
 71
     1
  1
AcDbOsnapPointRef
 72
     2
331
7F99
 73
     2
 91
        2
 40
0.5
 10
0.0
 20
0.0
 30
0.0
 75
     0
  1
AcDbOsnapPointRef
 72
     2
331
7F9A
 73
     2
 91
        2
 40
0.5
 10
0.0
 20
0.0
 30
0.0
 75
     0
  0
DIMASSOC
  5
8124
102
{ACAD_REACTORS
330
8123
102
}
330
8123
100
AcDbDimAssoc
330
8122
 90
        0
 70
     0
 71
     1
  0
GROUP
  5
7F96
102
{ACAD_REACTORS
330
1A
102
}
330
1A
100
AcDbGroup
300

 70
     1
 71
     1
340
7F7F
340
7F80
340
7F81
340
7F82
340
7F83
340
7F84
340
7F85
340
7F86
340
7F87
340
7F88
340
7F89
340
7F8A
340
7F8B
340
7F8C
340
7F8D
340
7F8E
340
7F8F
340
7F90
340
7F91
340
7F92
340
7F93
340
7F94
340
7F95
  0
GROUP
  5
7F9D
102
{ACAD_REACTORS
330
1A
102
}
330
1A
100
AcDbGroup
300

 70
     1
 71
     1
340
7F99
340
7F9A
340
7F9B
340
7F9C
  0
GROUP
  5
80CB
102
{ACAD_REACTORS
330
1A
102
}
330
1A
100
AcDbGroup
300

 70
     1
 71
     1
340
80C7
340
80C8
340
80C9
340
80CA
  0
GROUP
  5
7F26
102
{ACAD_REACTORS
330
1A
102
}
330
1A
100
AcDbGroup
300

 70
     1
 71
     1
340
7F0F
340
7F10
340
7F11
340
7F12
340
7F13
340
7F14
340
7F15
340
7F16
340
7F17
340
7F18
340
7F19
340
7F1A
340
7F1B
340
7F1C
340
7F1D
340
7F1E
340
7F1F
340
7F20
340
7F21
340
7F22
340
7F23
340
7F24
340
7F25
  0
LAYOUT
  5
21
102
{ACAD_REACTORS
330
1E
102
}
330
1E
100
AcDbPlotSettings
  1

  2
none_device
  4
ISO_A3_(420.00_x_297.00_MM)
  6

 40
7.5
 41
20.0
 42
7.5
 43
20.0
 44
420.0
 45
297.0
 46
0.0
 47
0.0
 48
0.0
 49
0.0
140
0.0
141
0.0
142
1.0
143
1.0
 70
     0
 72
     1
 73
     0
 74
     0
  7

 75
     0
 76
     0
 77
     2
 78
   300
147
1.0
148
0.0
149
0.0
100
AcDbLayout
  1
Layout1
 70
     0
 71
     0
 10
0.0
 20
0.0
 11
0.0
 21
0.0
 12
0.0
 22
0.0
 32
0.0
 14
0.0
 24
0.0
 34
0.0
 15
0.0
 25
0.0
 35
0.0
146
0.0
 13
0.0
 23
0.0
 33
0.0
 16
0.0
 26
0.0
 36
0.0
 17
0.0
 27
0.0
 37
0.0
 76
     0
330
B
331
349
  0
LAYOUT
  5
20
102
{ACAD_REACTORS
330
1E
102
}
330
1E
100
AcDbPlotSettings
  1

  2
none_device
  4
ISO_A3_(420.00_x_297.00_MM)
  6

 40
7.5
 41
20.0
 42
7.5
 43
20.0
 44
420.0
 45
297.0
 46
0.0
 47
0.0
 48
0.0
 49
0.0
140
0.0
141
0.0
142
1.0
143
1.0
 70
  1024
 72
     1
 73
     0
 74
     0
  7

 75
     0
 76
     0
 77
     2
 78
   300
147
1.0
148
0.0
149
0.0
100
AcDbLayout
  1
Model
 70
     0
 71
     1
 10
0.0
 20
0.0
 11
2100.0
 21
2970.0
 12
0.0
 22
0.0
 32
0.0
 14
0.0
 24
0.0
 34
0.0
 15
2100.0
 25
2970.0
 35
34.99521132346015
146
0.0
 13
0.0
 23
0.0
 33
0.0
 16
0.0
 26
0.0
 36
0.0
 17
0.0
 27
0.0
 37
0.0
 76
     0
330
A
331
15
  0
MATERIAL
  5
3F68
102
{ACAD_REACTORS
330
263
102
}
330
263
100
AcDbMaterial
  1
ByBlock
 72
     1
 94
      127
  0
MATERIAL
  5
264
102
{ACAD_REACTORS
330
263
102
}
330
263
100
AcDbMaterial
  1
ByLayer
 72
     1
 94
      127
  0
MATERIAL
  5
266
102
{ACAD_REACTORS
330
263
102
}
330
263
100
AcDbMaterial
  1
Global
 72
     1
 94
      127
  0
MLEADERSTYLE
  5
8D1
102
{ACAD_REACTORS
330
336
102
}
330
336
100
AcDbMLeaderStyle
170
     2
171
     1
172
     0
 90
        2
 40
0.0
 41
0.0
173
     1
 91
-1056964608
340
11
 92
       -2
290
     1
 42
2.0
291
     1
 43
8.0
  3
Standard
341
0
 44
4.0
300

342
17
174
     1
178
     6
175
     1
176
     0
 93
-1056964608
 45
4.0
292
     0
297
     0
 46
4.0
343
0
 94
-1056964608
 47
1.0
 49
1.0
140
1.0
293
     1
141
0.0
294
     1
177
     0
142
1.0
295
     0
296
     0
143
3.75
1001
ACAD_MLEADERVER
1070
     2
  0
MLINESTYLE
  5
1C
102
{ACAD_REACTORS
330
1B
102
}
330
1B
100
AcDbMlineStyle
  2
Standard
 70
     0
  3

 62
     0
 51
90.0
 52
90.0
 71
     2
 49
0.5
 62
   256
  6
BYLAYER
 49
-0.5
 62
   256
  6
BYLAYER
  0
ACDBPLACEHOLDER
  5
1D
102
{ACAD_REACTORS
330
1F
102
}
330
1F
  0
SCALE
  5
242
102
{ACAD_REACTORS
330
241
102
}
330
241
100
AcDbScale
 70
     0
300
1:1
140
1.0
141
1.0
290
     1
  0
SCALE
  5
243
102
{ACAD_REACTORS
330
241
102
}
330
241
100
AcDbScale
 70
     0
300
1:2
140
1.0
141
2.0
290
     0
  0
SCALE
  5
244
102
{ACAD_REACTORS
330
241
102
}
330
241
100
AcDbScale
 70
     0
300
1:4
140
1.0
141
4.0
290
     0
  0
SCALE
  5
245
102
{ACAD_REACTORS
330
241
102
}
330
241
100
AcDbScale
 70
     0
300
1:5
140
1.0
141
5.0
290
     0
  0
SCALE
  5
246
102
{ACAD_REACTORS
330
241
102
}
330
241
100
AcDbScale
 70
     0
300
1:8
140
1.0
141
8.0
290
     0
  0
SCALE
  5
247
102
{ACAD_REACTORS
330
241
102
}
330
241
100
AcDbScale
 70
     0
300
1:10
140
1.0
141
10.0
290
     0
  0
SCALE
  5
248
102
{ACAD_REACTORS
330
241
102
}
330
241
100
AcDbScale
 70
     0
300
1:16
140
1.0
141
16.0
290
     0
  0
SCALE
  5
249
102
{ACAD_REACTORS
330
241
102
}
330
241
100
AcDbScale
 70
     0
300
1:20
140
1.0
141
20.0
290
     0
  0
SCALE
  5
24A
102
{ACAD_REACTORS
330
241
102
}
330
241
100
AcDbScale
 70
     0
300
1:30
140
1.0
141
30.0
290
     0
  0
SCALE
  5
24B
102
{ACAD_REACTORS
330
241
102
}
330
241
100
AcDbScale
 70
     0
300
1:40
140
1.0
141
40.0
290
     0
  0
SCALE
  5
24C
102
{ACAD_REACTORS
330
241
102
}
330
241
100
AcDbScale
 70
     0
300
1:50
140
1.0
141
50.0
290
     0
  0
SCALE
  5
24D
102
{ACAD_REACTORS
330
241
102
}
330
241
100
AcDbScale
 70
     0
300
1:100
140
1.0
141
100.0
290
     0
  0
SCALE
  5
24E
102
{ACAD_REACTORS
330
241
102
}
330
241
100
AcDbScale
 70
     0
300
2:1
140
2.0
141
1.0
290
     0
  0
SCALE
  5
24F
102
{ACAD_REACTORS
330
241
102
}
330
241
100
AcDbScale
 70
     0
300
4:1
140
4.0
141
1.0
290
     0
  0
SCALE
  5
250
102
{ACAD_REACTORS
330
241
102
}
330
241
100
AcDbScale
 70
     0
300
8:1
140
8.0
141
1.0
290
     0
  0
SCALE
  5
251
102
{ACAD_REACTORS
330
241
102
}
330
241
100
AcDbScale
 70
     0
300
10:1
140
10.0
141
1.0
290
     0
  0
SCALE
  5
252
102
{ACAD_REACTORS
330
241
102
}
330
241
100
AcDbScale
 70
     0
300
100:1
140
100.0
141
1.0
290
     0
  0
SCALE
  5
253
102
{ACAD_REACTORS
330
241
102
}
330
241
100
AcDbScale
 70
     0
300
1/128" = 1'-0"
140
0.0078125
141
12.0
290
     0
  0
SCALE
  5
254
102
{ACAD_REACTORS
330
241
102
}
330
241
100
AcDbScale
 70
     0
300
1/64" = 1'-0"
140
0.015625
141
12.0
290
     0
  0
SCALE
  5
255
102
{ACAD_REACTORS
330
241
102
}
330
241
100
AcDbScale
 70
     0
300
1/32" = 1'-0"
140
0.03125
141
12.0
290
     0
  0
SCALE
  5
256
102
{ACAD_REACTORS
330
241
102
}
330
241
100
AcDbScale
 70
     0
300
1/16" = 1'-0"
140
0.0625
141
12.0
290
     0
  0
SCALE
  5
257
102
{ACAD_REACTORS
330
241
102
}
330
241
100
AcDbScale
 70
     0
300
3/32" = 1'-0"
140
0.09375
141
12.0
290
     0
  0
SCALE
  5
258
102
{ACAD_REACTORS
330
241
102
}
330
241
100
AcDbScale
 70
     0
300
1/8" = 1'-0"
140
0.125
141
12.0
290
     0
  0
SCALE
  5
259
102
{ACAD_REACTORS
330
241
102
}
330
241
100
AcDbScale
 70
     0
300
3/16" = 1'-0"
140
0.1875
141
12.0
290
     0
  0
SCALE
  5
25A
102
{ACAD_REACTORS
330
241
102
}
330
241
100
AcDbScale
 70
     0
300
1/4" = 1'-0"
140
0.25
141
12.0
290
     0
  0
SCALE
  5
25B
102
{ACAD_REACTORS
330
241
102
}
330
241
100
AcDbScale
 70
     0
300
3/8" = 1'-0"
140
0.375
141
12.0
290
     0
  0
SCALE
  5
25C
102
{ACAD_REACTORS
330
241
102
}
330
241
100
AcDbScale
 70
     0
300
1/2" = 1'-0"
140
0.5
141
12.0
290
     0
  0
SCALE
  5
25D
102
{ACAD_REACTORS
330
241
102
}
330
241
100
AcDbScale
 70
     0
300
3/4" = 1'-0"
140
0.75
141
12.0
290
     0
  0
SCALE
  5
25E
102
{ACAD_REACTORS
330
241
102
}
330
241
100
AcDbScale
 70
     0
300
1" = 1'-0"
140
1.0
141
12.0
290
     0
  0
SCALE
  5
25F
102
{ACAD_REACTORS
330
241
102
}
330
241
100
AcDbScale
 70
     0
300
1-1/2" = 1'-0"
140
1.5
141
12.0
290
     0
  0
SCALE
  5
260
102
{ACAD_REACTORS
330
241
102
}
330
241
100
AcDbScale
 70
     0
300
3" = 1'-0"
140
3.0
141
12.0
290
     0
  0
SCALE
  5
261
102
{ACAD_REACTORS
330
241
102
}
330
241
100
AcDbScale
 70
     0
300
6" = 1'-0"
140
6.0
141
12.0
290
     0
  0
SCALE
  5
262
102
{ACAD_REACTORS
330
241
102
}
330
241
100
AcDbScale
 70
     0
300
1'-0" = 1'-0"
140
12.0
141
12.0
290
     0
  0
TABLESTYLE
  5
279
102
{ACAD_REACTORS
330
278
102
}
102
{ACAD_XDICTIONARY
360
814D
102
}
330
278
100
AcDbTableStyle
  3
Standard
 70
     0
 71
     0
 40
0.06
 41
0.06
280
     0
281
     0
  7
Standard
140
4.5
170
     2
 62
     0
 63
   257
283
     0
 90
        4
 91
        0
  1

274
    -2
284
     1
 64
     0
275
    -2
285
     1
 65
     0
276
    -2
286
     1
 66
     0
277
    -2
287
     1
 67
     0
278
    -2
288
     1
 68
     0
279
    -2
289
     1
 69
     0
  7
Standard
140
6.0
170
     5
 62
     0
 63
   257
283
     0
 90
        4
 91
        0
  1

274
    -2
284
     1
 64
     0
275
    -2
285
     1
 65
     0
276
    -2
286
     1
 66
     0
277
    -2
287
     1
 67
     0
278
    -2
288
     1
 68
     0
279
    -2
289
     1
 69
     0
  7
Standard
140
4.5
170
     5
 62
     0
 63
   257
283
     0
 90
        4
 91
        0
  1

274
    -2
284
     1
 64
     0
275
    -2
285
     1
 65
     0
276
    -2
286
     1
 66
     0
277
    -2
287
     1
 67
     0
278
    -2
288
     1
 68
     0
279
    -2
289
     1
 69
     0
  0
VISUALSTYLE
  5
26C
102
{ACAD_REACTORS
330
267
102
}
330
267
100
AcDbVisualStyle
  2
2dWireframe
 70
     4
 71
     0
 72
     2
 73
     0
 90
        0
 40
-0.6
 41
-30.0
 62
     5
 63
     7
421
 16777215
 74
     1
 91
        4
 64
     7
 65
   257
 75
     1
175
     1
 42
1.0
 92
        0
 66
   257
 43
1.0
 76
     1
 77
     6
 78
     2
 67
     7
 79
     5
170
     0
171
     0
290
     0
174
     0
 93
        1
 44
0.0
173
     0
291
     0
 45
0.0
  0
VISUALSTYLE
  5
26E
102
{ACAD_REACTORS
330
267
102
}
330
267
100
AcDbVisualStyle
  2
3D Hidden
 70
     6
 71
     1
 72
     2
 73
     2
 90
        0
 40
-0.6
 41
-30.0
 62
     5
 63
     7
421
 16777215
 74
     2
 91
        2
 64
     7
 65
   257
 75
     2
175
     1
 42
40.0
 92
        0
 66
   257
 43
1.0
 76
     1
 77
     6
 78
     2
 67
     7
 79
     3
170
     0
171
     0
290
     0
174
     0
 93
        1
 44
0.0
173
     0
291
     0
 45
0.0
  0
VISUALSTYLE
  5
26D
102
{ACAD_REACTORS
330
267
102
}
330
267
100
AcDbVisualStyle
  2
3dWireframe
 70
     5
 71
     0
 72
     2
 73
     0
 90
        0
 40
-0.6
 41
-30.0
 62
     5
 63
     7
421
 16777215
 74
     1
 91
        4
 64
     7
 65
   257
 75
     1
175
     1
 42
1.0
 92
        0
 66
   257
 43
1.0
 76
     1
 77
     6
 78
     2
 67
     7
 79
     5
170
     0
171
     0
290
     0
174
     0
 93
        1
 44
0.0
173
     0
291
     0
 45
0.0
  0
VISUALSTYLE
  5
26F
102
{ACAD_REACTORS
330
267
102
}
330
267
100
AcDbVisualStyle
  2
Basic
 70
     7
 71
     1
 72
     0
 73
     1
 90
        0
 40
-0.6
 41
-30.0
 62
     5
 63
     7
421
 16777215
 74
     0
 91
        4
 64
     7
 65
   257
 75
     1
175
     1
 42
1.0
 92
        8
 66
     7
 43
1.0
 76
     1
 77
     6
 78
     2
 67
     7
 79
     5
170
     0
171
     0
290
     0
174
     0
 93
        1
 44
0.0
173
     0
291
     1
 45
0.0
  0
VISUALSTYLE
  5
273
102
{ACAD_REACTORS
330
267
102
}
330
267
100
AcDbVisualStyle
  2
Brighten
 70
    12
 71
     2
 72
     2
 73
     0
 90
        0
 40
-0.6
 41
-30.0
 62
     5
 63
     7
421
 16777215
 74
     1
 91
        4
 64
     7
 65
   257
 75
     1
175
     1
 42
1.0
 92
        8
 66
     7
 43
1.0
 76
     1
 77
     6
 78
     2
 67
     7
 79
     5
170
     0
171
     0
290
     0
174
     0
 93
        1
 44
50.0
173
     0
291
     1
 45
0.0
  0
VISUALSTYLE
  5
277
102
{ACAD_REACTORS
330
267
102
}
330
267
100
AcDbVisualStyle
  2
ColorChange
 70
    16
 71
     2
 72
     2
 73
     3
 90
        0
 40
-0.6
 41
-30.0
 62
     5
 63
     8
421
  8421504
 74
     1
 91
        4
 64
     7
 65
   257
 75
     1
175
     1
 42
1.0
 92
        8
 66
     8
424
  8421504
 43
1.0
 76
     1
 77
     6
 78
     2
 67
     7
 79
     5
170
     0
171
     0
290
     0
174
     0
 93
        1
 44
0.0
173
     0
291
     1
 45
0.0
  0
VISUALSTYLE
  5
271
102
{ACAD_REACTORS
330
267
102
}
330
267
100
AcDbVisualStyle
  2
Conceptual
 70
     9
 71
     3
 72
     2
 73
     0
 90
        0
 40
-0.6
 41
-30.0
 62
     5
 63
     7
421
 16777215
 74
     2
 91
        2
 64
     7
 65
   257
 75
     1
175
     1
 42
40.0
 92
        8
 66
     7
 43
1.0
 76
     1
 77
     6
 78
     2
 67
     7
 79
     3
170
     0
171
     0
290
     0
174
     0
 93
        1
 44
0.0
173
     0
291
     0
 45
0.0
  0
VISUALSTYLE
  5
272
102
{ACAD_REACTORS
330
267
102
}
330
267
100
AcDbVisualStyle
  2
Dim
 70
    11
 71
     2
 72
     2
 73
     0
 90
        0
 40
-0.6
 41
-30.0
 62
     5
 63
     7
421
 16777215
 74
     1
 91
        4
 64
     7
 65
   257
 75
     1
175
     1
 42
1.0
 92
        8
 66
     7
 43
1.0
 76
     1
 77
     6
 78
     2
 67
     7
 79
     5
170
     0
171
     0
290
     0
174
     0
 93
        1
 44
-50.0
173
     0
291
     1
 45
0.0
  0
VISUALSTYLE
  5
8BC
102
{ACAD_REACTORS
330
267
102
}
330
267
100
AcDbVisualStyle
  2
EdgeColorOff
 70
    22
 71
     2
 72
     2
 73
     0
 90
        0
 40
0.6
 41
30.0
 62
     5
 63
     7
421
 16777215
 74
     1
 91
        4
 64
     7
 65
   257
 75
     1
175
     1
 42
1.0
 92
        8
 66
     7
 43
1.0
 76
     1
 77
     6
 78
     2
 67
     7
 79
     5
170
     0
171
     0
290
     0
174
     0
 93
        1
 44
0.0
173
     0
291
     1
 45
0.0
  0
VISUALSTYLE
  5
276
102
{ACAD_REACTORS
330
267
102
}
330
267
100
AcDbVisualStyle
  2
Facepattern
 70
    15
 71
     2
 72
     2
 73
     0
 90
        0
 40
-0.6
 41
-30.0
 62
     5
 63
     7
421
 16777215
 74
     1
 91
        4
 64
     7
 65
   257
 75
     1
175
     1
 42
1.0
 92
        8
 66
     7
 43
1.0
 76
     1
 77
     6
 78
     2
 67
     7
 79
     5
170
     0
171
     0
290
     0
174
     0
 93
        1
 44
0.0
173
     0
291
     1
 45
0.0
  0
VISUALSTYLE
  5
268
102
{ACAD_REACTORS
330
267
102
}
330
267
100
AcDbVisualStyle
  2
Flat
 70
     0
 71
     2
 72
     1
 73
     1
 90
        2
 40
-0.6
 41
30.0
 62
     5
 63
     7
421
 16777215
 74
     0
 91
        4
 64
     7
 65
   257
 75
     1
175
     1
 42
1.0
 92
        8
 66
     7
 43
1.0
 76
     1
 77
     6
 78
     2
 67
     7
 79
     5
170
     0
171
     0
290
     0
174
     0
 93
       13
 44
0.0
173
     0
291
     1
 45
0.0
  0
VISUALSTYLE
  5
269
102
{ACAD_REACTORS
330
267
102
}
330
267
100
AcDbVisualStyle
  2
FlatWithEdges
 70
     1
 71
     2
 72
     1
 73
     1
 90
        2
 40
-0.6
 41
30.0
 62
     5
 63
     7
421
 16777215
 74
     1
 91
        4
 64
     7
 65
   257
 75
     1
175
     1
 42
1.0
 92
        0
 66
   257
 43
1.0
 76
     1
 77
     6
 78
     2
 67
     7
 79
     5
170
     0
171
     0
290
     0
174
     0
 93
       13
 44
0.0
173
     0
291
     1
 45
0.0
  0
VISUALSTYLE
  5
26A
102
{ACAD_REACTORS
330
267
102
}
330
267
100
AcDbVisualStyle
  2
Gouraud
 70
     2
 71
     2
 72
     2
 73
     1
 90
        2
 40
-0.6
 41
30.0
 62
     5
 63
     7
421
 16777215
 74
     0
 91
        4
 64
     7
 65
   257
 75
     1
175
     1
 42
1.0
 92
        0
 66
     7
 43
1.0
 76
     1
 77
     6
 78
     2
 67
     7
 79
     5
170
     0
171
     0
290
     0
174
     0
 93
       13
 44
0.0
173
     0
291
     1
 45
0.0
  0
VISUALSTYLE
  5
26B
102
{ACAD_REACTORS
330
267
102
}
330
267
100
AcDbVisualStyle
  2
GouraudWithEdges
 70
     3
 71
     2
 72
     2
 73
     1
 90
        2
 40
-0.6
 41
30.0
 62
     5
 63
     7
421
 16777215
 74
     1
 91
        4
 64
     7
 65
   257
 75
     1
175
     1
 42
1.0
 92
        0
 66
   257
 43
1.0
 76
     1
 77
     6
 78
     2
 67
     7
 79
     5
170
     0
171
     0
290
     0
174
     0
 93
       13
 44
0.0
173
     0
291
     1
 45
0.0
  0
VISUALSTYLE
  5
8B9
102
{ACAD_REACTORS
330
267
102
}
330
267
100
AcDbVisualStyle
  2
Hidden
 70
     6
 71
     1
 72
     2
 73
     2
 90
        0
 40
0.6
 41
30.0
 62
     5
 63
     7
421
 16777215
 74
     2
 91
        2
 64
     7
 65
   257
 75
     2
175
     1
 42
40.0
 92
        0
 66
   257
 43
1.0
 76
     1
 77
     6
 78
     2
 67
     7
 79
     3
170
     0
171
     0
290
     0
174
     0
 93
        1
 44
0.0
173
     0
291
     0
 45
0.0
  0
VISUALSTYLE
  5
8BA
102
{ACAD_REACTORS
330
267
102
}
330
267
100
AcDbVisualStyle
  2
JitterOff
 70
    20
 71
     2
 72
     2
 73
     0
 90
        0
 40
0.6
 41
30.0
 62
     5
 63
     7
421
 16777215
 74
     1
 91
        4
 64
     7
 65
   257
 75
     1
175
     1
 42
1.0
 92
       10
 66
     7
 43
1.0
 76
     1
 77
     6
 78
     2
 67
     7
 79
     5
170
     0
171
     0
290
     0
174
     0
 93
        1
 44
0.0
173
     0
291
     1
 45
0.0
  0
VISUALSTYLE
  5
275
102
{ACAD_REACTORS
330
267
102
}
330
267
100
AcDbVisualStyle
  2
Linepattern
 70
    14
 71
     2
 72
     2
 73
     0
 90
        0
 40
-0.6
 41
-30.0
 62
     5
 63
     7
421
 16777215
 74
     1
 91
        4
 64
     7
 65
   257
 75
     7
175
     7
 42
1.0
 92
        8
 66
     7
 43
1.0
 76
     1
 77
     6
 78
     2
 67
     7
 79
     5
170
     0
171
     0
290
     0
174
     0
 93
        1
 44
0.0
173
     0
291
     1
 45
0.0
  0
VISUALSTYLE
  5
8BB
102
{ACAD_REACTORS
330
267
102
}
330
267
100
AcDbVisualStyle
  2
OverhangOff
 70
    21
 71
     2
 72
     2
 73
     0
 90
        0
 40
0.6
 41
30.0
 62
     5
 63
     7
421
 16777215
 74
     1
 91
        4
 64
     7
 65
   257
 75
     1
175
     1
 42
1.0
 92
        9
 66
     7
 43
1.0
 76
     1
 77
     6
 78
     2
 67
     7
 79
     5
170
     0
171
     0
290
     0
174
     0
 93
        1
 44
0.0
173
     0
291
     1
 45
0.0
  0
VISUALSTYLE
  5
270
102
{ACAD_REACTORS
330
267
102
}
330
267
100
AcDbVisualStyle
  2
Realistic
 70
     8
 71
     2
 72
     2
 73
     0
 90
        0
 40
-0.6
 41
-30.0
 62
     5
 63
     7
421
 16777215
 74
     1
 91
        0
 64
     7
 65
   257
 75
     1
175
     1
 42
1.0
 92
        8
 66
     8
424
  7895160
 43
1.0
 76
     1
 77
     6
 78
     2
 67
     7
 79
     5
170
     0
171
     0
290
     0
174
     0
 93
       13
 44
0.0
173
     0
291
     0
 45
0.0
  0
VISUALSTYLE
  5
8C1
102
{ACAD_REACTORS
330
267
102
}
330
267
100
AcDbVisualStyle
  2
Shaded
 70
    27
 71
     2
 72
     2
 73
     1
 90
        2
 40
0.6
 41
30.0
 62
     5
 63
     7
421
 16777215
 74
     0
 91
        4
 64
     7
 65
   257
 75
     1
175
     1
 42
1.0
 92
        8
 66
   257
 43
1.0
 76
     1
 77
     6
 78
     2
 67
     8
425
  7895160
 79
     3
170
     0
171
     0
290
     0
174
     0
 93
        5
 44
0.0
173
     0
291
     0
 45
0.0
  0
VISUALSTYLE
  5
8C0
102
{ACAD_REACTORS
330
267
102
}
330
267
100
AcDbVisualStyle
  2
Shaded with edges
 70
    26
 71
     2
 72
     2
 73
     1
 90
        2
 40
0.6
 41
30.0
 62
     5
 63
     7
421
 16777215
 74
     1
 91
       10
 64
     7
 65
   257
 75
     2
175
     1
 42
1.0
 92
        8
 66
   257
 43
1.0
 76
     1
 77
     6
 78
     2
 67
     7
 79
     3
170
     0
171
     0
290
     0
174
     0
 93
        5
 44
0.0
173
     0
291
     0
 45
0.0
  0
VISUALSTYLE
  5
8BD
102
{ACAD_REACTORS
330
267
102
}
330
267
100
AcDbVisualStyle
  2
Shades of Gray
 70
    23
 71
     2
 72
     2
 73
     3
 90
        0
 40
0.6
 41
30.0
 62
     5
 63
     7
421
 16777215
 74
     2
 91
        2
 64
     7
 65
     7
 75
     1
175
     1
 42
40.0
 92
        8
 66
     7
 43
1.0
 76
     1
 77
     6
 78
     2
 67
     7
 79
     3
170
     0
171
     0
290
     0
174
     0
 93
        1
 44
0.0
173
     0
291
     0
 45
0.0
  0
VISUALSTYLE
  5
8BE
102
{ACAD_REACTORS
330
267
102
}
330
267
100
AcDbVisualStyle
  2
Sketchy
 70
    24
 71
     1
 72
     2
 73
     2
 90
        0
 40
0.6
 41
30.0
 62
     5
 63
     7
421
 16777215
 74
     2
 91
        2
 64
     7
 65
     7
 75
     1
175
     1
 42
40.0
 92
       11
 66
     7
 43
1.0
 76
     1
 77
     6
 78
     2
 67
     7
 79
     6
170
     0
171
     0
290
     0
174
     0
 93
        1
 44
0.0
173
     0
291
     0
 45
0.0
  0
VISUALSTYLE
  5
274
102
{ACAD_REACTORS
330
267
102
}
330
267
100
AcDbVisualStyle
  2
Thicken
 70
    13
 71
     2
 72
     2
 73
     0
 90
        0
 40
-0.6
 41
-30.0
 62
     5
 63
     7
421
 16777215
 74
     1
 91
        4
 64
     7
 65
   257
 75
     1
175
     1
 42
1.0
 92
       12
 66
     7
 43
1.0
 76
     1
 77
     6
 78
     2
 67
     7
 79
     5
170
     0
171
     0
290
     0
174
     0
 93
        1
 44
0.0
173
     0
291
     1
 45
0.0
  0
VISUALSTYLE
  5
8B8
102
{ACAD_REACTORS
330
267
102
}
330
267
100
AcDbVisualStyle
  2
Wireframe
 70
     5
 71
     0
 72
     2
 73
     0
 90
        0
 40
0.6
 41
30.0
 62
     5
 63
     7
421
 16777215
 74
     1
 91
        4
 64
     7
 65
   257
 75
     1
175
     1
 42
1.0
 92
        0
 66
   257
 43
1.0
 76
     1
 77
     6
 78
     2
 67
     7
 79
     3
170
     0
171
     0
290
     0
174
     0
 93
        1
 44
0.0
173
     0
291
     0
 45
0.0
  0
VISUALSTYLE
  5
8BF
102
{ACAD_REACTORS
330
267
102
}
330
267
100
AcDbVisualStyle
  2
X-Ray
 70
    25
 71
     2
 72
     2
 73
     1
 90
        1
 40
0.5
 41
30.0
 62
     5
 63
     7
421
 16777215
 74
     1
 91
        0
 64
     7
 65
   257
 75
     1
175
     1
 42
1.0
 92
        8
 66
     7
 43
1.0
 76
     1
 77
     6
 78
     2
 67
     7
 79
     3
170
     0
171
     0
290
     0
174
     0
 93
       13
 44
0.0
173
     0
291
     0
 45
0.0
  0
DICTIONARYVAR
  5
331
102
{ACAD_REACTORS
330
330
102
}
330
330
100
DictionaryVariables
280
     0
  1
1:1
  0
DICTIONARYVAR
  5
8DA
102
{ACAD_REACTORS
330
330
102
}
330
330
100
DictionaryVariables
280
     0
  1
Standard
  0
DICTIONARYVAR
  5
335
102
{ACAD_REACTORS
330
330
102
}
330
330
100
DictionaryVariables
280
     0
  1
Standard
  0
DICTIONARYVAR
  5
C07
102
{ACAD_REACTORS
330
330
102
}
330
330
100
DictionaryVariables
280
     0
  1
ByLayer
  0
DICTIONARYVAR
  5
64A
102
{ACAD_REACTORS
330
330
102
}
330
330
100
DictionaryVariables
280
     0
  1
0
  0
DICTIONARYVAR
  5
4918
102
{ACAD_REACTORS
330
C08
102
}
330
C08
100
DictionaryVariables
280
     0
  1
0.261799
  0
DICTIONARYVAR
  5
4916
102
{ACAD_REACTORS
330
C08
102
}
330
C08
100
DictionaryVariables
280
     0
  1
0.400000
  0
DICTIONARYVAR
  5
4917
102
{ACAD_REACTORS
330
C08
102
}
330
C08
100
DictionaryVariables
280
     0
  1
0.250000
  0
DICTIONARYVAR
  5
4919
102
{ACAD_REACTORS
330
C08
102
}
330
C08
100
DictionaryVariables
280
     0
  1
1
  0
FIELD
  5
BDE
102
{ACAD_REACTORS
330
813C
330
8146
102
}
330
8146
100
AcDbField
  1
_text
  2
{%<\_FldIdx 0>%N}
 90
        1
360
BDF
 97
        0
 91
       63
 92
        0
 94
       11
 95
        2
 96
        0
300

 93
        1
  6
ACFD_FIELDTEXT_CHECKSUM
 93
        2
 90
        2
140
4499.0
 94
        0
300

302

304
ACVALUE_END
  7
ACFD_FIELD_VALUE
 93
        6
 90
        4
  1
{20191123N}
 94
        0
300

302

304
ACVALUE_END
301
{20191123N}
 98
       11
  0
DICTIONARY
  5
814D
330
279
100
AcDbDictionary
280
     1
281
     1
  3
ACAD_ROUNDTRIP_2008_TABLESTYLE_CELLSTYLEMAP
360
814E
  0
FIELD
  5
BDF
330
BDE
100
AcDbField
  1
AcVar
  2
\AcVar Date \f "yyyyMMdd"
 90
        0
 97
        0
 91
       63
 92
        0
 94
        8
 95
       64
 96
        0
300
Variable not supported
 93
        1
  6
Variable
 93
        2
 90
        4
  1
Date
 94
        0
300

302

304
ACVALUE_END
  7
ACFD_FIELD_VALUE
 93
        6
 90
        8
 92
       16
310
E3070B00000016000F0016001A000000
 94
        0
300
yyyyMMdd
302

304
ACVALUE_END
301
20191123
 98
        8
  0
CELLSTYLEMAP
  5
814E
102
{ACAD_REACTORS
330
814D
102
}
330
814D
100
AcDbCellStyleMap
 90
        3
300
CELLSTYLE
  1
TABLEFORMAT_BEGIN
 90
        5
170
     1
 91
        0
 92
    32768
 62
   257
 93
        1
300
CONTENTFORMAT
  1
CONTENTFORMAT_BEGIN
 90
        0
 91
        0
 92
        4
 93
        0
300

 40
0.0
140
1.0
 94
        5
 62
     0
340
17
144
6.0
309
CONTENTFORMAT_END
171
     1
301
MARGIN
  1
CELLMARGIN_BEGIN
 40
0.06
 40
0.06
 40
0.06
 40
0.06
 40
0.18
 40
0.18
309
CELLMARGIN_END
 94
        6
 95
        1
302
GRIDFORMAT
  1
GRIDFORMAT_BEGIN
 90
        0
 91
        1
 62
     0
 92
       -2
340
0
 93
        0
 40
0.045
309
GRIDFORMAT_END
 95
        2
302
GRIDFORMAT
  1
GRIDFORMAT_BEGIN
 90
        0
 91
        1
 62
     0
 92
       -2
340
0
 93
        0
 40
0.045
309
GRIDFORMAT_END
 95
        4
302
GRIDFORMAT
  1
GRIDFORMAT_BEGIN
 90
        0
 91
        1
 62
     0
 92
       -2
340
0
 93
        0
 40
0.045
309
GRIDFORMAT_END
 95
        8
302
GRIDFORMAT
  1
GRIDFORMAT_BEGIN
 90
        0
 91
        1
 62
     0
 92
       -2
340
0
 93
        0
 40
0.045
309
GRIDFORMAT_END
 95
       16
302
GRIDFORMAT
  1
GRIDFORMAT_BEGIN
 90
        0
 91
        1
 62
     0
 92
       -2
340
0
 93
        0
 40
0.045
309
GRIDFORMAT_END
 95
       32
302
GRIDFORMAT
  1
GRIDFORMAT_BEGIN
 90
        0
 91
        1
 62
     0
 92
       -2
340
0
 93
        0
 40
0.045
309
GRIDFORMAT_END
309
TABLEFORMAT_END
  1
CELLSTYLE_BEGIN
 90
        1
 91
        1
300
_TITLE
309
CELLSTYLE_END
300
CELLSTYLE
  1
TABLEFORMAT_BEGIN
 90
        5
170
     1
 91
        0
 92
        0
 62
   257
 93
        1
300
CONTENTFORMAT
  1
CONTENTFORMAT_BEGIN
 90
        0
 91
        0
 92
        4
 93
        0
300

 40
0.0
140
1.0
 94
        5
 62
     0
340
17
144
4.5
309
CONTENTFORMAT_END
171
     1
301
MARGIN
  1
CELLMARGIN_BEGIN
 40
0.06
 40
0.06
 40
0.06
 40
0.06
 40
0.18
 40
0.18
309
CELLMARGIN_END
 94
        6
 95
        1
302
GRIDFORMAT
  1
GRIDFORMAT_BEGIN
 90
        0
 91
        1
 62
     0
 92
       -2
340
0
 93
        0
 40
0.045
309
GRIDFORMAT_END
 95
        2
302
GRIDFORMAT
  1
GRIDFORMAT_BEGIN
 90
        0
 91
        1
 62
     0
 92
       -2
340
0
 93
        0
 40
0.045
309
GRIDFORMAT_END
 95
        4
302
GRIDFORMAT
  1
GRIDFORMAT_BEGIN
 90
        0
 91
        1
 62
     0
 92
       -2
340
0
 93
        0
 40
0.045
309
GRIDFORMAT_END
 95
        8
302
GRIDFORMAT
  1
GRIDFORMAT_BEGIN
 90
        0
 91
        1
 62
     0
 92
       -2
340
0
 93
        0
 40
0.045
309
GRIDFORMAT_END
 95
       16
302
GRIDFORMAT
  1
GRIDFORMAT_BEGIN
 90
        0
 91
        1
 62
     0
 92
       -2
340
0
 93
        0
 40
0.045
309
GRIDFORMAT_END
 95
       32
302
GRIDFORMAT
  1
GRIDFORMAT_BEGIN
 90
        0
 91
        1
 62
     0
 92
       -2
340
0
 93
        0
 40
0.045
309
GRIDFORMAT_END
309
TABLEFORMAT_END
  1
CELLSTYLE_BEGIN
 90
        2
 91
        1
300
_HEADER
309
CELLSTYLE_END
300
CELLSTYLE
  1
TABLEFORMAT_BEGIN
 90
        5
170
     1
 91
        0
 92
        0
 62
   257
 93
        1
300
CONTENTFORMAT
  1
CONTENTFORMAT_BEGIN
 90
        0
 91
        0
 92
        4
 93
        0
300

 40
0.0
140
1.0
 94
        2
 62
     0
340
17
144
4.5
309
CONTENTFORMAT_END
171
     1
301
MARGIN
  1
CELLMARGIN_BEGIN
 40
0.06
 40
0.06
 40
0.06
 40
0.06
 40
0.18
 40
0.18
309
CELLMARGIN_END
 94
        6
 95
        1
302
GRIDFORMAT
  1
GRIDFORMAT_BEGIN
 90
        0
 91
        1
 62
     0
 92
       -2
340
0
 93
        0
 40
0.045
309
GRIDFORMAT_END
 95
        2
302
GRIDFORMAT
  1
GRIDFORMAT_BEGIN
 90
        0
 91
        1
 62
     0
 92
       -2
340
0
 93
        0
 40
0.045
309
GRIDFORMAT_END
 95
        4
302
GRIDFORMAT
  1
GRIDFORMAT_BEGIN
 90
        0
 91
        1
 62
     0
 92
       -2
340
0
 93
        0
 40
0.045
309
GRIDFORMAT_END
 95
        8
302
GRIDFORMAT
  1
GRIDFORMAT_BEGIN
 90
        0
 91
        1
 62
     0
 92
       -2
340
0
 93
        0
 40
0.045
309
GRIDFORMAT_END
 95
       16
302
GRIDFORMAT
  1
GRIDFORMAT_BEGIN
 90
        0
 91
        1
 62
     0
 92
       -2
340
0
 93
        0
 40
0.045
309
GRIDFORMAT_END
 95
       32
302
GRIDFORMAT
  1
GRIDFORMAT_BEGIN
 90
        0
 91
        1
 62
     0
 92
       -2
340
0
 93
        0
 40
0.045
309
GRIDFORMAT_END
309
TABLEFORMAT_END
  1
CELLSTYLE_BEGIN
 90
        3
 91
        2
300
_DATA
309
CELLSTYLE_END
  0
ENDSEC
  0
EOF
