  0
SECTION
  2
HEADER
  9
$ACADVER
  1
AC1021
  9
$ACADMAINTVER
 70
    25
  9
$DWGCODEPAGE
  3
ANSI_932
  9
$LASTSAVEDBY
  1
howeNelson
  9
$INSBASE
 10
0.0
 20
0.0
 30
0.0
  9
$EXTMIN
 10
0.0
 20
0.0
 30
0.0
  9
$EXTMAX
 10
2100.0
 20
2970.0
 30
34.99521132346015
  9
$LIMMIN
 10
0.0
 20
0.0
  9
$LIMMAX
 10
2100.0
 20
2970.0
  9
$ORTHOMODE
 70
     0
  9
$REGENMODE
 70
     1
  9
$FILLMODE
 70
     1
  9
$QTEXTMODE
 70
     0
  9
$MIRRTEXT
 70
     1
  9
$LTSCALE
 40
5.0
  9
$ATTMODE
 70
     1
  9
$TEXTSIZE
 40
533.0403732820173
  9
$TRACEWID
 40
1.0
  9
$TEXTSTYLE
  7
Standard
  9
$CLAYER
  8
Dim
  9
$CELTYPE
  6
ByLayer
  9
$CECOLOR
 62
   256
  9
$CELTSCALE
 40
1.0
  9
$DISPSILH
 70
     0
  9
$DIMSCALE
 40
1.0
  9
$DIMASZ
 40
9.999389648437498
  9
$DIMEXO
 40
25.0
  9
$DIMDLI
 40
0.9999999999999999
  9
$DIMRND
 40
0.0
  9
$DIMDLE
 40
0.0
  9
$DIMEXE
 40
0.0
  9
$DIMTP
 40
0.0
  9
$DIMTM
 40
0.0
  9
$DIMTXT
 40
24.4326171875
  9
$DIMCEN
 40
0.0
  9
$DIMTSZ
 40
0.0
  9
$DIMTOL
 70
     0
  9
$DIMLIM
 70
     0
  9
$DIMTIH
 70
     0
  9
$DIMTOH
 70
     0
  9
$DIMSE1
 70
     0
  9
$DIMSE2
 70
     0
  9
$DIMTAD
 70
     1
  9
$DIMZIN
 70
    11
  9
$DIMBLK
  1
DOT
  9
$DIMASO
 70
     1
  9
$DIMSHO
 70
     1
  9
$DIMPOST
  1
<>
  9
$DIMAPOST
  1
[]
  9
$DIMALT
 70
     0
  9
$DIMALTD
 70
     1
  9
$DIMALTF
 40
1.0
  9
$DIMLFAC
 40
1.0
  9
$DIMTOFL
 70
     1
  9
$DIMTVP
 40
0.0
  9
$DIMTIX
 70
     1
  9
$DIMSOXD
 70
     0
  9
$DIMSAH
 70
     0
  9
$DIMBLK1
  1

  9
$DIMBLK2
  1

  9
$DIMSTYLE
  2
tform線あり
  9
$DIMCLRD
 70
     0
  9
$DIMCLRE
 70
     0
  9
$DIMCLRT
 70
     0
  9
$DIMTFAC
 40
0.8
  9
$DIMGAP
 40
10.0
  9
$DIMJUST
 70
     0
  9
$DIMSD1
 70
     0
  9
$DIMSD2
 70
     0
  9
$DIMTOLJ
 70
     1
  9
$DIMTZIN
 70
    11
  9
$DIMALTZ
 70
    11
  9
$DIMALTTZ
 70
    11
  9
$DIMUPT
 70
     0
  9
$DIMDEC
 70
     0
  9
$DIMTDEC
 70
     1
  9
$DIMALTU
 70
     2
  9
$DIMALTTD
 70
     2
  9
$DIMTXSTY
  7
ＭＳ ゴシック
  9
$DIMAUNIT
 70
     0
  9
$DIMADEC
 70
     2
  9
$DIMALTRND
 40
0.0
  9
$DIMAZIN
 70
     0
  9
$DIMDSEP
 70
    46
  9
$DIMATFIT
 70
     0
  9
$DIMFRAC
 70
     2
  9
$DIMLDRBLK
  1
DOT
  9
$DIMLUNIT
 70
     2
  9
$DIMLWD
 70
    -2
  9
$DIMLWE
 70
    -2
  9
$DIMTMOVE
 70
     0
  9
$DIMFXL
 40
1.0
  9
$DIMFXLON
 70
     0
  9
$DIMJOGANG
 40
0.7853981633974483
  9
$DIMTFILL
 70
     0
  9
$DIMTFILLCLR
 70
     0
  9
$DIMARCSYM
 70
     0
  9
$DIMLTYPE
  6

  9
$DIMLTEX1
  6

  9
$DIMLTEX2
  6

  9
$LUNITS
 70
     2
  9
$LUPREC
 70
     0
  9
$SKETCHINC
 40
0.1
  9
$FILLETRAD
 40
0.0
  9
$AUNITS
 70
     0
  9
$AUPREC
 70
     0
  9
$MENU
  1
acad
  9
$ELEVATION
 40
0.0
  9
$PELEVATION
 40
0.0
  9
$THICKNESS
 40
0.0
  9
$LIMCHECK
 70
     0
  9
$CHAMFERA
 40
0.0
  9
$CHAMFERB
 40
0.0
  9
$CHAMFERC
 40
0.0
  9
$CHAMFERD
 40
0.0
  9
$SKPOLY
 70
     0
  9
$TDCREATE
 40
2447893.375
  9
$TDUCREATE
 40
0.0
  9
$TDUPDATE
 40
2458810.643828588
  9
$TDUUPDATE
 40
2458810.268828588
  9
$TDINDWG
 40
0.5903093403
  9
$TDUSRTIMER
 40
0.0016752199
  9
$USRTIMER
 70
     1
  9
$ANGBASE
 50
0.0
  9
$ANGDIR
 70
     0
  9
$PDMODE
 70
     1
  9
$PDSIZE
 40
-2.0
  9
$PLINEWID
 40
0.0
  9
$SPLFRAME
 70
     0
  9
$SPLINETYPE
 70
     6
  9
$SPLINESEGS
 70
     8
  9
$HANDSEED
  5
7997
  9
$SURFTAB1
 70
     6
  9
$SURFTAB2
 70
     6
  9
$SURFTYPE
 70
     6
  9
$SURFU
 70
     6
  9
$SURFV
 70
     6
  9
$UCSBASE
  2

  9
$UCSNAME
  2

  9
$UCSORG
 10
0.0
 20
0.0
 30
0.0
  9
$UCSXDIR
 10
1.0
 20
0.0
 30
0.0
  9
$UCSYDIR
 10
0.0
 20
1.0
 30
0.0
  9
$UCSORTHOREF
  2

  9
$UCSORTHOVIEW
 70
     0
  9
$UCSORGTOP
 10
0.0
 20
0.0
 30
0.0
  9
$UCSORGBOTTOM
 10
0.0
 20
0.0
 30
0.0
  9
$UCSORGLEFT
 10
0.0
 20
0.0
 30
0.0
  9
$UCSORGRIGHT
 10
0.0
 20
0.0
 30
0.0
  9
$UCSORGFRONT
 10
0.0
 20
0.0
 30
0.0
  9
$UCSORGBACK
 10
0.0
 20
0.0
 30
0.0
  9
$PUCSBASE
  2

  9
$PUCSNAME
  2

  9
$PUCSORG
 10
0.0
 20
0.0
 30
0.0
  9
$PUCSXDIR
 10
1.0
 20
0.0
 30
0.0
  9
$PUCSYDIR
 10
0.0
 20
1.0
 30
0.0
  9
$PUCSORTHOREF
  2

  9
$PUCSORTHOVIEW
 70
     0
  9
$PUCSORGTOP
 10
0.0
 20
0.0
 30
0.0
  9
$PUCSORGBOTTOM
 10
0.0
 20
0.0
 30
0.0
  9
$PUCSORGLEFT
 10
0.0
 20
0.0
 30
0.0
  9
$PUCSORGRIGHT
 10
0.0
 20
0.0
 30
0.0
  9
$PUCSORGFRONT
 10
0.0
 20
0.0
 30
0.0
  9
$PUCSORGBACK
 10
0.0
 20
0.0
 30
0.0
  9
$USERI1
 70
     0
  9
$USERI2
 70
     0
  9
$USERI3
 70
     0
  9
$USERI4
 70
     0
  9
$USERI5
 70
     0
  9
$USERR1
 40
0.0
  9
$USERR2
 40
0.0
  9
$USERR3
 40
0.0
  9
$USERR4
 40
0.0
  9
$USERR5
 40
0.0
  9
$WORLDVIEW
 70
     1
  9
$SHADEDGE
 70
     3
  9
$SHADEDIF
 70
    70
  9
$TILEMODE
 70
     1
  9
$MAXACTVP
 70
    64
  9
$PINSBASE
 10
0.0
 20
0.0
 30
0.0
  9
$PLIMCHECK
 70
     0
  9
$PEXTMIN
 10
0.0
 20
0.0
 30
0.0
  9
$PEXTMAX
 10
0.0
 20
0.0
 30
0.0
  9
$PLIMMIN
 10
-7.5
 20
-20.0
  9
$PLIMMAX
 10
412.5
 20
277.0
  9
$UNITMODE
 70
     0
  9
$VISRETAIN
 70
     0
  9
$PLINEGEN
 70
     1
  9
$PSLTSCALE
 70
     0
  9
$TREEDEPTH
 70
  3020
  9
$CMLSTYLE
  2
Standard
  9
$CMLJUST
 70
     0
  9
$CMLSCALE
 40
1.0
  9
$PROXYGRAPHICS
 70
     0
  9
$MEASUREMENT
 70
     1
  9
$CELWEIGHT
370
    -1
  9
$ENDCAPS
280
     0
  9
$JOINSTYLE
280
     0
  9
$LWDISPLAY
290
     1
  9
$INSUNITS
 70
     4
  9
$HYPERLINKBASE
  1

  9
$STYLESHEET
  1

  9
$XEDIT
290
     1
  9
$CEPSNTYPE
380
     0
  9
$PSTYLEMODE
290
     1
  9
$FINGERPRINTGUID
  2

  9
$VERSIONGUID
  2

  9
$EXTNAMES
290
     1
  9
$PSVPSCALE
 40
0.0
  9
$OLESTARTUP
290
     0
  9
$SORTENTS
280
   127
  9
$INDEXCTL
280
     0
  9
$HIDETEXT
280
     1
  9
$XCLIPFRAME
290
     0
  9
$HALOGAP
280
     0
  9
$OBSCOLOR
 70
   257
  9
$OBSLTYPE
280
     0
  9
$INTERSECTIONDISPLAY
280
     0
  9
$INTERSECTIONCOLOR
 70
   257
  9
$DIMASSOC
280
     2
  9
$PROJECTNAME
  1

  9
$CAMERADISPLAY
290
     0
  9
$LENSLENGTH
 40
50.0
  9
$CAMERAHEIGHT
 40
0.0
  9
$STEPSPERSEC
 40
2.0
  9
$STEPSIZE
 40
6.0
  9
$3DDWFPREC
 40
2.0
  9
$PSOLWIDTH
 40
0.25
  9
$PSOLHEIGHT
 40
4.0
  9
$LOFTANG1
 40
1.570796326794897
  9
$LOFTANG2
 40
1.570796326794897
  9
$LOFTMAG1
 40
0.0
  9
$LOFTMAG2
 40
0.0
  9
$LOFTPARAM
 70
     7
  9
$LOFTNORMALS
280
     1
  9
$LATITUDE
 40
37.795
  9
$LONGITUDE
 40
-122.394
  9
$NORTHDIRECTION
 40
0.0
  9
$TIMEZONE
 70
 -8000
  9
$LIGHTGLYPHDISPLAY
280
     1
  9
$TILEMODELIGHTSYNCH
280
     1
  9
$SOLIDHIST
280
     1
  9
$SHOWHIST
280
     1
  9
$DWFFRAME
280
     2
  9
$DGNFRAME
280
     2
  9
$REALWORLDSCALE
290
     1
  9
$INTERFERECOLOR
 62
   256
  9
$CSHADOW
280
     0
  9
$SHADOWPLANELOCATION
 40
0.0
  0
ENDSEC
  0
SECTION
  2
CLASSES
  0
CLASS
  1
LWPOLYLINE
  2
AcDbPolyline
  3
ObjectDBX Classes
 90
        0
 91
        1
280
     0
281
     1
  0
CLASS
  1
IMAGE
  2
AcDbRasterImage
  3
ISM
 90
      127
 91
        6
280
     0
281
     1
  0
CLASS
  1
OLE2FRAME
  2
AcDbOle2Frame
  3
ObjectDBX Classes
 90
        0
 91
        1
280
     0
281
     1
  0
CLASS
  1
HATCH
  2
AcDbHatch
  3
ObjectDBX Classes
 90
        0
 91
        1
280
     0
281
     1
  0
CLASS
  1
DICTIONARYVAR
  2
AcDbDictionaryVar
  3
ObjectDBX Classes
 90
        0
 91
        5
280
     0
281
     0
  0
CLASS
  1
RASTERVARIABLES
  2
AcDbRasterVariables
  3
ISM
 90
        0
 91
        5
280
     0
281
     0
  0
CLASS
  1
IMAGEDEF
  2
AcDbRasterImageDef
  3
ISM
 90
        0
 91
        5
280
     0
281
     0
  0
CLASS
  1
IMAGEDEF_REACTOR
  2
AcDbRasterImageDefReactor
  3
ISM
 90
        1
 91
        5
280
     0
281
     0
  0
CLASS
  1
IDBUFFER
  2
AcDbIdBuffer
  3
ObjectDBX Classes
 90
        0
 91
        5
280
     0
281
     0
  0
CLASS
  1
SPATIAL_FILTER
  2
AcDbSpatialFilter
  3
ObjectDBX Classes
 90
        0
 91
        5
280
     0
281
     0
  0
CLASS
  1
XRECORD
  2
AcDbXrecord
  3
ObjectDBX Classes
 90
        0
 91
        1
280
     0
281
     0
  0
CLASS
  1
SORTENTSTABLE
  2
AcDbSortentsTable
  3
ObjectDBX Classes
 90
        0
 91
        5
280
     0
281
     0
  0
CLASS
  1
LAYER_INDEX
  2
AcDbLayerIndex
  3
ObjectDBX Classes
 90
        0
 91
        5
280
     0
281
     0
  0
CLASS
  1
SPATIAL_INDEX
  2
AcDbSpatialIndex
  3
AutoCAD 2000
 90
        0
 91
        5
280
     0
281
     0
  0
CLASS
  1
OBJECT_PTR
  2
CAseDLPNTableRecord
  3
ASE-LPNTableRecord
 90
        1
 91
        5
280
     0
281
     0
  0
CLASS
  1
LAYOUT
  2
AcDbLayout
  3
ObjectDBX Classes
 90
        0
 91
        1
280
     0
281
     0
  0
CLASS
  1
PLOTSETTINGS
  2
AcDbPlotSettings
  3
ObjectDBX Classes
 90
        0
 91
        5
280
     0
281
     0
  0
CLASS
  1
ACDBDICTIONARYWDFLT
  2
AcDbDictionaryWithDefault
  3
ObjectDBX Classes
 90
        0
 91
        5
280
     0
281
     0
  0
CLASS
  1
ACDBPLACEHOLDER
  2
AcDbPlaceHolder
  3
ObjectDBX Classes
 90
        0
 91
        1
280
     0
281
     0
  0
CLASS
  1
SCALE
  2
AcDbScale
  3
ObjectDBX Classes
 90
     1153
 91
        5
280
     0
281
     0
  0
CLASS
  1
MATERIAL
  2
AcDbMaterial
  3
ObjectDBX Classes
 90
     1153
 91
        5
280
     0
281
     0
  0
CLASS
  1
VISUALSTYLE
  2
AcDbVisualStyle
  3
ObjectDBX Classes
 90
     4095
 91
        5
280
     0
281
     0
  0
CLASS
  1
TABLESTYLE
  2
AcDbTableStyle
  3
ObjectDBX Classes
 90
     4095
 91
        5
280
     0
281
     0
  0
CLASS
  1
DIMASSOC
  2
AcDbDimAssoc
  3
"AcDbDimAssoc|Product Desc:     AcDim ARX App For Dimension|Company:          Autodesk, Inc.|WEB Address:      www.autodesk.com"
 90
        0
 91
        5
280
     0
281
     0
  0
CLASS
  1
CELLSTYLEMAP
  2
AcDbCellStyleMap
  3
ObjectDBX Classes
 90
     1152
 91
        5
280
     0
281
     0
  0
CLASS
  1
SUN
  2
AcDbSun
  3
SCENEOE
 90
     1153
 91
        5
280
     0
281
     0
  0
CLASS
  1
MLEADERSTYLE
  2
AcDbMLeaderStyle
  3
ACDB_MLEADERSTYLE_CLASS
 90
     4095
 91
        5
280
     0
281
     0
  0
CLASS
  1
FIELD
  2
AcDbField
  3
ObjectDBX Classes
 90
     1152
 91
        5
280
     0
281
     0
  0
CLASS
  1
FIELDLIST
  2
AcDbFieldList
  3
ObjectDBX Classes
 90
     1152
 91
        5
280
     0
281
     0
  0
CLASS
  1
ACDB_ALDIMOBJECTCONTEXTDATA_CLASS
  2
AcDbAlignedDimensionObjectContextData
  3
ObjectDBX Classes
 90
     1153
 91
        5
280
     0
281
     0
  0
ENDSEC
  0
SECTION
  2
TABLES
  0
TABLE
  2
VPORT
  5
7
330
0
100
AcDbSymbolTable
 70
     1
  0
VPORT
  5
15
330
7
100
AcDbSymbolTableRecord
100
AcDbViewportTableRecord
  2
*ACTIVE
 70
     0
 10
0.0
 20
0.0
 11
1.0
 21
1.0
 12
672.9525617540357
 22
1782.612370234521
 13
0.0
 23
0.0
 14
1.0
 24
1.0
 15
0.0
 25
0.0
 16
0.0
 26
0.0
 36
1.0
 17
377.0474382459643
 27
-297.6123702345212
 37
0.0
 40
3029.4
 41
2.310294117647059
 42
50.0
 43
0.0
 44
0.0
 50
0.0
 51
0.0
 71
    16
 72
  2000
 73
     1
 74
     1
 75
     0
 76
     0
 77
     0
 78
     0
281
     0
 65
     1
110
0.0
120
0.0
130
0.0
111
1.0
121
0.0
131
0.0
112
0.0
122
1.0
132
0.0
 79
     0
146
0.0
348
26C
 60
     3
 61
     5
292
     1
282
     1
141
0.0
142
0.0
 63
   256
361
8C2
  0
ENDTAB
  0
TABLE
  2
LTYPE
  5
4
330
0
100
AcDbSymbolTable
 70
     4
  0
LTYPE
  5
11
330
4
100
AcDbSymbolTableRecord
100
AcDbLinetypeTableRecord
  2
ByBlock
 70
     0
  3

 72
    65
 73
     0
 40
0.0
  0
LTYPE
  5
12
330
4
100
AcDbSymbolTableRecord
100
AcDbLinetypeTableRecord
  2
ByLayer
 70
     0
  3

 72
    65
 73
     0
 40
0.0
  0
LTYPE
  5
13
330
4
100
AcDbSymbolTableRecord
100
AcDbLinetypeTableRecord
  2
Continuous
 70
     0
  3
Solid line
 72
    65
 73
     0
 40
0.0
  0
LTYPE
  5
8D4
330
4
100
AcDbSymbolTableRecord
100
AcDbLinetypeTableRecord
  2
HIDDEN
 70
     0
  3
Hidden _ _ _ _ _ _ _ _ _ _ _ _ _ _ _ _ _ _ _ _ 
 72
    65
 73
     2
 40
9.524999999999999
 49
6.35
 74
     0
 49
-3.175
 74
     0
  0
LTYPE
  5
BF2
330
4
100
AcDbSymbolTableRecord
100
AcDbLinetypeTableRecord
  2
BORDER
 70
     0
  3
Border __  __  . __  __  . __  __  . __  __  . 
 72
    65
 73
     6
 40
44.45
 49
12.7
 74
     0
 49
-6.35
 74
     0
 49
12.7
 74
     0
 49
-6.35
 74
     0
 49
0.0
 74
     0
 49
-6.35
 74
     0
  0
LTYPE
  5
4337
330
4
100
AcDbSymbolTableRecord
100
AcDbLinetypeTableRecord
  2
HIDDEN2
 70
     0
  3
Hidden (.5x) _ _ _ _ _ _ _ _ _ _ _ _ _ _ _ _ _ 
 72
    65
 73
     2
 40
4.762499999999999
 49
3.175
 74
     0
 49
-1.5875
 74
     0
  0
ENDTAB
  0
TABLE
  2
LAYER
  5
2
102
{ACAD_XDICTIONARY
360
2E1
102
}
330
0
100
AcDbSymbolTable
 70
    10
  0
LAYER
  5
14
330
2
100
AcDbSymbolTableRecord
100
AcDbLayerTableRecord
  2
0
 70
     0
 62
     7
  6
Continuous
370
    -3
390
1D
347
266
  0
LAYER
  5
4A
330
2
100
AcDbSymbolTableRecord
100
AcDbLayerTableRecord
  2
Defpoints
 70
     0
 62
     7
  6
Continuous
290
     0
370
    20
390
1D
347
266
  0
LAYER
  5
4B
330
2
100
AcDbSymbolTableRecord
100
AcDbLayerTableRecord
  2
template
 70
     0
 62
     7
  6
Continuous
370
    20
390
1D
347
266
  0
LAYER
  5
4D
330
2
100
AcDbSymbolTableRecord
100
AcDbLayerTableRecord
  2
MODEL
 70
     0
 62
     7
  6
Continuous
370
    20
390
1D
347
266
  0
LAYER
  5
382
330
2
100
AcDbSymbolTableRecord
100
AcDbLayerTableRecord
  2
レイヤー 1
 70
     0
 62
     7
  6
Continuous
370
    -3
390
1D
347
266
  0
LAYER
  5
5C4
330
2
100
AcDbSymbolTableRecord
100
AcDbLayerTableRecord
  2
HIDDEN
 70
     0
 62
   253
  6
HIDDEN
370
    20
390
1D
347
266
1001
AcAecLayerStandard
1000

1000

  0
LAYER
  5
5EB
330
2
100
AcDbSymbolTableRecord
100
AcDbLayerTableRecord
  2
Dim
 70
     0
 62
     3
  6
Continuous
370
    13
390
1D
347
266
1001
AcAecLayerStandard
1000

1000

  0
LAYER
  5
BF1
330
2
100
AcDbSymbolTableRecord
100
AcDbLayerTableRecord
  2
PRINT BORDER
 70
     0
 62
     4
  6
BORDER
290
     0
370
    20
390
1D
347
266
1001
AcAecLayerStandard
1000

1000

  0
LAYER
  5
1BD2
330
2
100
AcDbSymbolTableRecord
100
AcDbLayerTableRecord
  2
retino
 70
     0
 62
   253
  6
Continuous
370
     0
390
1D
347
266
  0
LAYER
  5
4336
330
2
100
AcDbSymbolTableRecord
100
AcDbLayerTableRecord
  2
tratteggio
 70
     0
 62
    74
  6
HIDDEN2
370
     0
390
1D
347
266
  0
ENDTAB
  0
TABLE
  2
STYLE
  5
3
330
0
100
AcDbSymbolTable
 70
     2
  0
STYLE
  5
17
330
3
100
AcDbSymbolTableRecord
100
AcDbTextStyleTableRecord
  2
Standard
 70
     0
 40
0.0
 41
1.0
 50
0.0
 71
     0
 42
533.0403732820173
  3
txt
  4
BIGFONT.SHX
  0
STYLE
  5
39
330
3
100
AcDbSymbolTableRecord
100
AcDbTextStyleTableRecord
  2
ＭＳ ゴシック
 70
     0
 40
0.0
 41
1.0
 50
0.0
 71
     0
 42
533.0403732820173
  3
msgothic.ttc
  4
ＭＳ ゴシック
1001
ACAD
1000
ＭＳ ゴシック
1071
        0
  0
ENDTAB
  0
TABLE
  2
VIEW
  5
5
330
0
100
AcDbSymbolTable
 70
     0
  0
ENDTAB
  0
TABLE
  2
UCS
  5
6
330
0
100
AcDbSymbolTable
 70
     0
  0
ENDTAB
  0
TABLE
  2
APPID
  5
8
330
0
100
AcDbSymbolTable
 70
    14
  0
APPID
  5
16
330
8
100
AcDbSymbolTableRecord
100
AcDbRegAppTableRecord
  2
ACAD
 70
     0
  0
APPID
  5
5C5
330
8
100
AcDbSymbolTableRecord
100
AcDbRegAppTableRecord
  2
AcAecLayerStandard
 70
     0
  0
APPID
  5
913
330
8
100
AcDbSymbolTableRecord
100
AcDbRegAppTableRecord
  2
ACAD_DSTYLE_DIMBREAK
 70
     0
  0
APPID
  5
914
330
8
100
AcDbSymbolTableRecord
100
AcDbRegAppTableRecord
  2
ACAD_DSTYLE_DIMJAG
 70
     0
  0
APPID
  5
915
330
8
100
AcDbSymbolTableRecord
100
AcDbRegAppTableRecord
  2
ACAD_DSTYLE_DIMTALN
 70
     0
  0
APPID
  5
E4F
330
8
100
AcDbSymbolTableRecord
100
AcDbRegAppTableRecord
  2
ACAD_MLEADERVER
 70
     0
  0
APPID
  5
E79
330
8
100
AcDbSymbolTableRecord
100
AcDbRegAppTableRecord
  2
ACAD_PSEXT
 70
     0
  0
APPID
  5
E7A
330
8
100
AcDbSymbolTableRecord
100
AcDbRegAppTableRecord
  2
ACAD_NAV_VCDISPLAY
 70
     0
  0
APPID
  5
166E
330
8
100
AcDbSymbolTableRecord
100
AcDbRegAppTableRecord
  2
AcadAnnotative
 70
     0
  0
APPID
  5
166F
330
8
100
AcDbSymbolTableRecord
100
AcDbRegAppTableRecord
  2
GradientColor1ACI
 70
     0
  0
APPID
  5
1670
330
8
100
AcDbSymbolTableRecord
100
AcDbRegAppTableRecord
  2
GradientColor2ACI
 70
     0
  0
APPID
  5
20FE
330
8
100
AcDbSymbolTableRecord
100
AcDbRegAppTableRecord
  2
AcLayerTools
 70
     0
  0
APPID
  5
27AB
330
8
100
AcDbSymbolTableRecord
100
AcDbRegAppTableRecord
  2
ACAD_DSTYLE_DIMRADIAL_EXTENSION
 70
     0
  0
APPID
  5
4342
330
8
100
AcDbSymbolTableRecord
100
AcDbRegAppTableRecord
  2
AcadAnnoAV
 70
     0
  0
ENDTAB
  0
TABLE
  2
DIMSTYLE
  5
9
330
0
100
AcDbSymbolTable
 70
     2
100
AcDbDimStyleTable
  0
DIMSTYLE
105
18
330
9
100
AcDbSymbolTableRecord
100
AcDbDimStyleTableRecord
  2
Standard
 70
     0
178
     0
340
17
  0
DIMSTYLE
105
56
102
{ACAD_REACTORS
330
7278
330
726C
330
726D
330
7270
330
7271
330
7273
330
7274
330
7275
330
7276
330
727E
330
7634
330
7656
330
7672
330
76C6
330
76DF
330
76EE
330
7706
330
7715
330
7846
330
7858
330
7867
102
}
330
9
100
AcDbSymbolTableRecord
100
AcDbDimStyleTableRecord
  2
tform線あり
 70
     0
  3
<>
  4
[]
 41
9.999389648437498
 42
25.0
 43
0.9999999999999999
 44
0.0
 73
     0
 74
     0
 77
     1
 78
    11
140
24.4326171875
141
0.0
143
1.0
146
0.8
147
10.0
171
     1
172
     1
174
     1
178
     0
179
     2
271
     0
272
     1
276
     2
284
    11
285
    11
286
    11
289
     0
340
39
341
4E
342
4E
  0
ENDTAB
  0
TABLE
  2
BLOCK_RECORD
  5
1
330
0
100
AcDbSymbolTable
 70
    60
  0
BLOCK_RECORD
  5
A
102
{ACAD_XDICTIONARY
360
6587
102
}
330
1
100
AcDbSymbolTableRecord
100
AcDbBlockTableRecord
  2
*MODEL_SPACE
340
20
 70
     0
280
     1
281
     0
  0
BLOCK_RECORD
  5
B
330
1
100
AcDbSymbolTableRecord
100
AcDbBlockTableRecord
  2
*PAPER_SPACE
340
21
 70
     0
280
     1
281
     0
  0
BLOCK_RECORD
  5
4E
330
1
100
AcDbSymbolTableRecord
100
AcDbBlockTableRecord
  2
_DOT
340
0
102
{BLKREFS
331
6CF4
331
6CF5
331
6D1B
331
6D1C
331
6D28
331
6D29
331
6D35
331
6D36
331
6D42
331
6D43
331
6D4F
331
6D50
331
6D5C
331
6D5D
331
6D69
331
6D6A
331
6E09
331
6E0A
331
6E15
331
6E16
331
6E21
331
6E22
331
6E90
331
6E91
331
6EC3
331
6EC4
331
6ED3
331
6ED4
331
6EE6
331
6EE7
331
6F11
331
6F12
331
7326
331
7327
331
7333
331
7334
331
735A
331
735B
331
7367
331
7368
331
7382
331
7383
331
738F
331
7390
331
739C
331
739D
331
73A9
331
73AA
331
73C4
331
73C5
331
73F9
331
73FA
331
7406
331
7407
331
7413
331
7414
331
763D
331
763E
331
764E
331
764F
331
765F
331
7660
331
7679
331
767A
331
76CF
331
76D0
331
76E8
331
76E9
331
76F9
331
76FA
331
770D
331
770E
331
771C
331
771D
331
77C8
331
77C9
331
77D4
331
77D5
331
77E0
331
77E1
331
77EC
331
77ED
331
77F8
331
77F9
331
7804
331
7805
331
7810
331
7811
331
781C
331
781D
331
7828
331
7829
331
7834
331
7835
331
7851
331
7852
331
7861
331
7862
331
7870
331
7871
102
}
 70
     0
280
     1
281
     0
  0
BLOCK_RECORD
  5
3A5
330
1
100
AcDbSymbolTableRecord
100
AcDbBlockTableRecord
  2
名称未設定-1
340
0
102
{BLKREFS
331
3D0
102
}
 70
     1
280
     1
281
     0
  0
BLOCK_RECORD
  5
3A8
330
1
100
AcDbSymbolTableRecord
100
AcDbBlockTableRecord
  2
block 2
340
0
102
{BLKREFS
331
3A7
102
}
 70
     0
280
     1
281
     0
  0
BLOCK_RECORD
  5
3AB
330
1
100
AcDbSymbolTableRecord
100
AcDbBlockTableRecord
  2
block 3
340
0
102
{BLKREFS
331
3AA
102
}
 70
     0
280
     1
281
     0
  0
BLOCK_RECORD
  5
3AE
330
1
100
AcDbSymbolTableRecord
100
AcDbBlockTableRecord
  2
block 4
340
0
102
{BLKREFS
331
3AD
102
}
 70
     0
280
     1
281
     0
  0
BLOCK_RECORD
  5
3BD
330
1
100
AcDbSymbolTableRecord
100
AcDbBlockTableRecord
  2
block 5
340
0
102
{BLKREFS
331
3BC
102
}
 70
     0
280
     1
281
     0
  0
BLOCK_RECORD
  5
11F0
330
1
100
AcDbSymbolTableRecord
100
AcDbBlockTableRecord
  2
BLOCK_2
340
0
102
{BLKREFS
331
1273
331
127B
331
127C
102
}
 70
     0
280
     1
281
     0
  0
BLOCK_RECORD
  5
38B6
330
1
100
AcDbSymbolTableRecord
100
AcDbBlockTableRecord
  2
mobile_latù
340
0
310
2800000020000000200000000100080000000000000400000000000000000000000000000000000000000000000080000080000000808000800000008000800080800000C0C0C000C0DCC000F0CAA6000020400000206000002080000020A0000020C0000020E00000400000004020000040400000406000004080000040A0
310
000040C0000040E00000600000006020000060400000606000006080000060A0000060C0000060E00000800000008020000080400000806000008080000080A0000080C0000080E00000A0000000A0200000A0400000A0600000A0800000A0A00000A0C00000A0E00000C0000000C0200000C0400000C0600000C0800000C0
310
A00000C0C00000C0E00000E0000000E0200000E0400000E0600000E0800000E0A00000E0C00000E0E00040000000400020004000400040006000400080004000A0004000C0004000E00040200000402020004020400040206000402080004020A0004020C0004020E000404000004040200040404000404060004040800040
310
40A0004040C0004040E00040600000406020004060400040606000406080004060A0004060C0004060E00040800000408020004080400040806000408080004080A0004080C0004080E00040A0000040A0200040A0400040A0600040A0800040A0A00040A0C00040A0E00040C0000040C0200040C0400040C0600040C08000
310
40C0A00040C0C00040C0E00040E0000040E0200040E0400040E0600040E0800040E0A00040E0C00040E0E00080000000800020008000400080006000800080008000A0008000C0008000E00080200000802020008020400080206000802080008020A0008020C0008020E00080400000804020008040400080406000804080
310
008040A0008040C0008040E00080600000806020008060400080606000806080008060A0008060C0008060E00080800000808020008080400080806000808080008080A0008080C0008080E00080A0000080A0200080A0400080A0600080A0800080A0A00080A0C00080A0E00080C0000080C0200080C0400080C0600080C0
310
800080C0A00080C0C00080C0E00080E0000080E0200080E0400080E0600080E0800080E0A00080E0C00080E0E000C0000000C0002000C0004000C0006000C0008000C000A000C000C000C000E000C0200000C0202000C0204000C0206000C0208000C020A000C020C000C020E000C0400000C0402000C0404000C0406000C0
310
408000C040A000C040C000C040E000C0600000C0602000C0604000C0606000C0608000C060A000C060C000C060E000C0800000C0802000C0804000C0806000C0808000C080A000C080C000C080E000C0A00000C0A02000C0A04000C0A06000C0A08000C0A0A000C0A0C000C0A0E000C0C00000C0C02000C0C04000C0C06000
310
C0C08000C0C0A000F0FBFF00A4A0A000808080000000FF0000FF000000FFFF00FF000000FF00FF00FFFF0000FFFFFF0049494949494949494949494949494949494949494949494949494949494949494949494949494949494949494949494949494949494949494949494949494949494949494949494949494949494949
310
49494949494949494949494949494949494949494949494949494949494949494949494949494949494949494949494949494949494949494949494949494949494949494949494949494949494949494949FAFAFAFAFAFAFAFAFAFAFAFAFAFAFAFAFAFAFAFAFAFAFAFAFAFAFAFAFAFA4949FAFA4949494949494949494949
310
494949494949494949494949494949FAFA4949FAFA4949494949494949494949494949494949494949494949494949FAFA4949FAFA4949494949494949494949494949494949494949494949494949FAFA4949FAFA4949494949494949494949494949494949494949494949494949FAFA4949FAFA49494949494949494949
310
49494949494949494949494949494949FAFA4949FAFA4949494949494949494949494949494949494949494949494949FAFA4949FAFA4949494949494949494949494949494949494949494949494949FAFA4949FAFA4949494949494949494949494949494949494949494949494949FAFA4949FAFA494949494949494949
310
4949494949494949494949494949494949FAFA4949FAFA4949494949494949494949494949494949494949494949494949FAFA4949FAFA4949494949494949494949494949494949494949494949494949FAFA4949FAFA4949494949494949494949494949494949494949494949494949FAFA4949FAFA4949494949494949
310
494949494949494949494949494949494949FAFA4949FAFA4949494949494949494949494949494949494949494949494949FAFA4949FAFA4949494949494949494949494949494949494949494949494949FAFA4949FAFA4949494949494949494949494949494949494949494949494949FAFA4949FAFA49494949494949
310
49494949494949494949494949494949494949FAFA4949FAFAFAFAFAFAFAFAFAFAFAFAFAFAFAFAFAFAFAFAFAFAFAFAFAFAFAFAFAFA4949FAFAFAFAFAFAFAFAFAFAFAFAFAFAFAFAFAFAFAFAFAFAFAFAFAFAFAFAFAFA4949FAFA4949494949494949494949494949494949494949494949494949FAFA4949FAFAFAFAFAFAFAFA
310
FAFAFAFAFAFAFAFAFAFAFAFAFAFAFAFAFAFAFAFAFAFA494949494949494949494949494949494949494949494949494949494949494949494949494949494949494949494949494949494949494949494949494949494949494949494949494949494949494949494949494949494949494949494949494949494949494949
310
4949494949494949494949494949494949494949494949494949494949494949494949494949494949494949494949494949494949494949
102
{BLKREFS
331
3B99
331
45C2
102
}
 70
     4
280
     1
281
     0
  0
BLOCK_RECORD
  5
436B
330
1
100
AcDbSymbolTableRecord
100
AcDbBlockTableRecord
  2
.TD_SECTION_1
340
0
102
{BLKREFS
331
45C3
331
45C5
331
45C7
331
45C9
331
45CB
331
45CD
331
4611
102
}
 70
     0
280
     1
281
     0
  0
BLOCK_RECORD
  5
436F
330
1
100
AcDbSymbolTableRecord
100
AcDbBlockTableRecord
  2
.TD_SECTION_2
340
0
102
{BLKREFS
331
45C4
331
45C6
331
45C8
331
45CA
331
45CC
331
45CE
331
4612
102
}
 70
     0
280
     1
281
     0
  0
BLOCK_RECORD
  5
6CEE
330
1
100
AcDbSymbolTableRecord
100
AcDbBlockTableRecord
  2
*D10
340
0
 70
     0
280
     1
281
     0
  0
BLOCK_RECORD
  5
6D15
330
1
100
AcDbSymbolTableRecord
100
AcDbBlockTableRecord
  2
*D11
340
0
 70
     0
280
     1
281
     0
  0
BLOCK_RECORD
  5
6D22
330
1
100
AcDbSymbolTableRecord
100
AcDbBlockTableRecord
  2
*D12
340
0
 70
     0
280
     1
281
     0
  0
BLOCK_RECORD
  5
6D2F
330
1
100
AcDbSymbolTableRecord
100
AcDbBlockTableRecord
  2
*D13
340
0
 70
     0
280
     1
281
     0
  0
BLOCK_RECORD
  5
6D3C
330
1
100
AcDbSymbolTableRecord
100
AcDbBlockTableRecord
  2
*D14
340
0
 70
     0
280
     1
281
     0
  0
BLOCK_RECORD
  5
6D49
330
1
100
AcDbSymbolTableRecord
100
AcDbBlockTableRecord
  2
*D15
340
0
 70
     0
280
     1
281
     0
  0
BLOCK_RECORD
  5
6D56
330
1
100
AcDbSymbolTableRecord
100
AcDbBlockTableRecord
  2
*D16
340
0
 70
     0
280
     1
281
     0
  0
BLOCK_RECORD
  5
6D63
330
1
100
AcDbSymbolTableRecord
100
AcDbBlockTableRecord
  2
*D17
340
0
 70
     0
280
     1
281
     0
  0
BLOCK_RECORD
  5
6E03
330
1
100
AcDbSymbolTableRecord
100
AcDbBlockTableRecord
  2
*D18
340
0
 70
     0
280
     1
281
     0
  0
BLOCK_RECORD
  5
6E0F
330
1
100
AcDbSymbolTableRecord
100
AcDbBlockTableRecord
  2
*D19
340
0
 70
     0
280
     1
281
     0
  0
BLOCK_RECORD
  5
6E1B
330
1
100
AcDbSymbolTableRecord
100
AcDbBlockTableRecord
  2
*D20
340
0
 70
     0
280
     1
281
     0
  0
BLOCK_RECORD
  5
6E8A
330
1
100
AcDbSymbolTableRecord
100
AcDbBlockTableRecord
  2
*D21
340
0
 70
     0
280
     1
281
     0
  0
BLOCK_RECORD
  5
6EBD
330
1
100
AcDbSymbolTableRecord
100
AcDbBlockTableRecord
  2
*D22
340
0
 70
     0
280
     1
281
     0
  0
BLOCK_RECORD
  5
6ECD
330
1
100
AcDbSymbolTableRecord
100
AcDbBlockTableRecord
  2
*D23
340
0
 70
     0
280
     1
281
     0
  0
BLOCK_RECORD
  5
6EDE
330
1
100
AcDbSymbolTableRecord
100
AcDbBlockTableRecord
  2
*D24
340
0
 70
     0
280
     1
281
     0
  0
BLOCK_RECORD
  5
6F0B
330
1
100
AcDbSymbolTableRecord
100
AcDbBlockTableRecord
  2
*D25
340
0
 70
     0
280
     1
281
     0
  0
BLOCK_RECORD
  5
7320
330
1
100
AcDbSymbolTableRecord
100
AcDbBlockTableRecord
  2
*D26
340
0
 70
     0
280
     1
281
     0
  0
BLOCK_RECORD
  5
732D
330
1
100
AcDbSymbolTableRecord
100
AcDbBlockTableRecord
  2
*D27
340
0
 70
     0
280
     1
281
     0
  0
BLOCK_RECORD
  5
7354
330
1
100
AcDbSymbolTableRecord
100
AcDbBlockTableRecord
  2
*D28
340
0
 70
     0
280
     1
281
     0
  0
BLOCK_RECORD
  5
7361
330
1
100
AcDbSymbolTableRecord
100
AcDbBlockTableRecord
  2
*D29
340
0
 70
     0
280
     1
281
     0
  0
BLOCK_RECORD
  5
737C
330
1
100
AcDbSymbolTableRecord
100
AcDbBlockTableRecord
  2
*D30
340
0
 70
     0
280
     1
281
     0
  0
BLOCK_RECORD
  5
7389
330
1
100
AcDbSymbolTableRecord
100
AcDbBlockTableRecord
  2
*D31
340
0
 70
     0
280
     1
281
     0
  0
BLOCK_RECORD
  5
7396
330
1
100
AcDbSymbolTableRecord
100
AcDbBlockTableRecord
  2
*D32
340
0
 70
     0
280
     1
281
     0
  0
BLOCK_RECORD
  5
73A3
330
1
100
AcDbSymbolTableRecord
100
AcDbBlockTableRecord
  2
*D33
340
0
 70
     0
280
     1
281
     0
  0
BLOCK_RECORD
  5
73BE
330
1
100
AcDbSymbolTableRecord
100
AcDbBlockTableRecord
  2
*D34
340
0
 70
     0
280
     1
281
     0
  0
BLOCK_RECORD
  5
73F3
330
1
100
AcDbSymbolTableRecord
100
AcDbBlockTableRecord
  2
*D35
340
0
 70
     0
280
     1
281
     0
  0
BLOCK_RECORD
  5
7400
330
1
100
AcDbSymbolTableRecord
100
AcDbBlockTableRecord
  2
*D36
340
0
 70
     0
280
     1
281
     0
  0
BLOCK_RECORD
  5
740D
330
1
100
AcDbSymbolTableRecord
100
AcDbBlockTableRecord
  2
*D37
340
0
 70
     0
280
     1
281
     0
  0
BLOCK_RECORD
  5
7637
330
1
100
AcDbSymbolTableRecord
100
AcDbBlockTableRecord
  2
*D38
340
0
 70
     0
280
     1
281
     0
  0
BLOCK_RECORD
  5
7648
330
1
100
AcDbSymbolTableRecord
100
AcDbBlockTableRecord
  2
*D39
340
0
 70
     0
280
     1
281
     0
  0
BLOCK_RECORD
  5
7659
330
1
100
AcDbSymbolTableRecord
100
AcDbBlockTableRecord
  2
*D40
340
0
 70
     0
280
     1
281
     0
  0
BLOCK_RECORD
  5
7673
330
1
100
AcDbSymbolTableRecord
100
AcDbBlockTableRecord
  2
*D41
340
0
 70
     0
280
     1
281
     0
  0
BLOCK_RECORD
  5
76C9
330
1
100
AcDbSymbolTableRecord
100
AcDbBlockTableRecord
  2
*D42
340
0
 70
     0
280
     1
281
     0
  0
BLOCK_RECORD
  5
76E2
330
1
100
AcDbSymbolTableRecord
100
AcDbBlockTableRecord
  2
*D43
340
0
 70
     0
280
     1
281
     0
  0
BLOCK_RECORD
  5
76F1
330
1
100
AcDbSymbolTableRecord
100
AcDbBlockTableRecord
  2
*D44
340
0
 70
     0
280
     1
281
     0
  0
BLOCK_RECORD
  5
7707
330
1
100
AcDbSymbolTableRecord
100
AcDbBlockTableRecord
  2
*D45
340
0
 70
     0
280
     1
281
     0
  0
BLOCK_RECORD
  5
7716
330
1
100
AcDbSymbolTableRecord
100
AcDbBlockTableRecord
  2
*D46
340
0
 70
     0
280
     1
281
     0
  0
BLOCK_RECORD
  5
77C2
330
1
100
AcDbSymbolTableRecord
100
AcDbBlockTableRecord
  2
*D47
340
0
 70
     0
280
     1
281
     0
  0
BLOCK_RECORD
  5
77CE
330
1
100
AcDbSymbolTableRecord
100
AcDbBlockTableRecord
  2
*D48
340
0
 70
     0
280
     1
281
     0
  0
BLOCK_RECORD
  5
77DA
330
1
100
AcDbSymbolTableRecord
100
AcDbBlockTableRecord
  2
*D49
340
0
 70
     0
280
     1
281
     0
  0
BLOCK_RECORD
  5
77E6
330
1
100
AcDbSymbolTableRecord
100
AcDbBlockTableRecord
  2
*D50
340
0
 70
     0
280
     1
281
     0
  0
BLOCK_RECORD
  5
77F2
330
1
100
AcDbSymbolTableRecord
100
AcDbBlockTableRecord
  2
*D51
340
0
 70
     0
280
     1
281
     0
  0
BLOCK_RECORD
  5
77FE
330
1
100
AcDbSymbolTableRecord
100
AcDbBlockTableRecord
  2
*D52
340
0
 70
     0
280
     1
281
     0
  0
BLOCK_RECORD
  5
780A
330
1
100
AcDbSymbolTableRecord
100
AcDbBlockTableRecord
  2
*D53
340
0
 70
     0
280
     1
281
     0
  0
BLOCK_RECORD
  5
7816
330
1
100
AcDbSymbolTableRecord
100
AcDbBlockTableRecord
  2
*D54
340
0
 70
     0
280
     1
281
     0
  0
BLOCK_RECORD
  5
7822
330
1
100
AcDbSymbolTableRecord
100
AcDbBlockTableRecord
  2
*D55
340
0
 70
     0
280
     1
281
     0
  0
BLOCK_RECORD
  5
782E
330
1
100
AcDbSymbolTableRecord
100
AcDbBlockTableRecord
  2
*D56
340
0
 70
     0
280
     1
281
     0
  0
BLOCK_RECORD
  5
7849
330
1
100
AcDbSymbolTableRecord
100
AcDbBlockTableRecord
  2
*D57
340
0
 70
     0
280
     1
281
     0
  0
BLOCK_RECORD
  5
785B
330
1
100
AcDbSymbolTableRecord
100
AcDbBlockTableRecord
  2
*D58
340
0
 70
     0
280
     1
281
     0
  0
BLOCK_RECORD
  5
786A
330
1
100
AcDbSymbolTableRecord
100
AcDbBlockTableRecord
  2
*D59
340
0
 70
     0
280
     1
281
     0
  0
ENDTAB
  0
ENDSEC
  0
SECTION
  2
BLOCKS
  0
BLOCK
  5
D
330
A
100
AcDbEntity
  8
0
390
1D
100
AcDbBlockBegin
  2
*MODEL_SPACE
 70
     0
 10
0.0
 20
0.0
 30
0.0
  3
*MODEL_SPACE
  1
*MODEL_SPACE
  0
ENDBLK
  5
E
330
A
100
AcDbEntity
  8
0
390
1D
100
AcDbBlockEnd
  0
BLOCK
  5
F
330
B
100
AcDbEntity
 67
     1
  8
0
390
1D
100
AcDbBlockBegin
  2
*PAPER_SPACE
 70
     0
 10
0.0
 20
0.0
 30
0.0
  3
*PAPER_SPACE
  1
*PAPER_SPACE
  0
ENDBLK
  5
10
330
B
100
AcDbEntity
 67
     1
  8
0
390
1D
100
AcDbBlockEnd
  0
BLOCK
  5
490E
330
4E
100
AcDbEntity
  8
0
390
1D
100
AcDbBlockBegin
  2
_DOT
 70
     0
 10
0.0
 20
0.0
 30
0.0
  3
_DOT
  1
_DOT
  0
POLYLINE
  5
4910
330
4E
100
AcDbEntity
  8
0
  6
ByBlock
 62
     0
370
    -2
390
1D
100
AcDb2dPolyline
 66
     1
 10
0.0
 20
0.0
 30
0.0
 70
     1
 40
0.5
 41
0.5
  0
VERTEX
  5
4911
330
4910
100
AcDbEntity
  8
0
  6
ByBlock
 62
     0
370
    -2
390
1D
100
AcDbVertex
100
AcDb2dVertex
 10
-0.25
 20
0.0
 30
0.0
 42
1.0
  0
VERTEX
  5
4912
330
4910
100
AcDbEntity
  8
0
  6
ByBlock
 62
     0
370
    -2
390
1D
100
AcDbVertex
100
AcDb2dVertex
 10
0.25
 20
0.0
 30
0.0
 42
1.0
  0
SEQEND
  5
4913
330
4910
100
AcDbEntity
  8
0
390
1D
  0
LINE
  5
4914
330
4E
100
AcDbEntity
  8
0
  6
ByBlock
 62
     0
370
    -2
390
1D
100
AcDbLine
 10
-0.5
 20
0.0
 30
0.0
 11
-1.0
 21
0.0
 31
0.0
  0
ENDBLK
  5
4915
330
4E
100
AcDbEntity
  8
0
390
1D
100
AcDbBlockEnd
  0
BLOCK
  5
3A6
330
3A5
100
AcDbEntity
  8
0
100
AcDbBlockBegin
  2
名称未設定-1
 70
     0
 10
0.0
 20
0.0
 30
0.0
  3
名称未設定-1
  1
名称未設定-1
  0
INSERT
  5
3A7
330
3A5
100
AcDbEntity
  8
レイヤー 1
100
AcDbBlockReference
  2
block 2
 10
0.0
 20
0.0
 30
0.0
  0
ENDBLK
  5
3CC
330
3A5
100
AcDbEntity
  8
0
100
AcDbBlockEnd
  0
BLOCK
  5
3A9
330
3A8
100
AcDbEntity
  8
0
100
AcDbBlockBegin
  2
block 2
 70
     0
 10
0.0
 20
0.0
 30
0.0
  3
block 2
  1
block 2
  0
INSERT
  5
3AA
330
3A8
100
AcDbEntity
  8
レイヤー 1
100
AcDbBlockReference
  2
block 3
 10
0.0
 20
0.0
 30
0.0
  0
ENDBLK
  5
3CB
330
3A8
100
AcDbEntity
  8
0
100
AcDbBlockEnd
  0
BLOCK
  5
3AC
330
3AB
100
AcDbEntity
  8
0
100
AcDbBlockBegin
  2
block 3
 70
     0
 10
0.0
 20
0.0
 30
0.0
  3
block 3
  1
block 3
  0
INSERT
  5
3AD
330
3AB
100
AcDbEntity
  8
レイヤー 1
100
AcDbBlockReference
  2
block 4
 10
0.0
 20
0.0
 30
0.0
  0
ENDBLK
  5
3CA
330
3AB
100
AcDbEntity
  8
0
100
AcDbBlockEnd
  0
BLOCK
  5
3AF
330
3AE
100
AcDbEntity
  8
0
100
AcDbBlockBegin
  2
block 4
 70
     0
 10
0.0
 20
0.0
 30
0.0
  3
block 4
  1
block 4
  0
POLYLINE
  5
3B0
330
3AE
100
AcDbEntity
  8
レイヤー 1
370
     0
100
AcDb2dPolyline
 66
     1
 10
0.0
 20
0.0
 30
0.0
  0
VERTEX
  5
3B1
330
3B0
100
AcDbEntity
  8
レイヤー 1
370
     0
100
AcDbVertex
100
AcDb2dVertex
 10
83.79545727667795
 20
167.6444858234922
 30
0.0
  0
VERTEX
  5
3B2
330
3B0
100
AcDbEntity
  8
レイヤー 1
370
     0
100
AcDbVertex
100
AcDb2dVertex
 10
83.79545727667795
 20
159.7968976406313
 30
0.0
  0
VERTEX
  5
3B3
330
3B0
100
AcDbEntity
  8
レイヤー 1
370
     0
100
AcDbVertex
100
AcDb2dVertex
 10
71.3631329975216
 20
159.7968976406313
 30
0.0
  0
VERTEX
  5
3B4
330
3B0
100
AcDbEntity
  8
レイヤー 1
370
     0
100
AcDbVertex
100
AcDb2dVertex
 10
71.3631329975216
 20
127.8027915271048
 30
0.0
  0
VERTEX
  5
3B5
330
3B0
100
AcDbEntity
  8
レイヤー 1
370
     0
100
AcDbVertex
100
AcDb2dVertex
 10
60.43011526263018
 20
127.8027915271048
 30
0.0
  0
VERTEX
  5
3B6
330
3B0
100
AcDbEntity
  8
レイヤー 1
370
     0
100
AcDbVertex
100
AcDb2dVertex
 10
60.43011526263018
 20
159.7968976406313
 30
0.0
  0
VERTEX
  5
3B7
330
3B0
100
AcDbEntity
  8
レイヤー 1
370
     0
100
AcDbVertex
100
AcDb2dVertex
 10
48.21793273020759
 20
159.7968976406313
 30
0.0
  0
VERTEX
  5
3B8
330
3B0
100
AcDbEntity
  8
レイヤー 1
370
     0
100
AcDbVertex
100
AcDb2dVertex
 10
48.21793273020759
 20
167.6444858234922
 30
0.0
  0
VERTEX
  5
3B9
330
3B0
100
AcDbEntity
  8
レイヤー 1
370
     0
100
AcDbVertex
100
AcDb2dVertex
 10
83.79545727667795
 20
167.6444858234922
 30
0.0
  0
SEQEND
  5
3BA
330
3B0
100
AcDbEntity
  8
レイヤー 1
370
     0
  0
HATCH
  5
3BB
330
3AE
100
AcDbEntity
  8
レイヤー 1
 62
   250
420
  2234388
100
AcDbHatch
 10
0.0
 20
0.0
 30
0.0
210
0.0
220
0.0
230
1.0
  2
SOLID
 70
     1
 71
     0
 91
        1
 92
        1
 93
        8
 72
     1
 10
83.79545727667795
 20
167.6444858234922
 11
83.79545727667795
 21
159.7968976406313
 72
     1
 10
83.79545727667795
 20
159.7968976406313
 11
71.3631329975216
 21
159.7968976406313
 72
     1
 10
71.3631329975216
 20
159.7968976406313
 11
71.3631329975216
 21
127.8027915271048
 72
     1
 10
71.3631329975216
 20
127.8027915271048
 11
60.43011526263018
 21
127.8027915271048
 72
     1
 10
60.43011526263018
 20
127.8027915271048
 11
60.43011526263018
 21
159.7968976406313
 72
     1
 10
60.43011526263018
 20
159.7968976406313
 11
48.21793273020759
 21
159.7968976406313
 72
     1
 10
48.21793273020759
 20
159.7968976406313
 11
48.21793273020759
 21
167.6444858234922
 72
     1
 10
48.21793273020759
 20
167.6444858234922
 11
83.79545727667795
 21
167.6444858234922
 97
        0
 75
     2
 76
     1
 98
        0
  0
INSERT
  5
3BC
330
3AE
100
AcDbEntity
  8
レイヤー 1
100
AcDbBlockReference
  2
block 5
 10
0.0
 20
0.0
 30
0.0
  0
ENDBLK
  5
3C9
330
3AE
100
AcDbEntity
  8
0
100
AcDbBlockEnd
  0
BLOCK
  5
3BE
330
3BD
100
AcDbEntity
  8
0
100
AcDbBlockBegin
  2
block 5
 70
     0
 10
0.0
 20
0.0
 30
0.0
  3
block 5
  1
block 5
  0
SPLINE
  5
3BF
330
3BD
100
AcDbEntity
  8
レイヤー 1
370
     0
100
AcDbSpline
210
0.0
220
0.0
230
1.0
 70
    11
 71
     3
 72
    56
 73
    52
 74
     0
 42
0.000000001
 43
0.0000000001
 40
0.0
 40
0.0
 40
0.0
 40
0.0
 40
1.0
 40
1.0
 40
1.0
 40
2.0
 40
2.0
 40
2.0
 40
3.0
 40
3.0
 40
3.0
 40
4.0
 40
4.0
 40
4.0
 40
5.0
 40
5.0
 40
5.0
 40
6.0
 40
6.0
 40
6.0
 40
7.0
 40
7.0
 40
7.0
 40
8.0
 40
8.0
 40
8.0
 40
9.0
 40
9.0
 40
9.0
 40
10.0
 40
10.0
 40
10.0
 40
11.0
 40
11.0
 40
11.0
 40
12.0
 40
12.0
 40
12.0
 40
13.0
 40
13.0
 40
13.0
 40
14.0
 40
14.0
 40
14.0
 40
15.0
 40
15.0
 40
15.0
 40
16.0
 40
16.0
 40
16.0
 40
17.0
 40
17.0
 40
17.0
 40
17.0
 10
100.4504378777679
 20
166.69157178364
 30
0.0
 10
101.9848844191641
 20
167.1313385124438
 30
0.0
 10
103.9637485713373
 20
166.7649523658846
 30
0.0
 10
103.9637485713373
 20
166.7649523658846
 30
0.0
 10
103.9637485713373
 20
166.7649523658846
 30
0.0
 10
103.0132460999156
 20
163.911205638077
 30
0.0
 10
103.0132460999156
 20
163.911205638077
 30
0.0
 10
103.0132460999156
 20
163.911205638077
 30
0.0
 10
101.0674548862189
 20
164.3601018759394
 30
0.0
 10
99.57090442016032
 20
163.1805004036133
 30
0.0
 10
98.40508333886608
 20
162.258247733807
 30
0.0
 10
97.65301849830304
 20
159.804132345923
 30
0.0
 10
97.3598406791005
 20
158.8699940888517
 30
0.0
 10
97.3598406791005
 20
158.8699940888517
 30
0.0
 10
96.07137411762282
 20
154.9119212747295
 30
0.0
 10
96.07137411762282
 20
154.9119212747295
 30
0.0
 10
96.07137411762282
 20
154.9119212747295
 30
0.0
 10
100.3012651448482
 20
154.9119212747295
 30
0.0
 10
100.3012651448482
 20
154.9119212747295
 30
0.0
 10
100.3012651448482
 20
154.9119212747295
 30
0.0
 10
99.64152892419852
 20
152.4199098115079
 30
0.0
 10
99.64152892419852
 20
152.4199098115079
 30
0.0
 10
99.64152892419852
 20
152.4199098115079
 30
0.0
 10
95.38097652692731
 20
152.4199098115079
 30
0.0
 10
95.38097652692731
 20
152.4199098115079
 30
0.0
 10
95.38097652692731
 20
152.4199098115079
 30
0.0
 10
87.75353009080013
 20
127.8027915271048
 30
0.0
 10
87.75353009080013
 20
127.8027915271048
 30
0.0
 10
87.75353009080013
 20
127.8027915271048
 30
0.0
 10
85.36538832498108
 20
127.8027915271048
 30
0.0
 10
85.36538832498108
 20
127.8027915271048
 30
0.0
 10
85.36538832498108
 20
127.8027915271048
 30
0.0
 10
93.00006946639998
 20
152.4199098115079
 30
0.0
 10
93.00006946639998
 20
152.4199098115079
 30
0.0
 10
93.00006946639998
 20
152.4199098115079
 30
0.0
 10
89.85297266450198
 20
152.4199098115079
 30
0.0
 10
89.85297266450198
 20
152.4199098115079
 30
0.0
 10
89.85297266450198
 20
152.4199098115079
 30
0.0
 10
90.51270888515164
 20
154.9119212747295
 30
0.0
 10
90.51270888515164
 20
154.9119212747295
 30
0.0
 10
90.51270888515164
 20
154.9119212747295
 30
0.0
 10
93.6904670570955
 20
154.9119212747295
 30
0.0
 10
93.6904670570955
 20
154.9119212747295
 30
0.0
 10
93.6904670570955
 20
154.9119212747295
 30
0.0
 10
94.81598049462158
 20
158.3616699146644
 30
0.0
 10
94.81598049462158
 20
158.3616699146644
 30
0.0
 10
95.7237637538445
 20
161.2605474231013
 30
0.0
 10
96.4968436907311
 20
162.8139420021662
 30
0.0
 10
97.15657991138076
 20
163.9844139654337
 30
0.0
 10
97.81183750494507
 20
165.1523021053827
 30
0.0
 10
99.1047826935081
 20
166.3084769129547
 30
0.0
 10
100.4504378777679
 20
166.69157178364
 30
0.0
  0
HATCH
  5
3C0
330
3BD
100
AcDbEntity
  8
レイヤー 1
 62
   250
420
  2234388
100
AcDbHatch
 10
0.0
 20
0.0
 30
0.0
210
0.0
220
0.0
230
1.0
  2
SOLID
 70
     1
 71
     0
 91
        1
 92
        1
 93
        1
 72
     4
 94
        3
 73
     0
 74
     1
 95
       56
 96
       52
 40
0.0
 40
0.0
 40
0.0
 40
0.0
 40
1.0
 40
1.0
 40
1.0
 40
2.0
 40
2.0
 40
2.0
 40
3.0
 40
3.0
 40
3.0
 40
4.0
 40
4.0
 40
4.0
 40
5.0
 40
5.0
 40
5.0
 40
6.0
 40
6.0
 40
6.0
 40
7.0
 40
7.0
 40
7.0
 40
8.0
 40
8.0
 40
8.0
 40
9.0
 40
9.0
 40
9.0
 40
10.0
 40
10.0
 40
10.0
 40
11.0
 40
11.0
 40
11.0
 40
12.0
 40
12.0
 40
12.0
 40
13.0
 40
13.0
 40
13.0
 40
14.0
 40
14.0
 40
14.0
 40
15.0
 40
15.0
 40
15.0
 40
16.0
 40
16.0
 40
16.0
 40
17.0
 40
17.0
 40
17.0
 40
17.0
 10
100.4504378777679
 20
166.69157178364
 10
101.9848844191641
 20
167.1313385124438
 10
103.9637485713373
 20
166.7649523658846
 10
103.9637485713373
 20
166.7649523658846
 10
103.9637485713373
 20
166.7649523658846
 10
103.0132460999156
 20
163.911205638077
 10
103.0132460999156
 20
163.911205638077
 10
103.0132460999156
 20
163.911205638077
 10
101.0674548862189
 20
164.3601018759394
 10
99.57090442016032
 20
163.1805004036133
 10
98.40508333886608
 20
162.258247733807
 10
97.65301849830304
 20
159.804132345923
 10
97.3598406791005
 20
158.8699940888517
 10
97.3598406791005
 20
158.8699940888517
 10
96.07137411762282
 20
154.9119212747295
 10
96.07137411762282
 20
154.9119212747295
 10
96.07137411762282
 20
154.9119212747295
 10
100.3012651448482
 20
154.9119212747295
 10
100.3012651448482
 20
154.9119212747295
 10
100.3012651448482
 20
154.9119212747295
 10
99.64152892419852
 20
152.4199098115079
 10
99.64152892419852
 20
152.4199098115079
 10
99.64152892419852
 20
152.4199098115079
 10
95.38097652692731
 20
152.4199098115079
 10
95.38097652692731
 20
152.4199098115079
 10
95.38097652692731
 20
152.4199098115079
 10
87.75353009080013
 20
127.8027915271048
 10
87.75353009080013
 20
127.8027915271048
 10
87.75353009080013
 20
127.8027915271048
 10
85.36538832498108
 20
127.8027915271048
 10
85.36538832498108
 20
127.8027915271048
 10
85.36538832498108
 20
127.8027915271048
 10
93.00006946639998
 20
152.4199098115079
 10
93.00006946639998
 20
152.4199098115079
 10
93.00006946639998
 20
152.4199098115079
 10
89.85297266450198
 20
152.4199098115079
 10
89.85297266450198
 20
152.4199098115079
 10
89.85297266450198
 20
152.4199098115079
 10
90.51270888515164
 20
154.9119212747295
 10
90.51270888515164
 20
154.9119212747295
 10
90.51270888515164
 20
154.9119212747295
 10
93.6904670570955
 20
154.9119212747295
 10
93.6904670570955
 20
154.9119212747295
 10
93.6904670570955
 20
154.9119212747295
 10
94.81598049462158
 20
158.3616699146644
 10
94.81598049462158
 20
158.3616699146644
 10
95.7237637538445
 20
161.2605474231013
 10
96.4968436907311
 20
162.8139420021662
 10
97.15657991138076
 20
163.9844139654337
 10
97.81183750494507
 20
165.1523021053827
 10
99.1047826935081
 20
166.3084769129547
 10
100.4504378777679
 20
166.69157178364
 97
        0
 75
     2
 76
     1
 98
        0
  0
SPLINE
  5
3C1
330
3BD
100
AcDbEntity
  8
レイヤー 1
370
     0
100
AcDbSpline
210
0.0
220
0.0
230
1.0
 70
    11
 71
     3
 72
    38
 73
    34
 74
     0
 42
0.000000001
 43
0.0000000001
 40
0.0
 40
0.0
 40
0.0
 40
0.0
 40
1.0
 40
1.0
 40
1.0
 40
2.0
 40
2.0
 40
2.0
 40
3.0
 40
3.0
 40
3.0
 40
4.0
 40
4.0
 40
4.0
 40
5.0
 40
5.0
 40
5.0
 40
6.0
 40
6.0
 40
6.0
 40
7.0
 40
7.0
 40
7.0
 40
8.0
 40
8.0
 40
8.0
 40
9.0
 40
9.0
 40
9.0
 40
10.0
 40
10.0
 40
10.0
 40
11.0
 40
11.0
 40
11.0
 40
11.0
 10
126.377554584636
 20
154.8151140277308
 30
0.0
 10
126.377554584636
 20
154.8151140277308
 30
0.0
 10
128.8311532078563
 20
154.8151140277308
 30
0.0
 10
128.8311532078563
 20
154.8151140277308
 30
0.0
 10
128.8311532078563
 20
154.8151140277308
 30
0.0
 10
127.7345785914971
 20
151.3062819612468
 30
0.0
 10
127.7345785914971
 20
151.3062819612468
 30
0.0
 10
128.571392836906
 20
152.2922689395754
 30
0.0
 10
129.8860421413442
 20
153.604506675583
 30
0.0
 10
131.0163787157314
 20
154.2664822097754
 30
0.0
 10
132.7044766171327
 20
155.2500576196734
 30
0.0
 10
133.6642808525008
 20
155.3847609420097
 30
0.0
 10
134.7284715499351
 20
155.3565111403944
 30
0.0
 10
134.7284715499351
 20
155.3565111403944
 30
0.0
 10
133.6877075172549
 20
152.0345756272799
 30
0.0
 10
133.6877075172549
 20
152.0345756272799
 30
0.0
 10
133.011434827367
 20
152.3184516825359
 30
0.0
 10
130.930940291334
 20
151.7768823149844
 30
0.0
 10
129.739280976855
 20
150.9162968950455
 30
0.0
 10
128.66613302525
 20
150.1454562717016
 30
0.0
 10
127.9192358313239
 20
149.4857200510519
 30
0.0
 10
127.0393578639405
 20
147.8282835196966
 30
0.0
 10
126.164647543194
 20
146.1699857139017
 30
0.0
 10
125.4742499524985
 20
143.5262176944419
 30
0.0
 10
124.2822461282437
 20
139.6959580071401
 30
0.0
 10
124.2822461282437
 20
139.6959580071401
 30
0.0
 10
120.5753209406769
 20
127.8027915271048
 30
0.0
 10
120.5753209406769
 20
127.8027915271048
 30
0.0
 10
120.5753209406769
 20
127.8027915271048
 30
0.0
 10
118.1964809388044
 20
127.8027915271048
 30
0.0
 10
118.1964809388044
 20
127.8027915271048
 30
0.0
 10
118.1964809388044
 20
127.8027915271048
 30
0.0
 10
126.377554584636
 20
154.8151140277308
 30
0.0
 10
126.377554584636
 20
154.8151140277308
 30
0.0
  0
HATCH
  5
3C2
330
3BD
100
AcDbEntity
  8
レイヤー 1
 62
   250
420
  2234388
100
AcDbHatch
 10
0.0
 20
0.0
 30
0.0
210
0.0
220
0.0
230
1.0
  2
SOLID
 70
     1
 71
     0
 91
        1
 92
        1
 93
        1
 72
     4
 94
        3
 73
     0
 74
     1
 95
       38
 96
       34
 40
0.0
 40
0.0
 40
0.0
 40
0.0
 40
1.0
 40
1.0
 40
1.0
 40
2.0
 40
2.0
 40
2.0
 40
3.0
 40
3.0
 40
3.0
 40
4.0
 40
4.0
 40
4.0
 40
5.0
 40
5.0
 40
5.0
 40
6.0
 40
6.0
 40
6.0
 40
7.0
 40
7.0
 40
7.0
 40
8.0
 40
8.0
 40
8.0
 40
9.0
 40
9.0
 40
9.0
 40
10.0
 40
10.0
 40
10.0
 40
11.0
 40
11.0
 40
11.0
 40
11.0
 10
126.377554584636
 20
154.8151140277308
 10
126.377554584636
 20
154.8151140277308
 10
128.8311532078563
 20
154.8151140277308
 10
128.8311532078563
 20
154.8151140277308
 10
128.8311532078563
 20
154.8151140277308
 10
127.7345785914971
 20
151.3062819612468
 10
127.7345785914971
 20
151.3062819612468
 10
128.571392836906
 20
152.2922689395754
 10
129.8860421413442
 20
153.604506675583
 10
131.0163787157314
 20
154.2664822097754
 10
132.7044766171327
 20
155.2500576196734
 10
133.6642808525008
 20
155.3847609420097
 10
134.7284715499351
 20
155.3565111403944
 10
134.7284715499351
 20
155.3565111403944
 10
133.6877075172549
 20
152.0345756272799
 10
133.6877075172549
 20
152.0345756272799
 10
133.011434827367
 20
152.3184516825359
 10
130.930940291334
 20
151.7768823149844
 10
129.739280976855
 20
150.9162968950455
 10
128.66613302525
 20
150.1454562717016
 10
127.9192358313239
 20
149.4857200510519
 10
127.0393578639405
 20
147.8282835196966
 10
126.164647543194
 20
146.1699857139017
 10
125.4742499524985
 20
143.5262176944419
 10
124.2822461282437
 20
139.6959580071401
 10
124.2822461282437
 20
139.6959580071401
 10
120.5753209406769
 20
127.8027915271048
 10
120.5753209406769
 20
127.8027915271048
 10
120.5753209406769
 20
127.8027915271048
 10
118.1964809388044
 20
127.8027915271048
 10
118.1964809388044
 20
127.8027915271048
 10
118.1964809388044
 20
127.8027915271048
 10
126.377554584636
 20
154.8151140277308
 10
126.377554584636
 20
154.8151140277308
 97
        0
 75
     2
 76
     1
 98
        0
  0
SPLINE
  5
3C3
330
3BD
100
AcDbEntity
  8
レイヤー 1
370
     0
100
AcDbSpline
210
0.0
220
0.0
230
1.0
 70
    11
 71
     3
 72
   104
 73
   100
 74
     0
 42
0.000000001
 43
0.0000000001
 40
0.0
 40
0.0
 40
0.0
 40
0.0
 40
1.0
 40
1.0
 40
1.0
 40
2.0
 40
2.0
 40
2.0
 40
3.0
 40
3.0
 40
3.0
 40
4.0
 40
4.0
 40
4.0
 40
5.0
 40
5.0
 40
5.0
 40
6.0
 40
6.0
 40
6.0
 40
7.0
 40
7.0
 40
7.0
 40
8.0
 40
8.0
 40
8.0
 40
9.0
 40
9.0
 40
9.0
 40
10.0
 40
10.0
 40
10.0
 40
11.0
 40
11.0
 40
11.0
 40
12.0
 40
12.0
 40
12.0
 40
13.0
 40
13.0
 40
13.0
 40
14.0
 40
14.0
 40
14.0
 40
15.0
 40
15.0
 40
15.0
 40
16.0
 40
16.0
 40
16.0
 40
17.0
 40
17.0
 40
17.0
 40
18.0
 40
18.0
 40
18.0
 40
19.0
 40
19.0
 40
19.0
 40
20.0
 40
20.0
 40
20.0
 40
21.0
 40
21.0
 40
21.0
 40
22.0
 40
22.0
 40
22.0
 40
23.0
 40
23.0
 40
23.0
 40
24.0
 40
24.0
 40
24.0
 40
25.0
 40
25.0
 40
25.0
 40
26.0
 40
26.0
 40
26.0
 40
27.0
 40
27.0
 40
27.0
 40
28.0
 40
28.0
 40
28.0
 40
29.0
 40
29.0
 40
29.0
 40
30.0
 40
30.0
 40
30.0
 40
31.0
 40
31.0
 40
31.0
 40
32.0
 40
32.0
 40
32.0
 40
33.0
 40
33.0
 40
33.0
 40
33.0
 10
139.8926730891197
 20
154.8294111834263
 30
0.0
 10
139.8926730891197
 20
154.8294111834263
 30
0.0
 10
142.0344903652445
 20
154.8294111834263
 30
0.0
 10
142.0344903652445
 20
154.8294111834263
 30
0.0
 10
142.0344903652445
 20
154.8294111834263
 30
0.0
 10
140.9516961399171
 20
151.3157559800812
 30
0.0
 10
140.9516961399171
 20
151.3157559800812
 30
0.0
 10
141.8928968473923
 20
152.7887075264977
 30
0.0
 10
142.7341897198865
 20
153.4484437471474
 30
0.0
 10
143.8552245303272
 20
154.2926649527359
 30
0.0
 10
144.9803934580775
 20
155.1296514530327
 30
0.0
 10
146.3139908001845
 20
155.3044901642492
 30
0.0
 10
147.241066606852
 20
155.3044901642492
 30
0.0
 10
148.3855280820469
 20
155.3044901642492
 30
0.0
 10
149.4969166187653
 20
155.0752189084569
 30
0.0
 10
150.0784491203092
 20
153.8172414621372
 30
0.0
 10
150.5228667310863
 20
152.833838307127
 30
0.0
 10
150.5414702589793
 20
152.7201500811143
 30
0.0
 10
150.4140016419347
 20
150.7765981809602
 30
0.0
 10
151.5818897818837
 20
152.7699317437168
 30
0.0
 10
152.4424752018226
 20
153.6256940267945
 30
0.0
 10
153.9038856707499
 20
154.4507949398263
 30
0.0
 10
155.4455669174378
 20
155.3044901642492
 30
0.0
 10
156.339225275853
 20
155.3659851592288
 30
0.0
 10
157.3748216618963
 20
155.2147453676543
 30
0.0
 10
158.911679771723
 20
154.9877134254046
 30
0.0
 10
159.8859534176746
 20
154.4390816074493
 30
0.0
 10
160.3965169054045
 20
152.7816450760939
 30
0.0
 10
160.9070803931344
 20
151.1219692311958
 30
0.0
 10
160.6328506116007
 20
150.2303779314354
 30
0.0
 10
159.9992971339115
 20
147.597634224801
 30
0.0
 10
159.7105979417943
 20
146.4014962832367
 30
0.0
 10
159.2947746424084
 20
144.9400858143094
 30
0.0
 10
158.7463150793409
 20
143.2092687007094
 30
0.0
 10
158.7463150793409
 20
143.2092687007094
 30
0.0
 10
153.9038856707499
 20
127.8027915271048
 30
0.0
 10
153.9038856707499
 20
127.8027915271048
 30
0.0
 10
153.9038856707499
 20
127.8027915271048
 30
0.0
 10
151.3882752878863
 20
127.8027915271048
 30
0.0
 10
151.3882752878863
 20
127.8027915271048
 30
0.0
 10
151.3882752878863
 20
127.8027915271048
 30
0.0
 10
155.6250565106276
 20
141.2751908193897
 30
0.0
 10
155.6250565106276
 20
141.2751908193897
 30
0.0
 10
156.5094131050963
 20
144.0936252951782
 30
0.0
 10
157.109893644309
 20
146.1506931664571
 30
0.0
 10
157.4220195011804
 20
147.4415712963654
 30
0.0
 10
157.8095929989511
 20
149.0530157726519
 30
0.0
 10
157.9656559273867
 20
149.5826995529385
 30
0.0
 10
157.7816877071116
 20
150.7529992613181
 30
0.0
 10
157.6111553680925
 20
151.8430281919372
 30
0.0
 10
157.0582171779396
 20
152.5547853887321
 30
0.0
 10
156.1170164704645
 20
152.5547853887321
 30
0.0
 10
155.1096698860365
 20
152.5547853887321
 30
0.0
 10
154.2962823053817
 20
152.4412694176073
 30
0.0
 10
153.156643967048
 20
151.2945686288697
 30
0.0
 10
152.0170056287143
 20
150.1476955852443
 30
0.0
 10
151.076149431015
 20
148.7930831468137
 30
0.0
 10
150.3337308641742
 20
147.2290087646991
 30
0.0
 10
149.5957909244188
 20
145.6683794803425
 30
0.0
 10
148.8530278478023
 20
143.6822806228776
 30
0.0
 10
148.0964843801539
 20
141.2751908193897
 30
0.0
 10
148.0964843801539
 20
141.2751908193897
 30
0.0
 10
143.8552245303272
 20
127.8027915271048
 30
0.0
 10
143.8552245303272
 20
127.8027915271048
 30
0.0
 10
143.8552245303272
 20
127.8027915271048
 30
0.0
 10
141.486030802177
 20
127.8027915271048
 30
0.0
 10
141.486030802177
 20
127.8027915271048
 30
0.0
 10
141.486030802177
 20
127.8027915271048
 30
0.0
 10
146.3329388378533
 20
143.2092687007094
 30
0.0
 10
146.3329388378533
 20
143.2092687007094
 30
0.0
 10
146.8483254624444
 20
144.8408669988801
 30
0.0
 10
147.2314203331297
 20
146.1837661049335
 30
0.0
 10
147.4867020769946
 20
147.224185627838
 30
0.0
 10
147.9169947869641
 20
149.0197705792876
 30
0.0
 10
148.0306830129768
 20
150.2400242051577
 30
0.0
 10
147.709255392159
 20
151.3157559800812
 30
0.0
 10
147.3874832615654
 20
152.3916600098926
 30
0.0
 10
146.8245542879144
 20
152.6683013598569
 30
0.0
 10
145.8840425999909
 20
152.6683013598569
 30
0.0
 10
145.0989048209514
 20
152.6683013598569
 30
0.0
 10
144.3282364524954
 20
152.3275811915945
 30
0.0
 10
143.4531816219731
 20
151.6538923250251
 30
0.0
 10
142.34627171234
 20
150.8074318058939
 30
0.0
 10
141.901854101563
 20
150.1097995099067
 30
0.0
 10
141.3578731655808
 20
149.289521733736
 30
0.0
 10
140.6299240093235
 20
148.192602607601
 30
0.0
 10
140.2850697237515
 20
147.455696197173
 30
0.0
 10
139.6652966370942
 20
145.8385673095858
 30
0.0
 10
139.0506911970739
 20
144.2214384219986
 30
0.0
 10
138.463991048893
 20
142.3252566160164
 30
0.0
 10
138.0571250036777
 20
141.0154304484394
 30
0.0
 10
138.0571250036777
 20
141.0154304484394
 30
0.0
 10
133.9009590684727
 20
127.8027915271048
 30
0.0
 10
133.9009590684727
 20
127.8027915271048
 30
0.0
 10
133.9009590684727
 20
127.8027915271048
 30
0.0
 10
131.4180771143097
 20
127.8027915271048
 30
0.0
 10
131.4180771143097
 20
127.8027915271048
 30
0.0
 10
131.4180771143097
 20
127.8027915271048
 30
0.0
 10
139.8926730891197
 20
154.8294111834263
 30
0.0
 10
139.8926730891197
 20
154.8294111834263
 30
0.0
  0
HATCH
  5
3C4
330
3BD
100
AcDbEntity
  8
レイヤー 1
 62
   250
420
  2234388
100
AcDbHatch
 10
0.0
 20
0.0
 30
0.0
210
0.0
220
0.0
230
1.0
  2
SOLID
 70
     1
 71
     0
 91
        1
 92
        1
 93
        1
 72
     4
 94
        3
 73
     0
 74
     1
 95
      104
 96
      100
 40
0.0
 40
0.0
 40
0.0
 40
0.0
 40
1.0
 40
1.0
 40
1.0
 40
2.0
 40
2.0
 40
2.0
 40
3.0
 40
3.0
 40
3.0
 40
4.0
 40
4.0
 40
4.0
 40
5.0
 40
5.0
 40
5.0
 40
6.0
 40
6.0
 40
6.0
 40
7.0
 40
7.0
 40
7.0
 40
8.0
 40
8.0
 40
8.0
 40
9.0
 40
9.0
 40
9.0
 40
10.0
 40
10.0
 40
10.0
 40
11.0
 40
11.0
 40
11.0
 40
12.0
 40
12.0
 40
12.0
 40
13.0
 40
13.0
 40
13.0
 40
14.0
 40
14.0
 40
14.0
 40
15.0
 40
15.0
 40
15.0
 40
16.0
 40
16.0
 40
16.0
 40
17.0
 40
17.0
 40
17.0
 40
18.0
 40
18.0
 40
18.0
 40
19.0
 40
19.0
 40
19.0
 40
20.0
 40
20.0
 40
20.0
 40
21.0
 40
21.0
 40
21.0
 40
22.0
 40
22.0
 40
22.0
 40
23.0
 40
23.0
 40
23.0
 40
24.0
 40
24.0
 40
24.0
 40
25.0
 40
25.0
 40
25.0
 40
26.0
 40
26.0
 40
26.0
 40
27.0
 40
27.0
 40
27.0
 40
28.0
 40
28.0
 40
28.0
 40
29.0
 40
29.0
 40
29.0
 40
30.0
 40
30.0
 40
30.0
 40
31.0
 40
31.0
 40
31.0
 40
32.0
 40
32.0
 40
32.0
 40
33.0
 40
33.0
 40
33.0
 40
33.0
 10
139.8926730891197
 20
154.8294111834263
 10
139.8926730891197
 20
154.8294111834263
 10
142.0344903652445
 20
154.8294111834263
 10
142.0344903652445
 20
154.8294111834263
 10
142.0344903652445
 20
154.8294111834263
 10
140.9516961399171
 20
151.3157559800812
 10
140.9516961399171
 20
151.3157559800812
 10
141.8928968473923
 20
152.7887075264977
 10
142.7341897198865
 20
153.4484437471474
 10
143.8552245303272
 20
154.2926649527359
 10
144.9803934580775
 20
155.1296514530327
 10
146.3139908001845
 20
155.3044901642492
 10
147.241066606852
 20
155.3044901642492
 10
148.3855280820469
 20
155.3044901642492
 10
149.4969166187653
 20
155.0752189084569
 10
150.0784491203092
 20
153.8172414621372
 10
150.5228667310863
 20
152.833838307127
 10
150.5414702589793
 20
152.7201500811143
 10
150.4140016419347
 20
150.7765981809602
 10
151.5818897818837
 20
152.7699317437168
 10
152.4424752018226
 20
153.6256940267945
 10
153.9038856707499
 20
154.4507949398263
 10
155.4455669174378
 20
155.3044901642492
 10
156.339225275853
 20
155.3659851592288
 10
157.3748216618963
 20
155.2147453676543
 10
158.911679771723
 20
154.9877134254046
 10
159.8859534176746
 20
154.4390816074493
 10
160.3965169054045
 20
152.7816450760939
 10
160.9070803931344
 20
151.1219692311958
 10
160.6328506116007
 20
150.2303779314354
 10
159.9992971339115
 20
147.597634224801
 10
159.7105979417943
 20
146.4014962832367
 10
159.2947746424084
 20
144.9400858143094
 10
158.7463150793409
 20
143.2092687007094
 10
158.7463150793409
 20
143.2092687007094
 10
153.9038856707499
 20
127.8027915271048
 10
153.9038856707499
 20
127.8027915271048
 10
153.9038856707499
 20
127.8027915271048
 10
151.3882752878863
 20
127.8027915271048
 10
151.3882752878863
 20
127.8027915271048
 10
151.3882752878863
 20
127.8027915271048
 10
155.6250565106276
 20
141.2751908193897
 10
155.6250565106276
 20
141.2751908193897
 10
156.5094131050963
 20
144.0936252951782
 10
157.109893644309
 20
146.1506931664571
 10
157.4220195011804
 20
147.4415712963654
 10
157.8095929989511
 20
149.0530157726519
 10
157.9656559273867
 20
149.5826995529385
 10
157.7816877071116
 20
150.7529992613181
 10
157.6111553680925
 20
151.8430281919372
 10
157.0582171779396
 20
152.5547853887321
 10
156.1170164704645
 20
152.5547853887321
 10
155.1096698860365
 20
152.5547853887321
 10
154.2962823053817
 20
152.4412694176073
 10
153.156643967048
 20
151.2945686288697
 10
152.0170056287143
 20
150.1476955852443
 10
151.076149431015
 20
148.7930831468137
 10
150.3337308641742
 20
147.2290087646991
 10
149.5957909244188
 20
145.6683794803425
 10
148.8530278478023
 20
143.6822806228776
 10
148.0964843801539
 20
141.2751908193897
 10
148.0964843801539
 20
141.2751908193897
 10
143.8552245303272
 20
127.8027915271048
 10
143.8552245303272
 20
127.8027915271048
 10
143.8552245303272
 20
127.8027915271048
 10
141.486030802177
 20
127.8027915271048
 10
141.486030802177
 20
127.8027915271048
 10
141.486030802177
 20
127.8027915271048
 10
146.3329388378533
 20
143.2092687007094
 10
146.3329388378533
 20
143.2092687007094
 10
146.8483254624444
 20
144.8408669988801
 10
147.2314203331297
 20
146.1837661049335
 10
147.4867020769946
 20
147.224185627838
 10
147.9169947869641
 20
149.0197705792876
 10
148.0306830129768
 20
150.2400242051577
 10
147.709255392159
 20
151.3157559800812
 10
147.3874832615654
 20
152.3916600098926
 10
146.8245542879144
 20
152.6683013598569
 10
145.8840425999909
 20
152.6683013598569
 10
145.0989048209514
 20
152.6683013598569
 10
144.3282364524954
 20
152.3275811915945
 10
143.4531816219731
 20
151.6538923250251
 10
142.34627171234
 20
150.8074318058939
 10
141.901854101563
 20
150.1097995099067
 10
141.3578731655808
 20
149.289521733736
 10
140.6299240093235
 20
148.192602607601
 10
140.2850697237515
 20
147.455696197173
 10
139.6652966370942
 20
145.8385673095858
 10
139.0506911970739
 20
144.2214384219986
 10
138.463991048893
 20
142.3252566160164
 10
138.0571250036777
 20
141.0154304484394
 10
138.0571250036777
 20
141.0154304484394
 10
133.9009590684727
 20
127.8027915271048
 10
133.9009590684727
 20
127.8027915271048
 10
133.9009590684727
 20
127.8027915271048
 10
131.4180771143097
 20
127.8027915271048
 10
131.4180771143097
 20
127.8027915271048
 10
131.4180771143097
 20
127.8027915271048
 10
139.8926730891197
 20
154.8294111834263
 10
139.8926730891197
 20
154.8294111834263
 97
        0
 75
     2
 76
     1
 98
        0
  0
SPLINE
  5
3C5
330
3BD
100
AcDbEntity
  8
レイヤー 1
370
     0
100
AcDbSpline
210
0.0
220
0.0
230
1.0
 70
    11
 71
     3
 72
    29
 73
    25
 74
     0
 42
0.000000001
 43
0.0000000001
 40
0.0
 40
0.0
 40
0.0
 40
0.0
 40
1.0
 40
1.0
 40
1.0
 40
2.0
 40
2.0
 40
2.0
 40
3.0
 40
3.0
 40
3.0
 40
4.0
 40
4.0
 40
4.0
 40
5.0
 40
5.0
 40
5.0
 40
6.0
 40
6.0
 40
6.0
 40
7.0
 40
7.0
 40
7.0
 40
8.0
 40
8.0
 40
8.0
 40
8.0
 10
101.6420971922469
 20
132.8388354296931
 30
0.0
 10
101.630039350094
 20
134.7164137077823
 30
0.0
 10
102.2236296937908
 20
138.0598810818841
 30
0.0
 10
103.7487744712405
 20
142.5378191476827
 30
0.0
 10
105.819967243327
 20
148.5896501242061
 30
0.0
 10
107.0602024361932
 20
150.8074318058939
 30
0.0
 10
108.1522984254671
 20
151.8833358357054
 30
0.0
 10
109.741177511439
 20
153.4532668840085
 30
0.0
 10
111.8740375333931
 20
153.5290590346837
 30
0.0
 10
112.5075910110823
 20
153.4532668840085
 30
0.0
 10
113.4012493694975
 20
153.3490526768302
 30
0.0
 10
114.6683563248758
 20
152.7580461564518
 30
0.0
 10
114.7493161221879
 20
150.7838328862519
 30
0.0
 10
114.8106388622796
 20
149.0909118479895
 30
0.0
 10
114.3186789024427
 20
145.9191825971221
 30
0.0
 10
112.6164561002338
 20
140.9489400617108
 30
0.0
 10
110.6444821435766
 20
135.1746117095912
 30
0.0
 10
109.4669477299053
 20
132.8960240524753
 30
0.0
 10
108.5212683953448
 20
131.9072809959403
 30
0.0
 10
106.7346406980658
 20
130.0538184021569
 30
0.0
 10
104.8222669326213
 20
130.2336525051225
 30
0.0
 10
104.5408024457958
 20
130.2336525051225
 30
0.0
 10
104.1721769856939
 20
130.2336525051225
 30
0.0
 10
101.6465758193322
 20
130.6305277668397
 30
0.0
 10
101.6420971922469
 20
132.8388354296931
 30
0.0
  0
SPLINE
  5
3C6
330
3BD
100
AcDbEntity
  8
レイヤー 1
370
     0
100
AcDbSpline
210
0.0
220
0.0
230
1.0
 70
    11
 71
     3
 72
    32
 73
    28
 74
     0
 42
0.000000001
 43
0.0000000001
 40
0.0
 40
0.0
 40
0.0
 40
0.0
 40
1.0
 40
1.0
 40
1.0
 40
2.0
 40
2.0
 40
2.0
 40
3.0
 40
3.0
 40
3.0
 40
4.0
 40
4.0
 40
4.0
 40
5.0
 40
5.0
 40
5.0
 40
6.0
 40
6.0
 40
6.0
 40
7.0
 40
7.0
 40
7.0
 40
8.0
 40
8.0
 40
8.0
 40
9.0
 40
9.0
 40
9.0
 40
9.0
 10
106.2595617172429
 20
153.4105476718098
 30
0.0
 10
104.8222669326213
 20
151.5474388043041
 30
0.0
 10
103.7177685914188
 20
149.8758773721411
 30
0.0
 10
101.9232171692965
 20
144.6141795664062
 30
0.0
 10
100.2754269116635
 20
139.7999999594306
 30
0.0
 10
99.22777268346732
 20
136.3052927937542
 30
0.0
 10
99.06964269637689
 20
132.039572749846
 30
0.0
 10
98.94665270641765
 20
128.8673267343149
 30
0.0
 10
100.8807305877373
 20
127.8027915271048
 30
0.0
 10
103.7129454545577
 20
127.8027915271048
 30
0.0
 10
104.9352661390825
 20
127.8027915271048
 30
0.0
 10
108.0151835347002
 20
127.8827177950895
 30
0.0
 10
110.2045431598849
 20
130.5926316915021
 30
0.0
 10
111.7417457794874
 20
132.4984597712065
 30
0.0
 10
113.155269389579
 20
134.475256864725
 30
0.0
 10
115.0562743324223
 20
140.9489400617108
 30
0.0
 10
116.6361961642235
 20
146.3680788349845
 30
0.0
 10
117.7282921534974
 20
149.8639917848761
 30
0.0
 10
117.6480213757369
 20
151.8595646611754
 30
0.0
 10
117.6480213757369
 20
151.8595646611754
 30
0.0
 10
117.6480213757369
 20
151.8595646611754
 30
0.0
 10
117.6480213757369
 20
151.8595646611754
 30
0.0
 10
117.13229024137
 20
155.18150017429
 30
0.0
 10
114.7162431837115
 20
155.886194920681
 30
0.0
 10
113.3351034925446
 20
155.886194920681
 30
0.0
 10
111.9829026225447
 20
155.886194920681
 30
0.0
 10
108.3414342923792
 20
156.1251124501957
 30
0.0
 10
106.2595617172429
 20
153.4105476718098
 30
0.0
  0
HATCH
  5
3C7
330
3BD
100
AcDbEntity
  8
レイヤー 1
 62
   250
420
  2234388
100
AcDbHatch
 10
0.0
 20
0.0
 30
0.0
210
0.0
220
0.0
230
1.0
  2
SOLID
 70
     1
 71
     0
 91
        2
 92
        1
 93
        1
 72
     4
 94
        3
 73
     0
 74
     1
 95
       29
 96
       25
 40
0.0
 40
0.0
 40
0.0
 40
0.0
 40
1.0
 40
1.0
 40
1.0
 40
2.0
 40
2.0
 40
2.0
 40
3.0
 40
3.0
 40
3.0
 40
4.0
 40
4.0
 40
4.0
 40
5.0
 40
5.0
 40
5.0
 40
6.0
 40
6.0
 40
6.0
 40
7.0
 40
7.0
 40
7.0
 40
8.0
 40
8.0
 40
8.0
 40
8.0
 10
101.6420971922469
 20
132.8388354296931
 10
101.630039350094
 20
134.7164137077823
 10
102.2236296937908
 20
138.0598810818841
 10
103.7487744712405
 20
142.5378191476827
 10
105.819967243327
 20
148.5896501242061
 10
107.0602024361932
 20
150.8074318058939
 10
108.1522984254671
 20
151.8833358357054
 10
109.741177511439
 20
153.4532668840085
 10
111.8740375333931
 20
153.5290590346837
 10
112.5075910110823
 20
153.4532668840085
 10
113.4012493694975
 20
153.3490526768302
 10
114.6683563248758
 20
152.7580461564518
 10
114.7493161221879
 20
150.7838328862519
 10
114.8106388622796
 20
149.0909118479895
 10
114.3186789024427
 20
145.9191825971221
 10
112.6164561002338
 20
140.9489400617108
 10
110.6444821435766
 20
135.1746117095912
 10
109.4669477299053
 20
132.8960240524753
 10
108.5212683953448
 20
131.9072809959403
 10
106.7346406980658
 20
130.0538184021569
 10
104.8222669326213
 20
130.2336525051225
 10
104.5408024457958
 20
130.2336525051225
 10
104.1721769856939
 20
130.2336525051225
 10
101.6465758193322
 20
130.6305277668397
 10
101.6420971922469
 20
132.8388354296931
 97
        0
 92
        1
 93
        1
 72
     4
 94
        3
 73
     0
 74
     1
 95
       32
 96
       28
 40
0.0
 40
0.0
 40
0.0
 40
0.0
 40
1.0
 40
1.0
 40
1.0
 40
2.0
 40
2.0
 40
2.0
 40
3.0
 40
3.0
 40
3.0
 40
4.0
 40
4.0
 40
4.0
 40
5.0
 40
5.0
 40
5.0
 40
6.0
 40
6.0
 40
6.0
 40
7.0
 40
7.0
 40
7.0
 40
8.0
 40
8.0
 40
8.0
 40
9.0
 40
9.0
 40
9.0
 40
9.0
 10
106.2595617172429
 20
153.4105476718098
 10
104.8222669326213
 20
151.5474388043041
 10
103.7177685914188
 20
149.8758773721411
 10
101.9232171692965
 20
144.6141795664062
 10
100.2754269116635
 20
139.7999999594306
 10
99.22777268346732
 20
136.3052927937542
 10
99.06964269637689
 20
132.039572749846
 10
98.94665270641765
 20
128.8673267343149
 10
100.8807305877373
 20
127.8027915271048
 10
103.7129454545577
 20
127.8027915271048
 10
104.9352661390825
 20
127.8027915271048
 10
108.0151835347002
 20
127.8827177950895
 10
110.2045431598849
 20
130.5926316915021
 10
111.7417457794874
 20
132.4984597712065
 10
113.155269389579
 20
134.475256864725
 10
115.0562743324223
 20
140.9489400617108
 10
116.6361961642235
 20
146.3680788349845
 10
117.7282921534974
 20
149.8639917848761
 10
117.6480213757369
 20
151.8595646611754
 10
117.6480213757369
 20
151.8595646611754
 10
117.6480213757369
 20
151.8595646611754
 10
117.6480213757369
 20
151.8595646611754
 10
117.13229024137
 20
155.18150017429
 10
114.7162431837115
 20
155.886194920681
 10
113.3351034925446
 20
155.886194920681
 10
111.9829026225447
 20
155.886194920681
 10
108.3414342923792
 20
156.1251124501957
 10
106.2595617172429
 20
153.4105476718098
 97
        0
 75
     2
 76
     1
 98
        0
  0
ENDBLK
  5
3C8
330
3BD
100
AcDbEntity
  8
0
100
AcDbBlockEnd
  0
BLOCK
  5
11F1
330
11F0
100
AcDbEntity
  8
0
100
AcDbBlockBegin
  2
BLOCK_2
 70
     0
 10
0.0
 20
0.0
 30
0.0
  3
BLOCK_2
  1
BLOCK_2
  0
ENDBLK
  5
11F2
330
11F0
100
AcDbEntity
  8
0
100
AcDbBlockEnd
  0
BLOCK
  5
38B7
330
38B6
100
AcDbEntity
  8
0
100
AcDbBlockBegin
  2
mobile_latù
 70
     0
 10
0.0
 20
0.0
 30
0.0
  3
mobile_latù
  1
mobile_latù
  0
ENDBLK
  5
38B8
330
38B6
100
AcDbEntity
  8
0
100
AcDbBlockEnd
  0
BLOCK
  5
436C
330
436B
100
AcDbEntity
  8
0
100
AcDbBlockBegin
  2
.TD_SECTION_1
 70
     0
 10
225818116096.0
 20
0.0
 30
0.0
  3
.TD_SECTION_1
  1
.TD_SECTION_1
  0
ENDBLK
  5
436D
330
436B
100
AcDbEntity
  8
0
100
AcDbBlockEnd
  0
BLOCK
  5
4370
330
436F
100
AcDbEntity
  8
0
100
AcDbBlockBegin
  2
.TD_SECTION_2
 70
     0
 10
225818181632.0
 20
0.0
 30
0.0
  3
.TD_SECTION_2
  1
.TD_SECTION_2
  0
ENDBLK
  5
4371
330
436F
100
AcDbEntity
  8
0
100
AcDbBlockEnd
  0
BLOCK
  5
6CEF
330
6CEE
100
AcDbEntity
  8
0
100
AcDbBlockBegin
  2
*D10
 70
     1
 10
0.0
 20
0.0
 30
0.0
  3
*D10
  1

  0
LINE
  5
6CF1
330
6CEE
100
AcDbEntity
  8
Dim
 62
     0
 48
0.5
370
    -2
100
AcDbLine
 10
941.6011926042947
 20
1121.049035296129
 30
0.0
 11
1012.663034324237
 21
1121.049035296129
 31
0.0
  0
LINE
  5
6CF2
330
6CEE
100
AcDbEntity
  8
Dim
 62
     0
 48
0.5
370
    -2
100
AcDbLine
 10
905.0100501516895
 20
980.0490282027673
 30
0.0
 11
1012.663034324237
 21
980.0490282027673
 31
0.0
  0
LINE
  5
6CF3
330
6CEE
100
AcDbEntity
  8
Dim
 62
     0
 48
0.5
370
    -2
100
AcDbLine
 10
1012.663034324237
 20
1111.049645647692
 30
0.0
 11
1012.663034324237
 21
990.0484178512048
 31
0.0
  0
INSERT
  5
6CF4
330
6CEE
100
AcDbEntity
  8
Dim
 62
     0
370
    -2
100
AcDbBlockReference
  2
_DOT
 10
1012.663034324237
 20
1121.049035296129
 30
0.0
 41
9.999389648437498
 42
9.999389648437498
 43
9.999389648437498
 50
90.0
  0
INSERT
  5
6CF5
330
6CEE
100
AcDbEntity
  8
Dim
 62
     0
370
    -2
100
AcDbBlockReference
  2
_DOT
 10
1012.663034324237
 20
980.0490282027673
 30
0.0
 41
9.999389648437498
 42
9.999389648437498
 43
9.999389648437498
 50
270.0
  0
MTEXT
  5
6CF6
330
6CEE
100
AcDbEntity
  8
Dim
 62
     0
100
AcDbMText
 10
990.4467257304868
 20
1050.549031749448
 30
0.0
 40
24.4326171875
 41
0.0
 46
0.0
 71
     5
 72
     1
  1
\A1;140
  7
ＭＳ ゴシック
 11
0.0
 21
1.0
 31
0.0
 73
     1
 44
1.0
  0
POINT
  5
6CF7
330
6CEE
100
AcDbEntity
  8
Defpoints
 62
     0
100
AcDbPoint
 10
916.6011926042947
 20
1121.049035296129
 30
0.0
  0
POINT
  5
6CF8
330
6CEE
100
AcDbEntity
  8
Defpoints
 62
     0
100
AcDbPoint
 10
880.0100501516895
 20
980.0490282027673
 30
0.0
  0
POINT
  5
6CF9
330
6CEE
100
AcDbEntity
  8
Defpoints
 62
     0
100
AcDbPoint
 10
1012.663034324237
 20
980.0490282027673
 30
0.0
  0
ENDBLK
  5
6CF0
330
6CEE
100
AcDbEntity
  8
0
100
AcDbBlockEnd
  0
BLOCK
  5
6D16
330
6D15
100
AcDbEntity
  8
0
100
AcDbBlockBegin
  2
*D11
 70
     1
 10
0.0
 20
0.0
 30
0.0
  3
*D11
  1

  0
LINE
  5
6D18
330
6D15
100
AcDbEntity
  8
Dim
 62
     0
 48
0.5
370
    -2
100
AcDbLine
 10
317.0223619695066
 20
2143.716924361881
 30
0.0
 11
317.0223619695066
 21
2337.300779804761
 31
0.0
  0
LINE
  5
6D19
330
6D15
100
AcDbEntity
  8
Dim
 62
     0
 48
0.5
370
    -2
100
AcDbLine
 10
917.0007707829827
 20
2139.897588424381
 30
0.0
 11
917.0007707829827
 21
2337.300779804761
 31
0.0
  0
LINE
  5
6D1A
330
6D15
100
AcDbEntity
  8
Dim
 62
     0
 48
0.5
370
    -2
100
AcDbLine
 10
327.0217516179441
 20
2337.300779804761
 30
0.0
 11
907.0013811345452
 21
2337.300779804761
 31
0.0
  0
INSERT
  5
6D1B
330
6D15
100
AcDbEntity
  8
Dim
 62
     0
370
    -2
100
AcDbBlockReference
  2
_DOT
 10
317.0223619695066
 20
2337.300779804761
 30
0.0
 41
9.999389648437498
 42
9.999389648437498
 43
9.999389648437498
 50
180.0
  0
INSERT
  5
6D1C
330
6D15
100
AcDbEntity
  8
Dim
 62
     0
370
    -2
100
AcDbBlockReference
  2
_DOT
 10
917.0007707829827
 20
2337.300779804761
 30
0.0
 41
9.999389648437498
 42
9.999389648437498
 43
9.999389648437498
  0
MTEXT
  5
6D1D
330
6D15
100
AcDbEntity
  8
Dim
 62
     0
100
AcDbMText
 10
617.0115663762449
 20
2359.517088398511
 30
0.0
 40
24.4326171875
 41
0.0
 46
0.0
 71
     5
 72
     1
  1
\A1;600
  7
ＭＳ ゴシック
 73
     1
 44
1.0
  0
POINT
  5
6D1E
330
6D15
100
AcDbEntity
  8
Defpoints
 62
     0
100
AcDbPoint
 10
317.0223619695066
 20
2118.716924361881
 30
0.0
  0
POINT
  5
6D1F
330
6D15
100
AcDbEntity
  8
Defpoints
 62
     0
100
AcDbPoint
 10
917.0007707829827
 20
2114.897588424381
 30
0.0
  0
POINT
  5
6D20
330
6D15
100
AcDbEntity
  8
Defpoints
 62
     0
100
AcDbPoint
 10
917.0007707829827
 20
2337.300779804761
 30
0.0
  0
ENDBLK
  5
6D17
330
6D15
100
AcDbEntity
  8
0
100
AcDbBlockEnd
  0
BLOCK
  5
6D23
330
6D22
100
AcDbEntity
  8
0
100
AcDbBlockBegin
  2
*D12
 70
     1
 10
0.0
 20
0.0
 30
0.0
  3
*D12
  1

  0
LINE
  5
6D25
330
6D22
100
AcDbEntity
  8
Dim
 62
     0
 48
0.5
370
    -2
100
AcDbLine
 10
761.3257836527628
 20
1834.302412323793
 30
0.0
 11
1044.212870775551
 21
1834.302412323793
 31
0.0
  0
LINE
  5
6D26
330
6D22
100
AcDbEntity
  8
Dim
 62
     0
 48
0.5
370
    -2
100
AcDbLine
 10
757.8222290927629
 20
2234.298750214417
 30
0.0
 11
1044.212870775551
 21
2234.298750214417
 31
0.0
  0
LINE
  5
6D27
330
6D22
100
AcDbEntity
  8
Dim
 62
     0
 48
0.5
370
    -2
100
AcDbLine
 10
1044.212870775551
 20
1844.30180197223
 30
0.0
 11
1044.212870775551
 21
2224.299360565979
 31
0.0
  0
INSERT
  5
6D28
330
6D22
100
AcDbEntity
  8
Dim
 62
     0
370
    -2
100
AcDbBlockReference
  2
_DOT
 10
1044.212870775551
 20
1834.302412323793
 30
0.0
 41
9.999389648437498
 42
9.999389648437498
 43
9.999389648437498
 50
270.0
  0
INSERT
  5
6D29
330
6D22
100
AcDbEntity
  8
Dim
 62
     0
370
    -2
100
AcDbBlockReference
  2
_DOT
 10
1044.212870775551
 20
2234.298750214417
 30
0.0
 41
9.999389648437498
 42
9.999389648437498
 43
9.999389648437498
 50
90.0
  0
MTEXT
  5
6D2A
330
6D22
100
AcDbEntity
  8
Dim
 62
     0
100
AcDbMText
 10
1021.996562181801
 20
2034.300581269104
 30
0.0
 40
24.4326171875
 41
0.0
 46
0.0
 71
     5
 72
     1
  1
\A1;400
  7
ＭＳ ゴシック
 11
0.0
 21
1.0
 31
0.0
 73
     1
 44
1.0
  0
POINT
  5
6D2B
330
6D22
100
AcDbEntity
  8
Defpoints
 62
     0
100
AcDbPoint
 10
736.3257836527628
 20
1834.302412323793
 30
0.0
  0
POINT
  5
6D2C
330
6D22
100
AcDbEntity
  8
Defpoints
 62
     0
100
AcDbPoint
 10
732.8222290927629
 20
2234.298750214417
 30
0.0
  0
POINT
  5
6D2D
330
6D22
100
AcDbEntity
  8
Defpoints
 62
     0
100
AcDbPoint
 10
1044.212870775551
 20
2234.298750214417
 30
0.0
  0
ENDBLK
  5
6D24
330
6D22
100
AcDbEntity
  8
0
100
AcDbBlockEnd
  0
BLOCK
  5
6D30
330
6D2F
100
AcDbEntity
  8
0
100
AcDbBlockBegin
  2
*D13
 70
     1
 10
0.0
 20
0.0
 30
0.0
  3
*D13
  1

  0
LINE
  5
6D32
330
6D2F
100
AcDbEntity
  8
Dim
 62
     0
 48
0.5
370
    -2
100
AcDbLine
 10
285.0278629359627
 20
2129.155897431215
 30
0.0
 11
193.7323004075506
 21
2129.155897431215
 31
0.0
  0
LINE
  5
6D33
330
6D2F
100
AcDbEntity
  8
Dim
 62
     0
 48
0.5
370
    -2
100
AcDbLine
 10
466.0769644527627
 20
2234.294447235901
 30
0.0
 11
193.7323004075506
 21
2234.294447235901
 31
0.0
  0
LINE
  5
6D34
330
6D2F
100
AcDbEntity
  8
Dim
 62
     0
 48
0.5
370
    -2
100
AcDbLine
 10
193.7323004075506
 20
2139.155287079652
 30
0.0
 11
193.7323004075506
 21
2224.295057587464
 31
0.0
  0
INSERT
  5
6D35
330
6D2F
100
AcDbEntity
  8
Dim
 62
     0
370
    -2
100
AcDbBlockReference
  2
_DOT
 10
193.7323004075506
 20
2129.155897431215
 30
0.0
 41
9.999389648437498
 42
9.999389648437498
 43
9.999389648437498
 50
270.0
  0
INSERT
  5
6D36
330
6D2F
100
AcDbEntity
  8
Dim
 62
     0
370
    -2
100
AcDbBlockReference
  2
_DOT
 10
193.7323004075506
 20
2234.294447235901
 30
0.0
 41
9.999389648437498
 42
9.999389648437498
 43
9.999389648437498
 50
90.0
  0
MTEXT
  5
6D37
330
6D2F
100
AcDbEntity
  8
Dim
 62
     0
100
AcDbMText
 10
171.5159918138006
 20
2181.725172333558
 30
0.0
 40
24.4326171875
 41
0.0
 46
0.0
 71
     5
 72
     1
  1
\A1;105
  7
ＭＳ ゴシック
 11
0.0
 21
1.0
 31
0.0
 73
     1
 44
1.0
  0
POINT
  5
6D38
330
6D2F
100
AcDbEntity
  8
Defpoints
 62
     0
100
AcDbPoint
 10
310.0278629359627
 20
2129.155897431215
 30
0.0
  0
POINT
  5
6D39
330
6D2F
100
AcDbEntity
  8
Defpoints
 62
     0
100
AcDbPoint
 10
491.0769644527627
 20
2234.294447235901
 30
0.0
  0
POINT
  5
6D3A
330
6D2F
100
AcDbEntity
  8
Defpoints
 62
     0
100
AcDbPoint
 10
193.7323004075506
 20
2234.294447235901
 30
0.0
  0
ENDBLK
  5
6D31
330
6D2F
100
AcDbEntity
  8
0
100
AcDbBlockEnd
  0
BLOCK
  5
6D3D
330
6D3C
100
AcDbEntity
  8
0
100
AcDbBlockBegin
  2
*D14
 70
     1
 10
0.0
 20
0.0
 30
0.0
  3
*D14
  1

  0
LINE
  5
6D3F
330
6D3C
100
AcDbEntity
  8
Dim
 62
     0
 48
0.5
370
    -2
100
AcDbLine
 10
1678.330595000524
 20
1140.638383321706
 30
0.0
 11
1678.330595000524
 21
1188.859892166241
 31
0.0
  0
LINE
  5
6D40
330
6D3C
100
AcDbEntity
  8
Dim
 62
     0
 48
0.5
370
    -2
100
AcDbLine
 10
1738.951246785693
 20
1141.082367405533
 30
0.0
 11
1738.951246785693
 21
1188.859892166241
 31
0.0
  0
LINE
  5
6D41
330
6D3C
100
AcDbEntity
  8
Dim
 62
     0
 48
0.5
370
    -2
100
AcDbLine
 10
1688.329984648961
 20
1188.859892166241
 30
0.0
 11
1728.951857137255
 21
1188.859892166241
 31
0.0
  0
INSERT
  5
6D42
330
6D3C
100
AcDbEntity
  8
Dim
 62
     0
370
    -2
100
AcDbBlockReference
  2
_DOT
 10
1678.330595000524
 20
1188.859892166241
 30
0.0
 41
9.999389648437498
 42
9.999389648437498
 43
9.999389648437498
 50
180.0
  0
INSERT
  5
6D43
330
6D3C
100
AcDbEntity
  8
Dim
 62
     0
370
    -2
100
AcDbBlockReference
  2
_DOT
 10
1738.951246785693
 20
1188.859892166241
 30
0.0
 41
9.999389648437498
 42
9.999389648437498
 43
9.999389648437498
  0
MTEXT
  5
6D44
330
6D3C
100
AcDbEntity
  8
Dim
 62
     0
100
AcDbMText
 10
1708.640920893108
 20
1211.076200759991
 30
0.0
 40
24.4326171875
 41
0.0
 46
0.0
 71
     5
 72
     1
  1
\A1;60
  7
ＭＳ ゴシック
 73
     1
 44
1.0
  0
POINT
  5
6D45
330
6D3C
100
AcDbEntity
  8
Defpoints
 62
     0
100
AcDbPoint
 10
1678.330595000524
 20
1115.638383321706
 30
0.0
  0
POINT
  5
6D46
330
6D3C
100
AcDbEntity
  8
Defpoints
 62
     0
100
AcDbPoint
 10
1738.951246785693
 20
1116.082367405533
 30
0.0
  0
POINT
  5
6D47
330
6D3C
100
AcDbEntity
  8
Defpoints
 62
     0
100
AcDbPoint
 10
1738.951246785693
 20
1188.859892166241
 30
0.0
  0
ENDBLK
  5
6D3E
330
6D3C
100
AcDbEntity
  8
0
100
AcDbBlockEnd
  0
BLOCK
  5
6D4A
330
6D49
100
AcDbEntity
  8
0
100
AcDbBlockBegin
  2
*D15
 70
     1
 10
0.0
 20
0.0
 30
0.0
  3
*D15
  1

  0
LINE
  5
6D4C
330
6D49
100
AcDbEntity
  8
Dim
 62
     0
 48
0.5
370
    -2
100
AcDbLine
 10
1538.954820617145
 20
873.8146243620813
 30
0.0
 11
1538.954820617145
 21
826.1544063422413
 31
0.0
  0
LINE
  5
6D4D
330
6D49
100
AcDbEntity
  8
Dim
 62
     0
 48
0.5
370
    -2
100
AcDbLine
 10
1738.951246785684
 20
1069.395302342242
 30
0.0
 11
1738.951246785684
 21
826.1544063422413
 31
0.0
  0
LINE
  5
6D4E
330
6D49
100
AcDbEntity
  8
Dim
 62
     0
 48
0.5
370
    -2
100
AcDbLine
 10
1548.954210265582
 20
826.1544063422413
 30
0.0
 11
1728.951857137246
 21
826.1544063422413
 31
0.0
  0
INSERT
  5
6D4F
330
6D49
100
AcDbEntity
  8
Dim
 62
     0
370
    -2
100
AcDbBlockReference
  2
_DOT
 10
1538.954820617145
 20
826.1544063422413
 30
0.0
 41
9.999389648437498
 42
9.999389648437498
 43
9.999389648437498
 50
180.0
  0
INSERT
  5
6D50
330
6D49
100
AcDbEntity
  8
Dim
 62
     0
370
    -2
100
AcDbBlockReference
  2
_DOT
 10
1738.951246785684
 20
826.1544063422413
 30
0.0
 41
9.999389648437498
 42
9.999389648437498
 43
9.999389648437498
  0
MTEXT
  5
6D51
330
6D49
100
AcDbEntity
  8
Dim
 62
     0
100
AcDbMText
 10
1638.953033701414
 20
848.3707149359913
 30
0.0
 40
24.4326171875
 41
0.0
 46
0.0
 71
     5
 72
     1
  1
\A1;200
  7
ＭＳ ゴシック
 73
     1
 44
1.0
  0
POINT
  5
6D52
330
6D49
100
AcDbEntity
  8
Defpoints
 62
     0
100
AcDbPoint
 10
1538.954820617145
 20
898.8146243620813
 30
0.0
  0
POINT
  5
6D53
330
6D49
100
AcDbEntity
  8
Defpoints
 62
     0
100
AcDbPoint
 10
1738.951246785684
 20
1094.395302342242
 30
0.0
  0
POINT
  5
6D54
330
6D49
100
AcDbEntity
  8
Defpoints
 62
     0
100
AcDbPoint
 10
1738.951246785684
 20
826.1544063422413
 30
0.0
  0
ENDBLK
  5
6D4B
330
6D49
100
AcDbEntity
  8
0
100
AcDbBlockEnd
  0
BLOCK
  5
6D57
330
6D56
100
AcDbEntity
  8
0
100
AcDbBlockBegin
  2
*D16
 70
     1
 10
0.0
 20
0.0
 30
0.0
  3
*D16
  1

  0
LINE
  5
6D59
330
6D56
100
AcDbEntity
  8
Dim
 62
     0
 48
0.5
370
    -2
100
AcDbLine
 10
1316.806227149663
 20
1041.048973633575
 30
0.0
 11
1233.567021462791
 21
1041.048973633579
 31
0.0
  0
LINE
  5
6D5A
330
6D56
100
AcDbEntity
  8
Dim
 62
     0
 48
0.5
370
    -2
100
AcDbLine
 10
1316.806227149674
 20
1121.048980195845
 30
0.0
 11
1233.567021462795
 21
1121.048980195849
 31
0.0
  0
LINE
  5
6D5B
330
6D56
100
AcDbEntity
  8
Dim
 62
     0
 48
0.5
370
    -2
100
AcDbLine
 10
1233.567021462791
 20
1051.048363282017
 30
0.0
 11
1233.567021462794
 21
1111.049590547412
 31
0.0
  0
INSERT
  5
6D5C
330
6D56
100
AcDbEntity
  8
Dim
 62
     0
370
    -2
100
AcDbBlockReference
  2
_DOT
 10
1233.567021462791
 20
1041.048973633579
 30
0.0
 41
9.999389648437498
 42
9.999389648437498
 43
9.999389648437498
 50
269.9999999999969
  0
INSERT
  5
6D5D
330
6D56
100
AcDbEntity
  8
Dim
 62
     0
370
    -2
100
AcDbBlockReference
  2
_DOT
 10
1233.567021462795
 20
1121.048980195849
 30
0.0
 41
9.999389648437498
 42
9.999389648437498
 43
9.999389648437498
 50
89.99999999999692
  0
MTEXT
  5
6D5E
330
6D56
100
AcDbEntity
  8
Dim
 62
     0
100
AcDbMText
 10
1211.350712869043
 20
1081.048976914715
 30
0.0
 40
24.4326171875
 41
0.0
 46
0.0
 71
     5
 72
     1
  1
\A1;80
  7
ＭＳ ゴシック
 11
5.400124348813331E-14
 21
1.0
 31
0.0
 73
     1
 44
1.0
  0
POINT
  5
6D5F
330
6D56
100
AcDbEntity
  8
Defpoints
 62
     0
100
AcDbPoint
 10
1341.806227149663
 20
1041.048973633573
 30
0.0
  0
POINT
  5
6D60
330
6D56
100
AcDbEntity
  8
Defpoints
 62
     0
100
AcDbPoint
 10
1341.806227149674
 20
1121.048980195844
 30
0.0
  0
POINT
  5
6D61
330
6D56
100
AcDbEntity
  8
Defpoints
 62
     0
100
AcDbPoint
 10
1233.567021462795
 20
1121.048980195849
 30
0.0
  0
ENDBLK
  5
6D58
330
6D56
100
AcDbEntity
  8
0
100
AcDbBlockEnd
  0
BLOCK
  5
6D64
330
6D63
100
AcDbEntity
  8
0
100
AcDbBlockBegin
  2
*D17
 70
     1
 10
0.0
 20
0.0
 30
0.0
  3
*D17
  1

  0
LINE
  5
6D66
330
6D63
100
AcDbEntity
  8
Dim
 62
     0
 48
0.5
370
    -2
100
AcDbLine
 10
1316.806227149663
 20
981.04897606247
 30
0.0
 11
1233.567021462792
 21
981.0489760624745
 31
0.0
  0
LINE
  5
6D67
330
6D63
100
AcDbEntity
  8
Dim
 62
     0
 48
0.5
370
    -2
100
AcDbLine
 10
1316.806227149663
 20
1041.048973633575
 30
0.0
 11
1233.567021462795
 21
1041.048973633579
 31
0.0
  0
LINE
  5
6D68
330
6D63
100
AcDbEntity
  8
Dim
 62
     0
 48
0.5
370
    -2
100
AcDbLine
 10
1233.567021462792
 20
991.048365710912
 30
0.0
 11
1233.567021462794
 21
1031.049583985142
 31
0.0
  0
INSERT
  5
6D69
330
6D63
100
AcDbEntity
  8
Dim
 62
     0
370
    -2
100
AcDbBlockReference
  2
_DOT
 10
1233.567021462792
 20
981.0489760624745
 30
0.0
 41
9.999389648437498
 42
9.999389648437498
 43
9.999389648437498
 50
269.999999999997
  0
INSERT
  5
6D6A
330
6D63
100
AcDbEntity
  8
Dim
 62
     0
370
    -2
100
AcDbBlockReference
  2
_DOT
 10
1233.567021462795
 20
1041.048973633579
 30
0.0
 41
9.999389648437498
 42
9.999389648437498
 43
9.999389648437498
 50
89.99999999999696
  0
MTEXT
  5
6D6B
330
6D63
100
AcDbEntity
  8
Dim
 62
     0
100
AcDbMText
 10
1211.350712869043
 20
1011.048974848028
 30
0.0
 40
24.4326171875
 41
0.0
 46
0.0
 71
     5
 72
     1
  1
\A1;60
  7
ＭＳ ゴシック
 11
5.305385975112533E-14
 21
1.0
 31
0.0
 73
     1
 44
1.0
  0
POINT
  5
6D6C
330
6D63
100
AcDbEntity
  8
Defpoints
 62
     0
100
AcDbPoint
 10
1341.806227149663
 20
981.0489760624687
 30
0.0
  0
POINT
  5
6D6D
330
6D63
100
AcDbEntity
  8
Defpoints
 62
     0
100
AcDbPoint
 10
1341.806227149663
 20
1041.048973633573
 30
0.0
  0
POINT
  5
6D6E
330
6D63
100
AcDbEntity
  8
Defpoints
 62
     0
100
AcDbPoint
 10
1233.567021462795
 20
1041.048973633579
 30
0.0
  0
ENDBLK
  5
6D65
330
6D63
100
AcDbEntity
  8
0
100
AcDbBlockEnd
  0
BLOCK
  5
6E04
330
6E03
100
AcDbEntity
  8
0
100
AcDbBlockBegin
  2
*D18
 70
     1
 10
0.0
 20
0.0
 30
0.0
  3
*D18
  1

  0
LINE
  5
6E06
330
6E03
100
AcDbEntity
  8
Dim
 62
     0
 48
0.5
370
    -2
100
AcDbLine
 10
1210.142806071069
 20
1935.40811693884
 30
0.0
 11
1210.142806071069
 21
1701.29622951448
 31
0.0
  0
LINE
  5
6E07
330
6E03
100
AcDbEntity
  8
Dim
 62
     0
 48
0.5
370
    -2
100
AcDbLine
 10
1764.010379754964
 20
1935.40811693884
 30
0.0
 11
1764.010379754964
 21
1701.29622951448
 31
0.0
  0
LINE
  5
6E08
330
6E03
100
AcDbEntity
  8
Dim
 62
     0
 48
0.5
370
    -2
100
AcDbLine
 10
1220.142195719506
 20
1701.29622951448
 30
0.0
 11
1754.010990106526
 21
1701.29622951448
 31
0.0
  0
INSERT
  5
6E09
330
6E03
100
AcDbEntity
  8
Dim
 62
     0
370
    -2
100
AcDbBlockReference
  2
_DOT
 10
1210.142806071069
 20
1701.29622951448
 30
0.0
 41
9.999389648437498
 42
9.999389648437498
 43
9.999389648437498
 50
180.0
  0
INSERT
  5
6E0A
330
6E03
100
AcDbEntity
  8
Dim
 62
     0
370
    -2
100
AcDbBlockReference
  2
_DOT
 10
1764.010379754964
 20
1701.29622951448
 30
0.0
 41
9.999389648437498
 42
9.999389648437498
 43
9.999389648437498
  0
MTEXT
  5
6E0B
330
6E03
100
AcDbEntity
  8
Dim
 62
     0
100
AcDbMText
 10
1487.076592913016
 20
1723.51253810823
 30
0.0
 40
24.4326171875
 41
0.0
 46
0.0
 71
     5
 72
     1
  1
\A1;555
  7
ＭＳ ゴシック
 73
     1
 44
1.0
  0
POINT
  5
6E0C
330
6E03
100
AcDbEntity
  8
Defpoints
 62
     0
100
AcDbPoint
 10
1210.142806071069
 20
1960.40811693884
 30
0.0
  0
POINT
  5
6E0D
330
6E03
100
AcDbEntity
  8
Defpoints
 62
     0
100
AcDbPoint
 10
1764.010379754964
 20
1960.40811693884
 30
0.0
  0
POINT
  5
6E0E
330
6E03
100
AcDbEntity
  8
Defpoints
 62
     0
100
AcDbPoint
 10
1764.010379754964
 20
1701.29622951448
 30
0.0
  0
ENDBLK
  5
6E05
330
6E03
100
AcDbEntity
  8
0
100
AcDbBlockEnd
  0
BLOCK
  5
6E10
330
6E0F
100
AcDbEntity
  8
0
100
AcDbBlockBegin
  2
*D19
 70
     1
 10
0.0
 20
0.0
 30
0.0
  3
*D19
  1

  0
LINE
  5
6E12
330
6E0F
100
AcDbEntity
  8
Dim
 62
     0
 48
0.5
370
    -2
100
AcDbLine
 10
1572.140566080834
 20
1971.347331147035
 30
0.0
 11
1852.039398724876
 21
1971.347331147035
 31
0.0
  0
LINE
  5
6E13
330
6E0F
100
AcDbEntity
  8
Dim
 62
     0
 48
0.5
370
    -2
100
AcDbLine
 10
1572.140566080834
 20
2211.31879308967
 30
0.0
 11
1852.039398724876
 21
2211.31879308967
 31
0.0
  0
LINE
  5
6E14
330
6E0F
100
AcDbEntity
  8
Dim
 62
     0
 48
0.5
370
    -2
100
AcDbLine
 10
1852.039398724876
 20
1981.346720795472
 30
0.0
 11
1852.039398724876
 21
2201.319403441233
 31
0.0
  0
INSERT
  5
6E15
330
6E0F
100
AcDbEntity
  8
Dim
 62
     0
370
    -2
100
AcDbBlockReference
  2
_DOT
 10
1852.039398724876
 20
1971.347331147035
 30
0.0
 41
9.999389648437498
 42
9.999389648437498
 43
9.999389648437498
 50
270.0
  0
INSERT
  5
6E16
330
6E0F
100
AcDbEntity
  8
Dim
 62
     0
370
    -2
100
AcDbBlockReference
  2
_DOT
 10
1852.039398724876
 20
2211.31879308967
 30
0.0
 41
9.999389648437498
 42
9.999389648437498
 43
9.999389648437498
 50
90.0
  0
MTEXT
  5
6E17
330
6E0F
100
AcDbEntity
  8
Dim
 62
     0
100
AcDbMText
 10
1829.823090131126
 20
2091.333062118352
 30
0.0
 40
24.4326171875
 41
0.0
 46
0.0
 71
     5
 72
     1
  1
\A1;240
  7
ＭＳ ゴシック
 11
0.0
 21
1.0
 31
0.0
 73
     1
 44
1.0
  0
POINT
  5
6E18
330
6E0F
100
AcDbEntity
  8
Defpoints
 62
     0
100
AcDbPoint
 10
1547.140566080834
 20
1971.347331147035
 30
0.0
  0
POINT
  5
6E19
330
6E0F
100
AcDbEntity
  8
Defpoints
 62
     0
100
AcDbPoint
 10
1547.140566080834
 20
2211.31879308967
 30
0.0
  0
POINT
  5
6E1A
330
6E0F
100
AcDbEntity
  8
Defpoints
 62
     0
100
AcDbPoint
 10
1852.039398724876
 20
2211.31879308967
 30
0.0
  0
ENDBLK
  5
6E11
330
6E0F
100
AcDbEntity
  8
0
100
AcDbBlockEnd
  0
BLOCK
  5
6E1C
330
6E1B
100
AcDbEntity
  8
0
100
AcDbBlockBegin
  2
*D20
 70
     1
 10
0.0
 20
0.0
 30
0.0
  3
*D20
  1

  0
LINE
  5
6E1E
330
6E1B
100
AcDbEntity
  8
Dim
 62
     0
 48
0.5
370
    -2
100
AcDbLine
 10
1427.240474528099
 20
2235.3314259667
 30
0.0
 11
1427.240474528099
 21
2295.216946386157
 31
0.0
  0
LINE
  5
6E1F
330
6E1B
100
AcDbEntity
  8
Dim
 62
     0
 48
0.5
370
    -2
100
AcDbLine
 10
1547.140566080834
 20
2235.3314259667
 30
0.0
 11
1547.140566080834
 21
2295.216946386157
 31
0.0
  0
LINE
  5
6E20
330
6E1B
100
AcDbEntity
  8
Dim
 62
     0
 48
0.5
370
    -2
100
AcDbLine
 10
1437.239864176536
 20
2295.216946386157
 30
0.0
 11
1537.141176432396
 21
2295.216946386157
 31
0.0
  0
INSERT
  5
6E21
330
6E1B
100
AcDbEntity
  8
Dim
 62
     0
370
    -2
100
AcDbBlockReference
  2
_DOT
 10
1427.240474528099
 20
2295.216946386157
 30
0.0
 41
9.999389648437498
 42
9.999389648437498
 43
9.999389648437498
 50
180.0
  0
INSERT
  5
6E22
330
6E1B
100
AcDbEntity
  8
Dim
 62
     0
370
    -2
100
AcDbBlockReference
  2
_DOT
 10
1547.140566080834
 20
2295.216946386157
 30
0.0
 41
9.999389648437498
 42
9.999389648437498
 43
9.999389648437498
  0
MTEXT
  5
6E23
330
6E1B
100
AcDbEntity
  8
Dim
 62
     0
100
AcDbMText
 10
1487.190520304466
 20
2317.433254979907
 30
0.0
 40
24.4326171875
 41
0.0
 46
0.0
 71
     5
 72
     1
  1
\A1;120
  7
ＭＳ ゴシック
 73
     1
 44
1.0
  0
POINT
  5
6E24
330
6E1B
100
AcDbEntity
  8
Defpoints
 62
     0
100
AcDbPoint
 10
1427.240474528099
 20
2210.3314259667
 30
0.0
  0
POINT
  5
6E25
330
6E1B
100
AcDbEntity
  8
Defpoints
 62
     0
100
AcDbPoint
 10
1547.140566080834
 20
2210.3314259667
 30
0.0
  0
POINT
  5
6E26
330
6E1B
100
AcDbEntity
  8
Defpoints
 62
     0
100
AcDbPoint
 10
1547.140566080834
 20
2295.216946386157
 30
0.0
  0
ENDBLK
  5
6E1D
330
6E1B
100
AcDbEntity
  8
0
100
AcDbBlockEnd
  0
BLOCK
  5
6E8B
330
6E8A
100
AcDbEntity
  8
0
100
AcDbBlockBegin
  2
*D21
 70
     1
 10
0.0
 20
0.0
 30
0.0
  3
*D21
  1

  0
LINE
  5
6E8D
330
6E8A
100
AcDbEntity
  8
Dim
 62
     0
 48
0.5
370
    -2
100
AcDbLine
 10
1727.162788848469
 20
1857.248991303285
 30
0.0
 11
1920.683611767551
 21
1857.248991303285
 31
0.0
  0
LINE
  5
6E8E
330
6E8A
100
AcDbEntity
  8
Dim
 62
     0
 48
0.5
370
    -2
100
AcDbLine
 10
1727.162788848469
 20
2211.346983246644
 30
0.0
 11
1920.683611767551
 21
2211.346983246644
 31
0.0
  0
LINE
  5
6E8F
330
6E8A
100
AcDbEntity
  8
Dim
 62
     0
 48
0.5
370
    -2
100
AcDbLine
 10
1920.683611767551
 20
1867.248380951722
 30
0.0
 11
1920.683611767551
 21
2201.347593598206
 31
0.0
  0
INSERT
  5
6E90
330
6E8A
100
AcDbEntity
  8
Dim
 62
     0
370
    -2
100
AcDbBlockReference
  2
_DOT
 10
1920.683611767551
 20
1857.248991303285
 30
0.0
 41
9.999389648437498
 42
9.999389648437498
 43
9.999389648437498
 50
270.0
  0
INSERT
  5
6E91
330
6E8A
100
AcDbEntity
  8
Dim
 62
     0
370
    -2
100
AcDbBlockReference
  2
_DOT
 10
1920.683611767551
 20
2211.346983246644
 30
0.0
 41
9.999389648437498
 42
9.999389648437498
 43
9.999389648437498
 50
90.0
  0
MTEXT
  5
6E92
330
6E8A
100
AcDbEntity
  8
Dim
 62
     0
100
AcDbMText
 10
1898.467303173801
 20
2034.297987274964
 30
0.0
 40
24.4326171875
 41
0.0
 46
0.0
 71
     5
 72
     1
  1
\A1;355
  7
ＭＳ ゴシック
 11
0.0
 21
1.0
 31
0.0
 73
     1
 44
1.0
  0
POINT
  5
6E93
330
6E8A
100
AcDbEntity
  8
Defpoints
 62
     0
100
AcDbPoint
 10
1702.162788848469
 20
1857.248991303285
 30
0.0
  0
POINT
  5
6E94
330
6E8A
100
AcDbEntity
  8
Defpoints
 62
     0
100
AcDbPoint
 10
1702.162788848469
 20
2211.346983246644
 30
0.0
  0
POINT
  5
6E95
330
6E8A
100
AcDbEntity
  8
Defpoints
 62
     0
100
AcDbPoint
 10
1920.683611767551
 20
2211.346983246644
 30
0.0
  0
ENDBLK
  5
6E8C
330
6E8A
100
AcDbEntity
  8
0
100
AcDbBlockEnd
  0
BLOCK
  5
6EBE
330
6EBD
100
AcDbEntity
  8
0
100
AcDbBlockBegin
  2
*D22
 70
     1
 10
0.0
 20
0.0
 30
0.0
  3
*D22
  1

  0
LINE
  5
6EC0
330
6EBD
100
AcDbEntity
  8
Dim
 62
     0
370
    -2
100
AcDbLine
 10
369.4866924106345
 20
956.9136320999377
 30
0.0
 11
369.4866924106345
 21
893.9043415527376
 31
0.0
  0
LINE
  5
6EC1
330
6EBD
100
AcDbEntity
  8
Dim
 62
     0
370
    -2
100
AcDbLine
 10
869.4866924106345
 20
956.9136320999376
 30
0.0
 11
869.4866924106345
 21
893.9043415527376
 31
0.0
  0
LINE
  5
6EC2
330
6EBD
100
AcDbEntity
  8
Dim
 62
     0
370
    -2
100
AcDbLine
 10
379.486082059072
 20
893.9043415527376
 30
0.0
 11
859.487302762197
 21
893.9043415527376
 31
0.0
  0
INSERT
  5
6EC3
330
6EBD
100
AcDbEntity
  8
Dim
 62
     0
370
    -2
100
AcDbBlockReference
  2
_DOT
 10
369.4866924106345
 20
893.9043415527376
 30
0.0
 41
9.999389648437498
 42
9.999389648437498
 43
9.999389648437498
 50
180.0
  0
INSERT
  5
6EC4
330
6EBD
100
AcDbEntity
  8
Dim
 62
     0
370
    -2
100
AcDbBlockReference
  2
_DOT
 10
869.4866924106345
 20
893.9043415527376
 30
0.0
 41
9.999389648437498
 42
9.999389648437498
 43
9.999389648437498
  0
MTEXT
  5
6EC5
330
6EBD
100
AcDbEntity
  8
Dim
 62
     0
100
AcDbMText
 10
619.4866924106345
 20
916.1206501464876
 30
0.0
 40
24.4326171875
 41
0.0
 46
0.0
 71
     5
 72
     1
  1
\A1;500
  7
ＭＳ ゴシック
 73
     1
 44
1.0
  0
POINT
  5
6EC6
330
6EBD
100
AcDbEntity
  8
Defpoints
 62
     0
100
AcDbPoint
 10
369.4866924106345
 20
981.9136320999377
 30
0.0
  0
POINT
  5
6EC7
330
6EBD
100
AcDbEntity
  8
Defpoints
 62
     0
100
AcDbPoint
 10
869.4866924106345
 20
981.9136320999376
 30
0.0
  0
POINT
  5
6EC8
330
6EBD
100
AcDbEntity
  8
Defpoints
 62
     0
100
AcDbPoint
 10
869.4866924106345
 20
893.9043415527376
 30
0.0
  0
ENDBLK
  5
6EBF
330
6EBD
100
AcDbEntity
  8
0
100
AcDbBlockEnd
  0
BLOCK
  5
6ECE
330
6ECD
100
AcDbEntity
  8
0
100
AcDbBlockBegin
  2
*D23
 70
     1
 10
0.0
 20
0.0
 30
0.0
  3
*D23
  1

  0
LINE
  5
6ED0
330
6ECD
100
AcDbEntity
  8
Dim
 62
     0
370
    -2
100
AcDbLine
 10
1388.955683393493
 20
953.5374244491213
 30
0.0
 11
1388.955683393493
 21
904.1960841662413
 31
0.0
  0
LINE
  5
6ED1
330
6ECD
100
AcDbEntity
  8
Dim
 62
     0
370
    -2
100
AcDbLine
 10
1688.955683393493
 20
953.5374244491213
 30
0.0
 11
1688.955683393493
 21
904.1960841662413
 31
0.0
  0
LINE
  5
6ED2
330
6ECD
100
AcDbEntity
  8
Dim
 62
     0
370
    -2
100
AcDbLine
 10
1398.955073041931
 20
904.1960841662413
 30
0.0
 11
1678.956293745056
 21
904.1960841662413
 31
0.0
  0
INSERT
  5
6ED3
330
6ECD
100
AcDbEntity
  8
Dim
 62
     0
370
    -2
100
AcDbBlockReference
  2
_DOT
 10
1388.955683393493
 20
904.1960841662413
 30
0.0
 41
9.999389648437498
 42
9.999389648437498
 43
9.999389648437498
 50
180.0
  0
INSERT
  5
6ED4
330
6ECD
100
AcDbEntity
  8
Dim
 62
     0
370
    -2
100
AcDbBlockReference
  2
_DOT
 10
1688.955683393493
 20
904.1960841662413
 30
0.0
 41
9.999389648437498
 42
9.999389648437498
 43
9.999389648437498
  0
MTEXT
  5
6ED5
330
6ECD
100
AcDbEntity
  8
Dim
 62
     0
100
AcDbMText
 10
1538.955683393493
 20
926.4123927599913
 30
0.0
 40
24.4326171875
 41
0.0
 46
0.0
 71
     5
 72
     1
  1
\A1;300
  7
ＭＳ ゴシック
 73
     1
 44
1.0
  0
POINT
  5
6ED6
330
6ECD
100
AcDbEntity
  8
Defpoints
 62
     0
100
AcDbPoint
 10
1388.955683393493
 20
978.5374244491213
 30
0.0
  0
POINT
  5
6ED7
330
6ECD
100
AcDbEntity
  8
Defpoints
 62
     0
100
AcDbPoint
 10
1688.955683393493
 20
978.5374244491213
 30
0.0
  0
POINT
  5
6ED8
330
6ECD
100
AcDbEntity
  8
Defpoints
 62
     0
100
AcDbPoint
 10
1688.955683393493
 20
904.1960841662413
 30
0.0
  0
ENDBLK
  5
6ECF
330
6ECD
100
AcDbEntity
  8
0
100
AcDbBlockEnd
  0
BLOCK
  5
6EDF
330
6EDE
100
AcDbEntity
  8
0
100
AcDbBlockBegin
  2
*D24
 70
     1
 10
0.0
 20
0.0
 30
0.0
  3
*D24
  1

  0
LINE
  5
6EE1
330
6EDE
100
AcDbEntity
  8
Dim
  6
Continuous
 62
     0
370
    -2
100
AcDbLine
 10
1526.101141510992
 20
1006.549066250114
 30
0.0
 11
1540.063042895733
 21
1006.549066250114
 31
0.0
  0
LINE
  5
6EE2
330
6EDE
100
AcDbEntity
  8
Dim
  6
Continuous
 62
     0
370
    -2
100
AcDbLine
 10
1526.101141427824
 20
1121.048965397794
 30
0.0
 11
1540.063042895733
 21
1121.048965397794
 31
0.0
  0
LINE
  5
6EE3
330
6EDE
100
AcDbEntity
  8
Dim
  6
Continuous
 62
     0
370
    -2
100
AcDbLine
 10
1540.063042895733
 20
1121.048965397794
 30
0.0
 11
1540.063042895733
 21
1295.406360926055
 31
0.0
  0
LINE
  5
6EE4
330
6EDE
100
AcDbEntity
  8
Dim
  6
Continuous
 62
     0
370
    -2
100
AcDbLine
 10
1540.063042895733
 20
1016.548455898551
 30
0.0
 11
1540.063042895733
 21
1111.049575749356
 31
0.0
  0
LINE
  5
6EE5
330
6EDE
100
AcDbEntity
  8
Dim
  6
Continuous
 62
     0
370
    -2
100
AcDbLine
 10
1540.063042895733
 20
1111.049575749356
 30
0.0
 11
1540.063042895733
 21
1101.050186100919
 31
0.0
  0
INSERT
  5
6EE6
330
6EDE
100
AcDbEntity
  8
Dim
 62
     0
370
    -2
100
AcDbBlockReference
  2
_DOT
 10
1540.063042895733
 20
1006.549066250114
 30
0.0
 41
9.999389648437498
 42
9.999389648437498
 43
9.999389648437498
 50
270.0
  0
INSERT
  5
6EE7
330
6EDE
100
AcDbEntity
  8
Dim
 62
     0
370
    -2
100
AcDbBlockReference
  2
_DOT
 10
1540.063042895733
 20
1121.048965397794
 30
0.0
 41
9.999389648437498
 42
9.999389648437498
 43
9.999389648437498
 50
90.0
  0
MTEXT
  5
6EE8
330
6EDE
100
AcDbEntity
  8
Dim
 62
     0
100
AcDbMText
 10
1515.684447680889
 20
1219.218400965118
 30
0.0
 40
24.4326171875
 41
0.0
 46
0.0
 71
     5
 72
     1
  1
\A1;105(深さ)
  7
ＭＳ ゴシック
 11
0.0
 21
1.0
 31
0.0
 73
     1
 44
1.0
  0
POINT
  5
6EE9
330
6EDE
100
AcDbEntity
  8
Defpoints
 62
     0
100
AcDbPoint
 10
1551.101141510992
 20
1006.549066250114
 30
0.0
  0
POINT
  5
6EEA
330
6EDE
100
AcDbEntity
  8
Defpoints
 62
     0
100
AcDbPoint
 10
1551.101141427824
 20
1121.048965397794
 30
0.0
  0
POINT
  5
6EEB
330
6EDE
100
AcDbEntity
  8
Defpoints
 62
     0
100
AcDbPoint
 10
1540.063042895733
 20
1121.048965397794
 30
0.0
  0
ENDBLK
  5
6EE0
330
6EDE
100
AcDbEntity
  8
0
100
AcDbBlockEnd
  0
BLOCK
  5
6F0C
330
6F0B
100
AcDbEntity
  8
0
100
AcDbBlockBegin
  2
*D25
 70
     1
 10
0.0
 20
0.0
 30
0.0
  3
*D25
  1

  0
LINE
  5
6F0E
330
6F0B
100
AcDbEntity
  8
Dim
 62
     0
370
    -2
100
AcDbLine
 10
285.0278629359627
 20
2129.155897431215
 30
0.0
 11
193.7323004075506
 21
2129.155897431215
 31
0.0
  0
LINE
  5
6F0F
330
6F0B
100
AcDbEntity
  8
Dim
 62
     0
370
    -2
100
AcDbLine
 10
495.2732524527637
 20
1834.155897431214
 30
0.0
 11
193.7323004075506
 21
1834.155897431214
 31
0.0
  0
LINE
  5
6F10
330
6F0B
100
AcDbEntity
  8
Dim
 62
     0
370
    -2
100
AcDbLine
 10
193.7323004075506
 20
2119.156507782777
 30
0.0
 11
193.7323004075506
 21
1844.155287079651
 31
0.0
  0
INSERT
  5
6F11
330
6F0B
100
AcDbEntity
  8
Dim
 62
     0
370
    -2
100
AcDbBlockReference
  2
_DOT
 10
193.7323004075506
 20
2129.155897431215
 30
0.0
 41
9.999389648437498
 42
9.999389648437498
 43
9.999389648437498
 50
90.0
  0
INSERT
  5
6F12
330
6F0B
100
AcDbEntity
  8
Dim
 62
     0
370
    -2
100
AcDbBlockReference
  2
_DOT
 10
193.7323004075506
 20
1834.155897431214
 30
0.0
 41
9.999389648437498
 42
9.999389648437498
 43
9.999389648437498
 50
270.0
  0
MTEXT
  5
6F13
330
6F0B
100
AcDbEntity
  8
Dim
 62
     0
100
AcDbMText
 10
171.5159918138006
 20
1981.655897431214
 30
0.0
 40
24.4326171875
 41
0.0
 46
0.0
 71
     5
 72
     1
  1
\A1;295
  7
ＭＳ ゴシック
 11
9.634477773018270E-17
 21
1.0
 31
0.0
 73
     1
 44
1.0
  0
POINT
  5
6F14
330
6F0B
100
AcDbEntity
  8
Defpoints
 62
     0
100
AcDbPoint
 10
310.0278629359627
 20
2129.155897431215
 30
0.0
  0
POINT
  5
6F15
330
6F0B
100
AcDbEntity
  8
Defpoints
 62
     0
100
AcDbPoint
 10
520.2732524527637
 20
1834.155897431214
 30
0.0
  0
POINT
  5
6F16
330
6F0B
100
AcDbEntity
  8
Defpoints
 62
     0
100
AcDbPoint
 10
193.7323004075506
 20
1834.155897431214
 30
0.0
  0
ENDBLK
  5
6F0D
330
6F0B
100
AcDbEntity
  8
0
100
AcDbBlockEnd
  0
BLOCK
  5
7321
330
7320
100
AcDbEntity
  8
0
100
AcDbBlockBegin
  2
*D26
 70
     1
 10
0.0
 20
0.0
 30
0.0
  3
*D26
  1

  0
LINE
  5
7323
330
7320
100
AcDbEntity
  8
Dim
 62
     0
370
    -2
100
AcDbLine
 10
529.3195806076105
 20
2218.512997544414
 30
0.0
 11
529.3195806076105
 21
2305.05256454858
 31
0.0
  0
LINE
  5
7324
330
7320
100
AcDbEntity
  8
Dim
 62
     0
370
    -2
100
AcDbLine
 10
629.3195806076105
 20
2217.512997544415
 30
0.0
 11
629.3195806076105
 21
2305.05256454858
 31
0.0
  0
LINE
  5
7325
330
7320
100
AcDbEntity
  8
Dim
 62
     0
370
    -2
100
AcDbLine
 10
539.318970256048
 20
2305.05256454858
 30
0.0
 11
619.320190959173
 21
2305.05256454858
 31
0.0
  0
INSERT
  5
7326
330
7320
100
AcDbEntity
  8
Dim
 62
     0
370
    -2
100
AcDbBlockReference
  2
_DOT
 10
529.3195806076105
 20
2305.05256454858
 30
0.0
 41
9.999389648437498
 42
9.999389648437498
 43
9.999389648437498
 50
180.0
  0
INSERT
  5
7327
330
7320
100
AcDbEntity
  8
Dim
 62
     0
370
    -2
100
AcDbBlockReference
  2
_DOT
 10
629.3195806076105
 20
2305.05256454858
 30
0.0
 41
9.999389648437498
 42
9.999389648437498
 43
9.999389648437498
  0
MTEXT
  5
7328
330
7320
100
AcDbEntity
  8
Dim
 62
     0
100
AcDbMText
 10
579.3195806076105
 20
2327.26887314233
 30
0.0
 40
24.4326171875
 41
0.0
 46
0.0
 71
     5
 72
     1
  1
\A1;100
  7
ＭＳ ゴシック
 73
     1
 44
1.0
  0
POINT
  5
7329
330
7320
100
AcDbEntity
  8
Defpoints
 62
     0
100
AcDbPoint
 10
529.3195806076105
 20
2193.512997544414
 30
0.0
  0
POINT
  5
732A
330
7320
100
AcDbEntity
  8
Defpoints
 62
     0
100
AcDbPoint
 10
629.3195806076105
 20
2192.512997544415
 30
0.0
  0
POINT
  5
732B
330
7320
100
AcDbEntity
  8
Defpoints
 62
     0
100
AcDbPoint
 10
629.3195806076105
 20
2305.05256454858
 30
0.0
  0
ENDBLK
  5
7322
330
7320
100
AcDbEntity
  8
0
100
AcDbBlockEnd
  0
BLOCK
  5
732E
330
732D
100
AcDbEntity
  8
0
100
AcDbBlockBegin
  2
*D27
 70
     1
 10
0.0
 20
0.0
 30
0.0
  3
*D27
  1

  0
LINE
  5
7330
330
732D
100
AcDbEntity
  8
Dim
 62
     0
370
    -2
100
AcDbLine
 10
629.3195806076105
 20
2218.512997544414
 30
0.0
 11
629.3195806076105
 21
2305.05256454858
 31
0.0
  0
LINE
  5
7331
330
732D
100
AcDbEntity
  8
Dim
 62
     0
370
    -2
100
AcDbLine
 10
729.3195806076105
 20
2218.512997544414
 30
0.0
 11
729.3195806076105
 21
2305.05256454858
 31
0.0
  0
LINE
  5
7332
330
732D
100
AcDbEntity
  8
Dim
 62
     0
370
    -2
100
AcDbLine
 10
639.318970256048
 20
2305.05256454858
 30
0.0
 11
719.320190959173
 21
2305.05256454858
 31
0.0
  0
INSERT
  5
7333
330
732D
100
AcDbEntity
  8
Dim
 62
     0
370
    -2
100
AcDbBlockReference
  2
_DOT
 10
629.3195806076105
 20
2305.05256454858
 30
0.0
 41
9.999389648437498
 42
9.999389648437498
 43
9.999389648437498
 50
180.0
  0
INSERT
  5
7334
330
732D
100
AcDbEntity
  8
Dim
 62
     0
370
    -2
100
AcDbBlockReference
  2
_DOT
 10
729.3195806076105
 20
2305.05256454858
 30
0.0
 41
9.999389648437498
 42
9.999389648437498
 43
9.999389648437498
  0
MTEXT
  5
7335
330
732D
100
AcDbEntity
  8
Dim
 62
     0
100
AcDbMText
 10
679.3195806076105
 20
2327.26887314233
 30
0.0
 40
24.4326171875
 41
0.0
 46
0.0
 71
     5
 72
     1
  1
\A1;100
  7
ＭＳ ゴシック
 73
     1
 44
1.0
  0
POINT
  5
7336
330
732D
100
AcDbEntity
  8
Defpoints
 62
     0
100
AcDbPoint
 10
629.3195806076105
 20
2193.512997544414
 30
0.0
  0
POINT
  5
7337
330
732D
100
AcDbEntity
  8
Defpoints
 62
     0
100
AcDbPoint
 10
729.3195806076105
 20
2193.512997544414
 30
0.0
  0
POINT
  5
7338
330
732D
100
AcDbEntity
  8
Defpoints
 62
     0
100
AcDbPoint
 10
729.3195806076105
 20
2305.05256454858
 30
0.0
  0
ENDBLK
  5
732F
330
732D
100
AcDbEntity
  8
0
100
AcDbBlockEnd
  0
BLOCK
  5
7355
330
7354
100
AcDbEntity
  8
0
100
AcDbBlockBegin
  2
*D28
 70
     1
 10
0.0
 20
0.0
 30
0.0
  3
*D28
  1

  0
LINE
  5
7357
330
7354
100
AcDbEntity
  8
Dim
 62
     0
370
    -2
100
AcDbLine
 10
229.3195806076105
 20
2235.012997544415
 30
0.0
 11
167.3055078723611
 21
2235.012997544415
 31
0.0
  0
LINE
  5
7358
330
7354
100
AcDbEntity
  8
Dim
 62
     0
370
    -2
100
AcDbLine
 10
309.3195806076105
 20
2090.012997544413
 30
0.0
 11
167.3055078723613
 21
2090.012997544413
 31
0.0
  0
LINE
  5
7359
330
7354
100
AcDbEntity
  8
Dim
 62
     0
370
    -2
100
AcDbLine
 10
167.3055078723611
 20
2225.013607895978
 30
0.0
 11
167.3055078723613
 21
2100.01238719285
 31
0.0
  0
INSERT
  5
735A
330
7354
100
AcDbEntity
  8
Dim
 62
     0
370
    -2
100
AcDbBlockReference
  2
_DOT
 10
167.3055078723611
 20
2235.012997544415
 30
0.0
 41
9.999389648437498
 42
9.999389648437498
 43
9.999389648437498
 50
90.00000000000009
  0
INSERT
  5
735B
330
7354
100
AcDbEntity
  8
Dim
 62
     0
370
    -2
100
AcDbBlockReference
  2
_DOT
 10
167.3055078723613
 20
2090.012997544413
 30
0.0
 41
9.999389648437498
 42
9.999389648437498
 43
9.999389648437498
 50
270.0000000000001
  0
MTEXT
  5
735C
330
7354
100
AcDbEntity
  8
Dim
 62
     0
100
AcDbMText
 10
145.0891992786112
 20
2162.512997544414
 30
0.0
 40
24.4326171875
 41
0.0
 46
0.0
 71
     5
 72
     1
  1
\A1;145
  7
ＭＳ ゴシック
 11
-1.764106102576773E-15
 21
1.0
 31
0.0
 73
     1
 44
1.0
  0
POINT
  5
735D
330
7354
100
AcDbEntity
  8
Defpoints
 62
     0
100
AcDbPoint
 10
254.3195806076105
 20
2235.012997544415
 30
0.0
  0
POINT
  5
735E
330
7354
100
AcDbEntity
  8
Defpoints
 62
     0
100
AcDbPoint
 10
334.3195806076105
 20
2090.012997544413
 30
0.0
  0
POINT
  5
735F
330
7354
100
AcDbEntity
  8
Defpoints
 62
     0
100
AcDbPoint
 10
167.3055078723613
 20
2090.012997544413
 30
0.0
  0
ENDBLK
  5
7356
330
7354
100
AcDbEntity
  8
0
100
AcDbBlockEnd
  0
BLOCK
  5
7362
330
7361
100
AcDbEntity
  8
0
100
AcDbBlockBegin
  2
*D29
 70
     1
 10
0.0
 20
0.0
 30
0.0
  3
*D29
  1

  0
LINE
  5
7364
330
7361
100
AcDbEntity
  8
Dim
 62
     0
370
    -2
100
AcDbLine
 10
309.3195806076105
 20
2090.012997544413
 30
0.0
 11
167.3055078723613
 21
2090.012997544413
 31
0.0
  0
LINE
  5
7365
330
7361
100
AcDbEntity
  8
Dim
 62
     0
370
    -2
100
AcDbLine
 10
309.1740451498504
 20
1780.012997544414
 30
0.0
 11
167.3055078723619
 21
1780.012997544414
 31
0.0
  0
LINE
  5
7366
330
7361
100
AcDbEntity
  8
Dim
 62
     0
370
    -2
100
AcDbLine
 10
167.3055078723614
 20
2080.013607895975
 30
0.0
 11
167.3055078723619
 21
1790.012387192851
 31
0.0
  0
INSERT
  5
7367
330
7361
100
AcDbEntity
  8
Dim
 62
     0
370
    -2
100
AcDbBlockReference
  2
_DOT
 10
167.3055078723613
 20
2090.012997544413
 30
0.0
 41
9.999389648437498
 42
9.999389648437498
 43
9.999389648437498
 50
90.00000000000009
  0
INSERT
  5
7368
330
7361
100
AcDbEntity
  8
Dim
 62
     0
370
    -2
100
AcDbBlockReference
  2
_DOT
 10
167.3055078723619
 20
1780.012997544414
 30
0.0
 41
9.999389648437498
 42
9.999389648437498
 43
9.999389648437498
 50
270.0000000000001
  0
MTEXT
  5
7369
330
7361
100
AcDbEntity
  8
Dim
 62
     0
100
AcDbMText
 10
145.0891992786116
 20
1935.012997544413
 30
0.0
 40
24.4326171875
 41
0.0
 46
0.0
 71
     5
 72
     1
  1
\A1;310
  7
ＭＳ ゴシック
 11
-1.741975739282830E-15
 21
1.0
 31
0.0
 73
     1
 44
1.0
  0
POINT
  5
736A
330
7361
100
AcDbEntity
  8
Defpoints
 62
     0
100
AcDbPoint
 10
334.3195806076105
 20
2090.012997544413
 30
0.0
  0
POINT
  5
736B
330
7361
100
AcDbEntity
  8
Defpoints
 62
     0
100
AcDbPoint
 10
334.1740451498504
 20
1780.012997544414
 30
0.0
  0
POINT
  5
736C
330
7361
100
AcDbEntity
  8
Defpoints
 62
     0
100
AcDbPoint
 10
167.3055078723619
 20
1780.012997544414
 30
0.0
  0
ENDBLK
  5
7363
330
7361
100
AcDbEntity
  8
0
100
AcDbBlockEnd
  0
BLOCK
  5
737D
330
737C
100
AcDbEntity
  8
0
100
AcDbBlockBegin
  2
*D30
 70
     1
 10
0.0
 20
0.0
 30
0.0
  3
*D30
  1

  0
LINE
  5
737F
330
737C
100
AcDbEntity
  8
Dim
 62
     0
370
    -2
100
AcDbLine
 10
254.3195806076105
 20
1755.294584974484
 30
0.0
 11
254.3195806076105
 21
1658.019181677169
 31
0.0
  0
LINE
  5
7380
330
737C
100
AcDbEntity
  8
Dim
 62
     0
370
    -2
100
AcDbLine
 10
334.3195806076105
 20
1755.294584974484
 30
0.0
 11
334.3195806076105
 21
1658.019181677169
 31
0.0
  0
LINE
  5
7381
330
737C
100
AcDbEntity
  8
Dim
 62
     0
370
    -2
100
AcDbLine
 10
264.318970256048
 20
1658.019181677169
 30
0.0
 11
324.320190959173
 21
1658.019181677169
 31
0.0
  0
INSERT
  5
7382
330
737C
100
AcDbEntity
  8
Dim
 62
     0
370
    -2
100
AcDbBlockReference
  2
_DOT
 10
254.3195806076105
 20
1658.019181677169
 30
0.0
 41
9.999389648437498
 42
9.999389648437498
 43
9.999389648437498
 50
180.0
  0
INSERT
  5
7383
330
737C
100
AcDbEntity
  8
Dim
 62
     0
370
    -2
100
AcDbBlockReference
  2
_DOT
 10
334.3195806076105
 20
1658.019181677169
 30
0.0
 41
9.999389648437498
 42
9.999389648437498
 43
9.999389648437498
  0
MTEXT
  5
7384
330
737C
100
AcDbEntity
  8
Dim
 62
     0
100
AcDbMText
 10
294.3195806076105
 20
1680.235490270919
 30
0.0
 40
24.4326171875
 41
0.0
 46
0.0
 71
     5
 72
     1
  1
\A1;80
  7
ＭＳ ゴシック
 73
     1
 44
1.0
  0
POINT
  5
7385
330
737C
100
AcDbEntity
  8
Defpoints
 62
     0
100
AcDbPoint
 10
254.3195806076105
 20
1780.294584974484
 30
0.0
  0
POINT
  5
7386
330
737C
100
AcDbEntity
  8
Defpoints
 62
     0
100
AcDbPoint
 10
334.3195806076105
 20
1780.294584974484
 30
0.0
  0
POINT
  5
7387
330
737C
100
AcDbEntity
  8
Defpoints
 62
     0
100
AcDbPoint
 10
334.3195806076105
 20
1658.019181677169
 30
0.0
  0
ENDBLK
  5
737E
330
737C
100
AcDbEntity
  8
0
100
AcDbBlockEnd
  0
BLOCK
  5
738A
330
7389
100
AcDbEntity
  8
0
100
AcDbBlockBegin
  2
*D31
 70
     1
 10
0.0
 20
0.0
 30
0.0
  3
*D31
  1

  0
LINE
  5
738C
330
7389
100
AcDbEntity
  8
Dim
 62
     0
370
    -2
100
AcDbLine
 10
334.3195806076105
 20
1755.294584974484
 30
0.0
 11
334.3195806076105
 21
1658.019181677169
 31
0.0
  0
LINE
  5
738D
330
7389
100
AcDbEntity
  8
Dim
 62
     0
370
    -2
100
AcDbLine
 10
924.3195806076105
 20
1755.294584974484
 30
0.0
 11
924.3195806076105
 21
1658.019181677169
 31
0.0
  0
LINE
  5
738E
330
7389
100
AcDbEntity
  8
Dim
 62
     0
370
    -2
100
AcDbLine
 10
344.318970256048
 20
1658.019181677169
 30
0.0
 11
914.320190959173
 21
1658.019181677169
 31
0.0
  0
INSERT
  5
738F
330
7389
100
AcDbEntity
  8
Dim
 62
     0
370
    -2
100
AcDbBlockReference
  2
_DOT
 10
334.3195806076105
 20
1658.019181677169
 30
0.0
 41
9.999389648437498
 42
9.999389648437498
 43
9.999389648437498
 50
180.0
  0
INSERT
  5
7390
330
7389
100
AcDbEntity
  8
Dim
 62
     0
370
    -2
100
AcDbBlockReference
  2
_DOT
 10
924.3195806076105
 20
1658.019181677169
 30
0.0
 41
9.999389648437498
 42
9.999389648437498
 43
9.999389648437498
  0
MTEXT
  5
7391
330
7389
100
AcDbEntity
  8
Dim
 62
     0
100
AcDbMText
 10
629.3195806076105
 20
1680.235490270919
 30
0.0
 40
24.4326171875
 41
0.0
 46
0.0
 71
     5
 72
     1
  1
\A1;590
  7
ＭＳ ゴシック
 73
     1
 44
1.0
  0
POINT
  5
7392
330
7389
100
AcDbEntity
  8
Defpoints
 62
     0
100
AcDbPoint
 10
334.3195806076105
 20
1780.294584974484
 30
0.0
  0
POINT
  5
7393
330
7389
100
AcDbEntity
  8
Defpoints
 62
     0
100
AcDbPoint
 10
924.3195806076105
 20
1780.294584974484
 30
0.0
  0
POINT
  5
7394
330
7389
100
AcDbEntity
  8
Defpoints
 62
     0
100
AcDbPoint
 10
924.3195806076105
 20
1658.019181677169
 30
0.0
  0
ENDBLK
  5
738B
330
7389
100
AcDbEntity
  8
0
100
AcDbBlockEnd
  0
BLOCK
  5
7397
330
7396
100
AcDbEntity
  8
0
100
AcDbBlockBegin
  2
*D32
 70
     1
 10
0.0
 20
0.0
 30
0.0
  3
*D32
  1

  0
LINE
  5
7399
330
7396
100
AcDbEntity
  8
Dim
 62
     0
370
    -2
100
AcDbLine
 10
924.3195806076105
 20
1755.294584974484
 30
0.0
 11
924.3195806076105
 21
1658.019181677169
 31
0.0
  0
LINE
  5
739A
330
7396
100
AcDbEntity
  8
Dim
 62
     0
370
    -2
100
AcDbLine
 10
1004.319580607611
 20
1755.294584974484
 30
0.0
 11
1004.319580607611
 21
1658.019181677169
 31
0.0
  0
LINE
  5
739B
330
7396
100
AcDbEntity
  8
Dim
 62
     0
370
    -2
100
AcDbLine
 10
934.318970256048
 20
1658.019181677169
 30
0.0
 11
994.320190959173
 21
1658.019181677169
 31
0.0
  0
INSERT
  5
739C
330
7396
100
AcDbEntity
  8
Dim
 62
     0
370
    -2
100
AcDbBlockReference
  2
_DOT
 10
924.3195806076105
 20
1658.019181677169
 30
0.0
 41
9.999389648437498
 42
9.999389648437498
 43
9.999389648437498
 50
180.0
  0
INSERT
  5
739D
330
7396
100
AcDbEntity
  8
Dim
 62
     0
370
    -2
100
AcDbBlockReference
  2
_DOT
 10
1004.319580607611
 20
1658.019181677169
 30
0.0
 41
9.999389648437498
 42
9.999389648437498
 43
9.999389648437498
  0
MTEXT
  5
739E
330
7396
100
AcDbEntity
  8
Dim
 62
     0
100
AcDbMText
 10
964.3195806076105
 20
1680.235490270919
 30
0.0
 40
24.4326171875
 41
0.0
 46
0.0
 71
     5
 72
     1
  1
\A1;80
  7
ＭＳ ゴシック
 73
     1
 44
1.0
  0
POINT
  5
739F
330
7396
100
AcDbEntity
  8
Defpoints
 62
     0
100
AcDbPoint
 10
924.3195806076105
 20
1780.294584974484
 30
0.0
  0
POINT
  5
73A0
330
7396
100
AcDbEntity
  8
Defpoints
 62
     0
100
AcDbPoint
 10
1004.319580607611
 20
1780.294584974484
 30
0.0
  0
POINT
  5
73A1
330
7396
100
AcDbEntity
  8
Defpoints
 62
     0
100
AcDbPoint
 10
1004.319580607611
 20
1658.019181677169
 30
0.0
  0
ENDBLK
  5
7398
330
7396
100
AcDbEntity
  8
0
100
AcDbBlockEnd
  0
BLOCK
  5
73A4
330
73A3
100
AcDbEntity
  8
0
100
AcDbBlockBegin
  2
*D33
 70
     1
 10
0.0
 20
0.0
 30
0.0
  3
*D33
  1

  0
LINE
  5
73A6
330
73A3
100
AcDbEntity
  8
Dim
 62
     0
370
    -2
100
AcDbLine
 10
254.3195806076114
 20
2271.502930344414
 30
0.0
 11
254.3195806076114
 21
2395.584869915449
 31
0.0
  0
LINE
  5
73A7
330
73A3
100
AcDbEntity
  8
Dim
 62
     0
370
    -2
100
AcDbLine
 10
1004.319580607611
 20
2271.502930344414
 30
0.0
 11
1004.319580607611
 21
2395.584869915449
 31
0.0
  0
LINE
  5
73A8
330
73A3
100
AcDbEntity
  8
Dim
 62
     0
370
    -2
100
AcDbLine
 10
264.3189702560489
 20
2395.584869915449
 30
0.0
 11
994.3201909591739
 21
2395.584869915449
 31
0.0
  0
INSERT
  5
73A9
330
73A3
100
AcDbEntity
  8
Dim
 62
     0
370
    -2
100
AcDbBlockReference
  2
_DOT
 10
254.3195806076114
 20
2395.584869915449
 30
0.0
 41
9.999389648437498
 42
9.999389648437498
 43
9.999389648437498
 50
180.0
  0
INSERT
  5
73AA
330
73A3
100
AcDbEntity
  8
Dim
 62
     0
370
    -2
100
AcDbBlockReference
  2
_DOT
 10
1004.319580607611
 20
2395.584869915449
 30
0.0
 41
9.999389648437498
 42
9.999389648437498
 43
9.999389648437498
  0
MTEXT
  5
73AB
330
73A3
100
AcDbEntity
  8
Dim
 62
     0
100
AcDbMText
 10
629.3195806076114
 20
2417.801178509199
 30
0.0
 40
24.4326171875
 41
0.0
 46
0.0
 71
     5
 72
     1
  1
\A1;750
  7
ＭＳ ゴシック
 73
     1
 44
1.0
  0
POINT
  5
73AC
330
73A3
100
AcDbEntity
  8
Defpoints
 62
     0
100
AcDbPoint
 10
254.3195806076114
 20
2246.502930344414
 30
0.0
  0
POINT
  5
73AD
330
73A3
100
AcDbEntity
  8
Defpoints
 62
     0
100
AcDbPoint
 10
1004.319580607611
 20
2246.502930344414
 30
0.0
  0
POINT
  5
73AE
330
73A3
100
AcDbEntity
  8
Defpoints
 62
     0
100
AcDbPoint
 10
1004.319580607611
 20
2395.584869915449
 30
0.0
  0
ENDBLK
  5
73A5
330
73A3
100
AcDbEntity
  8
0
100
AcDbBlockEnd
  0
BLOCK
  5
73BF
330
73BE
100
AcDbEntity
  8
0
100
AcDbBlockBegin
  2
*D34
 70
     1
 10
0.0
 20
0.0
 30
0.0
  3
*D34
  1

  0
LINE
  5
73C1
330
73BE
100
AcDbEntity
  8
Dim
 62
     0
370
    -2
100
AcDbLine
 10
1363.172420960001
 20
964.9475084827355
 30
0.0
 11
1308.841175221272
 21
964.9475084827355
 31
0.0
  0
LINE
  5
73C2
330
73BE
100
AcDbEntity
  8
Dim
 62
     0
370
    -2
100
AcDbLine
 10
1366.013484501801
 20
824.9475084827354
 30
0.0
 11
1308.841175221272
 21
824.9475084827354
 31
0.0
  0
LINE
  5
73C3
330
73BE
100
AcDbEntity
  8
Dim
 62
     0
370
    -2
100
AcDbLine
 10
1308.841175221272
 20
954.948118834298
 30
0.0
 11
1308.841175221272
 21
834.9468981311729
 31
0.0
  0
INSERT
  5
73C4
330
73BE
100
AcDbEntity
  8
Dim
 62
     0
370
    -2
100
AcDbBlockReference
  2
_DOT
 10
1308.841175221272
 20
964.9475084827355
 30
0.0
 41
9.999389648437498
 42
9.999389648437498
 43
9.999389648437498
 50
90.0
  0
INSERT
  5
73C5
330
73BE
100
AcDbEntity
  8
Dim
 62
     0
370
    -2
100
AcDbBlockReference
  2
_DOT
 10
1308.841175221272
 20
824.9475084827354
 30
0.0
 41
9.999389648437498
 42
9.999389648437498
 43
9.999389648437498
 50
270.0
  0
MTEXT
  5
73C6
330
73BE
100
AcDbEntity
  8
Dim
 62
     0
100
AcDbMText
 10
1286.624866627522
 20
894.9475084827354
 30
0.0
 40
24.4326171875
 41
0.0
 46
0.0
 71
     5
 72
     1
  1
\A1;140
  7
ＭＳ ゴシック
 11
0.0
 21
1.0
 31
0.0
 73
     1
 44
1.0
  0
POINT
  5
73C7
330
73BE
100
AcDbEntity
  8
Defpoints
 62
     0
100
AcDbPoint
 10
1388.172420960001
 20
964.9475084827355
 30
0.0
  0
POINT
  5
73C8
330
73BE
100
AcDbEntity
  8
Defpoints
 62
     0
100
AcDbPoint
 10
1391.013484501801
 20
824.9475084827354
 30
0.0
  0
POINT
  5
73C9
330
73BE
100
AcDbEntity
  8
Defpoints
 62
     0
100
AcDbPoint
 10
1308.841175221272
 20
824.9475084827354
 30
0.0
  0
ENDBLK
  5
73C0
330
73BE
100
AcDbEntity
  8
0
100
AcDbBlockEnd
  0
BLOCK
  5
73F4
330
73F3
100
AcDbEntity
  8
0
100
AcDbBlockBegin
  2
*D35
 70
     1
 10
0.0
 20
0.0
 30
0.0
  3
*D35
  1

  0
LINE
  5
73F6
330
73F3
100
AcDbEntity
  8
Dim
 62
     0
370
    -2
100
AcDbLine
 10
254.3195806076105
 20
993.0185996827354
 30
0.0
 11
254.3195806076105
 21
1078.259872575008
 31
0.0
  0
LINE
  5
73F7
330
73F3
100
AcDbEntity
  8
Dim
 62
     0
370
    -2
100
AcDbLine
 10
1004.319580607611
 20
993.0185996827354
 30
0.0
 11
1004.319580607611
 21
1078.259872575008
 31
0.0
  0
LINE
  5
73F8
330
73F3
100
AcDbEntity
  8
Dim
 62
     0
370
    -2
100
AcDbLine
 10
264.318970256048
 20
1078.259872575008
 30
0.0
 11
994.320190959173
 21
1078.259872575008
 31
0.0
  0
INSERT
  5
73F9
330
73F3
100
AcDbEntity
  8
Dim
 62
     0
370
    -2
100
AcDbBlockReference
  2
_DOT
 10
254.3195806076105
 20
1078.259872575008
 30
0.0
 41
9.999389648437498
 42
9.999389648437498
 43
9.999389648437498
 50
180.0
  0
INSERT
  5
73FA
330
73F3
100
AcDbEntity
  8
Dim
 62
     0
370
    -2
100
AcDbBlockReference
  2
_DOT
 10
1004.319580607611
 20
1078.259872575008
 30
0.0
 41
9.999389648437498
 42
9.999389648437498
 43
9.999389648437498
  0
MTEXT
  5
73FB
330
73F3
100
AcDbEntity
  8
Dim
 62
     0
100
AcDbMText
 10
629.319580607611
 20
1100.476181168758
 30
0.0
 40
24.4326171875
 41
0.0
 46
0.0
 71
     5
 72
     1
  1
\A1;750
  7
ＭＳ ゴシック
 73
     1
 44
1.0
  0
POINT
  5
73FC
330
73F3
100
AcDbEntity
  8
Defpoints
 62
     0
100
AcDbPoint
 10
254.3195806076105
 20
968.0185996827354
 30
0.0
  0
POINT
  5
73FD
330
73F3
100
AcDbEntity
  8
Defpoints
 62
     0
100
AcDbPoint
 10
1004.319580607611
 20
968.0185996827354
 30
0.0
  0
POINT
  5
73FE
330
73F3
100
AcDbEntity
  8
Defpoints
 62
     0
100
AcDbPoint
 10
1004.319580607611
 20
1078.259872575008
 30
0.0
  0
ENDBLK
  5
73F5
330
73F3
100
AcDbEntity
  8
0
100
AcDbBlockEnd
  0
BLOCK
  5
7401
330
7400
100
AcDbEntity
  8
0
100
AcDbBlockBegin
  2
*D36
 70
     1
 10
0.0
 20
0.0
 30
0.0
  3
*D36
  1

  0
LINE
  5
7403
330
7400
100
AcDbEntity
  8
Dim
 62
     0
370
    -2
100
AcDbLine
 10
1024.236549567611
 20
964.9475084827358
 30
0.0
 11
1076.222971228723
 21
964.9475084827358
 31
0.0
  0
LINE
  5
7404
330
7400
100
AcDbEntity
  8
Dim
 62
     0
370
    -2
100
AcDbLine
 10
1024.236549567611
 20
824.9475084827355
 30
0.0
 11
1076.222971228723
 21
824.9475084827355
 31
0.0
  0
LINE
  5
7405
330
7400
100
AcDbEntity
  8
Dim
 62
     0
370
    -2
100
AcDbLine
 10
1076.222971228723
 20
954.9481188342983
 30
0.0
 11
1076.222971228723
 21
834.946898131173
 31
0.0
  0
INSERT
  5
7406
330
7400
100
AcDbEntity
  8
Dim
 62
     0
370
    -2
100
AcDbBlockReference
  2
_DOT
 10
1076.222971228723
 20
964.9475084827358
 30
0.0
 41
9.999389648437498
 42
9.999389648437498
 43
9.999389648437498
 50
90.0
  0
INSERT
  5
7407
330
7400
100
AcDbEntity
  8
Dim
 62
     0
370
    -2
100
AcDbBlockReference
  2
_DOT
 10
1076.222971228723
 20
824.9475084827355
 30
0.0
 41
9.999389648437498
 42
9.999389648437498
 43
9.999389648437498
 50
270.0
  0
MTEXT
  5
7408
330
7400
100
AcDbEntity
  8
Dim
 62
     0
100
AcDbMText
 10
1054.006662634973
 20
894.9475084827355
 30
0.0
 40
24.4326171875
 41
0.0
 46
0.0
 71
     5
 72
     1
  1
\A1;140
  7
ＭＳ ゴシック
 11
0.0
 21
1.0
 31
0.0
 73
     1
 44
1.0
  0
POINT
  5
7409
330
7400
100
AcDbEntity
  8
Defpoints
 62
     0
100
AcDbPoint
 10
999.2365495676108
 20
964.9475084827358
 30
0.0
  0
POINT
  5
740A
330
7400
100
AcDbEntity
  8
Defpoints
 62
     0
100
AcDbPoint
 10
999.2365495676108
 20
824.9475084827355
 30
0.0
  0
POINT
  5
740B
330
7400
100
AcDbEntity
  8
Defpoints
 62
     0
100
AcDbPoint
 10
1076.222971228723
 20
824.9475084827355
 30
0.0
  0
ENDBLK
  5
7402
330
7400
100
AcDbEntity
  8
0
100
AcDbBlockEnd
  0
BLOCK
  5
740E
330
740D
100
AcDbEntity
  8
0
100
AcDbBlockBegin
  2
*D37
 70
     1
 10
0.0
 20
0.0
 30
0.0
  3
*D37
  1

  0
LINE
  5
7410
330
740D
100
AcDbEntity
  8
Dim
 62
     0
370
    -2
100
AcDbLine
 10
1047.752019427047
 20
964.9475084827354
 30
0.0
 11
1140.454804828722
 21
964.9475084827354
 31
0.0
  0
LINE
  5
7411
330
740D
100
AcDbEntity
  8
Dim
 62
     0
370
    -2
100
AcDbLine
 10
699.5738270076095
 20
784.9475084827427
 30
0.0
 11
1140.454804828722
 21
784.9475084827427
 31
0.0
  0
LINE
  5
7412
330
740D
100
AcDbEntity
  8
Dim
 62
     0
370
    -2
100
AcDbLine
 10
1140.454804828722
 20
954.9481188342979
 30
0.0
 11
1140.454804828722
 21
794.9468981311802
 31
0.0
  0
INSERT
  5
7413
330
740D
100
AcDbEntity
  8
Dim
 62
     0
370
    -2
100
AcDbBlockReference
  2
_DOT
 10
1140.454804828722
 20
964.9475084827354
 30
0.0
 41
9.999389648437498
 42
9.999389648437498
 43
9.999389648437498
 50
90.0
  0
INSERT
  5
7414
330
740D
100
AcDbEntity
  8
Dim
 62
     0
370
    -2
100
AcDbBlockReference
  2
_DOT
 10
1140.454804828722
 20
784.9475084827427
 30
0.0
 41
9.999389648437498
 42
9.999389648437498
 43
9.999389648437498
 50
270.0
  0
MTEXT
  5
7415
330
740D
100
AcDbEntity
  8
Dim
 62
     0
100
AcDbMText
 10
1118.238496234972
 20
874.9475084827391
 30
0.0
 40
24.4326171875
 41
0.0
 46
0.0
 71
     5
 72
     1
  1
\A1;180
  7
ＭＳ ゴシック
 11
0.0
 21
1.0
 31
0.0
 73
     1
 44
1.0
  0
POINT
  5
7416
330
740D
100
AcDbEntity
  8
Defpoints
 62
     0
100
AcDbPoint
 10
1022.752019427047
 20
964.9475084827354
 30
0.0
  0
POINT
  5
7417
330
740D
100
AcDbEntity
  8
Defpoints
 62
     0
100
AcDbPoint
 10
674.5738270076095
 20
784.9475084827427
 30
0.0
  0
POINT
  5
7418
330
740D
100
AcDbEntity
  8
Defpoints
 62
     0
100
AcDbPoint
 10
1140.454804828722
 20
784.9475084827427
 30
0.0
  0
ENDBLK
  5
740F
330
740D
100
AcDbEntity
  8
0
100
AcDbBlockEnd
  0
BLOCK
  5
7638
330
7637
100
AcDbEntity
  8
0
100
AcDbBlockBegin
  2
*D38
 70
     1
 10
0.0
 20
0.0
 30
0.0
  3
*D38
  1

  0
LINE
  5
763A
330
7637
100
AcDbEntity
  8
Dim
 62
     0
370
    -2
100
AcDbLine
 10
229.3195806076114
 20
1780.012997544413
 30
0.0
 11
167.3055078723619
 21
1780.012997544413
 31
0.0
  0
LINE
  5
763B
330
7637
100
AcDbEntity
  8
Dim
 62
     0
370
    -2
100
AcDbLine
 10
276.4806370648575
 20
1735.012997544413
 30
0.0
 11
167.305507872362
 21
1735.012997544413
 31
0.0
  0
LINE
  5
763C
330
7637
100
AcDbEntity
  8
Dim
 62
     0
370
    -2
100
AcDbLine
 10
167.3055078723619
 20
1770.013607895975
 30
0.0
 11
167.3055078723619
 21
1745.01238719285
 31
0.0
  0
INSERT
  5
763D
330
7637
100
AcDbEntity
  8
Dim
 62
     0
370
    -2
100
AcDbBlockReference
  2
_DOT
 10
167.3055078723619
 20
1780.012997544413
 30
0.0
 41
9.999389648437498
 42
9.999389648437498
 43
9.999389648437498
 50
90.00000000000011
  0
INSERT
  5
763E
330
7637
100
AcDbEntity
  8
Dim
 62
     0
370
    -2
100
AcDbBlockReference
  2
_DOT
 10
167.305507872362
 20
1735.012997544413
 30
0.0
 41
9.999389648437498
 42
9.999389648437498
 43
9.999389648437498
 50
270.0000000000001
  0
MTEXT
  5
763F
330
7637
100
AcDbEntity
  8
Dim
 62
     0
100
AcDbMText
 10
145.0891992786119
 20
1757.512997544413
 30
0.0
 40
24.4326171875
 41
0.0
 46
0.0
 71
     5
 72
     1
  1
\A1;45
  7
ＭＳ ゴシック
 11
-1.894780628693600E-15
 21
1.0
 31
0.0
 73
     1
 44
1.0
  0
POINT
  5
7640
330
7637
100
AcDbEntity
  8
Defpoints
 62
     0
100
AcDbPoint
 10
254.3195806076114
 20
1780.012997544413
 30
0.0
  0
POINT
  5
7641
330
7637
100
AcDbEntity
  8
Defpoints
 62
     0
100
AcDbPoint
 10
301.4806370648575
 20
1735.012997544413
 30
0.0
  0
POINT
  5
7642
330
7637
100
AcDbEntity
  8
Defpoints
 62
     0
100
AcDbPoint
 10
167.305507872362
 20
1735.012997544413
 30
0.0
  0
ENDBLK
  5
7639
330
7637
100
AcDbEntity
  8
0
100
AcDbBlockEnd
  0
BLOCK
  5
7649
330
7648
100
AcDbEntity
  8
0
100
AcDbBlockBegin
  2
*D39
 70
     1
 10
0.0
 20
0.0
 30
0.0
  3
*D39
  1

  0
LINE
  5
764B
330
7648
100
AcDbEntity
  8
Dim
 62
     0
370
    -2
100
AcDbLine
 10
1327.160219432906
 20
949.9475084827354
 30
0.0
 11
1308.841175221272
 21
949.9475084827354
 31
0.0
  0
LINE
  5
764C
330
7648
100
AcDbEntity
  8
Dim
 62
     0
370
    -2
100
AcDbLine
 10
1346.753464090204
 20
964.9475084827354
 30
0.0
 11
1308.841175221272
 21
964.9475084827354
 31
0.0
  0
LINE
  5
764D
330
7648
100
AcDbEntity
  8
Dim
 62
     0
370
    -2
100
AcDbLine
 10
1308.841175221272
 20
959.9468981311729
 30
0.0
 11
1308.841175221272
 21
954.9481188342979
 31
0.0
  0
INSERT
  5
764E
330
7648
100
AcDbEntity
  8
Dim
 62
     0
370
    -2
100
AcDbBlockReference
  2
_DOT
 10
1308.841175221272
 20
949.9475084827354
 30
0.0
 41
9.999389648437498
 42
9.999389648437498
 43
9.999389648437498
 50
270.0
  0
INSERT
  5
764F
330
7648
100
AcDbEntity
  8
Dim
 62
     0
370
    -2
100
AcDbBlockReference
  2
_DOT
 10
1308.841175221272
 20
964.9475084827354
 30
0.0
 41
9.999389648437498
 42
9.999389648437498
 43
9.999389648437498
 50
90.0
  0
MTEXT
  5
7650
330
7648
100
AcDbEntity
  8
Dim
 62
     0
100
AcDbMText
 10
1286.624866627522
 20
957.4475084827354
 30
0.0
 40
24.4326171875
 41
0.0
 46
0.0
 71
     5
 72
     1
  1
\A1;15
  7
ＭＳ ゴシック
 11
0.0
 21
1.0
 31
0.0
 73
     1
 44
1.0
  0
POINT
  5
7651
330
7648
100
AcDbEntity
  8
Defpoints
 62
     0
100
AcDbPoint
 10
1352.160219432906
 20
949.9475084827354
 30
0.0
  0
POINT
  5
7652
330
7648
100
AcDbEntity
  8
Defpoints
 62
     0
100
AcDbPoint
 10
1371.753464090204
 20
964.9475084827354
 30
0.0
  0
POINT
  5
7653
330
7648
100
AcDbEntity
  8
Defpoints
 62
     0
100
AcDbPoint
 10
1308.841175221272
 20
964.9475084827354
 30
0.0
  0
ENDBLK
  5
764A
330
7648
100
AcDbEntity
  8
0
100
AcDbBlockEnd
  0
BLOCK
  5
765A
330
7659
100
AcDbEntity
  8
0
100
AcDbBlockBegin
  2
*D40
 70
     1
 10
0.0
 20
0.0
 30
0.0
  3
*D40
  1

  0
LINE
  5
765C
330
7659
100
AcDbEntity
  8
Dim
 62
     0
370
    -2
100
AcDbLine
 10
1341.013484501801
 20
824.9475084827354
 30
0.0
 11
1308.841175221272
 21
824.9475084827354
 31
0.0
  0
LINE
  5
765D
330
7659
100
AcDbEntity
  8
Dim
 62
     0
370
    -2
100
AcDbLine
 10
1590.750480997259
 20
784.9475084827354
 30
0.0
 11
1308.841175221272
 21
784.9475084827354
 31
0.0
  0
LINE
  5
765E
330
7659
100
AcDbEntity
  8
Dim
 62
     0
370
    -2
100
AcDbLine
 10
1308.841175221272
 20
814.9481188342979
 30
0.0
 11
1308.841175221272
 21
794.9468981311729
 31
0.0
  0
INSERT
  5
765F
330
7659
100
AcDbEntity
  8
Dim
 62
     0
370
    -2
100
AcDbBlockReference
  2
_DOT
 10
1308.841175221272
 20
824.9475084827354
 30
0.0
 41
9.999389648437498
 42
9.999389648437498
 43
9.999389648437498
 50
90.0
  0
INSERT
  5
7660
330
7659
100
AcDbEntity
  8
Dim
 62
     0
370
    -2
100
AcDbBlockReference
  2
_DOT
 10
1308.841175221272
 20
784.9475084827354
 30
0.0
 41
9.999389648437498
 42
9.999389648437498
 43
9.999389648437498
 50
270.0
  0
MTEXT
  5
7661
330
7659
100
AcDbEntity
  8
Dim
 62
     0
100
AcDbMText
 10
1286.624866627522
 20
804.9475084827354
 30
0.0
 40
24.4326171875
 41
0.0
 46
0.0
 71
     5
 72
     1
  1
\A1;40
  7
ＭＳ ゴシック
 11
0.0
 21
1.0
 31
0.0
 73
     1
 44
1.0
  0
POINT
  5
7662
330
7659
100
AcDbEntity
  8
Defpoints
 62
     0
100
AcDbPoint
 10
1366.013484501801
 20
824.9475084827354
 30
0.0
  0
POINT
  5
7663
330
7659
100
AcDbEntity
  8
Defpoints
 62
     0
100
AcDbPoint
 10
1615.750480997259
 20
784.9475084827354
 30
0.0
  0
POINT
  5
7664
330
7659
100
AcDbEntity
  8
Defpoints
 62
     0
100
AcDbPoint
 10
1308.841175221272
 20
784.9475084827354
 30
0.0
  0
ENDBLK
  5
765B
330
7659
100
AcDbEntity
  8
0
100
AcDbBlockEnd
  0
BLOCK
  5
7674
330
7673
100
AcDbEntity
  8
0
100
AcDbBlockBegin
  2
*D41
 70
     1
 10
0.0
 20
0.0
 30
0.0
  3
*D41
  1

  0
LINE
  5
7676
330
7673
100
AcDbEntity
  8
Dim
 62
     0
370
    -2
100
AcDbLine
 10
1026.57225260761
 20
2235.012997544415
 30
0.0
 11
1109.761684512364
 21
2235.012997544415
 31
0.0
  0
LINE
  5
7677
330
7673
100
AcDbEntity
  8
Dim
 62
     0
370
    -2
100
AcDbLine
 10
973.8948560992106
 20
1735.012997544414
 30
0.0
 11
1109.761684512362
 21
1735.012997544414
 31
0.0
  0
LINE
  5
7678
330
7673
100
AcDbEntity
  8
Dim
 62
     0
370
    -2
100
AcDbLine
 10
1109.761684512364
 20
2225.013607895977
 30
0.0
 11
1109.761684512362
 21
1745.012387192851
 31
0.0
  0
INSERT
  5
7679
330
7673
100
AcDbEntity
  8
Dim
 62
     0
370
    -2
100
AcDbBlockReference
  2
_DOT
 10
1109.761684512364
 20
2235.012997544415
 30
0.0
 41
9.999389648437498
 42
9.999389648437498
 43
9.999389648437498
 50
89.99999999999982
  0
INSERT
  5
767A
330
7673
100
AcDbEntity
  8
Dim
 62
     0
370
    -2
100
AcDbBlockReference
  2
_DOT
 10
1109.761684512362
 20
1735.012997544414
 30
0.0
 41
9.999389648437498
 42
9.999389648437498
 43
9.999389648437498
 50
269.9999999999998
  0
MTEXT
  5
767B
330
7673
100
AcDbEntity
  8
Dim
 62
     0
100
AcDbMText
 10
1087.545375918613
 20
1985.012997544413
 30
0.0
 40
24.4326171875
 41
0.0
 46
0.0
 71
     5
 72
     1
  1
\A1;500
  7
ＭＳ ゴシック
 11
3.637978807091707E-15
 21
1.0
 31
0.0
 73
     1
 44
1.0
  0
POINT
  5
767C
330
7673
100
AcDbEntity
  8
Defpoints
 62
     0
100
AcDbPoint
 10
1001.57225260761
 20
2235.012997544415
 30
0.0
  0
POINT
  5
767D
330
7673
100
AcDbEntity
  8
Defpoints
 62
     0
100
AcDbPoint
 10
948.8948560992106
 20
1735.012997544414
 30
0.0
  0
POINT
  5
767E
330
7673
100
AcDbEntity
  8
Defpoints
 62
     0
100
AcDbPoint
 10
1109.761684512362
 20
1735.012997544414
 30
0.0
  0
ENDBLK
  5
7675
330
7673
100
AcDbEntity
  8
0
100
AcDbBlockEnd
  0
BLOCK
  5
76CA
330
76C9
100
AcDbEntity
  8
0
100
AcDbBlockBegin
  2
*D42
 70
     1
 10
0.0
 20
0.0
 30
0.0
  3
*D42
  1

  0
LINE
  5
76CC
330
76C9
100
AcDbEntity
  8
Dim
 62
     0
370
    -2
100
AcDbLine
 10
1871.479263644538
 20
993.2530383387434
 30
0.0
 11
1871.479263644538
 21
1030.786979068729
 31
0.0
  0
LINE
  5
76CD
330
76C9
100
AcDbEntity
  8
Dim
 62
     0
370
    -2
100
AcDbLine
 10
1811.479263644538
 20
993.2530383387436
 30
0.0
 11
1811.479263644538
 21
1030.786979068729
 31
0.0
  0
LINE
  5
76CE
330
76C9
100
AcDbEntity
  8
Dim
 62
     0
370
    -2
100
AcDbLine
 10
1861.4798739961
 20
1030.786979068729
 30
0.0
 11
1821.478653292975
 21
1030.786979068729
 31
0.0
  0
INSERT
  5
76CF
330
76C9
100
AcDbEntity
  8
Dim
 62
     0
370
    -2
100
AcDbBlockReference
  2
_DOT
 10
1871.479263644538
 20
1030.786979068729
 30
0.0
 41
9.999389648437498
 42
9.999389648437498
 43
9.999389648437498
  0
INSERT
  5
76D0
330
76C9
100
AcDbEntity
  8
Dim
 62
     0
370
    -2
100
AcDbBlockReference
  2
_DOT
 10
1811.479263644538
 20
1030.786979068729
 30
0.0
 41
9.999389648437498
 42
9.999389648437498
 43
9.999389648437498
 50
180.0
  0
MTEXT
  5
76D1
330
76C9
100
AcDbEntity
  8
Dim
 62
     0
100
AcDbMText
 10
1841.479263644538
 20
1053.003287662479
 30
0.0
 40
24.4326171875
 41
0.0
 46
0.0
 71
     5
 72
     1
  1
\A1;60
  7
ＭＳ ゴシック
 73
     1
 44
1.0
  0
POINT
  5
76D2
330
76C9
100
AcDbEntity
  8
Defpoints
 62
     0
100
AcDbPoint
 10
1871.479263644538
 20
968.2530383387434
 30
0.0
  0
POINT
  5
76D3
330
76C9
100
AcDbEntity
  8
Defpoints
 62
     0
100
AcDbPoint
 10
1811.479263644538
 20
968.2530383387436
 30
0.0
  0
POINT
  5
76D4
330
76C9
100
AcDbEntity
  8
Defpoints
 62
     0
100
AcDbPoint
 10
1811.479263644538
 20
1030.786979068729
 30
0.0
  0
ENDBLK
  5
76CB
330
76C9
100
AcDbEntity
  8
0
100
AcDbBlockEnd
  0
BLOCK
  5
76E3
330
76E2
100
AcDbEntity
  8
0
100
AcDbBlockBegin
  2
*D43
 70
     1
 10
0.0
 20
0.0
 30
0.0
  3
*D43
  1

  0
LINE
  5
76E5
330
76E2
100
AcDbEntity
  8
Dim
 62
     0
370
    -2
100
AcDbLine
 10
1656.47926364454
 20
759.9475084827354
 30
0.0
 11
1656.47926364454
 21
688.6198854543825
 31
0.0
  0
LINE
  5
76E6
330
76E2
100
AcDbEntity
  8
Dim
 62
     0
370
    -2
100
AcDbLine
 10
1871.47926364454
 20
799.0063437962287
 30
0.0
 11
1871.47926364454
 21
688.6198854543825
 31
0.0
  0
LINE
  5
76E7
330
76E2
100
AcDbEntity
  8
Dim
 62
     0
370
    -2
100
AcDbLine
 10
1666.478653292977
 20
688.6198854543825
 30
0.0
 11
1861.479873996102
 21
688.6198854543825
 31
0.0
  0
INSERT
  5
76E8
330
76E2
100
AcDbEntity
  8
Dim
 62
     0
370
    -2
100
AcDbBlockReference
  2
_DOT
 10
1656.47926364454
 20
688.6198854543825
 30
0.0
 41
9.999389648437498
 42
9.999389648437498
 43
9.999389648437498
 50
180.0
  0
INSERT
  5
76E9
330
76E2
100
AcDbEntity
  8
Dim
 62
     0
370
    -2
100
AcDbBlockReference
  2
_DOT
 10
1871.47926364454
 20
688.6198854543825
 30
0.0
 41
9.999389648437498
 42
9.999389648437498
 43
9.999389648437498
  0
MTEXT
  5
76EA
330
76E2
100
AcDbEntity
  8
Dim
 62
     0
100
AcDbMText
 10
1763.97926364454
 20
710.8361940481325
 30
0.0
 40
24.4326171875
 41
0.0
 46
0.0
 71
     5
 72
     1
  1
\A1;215
  7
ＭＳ ゴシック
 73
     1
 44
1.0
  0
POINT
  5
76EB
330
76E2
100
AcDbEntity
  8
Defpoints
 62
     0
100
AcDbPoint
 10
1656.47926364454
 20
784.9475084827354
 30
0.0
  0
POINT
  5
76EC
330
76E2
100
AcDbEntity
  8
Defpoints
 62
     0
100
AcDbPoint
 10
1871.47926364454
 20
824.0063437962287
 30
0.0
  0
POINT
  5
76ED
330
76E2
100
AcDbEntity
  8
Defpoints
 62
     0
100
AcDbPoint
 10
1871.47926364454
 20
688.6198854543825
 30
0.0
  0
ENDBLK
  5
76E4
330
76E2
100
AcDbEntity
  8
0
100
AcDbBlockEnd
  0
BLOCK
  5
76F2
330
76F1
100
AcDbEntity
  8
0
100
AcDbBlockBegin
  2
*D44
 70
     1
 10
0.0
 20
0.0
 30
0.0
  3
*D44
  1

  0
LINE
  5
76F4
330
76F1
100
AcDbEntity
  8
Dim
 62
     0
370
    -2
100
AcDbLine
 10
1647.136202460722
 20
834.9475084827354
 30
0.0
 11
1654.384859356721
 21
834.9475084827354
 31
0.0
  0
LINE
  5
76F5
330
76F1
100
AcDbEntity
  8
Dim
 62
     0
370
    -2
100
AcDbLine
 10
1647.136202460722
 20
964.9475084827357
 30
0.0
 11
1654.384859356721
 21
964.9475084827357
 31
0.0
  0
LINE
  5
76F6
330
76F1
100
AcDbEntity
  8
Dim
 62
     0
370
    -2
100
AcDbLine
 10
1654.384859356721
 20
964.9475084827357
 30
0.0
 11
1654.384859356721
 21
1156.961058573166
 31
0.0
  0
LINE
  5
76F7
330
76F1
100
AcDbEntity
  8
Dim
 62
     0
370
    -2
100
AcDbLine
 10
1654.384859356721
 20
844.9468981311729
 30
0.0
 11
1654.384859356721
 21
954.9481188342982
 31
0.0
  0
LINE
  5
76F8
330
76F1
100
AcDbEntity
  8
Dim
 62
     0
370
    -2
100
AcDbLine
 10
1654.384859356721
 20
954.9481188342982
 30
0.0
 11
1654.384859356721
 21
944.9487291858607
 31
0.0
  0
INSERT
  5
76F9
330
76F1
100
AcDbEntity
  8
Dim
 62
     0
370
    -2
100
AcDbBlockReference
  2
_DOT
 10
1654.384859356721
 20
834.9475084827354
 30
0.0
 41
9.999389648437498
 42
9.999389648437498
 43
9.999389648437498
 50
270.0
  0
INSERT
  5
76FA
330
76F1
100
AcDbEntity
  8
Dim
 62
     0
370
    -2
100
AcDbBlockReference
  2
_DOT
 10
1654.384859356721
 20
964.9475084827357
 30
0.0
 41
9.999389648437498
 42
9.999389648437498
 43
9.999389648437498
 50
90.0
  0
MTEXT
  5
76FB
330
76F1
100
AcDbEntity
  8
Dim
 62
     0
100
AcDbMText
 10
1630.006264141878
 20
1080.773098612229
 30
0.0
 40
24.4326171875
 41
0.0
 46
0.0
 71
     5
 72
     1
  1
\A1;130(深さ)
  7
ＭＳ ゴシック
 11
0.0
 21
1.0
 31
0.0
 73
     1
 44
1.0
  0
POINT
  5
76FC
330
76F1
100
AcDbEntity
  8
Defpoints
 62
     0
100
AcDbPoint
 10
1672.136202460722
 20
834.9475084827354
 30
0.0
  0
POINT
  5
76FD
330
76F1
100
AcDbEntity
  8
Defpoints
 62
     0
100
AcDbPoint
 10
1672.136202460722
 20
964.9475084827357
 30
0.0
  0
POINT
  5
76FE
330
76F1
100
AcDbEntity
  8
Defpoints
 62
     0
100
AcDbPoint
 10
1654.384859356721
 20
964.9475084827357
 30
0.0
  0
ENDBLK
  5
76F3
330
76F1
100
AcDbEntity
  8
0
100
AcDbBlockEnd
  0
BLOCK
  5
7708
330
7707
100
AcDbEntity
  8
0
100
AcDbBlockBegin
  2
*D45
 70
     1
 10
0.0
 20
0.0
 30
0.0
  3
*D45
  1

  0
LINE
  5
770A
330
7707
100
AcDbEntity
  8
Dim
 62
     0
370
    -2
100
AcDbLine
 10
489.3195806076096
 20
937.049472385029
 30
0.0
 11
489.3195806076096
 21
1015.754687361029
 31
0.0
  0
LINE
  5
770B
330
7707
100
AcDbEntity
  8
Dim
 62
     0
370
    -2
100
AcDbLine
 10
769.3195806076096
 20
937.049472385029
 30
0.0
 11
769.3195806076096
 21
1015.754687361029
 31
0.0
  0
LINE
  5
770C
330
7707
100
AcDbEntity
  8
Dim
 62
     0
370
    -2
100
AcDbLine
 10
499.3189702560471
 20
1015.754687361029
 30
0.0
 11
759.3201909591721
 21
1015.754687361029
 31
0.0
  0
INSERT
  5
770D
330
7707
100
AcDbEntity
  8
Dim
 62
     0
370
    -2
100
AcDbBlockReference
  2
_DOT
 10
489.3195806076096
 20
1015.754687361029
 30
0.0
 41
9.999389648437498
 42
9.999389648437498
 43
9.999389648437498
 50
180.0
  0
INSERT
  5
770E
330
7707
100
AcDbEntity
  8
Dim
 62
     0
370
    -2
100
AcDbBlockReference
  2
_DOT
 10
769.3195806076096
 20
1015.754687361029
 30
0.0
 41
9.999389648437498
 42
9.999389648437498
 43
9.999389648437498
  0
MTEXT
  5
770F
330
7707
100
AcDbEntity
  8
Dim
 62
     0
100
AcDbMText
 10
629.3195806076096
 20
1037.970995954779
 30
0.0
 40
24.4326171875
 41
0.0
 46
0.0
 71
     5
 72
     1
  1
\A1;280
  7
ＭＳ ゴシック
 73
     1
 44
1.0
  0
POINT
  5
7710
330
7707
100
AcDbEntity
  8
Defpoints
 62
     0
100
AcDbPoint
 10
489.3195806076096
 20
912.049472385029
 30
0.0
  0
POINT
  5
7711
330
7707
100
AcDbEntity
  8
Defpoints
 62
     0
100
AcDbPoint
 10
769.3195806076096
 20
912.049472385029
 30
0.0
  0
POINT
  5
7712
330
7707
100
AcDbEntity
  8
Defpoints
 62
     0
100
AcDbPoint
 10
769.3195806076096
 20
1015.754687361029
 30
0.0
  0
ENDBLK
  5
7709
330
7707
100
AcDbEntity
  8
0
100
AcDbBlockEnd
  0
BLOCK
  5
7717
330
7716
100
AcDbEntity
  8
0
100
AcDbBlockBegin
  2
*D46
 70
     1
 10
0.0
 20
0.0
 30
0.0
  3
*D46
  1

  0
LINE
  5
7719
330
7716
100
AcDbEntity
  8
Dim
 62
     0
370
    -2
100
AcDbLine
 10
228.6712529080819
 20
964.9475084827359
 30
0.0
 11
185.7452713800176
 21
964.9475084827359
 31
0.0
  0
LINE
  5
771A
330
7716
100
AcDbEntity
  8
Dim
 62
     0
370
    -2
100
AcDbLine
 10
442.3136933405494
 20
904.9475084827361
 30
0.0
 11
185.7452713800176
 21
904.9475084827361
 31
0.0
  0
LINE
  5
771B
330
7716
100
AcDbEntity
  8
Dim
 62
     0
370
    -2
100
AcDbLine
 10
185.7452713800176
 20
954.9481188342984
 30
0.0
 11
185.7452713800176
 21
914.9468981311736
 31
0.0
  0
INSERT
  5
771C
330
7716
100
AcDbEntity
  8
Dim
 62
     0
370
    -2
100
AcDbBlockReference
  2
_DOT
 10
185.7452713800176
 20
964.9475084827359
 30
0.0
 41
9.999389648437498
 42
9.999389648437498
 43
9.999389648437498
 50
90.0
  0
INSERT
  5
771D
330
7716
100
AcDbEntity
  8
Dim
 62
     0
370
    -2
100
AcDbBlockReference
  2
_DOT
 10
185.7452713800176
 20
904.9475084827361
 30
0.0
 41
9.999389648437498
 42
9.999389648437498
 43
9.999389648437498
 50
270.0
  0
MTEXT
  5
771E
330
7716
100
AcDbEntity
  8
Dim
 62
     0
100
AcDbMText
 10
163.5289627862676
 20
934.947508482736
 30
0.0
 40
24.4326171875
 41
0.0
 46
0.0
 71
     5
 72
     1
  1
\A1;60
  7
ＭＳ ゴシック
 11
0.0
 21
1.0
 31
0.0
 73
     1
 44
1.0
  0
POINT
  5
771F
330
7716
100
AcDbEntity
  8
Defpoints
 62
     0
100
AcDbPoint
 10
253.6712529080819
 20
964.9475084827359
 30
0.0
  0
POINT
  5
7720
330
7716
100
AcDbEntity
  8
Defpoints
 62
     0
100
AcDbPoint
 10
467.3136933405494
 20
904.9475084827361
 30
0.0
  0
POINT
  5
7721
330
7716
100
AcDbEntity
  8
Defpoints
 62
     0
100
AcDbPoint
 10
185.7452713800176
 20
904.9475084827361
 30
0.0
  0
ENDBLK
  5
7718
330
7716
100
AcDbEntity
  8
0
100
AcDbBlockEnd
  0
BLOCK
  5
77C3
330
77C2
100
AcDbEntity
  8
0
100
AcDbBlockBegin
  2
*D47
 70
     1
 10
0.0
 20
0.0
 30
0.0
  3
*D47
  1

  0
LINE
  5
77C5
330
77C2
100
AcDbEntity
  8
Dim
 62
     0
370
    -2
100
AcDbLine
 10
4095.547080607609
 20
2274.200497544414
 30
0.0
 11
4095.547080607609
 21
2360.74006454858
 31
0.0
  0
LINE
  5
77C6
330
77C2
100
AcDbEntity
  8
Dim
 62
     0
370
    -2
100
AcDbLine
 10
4195.547080607609
 20
2273.200497544415
 30
0.0
 11
4195.547080607609
 21
2360.74006454858
 31
0.0
  0
LINE
  5
77C7
330
77C2
100
AcDbEntity
  8
Dim
 62
     0
370
    -2
100
AcDbLine
 10
4105.546470256047
 20
2360.74006454858
 30
0.0
 11
4185.547690959172
 21
2360.74006454858
 31
0.0
  0
INSERT
  5
77C8
330
77C2
100
AcDbEntity
  8
Dim
 62
     0
370
    -2
100
AcDbBlockReference
  2
_DOT
 10
4095.547080607609
 20
2360.74006454858
 30
0.0
 41
9.999389648437498
 42
9.999389648437498
 43
9.999389648437498
 50
180.0
  0
INSERT
  5
77C9
330
77C2
100
AcDbEntity
  8
Dim
 62
     0
370
    -2
100
AcDbBlockReference
  2
_DOT
 10
4195.547080607609
 20
2360.74006454858
 30
0.0
 41
9.999389648437498
 42
9.999389648437498
 43
9.999389648437498
  0
MTEXT
  5
77CA
330
77C2
100
AcDbEntity
  8
Dim
 62
     0
100
AcDbMText
 10
4145.547080607609
 20
2382.95637314233
 30
0.0
 40
24.4326171875
 41
0.0
 46
0.0
 71
     5
 72
     1
  1
\A1;100
  7
ＭＳ ゴシック
 73
     1
 44
1.0
  0
POINT
  5
77CB
330
77C2
100
AcDbEntity
  8
Defpoints
 62
     0
100
AcDbPoint
 10
4095.547080607609
 20
2249.200497544414
 30
0.0
  0
POINT
  5
77CC
330
77C2
100
AcDbEntity
  8
Defpoints
 62
     0
100
AcDbPoint
 10
4195.547080607609
 20
2248.200497544415
 30
0.0
  0
POINT
  5
77CD
330
77C2
100
AcDbEntity
  8
Defpoints
 62
     0
100
AcDbPoint
 10
4195.547080607609
 20
2360.74006454858
 30
0.0
  0
ENDBLK
  5
77C4
330
77C2
100
AcDbEntity
  8
0
100
AcDbBlockEnd
  0
BLOCK
  5
77CF
330
77CE
100
AcDbEntity
  8
0
100
AcDbBlockBegin
  2
*D48
 70
     1
 10
0.0
 20
0.0
 30
0.0
  3
*D48
  1

  0
LINE
  5
77D1
330
77CE
100
AcDbEntity
  8
Dim
 62
     0
370
    -2
100
AcDbLine
 10
4195.547080607609
 20
2274.200497544414
 30
0.0
 11
4195.547080607609
 21
2360.74006454858
 31
0.0
  0
LINE
  5
77D2
330
77CE
100
AcDbEntity
  8
Dim
 62
     0
370
    -2
100
AcDbLine
 10
4295.547080607609
 20
2274.200497544414
 30
0.0
 11
4295.547080607609
 21
2360.74006454858
 31
0.0
  0
LINE
  5
77D3
330
77CE
100
AcDbEntity
  8
Dim
 62
     0
370
    -2
100
AcDbLine
 10
4205.546470256047
 20
2360.74006454858
 30
0.0
 11
4285.547690959172
 21
2360.74006454858
 31
0.0
  0
INSERT
  5
77D4
330
77CE
100
AcDbEntity
  8
Dim
 62
     0
370
    -2
100
AcDbBlockReference
  2
_DOT
 10
4195.547080607609
 20
2360.74006454858
 30
0.0
 41
9.999389648437498
 42
9.999389648437498
 43
9.999389648437498
 50
180.0
  0
INSERT
  5
77D5
330
77CE
100
AcDbEntity
  8
Dim
 62
     0
370
    -2
100
AcDbBlockReference
  2
_DOT
 10
4295.547080607609
 20
2360.74006454858
 30
0.0
 41
9.999389648437498
 42
9.999389648437498
 43
9.999389648437498
  0
MTEXT
  5
77D6
330
77CE
100
AcDbEntity
  8
Dim
 62
     0
100
AcDbMText
 10
4245.547080607609
 20
2382.95637314233
 30
0.0
 40
24.4326171875
 41
0.0
 46
0.0
 71
     5
 72
     1
  1
\A1;100
  7
ＭＳ ゴシック
 73
     1
 44
1.0
  0
POINT
  5
77D7
330
77CE
100
AcDbEntity
  8
Defpoints
 62
     0
100
AcDbPoint
 10
4195.547080607609
 20
2249.200497544414
 30
0.0
  0
POINT
  5
77D8
330
77CE
100
AcDbEntity
  8
Defpoints
 62
     0
100
AcDbPoint
 10
4295.547080607609
 20
2249.200497544414
 30
0.0
  0
POINT
  5
77D9
330
77CE
100
AcDbEntity
  8
Defpoints
 62
     0
100
AcDbPoint
 10
4295.547080607609
 20
2360.74006454858
 30
0.0
  0
ENDBLK
  5
77D0
330
77CE
100
AcDbEntity
  8
0
100
AcDbBlockEnd
  0
BLOCK
  5
77DB
330
77DA
100
AcDbEntity
  8
0
100
AcDbBlockBegin
  2
*D49
 70
     1
 10
0.0
 20
0.0
 30
0.0
  3
*D49
  1

  0
LINE
  5
77DD
330
77DA
100
AcDbEntity
  8
Dim
 62
     0
370
    -2
100
AcDbLine
 10
3795.547080607609
 20
2290.700497544415
 30
0.0
 11
3690.614701948721
 21
2290.700497544415
 31
0.0
  0
LINE
  5
77DE
330
77DA
100
AcDbEntity
  8
Dim
 62
     0
370
    -2
100
AcDbLine
 10
3875.547080607609
 20
2145.700497544413
 30
0.0
 11
3690.614701948722
 21
2145.700497544413
 31
0.0
  0
LINE
  5
77DF
330
77DA
100
AcDbEntity
  8
Dim
 62
     0
370
    -2
100
AcDbLine
 10
3690.614701948721
 20
2280.701107895978
 30
0.0
 11
3690.614701948722
 21
2155.69988719285
 31
0.0
  0
INSERT
  5
77E0
330
77DA
100
AcDbEntity
  8
Dim
 62
     0
370
    -2
100
AcDbBlockReference
  2
_DOT
 10
3690.614701948721
 20
2290.700497544415
 30
0.0
 41
9.999389648437498
 42
9.999389648437498
 43
9.999389648437498
 50
90.00000000000018
  0
INSERT
  5
77E1
330
77DA
100
AcDbEntity
  8
Dim
 62
     0
370
    -2
100
AcDbBlockReference
  2
_DOT
 10
3690.614701948722
 20
2145.700497544413
 30
0.0
 41
9.999389648437498
 42
9.999389648437498
 43
9.999389648437498
 50
270.0000000000002
  0
MTEXT
  5
77E2
330
77DA
100
AcDbEntity
  8
Dim
 62
     0
100
AcDbMText
 10
3668.398393354972
 20
2218.200497544414
 30
0.0
 40
24.4326171875
 41
0.0
 46
0.0
 71
     5
 72
     1
  1
\A1;145
  7
ＭＳ ゴシック
 11
-3.136188626803151E-15
 21
1.0
 31
0.0
 73
     1
 44
1.0
  0
POINT
  5
77E3
330
77DA
100
AcDbEntity
  8
Defpoints
 62
     0
100
AcDbPoint
 10
3820.547080607609
 20
2290.700497544415
 30
0.0
  0
POINT
  5
77E4
330
77DA
100
AcDbEntity
  8
Defpoints
 62
     0
100
AcDbPoint
 10
3900.547080607609
 20
2145.700497544413
 30
0.0
  0
POINT
  5
77E5
330
77DA
100
AcDbEntity
  8
Defpoints
 62
     0
100
AcDbPoint
 10
3690.614701948722
 20
2145.700497544413
 30
0.0
  0
ENDBLK
  5
77DC
330
77DA
100
AcDbEntity
  8
0
100
AcDbBlockEnd
  0
BLOCK
  5
77E7
330
77E6
100
AcDbEntity
  8
0
100
AcDbBlockBegin
  2
*D50
 70
     1
 10
0.0
 20
0.0
 30
0.0
  3
*D50
  1

  0
LINE
  5
77E9
330
77E6
100
AcDbEntity
  8
Dim
 62
     0
370
    -2
100
AcDbLine
 10
3875.547080607609
 20
2145.700497544413
 30
0.0
 11
3690.614701948722
 21
2145.700497544413
 31
0.0
  0
LINE
  5
77EA
330
77E6
100
AcDbEntity
  8
Dim
 62
     0
370
    -2
100
AcDbLine
 10
3875.401545149849
 20
1835.700497544414
 30
0.0
 11
3690.614701948722
 21
1835.700497544413
 31
0.0
  0
LINE
  5
77EB
330
77E6
100
AcDbEntity
  8
Dim
 62
     0
370
    -2
100
AcDbLine
 10
3690.614701948722
 20
2135.701107895975
 30
0.0
 11
3690.614701948722
 21
1845.699887192851
 31
0.0
  0
INSERT
  5
77EC
330
77E6
100
AcDbEntity
  8
Dim
 62
     0
370
    -2
100
AcDbBlockReference
  2
_DOT
 10
3690.614701948722
 20
2145.700497544413
 30
0.0
 41
9.999389648437498
 42
9.999389648437498
 43
9.999389648437498
 50
90.00000000000009
  0
INSERT
  5
77ED
330
77E6
100
AcDbEntity
  8
Dim
 62
     0
370
    -2
100
AcDbBlockReference
  2
_DOT
 10
3690.614701948722
 20
1835.700497544413
 30
0.0
 41
9.999389648437498
 42
9.999389648437498
 43
9.999389648437498
 50
270.0000000000001
  0
MTEXT
  5
77EE
330
77E6
100
AcDbEntity
  8
Dim
 62
     0
100
AcDbMText
 10
3668.398393354972
 20
1990.700497544413
 30
0.0
 40
24.4326171875
 41
0.0
 46
0.0
 71
     5
 72
     1
  1
\A1;310
  7
ＭＳ ゴシック
 11
-1.466926938343435E-15
 21
1.0
 31
0.0
 73
     1
 44
1.0
  0
POINT
  5
77EF
330
77E6
100
AcDbEntity
  8
Defpoints
 62
     0
100
AcDbPoint
 10
3900.547080607609
 20
2145.700497544413
 30
0.0
  0
POINT
  5
77F0
330
77E6
100
AcDbEntity
  8
Defpoints
 62
     0
100
AcDbPoint
 10
3900.401545149849
 20
1835.700497544414
 30
0.0
  0
POINT
  5
77F1
330
77E6
100
AcDbEntity
  8
Defpoints
 62
     0
100
AcDbPoint
 10
3690.614701948722
 20
1835.700497544413
 30
0.0
  0
ENDBLK
  5
77E8
330
77E6
100
AcDbEntity
  8
0
100
AcDbBlockEnd
  0
BLOCK
  5
77F3
330
77F2
100
AcDbEntity
  8
0
100
AcDbBlockBegin
  2
*D51
 70
     1
 10
0.0
 20
0.0
 30
0.0
  3
*D51
  1

  0
LINE
  5
77F5
330
77F2
100
AcDbEntity
  8
Dim
 62
     0
370
    -2
100
AcDbLine
 10
3820.547080607609
 20
1817.522053486484
 30
0.0
 11
3820.547080607609
 21
1720.24665018917
 31
0.0
  0
LINE
  5
77F6
330
77F2
100
AcDbEntity
  8
Dim
 62
     0
370
    -2
100
AcDbLine
 10
3900.547080607609
 20
1817.522053486484
 30
0.0
 11
3900.547080607609
 21
1720.24665018917
 31
0.0
  0
LINE
  5
77F7
330
77F2
100
AcDbEntity
  8
Dim
 62
     0
370
    -2
100
AcDbLine
 10
3830.546470256047
 20
1720.24665018917
 30
0.0
 11
3890.547690959172
 21
1720.24665018917
 31
0.0
  0
INSERT
  5
77F8
330
77F2
100
AcDbEntity
  8
Dim
 62
     0
370
    -2
100
AcDbBlockReference
  2
_DOT
 10
3820.547080607609
 20
1720.24665018917
 30
0.0
 41
9.999389648437498
 42
9.999389648437498
 43
9.999389648437498
 50
180.0
  0
INSERT
  5
77F9
330
77F2
100
AcDbEntity
  8
Dim
 62
     0
370
    -2
100
AcDbBlockReference
  2
_DOT
 10
3900.547080607609
 20
1720.24665018917
 30
0.0
 41
9.999389648437498
 42
9.999389648437498
 43
9.999389648437498
  0
MTEXT
  5
77FA
330
77F2
100
AcDbEntity
  8
Dim
 62
     0
100
AcDbMText
 10
3860.547080607609
 20
1742.46295878292
 30
0.0
 40
24.4326171875
 41
0.0
 46
0.0
 71
     5
 72
     1
  1
\A1;80
  7
ＭＳ ゴシック
 73
     1
 44
1.0
  0
POINT
  5
77FB
330
77F2
100
AcDbEntity
  8
Defpoints
 62
     0
100
AcDbPoint
 10
3820.547080607609
 20
1842.522053486484
 30
0.0
  0
POINT
  5
77FC
330
77F2
100
AcDbEntity
  8
Defpoints
 62
     0
100
AcDbPoint
 10
3900.547080607609
 20
1842.522053486484
 30
0.0
  0
POINT
  5
77FD
330
77F2
100
AcDbEntity
  8
Defpoints
 62
     0
100
AcDbPoint
 10
3900.547080607609
 20
1720.24665018917
 30
0.0
  0
ENDBLK
  5
77F4
330
77F2
100
AcDbEntity
  8
0
100
AcDbBlockEnd
  0
BLOCK
  5
77FF
330
77FE
100
AcDbEntity
  8
0
100
AcDbBlockBegin
  2
*D52
 70
     1
 10
0.0
 20
0.0
 30
0.0
  3
*D52
  1

  0
LINE
  5
7801
330
77FE
100
AcDbEntity
  8
Dim
 62
     0
370
    -2
100
AcDbLine
 10
3900.547080607609
 20
1817.522053486484
 30
0.0
 11
3900.547080607609
 21
1720.24665018917
 31
0.0
  0
LINE
  5
7802
330
77FE
100
AcDbEntity
  8
Dim
 62
     0
370
    -2
100
AcDbLine
 10
4490.547080607609
 20
1817.522053486484
 30
0.0
 11
4490.547080607609
 21
1720.24665018917
 31
0.0
  0
LINE
  5
7803
330
77FE
100
AcDbEntity
  8
Dim
 62
     0
370
    -2
100
AcDbLine
 10
3910.546470256047
 20
1720.24665018917
 30
0.0
 11
4480.547690959172
 21
1720.24665018917
 31
0.0
  0
INSERT
  5
7804
330
77FE
100
AcDbEntity
  8
Dim
 62
     0
370
    -2
100
AcDbBlockReference
  2
_DOT
 10
3900.547080607609
 20
1720.24665018917
 30
0.0
 41
9.999389648437498
 42
9.999389648437498
 43
9.999389648437498
 50
180.0
  0
INSERT
  5
7805
330
77FE
100
AcDbEntity
  8
Dim
 62
     0
370
    -2
100
AcDbBlockReference
  2
_DOT
 10
4490.547080607609
 20
1720.24665018917
 30
0.0
 41
9.999389648437498
 42
9.999389648437498
 43
9.999389648437498
  0
MTEXT
  5
7806
330
77FE
100
AcDbEntity
  8
Dim
 62
     0
100
AcDbMText
 10
4195.547080607609
 20
1742.46295878292
 30
0.0
 40
24.4326171875
 41
0.0
 46
0.0
 71
     5
 72
     1
  1
\A1;590
  7
ＭＳ ゴシック
 73
     1
 44
1.0
  0
POINT
  5
7807
330
77FE
100
AcDbEntity
  8
Defpoints
 62
     0
100
AcDbPoint
 10
3900.547080607609
 20
1842.522053486484
 30
0.0
  0
POINT
  5
7808
330
77FE
100
AcDbEntity
  8
Defpoints
 62
     0
100
AcDbPoint
 10
4490.547080607609
 20
1842.522053486484
 30
0.0
  0
POINT
  5
7809
330
77FE
100
AcDbEntity
  8
Defpoints
 62
     0
100
AcDbPoint
 10
4490.547080607609
 20
1720.24665018917
 30
0.0
  0
ENDBLK
  5
7800
330
77FE
100
AcDbEntity
  8
0
100
AcDbBlockEnd
  0
BLOCK
  5
780B
330
780A
100
AcDbEntity
  8
0
100
AcDbBlockBegin
  2
*D53
 70
     1
 10
0.0
 20
0.0
 30
0.0
  3
*D53
  1

  0
LINE
  5
780D
330
780A
100
AcDbEntity
  8
Dim
 62
     0
370
    -2
100
AcDbLine
 10
4490.547080607609
 20
1817.522053486484
 30
0.0
 11
4490.547080607609
 21
1720.24665018917
 31
0.0
  0
LINE
  5
780E
330
780A
100
AcDbEntity
  8
Dim
 62
     0
370
    -2
100
AcDbLine
 10
4570.547080607609
 20
1817.522053486484
 30
0.0
 11
4570.547080607609
 21
1720.24665018917
 31
0.0
  0
LINE
  5
780F
330
780A
100
AcDbEntity
  8
Dim
 62
     0
370
    -2
100
AcDbLine
 10
4500.546470256047
 20
1720.24665018917
 30
0.0
 11
4560.547690959172
 21
1720.24665018917
 31
0.0
  0
INSERT
  5
7810
330
780A
100
AcDbEntity
  8
Dim
 62
     0
370
    -2
100
AcDbBlockReference
  2
_DOT
 10
4490.547080607609
 20
1720.24665018917
 30
0.0
 41
9.999389648437498
 42
9.999389648437498
 43
9.999389648437498
 50
180.0
  0
INSERT
  5
7811
330
780A
100
AcDbEntity
  8
Dim
 62
     0
370
    -2
100
AcDbBlockReference
  2
_DOT
 10
4570.547080607609
 20
1720.24665018917
 30
0.0
 41
9.999389648437498
 42
9.999389648437498
 43
9.999389648437498
  0
MTEXT
  5
7812
330
780A
100
AcDbEntity
  8
Dim
 62
     0
100
AcDbMText
 10
4530.547080607609
 20
1742.46295878292
 30
0.0
 40
24.4326171875
 41
0.0
 46
0.0
 71
     5
 72
     1
  1
\A1;80
  7
ＭＳ ゴシック
 73
     1
 44
1.0
  0
POINT
  5
7813
330
780A
100
AcDbEntity
  8
Defpoints
 62
     0
100
AcDbPoint
 10
4490.547080607609
 20
1842.522053486484
 30
0.0
  0
POINT
  5
7814
330
780A
100
AcDbEntity
  8
Defpoints
 62
     0
100
AcDbPoint
 10
4570.547080607609
 20
1842.522053486484
 30
0.0
  0
POINT
  5
7815
330
780A
100
AcDbEntity
  8
Defpoints
 62
     0
100
AcDbPoint
 10
4570.547080607609
 20
1720.24665018917
 30
0.0
  0
ENDBLK
  5
780C
330
780A
100
AcDbEntity
  8
0
100
AcDbBlockEnd
  0
BLOCK
  5
7817
330
7816
100
AcDbEntity
  8
0
100
AcDbBlockBegin
  2
*D54
 70
     1
 10
0.0
 20
0.0
 30
0.0
  3
*D54
  1

  0
LINE
  5
7819
330
7816
100
AcDbEntity
  8
Dim
 62
     0
370
    -2
100
AcDbLine
 10
3820.54708060761
 20
2327.190430344414
 30
0.0
 11
3820.54708060761
 21
2451.272369915449
 31
0.0
  0
LINE
  5
781A
330
7816
100
AcDbEntity
  8
Dim
 62
     0
370
    -2
100
AcDbLine
 10
4570.54708060761
 20
2327.190430344414
 30
0.0
 11
4570.54708060761
 21
2451.272369915449
 31
0.0
  0
LINE
  5
781B
330
7816
100
AcDbEntity
  8
Dim
 62
     0
370
    -2
100
AcDbLine
 10
3830.546470256048
 20
2451.272369915449
 30
0.0
 11
4560.547690959173
 21
2451.272369915449
 31
0.0
  0
INSERT
  5
781C
330
7816
100
AcDbEntity
  8
Dim
 62
     0
370
    -2
100
AcDbBlockReference
  2
_DOT
 10
3820.54708060761
 20
2451.272369915449
 30
0.0
 41
9.999389648437498
 42
9.999389648437498
 43
9.999389648437498
 50
180.0
  0
INSERT
  5
781D
330
7816
100
AcDbEntity
  8
Dim
 62
     0
370
    -2
100
AcDbBlockReference
  2
_DOT
 10
4570.54708060761
 20
2451.272369915449
 30
0.0
 41
9.999389648437498
 42
9.999389648437498
 43
9.999389648437498
  0
MTEXT
  5
781E
330
7816
100
AcDbEntity
  8
Dim
 62
     0
100
AcDbMText
 10
4195.54708060761
 20
2473.488678509199
 30
0.0
 40
24.4326171875
 41
0.0
 46
0.0
 71
     5
 72
     1
  1
\A1;750
  7
ＭＳ ゴシック
 73
     1
 44
1.0
  0
POINT
  5
781F
330
7816
100
AcDbEntity
  8
Defpoints
 62
     0
100
AcDbPoint
 10
3820.54708060761
 20
2302.190430344414
 30
0.0
  0
POINT
  5
7820
330
7816
100
AcDbEntity
  8
Defpoints
 62
     0
100
AcDbPoint
 10
4570.54708060761
 20
2302.190430344414
 30
0.0
  0
POINT
  5
7821
330
7816
100
AcDbEntity
  8
Defpoints
 62
     0
100
AcDbPoint
 10
4570.54708060761
 20
2451.272369915449
 30
0.0
  0
ENDBLK
  5
7818
330
7816
100
AcDbEntity
  8
0
100
AcDbBlockEnd
  0
BLOCK
  5
7823
330
7822
100
AcDbEntity
  8
0
100
AcDbBlockBegin
  2
*D55
 70
     1
 10
0.0
 20
0.0
 30
0.0
  3
*D55
  1

  0
LINE
  5
7825
330
7822
100
AcDbEntity
  8
Dim
 62
     0
370
    -2
100
AcDbLine
 10
3795.54708060761
 20
1835.700497544413
 30
0.0
 11
3690.614701948722
 21
1835.700497544413
 31
0.0
  0
LINE
  5
7826
330
7822
100
AcDbEntity
  8
Dim
 62
     0
370
    -2
100
AcDbLine
 10
3842.708137064856
 20
1790.700497544413
 30
0.0
 11
3690.614701948722
 21
1790.700497544413
 31
0.0
  0
LINE
  5
7827
330
7822
100
AcDbEntity
  8
Dim
 62
     0
370
    -2
100
AcDbLine
 10
3690.614701948722
 20
1825.701107895975
 30
0.0
 11
3690.614701948722
 21
1800.69988719285
 31
0.0
  0
INSERT
  5
7828
330
7822
100
AcDbEntity
  8
Dim
 62
     0
370
    -2
100
AcDbBlockReference
  2
_DOT
 10
3690.614701948722
 20
1835.700497544413
 30
0.0
 41
9.999389648437498
 42
9.999389648437498
 43
9.999389648437498
 50
90.0
  0
INSERT
  5
7829
330
7822
100
AcDbEntity
  8
Dim
 62
     0
370
    -2
100
AcDbBlockReference
  2
_DOT
 10
3690.614701948722
 20
1790.700497544413
 30
0.0
 41
9.999389648437498
 42
9.999389648437498
 43
9.999389648437498
 50
270.0
  0
MTEXT
  5
782A
330
7822
100
AcDbEntity
  8
Dim
 62
     0
100
AcDbMText
 10
3668.398393354972
 20
1813.200497544413
 30
0.0
 40
24.4326171875
 41
0.0
 46
0.0
 71
     5
 72
     1
  1
\A1;45
  7
ＭＳ ゴシック
 11
0.0
 21
1.0
 31
0.0
 73
     1
 44
1.0
  0
POINT
  5
782B
330
7822
100
AcDbEntity
  8
Defpoints
 62
     0
100
AcDbPoint
 10
3820.54708060761
 20
1835.700497544413
 30
0.0
  0
POINT
  5
782C
330
7822
100
AcDbEntity
  8
Defpoints
 62
     0
100
AcDbPoint
 10
3867.708137064856
 20
1790.700497544413
 30
0.0
  0
POINT
  5
782D
330
7822
100
AcDbEntity
  8
Defpoints
 62
     0
100
AcDbPoint
 10
3690.614701948722
 20
1790.700497544413
 30
0.0
  0
ENDBLK
  5
7824
330
7822
100
AcDbEntity
  8
0
100
AcDbBlockEnd
  0
BLOCK
  5
782F
330
782E
100
AcDbEntity
  8
0
100
AcDbBlockBegin
  2
*D56
 70
     1
 10
0.0
 20
0.0
 30
0.0
  3
*D56
  1

  0
LINE
  5
7831
330
782E
100
AcDbEntity
  8
Dim
 62
     0
370
    -2
100
AcDbLine
 10
4592.799752607609
 20
2290.700497544415
 30
0.0
 11
4720.612863933851
 21
2290.700497544415
 31
0.0
  0
LINE
  5
7832
330
782E
100
AcDbEntity
  8
Dim
 62
     0
370
    -2
100
AcDbLine
 10
4592.799752607607
 20
1790.700497544414
 30
0.0
 11
4720.612863933849
 21
1790.700497544414
 31
0.0
  0
LINE
  5
7833
330
782E
100
AcDbEntity
  8
Dim
 62
     0
370
    -2
100
AcDbLine
 10
4720.612863933851
 20
2280.701107895977
 30
0.0
 11
4720.612863933849
 21
1800.699887192851
 31
0.0
  0
INSERT
  5
7834
330
782E
100
AcDbEntity
  8
Dim
 62
     0
370
    -2
100
AcDbBlockReference
  2
_DOT
 10
4720.612863933851
 20
2290.700497544415
 30
0.0
 41
9.999389648437498
 42
9.999389648437498
 43
9.999389648437498
 50
89.99999999999982
  0
INSERT
  5
7835
330
782E
100
AcDbEntity
  8
Dim
 62
     0
370
    -2
100
AcDbBlockReference
  2
_DOT
 10
4720.612863933849
 20
1790.700497544414
 30
0.0
 41
9.999389648437498
 42
9.999389648437498
 43
9.999389648437498
 50
269.9999999999998
  0
MTEXT
  5
7836
330
782E
100
AcDbEntity
  8
Dim
 62
     0
100
AcDbMText
 10
4698.3965553401
 20
2040.700497544413
 30
0.0
 40
24.4326171875
 41
0.0
 46
0.0
 71
     5
 72
     1
  1
\A1;500
  7
ＭＳ ゴシック
 11
3.637978807091707E-15
 21
1.0
 31
0.0
 73
     1
 44
1.0
  0
POINT
  5
7837
330
782E
100
AcDbEntity
  8
Defpoints
 62
     0
100
AcDbPoint
 10
4567.799752607609
 20
2290.700497544415
 30
0.0
  0
POINT
  5
7838
330
782E
100
AcDbEntity
  8
Defpoints
 62
     0
100
AcDbPoint
 10
4567.799752607607
 20
1790.700497544414
 30
0.0
  0
POINT
  5
7839
330
782E
100
AcDbEntity
  8
Defpoints
 62
     0
100
AcDbPoint
 10
4720.612863933849
 20
1790.700497544414
 30
0.0
  0
ENDBLK
  5
7830
330
782E
100
AcDbEntity
  8
0
100
AcDbBlockEnd
  0
BLOCK
  5
784A
330
7849
100
AcDbEntity
  8
0
100
AcDbBlockBegin
  2
*D57
 70
     1
 10
0.0
 20
0.0
 30
0.0
  3
*D57
  1

  0
LINE
  5
784C
330
7849
100
AcDbEntity
  8
Dim
 62
     0
370
    -2
100
AcDbLine
 10
1755.95747660761
 20
2205.012997544415
 30
0.0
 11
1819.728339023743
 21
2205.012997544415
 31
0.0
  0
LINE
  5
784D
330
7849
100
AcDbEntity
  8
Dim
 62
     0
370
    -2
100
AcDbLine
 10
1842.228491611633
 20
2235.012997544415
 30
0.0
 11
1819.728339023743
 21
2235.012997544415
 31
0.0
  0
LINE
  5
784E
330
7849
100
AcDbEntity
  8
Dim
 62
     0
370
    -2
100
AcDbLine
 10
1819.728339023743
 20
2235.012997544415
 30
0.0
 11
1819.728339023743
 21
2304.159889145977
 31
0.0
  0
LINE
  5
784F
330
7849
100
AcDbEntity
  8
Dim
 62
     0
370
    -2
100
AcDbLine
 10
1819.728339023743
 20
2215.012387192853
 30
0.0
 11
1819.728339023743
 21
2225.013607895978
 31
0.0
  0
LINE
  5
7850
330
7849
100
AcDbEntity
  8
Dim
 62
     0
370
    -2
100
AcDbLine
 10
1819.728339023743
 20
2225.013607895978
 30
0.0
 11
1819.728339023743
 21
2215.01421824754
 31
0.0
  0
INSERT
  5
7851
330
7849
100
AcDbEntity
  8
Dim
 62
     0
370
    -2
100
AcDbBlockReference
  2
_DOT
 10
1819.728339023743
 20
2205.012997544415
 30
0.0
 41
9.999389648437498
 42
9.999389648437498
 43
9.999389648437498
 50
270.0
  0
INSERT
  5
7852
330
7849
100
AcDbEntity
  8
Dim
 62
     0
370
    -2
100
AcDbBlockReference
  2
_DOT
 10
1819.728339023743
 20
2235.012997544415
 30
0.0
 41
9.999389648437498
 42
9.999389648437498
 43
9.999389648437498
 50
90.0
  0
MTEXT
  5
7853
330
7849
100
AcDbEntity
  8
Dim
 62
     0
100
AcDbMText
 10
1797.512030429993
 20
2279.585832993634
 30
0.0
 40
24.4326171875
 41
0.0
 46
0.0
 71
     5
 72
     1
  1
\A1;30
  7
ＭＳ ゴシック
 11
0.0
 21
1.0
 31
0.0
 73
     1
 44
1.0
  0
POINT
  5
7854
330
7849
100
AcDbEntity
  8
Defpoints
 62
     0
100
AcDbPoint
 10
1730.95747660761
 20
2205.012997544415
 30
0.0
  0
POINT
  5
7855
330
7849
100
AcDbEntity
  8
Defpoints
 62
     0
100
AcDbPoint
 10
1817.228491611633
 20
2235.012997544415
 30
0.0
  0
POINT
  5
7856
330
7849
100
AcDbEntity
  8
Defpoints
 62
     0
100
AcDbPoint
 10
1819.728339023743
 20
2235.012997544415
 30
0.0
  0
ENDBLK
  5
784B
330
7849
100
AcDbEntity
  8
0
100
AcDbBlockEnd
  0
BLOCK
  5
785C
330
785B
100
AcDbEntity
  8
0
100
AcDbBlockBegin
  2
*D58
 70
     1
 10
0.0
 20
0.0
 30
0.0
  3
*D58
  1

  0
LINE
  5
785E
330
785B
100
AcDbEntity
  8
Dim
 62
     0
370
    -2
100
AcDbLine
 10
1755.95747660761
 20
1905.012997544415
 30
0.0
 11
1819.728339023743
 21
1905.012997544415
 31
0.0
  0
LINE
  5
785F
330
785B
100
AcDbEntity
  8
Dim
 62
     0
370
    -2
100
AcDbLine
 10
1755.95747660761
 20
2205.012997544415
 30
0.0
 11
1819.728339023743
 21
2205.012997544415
 31
0.0
  0
LINE
  5
7860
330
785B
100
AcDbEntity
  8
Dim
 62
     0
370
    -2
100
AcDbLine
 10
1819.728339023743
 20
1915.012387192853
 30
0.0
 11
1819.728339023743
 21
2195.013607895978
 31
0.0
  0
INSERT
  5
7861
330
785B
100
AcDbEntity
  8
Dim
 62
     0
370
    -2
100
AcDbBlockReference
  2
_DOT
 10
1819.728339023743
 20
1905.012997544415
 30
0.0
 41
9.999389648437498
 42
9.999389648437498
 43
9.999389648437498
 50
270.0
  0
INSERT
  5
7862
330
785B
100
AcDbEntity
  8
Dim
 62
     0
370
    -2
100
AcDbBlockReference
  2
_DOT
 10
1819.728339023743
 20
2205.012997544415
 30
0.0
 41
9.999389648437498
 42
9.999389648437498
 43
9.999389648437498
 50
90.0
  0
MTEXT
  5
7863
330
785B
100
AcDbEntity
  8
Dim
 62
     0
100
AcDbMText
 10
1797.512030429993
 20
2055.012997544415
 30
0.0
 40
24.4326171875
 41
0.0
 46
0.0
 71
     5
 72
     1
  1
\A1;300
  7
ＭＳ ゴシック
 11
0.0
 21
1.0
 31
0.0
 73
     1
 44
1.0
  0
POINT
  5
7864
330
785B
100
AcDbEntity
  8
Defpoints
 62
     0
100
AcDbPoint
 10
1730.95747660761
 20
1905.012997544415
 30
0.0
  0
POINT
  5
7865
330
785B
100
AcDbEntity
  8
Defpoints
 62
     0
100
AcDbPoint
 10
1730.95747660761
 20
2205.012997544415
 30
0.0
  0
POINT
  5
7866
330
785B
100
AcDbEntity
  8
Defpoints
 62
     0
100
AcDbPoint
 10
1819.728339023743
 20
2205.012997544415
 30
0.0
  0
ENDBLK
  5
785D
330
785B
100
AcDbEntity
  8
0
100
AcDbBlockEnd
  0
BLOCK
  5
786B
330
786A
100
AcDbEntity
  8
0
100
AcDbBlockBegin
  2
*D59
 70
     1
 10
0.0
 20
0.0
 30
0.0
  3
*D59
  1

  0
LINE
  5
786D
330
786A
100
AcDbEntity
  8
Dim
 62
     0
370
    -2
100
AcDbLine
 10
1430.95747660761
 20
1880.012997544415
 30
0.0
 11
1430.95747660761
 21
1820.862080491808
 31
0.0
  0
LINE
  5
786E
330
786A
100
AcDbEntity
  8
Dim
 62
     0
370
    -2
100
AcDbLine
 10
1730.95747660761
 20
1880.012997544415
 30
0.0
 11
1730.95747660761
 21
1820.862080491808
 31
0.0
  0
LINE
  5
786F
330
786A
100
AcDbEntity
  8
Dim
 62
     0
370
    -2
100
AcDbLine
 10
1440.956866256048
 20
1820.862080491808
 30
0.0
 11
1720.958086959173
 21
1820.862080491808
 31
0.0
  0
INSERT
  5
7870
330
786A
100
AcDbEntity
  8
Dim
 62
     0
370
    -2
100
AcDbBlockReference
  2
_DOT
 10
1430.95747660761
 20
1820.862080491808
 30
0.0
 41
9.999389648437498
 42
9.999389648437498
 43
9.999389648437498
 50
180.0
  0
INSERT
  5
7871
330
786A
100
AcDbEntity
  8
Dim
 62
     0
370
    -2
100
AcDbBlockReference
  2
_DOT
 10
1730.95747660761
 20
1820.862080491808
 30
0.0
 41
9.999389648437498
 42
9.999389648437498
 43
9.999389648437498
  0
MTEXT
  5
7872
330
786A
100
AcDbEntity
  8
Dim
 62
     0
100
AcDbMText
 10
1580.95747660761
 20
1843.078389085558
 30
0.0
 40
24.4326171875
 41
0.0
 46
0.0
 71
     5
 72
     1
  1
\A1;300
  7
ＭＳ ゴシック
 73
     1
 44
1.0
  0
POINT
  5
7873
330
786A
100
AcDbEntity
  8
Defpoints
 62
     0
100
AcDbPoint
 10
1430.95747660761
 20
1905.012997544415
 30
0.0
  0
POINT
  5
7874
330
786A
100
AcDbEntity
  8
Defpoints
 62
     0
100
AcDbPoint
 10
1730.95747660761
 20
1905.012997544415
 30
0.0
  0
POINT
  5
7875
330
786A
100
AcDbEntity
  8
Defpoints
 62
     0
100
AcDbPoint
 10
1730.95747660761
 20
1820.862080491808
 30
0.0
  0
ENDBLK
  5
786C
330
786A
100
AcDbEntity
  8
0
100
AcDbBlockEnd
  0
ENDSEC
  0
SECTION
  2
ENTITIES
  0
MTEXT
  5
177
330
A
100
AcDbEntity
  8
template
390
1D
100
AcDbMText
 10
82.00000000048226
 20
348.023957835319
 30
0.0
 40
16.28841145833333
 41
0.0
 46
0.0
 71
     1
 72
     1
  1
品名
  7
ＭＳ ゴシック
 73
     1
 44
0.7828267384257843
  0
MTEXT
  5
178
330
A
100
AcDbEntity
  8
template
390
1D
100
AcDbMText
 10
82.00000000048226
 20
263.0239578353188
 30
0.0
 40
16.28841145833333
 41
0.0
 46
0.0
 71
     1
 72
     1
  1
仕様
  7
ＭＳ ゴシック
 73
     1
 44
0.7828267384257843
  0
LINE
  5
179
330
A
100
AcDbEntity
  8
template
390
1D
100
AcDbLine
 10
2025.0
 20
271.4388797103189
 30
0.0
 11
75.00000000000023
 21
271.4388797103189
 31
0.0
  0
LWPOLYLINE
  5
17A
330
A
100
AcDbEntity
  8
template
390
1D
100
AcDbPolyline
 90
        5
 70
   128
 43
0.0
 10
2025.0
 20
2901.438879710319
 10
75.00000000000023
 20
2901.438879710319
 10
75.00000000000023
 20
101.4388797103188
 10
2025.0
 20
101.4388797103188
 10
2025.0
 20
2901.438879710319
  0
LINE
  5
17B
330
A
100
AcDbEntity
  8
template
390
1D
100
AcDbLine
 10
2025.0
 20
356.4388797103188
 30
0.0
 11
75.00000000000023
 21
356.4388797103188
 31
0.0
  0
LINE
  5
17C
330
A
100
AcDbEntity
  8
template
390
1D
100
AcDbLine
 10
2025.000000000482
 20
186.4388797103189
 30
0.0
 11
1272.000000000482
 21
186.4388797103189
 31
0.0
  0
MTEXT
  5
17E
330
A
100
AcDbEntity
  8
template
390
1D
100
AcDbMText
 10
1301.871406252743
 20
156.5284852370108
 30
0.0
 40
24.4326171875
 41
0.0
 46
0.0
 71
     1
 72
     1
  1
大洋金物株式会社 ティーフォルム事業部
  7
ＭＳ ゴシック
 73
     1
 44
0.7828267384257843
  0
MTEXT
  5
180
330
A
100
AcDbEntity
  8
template
390
1D
100
AcDbMText
 10
1834.000000000742
 20
234.4414968978188
 30
0.0
 40
24.4326171875
 41
0.0
 46
0.0
 71
     1
 72
     1
  1
1:10
  7
ＭＳ ゴシック
 73
     1
 44
0.7828267384257843
  0
MTEXT
  5
181
330
A
100
AcDbEntity
  8
template
390
1D
100
AcDbMText
 10
1781.000000000742
 20
263.0239578353188
 30
0.0
 40
16.28841145833333
 41
0.0
 46
0.0
 71
     1
 72
     1
  1
縮尺
  7
ＭＳ ゴシック
 73
     1
 44
0.7828267384257843
  0
LINE
  5
182
330
A
100
AcDbEntity
  8
template
390
1D
100
AcDbLine
 10
1774.000000000742
 20
186.4388797103189
 30
0.0
 11
1774.000000000742
 21
271.4388797103189
 31
0.0
  0
MTEXT
  5
183
330
A
100
AcDbEntity
  8
template
390
1D
100
AcDbMText
 10
1530.000000000742
 20
263.0239578353188
 30
0.0
 40
16.28841145833333
 41
0.0
 46
0.0
 71
     1
 72
     1
  1
容量
  7
ＭＳ ゴシック
 73
     1
 44
0.7828267384257843
  0
LINE
  5
184
330
A
100
AcDbEntity
  8
template
390
1D
100
AcDbLine
 10
1523.000000000742
 20
186.4388797103189
 30
0.0
 11
1523.000000000742
 21
271.4388797103189
 31
0.0
  0
MTEXT
  5
185
330
A
100
AcDbEntity
  8
template
390
1D
100
AcDbMText
 10
1279.000000000742
 20
348.023957835319
 30
0.0
 40
16.28841145833333
 41
0.0
 46
0.0
 71
     1
 72
     1
  1
品番
  7
ＭＳ ゴシック
 73
     1
 44
0.7828267384257843
  0
MTEXT
  5
186
330
A
100
AcDbEntity
  8
template
390
1D
100
AcDbMText
 10
1279.000000000742
 20
263.0239578353188
 30
0.0
 40
16.28841145833333
 41
0.0
 46
0.0
 71
     1
 72
     1
  1
重量
  7
ＭＳ ゴシック
 73
     1
 44
0.7828267384257843
  0
MTEXT
  5
187
330
A
100
AcDbEntity
  8
template
390
1D
100
AcDbMText
 10
1332.000000000742
 20
319.4414968978188
 30
0.0
 40
24.4326171875
 41
0.0
 46
24.4326171875
 71
     1
 72
     1
  1
{AAA70-1502}
  7
ＭＳ ゴシック
 73
     1
 44
0.7828267384257843
1001
ACAD
1000
ACAD_MTEXT_DEFINED_HEIGHT_BEGIN
1070
    46
1040
24.4326171875
1000
ACAD_MTEXT_DEFINED_HEIGHT_END
  0
LINE
  5
188
330
A
100
AcDbEntity
  8
template
390
1D
100
AcDbLine
 10
1272.000000000742
 20
101.4388797103188
 30
0.0
 11
1272.000000000742
 21
356.4388797103188
 31
0.0
  0
MTEXT
  5
189
330
A
100
AcDbEntity
  8
template
390
1D
100
AcDbMText
 10
135.0000000004822
 20
319.4414968978188
 30
0.0
 40
24.4326171875
 41
0.0
 46
27.5355595703125
 71
     1
 72
     1
  1
{洗面器 -FLAMINIA, Madre-}
  7
ＭＳ ゴシック
 73
     1
 44
0.7828267384257843
1001
ACAD
1000
ACAD_MTEXT_DEFINED_HEIGHT_BEGIN
1070
    46
1040
27.5355595703125
1000
ACAD_MTEXT_DEFINED_HEIGHT_END
  0
MTEXT
  5
18A
330
A
100
AcDbEntity
  8
template
390
1D
100
AcDbMText
 10
135.0000000004822
 20
234.4414968978188
 30
0.0
 40
24.4326171875
 41
0.0
 46
68.99651757812501
 71
     1
 72
     1
  1
{壁掛け、カウンター置き/オーバーフロー付き/壁取付ボルト付属\P陶器/ホワイト}
  7
ＭＳ ゴシック
 73
     1
 44
0.9822934569727008
1001
ACAD
1000
ACAD_MTEXT_DEFINED_HEIGHT_BEGIN
1070
    46
1040
68.99651757812501
1000
ACAD_MTEXT_DEFINED_HEIGHT_END
  0
MTEXT
  5
1A6
330
A
100
AcDbEntity
  8
template
390
1D
100
AcDbMText
 10
1332.000000000742
 20
234.4414968978188
 30
0.0
 40
24.4326171875
 41
0.0
 46
28.390701171875
 71
     1
 72
     1
  1
{25kg}
  7
ＭＳ ゴシック
 73
     1
 44
0.7828267384257843
1001
ACAD
1000
ACAD_MTEXT_DEFINED_HEIGHT_BEGIN
1070
    46
1040
28.390701171875
1000
ACAD_MTEXT_DEFINED_HEIGHT_END
  0
MTEXT
  5
374
330
A
100
AcDbEntity
  8
template
390
1D
100
AcDbMText
 10
1581.992122669024
 20
234.4414968978188
 30
0.0
 40
24.4326171875
 41
0.0
 46
24.4326171875
 71
     1
 72
     1
  1
{12L}
  7
ＭＳ ゴシック
 73
     1
 44
0.7828267384257843
1001
ACAD
1000
ACAD_MTEXT_DEFINED_HEIGHT_BEGIN
1070
    46
1040
24.4326171875
1000
ACAD_MTEXT_DEFINED_HEIGHT_END
  0
INSERT
  5
3D0
330
A
100
AcDbEntity
  8
template
100
AcDbBlockReference
  2
名称未設定-1
 10
1873.559250554905
 20
30.23897196054438
 30
0.0
 41
0.7619999999999999
 42
0.7619999999999999
 43
0.7619999999999999
  0
MTEXT
  5
BDB
102
{ACAD_XDICTIONARY
360
BDC
102
}
330
A
100
AcDbEntity
  8
template
  6
Continuous
100
AcDbMText
 10
78.95663872901252
 20
86.10730750352229
 30
0.0
 40
23.0
 41
0.0
 46
23.0
 71
     1
 72
     1
  1
{20191123N}
  7
ＭＳ ゴシック
 73
     1
 44
1.0
1001
ACAD
1000
ACAD_MTEXT_DEFINED_HEIGHT_BEGIN
1070
    46
1040
23.0
1000
ACAD_MTEXT_DEFINED_HEIGHT_END
  0
LWPOLYLINE
  5
BEE
330
A
100
AcDbEntity
  8
PRINT BORDER
100
AcDbPolyline
 90
        4
 70
     1
 43
0.0
 10
0.0
 20
0.0
 10
0.0
 20
2970.0
 10
2100.0
 20
2970.0
 10
2100.0
 20
0.0
  0
INSERT
  5
1273
330
A
100
AcDbEntity
  8
0
 62
     7
100
AcDbBlockReference
  2
BLOCK_2
 10
591.2037060744204
 20
943.564364962162
 30
0.0
  0
INSERT
  5
127B
330
A
100
AcDbEntity
  8
0
 62
     7
100
AcDbBlockReference
  2
BLOCK_2
 10
1291.863324028138
 20
1038.76992320659
 30
0.0
  0
INSERT
  5
127C
330
A
100
AcDbEntity
  8
0
 62
     7
100
AcDbBlockReference
  2
BLOCK_2
 10
652.1648429406905
 20
1595.641631888467
 30
0.0
  0
INSERT
  5
3B99
330
A
100
AcDbEntity
  8
retino
100
AcDbBlockReference
  2
mobile_latù
 10
-92101.31485198285
 20
1730.415535296608
 30
0.0
  0
INSERT
  5
45C2
330
A
100
AcDbEntity
  8
retino
100
AcDbBlockReference
  2
mobile_latù
 10
-86439.67799028098
 20
684.0045377191276
 30
0.0
  0
INSERT
  5
45C3
330
A
100
AcDbEntity
  8
0
100
AcDbBlockReference
  2
.TD_SECTION_1
 10
225818108268.3253
 20
1093.456007493889
 30
0.0
  0
INSERT
  5
45C4
330
A
100
AcDbEntity
  8
0
100
AcDbBlockReference
  2
.TD_SECTION_2
 10
225818173804.3253
 20
1093.456007493889
 30
0.0
  0
INSERT
  5
45C5
330
A
100
AcDbEntity
  8
0
  6
Continuous
 62
     0
370
     0
100
AcDbBlockReference
  2
.TD_SECTION_1
 10
-5309.067341990833
 20
1307.927120367214
 30
0.0
  0
INSERT
  5
45C6
330
A
100
AcDbEntity
  8
0
  6
Continuous
 62
     0
370
     0
100
AcDbBlockReference
  2
.TD_SECTION_2
 10
-5866.445500560169
 20
1615.480640569851
 30
0.0
  0
INSERT
  5
45C7
330
A
100
AcDbEntity
  8
0
  6
Continuous
 62
     0
370
     0
100
AcDbBlockReference
  2
.TD_SECTION_1
 10
-7732.562264964368
 20
-610.0674069533197
 30
0.0
  0
INSERT
  5
45C8
330
A
100
AcDbEntity
  8
0
  6
Continuous
 62
     0
370
     0
100
AcDbBlockReference
  2
.TD_SECTION_2
 10
-7444.601476237562
 20
-908.1755612501947
 30
0.0
  0
INSERT
  5
45C9
330
A
100
AcDbEntity
  8
0
  6
Continuous
 62
     0
370
     0
100
AcDbBlockReference
  2
.TD_SECTION_1
 10
-7604.211434120536
 20
-675.956232615647
 30
0.0
  0
INSERT
  5
45CA
330
A
100
AcDbEntity
  8
0
  6
Continuous
 62
     0
370
     0
100
AcDbBlockReference
  2
.TD_SECTION_2
 10
-7316.160069221854
 20
-974.1548715316626
 30
0.0
  0
INSERT
  5
45CB
330
A
100
AcDbEntity
  8
0
  6
Continuous
 62
     0
370
     0
100
AcDbBlockReference
  2
.TD_SECTION_1
 10
1998.261972039336
 20
584.7577436013784
 30
0.0
  0
INSERT
  5
45CC
330
A
100
AcDbEntity
  8
0
  6
Continuous
 62
     0
370
     0
100
AcDbBlockReference
  2
.TD_SECTION_2
 10
2325.569123833769
 20
298.7106092019643
 30
0.0
  0
INSERT
  5
45CD
330
A
100
AcDbEntity
  8
0
  6
Continuous
 62
     0
370
     0
100
AcDbBlockReference
  2
.TD_SECTION_1
 10
4096.079043894448
 20
729.9229578437947
 30
0.0
  0
INSERT
  5
45CE
330
A
100
AcDbEntity
  8
0
  6
Continuous
 62
     0
370
     0
100
AcDbBlockReference
  2
.TD_SECTION_2
 10
4527.386195688881
 20
443.5448297920369
 30
0.0
  0
INSERT
  5
4611
330
A
100
AcDbEntity
  8
0
  6
Continuous
 62
     0
370
     0
100
AcDbBlockReference
  2
.TD_SECTION_1
 10
6135.868573041045
 20
-239.8054397977554
 30
0.0
  0
INSERT
  5
4612
330
A
100
AcDbEntity
  8
0
  6
Continuous
 62
     0
370
     0
100
AcDbBlockReference
  2
.TD_SECTION_2
 10
6878.171818585479
 20
-958.2465713895522
 30
0.0
  0
ELLIPSE
  5
543D
330
A
100
AcDbEntity
  8
tratteggio
  6
HIDDEN2
 62
     3
 60
     1
370
     0
100
AcDbEllipse
 10
-4096.49475666334
 20
1623.797447106776
 30
0.0
 11
300.0
 21
0.0
 31
0.0
210
0.0
220
0.0
230
1.0
 40
0.5
 41
5.728374274199514
 42
6.837996340159658
  0
ELLIPSE
  5
62B3
330
A
100
AcDbEntity
  8
tratteggio
  6
HIDDEN2
 62
     3
 60
     1
370
     0
100
AcDbEllipse
 10
-3728.470049359251
 20
2199.237967545522
 30
0.0
 11
300.0
 21
0.0
 31
0.0
210
0.0
220
0.0
230
1.0
 40
0.5
 41
5.728374274199514
 42
6.837996340159658
  0
MTEXT
  5
69F0
330
A
100
AcDbEntity
  8
template
390
1D
100
AcDbMText
 10
109.9913836583539
 20
735.5401602155133
 30
0.0
 40
24.4326171875
 41
0.0
 46
24.4326171875
 71
     1
 72
     1
  1
{  }
  7
ＭＳ ゴシック
 73
     1
 44
0.7828267384257843
1001
ACAD
1000
ACAD_MTEXT_DEFINED_HEIGHT_BEGIN
1070
    46
1040
24.4326171875
1000
ACAD_MTEXT_DEFINED_HEIGHT_END
  0
ELLIPSE
  5
6C52
330
A
100
AcDbEntity
  8
tratteggio
  6
HIDDEN2
 62
     3
 60
     1
370
     0
100
AcDbEllipse
 10
-4166.469641787739
 20
1291.912361046218
 30
0.0
 11
300.0
 21
0.0
 31
0.0
210
0.0
220
0.0
230
1.0
 40
0.5
 41
5.728374274199514
 42
6.837996340159658
  0
DIMENSION
  5
726C
330
A
100
AcDbEntity
  8
Dim
100
AcDbDimension
  2
*D26
 10
629.3195806076105
 20
2305.05256454858
 30
0.0
 11
579.3195806076105
 21
2327.26887314233
 31
0.0
 70
    32
 71
     5
 42
100.0
 73
     0
 74
     0
 75
     0
  3
tform線あり
100
AcDbAlignedDimension
 13
529.3195806076105
 23
2193.512997544414
 33
0.0
 14
629.3195806076105
 24
2192.512997544415
 34
0.0
100
AcDbRotatedDimension
  0
DIMENSION
  5
726D
330
A
100
AcDbEntity
  8
Dim
100
AcDbDimension
  2
*D27
 10
729.3195806076105
 20
2305.05256454858
 30
0.0
 11
679.3195806076105
 21
2327.26887314233
 31
0.0
 70
    32
 71
     5
 42
100.0
 73
     0
 74
     0
 75
     0
  3
tform線あり
100
AcDbAlignedDimension
 13
629.3195806076105
 23
2193.512997544414
 33
0.0
 14
729.3195806076105
 24
2193.512997544414
 34
0.0
100
AcDbRotatedDimension
  0
DIMENSION
  5
7270
330
A
100
AcDbEntity
  8
Dim
100
AcDbDimension
  2
*D28
 10
167.3055078723613
 20
2090.012997544413
 30
0.0
 11
145.0891992786112
 21
2162.512997544414
 31
0.0
 70
    32
 71
     5
 42
145.000000000002
 73
     0
 74
     0
 75
     0
 52
-90.0
  3
tform線あり
100
AcDbAlignedDimension
 13
254.3195806076105
 23
2235.012997544415
 33
0.0
 14
334.3195806076105
 24
2090.012997544413
 34
0.0
 50
90.00000000000009
100
AcDbRotatedDimension
  0
DIMENSION
  5
7271
330
A
100
AcDbEntity
  8
Dim
100
AcDbDimension
  2
*D29
 10
167.3055078723619
 20
1780.012997544414
 30
0.0
 11
145.0891992786116
 21
1935.012997544413
 31
0.0
 70
    32
 71
     5
 42
309.9999999999995
 73
     0
 74
     0
 75
     0
 52
-90.0
  3
tform線あり
100
AcDbAlignedDimension
 13
334.3195806076105
 23
2090.012997544413
 33
0.0
 14
334.1740451498504
 24
1780.012997544414
 34
0.0
 50
90.00000000000009
100
AcDbRotatedDimension
  0
DIMENSION
  5
7273
330
A
100
AcDbEntity
  8
Dim
100
AcDbDimension
  2
*D30
 10
334.3195806076105
 20
1658.019181677169
 30
0.0
 11
294.3195806076105
 21
1680.235490270919
 31
0.0
 70
    32
 71
     5
 42
80.0
 73
     0
 74
     0
 75
     0
 52
-90.0
  3
tform線あり
100
AcDbAlignedDimension
 13
254.3195806076105
 23
1780.294584974484
 33
0.0
 14
334.3195806076105
 24
1780.294584974484
 34
0.0
100
AcDbRotatedDimension
  0
DIMENSION
  5
7274
330
A
100
AcDbEntity
  8
Dim
100
AcDbDimension
  2
*D31
 10
924.3195806076105
 20
1658.019181677169
 30
0.0
 11
629.3195806076105
 21
1680.235490270919
 31
0.0
 70
    32
 71
     5
 42
590.0
 73
     0
 74
     0
 75
     0
 52
-90.0
  3
tform線あり
100
AcDbAlignedDimension
 13
334.3195806076105
 23
1780.294584974484
 33
0.0
 14
924.3195806076105
 24
1780.294584974484
 34
0.0
100
AcDbRotatedDimension
  0
DIMENSION
  5
7275
330
A
100
AcDbEntity
  8
Dim
100
AcDbDimension
  2
*D32
 10
1004.319580607611
 20
1658.019181677169
 30
0.0
 11
964.3195806076105
 21
1680.235490270919
 31
0.0
 70
    32
 71
     5
 42
80.0
 73
     0
 74
     0
 75
     0
 52
-90.0
  3
tform線あり
100
AcDbAlignedDimension
 13
924.3195806076105
 23
1780.294584974484
 33
0.0
 14
1004.319580607611
 24
1780.294584974484
 34
0.0
100
AcDbRotatedDimension
  0
DIMENSION
  5
7276
330
A
100
AcDbEntity
  8
Dim
100
AcDbDimension
  2
*D33
 10
1004.319580607611
 20
2395.584869915449
 30
0.0
 11
629.3195806076114
 21
2417.801178509199
 31
0.0
 70
    32
 71
     5
 42
750.0
 73
     0
 74
     0
 75
     0
 52
-90.0
  3
tform線あり
100
AcDbAlignedDimension
 13
254.3195806076114
 23
2246.502930344414
 33
0.0
 14
1004.319580607611
 24
2246.502930344414
 34
0.0
100
AcDbRotatedDimension
  0
DIMENSION
  5
7278
330
A
100
AcDbEntity
  8
Dim
100
AcDbDimension
  2
*D34
 10
1308.841175221272
 20
824.9475084827354
 30
0.0
 11
1286.624866627522
 21
894.9475084827354
 31
0.0
 70
    32
 71
     5
 42
140.0000000000001
 73
     0
 74
     0
 75
     0
  3
tform線あり
100
AcDbAlignedDimension
 13
1388.172420960001
 23
964.9475084827355
 33
0.0
 14
1391.013484501801
 24
824.9475084827354
 34
0.0
 50
90.0
100
AcDbRotatedDimension
  0
DIMENSION
  5
727E
330
A
100
AcDbEntity
  8
Dim
100
AcDbDimension
  2
*D37
 10
1140.454804828722
 20
784.9475084827427
 30
0.0
 11
1118.238496234972
 21
874.9475084827391
 31
0.0
 70
    32
 71
     5
 42
179.9999999999928
 73
     0
 74
     0
 75
     0
  3
tform線あり
100
AcDbAlignedDimension
 13
1022.752019427047
 23
964.9475084827354
 33
0.0
 14
674.5738270076095
 24
784.9475084827427
 34
0.0
 50
90.0
100
AcDbRotatedDimension
  0
LINE
  5
7292
330
A
100
AcDbEntity
  8
MODEL
100
AcDbLine
 10
344.3195806076105
 20
1735.012997544414
 30
0.0
 11
914.3195806076105
 21
1735.012997544414
 31
0.0
  0
LINE
  5
7293
330
A
100
AcDbEntity
  8
MODEL
100
AcDbLine
 10
1004.319580607611
 20
1825.012997544414
 30
0.0
 11
1004.319580607611
 21
2235.012997544415
 31
0.0
  0
ARC
  5
7294
330
A
100
AcDbEntity
  8
MODEL
100
AcDbCircle
 10
914.3195806076105
 20
1825.012997544414
 30
0.0
 40
90.0
100
AcDbArc
 50
270.0
 51
0.0
  0
LINE
  5
7295
330
A
100
AcDbEntity
  8
MODEL
100
AcDbLine
 10
1004.319580607611
 20
2235.012997544415
 30
0.0
 11
254.3195806076105
 21
2235.012997544415
 31
0.0
  0
LINE
  5
7296
330
A
100
AcDbEntity
  8
MODEL
100
AcDbLine
 10
254.3195806076105
 20
2235.012997544415
 30
0.0
 11
254.3195806076105
 21
1825.012997544414
 31
0.0
  0
ARC
  5
7297
330
A
100
AcDbEntity
  8
MODEL
100
AcDbCircle
 10
344.3195806076105
 20
1825.012997544414
 30
0.0
 40
90.0
100
AcDbArc
 50
180.0
 51
270.0
  0
LWPOLYLINE
  5
7298
330
A
100
AcDbEntity
  8
MODEL
100
AcDbPolyline
 90
        8
 70
     1
 43
0.0
 10
364.3195806076105
 20
1780.012997544414
 10
894.3195806076105
 20
1780.012997544414
 42
0.4142135623730951
 10
924.3195806076105
 20
1810.012997544414
 10
924.3195806076105
 20
2060.012997544414
 42
0.4142135623730951
 10
894.3195806076105
 20
2090.012997544414
 10
364.3195806076105
 20
2090.012997544414
 42
0.4142135623730951
 10
334.3195806076105
 20
2060.012997544414
 10
334.3195806076105
 20
1810.012997544414
 42
0.4142135623730951
  0
CIRCLE
  5
7299
330
A
100
AcDbEntity
  8
MODEL
100
AcDbCircle
 10
629.3195806076105
 20
2020.012997544414
 30
0.0
 40
22.5
  0
CIRCLE
  5
729A
330
A
100
AcDbEntity
  8
MODEL
100
AcDbCircle
 10
629.3195806076105
 20
2020.012997544414
 30
0.0
 40
40.0
  0
CIRCLE
  5
729B
330
A
100
AcDbEntity
  8
HIDDEN
 48
0.5
100
AcDbCircle
 10
629.3195806076105
 20
2175.012997544414
 30
0.0
 40
18.5
  0
CIRCLE
  5
729C
330
A
100
AcDbEntity
  8
HIDDEN
 48
0.5
100
AcDbCircle
 10
729.3195806076105
 20
2175.012997544414
 30
0.0
 40
18.5
  0
CIRCLE
  5
729D
330
A
100
AcDbEntity
  8
HIDDEN
 48
0.5
100
AcDbCircle
 10
529.3195806076105
 20
2175.012997544414
 30
0.0
 40
18.5
  0
LINE
  5
72B7
330
A
100
AcDbEntity
  8
MODEL
100
AcDbLine
 10
260.3195806076105
 20
964.9475084827359
 30
0.0
 11
998.3195806076105
 21
964.9475084827359
 31
0.0
  0
LINE
  5
72B8
330
A
100
AcDbEntity
  8
MODEL
100
AcDbLine
 10
992.3195806076105
 20
824.9475084827357
 30
0.0
 11
266.3195806076105
 21
824.9475084827357
 31
0.0
  0
ARC
  5
72B9
330
A
100
AcDbEntity
  8
MODEL
100
AcDbCircle
 10
992.3195806076105
 20
826.9475084827357
 30
0.0
 40
2.0
100
AcDbArc
 50
270.0
 51
0.0
  0
ARC
  5
72BA
330
A
100
AcDbEntity
  8
MODEL
100
AcDbCircle
 10
266.3195806076105
 20
826.9475084827357
 30
0.0
 40
2.0
100
AcDbArc
 50
180.0
 51
270.0
  0
LINE
  5
72BB
330
A
100
AcDbEntity
  8
MODEL
100
AcDbLine
 10
262.3195806076105
 20
949.9475084827357
 30
0.0
 11
996.3195806076105
 21
949.9475084827357
 31
0.0
  0
LINE
  5
72BC
330
A
100
AcDbEntity
  8
MODEL
100
AcDbLine
 10
254.3195806076105
 20
958.9475084827359
 30
0.0
 11
254.3195806076105
 21
836.9475084827357
 31
0.0
  0
ARC
  5
72BD
330
A
100
AcDbEntity
  8
MODEL
100
AcDbCircle
 10
260.3195806076105
 20
958.9475084827359
 30
0.0
 40
6.0
100
AcDbArc
 50
90.0
 51
180.0
  0
ARC
  5
72BE
330
A
100
AcDbEntity
  8
MODEL
100
AcDbCircle
 10
262.3195806076105
 20
941.9475084827357
 30
0.0
 40
8.0
100
AcDbArc
 50
90.0
 51
180.0
  0
ARC
  5
72BF
330
A
100
AcDbEntity
  8
MODEL
100
AcDbCircle
 10
256.3195806076105
 20
836.9475084827357
 30
0.0
 40
2.0
100
AcDbArc
 50
180.0
 51
270.0
  0
LINE
  5
72C0
330
A
100
AcDbEntity
  8
MODEL
100
AcDbLine
 10
256.3195806076105
 20
834.9475084827357
 30
0.0
 11
1002.319580607611
 21
834.9475084827357
 31
0.0
  0
LINE
  5
72C1
330
A
100
AcDbEntity
  8
MODEL
100
AcDbLine
 10
264.3195806076105
 20
832.9475084827357
 30
0.0
 11
264.3195806076105
 21
826.9475084827357
 31
0.0
  0
ARC
  5
72C2
330
A
100
AcDbEntity
  8
MODEL
100
AcDbCircle
 10
262.3195806076105
 20
832.9475084827357
 30
0.0
 40
2.0
100
AcDbArc
 50
0.0
 51
90.0
  0
LINE
  5
72C3
330
A
100
AcDbEntity
  8
MODEL
100
AcDbLine
 10
994.3195806076105
 20
832.9475084827357
 30
0.0
 11
994.3195806076105
 21
826.9475084827357
 31
0.0
  0
ARC
  5
72C4
330
A
100
AcDbEntity
  8
MODEL
100
AcDbCircle
 10
996.3195806076105
 20
832.9475084827357
 30
0.0
 40
2.0
100
AcDbArc
 50
90.0
 51
180.0
  0
LINE
  5
72C5
330
A
100
AcDbEntity
  8
MODEL
100
AcDbLine
 10
1004.319580607611
 20
958.9475084827359
 30
0.0
 11
1004.319580607611
 21
836.9475084827357
 31
0.0
  0
ARC
  5
72C6
330
A
100
AcDbEntity
  8
MODEL
100
AcDbCircle
 10
998.3195806076105
 20
958.9475084827359
 30
0.0
 40
6.0
100
AcDbArc
 50
0.0
 51
90.0
  0
ARC
  5
72C7
330
A
100
AcDbEntity
  8
MODEL
100
AcDbCircle
 10
996.3195806076105
 20
941.9475084827357
 30
0.0
 40
8.0
100
AcDbArc
 50
0.0
 51
90.0
  0
ARC
  5
72C8
330
A
100
AcDbEntity
  8
MODEL
100
AcDbCircle
 10
1002.319580607611
 20
836.9475084827357
 30
0.0
 40
2.0
100
AcDbArc
 50
270.0
 51
0.0
  0
LINE
  5
72C9
330
A
100
AcDbEntity
  8
MODEL
100
AcDbLine
 10
1871.47926364454
 20
962.9475084827357
 30
0.0
 11
1871.47926364454
 21
826.9475084827354
 31
0.0
  0
ARC
  5
72CA
330
A
100
AcDbEntity
  8
MODEL
100
AcDbCircle
 10
1869.479263644538
 20
962.9475084827357
 30
0.0
 40
2.0
100
AcDbArc
 50
0.0
 51
90.0
  0
LINE
  5
72CB
330
A
100
AcDbEntity
  8
MODEL
100
AcDbLine
 10
1869.479263644538
 20
824.9475084827354
 30
0.0
 11
1393.479263644538
 21
824.9475084827354
 31
0.0
  0
ARC
  5
72CC
330
A
100
AcDbEntity
  8
MODEL
100
AcDbCircle
 10
1869.479263644538
 20
826.9475084827354
 30
0.0
 40
2.0
100
AcDbArc
 50
270.0
 51
0.0
  0
ARC
  5
72CD
330
A
100
AcDbEntity
  8
MODEL
100
AcDbCircle
 10
1393.479263644538
 20
826.9475084827354
 30
0.0
 40
2.0
100
AcDbArc
 50
180.0
 51
270.0
  0
LINE
  5
72CE
102
{ACAD_REACTORS
330
76E1
102
}
330
A
100
AcDbEntity
  8
MODEL
100
AcDbLine
 10
1689.47926364454
 20
784.9475084827354
 30
0.0
 11
1623.479263644538
 21
784.9475084827354
 31
0.0
  0
ARC
  5
72CF
330
A
100
AcDbEntity
  8
MODEL
100
AcDbCircle
 10
1623.479263644538
 20
786.9475084827354
 30
0.0
 40
2.0
100
AcDbArc
 50
180.0
 51
270.0
  0
LINE
  5
72D0
330
A
100
AcDbEntity
  8
MODEL
100
AcDbLine
 10
1871.47926364454
 20
834.9475084827354
 30
0.0
 11
1383.479263644538
 21
834.9475084827354
 31
0.0
  0
ARC
  5
72D1
330
A
100
AcDbEntity
  8
MODEL
100
AcDbCircle
 10
1389.479263644538
 20
832.9475084827354
 30
0.0
 40
2.0
100
AcDbArc
 50
0.0
 51
90.0
  0
ARC
  5
72D2
330
A
100
AcDbEntity
  8
MODEL
100
AcDbCircle
 10
1383.479263644538
 20
836.9475084827354
 30
0.0
 40
2.0
100
AcDbArc
 50
180.0
 51
270.0
  0
LINE
  5
72D3
330
A
100
AcDbEntity
  8
MODEL
100
AcDbLine
 10
1371.47926364454
 20
957.9475084827357
 30
0.0
 11
1371.47926364454
 21
958.9475084827357
 31
0.0
  0
ARC
  5
72D4
330
A
100
AcDbEntity
  8
MODEL
100
AcDbCircle
 10
1377.47926364454
 20
958.9475084827357
 30
0.0
 40
6.0
100
AcDbArc
 50
90.0
 51
180.0
  0
LINE
  5
72D5
330
A
100
AcDbEntity
  8
MODEL
100
AcDbLine
 10
1381.47926364454
 20
836.9475084827354
 30
0.0
 11
1381.47926364454
 21
943.1151115085445
 31
0.0
  0
LINE
  5
72D6
330
A
100
AcDbEntity
  8
MODEL
100
AcDbLine
 10
1391.479263644538
 20
826.9475084827354
 30
0.0
 11
1391.479263644538
 21
832.9475084827354
 31
0.0
  0
LINE
  5
72D7
330
A
100
AcDbEntity
  8
MODEL
100
AcDbLine
 10
1377.47926364454
 20
964.9475084827357
 30
0.0
 11
1869.479263644538
 21
964.9475084827357
 31
0.0
  0
LINE
  5
72D8
330
A
100
AcDbEntity
  8
MODEL
100
AcDbLine
 10
1379.479263644538
 20
949.9475084827354
 30
0.0
 11
1461.47926364454
 21
949.9475084827354
 31
0.0
  0
ARC
  5
72D9
330
A
100
AcDbEntity
  8
MODEL
100
AcDbCircle
 10
1379.479263644538
 20
957.9475084827357
 30
0.0
 40
8.0
100
AcDbArc
 50
180.0
 51
247.9756871629579
  0
ARC
  5
72DA
330
A
100
AcDbEntity
  8
MODEL
100
AcDbCircle
 10
1373.479263644538
 20
943.1151115085445
 30
0.0
 40
8.0
100
AcDbArc
 50
0.0
 51
67.97568716295794
  0
LINE
  5
72DB
330
A
100
AcDbEntity
  8
MODEL
100
AcDbLine
 10
1691.479263644538
 20
787.9475084827354
 30
0.0
 11
1691.479263644538
 21
786.9475084827354
 31
0.0
  0
ARC
  5
72DC
330
A
100
AcDbEntity
  8
MODEL
100
AcDbCircle
 10
1689.47926364454
 20
786.9475084827354
 30
0.0
 40
2.0
100
AcDbArc
 50
270.0
 51
0.0
  0
LINE
  5
72DD
330
A
100
AcDbEntity
  8
MODEL
100
AcDbLine
 10
1621.47926364454
 20
824.9475084827354
 30
0.0
 11
1621.479263644536
 21
786.9475084827354
 31
0.0
  0
LINE
  5
72DE
330
A
100
AcDbEntity
  8
MODEL
100
AcDbLine
 10
1674.507020021857
 20
824.9475084827354
 30
0.0
 11
1674.507020021857
 21
791.9475084827354
 31
0.0
  0
ARC
  5
72DF
330
A
100
AcDbEntity
  8
MODEL
100
AcDbCircle
 10
1676.507020021857
 20
791.9475084827354
 30
0.0
 40
2.0
100
AcDbArc
 50
180.0
 51
270.0
  0
LINE
  5
72E0
330
A
100
AcDbEntity
  8
MODEL
100
AcDbLine
 10
1676.507020021857
 20
789.9475084827354
 30
0.0
 11
1710.755163774178
 21
789.9475084827354
 31
0.0
  0
ARC
  5
72E1
330
A
100
AcDbEntity
  8
MODEL
100
AcDbCircle
 10
1693.479263644538
 20
787.9475084827354
 30
0.0
 40
2.0
100
AcDbArc
 50
90.0
 51
180.0
  0
LINE
  5
72E2
330
A
100
AcDbEntity
  8
MODEL
100
AcDbLine
 10
1753.479263644541
 20
824.9475084827354
 30
0.0
 11
1712.035532573507
 21
790.4110659235407
 31
0.0
  0
ARC
  5
72E3
330
A
100
AcDbEntity
  8
MODEL
100
AcDbCircle
 10
1710.755163774178
 20
791.9475084827354
 30
0.0
 40
2.0
100
AcDbArc
 50
270.0
 51
309.8055710922723
  0
LINE
  5
72EF
330
A
100
AcDbEntity
  8
MODEL
100
AcDbLine
 10
662.3195806076105
 20
784.9475084827429
 30
0.0
 11
596.3195806076078
 21
784.9475084827429
 31
0.0
  0
LINE
  5
72F0
330
A
100
AcDbEntity
  8
MODEL
100
AcDbLine
 10
594.3195806076105
 20
820.9519463622748
 30
0.0
 11
594.3195806076078
 21
786.9475084827429
 31
0.0
  0
ARC
  5
72F1
330
A
100
AcDbEntity
  8
MODEL
100
AcDbCircle
 10
596.3195806076078
 20
786.9475084827429
 30
0.0
 40
2.0
100
AcDbArc
 50
180.0
 51
270.0
  0
LINE
  5
72F2
330
A
100
AcDbEntity
  8
MODEL
100
AcDbLine
 10
664.3195806076105
 20
820.9519463622748
 30
0.0
 11
664.3195806076105
 21
786.9475084827429
 31
0.0
  0
ARC
  5
72F3
330
A
100
AcDbEntity
  8
MODEL
100
AcDbCircle
 10
662.3195806076105
 20
786.9475084827429
 30
0.0
 40
2.0
100
AcDbArc
 50
270.0
 51
0.0
  0
ARC
  5
72F4
330
A
100
AcDbEntity
  8
MODEL
100
AcDbCircle
 10
590.3195806076105
 20
820.9519463622748
 30
0.0
 40
4.0
100
AcDbArc
 50
0.0
 51
90.16951438789219
  0
ARC
  5
72F5
330
A
100
AcDbEntity
  8
MODEL
100
AcDbCircle
 10
668.3195806076087
 20
820.9519463622748
 30
0.0
 40
4.0
100
AcDbArc
 50
89.83048561210781
 51
179.9999999998958
  0
ARC
  5
7583
102
{ACAD_REACTORS
330
758E
330
766C
102
}
330
A
100
AcDbEntity
  8
HIDDEN
 48
0.5
100
AcDbCircle
 10
671.3195806076205
 20
1834.947508482735
 30
0.0
 40
999.9999999999967
100
AcDbArc
 50
269.9465290411837
 51
282.2534417591403
  0
ARC
  5
7584
102
{ACAD_REACTORS
330
758E
330
766C
102
}
330
A
100
AcDbEntity
  8
HIDDEN
 48
0.5
100
AcDbCircle
 10
870.8217722378308
 20
916.3622508532585
 30
0.0
 40
60.00000000027975
100
AcDbArc
 50
282.2534417589624
 51
350.5376777917876
  0
LINE
  5
7585
102
{ACAD_REACTORS
330
758E
330
766C
102
}
330
A
100
AcDbEntity
  8
HIDDEN
 48
0.5
100
AcDbLine
 10
934.8735147031689
 20
935.7069538256842
 30
0.0
 11
930.005407668003
 21
906.4983116146982
 31
0.0
  0
ARC
  5
7586
102
{ACAD_REACTORS
330
758E
330
766C
102
}
330
A
100
AcDbEntity
  8
HIDDEN
 48
0.5
100
AcDbCircle
 10
930.9279390078395
 20
936.3645497749055
 30
0.0
 40
4.000000000000226
100
AcDbArc
 50
350.5376777919746
 51
75.98002738303214
  0
ARC
  5
7587
102
{ACAD_REACTORS
330
758E
330
766C
102
}
330
A
100
AcDbEntity
  8
HIDDEN
 48
0.5
100
AcDbCircle
 10
934.3195806076105
 20
949.9475084827393
 30
0.0
 40
10.00000000000009
100
AcDbArc
 50
179.9999999999987
 51
255.9800273830504
  0
ARC
  5
7588
102
{ACAD_REACTORS
330
758E
330
766C
102
}
330
A
100
AcDbEntity
  8
HIDDEN
 48
0.5
100
AcDbCircle
 10
934.3195806076105
 20
954.9475084827359
 30
0.0
 40
9.999999999999943
100
AcDbArc
 50
90.0
 51
180.0
  0
LINE
  5
7589
102
{ACAD_REACTORS
330
758E
330
766C
102
}
330
A
100
AcDbEntity
  8
HIDDEN
 48
0.5
100
AcDbLine
 10
924.3195806076105
 20
954.9475084827359
 30
0.0
 11
924.3195806076105
 21
949.9475084827395
 31
0.0
  0
LINE
  5
758B
330
A
100
AcDbEntity
  8
MODEL
100
AcDbLine
 10
606.4483540784418
 20
824.9475084827359
 30
0.0
 11
652.1908071367757
 21
824.9475084827359
 31
0.0
  0
LINE
  5
758C
102
{ACAD_REACTORS
330
758E
330
766C
102
}
330
A
100
AcDbEntity
  8
HIDDEN
 48
0.5
100
AcDbLine
 10
668.3980477275159
 20
834.42091826554
 30
0.0
 11
652.8273027308974
 21
825.5233496960432
 31
0.0
  0
LINE
  5
758D
102
{ACAD_REACTORS
330
758E
330
766C
102
}
330
A
100
AcDbEntity
  8
HIDDEN
 48
0.5
100
AcDbLine
 10
651.8195806076105
 20
823.7868634117954
 30
0.0
 11
651.8195806076105
 21
786.9475084827359
 31
0.0
  0
ARC
  5
758F
102
{ACAD_REACTORS
330
7598
330
766C
102
}
330
A
100
AcDbEntity
  8
HIDDEN
 48
0.5
100
AcDbCircle
 10
587.3195806076005
 20
1834.947508482735
 30
0.0
 40
999.9999999999967
100
AcDbArc
 50
257.7465582408597
 51
270.0534709588163
  0
ARC
  5
7590
102
{ACAD_REACTORS
330
7598
330
766C
102
}
330
A
100
AcDbEntity
  8
HIDDEN
 48
0.5
100
AcDbCircle
 10
387.8173889773902
 20
916.3622508532585
 30
0.0
 40
60.00000000027975
100
AcDbArc
 50
189.4623222082124
 51
257.7465582410376
  0
LINE
  5
7591
102
{ACAD_REACTORS
330
7598
330
766C
102
}
330
A
100
AcDbEntity
  8
HIDDEN
 48
0.5
100
AcDbLine
 10
323.7656465120522
 20
935.7069538256842
 30
0.0
 11
328.633753547218
 21
906.4983116146982
 31
0.0
  0
ARC
  5
7592
102
{ACAD_REACTORS
330
7598
330
766C
102
}
330
A
100
AcDbEntity
  8
HIDDEN
 48
0.5
100
AcDbCircle
 10
327.7112222073815
 20
936.3645497749055
 30
0.0
 40
4.000000000000226
100
AcDbArc
 50
104.0199726169679
 51
189.4623222080253
  0
ARC
  5
7593
102
{ACAD_REACTORS
330
7598
330
766C
102
}
330
A
100
AcDbEntity
  8
HIDDEN
 48
0.5
100
AcDbCircle
 10
324.3195806076105
 20
949.9475084827393
 30
0.0
 40
10.00000000000009
100
AcDbArc
 50
284.0199726169495
 51
0.0000000000013028
  0
ARC
  5
7594
102
{ACAD_REACTORS
330
7598
330
766C
102
}
330
A
100
AcDbEntity
  8
HIDDEN
 48
0.5
100
AcDbCircle
 10
324.3195806076105
 20
954.9475084827359
 30
0.0
 40
9.999999999999943
100
AcDbArc
 50
0.0
 51
90.0
  0
LINE
  5
7595
102
{ACAD_REACTORS
330
7598
330
766C
102
}
330
A
100
AcDbEntity
  8
HIDDEN
 48
0.5
100
AcDbLine
 10
334.3195806076105
 20
954.9475084827359
 30
0.0
 11
334.3195806076105
 21
949.9475084827395
 31
0.0
  0
LINE
  5
7596
102
{ACAD_REACTORS
330
7598
330
766C
102
}
330
A
100
AcDbEntity
  8
HIDDEN
 48
0.5
100
AcDbLine
 10
590.2411134877052
 20
834.42091826554
 30
0.0
 11
605.8118584843237
 21
825.5233496960432
 31
0.0
  0
LINE
  5
7597
102
{ACAD_REACTORS
330
7598
330
766C
102
}
330
A
100
AcDbEntity
  8
HIDDEN
 48
0.5
100
AcDbLine
 10
606.8195806076105
 20
823.7868634117954
 30
0.0
 11
606.8195806076105
 21
786.9475084827359
 31
0.0
  0
LINE
  5
75FE
102
{ACAD_REACTORS
330
766B
102
}
330
A
100
AcDbEntity
  8
HIDDEN
 48
0.5
100
AcDbLine
 10
1633.608037115371
 20
824.9475084827352
 30
0.0
 11
1679.350490173701
 21
824.9475084827352
 31
0.0
  0
LINE
  5
75FF
102
{ACAD_REACTORS
330
766B
102
}
330
A
100
AcDbEntity
  8
HIDDEN
 48
0.5
100
AcDbLine
 10
1615.475380633348
 20
834.9475084827352
 30
0.0
 11
1697.483146655824
 21
834.9475084827352
 31
0.0
  0
LINE
  5
7600
102
{ACAD_REACTORS
330
766B
102
}
330
A
100
AcDbEntity
  8
HIDDEN
 48
0.5
100
AcDbLine
 10
1740.509271715613
 20
929.9242585505124
 30
0.0
 11
1741.054880085239
 21
935.5622117032979
 31
0.0
  0
ARC
  5
7601
102
{ACAD_REACTORS
330
766B
102
}
330
A
100
AcDbEntity
  8
HIDDEN
 48
0.5
100
AcDbCircle
 10
1737.073480031018
 20
935.9475084827366
 30
0.0
 40
3.999999999998592
100
AcDbArc
 50
354.4724598483749
 51
90.0
  0
LINE
  5
7602
102
{ACAD_REACTORS
330
766B
102
}
330
A
100
AcDbEntity
  8
HIDDEN
 48
0.5
100
AcDbLine
 10
1737.073480031018
 20
939.9475084827352
 30
0.0
 11
1736.479263644538
 21
939.9475084827352
 31
0.0
  0
ARC
  5
7603
102
{ACAD_REACTORS
330
766B
102
}
330
A
100
AcDbEntity
  8
HIDDEN
 48
0.5
100
AcDbCircle
 10
1736.479263644538
 20
949.9475084827352
 30
0.0
 40
10.0
100
AcDbArc
 50
180.0
 51
270.0
  0
LINE
  5
7604
102
{ACAD_REACTORS
330
766B
102
}
330
A
100
AcDbEntity
  8
HIDDEN
 48
0.5
100
AcDbLine
 10
1726.479263644538
 20
949.9475084827352
 30
0.0
 11
1726.479263644538
 21
954.9475084827357
 31
0.0
  0
ARC
  5
7605
102
{ACAD_REACTORS
330
766B
102
}
330
A
100
AcDbEntity
  8
HIDDEN
 48
0.5
100
AcDbCircle
 10
1736.479263644538
 20
954.9475084827357
 30
0.0
 40
9.999999999999876
100
AcDbArc
 50
90.0
 51
180.0
  0
ARC
  5
7606
102
{ACAD_REACTORS
330
766B
102
}
330
A
100
AcDbEntity
  8
HIDDEN
 48
0.5
100
AcDbCircle
 10
1487.538438844156
 20
903.5582091030665
 30
0.0
 40
60.00000000002495
100
AcDbArc
 50
189.4623222079984
 51
262.2388687214284
  0
LINE
  5
7607
102
{ACAD_REACTORS
330
766B
102
}
330
A
100
AcDbEntity
  8
HIDDEN
 48
0.5
100
AcDbLine
 10
1428.354803414198
 20
893.694269864769
 30
0.0
 11
1417.871931999029
 21
956.5914983557884
 31
0.0
  0
ARC
  5
7608
102
{ACAD_REACTORS
330
766B
102
}
330
A
100
AcDbEntity
  8
HIDDEN
 48
0.5
100
AcDbCircle
 10
1408.007992760707
 20
954.9475084827343
 30
0.0
 40
10.00000000000087
100
AcDbArc
 50
9.462322208028189
 51
90.0
  0
LINE
  5
7609
102
{ACAD_REACTORS
330
766B
102
}
330
A
100
AcDbEntity
  8
HIDDEN
 48
0.5
100
AcDbLine
 10
1633.979263644538
 20
786.9475084827352
 30
0.0
 11
1633.979263644536
 21
823.7868634117947
 31
0.0
  0
LINE
  5
760A
102
{ACAD_REACTORS
330
766B
102
}
330
A
100
AcDbEntity
  8
HIDDEN
 48
0.5
100
AcDbLine
 10
1632.97154152125
 20
825.5233496960425
 30
0.0
 11
1617.400796524627
 21
834.4209182655429
 31
0.0
  0
ARC
  5
760B
102
{ACAD_REACTORS
330
766B
102
}
330
A
100
AcDbEntity
  8
HIDDEN
 48
0.5
100
AcDbCircle
 10
1614.479263644529
 20
1834.94750848274
 30
0.0
 40
1000.000000000002
100
AcDbArc
 50
262.2388687214117
 51
270.0534709588159
  0
LINE
  5
760C
102
{ACAD_REACTORS
330
766B
102
}
330
A
100
AcDbEntity
  8
HIDDEN
 48
0.5
100
AcDbLine
 10
1679.986985767824
 20
825.5233496960425
 30
0.0
 11
1695.557730764445
 21
834.4209182655393
 31
0.0
  0
ARC
  5
760D
330
A
100
AcDbEntity
  8
MODEL
 48
0.5
100
AcDbCircle
 10
1698.479263644483
 20
1834.947508446754
 30
0.0
 40
999.99999996402
100
AcDbArc
 50
269.9465290411856
 51
270.330979501063
  0
ARC
  5
760E
102
{ACAD_REACTORS
330
766B
102
}
330
A
100
AcDbEntity
  8
HIDDEN
 48
0.5
100
AcDbCircle
 10
1704.082614068775
 20
864.9636929146648
 30
0.0
 40
30.00000000001624
100
AcDbArc
 50
270.3309795010893
 51
354.4724598483132
  0
LINE
  5
760F
102
{ACAD_REACTORS
330
766B
102
}
330
A
100
AcDbEntity
  8
HIDDEN
 48
0.5
100
AcDbLine
 10
1733.943114475449
 20
862.0739670688415
 30
0.0
 11
1740.509271715613
 21
929.9242585505124
 31
0.0
  0
DIMENSION
  5
7634
330
A
100
AcDbEntity
  8
Dim
100
AcDbDimension
  2
*D38
 10
167.305507872362
 20
1735.012997544413
 30
0.0
 11
145.0891992786119
 21
1757.512997544413
 31
0.0
 70
    32
 71
     5
 42
45.00000000000008
 73
     0
 74
     1
 75
     1
 52
-90.0
  3
tform線あり
100
AcDbAlignedDimension
 13
254.3195806076114
 23
1780.012997544413
 33
0.0
 14
301.4806370648575
 24
1735.012997544413
 34
0.0
 50
90.00000000000009
100
AcDbRotatedDimension
1001
ACAD
1000
DSTYLE
1002
{
1070
   144
1040
1.0
1002
}
  0
DIMENSION
  5
7656
330
A
100
AcDbEntity
  8
Dim
100
AcDbDimension
  2
*D40
 10
1308.841175221272
 20
784.9475084827354
 30
0.0
 11
1286.624866627522
 21
804.9475084827354
 31
0.0
 70
    32
 71
     5
 42
39.99999999999999
 73
     0
 74
     1
 75
     1
  3
tform線あり
100
AcDbAlignedDimension
 13
1366.013484501801
 23
824.9475084827354
 33
0.0
 14
1615.750480997259
 24
784.9475084827354
 34
0.0
 50
90.0
100
AcDbRotatedDimension
1001
ACAD
1000
DSTYLE
1002
{
1070
   144
1040
1.0
1002
}
  0
LINE
  5
766A
102
{ACAD_REACTORS
330
766B
102
}
330
A
100
AcDbEntity
  8
HIDDEN
 48
0.5
100
AcDbLine
 10
1678.979263644534
 20
786.9475084827352
 30
0.0
 11
1678.979263644536
 21
823.7868634117947
 31
0.0
  0
DIMENSION
  5
7672
330
A
100
AcDbEntity
  8
Dim
100
AcDbDimension
  2
*D41
 10
1109.761684512362
 20
1735.012997544414
 30
0.0
 11
1109.761684512363
 21
1985.012997544413
 31
0.0
 70
   160
 71
     5
 42
500.0000000000011
 73
     0
 74
     0
 75
     0
 52
-90.0
  3
tform線あり
100
AcDbAlignedDimension
 13
1001.57225260761
 23
2235.012997544415
 33
0.0
 14
948.8948560992106
 24
1735.012997544414
 34
0.0
 50
89.99999999999982
100
AcDbRotatedDimension
  0
DIMENSION
  5
76C6
330
A
100
AcDbEntity
  8
Dim
100
AcDbDimension
  2
*D42
 10
1811.479263644538
 20
1030.786979068729
 30
0.0
 11
1841.479263644538
 21
1053.003287662479
 31
0.0
 70
    32
 71
     5
 42
60.0
 73
     0
 74
     0
 75
     0
  3
tform線あり
100
AcDbAlignedDimension
 13
1871.479263644538
 23
968.2530383387434
 33
0.0
 14
1811.479263644538
 24
968.2530383387436
 34
0.0
100
AcDbRotatedDimension
1001
ACAD
1000
DSTYLE
1002
{
1070
   144
1040
1.0
1002
}
  0
LINE
  5
76D5
330
A
100
AcDbEntity
  8
HIDDEN
 48
0.25
100
AcDbLine
 10
1793.979263644538
 20
964.9475084827357
 30
0.0
 11
1793.979263644536
 21
944.7209934508086
 31
0.0
  0
LINE
  5
76DB
330
A
100
AcDbEntity
  8
HIDDEN
 48
0.25
100
AcDbLine
 10
1828.97926364454
 20
964.9475084827379
 30
0.0
 11
1828.979263644543
 21
944.7209934508109
 31
0.0
  0
DIMENSION
  5
76DF
102
{ACAD_REACTORS
330
76E1
102
}
102
{ACAD_XDICTIONARY
360
76E0
102
}
330
A
100
AcDbEntity
  8
Dim
100
AcDbDimension
  2
*D43
 10
1871.47926364454
 20
688.6198854543825
 30
0.0
 11
1763.97926364454
 21
710.8361940481325
 31
0.0
 70
    32
 71
     5
 42
215.0
 73
     0
 74
     0
 75
     0
  3
tform線あり
100
AcDbAlignedDimension
 13
1656.47926364454
 23
784.9475084827354
 33
0.0
 14
1871.47926364454
 24
824.0063437962287
 34
0.0
100
AcDbRotatedDimension
1001
ACAD
1000
DSTYLE
1002
{
1070
   144
1040
1.0
1002
}
  0
DIMENSION
  5
76EE
330
A
100
AcDbEntity
  8
Dim
100
AcDbDimension
  2
*D44
 10
1654.384859356721
 20
964.9475084827357
 30
0.0
 11
1654.384859356721
 21
1080.773098612229
 31
0.0
 70
   160
  1
130(深さ)
 71
     5
 42
130.0000000000002
 73
     0
 74
     1
 75
     1
  3
tform線あり
100
AcDbAlignedDimension
 13
1672.136202460722
 23
834.9475084827354
 33
0.0
 14
1672.136202460722
 24
964.9475084827357
 34
0.0
 50
90.0
100
AcDbRotatedDimension
1001
ACAD
1000
DSTYLE
1002
{
1070
   144
1040
1.0
1002
}
  0
DIMENSION
  5
7706
330
A
100
AcDbEntity
  8
Dim
100
AcDbDimension
  2
*D45
 10
769.3195806076096
 20
1015.754687361029
 30
0.0
 11
629.3195806076096
 21
1037.970995954779
 31
0.0
 70
    32
 71
     5
 42
280.0
 73
     0
 74
     0
 75
     0
  3
tform線あり
100
AcDbAlignedDimension
 13
489.3195806076096
 23
912.049472385029
 33
0.0
 14
769.3195806076096
 24
912.049472385029
 34
0.0
100
AcDbRotatedDimension
1001
ACAD
1000
DSTYLE
1002
{
1070
   144
1040
1.0
1002
}
  0
DIMENSION
  5
7715
330
A
100
AcDbEntity
  8
Dim
100
AcDbDimension
  2
*D46
 10
185.7452713800176
 20
904.9475084827361
 30
0.0
 11
163.5289627862676
 21
934.947508482736
 31
0.0
 70
    32
 71
     5
 42
59.99999999999976
 73
     0
 74
     0
 75
     0
  3
tform線あり
100
AcDbAlignedDimension
 13
253.6712529080819
 23
964.9475084827359
 33
0.0
 14
467.3136933405494
 24
904.9475084827361
 34
0.0
 50
90.0
100
AcDbRotatedDimension
1001
ACAD
1000
DSTYLE
1002
{
1070
   144
1040
1.0
1002
}
  0
LINE
  5
7732
330
A
100
AcDbEntity
  8
Dim
100
AcDbLine
 10
769.3195806076096
 20
912.049472385029
 30
0.0
 11
862.5730402845475
 21
1147.536824741408
 31
0.0
  0
LINE
  5
7733
330
A
100
AcDbEntity
  8
Dim
100
AcDbLine
 10
862.5730402845475
 20
1147.536824741408
 30
0.0
 11
1198.193665756545
 21
1147.536824741408
 31
0.0
  0
MTEXT
  5
7737
330
A
100
AcDbEntity
  8
Dim
390
1D
100
AcDbMText
 10
866.6658554511978
 20
1192.181206668574
 30
0.0
 40
24.4326171875
 41
0.0
 46
27.2912333984375
 71
     1
 72
     1
  1
{壁取付ボルト穴(2ヶ所)}
  7
ＭＳ ゴシック
 73
     1
 44
0.7828267384257843
1001
ACAD
1000
ACAD_MTEXT_DEFINED_HEIGHT_BEGIN
1070
    46
1040
27.2912333984375
1000
ACAD_MTEXT_DEFINED_HEIGHT_END
  0
MTEXT
  5
776E
330
A
100
AcDbEntity
  8
Dim
390
1D
100
AcDbMText
 10
240.936455841832
 20
1552.014835814307
 30
34.99521132346015
 40
24.4326171875
 41
833.929798641839
 46
0.0
 71
     1
 72
     1
  1
＝φ30もしくはφ35の水栓取付用穴あけ加工を承ります。\P  必要な場合、ご注文の際にご指示ください。
  7
ＭＳ ゴシック
 73
     1
 44
0.9822934569727008
  0
CIRCLE
  5
776F
330
A
100
AcDbEntity
  8
HIDDEN
 48
0.58
390
1D
100
AcDbCircle
 10
209.5694261437438
 20
1537.426011358024
 30
34.99521132346015
 40
17.5
  0
MTEXT
  5
7770
330
A
100
AcDbEntity
  8
Dim
390
1D
100
AcDbMText
 10
1210.17116863138
 20
1551.329110167262
 30
34.99521132346015
 40
24.0
 41
1169.771715461011
 46
0.0
 71
     1
 72
     1
  1
※陶器製品には寸法公差があります。\P  洗面器の収め方をご確認の上、必ず現物を合わせて\P  カウンターに切込を行ってください。
  7
ＭＳ ゴシック
 73
     1
 44
1.174240107638677
  0
MTEXT
  5
77A7
330
A
100
AcDbEntity
  8
Dim
390
1D
100
AcDbMText
 10
1449.730894943743
 20
2460.061509451808
 30
34.99521132346015
 40
24.0
 41
1169.771715461011
 46
26.928
 71
     1
 72
     1
  1
{カウンター切込寸法 }
  7
ＭＳ ゴシック
 73
     1
 44
1.174240107638677
1001
ACAD
1000
ACAD_MTEXT_DEFINED_HEIGHT_BEGIN
1070
    46
1040
26.928
1000
ACAD_MTEXT_DEFINED_HEIGHT_END
  0
LINE
  5
77B0
330
A
100
AcDbEntity
  8
HIDDEN
100
AcDbLine
 10
1295.95747660761
 20
1735.012997544414
 30
0.0
 11
1865.95747660761
 21
1735.012997544414
 31
0.0
  0
LINE
  5
77B1
330
A
100
AcDbEntity
  8
HIDDEN
100
AcDbLine
 10
1955.95747660761
 20
1825.012997544414
 30
0.0
 11
1955.95747660761
 21
2235.012997544415
 31
0.0
  0
ARC
  5
77B2
330
A
100
AcDbEntity
  8
HIDDEN
100
AcDbCircle
 10
1865.95747660761
 20
1825.012997544414
 30
0.0
 40
90.0
100
AcDbArc
 50
270.0
 51
0.0
  0
LINE
  5
77B3
330
A
100
AcDbEntity
  8
HIDDEN
100
AcDbLine
 10
1955.95747660761
 20
2235.012997544415
 30
0.0
 11
1205.95747660761
 21
2235.012997544415
 31
0.0
  0
LINE
  5
77B4
330
A
100
AcDbEntity
  8
HIDDEN
100
AcDbLine
 10
1205.95747660761
 20
2235.012997544415
 30
0.0
 11
1205.95747660761
 21
1825.012997544414
 31
0.0
  0
ARC
  5
77B5
330
A
100
AcDbEntity
  8
HIDDEN
100
AcDbCircle
 10
1295.95747660761
 20
1825.012997544414
 30
0.0
 40
90.0
100
AcDbArc
 50
180.0
 51
270.0
  0
LWPOLYLINE
  5
77B6
330
A
100
AcDbEntity
  8
HIDDEN
100
AcDbPolyline
 90
        8
 70
     1
 43
0.0
 10
1315.95747660761
 20
1780.012997544414
 10
1845.95747660761
 20
1780.012997544414
 42
0.4142135623730951
 10
1875.95747660761
 20
1810.012997544414
 10
1875.95747660761
 20
2060.012997544414
 42
0.4142135623730951
 10
1845.95747660761
 20
2090.012997544414
 10
1315.95747660761
 20
2090.012997544414
 42
0.4142135623730951
 10
1285.95747660761
 20
2060.012997544414
 10
1285.95747660761
 20
1810.012997544414
 42
0.4142135623730951
  0
CIRCLE
  5
77B7
330
A
100
AcDbEntity
  8
HIDDEN
100
AcDbCircle
 10
1580.95747660761
 20
2020.012997544414
 30
0.0
 40
22.5
  0
CIRCLE
  5
77B9
330
A
100
AcDbEntity
  8
HIDDEN
 48
0.5
100
AcDbCircle
 10
1580.95747660761
 20
2175.012997544414
 30
0.0
 40
18.5
  0
CIRCLE
  5
77BA
330
A
100
AcDbEntity
  8
HIDDEN
 48
0.5
100
AcDbCircle
 10
1680.95747660761
 20
2175.012997544414
 30
0.0
 40
18.5
  0
CIRCLE
  5
77BB
330
A
100
AcDbEntity
  8
HIDDEN
 48
0.5
100
AcDbCircle
 10
1480.95747660761
 20
2175.012997544414
 30
0.0
 40
18.5
  0
LINE
  5
783E
102
{ACAD_REACTORS
330
7842
330
7848
330
785A
330
7877
102
}
330
A
100
AcDbEntity
  8
MODEL
100
AcDbLine
 10
1430.95747660761
 20
2205.012997544415
 30
0.0
 11
1730.95747660761
 21
2205.012997544415
 31
0.0
  0
LINE
  5
783F
102
{ACAD_REACTORS
330
7842
330
7877
102
}
330
A
100
AcDbEntity
  8
MODEL
100
AcDbLine
 10
1730.95747660761
 20
2205.012997544415
 30
0.0
 11
1730.95747660761
 21
1905.012997544415
 31
0.0
  0
LINE
  5
7840
102
{ACAD_REACTORS
330
7842
330
785A
330
7869
330
7877
102
}
330
A
100
AcDbEntity
  8
MODEL
100
AcDbLine
 10
1730.95747660761
 20
1905.012997544415
 30
0.0
 11
1430.95747660761
 21
1905.012997544415
 31
0.0
  0
LINE
  5
7841
102
{ACAD_REACTORS
330
7842
330
7877
102
}
330
A
100
AcDbEntity
  8
MODEL
100
AcDbLine
 10
1430.95747660761
 20
1905.012997544415
 30
0.0
 11
1430.95747660761
 21
2205.012997544415
 31
0.0
  0
DIMENSION
  5
7846
102
{ACAD_REACTORS
330
7848
102
}
102
{ACAD_XDICTIONARY
360
7847
102
}
330
A
100
AcDbEntity
  8
Dim
100
AcDbDimension
  2
*D57
 10
1819.728339023743
 20
2235.012997544415
 30
0.0
 11
1819.728339023743
 21
2279.585832993634
 31
0.0
 70
   160
 71
     5
 42
30.0
 73
     0
 74
     1
 75
     1
  3
tform線あり
100
AcDbAlignedDimension
 13
1730.95747660761
 23
2205.012997544415
 33
0.0
 14
1817.228491611633
 24
2235.012997544415
 34
0.0
 50
90.0
100
AcDbRotatedDimension
1001
ACAD
1000
DSTYLE
1002
{
1070
   144
1040
1.0
1002
}
  0
DIMENSION
  5
7858
102
{ACAD_REACTORS
330
785A
102
}
102
{ACAD_XDICTIONARY
360
7859
102
}
330
A
100
AcDbEntity
  8
Dim
100
AcDbDimension
  2
*D58
 10
1819.728339023743
 20
2205.012997544415
 30
0.0
 11
1797.512030429993
 21
2055.012997544415
 31
0.0
 70
    32
 71
     5
 42
300.0
 73
     0
 74
     0
 75
     0
  3
tform線あり
100
AcDbAlignedDimension
 13
1730.95747660761
 23
1905.012997544415
 33
0.0
 14
1730.95747660761
 24
2205.012997544415
 34
0.0
 50
90.0
100
AcDbRotatedDimension
1001
ACAD
1000
DSTYLE
1002
{
1070
   144
1040
1.0
1002
}
  0
DIMENSION
  5
7867
102
{ACAD_REACTORS
330
7869
102
}
102
{ACAD_XDICTIONARY
360
7868
102
}
330
A
100
AcDbEntity
  8
Dim
100
AcDbDimension
  2
*D59
 10
1730.95747660761
 20
1820.862080491808
 30
0.0
 11
1580.95747660761
 21
1843.078389085558
 31
0.0
 70
    32
 71
     5
 42
300.0
 73
     0
 74
     0
 75
     0
  3
tform線あり
100
AcDbAlignedDimension
 13
1430.95747660761
 23
1905.012997544415
 33
0.0
 14
1730.95747660761
 24
1905.012997544415
 34
0.0
100
AcDbRotatedDimension
1001
ACAD
1000
DSTYLE
1002
{
1070
   144
1040
1.0
1002
}
  0
HATCH
  5
7877
330
A
100
AcDbEntity
  8
Dim
100
AcDbHatch
 10
0.0
 20
0.0
 30
0.0
210
0.0
220
0.0
230
1.0
  2
ANSI31
 70
     0
 71
     1
 91
        1
 92
        1
 93
        4
 72
     1
 10
1430.95747660761
 20
2205.012997544415
 11
1730.95747660761
 21
2205.012997544415
 72
     1
 10
1730.95747660761
 20
2205.012997544415
 11
1730.95747660761
 21
1905.012997544415
 72
     1
 10
1730.95747660761
 20
1905.012997544415
 11
1430.95747660761
 21
1905.012997544415
 72
     1
 10
1430.95747660761
 20
1905.012997544415
 11
1430.95747660761
 21
2205.012997544415
 97
        4
330
783E
330
783F
330
7840
330
7841
 75
     0
 76
     1
 52
0.0
 41
6.0
 77
     0
 78
     1
 53
45.0
 43
-2517.876899999999
 44
-55.6875
 45
-13.47038418160373
 46
13.47038418160373
 79
     0
 98
        1
 10
-2517.876899999999
 20
-55.6875
1001
ACAD
1010
0.0
1020
0.0
1030
0.0
  0
LWPOLYLINE
  5
797F
330
A
100
AcDbEntity
  8
HIDDEN
 48
0.5
100
AcDbPolyline
 90
        4
 70
     1
 43
0.0
 10
610.8195806076096
 20
928.9475084827432
 42
0.9999999999999998
 10
610.8195806076096
 20
920.9475084827432
 10
647.8195806076096
 20
920.9475084827432
 42
0.9999999999999998
 10
647.8195806076096
 20
928.9475084827432
  0
LWPOLYLINE
  5
7980
330
A
100
AcDbEntity
  8
HIDDEN
 48
0.5
100
AcDbPolyline
 90
        4
 70
     1
 43
0.0
 10
484.3195806076105
 20
894.9475084827357
 42
-0.9999999999999998
 10
484.3195806076105
 20
914.9475084827357
 10
494.3195806076105
 20
914.9475084827357
 42
-0.9999999999999998
 10
494.3195806076105
 20
894.9475084827357
  0
LWPOLYLINE
  5
7981
330
A
100
AcDbEntity
  8
HIDDEN
 48
0.5
100
AcDbPolyline
 90
        4
 70
     1
 43
0.0
 10
764.3195806076105
 20
894.9475084827357
 42
-0.9999999999999998
 10
764.3195806076105
 20
914.9475084827357
 10
774.3195806076105
 20
914.9475084827357
 42
-0.9999999999999998
 10
774.3195806076105
 20
894.9475084827357
  0
VIEWPORT
  5
349
330
B
100
AcDbEntity
 67
     1
  8
0
100
AcDbViewport
 10
202.5
 20
128.5
 30
0.0
 40
486.0
 41
308.4
 68
     1
 69
     1
 12
202.5
 22
128.5
 13
0.0
 23
0.0
 14
0.5
 24
0.5
 15
0.0
 25
0.0
 16
0.0
 26
0.0
 36
1.0
 17
0.0
 27
0.0
 37
0.0
 42
50.0
 43
0.0
 44
0.0
 45
308.4
 50
0.0
 51
0.0
 72
   100
 90
   557152
  1

281
     0
 71
     1
 74
     0
110
0.0
120
0.0
130
0.0
111
1.0
121
0.0
131
0.0
112
0.0
122
1.0
132
0.0
 79
     0
146
0.0
170
     0
 61
     5
348
26C
292
     1
282
     1
141
0.0
142
0.0
 63
   256
  0
VIEWPORT
  5
34A
330
B
100
AcDbEntity
 67
     1
  8
0
100
AcDbViewport
 10
202.5
 20
128.5
 30
0.0
 40
324.0
 41
205.6
 68
     2
 69
     2
 12
986.6781359294573
 22
1427.077061889956
 13
0.0
 23
0.0
 14
0.5
 24
0.5
 15
0.0
 25
0.0
 16
0.0
 26
0.0
 36
1.0
 17
0.0
 27
0.0
 37
0.0
 42
50.0
 43
0.0
 44
0.0
 45
2890.021615685494
 50
0.0
 51
0.0
 72
   100
 90
   557152
  1

281
     0
 71
     1
 74
     0
110
0.0
120
0.0
130
0.0
111
1.0
121
0.0
131
0.0
112
0.0
122
1.0
132
0.0
 79
     0
146
0.0
170
     0
 61
     5
348
26C
292
     1
282
     1
141
0.0
142
0.0
 63
   256
  0
ENDSEC
  0
SECTION
  2
OBJECTS
  0
DICTIONARY
  5
19
330
0
100
AcDbDictionary
281
     1
  3
ACAD_COLOR
350
38F
  3
ACAD_DETAILVIEWSTYLE
350
8CF
  3
ACAD_FIELDLIST
350
BA6
  3
ACAD_GROUP
350
1A
  3
ACAD_IMAGE_VARS
350
27B
  3
ACAD_LAYOUT
350
1E
  3
ACAD_MATERIAL
350
263
  3
ACAD_MLEADERSTYLE
350
336
  3
ACAD_MLINESTYLE
350
1B
  3
ACAD_PLOTSETTINGS
350
22
  3
ACAD_PLOTSTYLENAME
350
1F
  3
ACAD_SCALELIST
350
241
  3
ACAD_SECTIONVIEWSTYLE
350
8D0
  3
ACAD_TABLESTYLE
350
278
  3
ACAD_VISUALSTYLE
350
267
  3
ACDB_RECOMPOSE_DATA
350
7996
  3
AcDbVariableDictionary
350
330
  3
APPDATA
350
27A
  3
DimOffsetDictionary
350
C08
  0
SUN
  5
8C2
330
15
100
AcDbSun
 90
        1
290
     0
 63
     7
421
 16777215
 40
1.0
291
     1
 91
  2455826
 92
 54000000
292
     0
 70
     2
 71
   256
280
     1
  0
DICTIONARY
  5
2E1
330
2
100
AcDbDictionary
280
     1
281
     1
  3
ACAD_LAYERSTATES
360
2E2
  3
ACLYDICTIONARY
360
BFE
  0
DICTIONARY
  5
6587
330
A
100
AcDbDictionary
280
     1
281
     1
  3
ACAD_SORTENTS
360
6588
  0
DICTIONARY
  5
BDC
330
BDB
100
AcDbDictionary
280
     1
281
     1
  3
ACAD_FIELD
360
7990
  0
DICTIONARY
  5
76E0
330
76DF
100
AcDbDictionary
280
     1
281
     1
  3
ACAD_DIMASSOC
360
76E1
  0
DICTIONARY
  5
7847
330
7846
100
AcDbDictionary
280
     1
281
     1
  3
ACAD_DIMASSOC
360
7848
  0
DICTIONARY
  5
7859
330
7858
100
AcDbDictionary
280
     1
281
     1
  3
ACAD_DIMASSOC
360
785A
  0
DICTIONARY
  5
7868
330
7867
100
AcDbDictionary
280
     1
281
     1
  3
ACAD_DIMASSOC
360
7869
  0
DICTIONARY
  5
38F
102
{ACAD_REACTORS
330
19
102
}
330
19
100
AcDbDictionary
281
     1
  0
DICTIONARY
  5
8CF
102
{ACAD_REACTORS
330
19
102
}
330
19
100
AcDbDictionary
281
     1
  0
FIELDLIST
  5
BA6
102
{ACAD_REACTORS
330
19
102
}
330
19
100
AcDbIdSet
 90
        2
330
BDF
330
BDE
100
AcDbFieldList
  0
DICTIONARY
  5
1A
102
{ACAD_REACTORS
330
19
102
}
330
19
100
AcDbDictionary
281
     1
  3
*A1
350
758E
  3
*A2
350
7598
  3
*A3
350
766B
  3
*A4
350
766C
  3
*A7
350
7842
  0
RASTERVARIABLES
  5
27B
102
{ACAD_REACTORS
330
19
102
}
330
19
100
AcDbRasterVariables
 90
        0
 70
     1
 71
     1
 72
     1
  0
DICTIONARY
  5
1E
102
{ACAD_REACTORS
330
19
102
}
330
19
100
AcDbDictionary
281
     1
  3
Layout1
350
21
  3
Model
350
20
  0
DICTIONARY
  5
263
102
{ACAD_REACTORS
330
19
102
}
330
19
100
AcDbDictionary
281
     1
  3
ByBlock
350
3F68
  3
ByLayer
350
264
  3
Global
350
266
  0
DICTIONARY
  5
336
102
{ACAD_REACTORS
330
19
102
}
330
19
100
AcDbDictionary
281
     1
  3
Standard
350
8D1
  0
DICTIONARY
  5
1B
102
{ACAD_REACTORS
330
19
102
}
330
19
100
AcDbDictionary
281
     1
  3
Standard
350
1C
  0
DICTIONARY
  5
22
102
{ACAD_REACTORS
330
19
102
}
330
19
100
AcDbDictionary
281
     1
  0
ACDBDICTIONARYWDFLT
  5
1F
102
{ACAD_REACTORS
330
19
102
}
330
19
100
AcDbDictionary
281
     1
  3
Normal
350
1D
100
AcDbDictionaryWithDefault
340
1D
  0
DICTIONARY
  5
241
102
{ACAD_REACTORS
330
19
102
}
330
19
100
AcDbDictionary
281
     1
  3
A0
350
242
  3
A1
350
243
  3
A2
350
244
  3
A3
350
245
  3
A4
350
246
  3
A5
350
247
  3
A6
350
248
  3
A7
350
249
  3
A8
350
24A
  3
A9
350
24B
  3
B0
350
24C
  3
B1
350
24D
  3
B2
350
24E
  3
B3
350
24F
  3
B4
350
250
  3
B5
350
251
  3
B6
350
252
  3
B7
350
253
  3
B8
350
254
  3
B9
350
255
  3
C0
350
256
  3
C1
350
257
  3
C2
350
258
  3
C3
350
259
  3
C4
350
25A
  3
C5
350
25B
  3
C6
350
25C
  3
C7
350
25D
  3
C8
350
25E
  3
C9
350
25F
  3
D0
350
260
  3
D1
350
261
  3
D2
350
262
  0
DICTIONARY
  5
8D0
102
{ACAD_REACTORS
330
19
102
}
330
19
100
AcDbDictionary
281
     1
  0
DICTIONARY
  5
278
102
{ACAD_REACTORS
330
19
102
}
330
19
100
AcDbDictionary
281
     1
  3
Standard
350
279
  0
DICTIONARY
  5
267
102
{ACAD_REACTORS
330
19
102
}
330
19
100
AcDbDictionary
281
     1
  3
2dWireframe
350
26C
  3
3D Hidden
350
26E
  3
3dWireframe
350
26D
  3
Basic
350
26F
  3
Brighten
350
273
  3
ColorChange
350
277
  3
Conceptual
350
271
  3
Dim
350
272
  3
EdgeColorOff
350
8BC
  3
Facepattern
350
276
  3
Flat
350
268
  3
FlatWithEdges
350
269
  3
Gouraud
350
26A
  3
GouraudWithEdges
350
26B
  3
Hidden
350
8B9
  3
JitterOff
350
8BA
  3
Linepattern
350
275
  3
OverhangOff
350
8BB
  3
Realistic
350
270
  3
Shaded
350
8C1
  3
Shaded with edges
350
8C0
  3
Shades of Gray
350
8BD
  3
Sketchy
350
8BE
  3
Thicken
350
274
  3
Wireframe
350
8B8
  3
X-Ray
350
8BF
  0
XRECORD
  5
7996
102
{ACAD_REACTORS
330
19
102
}
330
19
100
AcDbXrecord
280
     1
 90
        1
330
279
  0
DICTIONARY
  5
330
102
{ACAD_REACTORS
330
19
102
}
330
19
100
AcDbDictionary
281
     1
  3
CANNOSCALE
350
331
  3
CMLEADERSTYLE
350
8DA
  3
CTABLESTYLE
350
335
  3
HPTRANSPARENCY
350
C07
  3
XCLIPFRAME
350
64A
  0
DICTIONARY
  5
27A
102
{ACAD_REACTORS
330
19
102
}
330
19
100
AcDbDictionary
281
     1
  0
DICTIONARY
  5
C08
102
{ACAD_REACTORS
330
19
102
}
330
19
100
AcDbDictionary
281
     1
  3
DIMRAILANGLE
350
4918
  3
DIMRAILFIRSTOFFSET
350
4916
  3
DIMRAILOFFSET
350
4917
  3
DIMRAILSENABLED
350
4919
  0
DICTIONARY
  5
2E2
102
{ACAD_REACTORS
330
2E1
102
}
330
2E1
100
AcDbDictionary
281
     1
  0
DICTIONARY
  5
BFE
102
{ACAD_REACTORS
330
2E1
102
}
330
2E1
100
AcDbDictionary
281
     1
1001
ACAD
1000
<All
  0
SORTENTSTABLE
  5
6588
102
{ACAD_REACTORS
330
6587
102
}
330
6587
100
AcDbSortentsTable
330
A
331
0
  5
6DBE
331
783E
  5
7840
331
783F
  5
7841
331
7840
  5
7843
331
7841
  5
7844
331
7846
  5
7867
331
7858
  5
7876
331
7867
  5
7877
331
7877
  5
783F
  0
DICTIONARY
  5
7990
102
{ACAD_REACTORS
330
BDC
102
}
330
BDC
100
AcDbDictionary
280
     1
281
     1
  3
TEXT
360
BDE
  0
DIMASSOC
  5
76E1
102
{ACAD_REACTORS
330
76E0
102
}
330
76E0
100
AcDbDimAssoc
330
76DF
 90
        1
 70
     0
 71
     1
  1
AcDbOsnapPointRef
 72
     2
331
72CE
 73
     0
 91
        0
 40
0.5
 10
0.0
 20
0.0
 30
0.0
 75
     0
  0
DIMASSOC
  5
7848
102
{ACAD_REACTORS
330
7847
102
}
330
7847
100
AcDbDimAssoc
330
7846
 90
        1
 70
     0
 71
     1
  1
AcDbOsnapPointRef
 72
     1
331
783E
 73
     0
 91
        0
 40
0.0
 10
0.0
 20
0.0
 30
0.0
 75
     0
  0
DIMASSOC
  5
785A
102
{ACAD_REACTORS
330
7859
102
}
330
7859
100
AcDbDimAssoc
330
7858
 90
        3
 70
     0
 71
     1
  1
AcDbOsnapPointRef
 72
    13
331
7840
 73
     0
 91
        0
 40
0.0
 10
0.0
 20
0.0
 30
0.0
 75
     0
  1
AcDbOsnapPointRef
 72
     1
331
783E
 73
     0
 91
        0
 40
0.0
 10
0.0
 20
0.0
 30
0.0
 75
     0
  0
DIMASSOC
  5
7869
102
{ACAD_REACTORS
330
7868
102
}
330
7868
100
AcDbDimAssoc
330
7867
 90
        3
 70
     0
 71
     1
  1
AcDbOsnapPointRef
 72
     1
331
7840
 73
     0
 91
        0
 40
0.0
 10
0.0
 20
0.0
 30
0.0
 75
     0
  1
AcDbOsnapPointRef
 72
    13
331
7840
 73
     0
 91
        0
 40
0.0
 10
0.0
 20
0.0
 30
0.0
 75
     0
  0
GROUP
  5
758E
102
{ACAD_REACTORS
330
1A
102
}
330
1A
100
AcDbGroup
300

 70
     1
 71
     1
340
758C
340
758D
340
7583
340
7584
340
7585
340
7586
340
7587
340
7588
340
7589
  0
GROUP
  5
7598
102
{ACAD_REACTORS
330
1A
102
}
330
1A
100
AcDbGroup
300

 70
     1
 71
     1
340
758F
340
7590
340
7591
340
7592
340
7593
340
7594
340
7595
340
7596
340
7597
  0
GROUP
  5
766B
102
{ACAD_REACTORS
330
1A
102
}
330
1A
100
AcDbGroup
300

 70
     1
 71
     1
340
75FE
340
75FF
340
7600
340
7601
340
7602
340
7603
340
7604
340
7605
340
7606
340
7607
340
7608
340
7609
340
760A
340
760B
340
760C
340
760E
340
760F
340
766A
  0
GROUP
  5
766C
102
{ACAD_REACTORS
330
1A
102
}
330
1A
100
AcDbGroup
300

 70
     1
 71
     1
340
7583
340
7584
340
7585
340
7586
340
7587
340
7588
340
7589
340
758C
340
758D
340
758F
340
7590
340
7591
340
7592
340
7593
340
7594
340
7595
340
7596
340
7597
  0
GROUP
  5
7842
102
{ACAD_REACTORS
330
1A
102
}
330
1A
100
AcDbGroup
300

 70
     1
 71
     1
340
783E
340
783F
340
7840
340
7841
  0
LAYOUT
  5
21
102
{ACAD_REACTORS
330
1E
102
}
330
1E
100
AcDbPlotSettings
  1

  2
none_device
  4
ISO_A3_(420.00_x_297.00_MM)
  6

 40
7.5
 41
20.0
 42
7.5
 43
20.0
 44
420.0
 45
297.0
 46
0.0
 47
0.0
 48
0.0
 49
0.0
140
0.0
141
0.0
142
1.0
143
1.0
 70
     0
 72
     1
 73
     0
 74
     0
  7

 75
     0
 76
     0
 77
     2
 78
   300
147
1.0
148
0.0
149
0.0
100
AcDbLayout
  1
Layout1
 70
     0
 71
     0
 10
0.0
 20
0.0
 11
0.0
 21
0.0
 12
0.0
 22
0.0
 32
0.0
 14
0.0
 24
0.0
 34
0.0
 15
0.0
 25
0.0
 35
0.0
146
0.0
 13
0.0
 23
0.0
 33
0.0
 16
0.0
 26
0.0
 36
0.0
 17
0.0
 27
0.0
 37
0.0
 76
     0
330
B
331
349
  0
LAYOUT
  5
20
102
{ACAD_REACTORS
330
1E
102
}
330
1E
100
AcDbPlotSettings
  1

  2
none_device
  4
ISO_A3_(420.00_x_297.00_MM)
  6

 40
7.5
 41
20.0
 42
7.5
 43
20.0
 44
420.0
 45
297.0
 46
0.0
 47
0.0
 48
0.0
 49
0.0
140
0.0
141
0.0
142
1.0
143
1.0
 70
  1024
 72
     1
 73
     0
 74
     0
  7

 75
     0
 76
     0
 77
     2
 78
   300
147
1.0
148
0.0
149
0.0
100
AcDbLayout
  1
Model
 70
     0
 71
     1
 10
0.0
 20
0.0
 11
2100.0
 21
2970.0
 12
0.0
 22
0.0
 32
0.0
 14
0.0
 24
0.0
 34
0.0
 15
2100.0
 25
2970.0
 35
34.99521132346015
146
0.0
 13
0.0
 23
0.0
 33
0.0
 16
0.0
 26
0.0
 36
0.0
 17
0.0
 27
0.0
 37
0.0
 76
     0
330
A
331
15
  0
MATERIAL
  5
3F68
102
{ACAD_REACTORS
330
263
102
}
330
263
100
AcDbMaterial
  1
ByBlock
 72
     1
 94
      127
  0
MATERIAL
  5
264
102
{ACAD_REACTORS
330
263
102
}
330
263
100
AcDbMaterial
  1
ByLayer
 72
     1
 94
      127
  0
MATERIAL
  5
266
102
{ACAD_REACTORS
330
263
102
}
330
263
100
AcDbMaterial
  1
Global
 72
     1
 94
      127
  0
MLEADERSTYLE
  5
8D1
102
{ACAD_REACTORS
330
336
102
}
330
336
100
AcDbMLeaderStyle
170
     2
171
     1
172
     0
 90
        2
 40
0.0
 41
0.0
173
     1
 91
-1056964608
340
11
 92
       -2
290
     1
 42
2.0
291
     1
 43
8.0
  3
Standard
341
0
 44
4.0
300

342
17
174
     1
178
     6
175
     1
176
     0
 93
-1056964608
 45
4.0
292
     0
297
     0
 46
4.0
343
0
 94
-1056964608
 47
1.0
 49
1.0
140
1.0
293
     1
141
0.0
294
     1
177
     0
142
1.0
295
     0
296
     0
143
3.75
1001
ACAD_MLEADERVER
1070
     2
  0
MLINESTYLE
  5
1C
102
{ACAD_REACTORS
330
1B
102
}
330
1B
100
AcDbMlineStyle
  2
Standard
 70
     0
  3

 62
     0
 51
90.0
 52
90.0
 71
     2
 49
0.5
 62
   256
  6
BYLAYER
 49
-0.5
 62
   256
  6
BYLAYER
  0
ACDBPLACEHOLDER
  5
1D
102
{ACAD_REACTORS
330
1F
102
}
330
1F
  0
SCALE
  5
242
102
{ACAD_REACTORS
330
241
102
}
330
241
100
AcDbScale
 70
     0
300
1:1
140
1.0
141
1.0
290
     1
  0
SCALE
  5
243
102
{ACAD_REACTORS
330
241
102
}
330
241
100
AcDbScale
 70
     0
300
1:2
140
1.0
141
2.0
290
     0
  0
SCALE
  5
244
102
{ACAD_REACTORS
330
241
102
}
330
241
100
AcDbScale
 70
     0
300
1:4
140
1.0
141
4.0
290
     0
  0
SCALE
  5
245
102
{ACAD_REACTORS
330
241
102
}
330
241
100
AcDbScale
 70
     0
300
1:5
140
1.0
141
5.0
290
     0
  0
SCALE
  5
246
102
{ACAD_REACTORS
330
241
102
}
330
241
100
AcDbScale
 70
     0
300
1:8
140
1.0
141
8.0
290
     0
  0
SCALE
  5
247
102
{ACAD_REACTORS
330
241
102
}
330
241
100
AcDbScale
 70
     0
300
1:10
140
1.0
141
10.0
290
     0
  0
SCALE
  5
248
102
{ACAD_REACTORS
330
241
102
}
330
241
100
AcDbScale
 70
     0
300
1:16
140
1.0
141
16.0
290
     0
  0
SCALE
  5
249
102
{ACAD_REACTORS
330
241
102
}
330
241
100
AcDbScale
 70
     0
300
1:20
140
1.0
141
20.0
290
     0
  0
SCALE
  5
24A
102
{ACAD_REACTORS
330
241
102
}
330
241
100
AcDbScale
 70
     0
300
1:30
140
1.0
141
30.0
290
     0
  0
SCALE
  5
24B
102
{ACAD_REACTORS
330
241
102
}
330
241
100
AcDbScale
 70
     0
300
1:40
140
1.0
141
40.0
290
     0
  0
SCALE
  5
24C
102
{ACAD_REACTORS
330
241
102
}
330
241
100
AcDbScale
 70
     0
300
1:50
140
1.0
141
50.0
290
     0
  0
SCALE
  5
24D
102
{ACAD_REACTORS
330
241
102
}
330
241
100
AcDbScale
 70
     0
300
1:100
140
1.0
141
100.0
290
     0
  0
SCALE
  5
24E
102
{ACAD_REACTORS
330
241
102
}
330
241
100
AcDbScale
 70
     0
300
2:1
140
2.0
141
1.0
290
     0
  0
SCALE
  5
24F
102
{ACAD_REACTORS
330
241
102
}
330
241
100
AcDbScale
 70
     0
300
4:1
140
4.0
141
1.0
290
     0
  0
SCALE
  5
250
102
{ACAD_REACTORS
330
241
102
}
330
241
100
AcDbScale
 70
     0
300
8:1
140
8.0
141
1.0
290
     0
  0
SCALE
  5
251
102
{ACAD_REACTORS
330
241
102
}
330
241
100
AcDbScale
 70
     0
300
10:1
140
10.0
141
1.0
290
     0
  0
SCALE
  5
252
102
{ACAD_REACTORS
330
241
102
}
330
241
100
AcDbScale
 70
     0
300
100:1
140
100.0
141
1.0
290
     0
  0
SCALE
  5
253
102
{ACAD_REACTORS
330
241
102
}
330
241
100
AcDbScale
 70
     0
300
1/128" = 1'-0"
140
0.0078125
141
12.0
290
     0
  0
SCALE
  5
254
102
{ACAD_REACTORS
330
241
102
}
330
241
100
AcDbScale
 70
     0
300
1/64" = 1'-0"
140
0.015625
141
12.0
290
     0
  0
SCALE
  5
255
102
{ACAD_REACTORS
330
241
102
}
330
241
100
AcDbScale
 70
     0
300
1/32" = 1'-0"
140
0.03125
141
12.0
290
     0
  0
SCALE
  5
256
102
{ACAD_REACTORS
330
241
102
}
330
241
100
AcDbScale
 70
     0
300
1/16" = 1'-0"
140
0.0625
141
12.0
290
     0
  0
SCALE
  5
257
102
{ACAD_REACTORS
330
241
102
}
330
241
100
AcDbScale
 70
     0
300
3/32" = 1'-0"
140
0.09375
141
12.0
290
     0
  0
SCALE
  5
258
102
{ACAD_REACTORS
330
241
102
}
330
241
100
AcDbScale
 70
     0
300
1/8" = 1'-0"
140
0.125
141
12.0
290
     0
  0
SCALE
  5
259
102
{ACAD_REACTORS
330
241
102
}
330
241
100
AcDbScale
 70
     0
300
3/16" = 1'-0"
140
0.1875
141
12.0
290
     0
  0
SCALE
  5
25A
102
{ACAD_REACTORS
330
241
102
}
330
241
100
AcDbScale
 70
     0
300
1/4" = 1'-0"
140
0.25
141
12.0
290
     0
  0
SCALE
  5
25B
102
{ACAD_REACTORS
330
241
102
}
330
241
100
AcDbScale
 70
     0
300
3/8" = 1'-0"
140
0.375
141
12.0
290
     0
  0
SCALE
  5
25C
102
{ACAD_REACTORS
330
241
102
}
330
241
100
AcDbScale
 70
     0
300
1/2" = 1'-0"
140
0.5
141
12.0
290
     0
  0
SCALE
  5
25D
102
{ACAD_REACTORS
330
241
102
}
330
241
100
AcDbScale
 70
     0
300
3/4" = 1'-0"
140
0.75
141
12.0
290
     0
  0
SCALE
  5
25E
102
{ACAD_REACTORS
330
241
102
}
330
241
100
AcDbScale
 70
     0
300
1" = 1'-0"
140
1.0
141
12.0
290
     0
  0
SCALE
  5
25F
102
{ACAD_REACTORS
330
241
102
}
330
241
100
AcDbScale
 70
     0
300
1-1/2" = 1'-0"
140
1.5
141
12.0
290
     0
  0
SCALE
  5
260
102
{ACAD_REACTORS
330
241
102
}
330
241
100
AcDbScale
 70
     0
300
3" = 1'-0"
140
3.0
141
12.0
290
     0
  0
SCALE
  5
261
102
{ACAD_REACTORS
330
241
102
}
330
241
100
AcDbScale
 70
     0
300
6" = 1'-0"
140
6.0
141
12.0
290
     0
  0
SCALE
  5
262
102
{ACAD_REACTORS
330
241
102
}
330
241
100
AcDbScale
 70
     0
300
1'-0" = 1'-0"
140
12.0
141
12.0
290
     0
  0
TABLESTYLE
  5
279
102
{ACAD_REACTORS
330
278
102
}
102
{ACAD_XDICTIONARY
360
7994
102
}
330
278
100
AcDbTableStyle
  3
Standard
 70
     0
 71
     0
 40
0.06
 41
0.06
280
     0
281
     0
  7
Standard
140
4.5
170
     2
 62
     0
 63
   257
283
     0
 90
        4
 91
        0
  1

274
    -2
284
     1
 64
     0
275
    -2
285
     1
 65
     0
276
    -2
286
     1
 66
     0
277
    -2
287
     1
 67
     0
278
    -2
288
     1
 68
     0
279
    -2
289
     1
 69
     0
  7
Standard
140
6.0
170
     5
 62
     0
 63
   257
283
     0
 90
        4
 91
        0
  1

274
    -2
284
     1
 64
     0
275
    -2
285
     1
 65
     0
276
    -2
286
     1
 66
     0
277
    -2
287
     1
 67
     0
278
    -2
288
     1
 68
     0
279
    -2
289
     1
 69
     0
  7
Standard
140
4.5
170
     5
 62
     0
 63
   257
283
     0
 90
        4
 91
        0
  1

274
    -2
284
     1
 64
     0
275
    -2
285
     1
 65
     0
276
    -2
286
     1
 66
     0
277
    -2
287
     1
 67
     0
278
    -2
288
     1
 68
     0
279
    -2
289
     1
 69
     0
  0
VISUALSTYLE
  5
26C
102
{ACAD_REACTORS
330
267
102
}
330
267
100
AcDbVisualStyle
  2
2dWireframe
 70
     4
 71
     0
 72
     2
 73
     0
 90
        0
 40
-0.6
 41
-30.0
 62
     5
 63
     7
421
 16777215
 74
     1
 91
        4
 64
     7
 65
   257
 75
     1
175
     1
 42
1.0
 92
        0
 66
   257
 43
1.0
 76
     1
 77
     6
 78
     2
 67
     7
 79
     5
170
     0
171
     0
290
     0
174
     0
 93
        1
 44
0.0
173
     0
291
     0
 45
0.0
  0
VISUALSTYLE
  5
26E
102
{ACAD_REACTORS
330
267
102
}
330
267
100
AcDbVisualStyle
  2
3D Hidden
 70
     6
 71
     1
 72
     2
 73
     2
 90
        0
 40
-0.6
 41
-30.0
 62
     5
 63
     7
421
 16777215
 74
     2
 91
        2
 64
     7
 65
   257
 75
     2
175
     1
 42
40.0
 92
        0
 66
   257
 43
1.0
 76
     1
 77
     6
 78
     2
 67
     7
 79
     3
170
     0
171
     0
290
     0
174
     0
 93
        1
 44
0.0
173
     0
291
     0
 45
0.0
  0
VISUALSTYLE
  5
26D
102
{ACAD_REACTORS
330
267
102
}
330
267
100
AcDbVisualStyle
  2
3dWireframe
 70
     5
 71
     0
 72
     2
 73
     0
 90
        0
 40
-0.6
 41
-30.0
 62
     5
 63
     7
421
 16777215
 74
     1
 91
        4
 64
     7
 65
   257
 75
     1
175
     1
 42
1.0
 92
        0
 66
   257
 43
1.0
 76
     1
 77
     6
 78
     2
 67
     7
 79
     5
170
     0
171
     0
290
     0
174
     0
 93
        1
 44
0.0
173
     0
291
     0
 45
0.0
  0
VISUALSTYLE
  5
26F
102
{ACAD_REACTORS
330
267
102
}
330
267
100
AcDbVisualStyle
  2
Basic
 70
     7
 71
     1
 72
     0
 73
     1
 90
        0
 40
-0.6
 41
-30.0
 62
     5
 63
     7
421
 16777215
 74
     0
 91
        4
 64
     7
 65
   257
 75
     1
175
     1
 42
1.0
 92
        8
 66
     7
 43
1.0
 76
     1
 77
     6
 78
     2
 67
     7
 79
     5
170
     0
171
     0
290
     0
174
     0
 93
        1
 44
0.0
173
     0
291
     1
 45
0.0
  0
VISUALSTYLE
  5
273
102
{ACAD_REACTORS
330
267
102
}
330
267
100
AcDbVisualStyle
  2
Brighten
 70
    12
 71
     2
 72
     2
 73
     0
 90
        0
 40
-0.6
 41
-30.0
 62
     5
 63
     7
421
 16777215
 74
     1
 91
        4
 64
     7
 65
   257
 75
     1
175
     1
 42
1.0
 92
        8
 66
     7
 43
1.0
 76
     1
 77
     6
 78
     2
 67
     7
 79
     5
170
     0
171
     0
290
     0
174
     0
 93
        1
 44
50.0
173
     0
291
     1
 45
0.0
  0
VISUALSTYLE
  5
277
102
{ACAD_REACTORS
330
267
102
}
330
267
100
AcDbVisualStyle
  2
ColorChange
 70
    16
 71
     2
 72
     2
 73
     3
 90
        0
 40
-0.6
 41
-30.0
 62
     5
 63
     8
421
  8421504
 74
     1
 91
        4
 64
     7
 65
   257
 75
     1
175
     1
 42
1.0
 92
        8
 66
     8
424
  8421504
 43
1.0
 76
     1
 77
     6
 78
     2
 67
     7
 79
     5
170
     0
171
     0
290
     0
174
     0
 93
        1
 44
0.0
173
     0
291
     1
 45
0.0
  0
VISUALSTYLE
  5
271
102
{ACAD_REACTORS
330
267
102
}
330
267
100
AcDbVisualStyle
  2
Conceptual
 70
     9
 71
     3
 72
     2
 73
     0
 90
        0
 40
-0.6
 41
-30.0
 62
     5
 63
     7
421
 16777215
 74
     2
 91
        2
 64
     7
 65
   257
 75
     1
175
     1
 42
40.0
 92
        8
 66
     7
 43
1.0
 76
     1
 77
     6
 78
     2
 67
     7
 79
     3
170
     0
171
     0
290
     0
174
     0
 93
        1
 44
0.0
173
     0
291
     0
 45
0.0
  0
VISUALSTYLE
  5
272
102
{ACAD_REACTORS
330
267
102
}
330
267
100
AcDbVisualStyle
  2
Dim
 70
    11
 71
     2
 72
     2
 73
     0
 90
        0
 40
-0.6
 41
-30.0
 62
     5
 63
     7
421
 16777215
 74
     1
 91
        4
 64
     7
 65
   257
 75
     1
175
     1
 42
1.0
 92
        8
 66
     7
 43
1.0
 76
     1
 77
     6
 78
     2
 67
     7
 79
     5
170
     0
171
     0
290
     0
174
     0
 93
        1
 44
-50.0
173
     0
291
     1
 45
0.0
  0
VISUALSTYLE
  5
8BC
102
{ACAD_REACTORS
330
267
102
}
330
267
100
AcDbVisualStyle
  2
EdgeColorOff
 70
    22
 71
     2
 72
     2
 73
     0
 90
        0
 40
0.6
 41
30.0
 62
     5
 63
     7
421
 16777215
 74
     1
 91
        4
 64
     7
 65
   257
 75
     1
175
     1
 42
1.0
 92
        8
 66
     7
 43
1.0
 76
     1
 77
     6
 78
     2
 67
     7
 79
     5
170
     0
171
     0
290
     0
174
     0
 93
        1
 44
0.0
173
     0
291
     1
 45
0.0
  0
VISUALSTYLE
  5
276
102
{ACAD_REACTORS
330
267
102
}
330
267
100
AcDbVisualStyle
  2
Facepattern
 70
    15
 71
     2
 72
     2
 73
     0
 90
        0
 40
-0.6
 41
-30.0
 62
     5
 63
     7
421
 16777215
 74
     1
 91
        4
 64
     7
 65
   257
 75
     1
175
     1
 42
1.0
 92
        8
 66
     7
 43
1.0
 76
     1
 77
     6
 78
     2
 67
     7
 79
     5
170
     0
171
     0
290
     0
174
     0
 93
        1
 44
0.0
173
     0
291
     1
 45
0.0
  0
VISUALSTYLE
  5
268
102
{ACAD_REACTORS
330
267
102
}
330
267
100
AcDbVisualStyle
  2
Flat
 70
     0
 71
     2
 72
     1
 73
     1
 90
        2
 40
-0.6
 41
30.0
 62
     5
 63
     7
421
 16777215
 74
     0
 91
        4
 64
     7
 65
   257
 75
     1
175
     1
 42
1.0
 92
        8
 66
     7
 43
1.0
 76
     1
 77
     6
 78
     2
 67
     7
 79
     5
170
     0
171
     0
290
     0
174
     0
 93
       13
 44
0.0
173
     0
291
     1
 45
0.0
  0
VISUALSTYLE
  5
269
102
{ACAD_REACTORS
330
267
102
}
330
267
100
AcDbVisualStyle
  2
FlatWithEdges
 70
     1
 71
     2
 72
     1
 73
     1
 90
        2
 40
-0.6
 41
30.0
 62
     5
 63
     7
421
 16777215
 74
     1
 91
        4
 64
     7
 65
   257
 75
     1
175
     1
 42
1.0
 92
        0
 66
   257
 43
1.0
 76
     1
 77
     6
 78
     2
 67
     7
 79
     5
170
     0
171
     0
290
     0
174
     0
 93
       13
 44
0.0
173
     0
291
     1
 45
0.0
  0
VISUALSTYLE
  5
26A
102
{ACAD_REACTORS
330
267
102
}
330
267
100
AcDbVisualStyle
  2
Gouraud
 70
     2
 71
     2
 72
     2
 73
     1
 90
        2
 40
-0.6
 41
30.0
 62
     5
 63
     7
421
 16777215
 74
     0
 91
        4
 64
     7
 65
   257
 75
     1
175
     1
 42
1.0
 92
        0
 66
     7
 43
1.0
 76
     1
 77
     6
 78
     2
 67
     7
 79
     5
170
     0
171
     0
290
     0
174
     0
 93
       13
 44
0.0
173
     0
291
     1
 45
0.0
  0
VISUALSTYLE
  5
26B
102
{ACAD_REACTORS
330
267
102
}
330
267
100
AcDbVisualStyle
  2
GouraudWithEdges
 70
     3
 71
     2
 72
     2
 73
     1
 90
        2
 40
-0.6
 41
30.0
 62
     5
 63
     7
421
 16777215
 74
     1
 91
        4
 64
     7
 65
   257
 75
     1
175
     1
 42
1.0
 92
        0
 66
   257
 43
1.0
 76
     1
 77
     6
 78
     2
 67
     7
 79
     5
170
     0
171
     0
290
     0
174
     0
 93
       13
 44
0.0
173
     0
291
     1
 45
0.0
  0
VISUALSTYLE
  5
8B9
102
{ACAD_REACTORS
330
267
102
}
330
267
100
AcDbVisualStyle
  2
Hidden
 70
     6
 71
     1
 72
     2
 73
     2
 90
        0
 40
0.6
 41
30.0
 62
     5
 63
     7
421
 16777215
 74
     2
 91
        2
 64
     7
 65
   257
 75
     2
175
     1
 42
40.0
 92
        0
 66
   257
 43
1.0
 76
     1
 77
     6
 78
     2
 67
     7
 79
     3
170
     0
171
     0
290
     0
174
     0
 93
        1
 44
0.0
173
     0
291
     0
 45
0.0
  0
VISUALSTYLE
  5
8BA
102
{ACAD_REACTORS
330
267
102
}
330
267
100
AcDbVisualStyle
  2
JitterOff
 70
    20
 71
     2
 72
     2
 73
     0
 90
        0
 40
0.6
 41
30.0
 62
     5
 63
     7
421
 16777215
 74
     1
 91
        4
 64
     7
 65
   257
 75
     1
175
     1
 42
1.0
 92
       10
 66
     7
 43
1.0
 76
     1
 77
     6
 78
     2
 67
     7
 79
     5
170
     0
171
     0
290
     0
174
     0
 93
        1
 44
0.0
173
     0
291
     1
 45
0.0
  0
VISUALSTYLE
  5
275
102
{ACAD_REACTORS
330
267
102
}
330
267
100
AcDbVisualStyle
  2
Linepattern
 70
    14
 71
     2
 72
     2
 73
     0
 90
        0
 40
-0.6
 41
-30.0
 62
     5
 63
     7
421
 16777215
 74
     1
 91
        4
 64
     7
 65
   257
 75
     7
175
     7
 42
1.0
 92
        8
 66
     7
 43
1.0
 76
     1
 77
     6
 78
     2
 67
     7
 79
     5
170
     0
171
     0
290
     0
174
     0
 93
        1
 44
0.0
173
     0
291
     1
 45
0.0
  0
VISUALSTYLE
  5
8BB
102
{ACAD_REACTORS
330
267
102
}
330
267
100
AcDbVisualStyle
  2
OverhangOff
 70
    21
 71
     2
 72
     2
 73
     0
 90
        0
 40
0.6
 41
30.0
 62
     5
 63
     7
421
 16777215
 74
     1
 91
        4
 64
     7
 65
   257
 75
     1
175
     1
 42
1.0
 92
        9
 66
     7
 43
1.0
 76
     1
 77
     6
 78
     2
 67
     7
 79
     5
170
     0
171
     0
290
     0
174
     0
 93
        1
 44
0.0
173
     0
291
     1
 45
0.0
  0
VISUALSTYLE
  5
270
102
{ACAD_REACTORS
330
267
102
}
330
267
100
AcDbVisualStyle
  2
Realistic
 70
     8
 71
     2
 72
     2
 73
     0
 90
        0
 40
-0.6
 41
-30.0
 62
     5
 63
     7
421
 16777215
 74
     1
 91
        0
 64
     7
 65
   257
 75
     1
175
     1
 42
1.0
 92
        8
 66
     8
424
  7895160
 43
1.0
 76
     1
 77
     6
 78
     2
 67
     7
 79
     5
170
     0
171
     0
290
     0
174
     0
 93
       13
 44
0.0
173
     0
291
     0
 45
0.0
  0
VISUALSTYLE
  5
8C1
102
{ACAD_REACTORS
330
267
102
}
330
267
100
AcDbVisualStyle
  2
Shaded
 70
    27
 71
     2
 72
     2
 73
     1
 90
        2
 40
0.6
 41
30.0
 62
     5
 63
     7
421
 16777215
 74
     0
 91
        4
 64
     7
 65
   257
 75
     1
175
     1
 42
1.0
 92
        8
 66
   257
 43
1.0
 76
     1
 77
     6
 78
     2
 67
     8
425
  7895160
 79
     3
170
     0
171
     0
290
     0
174
     0
 93
        5
 44
0.0
173
     0
291
     0
 45
0.0
  0
VISUALSTYLE
  5
8C0
102
{ACAD_REACTORS
330
267
102
}
330
267
100
AcDbVisualStyle
  2
Shaded with edges
 70
    26
 71
     2
 72
     2
 73
     1
 90
        2
 40
0.6
 41
30.0
 62
     5
 63
     7
421
 16777215
 74
     1
 91
       10
 64
     7
 65
   257
 75
     2
175
     1
 42
1.0
 92
        8
 66
   257
 43
1.0
 76
     1
 77
     6
 78
     2
 67
     7
 79
     3
170
     0
171
     0
290
     0
174
     0
 93
        5
 44
0.0
173
     0
291
     0
 45
0.0
  0
VISUALSTYLE
  5
8BD
102
{ACAD_REACTORS
330
267
102
}
330
267
100
AcDbVisualStyle
  2
Shades of Gray
 70
    23
 71
     2
 72
     2
 73
     3
 90
        0
 40
0.6
 41
30.0
 62
     5
 63
     7
421
 16777215
 74
     2
 91
        2
 64
     7
 65
     7
 75
     1
175
     1
 42
40.0
 92
        8
 66
     7
 43
1.0
 76
     1
 77
     6
 78
     2
 67
     7
 79
     3
170
     0
171
     0
290
     0
174
     0
 93
        1
 44
0.0
173
     0
291
     0
 45
0.0
  0
VISUALSTYLE
  5
8BE
102
{ACAD_REACTORS
330
267
102
}
330
267
100
AcDbVisualStyle
  2
Sketchy
 70
    24
 71
     1
 72
     2
 73
     2
 90
        0
 40
0.6
 41
30.0
 62
     5
 63
     7
421
 16777215
 74
     2
 91
        2
 64
     7
 65
     7
 75
     1
175
     1
 42
40.0
 92
       11
 66
     7
 43
1.0
 76
     1
 77
     6
 78
     2
 67
     7
 79
     6
170
     0
171
     0
290
     0
174
     0
 93
        1
 44
0.0
173
     0
291
     0
 45
0.0
  0
VISUALSTYLE
  5
274
102
{ACAD_REACTORS
330
267
102
}
330
267
100
AcDbVisualStyle
  2
Thicken
 70
    13
 71
     2
 72
     2
 73
     0
 90
        0
 40
-0.6
 41
-30.0
 62
     5
 63
     7
421
 16777215
 74
     1
 91
        4
 64
     7
 65
   257
 75
     1
175
     1
 42
1.0
 92
       12
 66
     7
 43
1.0
 76
     1
 77
     6
 78
     2
 67
     7
 79
     5
170
     0
171
     0
290
     0
174
     0
 93
        1
 44
0.0
173
     0
291
     1
 45
0.0
  0
VISUALSTYLE
  5
8B8
102
{ACAD_REACTORS
330
267
102
}
330
267
100
AcDbVisualStyle
  2
Wireframe
 70
     5
 71
     0
 72
     2
 73
     0
 90
        0
 40
0.6
 41
30.0
 62
     5
 63
     7
421
 16777215
 74
     1
 91
        4
 64
     7
 65
   257
 75
     1
175
     1
 42
1.0
 92
        0
 66
   257
 43
1.0
 76
     1
 77
     6
 78
     2
 67
     7
 79
     3
170
     0
171
     0
290
     0
174
     0
 93
        1
 44
0.0
173
     0
291
     0
 45
0.0
  0
VISUALSTYLE
  5
8BF
102
{ACAD_REACTORS
330
267
102
}
330
267
100
AcDbVisualStyle
  2
X-Ray
 70
    25
 71
     2
 72
     2
 73
     1
 90
        1
 40
0.5
 41
30.0
 62
     5
 63
     7
421
 16777215
 74
     1
 91
        0
 64
     7
 65
   257
 75
     1
175
     1
 42
1.0
 92
        8
 66
     7
 43
1.0
 76
     1
 77
     6
 78
     2
 67
     7
 79
     3
170
     0
171
     0
290
     0
174
     0
 93
       13
 44
0.0
173
     0
291
     0
 45
0.0
  0
DICTIONARYVAR
  5
331
102
{ACAD_REACTORS
330
330
102
}
330
330
100
DictionaryVariables
280
     0
  1
1:1
  0
DICTIONARYVAR
  5
8DA
102
{ACAD_REACTORS
330
330
102
}
330
330
100
DictionaryVariables
280
     0
  1
Standard
  0
DICTIONARYVAR
  5
335
102
{ACAD_REACTORS
330
330
102
}
330
330
100
DictionaryVariables
280
     0
  1
Standard
  0
DICTIONARYVAR
  5
C07
102
{ACAD_REACTORS
330
330
102
}
330
330
100
DictionaryVariables
280
     0
  1
ByLayer
  0
DICTIONARYVAR
  5
64A
102
{ACAD_REACTORS
330
330
102
}
330
330
100
DictionaryVariables
280
     0
  1
0
  0
DICTIONARYVAR
  5
4918
102
{ACAD_REACTORS
330
C08
102
}
330
C08
100
DictionaryVariables
280
     0
  1
0.261799
  0
DICTIONARYVAR
  5
4916
102
{ACAD_REACTORS
330
C08
102
}
330
C08
100
DictionaryVariables
280
     0
  1
0.400000
  0
DICTIONARYVAR
  5
4917
102
{ACAD_REACTORS
330
C08
102
}
330
C08
100
DictionaryVariables
280
     0
  1
0.250000
  0
DICTIONARYVAR
  5
4919
102
{ACAD_REACTORS
330
C08
102
}
330
C08
100
DictionaryVariables
280
     0
  1
1
  0
FIELD
  5
BDE
102
{ACAD_REACTORS
330
7881
330
7990
102
}
330
7990
100
AcDbField
  1
_text
  2
{%<\_FldIdx 0>%N}
 90
        1
360
BDF
 97
        0
 91
       63
 92
        0
 94
       11
 95
        2
 96
        0
300

 93
        1
  6
ACFD_FIELDTEXT_CHECKSUM
 93
        2
 90
        2
140
4499.0
 94
        0
300

302

304
ACVALUE_END
  7
ACFD_FIELD_VALUE
 93
        6
 90
        4
  1
{20191123N}
 94
        0
300

302

304
ACVALUE_END
301
{20191123N}
 98
       11
  0
DICTIONARY
  5
7994
330
279
100
AcDbDictionary
280
     1
281
     1
  3
ACAD_ROUNDTRIP_2008_TABLESTYLE_CELLSTYLEMAP
360
7995
  0
FIELD
  5
BDF
330
BDE
100
AcDbField
  1
AcVar
  2
\AcVar Date \f "yyyyMMdd"
 90
        0
 97
        0
 91
       63
 92
        0
 94
        8
 95
       64
 96
        0
300
Variable not supported
 93
        1
  6
Variable
 93
        2
 90
        4
  1
Date
 94
        0
300

302

304
ACVALUE_END
  7
ACFD_FIELD_VALUE
 93
        6
 90
        8
 92
       16
310
E3070B00000016000F00190004000000
 94
        0
300
yyyyMMdd
302

304
ACVALUE_END
301
20191123
 98
        8
  0
CELLSTYLEMAP
  5
7995
102
{ACAD_REACTORS
330
7994
102
}
330
7994
100
AcDbCellStyleMap
 90
        3
300
CELLSTYLE
  1
TABLEFORMAT_BEGIN
 90
        5
170
     1
 91
        0
 92
    32768
 62
   257
 93
        1
300
CONTENTFORMAT
  1
CONTENTFORMAT_BEGIN
 90
        0
 91
        0
 92
        4
 93
        0
300

 40
0.0
140
1.0
 94
        5
 62
     0
340
17
144
6.0
309
CONTENTFORMAT_END
171
     1
301
MARGIN
  1
CELLMARGIN_BEGIN
 40
0.06
 40
0.06
 40
0.06
 40
0.06
 40
0.18
 40
0.18
309
CELLMARGIN_END
 94
        6
 95
        1
302
GRIDFORMAT
  1
GRIDFORMAT_BEGIN
 90
        0
 91
        1
 62
     0
 92
       -2
340
0
 93
        0
 40
0.045
309
GRIDFORMAT_END
 95
        2
302
GRIDFORMAT
  1
GRIDFORMAT_BEGIN
 90
        0
 91
        1
 62
     0
 92
       -2
340
0
 93
        0
 40
0.045
309
GRIDFORMAT_END
 95
        4
302
GRIDFORMAT
  1
GRIDFORMAT_BEGIN
 90
        0
 91
        1
 62
     0
 92
       -2
340
0
 93
        0
 40
0.045
309
GRIDFORMAT_END
 95
        8
302
GRIDFORMAT
  1
GRIDFORMAT_BEGIN
 90
        0
 91
        1
 62
     0
 92
       -2
340
0
 93
        0
 40
0.045
309
GRIDFORMAT_END
 95
       16
302
GRIDFORMAT
  1
GRIDFORMAT_BEGIN
 90
        0
 91
        1
 62
     0
 92
       -2
340
0
 93
        0
 40
0.045
309
GRIDFORMAT_END
 95
       32
302
GRIDFORMAT
  1
GRIDFORMAT_BEGIN
 90
        0
 91
        1
 62
     0
 92
       -2
340
0
 93
        0
 40
0.045
309
GRIDFORMAT_END
309
TABLEFORMAT_END
  1
CELLSTYLE_BEGIN
 90
        1
 91
        1
300
_TITLE
309
CELLSTYLE_END
300
CELLSTYLE
  1
TABLEFORMAT_BEGIN
 90
        5
170
     1
 91
        0
 92
        0
 62
   257
 93
        1
300
CONTENTFORMAT
  1
CONTENTFORMAT_BEGIN
 90
        0
 91
        0
 92
        4
 93
        0
300

 40
0.0
140
1.0
 94
        5
 62
     0
340
17
144
4.5
309
CONTENTFORMAT_END
171
     1
301
MARGIN
  1
CELLMARGIN_BEGIN
 40
0.06
 40
0.06
 40
0.06
 40
0.06
 40
0.18
 40
0.18
309
CELLMARGIN_END
 94
        6
 95
        1
302
GRIDFORMAT
  1
GRIDFORMAT_BEGIN
 90
        0
 91
        1
 62
     0
 92
       -2
340
0
 93
        0
 40
0.045
309
GRIDFORMAT_END
 95
        2
302
GRIDFORMAT
  1
GRIDFORMAT_BEGIN
 90
        0
 91
        1
 62
     0
 92
       -2
340
0
 93
        0
 40
0.045
309
GRIDFORMAT_END
 95
        4
302
GRIDFORMAT
  1
GRIDFORMAT_BEGIN
 90
        0
 91
        1
 62
     0
 92
       -2
340
0
 93
        0
 40
0.045
309
GRIDFORMAT_END
 95
        8
302
GRIDFORMAT
  1
GRIDFORMAT_BEGIN
 90
        0
 91
        1
 62
     0
 92
       -2
340
0
 93
        0
 40
0.045
309
GRIDFORMAT_END
 95
       16
302
GRIDFORMAT
  1
GRIDFORMAT_BEGIN
 90
        0
 91
        1
 62
     0
 92
       -2
340
0
 93
        0
 40
0.045
309
GRIDFORMAT_END
 95
       32
302
GRIDFORMAT
  1
GRIDFORMAT_BEGIN
 90
        0
 91
        1
 62
     0
 92
       -2
340
0
 93
        0
 40
0.045
309
GRIDFORMAT_END
309
TABLEFORMAT_END
  1
CELLSTYLE_BEGIN
 90
        2
 91
        1
300
_HEADER
309
CELLSTYLE_END
300
CELLSTYLE
  1
TABLEFORMAT_BEGIN
 90
        5
170
     1
 91
        0
 92
        0
 62
   257
 93
        1
300
CONTENTFORMAT
  1
CONTENTFORMAT_BEGIN
 90
        0
 91
        0
 92
        4
 93
        0
300

 40
0.0
140
1.0
 94
        2
 62
     0
340
17
144
4.5
309
CONTENTFORMAT_END
171
     1
301
MARGIN
  1
CELLMARGIN_BEGIN
 40
0.06
 40
0.06
 40
0.06
 40
0.06
 40
0.18
 40
0.18
309
CELLMARGIN_END
 94
        6
 95
        1
302
GRIDFORMAT
  1
GRIDFORMAT_BEGIN
 90
        0
 91
        1
 62
     0
 92
       -2
340
0
 93
        0
 40
0.045
309
GRIDFORMAT_END
 95
        2
302
GRIDFORMAT
  1
GRIDFORMAT_BEGIN
 90
        0
 91
        1
 62
     0
 92
       -2
340
0
 93
        0
 40
0.045
309
GRIDFORMAT_END
 95
        4
302
GRIDFORMAT
  1
GRIDFORMAT_BEGIN
 90
        0
 91
        1
 62
     0
 92
       -2
340
0
 93
        0
 40
0.045
309
GRIDFORMAT_END
 95
        8
302
GRIDFORMAT
  1
GRIDFORMAT_BEGIN
 90
        0
 91
        1
 62
     0
 92
       -2
340
0
 93
        0
 40
0.045
309
GRIDFORMAT_END
 95
       16
302
GRIDFORMAT
  1
GRIDFORMAT_BEGIN
 90
        0
 91
        1
 62
     0
 92
       -2
340
0
 93
        0
 40
0.045
309
GRIDFORMAT_END
 95
       32
302
GRIDFORMAT
  1
GRIDFORMAT_BEGIN
 90
        0
 91
        1
 62
     0
 92
       -2
340
0
 93
        0
 40
0.045
309
GRIDFORMAT_END
309
TABLEFORMAT_END
  1
CELLSTYLE_BEGIN
 90
        3
 91
        2
300
_DATA
309
CELLSTYLE_END
  0
ENDSEC
  0
EOF
