  0
SECTION
  2
HEADER
  9
$ACADVER
  1
AC1021
  9
$ACADMAINTVER
 70
    25
  9
$DWGCODEPAGE
  3
ANSI_932
  9
$LASTSAVEDBY
  1
T-HOWE-PC
  9
$INSBASE
 10
0.0
 20
0.0
 30
0.0
  9
$EXTMIN
 10
0.0
 20
0.0
 30
-0.0000000000000142
  9
$EXTMAX
 10
2100.0
 20
2970.0
 30
0.0000000000000142
  9
$LIMMIN
 10
0.0
 20
0.0
  9
$LIMMAX
 10
2100.0
 20
2970.0
  9
$ORTHOMODE
 70
     0
  9
$REGENMODE
 70
     1
  9
$FILLMODE
 70
     1
  9
$QTEXTMODE
 70
     0
  9
$MIRRTEXT
 70
     1
  9
$LTSCALE
 40
5.0
  9
$ATTMODE
 70
     1
  9
$TEXTSIZE
 40
2.5
  9
$TRACEWID
 40
1.0
  9
$TEXTSTYLE
  7
ＭＳ ゴシック
  9
$CLAYER
  8
DIM
  9
$CELTYPE
  6
ByLayer
  9
$CECOLOR
 62
   256
  9
$CELTSCALE
 40
1.0
  9
$DISPSILH
 70
     0
  9
$DIMSCALE
 40
1.0
  9
$DIMASZ
 40
10.0
  9
$DIMEXO
 40
30.0
  9
$DIMDLI
 40
0.9999999999999999
  9
$DIMRND
 40
0.0
  9
$DIMDLE
 40
0.0
  9
$DIMEXE
 40
0.0
  9
$DIMTP
 40
0.0
  9
$DIMTM
 40
0.0
  9
$DIMTXT
 40
24.0
  9
$DIMCEN
 40
0.0
  9
$DIMTSZ
 40
0.0
  9
$DIMTOL
 70
     0
  9
$DIMLIM
 70
     0
  9
$DIMTIH
 70
     0
  9
$DIMTOH
 70
     0
  9
$DIMSE1
 70
     0
  9
$DIMSE2
 70
     0
  9
$DIMTAD
 70
     1
  9
$DIMZIN
 70
    11
  9
$DIMBLK
  1
DOT
  9
$DIMASO
 70
     1
  9
$DIMSHO
 70
     1
  9
$DIMPOST
  1
<>
  9
$DIMAPOST
  1
[]
  9
$DIMALT
 70
     0
  9
$DIMALTD
 70
     1
  9
$DIMALTF
 40
1.0
  9
$DIMLFAC
 40
1.0
  9
$DIMTOFL
 70
     0
  9
$DIMTVP
 40
0.0
  9
$DIMTIX
 70
     1
  9
$DIMSOXD
 70
     0
  9
$DIMSAH
 70
     0
  9
$DIMBLK1
  1

  9
$DIMBLK2
  1

  9
$DIMSTYLE
  2
tfrom線あり
  9
$DIMCLRD
 70
     0
  9
$DIMCLRE
 70
     0
  9
$DIMCLRT
 70
     0
  9
$DIMTFAC
 40
1.0
  9
$DIMGAP
 40
20.0
  9
$DIMJUST
 70
     0
  9
$DIMSD1
 70
     0
  9
$DIMSD2
 70
     0
  9
$DIMTOLJ
 70
     1
  9
$DIMTZIN
 70
    11
  9
$DIMALTZ
 70
    11
  9
$DIMALTTZ
 70
    11
  9
$DIMUPT
 70
     0
  9
$DIMDEC
 70
     0
  9
$DIMTDEC
 70
     1
  9
$DIMALTU
 70
     2
  9
$DIMALTTD
 70
     2
  9
$DIMTXSTY
  7
ＭＳ ゴシック
  9
$DIMAUNIT
 70
     0
  9
$DIMADEC
 70
     2
  9
$DIMALTRND
 40
0.0
  9
$DIMAZIN
 70
     0
  9
$DIMDSEP
 70
    46
  9
$DIMATFIT
 70
     0
  9
$DIMFRAC
 70
     2
  9
$DIMLDRBLK
  1
DOT
  9
$DIMLUNIT
 70
     2
  9
$DIMLWD
 70
    -2
  9
$DIMLWE
 70
    -2
  9
$DIMTMOVE
 70
     0
  9
$DIMFXL
 40
1.0
  9
$DIMFXLON
 70
     0
  9
$DIMJOGANG
 40
0.7853981633974483
  9
$DIMTFILL
 70
     0
  9
$DIMTFILLCLR
 70
     0
  9
$DIMARCSYM
 70
     0
  9
$DIMLTYPE
  6

  9
$DIMLTEX1
  6

  9
$DIMLTEX2
  6

  9
$LUNITS
 70
     2
  9
$LUPREC
 70
     0
  9
$SKETCHINC
 40
0.1
  9
$FILLETRAD
 40
0.0
  9
$AUNITS
 70
     0
  9
$AUPREC
 70
     0
  9
$MENU
  1
acad
  9
$ELEVATION
 40
0.0
  9
$PELEVATION
 40
0.0
  9
$THICKNESS
 40
0.0
  9
$LIMCHECK
 70
     0
  9
$CHAMFERA
 40
0.0
  9
$CHAMFERB
 40
0.0
  9
$CHAMFERC
 40
0.0
  9
$CHAMFERD
 40
0.0
  9
$SKPOLY
 70
     0
  9
$TDCREATE
 40
2447893.375
  9
$TDUCREATE
 40
0.0
  9
$TDUPDATE
 40
2459165.660341864
  9
$TDUUPDATE
 40
2459165.285341864
  9
$TDINDWG
 40
0.2456925231
  9
$TDUSRTIMER
 40
0.0007694676
  9
$USRTIMER
 70
     1
  9
$ANGBASE
 50
0.0
  9
$ANGDIR
 70
     0
  9
$PDMODE
 70
     1
  9
$PDSIZE
 40
-2.0
  9
$PLINEWID
 40
0.0
  9
$SPLFRAME
 70
     0
  9
$SPLINETYPE
 70
     6
  9
$SPLINESEGS
 70
     8
  9
$HANDSEED
  5
41DE
  9
$SURFTAB1
 70
     6
  9
$SURFTAB2
 70
     6
  9
$SURFTYPE
 70
     6
  9
$SURFU
 70
     6
  9
$SURFV
 70
     6
  9
$UCSBASE
  2

  9
$UCSNAME
  2

  9
$UCSORG
 10
0.0
 20
0.0
 30
0.0
  9
$UCSXDIR
 10
1.0
 20
0.0
 30
0.0
  9
$UCSYDIR
 10
0.0
 20
1.0
 30
0.0
  9
$UCSORTHOREF
  2

  9
$UCSORTHOVIEW
 70
     0
  9
$UCSORGTOP
 10
0.0
 20
0.0
 30
0.0
  9
$UCSORGBOTTOM
 10
0.0
 20
0.0
 30
0.0
  9
$UCSORGLEFT
 10
0.0
 20
0.0
 30
0.0
  9
$UCSORGRIGHT
 10
0.0
 20
0.0
 30
0.0
  9
$UCSORGFRONT
 10
0.0
 20
0.0
 30
0.0
  9
$UCSORGBACK
 10
0.0
 20
0.0
 30
0.0
  9
$PUCSBASE
  2

  9
$PUCSNAME
  2

  9
$PUCSORG
 10
0.0
 20
0.0
 30
0.0
  9
$PUCSXDIR
 10
1.0
 20
0.0
 30
0.0
  9
$PUCSYDIR
 10
0.0
 20
1.0
 30
0.0
  9
$PUCSORTHOREF
  2

  9
$PUCSORTHOVIEW
 70
     0
  9
$PUCSORGTOP
 10
0.0
 20
0.0
 30
0.0
  9
$PUCSORGBOTTOM
 10
0.0
 20
0.0
 30
0.0
  9
$PUCSORGLEFT
 10
0.0
 20
0.0
 30
0.0
  9
$PUCSORGRIGHT
 10
0.0
 20
0.0
 30
0.0
  9
$PUCSORGFRONT
 10
0.0
 20
0.0
 30
0.0
  9
$PUCSORGBACK
 10
0.0
 20
0.0
 30
0.0
  9
$USERI1
 70
     0
  9
$USERI2
 70
     0
  9
$USERI3
 70
     0
  9
$USERI4
 70
     0
  9
$USERI5
 70
     0
  9
$USERR1
 40
0.0
  9
$USERR2
 40
0.0
  9
$USERR3
 40
0.0
  9
$USERR4
 40
0.0
  9
$USERR5
 40
0.0
  9
$WORLDVIEW
 70
     1
  9
$SHADEDGE
 70
     3
  9
$SHADEDIF
 70
    70
  9
$TILEMODE
 70
     1
  9
$MAXACTVP
 70
    64
  9
$PINSBASE
 10
0.0
 20
0.0
 30
0.0
  9
$PLIMCHECK
 70
     0
  9
$PEXTMIN
 10
0.0
 20
0.0
 30
0.0
  9
$PEXTMAX
 10
0.0
 20
0.0
 30
0.0
  9
$PLIMMIN
 10
-7.5
 20
-20.0
  9
$PLIMMAX
 10
412.5
 20
277.0
  9
$UNITMODE
 70
     0
  9
$VISRETAIN
 70
     0
  9
$PLINEGEN
 70
     1
  9
$PSLTSCALE
 70
     0
  9
$TREEDEPTH
 70
  3020
  9
$CMLSTYLE
  2
Standard
  9
$CMLJUST
 70
     0
  9
$CMLSCALE
 40
1.0
  9
$PROXYGRAPHICS
 70
     0
  9
$MEASUREMENT
 70
     1
  9
$CELWEIGHT
370
    -1
  9
$ENDCAPS
280
     0
  9
$JOINSTYLE
280
     0
  9
$LWDISPLAY
290
     1
  9
$INSUNITS
 70
     4
  9
$HYPERLINKBASE
  1

  9
$STYLESHEET
  1

  9
$XEDIT
290
     1
  9
$CEPSNTYPE
380
     0
  9
$PSTYLEMODE
290
     1
  9
$FINGERPRINTGUID
  2

  9
$VERSIONGUID
  2

  9
$EXTNAMES
290
     1
  9
$PSVPSCALE
 40
0.0
  9
$OLESTARTUP
290
     0
  9
$SORTENTS
280
   127
  9
$INDEXCTL
280
     0
  9
$HIDETEXT
280
     1
  9
$XCLIPFRAME
290
     0
  9
$HALOGAP
280
     0
  9
$OBSCOLOR
 70
   257
  9
$OBSLTYPE
280
     0
  9
$INTERSECTIONDISPLAY
280
     0
  9
$INTERSECTIONCOLOR
 70
   257
  9
$DIMASSOC
280
     2
  9
$PROJECTNAME
  1

  9
$CAMERADISPLAY
290
     0
  9
$LENSLENGTH
 40
50.0
  9
$CAMERAHEIGHT
 40
0.0
  9
$STEPSPERSEC
 40
2.0
  9
$STEPSIZE
 40
6.0
  9
$3DDWFPREC
 40
2.0
  9
$PSOLWIDTH
 40
0.25
  9
$PSOLHEIGHT
 40
4.0
  9
$LOFTANG1
 40
1.570796326794897
  9
$LOFTANG2
 40
1.570796326794897
  9
$LOFTMAG1
 40
0.0
  9
$LOFTMAG2
 40
0.0
  9
$LOFTPARAM
 70
     7
  9
$LOFTNORMALS
280
     1
  9
$LATITUDE
 40
37.795
  9
$LONGITUDE
 40
-122.394
  9
$NORTHDIRECTION
 40
0.0
  9
$TIMEZONE
 70
 -8000
  9
$LIGHTGLYPHDISPLAY
280
     1
  9
$TILEMODELIGHTSYNCH
280
     1
  9
$SOLIDHIST
280
     1
  9
$SHOWHIST
280
     1
  9
$DWFFRAME
280
     2
  9
$DGNFRAME
280
     2
  9
$REALWORLDSCALE
290
     1
  9
$INTERFERECOLOR
 62
   256
  9
$CSHADOW
280
     0
  9
$SHADOWPLANELOCATION
 40
0.0
  0
ENDSEC
  0
SECTION
  2
CLASSES
  0
CLASS
  1
LWPOLYLINE
  2
AcDbPolyline
  3
ObjectDBX Classes
 90
        0
 91
        1
280
     0
281
     1
  0
CLASS
  1
IMAGE
  2
AcDbRasterImage
  3
ISM
 90
      127
 91
        4
280
     0
281
     1
  0
CLASS
  1
OLE2FRAME
  2
AcDbOle2Frame
  3
ObjectDBX Classes
 90
        0
 91
        1
280
     0
281
     1
  0
CLASS
  1
HATCH
  2
AcDbHatch
  3
ObjectDBX Classes
 90
        0
 91
        1
280
     0
281
     1
  0
CLASS
  1
DICTIONARYVAR
  2
AcDbDictionaryVar
  3
ObjectDBX Classes
 90
        0
 91
        3
280
     0
281
     0
  0
CLASS
  1
RASTERVARIABLES
  2
AcDbRasterVariables
  3
ISM
 90
        0
 91
        3
280
     0
281
     0
  0
CLASS
  1
IMAGEDEF
  2
AcDbRasterImageDef
  3
ISM
 90
        0
 91
        3
280
     0
281
     0
  0
CLASS
  1
IMAGEDEF_REACTOR
  2
AcDbRasterImageDefReactor
  3
ISM
 90
        1
 91
        3
280
     0
281
     0
  0
CLASS
  1
IDBUFFER
  2
AcDbIdBuffer
  3
ObjectDBX Classes
 90
        0
 91
        3
280
     0
281
     0
  0
CLASS
  1
SPATIAL_FILTER
  2
AcDbSpatialFilter
  3
ObjectDBX Classes
 90
        0
 91
        3
280
     0
281
     0
  0
CLASS
  1
XRECORD
  2
AcDbXrecord
  3
ObjectDBX Classes
 90
        0
 91
        1
280
     0
281
     0
  0
CLASS
  1
SORTENTSTABLE
  2
AcDbSortentsTable
  3
ObjectDBX Classes
 90
        0
 91
        3
280
     0
281
     0
  0
CLASS
  1
LAYER_INDEX
  2
AcDbLayerIndex
  3
ObjectDBX Classes
 90
        0
 91
        3
280
     0
281
     0
  0
CLASS
  1
SPATIAL_INDEX
  2
AcDbSpatialIndex
  3
AutoCAD 2000
 90
        0
 91
        3
280
     0
281
     0
  0
CLASS
  1
OBJECT_PTR
  2
CAseDLPNTableRecord
  3
ASE-LPNTableRecord
 90
        1
 91
        3
280
     0
281
     0
  0
CLASS
  1
LAYOUT
  2
AcDbLayout
  3
ObjectDBX Classes
 90
        0
 91
        1
280
     0
281
     0
  0
CLASS
  1
PLOTSETTINGS
  2
AcDbPlotSettings
  3
ObjectDBX Classes
 90
        0
 91
        3
280
     0
281
     0
  0
CLASS
  1
ACDBDICTIONARYWDFLT
  2
AcDbDictionaryWithDefault
  3
ObjectDBX Classes
 90
        0
 91
        3
280
     0
281
     0
  0
CLASS
  1
ACDBPLACEHOLDER
  2
AcDbPlaceHolder
  3
ObjectDBX Classes
 90
        0
 91
        1
280
     0
281
     0
  0
CLASS
  1
SCALE
  2
AcDbScale
  3
ObjectDBX Classes
 90
     1153
 91
        3
280
     0
281
     0
  0
CLASS
  1
MATERIAL
  2
AcDbMaterial
  3
ObjectDBX Classes
 90
     1153
 91
        3
280
     0
281
     0
  0
CLASS
  1
VISUALSTYLE
  2
AcDbVisualStyle
  3
ObjectDBX Classes
 90
     4095
 91
        3
280
     0
281
     0
  0
CLASS
  1
TABLESTYLE
  2
AcDbTableStyle
  3
ObjectDBX Classes
 90
     4095
 91
        3
280
     0
281
     0
  0
CLASS
  1
DIMASSOC
  2
AcDbDimAssoc
  3
"AcDbDimAssoc|Product Desc:     AcDim ARX App For Dimension|Company:          Autodesk, Inc.|WEB Address:      www.autodesk.com"
 90
        0
 91
        3
280
     0
281
     0
  0
CLASS
  1
CELLSTYLEMAP
  2
AcDbCellStyleMap
  3
ObjectDBX Classes
 90
     1152
 91
        3
280
     0
281
     0
  0
CLASS
  1
SUN
  2
AcDbSun
  3
SCENEOE
 90
     1153
 91
        3
280
     0
281
     0
  0
CLASS
  1
MLEADERSTYLE
  2
AcDbMLeaderStyle
  3
ACDB_MLEADERSTYLE_CLASS
 90
     4095
 91
        3
280
     0
281
     0
  0
CLASS
  1
FIELD
  2
AcDbField
  3
ObjectDBX Classes
 90
     1152
 91
        3
280
     0
281
     0
  0
CLASS
  1
FIELDLIST
  2
AcDbFieldList
  3
ObjectDBX Classes
 90
     1152
 91
        3
280
     0
281
     0
  0
CLASS
  1
MULTILEADER
  2
AcDbMLeader
  3
ACDB_MLEADER_CLASS
 90
     1025
 91
        3
280
     0
281
     1
  0
ENDSEC
  0
SECTION
  2
TABLES
  0
TABLE
  2
VPORT
  5
7
330
0
100
AcDbSymbolTable
 70
     1
  0
VPORT
  5
15
330
7
100
AcDbSymbolTableRecord
100
AcDbViewportTableRecord
  2
*ACTIVE
 70
     0
 10
0.0
 20
0.0
 11
1.0
 21
1.0
 12
1141.0201356709
 22
1411.401285469834
 13
0.0
 23
0.0
 14
1.0
 24
1.0
 15
0.0
 25
0.0
 16
0.0
 26
0.0
 36
1.0
 17
-91.02013567089989
 27
73.59871453016603
 37
-46.86809886248109
 40
3029.4
 41
2.333333333333333
 42
50.0
 43
0.0
 44
0.0
 50
0.0
 51
0.0
 71
    16
 72
  2000
 73
     1
 74
     1
 75
     0
 76
     0
 77
     0
 78
     0
281
     0
 65
     1
110
0.0
120
0.0
130
0.0
111
1.0
121
0.0
131
0.0
112
0.0
122
1.0
132
0.0
 79
     0
146
0.0
348
3DA3
 60
     3
 61
     5
292
     1
282
     1
141
0.0
142
0.0
 63
   256
361
904
  0
ENDTAB
  0
TABLE
  2
LTYPE
  5
4
330
0
100
AcDbSymbolTable
 70
     3
  0
LTYPE
  5
11
330
4
100
AcDbSymbolTableRecord
100
AcDbLinetypeTableRecord
  2
ByBlock
 70
     0
  3

 72
    65
 73
     0
 40
0.0
  0
LTYPE
  5
12
330
4
100
AcDbSymbolTableRecord
100
AcDbLinetypeTableRecord
  2
ByLayer
 70
     0
  3

 72
    65
 73
     0
 40
0.0
  0
LTYPE
  5
13
330
4
100
AcDbSymbolTableRecord
100
AcDbLinetypeTableRecord
  2
Continuous
 70
     0
  3
Solid line
 72
    65
 73
     0
 40
0.0
  0
LTYPE
  5
DAF
330
4
100
AcDbSymbolTableRecord
100
AcDbLinetypeTableRecord
  2
BORDER
 70
     0
  3
Border __  __  . __  __  . __  __  . __  __  . 
 72
    65
 73
     6
 40
44.45
 49
12.7
 74
     0
 49
-6.35
 74
     0
 49
12.7
 74
     0
 49
-6.35
 74
     0
 49
0.0
 74
     0
 49
-6.35
 74
     0
  0
LTYPE
  5
33DD
330
4
100
AcDbSymbolTableRecord
100
AcDbLinetypeTableRecord
  2
HIDDEN
 70
     0
  3
Hidden _ _ _ _ _ _ _ _ _ _ _ _ _ _ _ _ _ _ _ _ 
 72
    65
 73
     2
 40
9.524999999999999
 49
6.35
 74
     0
 49
-3.175
 74
     0
  0
ENDTAB
  0
TABLE
  2
LAYER
  5
2
102
{ACAD_XDICTIONARY
360
2E1
102
}
330
0
100
AcDbSymbolTable
 70
    12
  0
LAYER
  5
14
330
2
100
AcDbSymbolTableRecord
100
AcDbLayerTableRecord
  2
0
 70
     0
 62
     7
  6
Continuous
370
    -3
390
1D
347
266
  0
LAYER
  5
4B
330
2
100
AcDbSymbolTableRecord
100
AcDbLayerTableRecord
  2
TEMPLATE
 70
     0
 62
     7
  6
Continuous
370
    20
390
1D
347
266
  0
LAYER
  5
4C
330
2
100
AcDbSymbolTableRecord
100
AcDbLayerTableRecord
  2
DIM
 70
     0
 62
     3
  6
Continuous
370
    13
390
1D
347
266
  0
LAYER
  5
4D
330
2
100
AcDbSymbolTableRecord
100
AcDbLayerTableRecord
  2
MODEL
 70
     0
 62
     7
  6
Continuous
370
    20
390
1D
347
266
  0
LAYER
  5
667
330
2
100
AcDbSymbolTableRecord
100
AcDbLayerTableRecord
  2
LOGO
 70
     0
 62
     7
  6
Continuous
370
    -3
390
1D
347
266
  0
LAYER
  5
D5D
330
2
100
AcDbSymbolTableRecord
100
AcDbLayerTableRecord
  2
Defpoints
 70
     0
 62
     7
  6
Continuous
290
     0
370
    -3
390
1D
347
266
  0
LAYER
  5
DAE
330
2
100
AcDbSymbolTableRecord
100
AcDbLayerTableRecord
  2
BORDER
 70
     0
 62
     4
  6
BORDER
290
     0
370
    20
390
1D
347
266
1001
AcAecLayerStandard
1000

1000

  0
LAYER
  5
157B
330
2
100
AcDbSymbolTableRecord
100
AcDbLayerTableRecord
  2
Layer3
 70
     0
 62
     7
  6
Continuous
370
    -3
390
1D
347
266
  0
LAYER
  5
157F
330
2
100
AcDbSymbolTableRecord
100
AcDbLayerTableRecord
  2
Layer9
 70
     0
 62
     7
  6
Continuous
370
    -3
390
1D
347
266
  0
LAYER
  5
1582
330
2
100
AcDbSymbolTableRecord
100
AcDbLayerTableRecord
  2
Standard
 70
     0
 62
     7
  6
Continuous
370
    -3
390
1D
347
266
  0
LAYER
  5
33DC
330
2
100
AcDbSymbolTableRecord
100
AcDbLayerTableRecord
  2
HIDDEN
 70
     0
 62
     8
  6
HIDDEN
370
    20
390
1D
347
266
1001
AcAecLayerStandard
1000

1000

  0
LAYER
  5
3EAD
330
2
100
AcDbSymbolTableRecord
100
AcDbLayerTableRecord
  2
Predefinito
 70
     0
 62
    18
420
        0
  6
Continuous
370
    -3
390
1D
347
266
  0
ENDTAB
  0
TABLE
  2
STYLE
  5
3
330
0
100
AcDbSymbolTable
 70
     6
  0
STYLE
  5
17
330
3
100
AcDbSymbolTableRecord
100
AcDbTextStyleTableRecord
  2
Standard
 70
     0
 40
0.0
 41
1.0
 50
0.0
 71
     0
 42
2.5
  3
txt
  4
BIGFONT.SHX
  0
STYLE
  5
39
330
3
100
AcDbSymbolTableRecord
100
AcDbTextStyleTableRecord
  2
ＭＳ ゴシック
 70
     0
 40
0.0
 41
1.0
 50
0.0
 71
     0
 42
2.5
  3
msgothic.ttc
  4
ＭＳ ゴシック
1001
ACAD
1000
ＭＳ ゴシック
1071
        0
  0
STYLE
  5
384
330
3
100
AcDbSymbolTableRecord
100
AcDbTextStyleTableRecord
  2
ARIAL
 70
     0
 40
0.0
 41
1.0
 50
0.0
 71
     0
 42
12.0
  3
ARIAL.TTF
  4

1001
ACAD
1000
Arial
1071
       34
  0
STYLE
  5
385
330
3
100
AcDbSymbolTableRecord
100
AcDbTextStyleTableRecord
  2
ROMANS
 70
     0
 40
0.0
 41
1.0
 50
0.0
 71
     0
 42
5.0
  3
romans.shx
  4

  0
STYLE
  5
158C
330
3
100
AcDbSymbolTableRecord
100
AcDbTextStyleTableRecord
  2
SEACAD_Arial
 70
     0
 40
0.0
 41
1.0
 50
0.0
 71
     0
 42
2.5
  3
arial.ttf
  4

1001
ACAD
1000
Arial
1071
        0
  0
STYLE
  5
158D
330
3
100
AcDbSymbolTableRecord
100
AcDbTextStyleTableRecord
  2
SEACAD_Solid_Edge_ANSI1_Symbols
 70
     0
 40
0.0
 41
1.0
 50
0.0
 71
     0
 42
2.5
  3
semeca1.ttf
  4

1001
ACAD
1000
Solid Edge ANSI1 Symbols
1071
        0
  0
ENDTAB
  0
TABLE
  2
VIEW
  5
5
330
0
100
AcDbSymbolTable
 70
     0
  0
ENDTAB
  0
TABLE
  2
UCS
  5
6
330
0
100
AcDbSymbolTable
 70
     0
  0
ENDTAB
  0
TABLE
  2
APPID
  5
8
330
0
100
AcDbSymbolTable
 70
     4
  0
APPID
  5
16
330
8
100
AcDbSymbolTableRecord
100
AcDbRegAppTableRecord
  2
ACAD
 70
     0
  0
APPID
  5
7AC
330
8
100
AcDbSymbolTableRecord
100
AcDbRegAppTableRecord
  2
AcAecLayerStandard
 70
     0
  0
APPID
  5
F3A
330
8
100
AcDbSymbolTableRecord
100
AcDbRegAppTableRecord
  2
ACAD_MLEADERVER
 70
     0
  0
APPID
  5
41D4
330
8
100
AcDbSymbolTableRecord
100
AcDbRegAppTableRecord
  2
PLOTTRANSPARENCY
 70
     0
  0
ENDTAB
  0
TABLE
  2
DIMSTYLE
  5
9
330
0
100
AcDbSymbolTable
 70
     2
100
AcDbDimStyleTable
  0
DIMSTYLE
105
18
330
9
100
AcDbSymbolTableRecord
100
AcDbDimStyleTableRecord
  2
Standard
 70
     0
178
     0
340
17
  0
DIMSTYLE
105
57
102
{ACAD_REACTORS
330
39FB
330
3A0A
330
3B01
330
3B10
330
3B60
330
3B63
330
3B6A
330
3BF2
330
3D6C
330
3DB6
330
3DC7
330
3DD6
330
3E0D
330
3E1E
330
3E4D
330
3E6B
330
3E7C
330
3E93
102
}
330
9
100
AcDbSymbolTableRecord
100
AcDbDimStyleTableRecord
  2
tfrom線あり
 70
     0
  3
<>
  4
[]
 41
10.0
 42
30.0
 43
0.9999999999999999
 44
0.0
 73
     0
 74
     0
 77
     1
 78
    11
140
24.0
141
0.0
143
1.0
147
20.0
171
     1
174
     1
178
     0
179
     2
271
     0
272
     1
276
     2
284
    11
285
    11
286
    11
289
     0
340
39
341
4E
342
4E
  0
ENDTAB
  0
TABLE
  2
BLOCK_RECORD
  5
1
330
0
100
AcDbSymbolTable
 70
    55
  0
BLOCK_RECORD
  5
A
102
{ACAD_XDICTIONARY
360
3DE6
102
}
330
1
100
AcDbSymbolTableRecord
100
AcDbBlockTableRecord
  2
*MODEL_SPACE
340
20
 70
     0
280
     1
281
     0
  0
BLOCK_RECORD
  5
B
330
1
100
AcDbSymbolTableRecord
100
AcDbBlockTableRecord
  2
*PAPER_SPACE
340
21
 70
     0
280
     1
281
     0
  0
BLOCK_RECORD
  5
4E
330
1
100
AcDbSymbolTableRecord
100
AcDbBlockTableRecord
  2
_DOT
340
0
102
{BLKREFS
331
35B5
331
35B6
331
35C1
331
35C2
331
35CD
331
35CE
331
35D9
331
35DA
331
35E5
331
35E6
331
35F1
331
35F2
331
35FD
331
35FE
331
3609
331
360A
331
3615
331
3616
331
3621
331
3622
331
362D
331
362E
331
3639
331
363A
331
3645
331
3646
331
3651
331
3652
331
39F5
331
39F6
331
3A04
331
3A05
331
3A13
331
3A14
331
3A22
331
3A23
331
3A31
331
3A32
331
3A40
331
3A41
331
3AC5
331
3AC6
331
3AD7
331
3AD8
331
3AF2
331
3AF3
331
3B0A
331
3B0B
331
3B19
331
3B1A
331
3B73
331
3B74
331
3B7F
331
3B80
331
3B8D
331
3B8E
331
3B9B
331
3B9C
331
3BA9
331
3BAA
331
3BFB
331
3BFC
331
3C56
331
3C57
331
3CDC
331
3CDD
331
3CE8
331
3CE9
331
3CF4
331
3CF5
331
3D00
331
3D01
331
3D77
331
3D78
331
3D89
331
3D8A
331
3DC1
331
3DC2
331
3DD0
331
3DD1
331
3DDF
331
3DE0
331
3E18
331
3E19
331
3E25
331
3E26
331
3E56
331
3E57
331
3E76
331
3E77
331
3E87
331
3E88
331
3E9A
331
3E9B
102
}
 70
     0
280
     1
281
     0
  0
BLOCK_RECORD
  5
68A
330
1
100
AcDbSymbolTableRecord
100
AcDbBlockTableRecord
  2
名称未設定-1
340
0
102
{BLKREFS
331
6B5
102
}
 70
     1
280
     1
281
     0
  0
BLOCK_RECORD
  5
68D
330
1
100
AcDbSymbolTableRecord
100
AcDbBlockTableRecord
  2
block 2
340
0
102
{BLKREFS
331
68C
102
}
 70
     0
280
     1
281
     0
  0
BLOCK_RECORD
  5
690
330
1
100
AcDbSymbolTableRecord
100
AcDbBlockTableRecord
  2
block 3
340
0
102
{BLKREFS
331
68F
102
}
 70
     0
280
     1
281
     0
  0
BLOCK_RECORD
  5
693
330
1
100
AcDbSymbolTableRecord
100
AcDbBlockTableRecord
  2
block 4
340
0
102
{BLKREFS
331
692
102
}
 70
     0
280
     1
281
     0
  0
BLOCK_RECORD
  5
6A2
330
1
100
AcDbSymbolTableRecord
100
AcDbBlockTableRecord
  2
block 5
340
0
102
{BLKREFS
331
6A1
102
}
 70
     0
280
     1
281
     0
  0
BLOCK_RECORD
  5
199A
330
1
100
AcDbSymbolTableRecord
100
AcDbBlockTableRecord
  2
SEANNOT_GROUP
340
0
102
{BLKREFS
331
28CA
102
}
 70
     0
280
     1
281
     0
  0
BLOCK_RECORD
  5
1F2F
330
1
100
AcDbSymbolTableRecord
100
AcDbBlockTableRecord
  2
SEANNOT_GROUP1
340
0
102
{BLKREFS
331
2B9B
102
}
 70
     0
280
     1
281
     0
  0
BLOCK_RECORD
  5
35AF
330
1
100
AcDbSymbolTableRecord
100
AcDbBlockTableRecord
  2
*D8
340
0
 70
     0
280
     1
281
     0
  0
BLOCK_RECORD
  5
35BB
330
1
100
AcDbSymbolTableRecord
100
AcDbBlockTableRecord
  2
*D9
340
0
 70
     0
280
     1
281
     0
  0
BLOCK_RECORD
  5
35C7
330
1
100
AcDbSymbolTableRecord
100
AcDbBlockTableRecord
  2
*D10
340
0
 70
     0
280
     1
281
     0
  0
BLOCK_RECORD
  5
35D3
330
1
100
AcDbSymbolTableRecord
100
AcDbBlockTableRecord
  2
*D11
340
0
 70
     0
280
     1
281
     0
  0
BLOCK_RECORD
  5
35DF
330
1
100
AcDbSymbolTableRecord
100
AcDbBlockTableRecord
  2
*D12
340
0
 70
     0
280
     1
281
     0
  0
BLOCK_RECORD
  5
35EB
330
1
100
AcDbSymbolTableRecord
100
AcDbBlockTableRecord
  2
*D13
340
0
 70
     0
280
     1
281
     0
  0
BLOCK_RECORD
  5
35F7
330
1
100
AcDbSymbolTableRecord
100
AcDbBlockTableRecord
  2
*D14
340
0
 70
     0
280
     1
281
     0
  0
BLOCK_RECORD
  5
3603
330
1
100
AcDbSymbolTableRecord
100
AcDbBlockTableRecord
  2
*D15
340
0
 70
     0
280
     1
281
     0
  0
BLOCK_RECORD
  5
360F
330
1
100
AcDbSymbolTableRecord
100
AcDbBlockTableRecord
  2
*D16
340
0
 70
     0
280
     1
281
     0
  0
BLOCK_RECORD
  5
361B
330
1
100
AcDbSymbolTableRecord
100
AcDbBlockTableRecord
  2
*D17
340
0
 70
     0
280
     1
281
     0
  0
BLOCK_RECORD
  5
3627
330
1
100
AcDbSymbolTableRecord
100
AcDbBlockTableRecord
  2
*D18
340
0
 70
     0
280
     1
281
     0
  0
BLOCK_RECORD
  5
3633
330
1
100
AcDbSymbolTableRecord
100
AcDbBlockTableRecord
  2
*D19
340
0
 70
     0
280
     1
281
     0
  0
BLOCK_RECORD
  5
363F
330
1
100
AcDbSymbolTableRecord
100
AcDbBlockTableRecord
  2
*D20
340
0
 70
     0
280
     1
281
     0
  0
BLOCK_RECORD
  5
364B
330
1
100
AcDbSymbolTableRecord
100
AcDbBlockTableRecord
  2
*D21
340
0
 70
     0
280
     1
281
     0
  0
BLOCK_RECORD
  5
39EF
330
1
100
AcDbSymbolTableRecord
100
AcDbBlockTableRecord
  2
*D22
340
0
 70
     0
280
     1
281
     0
  0
BLOCK_RECORD
  5
39FE
330
1
100
AcDbSymbolTableRecord
100
AcDbBlockTableRecord
  2
*D23
340
0
 70
     0
280
     1
281
     0
  0
BLOCK_RECORD
  5
3A0D
330
1
100
AcDbSymbolTableRecord
100
AcDbBlockTableRecord
  2
*D24
340
0
 70
     0
280
     1
281
     0
  0
BLOCK_RECORD
  5
3A1C
330
1
100
AcDbSymbolTableRecord
100
AcDbBlockTableRecord
  2
*D25
340
0
 70
     0
280
     1
281
     0
  0
BLOCK_RECORD
  5
3A2B
330
1
100
AcDbSymbolTableRecord
100
AcDbBlockTableRecord
  2
*D26
340
0
 70
     0
280
     1
281
     0
  0
BLOCK_RECORD
  5
3A3A
330
1
100
AcDbSymbolTableRecord
100
AcDbBlockTableRecord
  2
*D27
340
0
 70
     0
280
     1
281
     0
  0
BLOCK_RECORD
  5
3ABD
330
1
100
AcDbSymbolTableRecord
100
AcDbBlockTableRecord
  2
*D28
340
0
 70
     0
280
     1
281
     0
  0
BLOCK_RECORD
  5
3ACF
330
1
100
AcDbSymbolTableRecord
100
AcDbBlockTableRecord
  2
*D29
340
0
 70
     0
280
     1
281
     0
  0
BLOCK_RECORD
  5
3AEA
330
1
100
AcDbSymbolTableRecord
100
AcDbBlockTableRecord
  2
*D30
340
0
 70
     0
280
     1
281
     0
  0
BLOCK_RECORD
  5
3B04
330
1
100
AcDbSymbolTableRecord
100
AcDbBlockTableRecord
  2
*D31
340
0
 70
     0
280
     1
281
     0
  0
BLOCK_RECORD
  5
3B13
330
1
100
AcDbSymbolTableRecord
100
AcDbBlockTableRecord
  2
*D32
340
0
 70
     0
280
     1
281
     0
  0
BLOCK_RECORD
  5
3B6D
330
1
100
AcDbSymbolTableRecord
100
AcDbBlockTableRecord
  2
*D33
340
0
 70
     0
280
     1
281
     0
  0
BLOCK_RECORD
  5
3B79
330
1
100
AcDbSymbolTableRecord
100
AcDbBlockTableRecord
  2
*D34
340
0
 70
     0
280
     1
281
     0
  0
BLOCK_RECORD
  5
3B85
330
1
100
AcDbSymbolTableRecord
100
AcDbBlockTableRecord
  2
*D35
340
0
 70
     0
280
     1
281
     0
  0
BLOCK_RECORD
  5
3B93
330
1
100
AcDbSymbolTableRecord
100
AcDbBlockTableRecord
  2
*D36
340
0
 70
     0
280
     1
281
     0
  0
BLOCK_RECORD
  5
3BA1
330
1
100
AcDbSymbolTableRecord
100
AcDbBlockTableRecord
  2
*D37
340
0
 70
     0
280
     1
281
     0
  0
BLOCK_RECORD
  5
3BF5
330
1
100
AcDbSymbolTableRecord
100
AcDbBlockTableRecord
  2
*D38
340
0
 70
     0
280
     1
281
     0
  0
BLOCK_RECORD
  5
3C4F
330
1
100
AcDbSymbolTableRecord
100
AcDbBlockTableRecord
  2
*D39
340
0
 70
     0
280
     1
281
     0
  0
BLOCK_RECORD
  5
3CD6
330
1
100
AcDbSymbolTableRecord
100
AcDbBlockTableRecord
  2
*D40
340
0
 70
     0
280
     1
281
     0
  0
BLOCK_RECORD
  5
3CE2
330
1
100
AcDbSymbolTableRecord
100
AcDbBlockTableRecord
  2
*D41
340
0
 70
     0
280
     1
281
     0
  0
BLOCK_RECORD
  5
3CEE
330
1
100
AcDbSymbolTableRecord
100
AcDbBlockTableRecord
  2
*D42
340
0
 70
     0
280
     1
281
     0
  0
BLOCK_RECORD
  5
3CFA
330
1
100
AcDbSymbolTableRecord
100
AcDbBlockTableRecord
  2
*D43
340
0
 70
     0
280
     1
281
     0
  0
BLOCK_RECORD
  5
3D6F
330
1
100
AcDbSymbolTableRecord
100
AcDbBlockTableRecord
  2
*D44
340
0
 70
     0
280
     1
281
     0
  0
BLOCK_RECORD
  5
3D81
330
1
100
AcDbSymbolTableRecord
100
AcDbBlockTableRecord
  2
*D45
340
0
 70
     0
280
     1
281
     0
  0
BLOCK_RECORD
  5
3DB9
330
1
100
AcDbSymbolTableRecord
100
AcDbBlockTableRecord
  2
*D46
340
0
 70
     0
280
     1
281
     0
  0
BLOCK_RECORD
  5
3DCA
330
1
100
AcDbSymbolTableRecord
100
AcDbBlockTableRecord
  2
*D47
340
0
 70
     0
280
     1
281
     0
  0
BLOCK_RECORD
  5
3DD9
330
1
100
AcDbSymbolTableRecord
100
AcDbBlockTableRecord
  2
*D48
340
0
 70
     0
280
     1
281
     0
  0
BLOCK_RECORD
  5
3E10
330
1
100
AcDbSymbolTableRecord
100
AcDbBlockTableRecord
  2
*D49
340
0
 70
     0
280
     1
281
     0
  0
BLOCK_RECORD
  5
3E1F
330
1
100
AcDbSymbolTableRecord
100
AcDbBlockTableRecord
  2
*D50
340
0
 70
     0
280
     1
281
     0
  0
BLOCK_RECORD
  5
3E50
330
1
100
AcDbSymbolTableRecord
100
AcDbBlockTableRecord
  2
*D51
340
0
 70
     0
280
     1
281
     0
  0
BLOCK_RECORD
  5
3E6E
330
1
100
AcDbSymbolTableRecord
100
AcDbBlockTableRecord
  2
*D52
340
0
 70
     0
280
     1
281
     0
  0
BLOCK_RECORD
  5
3E7F
330
1
100
AcDbSymbolTableRecord
100
AcDbBlockTableRecord
  2
*D53
340
0
 70
     0
280
     1
281
     0
  0
BLOCK_RECORD
  5
3E94
330
1
100
AcDbSymbolTableRecord
100
AcDbBlockTableRecord
  2
*D54
340
0
 70
     0
280
     1
281
     0
  0
ENDTAB
  0
ENDSEC
  0
SECTION
  2
BLOCKS
  0
BLOCK
  5
D
330
A
100
AcDbEntity
  8
0
390
1D
100
AcDbBlockBegin
  2
*MODEL_SPACE
 70
     0
 10
0.0
 20
0.0
 30
0.0
  3
*MODEL_SPACE
  1
*MODEL_SPACE
  0
ENDBLK
  5
E
330
A
100
AcDbEntity
  8
0
390
1D
100
AcDbBlockEnd
  0
BLOCK
  5
F
330
B
100
AcDbEntity
 67
     1
  8
0
390
1D
100
AcDbBlockBegin
  2
*PAPER_SPACE
 70
     0
 10
0.0
 20
0.0
 30
0.0
  3
*PAPER_SPACE
  1
*PAPER_SPACE
  0
ENDBLK
  5
10
330
B
100
AcDbEntity
 67
     1
  8
0
390
1D
100
AcDbBlockEnd
  0
BLOCK
  5
EC4
330
4E
100
AcDbEntity
  8
0
390
1D
100
AcDbBlockBegin
  2
_DOT
 70
     0
 10
0.0
 20
0.0
 30
0.0
  3
_DOT
  1
_DOT
  0
POLYLINE
  5
EC6
330
4E
100
AcDbEntity
  8
0
  6
ByBlock
 62
     0
370
    -2
390
1D
100
AcDb2dPolyline
 66
     1
 10
0.0
 20
0.0
 30
0.0
 70
     1
 40
0.5
 41
0.5
  0
VERTEX
  5
EC7
330
EC6
100
AcDbEntity
  8
0
  6
ByBlock
 62
     0
370
    -2
390
1D
100
AcDbVertex
100
AcDb2dVertex
 10
-0.25
 20
0.0
 30
0.0
 42
1.0
  0
VERTEX
  5
EC8
330
EC6
100
AcDbEntity
  8
0
  6
ByBlock
 62
     0
370
    -2
390
1D
100
AcDbVertex
100
AcDb2dVertex
 10
0.25
 20
0.0
 30
0.0
 42
1.0
  0
SEQEND
  5
EC9
330
EC6
100
AcDbEntity
  8
0
390
1D
  0
LINE
  5
ECA
330
4E
100
AcDbEntity
  8
0
  6
ByBlock
 62
     0
370
    -2
390
1D
100
AcDbLine
 10
-0.5
 20
0.0
 30
0.0
 11
-1.0
 21
0.0
 31
0.0
  0
ENDBLK
  5
ECB
330
4E
100
AcDbEntity
  8
0
390
1D
100
AcDbBlockEnd
  0
BLOCK
  5
68B
330
68A
100
AcDbEntity
  8
0
100
AcDbBlockBegin
  2
名称未設定-1
 70
     0
 10
0.0
 20
0.0
 30
0.0
  3
名称未設定-1
  1
名称未設定-1
  0
INSERT
  5
68F
330
68A
100
AcDbEntity
  8
LOGO
100
AcDbBlockReference
  2
block 3
 10
0.0
 20
0.0
 30
0.0
  0
ENDBLK
  5
6B1
330
68A
100
AcDbEntity
  8
0
100
AcDbBlockEnd
  0
BLOCK
  5
68E
330
68D
100
AcDbEntity
  8
0
100
AcDbBlockBegin
  2
block 2
 70
     0
 10
0.0
 20
0.0
 30
0.0
  3
block 2
  1
block 2
  0
ENDBLK
  5
6B0
330
68D
100
AcDbEntity
  8
0
100
AcDbBlockEnd
  0
BLOCK
  5
691
330
690
100
AcDbEntity
  8
0
100
AcDbBlockBegin
  2
block 3
 70
     0
 10
0.0
 20
0.0
 30
0.0
  3
block 3
  1
block 3
  0
INSERT
  5
692
330
690
100
AcDbEntity
  8
LOGO
100
AcDbBlockReference
  2
block 4
 10
0.0
 20
0.0
 30
0.0
  0
INSERT
  5
6A1
330
690
100
AcDbEntity
  8
LOGO
100
AcDbBlockReference
  2
block 5
 10
0.0
 20
0.0
 30
0.0
  0
ENDBLK
  5
6AF
330
690
100
AcDbEntity
  8
0
100
AcDbBlockEnd
  0
BLOCK
  5
694
330
693
100
AcDbEntity
  8
0
100
AcDbBlockBegin
  2
block 4
 70
     0
 10
0.0
 20
0.0
 30
0.0
  3
block 4
  1
block 4
  0
POLYLINE
  5
695
330
693
100
AcDbEntity
  8
LOGO
370
     0
100
AcDb2dPolyline
 66
     1
 10
0.0
 20
0.0
 30
0.0
  0
VERTEX
  5
696
330
695
100
AcDbEntity
  8
LOGO
370
     0
100
AcDbVertex
100
AcDb2dVertex
 10
83.79545727667795
 20
167.6444858234922
 30
0.0
  0
VERTEX
  5
697
330
695
100
AcDbEntity
  8
LOGO
370
     0
100
AcDbVertex
100
AcDb2dVertex
 10
83.79545727667795
 20
159.7968976406313
 30
0.0
  0
VERTEX
  5
698
330
695
100
AcDbEntity
  8
LOGO
370
     0
100
AcDbVertex
100
AcDb2dVertex
 10
71.3631329975216
 20
159.7968976406313
 30
0.0
  0
VERTEX
  5
699
330
695
100
AcDbEntity
  8
LOGO
370
     0
100
AcDbVertex
100
AcDb2dVertex
 10
71.3631329975216
 20
127.8027915271048
 30
0.0
  0
VERTEX
  5
69A
330
695
100
AcDbEntity
  8
LOGO
370
     0
100
AcDbVertex
100
AcDb2dVertex
 10
60.43011526263018
 20
127.8027915271048
 30
0.0
  0
VERTEX
  5
69B
330
695
100
AcDbEntity
  8
LOGO
370
     0
100
AcDbVertex
100
AcDb2dVertex
 10
60.43011526263018
 20
159.7968976406313
 30
0.0
  0
VERTEX
  5
69C
330
695
100
AcDbEntity
  8
LOGO
370
     0
100
AcDbVertex
100
AcDb2dVertex
 10
48.21793273020759
 20
159.7968976406313
 30
0.0
  0
VERTEX
  5
69D
330
695
100
AcDbEntity
  8
LOGO
370
     0
100
AcDbVertex
100
AcDb2dVertex
 10
48.21793273020759
 20
167.6444858234922
 30
0.0
  0
VERTEX
  5
69E
330
695
100
AcDbEntity
  8
LOGO
370
     0
100
AcDbVertex
100
AcDb2dVertex
 10
83.79545727667795
 20
167.6444858234922
 30
0.0
  0
SEQEND
  5
69F
330
695
100
AcDbEntity
  8
LOGO
370
     0
  0
HATCH
  5
6A0
330
693
100
AcDbEntity
  8
LOGO
 62
   250
420
  2234388
100
AcDbHatch
 10
0.0
 20
0.0
 30
0.0
210
0.0
220
0.0
230
1.0
  2
SOLID
 70
     1
 71
     0
 91
        1
 92
        1
 93
        8
 72
     1
 10
83.79545727667795
 20
167.6444858234922
 11
83.79545727667795
 21
159.7968976406313
 72
     1
 10
83.79545727667795
 20
159.7968976406313
 11
71.3631329975216
 21
159.7968976406313
 72
     1
 10
71.3631329975216
 20
159.7968976406313
 11
71.3631329975216
 21
127.8027915271048
 72
     1
 10
71.3631329975216
 20
127.8027915271048
 11
60.43011526263018
 21
127.8027915271048
 72
     1
 10
60.43011526263018
 20
127.8027915271048
 11
60.43011526263018
 21
159.7968976406313
 72
     1
 10
60.43011526263018
 20
159.7968976406313
 11
48.21793273020759
 21
159.7968976406313
 72
     1
 10
48.21793273020759
 20
159.7968976406313
 11
48.21793273020759
 21
167.6444858234922
 72
     1
 10
48.21793273020759
 20
167.6444858234922
 11
83.79545727667795
 21
167.6444858234922
 97
        0
 75
     2
 76
     1
 98
        0
  0
ENDBLK
  5
6AE
330
693
100
AcDbEntity
  8
0
100
AcDbBlockEnd
  0
BLOCK
  5
6A3
330
6A2
100
AcDbEntity
  8
0
100
AcDbBlockBegin
  2
block 5
 70
     0
 10
0.0
 20
0.0
 30
0.0
  3
block 5
  1
block 5
  0
SPLINE
  5
6A4
330
6A2
100
AcDbEntity
  8
LOGO
370
     0
100
AcDbSpline
210
0.0
220
0.0
230
1.0
 70
    11
 71
     3
 72
    56
 73
    52
 74
     0
 42
0.000000001
 43
0.0000000001
 40
0.0
 40
0.0
 40
0.0
 40
0.0
 40
1.0
 40
1.0
 40
1.0
 40
2.0
 40
2.0
 40
2.0
 40
3.0
 40
3.0
 40
3.0
 40
4.0
 40
4.0
 40
4.0
 40
5.0
 40
5.0
 40
5.0
 40
6.0
 40
6.0
 40
6.0
 40
7.0
 40
7.0
 40
7.0
 40
8.0
 40
8.0
 40
8.0
 40
9.0
 40
9.0
 40
9.0
 40
10.0
 40
10.0
 40
10.0
 40
11.0
 40
11.0
 40
11.0
 40
12.0
 40
12.0
 40
12.0
 40
13.0
 40
13.0
 40
13.0
 40
14.0
 40
14.0
 40
14.0
 40
15.0
 40
15.0
 40
15.0
 40
16.0
 40
16.0
 40
16.0
 40
17.0
 40
17.0
 40
17.0
 40
17.0
 10
100.4504378777679
 20
166.69157178364
 30
0.0
 10
101.9848844191641
 20
167.1313385124438
 30
0.0
 10
103.9637485713373
 20
166.7649523658846
 30
0.0
 10
103.9637485713373
 20
166.7649523658846
 30
0.0
 10
103.9637485713373
 20
166.7649523658846
 30
0.0
 10
103.0132460999156
 20
163.911205638077
 30
0.0
 10
103.0132460999156
 20
163.911205638077
 30
0.0
 10
103.0132460999156
 20
163.911205638077
 30
0.0
 10
101.0674548862189
 20
164.3601018759394
 30
0.0
 10
99.57090442016032
 20
163.1805004036133
 30
0.0
 10
98.40508333886608
 20
162.258247733807
 30
0.0
 10
97.65301849830304
 20
159.804132345923
 30
0.0
 10
97.3598406791005
 20
158.8699940888517
 30
0.0
 10
97.3598406791005
 20
158.8699940888517
 30
0.0
 10
96.07137411762282
 20
154.9119212747295
 30
0.0
 10
96.07137411762282
 20
154.9119212747295
 30
0.0
 10
96.07137411762282
 20
154.9119212747295
 30
0.0
 10
100.3012651448482
 20
154.9119212747295
 30
0.0
 10
100.3012651448482
 20
154.9119212747295
 30
0.0
 10
100.3012651448482
 20
154.9119212747295
 30
0.0
 10
99.64152892419852
 20
152.4199098115079
 30
0.0
 10
99.64152892419852
 20
152.4199098115079
 30
0.0
 10
99.64152892419852
 20
152.4199098115079
 30
0.0
 10
95.38097652692731
 20
152.4199098115079
 30
0.0
 10
95.38097652692731
 20
152.4199098115079
 30
0.0
 10
95.38097652692731
 20
152.4199098115079
 30
0.0
 10
87.75353009080013
 20
127.8027915271048
 30
0.0
 10
87.75353009080013
 20
127.8027915271048
 30
0.0
 10
87.75353009080013
 20
127.8027915271048
 30
0.0
 10
85.36538832498108
 20
127.8027915271048
 30
0.0
 10
85.36538832498108
 20
127.8027915271048
 30
0.0
 10
85.36538832498108
 20
127.8027915271048
 30
0.0
 10
93.00006946639998
 20
152.4199098115079
 30
0.0
 10
93.00006946639998
 20
152.4199098115079
 30
0.0
 10
93.00006946639998
 20
152.4199098115079
 30
0.0
 10
89.85297266450198
 20
152.4199098115079
 30
0.0
 10
89.85297266450198
 20
152.4199098115079
 30
0.0
 10
89.85297266450198
 20
152.4199098115079
 30
0.0
 10
90.51270888515164
 20
154.9119212747295
 30
0.0
 10
90.51270888515164
 20
154.9119212747295
 30
0.0
 10
90.51270888515164
 20
154.9119212747295
 30
0.0
 10
93.6904670570955
 20
154.9119212747295
 30
0.0
 10
93.6904670570955
 20
154.9119212747295
 30
0.0
 10
93.6904670570955
 20
154.9119212747295
 30
0.0
 10
94.81598049462158
 20
158.3616699146644
 30
0.0
 10
94.81598049462158
 20
158.3616699146644
 30
0.0
 10
95.7237637538445
 20
161.2605474231013
 30
0.0
 10
96.4968436907311
 20
162.8139420021662
 30
0.0
 10
97.15657991138076
 20
163.9844139654337
 30
0.0
 10
97.81183750494507
 20
165.1523021053827
 30
0.0
 10
99.1047826935081
 20
166.3084769129547
 30
0.0
 10
100.4504378777679
 20
166.69157178364
 30
0.0
  0
HATCH
  5
6A5
330
6A2
100
AcDbEntity
  8
LOGO
 62
   250
420
  2234388
100
AcDbHatch
 10
0.0
 20
0.0
 30
0.0
210
0.0
220
0.0
230
1.0
  2
SOLID
 70
     1
 71
     0
 91
        1
 92
        1
 93
        1
 72
     4
 94
        3
 73
     0
 74
     1
 95
       56
 96
       52
 40
0.0
 40
0.0
 40
0.0
 40
0.0
 40
1.0
 40
1.0
 40
1.0
 40
2.0
 40
2.0
 40
2.0
 40
3.0
 40
3.0
 40
3.0
 40
4.0
 40
4.0
 40
4.0
 40
5.0
 40
5.0
 40
5.0
 40
6.0
 40
6.0
 40
6.0
 40
7.0
 40
7.0
 40
7.0
 40
8.0
 40
8.0
 40
8.0
 40
9.0
 40
9.0
 40
9.0
 40
10.0
 40
10.0
 40
10.0
 40
11.0
 40
11.0
 40
11.0
 40
12.0
 40
12.0
 40
12.0
 40
13.0
 40
13.0
 40
13.0
 40
14.0
 40
14.0
 40
14.0
 40
15.0
 40
15.0
 40
15.0
 40
16.0
 40
16.0
 40
16.0
 40
17.0
 40
17.0
 40
17.0
 40
17.0
 10
100.4504378777679
 20
166.69157178364
 10
101.9848844191641
 20
167.1313385124438
 10
103.9637485713373
 20
166.7649523658846
 10
103.9637485713373
 20
166.7649523658846
 10
103.9637485713373
 20
166.7649523658846
 10
103.0132460999156
 20
163.911205638077
 10
103.0132460999156
 20
163.911205638077
 10
103.0132460999156
 20
163.911205638077
 10
101.0674548862189
 20
164.3601018759394
 10
99.57090442016032
 20
163.1805004036133
 10
98.40508333886608
 20
162.258247733807
 10
97.65301849830304
 20
159.804132345923
 10
97.3598406791005
 20
158.8699940888517
 10
97.3598406791005
 20
158.8699940888517
 10
96.07137411762282
 20
154.9119212747295
 10
96.07137411762282
 20
154.9119212747295
 10
96.07137411762282
 20
154.9119212747295
 10
100.3012651448482
 20
154.9119212747295
 10
100.3012651448482
 20
154.9119212747295
 10
100.3012651448482
 20
154.9119212747295
 10
99.64152892419852
 20
152.4199098115079
 10
99.64152892419852
 20
152.4199098115079
 10
99.64152892419852
 20
152.4199098115079
 10
95.38097652692731
 20
152.4199098115079
 10
95.38097652692731
 20
152.4199098115079
 10
95.38097652692731
 20
152.4199098115079
 10
87.75353009080013
 20
127.8027915271048
 10
87.75353009080013
 20
127.8027915271048
 10
87.75353009080013
 20
127.8027915271048
 10
85.36538832498108
 20
127.8027915271048
 10
85.36538832498108
 20
127.8027915271048
 10
85.36538832498108
 20
127.8027915271048
 10
93.00006946639998
 20
152.4199098115079
 10
93.00006946639998
 20
152.4199098115079
 10
93.00006946639998
 20
152.4199098115079
 10
89.85297266450198
 20
152.4199098115079
 10
89.85297266450198
 20
152.4199098115079
 10
89.85297266450198
 20
152.4199098115079
 10
90.51270888515164
 20
154.9119212747295
 10
90.51270888515164
 20
154.9119212747295
 10
90.51270888515164
 20
154.9119212747295
 10
93.6904670570955
 20
154.9119212747295
 10
93.6904670570955
 20
154.9119212747295
 10
93.6904670570955
 20
154.9119212747295
 10
94.81598049462158
 20
158.3616699146644
 10
94.81598049462158
 20
158.3616699146644
 10
95.7237637538445
 20
161.2605474231013
 10
96.4968436907311
 20
162.8139420021662
 10
97.15657991138076
 20
163.9844139654337
 10
97.81183750494507
 20
165.1523021053827
 10
99.1047826935081
 20
166.3084769129547
 10
100.4504378777679
 20
166.69157178364
 97
        0
 75
     2
 76
     1
 98
        0
  0
SPLINE
  5
6A6
330
6A2
100
AcDbEntity
  8
LOGO
370
     0
100
AcDbSpline
210
0.0
220
0.0
230
1.0
 70
    11
 71
     3
 72
    38
 73
    34
 74
     0
 42
0.000000001
 43
0.0000000001
 40
0.0
 40
0.0
 40
0.0
 40
0.0
 40
1.0
 40
1.0
 40
1.0
 40
2.0
 40
2.0
 40
2.0
 40
3.0
 40
3.0
 40
3.0
 40
4.0
 40
4.0
 40
4.0
 40
5.0
 40
5.0
 40
5.0
 40
6.0
 40
6.0
 40
6.0
 40
7.0
 40
7.0
 40
7.0
 40
8.0
 40
8.0
 40
8.0
 40
9.0
 40
9.0
 40
9.0
 40
10.0
 40
10.0
 40
10.0
 40
11.0
 40
11.0
 40
11.0
 40
11.0
 10
126.377554584636
 20
154.8151140277308
 30
0.0
 10
126.377554584636
 20
154.8151140277308
 30
0.0
 10
128.8311532078563
 20
154.8151140277308
 30
0.0
 10
128.8311532078563
 20
154.8151140277308
 30
0.0
 10
128.8311532078563
 20
154.8151140277308
 30
0.0
 10
127.7345785914971
 20
151.3062819612468
 30
0.0
 10
127.7345785914971
 20
151.3062819612468
 30
0.0
 10
128.571392836906
 20
152.2922689395754
 30
0.0
 10
129.8860421413442
 20
153.604506675583
 30
0.0
 10
131.0163787157314
 20
154.2664822097754
 30
0.0
 10
132.7044766171327
 20
155.2500576196734
 30
0.0
 10
133.6642808525008
 20
155.3847609420097
 30
0.0
 10
134.7284715499351
 20
155.3565111403944
 30
0.0
 10
134.7284715499351
 20
155.3565111403944
 30
0.0
 10
133.6877075172549
 20
152.0345756272799
 30
0.0
 10
133.6877075172549
 20
152.0345756272799
 30
0.0
 10
133.011434827367
 20
152.3184516825359
 30
0.0
 10
130.930940291334
 20
151.7768823149844
 30
0.0
 10
129.739280976855
 20
150.9162968950455
 30
0.0
 10
128.66613302525
 20
150.1454562717016
 30
0.0
 10
127.9192358313239
 20
149.4857200510519
 30
0.0
 10
127.0393578639405
 20
147.8282835196966
 30
0.0
 10
126.164647543194
 20
146.1699857139017
 30
0.0
 10
125.4742499524985
 20
143.5262176944419
 30
0.0
 10
124.2822461282437
 20
139.6959580071401
 30
0.0
 10
124.2822461282437
 20
139.6959580071401
 30
0.0
 10
120.5753209406769
 20
127.8027915271048
 30
0.0
 10
120.5753209406769
 20
127.8027915271048
 30
0.0
 10
120.5753209406769
 20
127.8027915271048
 30
0.0
 10
118.1964809388044
 20
127.8027915271048
 30
0.0
 10
118.1964809388044
 20
127.8027915271048
 30
0.0
 10
118.1964809388044
 20
127.8027915271048
 30
0.0
 10
126.377554584636
 20
154.8151140277308
 30
0.0
 10
126.377554584636
 20
154.8151140277308
 30
0.0
  0
HATCH
  5
6A7
330
6A2
100
AcDbEntity
  8
LOGO
 62
   250
420
  2234388
100
AcDbHatch
 10
0.0
 20
0.0
 30
0.0
210
0.0
220
0.0
230
1.0
  2
SOLID
 70
     1
 71
     0
 91
        1
 92
        1
 93
        1
 72
     4
 94
        3
 73
     0
 74
     1
 95
       38
 96
       34
 40
0.0
 40
0.0
 40
0.0
 40
0.0
 40
1.0
 40
1.0
 40
1.0
 40
2.0
 40
2.0
 40
2.0
 40
3.0
 40
3.0
 40
3.0
 40
4.0
 40
4.0
 40
4.0
 40
5.0
 40
5.0
 40
5.0
 40
6.0
 40
6.0
 40
6.0
 40
7.0
 40
7.0
 40
7.0
 40
8.0
 40
8.0
 40
8.0
 40
9.0
 40
9.0
 40
9.0
 40
10.0
 40
10.0
 40
10.0
 40
11.0
 40
11.0
 40
11.0
 40
11.0
 10
126.377554584636
 20
154.8151140277308
 10
126.377554584636
 20
154.8151140277308
 10
128.8311532078563
 20
154.8151140277308
 10
128.8311532078563
 20
154.8151140277308
 10
128.8311532078563
 20
154.8151140277308
 10
127.7345785914971
 20
151.3062819612468
 10
127.7345785914971
 20
151.3062819612468
 10
128.571392836906
 20
152.2922689395754
 10
129.8860421413442
 20
153.604506675583
 10
131.0163787157314
 20
154.2664822097754
 10
132.7044766171327
 20
155.2500576196734
 10
133.6642808525008
 20
155.3847609420097
 10
134.7284715499351
 20
155.3565111403944
 10
134.7284715499351
 20
155.3565111403944
 10
133.6877075172549
 20
152.0345756272799
 10
133.6877075172549
 20
152.0345756272799
 10
133.011434827367
 20
152.3184516825359
 10
130.930940291334
 20
151.7768823149844
 10
129.739280976855
 20
150.9162968950455
 10
128.66613302525
 20
150.1454562717016
 10
127.9192358313239
 20
149.4857200510519
 10
127.0393578639405
 20
147.8282835196966
 10
126.164647543194
 20
146.1699857139017
 10
125.4742499524985
 20
143.5262176944419
 10
124.2822461282437
 20
139.6959580071401
 10
124.2822461282437
 20
139.6959580071401
 10
120.5753209406769
 20
127.8027915271048
 10
120.5753209406769
 20
127.8027915271048
 10
120.5753209406769
 20
127.8027915271048
 10
118.1964809388044
 20
127.8027915271048
 10
118.1964809388044
 20
127.8027915271048
 10
118.1964809388044
 20
127.8027915271048
 10
126.377554584636
 20
154.8151140277308
 10
126.377554584636
 20
154.8151140277308
 97
        0
 75
     2
 76
     1
 98
        0
  0
SPLINE
  5
6A8
330
6A2
100
AcDbEntity
  8
LOGO
370
     0
100
AcDbSpline
210
0.0
220
0.0
230
1.0
 70
    11
 71
     3
 72
   104
 73
   100
 74
     0
 42
0.000000001
 43
0.0000000001
 40
0.0
 40
0.0
 40
0.0
 40
0.0
 40
1.0
 40
1.0
 40
1.0
 40
2.0
 40
2.0
 40
2.0
 40
3.0
 40
3.0
 40
3.0
 40
4.0
 40
4.0
 40
4.0
 40
5.0
 40
5.0
 40
5.0
 40
6.0
 40
6.0
 40
6.0
 40
7.0
 40
7.0
 40
7.0
 40
8.0
 40
8.0
 40
8.0
 40
9.0
 40
9.0
 40
9.0
 40
10.0
 40
10.0
 40
10.0
 40
11.0
 40
11.0
 40
11.0
 40
12.0
 40
12.0
 40
12.0
 40
13.0
 40
13.0
 40
13.0
 40
14.0
 40
14.0
 40
14.0
 40
15.0
 40
15.0
 40
15.0
 40
16.0
 40
16.0
 40
16.0
 40
17.0
 40
17.0
 40
17.0
 40
18.0
 40
18.0
 40
18.0
 40
19.0
 40
19.0
 40
19.0
 40
20.0
 40
20.0
 40
20.0
 40
21.0
 40
21.0
 40
21.0
 40
22.0
 40
22.0
 40
22.0
 40
23.0
 40
23.0
 40
23.0
 40
24.0
 40
24.0
 40
24.0
 40
25.0
 40
25.0
 40
25.0
 40
26.0
 40
26.0
 40
26.0
 40
27.0
 40
27.0
 40
27.0
 40
28.0
 40
28.0
 40
28.0
 40
29.0
 40
29.0
 40
29.0
 40
30.0
 40
30.0
 40
30.0
 40
31.0
 40
31.0
 40
31.0
 40
32.0
 40
32.0
 40
32.0
 40
33.0
 40
33.0
 40
33.0
 40
33.0
 10
139.8926730891197
 20
154.8294111834263
 30
0.0
 10
139.8926730891197
 20
154.8294111834263
 30
0.0
 10
142.0344903652445
 20
154.8294111834263
 30
0.0
 10
142.0344903652445
 20
154.8294111834263
 30
0.0
 10
142.0344903652445
 20
154.8294111834263
 30
0.0
 10
140.9516961399171
 20
151.3157559800812
 30
0.0
 10
140.9516961399171
 20
151.3157559800812
 30
0.0
 10
141.8928968473923
 20
152.7887075264977
 30
0.0
 10
142.7341897198865
 20
153.4484437471474
 30
0.0
 10
143.8552245303272
 20
154.2926649527359
 30
0.0
 10
144.9803934580775
 20
155.1296514530327
 30
0.0
 10
146.3139908001845
 20
155.3044901642492
 30
0.0
 10
147.241066606852
 20
155.3044901642492
 30
0.0
 10
148.3855280820469
 20
155.3044901642492
 30
0.0
 10
149.4969166187653
 20
155.0752189084569
 30
0.0
 10
150.0784491203092
 20
153.8172414621372
 30
0.0
 10
150.5228667310863
 20
152.833838307127
 30
0.0
 10
150.5414702589793
 20
152.7201500811143
 30
0.0
 10
150.4140016419347
 20
150.7765981809602
 30
0.0
 10
151.5818897818837
 20
152.7699317437168
 30
0.0
 10
152.4424752018226
 20
153.6256940267945
 30
0.0
 10
153.9038856707499
 20
154.4507949398263
 30
0.0
 10
155.4455669174378
 20
155.3044901642492
 30
0.0
 10
156.339225275853
 20
155.3659851592288
 30
0.0
 10
157.3748216618963
 20
155.2147453676543
 30
0.0
 10
158.911679771723
 20
154.9877134254046
 30
0.0
 10
159.8859534176746
 20
154.4390816074493
 30
0.0
 10
160.3965169054045
 20
152.7816450760939
 30
0.0
 10
160.9070803931344
 20
151.1219692311958
 30
0.0
 10
160.6328506116007
 20
150.2303779314354
 30
0.0
 10
159.9992971339115
 20
147.597634224801
 30
0.0
 10
159.7105979417943
 20
146.4014962832367
 30
0.0
 10
159.2947746424084
 20
144.9400858143094
 30
0.0
 10
158.7463150793409
 20
143.2092687007094
 30
0.0
 10
158.7463150793409
 20
143.2092687007094
 30
0.0
 10
153.9038856707499
 20
127.8027915271048
 30
0.0
 10
153.9038856707499
 20
127.8027915271048
 30
0.0
 10
153.9038856707499
 20
127.8027915271048
 30
0.0
 10
151.3882752878863
 20
127.8027915271048
 30
0.0
 10
151.3882752878863
 20
127.8027915271048
 30
0.0
 10
151.3882752878863
 20
127.8027915271048
 30
0.0
 10
155.6250565106276
 20
141.2751908193897
 30
0.0
 10
155.6250565106276
 20
141.2751908193897
 30
0.0
 10
156.5094131050963
 20
144.0936252951782
 30
0.0
 10
157.109893644309
 20
146.1506931664571
 30
0.0
 10
157.4220195011804
 20
147.4415712963654
 30
0.0
 10
157.8095929989511
 20
149.0530157726519
 30
0.0
 10
157.9656559273867
 20
149.5826995529385
 30
0.0
 10
157.7816877071116
 20
150.7529992613181
 30
0.0
 10
157.6111553680925
 20
151.8430281919372
 30
0.0
 10
157.0582171779396
 20
152.5547853887321
 30
0.0
 10
156.1170164704645
 20
152.5547853887321
 30
0.0
 10
155.1096698860365
 20
152.5547853887321
 30
0.0
 10
154.2962823053817
 20
152.4412694176073
 30
0.0
 10
153.156643967048
 20
151.2945686288697
 30
0.0
 10
152.0170056287143
 20
150.1476955852443
 30
0.0
 10
151.076149431015
 20
148.7930831468137
 30
0.0
 10
150.3337308641742
 20
147.2290087646991
 30
0.0
 10
149.5957909244188
 20
145.6683794803425
 30
0.0
 10
148.8530278478023
 20
143.6822806228776
 30
0.0
 10
148.0964843801539
 20
141.2751908193897
 30
0.0
 10
148.0964843801539
 20
141.2751908193897
 30
0.0
 10
143.8552245303272
 20
127.8027915271048
 30
0.0
 10
143.8552245303272
 20
127.8027915271048
 30
0.0
 10
143.8552245303272
 20
127.8027915271048
 30
0.0
 10
141.486030802177
 20
127.8027915271048
 30
0.0
 10
141.486030802177
 20
127.8027915271048
 30
0.0
 10
141.486030802177
 20
127.8027915271048
 30
0.0
 10
146.3329388378533
 20
143.2092687007094
 30
0.0
 10
146.3329388378533
 20
143.2092687007094
 30
0.0
 10
146.8483254624444
 20
144.8408669988801
 30
0.0
 10
147.2314203331297
 20
146.1837661049335
 30
0.0
 10
147.4867020769946
 20
147.224185627838
 30
0.0
 10
147.9169947869641
 20
149.0197705792876
 30
0.0
 10
148.0306830129768
 20
150.2400242051577
 30
0.0
 10
147.709255392159
 20
151.3157559800812
 30
0.0
 10
147.3874832615654
 20
152.3916600098926
 30
0.0
 10
146.8245542879144
 20
152.6683013598569
 30
0.0
 10
145.8840425999909
 20
152.6683013598569
 30
0.0
 10
145.0989048209514
 20
152.6683013598569
 30
0.0
 10
144.3282364524954
 20
152.3275811915945
 30
0.0
 10
143.4531816219731
 20
151.6538923250251
 30
0.0
 10
142.34627171234
 20
150.8074318058939
 30
0.0
 10
141.901854101563
 20
150.1097995099067
 30
0.0
 10
141.3578731655808
 20
149.289521733736
 30
0.0
 10
140.6299240093235
 20
148.192602607601
 30
0.0
 10
140.2850697237515
 20
147.455696197173
 30
0.0
 10
139.6652966370942
 20
145.8385673095858
 30
0.0
 10
139.0506911970739
 20
144.2214384219986
 30
0.0
 10
138.463991048893
 20
142.3252566160164
 30
0.0
 10
138.0571250036777
 20
141.0154304484394
 30
0.0
 10
138.0571250036777
 20
141.0154304484394
 30
0.0
 10
133.9009590684727
 20
127.8027915271048
 30
0.0
 10
133.9009590684727
 20
127.8027915271048
 30
0.0
 10
133.9009590684727
 20
127.8027915271048
 30
0.0
 10
131.4180771143097
 20
127.8027915271048
 30
0.0
 10
131.4180771143097
 20
127.8027915271048
 30
0.0
 10
131.4180771143097
 20
127.8027915271048
 30
0.0
 10
139.8926730891197
 20
154.8294111834263
 30
0.0
 10
139.8926730891197
 20
154.8294111834263
 30
0.0
  0
HATCH
  5
6A9
330
6A2
100
AcDbEntity
  8
LOGO
 62
   250
420
  2234388
100
AcDbHatch
 10
0.0
 20
0.0
 30
0.0
210
0.0
220
0.0
230
1.0
  2
SOLID
 70
     1
 71
     0
 91
        1
 92
        1
 93
        1
 72
     4
 94
        3
 73
     0
 74
     1
 95
      104
 96
      100
 40
0.0
 40
0.0
 40
0.0
 40
0.0
 40
1.0
 40
1.0
 40
1.0
 40
2.0
 40
2.0
 40
2.0
 40
3.0
 40
3.0
 40
3.0
 40
4.0
 40
4.0
 40
4.0
 40
5.0
 40
5.0
 40
5.0
 40
6.0
 40
6.0
 40
6.0
 40
7.0
 40
7.0
 40
7.0
 40
8.0
 40
8.0
 40
8.0
 40
9.0
 40
9.0
 40
9.0
 40
10.0
 40
10.0
 40
10.0
 40
11.0
 40
11.0
 40
11.0
 40
12.0
 40
12.0
 40
12.0
 40
13.0
 40
13.0
 40
13.0
 40
14.0
 40
14.0
 40
14.0
 40
15.0
 40
15.0
 40
15.0
 40
16.0
 40
16.0
 40
16.0
 40
17.0
 40
17.0
 40
17.0
 40
18.0
 40
18.0
 40
18.0
 40
19.0
 40
19.0
 40
19.0
 40
20.0
 40
20.0
 40
20.0
 40
21.0
 40
21.0
 40
21.0
 40
22.0
 40
22.0
 40
22.0
 40
23.0
 40
23.0
 40
23.0
 40
24.0
 40
24.0
 40
24.0
 40
25.0
 40
25.0
 40
25.0
 40
26.0
 40
26.0
 40
26.0
 40
27.0
 40
27.0
 40
27.0
 40
28.0
 40
28.0
 40
28.0
 40
29.0
 40
29.0
 40
29.0
 40
30.0
 40
30.0
 40
30.0
 40
31.0
 40
31.0
 40
31.0
 40
32.0
 40
32.0
 40
32.0
 40
33.0
 40
33.0
 40
33.0
 40
33.0
 10
139.8926730891197
 20
154.8294111834263
 10
139.8926730891197
 20
154.8294111834263
 10
142.0344903652445
 20
154.8294111834263
 10
142.0344903652445
 20
154.8294111834263
 10
142.0344903652445
 20
154.8294111834263
 10
140.9516961399171
 20
151.3157559800812
 10
140.9516961399171
 20
151.3157559800812
 10
141.8928968473923
 20
152.7887075264977
 10
142.7341897198865
 20
153.4484437471474
 10
143.8552245303272
 20
154.2926649527359
 10
144.9803934580775
 20
155.1296514530327
 10
146.3139908001845
 20
155.3044901642492
 10
147.241066606852
 20
155.3044901642492
 10
148.3855280820469
 20
155.3044901642492
 10
149.4969166187653
 20
155.0752189084569
 10
150.0784491203092
 20
153.8172414621372
 10
150.5228667310863
 20
152.833838307127
 10
150.5414702589793
 20
152.7201500811143
 10
150.4140016419347
 20
150.7765981809602
 10
151.5818897818837
 20
152.7699317437168
 10
152.4424752018226
 20
153.6256940267945
 10
153.9038856707499
 20
154.4507949398263
 10
155.4455669174378
 20
155.3044901642492
 10
156.339225275853
 20
155.3659851592288
 10
157.3748216618963
 20
155.2147453676543
 10
158.911679771723
 20
154.9877134254046
 10
159.8859534176746
 20
154.4390816074493
 10
160.3965169054045
 20
152.7816450760939
 10
160.9070803931344
 20
151.1219692311958
 10
160.6328506116007
 20
150.2303779314354
 10
159.9992971339115
 20
147.597634224801
 10
159.7105979417943
 20
146.4014962832367
 10
159.2947746424084
 20
144.9400858143094
 10
158.7463150793409
 20
143.2092687007094
 10
158.7463150793409
 20
143.2092687007094
 10
153.9038856707499
 20
127.8027915271048
 10
153.9038856707499
 20
127.8027915271048
 10
153.9038856707499
 20
127.8027915271048
 10
151.3882752878863
 20
127.8027915271048
 10
151.3882752878863
 20
127.8027915271048
 10
151.3882752878863
 20
127.8027915271048
 10
155.6250565106276
 20
141.2751908193897
 10
155.6250565106276
 20
141.2751908193897
 10
156.5094131050963
 20
144.0936252951782
 10
157.109893644309
 20
146.1506931664571
 10
157.4220195011804
 20
147.4415712963654
 10
157.8095929989511
 20
149.0530157726519
 10
157.9656559273867
 20
149.5826995529385
 10
157.7816877071116
 20
150.7529992613181
 10
157.6111553680925
 20
151.8430281919372
 10
157.0582171779396
 20
152.5547853887321
 10
156.1170164704645
 20
152.5547853887321
 10
155.1096698860365
 20
152.5547853887321
 10
154.2962823053817
 20
152.4412694176073
 10
153.156643967048
 20
151.2945686288697
 10
152.0170056287143
 20
150.1476955852443
 10
151.076149431015
 20
148.7930831468137
 10
150.3337308641742
 20
147.2290087646991
 10
149.5957909244188
 20
145.6683794803425
 10
148.8530278478023
 20
143.6822806228776
 10
148.0964843801539
 20
141.2751908193897
 10
148.0964843801539
 20
141.2751908193897
 10
143.8552245303272
 20
127.8027915271048
 10
143.8552245303272
 20
127.8027915271048
 10
143.8552245303272
 20
127.8027915271048
 10
141.486030802177
 20
127.8027915271048
 10
141.486030802177
 20
127.8027915271048
 10
141.486030802177
 20
127.8027915271048
 10
146.3329388378533
 20
143.2092687007094
 10
146.3329388378533
 20
143.2092687007094
 10
146.8483254624444
 20
144.8408669988801
 10
147.2314203331297
 20
146.1837661049335
 10
147.4867020769946
 20
147.224185627838
 10
147.9169947869641
 20
149.0197705792876
 10
148.0306830129768
 20
150.2400242051577
 10
147.709255392159
 20
151.3157559800812
 10
147.3874832615654
 20
152.3916600098926
 10
146.8245542879144
 20
152.6683013598569
 10
145.8840425999909
 20
152.6683013598569
 10
145.0989048209514
 20
152.6683013598569
 10
144.3282364524954
 20
152.3275811915945
 10
143.4531816219731
 20
151.6538923250251
 10
142.34627171234
 20
150.8074318058939
 10
141.901854101563
 20
150.1097995099067
 10
141.3578731655808
 20
149.289521733736
 10
140.6299240093235
 20
148.192602607601
 10
140.2850697237515
 20
147.455696197173
 10
139.6652966370942
 20
145.8385673095858
 10
139.0506911970739
 20
144.2214384219986
 10
138.463991048893
 20
142.3252566160164
 10
138.0571250036777
 20
141.0154304484394
 10
138.0571250036777
 20
141.0154304484394
 10
133.9009590684727
 20
127.8027915271048
 10
133.9009590684727
 20
127.8027915271048
 10
133.9009590684727
 20
127.8027915271048
 10
131.4180771143097
 20
127.8027915271048
 10
131.4180771143097
 20
127.8027915271048
 10
131.4180771143097
 20
127.8027915271048
 10
139.8926730891197
 20
154.8294111834263
 10
139.8926730891197
 20
154.8294111834263
 97
        0
 75
     2
 76
     1
 98
        0
  0
SPLINE
  5
6AA
330
6A2
100
AcDbEntity
  8
LOGO
370
     0
100
AcDbSpline
210
0.0
220
0.0
230
1.0
 70
    11
 71
     3
 72
    29
 73
    25
 74
     0
 42
0.000000001
 43
0.0000000001
 40
0.0
 40
0.0
 40
0.0
 40
0.0
 40
1.0
 40
1.0
 40
1.0
 40
2.0
 40
2.0
 40
2.0
 40
3.0
 40
3.0
 40
3.0
 40
4.0
 40
4.0
 40
4.0
 40
5.0
 40
5.0
 40
5.0
 40
6.0
 40
6.0
 40
6.0
 40
7.0
 40
7.0
 40
7.0
 40
8.0
 40
8.0
 40
8.0
 40
8.0
 10
101.6420971922469
 20
132.8388354296931
 30
0.0
 10
101.630039350094
 20
134.7164137077823
 30
0.0
 10
102.2236296937908
 20
138.0598810818841
 30
0.0
 10
103.7487744712405
 20
142.5378191476827
 30
0.0
 10
105.819967243327
 20
148.5896501242061
 30
0.0
 10
107.0602024361932
 20
150.8074318058939
 30
0.0
 10
108.1522984254671
 20
151.8833358357054
 30
0.0
 10
109.741177511439
 20
153.4532668840085
 30
0.0
 10
111.8740375333931
 20
153.5290590346837
 30
0.0
 10
112.5075910110823
 20
153.4532668840085
 30
0.0
 10
113.4012493694975
 20
153.3490526768302
 30
0.0
 10
114.6683563248758
 20
152.7580461564518
 30
0.0
 10
114.7493161221879
 20
150.7838328862519
 30
0.0
 10
114.8106388622796
 20
149.0909118479895
 30
0.0
 10
114.3186789024427
 20
145.9191825971221
 30
0.0
 10
112.6164561002338
 20
140.9489400617108
 30
0.0
 10
110.6444821435766
 20
135.1746117095912
 30
0.0
 10
109.4669477299053
 20
132.8960240524753
 30
0.0
 10
108.5212683953448
 20
131.9072809959403
 30
0.0
 10
106.7346406980658
 20
130.0538184021569
 30
0.0
 10
104.8222669326213
 20
130.2336525051225
 30
0.0
 10
104.5408024457958
 20
130.2336525051225
 30
0.0
 10
104.1721769856939
 20
130.2336525051225
 30
0.0
 10
101.6465758193322
 20
130.6305277668397
 30
0.0
 10
101.6420971922469
 20
132.8388354296931
 30
0.0
  0
SPLINE
  5
6AB
330
6A2
100
AcDbEntity
  8
LOGO
370
     0
100
AcDbSpline
210
0.0
220
0.0
230
1.0
 70
    11
 71
     3
 72
    32
 73
    28
 74
     0
 42
0.000000001
 43
0.0000000001
 40
0.0
 40
0.0
 40
0.0
 40
0.0
 40
1.0
 40
1.0
 40
1.0
 40
2.0
 40
2.0
 40
2.0
 40
3.0
 40
3.0
 40
3.0
 40
4.0
 40
4.0
 40
4.0
 40
5.0
 40
5.0
 40
5.0
 40
6.0
 40
6.0
 40
6.0
 40
7.0
 40
7.0
 40
7.0
 40
8.0
 40
8.0
 40
8.0
 40
9.0
 40
9.0
 40
9.0
 40
9.0
 10
106.2595617172429
 20
153.4105476718098
 30
0.0
 10
104.8222669326213
 20
151.5474388043041
 30
0.0
 10
103.7177685914188
 20
149.8758773721411
 30
0.0
 10
101.9232171692965
 20
144.6141795664062
 30
0.0
 10
100.2754269116635
 20
139.7999999594306
 30
0.0
 10
99.22777268346732
 20
136.3052927937542
 30
0.0
 10
99.06964269637689
 20
132.039572749846
 30
0.0
 10
98.94665270641765
 20
128.8673267343149
 30
0.0
 10
100.8807305877373
 20
127.8027915271048
 30
0.0
 10
103.7129454545577
 20
127.8027915271048
 30
0.0
 10
104.9352661390825
 20
127.8027915271048
 30
0.0
 10
108.0151835347002
 20
127.8827177950895
 30
0.0
 10
110.2045431598849
 20
130.5926316915021
 30
0.0
 10
111.7417457794874
 20
132.4984597712065
 30
0.0
 10
113.155269389579
 20
134.475256864725
 30
0.0
 10
115.0562743324223
 20
140.9489400617108
 30
0.0
 10
116.6361961642235
 20
146.3680788349845
 30
0.0
 10
117.7282921534974
 20
149.8639917848761
 30
0.0
 10
117.6480213757369
 20
151.8595646611754
 30
0.0
 10
117.6480213757369
 20
151.8595646611754
 30
0.0
 10
117.6480213757369
 20
151.8595646611754
 30
0.0
 10
117.6480213757369
 20
151.8595646611754
 30
0.0
 10
117.13229024137
 20
155.18150017429
 30
0.0
 10
114.7162431837115
 20
155.886194920681
 30
0.0
 10
113.3351034925446
 20
155.886194920681
 30
0.0
 10
111.9829026225447
 20
155.886194920681
 30
0.0
 10
108.3414342923792
 20
156.1251124501957
 30
0.0
 10
106.2595617172429
 20
153.4105476718098
 30
0.0
  0
HATCH
  5
6AC
330
6A2
100
AcDbEntity
  8
LOGO
 62
   250
420
  2234388
100
AcDbHatch
 10
0.0
 20
0.0
 30
0.0
210
0.0
220
0.0
230
1.0
  2
SOLID
 70
     1
 71
     0
 91
        2
 92
        1
 93
        1
 72
     4
 94
        3
 73
     0
 74
     1
 95
       29
 96
       25
 40
0.0
 40
0.0
 40
0.0
 40
0.0
 40
1.0
 40
1.0
 40
1.0
 40
2.0
 40
2.0
 40
2.0
 40
3.0
 40
3.0
 40
3.0
 40
4.0
 40
4.0
 40
4.0
 40
5.0
 40
5.0
 40
5.0
 40
6.0
 40
6.0
 40
6.0
 40
7.0
 40
7.0
 40
7.0
 40
8.0
 40
8.0
 40
8.0
 40
8.0
 10
101.6420971922469
 20
132.8388354296931
 10
101.630039350094
 20
134.7164137077823
 10
102.2236296937908
 20
138.0598810818841
 10
103.7487744712405
 20
142.5378191476827
 10
105.819967243327
 20
148.5896501242061
 10
107.0602024361932
 20
150.8074318058939
 10
108.1522984254671
 20
151.8833358357054
 10
109.741177511439
 20
153.4532668840085
 10
111.8740375333931
 20
153.5290590346837
 10
112.5075910110823
 20
153.4532668840085
 10
113.4012493694975
 20
153.3490526768302
 10
114.6683563248758
 20
152.7580461564518
 10
114.7493161221879
 20
150.7838328862519
 10
114.8106388622796
 20
149.0909118479895
 10
114.3186789024427
 20
145.9191825971221
 10
112.6164561002338
 20
140.9489400617108
 10
110.6444821435766
 20
135.1746117095912
 10
109.4669477299053
 20
132.8960240524753
 10
108.5212683953448
 20
131.9072809959403
 10
106.7346406980658
 20
130.0538184021569
 10
104.8222669326213
 20
130.2336525051225
 10
104.5408024457958
 20
130.2336525051225
 10
104.1721769856939
 20
130.2336525051225
 10
101.6465758193322
 20
130.6305277668397
 10
101.6420971922469
 20
132.8388354296931
 97
        0
 92
        1
 93
        1
 72
     4
 94
        3
 73
     0
 74
     1
 95
       32
 96
       28
 40
0.0
 40
0.0
 40
0.0
 40
0.0
 40
1.0
 40
1.0
 40
1.0
 40
2.0
 40
2.0
 40
2.0
 40
3.0
 40
3.0
 40
3.0
 40
4.0
 40
4.0
 40
4.0
 40
5.0
 40
5.0
 40
5.0
 40
6.0
 40
6.0
 40
6.0
 40
7.0
 40
7.0
 40
7.0
 40
8.0
 40
8.0
 40
8.0
 40
9.0
 40
9.0
 40
9.0
 40
9.0
 10
106.2595617172429
 20
153.4105476718098
 10
104.8222669326213
 20
151.5474388043041
 10
103.7177685914188
 20
149.8758773721411
 10
101.9232171692965
 20
144.6141795664062
 10
100.2754269116635
 20
139.7999999594306
 10
99.22777268346732
 20
136.3052927937542
 10
99.06964269637689
 20
132.039572749846
 10
98.94665270641765
 20
128.8673267343149
 10
100.8807305877373
 20
127.8027915271048
 10
103.7129454545577
 20
127.8027915271048
 10
104.9352661390825
 20
127.8027915271048
 10
108.0151835347002
 20
127.8827177950895
 10
110.2045431598849
 20
130.5926316915021
 10
111.7417457794874
 20
132.4984597712065
 10
113.155269389579
 20
134.475256864725
 10
115.0562743324223
 20
140.9489400617108
 10
116.6361961642235
 20
146.3680788349845
 10
117.7282921534974
 20
149.8639917848761
 10
117.6480213757369
 20
151.8595646611754
 10
117.6480213757369
 20
151.8595646611754
 10
117.6480213757369
 20
151.8595646611754
 10
117.6480213757369
 20
151.8595646611754
 10
117.13229024137
 20
155.18150017429
 10
114.7162431837115
 20
155.886194920681
 10
113.3351034925446
 20
155.886194920681
 10
111.9829026225447
 20
155.886194920681
 10
108.3414342923792
 20
156.1251124501957
 10
106.2595617172429
 20
153.4105476718098
 97
        0
 75
     2
 76
     1
 98
        0
  0
ENDBLK
  5
6AD
330
6A2
100
AcDbEntity
  8
0
100
AcDbBlockEnd
  0
BLOCK
  5
199B
330
199A
100
AcDbEntity
  8
0
100
AcDbBlockBegin
  2
SEANNOT_GROUP
 70
     0
 10
0.0
 20
0.0
 30
0.0
  3
SEANNOT_GROUP
  1
SEANNOT_GROUP
  0
ENDBLK
  5
199C
330
199A
100
AcDbEntity
  8
0
100
AcDbBlockEnd
  0
BLOCK
  5
1F30
330
1F2F
100
AcDbEntity
  8
0
100
AcDbBlockBegin
  2
SEANNOT_GROUP1
 70
     0
 10
0.0
 20
0.0
 30
0.0
  3
SEANNOT_GROUP1
  1
SEANNOT_GROUP1
  0
ENDBLK
  5
1F31
330
1F2F
100
AcDbEntity
  8
0
100
AcDbBlockEnd
  0
BLOCK
  5
35B0
330
35AF
100
AcDbEntity
  8
0
100
AcDbBlockBegin
  2
*D8
 70
     1
 10
0.0
 20
0.0
 30
0.0
  3
*D8
  1

  0
LINE
  5
35B2
330
35AF
100
AcDbEntity
  8
DIM
  6
Continuous
 62
     0
370
    -2
100
AcDbLine
 10
-1701.779082911145
 20
1534.490644404527
 30
0.0
 11
-1868.515661171568
 21
1534.490644404527
 31
0.0
  0
LINE
  5
35B3
330
35AF
100
AcDbEntity
  8
DIM
  6
Continuous
 62
     0
370
    -2
100
AcDbLine
 10
-1701.779082911145
 20
694.5100719424458
 30
0.0
 11
-1868.515661171568
 21
694.5100719424458
 31
0.0
  0
LINE
  5
35B4
330
35AF
100
AcDbEntity
  8
DIM
  6
Continuous
 62
     0
370
    -2
100
AcDbLine
 10
-1868.515661171568
 20
1524.490644404527
 30
0.0
 11
-1868.515661171568
 21
704.5100719424458
 31
0.0
  0
INSERT
  5
35B5
330
35AF
100
AcDbEntity
  8
DIM
 62
     0
370
    -2
100
AcDbBlockReference
  2
_DOT
 10
-1868.515661171568
 20
1534.490644404527
 30
0.0
 41
10.0
 42
10.0
 43
10.0
 50
90.0
  0
INSERT
  5
35B6
330
35AF
100
AcDbEntity
  8
DIM
 62
     0
370
    -2
100
AcDbBlockReference
  2
_DOT
 10
-1868.515661171568
 20
694.5100719424458
 30
0.0
 41
10.0
 42
10.0
 43
10.0
 50
270.0
  0
MTEXT
  5
35B7
330
35AF
100
AcDbEntity
  8
DIM
 62
     0
100
AcDbMText
 10
-1900.515661171568
 20
1114.500358173486
 30
0.0
 40
24.0
 41
0.0
 46
0.0
 71
     5
 72
     1
  1
\A1;840
  7
ＭＳ ゴシック
 11
0.0
 21
1.0
 31
0.0
 73
     1
 44
1.0
  0
POINT
  5
35B8
330
35AF
100
AcDbEntity
  8
Defpoints
 62
     0
100
AcDbPoint
 10
-1671.779082911145
 20
1534.490644404527
 30
0.0
  0
POINT
  5
35B9
330
35AF
100
AcDbEntity
  8
Defpoints
 62
     0
100
AcDbPoint
 10
-1671.779082911145
 20
694.5100719424458
 30
0.0
  0
POINT
  5
35BA
330
35AF
100
AcDbEntity
  8
Defpoints
 62
     0
100
AcDbPoint
 10
-1868.515661171568
 20
694.5100719424458
 30
0.0
  0
ENDBLK
  5
35B1
330
35AF
100
AcDbEntity
  8
0
100
AcDbBlockEnd
  0
BLOCK
  5
35BC
330
35BB
100
AcDbEntity
  8
0
100
AcDbBlockBegin
  2
*D9
 70
     1
 10
0.0
 20
0.0
 30
0.0
  3
*D9
  1

  0
LINE
  5
35BE
330
35BB
100
AcDbEntity
  8
DIM
  6
Continuous
 62
     0
370
    -2
100
AcDbLine
 10
-1778.364607822848
 20
1566.177280876448
 30
0.0
 11
-1778.364607822848
 21
1682.793179170035
 31
0.0
  0
LINE
  5
35BF
330
35BB
100
AcDbEntity
  8
DIM
  6
Continuous
 62
     0
370
    -2
100
AcDbLine
 10
-1398.364607822847
 20
1566.177280876448
 30
0.0
 11
-1398.364607822847
 21
1682.793179170035
 31
0.0
  0
LINE
  5
35C0
330
35BB
100
AcDbEntity
  8
DIM
  6
Continuous
 62
     0
370
    -2
100
AcDbLine
 10
-1768.364607822848
 20
1682.793179170035
 30
0.0
 11
-1408.364607822847
 21
1682.793179170035
 31
0.0
  0
INSERT
  5
35C1
330
35BB
100
AcDbEntity
  8
DIM
 62
     0
370
    -2
100
AcDbBlockReference
  2
_DOT
 10
-1778.364607822848
 20
1682.793179170035
 30
0.0
 41
10.0
 42
10.0
 43
10.0
 50
180.0
  0
INSERT
  5
35C2
330
35BB
100
AcDbEntity
  8
DIM
 62
     0
370
    -2
100
AcDbBlockReference
  2
_DOT
 10
-1398.364607822847
 20
1682.793179170035
 30
0.0
 41
10.0
 42
10.0
 43
10.0
  0
MTEXT
  5
35C3
330
35BB
100
AcDbEntity
  8
DIM
 62
     0
100
AcDbMText
 10
-1588.364607822847
 20
1714.793179170035
 30
0.0
 40
24.0
 41
0.0
 46
0.0
 71
     5
 72
     1
  1
\A1;380
  7
ＭＳ ゴシック
 73
     1
 44
1.0
  0
POINT
  5
35C4
330
35BB
100
AcDbEntity
  8
Defpoints
 62
     0
100
AcDbPoint
 10
-1778.364607822848
 20
1536.177280876448
 30
0.0
  0
POINT
  5
35C5
330
35BB
100
AcDbEntity
  8
Defpoints
 62
     0
100
AcDbPoint
 10
-1398.364607822847
 20
1536.177280876448
 30
0.0
  0
POINT
  5
35C6
330
35BB
100
AcDbEntity
  8
Defpoints
 62
     0
100
AcDbPoint
 10
-1398.364607822847
 20
1682.793179170035
 30
0.0
  0
ENDBLK
  5
35BD
330
35BB
100
AcDbEntity
  8
0
100
AcDbBlockEnd
  0
BLOCK
  5
35C8
330
35C7
100
AcDbEntity
  8
0
100
AcDbBlockBegin
  2
*D10
 70
     1
 10
0.0
 20
0.0
 30
0.0
  3
*D10
  1

  0
LINE
  5
35CA
330
35C7
100
AcDbEntity
  8
DIM
  6
Continuous
 62
     0
370
    -2
100
AcDbLine
 10
-840.5917913179899
 20
694.5965880843369
 30
0.0
 11
-549.1752776322407
 21
694.5965880843369
 31
0.0
  0
LINE
  5
35CB
330
35C7
100
AcDbEntity
  8
DIM
  6
Continuous
 62
     0
370
    -2
100
AcDbLine
 10
-581.4648780573527
 20
974.5965880843369
 30
0.0
 11
-549.1752776322407
 21
974.5965880843369
 31
0.0
  0
LINE
  5
35CC
330
35C7
100
AcDbEntity
  8
DIM
  6
Continuous
 62
     0
370
    -2
100
AcDbLine
 10
-549.1752776322407
 20
704.5965880843369
 30
0.0
 11
-549.1752776322407
 21
964.5965880843369
 31
0.0
  0
INSERT
  5
35CD
330
35C7
100
AcDbEntity
  8
DIM
 62
     0
370
    -2
100
AcDbBlockReference
  2
_DOT
 10
-549.1752776322407
 20
694.5965880843369
 30
0.0
 41
10.0
 42
10.0
 43
10.0
 50
270.0
  0
INSERT
  5
35CE
330
35C7
100
AcDbEntity
  8
DIM
 62
     0
370
    -2
100
AcDbBlockReference
  2
_DOT
 10
-549.1752776322407
 20
974.5965880843369
 30
0.0
 41
10.0
 42
10.0
 43
10.0
 50
90.0
  0
MTEXT
  5
35CF
330
35C7
100
AcDbEntity
  8
DIM
 62
     0
100
AcDbMText
 10
-581.1752776322407
 20
834.5965880843369
 30
0.0
 40
24.0
 41
0.0
 46
0.0
 71
     5
 72
     1
  1
\A1;280
  7
ＭＳ ゴシック
 11
0.0
 21
1.0
 31
0.0
 73
     1
 44
1.0
  0
POINT
  5
35D0
330
35C7
100
AcDbEntity
  8
Defpoints
 62
     0
100
AcDbPoint
 10
-870.5917913179899
 20
694.5965880843369
 30
0.0
  0
POINT
  5
35D1
330
35C7
100
AcDbEntity
  8
Defpoints
 62
     0
100
AcDbPoint
 10
-611.4648780573527
 20
974.5965880843369
 30
0.0
  0
POINT
  5
35D2
330
35C7
100
AcDbEntity
  8
Defpoints
 62
     0
100
AcDbPoint
 10
-549.1752776322407
 20
974.5965880843369
 30
0.0
  0
ENDBLK
  5
35C9
330
35C7
100
AcDbEntity
  8
0
100
AcDbBlockEnd
  0
BLOCK
  5
35D4
330
35D3
100
AcDbEntity
  8
0
100
AcDbBlockBegin
  2
*D11
 70
     1
 10
0.0
 20
0.0
 30
0.0
  3
*D11
  1

  0
LINE
  5
35D6
330
35D3
100
AcDbEntity
  8
DIM
  6
Continuous
 62
     0
370
    -2
100
AcDbLine
 10
-903.610618395014
 20
1564.490644404527
 30
0.0
 11
-903.610618395014
 21
1709.78585943874
 31
0.0
  0
LINE
  5
35D7
330
35D3
100
AcDbEntity
  8
DIM
  6
Continuous
 62
     0
370
    -2
100
AcDbLine
 10
-793.610618395014
 20
1044.78672085991
 30
0.0
 11
-793.6106183950141
 21
1709.78585943874
 31
0.0
  0
LINE
  5
35D8
330
35D3
100
AcDbEntity
  8
DIM
  6
Continuous
 62
     0
370
    -2
100
AcDbLine
 10
-893.610618395014
 20
1709.78585943874
 30
0.0
 11
-803.6106183950141
 21
1709.78585943874
 31
0.0
  0
INSERT
  5
35D9
330
35D3
100
AcDbEntity
  8
DIM
 62
     0
370
    -2
100
AcDbBlockReference
  2
_DOT
 10
-903.610618395014
 20
1709.78585943874
 30
0.0
 41
10.0
 42
10.0
 43
10.0
 50
180.0
  0
INSERT
  5
35DA
330
35D3
100
AcDbEntity
  8
DIM
 62
     0
370
    -2
100
AcDbBlockReference
  2
_DOT
 10
-793.6106183950141
 20
1709.78585943874
 30
0.0
 41
10.0
 42
10.0
 43
10.0
  0
MTEXT
  5
35DB
330
35D3
100
AcDbEntity
  8
DIM
 62
     0
100
AcDbMText
 10
-848.610618395014
 20
1741.78585943874
 30
0.0
 40
24.0
 41
0.0
 46
0.0
 71
     5
 72
     1
  1
\A1;110
  7
ＭＳ ゴシック
 73
     1
 44
1.0
  0
POINT
  5
35DC
330
35D3
100
AcDbEntity
  8
Defpoints
 62
     0
100
AcDbPoint
 10
-903.610618395014
 20
1534.490644404527
 30
0.0
  0
POINT
  5
35DD
330
35D3
100
AcDbEntity
  8
Defpoints
 62
     0
100
AcDbPoint
 10
-793.610618395014
 20
1014.78672085991
 30
0.0
  0
POINT
  5
35DE
330
35D3
100
AcDbEntity
  8
Defpoints
 62
     0
100
AcDbPoint
 10
-793.6106183950141
 20
1709.78585943874
 30
0.0
  0
ENDBLK
  5
35D5
330
35D3
100
AcDbEntity
  8
0
100
AcDbBlockEnd
  0
BLOCK
  5
35E0
330
35DF
100
AcDbEntity
  8
0
100
AcDbBlockBegin
  2
*D12
 70
     1
 10
0.0
 20
0.0
 30
0.0
  3
*D12
  1

  0
LINE
  5
35E2
330
35DF
100
AcDbEntity
  8
DIM
  6
Continuous
 62
     0
370
    -2
100
AcDbLine
 10
-903.610618395014
 20
1564.569441744921
 30
0.0
 11
-903.610618395014
 21
1649.297479704525
 31
0.0
  0
LINE
  5
35E3
330
35DF
100
AcDbEntity
  8
DIM
  6
Continuous
 62
     0
370
    -2
100
AcDbLine
 10
-813.610618395014
 20
1195.39044183081
 30
0.0
 11
-813.6106183950141
 21
1649.297479704525
 31
0.0
  0
LINE
  5
35E4
330
35DF
100
AcDbEntity
  8
DIM
  6
Continuous
 62
     0
370
    -2
100
AcDbLine
 10
-893.610618395014
 20
1649.297479704525
 30
0.0
 11
-823.6106183950141
 21
1649.297479704525
 31
0.0
  0
INSERT
  5
35E5
330
35DF
100
AcDbEntity
  8
DIM
 62
     0
370
    -2
100
AcDbBlockReference
  2
_DOT
 10
-903.610618395014
 20
1649.297479704525
 30
0.0
 41
10.0
 42
10.0
 43
10.0
 50
180.0
  0
INSERT
  5
35E6
330
35DF
100
AcDbEntity
  8
DIM
 62
     0
370
    -2
100
AcDbBlockReference
  2
_DOT
 10
-813.6106183950141
 20
1649.297479704525
 30
0.0
 41
10.0
 42
10.0
 43
10.0
  0
MTEXT
  5
35E7
330
35DF
100
AcDbEntity
  8
DIM
 62
     0
100
AcDbMText
 10
-858.610618395014
 20
1681.297479704525
 30
0.0
 40
24.0
 41
0.0
 46
0.0
 71
     5
 72
     1
  1
\A1;90
  7
ＭＳ ゴシック
 73
     1
 44
1.0
  0
POINT
  5
35E8
330
35DF
100
AcDbEntity
  8
Defpoints
 62
     0
100
AcDbPoint
 10
-903.610618395014
 20
1534.569441744921
 30
0.0
  0
POINT
  5
35E9
330
35DF
100
AcDbEntity
  8
Defpoints
 62
     0
100
AcDbPoint
 10
-813.610618395014
 20
1165.39044183081
 30
0.0
  0
POINT
  5
35EA
330
35DF
100
AcDbEntity
  8
Defpoints
 62
     0
100
AcDbPoint
 10
-813.6106183950141
 20
1649.297479704525
 30
0.0
  0
ENDBLK
  5
35E1
330
35DF
100
AcDbEntity
  8
0
100
AcDbBlockEnd
  0
BLOCK
  5
35EC
330
35EB
100
AcDbEntity
  8
0
100
AcDbBlockBegin
  2
*D13
 70
     1
 10
0.0
 20
0.0
 30
0.0
  3
*D13
  1

  0
LINE
  5
35EE
330
35EB
100
AcDbEntity
  8
DIM
  6
Continuous
 62
     0
370
    -2
100
AcDbLine
 10
-783.1230615373918
 20
2395.932361361355
 30
0.0
 11
-656.5119217463948
 21
2395.932361361355
 31
0.0
  0
LINE
  5
35EF
330
35EB
100
AcDbEntity
  8
DIM
  6
Continuous
 62
     0
370
    -2
100
AcDbLine
 10
-708.8600233066829
 20
2338.932361361355
 30
0.0
 11
-656.5119217463948
 21
2338.932361361355
 31
0.0
  0
LINE
  5
35F0
330
35EB
100
AcDbEntity
  8
DIM
  6
Continuous
 62
     0
370
    -2
100
AcDbLine
 10
-656.5119217463948
 20
2385.932361361355
 30
0.0
 11
-656.5119217463948
 21
2348.932361361355
 31
0.0
  0
INSERT
  5
35F1
330
35EB
100
AcDbEntity
  8
DIM
 62
     0
370
    -2
100
AcDbBlockReference
  2
_DOT
 10
-656.5119217463948
 20
2395.932361361355
 30
0.0
 41
10.0
 42
10.0
 43
10.0
 50
90.0
  0
INSERT
  5
35F2
330
35EB
100
AcDbEntity
  8
DIM
 62
     0
370
    -2
100
AcDbBlockReference
  2
_DOT
 10
-656.5119217463948
 20
2338.932361361355
 30
0.0
 41
10.0
 42
10.0
 43
10.0
 50
270.0
  0
MTEXT
  5
35F3
330
35EB
100
AcDbEntity
  8
DIM
 62
     0
100
AcDbMText
 10
-688.5119217463948
 20
2367.432361361355
 30
0.0
 40
24.0
 41
0.0
 46
0.0
 71
     5
 72
     1
  1
\A1;57
  7
ＭＳ ゴシック
 11
0.0
 21
1.0
 31
0.0
 73
     1
 44
1.0
  0
POINT
  5
35F4
330
35EB
100
AcDbEntity
  8
Defpoints
 62
     0
100
AcDbPoint
 10
-813.1230615373918
 20
2395.932361361355
 30
0.0
  0
POINT
  5
35F5
330
35EB
100
AcDbEntity
  8
Defpoints
 62
     0
100
AcDbPoint
 10
-738.8600233066829
 20
2338.932361361355
 30
0.0
  0
POINT
  5
35F6
330
35EB
100
AcDbEntity
  8
Defpoints
 62
     0
100
AcDbPoint
 10
-656.5119217463948
 20
2338.932361361355
 30
0.0
  0
ENDBLK
  5
35ED
330
35EB
100
AcDbEntity
  8
0
100
AcDbBlockEnd
  0
BLOCK
  5
35F8
330
35F7
100
AcDbEntity
  8
0
100
AcDbBlockBegin
  2
*D14
 70
     1
 10
0.0
 20
0.0
 30
0.0
  3
*D14
  1

  0
LINE
  5
35FA
330
35F7
100
AcDbEntity
  8
DIM
  6
Continuous
 62
     0
370
    -2
100
AcDbLine
 10
-903.610618395014
 20
2300.664202753995
 30
0.0
 11
-1082.322745068731
 21
2300.664202753995
 31
0.0
  0
LINE
  5
35FB
330
35F7
100
AcDbEntity
  8
DIM
  6
Continuous
 62
     0
370
    -2
100
AcDbLine
 10
-893.610618395014
 20
2300.664202753995
 30
0.0
 11
-842.610618395014
 21
2300.664202753995
 31
0.0
  0
LINE
  5
35FC
330
35F7
100
AcDbEntity
  8
DIM
  6
Continuous
 62
     0
370
    -2
100
AcDbLine
 10
-893.610618395014
 20
2300.664202753995
 30
0.0
 11
-883.610618395014
 21
2300.664202753995
 31
0.0
  0
INSERT
  5
35FD
330
35F7
100
AcDbEntity
  8
DIM
 62
     0
370
    -2
100
AcDbBlockReference
  2
_DOT
 10
-903.610618395014
 20
2300.664202753995
 30
0.0
 41
10.0
 42
10.0
 43
10.0
 50
180.0
  0
INSERT
  5
35FE
330
35F7
100
AcDbEntity
  8
DIM
 62
     0
370
    -2
100
AcDbBlockReference
  2
_DOT
 10
-832.610618395014
 20
2300.664202753995
 30
0.0
 41
10.0
 42
10.0
 43
10.0
  0
MTEXT
  5
35FF
330
35F7
100
AcDbEntity
  8
DIM
 62
     0
100
AcDbMText
 10
-1004.554745068731
 20
2334.788202753995
 30
0.0
 40
24.0
 41
0.0
 46
0.0
 71
     5
 72
     1
  1
\A1;71(深さ)
  7
ＭＳ ゴシック
 73
     1
 44
1.0
  0
POINT
  5
3600
330
35F7
100
AcDbEntity
  8
Defpoints
 62
     0
100
AcDbPoint
 10
-903.610618395014
 20
2323.165903121959
 30
0.0
  0
POINT
  5
3601
330
35F7
100
AcDbEntity
  8
Defpoints
 62
     0
100
AcDbPoint
 10
-832.610618395014
 20
2313.828412861025
 30
0.0
  0
POINT
  5
3602
330
35F7
100
AcDbEntity
  8
Defpoints
 62
     0
100
AcDbPoint
 10
-832.610618395014
 20
2300.664202753995
 30
0.0
  0
ENDBLK
  5
35F9
330
35F7
100
AcDbEntity
  8
0
100
AcDbBlockEnd
  0
BLOCK
  5
3604
330
3603
100
AcDbEntity
  8
0
100
AcDbBlockBegin
  2
*D15
 70
     1
 10
0.0
 20
0.0
 30
0.0
  3
*D15
  1

  0
LINE
  5
3606
330
3603
100
AcDbEntity
  8
DIM
  6
Continuous
 62
     0
370
    -2
100
AcDbLine
 10
-1907.24956051636
 20
1994.990655285753
 30
0.0
 11
-1937.421292500812
 21
1994.990655285753
 31
0.0
  0
LINE
  5
3607
330
3603
100
AcDbEntity
  8
DIM
  6
Continuous
 62
     0
370
    -2
100
AcDbLine
 10
-1783.406990940538
 20
2294.990655285753
 30
0.0
 11
-1937.421292500812
 21
2294.990655285753
 31
0.0
  0
LINE
  5
3608
330
3603
100
AcDbEntity
  8
DIM
  6
Continuous
 62
     0
370
    -2
100
AcDbLine
 10
-1937.421292500812
 20
2004.990655285753
 30
0.0
 11
-1937.421292500812
 21
2284.990655285753
 31
0.0
  0
INSERT
  5
3609
330
3603
100
AcDbEntity
  8
DIM
 62
     0
370
    -2
100
AcDbBlockReference
  2
_DOT
 10
-1937.421292500812
 20
1994.990655285753
 30
0.0
 41
10.0
 42
10.0
 43
10.0
 50
270.0
  0
INSERT
  5
360A
330
3603
100
AcDbEntity
  8
DIM
 62
     0
370
    -2
100
AcDbBlockReference
  2
_DOT
 10
-1937.421292500812
 20
2294.990655285753
 30
0.0
 41
10.0
 42
10.0
 43
10.0
 50
90.0
  0
MTEXT
  5
360B
330
3603
100
AcDbEntity
  8
DIM
 62
     0
100
AcDbMText
 10
-1969.421292500812
 20
2144.990655285753
 30
0.0
 40
24.0
 41
0.0
 46
0.0
 71
     5
 72
     1
  1
\A1;300
  7
ＭＳ ゴシック
 11
0.0
 21
1.0
 31
0.0
 73
     1
 44
1.0
  0
POINT
  5
360C
330
3603
100
AcDbEntity
  8
Defpoints
 62
     0
100
AcDbPoint
 10
-1877.24956051636
 20
1994.990655285753
 30
0.0
  0
POINT
  5
360D
330
3603
100
AcDbEntity
  8
Defpoints
 62
     0
100
AcDbPoint
 10
-1753.406990940538
 20
2294.990655285753
 30
0.0
  0
POINT
  5
360E
330
3603
100
AcDbEntity
  8
Defpoints
 62
     0
100
AcDbPoint
 10
-1937.421292500812
 20
2294.990655285753
 30
0.0
  0
ENDBLK
  5
3605
330
3603
100
AcDbEntity
  8
0
100
AcDbBlockEnd
  0
BLOCK
  5
3610
330
360F
100
AcDbEntity
  8
0
100
AcDbBlockBegin
  2
*D16
 70
     1
 10
0.0
 20
0.0
 30
0.0
  3
*D16
  1

  0
LINE
  5
3612
330
360F
100
AcDbEntity
  8
DIM
  6
Continuous
 62
     0
370
    -2
100
AcDbLine
 10
-783.6106148187328
 20
2386.790592101188
 30
0.0
 11
-724.6965098427049
 21
2386.790592101188
 31
0.0
  0
LINE
  5
3613
330
360F
100
AcDbEntity
  8
DIM
  6
Continuous
 62
     0
370
    -2
100
AcDbLine
 10
-783.6106148187328
 20
2290.790591683956
 30
0.0
 11
-724.6965098427049
 21
2290.790591683956
 31
0.0
  0
LINE
  5
3614
330
360F
100
AcDbEntity
  8
DIM
  6
Continuous
 62
     0
370
    -2
100
AcDbLine
 10
-724.6965098427049
 20
2376.790592101188
 30
0.0
 11
-724.6965098427049
 21
2300.790591683956
 31
0.0
  0
INSERT
  5
3615
330
360F
100
AcDbEntity
  8
DIM
 62
     0
370
    -2
100
AcDbBlockReference
  2
_DOT
 10
-724.6965098427049
 20
2386.790592101188
 30
0.0
 41
10.0
 42
10.0
 43
10.0
 50
90.0
  0
INSERT
  5
3616
330
360F
100
AcDbEntity
  8
DIM
 62
     0
370
    -2
100
AcDbBlockReference
  2
_DOT
 10
-724.6965098427049
 20
2290.790591683956
 30
0.0
 41
10.0
 42
10.0
 43
10.0
 50
270.0
  0
MTEXT
  5
3617
330
360F
100
AcDbEntity
  8
DIM
 62
     0
100
AcDbMText
 10
-756.6965098427049
 20
2338.790591892572
 30
0.0
 40
24.0
 41
0.0
 46
0.0
 71
     5
 72
     1
  1
\A1;96
  7
ＭＳ ゴシック
 11
0.0
 21
1.0
 31
0.0
 73
     1
 44
1.0
  0
POINT
  5
3618
330
360F
100
AcDbEntity
  8
Defpoints
 62
     0
100
AcDbPoint
 10
-813.6106148187328
 20
2386.790592101188
 30
0.0
  0
POINT
  5
3619
330
360F
100
AcDbEntity
  8
Defpoints
 62
     0
100
AcDbPoint
 10
-813.6106148187328
 20
2290.790591683956
 30
0.0
  0
POINT
  5
361A
330
360F
100
AcDbEntity
  8
Defpoints
 62
     0
100
AcDbPoint
 10
-724.6965098427049
 20
2290.790591683956
 30
0.0
  0
ENDBLK
  5
3611
330
360F
100
AcDbEntity
  8
0
100
AcDbBlockEnd
  0
BLOCK
  5
361C
330
361B
100
AcDbEntity
  8
0
100
AcDbBlockBegin
  2
*D17
 70
     1
 10
0.0
 20
0.0
 30
0.0
  3
*D17
  1

  0
LINE
  5
361E
330
361B
100
AcDbEntity
  8
DIM
 62
     0
 48
0.05
370
    -2
100
AcDbLine
 10
-781.1614360851468
 20
950.3986652665416
 30
0.0
 11
-753.9827233379619
 21
950.3986652665416
 31
0.0
  0
LINE
  5
361F
330
361B
100
AcDbEntity
  8
DIM
 62
     0
 48
0.05
370
    -2
100
AcDbLine
 10
-781.1614360851468
 20
997.3613317377002
 30
0.0
 11
-753.9827233379619
 21
997.3613317377002
 31
0.0
  0
LINE
  5
3620
330
361B
100
AcDbEntity
  8
DIM
 62
     0
 48
0.05
370
    -2
100
AcDbLine
 10
-753.9827233379619
 20
960.3986652665416
 30
0.0
 11
-753.9827233379619
 21
987.3613317377002
 31
0.0
  0
INSERT
  5
3621
330
361B
100
AcDbEntity
  8
DIM
 62
     0
370
    -2
100
AcDbBlockReference
  2
_DOT
 10
-753.9827233379619
 20
950.3986652665416
 30
0.0
 41
10.0
 42
10.0
 43
10.0
 50
270.0
  0
INSERT
  5
3622
330
361B
100
AcDbEntity
  8
DIM
 62
     0
370
    -2
100
AcDbBlockReference
  2
_DOT
 10
-753.9827233379619
 20
997.3613317377002
 30
0.0
 41
10.0
 42
10.0
 43
10.0
 50
90.0
  0
MTEXT
  5
3623
330
361B
100
AcDbEntity
  8
DIM
 62
     0
100
AcDbMText
 10
-719.4267233379619
 20
973.8799985021209
 30
0.0
 40
24.0
 41
0.0
 46
0.0
 71
     5
 72
     1
  1
\A1;G1 1/4"
  7
ＭＳ ゴシック
 11
0.0
 21
1.0
 31
0.0
 73
     1
 44
1.0
  0
POINT
  5
3624
330
361B
100
AcDbEntity
  8
Defpoints
 62
     0
100
AcDbPoint
 10
-811.1614360851468
 20
950.3986652665416
 30
0.0
  0
POINT
  5
3625
330
361B
100
AcDbEntity
  8
Defpoints
 62
     0
100
AcDbPoint
 10
-811.1614360851468
 20
997.3613317377002
 30
0.0
  0
POINT
  5
3626
330
361B
100
AcDbEntity
  8
Defpoints
 62
     0
100
AcDbPoint
 10
-753.9827233379619
 20
997.3613317377002
 30
0.0
  0
ENDBLK
  5
361D
330
361B
100
AcDbEntity
  8
0
100
AcDbBlockEnd
  0
BLOCK
  5
3628
330
3627
100
AcDbEntity
  8
0
100
AcDbBlockBegin
  2
*D18
 70
     1
 10
0.0
 20
0.0
 30
0.0
  3
*D18
  1

  0
LINE
  5
362A
330
3627
100
AcDbEntity
  8
DIM
 62
     0
 48
0.05
370
    -2
100
AcDbLine
 10
-783.6106148187328
 20
812.0100790950028
 30
0.0
 11
-636.4560752391558
 21
812.0100790950028
 31
0.0
  0
LINE
  5
362B
330
3627
100
AcDbEntity
  8
DIM
 62
     0
 48
0.05
370
    -2
100
AcDbLine
 10
-783.6106148187328
 20
1137.010079095002
 30
0.0
 11
-636.4560752391558
 21
1137.010079095002
 31
0.0
  0
LINE
  5
362C
330
3627
100
AcDbEntity
  8
DIM
 62
     0
 48
0.05
370
    -2
100
AcDbLine
 10
-636.4560752391558
 20
822.0100790950028
 30
0.0
 11
-636.4560752391558
 21
1127.010079095002
 31
0.0
  0
INSERT
  5
362D
330
3627
100
AcDbEntity
  8
DIM
 62
     0
370
    -2
100
AcDbBlockReference
  2
_DOT
 10
-636.4560752391558
 20
812.0100790950028
 30
0.0
 41
10.0
 42
10.0
 43
10.0
 50
270.0
  0
INSERT
  5
362E
330
3627
100
AcDbEntity
  8
DIM
 62
     0
370
    -2
100
AcDbBlockReference
  2
_DOT
 10
-636.4560752391558
 20
1137.010079095002
 30
0.0
 41
10.0
 42
10.0
 43
10.0
 50
90.0
  0
MTEXT
  5
362F
330
3627
100
AcDbEntity
  8
DIM
 62
     0
100
AcDbMText
 10
-668.4560752391558
 20
974.5100790950024
 30
0.0
 40
24.0
 41
0.0
 46
0.0
 71
     5
 72
     1
  1
\A1;325
  7
ＭＳ ゴシック
 11
0.0
 21
1.0
 31
0.0
 73
     1
 44
1.0
  0
POINT
  5
3630
330
3627
100
AcDbEntity
  8
Defpoints
 62
     0
100
AcDbPoint
 10
-813.6106148187328
 20
812.0100790950028
 30
0.0
  0
POINT
  5
3631
330
3627
100
AcDbEntity
  8
Defpoints
 62
     0
100
AcDbPoint
 10
-813.6106148187328
 20
1137.010079095002
 30
0.0
  0
POINT
  5
3632
330
3627
100
AcDbEntity
  8
Defpoints
 62
     0
100
AcDbPoint
 10
-636.4560752391558
 20
1137.010079095002
 30
0.0
  0
ENDBLK
  5
3629
330
3627
100
AcDbEntity
  8
0
100
AcDbBlockEnd
  0
BLOCK
  5
3634
330
3633
100
AcDbEntity
  8
0
100
AcDbBlockBegin
  2
*D19
 70
     1
 10
0.0
 20
0.0
 30
0.0
  3
*D19
  1

  0
LINE
  5
3636
330
3633
100
AcDbEntity
  8
DIM
 62
     0
 48
0.05
370
    -2
100
AcDbLine
 10
-1786.223808336289
 20
2144.990655285753
 30
0.0
 11
-1849.889521027741
 21
2144.990655285753
 31
0.0
  0
LINE
  5
3637
330
3633
100
AcDbEntity
  8
DIM
 62
     0
 48
0.05
370
    -2
100
AcDbLine
 10
-1687.721766541444
 20
1864.990655285753
 30
0.0
 11
-1849.889521027741
 21
1864.990655285753
 31
0.0
  0
LINE
  5
3638
330
3633
100
AcDbEntity
  8
DIM
 62
     0
 48
0.05
370
    -2
100
AcDbLine
 10
-1849.889521027741
 20
2134.990655285753
 30
0.0
 11
-1849.889521027741
 21
1874.990655285753
 31
0.0
  0
INSERT
  5
3639
330
3633
100
AcDbEntity
  8
DIM
 62
     0
370
    -2
100
AcDbBlockReference
  2
_DOT
 10
-1849.889521027741
 20
2144.990655285753
 30
0.0
 41
10.0
 42
10.0
 43
10.0
 50
90.0
  0
INSERT
  5
363A
330
3633
100
AcDbEntity
  8
DIM
 62
     0
370
    -2
100
AcDbBlockReference
  2
_DOT
 10
-1849.889521027741
 20
1864.990655285753
 30
0.0
 41
10.0
 42
10.0
 43
10.0
 50
270.0
  0
MTEXT
  5
363B
330
3633
100
AcDbEntity
  8
DIM
 62
     0
100
AcDbMText
 10
-1881.889521027741
 20
2004.990655285753
 30
0.0
 40
24.0
 41
0.0
 46
0.0
 71
     5
 72
     1
  1
\A1;280
  7
ＭＳ ゴシック
 11
0.0
 21
1.0
 31
0.0
 73
     1
 44
1.0
  0
POINT
  5
363C
330
3633
100
AcDbEntity
  8
Defpoints
 62
     0
100
AcDbPoint
 10
-1756.223808336289
 20
2144.990655285753
 30
0.0
  0
POINT
  5
363D
330
3633
100
AcDbEntity
  8
Defpoints
 62
     0
100
AcDbPoint
 10
-1657.721766541444
 20
1864.990655285753
 30
0.0
  0
POINT
  5
363E
330
3633
100
AcDbEntity
  8
Defpoints
 62
     0
100
AcDbPoint
 10
-1849.889521027741
 20
1864.990655285753
 30
0.0
  0
ENDBLK
  5
3635
330
3633
100
AcDbEntity
  8
0
100
AcDbBlockEnd
  0
BLOCK
  5
3640
330
363F
100
AcDbEntity
  8
0
100
AcDbBlockBegin
  2
*D20
 70
     1
 10
0.0
 20
0.0
 30
0.0
  3
*D20
  1

  0
LINE
  5
3642
330
363F
100
AcDbEntity
  8
DIM
 62
     0
 48
0.05
370
    -2
100
AcDbLine
 10
-1778.380865249437
 20
2104.299845443934
 30
0.0
 11
-1778.380865249437
 21
1887.730951435908
 31
0.0
  0
LINE
  5
3643
330
363F
100
AcDbEntity
  8
DIM
 62
     0
 48
0.05
370
    -2
100
AcDbLine
 10
-1721.380865249437
 20
2104.299845443934
 30
0.0
 11
-1721.380865249437
 21
1887.730951435908
 31
0.0
  0
LINE
  5
3644
330
363F
100
AcDbEntity
  8
DIM
 62
     0
 48
0.05
370
    -2
100
AcDbLine
 10
-1768.380865249437
 20
1887.730951435908
 30
0.0
 11
-1731.380865249437
 21
1887.730951435908
 31
0.0
  0
INSERT
  5
3645
330
363F
100
AcDbEntity
  8
DIM
 62
     0
370
    -2
100
AcDbBlockReference
  2
_DOT
 10
-1778.380865249437
 20
1887.730951435908
 30
0.0
 41
10.0
 42
10.0
 43
10.0
 50
180.0
  0
INSERT
  5
3646
330
363F
100
AcDbEntity
  8
DIM
 62
     0
370
    -2
100
AcDbBlockReference
  2
_DOT
 10
-1721.380865249437
 20
1887.730951435908
 30
0.0
 41
10.0
 42
10.0
 43
10.0
  0
MTEXT
  5
3647
330
363F
100
AcDbEntity
  8
DIM
 62
     0
100
AcDbMText
 10
-1749.880865249437
 20
1919.730951435908
 30
0.0
 40
24.0
 41
0.0
 46
0.0
 71
     5
 72
     1
  1
\A1;57
  7
ＭＳ ゴシック
 73
     1
 44
1.0
  0
POINT
  5
3648
330
363F
100
AcDbEntity
  8
Defpoints
 62
     0
100
AcDbPoint
 10
-1778.380865249437
 20
2134.299845443934
 30
0.0
  0
POINT
  5
3649
330
363F
100
AcDbEntity
  8
Defpoints
 62
     0
100
AcDbPoint
 10
-1721.380865249437
 20
2134.299845443934
 30
0.0
  0
POINT
  5
364A
330
363F
100
AcDbEntity
  8
Defpoints
 62
     0
100
AcDbPoint
 10
-1721.380865249437
 20
1887.730951435908
 30
0.0
  0
ENDBLK
  5
3641
330
363F
100
AcDbEntity
  8
0
100
AcDbBlockEnd
  0
BLOCK
  5
364C
330
364B
100
AcDbEntity
  8
0
100
AcDbBlockBegin
  2
*D21
 70
     1
 10
0.0
 20
0.0
 30
0.0
  3
*D21
  1

  0
LINE
  5
364E
330
364B
100
AcDbEntity
  8
DIM
 62
     0
 48
0.05
370
    -2
100
AcDbLine
 10
-1778.29517968431
 20
2176.105069683482
 30
0.0
 11
-1778.29517968431
 21
2350.646865074346
 31
0.0
  0
LINE
  5
364F
330
364B
100
AcDbEntity
  8
DIM
 62
     0
 48
0.05
370
    -2
100
AcDbLine
 10
-1738.29517968431
 20
2329.990655285753
 30
0.0
 11
-1738.29517968431
 21
2350.646865074346
 31
0.0
  0
LINE
  5
3650
330
364B
100
AcDbEntity
  8
DIM
 62
     0
 48
0.05
370
    -2
100
AcDbLine
 10
-1768.29517968431
 20
2350.646865074346
 30
0.0
 11
-1748.29517968431
 21
2350.646865074346
 31
0.0
  0
INSERT
  5
3651
330
364B
100
AcDbEntity
  8
DIM
 62
     0
370
    -2
100
AcDbBlockReference
  2
_DOT
 10
-1778.29517968431
 20
2350.646865074346
 30
0.0
 41
10.0
 42
10.0
 43
10.0
 50
180.0
  0
INSERT
  5
3652
330
364B
100
AcDbEntity
  8
DIM
 62
     0
370
    -2
100
AcDbBlockReference
  2
_DOT
 10
-1738.29517968431
 20
2350.646865074346
 30
0.0
 41
10.0
 42
10.0
 43
10.0
  0
MTEXT
  5
3653
330
364B
100
AcDbEntity
  8
DIM
 62
     0
100
AcDbMText
 10
-1758.29517968431
 20
2382.646865074346
 30
0.0
 40
24.0
 41
0.0
 46
0.0
 71
     5
 72
     1
  1
\A1; 
  7
ＭＳ ゴシック
 73
     1
 44
1.0
  0
POINT
  5
3654
330
364B
100
AcDbEntity
  8
Defpoints
 62
     0
100
AcDbPoint
 10
-1778.29517968431
 20
2146.105069683482
 30
0.0
  0
POINT
  5
3655
330
364B
100
AcDbEntity
  8
Defpoints
 62
     0
100
AcDbPoint
 10
-1738.29517968431
 20
2299.990655285753
 30
0.0
  0
POINT
  5
3656
330
364B
100
AcDbEntity
  8
Defpoints
 62
     0
100
AcDbPoint
 10
-1738.29517968431
 20
2350.646865074346
 30
0.0
  0
ENDBLK
  5
364D
330
364B
100
AcDbEntity
  8
0
100
AcDbBlockEnd
  0
BLOCK
  5
39F0
330
39EF
100
AcDbEntity
  8
0
100
AcDbBlockBegin
  2
*D22
 70
     1
 10
0.0
 20
0.0
 30
0.0
  3
*D22
  1

  0
LINE
  5
39F2
330
39EF
100
AcDbEntity
  8
DIM
 62
     0
370
    -2
100
AcDbLine
 10
809.5928566336981
 20
2378.058028066889
 30
0.0
 11
641.4116822000108
 21
2378.058028066889
 31
0.0
  0
LINE
  5
39F3
330
39EF
100
AcDbEntity
  8
DIM
 62
     0
370
    -2
100
AcDbLine
 10
810.6470118168448
 20
1918.058310463775
 30
0.0
 11
641.4116822000108
 21
1918.058310463775
 31
0.0
  0
LINE
  5
39F4
330
39EF
100
AcDbEntity
  8
DIM
 62
     0
370
    -2
100
AcDbLine
 10
641.4116822000108
 20
2368.058028066889
 30
0.0
 11
641.4116822000108
 21
1928.058310463775
 31
0.0
  0
INSERT
  5
39F5
330
39EF
100
AcDbEntity
  8
DIM
 62
     0
370
    -2
100
AcDbBlockReference
  2
_DOT
 10
641.4116822000108
 20
2378.058028066889
 30
0.0
 41
10.0
 42
10.0
 43
10.0
 50
90.0
  0
INSERT
  5
39F6
330
39EF
100
AcDbEntity
  8
DIM
 62
     0
370
    -2
100
AcDbBlockReference
  2
_DOT
 10
641.4116822000108
 20
1918.058310463775
 30
0.0
 41
10.0
 42
10.0
 43
10.0
 50
270.0
  0
MTEXT
  5
39F7
330
39EF
100
AcDbEntity
  8
DIM
 62
     0
100
AcDbMText
 10
609.4116822000108
 20
2148.058169265332
 30
0.0
 40
24.0
 41
0.0
 46
0.0
 71
     5
 72
     1
  1
\A1;460
  7
ＭＳ ゴシック
 11
0.0
 21
1.0
 31
0.0
 73
     1
 44
1.0
  0
POINT
  5
39F8
330
39EF
100
AcDbEntity
  8
Defpoints
 62
     0
100
AcDbPoint
 10
839.5928566336981
 20
2378.058028066889
 30
0.0
  0
POINT
  5
39F9
330
39EF
100
AcDbEntity
  8
Defpoints
 62
     0
100
AcDbPoint
 10
840.6470118168448
 20
1918.058310463775
 30
0.0
  0
POINT
  5
39FA
330
39EF
100
AcDbEntity
  8
Defpoints
 62
     0
100
AcDbPoint
 10
641.4116822000108
 20
1918.058310463775
 30
0.0
  0
ENDBLK
  5
39F1
330
39EF
100
AcDbEntity
  8
0
100
AcDbBlockEnd
  0
BLOCK
  5
39FF
330
39FE
100
AcDbEntity
  8
0
100
AcDbBlockBegin
  2
*D23
 70
     1
 10
0.0
 20
0.0
 30
0.0
  3
*D23
  1

  0
LINE
  5
3A01
330
39FE
100
AcDbEntity
  8
DIM
 62
     0
370
    -2
100
AcDbLine
 10
366.1480944547464
 20
2268.058969357486
 30
0.0
 11
196.9127648379053
 21
2268.058969357486
 31
0.0
  0
LINE
  5
3A02
330
39FE
100
AcDbEntity
  8
DIM
 62
     0
370
    -2
100
AcDbLine
 10
371.4188703705565
 20
1988.057293871039
 30
0.0
 11
196.9127648379053
 21
1988.057293871039
 31
0.0
  0
LINE
  5
3A03
330
39FE
100
AcDbEntity
  8
DIM
 62
     0
370
    -2
100
AcDbLine
 10
196.9127648379053
 20
2258.058969357486
 30
0.0
 11
196.9127648379053
 21
1998.057293871039
 31
0.0
  0
INSERT
  5
3A04
330
39FE
100
AcDbEntity
  8
DIM
 62
     0
370
    -2
100
AcDbBlockReference
  2
_DOT
 10
196.9127648379053
 20
2268.058969357486
 30
0.0
 41
10.0
 42
10.0
 43
10.0
 50
90.0
  0
INSERT
  5
3A05
330
39FE
100
AcDbEntity
  8
DIM
 62
     0
370
    -2
100
AcDbBlockReference
  2
_DOT
 10
196.9127648379053
 20
1988.057293871039
 30
0.0
 41
10.0
 42
10.0
 43
10.0
 50
270.0
  0
MTEXT
  5
3A06
330
39FE
100
AcDbEntity
  8
DIM
 62
     0
100
AcDbMText
 10
164.9127648379053
 20
2128.058131614262
 30
0.0
 40
24.0
 41
0.0
 46
0.0
 71
     5
 72
     1
  1
\A1;280
  7
ＭＳ ゴシック
 11
1.015054977118510E-16
 21
1.0
 31
0.0
 73
     1
 44
1.0
  0
POINT
  5
3A07
330
39FE
100
AcDbEntity
  8
Defpoints
 62
     0
100
AcDbPoint
 10
396.1480944547464
 20
2268.058969357486
 30
0.0
  0
POINT
  5
3A08
330
39FE
100
AcDbEntity
  8
Defpoints
 62
     0
100
AcDbPoint
 10
401.4188703705565
 20
1988.057293871039
 30
0.0
  0
POINT
  5
3A09
330
39FE
100
AcDbEntity
  8
Defpoints
 62
     0
100
AcDbPoint
 10
196.9127648379053
 20
1988.057293871039
 30
0.0
  0
ENDBLK
  5
3A00
330
39FE
100
AcDbEntity
  8
0
100
AcDbBlockEnd
  0
BLOCK
  5
3A0E
330
3A0D
100
AcDbEntity
  8
0
100
AcDbBlockBegin
  2
*D24
 70
     1
 10
0.0
 20
0.0
 30
0.0
  3
*D24
  1

  0
LINE
  5
3A10
330
3A0D
100
AcDbEntity
  8
DIM
 62
     0
370
    -2
100
AcDbLine
 10
375.2297884725628
 20
1944.638573157172
 30
0.0
 11
375.2297884725628
 21
1799.038686504535
 31
0.0
  0
LINE
  5
3A11
330
3A0D
100
AcDbEntity
  8
DIM
 62
     0
370
    -2
100
AcDbLine
 10
845.234118387121
 20
1944.638573157172
 30
0.0
 11
845.234118387121
 21
1799.038686504535
 31
0.0
  0
LINE
  5
3A12
330
3A0D
100
AcDbEntity
  8
DIM
 62
     0
370
    -2
100
AcDbLine
 10
385.2297884725628
 20
1799.038686504535
 30
0.0
 11
835.234118387121
 21
1799.038686504535
 31
0.0
  0
INSERT
  5
3A13
330
3A0D
100
AcDbEntity
  8
DIM
 62
     0
370
    -2
100
AcDbBlockReference
  2
_DOT
 10
375.2297884725628
 20
1799.038686504535
 30
0.0
 41
10.0
 42
10.0
 43
10.0
 50
180.0
  0
INSERT
  5
3A14
330
3A0D
100
AcDbEntity
  8
DIM
 62
     0
370
    -2
100
AcDbBlockReference
  2
_DOT
 10
845.234118387121
 20
1799.038686504535
 30
0.0
 41
10.0
 42
10.0
 43
10.0
  0
MTEXT
  5
3A15
330
3A0D
100
AcDbEntity
  8
DIM
 62
     0
100
AcDbMText
 10
610.231953429842
 20
1831.038686504535
 30
0.0
 40
24.0
 41
0.0
 46
0.0
 71
     5
 72
     1
  1
\A1;470
  7
ＭＳ ゴシック
 73
     1
 44
1.0
  0
POINT
  5
3A16
330
3A0D
100
AcDbEntity
  8
Defpoints
 62
     0
100
AcDbPoint
 10
375.2297884725628
 20
1974.638573157172
 30
0.0
  0
POINT
  5
3A17
330
3A0D
100
AcDbEntity
  8
Defpoints
 62
     0
100
AcDbPoint
 10
845.234118387121
 20
1974.638573157172
 30
0.0
  0
POINT
  5
3A18
330
3A0D
100
AcDbEntity
  8
Defpoints
 62
     0
100
AcDbPoint
 10
845.234118387121
 20
1799.038686504535
 30
0.0
  0
ENDBLK
  5
3A0F
330
3A0D
100
AcDbEntity
  8
0
100
AcDbBlockEnd
  0
BLOCK
  5
3A1D
330
3A1C
100
AcDbEntity
  8
0
100
AcDbBlockBegin
  2
*D25
 70
     1
 10
0.0
 20
0.0
 30
0.0
  3
*D25
  1

  0
LINE
  5
3A1F
330
3A1C
100
AcDbEntity
  8
DIM
 62
     0
370
    -2
100
AcDbLine
 10
822.4675784367741
 20
1910.03194225189
 30
0.0
 11
822.4675784367741
 21
1742.377845409798
 31
0.0
  0
LINE
  5
3A20
330
3A1C
100
AcDbEntity
  8
DIM
 62
     0
370
    -2
100
AcDbLine
 10
1432.46757842291
 20
1912.667330209805
 30
0.0
 11
1432.46757842291
 21
1742.377845409798
 31
0.0
  0
LINE
  5
3A21
330
3A1C
100
AcDbEntity
  8
DIM
 62
     0
370
    -2
100
AcDbLine
 10
832.4675784367741
 20
1742.377845409798
 30
0.0
 11
1422.46757842291
 21
1742.377845409798
 31
0.0
  0
INSERT
  5
3A22
330
3A1C
100
AcDbEntity
  8
DIM
 62
     0
370
    -2
100
AcDbBlockReference
  2
_DOT
 10
822.4675784367741
 20
1742.377845409798
 30
0.0
 41
10.0
 42
10.0
 43
10.0
 50
180.0
  0
INSERT
  5
3A23
330
3A1C
100
AcDbEntity
  8
DIM
 62
     0
370
    -2
100
AcDbBlockReference
  2
_DOT
 10
1432.46757842291
 20
1742.377845409798
 30
0.0
 41
10.0
 42
10.0
 43
10.0
  0
MTEXT
  5
3A24
330
3A1C
100
AcDbEntity
  8
DIM
 62
     0
100
AcDbMText
 10
1127.467578429842
 20
1774.377845409798
 30
0.0
 40
24.0
 41
0.0
 46
0.0
 71
     5
 72
     1
  1
\A1;610
  7
ＭＳ ゴシック
 73
     1
 44
1.0
  0
POINT
  5
3A25
330
3A1C
100
AcDbEntity
  8
Defpoints
 62
     0
100
AcDbPoint
 10
822.4675784367741
 20
1940.03194225189
 30
0.0
  0
POINT
  5
3A26
330
3A1C
100
AcDbEntity
  8
Defpoints
 62
     0
100
AcDbPoint
 10
1432.46757842291
 20
1942.667330209805
 30
0.0
  0
POINT
  5
3A27
330
3A1C
100
AcDbEntity
  8
Defpoints
 62
     0
100
AcDbPoint
 10
1432.46757842291
 20
1742.377845409798
 30
0.0
  0
ENDBLK
  5
3A1E
330
3A1C
100
AcDbEntity
  8
0
100
AcDbBlockEnd
  0
BLOCK
  5
3A2C
330
3A2B
100
AcDbEntity
  8
0
100
AcDbBlockBegin
  2
*D26
 70
     1
 10
0.0
 20
0.0
 30
0.0
  3
*D26
  1

  0
LINE
  5
3A2E
330
3A2B
100
AcDbEntity
  8
DIM
 62
     0
370
    -2
100
AcDbLine
 10
879.8921708954172
 20
1307.103385580712
 30
0.0
 11
1018.557000200768
 21
1307.103385580712
 31
0.0
  0
LINE
  5
3A2F
330
3A2B
100
AcDbEntity
  8
DIM
 62
     0
370
    -2
100
AcDbLine
 10
856.7840202922337
 20
952.1050140171883
 30
0.0
 11
1018.557000200768
 21
952.1050140171883
 31
0.0
  0
LINE
  5
3A30
330
3A2B
100
AcDbEntity
  8
DIM
 62
     0
370
    -2
100
AcDbLine
 10
1018.557000200768
 20
1297.103385580712
 30
0.0
 11
1018.557000200768
 21
962.1050140171883
 31
0.0
  0
INSERT
  5
3A31
330
3A2B
100
AcDbEntity
  8
DIM
 62
     0
370
    -2
100
AcDbBlockReference
  2
_DOT
 10
1018.557000200768
 20
1307.103385580712
 30
0.0
 41
10.0
 42
10.0
 43
10.0
 50
90.0
  0
INSERT
  5
3A32
330
3A2B
100
AcDbEntity
  8
DIM
 62
     0
370
    -2
100
AcDbBlockReference
  2
_DOT
 10
1018.557000200768
 20
952.1050140171883
 30
0.0
 41
10.0
 42
10.0
 43
10.0
 50
270.0
  0
MTEXT
  5
3A33
330
3A2B
100
AcDbEntity
  8
DIM
 62
     0
100
AcDbMText
 10
986.5570002007678
 20
1129.60419979895
 30
0.0
 40
24.0
 41
0.0
 46
0.0
 71
     5
 72
     1
  1
\A1;355
  7
ＭＳ ゴシック
 11
0.0
 21
1.0
 31
0.0
 73
     1
 44
1.0
  0
POINT
  5
3A34
330
3A2B
100
AcDbEntity
  8
Defpoints
 62
     0
100
AcDbPoint
 10
849.8921708954172
 20
1307.103385580712
 30
0.0
  0
POINT
  5
3A35
330
3A2B
100
AcDbEntity
  8
Defpoints
 62
     0
100
AcDbPoint
 10
826.7840202922337
 20
952.1050140171883
 30
0.0
  0
POINT
  5
3A36
330
3A2B
100
AcDbEntity
  8
Defpoints
 62
     0
100
AcDbPoint
 10
1018.557000200768
 20
952.1050140171883
 30
0.0
  0
ENDBLK
  5
3A2D
330
3A2B
100
AcDbEntity
  8
0
100
AcDbBlockEnd
  0
BLOCK
  5
3A3B
330
3A3A
100
AcDbEntity
  8
0
100
AcDbBlockBegin
  2
*D27
 70
     1
 10
0.0
 20
0.0
 30
0.0
  3
*D27
  1

  0
LINE
  5
3A3D
330
3A3A
100
AcDbEntity
  8
DIM
 62
     0
370
    -2
100
AcDbLine
 10
610.9682717942662
 20
917.107301347377
 30
0.0
 11
610.9682717942662
 21
825.4006418981388
 31
0.0
  0
LINE
  5
3A3E
330
3A3A
100
AcDbEntity
  8
DIM
 62
     0
370
    -2
100
AcDbLine
 10
400.9678764580342
 20
1245.094809791831
 30
0.0
 11
400.9678764580342
 21
825.4006418981388
 31
0.0
  0
LINE
  5
3A3F
330
3A3A
100
AcDbEntity
  8
DIM
 62
     0
370
    -2
100
AcDbLine
 10
600.9682717942662
 20
825.4006418981388
 30
0.0
 11
410.9678764580342
 21
825.4006418981388
 31
0.0
  0
INSERT
  5
3A40
330
3A3A
100
AcDbEntity
  8
DIM
 62
     0
370
    -2
100
AcDbBlockReference
  2
_DOT
 10
610.9682717942662
 20
825.4006418981388
 30
0.0
 41
10.0
 42
10.0
 43
10.0
  0
INSERT
  5
3A41
330
3A3A
100
AcDbEntity
  8
DIM
 62
     0
370
    -2
100
AcDbBlockReference
  2
_DOT
 10
400.9678764580342
 20
825.4006418981388
 30
0.0
 41
10.0
 42
10.0
 43
10.0
 50
180.0
  0
MTEXT
  5
3A42
330
3A3A
100
AcDbEntity
  8
DIM
 62
     0
100
AcDbMText
 10
505.9680741261502
 20
857.4006418981388
 30
0.0
 40
24.0
 41
0.0
 46
0.0
 71
     5
 72
     1
  1
\A1;210
  7
ＭＳ ゴシック
 73
     1
 44
1.0
  0
POINT
  5
3A43
330
3A3A
100
AcDbEntity
  8
Defpoints
 62
     0
100
AcDbPoint
 10
610.9682717942662
 20
947.107301347377
 30
0.0
  0
POINT
  5
3A44
330
3A3A
100
AcDbEntity
  8
Defpoints
 62
     0
100
AcDbPoint
 10
400.9678764580342
 20
1275.094809791831
 30
0.0
  0
POINT
  5
3A45
330
3A3A
100
AcDbEntity
  8
Defpoints
 62
     0
100
AcDbPoint
 10
400.9678764580342
 20
825.4006418981388
 30
0.0
  0
ENDBLK
  5
3A3C
330
3A3A
100
AcDbEntity
  8
0
100
AcDbBlockEnd
  0
BLOCK
  5
3ABE
330
3ABD
100
AcDbEntity
  8
0
100
AcDbBlockBegin
  2
*D28
 70
     1
 10
0.0
 20
0.0
 30
0.0
  3
*D28
  1

  0
LINE
  5
3AC0
330
3ABD
100
AcDbEntity
  8
DIM
 62
     0
370
    -2
100
AcDbLine
 10
400.9678764580341
 20
1255.458883003004
 30
0.0
 11
400.9678764580341
 21
1192.862161577756
 31
0.0
  0
LINE
  5
3AC1
330
3ABD
100
AcDbEntity
  8
DIM
 62
     0
370
    -2
100
AcDbLine
 10
429.9688497492673
 20
1255.735223458952
 30
0.0
 11
429.9688497492673
 21
1192.862161577756
 31
0.0
  0
LINE
  5
3AC2
330
3ABD
100
AcDbEntity
  8
DIM
 62
     0
370
    -2
100
AcDbLine
 10
400.9678764580341
 20
1192.862161577756
 30
0.0
 11
312.959876458034
 21
1192.862161577756
 31
0.0
  0
LINE
  5
3AC3
330
3ABD
100
AcDbEntity
  8
DIM
 62
     0
370
    -2
100
AcDbLine
 10
410.9678764580341
 20
1192.862161577756
 30
0.0
 11
419.9688497492673
 21
1192.862161577756
 31
0.0
  0
LINE
  5
3AC4
330
3ABD
100
AcDbEntity
  8
DIM
 62
     0
370
    -2
100
AcDbLine
 10
410.9678764580341
 20
1192.862161577756
 30
0.0
 11
420.9678764580341
 21
1192.862161577756
 31
0.0
  0
INSERT
  5
3AC5
330
3ABD
100
AcDbEntity
  8
DIM
 62
     0
370
    -2
100
AcDbBlockReference
  2
_DOT
 10
400.9678764580341
 20
1192.862161577756
 30
0.0
 41
10.0
 42
10.0
 43
10.0
 50
180.0
  0
INSERT
  5
3AC6
330
3ABD
100
AcDbEntity
  8
DIM
 62
     0
370
    -2
100
AcDbBlockReference
  2
_DOT
 10
429.9688497492673
 20
1192.862161577756
 30
0.0
 41
10.0
 42
10.0
 43
10.0
  0
MTEXT
  5
3AC7
330
3ABD
100
AcDbEntity
  8
DIM
 62
     0
100
AcDbMText
 10
346.9638764580341
 20
1224.862161577756
 30
0.0
 40
24.0
 41
0.0
 46
0.0
 71
     5
 72
     1
  1
\A1;35
  7
ＭＳ ゴシック
 73
     1
 44
1.0
  0
POINT
  5
3AC8
330
3ABD
100
AcDbEntity
  8
Defpoints
 62
     0
100
AcDbPoint
 10
400.9678764580341
 20
1285.458883003004
 30
0.0
  0
POINT
  5
3ACA
330
3ABD
100
AcDbEntity
  8
Defpoints
 62
     0
100
AcDbPoint
 10
429.9688497492673
 20
1285.735223458952
 30
0.0
  0
POINT
  5
3ACB
330
3ABD
100
AcDbEntity
  8
Defpoints
 62
     0
100
AcDbPoint
 10
429.9688497492673
 20
1192.862161577756
 30
0.0
  0
ENDBLK
  5
3ABF
330
3ABD
100
AcDbEntity
  8
0
100
AcDbBlockEnd
  0
BLOCK
  5
3AD0
330
3ACF
100
AcDbEntity
  8
0
100
AcDbBlockBegin
  2
*D29
 70
     1
 10
0.0
 20
0.0
 30
0.0
  3
*D29
  1

  0
LINE
  5
3AD2
330
3ACF
100
AcDbEntity
  8
DIM
 62
     0
370
    -2
100
AcDbLine
 10
860.966445689671
 20
1256.160461226132
 30
0.0
 11
860.966445689671
 21
1221.828046573965
 31
0.0
  0
LINE
  5
3AD3
330
3ACF
100
AcDbEntity
  8
DIM
 62
     0
370
    -2
100
AcDbLine
 10
815.25666740171
 20
1260.107487714621
 30
0.0
 11
815.25666740171
 21
1221.828046573965
 31
0.0
  0
LINE
  5
3AD4
330
3ACF
100
AcDbEntity
  8
DIM
 62
     0
370
    -2
100
AcDbLine
 10
860.966445689671
 20
1221.828046573965
 30
0.0
 11
933.3744456896709
 21
1221.828046573965
 31
0.0
  0
LINE
  5
3AD5
330
3ACF
100
AcDbEntity
  8
DIM
 62
     0
370
    -2
100
AcDbLine
 10
850.966445689671
 20
1221.828046573965
 30
0.0
 11
825.25666740171
 21
1221.828046573965
 31
0.0
  0
LINE
  5
3AD6
330
3ACF
100
AcDbEntity
  8
DIM
 62
     0
370
    -2
100
AcDbLine
 10
850.966445689671
 20
1221.828046573965
 30
0.0
 11
840.966445689671
 21
1221.828046573965
 31
0.0
  0
INSERT
  5
3AD7
330
3ACF
100
AcDbEntity
  8
DIM
 62
     0
370
    -2
100
AcDbBlockReference
  2
_DOT
 10
860.966445689671
 20
1221.828046573965
 30
0.0
 41
10.0
 42
10.0
 43
10.0
  0
INSERT
  5
3AD8
330
3ACF
100
AcDbEntity
  8
DIM
 62
     0
370
    -2
100
AcDbBlockReference
  2
_DOT
 10
815.25666740171
 20
1221.828046573965
 30
0.0
 41
10.0
 42
10.0
 43
10.0
 50
180.0
  0
MTEXT
  5
3AD9
330
3ACF
100
AcDbEntity
  8
DIM
 62
     0
100
AcDbMText
 10
907.1704456896709
 20
1253.828046573965
 30
0.0
 40
24.0
 41
0.0
 46
0.0
 71
     5
 72
     1
  1
\A1;3
  7
ＭＳ ゴシック
 73
     1
 44
1.0
  0
POINT
  5
3ADA
330
3ACF
100
AcDbEntity
  8
Defpoints
 62
     0
100
AcDbPoint
 10
860.966445689671
 20
1286.160461226132
 30
0.0
  0
POINT
  5
3ADC
330
3ACF
100
AcDbEntity
  8
Defpoints
 62
     0
100
AcDbPoint
 10
815.25666740171
 20
1290.107487714621
 30
0.0
  0
POINT
  5
3ADD
330
3ACF
100
AcDbEntity
  8
Defpoints
 62
     0
100
AcDbPoint
 10
815.25666740171
 20
1221.828046573965
 30
0.0
  0
ENDBLK
  5
3AD1
330
3ACF
100
AcDbEntity
  8
0
100
AcDbBlockEnd
  0
BLOCK
  5
3AEB
330
3AEA
100
AcDbEntity
  8
0
100
AcDbBlockBegin
  2
*D30
 70
     1
 10
0.0
 20
0.0
 30
0.0
  3
*D30
  1

  0
LINE
  5
3AED
330
3AEA
100
AcDbEntity
  8
DIM
 62
     0
370
    -2
100
AcDbLine
 10
590.1800345120807
 20
1002.105108144861
 30
0.0
 11
610.9676976085241
 21
1002.105108144861
 31
0.0
  0
LINE
  5
3AEE
330
3AEA
100
AcDbEntity
  8
DIM
 62
     0
370
    -2
100
AcDbLine
 10
590.1800345120807
 20
1307.105682323666
 30
0.0
 11
610.9676976085241
 21
1307.105682323666
 31
0.0
  0
LINE
  5
3AEF
330
3AEA
100
AcDbEntity
  8
DIM
 62
     0
370
    -2
100
AcDbLine
 10
610.9676976085241
 20
1002.105108144861
 30
0.0
 11
610.9676976085241
 21
1498.841682323666
 31
0.0
  0
LINE
  5
3AF0
330
3AEA
100
AcDbEntity
  8
DIM
 62
     0
370
    -2
100
AcDbLine
 10
610.9676976085241
 20
1012.105108144861
 30
0.0
 11
610.9676976085241
 21
1297.105682323666
 31
0.0
  0
LINE
  5
3AF1
330
3AEA
100
AcDbEntity
  8
DIM
 62
     0
370
    -2
100
AcDbLine
 10
610.9676976085241
 20
1297.105682323666
 30
0.0
 11
610.9676976085241
 21
1287.105682323666
 31
0.0
  0
INSERT
  5
3AF2
330
3AEA
100
AcDbEntity
  8
DIM
 62
     0
370
    -2
100
AcDbBlockReference
  2
_DOT
 10
610.9676976085241
 20
1002.105108144861
 30
0.0
 41
10.0
 42
10.0
 43
10.0
 50
270.0
  0
INSERT
  5
3AF3
330
3AEA
100
AcDbEntity
  8
DIM
 62
     0
370
    -2
100
AcDbBlockReference
  2
_DOT
 10
610.9676976085241
 20
1307.105682323666
 30
0.0
 41
10.0
 42
10.0
 43
10.0
 50
90.0
  0
MTEXT
  5
3AF4
330
3AEA
100
AcDbEntity
  8
DIM
 62
     0
100
AcDbMText
 10
576.843697608524
 20
1412.973682323666
 30
0.0
 40
24.0
 41
0.0
 46
0.0
 71
     5
 72
     1
  1
\A1;305(深さ)
  7
ＭＳ ゴシック
 11
0.0
 21
1.0
 31
0.0
 73
     1
 44
1.0
  0
POINT
  5
3AF5
330
3AEA
100
AcDbEntity
  8
Defpoints
 62
     0
100
AcDbPoint
 10
620.1800345120807
 20
1002.105108144861
 30
0.0
  0
POINT
  5
3AF6
330
3AEA
100
AcDbEntity
  8
Defpoints
 62
     0
100
AcDbPoint
 10
620.1800345120807
 20
1307.105682323666
 30
0.0
  0
POINT
  5
3AF7
330
3AEA
100
AcDbEntity
  8
Defpoints
 62
     0
100
AcDbPoint
 10
610.9676976085241
 20
1307.105682323666
 30
0.0
  0
ENDBLK
  5
3AEC
330
3AEA
100
AcDbEntity
  8
0
100
AcDbBlockEnd
  0
BLOCK
  5
3B05
330
3B04
100
AcDbEntity
  8
0
100
AcDbBlockBegin
  2
*D31
 70
     1
 10
0.0
 20
0.0
 30
0.0
  3
*D31
  1

  0
LINE
  5
3B07
330
3B04
100
AcDbEntity
  8
DIM
 62
     0
370
    -2
100
AcDbLine
 10
305.2319534367741
 20
2407.390097748115
 30
0.0
 11
305.2319534367741
 21
2512.98558
 31
0.0
  0
LINE
  5
3B08
330
3B04
100
AcDbEntity
  8
DIM
 62
     0
370
    -2
100
AcDbLine
 10
915.23195342291
 20
2404.7547097902
 30
0.0
 11
915.23195342291
 21
2512.98558
 31
0.0
  0
LINE
  5
3B09
330
3B04
100
AcDbEntity
  8
DIM
 62
     0
370
    -2
100
AcDbLine
 10
315.2319534367741
 20
2512.98558
 30
0.0
 11
905.23195342291
 21
2512.98558
 31
0.0
  0
INSERT
  5
3B0A
330
3B04
100
AcDbEntity
  8
DIM
 62
     0
370
    -2
100
AcDbBlockReference
  2
_DOT
 10
305.2319534367741
 20
2512.98558
 30
0.0
 41
10.0
 42
10.0
 43
10.0
 50
180.0
  0
INSERT
  5
3B0B
330
3B04
100
AcDbEntity
  8
DIM
 62
     0
370
    -2
100
AcDbBlockReference
  2
_DOT
 10
915.23195342291
 20
2512.98558
 30
0.0
 41
10.0
 42
10.0
 43
10.0
  0
MTEXT
  5
3B0C
330
3B04
100
AcDbEntity
  8
DIM
 62
     0
100
AcDbMText
 10
610.231953429842
 20
2544.98558
 30
0.0
 40
24.0
 41
0.0
 46
0.0
 71
     5
 72
     1
  1
\A1;610
  7
ＭＳ ゴシック
 73
     1
 44
1.0
  0
POINT
  5
3B0D
330
3B04
100
AcDbEntity
  8
Defpoints
 62
     0
100
AcDbPoint
 10
305.2319534367741
 20
2377.390097748115
 30
0.0
  0
POINT
  5
3B0E
330
3B04
100
AcDbEntity
  8
Defpoints
 62
     0
100
AcDbPoint
 10
915.23195342291
 20
2374.7547097902
 30
0.0
  0
POINT
  5
3B0F
330
3B04
100
AcDbEntity
  8
Defpoints
 62
     0
100
AcDbPoint
 10
915.23195342291
 20
2512.98558
 30
0.0
  0
ENDBLK
  5
3B06
330
3B04
100
AcDbEntity
  8
0
100
AcDbBlockEnd
  0
BLOCK
  5
3B14
330
3B13
100
AcDbEntity
  8
0
100
AcDbBlockBegin
  2
*D32
 70
     1
 10
0.0
 20
0.0
 30
0.0
  3
*D32
  1

  0
LINE
  5
3B16
330
3B13
100
AcDbEntity
  8
DIM
 62
     0
370
    -2
100
AcDbLine
 10
928.1055268545051
 20
2378.058028066889
 30
0.0
 11
1051.797493639317
 21
2378.058028066889
 31
0.0
  0
LINE
  5
3B17
330
3B13
100
AcDbEntity
  8
DIM
 62
     0
370
    -2
100
AcDbLine
 10
927.0513716713583
 20
1918.058310463775
 30
0.0
 11
1051.797493639317
 21
1918.058310463775
 31
0.0
  0
LINE
  5
3B18
330
3B13
100
AcDbEntity
  8
DIM
 62
     0
370
    -2
100
AcDbLine
 10
1051.797493639317
 20
2368.058028066889
 30
0.0
 11
1051.797493639317
 21
1928.058310463775
 31
0.0
  0
INSERT
  5
3B19
330
3B13
100
AcDbEntity
  8
DIM
 62
     0
370
    -2
100
AcDbBlockReference
  2
_DOT
 10
1051.797493639317
 20
2378.058028066889
 30
0.0
 41
10.0
 42
10.0
 43
10.0
 50
90.00000000000004
  0
INSERT
  5
3B1A
330
3B13
100
AcDbEntity
  8
DIM
 62
     0
370
    -2
100
AcDbBlockReference
  2
_DOT
 10
1051.797493639317
 20
1918.058310463775
 30
0.0
 41
10.0
 42
10.0
 43
10.0
 50
270.0
  0
MTEXT
  5
3B1B
330
3B13
100
AcDbEntity
  8
DIM
 62
     0
100
AcDbMText
 10
1019.797493639317
 20
2148.058169265332
 30
0.0
 40
24.0
 41
0.0
 46
0.0
 71
     5
 72
     1
  1
\A1;460
  7
ＭＳ ゴシック
 11
-4.942909022379206E-16
 21
1.0
 31
0.0
 73
     1
 44
1.0
  0
POINT
  5
3B1C
330
3B13
100
AcDbEntity
  8
Defpoints
 62
     0
100
AcDbPoint
 10
898.1055268545051
 20
2378.058028066889
 30
0.0
  0
POINT
  5
3B1D
330
3B13
100
AcDbEntity
  8
Defpoints
 62
     0
100
AcDbPoint
 10
897.0513716713583
 20
1918.058310463775
 30
0.0
  0
POINT
  5
3B1E
330
3B13
100
AcDbEntity
  8
Defpoints
 62
     0
100
AcDbPoint
 10
1051.797493639317
 20
1918.058310463775
 30
0.0
  0
ENDBLK
  5
3B15
330
3B13
100
AcDbEntity
  8
0
100
AcDbBlockEnd
  0
BLOCK
  5
3B6E
330
3B6D
100
AcDbEntity
  8
0
100
AcDbBlockBegin
  2
*D33
 70
     1
 10
0.0
 20
0.0
 30
0.0
  3
*D33
  1

  0
LINE
  5
3B70
330
3B6D
100
AcDbEntity
  8
DIM
 62
     0
370
    -2
100
AcDbLine
 10
936.9590816783689
 20
1195.222135580712
 30
0.0
 11
1048.746034531392
 21
1195.222135580712
 31
0.0
  0
LINE
  5
3B71
330
3B6D
100
AcDbEntity
  8
DIM
 62
     0
370
    -2
100
AcDbLine
 10
880.1380889999999
 20
840.2237640171884
 30
0.0
 11
1048.746034531392
 21
840.2237640171884
 31
0.0
  0
LINE
  5
3B72
330
3B6D
100
AcDbEntity
  8
DIM
 62
     0
370
    -2
100
AcDbLine
 10
1048.746034531392
 20
1185.222135580712
 30
0.0
 11
1048.746034531392
 21
850.2237640171884
 31
0.0
  0
INSERT
  5
3B73
330
3B6D
100
AcDbEntity
  8
DIM
 62
     0
370
    -2
100
AcDbBlockReference
  2
_DOT
 10
1048.746034531392
 20
1195.222135580712
 30
0.0
 41
10.0
 42
10.0
 43
10.0
 50
90.0
  0
INSERT
  5
3B74
330
3B6D
100
AcDbEntity
  8
DIM
 62
     0
370
    -2
100
AcDbBlockReference
  2
_DOT
 10
1048.746034531392
 20
840.2237640171884
 30
0.0
 41
10.0
 42
10.0
 43
10.0
 50
270.0
  0
MTEXT
  5
3B75
330
3B6D
100
AcDbEntity
  8
DIM
 62
     0
100
AcDbMText
 10
1016.746034531392
 20
1017.72294979895
 30
0.0
 40
24.0
 41
0.0
 46
0.0
 71
     5
 72
     1
  1
\A1;355
  7
ＭＳ ゴシック
 11
0.0
 21
1.0
 31
0.0
 73
     1
 44
1.0
  0
POINT
  5
3B76
330
3B6D
100
AcDbEntity
  8
Defpoints
 62
     0
100
AcDbPoint
 10
906.9590816783689
 20
1195.222135580712
 30
0.0
  0
POINT
  5
3B77
330
3B6D
100
AcDbEntity
  8
Defpoints
 62
     0
100
AcDbPoint
 10
850.1380889999999
 20
840.2237640171884
 30
0.0
  0
POINT
  5
3B78
330
3B6D
100
AcDbEntity
  8
Defpoints
 62
     0
100
AcDbPoint
 10
1048.746034531392
 20
840.2237640171884
 30
0.0
  0
ENDBLK
  5
3B6F
330
3B6D
100
AcDbEntity
  8
0
100
AcDbBlockEnd
  0
BLOCK
  5
3B7A
330
3B79
100
AcDbEntity
  8
0
100
AcDbBlockBegin
  2
*D34
 70
     1
 10
0.0
 20
0.0
 30
0.0
  3
*D34
  1

  0
LINE
  5
3B7C
330
3B79
100
AcDbEntity
  8
DIM
 62
     0
370
    -2
100
AcDbLine
 10
1596.260195422782
 20
805.226051347377
 30
0.0
 11
1596.260195422782
 21
719.7884459440593
 31
0.0
  0
LINE
  5
3B7D
330
3B79
100
AcDbEntity
  8
DIM
 62
     0
370
    -2
100
AcDbLine
 10
1806.260590759014
 20
1133.213559791831
 30
0.0
 11
1806.260590759014
 21
719.7884459440593
 31
0.0
  0
LINE
  5
3B7E
330
3B79
100
AcDbEntity
  8
DIM
 62
     0
370
    -2
100
AcDbLine
 10
1606.260195422782
 20
719.7884459440593
 30
0.0
 11
1796.260590759014
 21
719.7884459440593
 31
0.0
  0
INSERT
  5
3B7F
330
3B79
100
AcDbEntity
  8
DIM
 62
     0
370
    -2
100
AcDbBlockReference
  2
_DOT
 10
1596.260195422782
 20
719.7884459440593
 30
0.0
 41
10.0
 42
10.0
 43
10.0
 50
180.0
  0
INSERT
  5
3B80
330
3B79
100
AcDbEntity
  8
DIM
 62
     0
370
    -2
100
AcDbBlockReference
  2
_DOT
 10
1806.260590759014
 20
719.7884459440593
 30
0.0
 41
10.0
 42
10.0
 43
10.0
  0
MTEXT
  5
3B81
330
3B79
100
AcDbEntity
  8
DIM
 62
     0
100
AcDbMText
 10
1701.260393090898
 20
751.7884459440593
 30
0.0
 40
24.0
 41
0.0
 46
0.0
 71
     5
 72
     1
  1
\A1;210
  7
ＭＳ ゴシック
 73
     1
 44
1.0
  0
POINT
  5
3B82
330
3B79
100
AcDbEntity
  8
Defpoints
 62
     0
100
AcDbPoint
 10
1596.260195422782
 20
835.226051347377
 30
0.0
  0
POINT
  5
3B83
330
3B79
100
AcDbEntity
  8
Defpoints
 62
     0
100
AcDbPoint
 10
1806.260590759014
 20
1163.213559791831
 30
0.0
  0
POINT
  5
3B84
330
3B79
100
AcDbEntity
  8
Defpoints
 62
     0
100
AcDbPoint
 10
1806.260590759014
 20
719.7884459440593
 30
0.0
  0
ENDBLK
  5
3B7B
330
3B79
100
AcDbEntity
  8
0
100
AcDbBlockEnd
  0
BLOCK
  5
3B86
330
3B85
100
AcDbEntity
  8
0
100
AcDbBlockBegin
  2
*D35
 70
     1
 10
0.0
 20
0.0
 30
0.0
  3
*D35
  1

  0
LINE
  5
3B88
330
3B85
100
AcDbEntity
  8
DIM
 62
     0
370
    -2
100
AcDbLine
 10
1806.260590759014
 20
1143.577633003004
 30
0.0
 11
1806.260590759014
 21
1080.980911577756
 31
0.0
  0
LINE
  5
3B89
330
3B85
100
AcDbEntity
  8
DIM
 62
     0
370
    -2
100
AcDbLine
 10
1777.259617467781
 20
1143.853973458952
 30
0.0
 11
1777.259617467781
 21
1080.980911577756
 31
0.0
  0
LINE
  5
3B8A
330
3B85
100
AcDbEntity
  8
DIM
 62
     0
370
    -2
100
AcDbLine
 10
1806.260590759014
 20
1080.980911577756
 30
0.0
 11
1894.268590759014
 21
1080.980911577756
 31
0.0
  0
LINE
  5
3B8B
330
3B85
100
AcDbEntity
  8
DIM
 62
     0
370
    -2
100
AcDbLine
 10
1796.260590759014
 20
1080.980911577756
 30
0.0
 11
1787.259617467781
 21
1080.980911577756
 31
0.0
  0
LINE
  5
3B8C
330
3B85
100
AcDbEntity
  8
DIM
 62
     0
370
    -2
100
AcDbLine
 10
1796.260590759014
 20
1080.980911577756
 30
0.0
 11
1786.260590759014
 21
1080.980911577756
 31
0.0
  0
INSERT
  5
3B8D
330
3B85
100
AcDbEntity
  8
DIM
 62
     0
370
    -2
100
AcDbBlockReference
  2
_DOT
 10
1806.260590759014
 20
1080.980911577756
 30
0.0
 41
10.0
 42
10.0
 43
10.0
  0
INSERT
  5
3B8E
330
3B85
100
AcDbEntity
  8
DIM
 62
     0
370
    -2
100
AcDbBlockReference
  2
_DOT
 10
1777.259617467781
 20
1080.980911577756
 30
0.0
 41
10.0
 42
10.0
 43
10.0
 50
180.0
  0
MTEXT
  5
3B8F
330
3B85
100
AcDbEntity
  8
DIM
 62
     0
100
AcDbMText
 10
1860.264590759014
 20
1112.980911577756
 30
0.0
 40
24.0
 41
0.0
 46
0.0
 71
     5
 72
     1
  1
\A1;35
  7
ＭＳ ゴシック
 73
     1
 44
1.0
  0
POINT
  5
3B90
330
3B85
100
AcDbEntity
  8
Defpoints
 62
     0
100
AcDbPoint
 10
1806.260590759014
 20
1173.577633003004
 30
0.0
  0
POINT
  5
3B91
330
3B85
100
AcDbEntity
  8
Defpoints
 62
     0
100
AcDbPoint
 10
1777.259617467781
 20
1173.853973458952
 30
0.0
  0
POINT
  5
3B92
330
3B85
100
AcDbEntity
  8
Defpoints
 62
     0
100
AcDbPoint
 10
1777.259617467781
 20
1080.980911577756
 30
0.0
  0
ENDBLK
  5
3B87
330
3B85
100
AcDbEntity
  8
0
100
AcDbBlockEnd
  0
BLOCK
  5
3B94
330
3B93
100
AcDbEntity
  8
0
100
AcDbBlockBegin
  2
*D36
 70
     1
 10
0.0
 20
0.0
 30
0.0
  3
*D36
  1

  0
LINE
  5
3B96
330
3B93
100
AcDbEntity
  8
DIM
 62
     0
370
    -2
100
AcDbLine
 10
1346.262021527377
 20
1144.279211226132
 30
0.0
 11
1346.262021527377
 21
1109.946796573965
 31
0.0
  0
LINE
  5
3B97
330
3B93
100
AcDbEntity
  8
DIM
 62
     0
370
    -2
100
AcDbLine
 10
1394.971799815338
 20
1148.226237714621
 30
0.0
 11
1394.971799815338
 21
1109.946796573965
 31
0.0
  0
LINE
  5
3B98
330
3B93
100
AcDbEntity
  8
DIM
 62
     0
370
    -2
100
AcDbLine
 10
1346.262021527377
 20
1109.946796573965
 30
0.0
 11
1257.762021527377
 21
1109.946796573965
 31
0.0
  0
LINE
  5
3B99
330
3B93
100
AcDbEntity
  8
DIM
 62
     0
370
    -2
100
AcDbLine
 10
1356.262021527377
 20
1109.946796573965
 30
0.0
 11
1384.971799815338
 21
1109.946796573965
 31
0.0
  0
LINE
  5
3B9A
330
3B93
100
AcDbEntity
  8
DIM
 62
     0
370
    -2
100
AcDbLine
 10
1356.262021527377
 20
1109.946796573965
 30
0.0
 11
1366.262021527377
 21
1109.946796573965
 31
0.0
  0
INSERT
  5
3B9B
330
3B93
100
AcDbEntity
  8
DIM
 62
     0
370
    -2
100
AcDbBlockReference
  2
_DOT
 10
1346.262021527377
 20
1109.946796573965
 30
0.0
 41
10.0
 42
10.0
 43
10.0
 50
180.0
  0
INSERT
  5
3B9C
330
3B93
100
AcDbEntity
  8
DIM
 62
     0
370
    -2
100
AcDbBlockReference
  2
_DOT
 10
1394.971799815338
 20
1109.946796573965
 30
0.0
 41
10.0
 42
10.0
 43
10.0
  0
MTEXT
  5
3B9D
330
3B93
100
AcDbEntity
  8
DIM
 62
     0
100
AcDbMText
 10
1291.946021527377
 20
1141.946796573965
 30
0.0
 40
24.0
 41
0.0
 46
0.0
 71
     5
 72
     1
  1
\A1;49
  7
ＭＳ ゴシック
 73
     1
 44
1.0
  0
POINT
  5
3B9E
330
3B93
100
AcDbEntity
  8
Defpoints
 62
     0
100
AcDbPoint
 10
1346.262021527377
 20
1174.279211226132
 30
0.0
  0
POINT
  5
3B9F
330
3B93
100
AcDbEntity
  8
Defpoints
 62
     0
100
AcDbPoint
 10
1394.971799815338
 20
1178.226237714621
 30
0.0
  0
POINT
  5
3BA0
330
3B93
100
AcDbEntity
  8
Defpoints
 62
     0
100
AcDbPoint
 10
1394.971799815338
 20
1109.946796573965
 30
0.0
  0
ENDBLK
  5
3B95
330
3B93
100
AcDbEntity
  8
0
100
AcDbBlockEnd
  0
BLOCK
  5
3BA2
330
3BA1
100
AcDbEntity
  8
0
100
AcDbBlockBegin
  2
*D37
 70
     1
 10
0.0
 20
0.0
 30
0.0
  3
*D37
  1

  0
LINE
  5
3BA4
330
3BA1
100
AcDbEntity
  8
DIM
 62
     0
 48
0.5
370
    -2
100
AcDbLine
 10
1617.048432704967
 20
890.2238581448614
 30
0.0
 11
1596.260769608524
 21
890.2238581448614
 31
0.0
  0
LINE
  5
3BA5
330
3BA1
100
AcDbEntity
  8
DIM
 62
     0
 48
0.5
370
    -2
100
AcDbLine
 10
1617.048432704967
 20
1195.224432323666
 30
0.0
 11
1596.260769608524
 21
1195.224432323666
 31
0.0
  0
LINE
  5
3BA6
330
3BA1
100
AcDbEntity
  8
DIM
 62
     0
 48
0.5
370
    -2
100
AcDbLine
 10
1596.260769608524
 20
890.2238581448614
 30
0.0
 11
1596.260769608524
 21
1386.960432323666
 31
0.0
  0
LINE
  5
3BA7
330
3BA1
100
AcDbEntity
  8
DIM
 62
     0
 48
0.5
370
    -2
100
AcDbLine
 10
1596.260769608524
 20
900.2238581448614
 30
0.0
 11
1596.260769608524
 21
1185.224432323666
 31
0.0
  0
LINE
  5
3BA8
330
3BA1
100
AcDbEntity
  8
DIM
 62
     0
 48
0.5
370
    -2
100
AcDbLine
 10
1596.260769608524
 20
1185.224432323666
 30
0.0
 11
1596.260769608524
 21
1175.224432323666
 31
0.0
  0
INSERT
  5
3BA9
330
3BA1
100
AcDbEntity
  8
DIM
 62
     0
370
    -2
100
AcDbBlockReference
  2
_DOT
 10
1596.260769608524
 20
890.2238581448614
 30
0.0
 41
10.0
 42
10.0
 43
10.0
 50
270.0000000000001
  0
INSERT
  5
3BAA
330
3BA1
100
AcDbEntity
  8
DIM
 62
     0
370
    -2
100
AcDbBlockReference
  2
_DOT
 10
1596.260769608524
 20
1195.224432323666
 30
0.0
 41
10.0
 42
10.0
 43
10.0
 50
90.00000000000006
  0
MTEXT
  5
3BAB
330
3BA1
100
AcDbEntity
  8
DIM
 62
     0
100
AcDbMText
 10
1562.136769608524
 20
1301.092432323666
 30
0.0
 40
24.0
 41
0.0
 46
0.0
 71
     5
 72
     1
  1
\A1;305(深さ)
  7
ＭＳ ゴシック
 11
-7.454860570522591E-16
 21
1.0
 31
0.0
 73
     1
 44
1.0
  0
POINT
  5
3BAC
330
3BA1
100
AcDbEntity
  8
Defpoints
 62
     0
100
AcDbPoint
 10
1587.048432704967
 20
890.2238581448614
 30
0.0
  0
POINT
  5
3BAD
330
3BA1
100
AcDbEntity
  8
Defpoints
 62
     0
100
AcDbPoint
 10
1587.048432704967
 20
1195.224432323666
 30
0.0
  0
POINT
  5
3BAE
330
3BA1
100
AcDbEntity
  8
Defpoints
 62
     0
100
AcDbPoint
 10
1596.260769608524
 20
1195.224432323666
 30
0.0
  0
ENDBLK
  5
3BA3
330
3BA1
100
AcDbEntity
  8
0
100
AcDbBlockEnd
  0
BLOCK
  5
3BF6
330
3BF5
100
AcDbEntity
  8
0
100
AcDbBlockBegin
  2
*D38
 70
     1
 10
0.0
 20
0.0
 30
0.0
  3
*D38
  1

  0
LINE
  5
3BF8
330
3BF5
100
AcDbEntity
  8
DIM
 62
     0
370
    -2
100
AcDbLine
 10
1806.260590759014
 20
1215.637376761175
 30
0.0
 11
1806.260590759014
 21
1287.431561977286
 31
0.0
  0
LINE
  5
3BF9
330
3BF5
100
AcDbEntity
  8
DIM
 62
     0
370
    -2
100
AcDbLine
 10
1756.261645002815
 20
1225.224432323666
 30
0.0
 11
1756.261645002815
 21
1287.431561977286
 31
0.0
  0
LINE
  5
3BFA
330
3BF5
100
AcDbEntity
  8
DIM
 62
     0
370
    -2
100
AcDbLine
 10
1796.260590759014
 20
1287.431561977286
 30
0.0
 11
1766.261645002815
 21
1287.431561977286
 31
0.0
  0
INSERT
  5
3BFB
330
3BF5
100
AcDbEntity
  8
DIM
 62
     0
370
    -2
100
AcDbBlockReference
  2
_DOT
 10
1806.260590759014
 20
1287.431561977286
 30
0.0
 41
10.0
 42
10.0
 43
10.0
  0
INSERT
  5
3BFC
330
3BF5
100
AcDbEntity
  8
DIM
 62
     0
370
    -2
100
AcDbBlockReference
  2
_DOT
 10
1756.261645002815
 20
1287.431561977286
 30
0.0
 41
10.0
 42
10.0
 43
10.0
 50
180.0
  0
MTEXT
  5
3BFD
330
3BF5
100
AcDbEntity
  8
DIM
 62
     0
100
AcDbMText
 10
1781.261117880914
 20
1319.431561977286
 30
0.0
 40
24.0
 41
0.0
 46
0.0
 71
     5
 72
     1
  1
\A1;50
  7
ＭＳ ゴシック
 73
     1
 44
1.0
  0
POINT
  5
3BFE
330
3BF5
100
AcDbEntity
  8
Defpoints
 62
     0
100
AcDbPoint
 10
1806.260590759014
 20
1185.637376761175
 30
0.0
  0
POINT
  5
3BFF
330
3BF5
100
AcDbEntity
  8
Defpoints
 62
     0
100
AcDbPoint
 10
1756.261645002815
 20
1195.224432323666
 30
0.0
  0
POINT
  5
3C00
330
3BF5
100
AcDbEntity
  8
Defpoints
 62
     0
100
AcDbPoint
 10
1756.261645002815
 20
1287.431561977286
 30
0.0
  0
ENDBLK
  5
3BF7
330
3BF5
100
AcDbEntity
  8
0
100
AcDbBlockEnd
  0
BLOCK
  5
3C50
330
3C4F
100
AcDbEntity
  8
0
100
AcDbBlockBegin
  2
*D39
 70
     1
 10
0.0
 20
0.0
 30
0.0
  3
*D39
  1

  0
LINE
  5
3C52
330
3C4F
100
AcDbEntity
  8
MODEL
 62
     0
370
    -2
100
AcDbLine
 10
694.9854258266162
 20
922.1050140171888
 30
0.0
 11
694.9854258266162
 21
879.0361858345433
 31
0.0
  0
LINE
  5
3C53
330
3C4F
100
AcDbEntity
  8
MODEL
 62
     0
370
    -2
100
AcDbLine
 10
649.9818959972793
 20
922.1050140171888
 30
0.0
 11
649.9818959972793
 21
879.0361858345433
 31
0.0
  0
LINE
  5
3C54
330
3C4F
100
AcDbEntity
  8
MODEL
 62
     0
370
    -2
100
AcDbLine
 10
704.9854258266162
 20
879.0361858345433
 30
0.0
 11
714.9854258266162
 21
879.0361858345433
 31
0.0
  0
LINE
  5
3C55
330
3C4F
100
AcDbEntity
  8
MODEL
 62
     0
370
    -2
100
AcDbLine
 10
639.9818959972793
 20
879.0361858345433
 30
0.0
 11
629.9818959972793
 21
879.0361858345433
 31
0.0
  0
INSERT
  5
3C56
330
3C4F
100
AcDbEntity
  8
MODEL
 62
     0
370
    -2
100
AcDbBlockReference
  2
_DOT
 10
694.9854258266162
 20
879.0361858345433
 30
0.0
 41
10.0
 42
10.0
 43
10.0
 50
180.0
  0
INSERT
  5
3C57
330
3C4F
100
AcDbEntity
  8
MODEL
 62
     0
370
    -2
100
AcDbBlockReference
  2
_DOT
 10
649.9818959972793
 20
879.0361858345433
 30
0.0
 41
10.0
 42
10.0
 43
10.0
  0
MTEXT
  5
3C58
330
3C4F
100
AcDbEntity
  8
MODEL
 62
     0
100
AcDbMText
 10
672.4836609119477
 20
911.0361858345433
 30
0.0
 40
24.0
 41
0.0
 46
0.0
 71
     5
 72
     1
  1
\A1;45
  7
ＭＳ ゴシック
 73
     1
 44
1.0
  0
POINT
  5
3C59
330
3C4F
100
AcDbEntity
  8
Defpoints
 62
     0
100
AcDbPoint
 10
694.9854258266162
 20
952.1050140171888
 30
0.0
  0
POINT
  5
3C5A
330
3C4F
100
AcDbEntity
  8
Defpoints
 62
     0
100
AcDbPoint
 10
649.9818959972793
 20
952.1050140171888
 30
0.0
  0
POINT
  5
3C5B
330
3C4F
100
AcDbEntity
  8
Defpoints
 62
     0
100
AcDbPoint
 10
649.9818959972793
 20
879.0361858345433
 30
0.0
  0
ENDBLK
  5
3C51
330
3C4F
100
AcDbEntity
  8
0
100
AcDbBlockEnd
  0
BLOCK
  5
3CD7
330
3CD6
100
AcDbEntity
  8
0
100
AcDbBlockBegin
  2
*D40
 70
     1
 10
0.0
 20
0.0
 30
0.0
  3
*D40
  1

  0
LINE
  5
3CD9
330
3CD6
100
AcDbEntity
  8
DIM
 62
     0
370
    -2
100
AcDbLine
 10
2617.026719454747
 20
2268.058969357486
 30
0.0
 11
2447.791389837906
 21
2268.058969357486
 31
0.0
  0
LINE
  5
3CDA
330
3CD6
100
AcDbEntity
  8
DIM
 62
     0
370
    -2
100
AcDbLine
 10
2622.297495370557
 20
1988.057293871039
 30
0.0
 11
2447.791389837906
 21
1988.057293871039
 31
0.0
  0
LINE
  5
3CDB
330
3CD6
100
AcDbEntity
  8
DIM
 62
     0
370
    -2
100
AcDbLine
 10
2447.791389837906
 20
2258.058969357486
 30
0.0
 11
2447.791389837906
 21
1998.057293871039
 31
0.0
  0
INSERT
  5
3CDC
330
3CD6
100
AcDbEntity
  8
DIM
 62
     0
370
    -2
100
AcDbBlockReference
  2
_DOT
 10
2447.791389837906
 20
2268.058969357486
 30
0.0
 41
10.0
 42
10.0
 43
10.0
 50
90.0
  0
INSERT
  5
3CDD
330
3CD6
100
AcDbEntity
  8
DIM
 62
     0
370
    -2
100
AcDbBlockReference
  2
_DOT
 10
2447.791389837906
 20
1988.057293871039
 30
0.0
 41
10.0
 42
10.0
 43
10.0
 50
270.0
  0
MTEXT
  5
3CDE
330
3CD6
100
AcDbEntity
  8
DIM
 62
     0
100
AcDbMText
 10
2415.791389837906
 20
2128.058131614262
 30
0.0
 40
24.0
 41
0.0
 46
0.0
 71
     5
 72
     1
  1
\A1;280
  7
ＭＳ ゴシック
 11
0.0
 21
1.0
 31
0.0
 73
     1
 44
1.0
  0
POINT
  5
3CDF
330
3CD6
100
AcDbEntity
  8
Defpoints
 62
     0
100
AcDbPoint
 10
2647.026719454747
 20
2268.058969357486
 30
0.0
  0
POINT
  5
3CE0
330
3CD6
100
AcDbEntity
  8
Defpoints
 62
     0
100
AcDbPoint
 10
2652.297495370557
 20
1988.057293871039
 30
0.0
  0
POINT
  5
3CE1
330
3CD6
100
AcDbEntity
  8
Defpoints
 62
     0
100
AcDbPoint
 10
2447.791389837906
 20
1988.057293871039
 30
0.0
  0
ENDBLK
  5
3CD8
330
3CD6
100
AcDbEntity
  8
0
100
AcDbBlockEnd
  0
BLOCK
  5
3CE3
330
3CE2
100
AcDbEntity
  8
0
100
AcDbBlockBegin
  2
*D41
 70
     1
 10
0.0
 20
0.0
 30
0.0
  3
*D41
  1

  0
LINE
  5
3CE5
330
3CE2
100
AcDbEntity
  8
DIM
 62
     0
370
    -2
100
AcDbLine
 10
2626.108413472563
 20
1944.638573157172
 30
0.0
 11
2626.108413472563
 21
1799.038686504535
 31
0.0
  0
LINE
  5
3CE6
330
3CE2
100
AcDbEntity
  8
DIM
 62
     0
370
    -2
100
AcDbLine
 10
3096.112743387122
 20
1944.638573157172
 30
0.0
 11
3096.112743387122
 21
1799.038686504535
 31
0.0
  0
LINE
  5
3CE7
330
3CE2
100
AcDbEntity
  8
DIM
 62
     0
370
    -2
100
AcDbLine
 10
2636.108413472563
 20
1799.038686504535
 30
0.0
 11
3086.112743387122
 21
1799.038686504535
 31
0.0
  0
INSERT
  5
3CE8
330
3CE2
100
AcDbEntity
  8
DIM
 62
     0
370
    -2
100
AcDbBlockReference
  2
_DOT
 10
2626.108413472563
 20
1799.038686504535
 30
0.0
 41
10.0
 42
10.0
 43
10.0
 50
180.0
  0
INSERT
  5
3CE9
330
3CE2
100
AcDbEntity
  8
DIM
 62
     0
370
    -2
100
AcDbBlockReference
  2
_DOT
 10
3096.112743387122
 20
1799.038686504535
 30
0.0
 41
10.0
 42
10.0
 43
10.0
  0
MTEXT
  5
3CEA
330
3CE2
100
AcDbEntity
  8
DIM
 62
     0
100
AcDbMText
 10
2861.110578429842
 20
1831.038686504535
 30
0.0
 40
24.0
 41
0.0
 46
0.0
 71
     5
 72
     1
  1
\A1;470
  7
ＭＳ ゴシック
 73
     1
 44
1.0
  0
POINT
  5
3CEB
330
3CE2
100
AcDbEntity
  8
Defpoints
 62
     0
100
AcDbPoint
 10
2626.108413472563
 20
1974.638573157172
 30
0.0
  0
POINT
  5
3CEC
330
3CE2
100
AcDbEntity
  8
Defpoints
 62
     0
100
AcDbPoint
 10
3096.112743387122
 20
1974.638573157172
 30
0.0
  0
POINT
  5
3CED
330
3CE2
100
AcDbEntity
  8
Defpoints
 62
     0
100
AcDbPoint
 10
3096.112743387122
 20
1799.038686504535
 30
0.0
  0
ENDBLK
  5
3CE4
330
3CE2
100
AcDbEntity
  8
0
100
AcDbBlockEnd
  0
BLOCK
  5
3CEF
330
3CEE
100
AcDbEntity
  8
0
100
AcDbBlockBegin
  2
*D42
 70
     1
 10
0.0
 20
0.0
 30
0.0
  3
*D42
  1

  0
LINE
  5
3CF1
330
3CEE
100
AcDbEntity
  8
DIM
 62
     0
370
    -2
100
AcDbLine
 10
2556.110578436775
 20
2407.390097748115
 30
0.0
 11
2556.110578436775
 21
2512.98558
 31
0.0
  0
LINE
  5
3CF2
330
3CEE
100
AcDbEntity
  8
DIM
 62
     0
370
    -2
100
AcDbLine
 10
3166.11057842291
 20
2404.7547097902
 30
0.0
 11
3166.11057842291
 21
2512.98558
 31
0.0
  0
LINE
  5
3CF3
330
3CEE
100
AcDbEntity
  8
DIM
 62
     0
370
    -2
100
AcDbLine
 10
2566.110578436775
 20
2512.98558
 30
0.0
 11
3156.11057842291
 21
2512.98558
 31
0.0
  0
INSERT
  5
3CF4
330
3CEE
100
AcDbEntity
  8
DIM
 62
     0
370
    -2
100
AcDbBlockReference
  2
_DOT
 10
2556.110578436775
 20
2512.98558
 30
0.0
 41
10.0
 42
10.0
 43
10.0
 50
180.0
  0
INSERT
  5
3CF5
330
3CEE
100
AcDbEntity
  8
DIM
 62
     0
370
    -2
100
AcDbBlockReference
  2
_DOT
 10
3166.11057842291
 20
2512.98558
 30
0.0
 41
10.0
 42
10.0
 43
10.0
  0
MTEXT
  5
3CF6
330
3CEE
100
AcDbEntity
  8
DIM
 62
     0
100
AcDbMText
 10
2861.110578429842
 20
2544.98558
 30
0.0
 40
24.0
 41
0.0
 46
0.0
 71
     5
 72
     1
  1
\A1;610
  7
ＭＳ ゴシック
 73
     1
 44
1.0
  0
POINT
  5
3CF7
330
3CEE
100
AcDbEntity
  8
Defpoints
 62
     0
100
AcDbPoint
 10
2556.110578436775
 20
2377.390097748115
 30
0.0
  0
POINT
  5
3CF8
330
3CEE
100
AcDbEntity
  8
Defpoints
 62
     0
100
AcDbPoint
 10
3166.11057842291
 20
2374.7547097902
 30
0.0
  0
POINT
  5
3CF9
330
3CEE
100
AcDbEntity
  8
Defpoints
 62
     0
100
AcDbPoint
 10
3166.11057842291
 20
2512.98558
 30
0.0
  0
ENDBLK
  5
3CF0
330
3CEE
100
AcDbEntity
  8
0
100
AcDbBlockEnd
  0
BLOCK
  5
3CFB
330
3CFA
100
AcDbEntity
  8
0
100
AcDbBlockBegin
  2
*D43
 70
     1
 10
0.0
 20
0.0
 30
0.0
  3
*D43
  1

  0
LINE
  5
3CFD
330
3CFA
100
AcDbEntity
  8
DIM
 62
     0
370
    -2
100
AcDbLine
 10
3178.984151854505
 20
2378.058028066889
 30
0.0
 11
3302.676118639317
 21
2378.058028066889
 31
0.0
  0
LINE
  5
3CFE
330
3CFA
100
AcDbEntity
  8
DIM
 62
     0
370
    -2
100
AcDbLine
 10
3177.929996671359
 20
1918.058310463775
 30
0.0
 11
3302.676118639317
 21
1918.058310463775
 31
0.0
  0
LINE
  5
3CFF
330
3CFA
100
AcDbEntity
  8
DIM
 62
     0
370
    -2
100
AcDbLine
 10
3302.676118639317
 20
2368.058028066889
 30
0.0
 11
3302.676118639317
 21
1928.058310463775
 31
0.0
  0
INSERT
  5
3D00
330
3CFA
100
AcDbEntity
  8
DIM
 62
     0
370
    -2
100
AcDbBlockReference
  2
_DOT
 10
3302.676118639317
 20
2378.058028066889
 30
0.0
 41
10.0
 42
10.0
 43
10.0
 50
90.0
  0
INSERT
  5
3D01
330
3CFA
100
AcDbEntity
  8
DIM
 62
     0
370
    -2
100
AcDbBlockReference
  2
_DOT
 10
3302.676118639317
 20
1918.058310463775
 30
0.0
 41
10.0
 42
10.0
 43
10.0
 50
270.0
  0
MTEXT
  5
3D02
330
3CFA
100
AcDbEntity
  8
DIM
 62
     0
100
AcDbMText
 10
3270.676118639317
 20
2148.058169265332
 30
0.0
 40
24.0
 41
0.0
 46
0.0
 71
     5
 72
     1
  1
\A1;460
  7
ＭＳ ゴシック
 11
0.0
 21
1.0
 31
0.0
 73
     1
 44
1.0
  0
POINT
  5
3D03
330
3CFA
100
AcDbEntity
  8
Defpoints
 62
     0
100
AcDbPoint
 10
3148.984151854505
 20
2378.058028066889
 30
0.0
  0
POINT
  5
3D04
330
3CFA
100
AcDbEntity
  8
Defpoints
 62
     0
100
AcDbPoint
 10
3147.929996671359
 20
1918.058310463775
 30
0.0
  0
POINT
  5
3D05
330
3CFA
100
AcDbEntity
  8
Defpoints
 62
     0
100
AcDbPoint
 10
3302.676118639317
 20
1918.058310463775
 30
0.0
  0
ENDBLK
  5
3CFC
330
3CFA
100
AcDbEntity
  8
0
100
AcDbBlockEnd
  0
BLOCK
  5
3D70
330
3D6F
100
AcDbEntity
  8
0
100
AcDbBlockBegin
  2
*D44
 70
     1
 10
0.0
 20
0.0
 30
0.0
  3
*D44
  1

  0
LINE
  5
3D72
330
3D6F
100
AcDbEntity
  8
DIM
 62
     0
370
    -2
100
AcDbLine
 10
334.52179503831
 20
1142.084814741719
 30
0.0
 11
334.52179503831
 21
1096.844746621797
 31
0.0
  0
LINE
  5
3D73
330
3D6F
100
AcDbEntity
  8
DIM
 62
     0
370
    -2
100
AcDbLine
 10
304.52179503831
 20
1142.084814741719
 30
0.0
 11
304.52179503831
 21
1096.844746621797
 31
0.0
  0
LINE
  5
3D74
330
3D6F
100
AcDbEntity
  8
DIM
 62
     0
370
    -2
100
AcDbLine
 10
334.52179503831
 20
1096.844746621797
 30
0.0
 11
215.88979503831
 21
1096.844746621797
 31
0.0
  0
LINE
  5
3D75
330
3D6F
100
AcDbEntity
  8
DIM
 62
     0
370
    -2
100
AcDbLine
 10
324.52179503831
 20
1096.844746621797
 30
0.0
 11
314.52179503831
 21
1096.844746621797
 31
0.0
  0
LINE
  5
3D76
330
3D6F
100
AcDbEntity
  8
DIM
 62
     0
370
    -2
100
AcDbLine
 10
314.52179503831
 20
1096.844746621797
 30
0.0
 11
324.52179503831
 21
1096.844746621797
 31
0.0
  0
INSERT
  5
3D77
330
3D6F
100
AcDbEntity
  8
DIM
 62
     0
370
    -2
100
AcDbBlockReference
  2
_DOT
 10
334.52179503831
 20
1096.844746621797
 30
0.0
 41
10.0
 42
10.0
 43
10.0
  0
INSERT
  5
3D78
330
3D6F
100
AcDbEntity
  8
DIM
 62
     0
370
    -2
100
AcDbBlockReference
  2
_DOT
 10
304.52179503831
 20
1096.844746621797
 30
0.0
 41
10.0
 42
10.0
 43
10.0
 50
180.0
  0
MTEXT
  5
3D79
330
3D6F
100
AcDbEntity
  8
DIM
 62
     0
100
AcDbMText
 10
250.20579503831
 20
1128.844746621797
 30
0.0
 40
24.0
 41
0.0
 46
0.0
 71
     5
 72
     1
  1
\A1;30
  7
ＭＳ ゴシック
 73
     1
 44
1.0
  0
POINT
  5
3D7A
330
3D6F
100
AcDbEntity
  8
Defpoints
 62
     0
100
AcDbPoint
 10
334.52179503831
 20
1172.084814741719
 30
0.0
  0
POINT
  5
3D7B
330
3D6F
100
AcDbEntity
  8
Defpoints
 62
     0
100
AcDbPoint
 10
304.52179503831
 20
1172.084814741719
 30
0.0
  0
POINT
  5
3D7C
330
3D6F
100
AcDbEntity
  8
Defpoints
 62
     0
100
AcDbPoint
 10
304.52179503831
 20
1096.844746621797
 30
0.0
  0
ENDBLK
  5
3D71
330
3D6F
100
AcDbEntity
  8
0
100
AcDbBlockEnd
  0
BLOCK
  5
3D82
330
3D81
100
AcDbEntity
  8
0
100
AcDbBlockBegin
  2
*D45
 70
     1
 10
0.0
 20
0.0
 30
0.0
  3
*D45
  1

  0
LINE
  5
3D84
330
3D81
100
AcDbEntity
  8
DIM
 62
     0
370
    -2
100
AcDbLine
 10
1346.262021527377
 20
1143.226228301854
 30
0.0
 11
1346.262021527377
 21
1087.688352442171
 31
0.0
  0
LINE
  5
3D85
330
3D81
100
AcDbEntity
  8
DIM
 62
     0
370
    -2
100
AcDbLine
 10
1379.262021527377
 20
1143.226228301854
 30
0.0
 11
1379.262021527377
 21
1087.688352442171
 31
0.0
  0
LINE
  5
3D86
330
3D81
100
AcDbEntity
  8
DIM
 62
     0
370
    -2
100
AcDbLine
 10
1346.262021527377
 20
1087.688352442171
 30
0.0
 11
1258.254021527377
 21
1087.688352442171
 31
0.0
  0
LINE
  5
3D87
330
3D81
100
AcDbEntity
  8
DIM
 62
     0
370
    -2
100
AcDbLine
 10
1356.262021527377
 20
1087.688352442171
 30
0.0
 11
1369.262021527377
 21
1087.688352442171
 31
0.0
  0
LINE
  5
3D88
330
3D81
100
AcDbEntity
  8
DIM
 62
     0
370
    -2
100
AcDbLine
 10
1356.262021527377
 20
1087.688352442171
 30
0.0
 11
1366.262021527377
 21
1087.688352442171
 31
0.0
  0
INSERT
  5
3D89
330
3D81
100
AcDbEntity
  8
DIM
 62
     0
370
    -2
100
AcDbBlockReference
  2
_DOT
 10
1346.262021527377
 20
1087.688352442171
 30
0.0
 41
10.0
 42
10.0
 43
10.0
 50
180.0
  0
INSERT
  5
3D8A
330
3D81
100
AcDbEntity
  8
DIM
 62
     0
370
    -2
100
AcDbBlockReference
  2
_DOT
 10
1379.262021527377
 20
1087.688352442171
 30
0.0
 41
10.0
 42
10.0
 43
10.0
  0
MTEXT
  5
3D8B
330
3D81
100
AcDbEntity
  8
DIM
 62
     0
100
AcDbMText
 10
1292.258021527377
 20
1119.688352442171
 30
0.0
 40
24.0
 41
0.0
 46
0.0
 71
     5
 72
     1
  1
\A1;33
  7
ＭＳ ゴシック
 73
     1
 44
1.0
  0
POINT
  5
3D8C
330
3D81
100
AcDbEntity
  8
Defpoints
 62
     0
100
AcDbPoint
 10
1346.262021527377
 20
1173.226228301854
 30
0.0
  0
POINT
  5
3D8E
330
3D81
100
AcDbEntity
  8
Defpoints
 62
     0
100
AcDbPoint
 10
1379.262021527377
 20
1173.226228301854
 30
0.0
  0
POINT
  5
3D8F
330
3D81
100
AcDbEntity
  8
Defpoints
 62
     0
100
AcDbPoint
 10
1379.262021527377
 20
1087.688352442171
 30
0.0
  0
ENDBLK
  5
3D83
330
3D81
100
AcDbEntity
  8
0
100
AcDbBlockEnd
  0
BLOCK
  5
3DBA
330
3DB9
100
AcDbEntity
  8
0
100
AcDbBlockBegin
  2
*D46
 70
     1
 10
0.0
 20
0.0
 30
0.0
  3
*D46
  1

  0
LINE
  5
3DBC
330
3DB9
100
AcDbEntity
  8
DIM
 62
     0
370
    -2
100
AcDbLine
 10
1263.921508461349
 20
2378.058028066889
 30
0.0
 11
1217.711234157317
 21
2378.058028066889
 31
0.0
  0
LINE
  5
3DBD
330
3DB9
100
AcDbEntity
  8
DIM
 62
     0
370
    -2
100
AcDbLine
 10
1259.738578429842
 20
2358.058028066889
 30
0.0
 11
1217.711234157317
 21
2358.058028066889
 31
0.0
  0
LINE
  5
3DBE
330
3DB9
100
AcDbEntity
  8
DIM
 62
     0
370
    -2
100
AcDbLine
 10
1217.711234157317
 20
2378.058028066889
 30
0.0
 11
1217.711234157317
 21
2466.57002806689
 31
0.0
  0
LINE
  5
3DBF
330
3DB9
100
AcDbEntity
  8
DIM
 62
     0
370
    -2
100
AcDbLine
 10
1217.711234157317
 20
2368.058028066889
 30
0.0
 11
1217.711234157317
 21
2368.058028066889
 31
0.0
  0
LINE
  5
3DC0
330
3DB9
100
AcDbEntity
  8
DIM
 62
     0
370
    -2
100
AcDbLine
 10
1217.711234157317
 20
2368.058028066889
 30
0.0
 11
1217.711234157317
 21
2358.058028066889
 31
0.0
  0
INSERT
  5
3DC1
330
3DB9
100
AcDbEntity
  8
DIM
 62
     0
370
    -2
100
AcDbBlockReference
  2
_DOT
 10
1217.711234157317
 20
2378.058028066889
 30
0.0
 41
10.0
 42
10.0
 43
10.0
 50
90.0
  0
INSERT
  5
3DC2
330
3DB9
100
AcDbEntity
  8
DIM
 62
     0
370
    -2
100
AcDbBlockReference
  2
_DOT
 10
1217.711234157317
 20
2358.058028066889
 30
0.0
 41
10.0
 42
10.0
 43
10.0
 50
270.0
  0
MTEXT
  5
3DC3
330
3DB9
100
AcDbEntity
  8
DIM
 62
     0
100
AcDbMText
 10
1185.711234157317
 20
2432.314028066889
 30
0.0
 40
24.0
 41
0.0
 46
0.0
 71
     5
 72
     1
  1
\A1;20
  7
ＭＳ ゴシック
 11
0.0
 21
1.0
 31
0.0
 73
     1
 44
1.0
  0
POINT
  5
3DC4
330
3DB9
100
AcDbEntity
  8
Defpoints
 62
     0
100
AcDbPoint
 10
1293.921508461349
 20
2378.058028066889
 30
0.0
  0
POINT
  5
3DC5
330
3DB9
100
AcDbEntity
  8
Defpoints
 62
     0
100
AcDbPoint
 10
1289.738578429842
 20
2358.058028066889
 30
0.0
  0
POINT
  5
3DC6
330
3DB9
100
AcDbEntity
  8
Defpoints
 62
     0
100
AcDbPoint
 10
1217.711234157317
 20
2358.058028066889
 30
0.0
  0
ENDBLK
  5
3DBB
330
3DB9
100
AcDbEntity
  8
0
100
AcDbBlockEnd
  0
BLOCK
  5
3DCB
330
3DCA
100
AcDbEntity
  8
0
100
AcDbBlockBegin
  2
*D47
 70
     1
 10
0.0
 20
0.0
 30
0.0
  3
*D47
  1

  0
LINE
  5
3DCD
330
3DCA
100
AcDbEntity
  8
DIM
 62
     0
370
    -2
100
AcDbLine
 10
1259.738578429842
 20
2358.058028066889
 30
0.0
 11
1217.711234157317
 21
2358.058028066889
 31
0.0
  0
LINE
  5
3DCE
330
3DCA
100
AcDbEntity
  8
DIM
 62
     0
370
    -2
100
AcDbLine
 10
1259.738578429842
 20
1948.058028066889
 30
0.0
 11
1217.711234157317
 21
1948.058028066889
 31
0.0
  0
LINE
  5
3DCF
330
3DCA
100
AcDbEntity
  8
DIM
 62
     0
370
    -2
100
AcDbLine
 10
1217.711234157317
 20
2348.058028066889
 30
0.0
 11
1217.711234157317
 21
1958.058028066889
 31
0.0
  0
INSERT
  5
3DD0
330
3DCA
100
AcDbEntity
  8
DIM
 62
     0
370
    -2
100
AcDbBlockReference
  2
_DOT
 10
1217.711234157317
 20
2358.058028066889
 30
0.0
 41
10.0
 42
10.0
 43
10.0
 50
90.0
  0
INSERT
  5
3DD1
330
3DCA
100
AcDbEntity
  8
DIM
 62
     0
370
    -2
100
AcDbBlockReference
  2
_DOT
 10
1217.711234157317
 20
1948.058028066889
 30
0.0
 41
10.0
 42
10.0
 43
10.0
 50
270.0
  0
MTEXT
  5
3DD2
330
3DCA
100
AcDbEntity
  8
DIM
 62
     0
100
AcDbMText
 10
1185.711234157317
 20
2153.058028066889
 30
0.0
 40
24.0
 41
0.0
 46
0.0
 71
     5
 72
     1
  1
\A1;410
  7
ＭＳ ゴシック
 11
0.0
 21
1.0
 31
0.0
 73
     1
 44
1.0
  0
POINT
  5
3DD3
330
3DCA
100
AcDbEntity
  8
Defpoints
 62
     0
100
AcDbPoint
 10
1289.738578429842
 20
2358.058028066889
 30
0.0
  0
POINT
  5
3DD4
330
3DCA
100
AcDbEntity
  8
Defpoints
 62
     0
100
AcDbPoint
 10
1289.738578429842
 20
1948.058028066889
 30
0.0
  0
POINT
  5
3DD5
330
3DCA
100
AcDbEntity
  8
Defpoints
 62
     0
100
AcDbPoint
 10
1217.711234157317
 20
1948.058028066889
 30
0.0
  0
ENDBLK
  5
3DCC
330
3DCA
100
AcDbEntity
  8
0
100
AcDbBlockEnd
  0
BLOCK
  5
3DDA
330
3DD9
100
AcDbEntity
  8
0
100
AcDbBlockBegin
  2
*D48
 70
     1
 10
0.0
 20
0.0
 30
0.0
  3
*D48
  1

  0
LINE
  5
3DDC
330
3DD9
100
AcDbEntity
  8
DIM
 62
     0
370
    -2
100
AcDbLine
 10
1289.738578429842
 20
1918.058028066889
 30
0.0
 11
1289.738578429842
 21
1821.461041177663
 31
0.0
  0
LINE
  5
3DDD
330
3DD9
100
AcDbEntity
  8
DIM
 62
     0
370
    -2
100
AcDbLine
 10
1854.738578429842
 20
1918.058028066889
 30
0.0
 11
1854.738578429842
 21
1821.461041177663
 31
0.0
  0
LINE
  5
3DDE
330
3DD9
100
AcDbEntity
  8
DIM
 62
     0
370
    -2
100
AcDbLine
 10
1299.738578429842
 20
1821.461041177663
 30
0.0
 11
1844.738578429842
 21
1821.461041177663
 31
0.0
  0
INSERT
  5
3DDF
330
3DD9
100
AcDbEntity
  8
DIM
 62
     0
370
    -2
100
AcDbBlockReference
  2
_DOT
 10
1289.738578429842
 20
1821.461041177663
 30
0.0
 41
10.0
 42
10.0
 43
10.0
 50
180.0
  0
INSERT
  5
3DE0
330
3DD9
100
AcDbEntity
  8
DIM
 62
     0
370
    -2
100
AcDbBlockReference
  2
_DOT
 10
1854.738578429842
 20
1821.461041177663
 30
0.0
 41
10.0
 42
10.0
 43
10.0
  0
MTEXT
  5
3DE1
330
3DD9
100
AcDbEntity
  8
DIM
 62
     0
100
AcDbMText
 10
1572.238578429842
 20
1853.461041177663
 30
0.0
 40
24.0
 41
0.0
 46
0.0
 71
     5
 72
     1
  1
\A1;565
  7
ＭＳ ゴシック
 73
     1
 44
1.0
  0
POINT
  5
3DE2
330
3DD9
100
AcDbEntity
  8
Defpoints
 62
     0
100
AcDbPoint
 10
1289.738578429842
 20
1948.058028066889
 30
0.0
  0
POINT
  5
3DE3
330
3DD9
100
AcDbEntity
  8
Defpoints
 62
     0
100
AcDbPoint
 10
1854.738578429842
 20
1948.058028066889
 30
0.0
  0
POINT
  5
3DE4
330
3DD9
100
AcDbEntity
  8
Defpoints
 62
     0
100
AcDbPoint
 10
1854.738578429842
 20
1821.461041177663
 30
0.0
  0
ENDBLK
  5
3DDB
330
3DD9
100
AcDbEntity
  8
0
100
AcDbBlockEnd
  0
BLOCK
  5
3E11
330
3E10
100
AcDbEntity
  8
0
100
AcDbBlockBegin
  2
*D49
 70
     1
 10
0.0
 20
0.0
 30
0.0
  3
*D49
  1

  0
LINE
  5
3E13
330
3E10
100
AcDbEntity
  8
DIM
 62
     0
370
    -2
100
AcDbLine
 10
945.2319534229097
 20
1173.226228301854
 30
0.0
 11
972.400395619392
 21
1173.226228301854
 31
0.0
  0
LINE
  5
3E14
330
3E10
100
AcDbEntity
  8
DIM
 62
     0
370
    -2
100
AcDbLine
 10
937.2328024844331
 20
1195.224432323666
 30
0.0
 11
972.400395619392
 21
1195.224432323666
 31
0.0
  0
LINE
  5
3E15
330
3E10
100
AcDbEntity
  8
DIM
 62
     0
370
    -2
100
AcDbLine
 10
972.400395619392
 20
1173.226228301854
 30
0.0
 11
972.400395619392
 21
1283.736432323666
 31
0.0
  0
LINE
  5
3E16
330
3E10
100
AcDbEntity
  8
DIM
 62
     0
370
    -2
100
AcDbLine
 10
972.400395619392
 20
1183.226228301854
 30
0.0
 11
972.400395619392
 21
1185.224432323666
 31
0.0
  0
LINE
  5
3E17
330
3E10
100
AcDbEntity
  8
DIM
 62
     0
370
    -2
100
AcDbLine
 10
972.400395619392
 20
1185.224432323666
 30
0.0
 11
972.400395619392
 21
1175.224432323666
 31
0.0
  0
INSERT
  5
3E18
330
3E10
100
AcDbEntity
  8
DIM
 62
     0
370
    -2
100
AcDbBlockReference
  2
_DOT
 10
972.400395619392
 20
1173.226228301854
 30
0.0
 41
10.0
 42
10.0
 43
10.0
 50
270.0
  0
INSERT
  5
3E19
330
3E10
100
AcDbEntity
  8
DIM
 62
     0
370
    -2
100
AcDbBlockReference
  2
_DOT
 10
972.400395619392
 20
1195.224432323666
 30
0.0
 41
10.0
 42
10.0
 43
10.0
 50
90.0
  0
MTEXT
  5
3E1A
330
3E10
100
AcDbEntity
  8
DIM
 62
     0
100
AcDbMText
 10
940.400395619392
 20
1249.480432323666
 30
0.0
 40
24.0
 41
0.0
 46
0.0
 71
     5
 72
     1
  1
\A1;20
  7
ＭＳ ゴシック
 11
0.0
 21
1.0
 31
0.0
 73
     1
 44
1.0
  0
POINT
  5
3E1B
330
3E10
100
AcDbEntity
  8
Defpoints
 62
     0
100
AcDbPoint
 10
915.2319534229097
 20
1173.226228301854
 30
0.0
  0
POINT
  5
3E1C
330
3E10
100
AcDbEntity
  8
Defpoints
 62
     0
100
AcDbPoint
 10
907.2328024844331
 20
1195.224432323666
 30
0.0
  0
POINT
  5
3E1D
330
3E10
100
AcDbEntity
  8
Defpoints
 62
     0
100
AcDbPoint
 10
972.400395619392
 20
1195.224432323666
 30
0.0
  0
ENDBLK
  5
3E12
330
3E10
100
AcDbEntity
  8
0
100
AcDbBlockEnd
  0
BLOCK
  5
3E20
330
3E1F
100
AcDbEntity
  8
0
100
AcDbBlockBegin
  2
*D50
 70
     1
 10
0.0
 20
0.0
 30
0.0
  3
*D50
  1

  0
LINE
  5
3E22
330
3E1F
100
AcDbEntity
  8
DIM
 62
     0
370
    -2
100
AcDbLine
 10
610.2313792441014
 20
810.2236456447495
 30
0.0
 11
610.2313792441014
 21
719.7884459440593
 31
0.0
  0
LINE
  5
3E23
330
3E1F
100
AcDbEntity
  8
DIM
 62
     0
370
    -2
100
AcDbLine
 10
915.2313792441014
 20
1137.36826940772
 30
0.0
 11
915.2313792441014
 21
719.7884459440593
 31
0.0
  0
LINE
  5
3E24
330
3E1F
100
AcDbEntity
  8
DIM
 62
     0
370
    -2
100
AcDbLine
 10
620.2313792441014
 20
719.7884459440593
 30
0.0
 11
905.2313792441014
 21
719.7884459440593
 31
0.0
  0
INSERT
  5
3E25
330
3E1F
100
AcDbEntity
  8
DIM
 62
     0
370
    -2
100
AcDbBlockReference
  2
_DOT
 10
610.2313792441014
 20
719.7884459440593
 30
0.0
 41
10.0
 42
10.0
 43
10.0
 50
180.0
  0
INSERT
  5
3E26
330
3E1F
100
AcDbEntity
  8
DIM
 62
     0
370
    -2
100
AcDbBlockReference
  2
_DOT
 10
915.2313792441014
 20
719.7884459440593
 30
0.0
 41
10.0
 42
10.0
 43
10.0
  0
MTEXT
  5
3E27
330
3E1F
100
AcDbEntity
  8
DIM
 62
     0
100
AcDbMText
 10
762.7313792441014
 20
751.7884459440593
 30
0.0
 40
24.0
 41
0.0
 46
0.0
 71
     5
 72
     1
  1
\A1;305
  7
ＭＳ ゴシック
 73
     1
 44
1.0
  0
POINT
  5
3E28
330
3E1F
100
AcDbEntity
  8
Defpoints
 62
     0
100
AcDbPoint
 10
610.2313792441014
 20
840.2236456447495
 30
0.0
  0
POINT
  5
3E29
330
3E1F
100
AcDbEntity
  8
Defpoints
 62
     0
100
AcDbPoint
 10
915.2313792441014
 20
1167.36826940772
 30
0.0
  0
POINT
  5
3E2A
330
3E1F
100
AcDbEntity
  8
Defpoints
 62
     0
100
AcDbPoint
 10
915.2313792441014
 20
719.7884459440593
 30
0.0
  0
ENDBLK
  5
3E21
330
3E1F
100
AcDbEntity
  8
0
100
AcDbBlockEnd
  0
BLOCK
  5
3E51
330
3E50
100
AcDbEntity
  8
0
100
AcDbBlockBegin
  2
*D51
 70
     1
 10
0.0
 20
0.0
 30
0.0
  3
*D51
  1

  0
LINE
  5
3E53
330
3E50
100
AcDbEntity
  8
DIM
 62
     0
370
    -2
100
AcDbLine
 10
375.2320852155214
 20
810.2214672742339
 30
0.0
 11
375.2320852155214
 21
622.0862200240595
 31
0.0
  0
LINE
  5
3E54
330
3E50
100
AcDbEntity
  8
DIM
 62
     0
370
    -2
100
AcDbLine
 10
845.2320852091311
 20
810.223918164699
 30
0.0
 11
845.2320852091311
 21
622.0862200240595
 31
0.0
  0
LINE
  5
3E55
330
3E50
100
AcDbEntity
  8
DIM
 62
     0
370
    -2
100
AcDbLine
 10
385.2320852155214
 20
622.0862200240595
 30
0.0
 11
835.2320852091311
 21
622.0862200240595
 31
0.0
  0
INSERT
  5
3E56
330
3E50
100
AcDbEntity
  8
DIM
 62
     0
370
    -2
100
AcDbBlockReference
  2
_DOT
 10
375.2320852155214
 20
622.0862200240595
 30
0.0
 41
10.0
 42
10.0
 43
10.0
 50
180.0
  0
INSERT
  5
3E57
330
3E50
100
AcDbEntity
  8
DIM
 62
     0
370
    -2
100
AcDbBlockReference
  2
_DOT
 10
845.2320852091311
 20
622.0862200240595
 30
0.0
 41
10.0
 42
10.0
 43
10.0
  0
MTEXT
  5
3E58
330
3E50
100
AcDbEntity
  8
DIM
 62
     0
100
AcDbMText
 10
610.2320852123262
 20
654.0862200240595
 30
0.0
 40
24.0
 41
0.0
 46
0.0
 71
     5
 72
     1
  1
\A1;470
  7
ＭＳ ゴシック
 73
     1
 44
1.0
  0
POINT
  5
3E59
330
3E50
100
AcDbEntity
  8
Defpoints
 62
     0
100
AcDbPoint
 10
375.2320852155214
 20
840.2214672742339
 30
0.0
  0
POINT
  5
3E5A
330
3E50
100
AcDbEntity
  8
Defpoints
 62
     0
100
AcDbPoint
 10
845.2320852091311
 20
840.223918164699
 30
0.0
  0
POINT
  5
3E5B
330
3E50
100
AcDbEntity
  8
Defpoints
 62
     0
100
AcDbPoint
 10
845.2320852091311
 20
622.0862200240595
 30
0.0
  0
ENDBLK
  5
3E52
330
3E50
100
AcDbEntity
  8
0
100
AcDbBlockEnd
  0
BLOCK
  5
3E6F
330
3E6E
100
AcDbEntity
  8
0
100
AcDbBlockBegin
  2
*D52
 70
     1
 10
0.0
 20
0.0
 30
0.0
  3
*D52
  1

  0
LINE
  5
3E71
330
3E6E
100
AcDbEntity
  8
DIM
 62
     0
370
    -2
100
AcDbLine
 10
1376.63539503831
 20
1142.084814741719
 30
0.0
 11
1376.63539503831
 21
1096.844746621797
 31
0.0
  0
LINE
  5
3E72
330
3E6E
100
AcDbEntity
  8
DIM
 62
     0
370
    -2
100
AcDbLine
 10
1346.63539503831
 20
1142.084814741719
 30
0.0
 11
1346.63539503831
 21
1096.844746621797
 31
0.0
  0
LINE
  5
3E73
330
3E6E
100
AcDbEntity
  8
DIM
 62
     0
370
    -2
100
AcDbLine
 10
1376.63539503831
 20
1096.844746621797
 30
0.0
 11
1258.003395038309
 21
1096.844746621797
 31
0.0
  0
LINE
  5
3E74
330
3E6E
100
AcDbEntity
  8
DIM
 62
     0
370
    -2
100
AcDbLine
 10
1366.63539503831
 20
1096.844746621797
 30
0.0
 11
1356.63539503831
 21
1096.844746621797
 31
0.0
  0
LINE
  5
3E75
330
3E6E
100
AcDbEntity
  8
DIM
 62
     0
370
    -2
100
AcDbLine
 10
1356.63539503831
 20
1096.844746621797
 30
0.0
 11
1366.63539503831
 21
1096.844746621797
 31
0.0
  0
INSERT
  5
3E76
330
3E6E
100
AcDbEntity
  8
DIM
 62
     0
370
    -2
100
AcDbBlockReference
  2
_DOT
 10
1376.63539503831
 20
1096.844746621797
 30
0.0
 41
10.0
 42
10.0
 43
10.0
  0
INSERT
  5
3E77
330
3E6E
100
AcDbEntity
  8
DIM
 62
     0
370
    -2
100
AcDbBlockReference
  2
_DOT
 10
1346.63539503831
 20
1096.844746621797
 30
0.0
 41
10.0
 42
10.0
 43
10.0
 50
180.0
  0
MTEXT
  5
3E78
330
3E6E
100
AcDbEntity
  8
DIM
 62
     0
100
AcDbMText
 10
1292.319395038309
 20
1128.844746621797
 30
0.0
 40
24.0
 41
0.0
 46
0.0
 71
     5
 72
     1
  1
\A1;30
  7
ＭＳ ゴシック
 73
     1
 44
1.0
  0
POINT
  5
3E79
330
3E6E
100
AcDbEntity
  8
Defpoints
 62
     0
100
AcDbPoint
 10
1376.63539503831
 20
1172.084814741719
 30
0.0
  0
POINT
  5
3E7A
330
3E6E
100
AcDbEntity
  8
Defpoints
 62
     0
100
AcDbPoint
 10
1346.63539503831
 20
1172.084814741719
 30
0.0
  0
POINT
  5
3E7B
330
3E6E
100
AcDbEntity
  8
Defpoints
 62
     0
100
AcDbPoint
 10
1346.63539503831
 20
1096.844746621797
 30
0.0
  0
ENDBLK
  5
3E70
330
3E6E
100
AcDbEntity
  8
0
100
AcDbBlockEnd
  0
BLOCK
  5
3E80
330
3E7F
100
AcDbEntity
  8
0
100
AcDbBlockBegin
  2
*D53
 70
     1
 10
0.0
 20
0.0
 30
0.0
  3
*D53
  1

  0
LINE
  5
3E82
330
3E7F
100
AcDbEntity
  8
DIM
 62
     0
370
    -2
100
AcDbLine
 10
1806.260590759014
 20
1144.302628479191
 30
0.0
 11
1806.260590759014
 21
1099.062560359269
 31
0.0
  0
LINE
  5
3E83
330
3E7F
100
AcDbEntity
  8
DIM
 62
     0
370
    -2
100
AcDbLine
 10
1776.260590759014
 20
1144.302628479191
 30
0.0
 11
1776.260590759014
 21
1099.062560359269
 31
0.0
  0
LINE
  5
3E84
330
3E7F
100
AcDbEntity
  8
DIM
 62
     0
370
    -2
100
AcDbLine
 10
1806.260590759014
 20
1099.062560359269
 30
0.0
 11
1894.580590759014
 21
1099.062560359269
 31
0.0
  0
LINE
  5
3E85
330
3E7F
100
AcDbEntity
  8
DIM
 62
     0
370
    -2
100
AcDbLine
 10
1796.260590759014
 20
1099.062560359269
 30
0.0
 11
1786.260590759014
 21
1099.062560359269
 31
0.0
  0
LINE
  5
3E86
330
3E7F
100
AcDbEntity
  8
DIM
 62
     0
370
    -2
100
AcDbLine
 10
1796.260590759014
 20
1099.062560359269
 30
0.0
 11
1786.260590759014
 21
1099.062560359269
 31
0.0
  0
INSERT
  5
3E87
330
3E7F
100
AcDbEntity
  8
DIM
 62
     0
370
    -2
100
AcDbBlockReference
  2
_DOT
 10
1806.260590759014
 20
1099.062560359269
 30
0.0
 41
10.0
 42
10.0
 43
10.0
  0
INSERT
  5
3E88
330
3E7F
100
AcDbEntity
  8
DIM
 62
     0
370
    -2
100
AcDbBlockReference
  2
_DOT
 10
1776.260590759014
 20
1099.062560359269
 30
0.0
 41
10.0
 42
10.0
 43
10.0
 50
180.0
  0
MTEXT
  5
3E89
330
3E7F
100
AcDbEntity
  8
DIM
 62
     0
100
AcDbMText
 10
1860.576590759014
 20
1131.062560359269
 30
0.0
 40
24.0
 41
0.0
 46
0.0
 71
     5
 72
     1
  1
\A1;35
  7
ＭＳ ゴシック
 73
     1
 44
1.0
  0
POINT
  5
3E8A
330
3E7F
100
AcDbEntity
  8
Defpoints
 62
     0
100
AcDbPoint
 10
1806.260590759014
 20
1174.302628479191
 30
0.0
  0
POINT
  5
3E8B
330
3E7F
100
AcDbEntity
  8
Defpoints
 62
     0
100
AcDbPoint
 10
1776.260590759014
 20
1174.302628479191
 30
0.0
  0
POINT
  5
3E8C
330
3E7F
100
AcDbEntity
  8
Defpoints
 62
     0
100
AcDbPoint
 10
1776.260590759014
 20
1099.062560359269
 30
0.0
  0
ENDBLK
  5
3E81
330
3E7F
100
AcDbEntity
  8
0
100
AcDbBlockEnd
  0
BLOCK
  5
3E95
330
3E94
100
AcDbEntity
  8
0
100
AcDbBlockBegin
  2
*D54
 70
     1
 10
0.0
 20
0.0
 30
0.0
  3
*D54
  1

  0
LINE
  5
3E97
330
3E94
100
AcDbEntity
  8
DIM
 62
     0
370
    -2
100
AcDbLine
 10
1421.292020377301
 20
810.2214672742334
 30
0.0
 11
1421.292020377301
 21
622.0862200240595
 31
0.0
  0
LINE
  5
3E98
330
3E94
100
AcDbEntity
  8
DIM
 62
     0
370
    -2
100
AcDbLine
 10
1717.071637801595
 20
820.6364535458385
 30
0.0
 11
1717.071637801595
 21
622.0862200240595
 31
0.0
  0
LINE
  5
3E99
330
3E94
100
AcDbEntity
  8
DIM
 62
     0
370
    -2
100
AcDbLine
 10
1431.292020377301
 20
622.0862200240595
 30
0.0
 11
1707.071637801595
 21
622.0862200240595
 31
0.0
  0
INSERT
  5
3E9A
330
3E94
100
AcDbEntity
  8
DIM
 62
     0
370
    -2
100
AcDbBlockReference
  2
_DOT
 10
1421.292020377301
 20
622.0862200240595
 30
0.0
 41
10.0
 42
10.0
 43
10.0
 50
180.0
  0
INSERT
  5
3E9B
330
3E94
100
AcDbEntity
  8
DIM
 62
     0
370
    -2
100
AcDbBlockReference
  2
_DOT
 10
1717.071637801595
 20
622.0862200240595
 30
0.0
 41
10.0
 42
10.0
 43
10.0
  0
MTEXT
  5
3E9C
330
3E94
100
AcDbEntity
  8
DIM
 62
     0
100
AcDbMText
 10
1569.181829089448
 20
654.0862200240595
 30
0.0
 40
24.0
 41
0.0
 46
0.0
 71
     5
 72
     1
  1
\A1;305
  7
ＭＳ ゴシック
 73
     1
 44
1.0
  0
POINT
  5
3E9D
330
3E94
100
AcDbEntity
  8
Defpoints
 62
     0
100
AcDbPoint
 10
1421.292020377301
 20
840.2214672742334
 30
0.0
  0
POINT
  5
3E9E
330
3E94
100
AcDbEntity
  8
Defpoints
 62
     0
100
AcDbPoint
 10
1717.071637801595
 20
850.6364535458385
 30
0.0
  0
POINT
  5
3E9F
330
3E94
100
AcDbEntity
  8
Defpoints
 62
     0
100
AcDbPoint
 10
1717.071637801595
 20
622.0862200240595
 30
0.0
  0
ENDBLK
  5
3E96
330
3E94
100
AcDbEntity
  8
0
100
AcDbBlockEnd
  0
ENDSEC
  0
SECTION
  2
ENTITIES
  0
MTEXT
  5
177
330
A
100
AcDbEntity
  8
TEMPLATE
390
1D
100
AcDbMText
 10
79.20214454773075
 20
343.7317516314282
 30
0.0
 40
16.28841145833333
 41
0.0
 46
0.0
 71
     1
 72
     1
  1
品名
  7
ＭＳ ゴシック
 73
     1
 44
0.7828267384257843
  0
MTEXT
  5
178
330
A
100
AcDbEntity
  8
TEMPLATE
390
1D
100
AcDbMText
 10
79.20214454773075
 20
258.731751631428
 30
0.0
 40
16.28841145833333
 41
0.0
 46
0.0
 71
     1
 72
     1
  1
仕様
  7
ＭＳ ゴシック
 73
     1
 44
0.7828267384257843
  0
LINE
  5
179
330
A
100
AcDbEntity
  8
TEMPLATE
390
1D
100
AcDbLine
 10
2022.202144547248
 20
267.1466735064284
 30
0.0
 11
72.20214454724874
 21
267.1466735064284
 31
0.0
  0
LWPOLYLINE
  5
17A
330
A
100
AcDbEntity
  8
TEMPLATE
390
1D
100
AcDbPolyline
 90
        5
 70
   128
 43
0.0
 10
2022.202144547248
 20
2897.146673506426
 10
72.20214454724874
 20
2897.146673506426
 10
72.20214454724874
 20
97.14667350642826
 10
2022.202144547248
 20
97.14667350642826
 10
2022.202144547248
 20
2897.146673506426
  0
LINE
  5
17B
330
A
100
AcDbEntity
  8
TEMPLATE
390
1D
100
AcDbLine
 10
2022.202144547248
 20
352.1466735064282
 30
0.0
 11
72.20214454724874
 21
352.1466735064282
 31
0.0
  0
LINE
  5
17C
330
A
100
AcDbEntity
  8
TEMPLATE
390
1D
100
AcDbLine
 10
2022.202144547732
 20
182.1466735064282
 30
0.0
 11
1269.20214454773
 21
182.1466735064282
 31
0.0
  0
MTEXT
  5
17E
330
A
100
AcDbEntity
  8
TEMPLATE
390
1D
100
AcDbMText
 10
1299.073550799991
 20
152.2362790331201
 30
0.0
 40
24.4326171875
 41
0.0
 46
0.0
 71
     1
 72
     1
  1
大洋金物株式会社 ティーフォルム事業部
  7
ＭＳ ゴシック
 73
     1
 44
0.7828267384257843
  0
MTEXT
  5
180
330
A
100
AcDbEntity
  8
TEMPLATE
390
1D
100
AcDbMText
 10
1831.20214454799
 20
230.1492906939282
 30
0.0
 40
24.4326171875
 41
0.0
 46
24.4326171875
 71
     1
 72
     1
  1
{1:10}
  7
ＭＳ ゴシック
 73
     1
 44
0.7828267384257843
1001
ACAD
1000
ACAD_MTEXT_DEFINED_HEIGHT_BEGIN
1070
    46
1040
24.4326171875
1000
ACAD_MTEXT_DEFINED_HEIGHT_END
  0
MTEXT
  5
181
330
A
100
AcDbEntity
  8
TEMPLATE
390
1D
100
AcDbMText
 10
1778.20214454799
 20
258.731751631428
 30
0.0
 40
16.28841145833333
 41
0.0
 46
0.0
 71
     1
 72
     1
  1
縮尺
  7
ＭＳ ゴシック
 73
     1
 44
0.7828267384257843
  0
LINE
  5
182
330
A
100
AcDbEntity
  8
TEMPLATE
390
1D
100
AcDbLine
 10
1771.20214454799
 20
182.1466735064282
 30
0.0
 11
1771.20214454799
 21
267.1466735064284
 31
0.0
  0
MTEXT
  5
183
330
A
100
AcDbEntity
  8
TEMPLATE
390
1D
100
AcDbMText
 10
1527.20214454799
 20
258.731751631428
 30
0.0
 40
16.28841145833333
 41
0.0
 46
0.0
 71
     1
 72
     1
  1
容量
  7
ＭＳ ゴシック
 73
     1
 44
0.7828267384257843
  0
LINE
  5
184
330
A
100
AcDbEntity
  8
TEMPLATE
390
1D
100
AcDbLine
 10
1520.20214454799
 20
182.1466735064282
 30
0.0
 11
1520.20214454799
 21
267.1466735064284
 31
0.0
  0
MTEXT
  5
185
330
A
100
AcDbEntity
  8
TEMPLATE
390
1D
100
AcDbMText
 10
1276.20214454799
 20
343.7317516314282
 30
0.0
 40
16.28841145833333
 41
0.0
 46
0.0
 71
     1
 72
     1
  1
品番
  7
ＭＳ ゴシック
 73
     1
 44
0.7828267384257843
  0
MTEXT
  5
186
330
A
100
AcDbEntity
  8
TEMPLATE
390
1D
100
AcDbMText
 10
1276.20214454799
 20
258.731751631428
 30
0.0
 40
16.28841145833333
 41
0.0
 46
0.0
 71
     1
 72
     1
  1
重量
  7
ＭＳ ゴシック
 73
     1
 44
0.7828267384257843
  0
MTEXT
  5
187
330
A
100
AcDbEntity
  8
TEMPLATE
390
1D
100
AcDbMText
 10
1329.20214454799
 20
315.1492906939282
 30
0.0
 40
24.4326171875
 41
0.0
 46
24.4326171875
 71
     1
 72
     1
  1
{AAG70-1501}
  7
ＭＳ ゴシック
 73
     1
 44
0.7828267384257843
1001
ACAD
1000
ACAD_MTEXT_DEFINED_HEIGHT_BEGIN
1070
    46
1040
24.4326171875
1000
ACAD_MTEXT_DEFINED_HEIGHT_END
  0
LINE
  5
188
330
A
100
AcDbEntity
  8
TEMPLATE
390
1D
100
AcDbLine
 10
1269.20214454799
 20
97.14667350642826
 30
0.0
 11
1269.20214454799
 21
352.1466735064282
 31
0.0
  0
MTEXT
  5
189
330
A
100
AcDbEntity
  8
TEMPLATE
390
1D
100
AcDbMText
 10
132.2021445477307
 20
315.1492906939282
 30
0.0
 40
24.4326171875
 41
0.0
 46
27.53672361022102
 71
     1
 72
     1
  1
{洗面器　-AXA, Prisma-}
  7
ＭＳ ゴシック
 73
     1
 44
0.7828267384257843
1001
ACAD
1000
ACAD_MTEXT_DEFINED_HEIGHT_BEGIN
1070
    46
1040
27.53672361022102
1000
ACAD_MTEXT_DEFINED_HEIGHT_END
  0
INSERT
  5
6B5
330
A
100
AcDbEntity
  8
TEMPLATE
100
AcDbBlockReference
  2
名称未設定-1
 10
1870.75074808845
 20
25.94676575665382
 30
0.0
 41
0.7619999999999998
 42
0.7619999999999998
 43
0.7619999999999998
  0
MTEXT
  5
7D9
330
A
100
AcDbEntity
  8
TEMPLATE
390
1D
100
AcDbMText
 10
125.2543452760364
 20
226.8119760293952
 30
0.0
 40
24.4326171875
 41
0.0
 46
66.254517578125
 71
     1
 72
     1
  1
{オーバーカウンター/オーバーフロー付/\P陶器/ホワイト}
  7
ＭＳ ゴシック
 73
     1
 44
0.9331787841240657
1001
ACAD
1000
ACAD_MTEXT_DEFINED_HEIGHT_BEGIN
1070
    46
1040
66.254517578125
1000
ACAD_MTEXT_DEFINED_HEIGHT_END
  0
INSERT
  5
68C
330
A
100
AcDbEntity
  8
TEMPLATE
100
AcDbBlockReference
  2
block 2
 10
919.2743017702577
 20
8.373076514336368
 30
0.0
 41
0.3809999999999999
 42
0.3809999999999999
 43
0.3809999999999999
  0
LWPOLYLINE
  5
DAC
330
A
100
AcDbEntity
  8
BORDER
100
AcDbPolyline
 90
        4
 70
     1
 43
0.0
 10
0.0
 20
0.0
 10
0.0
 20
2970.0
 10
2100.0
 20
2970.0
 10
2100.0
 20
0.0
  0
MTEXT
  5
121B
330
A
100
AcDbEntity
  8
TEMPLATE
390
1D
100
AcDbMText
 10
1329.20214454799
 20
227.1688729773101
 30
0.0
 40
24.4326171875
 41
0.0
 46
28.390701171875
 71
     1
 72
     1
  1
{20kg}
  7
ＭＳ ゴシック
 73
     1
 44
0.7828267384257843
1001
ACAD
1000
ACAD_MTEXT_DEFINED_HEIGHT_BEGIN
1070
    46
1040
28.390701171875
1000
ACAD_MTEXT_DEFINED_HEIGHT_END
  0
MTEXT
  5
1466
102
{ACAD_XDICTIONARY
360
1468
102
}
330
A
100
AcDbEntity
  8
TEMPLATE
 48
0.05
100
AcDbMText
 10
74.728656548571
 20
83.86172105142839
 30
0.0
 40
22.0
 41
0.0
 46
22.0
 71
     1
 72
     1
  1
{20201111N}
  7
ＭＳ ゴシック
 73
     1
 44
1.0
1001
ACAD
1000
ACAD_MTEXT_DEFINED_HEIGHT_BEGIN
1070
    46
1040
22.0
1000
ACAD_MTEXT_DEFINED_HEIGHT_END
  0
MTEXT
  5
146D
330
A
100
AcDbEntity
  8
TEMPLATE
390
1D
100
AcDbMText
 10
1583.904999862276
 20
227.1688729773101
 30
0.0
 40
24.4326171875
 41
0.0
 46
24.4326171875
 71
     1
 72
     1
  1
{35L}
  7
ＭＳ ゴシック
 73
     1
 44
0.7828267384257843
1001
ACAD
1000
ACAD_MTEXT_DEFINED_HEIGHT_BEGIN
1070
    46
1040
24.4326171875
1000
ACAD_MTEXT_DEFINED_HEIGHT_END
  0
POINT
  5
262A
330
A
100
AcDbEntity
  8
Layer9
  6
Continuous
 62
     7
100
AcDbPoint
 10
1037.460145007193
 20
1010.220672371878
 30
0.0
  0
POINT
  5
262B
330
A
100
AcDbEntity
  8
Layer9
  6
Continuous
 62
     7
100
AcDbPoint
 10
1037.460146257193
 20
1010.220672788578
 30
0.0
  0
POINT
  5
262C
330
A
100
AcDbEntity
  8
Layer9
  6
Continuous
 62
     7
100
AcDbPoint
 10
1037.853693340493
 20
1015.267975288578
 30
0.0
  0
POINT
  5
2812
330
A
100
AcDbEntity
  8
Layer9
  6
Continuous
 62
     7
100
AcDbPoint
 10
925.7934783404928
 20
1010.220672371878
 30
0.0
  0
POINT
  5
2813
330
A
100
AcDbEntity
  8
Layer9
  6
Continuous
 62
     7
100
AcDbPoint
 10
925.7934795904928
 20
1010.220672788578
 30
0.0
  0
POINT
  5
2814
330
A
100
AcDbEntity
  8
Layer9
  6
Continuous
 62
     7
100
AcDbPoint
 10
926.1870266737928
 20
1015.267975288578
 30
0.0
  0
INSERT
  5
28CA
330
A
100
AcDbEntity
  8
Layer3
100
AcDbBlockReference
  2
SEANNOT_GROUP
 10
859.7083018867928
 20
826.1905269541776
 30
0.0
  0
POINT
  5
2A52
330
A
100
AcDbEntity
  8
Standard
  6
Continuous
 62
     7
100
AcDbPoint
 10
1036.111241014893
 20
1018.794321538578
 30
0.0
  0
INSERT
  5
2B9B
330
A
100
AcDbEntity
  8
Layer3
100
AcDbBlockReference
  2
SEANNOT_GROUP1
 10
859.7083018867928
 20
826.1905269541776
 30
0.0
  0
POLYLINE
  5
3925
330
A
100
AcDbEntity
  8
MODEL
100
AcDb2dPolyline
 66
     1
 10
0.0
 20
0.0
 30
0.0
  0
VERTEX
  5
3E2E
330
3925
100
AcDbEntity
  8
MODEL
100
AcDbVertex
100
AcDb2dVertex
 10
610.2313792441016
 20
1195.224432323666
 30
0.0
  0
VERTEX
  5
3E2F
330
3925
100
AcDbEntity
  8
MODEL
100
AcDbVertex
100
AcDb2dVertex
 10
845.2341183871246
 20
1195.224432323666
 30
0.0
  0
SEQEND
  5
3E30
330
3925
100
AcDbEntity
  8
MODEL
  0
POLYLINE
  5
3929
330
A
100
AcDbEntity
  8
MODEL
100
AcDb2dPolyline
 66
     1
 10
0.0
 20
0.0
 30
0.0
  0
VERTEX
  5
392A
330
3929
100
AcDbEntity
  8
MODEL
100
AcDbVertex
100
AcDb2dVertex
 10
869.5221751349487
 20
1178.226237714622
 30
0.0
  0
VERTEX
  5
392B
330
3929
100
AcDbEntity
  8
MODEL
100
AcDbVertex
100
AcDb2dVertex
 10
850.9208539434
 20
1093.221484211668
 30
0.0
  0
SEQEND
  5
392C
330
3929
100
AcDbEntity
  8
MODEL
  0
POLYLINE
  5
3949
330
A
100
AcDbEntity
  8
MODEL
100
AcDb2dPolyline
 66
     1
 10
0.0
 20
0.0
 30
0.0
  0
VERTEX
  5
394A
330
3949
100
AcDbEntity
  8
MODEL
100
AcDbVertex
100
AcDb2dVertex
 10
377.5724662865393
 20
1990.40226842797
 30
0.0
  0
VERTEX
  5
394B
330
3949
100
AcDbEntity
  8
MODEL
100
AcDbVertex
100
AcDb2dVertex
 10
388.6094645562004
 20
2001.436969954677
 30
0.0
  0
SEQEND
  5
394C
330
3949
100
AcDbEntity
  8
MODEL
  0
SPLINE
  5
394D
330
A
100
AcDbEntity
  8
MODEL
100
AcDbSpline
210
0.0
220
0.0
230
1.0
 70
    11
 71
     3
 72
    29
 73
    25
 74
     0
 42
0.000000001
 43
0.0000000001
 40
0.0
 40
0.0
 40
0.0
 40
0.0
 40
1.0
 40
1.0
 40
1.0
 40
2.0
 40
2.0
 40
2.0
 40
3.0
 40
3.0
 40
3.0
 40
4.0
 40
4.0
 40
4.0
 40
5.0
 40
5.0
 40
5.0
 40
6.0
 40
6.0
 40
6.0
 40
7.0
 40
7.0
 40
7.0
 40
8.0
 40
8.0
 40
8.0
 40
8.0
 10
832.7329464837273
 20
2252.559399526497
 30
0.0
 10
832.7329464837273
 20
2252.559399526497
 30
0.0
 10
832.7329464837273
 20
2003.558012073505
 30
0.0
 10
832.7329464837273
 20
2003.558012073505
 30
0.0
 10
832.7329464837273
 20
2001.900912031562
 30
0.0
 10
831.393945341031
 20
2000.557317402959
 30
0.0
 10
829.7356969276113
 20
2000.557317402959
 30
0.0
 10
829.7356969276113
 20
2000.557317402959
 30
0.0
 10
390.7316550465073
 20
2000.557317402959
 30
0.0
 10
390.7316550465073
 20
2000.557317402959
 30
0.0
 10
389.0734066330876
 20
2000.557317402959
 30
0.0
 10
387.7321087474372
 20
2001.900912031562
 30
0.0
 10
387.7321087474372
 20
2003.558012073505
 30
0.0
 10
387.7321087474372
 20
2003.558012073505
 30
0.0
 10
387.7321087474372
 20
2252.559399526497
 30
0.0
 10
387.7321087474372
 20
2252.559399526497
 30
0.0
 10
387.7321087474372
 20
2254.215351196965
 30
0.0
 10
389.0734066330876
 20
2255.55779745409
 30
0.0
 10
390.7316550465073
 20
2255.55779745409
 30
0.0
 10
390.7316550465073
 20
2255.55779745409
 30
0.0
 10
829.7356969276113
 20
2255.55779745409
 30
0.0
 10
829.7356969276113
 20
2255.55779745409
 30
0.0
 10
831.393945341031
 20
2255.55779745409
 30
0.0
 10
832.7329464837273
 20
2254.215351196965
 30
0.0
 10
832.7329464837273
 20
2252.559399526497
 30
0.0
  0
SPLINE
  5
394E
330
A
100
AcDbEntity
  8
MODEL
100
AcDbSpline
210
0.0
220
0.0
230
1.0
 70
    11
 71
     3
 72
    17
 73
    13
 74
     0
 42
0.000000001
 43
0.0000000001
 40
0.0
 40
0.0
 40
0.0
 40
0.0
 40
1.0
 40
1.0
 40
1.0
 40
2.0
 40
2.0
 40
2.0
 40
3.0
 40
3.0
 40
3.0
 40
4.0
 40
4.0
 40
4.0
 40
4.0
 10
632.7325699730352
 20
2168.059929473618
 30
0.0
 10
632.7325699730352
 20
2180.48645723098
 30
0.0
 10
622.6613521158977
 20
2190.55997183107
 30
0.0
 10
610.2336759870593
 20
2190.55997183107
 30
0.0
 10
597.805999858221
 20
2190.55997183107
 30
0.0
 10
587.7324852581257
 20
2180.48645723098
 30
0.0
 10
587.7324852581257
 20
2168.059929473618
 30
0.0
 10
587.7324852581257
 20
2155.634550087732
 30
0.0
 10
597.805999858221
 20
2145.56218385912
 30
0.0
 10
610.2336759870593
 20
2145.56218385912
 30
0.0
 10
622.6613521158977
 20
2145.56218385912
 30
0.0
 10
632.7325699730352
 20
2155.634550087732
 30
0.0
 10
632.7325699730352
 20
2168.059929473618
 30
0.0
  0
POLYLINE
  5
3968
330
A
100
AcDbEntity
  8
MODEL
100
AcDb2dPolyline
 66
     1
 10
0.0
 20
0.0
 30
0.0
  0
VERTEX
  5
3969
330
3968
100
AcDbEntity
  8
MODEL
100
AcDbVertex
100
AcDb2dVertex
 10
377.5724662865393
 20
2265.716291543511
 30
0.0
  0
VERTEX
  5
396A
330
3968
100
AcDbEntity
  8
MODEL
100
AcDbVertex
100
AcDb2dVertex
 10
388.6094645562004
 20
2254.681590016806
 30
0.0
  0
SEQEND
  5
396B
330
3968
100
AcDbEntity
  8
MODEL
  0
POLYLINE
  5
396C
330
A
100
AcDbEntity
  8
MODEL
100
AcDb2dPolyline
 66
     1
 10
0.0
 20
0.0
 30
0.0
  0
VERTEX
  5
396D
330
396C
100
AcDbEntity
  8
MODEL
100
AcDbVertex
100
AcDb2dVertex
 10
842.8891438301905
 20
2265.716291543511
 30
0.0
  0
VERTEX
  5
396E
330
396C
100
AcDbEntity
  8
MODEL
100
AcDbVertex
100
AcDb2dVertex
 10
831.8555906749605
 20
2254.681590016806
 30
0.0
  0
SEQEND
  5
396F
330
396C
100
AcDbEntity
  8
MODEL
  0
SPLINE
  5
3970
330
A
100
AcDbEntity
  8
MODEL
100
AcDbSpline
210
0.0
220
0.0
230
1.0
 70
    11
 71
     3
 72
    29
 73
    25
 74
     0
 42
0.000000001
 43
0.0000000001
 40
0.0
 40
0.0
 40
0.0
 40
0.0
 40
1.0
 40
1.0
 40
1.0
 40
2.0
 40
2.0
 40
2.0
 40
3.0
 40
3.0
 40
3.0
 40
4.0
 40
4.0
 40
4.0
 40
5.0
 40
5.0
 40
5.0
 40
6.0
 40
6.0
 40
6.0
 40
7.0
 40
7.0
 40
7.0
 40
8.0
 40
8.0
 40
8.0
 40
8.0
 10
305.2319534367741
 20
2370.05962072653
 30
0.0
 10
305.2319534367741
 20
2370.05962072653
 30
0.0
 10
305.2319534367741
 20
1926.057866175613
 30
0.0
 10
305.2319534367741
 20
1926.057866175613
 30
0.0
 10
305.2319534367741
 20
1921.638932730428
 30
0.0
 10
308.811427331955
 20
1918.058310463775
 30
0.0
 10
313.2303607771353
 20
1918.058310463775
 30
0.0
 10
313.2303607771353
 20
1918.058310463775
 30
0.0
 10
907.2323977110716
 20
1918.058310463775
 30
0.0
 10
907.2323977110716
 20
1918.058310463775
 30
0.0
 10
911.6513311562555
 20
1918.058310463775
 30
0.0
 10
915.2319534229098
 20
1921.638932730428
 30
0.0
 10
915.2319534229098
 20
1926.057866175613
 30
0.0
 10
915.2319534229098
 20
1926.057866175613
 30
0.0
 10
915.2319534229098
 20
2370.05962072653
 30
0.0
 10
915.2319534229098
 20
2370.05962072653
 30
0.0
 10
915.2319534229098
 20
2374.478554171712
 30
0.0
 10
911.6513311562555
 20
2378.058028066889
 30
0.0
 10
907.2323977110716
 20
2378.058028066889
 30
0.0
 10
907.2323977110716
 20
2378.058028066889
 30
0.0
 10
313.2303607771353
 20
2378.058028066889
 30
0.0
 10
313.2303607771353
 20
2378.058028066889
 30
0.0
 10
308.811427331955
 20
2378.058028066889
 30
0.0
 10
305.2319534367741
 20
2374.478554171712
 30
0.0
 10
305.2319534367741
 20
2370.05962072653
 30
0.0
  0
SPLINE
  5
3971
330
A
100
AcDbEntity
  8
MODEL
100
AcDbSpline
210
0.0
220
0.0
230
1.0
 70
    11
 71
     3
 72
    17
 73
    13
 74
     0
 42
0.000000001
 43
0.0000000001
 40
0.0
 40
0.0
 40
0.0
 40
0.0
 40
1.0
 40
1.0
 40
1.0
 40
2.0
 40
2.0
 40
2.0
 40
3.0
 40
3.0
 40
3.0
 40
4.0
 40
4.0
 40
4.0
 40
4.0
 10
629.2323337098021
 20
2328.061379053648
 30
0.0
 10
629.2323337098021
 20
2338.552900871526
 30
0.0
 10
620.7251978049387
 20
2347.060036776391
 30
0.0
 10
610.2313792441016
 20
2347.060036776391
 30
0.0
 10
599.7375606832718
 20
2347.060036776391
 30
0.0
 10
591.2327215213625
 20
2338.552900871526
 30
0.0
 10
591.2327215213625
 20
2328.061379053648
 30
0.0
 10
591.2327215213625
 20
2317.567560492815
 30
0.0
 10
599.7375606832718
 20
2309.058127844997
 30
0.0
 10
610.2313792441016
 20
2309.058127844997
 30
0.0
 10
620.7251978049387
 20
2309.058127844997
 30
0.0
 10
629.2323337098021
 20
2317.567560492815
 30
0.0
 10
629.2323337098021
 20
2328.061379053648
 30
0.0
  0
POLYLINE
  5
3972
330
A
100
AcDbEntity
  8
MODEL
100
AcDb2dPolyline
 66
     1
 10
0.0
 20
0.0
 30
0.0
  0
VERTEX
  5
3973
330
3972
100
AcDbEntity
  8
MODEL
100
AcDbVertex
100
AcDb2dVertex
 10
842.8891438301905
 20
1990.40226842797
 30
0.0
  0
VERTEX
  5
3974
330
3972
100
AcDbEntity
  8
MODEL
100
AcDbVertex
100
AcDb2dVertex
 10
831.8555906749605
 20
2001.436969954677
 30
0.0
  0
SEQEND
  5
3975
330
3972
100
AcDbEntity
  8
MODEL
  0
SPLINE
  5
3976
102
{ACAD_REACTORS
330
39FD
102
}
330
A
100
AcDbEntity
  8
MODEL
100
AcDbSpline
210
0.0
220
0.0
230
1.0
 70
    11
 71
     3
 72
    29
 73
    25
 74
     0
 42
0.000000001
 43
0.0000000001
 40
0.0
 40
0.0
 40
0.0
 40
0.0
 40
1.0
 40
1.0
 40
1.0
 40
2.0
 40
2.0
 40
2.0
 40
3.0
 40
3.0
 40
3.0
 40
4.0
 40
4.0
 40
4.0
 40
5.0
 40
5.0
 40
5.0
 40
6.0
 40
6.0
 40
6.0
 40
7.0
 40
7.0
 40
7.0
 40
8.0
 40
8.0
 40
8.0
 40
8.0
 10
837.2345626752865
 20
2268.058969357486
 30
0.0
 10
837.2345626752865
 20
2268.058969357486
 30
0.0
 10
383.2316409273551
 20
2268.058969357486
 30
0.0
 10
383.2316409273551
 20
2268.058969357486
 30
0.0
 10
378.8138558536482
 20
2268.058969357486
 30
0.0
 10
375.2320852155205
 20
2264.47949546231
 30
0.0
 10
375.2320852155205
 20
2260.059413645649
 30
0.0
 10
375.2320852155205
 20
2260.059413645649
 30
0.0
 10
375.2320852155205
 20
1996.057997954354
 30
0.0
 10
375.2320852155205
 20
1996.057997954354
 30
0.0
 10
375.2320852155205
 20
1991.641361252126
 30
0.0
 10
378.8138558536482
 20
1988.057293871039
 30
0.0
 10
383.2316409273551
 20
1988.057293871039
 30
0.0
 10
383.2316409273551
 20
1988.057293871039
 30
0.0
 10
837.2345626752865
 20
1988.057293871039
 30
0.0
 10
837.2345626752865
 20
1988.057293871039
 30
0.0
 10
841.6511993775127
 20
1988.057293871039
 30
0.0
 10
845.234118387121
 20
1991.641361252126
 30
0.0
 10
845.234118387121
 20
1996.057997954354
 30
0.0
 10
845.234118387121
 20
1996.057997954354
 30
0.0
 10
845.234118387121
 20
2260.059413645649
 30
0.0
 10
845.234118387121
 20
2260.059413645649
 30
0.0
 10
845.234118387121
 20
2264.47949546231
 30
0.0
 10
841.6511993775127
 20
2268.058969357486
 30
0.0
 10
837.2345626752865
 20
2268.058969357486
 30
0.0
  0
SPLINE
  5
3977
330
A
100
AcDbEntity
  8
MODEL
100
AcDbSpline
210
0.0
220
0.0
230
1.0
 70
    11
 71
     3
 72
    17
 73
    13
 74
     0
 42
0.000000001
 43
0.0000000001
 40
0.0
 40
0.0
 40
0.0
 40
0.0
 40
1.0
 40
1.0
 40
1.0
 40
2.0
 40
2.0
 40
2.0
 40
3.0
 40
3.0
 40
3.0
 40
4.0
 40
4.0
 40
4.0
 40
4.0
 10
650.2314545462466
 20
2168.059929473618
 30
0.0
 10
650.2314545462466
 20
2190.153448328057
 30
0.0
 10
632.3237497270673
 20
2208.060004775754
 30
0.0
 10
610.2313792441016
 20
2208.060004775754
 30
0.0
 10
588.1390087611433
 20
2208.060004775754
 30
0.0
 10
570.2313039419676
 20
2190.153448328057
 30
0.0
 10
570.2313039419676
 20
2168.059929473618
 30
0.0
 10
570.2313039419676
 20
2145.968707362134
 30
0.0
 10
588.1390087611433
 20
2128.058705800002
 30
0.0
 10
610.2313792441016
 20
2128.058705800002
 30
0.0
 10
632.3237497270673
 20
2128.058705800002
 30
0.0
 10
650.2314545462466
 20
2145.968707362134
 30
0.0
 10
650.2314545462466
 20
2168.059929473618
 30
0.0
  0
POLYLINE
  5
39DA
330
A
100
AcDbEntity
  8
HIDDEN
 48
0.5
100
AcDb2dPolyline
 66
     1
 10
0.0
 20
0.0
 30
0.0
  0
VERTEX
  5
3C0F
330
39DA
100
AcDbEntity
  8
HIDDEN
 48
0.5
100
AcDbVertex
100
AcDb2dVertex
 10
610.2313792441016
 20
890.2238581448619
 30
0.0
  0
VERTEX
  5
3C10
330
39DA
100
AcDbEntity
  8
HIDDEN
 48
0.5
100
AcDbVertex
100
AcDb2dVertex
 10
650.2331771034549
 20
890.2238581448619
 30
0.0
  0
SEQEND
  5
3C15
330
39DA
100
AcDbEntity
  8
HIDDEN
 48
0.5
  0
POLYLINE
  5
39E2
330
A
100
AcDbEntity
  8
HIDDEN
 48
0.5
100
AcDb2dPolyline
 66
     1
 10
0.0
 20
0.0
 30
0.0
  0
VERTEX
  5
3C0D
330
39E2
100
AcDbEntity
  8
HIDDEN
 48
0.5
100
AcDbVertex
100
AcDb2dVertex
 10
610.2313792441016
 20
900.2215802274422
 30
0.0
  0
VERTEX
  5
3C0E
330
39E2
100
AcDbEntity
  8
HIDDEN
 48
0.5
100
AcDbVertex
100
AcDb2dVertex
 10
822.8787392996267
 20
900.2215802274422
 30
0.0
  0
SEQEND
  5
3C16
330
39E2
100
AcDbEntity
  8
HIDDEN
 48
0.5
  0
DIMENSION
  5
39FB
102
{ACAD_REACTORS
330
39FD
102
}
102
{ACAD_XDICTIONARY
360
39FC
102
}
330
A
100
AcDbEntity
  8
DIM
100
AcDbDimension
  2
*D23
 10
196.9127648379053
 20
1988.057293871039
 30
0.0
 11
164.9127648379053
 21
2128.058131614262
 31
0.0
 70
    32
 71
     5
 42
280.0016754864471
 73
     0
 74
     0
 75
     0
  3
tfrom線あり
100
AcDbAlignedDimension
 13
396.1480944547464
 23
2268.058969357486
 33
0.0
 14
401.4188703705565
 24
1988.057293871039
 34
0.0
 50
90.0
100
AcDbRotatedDimension
1001
ACAD
1000
DSTYLE
1002
{
1070
   144
1040
1.0
1002
}
  0
DIMENSION
  5
3A0A
330
A
100
AcDbEntity
  8
DIM
100
AcDbDimension
  2
*D24
 10
845.234118387121
 20
1799.038686504535
 30
0.0
 11
610.231953429842
 21
1831.038686504535
 31
0.0
 70
    32
 71
     5
 42
470.0043299145582
 73
     0
 74
     0
 75
     0
  3
tfrom線あり
100
AcDbAlignedDimension
 13
375.2297884725628
 23
1974.638573157172
 33
0.0
 14
845.234118387121
 24
1974.638573157172
 34
0.0
100
AcDbRotatedDimension
1001
ACAD
1000
DSTYLE
1002
{
1070
   144
1040
1.0
1002
}
  0
MTEXT
  5
3A7A
330
A
100
AcDbEntity
  8
DIM
390
1D
100
AcDbMText
 10
676.5106166911178
 20
2437.582843222991
 30
0.0
 40
24.4326171875
 41
0.0
 46
24.4326171875
 71
     1
 72
     1
  1
{%%c35}
  7
ＭＳ ゴシック
 73
     1
 44
0.7828267384257843
1001
ACAD
1000
ACAD_MTEXT_DEFINED_HEIGHT_BEGIN
1070
    46
1040
24.4326171875
1000
ACAD_MTEXT_DEFINED_HEIGHT_END
  0
LINE
  5
3A7B
330
A
100
AcDbEntity
  8
DIM
100
AcDbLine
 10
621.5747259347145
 20
2343.304133971483
 30
0.0
 11
666.3907269328017
 21
2407.997277669597
 31
0.0
  0
LINE
  5
3A7C
330
A
100
AcDbEntity
  8
DIM
100
AcDbLine
 10
666.3907269328017
 20
2407.997277669597
 30
0.0
 11
736.5552959237914
 21
2407.997277669597
 31
0.0
  0
DIMENSION
  5
3B01
102
{ACAD_XDICTIONARY
360
3B02
102
}
330
A
100
AcDbEntity
  8
DIM
100
AcDbDimension
  2
*D31
 10
915.23195342291
 20
2512.98558
 30
0.0
 11
610.231953429842
 21
2512.98558
 31
0.0
 70
   160
 71
     5
 42
609.9999999861359
 73
     0
 74
     0
 75
     0
 52
-90.0
  3
tfrom線あり
100
AcDbAlignedDimension
 13
305.2319534367741
 23
2377.390097748115
 33
0.0
 14
915.23195342291
 24
2374.7547097902
 34
0.0
100
AcDbRotatedDimension
1001
ACAD
1000
DSTYLE
1002
{
1070
   144
1040
1.0
1002
}
  0
DIMENSION
  5
3B10
102
{ACAD_XDICTIONARY
360
3B11
102
}
330
A
100
AcDbEntity
  8
DIM
100
AcDbDimension
  2
*D32
 10
1051.797493639317
 20
1918.058310463775
 30
0.0
 11
1019.797493639317
 21
2148.058169265332
 31
0.0
 70
    32
 71
     5
 42
459.9997176031143
 73
     0
 74
     0
 75
     0
 52
-90.0
  3
tfrom線あり
100
AcDbAlignedDimension
 13
898.1055268545051
 23
2378.058028066889
 33
0.0
 14
897.0513716713583
 24
1918.058310463775
 34
0.0
 50
90.00000000000001
100
AcDbRotatedDimension
1001
ACAD
1000
DSTYLE
1002
{
1070
   144
1040
1.0
1002
}
  0
POLYLINE
  5
3B23
330
A
100
AcDbEntity
  8
MODEL
100
AcDb2dPolyline
 66
     1
 10
0.0
 20
0.0
 30
0.0
  0
VERTEX
  5
3B24
330
3B23
100
AcDbEntity
  8
MODEL
100
AcDbVertex
100
AcDb2dVertex
 10
1696.261532049607
 20
1195.224432323666
 30
0.0
  0
VERTEX
  5
3B25
330
3B23
100
AcDbEntity
  8
MODEL
100
AcDbVertex
100
AcDb2dVertex
 10
1416.259856563162
 20
1195.224432323666
 30
0.0
  0
SEQEND
  5
3B26
330
3B23
100
AcDbEntity
  8
MODEL
  0
POLYLINE
  5
3B27
330
A
100
AcDbEntity
  8
MODEL
100
AcDb2dPolyline
 66
     1
 10
0.0
 20
0.0
 30
0.0
  0
VERTEX
  5
3B28
330
3B27
100
AcDbEntity
  8
MODEL
100
AcDbVertex
100
AcDb2dVertex
 10
1391.971799815338
 20
1178.226237714621
 30
0.0
  0
VERTEX
  5
3B29
330
3B27
100
AcDbEntity
  8
MODEL
100
AcDbVertex
100
AcDb2dVertex
 10
1410.573121006887
 20
1093.221484211668
 30
0.0
  0
SEQEND
  5
3B2A
330
3B27
100
AcDbEntity
  8
MODEL
  0
POLYLINE
  5
3B2B
330
A
100
AcDbEntity
  8
MODEL
100
AcDb2dPolyline
 66
     1
 10
0.0
 20
0.0
 30
0.0
  0
VERTEX
  5
3B2C
330
3B2B
100
AcDbEntity
  8
MODEL
100
AcDbVertex
100
AcDb2dVertex
 10
1775.261451097037
 20
1178.226237714621
 30
0.0
  0
VERTEX
  5
3B2D
330
3B2B
100
AcDbEntity
  8
MODEL
100
AcDbVertex
100
AcDb2dVertex
 10
1737.261838908593
 20
1178.226237714621
 30
0.0
  0
SEQEND
  5
3B2E
330
3B2B
100
AcDbEntity
  8
MODEL
  0
SPLINE
  5
3B41
102
{ACAD_REACTORS
330
3BF4
102
}
330
A
100
AcDbEntity
  8
MODEL
100
AcDbSpline
210
0.0
220
0.0
230
1.0
 70
    11
 71
     3
 72
    29
 73
    25
 74
     0
 42
0.000000001
 43
0.0000000001
 40
0.0
 40
0.0
 40
0.0
 40
0.0
 40
1.0
 40
1.0
 40
1.0
 40
2.0
 40
2.0
 40
2.0
 40
3.0
 40
3.0
 40
3.0
 40
4.0
 40
4.0
 40
4.0
 40
5.0
 40
5.0
 40
5.0
 40
6.0
 40
6.0
 40
6.0
 40
7.0
 40
7.0
 40
7.0
 40
8.0
 40
8.0
 40
8.0
 40
8.0
 10
1775.261451097037
 20
1195.224432323666
 30
0.0
 10
1775.261451097037
 20
1195.224432323666
 30
0.0
 10
1775.261451097037
 20
1178.226237714621
 30
0.0
 10
1775.261451097037
 20
1178.226237714621
 30
0.0
 10
1775.261451097037
 20
1178.226237714621
 30
0.0
 10
1794.26355393421
 20
1178.226237714621
 30
0.0
 10
1794.26355393421
 20
1178.226237714621
 30
0.0
 10
1795.367138924028
 20
1178.226237714621
 30
0.0
 10
1796.262868676431
 20
1177.332804705173
 30
0.0
 10
1796.262868676431
 20
1176.223477857968
 30
0.0
 10
1796.262868676431
 20
1176.223477857968
 30
0.0
 10
1796.262868676431
 20
1173.226228301854
 30
0.0
 10
1796.262868676431
 20
1173.226228301854
 30
0.0
 10
1796.262868676431
 20
1173.226228301854
 30
0.0
 10
1806.260590759014
 20
1173.226228301854
 30
0.0
 10
1806.260590759014
 20
1173.226228301854
 30
0.0
 10
1806.260590759014
 20
1173.226228301854
 30
0.0
 10
1806.260590759014
 20
1187.227173354784
 30
0.0
 10
1806.260590759014
 20
1187.227173354784
 30
0.0
 10
1806.260590759014
 20
1191.646106799968
 30
0.0
 10
1802.681116863836
 20
1195.224432323666
 30
0.0
 10
1798.262183418653
 20
1195.224432323666
 30
0.0
 10
1798.262183418653
 20
1195.224432323666
 30
0.0
 10
1775.261451097037
 20
1195.224432323666
 30
0.0
 10
1775.261451097037
 20
1195.224432323666
 30
0.0
  0
POLYLINE
  5
3B47
330
A
100
AcDbEntity
  8
MODEL
100
AcDb2dPolyline
 66
     1
 10
0.0
 20
0.0
 30
0.0
  0
VERTEX
  5
3B48
330
3B47
100
AcDbEntity
  8
MODEL
100
AcDbVertex
100
AcDb2dVertex
 10
1618.763682894669
 20
840.2237640171884
 30
0.0
  0
VERTEX
  5
3B49
330
3B47
100
AcDbEntity
  8
MODEL
100
AcDbVertex
100
AcDb2dVertex
 10
1573.760153065332
 20
840.2237640171884
 30
0.0
  0
SEQEND
  5
3B4A
330
3B47
100
AcDbEntity
  8
MODEL
  0
SPLINE
  5
3B4B
330
A
100
AcDbEntity
  8
MODEL
100
AcDbSpline
210
0.0
220
0.0
230
1.0
 70
     8
 71
     3
 72
    14
 73
    10
 74
     0
 42
0.000000001
 43
0.0000000001
 40
0.0
 40
0.0
 40
0.0
 40
0.0
 40
1.0
 40
1.0
 40
1.0
 40
2.0
 40
2.0
 40
2.0
 40
3.0
 40
3.0
 40
3.0
 40
3.0
 10
1726.415470304188
 20
1058.366113128455
 30
0.0
 10
1726.415470304188
 20
1058.366113128455
 30
0.0
 10
1729.350707800523
 20
1058.366113128455
 30
0.0
 10
1729.350707800523
 20
1058.366113128455
 30
0.0
 10
1730.592097367635
 20
1058.366113128455
 30
0.0
 10
1731.707166072224
 20
1059.130928532428
 30
0.0
 10
1732.151585833994
 20
1060.293080467596
 30
0.0
 10
1747.189510331051
 20
1099.601836140316
 30
0.0
 10
1762.225138085154
 20
1138.915185298946
 30
0.0
 10
1777.259617467781
 20
1178.226237714621
 30
0.0
  0
POLYLINE
  5
3B58
102
{ACAD_REACTORS
330
3BF4
102
}
330
A
100
AcDbEntity
  8
MODEL
100
AcDb2dPolyline
 66
     1
 10
0.0
 20
0.0
 30
0.0
  0
VERTEX
  5
3B59
330
3B58
100
AcDbEntity
  8
MODEL
100
AcDbVertex
100
AcDb2dVertex
 10
1775.261451097037
 20
1195.224432323666
 30
0.0
  0
VERTEX
  5
3B5A
330
3B58
100
AcDbEntity
  8
MODEL
100
AcDbVertex
100
AcDb2dVertex
 10
1737.261838908593
 20
1195.224432323666
 30
0.0
  0
SEQEND
  5
3B5B
330
3B58
100
AcDbEntity
  8
MODEL
  0
DIMENSION
  5
3B60
330
A
100
AcDbEntity
  8
DIM
100
AcDbDimension
  2
*D33
 10
1048.746034531392
 20
840.2237640171884
 30
0.0
 11
1016.746034531392
 21
1017.72294979895
 31
0.0
 70
    32
  1
355
 71
     5
 42
354.9983715635235
 73
     0
 74
     0
 75
     0
  3
tfrom線あり
100
AcDbAlignedDimension
 13
906.9590816783689
 23
1195.222135580712
 33
0.0
 14
850.1380889999999
 24
840.2237640171884
 34
0.0
 50
89.99999999999999
100
AcDbRotatedDimension
1001
ACAD
1000
DSTYLE
1002
{
1070
   172
1070
     1
1070
   144
1040
1.0
1002
}
  0
DIMENSION
  5
3B63
330
A
100
AcDbEntity
  8
DIM
100
AcDbDimension
  2
*D34
 10
1806.260590759014
 20
719.7884459440593
 30
0.0
 11
1701.260393090898
 21
751.7884459440593
 31
0.0
 70
    32
  1
210
 71
     5
 42
210.0003953362318
 73
     0
 74
     0
 75
     0
 52
-89.99999999999999
  3
tfrom線あり
100
AcDbAlignedDimension
 13
1596.260195422782
 23
835.226051347377
 33
0.0
 14
1806.260590759014
 24
1163.213559791831
 34
0.0
 50
180.0
100
AcDbRotatedDimension
1001
ACAD
1000
DSTYLE
1002
{
1070
   144
1040
1.0
1002
}
  0
DIMENSION
  5
3B6A
330
A
100
AcDbEntity
  8
DIM
 48
0.5
100
AcDbDimension
  2
*D37
 10
1596.260769608524
 20
1195.224432323666
 30
0.0
 11
1596.260769608524
 21
1301.092432323666
 31
0.0
 70
   160
  1
305(深さ)
 71
     5
 42
305.0005741788045
 73
     0
 74
     1
 75
     1
 52
-90.0
  3
tfrom線あり
100
AcDbAlignedDimension
 13
1587.048432704967
 23
890.2238581448614
 33
0.0
 14
1587.048432704967
 24
1195.224432323666
 34
0.0
 50
90.00000000000001
100
AcDbRotatedDimension
1001
ACAD
1000
DSTYLE
1002
{
1070
   172
1070
     1
1070
     3
1000
<>
1070
   144
1040
1.0
1002
}
  0
SPLINE
  5
3BB5
330
A
100
AcDbEntity
  8
MODEL
100
AcDbSpline
210
0.0
220
0.0
230
1.0
 70
     8
 71
     3
 72
     8
 73
     4
 74
     0
 42
0.000000001
 43
0.0000000001
 40
6.0
 40
6.0
 40
6.0
 40
6.0
 40
7.0
 40
7.0
 40
7.0
 40
7.0
 10
1732.169959777634
 20
1176.322237805028
 30
0.0
 10
1727.050519731211
 20
1071.402426140336
 30
0.0
 10
1721.932228056272
 20
966.484911218598
 30
0.0
 10
1716.815084752804
 20
861.5650995539058
 30
0.0
  0
SPLINE
  5
3BB6
330
A
100
AcDbEntity
  8
MODEL
100
AcDbSpline
210
0.0
220
0.0
230
1.0
 70
     8
 71
     3
 72
     8
 73
     4
 74
     0
 42
0.000000001
 43
0.0000000001
 40
7.0
 40
7.0
 40
7.0
 40
7.0
 40
8.0
 40
8.0
 40
8.0
 40
8.0
 10
1716.815084752804
 20
861.5650995539058
 30
0.0
 10
1716.781781979959
 20
860.8439222660741
 30
0.0
 10
1716.527991883444
 20
860.3983541328284
 30
0.0
 10
1715.926245229266
 20
859.9987208586804
 30
0.0
  0
SPLINE
  5
3BB7
330
A
100
AcDbEntity
  8
MODEL
100
AcDbSpline
210
0.0
220
0.0
230
1.0
 70
     8
 71
     3
 72
     8
 73
     4
 74
     0
 42
0.000000001
 43
0.0000000001
 40
8.0
 40
8.0
 40
8.0
 40
8.0
 40
9.0
 40
9.0
 40
9.0
 40
9.0
 10
1715.926245229266
 20
859.9987208586804
 30
0.0
 10
1711.165097083804
 20
856.8246220950391
 30
0.0
 10
1706.402800566868
 20
853.6505233313997
 30
0.0
 10
1701.640504049929
 20
850.4741278248052
 30
0.0
  0
SPLINE
  5
3BB8
330
A
100
AcDbEntity
  8
MODEL
100
AcDbSpline
210
0.0
220
0.0
230
1.0
 70
     8
 71
     3
 72
     8
 73
     4
 74
     0
 42
0.000000001
 43
0.0000000001
 40
9.0
 40
9.0
 40
9.0
 40
9.0
 40
10.0
 40
10.0
 40
10.0
 40
10.0
 10
1701.640504049929
 20
850.4741278248052
 30
0.0
 10
1701.382120467506
 20
850.299575360234
 30
0.0
 10
1701.117995027695
 20
850.200815413175
 30
0.0
 10
1700.812528214696
 20
850.1571772970315
 30
0.0
  0
SPLINE
  5
3BC3
330
A
100
AcDbEntity
  8
HIDDEN
 48
0.5
100
AcDbSpline
210
0.0
220
0.0
230
1.0
 70
     8
 71
     3
 72
     8
 73
     4
 74
     0
 42
0.000000001
 43
0.0000000001
 40
7.0
 40
7.0
 40
7.0
 40
7.0
 40
8.0
 40
8.0
 40
8.0
 40
8.0
 10
1618.763682894669
 20
880.223839319327
 30
0.0
 10
1624.593964885624
 20
883.5564133468529
 30
0.0
 10
1630.428840362491
 20
886.8889873743797
 30
0.0
 10
1636.2614190964
 20
890.2238581448614
 30
0.0
  0
SPLINE
  5
3BC4
330
A
100
AcDbEntity
  8
HIDDEN
 48
0.5
100
AcDbSpline
210
0.0
220
0.0
230
1.0
 70
     8
 71
     3
 72
     8
 73
     4
 74
     0
 42
0.000000001
 43
0.0000000001
 40
8.0
 40
8.0
 40
8.0
 40
8.0
 40
9.0
 40
9.0
 40
9.0
 40
9.0
 10
1636.2614190964
 20
890.2238581448614
 30
0.0
 10
1650.065992626688
 20
893.1292379827814
 30
0.0
 10
1663.87401127141
 20
896.0369145636546
 30
0.0
 10
1677.682029916132
 20
898.9422944015746
 30
0.0
  0
SPLINE
  5
3BC5
330
A
100
AcDbEntity
  8
HIDDEN
 48
0.5
100
AcDbSpline
210
0.0
220
0.0
230
1.0
 70
     8
 71
     3
 72
     8
 73
     4
 74
     0
 42
0.000000001
 43
0.0000000001
 40
9.0
 40
9.0
 40
9.0
 40
9.0
 40
10.0
 40
10.0
 40
10.0
 40
10.0
 10
1677.682029916132
 20
898.9422944015746
 30
0.0
 10
1681.259207068352
 20
899.6933293478191
 30
0.0
 10
1683.869455436571
 20
902.7778551362185
 30
0.0
 10
1684.024485586024
 20
906.431973177429
 30
0.0
  0
SPLINE
  5
3BC6
330
A
100
AcDbEntity
  8
HIDDEN
 48
0.5
100
AcDbSpline
210
0.0
220
0.0
230
1.0
 70
     8
 71
     3
 72
     8
 73
     4
 74
     0
 42
0.000000001
 43
0.0000000001
 40
10.0
 40
10.0
 40
10.0
 40
10.0
 40
11.0
 40
11.0
 40
11.0
 40
11.0
 10
1684.024485586024
 20
906.431973177429
 30
0.0
 10
1687.3696916998
 20
985.3756220224618
 30
0.0
 10
1690.716046185057
 20
1064.319270867496
 30
0.0
 10
1696.261532049607
 20
1195.224432323666
 30
0.0
  0
LINE
  5
3BCA
330
A
100
AcDbEntity
  8
MODEL
100
AcDbLine
 10
1701.244172343779
 20
850.266559680258
 30
0.0
 11
1630.911372377316
 21
840.2214672742335
 31
0.0
  0
LINE
  5
3BCB
330
A
100
AcDbEntity
  8
MODEL
100
AcDbLine
 10
1630.911372377316
 20
840.2214672742335
 30
0.0
 11
1618.763682894669
 21
840.2237640171884
 31
0.0
  0
SPLINE
  5
3BD2
330
A
100
AcDbEntity
  8
MODEL
100
AcDbSpline
210
0.0
220
0.0
230
1.0
 70
     8
 71
     3
 72
    17
 73
    13
 74
     0
 42
0.000000001
 43
0.0000000001
 40
0.0
 40
0.0
 40
0.0
 40
0.0
 40
1.0
 40
1.0
 40
1.0
 40
2.0
 40
2.0
 40
2.0
 40
3.0
 40
3.0
 40
3.0
 40
4.0
 40
4.0
 40
4.0
 40
4.0
 10
1346.262021527377
 20
1187.224876611829
 30
0.0
 10
1346.262021527377
 20
1187.224876611829
 30
0.0
 10
1346.262021527377
 20
1173.226228301854
 30
0.0
 10
1346.262021527377
 20
1173.226228301854
 30
0.0
 10
1346.262021527377
 20
1173.226228301854
 30
0.0
 10
1356.259743609955
 20
1173.226228301854
 30
0.0
 10
1356.259743609955
 20
1173.226228301854
 30
0.0
 10
1356.259743609955
 20
1173.226228301854
 30
0.0
 10
1356.259743609955
 20
1178.226237714621
 30
0.0
 10
1356.259743609955
 20
1178.226237714621
 30
0.0
 10
1356.259743609955
 20
1178.226237714621
 30
0.0
 10
1406.969531310688
 20
1178.226237714621
 30
0.0
 10
1406.969531310688
 20
1178.226237714621
 30
0.0
  0
SPLINE
  5
3BD3
330
A
100
AcDbEntity
  8
MODEL
100
AcDbSpline
210
0.0
220
0.0
230
1.0
 70
     8
 71
     3
 72
    11
 73
     7
 74
     0
 42
0.000000001
 43
0.0000000001
 40
4.0
 40
4.0
 40
4.0
 40
4.0
 40
5.0
 40
5.0
 40
5.0
 40
6.0
 40
6.0
 40
6.0
 40
6.0
 10
1406.969531310688
 20
1178.226237714621
 30
0.0
 10
1411.746756656833
 20
1065.557215320174
 30
0.0
 10
1416.519388517062
 20
952.8881929257263
 30
0.0
 10
1421.292020377301
 20
840.2214672742334
 30
0.0
 10
1421.292020377301
 20
840.2214672742334
 30
0.0
 10
1461.294392422393
 20
840.2214672742334
 30
0.0
 10
1461.294392422393
 20
840.2214672742334
 30
0.0
  0
SPLINE
  5
3BD4
330
A
100
AcDbEntity
  8
MODEL
100
AcDbSpline
210
0.0
220
0.0
230
1.0
 70
     8
 71
     3
 72
     8
 73
     4
 74
     0
 42
0.000000001
 43
0.0000000001
 40
6.0
 40
6.0
 40
6.0
 40
6.0
 40
7.0
 40
7.0
 40
7.0
 40
7.0
 10
1461.294392422393
 20
840.2214672742334
 30
0.0
 10
1464.675198051968
 20
851.4961784397251
 30
0.0
 10
1468.05600368155
 20
862.7685928622609
 30
0.0
 10
1471.439106054082
 20
874.0410072847976
 30
0.0
  0
SPLINE
  5
3BD5
330
A
100
AcDbEntity
  8
MODEL
100
AcDbSpline
210
0.0
220
0.0
230
1.0
 70
     8
 71
     3
 72
     8
 73
     4
 74
     0
 42
0.000000001
 43
0.0000000001
 40
7.0
 40
7.0
 40
7.0
 40
7.0
 40
8.0
 40
8.0
 40
8.0
 40
8.0
 10
1471.439106054082
 20
874.0410072847976
 30
0.0
 10
1472.523168728784
 20
877.6468937239547
 30
0.0
 10
1475.972876647009
 20
880.0125389674781
 30
0.0
 10
1479.72575463528
 20
879.718555869254
 30
0.0
  0
SPLINE
  5
3BD6
330
A
100
AcDbEntity
  8
MODEL
100
AcDbSpline
210
0.0
220
0.0
230
1.0
 70
     8
 71
     3
 72
     8
 73
     4
 74
     0
 42
0.000000001
 43
0.0000000001
 40
8.0
 40
8.0
 40
8.0
 40
8.0
 40
9.0
 40
9.0
 40
9.0
 40
9.0
 10
1479.72575463528
 20
879.718555869254
 30
0.0
 10
1505.793787173136
 20
877.6744546394143
 30
0.0
 10
1531.859522968035
 20
875.6303534095728
 30
0.0
 10
1557.925258762933
 20
873.5839554367772
 30
0.0
  0
SPLINE
  5
3BD8
330
A
100
AcDbEntity
  8
HIDDEN
 48
0.5
100
AcDbSpline
210
0.0
220
0.0
230
1.0
 70
     8
 71
     3
 72
     8
 73
     4
 74
     0
 42
0.000000001
 43
0.0000000001
 40
12.0
 40
12.0
 40
12.0
 40
12.0
 40
13.0
 40
13.0
 40
13.0
 40
13.0
 10
1573.760153065332
 20
880.223839319327
 30
0.0
 10
1567.927574331423
 20
883.5564133468529
 30
0.0
 10
1562.094995597514
 20
886.8889873743797
 30
0.0
 10
1556.262416863602
 20
890.2238581448614
 30
0.0
  0
SPLINE
  5
3BD9
330
A
100
AcDbEntity
  8
HIDDEN
 48
0.5
100
AcDbSpline
210
0.0
220
0.0
230
1.0
 70
     8
 71
     3
 72
     8
 73
     4
 74
     0
 42
0.000000001
 43
0.0000000001
 40
13.0
 40
13.0
 40
13.0
 40
13.0
 40
14.0
 40
14.0
 40
14.0
 40
14.0
 10
1556.262416863602
 20
890.2238581448614
 30
0.0
 10
1516.11535001235
 20
893.372692735998
 30
0.0
 10
1475.972876647009
 20
896.5215273271338
 30
0.0
 10
1435.828106538715
 20
899.6680651753163
 30
0.0
  0
SPLINE
  5
3BDA
330
A
100
AcDbEntity
  8
HIDDEN
 48
0.5
100
AcDbSpline
210
0.0
220
0.0
230
1.0
 70
     8
 71
     3
 72
     8
 73
     4
 74
     0
 42
0.000000001
 43
0.0000000001
 40
14.0
 40
14.0
 40
14.0
 40
14.0
 40
15.0
 40
15.0
 40
15.0
 40
15.0
 10
1435.828106538715
 20
899.6680651753163
 30
0.0
 10
1431.795025909951
 20
899.9827189601342
 30
0.0
 10
1428.632410861088
 20
903.2647646426526
 30
0.0
 10
1428.462451882423
 20
907.3024387573264
 30
0.0
  0
LINE
  5
3BDC
330
A
100
AcDbEntity
  8
HIDDEN
 48
0.5
100
AcDbLine
 10
1618.763682894669
 20
880.223839319327
 30
0.0
 11
1618.763682894669
 21
840.2237640171884
 31
0.0
  0
LINE
  5
3BDD
330
A
100
AcDbEntity
  8
HIDDEN
 48
0.5
100
AcDbLine
 10
1618.763682894669
 20
880.223839319327
 30
0.0
 11
1573.760153065332
 21
880.223839319327
 31
0.0
  0
LINE
  5
3BDE
330
A
100
AcDbEntity
  8
HIDDEN
 48
0.5
100
AcDbLine
 10
1636.2614190964
 20
890.2238581448614
 30
0.0
 11
1556.260120120648
 21
890.2238581448614
 31
0.0
  0
LINE
  5
3BDF
330
A
100
AcDbEntity
  8
HIDDEN
 48
0.5
100
AcDbLine
 10
1680.626454384283
 20
900.2215802274418
 30
0.0
 11
1433.464758038145
 21
900.2215802274418
 31
0.0
  0
LINE
  5
3BE4
330
A
100
AcDbEntity
  8
MODEL
100
AcDbLine
 10
1557.925258762933
 20
873.5839554367772
 30
0.0
 11
1561.408033526738
 21
840.2214672742335
 31
0.0
  0
LINE
  5
3BE5
330
A
100
AcDbEntity
  8
MODEL
100
AcDbLine
 10
1561.408033526738
 20
840.2214672742335
 30
0.0
 11
1573.760153065332
 21
840.2237640171884
 31
0.0
  0
LINE
  5
3BE6
330
A
100
AcDbEntity
  8
HIDDEN
 48
0.5
100
AcDbLine
 10
1573.760153065332
 20
840.2237640171884
 30
0.0
 11
1573.760153065332
 21
880.223839319327
 31
0.0
  0
LINE
  5
3BE7
330
A
100
AcDbEntity
  8
HIDDEN
 48
0.5
100
AcDbLine
 10
1428.462451882423
 20
907.3024387573264
 30
0.0
 11
1416.259856563162
 21
1195.224432323666
 31
0.0
  0
LINE
  5
3BE8
330
A
100
AcDbEntity
  8
MODEL
100
AcDbLine
 10
1416.259856563162
 20
1195.224432323666
 30
0.0
 11
1354.261172465853
 21
1195.222135570714
 31
0.0
  0
ARC
  5
3BE9
330
A
100
AcDbEntity
  8
MODEL
100
AcDbCircle
 10
1356.196265321299
 20
1185.287433751612
 30
0.0
 40
10.12140724374245
100
AcDbArc
 50
101.0221298295812
 51
168.9643168236791
  0
LINE
  5
3BEE
330
A
100
AcDbEntity
  8
MODEL
100
AcDbLine
 10
1737.261838908593
 20
1178.226237714621
 30
0.0
 11
1737.261838908593
 21
1195.224432323666
 31
0.0
  0
LINE
  5
3BEF
330
A
100
AcDbEntity
  8
MODEL
100
AcDbLine
 10
1737.261838908593
 20
1195.224432323666
 30
0.0
 11
1696.261532049607
 21
1195.224432323666
 31
0.0
  0
ARC
  5
3BF0
330
A
100
AcDbEntity
  8
MODEL
100
AcDbCircle
 10
1734.17317560144
 20
1176.223509425855
 30
0.0
 40
2.005647259515165
100
AcDbArc
 50
86.90843835689223
 51
177.1784637615367
  0
LINE
  5
3BF1
330
A
100
AcDbEntity
  8
MODEL
100
AcDbLine
 10
1734.250207937977
 20
1178.227676821241
 30
0.0
 11
1737.261838908593
 21
1178.226237714621
 31
0.0
  0
DIMENSION
  5
3BF2
102
{ACAD_REACTORS
330
3BF4
102
}
102
{ACAD_XDICTIONARY
360
3BF3
102
}
330
A
100
AcDbEntity
  8
DIM
100
AcDbDimension
  2
*D38
 10
1756.261645002815
 20
1287.431561977286
 30
0.0
 11
1781.261117880914
 21
1287.431561977286
 31
0.0
 70
   160
  1
50
 71
     5
 42
49.99894575619896
 73
     0
 74
     0
 75
     0
  3
tfrom線あり
100
AcDbAlignedDimension
 13
1806.260590759014
 23
1185.637376761175
 33
0.0
 14
1756.261645002815
 24
1195.224432323666
 34
0.0
100
AcDbRotatedDimension
1001
ACAD
1000
DSTYLE
1002
{
1070
   144
1040
1.0
1002
}
  0
LINE
  5
3C1D
330
A
100
AcDbEntity
  8
HIDDEN
 48
0.5
100
AcDbLine
 10
632.7331441587701
 20
840.2237640171888
 30
0.0
 11
632.7331441587701
 21
880.2238393193275
 31
0.0
  0
LINE
  5
3C1E
330
A
100
AcDbEntity
  8
HIDDEN
 48
0.5
100
AcDbLine
 10
632.7331441587701
 20
880.2238393193275
 30
0.0
 11
650.2331771034549
 21
890.2238581448619
 31
0.0
  0
LINE
  5
3C1F
330
A
100
AcDbEntity
  8
HIDDEN
 48
0.5
100
AcDbLine
 10
632.7331441587701
 20
880.2238393193275
 30
0.0
 11
610.2313792441016
 21
880.2238393193275
 31
0.0
  0
SPLINE
  5
3C21
330
A
100
AcDbEntity
  8
MODEL
100
AcDbSpline
210
0.0
220
0.0
230
1.0
 70
     8
 71
     3
 72
    17
 73
    13
 74
     0
 42
0.000000001
 43
0.0000000001
 40
0.0
 40
0.0
 40
0.0
 40
0.0
 40
1.0
 40
1.0
 40
1.0
 40
2.0
 40
2.0
 40
2.0
 40
3.0
 40
3.0
 40
3.0
 40
4.0
 40
4.0
 40
4.0
 40
4.0
 10
915.2319534229097
 20
1187.224876611829
 30
0.0
 10
915.2319534229097
 20
1187.224876611829
 30
0.0
 10
915.2319534229097
 20
1173.226228301854
 30
0.0
 10
915.2319534229097
 20
1173.226228301854
 30
0.0
 10
915.2319534229097
 20
1173.226228301854
 30
0.0
 10
905.2342313403311
 20
1173.226228301854
 30
0.0
 10
905.2342313403311
 20
1173.226228301854
 30
0.0
 10
905.2342313403311
 20
1173.226228301854
 30
0.0
 10
905.2342313403311
 20
1178.226237714622
 30
0.0
 10
905.2342313403311
 20
1178.226237714622
 30
0.0
 10
905.2342313403311
 20
1178.226237714622
 30
0.0
 10
854.5244436395984
 20
1178.226237714622
 30
0.0
 10
854.5244436395984
 20
1178.226237714622
 30
0.0
  0
SPLINE
  5
3C22
330
A
100
AcDbEntity
  8
MODEL
100
AcDbSpline
210
0.0
220
0.0
230
1.0
 70
     8
 71
     3
 72
    11
 73
     7
 74
     0
 42
0.000000001
 43
0.0000000001
 40
4.0
 40
4.0
 40
4.0
 40
4.0
 40
5.0
 40
5.0
 40
5.0
 40
5.86247227211097
 40
5.86247227211097
 40
5.86247227211097
 40
5.86247227211097
 10
854.5244436395984
 20
1178.226237714622
 30
0.0
 10
849.747218293454
 20
1065.557215320175
 30
0.0
 10
844.974586433225
 20
952.8881929257268
 30
0.0
 10
845.234118387121
 20
840.2214672742339
 30
0.0
 10
845.2341183871209
 20
840.2214672742339
 30
0.0
 10
659.8407206464565
 20
840.2231757258198
 30
0.0
 10
610.2313792441018
 20
840.2236456447495
 30
0.0
  0
SPLINE
  5
3C28
330
A
100
AcDbEntity
  8
HIDDEN
 48
0.5
100
AcDbSpline
210
0.0
220
0.0
230
1.0
 70
     8
 71
     3
 72
     8
 73
     4
 74
     0
 42
0.000000001
 43
0.0000000001
 40
13.0
 40
13.0
 40
13.0
 40
13.0
 40
14.0
 40
14.0
 40
14.0
 40
14.0
 10
650.2331771034549
 20
890.2238581448619
 30
0.0
 10
780.376968270091
 20
893.3726927359985
 30
0.0
 10
820.5194416354312
 20
896.5215273271342
 30
0.0
 10
820.941596107386
 20
896.7600928057811
 30
0.0
  0
SPLINE
  5
3C29
330
A
100
AcDbEntity
  8
HIDDEN
 48
0.5
100
AcDbSpline
210
0.0
220
0.0
230
1.0
 70
     8
 71
     3
 72
     8
 73
     4
 74
     0
 42
0.000000001
 43
0.0000000001
 40
14.0
 40
14.0
 40
14.0
 40
14.0
 40
15.0
 40
15.0
 40
15.0
 40
15.0
 10
825.6658684115715
 20
899.6680651753168
 30
0.0
 10
829.6989490403354
 20
899.9827189601347
 30
0.0
 10
832.8615640891982
 20
903.2647646426531
 30
0.0
 10
833.031523067864
 20
907.3024387573269
 30
0.0
  0
LINE
  5
3C2B
330
A
100
AcDbEntity
  8
HIDDEN
 48
0.5
100
AcDbLine
 10
833.031523067864
 20
907.3024387573269
 30
0.0
 11
845.2341183871246
 21
1195.224432323666
 31
0.0
  0
LINE
  5
3C2C
330
A
100
AcDbEntity
  8
MODEL
100
AcDbLine
 10
845.2341183871246
 20
1195.224432323666
 30
0.0
 11
907.232802484433
 21
1195.224432323666
 31
0.0
  0
ARC
  5
3C2D
102
{ACAD_REACTORS
330
3E0F
102
}
330
A
100
AcDbEntity
  8
MODEL
100
AcDbCircle
 10
905.2916110857103
 20
1185.284188199502
 30
0.0
 40
10.12801447937642
100
AcDbArc
 50
11.04710017497759
 51
78.95000061501378
  0
MTEXT
  5
3C93
330
A
100
AcDbEntity
  8
DIM
390
1D
100
AcDbMText
 10
1449.410859541842
 20
2534.446124999999
 30
0.0
 40
24.0
 41
0.0
 46
0.0
 71
     1
 72
     1
  1
カウンター切込寸法
  7
ＭＳ ゴシック
 73
     1
 44
0.7828267384257843
  0
POLYLINE
  5
3CA4
330
A
100
AcDbEntity
  8
HIDDEN
 48
0.75
100
AcDb2dPolyline
 66
     1
 10
0.0
 20
0.0
 30
0.0
  0
VERTEX
  5
3CA5
330
3CA4
100
AcDbEntity
  8
HIDDEN
 48
0.75
100
AcDbVertex
100
AcDb2dVertex
 10
1339.57909128654
 20
1990.40226842797
 30
0.0
  0
VERTEX
  5
3CA6
330
3CA4
100
AcDbEntity
  8
HIDDEN
 48
0.75
100
AcDbVertex
100
AcDb2dVertex
 10
1350.616089556201
 20
2001.436969954677
 30
0.0
  0
SEQEND
  5
3CA7
330
3CA4
100
AcDbEntity
  8
HIDDEN
 48
0.75
  0
SPLINE
  5
3CA8
330
A
100
AcDbEntity
  8
HIDDEN
 48
0.75
100
AcDbSpline
210
0.0
220
0.0
230
1.0
 70
    11
 71
     3
 72
    29
 73
    25
 74
     0
 42
0.000000001
 43
0.0000000001
 40
0.0
 40
0.0
 40
0.0
 40
0.0
 40
1.0
 40
1.0
 40
1.0
 40
2.0
 40
2.0
 40
2.0
 40
3.0
 40
3.0
 40
3.0
 40
4.0
 40
4.0
 40
4.0
 40
5.0
 40
5.0
 40
5.0
 40
6.0
 40
6.0
 40
6.0
 40
7.0
 40
7.0
 40
7.0
 40
8.0
 40
8.0
 40
8.0
 40
8.0
 10
1794.739571483728
 20
2252.559399526497
 30
0.0
 10
1794.739571483728
 20
2252.559399526497
 30
0.0
 10
1794.739571483728
 20
2003.558012073505
 30
0.0
 10
1794.739571483728
 20
2003.558012073505
 30
0.0
 10
1794.739571483728
 20
2001.900912031562
 30
0.0
 10
1793.400570341031
 20
2000.557317402959
 30
0.0
 10
1791.742321927612
 20
2000.557317402959
 30
0.0
 10
1791.742321927612
 20
2000.557317402959
 30
0.0
 10
1352.738280046507
 20
2000.557317402959
 30
0.0
 10
1352.738280046507
 20
2000.557317402959
 30
0.0
 10
1351.080031633088
 20
2000.557317402959
 30
0.0
 10
1349.738733747437
 20
2001.900912031562
 30
0.0
 10
1349.738733747437
 20
2003.558012073505
 30
0.0
 10
1349.738733747437
 20
2003.558012073505
 30
0.0
 10
1349.738733747437
 20
2252.559399526497
 30
0.0
 10
1349.738733747437
 20
2252.559399526497
 30
0.0
 10
1349.738733747437
 20
2254.215351196965
 30
0.0
 10
1351.080031633088
 20
2255.55779745409
 30
0.0
 10
1352.738280046507
 20
2255.55779745409
 30
0.0
 10
1352.738280046507
 20
2255.55779745409
 30
0.0
 10
1791.742321927612
 20
2255.55779745409
 30
0.0
 10
1791.742321927612
 20
2255.55779745409
 30
0.0
 10
1793.400570341031
 20
2255.55779745409
 30
0.0
 10
1794.739571483728
 20
2254.215351196965
 30
0.0
 10
1794.739571483728
 20
2252.559399526497
 30
0.0
  0
SPLINE
  5
3CA9
330
A
100
AcDbEntity
  8
HIDDEN
 48
0.75
100
AcDbSpline
210
0.0
220
0.0
230
1.0
 70
    11
 71
     3
 72
    17
 73
    13
 74
     0
 42
0.000000001
 43
0.0000000001
 40
0.0
 40
0.0
 40
0.0
 40
0.0
 40
1.0
 40
1.0
 40
1.0
 40
2.0
 40
2.0
 40
2.0
 40
3.0
 40
3.0
 40
3.0
 40
4.0
 40
4.0
 40
4.0
 40
4.0
 10
1594.739194973035
 20
2168.059929473618
 30
0.0
 10
1594.739194973035
 20
2180.48645723098
 30
0.0
 10
1584.667977115898
 20
2190.55997183107
 30
0.0
 10
1572.24030098706
 20
2190.55997183107
 30
0.0
 10
1559.812624858221
 20
2190.55997183107
 30
0.0
 10
1549.739110258126
 20
2180.48645723098
 30
0.0
 10
1549.739110258126
 20
2168.059929473618
 30
0.0
 10
1549.739110258126
 20
2155.634550087732
 30
0.0
 10
1559.812624858221
 20
2145.56218385912
 30
0.0
 10
1572.24030098706
 20
2145.56218385912
 30
0.0
 10
1584.667977115898
 20
2145.56218385912
 30
0.0
 10
1594.739194973035
 20
2155.634550087732
 30
0.0
 10
1594.739194973035
 20
2168.059929473618
 30
0.0
  0
POLYLINE
  5
3CB2
330
A
100
AcDbEntity
  8
HIDDEN
 48
0.75
100
AcDb2dPolyline
 66
     1
 10
0.0
 20
0.0
 30
0.0
  0
VERTEX
  5
3CB3
330
3CB2
100
AcDbEntity
  8
HIDDEN
 48
0.75
100
AcDbVertex
100
AcDb2dVertex
 10
1339.57909128654
 20
2265.716291543511
 30
0.0
  0
VERTEX
  5
3CB4
330
3CB2
100
AcDbEntity
  8
HIDDEN
 48
0.75
100
AcDbVertex
100
AcDb2dVertex
 10
1350.616089556201
 20
2254.681590016806
 30
0.0
  0
SEQEND
  5
3CB5
330
3CB2
100
AcDbEntity
  8
HIDDEN
 48
0.75
  0
POLYLINE
  5
3CB6
330
A
100
AcDbEntity
  8
HIDDEN
 48
0.75
100
AcDb2dPolyline
 66
     1
 10
0.0
 20
0.0
 30
0.0
  0
VERTEX
  5
3CB7
330
3CB6
100
AcDbEntity
  8
HIDDEN
 48
0.75
100
AcDbVertex
100
AcDb2dVertex
 10
1804.895768830191
 20
2265.716291543511
 30
0.0
  0
VERTEX
  5
3CB8
330
3CB6
100
AcDbEntity
  8
HIDDEN
 48
0.75
100
AcDbVertex
100
AcDb2dVertex
 10
1793.862215674961
 20
2254.681590016806
 30
0.0
  0
SEQEND
  5
3CB9
330
3CB6
100
AcDbEntity
  8
HIDDEN
 48
0.75
  0
SPLINE
  5
3CBA
102
{ACAD_REACTORS
330
3DB8
102
}
330
A
100
AcDbEntity
  8
HIDDEN
 48
0.75
100
AcDbSpline
210
0.0
220
0.0
230
1.0
 70
    11
 71
     3
 72
    29
 73
    25
 74
     0
 42
0.000000001
 43
0.0000000001
 40
0.0
 40
0.0
 40
0.0
 40
0.0
 40
1.0
 40
1.0
 40
1.0
 40
2.0
 40
2.0
 40
2.0
 40
3.0
 40
3.0
 40
3.0
 40
4.0
 40
4.0
 40
4.0
 40
5.0
 40
5.0
 40
5.0
 40
6.0
 40
6.0
 40
6.0
 40
7.0
 40
7.0
 40
7.0
 40
8.0
 40
8.0
 40
8.0
 40
8.0
 10
1267.238578436774
 20
2370.05962072653
 30
0.0
 10
1267.238578436774
 20
2370.05962072653
 30
0.0
 10
1267.238578436774
 20
1926.057866175613
 30
0.0
 10
1267.238578436774
 20
1926.057866175613
 30
0.0
 10
1267.238578436774
 20
1921.638932730428
 30
0.0
 10
1270.818052331955
 20
1918.058310463775
 30
0.0
 10
1275.236985777135
 20
1918.058310463775
 30
0.0
 10
1275.236985777135
 20
1918.058310463775
 30
0.0
 10
1869.239022711072
 20
1918.058310463775
 30
0.0
 10
1869.239022711072
 20
1918.058310463775
 30
0.0
 10
1873.657956156256
 20
1918.058310463775
 30
0.0
 10
1877.23857842291
 20
1921.638932730428
 30
0.0
 10
1877.23857842291
 20
1926.057866175613
 30
0.0
 10
1877.23857842291
 20
1926.057866175613
 30
0.0
 10
1877.23857842291
 20
2370.05962072653
 30
0.0
 10
1877.23857842291
 20
2370.05962072653
 30
0.0
 10
1877.23857842291
 20
2374.478554171712
 30
0.0
 10
1873.657956156256
 20
2378.058028066889
 30
0.0
 10
1869.239022711072
 20
2378.058028066889
 30
0.0
 10
1869.239022711072
 20
2378.058028066889
 30
0.0
 10
1275.236985777135
 20
2378.058028066889
 30
0.0
 10
1275.236985777135
 20
2378.058028066889
 30
0.0
 10
1270.818052331955
 20
2378.058028066889
 30
0.0
 10
1267.238578436774
 20
2374.478554171712
 30
0.0
 10
1267.238578436774
 20
2370.05962072653
 30
0.0
  0
SPLINE
  5
3CBB
330
A
100
AcDbEntity
  8
HIDDEN
 48
0.75
100
AcDbSpline
210
0.0
220
0.0
230
1.0
 70
    11
 71
     3
 72
    17
 73
    13
 74
     0
 42
0.000000001
 43
0.0000000001
 40
0.0
 40
0.0
 40
0.0
 40
0.0
 40
1.0
 40
1.0
 40
1.0
 40
2.0
 40
2.0
 40
2.0
 40
3.0
 40
3.0
 40
3.0
 40
4.0
 40
4.0
 40
4.0
 40
4.0
 10
1591.238958709802
 20
2328.061379053648
 30
0.0
 10
1591.238958709802
 20
2338.552900871526
 30
0.0
 10
1582.731822804939
 20
2347.060036776391
 30
0.0
 10
1572.238004244102
 20
2347.060036776391
 30
0.0
 10
1561.744185683272
 20
2347.060036776391
 30
0.0
 10
1553.239346521363
 20
2338.552900871526
 30
0.0
 10
1553.239346521363
 20
2328.061379053648
 30
0.0
 10
1553.239346521363
 20
2317.567560492815
 30
0.0
 10
1561.744185683272
 20
2309.058127844997
 30
0.0
 10
1572.238004244102
 20
2309.058127844997
 30
0.0
 10
1582.731822804939
 20
2309.058127844997
 30
0.0
 10
1591.238958709802
 20
2317.567560492815
 30
0.0
 10
1591.238958709802
 20
2328.061379053648
 30
0.0
  0
POLYLINE
  5
3CBC
330
A
100
AcDbEntity
  8
HIDDEN
 48
0.75
100
AcDb2dPolyline
 66
     1
 10
0.0
 20
0.0
 30
0.0
  0
VERTEX
  5
3CBD
330
3CBC
100
AcDbEntity
  8
HIDDEN
 48
0.75
100
AcDbVertex
100
AcDb2dVertex
 10
1804.895768830191
 20
1990.40226842797
 30
0.0
  0
VERTEX
  5
3CBE
330
3CBC
100
AcDbEntity
  8
HIDDEN
 48
0.75
100
AcDbVertex
100
AcDb2dVertex
 10
1793.862215674961
 20
2001.436969954677
 30
0.0
  0
SEQEND
  5
3CBF
330
3CBC
100
AcDbEntity
  8
HIDDEN
 48
0.75
  0
SPLINE
  5
3CC0
330
A
100
AcDbEntity
  8
HIDDEN
 48
0.75
100
AcDbSpline
210
0.0
220
0.0
230
1.0
 70
    11
 71
     3
 72
    29
 73
    25
 74
     0
 42
0.000000001
 43
0.0000000001
 40
0.0
 40
0.0
 40
0.0
 40
0.0
 40
1.0
 40
1.0
 40
1.0
 40
2.0
 40
2.0
 40
2.0
 40
3.0
 40
3.0
 40
3.0
 40
4.0
 40
4.0
 40
4.0
 40
5.0
 40
5.0
 40
5.0
 40
6.0
 40
6.0
 40
6.0
 40
7.0
 40
7.0
 40
7.0
 40
8.0
 40
8.0
 40
8.0
 40
8.0
 10
1799.241187675287
 20
2268.058969357486
 30
0.0
 10
1799.241187675287
 20
2268.058969357486
 30
0.0
 10
1345.238265927355
 20
2268.058969357486
 30
0.0
 10
1345.238265927355
 20
2268.058969357486
 30
0.0
 10
1340.820480853648
 20
2268.058969357486
 30
0.0
 10
1337.238710215521
 20
2264.47949546231
 30
0.0
 10
1337.238710215521
 20
2260.059413645649
 30
0.0
 10
1337.238710215521
 20
2260.059413645649
 30
0.0
 10
1337.238710215521
 20
1996.057997954354
 30
0.0
 10
1337.238710215521
 20
1996.057997954354
 30
0.0
 10
1337.238710215521
 20
1991.641361252126
 30
0.0
 10
1340.820480853648
 20
1988.057293871039
 30
0.0
 10
1345.238265927355
 20
1988.057293871039
 30
0.0
 10
1345.238265927355
 20
1988.057293871039
 30
0.0
 10
1799.241187675287
 20
1988.057293871039
 30
0.0
 10
1799.241187675287
 20
1988.057293871039
 30
0.0
 10
1803.657824377513
 20
1988.057293871039
 30
0.0
 10
1807.240743387121
 20
1991.641361252126
 30
0.0
 10
1807.240743387121
 20
1996.057997954354
 30
0.0
 10
1807.240743387121
 20
1996.057997954354
 30
0.0
 10
1807.240743387121
 20
2260.059413645649
 30
0.0
 10
1807.240743387121
 20
2260.059413645649
 30
0.0
 10
1807.240743387121
 20
2264.47949546231
 30
0.0
 10
1803.657824377513
 20
2268.058969357486
 30
0.0
 10
1799.241187675287
 20
2268.058969357486
 30
0.0
  0
MTEXT
  5
3D40
330
A
100
AcDbEntity
  8
DIM
390
1D
100
AcDbMText
 10
1212.838403941841
 20
1773.805645799999
 30
0.0
 40
24.0
 41
949.7161250932049
 46
111.8331968503937
 71
     1
 72
     1
  1
{※陶器製品には寸法公差があります。\P  必ず現物を合わせてカウンターに\P  切込を行ってください。}
  7
ＭＳ ゴシック
 73
     1
 44
0.9822934569727008
1001
ACAD
1000
ACAD_MTEXT_DEFINED_HEIGHT_BEGIN
1070
    46
1040
111.8331968503937
1000
ACAD_MTEXT_DEFINED_HEIGHT_END
  0
DIMENSION
  5
3D6C
102
{ACAD_REACTORS
330
3D6E
102
}
102
{ACAD_XDICTIONARY
360
3D6D
102
}
330
A
100
AcDbEntity
  8
DIM
100
AcDbDimension
  2
*D44
 10
304.52179503831
 20
1096.844746621797
 30
0.0
 11
250.20579503831
 21
1096.844746621797
 31
0.0
 70
   160
 71
     5
 42
30.0
 73
     0
 74
     1
 75
     1
  3
tfrom線あり
100
AcDbAlignedDimension
 13
334.52179503831
 23
1172.084814741719
 33
0.0
 14
304.52179503831
 24
1172.084814741719
 34
0.0
100
AcDbRotatedDimension
1001
ACAD
1000
DSTYLE
1002
{
1070
   172
1070
     1
1070
   144
1040
1.0
1002
}
  0
LINE
  5
3DB0
102
{ACAD_REACTORS
330
3DB4
330
3DD8
330
3DE8
102
}
330
A
100
AcDbEntity
  8
MODEL
100
AcDbLine
 10
1289.738578429842
 20
1948.058028066889
 30
0.0
 11
1854.738578429842
 21
1948.058028066889
 31
0.0
  0
LINE
  5
3DB1
102
{ACAD_REACTORS
330
3DB4
330
3DE8
102
}
330
A
100
AcDbEntity
  8
MODEL
100
AcDbLine
 10
1854.738578429842
 20
1948.058028066889
 30
0.0
 11
1854.738578429842
 21
2358.058028066889
 31
0.0
  0
LINE
  5
3DB2
102
{ACAD_REACTORS
330
3DB4
330
3DE8
102
}
330
A
100
AcDbEntity
  8
MODEL
100
AcDbLine
 10
1854.738578429842
 20
2358.058028066889
 30
0.0
 11
1289.738578429842
 21
2358.058028066889
 31
0.0
  0
LINE
  5
3DB3
102
{ACAD_REACTORS
330
3DB4
330
3DC9
330
3DE8
102
}
330
A
100
AcDbEntity
  8
MODEL
100
AcDbLine
 10
1289.738578429842
 20
2358.058028066889
 30
0.0
 11
1289.738578429842
 21
1948.058028066889
 31
0.0
  0
DIMENSION
  5
3DB6
102
{ACAD_REACTORS
330
3DB8
102
}
102
{ACAD_XDICTIONARY
360
3DB7
102
}
330
A
100
AcDbEntity
  8
DIM
100
AcDbDimension
  2
*D46
 10
1217.711234157317
 20
2358.058028066889
 30
0.0
 11
1217.711234157317
 21
2432.314028066889
 31
0.0
 70
   160
 71
     5
 42
20.0
 73
     0
 74
     1
 75
     1
  3
tfrom線あり
100
AcDbAlignedDimension
 13
1293.921508461349
 23
2378.058028066889
 33
0.0
 14
1289.738578429842
 24
2358.058028066889
 34
0.0
 50
90.0
100
AcDbRotatedDimension
1001
ACAD
1000
DSTYLE
1002
{
1070
   172
1070
     1
1070
   144
1040
1.0
1002
}
  0
DIMENSION
  5
3DC7
102
{ACAD_REACTORS
330
3DC9
102
}
102
{ACAD_XDICTIONARY
360
3DC8
102
}
330
A
100
AcDbEntity
  8
DIM
100
AcDbDimension
  2
*D47
 10
1217.711234157317
 20
1948.058028066889
 30
0.0
 11
1185.711234157317
 21
2153.058028066889
 31
0.0
 70
    32
 71
     5
 42
410.0000000000002
 73
     0
 74
     0
 75
     0
  3
tfrom線あり
100
AcDbAlignedDimension
 13
1289.738578429842
 23
2358.058028066889
 33
0.0
 14
1289.738578429842
 24
1948.058028066889
 34
0.0
 50
90.0
100
AcDbRotatedDimension
1001
ACAD
1000
DSTYLE
1002
{
1070
   144
1040
1.0
1002
}
  0
DIMENSION
  5
3DD6
102
{ACAD_REACTORS
330
3DD8
102
}
102
{ACAD_XDICTIONARY
360
3DD7
102
}
330
A
100
AcDbEntity
  8
DIM
100
AcDbDimension
  2
*D48
 10
1854.738578429842
 20
1821.461041177663
 30
0.0
 11
1572.238578429842
 21
1853.461041177663
 31
0.0
 70
    32
 71
     5
 42
565.0
 73
     0
 74
     0
 75
     0
  3
tfrom線あり
100
AcDbAlignedDimension
 13
1289.738578429842
 23
1948.058028066889
 33
0.0
 14
1854.738578429842
 24
1948.058028066889
 34
0.0
100
AcDbRotatedDimension
1001
ACAD
1000
DSTYLE
1002
{
1070
   144
1040
1.0
1002
}
  0
HATCH
  5
3DE8
330
A
100
AcDbEntity
  8
DIM
100
AcDbHatch
 10
0.0
 20
0.0
 30
0.0
210
0.0
220
0.0
230
1.0
  2
ANSI31
 70
     0
 71
     1
 91
        1
 92
        1
 93
        4
 72
     1
 10
1289.738578429842
 20
1948.058028066889
 11
1854.738578429842
 21
1948.058028066889
 72
     1
 10
1854.738578429842
 20
1948.058028066889
 11
1854.738578429842
 21
2358.058028066889
 72
     1
 10
1854.738578429842
 20
2358.058028066889
 11
1289.738578429842
 21
2358.058028066889
 72
     1
 10
1289.738578429842
 20
2358.058028066889
 11
1289.738578429842
 21
1948.058028066889
 97
        4
330
3DB0
330
3DB1
330
3DB2
330
3DB3
 75
     0
 76
     1
 52
0.0
 41
8.0
 77
     0
 78
     1
 53
45.0
 43
0.0
 44
0.0
 45
-17.9605122421383
 46
17.96051224213831
 79
     0
 98
        1
 10
0.0
 20
0.0
1001
ACAD
1010
0.0
1020
0.0
1030
0.0
  0
DIMENSION
  5
3E0D
102
{ACAD_REACTORS
330
3E0F
102
}
102
{ACAD_XDICTIONARY
360
3E0E
102
}
330
A
100
AcDbEntity
  8
DIM
100
AcDbDimension
  2
*D49
 10
972.400395619392
 20
1195.224432323666
 30
0.0
 11
972.400395619392
 21
1249.480432323666
 31
0.0
 70
   160
  1
20
 71
     5
 42
21.9982040218124
 73
     0
 74
     1
 75
     1
  3
tfrom線あり
100
AcDbAlignedDimension
 13
915.2319534229097
 23
1173.226228301854
 33
0.0
 14
907.2328024844331
 24
1195.224432323666
 34
0.0
 50
90.0
100
AcDbRotatedDimension
1001
ACAD
1000
DSTYLE
1002
{
1070
   172
1070
     1
1070
   144
1040
1.0
1002
}
  0
DIMENSION
  5
3E1E
330
A
100
AcDbEntity
  8
DIM
100
AcDbDimension
  2
*D50
 10
915.2313792441014
 20
719.7884459440593
 30
0.0
 11
762.7313792441014
 21
751.7884459440593
 31
0.0
 70
    32
 71
     5
 42
305.0
 73
     0
 74
     0
 75
     0
  3
tfrom線あり
100
AcDbAlignedDimension
 13
610.2313792441014
 23
840.2236456447495
 33
0.0
 14
915.2313792441014
 24
1167.36826940772
 34
0.0
100
AcDbRotatedDimension
1001
ACAD
1000
DSTYLE
1002
{
1070
   144
1040
1.0
1002
}
  0
POLYLINE
  5
3E31
330
A
100
AcDbEntity
  8
MODEL
100
AcDb2dPolyline
 66
     1
 10
0.0
 20
0.0
 30
0.0
  0
VERTEX
  5
3E32
330
3E31
100
AcDbEntity
  8
MODEL
100
AcDbVertex
100
AcDb2dVertex
 10
350.9405833532545
 20
1178.226237714622
 30
0.0
  0
VERTEX
  5
3E33
330
3E31
100
AcDbEntity
  8
MODEL
100
AcDbVertex
100
AcDb2dVertex
 10
369.5419045448033
 20
1093.221484211668
 30
0.0
  0
SEQEND
  5
3E34
330
3E31
100
AcDbEntity
  8
MODEL
  0
POLYLINE
  5
3E35
330
A
100
AcDbEntity
  8
HIDDEN
 48
0.5
100
AcDb2dPolyline
 66
     1
 10
0.0
 20
0.0
 30
0.0
  0
VERTEX
  5
3E36
330
3E35
100
AcDbEntity
  8
HIDDEN
 48
0.5
100
AcDbVertex
100
AcDb2dVertex
 10
610.2313792441016
 20
890.2238581448619
 30
0.0
  0
VERTEX
  5
3E37
330
3E35
100
AcDbEntity
  8
HIDDEN
 48
0.5
100
AcDbVertex
100
AcDb2dVertex
 10
570.2295813847484
 20
890.2238581448619
 30
0.0
  0
SEQEND
  5
3E38
330
3E35
100
AcDbEntity
  8
HIDDEN
 48
0.5
  0
POLYLINE
  5
3E39
330
A
100
AcDbEntity
  8
HIDDEN
 48
0.5
100
AcDb2dPolyline
 66
     1
 10
0.0
 20
0.0
 30
0.0
  0
VERTEX
  5
3E3A
330
3E39
100
AcDbEntity
  8
HIDDEN
 48
0.5
100
AcDbVertex
100
AcDb2dVertex
 10
610.2313792441016
 20
900.2215802274422
 30
0.0
  0
VERTEX
  5
3E3B
330
3E39
100
AcDbEntity
  8
HIDDEN
 48
0.5
100
AcDbVertex
100
AcDb2dVertex
 10
397.5840191885766
 20
900.2215802274422
 30
0.0
  0
SEQEND
  5
3E3C
330
3E39
100
AcDbEntity
  8
HIDDEN
 48
0.5
  0
LINE
  5
3E3D
330
A
100
AcDbEntity
  8
HIDDEN
 48
0.5
100
AcDbLine
 10
587.7296143294332
 20
840.2237640171888
 30
0.0
 11
587.7296143294332
 21
880.2238393193275
 31
0.0
  0
LINE
  5
3E3E
330
A
100
AcDbEntity
  8
HIDDEN
 48
0.5
100
AcDbLine
 10
587.7296143294332
 20
880.2238393193275
 30
0.0
 11
570.2295813847484
 21
890.2238581448619
 31
0.0
  0
LINE
  5
3E3F
330
A
100
AcDbEntity
  8
HIDDEN
 48
0.5
100
AcDbLine
 10
587.7296143294332
 20
880.2238393193275
 30
0.0
 11
610.2313792441016
 21
880.2238393193275
 31
0.0
  0
SPLINE
  5
3E40
330
A
100
AcDbEntity
  8
MODEL
100
AcDbSpline
210
0.0
220
0.0
230
1.0
 70
     8
 71
     3
 72
    17
 73
    13
 74
     0
 42
0.000000001
 43
0.0000000001
 40
0.0
 40
0.0
 40
0.0
 40
0.0
 40
1.0
 40
1.0
 40
1.0
 40
2.0
 40
2.0
 40
2.0
 40
3.0
 40
3.0
 40
3.0
 40
4.0
 40
4.0
 40
4.0
 40
4.0
 10
305.2308050652936
 20
1187.224876611829
 30
0.0
 10
305.2308050652936
 20
1187.224876611829
 30
0.0
 10
305.2308050652936
 20
1173.226228301854
 30
0.0
 10
305.2308050652936
 20
1173.226228301854
 30
0.0
 10
305.2308050652936
 20
1173.226228301854
 30
0.0
 10
315.2285271478721
 20
1173.226228301854
 30
0.0
 10
315.2285271478721
 20
1173.226228301854
 30
0.0
 10
315.2285271478721
 20
1173.226228301854
 30
0.0
 10
315.2285271478721
 20
1178.226237714622
 30
0.0
 10
315.2285271478721
 20
1178.226237714622
 30
0.0
 10
315.2285271478721
 20
1178.226237714622
 30
0.0
 10
365.9383148486048
 20
1178.226237714622
 30
0.0
 10
365.9383148486048
 20
1178.226237714622
 30
0.0
  0
SPLINE
  5
3E41
330
A
100
AcDbEntity
  8
HIDDEN
 48
0.5
100
AcDbSpline
210
0.0
220
0.0
230
1.0
 70
     8
 71
     3
 72
     8
 73
     4
 74
     0
 42
0.000000001
 43
0.0000000001
 40
13.0
 40
13.0
 40
13.0
 40
13.0
 40
14.0
 40
14.0
 40
14.0
 40
14.0
 10
570.2295813847484
 20
890.2238581448619
 30
0.0
 10
440.0857902181123
 20
893.3726927359985
 30
0.0
 10
399.943316852772
 20
896.5215273271342
 30
0.0
 10
399.5211623808173
 20
896.7600928057811
 30
0.0
  0
SPLINE
  5
3E42
330
A
100
AcDbEntity
  8
HIDDEN
 48
0.5
100
AcDbSpline
210
0.0
220
0.0
230
1.0
 70
     8
 71
     3
 72
     8
 73
     4
 74
     0
 42
0.000000001
 43
0.0000000001
 40
14.0
 40
14.0
 40
14.0
 40
14.0
 40
15.0
 40
15.0
 40
15.0
 40
15.0
 10
394.7968900766317
 20
899.6680651753168
 30
0.0
 10
390.7638094478679
 20
899.9827189601347
 30
0.0
 10
387.6011943990051
 20
903.2647646426531
 30
0.0
 10
387.4312354203392
 20
907.3024387573269
 30
0.0
  0
LINE
  5
3E43
330
A
100
AcDbEntity
  8
HIDDEN
 48
0.5
100
AcDbLine
 10
387.4312354203392
 20
907.3024387573269
 30
0.0
 11
375.2286401010787
 21
1195.224432323666
 31
0.0
  0
LINE
  5
3E44
330
A
100
AcDbEntity
  8
MODEL
100
AcDbLine
 10
375.2286401010787
 20
1195.224432323666
 30
0.0
 11
313.2299560037702
 21
1195.224432323666
 31
0.0
  0
ARC
  5
3E45
102
{ACAD_REACTORS
330
3E0F
102
}
330
A
100
AcDbEntity
  8
MODEL
100
AcDbCircle
 10
315.1711474024929
 20
1185.284188199502
 30
0.0
 40
10.12801447937642
100
AcDbArc
 50
101.0499993849862
 51
168.9528998250224
  0
POLYLINE
  5
3E46
330
A
100
AcDbEntity
  8
MODEL
100
AcDb2dPolyline
 66
     1
 10
0.0
 20
0.0
 30
0.0
  0
VERTEX
  5
3E47
330
3E46
100
AcDbEntity
  8
MODEL
100
AcDbVertex
100
AcDb2dVertex
 10
610.2313792441016
 20
1195.224432323666
 30
0.0
  0
VERTEX
  5
3E48
330
3E46
100
AcDbEntity
  8
MODEL
100
AcDbVertex
100
AcDb2dVertex
 10
375.2286401010787
 20
1195.224432323666
 30
0.0
  0
SEQEND
  5
3E49
330
3E46
100
AcDbEntity
  8
MODEL
  0
SPLINE
  5
3E4A
102
{ACAD_REACTORS
330
3E4F
102
}
330
A
100
AcDbEntity
  8
MODEL
100
AcDbSpline
210
0.0
220
0.0
230
1.0
 70
     8
 71
     3
 72
    11
 73
     7
 74
     0
 42
0.000000001
 43
0.0000000001
 40
4.0
 40
4.0
 40
4.0
 40
4.0
 40
5.0
 40
5.0
 40
5.0
 40
5.86247227211097
 40
5.86247227211097
 40
5.86247227211097
 40
5.86247227211097
 10
365.9383148486048
 20
1178.226237714622
 30
0.0
 10
370.7155401947492
 20
1065.557215320175
 30
0.0
 10
375.4881720549782
 20
952.8881929257268
 30
0.0
 10
375.2320852155204
 20
840.2214672742339
 30
0.0
 10
375.2320852155206
 20
840.2214672742339
 30
0.0
 10
560.6220378417468
 20
840.2231757258198
 30
0.0
 10
610.2313792441014
 20
840.2236456447495
 30
0.0
  0
DIMENSION
  5
3E4D
102
{ACAD_REACTORS
330
3E4F
102
}
102
{ACAD_XDICTIONARY
360
3E4E
102
}
330
A
100
AcDbEntity
  8
DIM
100
AcDbDimension
  2
*D51
 10
845.2320852091311
 20
622.0862200240595
 30
0.0
 11
610.2320852123262
 21
654.0862200240595
 31
0.0
 70
    32
 71
     5
 42
469.9999999936098
 73
     0
 74
     0
 75
     0
  3
tfrom線あり
100
AcDbAlignedDimension
 13
375.2320852155214
 23
840.2214672742339
 33
0.0
 14
845.2320852091311
 24
840.223918164699
 34
0.0
100
AcDbRotatedDimension
1001
ACAD
1000
DSTYLE
1002
{
1070
   144
1040
1.0
1002
}
  0
DIMENSION
  5
3E6B
102
{ACAD_XDICTIONARY
360
3E6C
102
}
330
A
100
AcDbEntity
  8
DIM
100
AcDbDimension
  2
*D52
 10
1346.63539503831
 20
1096.844746621797
 30
0.0
 11
1292.319395038309
 21
1096.844746621797
 31
0.0
 70
   160
 71
     5
 42
30.0
 73
     0
 74
     1
 75
     1
  3
tfrom線あり
100
AcDbAlignedDimension
 13
1376.63539503831
 23
1172.084814741719
 33
0.0
 14
1346.63539503831
 24
1172.084814741719
 34
0.0
100
AcDbRotatedDimension
1001
ACAD
1000
DSTYLE
1002
{
1070
   172
1070
     1
1070
   144
1040
1.0
1002
}
  0
DIMENSION
  5
3E7C
102
{ACAD_XDICTIONARY
360
3E7D
102
}
330
A
100
AcDbEntity
  8
DIM
100
AcDbDimension
  2
*D53
 10
1776.260590759014
 20
1099.062560359269
 30
0.0
 11
1860.576590759014
 21
1099.062560359269
 31
0.0
 70
   160
  1
35
 71
     5
 42
30.0
 73
     0
 74
     1
 75
     1
  3
tfrom線あり
100
AcDbAlignedDimension
 13
1806.260590759014
 23
1174.302628479191
 33
0.0
 14
1776.260590759014
 24
1174.302628479191
 34
0.0
100
AcDbRotatedDimension
1001
ACAD
1000
DSTYLE
1002
{
1070
   172
1070
     1
1070
   144
1040
1.0
1002
}
  0
DIMENSION
  5
3E93
330
A
100
AcDbEntity
  8
DIM
100
AcDbDimension
  2
*D54
 10
1717.071637801595
 20
622.0862200240595
 30
0.0
 11
1569.181829089448
 21
654.0862200240595
 31
0.0
 70
    32
  1
305
 71
     5
 42
295.7796174242944
 73
     0
 74
     0
 75
     0
  3
tfrom線あり
100
AcDbAlignedDimension
 13
1421.292020377301
 23
840.2214672742334
 33
0.0
 14
1717.071637801595
 24
850.6364535458385
 34
0.0
100
AcDbRotatedDimension
1001
ACAD
1000
DSTYLE
1002
{
1070
   144
1040
1.0
1002
}
  0
CIRCLE
  5
4184
330
A
100
AcDbEntity
  8
HIDDEN
 48
0.35
100
AcDbCircle
 10
610.2313792441018
 20
1155.424929684021
 30
0.0
 40
12.16255504424225
  0
ELLIPSE
  5
4188
330
A
100
AcDbEntity
  8
HIDDEN
 48
0.25
100
AcDbEllipse
 10
610.2313792441016
 20
2265.072023795011
 30
0.0
 11
-12.16255504424203
 21
0.0
 31
0.0
210
0.0
220
0.0
230
1.0
 40
0.0664350420757763
 41
0.0
 42
6.283185307179586
  0
VIEWPORT
  5
349
330
B
100
AcDbEntity
 67
     1
  8
0
100
AcDbViewport
 10
202.5
 20
128.5
 30
0.0
 40
486.0
 41
308.4
 68
     1
 69
     1
 12
202.5
 22
128.5
 13
0.0
 23
0.0
 14
0.5
 24
0.5
 15
0.0
 25
0.0
 16
0.0
 26
0.0
 36
1.0
 17
0.0
 27
0.0
 37
0.0
 42
50.0
 43
0.0
 44
0.0
 45
308.4
 50
0.0
 51
0.0
 72
   100
 90
   557152
  1

281
     0
 71
     1
 74
     0
110
0.0
120
0.0
130
0.0
111
1.0
121
0.0
131
0.0
112
0.0
122
1.0
132
0.0
 79
     0
146
0.0
170
     0
 61
     5
348
26C
292
     1
282
     1
141
0.0
142
0.0
 63
   256
  0
VIEWPORT
  5
34A
330
B
100
AcDbEntity
 67
     1
  8
0
100
AcDbViewport
 10
202.5
 20
128.5
 30
0.0
 40
324.0
 41
205.6
 68
     2
 69
     2
 12
986.6781359294573
 22
1427.077061889956
 13
0.0
 23
0.0
 14
0.5
 24
0.5
 15
0.0
 25
0.0
 16
0.0
 26
0.0
 36
1.0
 17
0.0
 27
0.0
 37
0.0
 42
50.0
 43
0.0
 44
0.0
 45
2890.021615685494
 50
0.0
 51
0.0
 72
   100
 90
   557152
  1

281
     0
 71
     1
 74
     0
110
0.0
120
0.0
130
0.0
111
1.0
121
0.0
131
0.0
112
0.0
122
1.0
132
0.0
 79
     0
146
0.0
170
     0
 61
     5
348
26C
292
     1
282
     1
141
0.0
142
0.0
 63
   256
  0
ENDSEC
  0
SECTION
  2
OBJECTS
  0
DICTIONARY
  5
19
330
0
100
AcDbDictionary
281
     1
  3
ACAD_COLOR
350
674
  3
ACAD_DETAILVIEWSTYLE
350
BBF
  3
ACAD_FIELDLIST
350
146A
  3
ACAD_GROUP
350
1A
  3
ACAD_IMAGE_VARS
350
27B
  3
ACAD_LAYOUT
350
1E
  3
ACAD_MATERIAL
350
263
  3
ACAD_MLEADERSTYLE
350
336
  3
ACAD_MLINESTYLE
350
1B
  3
ACAD_PLOTSETTINGS
350
22
  3
ACAD_PLOTSTYLENAME
350
1F
  3
ACAD_SCALELIST
350
241
  3
ACAD_SECTIONVIEWSTYLE
350
BC0
  3
ACAD_TABLESTYLE
350
278
  3
ACAD_VISUALSTYLE
350
267
  3
ACDB_RECOMPOSE_DATA
350
41DD
  3
AcDbVariableDictionary
350
330
  3
APPDATA
350
27A
  3
CENTERLINE
350
3DA8
  3
DimOffsetDictionary
350
E3E
  0
SUN
  5
904
330
15
100
AcDbSun
 90
        1
290
     0
 63
     7
421
 16777215
 40
1.0
291
     1
 91
  2455826
 92
 54000000
292
     0
 70
     2
 71
   256
280
     1
  0
DICTIONARY
  5
2E1
330
2
100
AcDbDictionary
280
     1
281
     1
  3
ACAD_LAYERSTATES
360
2E2
  3
ACLYDICTIONARY
360
DF9
  0
DICTIONARY
  5
3DE6
330
A
100
AcDbDictionary
280
     1
281
     1
  3
ACAD_SORTENTS
360
3DE7
  0
DICTIONARY
  5
1468
330
1466
100
AcDbDictionary
280
     1
281
     1
  3
ACAD_FIELD
360
41D0
  0
DICTIONARY
  5
39FC
330
39FB
100
AcDbDictionary
280
     1
281
     1
  3
ACAD_DIMASSOC
360
39FD
  0
DICTIONARY
  5
3B02
330
3B01
100
AcDbDictionary
280
     1
281
     1
  3
ACAD_DIMASSOC
360
3B03
  0
DICTIONARY
  5
3B11
330
3B10
100
AcDbDictionary
280
     1
281
     1
  3
ACAD_DIMASSOC
360
3B12
  0
DICTIONARY
  5
3BF3
330
3BF2
100
AcDbDictionary
280
     1
281
     1
  3
ACAD_DIMASSOC
360
3BF4
  0
DICTIONARY
  5
3D6D
330
3D6C
100
AcDbDictionary
280
     1
281
     1
  3
ACAD_DIMASSOC
360
3D6E
  0
DICTIONARY
  5
3DB7
330
3DB6
100
AcDbDictionary
280
     1
281
     1
  3
ACAD_DIMASSOC
360
3DB8
  0
DICTIONARY
  5
3DC8
330
3DC7
100
AcDbDictionary
280
     1
281
     1
  3
ACAD_DIMASSOC
360
3DC9
  0
DICTIONARY
  5
3DD7
330
3DD6
100
AcDbDictionary
280
     1
281
     1
  3
ACAD_DIMASSOC
360
3DD8
  0
DICTIONARY
  5
3E0E
330
3E0D
100
AcDbDictionary
280
     1
281
     1
  3
ACAD_DIMASSOC
360
3E0F
  0
DICTIONARY
  5
3E4E
330
3E4D
100
AcDbDictionary
280
     1
281
     1
  3
ACAD_DIMASSOC
360
3E4F
  0
DICTIONARY
  5
3E6C
330
3E6B
100
AcDbDictionary
280
     1
281
     1
  3
ACAD_DIMASSOC
360
3E6D
  0
DICTIONARY
  5
3E7D
330
3E7C
100
AcDbDictionary
280
     1
281
     1
  3
ACAD_DIMASSOC
360
3E7E
  0
DICTIONARY
  5
674
102
{ACAD_REACTORS
330
19
102
}
330
19
100
AcDbDictionary
281
     1
  0
DICTIONARY
  5
BBF
102
{ACAD_REACTORS
330
19
102
}
330
19
100
AcDbDictionary
281
     1
  0
FIELDLIST
  5
146A
102
{ACAD_REACTORS
330
19
102
}
330
19
100
AcDbIdSet
 90
        2
330
146B
330
1467
100
AcDbFieldList
  0
DICTIONARY
  5
1A
102
{ACAD_REACTORS
330
19
102
}
330
19
100
AcDbDictionary
281
     1
  3
*A1
350
3DB4
  0
RASTERVARIABLES
  5
27B
102
{ACAD_REACTORS
330
19
102
}
330
19
100
AcDbRasterVariables
 90
        0
 70
     1
 71
     1
 72
     1
  0
DICTIONARY
  5
1E
102
{ACAD_REACTORS
330
19
102
}
330
19
100
AcDbDictionary
281
     1
  3
Layout1
350
21
  3
Model
350
20
  0
DICTIONARY
  5
263
102
{ACAD_REACTORS
330
19
102
}
330
19
100
AcDbDictionary
281
     1
  3
ByBlock
350
265
  3
ByLayer
350
264
  3
Global
350
266
  0
DICTIONARY
  5
336
102
{ACAD_REACTORS
330
19
102
}
330
19
100
AcDbDictionary
281
     1
  3
Standard
350
DAB
  0
DICTIONARY
  5
1B
102
{ACAD_REACTORS
330
19
102
}
330
19
100
AcDbDictionary
281
     1
  3
Standard
350
1C
  0
DICTIONARY
  5
22
102
{ACAD_REACTORS
330
19
102
}
330
19
100
AcDbDictionary
281
     1
  0
ACDBDICTIONARYWDFLT
  5
1F
102
{ACAD_REACTORS
330
19
102
}
330
19
100
AcDbDictionary
281
     1
  3
Normal
350
1D
100
AcDbDictionaryWithDefault
340
1D
  0
DICTIONARY
  5
241
102
{ACAD_REACTORS
330
19
102
}
330
19
100
AcDbDictionary
281
     1
  3
A0
350
242
  3
A1
350
243
  3
A2
350
244
  3
A3
350
245
  3
A4
350
246
  3
A5
350
247
  3
A6
350
248
  3
A7
350
249
  3
A8
350
24A
  3
A9
350
24B
  3
B0
350
24C
  3
B1
350
24D
  3
B2
350
24E
  3
B3
350
24F
  3
B4
350
250
  3
B5
350
251
  3
B6
350
252
  3
B7
350
253
  3
B8
350
254
  3
B9
350
255
  3
C0
350
256
  3
C1
350
257
  3
C2
350
258
  3
C3
350
259
  3
C4
350
25A
  3
C5
350
25B
  3
C6
350
25C
  3
C7
350
25D
  3
C8
350
25E
  3
C9
350
25F
  3
D0
350
260
  3
D1
350
261
  3
D2
350
262
  0
DICTIONARY
  5
BC0
102
{ACAD_REACTORS
330
19
102
}
330
19
100
AcDbDictionary
281
     1
  0
DICTIONARY
  5
278
102
{ACAD_REACTORS
330
19
102
}
330
19
100
AcDbDictionary
281
     1
  3
Standard
350
279
  0
DICTIONARY
  5
267
102
{ACAD_REACTORS
330
19
102
}
330
19
100
AcDbDictionary
281
     1
  3
*A1
350
3DA3
  3
2dWireframe
350
26C
  3
3D Hidden
350
26E
  3
3dWireframe
350
26D
  3
Basic
350
26F
  3
Brighten
350
273
  3
ColorChange
350
277
  3
Conceptual
350
271
  3
Dim
350
272
  3
EdgeColorOff
350
8FE
  3
Facepattern
350
276
  3
Flat
350
268
  3
FlatWithEdges
350
269
  3
Gouraud
350
26A
  3
GouraudWithEdges
350
26B
  3
Hidden
350
8FB
  3
JitterOff
350
8FC
  3
Linepattern
350
275
  3
OverhangOff
350
8FD
  3
Realistic
350
270
  3
Shaded
350
903
  3
Shaded with edges
350
902
  3
Shades of Gray
350
8FF
  3
Sketchy
350
900
  3
Thicken
350
274
  3
Wireframe
350
8FA
  3
X-Ray
350
901
  0
XRECORD
  5
41DD
102
{ACAD_REACTORS
330
19
102
}
330
19
100
AcDbXrecord
280
     1
 90
        1
330
279
  0
DICTIONARY
  5
330
102
{ACAD_REACTORS
330
19
102
}
330
19
100
AcDbDictionary
281
     1
  3
CANNOSCALE
350
331
  3
CMLEADERSTYLE
350
DB1
  3
CTABLESTYLE
350
335
  3
HPTRANSPARENCY
350
D52
  3
XCLIPFRAME
350
896
  0
DICTIONARY
  5
27A
102
{ACAD_REACTORS
330
19
102
}
330
19
100
AcDbDictionary
281
     1
  0
DICTIONARY
  5
3DA8
102
{ACAD_REACTORS
330
19
102
}
330
19
100
AcDbDictionary
281
     1
  3
CLEXTENSION
350
3DA9
  0
DICTIONARY
  5
E3E
102
{ACAD_REACTORS
330
19
102
}
330
19
100
AcDbDictionary
281
     1
  3
DIMRAILANGLE
350
3DA6
  3
DIMRAILFIRSTOFFSET
350
3DA4
  3
DIMRAILOFFSET
350
3DA5
  3
DIMRAILSENABLED
350
3DA7
  0
DICTIONARY
  5
2E2
102
{ACAD_REACTORS
330
2E1
102
}
330
2E1
100
AcDbDictionary
281
     1
  0
DICTIONARY
  5
DF9
102
{ACAD_REACTORS
330
2E1
102
}
330
2E1
100
AcDbDictionary
281
     1
1001
ACAD
1000
<All
  0
SORTENTSTABLE
  5
3DE7
102
{ACAD_REACTORS
330
3DE6
102
}
330
3DE6
100
AcDbSortentsTable
330
A
331
0
  5
3DC7
331
3DB0
  5
3DB2
331
3DB1
  5
3DB3
331
3DB2
  5
3DB5
331
3DB3
  5
3DB6
331
3DB6
  5
3DD6
331
3DC7
  5
3DE5
331
3DD6
  5
3DE8
331
3DE8
  5
3DB1
  0
DICTIONARY
  5
41D0
102
{ACAD_REACTORS
330
1468
102
}
330
1468
100
AcDbDictionary
280
     1
281
     1
  3
TEXT
360
1467
  0
DIMASSOC
  5
39FD
102
{ACAD_REACTORS
330
39FC
102
}
330
39FC
100
AcDbDimAssoc
330
39FB
 90
        3
 70
     0
 71
     1
  1
AcDbOsnapPointRef
 72
    10
331
3976
 73
     0
 91
        0
 40
0.8991694432588427
 10
0.0
 20
0.0
 30
0.0
 75
     0
  1
AcDbOsnapPointRef
 72
    10
331
3976
 73
     0
 91
        0
 40
4.120497403866841
 10
0.0
 20
0.0
 30
0.0
 75
     0
  0
DIMASSOC
  5
3B03
102
{ACAD_REACTORS
330
3B02
102
}
330
3B02
100
AcDbDimAssoc
330
3B01
 90
        0
 70
     0
 71
     1
  0
DIMASSOC
  5
3B12
102
{ACAD_REACTORS
330
3B11
102
}
330
3B11
100
AcDbDimAssoc
330
3B10
 90
        0
 70
     0
 71
     1
  0
DIMASSOC
  5
3BF4
102
{ACAD_REACTORS
330
3BF3
102
}
330
3BF3
100
AcDbDimAssoc
330
3BF2
 90
        3
 70
     0
 71
     1
  1
AcDbOsnapPointRef
 72
    10
331
3B41
 73
     0
 91
        0
 40
5.790229915070839
 10
0.0
 20
0.0
 30
0.0
 75
     0
  1
AcDbOsnapPointRef
 72
     2
331
3B58
 73
     2
 91
        1
 40
0.5
 10
0.0
 20
0.0
 30
0.0
 75
     0
  0
DIMASSOC
  5
3D6E
102
{ACAD_REACTORS
330
3D6D
102
}
330
3D6D
100
AcDbDimAssoc
330
3D6C
 90
        0
 70
     0
 71
     1
  0
DIMASSOC
  5
3DB8
102
{ACAD_REACTORS
330
3DB7
102
}
330
3DB7
100
AcDbDimAssoc
330
3DB6
 90
        1
 70
     0
 71
     1
  1
AcDbOsnapPointRef
 72
    10
331
3CBA
 73
     0
 91
        0
 40
6.893772720588059
 10
0.0
 20
0.0
 30
0.0
 75
     0
  0
DIMASSOC
  5
3DC9
102
{ACAD_REACTORS
330
3DC8
102
}
330
3DC8
100
AcDbDimAssoc
330
3DC7
 90
        1
 70
     0
 71
     1
  1
AcDbOsnapPointRef
 72
    13
331
3DB3
 73
     0
 91
        0
 40
0.0
 10
0.0
 20
0.0
 30
0.0
 75
     0
  0
DIMASSOC
  5
3DD8
102
{ACAD_REACTORS
330
3DD7
102
}
330
3DD7
100
AcDbDimAssoc
330
3DD6
 90
        3
 70
     0
 71
     1
  1
AcDbOsnapPointRef
 72
    13
331
3DB0
 73
     0
 91
        0
 40
0.0
 10
0.0
 20
0.0
 30
0.0
 75
     0
  1
AcDbOsnapPointRef
 72
     1
331
3DB0
 73
     0
 91
        0
 40
0.0
 10
0.0
 20
0.0
 30
0.0
 75
     0
  0
DIMASSOC
  5
3E0F
102
{ACAD_REACTORS
330
3E0E
102
}
330
3E0E
100
AcDbDimAssoc
330
3E0D
 90
        2
 70
     0
 71
     1
  1
AcDbOsnapPointRef
 72
     1
331
3C2D
 73
     0
 91
        0
 40
0.0
 10
0.0
 20
0.0
 30
0.0
 75
     0
  0
DIMASSOC
  5
3E4F
102
{ACAD_REACTORS
330
3E4E
102
}
330
3E4E
100
AcDbDimAssoc
330
3E4D
 90
        1
 70
     0
 71
     1
  1
AcDbOsnapPointRef
 72
    10
331
3E4A
 73
     0
 91
        0
 40
5.000000218638102
 10
0.0
 20
0.0
 30
0.0
 75
     0
  0
DIMASSOC
  5
3E6D
102
{ACAD_REACTORS
330
3E6C
102
}
330
3E6C
100
AcDbDimAssoc
330
3E6B
 90
        0
 70
     0
 71
     1
  0
DIMASSOC
  5
3E7E
102
{ACAD_REACTORS
330
3E7D
102
}
330
3E7D
100
AcDbDimAssoc
330
3E7C
 90
        0
 70
     0
 71
     1
  0
GROUP
  5
3DB4
102
{ACAD_REACTORS
330
1A
102
}
330
1A
100
AcDbGroup
300

 70
     1
 71
     1
340
3DB0
340
3DB1
340
3DB2
340
3DB3
  0
LAYOUT
  5
21
102
{ACAD_REACTORS
330
1E
102
}
330
1E
100
AcDbPlotSettings
  1

  2
none_device
  4
ISO_A3_(420.00_x_297.00_MM)
  6

 40
7.5
 41
20.0
 42
7.5
 43
20.0
 44
420.0
 45
297.0
 46
0.0
 47
0.0
 48
0.0
 49
0.0
140
0.0
141
0.0
142
1.0
143
1.0
 70
     0
 72
     1
 73
     0
 74
     0
  7

 75
     0
 76
     0
 77
     2
 78
   300
147
1.0
148
0.0
149
0.0
100
AcDbLayout
  1
Layout1
 70
     0
 71
     0
 10
-7.5
 20
-20.0
 11
412.5
 21
277.0
 12
0.0
 22
0.0
 32
0.0
 14
0.0
 24
0.0
 34
0.0
 15
0.0
 25
0.0
 35
0.0
146
0.0
 13
0.0
 23
0.0
 33
0.0
 16
0.0
 26
0.0
 36
0.0
 17
0.0
 27
0.0
 37
0.0
 76
     0
330
B
331
349
  0
LAYOUT
  5
20
102
{ACAD_REACTORS
330
1E
102
}
330
1E
100
AcDbPlotSettings
  1

  2
none_device
  4
ISO_A3_(420.00_x_297.00_MM)
  6

 40
7.5
 41
20.0
 42
7.5
 43
20.0
 44
420.0
 45
297.0
 46
0.0
 47
0.0
 48
0.0
 49
0.0
140
0.0
141
0.0
142
1.0
143
1.0
 70
  1024
 72
     1
 73
     0
 74
     0
  7

 75
     0
 76
     0
 77
     2
 78
   300
147
1.0
148
0.0
149
0.0
100
AcDbLayout
  1
Model
 70
     0
 71
     1
 10
0.0
 20
0.0
 11
2100.0
 21
2970.0
 12
0.0
 22
0.0
 32
0.0
 14
0.0
 24
0.0
 34
-0.0000000000000142
 15
2100.0
 25
2970.0
 35
0.0000000000000142
146
0.0
 13
0.0
 23
0.0
 33
0.0
 16
0.0
 26
0.0
 36
0.0
 17
0.0
 27
0.0
 37
0.0
 76
     0
330
A
331
15
  0
MATERIAL
  5
265
102
{ACAD_REACTORS
330
263
102
}
330
263
100
AcDbMaterial
  1
ByBlock
 72
     1
 94
      127
  0
MATERIAL
  5
264
102
{ACAD_REACTORS
330
263
102
}
330
263
100
AcDbMaterial
  1
ByLayer
 72
     1
 94
      127
  0
MATERIAL
  5
266
102
{ACAD_REACTORS
330
263
102
}
330
263
100
AcDbMaterial
  1
Global
 72
     1
 94
      127
  0
MLEADERSTYLE
  5
DAB
102
{ACAD_REACTORS
330
336
102
}
330
336
100
AcDbMLeaderStyle
170
     2
171
     1
172
     0
 90
        2
 40
0.0
 41
0.0
173
     1
 91
-1056964608
340
11
 92
       -2
290
     1
 42
2.0
291
     1
 43
8.0
  3
Standard
341
0
 44
4.0
300

342
17
174
     1
178
     6
175
     1
176
     0
 93
-1056964608
 45
4.0
292
     0
297
     0
 46
4.0
343
0
 94
-1056964608
 47
1.0
 49
1.0
140
1.0
293
     1
141
0.0
294
     1
177
     0
142
1.0
295
     0
296
     0
143
3.75
1001
ACAD_MLEADERVER
1070
     2
  0
MLINESTYLE
  5
1C
102
{ACAD_REACTORS
330
1B
102
}
330
1B
100
AcDbMlineStyle
  2
Standard
 70
     0
  3

 62
     0
 51
90.0
 52
90.0
 71
     2
 49
0.5
 62
   256
  6
BYLAYER
 49
-0.5
 62
   256
  6
BYLAYER
  0
ACDBPLACEHOLDER
  5
1D
102
{ACAD_REACTORS
330
1F
102
}
330
1F
  0
SCALE
  5
242
102
{ACAD_REACTORS
330
241
102
}
330
241
100
AcDbScale
 70
     0
300
1:1
140
1.0
141
1.0
290
     1
  0
SCALE
  5
243
102
{ACAD_REACTORS
330
241
102
}
330
241
100
AcDbScale
 70
     0
300
1:2
140
1.0
141
2.0
290
     0
  0
SCALE
  5
244
102
{ACAD_REACTORS
330
241
102
}
330
241
100
AcDbScale
 70
     0
300
1:4
140
1.0
141
4.0
290
     0
  0
SCALE
  5
245
102
{ACAD_REACTORS
330
241
102
}
330
241
100
AcDbScale
 70
     0
300
1:5
140
1.0
141
5.0
290
     0
  0
SCALE
  5
246
102
{ACAD_REACTORS
330
241
102
}
330
241
100
AcDbScale
 70
     0
300
1:8
140
1.0
141
8.0
290
     0
  0
SCALE
  5
247
102
{ACAD_REACTORS
330
241
102
}
330
241
100
AcDbScale
 70
     0
300
1:10
140
1.0
141
10.0
290
     0
  0
SCALE
  5
248
102
{ACAD_REACTORS
330
241
102
}
330
241
100
AcDbScale
 70
     0
300
1:16
140
1.0
141
16.0
290
     0
  0
SCALE
  5
249
102
{ACAD_REACTORS
330
241
102
}
330
241
100
AcDbScale
 70
     0
300
1:20
140
1.0
141
20.0
290
     0
  0
SCALE
  5
24A
102
{ACAD_REACTORS
330
241
102
}
330
241
100
AcDbScale
 70
     0
300
1:30
140
1.0
141
30.0
290
     0
  0
SCALE
  5
24B
102
{ACAD_REACTORS
330
241
102
}
330
241
100
AcDbScale
 70
     0
300
1:40
140
1.0
141
40.0
290
     0
  0
SCALE
  5
24C
102
{ACAD_REACTORS
330
241
102
}
330
241
100
AcDbScale
 70
     0
300
1:50
140
1.0
141
50.0
290
     0
  0
SCALE
  5
24D
102
{ACAD_REACTORS
330
241
102
}
330
241
100
AcDbScale
 70
     0
300
1:100
140
1.0
141
100.0
290
     0
  0
SCALE
  5
24E
102
{ACAD_REACTORS
330
241
102
}
330
241
100
AcDbScale
 70
     0
300
2:1
140
2.0
141
1.0
290
     0
  0
SCALE
  5
24F
102
{ACAD_REACTORS
330
241
102
}
330
241
100
AcDbScale
 70
     0
300
4:1
140
4.0
141
1.0
290
     0
  0
SCALE
  5
250
102
{ACAD_REACTORS
330
241
102
}
330
241
100
AcDbScale
 70
     0
300
8:1
140
8.0
141
1.0
290
     0
  0
SCALE
  5
251
102
{ACAD_REACTORS
330
241
102
}
330
241
100
AcDbScale
 70
     0
300
10:1
140
10.0
141
1.0
290
     0
  0
SCALE
  5
252
102
{ACAD_REACTORS
330
241
102
}
330
241
100
AcDbScale
 70
     0
300
100:1
140
100.0
141
1.0
290
     0
  0
SCALE
  5
253
102
{ACAD_REACTORS
330
241
102
}
330
241
100
AcDbScale
 70
     0
300
1/128" = 1'-0"
140
0.0078125
141
12.0
290
     0
  0
SCALE
  5
254
102
{ACAD_REACTORS
330
241
102
}
330
241
100
AcDbScale
 70
     0
300
1/64" = 1'-0"
140
0.015625
141
12.0
290
     0
  0
SCALE
  5
255
102
{ACAD_REACTORS
330
241
102
}
330
241
100
AcDbScale
 70
     0
300
1/32" = 1'-0"
140
0.03125
141
12.0
290
     0
  0
SCALE
  5
256
102
{ACAD_REACTORS
330
241
102
}
330
241
100
AcDbScale
 70
     0
300
1/16" = 1'-0"
140
0.0625
141
12.0
290
     0
  0
SCALE
  5
257
102
{ACAD_REACTORS
330
241
102
}
330
241
100
AcDbScale
 70
     0
300
3/32" = 1'-0"
140
0.09375
141
12.0
290
     0
  0
SCALE
  5
258
102
{ACAD_REACTORS
330
241
102
}
330
241
100
AcDbScale
 70
     0
300
1/8" = 1'-0"
140
0.125
141
12.0
290
     0
  0
SCALE
  5
259
102
{ACAD_REACTORS
330
241
102
}
330
241
100
AcDbScale
 70
     0
300
3/16" = 1'-0"
140
0.1875
141
12.0
290
     0
  0
SCALE
  5
25A
102
{ACAD_REACTORS
330
241
102
}
330
241
100
AcDbScale
 70
     0
300
1/4" = 1'-0"
140
0.25
141
12.0
290
     0
  0
SCALE
  5
25B
102
{ACAD_REACTORS
330
241
102
}
330
241
100
AcDbScale
 70
     0
300
3/8" = 1'-0"
140
0.375
141
12.0
290
     0
  0
SCALE
  5
25C
102
{ACAD_REACTORS
330
241
102
}
330
241
100
AcDbScale
 70
     0
300
1/2" = 1'-0"
140
0.5
141
12.0
290
     0
  0
SCALE
  5
25D
102
{ACAD_REACTORS
330
241
102
}
330
241
100
AcDbScale
 70
     0
300
3/4" = 1'-0"
140
0.75
141
12.0
290
     0
  0
SCALE
  5
25E
102
{ACAD_REACTORS
330
241
102
}
330
241
100
AcDbScale
 70
     0
300
1" = 1'-0"
140
1.0
141
12.0
290
     0
  0
SCALE
  5
25F
102
{ACAD_REACTORS
330
241
102
}
330
241
100
AcDbScale
 70
     0
300
1-1/2" = 1'-0"
140
1.5
141
12.0
290
     0
  0
SCALE
  5
260
102
{ACAD_REACTORS
330
241
102
}
330
241
100
AcDbScale
 70
     0
300
3" = 1'-0"
140
3.0
141
12.0
290
     0
  0
SCALE
  5
261
102
{ACAD_REACTORS
330
241
102
}
330
241
100
AcDbScale
 70
     0
300
6" = 1'-0"
140
6.0
141
12.0
290
     0
  0
SCALE
  5
262
102
{ACAD_REACTORS
330
241
102
}
330
241
100
AcDbScale
 70
     0
300
1'-0" = 1'-0"
140
12.0
141
12.0
290
     0
  0
TABLESTYLE
  5
279
102
{ACAD_REACTORS
330
278
102
}
102
{ACAD_XDICTIONARY
360
41DB
102
}
330
278
100
AcDbTableStyle
  3
Standard
 70
     0
 71
     0
 40
0.06
 41
0.06
280
     0
281
     0
  7
Standard
140
4.5
170
     2
 62
     0
 63
   257
283
     0
 90
        4
 91
        0
  1

274
    -2
284
     1
 64
     0
275
    -2
285
     1
 65
     0
276
    -2
286
     1
 66
     0
277
    -2
287
     1
 67
     0
278
    -2
288
     1
 68
     0
279
    -2
289
     1
 69
     0
  7
Standard
140
6.0
170
     5
 62
     0
 63
   257
283
     0
 90
        4
 91
        0
  1

274
    -2
284
     1
 64
     0
275
    -2
285
     1
 65
     0
276
    -2
286
     1
 66
     0
277
    -2
287
     1
 67
     0
278
    -2
288
     1
 68
     0
279
    -2
289
     1
 69
     0
  7
Standard
140
4.5
170
     5
 62
     0
 63
   257
283
     0
 90
        4
 91
        0
  1

274
    -2
284
     1
 64
     0
275
    -2
285
     1
 65
     0
276
    -2
286
     1
 66
     0
277
    -2
287
     1
 67
     0
278
    -2
288
     1
 68
     0
279
    -2
289
     1
 69
     0
  0
VISUALSTYLE
  5
3DA3
102
{ACAD_REACTORS
330
267
102
}
330
267
100
AcDbVisualStyle
  2
*
 70
    10
 71
     0
 72
     2
 73
     0
 90
        0
 40
-0.6
 41
-30.0
 62
     5
 63
     7
421
 16777215
 74
     1
 91
        4
 64
     7
 65
   257
 75
     1
175
     1
 42
1.0
 92
        8
 66
     7
 43
1.0
 76
     1
 77
     6
 78
     2
 67
     7
 79
     5
170
     0
171
     0
290
     0
174
     0
 93
        1
 44
0.0
173
     0
291
     0
 45
0.0
  0
VISUALSTYLE
  5
26C
102
{ACAD_REACTORS
330
267
102
}
330
267
100
AcDbVisualStyle
  2
2dWireframe
 70
     4
 71
     0
 72
     2
 73
     0
 90
        0
 40
-0.6
 41
-30.0
 62
     5
 63
     7
421
 16777215
 74
     1
 91
        4
 64
     7
 65
   257
 75
     1
175
     1
 42
1.0
 92
        0
 66
   257
 43
1.0
 76
     1
 77
     6
 78
     2
 67
     7
 79
     5
170
     0
171
     0
290
     0
174
     0
 93
        1
 44
0.0
173
     0
291
     0
 45
0.0
  0
VISUALSTYLE
  5
26E
102
{ACAD_REACTORS
330
267
102
}
330
267
100
AcDbVisualStyle
  2
3D Hidden
 70
     6
 71
     1
 72
     2
 73
     2
 90
        0
 40
-0.6
 41
-30.0
 62
     5
 63
     7
421
 16777215
 74
     2
 91
        2
 64
     7
 65
   257
 75
     2
175
     1
 42
40.0
 92
        0
 66
   257
 43
1.0
 76
     1
 77
     6
 78
     2
 67
     7
 79
     3
170
     0
171
     0
290
     0
174
     0
 93
        1
 44
0.0
173
     0
291
     0
 45
0.0
  0
VISUALSTYLE
  5
26D
102
{ACAD_REACTORS
330
267
102
}
330
267
100
AcDbVisualStyle
  2
3dWireframe
 70
     5
 71
     0
 72
     2
 73
     0
 90
        0
 40
-0.6
 41
-30.0
 62
     5
 63
     7
421
 16777215
 74
     1
 91
        4
 64
     7
 65
   257
 75
     1
175
     1
 42
1.0
 92
        0
 66
   257
 43
1.0
 76
     1
 77
     6
 78
     2
 67
     7
 79
     5
170
     0
171
     0
290
     0
174
     0
 93
        1
 44
0.0
173
     0
291
     0
 45
0.0
  0
VISUALSTYLE
  5
26F
102
{ACAD_REACTORS
330
267
102
}
330
267
100
AcDbVisualStyle
  2
Basic
 70
     7
 71
     1
 72
     0
 73
     1
 90
        0
 40
-0.6
 41
-30.0
 62
     5
 63
     7
421
 16777215
 74
     0
 91
        4
 64
     7
 65
   257
 75
     1
175
     1
 42
1.0
 92
        8
 66
     7
 43
1.0
 76
     1
 77
     6
 78
     2
 67
     7
 79
     5
170
     0
171
     0
290
     0
174
     0
 93
        1
 44
0.0
173
     0
291
     1
 45
0.0
  0
VISUALSTYLE
  5
273
102
{ACAD_REACTORS
330
267
102
}
330
267
100
AcDbVisualStyle
  2
Brighten
 70
    12
 71
     2
 72
     2
 73
     0
 90
        0
 40
-0.6
 41
-30.0
 62
     5
 63
     7
421
 16777215
 74
     1
 91
        4
 64
     7
 65
   257
 75
     1
175
     1
 42
1.0
 92
        8
 66
     7
 43
1.0
 76
     1
 77
     6
 78
     2
 67
     7
 79
     5
170
     0
171
     0
290
     0
174
     0
 93
        1
 44
50.0
173
     0
291
     1
 45
0.0
  0
VISUALSTYLE
  5
277
102
{ACAD_REACTORS
330
267
102
}
330
267
100
AcDbVisualStyle
  2
ColorChange
 70
    16
 71
     2
 72
     2
 73
     3
 90
        0
 40
-0.6
 41
-30.0
 62
     5
 63
     8
421
  8421504
 74
     1
 91
        4
 64
     7
 65
   257
 75
     1
175
     1
 42
1.0
 92
        8
 66
     8
424
  8421504
 43
1.0
 76
     1
 77
     6
 78
     2
 67
     7
 79
     5
170
     0
171
     0
290
     0
174
     0
 93
        1
 44
0.0
173
     0
291
     1
 45
0.0
  0
VISUALSTYLE
  5
271
102
{ACAD_REACTORS
330
267
102
}
330
267
100
AcDbVisualStyle
  2
Conceptual
 70
     9
 71
     3
 72
     2
 73
     0
 90
        0
 40
-0.6
 41
-30.0
 62
     5
 63
     7
421
 16777215
 74
     2
 91
        2
 64
     7
 65
   257
 75
     1
175
     1
 42
40.0
 92
        8
 66
     7
 43
1.0
 76
     1
 77
     6
 78
     2
 67
     7
 79
     3
170
     0
171
     0
290
     0
174
     0
 93
        1
 44
0.0
173
     0
291
     0
 45
0.0
  0
VISUALSTYLE
  5
272
102
{ACAD_REACTORS
330
267
102
}
330
267
100
AcDbVisualStyle
  2
Dim
 70
    11
 71
     2
 72
     2
 73
     0
 90
        0
 40
-0.6
 41
-30.0
 62
     5
 63
     7
421
 16777215
 74
     1
 91
        4
 64
     7
 65
   257
 75
     1
175
     1
 42
1.0
 92
        8
 66
     7
 43
1.0
 76
     1
 77
     6
 78
     2
 67
     7
 79
     5
170
     0
171
     0
290
     0
174
     0
 93
        1
 44
-50.0
173
     0
291
     1
 45
0.0
  0
VISUALSTYLE
  5
8FE
102
{ACAD_REACTORS
330
267
102
}
330
267
100
AcDbVisualStyle
  2
EdgeColorOff
 70
    22
 71
     2
 72
     2
 73
     0
 90
        0
 40
0.6
 41
30.0
 62
     5
 63
     7
421
 16777215
 74
     1
 91
        4
 64
     7
 65
   257
 75
     1
175
     1
 42
1.0
 92
        8
 66
     7
 43
1.0
 76
     1
 77
     6
 78
     2
 67
     7
 79
     5
170
     0
171
     0
290
     0
174
     0
 93
        1
 44
0.0
173
     0
291
     1
 45
0.0
  0
VISUALSTYLE
  5
276
102
{ACAD_REACTORS
330
267
102
}
330
267
100
AcDbVisualStyle
  2
Facepattern
 70
    15
 71
     2
 72
     2
 73
     0
 90
        0
 40
-0.6
 41
-30.0
 62
     5
 63
     7
421
 16777215
 74
     1
 91
        4
 64
     7
 65
   257
 75
     1
175
     1
 42
1.0
 92
        8
 66
     7
 43
1.0
 76
     1
 77
     6
 78
     2
 67
     7
 79
     5
170
     0
171
     0
290
     0
174
     0
 93
        1
 44
0.0
173
     0
291
     1
 45
0.0
  0
VISUALSTYLE
  5
268
102
{ACAD_REACTORS
330
267
102
}
330
267
100
AcDbVisualStyle
  2
Flat
 70
     0
 71
     2
 72
     1
 73
     1
 90
        2
 40
-0.6
 41
30.0
 62
     5
 63
     7
421
 16777215
 74
     0
 91
        4
 64
     7
 65
   257
 75
     1
175
     1
 42
1.0
 92
        8
 66
     7
 43
1.0
 76
     1
 77
     6
 78
     2
 67
     7
 79
     5
170
     0
171
     0
290
     0
174
     0
 93
       13
 44
0.0
173
     0
291
     1
 45
0.0
  0
VISUALSTYLE
  5
269
102
{ACAD_REACTORS
330
267
102
}
330
267
100
AcDbVisualStyle
  2
FlatWithEdges
 70
     1
 71
     2
 72
     1
 73
     1
 90
        2
 40
-0.6
 41
30.0
 62
     5
 63
     7
421
 16777215
 74
     1
 91
        4
 64
     7
 65
   257
 75
     1
175
     1
 42
1.0
 92
        0
 66
   257
 43
1.0
 76
     1
 77
     6
 78
     2
 67
     7
 79
     5
170
     0
171
     0
290
     0
174
     0
 93
       13
 44
0.0
173
     0
291
     1
 45
0.0
  0
VISUALSTYLE
  5
26A
102
{ACAD_REACTORS
330
267
102
}
330
267
100
AcDbVisualStyle
  2
Gouraud
 70
     2
 71
     2
 72
     2
 73
     1
 90
        2
 40
-0.6
 41
30.0
 62
     5
 63
     7
421
 16777215
 74
     0
 91
        4
 64
     7
 65
   257
 75
     1
175
     1
 42
1.0
 92
        0
 66
     7
 43
1.0
 76
     1
 77
     6
 78
     2
 67
     7
 79
     5
170
     0
171
     0
290
     0
174
     0
 93
       13
 44
0.0
173
     0
291
     1
 45
0.0
  0
VISUALSTYLE
  5
26B
102
{ACAD_REACTORS
330
267
102
}
330
267
100
AcDbVisualStyle
  2
GouraudWithEdges
 70
     3
 71
     2
 72
     2
 73
     1
 90
        2
 40
-0.6
 41
30.0
 62
     5
 63
     7
421
 16777215
 74
     1
 91
        4
 64
     7
 65
   257
 75
     1
175
     1
 42
1.0
 92
        0
 66
   257
 43
1.0
 76
     1
 77
     6
 78
     2
 67
     7
 79
     5
170
     0
171
     0
290
     0
174
     0
 93
       13
 44
0.0
173
     0
291
     1
 45
0.0
  0
VISUALSTYLE
  5
8FB
102
{ACAD_REACTORS
330
267
102
}
330
267
100
AcDbVisualStyle
  2
Hidden
 70
     6
 71
     1
 72
     2
 73
     2
 90
        0
 40
0.6
 41
30.0
 62
     5
 63
     7
421
 16777215
 74
     2
 91
        2
 64
     7
 65
   257
 75
     2
175
     1
 42
40.0
 92
        0
 66
   257
 43
1.0
 76
     1
 77
     6
 78
     2
 67
     7
 79
     3
170
     0
171
     0
290
     0
174
     0
 93
        1
 44
0.0
173
     0
291
     0
 45
0.0
  0
VISUALSTYLE
  5
8FC
102
{ACAD_REACTORS
330
267
102
}
330
267
100
AcDbVisualStyle
  2
JitterOff
 70
    20
 71
     2
 72
     2
 73
     0
 90
        0
 40
0.6
 41
30.0
 62
     5
 63
     7
421
 16777215
 74
     1
 91
        4
 64
     7
 65
   257
 75
     1
175
     1
 42
1.0
 92
       10
 66
     7
 43
1.0
 76
     1
 77
     6
 78
     2
 67
     7
 79
     5
170
     0
171
     0
290
     0
174
     0
 93
        1
 44
0.0
173
     0
291
     1
 45
0.0
  0
VISUALSTYLE
  5
275
102
{ACAD_REACTORS
330
267
102
}
330
267
100
AcDbVisualStyle
  2
Linepattern
 70
    14
 71
     2
 72
     2
 73
     0
 90
        0
 40
-0.6
 41
-30.0
 62
     5
 63
     7
421
 16777215
 74
     1
 91
        4
 64
     7
 65
   257
 75
     7
175
     7
 42
1.0
 92
        8
 66
     7
 43
1.0
 76
     1
 77
     6
 78
     2
 67
     7
 79
     5
170
     0
171
     0
290
     0
174
     0
 93
        1
 44
0.0
173
     0
291
     1
 45
0.0
  0
VISUALSTYLE
  5
8FD
102
{ACAD_REACTORS
330
267
102
}
330
267
100
AcDbVisualStyle
  2
OverhangOff
 70
    21
 71
     2
 72
     2
 73
     0
 90
        0
 40
0.6
 41
30.0
 62
     5
 63
     7
421
 16777215
 74
     1
 91
        4
 64
     7
 65
   257
 75
     1
175
     1
 42
1.0
 92
        9
 66
     7
 43
1.0
 76
     1
 77
     6
 78
     2
 67
     7
 79
     5
170
     0
171
     0
290
     0
174
     0
 93
        1
 44
0.0
173
     0
291
     1
 45
0.0
  0
VISUALSTYLE
  5
270
102
{ACAD_REACTORS
330
267
102
}
330
267
100
AcDbVisualStyle
  2
Realistic
 70
     8
 71
     2
 72
     2
 73
     0
 90
        0
 40
-0.6
 41
-30.0
 62
     5
 63
     7
421
 16777215
 74
     1
 91
        0
 64
     7
 65
   257
 75
     1
175
     1
 42
1.0
 92
        8
 66
     8
424
  7895160
 43
1.0
 76
     1
 77
     6
 78
     2
 67
     7
 79
     5
170
     0
171
     0
290
     0
174
     0
 93
       13
 44
0.0
173
     0
291
     0
 45
0.0
  0
VISUALSTYLE
  5
903
102
{ACAD_REACTORS
330
267
102
}
330
267
100
AcDbVisualStyle
  2
Shaded
 70
    27
 71
     2
 72
     2
 73
     1
 90
        2
 40
0.6
 41
30.0
 62
     5
 63
     7
421
 16777215
 74
     0
 91
        4
 64
     7
 65
   257
 75
     1
175
     1
 42
1.0
 92
        8
 66
   257
 43
1.0
 76
     1
 77
     6
 78
     2
 67
     8
425
  7895160
 79
     3
170
     0
171
     0
290
     0
174
     0
 93
        5
 44
0.0
173
     0
291
     0
 45
0.0
  0
VISUALSTYLE
  5
902
102
{ACAD_REACTORS
330
267
102
}
330
267
100
AcDbVisualStyle
  2
Shaded with edges
 70
    26
 71
     2
 72
     2
 73
     1
 90
        2
 40
0.6
 41
30.0
 62
     5
 63
     7
421
 16777215
 74
     1
 91
       10
 64
     7
 65
   257
 75
     2
175
     1
 42
1.0
 92
        8
 66
   257
 43
1.0
 76
     1
 77
     6
 78
     2
 67
     7
 79
     3
170
     0
171
     0
290
     0
174
     0
 93
        5
 44
0.0
173
     0
291
     0
 45
0.0
  0
VISUALSTYLE
  5
8FF
102
{ACAD_REACTORS
330
267
102
}
330
267
100
AcDbVisualStyle
  2
Shades of Gray
 70
    23
 71
     2
 72
     2
 73
     3
 90
        0
 40
0.6
 41
30.0
 62
     5
 63
     7
421
 16777215
 74
     2
 91
        2
 64
     7
 65
     7
 75
     1
175
     1
 42
40.0
 92
        8
 66
     7
 43
1.0
 76
     1
 77
     6
 78
     2
 67
     7
 79
     3
170
     0
171
     0
290
     0
174
     0
 93
        1
 44
0.0
173
     0
291
     0
 45
0.0
  0
VISUALSTYLE
  5
900
102
{ACAD_REACTORS
330
267
102
}
330
267
100
AcDbVisualStyle
  2
Sketchy
 70
    24
 71
     1
 72
     2
 73
     2
 90
        0
 40
0.6
 41
30.0
 62
     5
 63
     7
421
 16777215
 74
     2
 91
        2
 64
     7
 65
     7
 75
     1
175
     1
 42
40.0
 92
       11
 66
     7
 43
1.0
 76
     1
 77
     6
 78
     2
 67
     7
 79
     6
170
     0
171
     0
290
     0
174
     0
 93
        1
 44
0.0
173
     0
291
     0
 45
0.0
  0
VISUALSTYLE
  5
274
102
{ACAD_REACTORS
330
267
102
}
330
267
100
AcDbVisualStyle
  2
Thicken
 70
    13
 71
     2
 72
     2
 73
     0
 90
        0
 40
-0.6
 41
-30.0
 62
     5
 63
     7
421
 16777215
 74
     1
 91
        4
 64
     7
 65
   257
 75
     1
175
     1
 42
1.0
 92
       12
 66
     7
 43
1.0
 76
     1
 77
     6
 78
     2
 67
     7
 79
     5
170
     0
171
     0
290
     0
174
     0
 93
        1
 44
0.0
173
     0
291
     1
 45
0.0
  0
VISUALSTYLE
  5
8FA
102
{ACAD_REACTORS
330
267
102
}
330
267
100
AcDbVisualStyle
  2
Wireframe
 70
     5
 71
     0
 72
     2
 73
     0
 90
        0
 40
0.6
 41
30.0
 62
     5
 63
     7
421
 16777215
 74
     1
 91
        4
 64
     7
 65
   257
 75
     1
175
     1
 42
1.0
 92
        0
 66
   257
 43
1.0
 76
     1
 77
     6
 78
     2
 67
     7
 79
     3
170
     0
171
     0
290
     0
174
     0
 93
        1
 44
0.0
173
     0
291
     0
 45
0.0
  0
VISUALSTYLE
  5
901
102
{ACAD_REACTORS
330
267
102
}
330
267
100
AcDbVisualStyle
  2
X-Ray
 70
    25
 71
     2
 72
     2
 73
     1
 90
        1
 40
0.5
 41
30.0
 62
     5
 63
     7
421
 16777215
 74
     1
 91
        0
 64
     7
 65
   257
 75
     1
175
     1
 42
1.0
 92
        8
 66
     7
 43
1.0
 76
     1
 77
     6
 78
     2
 67
     7
 79
     3
170
     0
171
     0
290
     0
174
     0
 93
       13
 44
0.0
173
     0
291
     0
 45
0.0
  0
DICTIONARYVAR
  5
331
102
{ACAD_REACTORS
330
330
102
}
330
330
100
DictionaryVariables
280
     0
  1
1:1
  0
DICTIONARYVAR
  5
DB1
102
{ACAD_REACTORS
330
330
102
}
330
330
100
DictionaryVariables
280
     0
  1
Standard
  0
DICTIONARYVAR
  5
335
102
{ACAD_REACTORS
330
330
102
}
330
330
100
DictionaryVariables
280
     0
  1
Standard
  0
DICTIONARYVAR
  5
D52
102
{ACAD_REACTORS
330
330
102
}
330
330
100
DictionaryVariables
280
     0
  1
ByLayer
  0
DICTIONARYVAR
  5
896
102
{ACAD_REACTORS
330
330
102
}
330
330
100
DictionaryVariables
280
     0
  1
0
  0
DICTIONARYVAR
  5
3DA9
102
{ACAD_REACTORS
330
3DA8
102
}
330
3DA8
100
DictionaryVariables
280
     0
  1
0.250000
  0
DICTIONARYVAR
  5
3DA6
102
{ACAD_REACTORS
330
E3E
102
}
330
E3E
100
DictionaryVariables
280
     0
  1
0.261799
  0
DICTIONARYVAR
  5
3DA4
102
{ACAD_REACTORS
330
E3E
102
}
330
E3E
100
DictionaryVariables
280
     0
  1
0.400000
  0
DICTIONARYVAR
  5
3DA5
102
{ACAD_REACTORS
330
E3E
102
}
330
E3E
100
DictionaryVariables
280
     0
  1
0.250000
  0
DICTIONARYVAR
  5
3DA7
102
{ACAD_REACTORS
330
E3E
102
}
330
E3E
100
DictionaryVariables
280
     0
  1
1
  0
FIELD
  5
1467
102
{ACAD_REACTORS
330
146C
330
41D0
102
}
330
41D0
100
AcDbField
  1
_text
  2
{%<\_FldIdx 0>%N}
 90
        1
360
146B
 97
        0
 91
       63
 92
        0
 94
       11
 95
        2
 96
        0
300

 93
        1
  6
ACFD_FIELDTEXT_CHECKSUM
 93
        2
 90
        2
140
4432.0
 94
        0
300

302

304
ACVALUE_END
  7
ACFD_FIELD_VALUE
 93
        6
 90
        4
  1
{20201111N}
 94
        0
300

302

304
ACVALUE_END
301
{20201111N}
 98
       11
  0
DICTIONARY
  5
41DB
330
279
100
AcDbDictionary
280
     1
281
     1
  3
ACAD_ROUNDTRIP_2008_TABLESTYLE_CELLSTYLEMAP
360
41DC
  0
FIELD
  5
146B
330
1467
100
AcDbField
  1
AcVar
  2
\AcVar Date \f "yyyyMMdd"
 90
        0
 97
        0
 91
       63
 92
        0
 94
        8
 95
       64
 96
        0
300
Variable not supported
 93
        1
  6
Variable
 93
        2
 90
        4
  1
Date
 94
        0
300

302

304
ACVALUE_END
  7
ACFD_FIELD_VALUE
 93
        6
 90
        8
 92
       16
310
E4070B0000000B000600320003000000
 94
        0
300
yyyyMMdd
302

304
ACVALUE_END
301
20201111
 98
        8
  0
CELLSTYLEMAP
  5
41DC
102
{ACAD_REACTORS
330
41DB
102
}
330
41DB
100
AcDbCellStyleMap
 90
        3
300
CELLSTYLE
  1
TABLEFORMAT_BEGIN
 90
        5
170
     1
 91
        0
 92
    32768
 62
   257
 93
        1
300
CONTENTFORMAT
  1
CONTENTFORMAT_BEGIN
 90
        0
 91
        0
 92
        4
 93
        0
300

 40
0.0
140
1.0
 94
        5
 62
     0
340
17
144
6.0
309
CONTENTFORMAT_END
171
     1
301
MARGIN
  1
CELLMARGIN_BEGIN
 40
0.06
 40
0.06
 40
0.06
 40
0.06
 40
0.18
 40
0.18
309
CELLMARGIN_END
 94
        6
 95
        1
302
GRIDFORMAT
  1
GRIDFORMAT_BEGIN
 90
        0
 91
        1
 62
     0
 92
       -2
340
0
 93
        0
 40
0.045
309
GRIDFORMAT_END
 95
        2
302
GRIDFORMAT
  1
GRIDFORMAT_BEGIN
 90
        0
 91
        1
 62
     0
 92
       -2
340
0
 93
        0
 40
0.045
309
GRIDFORMAT_END
 95
        4
302
GRIDFORMAT
  1
GRIDFORMAT_BEGIN
 90
        0
 91
        1
 62
     0
 92
       -2
340
0
 93
        0
 40
0.045
309
GRIDFORMAT_END
 95
        8
302
GRIDFORMAT
  1
GRIDFORMAT_BEGIN
 90
        0
 91
        1
 62
     0
 92
       -2
340
0
 93
        0
 40
0.045
309
GRIDFORMAT_END
 95
       16
302
GRIDFORMAT
  1
GRIDFORMAT_BEGIN
 90
        0
 91
        1
 62
     0
 92
       -2
340
0
 93
        0
 40
0.045
309
GRIDFORMAT_END
 95
       32
302
GRIDFORMAT
  1
GRIDFORMAT_BEGIN
 90
        0
 91
        1
 62
     0
 92
       -2
340
0
 93
        0
 40
0.045
309
GRIDFORMAT_END
309
TABLEFORMAT_END
  1
CELLSTYLE_BEGIN
 90
        1
 91
        1
300
_TITLE
309
CELLSTYLE_END
300
CELLSTYLE
  1
TABLEFORMAT_BEGIN
 90
        5
170
     1
 91
        0
 92
        0
 62
   257
 93
        1
300
CONTENTFORMAT
  1
CONTENTFORMAT_BEGIN
 90
        0
 91
        0
 92
        4
 93
        0
300

 40
0.0
140
1.0
 94
        5
 62
     0
340
17
144
4.5
309
CONTENTFORMAT_END
171
     1
301
MARGIN
  1
CELLMARGIN_BEGIN
 40
0.06
 40
0.06
 40
0.06
 40
0.06
 40
0.18
 40
0.18
309
CELLMARGIN_END
 94
        6
 95
        1
302
GRIDFORMAT
  1
GRIDFORMAT_BEGIN
 90
        0
 91
        1
 62
     0
 92
       -2
340
0
 93
        0
 40
0.045
309
GRIDFORMAT_END
 95
        2
302
GRIDFORMAT
  1
GRIDFORMAT_BEGIN
 90
        0
 91
        1
 62
     0
 92
       -2
340
0
 93
        0
 40
0.045
309
GRIDFORMAT_END
 95
        4
302
GRIDFORMAT
  1
GRIDFORMAT_BEGIN
 90
        0
 91
        1
 62
     0
 92
       -2
340
0
 93
        0
 40
0.045
309
GRIDFORMAT_END
 95
        8
302
GRIDFORMAT
  1
GRIDFORMAT_BEGIN
 90
        0
 91
        1
 62
     0
 92
       -2
340
0
 93
        0
 40
0.045
309
GRIDFORMAT_END
 95
       16
302
GRIDFORMAT
  1
GRIDFORMAT_BEGIN
 90
        0
 91
        1
 62
     0
 92
       -2
340
0
 93
        0
 40
0.045
309
GRIDFORMAT_END
 95
       32
302
GRIDFORMAT
  1
GRIDFORMAT_BEGIN
 90
        0
 91
        1
 62
     0
 92
       -2
340
0
 93
        0
 40
0.045
309
GRIDFORMAT_END
309
TABLEFORMAT_END
  1
CELLSTYLE_BEGIN
 90
        2
 91
        1
300
_HEADER
309
CELLSTYLE_END
300
CELLSTYLE
  1
TABLEFORMAT_BEGIN
 90
        5
170
     1
 91
        0
 92
        0
 62
   257
 93
        1
300
CONTENTFORMAT
  1
CONTENTFORMAT_BEGIN
 90
        0
 91
        0
 92
        4
 93
        0
300

 40
0.0
140
1.0
 94
        2
 62
     0
340
17
144
4.5
309
CONTENTFORMAT_END
171
     1
301
MARGIN
  1
CELLMARGIN_BEGIN
 40
0.06
 40
0.06
 40
0.06
 40
0.06
 40
0.18
 40
0.18
309
CELLMARGIN_END
 94
        6
 95
        1
302
GRIDFORMAT
  1
GRIDFORMAT_BEGIN
 90
        0
 91
        1
 62
     0
 92
       -2
340
0
 93
        0
 40
0.045
309
GRIDFORMAT_END
 95
        2
302
GRIDFORMAT
  1
GRIDFORMAT_BEGIN
 90
        0
 91
        1
 62
     0
 92
       -2
340
0
 93
        0
 40
0.045
309
GRIDFORMAT_END
 95
        4
302
GRIDFORMAT
  1
GRIDFORMAT_BEGIN
 90
        0
 91
        1
 62
     0
 92
       -2
340
0
 93
        0
 40
0.045
309
GRIDFORMAT_END
 95
        8
302
GRIDFORMAT
  1
GRIDFORMAT_BEGIN
 90
        0
 91
        1
 62
     0
 92
       -2
340
0
 93
        0
 40
0.045
309
GRIDFORMAT_END
 95
       16
302
GRIDFORMAT
  1
GRIDFORMAT_BEGIN
 90
        0
 91
        1
 62
     0
 92
       -2
340
0
 93
        0
 40
0.045
309
GRIDFORMAT_END
 95
       32
302
GRIDFORMAT
  1
GRIDFORMAT_BEGIN
 90
        0
 91
        1
 62
     0
 92
       -2
340
0
 93
        0
 40
0.045
309
GRIDFORMAT_END
309
TABLEFORMAT_END
  1
CELLSTYLE_BEGIN
 90
        3
 91
        2
300
_DATA
309
CELLSTYLE_END
  0
ENDSEC
  0
EOF
