  0
SECTION
  2
HEADER
  9
$ACADVER
  1
AC1021
  9
$ACADMAINTVER
 70
    25
  9
$DWGCODEPAGE
  3
ANSI_932
  9
$LASTSAVEDBY
  1
howeNelson
  9
$INSBASE
 10
0.0
 20
0.0
 30
0.0
  9
$EXTMIN
 10
22847.05279753241
 20
7734.081630459665
 30
0.0
  9
$EXTMAX
 10
24797.0527975329
 20
10567.43615564152
 30
0.0
  9
$LIMMIN
 10
22772.0527975329
 20
7663.815233019744
  9
$LIMMAX
 10
24872.0527975329
 20
10633.81523301974
  9
$ORTHOMODE
 70
     0
  9
$REGENMODE
 70
     1
  9
$FILLMODE
 70
     1
  9
$QTEXTMODE
 70
     0
  9
$MIRRTEXT
 70
     1
  9
$LTSCALE
 40
127.0
  9
$ATTMODE
 70
     1
  9
$TEXTSIZE
 40
0.0
  9
$TRACEWID
 40
1.0
  9
$TEXTSTYLE
  7
Standard
  9
$CLAYER
  8
ABA70-1504
  9
$CELTYPE
  6
Continuous
  9
$CECOLOR
 62
   256
  9
$CELTSCALE
 40
1.0
  9
$DISPSILH
 70
     0
  9
$DIMSCALE
 40
1.0
  9
$DIMASZ
 40
31.75
  9
$DIMEXO
 40
0.0
  9
$DIMDLI
 40
6.99999999999994
  9
$DIMRND
 40
0.0
  9
$DIMDLE
 40
0.0
  9
$DIMEXE
 40
19.9999999999962
  9
$DIMTP
 40
0.0
  9
$DIMTM
 40
0.0
  9
$DIMTXT
 40
24.4326171875
  9
$DIMCEN
 40
0.0
  9
$DIMTSZ
 40
0.0
  9
$DIMTOL
 70
     0
  9
$DIMLIM
 70
     0
  9
$DIMTIH
 70
     0
  9
$DIMTOH
 70
     0
  9
$DIMSE1
 70
     0
  9
$DIMSE2
 70
     0
  9
$DIMTAD
 70
     1
  9
$DIMZIN
 70
    11
  9
$DIMBLK
  1
VW_FILLEDARROW
  9
$DIMASO
 70
     1
  9
$DIMSHO
 70
     1
  9
$DIMPOST
  1
<>
  9
$DIMAPOST
  1
[]
  9
$DIMALT
 70
     0
  9
$DIMALTD
 70
     3
  9
$DIMALTF
 40
0.0393700787401575
  9
$DIMLFAC
 40
1.0
  9
$DIMTOFL
 70
     0
  9
$DIMTVP
 40
0.0
  9
$DIMTIX
 70
     1
  9
$DIMSOXD
 70
     0
  9
$DIMSAH
 70
     0
  9
$DIMBLK1
  1

  9
$DIMBLK2
  1

  9
$DIMSTYLE
  2
JIS
  9
$DIMCLRD
 70
     0
  9
$DIMCLRE
 70
     0
  9
$DIMCLRT
 70
     0
  9
$DIMTFAC
 40
1.0
  9
$DIMGAP
 40
1.00000000000108
  9
$DIMJUST
 70
     0
  9
$DIMSD1
 70
     0
  9
$DIMSD2
 70
     0
  9
$DIMTOLJ
 70
     1
  9
$DIMTZIN
 70
    11
  9
$DIMALTZ
 70
    15
  9
$DIMALTTZ
 70
    15
  9
$DIMUPT
 70
     0
  9
$DIMDEC
 70
     1
  9
$DIMTDEC
 70
     1
  9
$DIMALTU
 70
     4
  9
$DIMALTTD
 70
     2
  9
$DIMTXSTY
  7
ＭＳ ゴシック
  9
$DIMAUNIT
 70
     0
  9
$DIMADEC
 70
     2
  9
$DIMALTRND
 40
0.0
  9
$DIMAZIN
 70
     0
  9
$DIMDSEP
 70
    46
  9
$DIMATFIT
 70
     0
  9
$DIMFRAC
 70
     2
  9
$DIMLDRBLK
  1

  9
$DIMLUNIT
 70
     2
  9
$DIMLWD
 70
    -2
  9
$DIMLWE
 70
    -2
  9
$DIMTMOVE
 70
     0
  9
$DIMFXL
 40
1.0
  9
$DIMFXLON
 70
     0
  9
$DIMJOGANG
 40
0.7853981633974483
  9
$DIMTFILL
 70
     0
  9
$DIMTFILLCLR
 70
     0
  9
$DIMARCSYM
 70
     0
  9
$DIMLTYPE
  6

  9
$DIMLTEX1
  6

  9
$DIMLTEX2
  6

  9
$LUNITS
 70
     2
  9
$LUPREC
 70
     4
  9
$SKETCHINC
 40
0.1
  9
$FILLETRAD
 40
0.0
  9
$AUNITS
 70
     0
  9
$AUPREC
 70
     0
  9
$MENU
  1
acad
  9
$ELEVATION
 40
0.0
  9
$PELEVATION
 40
0.0
  9
$THICKNESS
 40
0.0
  9
$LIMCHECK
 70
     0
  9
$CHAMFERA
 40
0.0
  9
$CHAMFERB
 40
0.0
  9
$CHAMFERC
 40
0.0
  9
$CHAMFERD
 40
0.0
  9
$SKPOLY
 70
     0
  9
$TDCREATE
 40
2447893.375
  9
$TDUCREATE
 40
0.0
  9
$TDUPDATE
 40
2457857.594790683
  9
$TDUUPDATE
 40
2457857.219790683
  9
$TDINDWG
 40
0.0027558565
  9
$TDUSRTIMER
 40
2457857.219349421
  9
$USRTIMER
 70
     1
  9
$ANGBASE
 50
0.0
  9
$ANGDIR
 70
     0
  9
$PDMODE
 70
     1
  9
$PDSIZE
 40
-2.0
  9
$PLINEWID
 40
0.0
  9
$SPLFRAME
 70
     0
  9
$SPLINETYPE
 70
     6
  9
$SPLINESEGS
 70
     8
  9
$HANDSEED
  5
23F
  9
$SURFTAB1
 70
     6
  9
$SURFTAB2
 70
     6
  9
$SURFTYPE
 70
     6
  9
$SURFU
 70
     6
  9
$SURFV
 70
     6
  9
$UCSBASE
  2

  9
$UCSNAME
  2

  9
$UCSORG
 10
0.0
 20
0.0
 30
0.0
  9
$UCSXDIR
 10
1.0
 20
0.0
 30
0.0
  9
$UCSYDIR
 10
0.0
 20
1.0
 30
0.0
  9
$UCSORTHOREF
  2

  9
$UCSORTHOVIEW
 70
     0
  9
$UCSORGTOP
 10
0.0
 20
0.0
 30
0.0
  9
$UCSORGBOTTOM
 10
0.0
 20
0.0
 30
0.0
  9
$UCSORGLEFT
 10
0.0
 20
0.0
 30
0.0
  9
$UCSORGRIGHT
 10
0.0
 20
0.0
 30
0.0
  9
$UCSORGFRONT
 10
0.0
 20
0.0
 30
0.0
  9
$UCSORGBACK
 10
0.0
 20
0.0
 30
0.0
  9
$PUCSBASE
  2

  9
$PUCSNAME
  2

  9
$PUCSORG
 10
0.0
 20
0.0
 30
0.0
  9
$PUCSXDIR
 10
1.0
 20
0.0
 30
0.0
  9
$PUCSYDIR
 10
0.0
 20
1.0
 30
0.0
  9
$PUCSORTHOREF
  2

  9
$PUCSORTHOVIEW
 70
     0
  9
$PUCSORGTOP
 10
0.0
 20
0.0
 30
0.0
  9
$PUCSORGBOTTOM
 10
0.0
 20
0.0
 30
0.0
  9
$PUCSORGLEFT
 10
0.0
 20
0.0
 30
0.0
  9
$PUCSORGRIGHT
 10
0.0
 20
0.0
 30
0.0
  9
$PUCSORGFRONT
 10
0.0
 20
0.0
 30
0.0
  9
$PUCSORGBACK
 10
0.0
 20
0.0
 30
0.0
  9
$USERI1
 70
     0
  9
$USERI2
 70
     0
  9
$USERI3
 70
     0
  9
$USERI4
 70
     0
  9
$USERI5
 70
     0
  9
$USERR1
 40
0.0
  9
$USERR2
 40
0.0
  9
$USERR3
 40
0.0
  9
$USERR4
 40
0.0
  9
$USERR5
 40
0.0
  9
$WORLDVIEW
 70
     1
  9
$SHADEDGE
 70
     3
  9
$SHADEDIF
 70
    70
  9
$TILEMODE
 70
     1
  9
$MAXACTVP
 70
    64
  9
$PINSBASE
 10
0.0
 20
0.0
 30
0.0
  9
$PLIMCHECK
 70
     0
  9
$PEXTMIN
 10
1.000000000000000E+20
 20
1.000000000000000E+20
 30
1.000000000000000E+20
  9
$PEXTMAX
 10
-1.000000000000000E+20
 20
-1.000000000000000E+20
 30
-1.000000000000000E+20
  9
$PLIMMIN
 10
-95.87226993865028
 20
-25.69999999999999
  9
$PLIMMAX
 10
201.1277300613497
 20
184.3
  9
$UNITMODE
 70
     0
  9
$VISRETAIN
 70
     0
  9
$PLINEGEN
 70
     1
  9
$PSLTSCALE
 70
     0
  9
$TREEDEPTH
 70
  3020
  9
$CMLSTYLE
  2
Standard
  9
$CMLJUST
 70
     0
  9
$CMLSCALE
 40
1.0
  9
$PROXYGRAPHICS
 70
     0
  9
$MEASUREMENT
 70
     1
  9
$CELWEIGHT
370
     0
  9
$ENDCAPS
280
     0
  9
$JOINSTYLE
280
     0
  9
$LWDISPLAY
290
     1
  9
$INSUNITS
 70
     4
  9
$HYPERLINKBASE
  1

  9
$STYLESHEET
  1

  9
$XEDIT
290
     1
  9
$CEPSNTYPE
380
     0
  9
$PSTYLEMODE
290
     1
  9
$FINGERPRINTGUID
  2

  9
$VERSIONGUID
  2

  9
$EXTNAMES
290
     1
  9
$PSVPSCALE
 40
0.0
  9
$OLESTARTUP
290
     0
  9
$SORTENTS
280
   127
  9
$INDEXCTL
280
     0
  9
$HIDETEXT
280
     1
  9
$XCLIPFRAME
290
     0
  9
$HALOGAP
280
     0
  9
$OBSCOLOR
 70
   257
  9
$OBSLTYPE
280
     0
  9
$INTERSECTIONDISPLAY
280
     0
  9
$INTERSECTIONCOLOR
 70
   257
  9
$DIMASSOC
280
     2
  9
$PROJECTNAME
  1

  9
$CAMERADISPLAY
290
     0
  9
$LENSLENGTH
 40
50.0
  9
$CAMERAHEIGHT
 40
0.0
  9
$STEPSPERSEC
 40
2.0
  9
$STEPSIZE
 40
6.0
  9
$3DDWFPREC
 40
2.0
  9
$PSOLWIDTH
 40
0.25
  9
$PSOLHEIGHT
 40
4.0
  9
$LOFTANG1
 40
1.570796326794897
  9
$LOFTANG2
 40
1.570796326794897
  9
$LOFTMAG1
 40
0.0
  9
$LOFTMAG2
 40
0.0
  9
$LOFTPARAM
 70
     7
  9
$LOFTNORMALS
280
     1
  9
$LATITUDE
 40
37.795
  9
$LONGITUDE
 40
-122.394
  9
$NORTHDIRECTION
 40
0.0
  9
$TIMEZONE
 70
 -8000
  9
$LIGHTGLYPHDISPLAY
280
     1
  9
$TILEMODELIGHTSYNCH
280
     1
  9
$SOLIDHIST
280
     1
  9
$SHOWHIST
280
     1
  9
$DWFFRAME
280
     2
  9
$DGNFRAME
280
     2
  9
$REALWORLDSCALE
290
     1
  9
$INTERFERECOLOR
 62
   256
  9
$CSHADOW
280
     0
  9
$SHADOWPLANELOCATION
 40
0.0
  0
ENDSEC
  0
SECTION
  2
CLASSES
  0
CLASS
  1
LWPOLYLINE
  2
AcDbPolyline
  3
ObjectDBX Classes
 90
        0
 91
        1
280
     0
281
     1
  0
CLASS
  1
IMAGE
  2
AcDbRasterImage
  3
ISM
 90
      127
 91
        5
280
     0
281
     1
  0
CLASS
  1
OLE2FRAME
  2
AcDbOle2Frame
  3
ObjectDBX Classes
 90
        0
 91
        1
280
     0
281
     1
  0
CLASS
  1
HATCH
  2
AcDbHatch
  3
ObjectDBX Classes
 90
        0
 91
        1
280
     0
281
     1
  0
CLASS
  1
DICTIONARYVAR
  2
AcDbDictionaryVar
  3
ObjectDBX Classes
 90
        0
 91
        4
280
     0
281
     0
  0
CLASS
  1
RASTERVARIABLES
  2
AcDbRasterVariables
  3
ISM
 90
        0
 91
        4
280
     0
281
     0
  0
CLASS
  1
IMAGEDEF
  2
AcDbRasterImageDef
  3
ISM
 90
        0
 91
        4
280
     0
281
     0
  0
CLASS
  1
IMAGEDEF_REACTOR
  2
AcDbRasterImageDefReactor
  3
ISM
 90
        1
 91
        4
280
     0
281
     0
  0
CLASS
  1
IDBUFFER
  2
AcDbIdBuffer
  3
ObjectDBX Classes
 90
        0
 91
        4
280
     0
281
     0
  0
CLASS
  1
SPATIAL_FILTER
  2
AcDbSpatialFilter
  3
ObjectDBX Classes
 90
        0
 91
        4
280
     0
281
     0
  0
CLASS
  1
XRECORD
  2
AcDbXrecord
  3
ObjectDBX Classes
 90
        0
 91
        1
280
     0
281
     0
  0
CLASS
  1
SORTENTSTABLE
  2
AcDbSortentsTable
  3
ObjectDBX Classes
 90
        0
 91
        4
280
     0
281
     0
  0
CLASS
  1
LAYER_INDEX
  2
AcDbLayerIndex
  3
ObjectDBX Classes
 90
        0
 91
        4
280
     0
281
     0
  0
CLASS
  1
SPATIAL_INDEX
  2
AcDbSpatialIndex
  3
AutoCAD 2000
 90
        0
 91
        4
280
     0
281
     0
  0
CLASS
  1
OBJECT_PTR
  2
CAseDLPNTableRecord
  3
ASE-LPNTableRecord
 90
        1
 91
        4
280
     0
281
     0
  0
CLASS
  1
LAYOUT
  2
AcDbLayout
  3
ObjectDBX Classes
 90
        0
 91
        1
280
     0
281
     0
  0
CLASS
  1
PLOTSETTINGS
  2
AcDbPlotSettings
  3
ObjectDBX Classes
 90
        0
 91
        4
280
     0
281
     0
  0
CLASS
  1
ACDBDICTIONARYWDFLT
  2
AcDbDictionaryWithDefault
  3
ObjectDBX Classes
 90
        0
 91
        4
280
     0
281
     0
  0
CLASS
  1
ACDBPLACEHOLDER
  2
AcDbPlaceHolder
  3
ObjectDBX Classes
 90
        0
 91
        1
280
     0
281
     0
  0
CLASS
  1
SCALE
  2
AcDbScale
  3
ObjectDBX Classes
 90
     1153
 91
        4
280
     0
281
     0
  0
CLASS
  1
VISUALSTYLE
  2
AcDbVisualStyle
  3
ObjectDBX Classes
 90
     4095
 91
        4
280
     0
281
     0
  0
CLASS
  1
MATERIAL
  2
AcDbMaterial
  3
ObjectDBX Classes
 90
     1153
 91
        4
280
     0
281
     0
  0
CLASS
  1
TABLESTYLE
  2
AcDbTableStyle
  3
ObjectDBX Classes
 90
     4095
 91
        4
280
     0
281
     0
  0
CLASS
  1
SUN
  2
AcDbSun
  3
SCENEOE
 90
     1153
 91
        4
280
     0
281
     0
  0
CLASS
  1
DIMASSOC
  2
AcDbDimAssoc
  3
"AcDbDimAssoc|Product Desc:     AcDim ARX App For Dimension|Company:          Autodesk, Inc.|WEB Address:      www.autodesk.com"
 90
        0
 91
        4
280
     0
281
     0
  0
CLASS
  1
CELLSTYLEMAP
  2
AcDbCellStyleMap
  3
ObjectDBX Classes
 90
     1152
 91
        4
280
     0
281
     0
  0
CLASS
  1
MLEADERSTYLE
  2
AcDbMLeaderStyle
  3
ACDB_MLEADERSTYLE_CLASS
 90
     4095
 91
        4
280
     0
281
     0
  0
ENDSEC
  0
SECTION
  2
TABLES
  0
TABLE
  2
VPORT
  5
7
330
0
100
AcDbSymbolTable
 70
     1
  0
VPORT
  5
15
330
7
100
AcDbSymbolTableRecord
100
AcDbViewportTableRecord
  2
*ACTIVE
 70
     0
 10
0.0
 20
0.0
 11
1.0
 21
1.0
 12
23822.05279753265
 22
9150.758893050592
 13
0.0
 23
0.0
 14
1.0
 24
1.0
 15
0.0
 25
0.0
 16
0.0
 26
0.0
 36
1.0
 17
0.0
 27
0.0
 37
0.0
 40
2890.021615685493
 41
2.295518207282913
 42
50.0
 43
0.0
 44
0.0
 50
0.0
 51
0.0
 71
    16
 72
  2000
 73
     1
 74
     1
 75
     0
 76
     0
 77
     0
 78
     0
281
     0
 65
     0
110
0.0
120
0.0
130
0.0
111
1.0
121
0.0
131
0.0
112
0.0
122
1.0
132
0.0
 79
     0
146
0.0
348
1D7
 60
     3
 61
     5
292
     1
282
     1
141
0.0
142
0.0
 63
   250
361
1F2
  0
ENDTAB
  0
TABLE
  2
LTYPE
  5
4
330
0
100
AcDbSymbolTable
 70
    12
  0
LTYPE
  5
11
330
4
100
AcDbSymbolTableRecord
100
AcDbLinetypeTableRecord
  2
ByBlock
 70
     0
  3

 72
    65
 73
     0
 40
0.0
  0
LTYPE
  5
12
330
4
100
AcDbSymbolTableRecord
100
AcDbLinetypeTableRecord
  2
ByLayer
 70
     0
  3

 72
    65
 73
     0
 40
0.0
  0
LTYPE
  5
13
330
4
100
AcDbSymbolTableRecord
100
AcDbLinetypeTableRecord
  2
Continuous
 70
     0
  3
Solid line
 72
    65
 73
     0
 40
0.0
  0
LTYPE
  5
36
330
4
100
AcDbSymbolTableRecord
100
AcDbLinetypeTableRecord
  2
STYLE_01
 70
     0
  3

 72
    65
 73
     2
 40
0.075
 49
0.05
 74
     0
 49
-0.025
 74
     0
  0
LTYPE
  5
37
330
4
100
AcDbSymbolTableRecord
100
AcDbLinetypeTableRecord
  2
STYLE_02
 70
     0
  3

 72
    65
 73
     2
 40
1.792104133858268
 49
1.792104133858268
 74
     0
 49
-0.0002
 74
     0
  0
LTYPE
  5
38
330
4
100
AcDbSymbolTableRecord
100
AcDbLinetypeTableRecord
  2
STYLE_03
 70
     0
  3

 72
    65
 73
     2
 40
0.5
 49
0.416656
 74
     0
 49
-0.083344
 74
     0
  0
LTYPE
  5
39
330
4
100
AcDbSymbolTableRecord
100
AcDbLinetypeTableRecord
  2
STYLE_04
 70
     0
  3

 72
    65
 73
     2
 40
0.611084
 49
0.52777
 74
     0
 49
-0.083314
 74
     0
  0
LTYPE
  5
3A
330
4
100
AcDbSymbolTableRecord
100
AcDbLinetypeTableRecord
  2
STYLE_05
 70
     0
  3

 72
    65
 73
     2
 40
0.083312
 49
0.02777
 74
     0
 49
-0.055542
 74
     0
  0
LTYPE
  5
3B
330
4
100
AcDbSymbolTableRecord
100
AcDbLinetypeTableRecord
  2
STYLE_06
 70
     0
  3

 72
    65
 73
     4
 40
0.416656
 49
0.25
 74
     0
 49
-0.083312
 74
     0
 49
0.027772
 74
     0
 49
-0.055572
 74
     0
  0
LTYPE
  5
3C
330
4
100
AcDbSymbolTableRecord
100
AcDbLinetypeTableRecord
  2
STYLE_07
 70
     0
  3

 72
    65
 73
     6
 40
0.75
 49
0.25
 74
     0
 49
-0.083312
 74
     0
 49
0.2500000000000001
 74
     0
 49
-0.083344
 74
     0
 49
0.027772
 74
     0
 49
-0.055572
 74
     0
  0
LTYPE
  5
3D
330
4
100
AcDbSymbolTableRecord
100
AcDbLinetypeTableRecord
  2
STYLE_08
 70
     0
  3

 72
    65
 73
     6
 40
0.5
 49
0.25
 74
     0
 49
-0.083312
 74
     0
 49
0.027772
 74
     0
 49
-0.055572
 74
     0
 49
0.027772
 74
     0
 49
-0.055572
 74
     0
  0
LTYPE
  5
3E
330
4
100
AcDbSymbolTableRecord
100
AcDbLinetypeTableRecord
  2
STYLE_09
 70
     0
  3

 72
    65
 73
     4
 40
2.0
 49
1.5
 74
     0
 49
-0.1111139999999999
 74
     0
 49
0.2777720000000001
 74
     0
 49
-0.1111139999999999
 74
     0
  0
LTYPE
  5
3F
330
4
100
AcDbSymbolTableRecord
100
AcDbLinetypeTableRecord
  2
STYLE_10
 70
     0
  3

 72
    65
 73
     6
 40
2.375
 49
1.5
 74
     0
 49
-0.1111139999999999
 74
     0
 49
0.2777720000000001
 74
     0
 49
-0.1111139999999999
 74
     0
 49
0.25
 74
     0
 49
-0.125
 74
     0
  0
LTYPE
  5
40
330
4
100
AcDbSymbolTableRecord
100
AcDbLinetypeTableRecord
  2
STYLE_11
 70
     0
  3

 72
    65
 73
     2
 40
0.1574803149606299
 49
0.078740157480315
 74
     0
 49
-0.078740157480315
 74
     0
  0
ENDTAB
  0
TABLE
  2
LAYER
  5
2
330
0
100
AcDbSymbolTable
 70
     5
  0
LAYER
  5
14
330
2
100
AcDbSymbolTableRecord
100
AcDbLayerTableRecord
  2
0
 70
     0
 62
     7
  6
Continuous
370
    -3
390
1D
347
1EE
  0
LAYER
  5
41
330
2
100
AcDbSymbolTableRecord
100
AcDbLayerTableRecord
  2
Defpoints
 70
     0
 62
     7
  6
Continuous
290
     0
370
    -3
390
1D
347
1EE
  0
LAYER
  5
42
330
2
100
AcDbSymbolTableRecord
100
AcDbLayerTableRecord
  2
1_10
 70
     0
 62
     7
  6
Continuous
370
    -3
390
1D
347
1EE
  0
LAYER
  5
43
330
2
100
AcDbSymbolTableRecord
100
AcDbLayerTableRecord
  2
notes
 70
     0
 62
     7
  6
Continuous
370
    -3
390
1D
347
1EE
  0
LAYER
  5
44
330
2
100
AcDbSymbolTableRecord
100
AcDbLayerTableRecord
  2
ABA70-1504
 70
     0
 62
     7
  6
Continuous
370
    -3
390
1D
347
1EE
  0
ENDTAB
  0
TABLE
  2
STYLE
  5
3
330
0
100
AcDbSymbolTable
 70
     2
  0
STYLE
  5
17
330
3
100
AcDbSymbolTableRecord
100
AcDbTextStyleTableRecord
  2
Standard
 70
     0
 40
0.0
 41
1.0
 50
0.0
 71
     0
 42
0.0
  3
txt
  4
BIGFONT.SHX
  0
STYLE
  5
35
330
3
100
AcDbSymbolTableRecord
100
AcDbTextStyleTableRecord
  2
ＭＳ ゴシック
 70
     0
 40
0.0
 41
1.0
 50
0.0
 71
     0
 42
0.0
  3
msgothic.ttc
  4
ＭＳ ゴシック
1001
ACAD
1000
ＭＳ ゴシック
1071
        0
  0
ENDTAB
  0
TABLE
  2
VIEW
  5
5
330
0
100
AcDbSymbolTable
 70
     0
  0
ENDTAB
  0
TABLE
  2
UCS
  5
6
330
0
100
AcDbSymbolTable
 70
     0
  0
ENDTAB
  0
TABLE
  2
APPID
  5
8
330
0
100
AcDbSymbolTable
 70
     3
  0
APPID
  5
16
330
8
100
AcDbSymbolTableRecord
100
AcDbRegAppTableRecord
  2
ACAD
 70
     0
  0
APPID
  5
1F4
330
8
100
AcDbSymbolTableRecord
100
AcDbRegAppTableRecord
  2
ACAD_DSTYLE_DIMRADIAL_EXTENSION
 70
     0
  0
APPID
  5
236
330
8
100
AcDbSymbolTableRecord
100
AcDbRegAppTableRecord
  2
ACAD_MLEADERVER
 70
     0
  0
ENDTAB
  0
TABLE
  2
DIMSTYLE
  5
9
330
0
100
AcDbSymbolTable
 70
     3
100
AcDbDimStyleTable
  0
DIMSTYLE
105
18
330
9
100
AcDbSymbolTableRecord
100
AcDbDimStyleTableRecord
  2
Standard
 70
     0
178
     0
340
17
  0
DIMSTYLE
105
4D
330
9
100
AcDbSymbolTableRecord
100
AcDbDimStyleTableRecord
  2
tfrom線あり
 70
     0
  3
<>
  4
[]
 41
3.999755859375
 42
25.0
 43
0.9999999999999999
 44
0.0
 73
     0
 74
     0
 77
     1
 78
    11
140
24.4326171875
141
0.0
143
0.0393700787401575
147
0.4999999999999999
171
     3
174
     1
178
     0
179
     2
271
     1
272
     1
273
     4
276
     2
284
    11
285
    15
286
    15
289
     0
340
35
341
45
342
45
  0
DIMSTYLE
105
52
102
{ACAD_REACTORS
330
1F5
102
}
330
9
100
AcDbSymbolTableRecord
100
AcDbDimStyleTableRecord
  2
JIS
 70
     0
  3
<>
  4
[]
 41
31.75
 42
0.0
 43
6.99999999999994
 44
19.9999999999962
 73
     0
 74
     0
 77
     1
 78
    11
140
24.4326171875
141
0.0
143
0.0393700787401575
147
1.00000000000108
171
     3
174
     1
178
     0
179
     2
271
     1
272
     1
273
     4
276
     2
284
    11
285
    15
286
    15
289
     0
340
35
341
4E
342
4E
  0
ENDTAB
  0
TABLE
  2
BLOCK_RECORD
  5
1
330
0
100
AcDbSymbolTable
 70
    24
  0
BLOCK_RECORD
  5
A
330
1
100
AcDbSymbolTableRecord
100
AcDbBlockTableRecord
  2
*MODEL_SPACE
340
20
 70
     0
280
     1
281
     0
  0
BLOCK_RECORD
  5
B
330
1
100
AcDbSymbolTableRecord
100
AcDbBlockTableRecord
  2
*PAPER_SPACE
340
21
 70
     0
280
     1
281
     0
  0
BLOCK_RECORD
  5
45
330
1
100
AcDbSymbolTableRecord
100
AcDbBlockTableRecord
  2
_DOT
340
0
102
{BLKREFS
331
6C
331
6D
331
87
331
88
331
94
331
95
331
A1
331
A2
331
AE
331
AF
331
BB
331
BC
331
C8
331
C9
331
E2
331
E3
331
EF
331
F0
331
FC
331
FD
331
109
331
10A
331
116
331
117
331
217
331
218
331
223
331
224
331
230
331
231
102
}
 70
     0
280
     1
281
     0
  0
BLOCK_RECORD
  5
4E
330
1
100
AcDbSymbolTableRecord
100
AcDbBlockTableRecord
  2
VW_FILLEDARROW
340
0
102
{BLKREFS
331
1FD
102
}
 70
     0
280
     1
281
     0
  0
BLOCK_RECORD
  5
23
330
1
100
AcDbSymbolTableRecord
100
AcDbBlockTableRecord
  2
グループ
340
0
102
{BLKREFS
331
131
102
}
 70
     0
280
     1
281
     0
  0
BLOCK_RECORD
  5
24
330
1
100
AcDbSymbolTableRecord
100
AcDbBlockTableRecord
  2
*D3
340
0
 70
     0
280
     1
281
     0
  0
BLOCK_RECORD
  5
25
330
1
100
AcDbSymbolTableRecord
100
AcDbBlockTableRecord
  2
*D4
340
0
 70
     0
280
     1
281
     0
  0
BLOCK_RECORD
  5
26
330
1
100
AcDbSymbolTableRecord
100
AcDbBlockTableRecord
  2
*D5
340
0
 70
     0
280
     1
281
     0
  0
BLOCK_RECORD
  5
27
330
1
100
AcDbSymbolTableRecord
100
AcDbBlockTableRecord
  2
*D6
340
0
 70
     0
280
     1
281
     0
  0
BLOCK_RECORD
  5
28
330
1
100
AcDbSymbolTableRecord
100
AcDbBlockTableRecord
  2
*D7
340
0
 70
     0
280
     1
281
     0
  0
BLOCK_RECORD
  5
29
330
1
100
AcDbSymbolTableRecord
100
AcDbBlockTableRecord
  2
*D8
340
0
 70
     0
280
     1
281
     0
  0
BLOCK_RECORD
  5
2A
330
1
100
AcDbSymbolTableRecord
100
AcDbBlockTableRecord
  2
*D9
340
0
 70
     0
280
     1
281
     0
  0
BLOCK_RECORD
  5
2B
330
1
100
AcDbSymbolTableRecord
100
AcDbBlockTableRecord
  2
*D10
340
0
 70
     0
280
     1
281
     0
  0
BLOCK_RECORD
  5
2C
330
1
100
AcDbSymbolTableRecord
100
AcDbBlockTableRecord
  2
*D11
340
0
 70
     0
280
     1
281
     0
  0
BLOCK_RECORD
  5
2D
330
1
100
AcDbSymbolTableRecord
100
AcDbBlockTableRecord
  2
*D12
340
0
 70
     0
280
     1
281
     0
  0
BLOCK_RECORD
  5
2E
330
1
100
AcDbSymbolTableRecord
100
AcDbBlockTableRecord
  2
*D13
340
0
 70
     0
280
     1
281
     0
  0
BLOCK_RECORD
  5
2F
330
1
100
AcDbSymbolTableRecord
100
AcDbBlockTableRecord
  2
*D14
340
0
 70
     0
280
     1
281
     0
  0
BLOCK_RECORD
  5
30
330
1
100
AcDbSymbolTableRecord
100
AcDbBlockTableRecord
  2
*D15
340
0
 70
     0
280
     1
281
     0
  0
BLOCK_RECORD
  5
31
330
1
100
AcDbSymbolTableRecord
100
AcDbBlockTableRecord
  2
*D16
340
0
 70
     0
280
     1
281
     0
  0
BLOCK_RECORD
  5
32
330
1
100
AcDbSymbolTableRecord
100
AcDbBlockTableRecord
  2
*D17
340
0
 70
     0
280
     1
281
     0
  0
BLOCK_RECORD
  5
33
330
1
100
AcDbSymbolTableRecord
100
AcDbBlockTableRecord
  2
グループ-1
340
0
102
{BLKREFS
331
1AC
102
}
 70
     0
280
     1
281
     0
  0
BLOCK_RECORD
  5
34
330
1
100
AcDbSymbolTableRecord
100
AcDbBlockTableRecord
  2
グループ-2
340
0
102
{BLKREFS
331
1AE
102
}
 70
     0
280
     1
281
     0
  0
BLOCK_RECORD
  5
1F8
330
1
100
AcDbSymbolTableRecord
100
AcDbBlockTableRecord
  2
*D20
340
0
 70
     0
280
     1
281
     0
  0
BLOCK_RECORD
  5
210
330
1
100
AcDbSymbolTableRecord
100
AcDbBlockTableRecord
  2
*D21
340
0
 70
     0
280
     1
281
     0
  0
BLOCK_RECORD
  5
21D
330
1
100
AcDbSymbolTableRecord
100
AcDbBlockTableRecord
  2
*D22
340
0
 70
     0
280
     1
281
     0
  0
BLOCK_RECORD
  5
229
330
1
100
AcDbSymbolTableRecord
100
AcDbBlockTableRecord
  2
*D23
340
0
 70
     0
280
     1
281
     0
  0
ENDTAB
  0
ENDSEC
  0
SECTION
  2
BLOCKS
  0
BLOCK
  5
D
330
A
100
AcDbEntity
  8
0
390
1D
100
AcDbBlockBegin
  2
*MODEL_SPACE
 70
     0
 10
0.0
 20
0.0
 30
0.0
  3
*MODEL_SPACE
  1
*MODEL_SPACE
  0
ENDBLK
  5
E
330
A
100
AcDbEntity
  8
0
390
1D
100
AcDbBlockEnd
  0
BLOCK
  5
F
330
B
100
AcDbEntity
 67
     1
  8
0
390
1D
100
AcDbBlockBegin
  2
*PAPER_SPACE
 70
     0
 10
0.0
 20
0.0
 30
0.0
  3
*PAPER_SPACE
  1
*PAPER_SPACE
  0
ENDBLK
  5
10
330
B
100
AcDbEntity
 67
     1
  8
0
390
1D
100
AcDbBlockEnd
  0
BLOCK
  5
46
330
45
100
AcDbEntity
  8
0
390
1D
100
AcDbBlockBegin
  2
_DOT
 70
     0
 10
0.0
 20
0.0
 30
0.0
  3
_DOT
  1
_DOT
  0
POLYLINE
  5
47
330
45
100
AcDbEntity
  8
0
  6
ByBlock
 62
     0
370
    -2
390
1D
100
AcDb2dPolyline
 66
     1
 10
0.0
 20
0.0
 30
0.0
 70
     1
 40
0.5
 41
0.5
  0
VERTEX
  5
48
330
47
100
AcDbEntity
  8
0
  6
ByBlock
 62
     0
370
    -2
390
1D
100
AcDbVertex
100
AcDb2dVertex
 10
-0.25
 20
0.0
 30
0.0
 42
1.0
  0
VERTEX
  5
49
330
47
100
AcDbEntity
  8
0
  6
ByBlock
 62
     0
370
    -2
390
1D
100
AcDbVertex
100
AcDb2dVertex
 10
0.25
 20
0.0
 30
0.0
 42
1.0
  0
SEQEND
  5
4A
330
47
100
AcDbEntity
  8
0
390
1D
  0
LINE
  5
4B
330
45
100
AcDbEntity
  8
0
  6
ByBlock
 62
     0
370
    -2
390
1D
100
AcDbLine
 10
-0.5
 20
0.0
 30
0.0
 11
-1.0
 21
0.0
 31
0.0
  0
ENDBLK
  5
4C
330
45
100
AcDbEntity
  8
0
390
1D
100
AcDbBlockEnd
  0
BLOCK
  5
4F
330
4E
100
AcDbEntity
  8
0
  6
ByBlock
 62
     0
370
    -2
390
1D
100
AcDbBlockBegin
  2
VW_FILLEDARROW
 70
     0
 10
0.0
 20
0.0
 30
0.0
  3
VW_FILLEDARROW
  1
VW_FILLEDARROW
  0
SOLID
  5
50
330
4E
100
AcDbEntity
  8
0
 62
     0
370
    -2
390
1D
100
AcDbTrace
 10
0.0
 20
0.0
 30
0.0
 11
-0.9921874999999999
 21
-0.2658558393652545
 31
0.0
 12
-0.9921874999999999
 22
0.2658558393652548
 32
0.0
 13
-0.9921874999999999
 23
0.2658558393652548
 33
0.0
  0
ENDBLK
  5
51
330
4E
100
AcDbEntity
  8
0
390
1D
100
AcDbBlockEnd
  0
BLOCK
  5
53
330
23
100
AcDbEntity
  8
1_10
390
1D
100
AcDbBlockBegin
  2
グループ
 70
     0
 10
0.0
 20
0.0
 30
0.0
  3
グループ
  1
グループ
  0
LWPOLYLINE
  5
54
330
23
100
AcDbEntity
  8
0
  6
Continuous
 62
     7
370
    15
390
1D
100
AcDbPolyline
 90
        8
 70
   129
 43
0.0
 10
887.4285078030748
 20
-1334.489721023686
 10
887.4285078030748
 20
-1340.487109717262
 10
877.9273108850715
 20
-1340.487109717262
 10
877.9273108850715
 20
-1364.938072980771
 10
869.5719336232887
 20
-1364.938072980771
 10
869.5719336232887
 20
-1340.487109717262
 10
860.2389766769793
 20
-1340.487109717262
 10
860.2389766769793
 20
-1334.489721023686
  0
LWPOLYLINE
  5
55
330
23
100
AcDbEntity
  8
0
  6
Continuous
 62
     7
370
    15
390
1D
100
AcDbPolyline
 90
      101
 70
   128
 43
0.0
 10
900.1567996336317
 20
-1335.217969516622
 10
900.1721496624168
 20
-1335.213608759937
 42
-0.0222221607812452
 10
900.4621542390878
 20
-1335.144984294693
 10
900.4779480030738
 20
-1335.141980871597
 42
-0.0146883565588934
 10
900.7406507083056
 20
-1335.099977684646
 42
-0.0127458844187264
 10
901.0052896754536
 20
-1335.072440716574
 10
901.0677447537714
 20
-1335.067547293986
 42
-0.0198099018564238
 10
901.4585938632479
 20
-1335.052462136589
 10
901.510405332692
 20
-1335.052515912254
 42
-0.014761738276327
 10
902.005028793663
 20
-1335.067635937499
 10
902.0777202485461
 20
-1335.072008544387
 42
-0.0162624549002029
 10
902.4678738780058
 20
-1335.108241419659
 10
902.5894062692702
 20
-1335.123527978656
 42
-0.0080020874659354
 10
902.7349853003566
 20
-1335.144210825924
 10
902.7733047709486
 20
-1335.150282103735
 42
-0.0053821929678317
 10
902.8417888762664
 20
-1335.161889627557
 10
902.1153831770678
 20
-1337.34281808327
 42
0.01086677573739
 10
902.0480661069431
 20
-1337.329630968052
 10
902.0105980837475
 20
-1337.323133225456
 42
0.0170663203307341
 10
901.8673812968334
 20
-1337.303303628164
 10
901.7995059641489
 20
-1337.296256457577
 42
0.022016237527672
 10
901.5191265562925
 20
-1337.279574096807
 10
901.4412709892413
 20
-1337.27837472954
 42
0.028260691578763
 10
901.1056346656636
 20
-1337.292178006509
 10
901.0617213918907
 20
-1337.296477996513
 42
0.0169677213689564
 10
900.8157968969324
 20
-1337.329015046065
 42
0.0190576269861447
 10
900.5728889343558
 20
-1337.37916191817
 10
900.5666297462415
 20
-1337.380704892281
 42
0.0213685642848188
 10
900.3162452617622
 20
-1337.453905177386
 10
900.3107553668475
 20
-1337.455768173445
 42
0.0237595297595475
 10
900.0572604819502
 20
-1337.555452695339
 10
900.0521584079191
 20
-1337.557744470818
 42
0.0261857468820483
 10
899.7999876316902
 20
-1337.687280808192
 10
899.789561442602
 20
-1337.693346282661
 42
0.0272553062022719
 10
899.5531316673637
 20
-1337.848718488605
 10
899.5183686538545
 20
-1337.874379636697
 42
0.03259968931689
 10
899.3682133102027
 20
-1338.001127509669
 10
899.3445038810788
 20
-1338.023945538182
 42
0.0138050960634597
 10
899.2526207248695
 20
-1338.117395199733
 42
0.0125280103795566
 10
899.1657781920396
 20
-1338.215558526329
 10
899.1420977471277
 20
-1338.243717024521
 42
0.0205218024740018
 10
899.0169976716155
 20
-1338.405510338748
 10
898.9945313311268
 20
-1338.437170068577
 42
0.0163110129586428
 10
898.8388209518752
 20
-1338.672500503648
 10
898.8360970558246
 20
-1338.676924265632
 42
0.0131897341900631
 10
898.6892965349159
 20
-1338.930056358002
 10
898.6875964395522
 20
-1338.933174597133
 42
0.0107895576063121
 10
898.5498197373457
 20
-1339.199389806759
 10
898.5490868478164
 20
-1339.200884039414
 42
0.0091371507222248
 10
898.4206068991648
 20
-1339.475409237178
 10
898.3908612677576
 20
-1339.542115744332
 42
0.0135418326351088
 10
898.2191473286844
 20
-1339.957053529605
 10
898.1855425202551
 20
-1340.044919671873
 42
0.0092834542406019
 10
898.0143134603309
 20
-1340.518818170188
 10
897.9886963326218
 20
-1340.594059239956
 42
0.0054261043575737
 10
897.8810581843202
 20
-1340.921823213047
 10
897.8635321980961
 20
-1340.977211375424
 42
0.0008225090817605
 10
897.7948621463128
 20
-1341.195480133426
 10
896.8101730143793
 20
-1344.220371426682
 10
900.0427968544532
 20
-1344.220371426682
 10
899.5386044245997
 20
-1346.124849725035
 10
896.2825481426164
 20
-1346.124849725035
 10
890.4533991102626
 20
-1364.93807279104
 10
888.6283014999523
 20
-1364.93807279104
 10
894.4629795354532
 20
-1346.124849725035
 10
892.0578631664129
 20
-1346.124849725035
 10
892.5620555962663
 20
-1344.220371426682
 10
894.9906044072163
 20
-1344.220371426682
 10
895.850759325405
 20
-1341.583958425983
 42
-0.0005863560652156
 10
895.8874940036009
 20
-1341.467132005716
 10
895.9635818372689
 20
-1341.226139706306
 42
-0.0087522378926788
 10
896.1630499807259
 20
-1340.630863619159
 10
896.255314256141
 20
-1340.370723450642
 42
-0.0077400953830428
 10
896.5132479152703
 20
-1339.677718773099
 10
896.529012886849
 20
-1339.637287889713
 42
-0.0082369946330594
 10
896.7760973574611
 20
-1339.033208823517
 42
-0.0085725238362489
 10
897.0433434534679
 20
-1338.437782784221
 10
897.1449730544707
 20
-1338.221361682246
 42
-0.0168109410597172
 10
897.4319174832015
 20
-1337.66015415614
 10
897.5577608736922
 20
-1337.433190123086
 42
-0.0007817726868056
 10
897.6120452237171
 20
-1337.335645878112
 10
897.61217352973
 20
-1337.335416169383
 42
-0.0036626142161349
 10
897.6670613937556
 20
-1337.238818289407
 42
-0.0080221150672844
 10
897.7241856491647
 20
-1337.14353905465
 10
897.7548856005235
 20
-1337.094148105532
 42
-0.0202139325568902
 10
897.8825413403317
 20
-1336.906166504848
 10
897.9366088055178
 20
-1336.833087640609
 42
-0.0249323791798366
 10
898.1957715992382
 20
-1336.517042398454
 10
898.219911413364
 20
-1336.490428125543
 42
-0.0242132121540895
 10
898.559592154907
 20
-1336.150544639338
 10
898.6075037276536
 20
-1336.107035503155
 42
-0.0251017527859385
 10
898.8914854282973
 20
-1335.874042757388
 10
898.8929309051103
 20
-1335.872973499809
 42
-0.0130868069035934
 10
899.1911915550684
 20
-1335.664193031266
 10
899.1927533742123
 20
-1335.663159590991
 42
-0.0290329526388077
 10
899.5038645156044
 20
-1335.482334089362
 10
899.5337100775943
 20
-1335.46723170652
 42
-0.0160250190047949
 10
899.7996144913552
 20
-1335.343215596309
 42
-0.0267600374780309
 10
900.0748905688253
 20
-1335.24246727576
 10
900.1016264883448
 20
-1335.234274716935
 42
-0.0049981587669928
 10
900.1567996336317
 20
-1335.217969516622
 42
-0.0049981587669928
  0
LWPOLYLINE
  5
56
330
23
100
AcDbEntity
  8
0
  6
Continuous
 62
     7
370
    15
390
1D
100
AcDbPolyline
 90
      118
 70
   128
 43
0.0
 10
919.9711671980787
 20
-1344.29435475451
 10
921.8462891225781
 20
-1344.29435475451
 10
921.0082502169782
 20
-1346.97592128091
 42
-0.0010587229244717
 10
921.0397060325761
 20
-1346.939016747524
 10
921.0979001231822
 20
-1346.871034491379
 42
-0.0071874740413046
 10
921.2482753412742
 20
-1346.700393799356
 10
921.3899981145424
 20
-1346.544157658037
 42
-0.0148118053513779
 10
921.8401274072513
 20
-1346.076543812027
 10
921.9273497421573
 20
-1345.99114649117
 42
-0.0086273358692718
 10
922.2628985431654
 20
-1345.673770857153
 10
922.3067322593917
 20
-1345.63372121282
 42
-0.0103138323115429
 10
922.5647559616248
 20
-1345.407558075482
 10
922.6105303679605
 20
-1345.369076028215
 42
-0.0060206748564274
 10
922.7833784320641
 20
-1345.227281377468
 10
922.7854095629551
 20
-1345.225655671832
 42
-0.0067069027290416
 10
922.9577023776126
 20
-1345.091505038041
 10
922.9602511435459
 20
-1345.089574868161
 42
-0.0076184352049488
 10
923.1311564094099
 20
-1344.964199992922
 42
-0.0089652861668072
 10
923.3061173721434
 20
-1344.84456673259
 10
923.3424690922884
 20
-1344.820655519107
 42
-0.0156916245939222
 10
923.5384285894495
 20
-1344.700393032632
 42
-0.0023299011069693
 10
923.7386906334059
 20
-1344.587215093104
 10
923.7540747658092
 20
-1344.578615098027
 42
-0.0107669341481016
 10
923.9883115909171
 20
-1344.454214964674
 10
924.0105763919853
 20
-1344.442998214727
 42
-0.0078058045897393
 10
924.2941665099372
 20
-1344.305636759089
 10
924.3040735976472
 20
-1344.30102763122
 42
-0.0181829330470019
 10
924.6143830022639
 20
-1344.170163890124
 10
924.6684384448263
 20
-1344.149648770182
 42
-0.0208411536031712
 10
925.0175234122798
 20
-1344.033558307688
 10
925.0318795124078
 20
-1344.029439862734
 42
-0.022279981713889
 10
925.3605993063245
 20
-1343.950798296594
 10
925.369488269567
 20
-1343.949086286008
 42
-0.0215509523880639
 10
925.6859592378414
 20
-1343.902170597475
 10
925.7284411988906
 20
-1343.897733070684
 42
-0.0182545924872353
 10
925.9625499781955
 20
-1343.881889245293
 10
926.0019509945457
 20
-1343.880664700214
 42
-0.0072962856529007
 10
926.1578738742326
 20
-1343.878095371692
 10
926.1869735448086
 20
-1343.878040536288
 42
-0.0059227516318757
 10
926.2847230439495
 20
-1343.879014248078
 10
926.3139652614603
 20
-1343.879652014683
 42
-0.0011833111901854
 10
926.3532165451538
 20
-1343.880601018992
 10
925.5578299495467
 20
-1346.419334964091
 42
0.0143932051598805
 10
925.5314285671955
 20
-1346.409135994045
 10
925.5241565947788
 20
-1346.406564775188
 42
0.0234388603530011
 10
925.4823257288471
 20
-1346.393945539473
 10
925.473644065934
 20
-1346.391764577468
 42
0.019916274298183
 10
925.4133552318523
 20
-1346.379147842132
 10
925.3925412940478
 20
-1346.375650642704
 42
0.0293643550666261
 10
925.2894664352875
 20
-1346.364500597051
 10
925.2647812545683
 20
-1346.363288980032
 42
0.0214606686863714
 10
925.1116403386152
 20
-1346.362350419615
 10
925.1022684277979
 20
-1346.362695331159
 42
0.0167564054173993
 10
924.9307482366868
 20
-1346.374772373527
 10
924.9222884439305
 20
-1346.375653713954
 42
0.0137677553240766
 10
924.7349351306646
 20
-1346.400403022498
 10
924.7275833911579
 20
-1346.401580942466
 42
0.0118497261482254
 10
924.5270856270553
 20
-1346.438598292655
 10
924.5209356198093
 20
-1346.439885155375
 42
0.0106421143889724
 10
924.3100547325253
 20
-1346.48871753095
 10
924.3051459241352
 20
-1346.489964873635
 42
0.0099746379706321
 10
924.0866874549707
 20
-1346.55013940195
 10
924.0251394148024
 20
-1346.56842128058
 42
0.0191613675859732
 10
923.6891549522869
 20
-1346.682398660867
 10
923.6010951795374
 20
-1346.716085571193
 42
0.0205274080144368
 10
923.2157884076407
 20
-1346.881913979018
 10
923.1581391256583
 20
-1346.909581943591
 42
0.0181256912196064
 10
922.8998621849918
 20
-1347.045265762568
 10
922.8469068016844
 20
-1347.075583375779
 42
0.0140709242402873
 10
922.7019518670495
 20
-1347.164078049217
 10
922.6757029984327
 20
-1347.181134867932
 42
0.0086667884395987
 10
922.5867768368885
 20
-1347.241137535816
 42
0.0036408192034625
 10
922.4993435988384
 20
-1347.30331839362
 10
922.4641167243865
 20
-1347.328759339521
 42
0.0052260781272892
 10
922.3078880270106
 20
-1347.444091726144
 10
922.2916811707357
 20
-1347.456319836773
 42
0.0050024435898219
 10
922.1056778276798
 20
-1347.599602405033
 10
922.0903596711618
 20
-1347.611648427481
 42
0.013613871027649
 10
921.8799184028425
 20
-1347.786614932389
 10
921.8462505270429
 20
-1347.816193905109
 42
0.017281518691684
 10
921.5818469853781
 20
-1348.065190577734
 10
921.5792846395377
 20
-1348.067776394879
 42
0.0189403857992159
 10
921.3287028409577
 20
-1348.340581659684
 10
921.2960713474276
 20
-1348.378925591175
 42
0.0185044199499275
 10
921.1041149084426
 20
-1348.622174172303
 42
0.0088565243898951
 10
920.9256548018152
 20
-1348.875690592452
 10
920.9164768221657
 20
-1348.889231972214
 42
0.0157195347234652
 10
920.7332562158285
 20
-1349.178754181534
 10
920.687173273908
 20
-1349.256906378538
 42
0.0095451879775554
 10
920.5220877237631
 20
-1349.549501020907
 10
920.5109398048392
 20
-1349.570171693028
 42
0.0100351706251944
 10
920.3788960556742
 20
-1349.827227253529
 42
0.0086935915418291
 10
920.2565649038802
 20
-1350.089060398933
 10
920.2532441624656
 20
-1350.096502721906
 42
0.0072580174866602
 10
920.1328977105229
 20
-1350.377094713483
 10
920.1296360772144
 20
-1350.385014739506
 42
0.0060005122616345
 10
920.0104354088706
 20
-1350.684624410115
 10
920.0072244305301
 20
-1350.692985938017
 42
0.0049017786975175
 10
919.888324271672
 20
-1351.011914918622
 10
919.8851584652822
 20
-1351.020667855851
 42
0.0039415167599449
 10
919.7657221872311
 20
-1351.359209918249
 10
919.7625910845734
 20
-1351.368313119141
 42
0.0031035838769637
 10
919.6417862988756
 20
-1351.726752980928
 10
919.6386762543499
 20
-1351.736173602289
 42
0.0025070747154479
 10
919.5157749030382
 20
-1352.114820819221
 10
919.4784810066092
 20
-1352.231712484486
 42
0.0029081910283904
 10
919.2864627088076
 20
-1352.845876142747
 10
919.2456595402813
 20
-1352.979099385053
 42
0.0009266453734212
 10
918.9772421659271
 20
-1353.861323845108
 10
918.9563546933473
 20
-1353.930435724142
 42
-0.0005809993666308
 10
918.6790180127348
 20
-1354.844243830852
 10
918.6127362144622
 20
-1355.06172876301
 42
-0.0012018708165088
 10
918.4657519050327
 20
-1355.539891427532
 10
918.4134320534521
 20
-1355.708650568446
 42
-0.0002691059599173
 10
918.3698625722985
 20
-1355.84891818874
 10
915.5369066740093
 20
-1364.93807279104
 10
913.7189177820308
 20
-1364.93807279104
 10
919.9711671980787
 20
-1344.29435475451
  0
SPLINE
  5
57
330
23
100
AcDbEntity
  8
0
  6
Continuous
 62
     7
370
    15
390
1D
100
AcDbSpline
210
0.0
220
0.0
230
1.0
 70
    15
 71
     2
 72
   782
 73
   779
 74
     0
 42
0.000000001
 43
0.000001
 40
0.0
 40
0.0
 40
0.0
 40
1.0
 40
1.0
 40
2.0
 40
2.0
 40
3.0
 40
3.0
 40
4.0
 40
4.0
 40
5.0
 40
5.0
 40
6.0
 40
6.0
 40
7.0
 40
7.0
 40
8.0
 40
8.0
 40
9.0
 40
9.0
 40
10.0
 40
10.0
 40
11.0
 40
11.0
 40
12.0
 40
12.0
 40
13.0
 40
13.0
 40
14.0
 40
14.0
 40
15.0
 40
15.0
 40
16.0
 40
16.0
 40
17.0
 40
17.0
 40
18.0
 40
18.0
 40
19.0
 40
19.0
 40
20.0
 40
20.0
 40
21.0
 40
21.0
 40
22.0
 40
22.0
 40
23.0
 40
23.0
 40
24.0
 40
24.0
 40
25.0
 40
25.0
 40
26.0
 40
26.0
 40
27.0
 40
27.0
 40
28.0
 40
28.0
 40
29.0
 40
29.0
 40
30.0
 40
30.0
 40
31.0
 40
31.0
 40
32.0
 40
32.0
 40
33.0
 40
33.0
 40
34.0
 40
34.0
 40
35.0
 40
35.0
 40
36.0
 40
36.0
 40
37.0
 40
37.0
 40
38.0
 40
38.0
 40
39.0
 40
39.0
 40
40.0
 40
40.0
 40
41.0
 40
41.0
 40
42.0
 40
42.0
 40
43.0
 40
43.0
 40
44.0
 40
44.0
 40
45.0
 40
45.0
 40
46.0
 40
46.0
 40
47.0
 40
47.0
 40
48.0
 40
48.0
 40
49.0
 40
49.0
 40
50.0
 40
50.0
 40
51.0
 40
51.0
 40
52.0
 40
52.0
 40
53.0
 40
53.0
 40
54.0
 40
54.0
 40
55.0
 40
55.0
 40
56.0
 40
56.0
 40
57.0
 40
57.0
 40
58.0
 40
58.0
 40
59.0
 40
59.0
 40
60.0
 40
60.0
 40
61.0
 40
61.0
 40
62.0
 40
62.0
 40
63.0
 40
63.0
 40
64.0
 40
64.0
 40
65.0
 40
65.0
 40
66.0
 40
66.0
 40
67.0
 40
67.0
 40
68.0
 40
68.0
 40
69.0
 40
69.0
 40
70.0
 40
70.0
 40
71.0
 40
71.0
 40
72.0
 40
72.0
 40
73.0
 40
73.0
 40
74.0
 40
74.0
 40
75.0
 40
75.0
 40
76.0
 40
76.0
 40
77.0
 40
77.0
 40
78.0
 40
78.0
 40
79.0
 40
79.0
 40
80.0
 40
80.0
 40
81.0
 40
81.0
 40
82.0
 40
82.0
 40
83.0
 40
83.0
 40
84.0
 40
84.0
 40
85.0
 40
85.0
 40
86.0
 40
86.0
 40
87.0
 40
87.0
 40
88.0
 40
88.0
 40
89.0
 40
89.0
 40
90.0
 40
90.0
 40
91.0
 40
91.0
 40
92.0
 40
92.0
 40
93.0
 40
93.0
 40
94.0
 40
94.0
 40
95.0
 40
95.0
 40
96.0
 40
96.0
 40
97.0
 40
97.0
 40
98.0
 40
98.0
 40
99.0
 40
99.0
 40
100.0
 40
100.0
 40
101.0
 40
101.0
 40
102.0
 40
102.0
 40
103.0
 40
103.0
 40
104.0
 40
104.0
 40
105.0
 40
105.0
 40
106.0
 40
106.0
 40
107.0
 40
107.0
 40
108.0
 40
108.0
 40
109.0
 40
109.0
 40
110.0
 40
110.0
 40
111.0
 40
111.0
 40
112.0
 40
112.0
 40
113.0
 40
113.0
 40
114.0
 40
114.0
 40
115.0
 40
115.0
 40
116.0
 40
116.0
 40
117.0
 40
117.0
 40
118.0
 40
118.0
 40
119.0
 40
119.0
 40
120.0
 40
120.0
 40
121.0
 40
121.0
 40
122.0
 40
122.0
 40
123.0
 40
123.0
 40
124.0
 40
124.0
 40
125.0
 40
125.0
 40
126.0
 40
126.0
 40
127.0
 40
127.0
 40
128.0
 40
128.0
 40
129.0
 40
129.0
 40
130.0
 40
130.0
 40
131.0
 40
131.0
 40
132.0
 40
132.0
 40
133.0
 40
133.0
 40
134.0
 40
134.0
 40
135.0
 40
135.0
 40
136.0
 40
136.0
 40
137.0
 40
137.0
 40
138.0
 40
138.0
 40
139.0
 40
139.0
 40
140.0
 40
140.0
 40
141.0
 40
141.0
 40
142.0
 40
142.0
 40
143.0
 40
143.0
 40
144.0
 40
144.0
 40
145.0
 40
145.0
 40
146.0
 40
146.0
 40
147.0
 40
147.0
 40
148.0
 40
148.0
 40
149.0
 40
149.0
 40
150.0
 40
150.0
 40
151.0
 40
151.0
 40
152.0
 40
152.0
 40
153.0
 40
153.0
 40
154.0
 40
154.0
 40
155.0
 40
155.0
 40
156.0
 40
156.0
 40
157.0
 40
157.0
 40
158.0
 40
158.0
 40
159.0
 40
159.0
 40
160.0
 40
160.0
 40
161.0
 40
161.0
 40
162.0
 40
162.0
 40
163.0
 40
163.0
 40
164.0
 40
164.0
 40
165.0
 40
165.0
 40
166.0
 40
166.0
 40
167.0
 40
167.0
 40
168.0
 40
168.0
 40
169.0
 40
169.0
 40
170.0
 40
170.0
 40
171.0
 40
171.0
 40
172.0
 40
172.0
 40
173.0
 40
173.0
 40
174.0
 40
174.0
 40
175.0
 40
175.0
 40
176.0
 40
176.0
 40
177.0
 40
177.0
 40
178.0
 40
178.0
 40
179.0
 40
179.0
 40
180.0
 40
180.0
 40
181.0
 40
181.0
 40
182.0
 40
182.0
 40
183.0
 40
183.0
 40
184.0
 40
184.0
 40
185.0
 40
185.0
 40
186.0
 40
186.0
 40
187.0
 40
187.0
 40
188.0
 40
188.0
 40
189.0
 40
189.0
 40
190.0
 40
190.0
 40
191.0
 40
191.0
 40
192.0
 40
192.0
 40
193.0
 40
193.0
 40
194.0
 40
194.0
 40
195.0
 40
195.0
 40
196.0
 40
196.0
 40
197.0
 40
197.0
 40
198.0
 40
198.0
 40
199.0
 40
199.0
 40
200.0
 40
200.0
 40
201.0
 40
201.0
 40
202.0
 40
202.0
 40
203.0
 40
203.0
 40
204.0
 40
204.0
 40
205.0
 40
205.0
 40
206.0
 40
206.0
 40
207.0
 40
207.0
 40
208.0
 40
208.0
 40
209.0
 40
209.0
 40
210.0
 40
210.0
 40
211.0
 40
211.0
 40
212.0
 40
212.0
 40
213.0
 40
213.0
 40
214.0
 40
214.0
 40
215.0
 40
215.0
 40
216.0
 40
216.0
 40
217.0
 40
217.0
 40
218.0
 40
218.0
 40
219.0
 40
219.0
 40
220.0
 40
220.0
 40
221.0
 40
221.0
 40
222.0
 40
222.0
 40
223.0
 40
223.0
 40
224.0
 40
224.0
 40
225.0
 40
225.0
 40
226.0
 40
226.0
 40
227.0
 40
227.0
 40
228.0
 40
228.0
 40
229.0
 40
229.0
 40
230.0
 40
230.0
 40
231.0
 40
231.0
 40
232.0
 40
232.0
 40
233.0
 40
233.0
 40
234.0
 40
234.0
 40
235.0
 40
235.0
 40
236.0
 40
236.0
 40
237.0
 40
237.0
 40
238.0
 40
238.0
 40
239.0
 40
239.0
 40
240.0
 40
240.0
 40
241.0
 40
241.0
 40
242.0
 40
242.0
 40
243.0
 40
243.0
 40
244.0
 40
244.0
 40
245.0
 40
245.0
 40
246.0
 40
246.0
 40
247.0
 40
247.0
 40
248.0
 40
248.0
 40
249.0
 40
249.0
 40
250.0
 40
250.0
 40
251.0
 40
251.0
 40
252.0
 40
252.0
 40
253.0
 40
253.0
 40
254.0
 40
254.0
 40
255.0
 40
255.0
 40
256.0
 40
256.0
 40
257.0
 40
257.0
 40
258.0
 40
258.0
 40
259.0
 40
259.0
 40
260.0
 40
260.0
 40
261.0
 40
261.0
 40
262.0
 40
262.0
 40
263.0
 40
263.0
 40
264.0
 40
264.0
 40
265.0
 40
265.0
 40
266.0
 40
266.0
 40
267.0
 40
267.0
 40
268.0
 40
268.0
 40
269.0
 40
269.0
 40
270.0
 40
270.0
 40
271.0
 40
271.0
 40
272.0
 40
272.0
 40
273.0
 40
273.0
 40
274.0
 40
274.0
 40
275.0
 40
275.0
 40
276.0
 40
276.0
 40
277.0
 40
277.0
 40
278.0
 40
278.0
 40
279.0
 40
279.0
 40
280.0
 40
280.0
 40
281.0
 40
281.0
 40
282.0
 40
282.0
 40
283.0
 40
283.0
 40
284.0
 40
284.0
 40
285.0
 40
285.0
 40
286.0
 40
286.0
 40
287.0
 40
287.0
 40
288.0
 40
288.0
 40
289.0
 40
289.0
 40
290.0
 40
290.0
 40
291.0
 40
291.0
 40
292.0
 40
292.0
 40
293.0
 40
293.0
 40
294.0
 40
294.0
 40
295.0
 40
295.0
 40
296.0
 40
296.0
 40
297.0
 40
297.0
 40
298.0
 40
298.0
 40
299.0
 40
299.0
 40
300.0
 40
300.0
 40
301.0
 40
301.0
 40
302.0
 40
302.0
 40
303.0
 40
303.0
 40
304.0
 40
304.0
 40
305.0
 40
305.0
 40
306.0
 40
306.0
 40
307.0
 40
307.0
 40
308.0
 40
308.0
 40
309.0
 40
309.0
 40
310.0
 40
310.0
 40
311.0
 40
311.0
 40
312.0
 40
312.0
 40
313.0
 40
313.0
 40
314.0
 40
314.0
 40
315.0
 40
315.0
 40
316.0
 40
316.0
 40
317.0
 40
317.0
 40
318.0
 40
318.0
 40
319.0
 40
319.0
 40
320.0
 40
320.0
 40
321.0
 40
321.0
 40
322.0
 40
322.0
 40
323.0
 40
323.0
 40
324.0
 40
324.0
 40
325.0
 40
325.0
 40
326.0
 40
326.0
 40
327.0
 40
327.0
 40
328.0
 40
328.0
 40
329.0
 40
329.0
 40
330.0
 40
330.0
 40
331.0
 40
331.0
 40
332.0
 40
332.0
 40
333.0
 40
333.0
 40
334.0
 40
334.0
 40
335.0
 40
335.0
 40
336.0
 40
336.0
 40
337.0
 40
337.0
 40
338.0
 40
338.0
 40
339.0
 40
339.0
 40
340.0
 40
340.0
 40
341.0
 40
341.0
 40
342.0
 40
342.0
 40
343.0
 40
343.0
 40
344.0
 40
344.0
 40
345.0
 40
345.0
 40
346.0
 40
346.0
 40
347.0
 40
347.0
 40
348.0
 40
348.0
 40
349.0
 40
349.0
 40
350.0
 40
350.0
 40
351.0
 40
351.0
 40
352.0
 40
352.0
 40
353.0
 40
353.0
 40
354.0
 40
354.0
 40
355.0
 40
355.0
 40
356.0
 40
356.0
 40
357.0
 40
357.0
 40
358.0
 40
358.0
 40
359.0
 40
359.0
 40
360.0
 40
360.0
 40
361.0
 40
361.0
 40
362.0
 40
362.0
 40
363.0
 40
363.0
 40
364.0
 40
364.0
 40
365.0
 40
365.0
 40
366.0
 40
366.0
 40
367.0
 40
367.0
 40
368.0
 40
368.0
 40
369.0
 40
369.0
 40
370.0
 40
370.0
 40
371.0
 40
371.0
 40
372.0
 40
372.0
 40
373.0
 40
373.0
 40
374.0
 40
374.0
 40
375.0
 40
375.0
 40
376.0
 40
376.0
 40
377.0
 40
377.0
 40
378.0
 40
378.0
 40
379.0
 40
379.0
 40
380.0
 40
380.0
 40
381.0
 40
381.0
 40
382.0
 40
382.0
 40
383.0
 40
383.0
 40
384.0
 40
384.0
 40
385.0
 40
385.0
 40
386.0
 40
386.0
 40
387.0
 40
387.0
 40
388.0
 40
388.0
 40
389.0
 40
389.0
 40
389.0
 10
930.2998716488113
 20
-1344.283428391147
 30
0.0
 41
1.0
 10
931.1182957575318
 20
-1344.283428391147
 30
0.0
 41
1.0
 10
931.9367198662522
 20
-1344.283428391147
 30
0.0
 41
1.0
 10
931.5229661307355
 20
-1345.626054655397
 30
0.0
 41
1.0
 10
931.1092123952187
 20
-1346.968680919647
 30
0.0
 41
1.0
 10
931.1275518903724
 20
-1346.939980146757
 30
0.0
 41
0.9999957264353334
 10
931.1460588871898
 20
-1346.911387096627
 30
0.0
 41
1.0
 10
931.1764882113409
 20
-1346.86437421823
 30
0.0
 41
1.0
 10
931.206917535492
 20
-1346.817361339833
 30
0.0
 41
1.0
 10
931.2862831805996
 20
-1346.694742532927
 30
0.0
 41
0.9995394069080855
 10
931.3729415721515
 20
-1346.577164471186
 30
0.0
 41
1.0
 10
931.4086984344108
 20
-1346.528649578593
 30
0.0
 41
1.0
 10
931.4444552966701
 20
-1346.480134686
 30
0.0
 41
1.0
 10
931.5781819644887
 20
-1346.298694410873
 30
0.0
 41
0.9994460617143494
 10
931.7236824457757
 20
-1346.126552013224
 30
0.0
 41
1.0
 10
931.72807062675
 20
-1346.121360332842
 30
0.0
 41
1.0
 10
931.7324588077244
 20
-1346.116168652461
 30
0.0
 41
1.0
 10
931.8691829270621
 20
-1345.954409615576
 30
0.0
 41
0.9994359394933763
 10
932.0164571574151
 20
-1345.80219341441
 30
0.0
 41
1.0
 10
932.0188405113706
 20
-1345.799730084035
 30
0.0
 41
1.0
 10
932.0212238653261
 20
-1345.797266753659
 30
0.0
 41
1.0
 10
932.1637313877693
 20
-1345.649977213243
 30
0.0
 41
0.9995293688567944
 10
932.3150030687486
 20
-1345.511704001081
 30
0.0
 41
1.0
 10
932.3342968280126
 20
-1345.49406811543
 30
0.0
 41
1.0
 10
932.3535905872766
 20
-1345.476432229778
 30
0.0
 41
1.0
 10
932.4662747497322
 20
-1345.373430788916
 30
0.0
 41
0.999708761480295
 10
932.5837976386858
 20
-1345.275986508119
 30
0.0
 41
1.0
 10
932.6029637118684
 20
-1345.260094929606
 30
0.0
 41
1.0
 10
932.6221297850508
 20
-1345.244203351092
 30
0.0
 41
1.0
 10
932.701320527651
 20
-1345.178542227313
 30
0.0
 41
0.9999595338700135
 10
932.781679798496
 20
-1345.114316496667
 30
0.0
 41
1.0
 10
932.8620390693484
 20
-1345.050090766014
 30
0.0
 41
0.9999749417498401
 10
932.943299603691
 20
-1344.987009212068
 30
0.0
 41
1.0
 10
932.9642857498659
 20
-1344.970717924757
 30
0.0
 41
1.0
 10
932.9852718960408
 20
-1344.954426637445
 30
0.0
 41
1.0
 10
933.069839781333
 20
-1344.888777627612
 30
0.0
 41
0.9999792037130208
 10
933.1552473810971
 20
-1344.824224845972
 30
0.0
 41
1.0
 10
933.1760722070195
 20
-1344.808485023706
 30
0.0
 41
1.0
 10
933.1968970329419
 20
-1344.79274520144
 30
0.0
 41
1.0
 10
933.2406549808724
 20
-1344.759672064325
 30
0.0
 41
0.9999993373740191
 10
933.2843366670097
 20
-1344.726498268905
 30
0.0
 41
1.0
 10
933.3280183531507
 20
-1344.693324473482
 30
0.0
 41
0.9999160953816699
 10
933.3725447640684
 20
-1344.661293408285
 30
0.0
 41
1.0
 10
933.4053666514899
 20
-1344.637682252699
 30
0.0
 41
1.0
 10
933.4381885389115
 20
-1344.614071097113
 30
0.0
 41
1.0
 10
933.5483587246692
 20
-1344.534817720745
 30
0.0
 41
0.9980964527231613
 10
933.66744771817
 20
-1344.469730247889
 30
0.0
 41
1.0
 10
933.7044803250972
 20
-1344.449490268296
 30
0.0
 41
1.0
 10
933.7415129320244
 20
-1344.429250288704
 30
0.0
 41
1.0
 10
933.9208399452983
 20
-1344.331240038002
 30
0.0
 41
0.9984572810572789
 10
934.1099285116588
 20
-1344.253717776655
 30
0.0
 41
1.0
 10
934.1135747810539
 20
-1344.252222884317
 30
0.0
 41
1.0
 10
934.117221050449
 20
-1344.25072799198
 30
0.0
 41
1.0
 10
934.2990170780171
 20
-1344.176195515309
 30
0.0
 41
0.9987838528033893
 10
934.487269736577
 20
-1344.119929875143
 30
0.0
 41
1.0
 10
934.4915076857766
 20
-1344.118663221452
 30
0.0
 41
1.0
 10
934.4957456349762
 20
-1344.117396567762
 30
0.0
 41
1.0
 10
934.6755223951371
 20
-1344.063664234977
 30
0.0
 41
0.999065281620722
 10
934.8592683268521
 20
-1344.025660555435
 30
0.0
 41
1.0
 10
934.8644567278818
 20
-1344.024587452329
 30
0.0
 41
1.0
 10
934.8696451289117
 20
-1344.023514349223
 30
0.0
 41
1.0
 10
935.0430142585666
 20
-1343.987656875893
 30
0.0
 41
0.9992909934270359
 10
935.2185900250263
 20
-1343.964946443426
 30
0.0
 41
1.0
 10
935.3941657914828
 20
-1343.94223601096
 30
0.0
 41
0.9994553539448302
 10
935.5708572245744
 20
-1343.931156706754
 30
0.0
 41
1.0
 10
935.6062916323717
 20
-1343.928934818706
 30
0.0
 41
1.0
 10
935.641726040169
 20
-1343.926712930658
 30
0.0
 41
1.0
 10
935.8079518067381
 20
-1343.916289868246
 30
0.0
 41
0.999092809829273
 10
935.974461598641
 20
-1343.920049509481
 30
0.0
 41
1.0
 10
936.0130234339139
 20
-1343.920920201014
 30
0.0
 41
1.0
 10
936.0515852691867
 20
-1343.921790892547
 30
0.0
 41
1.0
 10
936.1409713905447
 20
-1343.923809150715
 30
0.0
 41
0.999838208920621
 10
936.2302270733298
 20
-1343.929041277243
 30
0.0
 41
1.0
 10
936.2306569795473
 20
-1343.929066478146
 30
0.0
 41
1.0
 10
936.2310868857649
 20
-1343.929091679048
 30
0.0
 41
1.0
 10
936.3194827561138
 20
-1343.934273403771
 30
0.0
 41
0.9997558016759435
 10
936.4075633333168
 20
-1343.943355919138
 30
0.0
 41
1.0
 10
936.4080394717428
 20
-1343.94340501662
 30
0.0
 41
1.0
 10
936.4085156101686
 20
-1343.943454114102
 30
0.0
 41
1.0
 10
936.4956439105135
 20
-1343.952438434504
 30
0.0
 41
0.9996565144182056
 10
936.5821817638598
 20
-1343.965975741194
 30
0.0
 41
1.0
 10
936.5826476892364
 20
-1343.966048626925
 30
0.0
 41
1.0
 10
936.5831136146129
 20
-1343.966121512656
 30
0.0
 41
1.0
 10
936.6687196172007
 20
-1343.979513047882
 30
0.0
 41
0.9995321806866535
 10
936.7533466975298
 20
-1343.998113536312
 30
0.0
 41
1.0
 10
936.7537358921034
 20
-1343.998199078778
 30
0.0
 41
1.0
 10
936.754125086677
 20
-1343.998284621244
 30
0.0
 41
1.0
 10
936.8379737778592
 20
-1344.016714024742
 30
0.0
 41
0.9993819199219618
 10
936.920320312054
 20
-1344.040989408002
 30
0.0
 41
1.0
 10
936.9205587455527
 20
-1344.041059697111
 30
0.0
 41
1.0
 10
936.9207971790515
 20
-1344.041129986221
 30
0.0
 41
1.0
 10
937.0026668462502
 20
-1344.065264791263
 30
0.0
 41
0.9992088568505916
 10
937.0823593652384
 20
-1344.095830027057
 30
0.0
 41
1.0
 10
937.1620403561174
 20
-1344.12638962779
 30
0.0
 41
0.9990226101773474
 10
937.2387110260246
 20
-1344.163867059405
 30
0.0
 41
1.0
 10
937.3153701678222
 20
-1344.201338855958
 30
0.0
 41
0.9988424273972117
 10
937.3880737950342
 20
-1344.24600363121
 30
0.0
 41
1.0
 10
937.3883415034139
 20
-1344.246168095283
 30
0.0
 41
1.0
 10
937.3886092117937
 20
-1344.246332559355
 30
0.0
 41
1.0
 10
937.4618482557645
 20
-1344.291326262753
 30
0.0
 41
0.9986928844491282
 10
937.5301111224742
 20
-1344.343561997032
 30
0.0
 41
1.0
 10
937.530692414697
 20
-1344.34400681026
 30
0.0
 41
1.0
 10
937.5312737069198
 20
-1344.344451623488
 30
0.0
 41
1.0
 10
937.600699158075
 20
-1344.397576984224
 30
0.0
 41
0.998600726227902
 10
937.6641253278419
 20
-1344.457737753917
 30
0.0
 41
1.0
 10
937.6650197432991
 20
-1344.458586121752
 30
0.0
 41
1.0
 10
937.6659141587563
 20
-1344.459434489587
 30
0.0
 41
1.0
 10
937.7311291594372
 20
-1344.521291994951
 30
0.0
 41
0.9985581491382038
 10
937.789336771139
 20
-1344.589784485222
 30
0.0
 41
1.0
 10
937.7985952247349
 20
-1344.600678842924
 30
0.0
 41
1.0
 10
937.8078536783307
 20
-1344.611573200626
 30
0.0
 41
1.0
 10
937.8845781972235
 20
-1344.701854406301
 30
0.0
 41
0.9970460233520153
 10
937.946570098383
 20
-1344.802821490482
 30
0.0
 41
1.0
 10
937.9610394634624
 20
-1344.826387949563
 30
0.0
 41
1.0
 10
937.9755088285419
 20
-1344.849954408644
 30
0.0
 41
1.0
 10
938.0152455285546
 20
-1344.914674132677
 30
0.0
 41
0.9988468816636342
 10
938.0485918993063
 20
-1344.982906585105
 30
0.0
 41
1.0
 10
938.0556279217984
 20
-1344.997303506243
 30
0.0
 41
1.0
 10
938.0626639442905
 20
-1345.011700427382
 30
0.0
 41
1.0
 10
938.0819382700581
 20
-1345.051139037533
 30
0.0
 41
0.9998431189996929
 10
938.0998035975529
 20
-1345.091235591973
 30
0.0
 41
1.0
 10
938.1176689250815
 20
-1345.131332146489
 30
0.0
 41
0.9999989990028213
 10
938.1356476485108
 20
-1345.171377984089
 30
0.0
 41
1.0
 10
938.1418199600846
 20
-1345.185126200856
 30
0.0
 41
1.0
 10
938.1479922716583
 20
-1345.198874417623
 30
0.0
 41
1.0
 10
938.1783156182686
 20
-1345.266416688831
 30
0.0
 41
0.9998790356321278
 10
938.2065234984066
 20
-1345.334869440769
 30
0.0
 41
1.0
 10
938.2133586796906
 20
-1345.351456542196
 30
0.0
 41
1.0
 10
938.2201938609745
 20
-1345.368043643622
 30
0.0
 41
1.0
 10
938.2437515233563
 20
-1345.425211598511
 30
0.0
 41
0.9998227574561287
 10
938.2651402717449
 20
-1345.483225906787
 30
0.0
 41
1.0
 10
938.2865290201344
 20
-1345.541240215065
 30
0.0
 41
0.9996797971040683
 10
938.3049553050935
 20
-1345.600262334183
 30
0.0
 41
1.0
 10
938.308859107819
 20
-1345.612766792352
 30
0.0
 41
1.0
 10
938.3127629105445
 20
-1345.62527125052
 30
0.0
 41
1.0
 10
938.3389968009549
 20
-1345.709302285976
 30
0.0
 41
0.9979274938734355
 10
938.3542213244341
 20
-1345.796006644637
 30
0.0
 41
1.0
 10
938.3564450116949
 20
-1345.808670645456
 30
0.0
 41
1.0
 10
938.3586686989557
 20
-1345.821334646275
 30
0.0
 41
1.0
 10
938.3695986386547
 20
-1345.883581153569
 30
0.0
 41
0.9994985982137418
 10
938.3765668038316
 20
-1345.946394654711
 30
0.0
 41
1.0
 10
938.3835349690083
 20
-1346.009208155848
 30
0.0
 41
0.9996372611200992
 10
938.3871108347761
 20
-1346.072305734531
 30
0.0
 41
1.0
 10
938.3872794122656
 20
-1346.075280351615
 30
0.0
 41
1.0
 10
938.387447989755
 20
-1346.0782549687
 30
0.0
 41
1.0
 10
938.3913610105012
 20
-1346.147301781544
 30
0.0
 41
0.9997730630736238
 10
938.3923293239893
 20
-1346.216452605576
 30
0.0
 41
1.0
 10
938.3923864304074
 20
-1346.22053078472
 30
0.0
 41
1.0
 10
938.3924435368256
 20
-1346.224608963864
 30
0.0
 41
1.0
 10
938.3935260631498
 20
-1346.301916146185
 30
0.0
 41
0.9998772614069082
 10
938.392185976418
 20
-1346.379219292753
 30
0.0
 41
1.0
 10
938.3920967132193
 20
-1346.384368456585
 30
0.0
 41
1.0
 10
938.3920074500206
 20
-1346.389517620416
 30
0.0
 41
1.0
 10
938.3904888368914
 20
-1346.477119094651
 30
0.0
 41
0.9999415567326905
 10
938.387076526645
 20
-1346.564667256336
 30
0.0
 41
1.0
 10
938.3868352059699
 20
-1346.570858716068
 30
0.0
 41
1.0
 10
938.3865938852948
 20
-1346.5770501758
 30
0.0
 41
1.0
 10
938.382698933698
 20
-1346.676981256959
 30
0.0
 41
0.9999716810434098
 10
938.3773003505797
 20
-1346.776842395179
 30
0.0
 41
1.0
 10
938.374087551791
 20
-1346.836271644834
 30
0.0
 41
1.0
 10
938.3708747530025
 20
-1346.895700894489
 30
0.0
 41
1.0
 10
938.3628008438498
 20
-1347.045049295772
 30
0.0
 41
0.9999819129906373
 10
938.3529310522329
 20
-1347.194289773485
 30
0.0
 41
1.0
 10
938.3430612606163
 20
-1347.343530251197
 30
0.0
 41
1.0
 10
938.3406219400524
 20
-1347.380723297046
 30
0.0
 41
1.0
 10
938.3633201738828
 20
-1347.341982299718
 30
0.0
 41
0.9999982127994569
 10
938.3861647326473
 20
-1347.303327405744
 30
0.0
 41
1.0
 10
938.4130742925279
 20
-1347.257794191696
 30
0.0
 41
1.0
 10
938.4399838524085
 20
-1347.212260977648
 30
0.0
 41
1.0
 10
938.516647530934
 20
-1347.082539655579
 30
0.0
 41
0.9998609190057378
 10
938.5975948437966
 20
-1346.955447273649
 30
0.0
 41
1.0
 10
938.6272431652792
 20
-1346.90889754069
 30
0.0
 41
1.0
 10
938.6568914867619
 20
-1346.862347807731
 30
0.0
 41
1.0
 10
938.7391637069984
 20
-1346.733175237737
 30
0.0
 41
0.99990676097348
 10
938.8249327164608
 20
-1346.606297548298
 30
0.0
 41
1.0
 10
938.8273374196605
 20
-1346.602740282245
 30
0.0
 41
1.0
 10
938.8297421228601
 20
-1346.599183016192
 30
0.0
 41
1.0
 10
938.9107017259212
 20
-1346.479419858862
 30
0.0
 41
0.9998784952150989
 10
938.9953553356062
 20
-1346.362238642148
 30
0.0
 41
1.0
 10
939.0800089452869
 20
-1346.24505742544
 30
0.0
 41
0.9998532968284253
 10
939.1686265661086
 20
-1346.130844516971
 30
0.0
 41
1.0
 10
939.188588355101
 20
-1346.105117195949
 30
0.0
 41
1.0
 10
939.2085501440936
 20
-1346.079389874927
 30
0.0
 41
1.0
 10
939.3270341938519
 20
-1345.92668426396
 30
0.0
 41
0.9991551975795396
 10
939.4576586434748
 20
-1345.784224701877
 30
0.0
 41
1.0
 10
939.4611682594532
 20
-1345.780397100254
 30
0.0
 41
1.0
 10
939.4646778754316
 20
-1345.776569498631
 30
0.0
 41
1.0
 10
939.5882830930965
 20
-1345.641765139795
 30
0.0
 41
0.9997418144181018
 10
939.7178852327988
 20
-1345.512715729181
 30
0.0
 41
1.0
 10
939.8474873724988
 20
-1345.383666318569
 30
0.0
 41
0.9989238204633436
 10
939.9884899207489
 20
-1345.267181356531
 30
0.0
 41
1.0
 10
940.0337375988888
 20
-1345.229801364922
 30
0.0
 41
1.0
 10
940.0789852770289
 20
-1345.192421373313
 30
0.0
 41
1.0
 10
940.2192253342513
 20
-1345.076566320021
 30
0.0
 41
0.9990825084096853
 10
940.368865266855
 20
-1344.973137322188
 30
0.0
 41
1.0
 10
940.3789106309085
 20
-1344.966194109111
 30
0.0
 41
1.0
 10
940.3889559949621
 20
-1344.959250896034
 30
0.0
 41
1.0
 10
940.518505199454
 20
-1344.869708324358
 30
0.0
 41
0.9998164899825488
 10
940.6513894028352
 20
-1344.785194082839
 30
0.0
 41
1.0
 10
940.6632349633619
 20
-1344.777660316312
 30
0.0
 41
1.0
 10
940.6750805238887
 20
-1344.770126549786
 30
0.0
 41
1.0
 10
940.7842736062125
 20
-1344.700679841322
 30
0.0
 41
0.999747344913069
 10
940.8964775634608
 20
-1344.636210883507
 30
0.0
 41
1.0
 10
941.0086815207092
 20
-1344.571741925692
 30
0.0
 41
0.9999327861147479
 10
941.1223501314688
 20
-1344.509891934012
 30
0.0
 41
1.0
 10
941.1229021340321
 20
-1344.509591575332
 30
0.0
 41
1.0
 10
941.1234541365952
 20
-1344.509291216651
 30
0.0
 41
1.0
 10
941.2382267524795
 20
-1344.446840507612
 30
0.0
 41
0.9996956420483157
 10
941.3559400783207
 20
-1344.390127040636
 30
0.0
 41
1.0
 10
941.3863804832122
 20
-1344.375461063907
 30
0.0
 41
1.0
 10
941.4168208881035
 20
-1344.360795087178
 30
0.0
 41
1.0
 10
941.5197979948473
 20
-1344.311181428734
 30
0.0
 41
0.9998070570175864
 10
941.6246443837905
 20
-1344.265650841832
 30
0.0
 41
1.0
 10
941.7294907727335
 20
-1344.220120254931
 30
0.0
 41
0.999782743614761
 10
941.8361437093431
 20
-1344.178999083619
 30
0.0
 41
1.0
 10
941.8553665589736
 20
-1344.171587509987
 30
0.0
 41
1.0
 10
941.8745894086042
 20
-1344.164175936355
 30
0.0
 41
1.0
 10
942.0196880444776
 20
-1344.108231617778
 30
0.0
 41
0.9988031841976367
 10
942.169558407082
 20
-1344.06673155361
 30
0.0
 41
1.0
 10
942.194475655446
 20
-1344.059831807803
 30
0.0
 41
1.0
 10
942.2193929038101
 20
-1344.052932061996
 30
0.0
 41
1.0
 10
942.3866629294564
 20
-1344.006613919589
 30
0.0
 41
0.9984748040550027
 10
942.5580198381041
 20
-1343.979019687325
 30
0.0
 41
1.0
 10
942.5627589743532
 20
-1343.978256526811
 30
0.0
 41
1.0
 10
942.5674981106023
 20
-1343.977493366298
 30
0.0
 41
1.0
 10
942.7293767467531
 20
-1343.95142545506
 30
0.0
 41
0.9984436495479933
 10
942.8931514904777
 20
-1343.943547501241
 30
0.0
 41
1.0
 10
942.914848698609
 20
-1343.942503814042
 30
0.0
 41
1.0
 10
942.9365459067403
 20
-1343.941460126842
 30
0.0
 41
1.0
 10
943.0569262342024
 20
-1343.935669547423
 30
0.0
 41
0.9987954789335233
 10
943.1772944791123
 20
-1343.941706075165
 30
0.0
 41
1.0
 10
943.1972592716081
 20
-1343.942707319503
 30
0.0
 41
1.0
 10
943.217224064104
 20
-1343.943708563842
 30
0.0
 41
1.0
 10
943.2976627240237
 20
-1343.947742602907
 30
0.0
 41
0.9997941595877502
 10
943.3778715021166
 20
-1343.955036668828
 30
0.0
 41
1.0
 10
943.4580802802146
 20
-1343.96233073475
 30
0.0
 41
0.9998589466236496
 10
943.5379988270732
 20
-1343.9723145892
 30
0.0
 41
1.0
 10
943.5704050288779
 20
-1343.976362946119
 30
0.0
 41
1.0
 10
943.6028112306825
 20
-1343.980411303038
 30
0.0
 41
1.0
 10
943.7475421811531
 20
-1343.998491871326
 30
0.0
 41
0.999349506324908
 10
943.8905934249179
 20
-1344.026957581068
 30
0.0
 41
1.0
 10
943.9235271220716
 20
-1344.033511044283
 30
0.0
 41
1.0
 10
943.9564608192254
 20
-1344.040064507498
 30
0.0
 41
1.0
 10
944.0657546424286
 20
-1344.061812841633
 30
0.0
 41
0.9996788715561211
 10
944.1738062143846
 20
-1344.089070640996
 30
0.0
 41
1.0
 10
944.1758692169242
 20
-1344.089591067569
 30
0.0
 41
1.0
 10
944.1779322194639
 20
-1344.090111494142
 30
0.0
 41
1.0
 10
944.2818577863418
 20
-1344.116328440359
 30
0.0
 41
0.9995480654492639
 10
944.3840200215704
 20
-1344.148743396983
 30
0.0
 41
1.0
 10
944.3857096636996
 20
-1344.149279501897
 30
0.0
 41
1.0
 10
944.3873993058286
 20
-1344.149815606811
 30
0.0
 41
1.0
 10
944.4861822567998
 20
-1344.181158353608
 30
0.0
 41
0.9993867959456058
 10
944.5825294152424
 20
-1344.219337722898
 30
0.0
 41
1.0
 10
944.5837723643266
 20
-1344.219830264793
 30
0.0
 41
1.0
 10
944.5850153134107
 20
-1344.220322806689
 30
0.0
 41
1.0
 10
944.6788765736845
 20
-1344.257517092187
 30
0.0
 41
0.9992050256521701
 10
944.7694762487183
 20
-1344.302070991426
 30
0.0
 41
1.0
 10
944.7702109314317
 20
-1344.302432283887
 30
0.0
 41
1.0
 10
944.7709456141451
 20
-1344.302793576349
 30
0.0
 41
1.0
 10
944.8600759237526
 20
-1344.346624890665
 30
0.0
 41
0.9990222350741896
 10
944.9449859851454
 20
-1344.398158158363
 30
0.0
 41
1.0
 10
944.9451698704281
 20
-1344.398269761268
 30
0.0
 41
1.0
 10
944.9453537557107
 20
-1344.398381364173
 30
0.0
 41
1.0
 10
945.0298960465386
 20
-1344.449691426061
 30
0.0
 41
0.9988642743805378
 10
945.109170581158
 20
-1344.508815613587
 30
0.0
 41
1.0
 10
945.1884451157778
 20
-1344.567939801113
 30
0.0
 41
0.9987681233310948
 10
945.2614689000537
 20
-1344.634630492513
 30
0.0
 41
1.0
 10
945.2617978280193
 20
-1344.634930893727
 30
0.0
 41
1.0
 10
945.2621267559848
 20
-1344.635231294941
 30
0.0
 41
1.0
 10
945.3358083961925
 20
-1344.70252278877
 30
0.0
 41
0.9987496570898327
 10
945.4024022015196
 20
-1344.776835602857
 30
0.0
 41
1.0
 10
945.4031743712801
 20
-1344.777697276215
 30
0.0
 41
1.0
 10
945.4039465410406
 20
-1344.778558949573
 30
0.0
 41
1.0
 10
945.4720846858877
 20
-1344.854595110374
 30
0.0
 41
0.9988147669826568
 10
945.5325069401127
 20
-1344.936896117216
 30
0.0
 41
1.0
 10
945.5336262661909
 20
-1344.93842074857
 30
0.0
 41
1.0
 10
945.5347455922691
 20
-1344.939945379923
 30
0.0
 41
1.0
 10
945.5974064986501
 20
-1345.025295649471
 30
0.0
 41
0.9989452636216534
 10
945.6519734116112
 20
-1345.116034338628
 30
0.0
 41
1.0
 10
945.6533221376967
 20
-1345.118277119655
 30
0.0
 41
1.0
 10
945.6546708637823
 20
-1345.12051990068
 30
0.0
 41
1.0
 10
945.7119352289151
 20
-1345.21574415189
 30
0.0
 41
0.9991046436070149
 10
945.7609444422367
 20
-1345.315468584916
 30
0.0
 41
1.0
 10
945.7624083038266
 20
-1345.318447264989
 30
0.0
 41
1.0
 10
945.7638721654166
 20
-1345.321425945061
 30
0.0
 41
1.0
 10
945.8158091019185
 20
-1345.427107738232
 30
0.0
 41
0.9992763831100686
 10
945.8595622304736
 20
-1345.536431800188
 30
0.0
 41
1.0
 10
945.8610415001368
 20
-1345.540127987721
 30
0.0
 41
1.0
 10
945.8625207698001
 20
-1345.543824175254
 30
0.0
 41
1.0
 10
945.909232437682
 20
-1345.660540612278
 30
0.0
 41
0.9994163472883417
 10
945.9478654688706
 20
-1345.780174200739
 30
0.0
 41
1.0
 10
945.9491036211176
 20
-1345.784008344522
 30
0.0
 41
1.0
 10
945.9503417733646
 20
-1345.787842488306
 30
0.0
 41
1.0
 10
945.9902253343828
 20
-1345.911348549787
 30
0.0
 41
0.9997268055890305
 10
946.0242933902944
 20
-1346.036583581736
 30
0.0
 41
1.0
 10
946.0252235705634
 20
-1346.040002947843
 30
0.0
 41
1.0
 10
946.0261537508323
 20
-1346.04342231395
 30
0.0
 41
1.0
 10
946.0583614462054
 20
-1346.161818613682
 30
0.0
 41
0.9996701318999964
 10
946.0844470629768
 20
-1346.28171256695
 30
0.0
 41
1.0
 10
946.1105326797467
 20
-1346.40160652021
 30
0.0
 41
0.9995785451109173
 10
946.1296162570865
 20
-1346.522812281242
 30
0.0
 41
1.0
 10
946.1338360392606
 20
-1346.549613436009
 30
0.0
 41
1.0
 10
946.1380558214346
 20
-1346.576414590776
 30
0.0
 41
1.0
 10
946.164630797373
 20
-1346.745200564478
 30
0.0
 41
0.9979925101216898
 10
946.1696563832994
 20
-1346.91599189257
 30
0.0
 41
1.0
 10
946.170481195724
 20
-1346.944022616047
 30
0.0
 41
1.0
 10
946.1713060081486
 20
-1346.972053339523
 30
0.0
 41
1.0
 10
946.1746819692261
 20
-1347.086783220655
 30
0.0
 41
0.9995314902262715
 10
946.1710317770873
 20
-1347.201504704414
 30
0.0
 41
1.0
 10
946.1673815849491
 20
-1347.316226188162
 30
0.0
 41
0.9996245486943958
 10
946.1574524898181
 20
-1347.430575459288
 30
0.0
 41
1.0
 10
946.1572894418238
 20
-1347.432453215424
 30
0.0
 41
1.0
 10
946.1571263938295
 20
-1347.43433097156
 30
0.0
 41
1.0
 10
946.1468712027093
 20
-1347.55243575496
 30
0.0
 41
0.9997286095001247
 10
946.131125879138
 20
-1347.669934663854
 30
0.0
 41
1.0
 10
946.130732386488
 20
-1347.672871088554
 30
0.0
 41
1.0
 10
946.1303388938379
 20
-1347.675807513253
 30
0.0
 41
1.0
 10
946.1138065849666
 20
-1347.799179271547
 30
0.0
 41
0.9998265533969509
 10
946.0926911262345
 20
-1347.921849746332
 30
0.0
 41
1.0
 10
946.0920145840967
 20
-1347.925780124843
 30
0.0
 41
1.0
 10
946.0913380419588
 20
-1347.929710503355
 30
0.0
 41
1.0
 10
946.0688694989512
 20
-1348.060241735162
 30
0.0
 41
0.9999022530854565
 10
946.042760034341
 20
-1348.190093703802
 30
0.0
 41
1.0
 10
946.041781393176
 20
-1348.194960846187
 30
0.0
 41
1.0
 10
946.0408027520112
 20
-1348.199827988572
 30
0.0
 41
1.0
 10
946.0127360050691
 20
-1348.339414241992
 30
0.0
 41
0.9999524761934924
 10
945.9819530362328
 20
-1348.478426735163
 30
0.0
 41
1.0
 10
945.9806769290587
 20
-1348.484189494458
 30
0.0
 41
1.0
 10
945.9794008218848
 20
-1348.489952253754
 30
0.0
 41
1.0
 10
945.9460656386982
 20
-1348.640490265527
 30
0.0
 41
0.9999813588737747
 10
945.9108946379008
 20
-1348.79060997819
 30
0.0
 41
1.0
 10
945.9093407124456
 20
-1348.797242568607
 30
0.0
 41
1.0
 10
945.9077867869903
 20
-1348.803875159024
 30
0.0
 41
1.0
 10
945.8695079352854
 20
-1348.967260052507
 30
0.0
 41
0.9999955237628675
 10
945.8302520572996
 20
-1349.130412956136
 30
0.0
 41
1.0
 10
945.8179704216659
 20
-1349.181457146657
 30
0.0
 41
1.0
 10
945.8056887860321
 20
-1349.232501337177
 30
0.0
 41
1.0
 10
945.7418696367791
 20
-1349.497742621845
 30
0.0
 41
0.9999993604332911
 10
945.6774506896319
 20
-1349.762838872443
 30
0.0
 41
1.0
 10
945.6727318540763
 20
-1349.782257780519
 30
0.0
 41
1.0
 10
945.6680130185208
 20
-1349.801676688594
 30
0.0
 41
1.0
 10
945.594156400261
 20
-1350.105610755352
 30
0.0
 41
0.999965991472191
 10
945.5152968043761
 20
-1350.408285301909
 30
0.0
 41
1.0
 10
945.5103441154449
 20
-1350.427294439093
 30
0.0
 41
1.0
 10
945.5053914265138
 20
-1350.446303576278
 30
0.0
 41
1.0
 10
945.4166264527704
 20
-1350.78699639719
 30
0.0
 41
0.9999441976024506
 10
945.3206834198081
 20
-1351.125737822485
 30
0.0
 41
1.0
 10
945.303982901381
 20
-1351.184701535018
 30
0.0
 41
1.0
 10
945.2872823829539
 20
-1351.243665247551
 30
0.0
 41
1.0
 10
945.157938313139
 20
-1351.700334097906
 30
0.0
 41
0.9999625120735777
 10
945.0207055458154
 20
-1352.154694631903
 30
0.0
 41
1.0
 10
944.9849156027323
 20
-1352.27319065853
 30
0.0
 41
1.0
 10
944.9491256596491
 20
-1352.391686685158
 30
0.0
 41
1.0
 10
944.8746054556091
 20
-1352.638413763257
 30
0.0
 41
0.9999793386305091
 10
944.7969194324712
 20
-1352.884162402494
 30
0.0
 41
1.0
 10
944.7192334093337
 20
-1353.12991104173
 30
0.0
 41
1.0
 10
944.708453850463
 20
-1353.163928946105
 30
0.0
 41
1.0
 10
942.8580807971939
 20
-1359.051000868572
 30
0.0
 41
1.0
 10
941.0077077439247
 20
-1364.93807279104
 30
0.0
 41
1.0
 10
940.0464510539011
 20
-1364.93807279104
 30
0.0
 41
1.0
 10
939.0851943638776
 20
-1364.93807279104
 30
0.0
 41
1.0
 10
940.704139142556
 20
-1359.79004428925
 30
0.0
 41
1.0
 10
942.3230839212345
 20
-1354.642015787461
 30
0.0
 41
1.0
 10
942.3682497444047
 20
-1354.497984565204
 30
0.0
 41
1.0
 10
942.4134155675748
 20
-1354.353953342947
 30
0.0
 41
1.0
 10
942.5837199849386
 20
-1353.810862313782
 30
0.0
 41
0.999991165788255
 10
942.749452796626
 20
-1353.266358782395
 30
0.0
 41
1.0
 10
942.7791487401271
 20
-1353.168794842342
 30
0.0
 41
1.0
 10
942.8088446836282
 20
-1353.071230902289
 30
0.0
 41
1.0
 10
942.9151856083066
 20
-1352.72185525103
 30
0.0
 41
0.9999952428160223
 10
943.0193691976312
 20
-1352.371830226682
 30
0.0
 41
1.0
 10
943.0244286679647
 20
-1352.354831952403
 30
0.0
 41
1.0
 10
943.0294881382982
 20
-1352.337833678124
 30
0.0
 41
1.0
 10
943.1235527869537
 20
-1352.02180520234
 30
0.0
 41
0.9999931687505125
 10
943.2152786248298
 20
-1351.705089989061
 30
0.0
 41
1.0
 10
943.220213889289
 20
-1351.688049279791
 30
0.0
 41
1.0
 10
943.2251491537482
 20
-1351.671008570521
 30
0.0
 41
1.0
 10
943.3070044627038
 20
-1351.38837477579
 30
0.0
 41
0.9999893840823655
 10
943.3862516891603
 20
-1351.104998646544
 30
0.0
 41
1.0
 10
943.4654989156154
 20
-1350.821622517305
 30
0.0
 41
0.9999833980059574
 10
943.5414751563534
 20
-1350.53735193429
 30
0.0
 41
1.0
 10
943.5504790930797
 20
-1350.503663055796
 30
0.0
 41
1.0
 10
943.5594830298061
 20
-1350.469974177303
 30
0.0
 41
1.0
 10
943.6284475786715
 20
-1350.21193834501
 30
0.0
 41
0.9999233658066331
 10
943.6910025498906
 20
-1349.952274186291
 30
0.0
 41
1.0
 10
943.7535575211109
 20
-1349.692610027569
 30
0.0
 41
1.0
 10
943.7930409399685
 20
-1349.528803363143
 30
0.0
 41
1.0
 10
943.7980195439475
 20
-1349.508148401265
 30
0.0
 41
1.0
 10
943.8029981479264
 20
-1349.487493439388
 30
0.0
 41
1.0
 10
943.8325243588286
 20
-1349.364996698707
 30
0.0
 41
0.9999868670869415
 10
943.8607934428222
 20
-1349.242203753071
 30
0.0
 41
1.0
 10
943.8646909299814
 20
-1349.225274165648
 30
0.0
 41
1.0
 10
943.8685884171406
 20
-1349.208344578225
 30
0.0
 41
1.0
 10
943.8890625268212
 20
-1349.119410807414
 30
0.0
 41
0.9999778173351102
 10
943.9083501249338
 20
-1349.030212190195
 30
0.0
 41
1.0
 10
943.9276377230512
 20
-1348.941013572955
 30
0.0
 41
0.9999602692864088
 10
943.9453320816825
 20
-1348.851485284526
 30
0.0
 41
1.0
 10
943.9485359137589
 20
-1348.835274829647
 30
0.0
 41
1.0
 10
943.9517397458353
 20
-1348.819064374767
 30
0.0
 41
1.0
 10
943.9758417686221
 20
-1348.697115176565
 30
0.0
 41
0.9995617985320554
 10
943.9926851158408
 20
-1348.573953428858
 30
0.0
 41
1.0
 10
943.9951496057465
 20
-1348.555932611496
 30
0.0
 41
1.0
 10
943.9976140956522
 20
-1348.537911794134
 30
0.0
 41
1.0
 10
944.0178973567007
 20
-1348.389596744431
 30
0.0
 41
0.999112141063986
 10
944.0256227102891
 20
-1348.240100645625
 30
0.0
 41
1.0
 10
944.0265415003137
 20
-1348.222320809048
 30
0.0
 41
1.0
 10
944.0274602903382
 20
-1348.204540972472
 30
0.0
 41
1.0
 10
944.0333480638774
 20
-1348.090604546818
 30
0.0
 41
0.9989792494905241
 10
944.02892897176
 20
-1347.97660171092
 30
0.0
 41
1.0
 10
944.0282809998913
 20
-1347.959885464992
 30
0.0
 41
1.0
 10
944.0276330280226
 20
-1347.943169219064
 30
0.0
 41
1.0
 10
944.0245098796427
 20
-1347.862598875021
 30
0.0
 41
0.9997820295393856
 10
944.018025882267
 20
-1347.782229153278
 30
0.0
 41
1.0
 10
944.0115418848914
 20
-1347.701859431534
 30
0.0
 41
0.9998335105973902
 10
944.0021296893797
 20
-1347.621779815084
 30
0.0
 41
1.0
 10
944.0005347647033
 20
-1347.608210084601
 30
0.0
 41
1.0
 10
943.9989398400269
 20
-1347.594640354117
 30
0.0
 41
1.0
 10
943.9863377951629
 20
-1347.487421276704
 30
0.0
 41
0.9996876457879258
 10
943.9683938823642
 20
-1347.380965848986
 30
0.0
 41
1.0
 10
943.966162219219
 20
-1347.367726113744
 30
0.0
 41
1.0
 10
943.9639305560737
 20
-1347.354486378503
 30
0.0
 41
1.0
 10
943.9501347346522
 20
-1347.272640234542
 30
0.0
 41
0.9995547496494763
 10
943.9314814127599
 20
-1347.191762737352
 30
0.0
 41
1.0
 10
943.9311074558887
 20
-1347.190141326647
 30
0.0
 41
1.0
 10
943.9307334990173
 20
-1347.188519915941
 30
0.0
 41
1.0
 10
943.9128280908677
 20
-1347.110885240163
 30
0.0
 41
0.9994899427175575
 10
943.8900031821879
 20
-1347.034551957327
 30
0.0
 41
1.0
 10
943.889544655447
 20
-1347.033018507537
 30
0.0
 41
1.0
 10
943.889086128706
 20
-1347.031485057748
 30
0.0
 41
1.0
 10
943.8671782735089
 20
-1346.958218674494
 30
0.0
 41
0.9993784877591197
 10
943.840162638402
 20
-1346.886677969333
 30
0.0
 41
1.0
 10
943.8396309474251
 20
-1346.885269986613
 30
0.0
 41
1.0
 10
943.8390992564482
 20
-1346.883862003892
 30
0.0
 41
1.0
 10
943.8131470032953
 20
-1346.815137264174
 30
0.0
 41
0.9992430832254525
 10
943.7819304681361
 20
-1346.748638112106
 30
0.0
 41
1.0
 10
943.7813483520797
 20
-1346.747398056989
 30
0.0
 41
1.0
 10
943.7807662360233
 20
-1346.746158001872
 30
0.0
 41
1.0
 10
943.7507139329771
 20
-1346.682138960038
 30
0.0
 41
0.9990789632797902
 10
943.7152833062
 20
-1346.620932348288
 30
0.0
 41
1.0
 10
943.7146876000179
 20
-1346.619903262429
 30
0.0
 41
1.0
 10
943.7140918938358
 20
-1346.618874176569
 30
0.0
 41
1.0
 10
943.6798526794232
 20
-1346.559725736538
 30
0.0
 41
0.9988874801119577
 10
943.6401934033913
 20
-1346.504066024121
 30
0.0
 41
1.0
 10
943.6396378773268
 20
-1346.503286372445
 30
0.0
 41
1.0
 10
943.6390823512622
 20
-1346.50250672077
 30
0.0
 41
1.0
 10
943.6005341273587
 20
-1346.448406311702
 30
0.0
 41
0.9986762060692644
 10
943.556631656083
 20
-1346.398552597263
 30
0.0
 41
1.0
 10
943.5561876957512
 20
-1346.398048455447
 30
0.0
 41
1.0
 10
943.5557437354194
 20
-1346.397544313631
 30
0.0
 41
1.0
 10
943.5127291848072
 20
-1346.348698882825
 30
0.0
 41
0.9984621642489411
 10
943.464571628029
 20
-1346.304915582353
 30
0.0
 41
1.0
 10
943.4643249935124
 20
-1346.30469135019
 30
0.0
 41
1.0
 10
943.4640783589957
 20
-1346.304467118026
 30
0.0
 41
1.0
 10
943.4164140712512
 20
-1346.261132281882
 30
0.0
 41
0.9982724693850277
 10
943.3639954394098
 20
-1346.223687931365
 30
0.0
 41
1.0
 10
943.311576807568
 20
-1346.186243580846
 30
0.0
 41
0.9981399180157394
 10
943.2549907441745
 20
-1346.155457061403
 30
0.0
 41
1.0
 10
943.2549450820964
 20
-1346.155432218246
 30
0.0
 41
1.0
 10
943.2548994200181
 20
-1346.155407375089
 30
0.0
 41
1.0
 10
943.1982220324678
 20
-1346.124571169331
 30
0.0
 41
0.9980927086836943
 10
943.1381766814015
 20
-1346.100954360479
 30
0.0
 41
1.0
 10
943.1377365116898
 20
-1346.100781234604
 30
0.0
 41
1.0
 10
943.1372963419781
 20
-1346.100608108729
 30
0.0
 41
1.0
 10
943.0763706514875
 20
-1346.076645048126
 30
0.0
 41
0.9981411356561379
 10
943.0129821300873
 20
-1346.06027240662
 30
0.0
 41
1.0
 10
943.0121000133867
 20
-1346.060044564415
 30
0.0
 41
1.0
 10
943.011217896686
 20
-1346.05981672221
 30
0.0
 41
1.0
 10
942.946065141885
 20
-1346.042988396293
 30
0.0
 41
0.9983031812935299
 10
942.8793977128913
 20
-1346.033849035117
 30
0.0
 41
1.0
 10
942.8705266874854
 20
-1346.032632916446
 30
0.0
 41
1.0
 10
942.8616556620793
 20
-1346.031416797774
 30
0.0
 41
1.0
 10
942.8073060195762
 20
-1346.023966067783
 30
0.0
 41
0.9983887708263414
 10
942.7524621702843
 20
-1346.02272139415
 30
0.0
 41
1.0
 10
942.7443987650687
 20
-1346.022538396275
 30
0.0
 41
1.0
 10
942.7363353598531
 20
-1346.0223553984
 30
0.0
 41
1.0
 10
942.6976183209935
 20
-1346.021476720517
 30
0.0
 41
0.999886956307876
 10
942.6588923677888
 20
-1346.021762589876
 30
0.0
 41
1.0
 10
942.6201664145808
 20
-1346.022048459236
 30
0.0
 41
0.9999972320124223
 10
942.5814422353643
 20
-1346.022516558765
 30
0.0
 41
1.0
 10
942.5620892187899
 20
-1346.022750498854
 30
0.0
 41
1.0
 10
942.5427362022153
 20
-1346.022984438944
 30
0.0
 41
1.0
 10
942.4653059898483
 20
-1346.023920418652
 30
0.0
 41
0.99973049450882
 10
942.3880026836143
 20
-1346.028449512437
 30
0.0
 41
1.0
 10
942.3789530419065
 20
-1346.028979718428
 30
0.0
 41
1.0
 10
942.3699034001985
 20
-1346.029509924418
 30
0.0
 41
1.0
 10
942.2745008105535
 20
-1346.035099430183
 30
0.0
 41
0.9997888306415968
 10
942.1794084747122
 20
-1346.044604394672
 30
0.0
 41
1.0
 10
942.1706874131382
 20
-1346.045476109304
 30
0.0
 41
1.0
 10
942.1619663515643
 20
-1346.046347823937
 30
0.0
 41
1.0
 10
942.0494318925757
 20
-1346.05759621769
 30
0.0
 41
0.9984170238191028
 10
941.9388727452242
 20
-1346.081412299626
 30
0.0
 41
1.0
 10
941.902491614238
 20
-1346.089249335432
 30
0.0
 41
1.0
 10
941.8661104832518
 20
-1346.097086371238
 30
0.0
 41
1.0
 10
941.7509194148305
 20
-1346.121900237748
 30
0.0
 41
0.9976592854199005
 10
941.6401912484255
 20
-1346.162198914895
 30
0.0
 41
1.0
 10
941.5294630820209
 20
-1346.202497592042
 30
0.0
 41
0.9993255074352395
 10
941.4219912832305
 20
-1346.250814490534
 30
0.0
 41
1.0
 10
941.4173661043068
 20
-1346.252893866734
 30
0.0
 41
1.0
 10
941.4127409253831
 20
-1346.254973242934
 30
0.0
 41
1.0
 10
941.2960187687468
 20
-1346.307448893825
 30
0.0
 41
0.9976475078275494
 10
941.1875714244364
 20
-1346.375396883484
 30
0.0
 41
1.0
 10
941.1692290303018
 20
-1346.386889362298
 30
0.0
 41
1.0
 10
941.1508866361672
 20
-1346.398381841112
 30
0.0
 41
1.0
 10
941.0666844446151
 20
-1346.451138961881
 30
0.0
 41
0.9995131336407198
 10
940.9859367296561
 20
-1346.509045173835
 30
0.0
 41
1.0
 10
940.9051890147008
 20
-1346.566951385787
 30
0.0
 41
0.9995810107606381
 10
940.8279273669718
 20
-1346.629433068253
 30
0.0
 41
1.0
 10
940.8249573357608
 20
-1346.631834939718
 30
0.0
 41
1.0
 10
940.8219873045498
 20
-1346.634236811183
 30
0.0
 41
1.0
 10
940.7387855943994
 20
-1346.701522236579
 30
0.0
 41
0.9996617837954935
 10
940.6591949072622
 20
-1346.773042692141
 30
0.0
 41
1.0
 10
940.6470641563863
 20
-1346.783943425131
 30
0.0
 41
1.0
 10
940.6349334055103
 20
-1346.79484415812
 30
0.0
 41
1.0
 10
940.5666578781132
 20
-1346.856196773593
 30
0.0
 41
0.9997267750052307
 10
940.5013243698304
 20
-1346.920673310118
 30
0.0
 41
1.0
 10
940.4359908615447
 20
-1346.985149846645
 30
0.0
 41
0.9999667288956335
 10
940.371717918389
 20
-1347.050683653549
 30
0.0
 41
1.0
 10
940.3028904706193
 20
-1347.120861312301
 30
0.0
 41
1.0
 10
940.2340630228498
 20
-1347.191038971054
 30
0.0
 41
1.0
 10
940.0321351841504
 20
-1347.396928095468
 30
0.0
 41
0.9988205335174498
 10
939.8511295671702
 20
-1347.62143232753
 30
0.0
 41
1.0
 10
939.8204896022671
 20
-1347.659435577958
 30
0.0
 41
1.0
 10
939.7898496373641
 20
-1347.697438828385
 30
0.0
 41
1.0
 10
939.5475640905732
 20
-1347.997949561308
 30
0.0
 41
0.9997077826755066
 10
939.3200861394666
 20
-1348.309819355527
 30
0.0
 41
1.0
 10
939.3183627243378
 20
-1348.312182138904
 30
0.0
 41
1.0
 10
939.316639309209
 20
-1348.314544922281
 30
0.0
 41
1.0
 10
939.0857145278422
 20
-1348.631140283258
 30
0.0
 41
0.9989147567078731
 10
938.885251024958
 20
-1348.967849744444
 30
0.0
 41
1.0
 10
938.8605098796531
 20
-1349.009406324993
 30
0.0
 41
1.0
 10
938.8357687343481
 20
-1349.050962905542
 30
0.0
 41
1.0
 10
938.680557435708
 20
-1349.311664289999
 30
0.0
 41
0.9997476598181834
 10
938.5372124481985
 20
-1349.579074038582
 30
0.0
 41
1.0
 10
938.3938674606889
 20
-1349.846483787164
 30
0.0
 41
0.9996258967109621
 10
938.2653592087572
 20
-1350.121331723788
 30
0.0
 41
1.0
 10
938.2521592993053
 20
-1350.149563123889
 30
0.0
 41
1.0
 10
938.2389593898534
 20
-1350.177794523989
 30
0.0
 41
1.0
 10
938.0987506688575
 20
-1350.477666921934
 30
0.0
 41
0.9998735413946722
 10
937.9681493221374
 20
-1350.7818465214
 30
0.0
 41
1.0
 10
937.964706494078
 20
-1350.789865106863
 30
0.0
 41
1.0
 10
937.9612636660187
 20
-1350.797883692325
 30
0.0
 41
1.0
 10
937.8375479754168
 20
-1351.086026120869
 30
0.0
 41
0.9999377418858403
 10
937.7202931732422
 20
-1351.376857588543
 30
0.0
 41
1.0
 10
937.6030383710658
 20
-1351.667689056222
 30
0.0
 41
0.9999508299510196
 10
937.4915744276889
 20
-1351.960788733043
 30
0.0
 41
1.0
 10
937.4884936590269
 20
-1351.968889759005
 30
0.0
 41
1.0
 10
937.4854128903648
 20
-1351.976990784968
 30
0.0
 41
1.0
 10
937.3677874096627
 20
-1352.286292513716
 30
0.0
 41
0.999960922843368
 10
937.2556488067878
 20
-1352.597625529735
 30
0.0
 41
1.0
 10
937.2526927964385
 20
-1352.605832370143
 30
0.0
 41
1.0
 10
937.2497367860892
 20
-1352.614039210552
 30
0.0
 41
1.0
 10
937.1316861625207
 20
-1352.941785907373
 30
0.0
 41
0.9999674607398844
 10
937.0189386364513
 20
-1353.271394527371
 30
0.0
 41
1.0
 10
936.9675402458863
 20
-1353.42165372307
 30
0.0
 41
1.0
 10
936.9161418553213
 20
-1353.57191291877
 30
0.0
 41
1.0
 10
936.800131248564
 20
-1353.911060901271
 30
0.0
 41
0.9999287532305496
 10
936.6922498445942
 20
-1354.252881640244
 30
0.0
 41
1.0
 10
936.6457725884774
 20
-1354.400144184544
 30
0.0
 41
1.0
 10
936.5992953323605
 20
-1354.547406728845
 30
0.0
 41
1.0
 10
936.5843684406389
 20
-1354.594702379171
 30
0.0
 41
0.9999998222956358
 10
936.569497931893
 20
-1354.642015787461
 30
0.0
 41
1.0
 10
934.9488417950976
 20
-1359.79004428925
 30
0.0
 41
1.0
 10
933.3281856583021
 20
-1364.93807279104
 30
0.0
 41
1.0
 10
932.4228772144112
 20
-1364.93807279104
 30
0.0
 41
1.0
 10
931.5175687705203
 20
-1364.93807279104
 30
0.0
 41
1.0
 10
933.3696531819063
 20
-1359.051000868572
 30
0.0
 41
1.0
 10
935.2217375932923
 20
-1353.163928946105
 30
0.0
 41
1.0
 10
935.2318593515951
 20
-1353.131885732655
 30
0.0
 41
1.0
 10
935.3044670204448
 20
-1352.901586190829
 30
0.0
 41
1.0
 10
935.3770746892897
 20
-1352.671286649019
 30
0.0
 41
0.9999825681973007
 10
935.4469577285024
 20
-1352.44014575395
 30
0.0
 41
1.0
 10
935.4952487906652
 20
-1352.280421170448
 30
0.0
 41
1.0
 10
935.543539852828
 20
-1352.120696586945
 30
0.0
 41
1.0
 10
935.6406922061441
 20
-1351.799361365173
 30
0.0
 41
0.9999672528959805
 10
935.7326310117669
 20
-1351.476495819588
 30
0.0
 41
1.0
 10
935.7354198954347
 20
-1351.466701974205
 30
0.0
 41
1.0
 10
935.7382087791025
 20
-1351.456908128822
 30
0.0
 41
1.0
 10
935.8245698173893
 20
-1351.153630274006
 30
0.0
 41
0.9999899749175409
 10
935.9082114269249
 20
-1350.849591185549
 30
0.0
 41
1.0
 10
935.9183173459407
 20
-1350.812855947877
 30
0.0
 41
1.0
 10
935.9284232649566
 20
-1350.776120710205
 30
0.0
 41
1.0
 10
935.9918530364574
 20
-1350.545552097105
 30
0.0
 41
0.9999214200502784
 10
936.0494824648374
 20
-1350.313465754888
 30
0.0
 41
1.0
 10
936.0622483170217
 20
-1350.262054869476
 30
0.0
 41
1.0
 10
936.075014169206
 20
-1350.210643984065
 30
0.0
 41
1.0
 10
936.1071118932207
 20
-1350.081379412656
 30
0.0
 41
0.9999828681658809
 10
936.1376941452105
 20
-1349.951747938211
 30
0.0
 41
1.0
 10
936.1682763972057
 20
-1349.822116463745
 30
0.0
 41
0.9999389844479769
 10
936.1959873859945
 20
-1349.691841007847
 30
0.0
 41
1.0
 10
936.2031251297151
 20
-1349.658284904008
 30
0.0
 41
1.0
 10
936.2102628734356
 20
-1349.624728800169
 30
0.0
 41
1.0
 10
936.2522493496647
 20
-1349.427341136596
 30
0.0
 41
0.9998933699440634
 10
936.2884536140681
 20
-1349.228811528832
 30
0.0
 41
1.0
 10
936.2898264392841
 20
-1349.221283508137
 30
0.0
 41
1.0
 10
936.2911992645002
 20
-1349.213755487442
 30
0.0
 41
1.0
 10
936.330149179335
 20
-1349.000169838291
 30
0.0
 41
0.9996850305193886
 10
936.3583328555935
 20
-1348.784898832856
 30
0.0
 41
1.0
 10
936.3603278889627
 20
-1348.769660478735
 30
0.0
 41
1.0
 10
936.3623229223318
 20
-1348.754422124614
 30
0.0
 41
1.0
 10
936.3897307847909
 20
-1348.545076897459
 30
0.0
 41
0.9994697936707095
 10
936.403455344011
 20
-1348.334391702124
 30
0.0
 41
1.0
 10
936.4039324132607
 20
-1348.327068229914
 30
0.0
 41
1.0
 10
936.4044094825103
 20
-1348.319744757704
 30
0.0
 41
1.0
 10
936.4171799032307
 20
-1348.123706506794
 30
0.0
 41
0.9991804893136803
 10
936.4140515869578
 20
-1347.92727765682
 30
0.0
 41
1.0
 10
936.4139677081357
 20
-1347.922010855407
 30
0.0
 41
1.0
 10
936.4138838293136
 20
-1347.916744053994
 30
0.0
 41
1.0
 10
936.4109232706851
 20
-1347.730848806846
 30
0.0
 41
0.9988448329321524
 10
936.3901317250613
 20
-1347.546096217013
 30
0.0
 41
1.0
 10
936.3885376513583
 20
-1347.531931361242
 30
0.0
 41
1.0
 10
936.3869435776553
 20
-1347.517766505471
 30
0.0
 41
1.0
 10
936.3693401794376
 20
-1347.36134362718
 30
0.0
 41
0.9985503209458704
 10
936.3350239071381
 20
-1347.207719443091
 30
0.0
 41
1.0
 10
936.3274379150673
 20
-1347.173759115692
 30
0.0
 41
1.0
 10
936.3198519229965
 20
-1347.139798788294
 30
0.0
 41
1.0
 10
936.3007076348391
 20
-1347.054095259004
 30
0.0
 41
0.999103678137127
 10
936.2743827731872
 20
-1346.970318171676
 30
0.0
 41
1.0
 10
936.270400547731
 20
-1346.957645009165
 30
0.0
 41
1.0
 10
936.2664183222748
 20
-1346.944971846654
 30
0.0
 41
1.0
 10
936.2480579115359
 20
-1346.886541084351
 30
0.0
 41
0.9998874504367591
 10
936.2279527038577
 20
-1346.828687482128
 30
0.0
 41
1.0
 10
936.2078474961794
 20
-1346.770833879905
 30
0.0
 41
0.9994041637543277
 10
936.1837988832451
 20
-1346.714505176016
 30
0.0
 41
1.0
 10
936.1796020990209
 20
-1346.704675111533
 30
0.0
 41
1.0
 10
936.1754053147966
 20
-1346.694845047051
 30
0.0
 41
1.0
 10
936.1475264838023
 20
-1346.629544881084
 30
0.0
 41
0.999184684070209
 10
936.1144701271093
 20
-1346.566706849804
 30
0.0
 41
1.0
 10
936.1133335207141
 20
-1346.564546233349
 30
0.0
 41
1.0
 10
936.1121969143192
 20
-1346.562385616894
 30
0.0
 41
1.0
 10
936.0814137704162
 20
-1346.503868818523
 30
0.0
 41
0.9989253167921961
 10
936.0453443463612
 20
-1346.448453890133
 30
0.0
 41
1.0
 10
936.0442902216865
 20
-1346.44683439537
 30
0.0
 41
1.0
 10
936.0432360970119
 20
-1346.445214900608
 30
0.0
 41
1.0
 10
936.009274922306
 20
-1346.393038961743
 30
0.0
 41
0.9986467172835135
 10
935.9700777696689
 20
-1346.344672928114
 30
0.0
 41
1.0
 10
935.9692036409676
 20
-1346.343594325835
 30
0.0
 41
1.0
 10
935.9683295122665
 20
-1346.342515723556
 30
0.0
 41
1.0
 10
935.9308806170303
 20
-1346.296306894483
 30
0.0
 41
0.9984001104267284
 10
935.8884538865143
 20
-1346.254621787115
 30
0.0
 41
1.0
 10
935.8878667484048
 20
-1346.254044912234
 30
0.0
 41
1.0
 10
935.8872796102954
 20
-1346.253468037352
 30
0.0
 41
1.0
 10
935.8460271559966
 20
-1346.212936679746
 30
0.0
 41
0.9982442159082056
 10
935.8002710546616
 20
-1346.177568118486
 30
0.0
 41
1.0
 10
935.8000562591996
 20
-1346.177402085843
 30
0.0
 41
1.0
 10
935.7998414637375
 20
-1346.177236053199
 30
0.0
 41
1.0
 10
935.7545149533256
 20
-1346.142199557226
 30
0.0
 41
0.9982450060835437
 10
935.7053639742542
 20
-1346.112767774192
 30
0.0
 41
1.0
 10
935.656212995183
 20
-1346.083335991159
 30
0.0
 41
0.998392263963522
 10
935.6040466890175
 20
-1346.059656356505
 30
0.0
 41
1.0
 10
935.603819811693
 20
-1346.059553371023
 30
0.0
 41
1.0
 10
935.6035929343686
 20
-1346.059450385542
 30
0.0
 41
1.0
 10
935.5509728735549
 20
-1346.035564779925
 30
0.0
 41
0.998651714715001
 10
935.4961599006867
 20
-1346.017263660803
 30
0.0
 41
1.0
 10
935.495481979259
 20
-1346.017037314372
 30
0.0
 41
1.0
 10
935.4948040578313
 20
-1346.01681096794
 30
0.0
 41
1.0
 10
935.4386352421064
 20
-1345.998057155955
 30
0.0
 41
0.9989435598956151
 10
935.3809818549532
 20
-1345.98453945372
 30
0.0
 41
1.0
 10
935.379901735373
 20
-1345.984286203468
 30
0.0
 41
1.0
 10
935.3788216157927
 20
-1345.984032953215
 30
0.0
 41
1.0
 10
935.3190079894782
 20
-1345.970008750475
 30
0.0
 41
0.9992249241239819
 10
935.2582764805809
 20
-1345.96073340776
 30
0.0
 41
1.0
 10
935.2568627922897
 20
-1345.960517499352
 30
0.0
 41
1.0
 10
935.2554491039986
 20
-1345.960301590944
 30
0.0
 41
1.0
 10
935.1918902185205
 20
-1345.950594431413
 30
0.0
 41
0.9994396597833773
 10
935.1278242819847
 20
-1345.945161509067
 30
0.0
 41
1.0
 10
935.1086836145056
 20
-1345.943538341348
 30
0.0
 41
1.0
 10
935.0895429470265
 20
-1345.94191517363
 30
0.0
 41
1.0
 10
934.9871956755338
 20
-1345.933235915847
 30
0.0
 41
0.9987693403121468
 10
934.8844920519467
 20
-1345.934738979299
 30
0.0
 41
1.0
 10
934.8742377177207
 20
-1345.934889051074
 30
0.0
 41
1.0
 10
934.8639833834948
 20
-1345.935039122848
 30
0.0
 41
1.0
 10
934.7544276173148
 20
-1345.936642467135
 30
0.0
 41
0.9989753644966377
 10
934.6454656172971
 20
-1345.94814547406
 30
0.0
 41
1.0
 10
934.5365036172807
 20
-1345.959648480986
 30
0.0
 41
0.9983190067306238
 10
934.4296048063162
 20
-1345.983683472772
 30
0.0
 41
1.0
 10
934.4207038547092
 20
-1345.985684751335
 30
0.0
 41
1.0
 10
934.4118029031022
 20
-1345.987686029898
 30
0.0
 41
1.0
 10
934.2871021889252
 20
-1346.015723578809
 30
0.0
 41
0.9985539388303672
 10
934.1661324352484
 20
-1346.056987254854
 30
0.0
 41
1.0
 10
934.1637870042869
 20
-1346.057787298671
 30
0.0
 41
1.0
 10
934.1614415733252
 20
-1346.058587342487
 30
0.0
 41
1.0
 10
934.0357809577258
 20
-1346.101451106165
 30
0.0
 41
0.9988468746493592
 10
933.9148106154244
 20
-1346.156169191228
 30
0.0
 41
1.0
 10
933.9116277934367
 20
-1346.157608865787
 30
0.0
 41
1.0
 10
933.908444971449
 20
-1346.159048540347
 30
0.0
 41
1.0
 10
933.7811089851715
 20
-1346.216645974529
 30
0.0
 41
0.9991322885919013
 10
933.6590084011156
 20
-1346.28464130671
 30
0.0
 41
1.0
 10
933.6414063900705
 20
-1346.294443508701
 30
0.0
 41
1.0
 10
933.6238043790255
 20
-1346.304245710691
 30
0.0
 41
1.0
 10
933.5216276979689
 20
-1346.361145826471
 30
0.0
 41
0.999386003784907
 10
933.423686693896
 20
-1346.42506184206
 30
0.0
 41
1.0
 10
933.4180683810437
 20
-1346.428728336755
 30
0.0
 41
1.0
 10
933.4124500681913
 20
-1346.43239483145
 30
0.0
 41
1.0
 10
933.3257456898209
 20
-1346.488977857649
 30
0.0
 41
0.9998821494952946
 10
933.2408193140097
 20
-1346.548196087725
 30
0.0
 41
1.0
 10
933.1558929381994
 20
-1346.6074143178
 30
0.0
 41
0.9997976482743735
 10
933.0734173078005
 20
-1346.670000725838
 30
0.0
 41
1.0
 10
933.058781042992
 20
-1346.681107415621
 30
0.0
 41
1.0
 10
933.0441447781835
 20
-1346.692214105403
 30
0.0
 41
1.0
 10
932.9323966181694
 20
-1346.777013893005
 30
0.0
 41
0.999809163080035
 10
932.8240463401415
 20
-1346.866114243707
 30
0.0
 41
1.0
 10
932.8110405876646
 20
-1346.876809344152
 30
0.0
 41
1.0
 10
932.7980348351878
 20
-1346.887504444598
 30
0.0
 41
1.0
 10
932.6636730522067
 20
-1346.997994996191
 30
0.0
 41
0.9995035112317322
 10
932.5365371744462
 20
-1347.116728813203
 30
0.0
 41
1.0
 10
932.5268898640568
 20
-1347.125738559363
 30
0.0
 41
1.0
 10
932.5172425536673
 20
-1347.134748305522
 30
0.0
 41
1.0
 10
932.3938194909024
 20
-1347.250014677278
 30
0.0
 41
0.9994630424299179
 10
932.2782110851183
 20
-1347.373117420513
 30
0.0
 41
1.0
 10
932.2745282463454
 20
-1347.377039000028
 30
0.0
 41
1.0
 10
932.2708454075724
 20
-1347.380960579542
 30
0.0
 41
1.0
 10
932.1626026793331
 20
-1347.49622016375
 30
0.0
 41
0.9995160693750003
 10
932.0617366498024
 20
-1347.617987581621
 30
0.0
 41
1.0
 10
932.0598029297225
 20
-1347.620322005828
 30
0.0
 41
1.0
 10
932.0578692096426
 20
-1347.622656430035
 30
0.0
 41
1.0
 10
931.9608706202717
 20
-1347.739754999492
 30
0.0
 41
0.999656147051488
 10
931.8701444016045
 20
-1347.861777761943
 30
0.0
 41
1.0
 10
931.8639867356992
 20
-1347.870059550989
 30
0.0
 41
1.0
 10
931.857829069794
 20
-1347.878341340036
 30
0.0
 41
1.0
 10
931.7794181829349
 20
-1347.983800524397
 30
0.0
 41
0.999834905517257
 10
931.7048909010064
 20
-1348.092039108055
 30
0.0
 41
1.0
 10
931.6303636190812
 20
-1348.200277691709
 30
0.0
 41
0.9999728109567746
 10
931.5574407231795
 20
-1348.309603617251
 30
0.0
 41
1.0
 10
931.55612550776
 20
-1348.311575386765
 30
0.0
 41
1.0
 10
931.5548102923406
 20
-1348.313547156279
 30
0.0
 41
1.0
 10
931.4792569655982
 20
-1348.426816620852
 30
0.0
 41
0.9999972147275646
 10
931.4042391552196
 20
-1348.540441463695
 30
0.0
 41
1.0
 10
931.3992676126038
 20
-1348.547971552157
 30
0.0
 41
1.0
 10
931.3942960699882
 20
-1348.55550164062
 30
0.0
 41
1.0
 10
931.3093351743759
 20
-1348.68418666039
 30
0.0
 41
0.9999371979005065
 10
931.2272798249788
 20
-1348.814743574156
 30
0.0
 41
1.0
 10
931.2237709406099
 20
-1348.820326502232
 30
0.0
 41
1.0
 10
931.2202620562412
 20
-1348.825909430308
 30
0.0
 41
1.0
 10
931.1311889381093
 20
-1348.967632200222
 30
0.0
 41
0.9998272025610072
 10
931.0474455472264
 20
-1349.112568076966
 30
0.0
 41
1.0
 10
931.0322303752043
 20
-1349.138901191419
 30
0.0
 41
1.0
 10
931.0170152031824
 20
-1349.165234305873
 30
0.0
 41
1.0
 10
930.9028414682532
 20
-1349.362836411527
 30
0.0
 41
0.9995217214838156
 10
930.8011017786968
 20
-1349.56711873939
 30
0.0
 41
1.0
 10
930.7934582160613
 20
-1349.582466189094
 30
0.0
 41
1.0
 10
930.7858146534257
 20
-1349.597813638798
 30
0.0
 41
1.0
 10
930.6989093608354
 20
-1349.772310096881
 30
0.0
 41
0.9998269762607489
 10
930.6185548945648
 20
-1349.949918383601
 30
0.0
 41
1.0
 10
930.5382004282949
 20
-1350.12752667032
 30
0.0
 41
0.9998944747388798
 10
930.4630396337318
 20
-1350.307394395945
 30
0.0
 41
1.0
 10
930.4580859641385
 20
-1350.319249050867
 30
0.0
 41
1.0
 10
930.4531322945453
 20
-1350.33110370579
 30
0.0
 41
1.0
 10
930.3724852339907
 20
-1350.524100645813
 30
0.0
 41
0.9999506734408782
 10
930.295687705089
 20
-1350.718661450664
 30
0.0
 41
1.0
 10
930.2810877398128
 20
-1350.755649372483
 30
0.0
 41
1.0
 10
930.2664877745366
 20
-1350.792637294303
 30
0.0
 41
1.0
 10
930.2188901761822
 20
-1350.913222255529
 30
0.0
 41
0.9999912393946779
 10
930.1723037321628
 20
-1351.034201458216
 30
0.0
 41
1.0
 10
930.1257172881392
 20
-1351.155180660915
 30
0.0
 41
0.9999927113991551
 10
930.0800559937454
 20
-1351.276512068416
 30
0.0
 41
1.0
 10
930.0660875623481
 20
-1351.313629050414
 30
0.0
 41
1.0
 10
930.0521191309508
 20
-1351.350746032412
 30
0.0
 41
1.0
 10
929.9785209737614
 20
-1351.546311403911
 30
0.0
 41
0.9999487550950048
 10
929.9088973487941
 20
-1351.743326769081
 30
0.0
 41
1.0
 10
929.8853037388535
 20
-1351.810090079384
 30
0.0
 41
1.0
 10
929.8617101289128
 20
-1351.876853389688
 30
0.0
 41
1.0
 10
929.7670244945443
 20
-1352.144787224507
 30
0.0
 41
0.9999808436937928
 10
929.6756629059037
 20
-1352.413872655769
 30
0.0
 41
1.0
 10
929.584301317259
 20
-1352.682958087043
 30
0.0
 41
0.999987393292162
 10
929.4956466085447
 20
-1352.952947442045
 30
0.0
 41
1.0
 10
929.475554251675
 20
-1353.014136774799
 30
0.0
 41
1.0
 10
929.4554618948055
 20
-1353.075326107553
 30
0.0
 41
1.0
 10
929.3266224723498
 20
-1353.467694128068
 30
0.0
 41
0.9999794883025784
 10
929.2028196873914
 20
-1353.861680334347
 30
0.0
 41
1.0
 10
929.1916674279541
 20
-1353.897170944583
 30
0.0
 41
1.0
 10
929.1805151685169
 20
-1353.932661554819
 30
0.0
 41
1.0
 10
929.0379570046205
 20
-1354.386334306902
 30
0.0
 41
0.999998276168228
 10
928.8970845646029
 20
-1354.840533329033
 30
0.0
 41
1.0
 10
927.3089442320303
 20
-1359.889303060036
 30
0.0
 41
1.0
 10
925.7208038994577
 20
-1364.93807279104
 30
0.0
 41
1.0
 10
924.7720532879813
 20
-1364.93807279104
 30
0.0
 41
1.0
 10
923.8233026765049
 20
-1364.93807279104
 30
0.0
 41
1.0
 10
927.061587162658
 20
-1354.610750591093
 30
0.0
 41
1.0
 10
930.2998716488113
 20
-1344.283428391147
 30
0.0
 41
1.0
  0
LWPOLYLINE
  5
58
330
23
100
AcDbEntity
  8
0
  6
Continuous
 62
     7
370
    15
390
1D
100
AcDbPolyline
 90
      232
 70
   128
 43
0.0
 10
904.5963258749842
 20
-1345.367771222662
 42
0.000437080068672
 10
904.543448700908
 20
-1345.436437861924
 10
904.5041644697848
 20
-1345.487544974815
 42
0.0030481992175739
 10
904.3738257526556
 20
-1345.659266667173
 10
904.3353140809152
 20
-1345.710653450948
 42
0.0042058245754892
 10
904.1313290302448
 20
-1345.987659196022
 10
904.0789239077446
 20
-1346.060092042802
 42
0.0120948898743192
 10
903.7828799909852
 20
-1346.490841647348
 10
903.6866874918562
 20
-1346.638322382584
 42
0.0141601263949725
 10
903.3830434449393
 20
-1347.133991719311
 10
903.3435061775153
 20
-1347.20283568674
 42
0.0071131081299427
 10
903.1382338542749
 20
-1347.572338485581
 42
0.0068458791003174
 10
902.943354327425
 20
-1347.947430049071
 10
902.9365424649741
 20
-1347.960991762781
 42
0.0064120880286279
 10
902.738400214936
 20
-1348.368416237687
 10
902.7308655294128
 20
-1348.384428094421
 42
0.0058857236449179
 10
902.5281101375411
 20
-1348.828804205456
 10
902.5199352112471
 20
-1348.84729435909
 42
0.0053189741894369
 10
902.3112308985757
 20
-1349.333257833017
 10
902.3024830928982
 20
-1349.354239711204
 42
0.0047503650418229
 10
902.0865093667484
 20
-1349.886439144411
 10
902.0772411183993
 20
-1349.909915520522
 42
0.0042071762170169
 10
901.8526937346735
 20
-1350.493009114586
 10
901.842944332323
 20
-1350.518975289461
 42
0.0036680086484977
 10
901.6084896890076
 20
-1351.157610674001
 10
901.5982819091631
 20
-1351.186059208337
 42
0.0032573142627019
 10
901.3526496231898
 20
-1351.884911868109
 10
901.2839991023557
 20
-1352.084374952143
 42
0.0026133366648819
 10
900.9355539035978
 20
-1353.114238235815
 10
900.8722971160972
 20
-1353.304469071208
 42
0.0020592950740407
 10
900.65843404713
 20
-1353.956572723821
 10
900.6553822559717
 20
-1353.966009212216
 42
0.0025609928536041
 10
900.453561754481
 20
-1354.601154434597
 10
900.4509703873514
 20
-1354.609456775547
 42
0.003136235624023
 10
900.2614796016774
 20
-1355.230219631717
 10
900.2593485587447
 20
-1355.237360937945
 42
0.003722991802947
 10
900.0825481718236
 20
-1355.846346239902
 10
900.0808695826223
 20
-1355.852293130059
 42
0.004307762370812
 10
899.9171287805522
 20
-1356.452111861845
 42
0.0047654161822918
 10
899.7643000580349
 20
-1357.054797950753
 10
899.729835449197
 20
-1357.196359727898
 42
0.0112969368444821
 10
899.533971091054
 20
-1358.088051888519
 10
899.5059647019568
 20
-1358.23087993462
 42
0.0130056762572012
 10
899.3051274583102
 20
-1359.417821006265
 10
899.2845877081631
 20
-1359.561899119741
 42
0.013872153214435
 10
899.1808847036252
 20
-1360.468728605567
 10
899.1615892157176
 20
-1360.692226327488
 42
0.0071254697007628
 10
899.1282425697948
 20
-1361.15541333634
 10
899.123281595631
 20
-1361.241417330907
 42
0.0028881799200266
 10
899.1081433023417
 20
-1361.533159040742
 42
0.006029729713342
 10
899.0982111025662
 20
-1361.825107976851
 10
899.097148820899
 20
-1361.873500348793
 42
0.0229523164159499
 10
899.1048798486847
 20
-1362.196255195074
 10
899.1091056222049
 20
-1362.256658729087
 42
0.0123673300669651
 10
899.1281842687234
 20
-1362.457779454265
 42
0.0128577674471499
 10
899.1573796591294
 20
-1362.65767730419
 10
899.1645055325167
 20
-1362.699006118788
 42
0.028571785376387
 10
899.2289995342124
 20
-1362.977122270102
 10
899.2426680578786
 20
-1363.023777039578
 42
0.031628309915651
 10
899.358478637793
 20
-1363.342791541405
 10
899.3615273295486
 20
-1363.349777913731
 42
0.0338984824238197
 10
899.5109590405158
 20
-1363.63734387792
 10
899.5132677698862
 20
-1363.641134907196
 42
0.0350228718357741
 10
899.6956280605592
 20
-1363.898186891872
 10
899.6965133123341
 20
-1363.899265969636
 42
0.0347476747524966
 10
899.9109379995743
 20
-1364.126451016857
 42
0.0331337701912438
 10
900.1541813253206
 20
-1364.322579678934
 10
900.1552814238369
 20
-1364.323352382106
 42
0.0305233319079946
 10
900.4238261194099
 20
-1364.488480552198
 10
900.4270561639114
 20
-1364.490204564061
 42
0.0273744481151985
 10
900.7196098754857
 20
-1364.626342707951
 10
900.7247144106233
 20
-1364.628386292421
 42
0.0240964406194192
 10
901.0401914862666
 20
-1364.737370018701
 10
901.046774815479
 20
-1364.739294758377
 42
0.0209636179811545
 10
901.3841749681343
 20
-1364.82276290631
 10
901.3918074285803
 20
-1364.824314819311
 42
0.0181388704692253
 10
901.7501298205788
 20
-1364.883730912524
 10
901.7584106689569
 20
-1364.884797096342
 42
0.0156086547586099
 10
902.1365980331458
 20
-1364.921533282918
 10
902.1797932854778
 20
-1364.924371785397
 42
0.0137148329024564
 10
902.5074664307716
 20
-1364.936892040649
 10
902.5534026207091
 20
-1364.937386473764
 42
0.0051057823885116
 10
902.7895482072898
 20
-1364.937516728173
 42
0.0052256693316559
 10
903.0256454910744
 20
-1364.932767903709
 10
903.0958722748179
 20
-1364.930620937695
 42
0.0161507179048285
 10
903.4716093529192
 20
-1364.906970567368
 10
903.4916223132923
 20
-1364.90506037208
 42
0.0101216737832246
 10
903.9056495347817
 20
-1364.857067441715
 10
903.9397028242097
 20
-1364.852419744905
 42
0.0245291776398438
 10
904.4164924797614
 20
-1364.763344666829
 10
904.5013157952864
 20
-1364.743148746483
 42
0.0143509212558649
 10
904.8579468992244
 20
-1364.647344112705
 42
0.0156557857036023
 10
905.208162963953
 20
-1364.530332896885
 10
905.2156641784463
 20
-1364.527562735132
 42
0.0170137333631044
 10
905.572260174131
 20
-1364.381905120259
 10
905.5793640965352
 20
-1364.378717284697
 42
0.018310536441182
 10
905.9387137646995
 20
-1364.201382242873
 10
905.9456605293402
 20
-1364.197631808
 42
0.0194899958151807
 10
906.30414127032
 20
-1363.985652826112
 10
906.3111551496609
 20
-1363.981127483814
 42
0.020486985295494
 10
906.6651694517564
 20
-1363.731607468727
 10
906.6724350603419
 20
-1363.72602740338
 42
0.0212516938554647
 10
907.0184249914449
 20
-1363.43612340649
 10
907.0649416855257
 20
-1363.393656096392
 42
0.0215248918249256
 10
907.3249678544132
 20
-1363.134891817398
 10
907.3699975887915
 20
-1363.08604769605
 42
0.0114578554954825
 10
907.5247897424711
 20
-1362.910224762589
 10
907.5359842784624
 20
-1362.896905999038
 42
0.0061531305135825
 10
907.6624589244522
 20
-1362.742616465738
 42
0.0006325587127649
 10
907.7868374086369
 20
-1362.586613090021
 10
907.8098775436554
 20
-1362.557639569403
 42
0.0041897761555912
 10
907.978332947629
 20
-1362.34212019334
 10
908.0367950675203
 20
-1362.266018846356
 42
0.0092993880040216
 10
908.313406994751
 20
-1361.891740082463
 10
908.3958014879406
 20
-1361.775803078907
 42
0.0159321727083017
 10
908.7424079705853
 20
-1361.253628858148
 10
908.7867641059784
 20
-1361.181949293891
 42
0.0085547317021975
 10
909.0212758713001
 20
-1360.788074344673
 42
0.0084601156888836
 10
909.2422520487365
 20
-1360.386447495652
 10
909.2503675225726
 20
-1360.371087813368
 42
0.0081429654285546
 10
909.4736167930126
 20
-1359.931366300822
 10
909.4824769571941
 20
-1359.913187458807
 42
0.0076574581327635
 10
909.7088844677629
 20
-1359.43000458355
 10
909.7183641084845
 20
-1359.408940105252
 42
0.0070682724198872
 10
909.9488090162903
 20
-1358.876902800473
 10
909.958799300273
 20
-1358.852913611458
 42
0.006455951444835
 10
910.1941325084548
 20
-1358.266601344939
 10
910.2045418666196
 20
-1358.239666419498
 42
0.0058311413908231
 10
910.4455886033822
 20
-1357.593634325114
 10
910.4563436807699
 20
-1357.563749983953
 42
0.0052312425819428
 10
910.7039249588145
 20
-1356.852547570108
 10
910.7149687951905
 20
-1356.819720858049
 42
0.0046680544796336
 10
910.9698972229213
 20
-1356.037894542306
 10
911.0118893729792
 20
-1355.904911304968
 42
0.0041666856445823
 10
911.2151753853636
 20
-1355.241942529997
 10
911.2528378260268
 20
-1355.115361422345
 42
0.0015170975157229
 10
911.3740244044404
 20
-1354.703493070849
 42
-0.0004887993117738
 10
911.4943641775317
 20
-1354.291374658916
 10
911.5708414350586
 20
-1354.030417272866
 42
0.0002583378929462
 10
911.8440560051262
 20
-1353.096360569676
 10
911.9258288547003
 20
-1352.816261310101
 42
0.0006636169672884
 10
912.1196966147108
 20
-1352.148908386517
 10
912.1247932690716
 20
-1352.13127680359
 42
0.0010589131324638
 10
912.3062419699745
 20
-1351.498545460588
 10
912.3112240404694
 20
-1351.481032553517
 42
0.001565552446299
 10
912.4794942476378
 20
-1350.882415874367
 10
912.4843244480555
 20
-1350.865023715422
 42
0.0021640440480012
 10
912.6386144200387
 20
-1350.299996697413
 10
912.6432486394666
 20
-1350.282731967427
 42
0.0028763871851085
 10
912.7827643575217
 20
-1349.750764016572
 10
912.7871502216867
 20
-1349.733640038427
 42
0.0037310511946254
 10
912.9111069135258
 20
-1349.234192444394
 10
912.9151821338141
 20
-1349.217232173151
 42
0.0047652197770852
 10
913.0228060343233
 20
-1348.749754404843
 10
913.0264966336481
 20
-1348.732994849687
 42
0.0060276699303047
 10
913.1170267328002
 20
-1348.296919054549
 10
913.1202454230869
 20
-1348.280417840253
 42
0.0075824337757439
 10
913.1929347325049
 20
-1347.875150675814
 10
913.1955801098862
 20
-1347.858995728357
 42
0.0095130624611646
 10
913.2496953455163
 20
-1347.483906375292
 10
913.2566815693995
 20
-1347.42797281717
 42
0.012105465323273
 10
913.2832728999769
 20
-1347.163076988701
 10
913.284139389736
 20
-1347.151673545777
 42
0.0069050827391867
 10
913.2992282077741
 20
-1346.908732318928
 10
913.3003635074421
 20
-1346.885206061895
 42
0.0169063976686719
 10
913.3031907864229
 20
-1346.689013334582
 10
913.3020201348918
 20
-1346.62867757324
 42
0.0052007732895035
 10
913.2997666862987
 20
-1346.553084183081
 42
0.0054038123299897
 10
913.2798031744611
 20
-1346.433065887079
 10
913.2747173185894
 20
-1346.40440740049
 42
0.011205046046723
 10
913.2393329565314
 20
-1346.228080962153
 10
913.2215079944901
 20
-1346.14853937543
 42
0.0240764468009334
 10
913.1306106283444
 20
-1345.81830233993
 10
913.1120518655309
 20
-1345.761682174936
 42
0.0256812331834335
 10
912.968688945341
 20
-1345.389957968678
 10
912.9632795195195
 20
-1345.377826633688
 42
0.026836050121676
 10
912.7938522786698
 20
-1345.046833499667
 10
912.7883158710343
 20
-1345.037313829354
 42
0.0274670231729367
 10
912.5961148946215
 20
-1344.745026454437
 10
912.5907335946592
 20
-1344.737747306896
 42
0.0275035967098132
 10
912.379160715097
 20
-1344.482231416592
 10
912.3740912141313
 20
-1344.476752328962
 42
0.0269557673522201
 10
912.1466876706909
 20
-1344.256110042999
 10
912.1419446129089
 20
-1344.251980088539
 42
0.02591248022068
 10
911.9023897814775
 20
-1344.064289561386
 10
911.8978589362955
 20
-1344.061104059056
 42
0.0245162153005956
 10
911.6499425832008
 20
-1343.904371049945
 10
911.6454160368772
 20
-1343.901810852745
 42
0.0229282588842563
 10
911.3929964800492
 20
-1343.773942660246
 10
911.388215986213
 20
-1343.771790360484
 42
0.0212984135700765
 10
911.1351780337507
 20
-1343.670591443241
 10
911.1298737487833
 20
-1343.668727880482
 42
0.0197555462347386
 10
910.8800954110582
 20
-1343.591912462517
 42
0.0183511896789388
 10
910.6251666855956
 20
-1343.534329555551
 10
910.5388014888716
 20
-1343.518126765166
 42
0.0338057877144312
 10
910.2532941396117
 20
-1343.484318360026
 10
910.1622887345717
 20
-1343.479738704764
 42
0.0091990524490717
 10
910.0564416259358
 20
-1343.476362848842
 42
0.0028333980789336
 10
909.9505277099402
 20
-1343.475534741326
 10
909.9496122568935
 20
-1343.475532771502
 42
-0.002361982780504
 10
909.8418662417961
 20
-1343.474791930423
 10
909.8054610716117
 20
-1343.47436962396
 42
0.000882459847429
 10
909.6249050816658
 20
-1343.472593845721
 10
909.5810436493559
 20
-1343.472239884196
 42
0.0038132665763906
 10
909.3127607534851
 20
-1343.472120948129
 10
909.2962270986836
 20
-1343.472239714273
 42
0.0060665569335579
 10
908.9949466070974
 20
-1343.478060013694
 10
908.980696275067
 20
-1343.478508321661
 42
0.0080356953336687
 10
908.6512375587239
 20
-1343.494176043728
 10
908.6391675436405
 20
-1343.494944626669
 42
0.0098996399106022
 10
908.2864044589874
 20
-1343.524429855867
 10
908.2763587496149
 20
-1343.525470152065
 42
0.0117740981366489
 10
907.9052018912673
 20
-1343.572762399595
 10
907.8969791947836
 20
-1343.574007516166
 42
0.013743521513845
 10
907.5123903752959
 20
-1343.643104489728
 10
907.5057333361751
 20
-1343.644490385961
 42
0.0158359869388291
 10
907.1127362423716
 20
-1343.739382474442
 10
907.1073230555055
 20
-1343.740872415312
 42
0.0180554124029893
 10
906.7110080108928
 20
-1343.865510431551
 10
906.7064512228097
 20
-1343.867126467817
 42
0.0203657431285382
 10
906.3119737049967
 20
-1344.025386809334
 10
906.307830165991
 20
-1344.027248430775
 42
0.0226819684657288
 10
905.9203941097855
 20
-1344.222891009447
 10
905.9161943187693
 20
-1344.225256601366
 42
0.024863498460645
 10
905.5410123775881
 20
-1344.461883247313
 10
905.4928174488037
 20
-1344.495740289139
 42
0.0267044190884283
 10
905.2185247518876
 20
-1344.711180665007
 42
0.0139303002198896
 10
904.9623575859551
 20
-1344.948419505913
 10
904.9575042002278
 20
-1344.953172168779
 42
0.0283460963446713
 10
904.7134316059995
 20
-1345.220902829225
 10
904.6737631008441
 20
-1345.269704406697
 42
0.0070695364819168
 10
904.5963258749842
 20
-1345.367771222662
 42
0.0070695364819168
  0
LWPOLYLINE
  5
59
330
23
100
AcDbEntity
  8
0
  6
Continuous
 62
     7
370
    15
390
1D
100
AcDbPolyline
 90
      226
 70
   128
 43
0.0
 10
901.0675054377379
 20
-1361.089360028846
 42
-0.0026277636607057
 10
901.0674275539378
 20
-1361.022588103079
 10
901.0676449121698
 20
-1360.96943288566
 42
-0.0088680296727914
 10
901.071421528463
 20
-1360.796417103254
 10
901.0737678875753
 20
-1360.737137077804
 42
-0.0077381705613145
 10
901.0898139983392
 20
-1360.445876581996
 10
901.0906819095115
 20
-1360.43358834832
 42
-0.0068872530533739
 10
901.1173139892604
 20
-1360.118366596244
 10
901.1185182134458
 20
-1360.106125617232
 42
-0.0062130021487007
 10
901.1561119302742
 20
-1359.767255925989
 10
901.1576158338087
 20
-1359.755082054078
 42
-0.0056726929671088
 10
901.2065376933112
 20
-1359.392886831963
 10
901.2083111389554
 20
-1359.380793031719
 42
-0.0052341884495975
 10
901.2689217252145
 20
-1358.995599776206
 10
901.270939713992
 20
-1358.983594846208
 42
-0.0049768450167908
 10
901.3436783954222
 20
-1358.575750278755
 10
901.3679274101402
 20
-1358.44720229577
 42
-0.0089029805623325
 10
901.5050082619357
 20
-1357.785426848344
 10
901.5377536372534
 20
-1357.640395417824
 42
-0.0080318257098789
 10
901.7673022515961
 20
-1356.694685785963
 10
901.7792871780424
 20
-1356.64855515078
 42
-0.0074265721317039
 10
902.063298716895
 20
-1355.618490572391
 10
902.0831782600121
 20
-1355.5503565118
 42
-0.0069711922701489
 10
902.4104828385157
 20
-1354.484088771482
 10
902.4704347856227
 20
-1354.298067413107
 42
-0.0052070422891852
 10
902.6998600108805
 20
-1353.61079533608
 10
902.7171412030167
 20
-1353.560768055567
 42
-0.0009167004448999
 10
902.9202330903422
 20
-1352.976312207309
 42
-0.0025162726942414
 10
903.1273307206061
 20
-1352.393270943143
 10
903.1645553324153
 20
-1352.290121397227
 42
-0.0028212681456475
 10
903.4127312513733
 20
-1351.61439076507
 10
903.4225620141295
 20
-1351.588083320378
 42
-0.0031964916822847
 10
903.6588542717863
 20
-1350.967878558266
 10
903.6684887257826
 20
-1350.94306856813
 42
-0.0036281836451334
 10
903.8935946868864
 20
-1350.37562788723
 10
903.9030330970425
 20
-1350.352330455731
 42
-0.0041269166829688
 10
904.1176507937031
 20
-1349.834889559749
 10
904.1502837501229
 20
-1349.75801111339
 42
-0.0047472213055819
 10
904.3073285556775
 20
-1349.397589645504
 10
904.3142226368876
 20
-1349.382169048168
 42
-0.0025651659997371
 10
904.4625806707359
 20
-1349.054840992424
 42
-0.0057144634995036
 10
904.6163303645062
 20
-1348.730031319064
 10
904.6443610699047
 20
-1348.672522936675
 42
-0.0065388068374285
 10
904.8278280976482
 20
-1348.308290440002
 10
904.8362865534267
 20
-1348.292030860633
 42
-0.007451084301985
 10
905.0124687993045
 20
-1347.96534257951
 10
905.0206484698396
 20
-1347.950701802234
 42
-0.0084648979853902
 10
905.1902823229357
 20
-1347.65879279128
 10
905.1981384494238
 20
-1347.645785799629
 42
-0.0095638542805224
 10
905.361973897018
 20
-1347.385896927651
 10
905.3694488406923
 20
-1347.374527566191
 42
-0.0107191626804486
 10
905.5282504210772
 20
-1347.143916331651
 10
905.5352671548083
 20
-1347.134180239287
 42
-0.0118458573903881
 10
905.6898152533208
 20
-1346.930108043976
 42
-0.0129184518188581
 10
905.8542678769261
 20
-1346.733947527801
 10
905.8844126492861
 20
-1346.699821448905
 42
-0.0217742579635611
 10
906.0610249716208
 20
-1346.516614678656
 10
906.0717705160779
 20
-1346.506397845456
 42
-0.0097266568654902
 10
906.237828134937
 20
-1346.354550271016
 42
-0.018772090571699
 10
906.412175710829
 20
-1346.212481417625
 10
906.4428817015025
 20
-1346.189322335229
 42
-0.0179428207517514
 10
906.6753024214968
 20
-1346.026770158119
 10
906.6789547484071
 20
-1346.024406223234
 42
-0.0170047877699453
 10
906.9147183859429
 20
-1345.882945709079
 10
906.9185013746904
 20
-1345.880847404042
 42
-0.0160190788363567
 10
907.1554099223248
 20
-1345.759196102055
 42
-0.015110286149134
 10
907.3994417047717
 20
-1345.652513326
 10
907.4518282069832
 20
-1345.631473193106
 42
-0.027194544188635
 10
907.8104907660417
 20
-1345.5096083824
 10
907.8795555665323
 20
-1345.490258841133
 42
-0.0237596594021453
 10
908.2953524135521
 20
-1345.394808129152
 10
908.3634152672787
 20
-1345.382553441026
 42
-0.0213715440556681
 10
908.6492901987278
 20
-1345.343606409515
 10
908.7094373649438
 20
-1345.338016694814
 42
-0.0101465655820661
 10
908.8769298969399
 20
-1345.32587315155
 10
908.8862702831378
 20
-1345.325386236553
 42
-0.0100375910882628
 10
909.0354243837007
 20
-1345.320610418628
 10
909.0456836533772
 20
-1345.320487979613
 42
-0.0103625633384215
 10
909.1743916480359
 20
-1345.32161941314
 10
909.1966572993043
 20
-1345.322276771605
 42
-0.0115689250234876
 10
909.2807080368308
 20
-1345.32670627785
 42
-0.0072438037434452
 10
909.3645463162723
 20
-1345.334295477599
 10
909.3813468257428
 20
-1345.336062020323
 42
-0.0217917313138771
 10
909.4979165890545
 20
-1345.353481913044
 10
909.5635166796247
 20
-1345.366228521459
 42
-0.0332943556755175
 10
909.7679088446514
 20
-1345.420268812766
 10
909.7980814131985
 20
-1345.430436889884
 42
-0.0184824084810419
 10
909.936586469667
 20
-1345.482887905271
 42
-0.0198002050700385
 10
910.070660810166
 20
-1345.54577196547
 10
910.0725474475432
 20
-1345.54674975235
 42
-0.0212242342969898
 10
910.2046863899462
 20
-1345.622512491144
 10
910.2065016854885
 20
-1345.623658293352
 42
-0.0226090605795186
 10
910.3350055867112
 20
-1345.713137936917
 10
910.3368500284478
 20
-1345.714550189904
 42
-0.0238457052221405
 10
910.4600321097412
 20
-1345.818546085766
 10
910.4619848382997
 20
-1345.820360963532
 42
-0.0248160564147562
 10
910.5781863456
 20
-1345.93963556474
 10
910.5802899790024
 20
-1345.942020898445
 42
-0.0254109591447604
 10
910.6878951968686
 20
-1346.07730928441
 10
910.6901432187824
 20
-1346.08045083281
 42
-0.0255528488295252
 10
910.787589897579
 20
-1346.232477887044
 10
910.7899209974958
 20
-1346.236559498652
 42
-0.0252146793224302
 10
910.8757020235051
 20
-1346.40606174465
 10
910.8780042626624
 20
-1346.411243826562
 42
-0.0244265635952732
 10
910.9506589564237
 20
-1346.598990398608
 10
910.9599053578925
 20
-1346.626855816947
 42
-0.0231319612898874
 10
911.0058281368844
 20
-1346.790156863748
 42
-0.0112130424360945
 10
911.0404641594221
 20
-1346.956360463933
 10
911.0416666845351
 20
-1346.962857050824
 42
-0.0210527881240268
 10
911.0673531599059
 20
-1347.143912696265
 10
911.0708637547277
 20
-1347.179318244813
 42
-0.0190029892428993
 10
911.0863052282724
 20
-1347.432854091086
 10
911.0871152047164
 20
-1347.468329705454
 42
-0.0137974553661589
 10
911.0855663518807
 20
-1347.793361112188
 10
911.0847208969253
 20
-1347.81947985678
 42
-0.0081336634214535
 10
911.0698615617027
 20
-1348.124827324379
 42
-0.0073526923571413
 10
911.0455530283292
 20
-1348.429575568654
 10
911.0442916045454
 20
-1348.442912243331
 42
-0.0066886138693956
 10
911.0085560184986
 20
-1348.77349828683
 10
911.0068989290289
 20
-1348.787119905819
 42
-0.0061359187351422
 10
910.9590483269767
 20
-1349.143883885928
 10
910.9570108259052
 20
-1349.157778688748
 42
-0.0056698610060989
 10
910.8963604951372
 20
-1349.541057257592
 10
910.8939550618152
 20
-1349.555216376817
 42
-0.0052721077270442
 10
910.8198228610136
 20
-1349.965343716505
 10
910.8170597121738
 20
-1349.979760351881
 42
-0.0049289272182416
 10
910.7287655940738
 20
-1350.417068863003
 10
910.7256530993911
 20
-1350.431737715819
 42
-0.0047415956715274
 10
910.622415107859
 20
-1350.896534473229
 10
910.5876468974991
 20
-1351.046341568613
 42
-0.0084404470902943
 10
910.3976304539281
 20
-1351.806565593141
 10
910.3915037659416
 20
-1351.829429717298
 42
-0.003963594025745
 10
910.1700500816588
 20
-1352.630418581541
 10
910.156673286478
 20
-1352.677350198137
 42
-0.0072475040837424
 10
909.889226398617
 20
-1353.566569914521
 10
909.8190140717925
 20
-1353.788310264484
 42
-0.0051345458826775
 10
909.5322546997287
 20
-1354.66263545231
 10
909.5107284329689
 20
-1354.726061719417
 42
-0.0019150016603301
 10
909.2551950260945
 20
-1355.469610839666
 10
909.2487274216863
 20
-1355.488198304622
 42
-0.0021524362752204
 10
909.0002493706345
 20
-1356.192524126296
 10
908.9910389499375
 20
-1356.218277704598
 42
-0.0024331286818788
 10
908.7547836909021
 20
-1356.868877012716
 10
908.7457357383524
 20
-1356.893420319067
 42
-0.0027449721786554
 10
908.5211211675161
 20
-1357.492550197994
 10
908.5122311601234
 20
-1357.515872787848
 42
-0.0031083229768958
 10
908.2986886735139
 20
-1358.065796825426
 10
908.2899525418453
 20
-1358.087886541266
 42
-0.0035311343282267
 10
908.0869113562464
 20
-1358.590869667014
 10
908.0783260171041
 20
-1358.611712390511
 42
-0.0040245640950515
 10
907.8852142133044
 20
-1359.070021713117
 10
907.8767780997026
 20
-1359.089601081186
 42
-0.0046015135852397
 10
907.6930218065376
 20
-1359.505506110831
 10
907.6847356287051
 20
-1359.523803250293
 42
-0.0052768638270867
 10
907.5097581097536
 20
-1359.899576134553
 10
907.5016258991301
 20
-1359.91656947309
 42
-0.0060672675643335
 10
907.3348462863607
 20
-1360.254485096211
 10
907.3268768058782
 20
-1360.27015035521
 42
-0.0069904648870204
 10
907.1677084118778
 20
-1360.572486161872
 10
907.1599170122726
 20
-1360.586796711089
 42
-0.0080637022769591
 10
907.0077651519211
 20
-1360.855832014252
 10
907.0001761192864
 20
-1360.868759879859
 42
-0.0093006455659528
 10
906.8544354427584
 20
-1361.106774278356
 10
906.8470847760126
 20
-1361.118292247533
 42
-0.0107060778045797
 10
906.7071362325762
 20
-1361.327562564908
 10
906.7000744642934
 20
-1361.337648107479
 42
-0.0122723111405004
 10
906.5652807460986
 20
-1361.520441436963
 10
906.5649545225456
 20
-1361.520861824771
 42
-0.0141836319628715
 10
906.4213729195703
 20
-1361.695431582602
 10
906.4144251639178
 20
-1361.703406582868
 42
-0.0175957477207675
 10
906.2745189958837
 20
-1361.853027471272
 42
-0.0080466359667425
 10
906.1270552308409
 20
-1361.995349999435
 10
906.081020686336
 20
-1362.038370437514
 42
-0.0269600260398421
 10
905.8277404403563
 20
-1362.250693696021
 10
905.7611733040609
 20
-1362.300645110644
 42
-0.0178362839758901
 10
905.5212288144003
 20
-1362.4676630369
 10
905.5139838433965
 20
-1362.472331549107
 42
-0.0174650732648243
 10
905.2776476459585
 20
-1362.613192514064
 42
-0.0169240130160951
 10
905.0321814000989
 20
-1362.737484773842
 10
904.9861952445431
 20
-1362.758846729408
 42
-0.0318883036841081
 10
904.635844388922
 20
-1362.895185038919
 10
904.5674788537572
 20
-1362.916885659394
 42
-0.0284435909899725
 10
904.1914287274673
 20
-1363.013103094869
 10
904.1562705669658
 20
-1363.019996690698
 42
-0.0243909341008827
 10
903.8428271060498
 20
-1363.065717721727
 10
903.7925463792831
 20
-1363.070563268629
 42
-0.0196639292930969
 10
903.5769508017513
 20
-1363.082811554142
 10
903.5251267305882
 20
-1363.083714814879
 42
-0.010050151068206
 10
903.4127034489236
 20
-1363.083414416526
 10
903.381043587591
 20
-1363.082693344641
 42
-0.0019752031155657
 10
903.3319512508982
 20
-1363.081381184431
 10
903.3291909476666
 20
-1363.081296492604
 42
0.0065378752007836
 10
903.2856143729214
 20
-1363.08052960139
 42
-0.0167974694633442
 10
903.2420835499892
 20
-1363.078869702864
 10
903.2380042107275
 20
-1363.078576691969
 42
-0.0081283276274033
 10
903.1864444129924
 20
-1363.074029698331
 10
903.1747048391103
 20
-1363.072801780753
 42
-0.0126703440181839
 10
903.0999865433174
 20
-1363.063066989681
 10
903.0771986756401
 20
-1363.059508733766
 42
-0.0117852088434891
 10
902.9576596898025
 20
-1363.037945738608
 10
902.9022792380447
 20
-1363.026602198374
 42
-0.0251774592302268
 10
902.6754351990384
 20
-1362.968104188941
 10
902.6307160091868
 20
-1362.954137369606
 42
-0.0146525199894823
 10
902.4443230216473
 20
-1362.889870842408
 42
-0.0166929435859923
 10
902.2623453655232
 20
-1362.814063709354
 10
902.2576887342475
 20
-1362.811938808739
 42
-0.0191684358433512
 10
902.072505102998
 20
-1362.718702724949
 10
902.0691725172412
 20
-1362.716861477396
 42
-0.0221181781806163
 10
901.8858622133373
 20
-1362.604727979024
 10
901.8835124093306
 20
-1362.603143681034
 42
-0.0254984685376553
 10
901.7072222589453
 20
-1362.470732531065
 10
901.6847401112437
 20
-1362.451980222129
 42
-0.0292492648804605
 10
901.5599711724003
 20
-1362.334887422485
 42
-0.0159048957498429
 10
901.4461311749496
 20
-1362.206867430885
 10
901.4448123843708
 20
-1362.205285817866
 42
-0.0343813379558831
 10
901.3421751227445
 20
-1362.063414492096
 10
901.3106835913833
 20
-1362.012911100001
 42
-0.0369117275701862
 10
901.2247910894865
 20
-1361.849433859054
 42
-0.0191751379902623
 10
901.1575977039297
 20
-1361.677029253048
 10
901.1558343801701
 20
-1361.671935908373
 42
-0.0378178042228332
 10
901.1060396613857
 20
-1361.482995132291
 10
901.100044365656
 20
-1361.450434514098
 42
-0.0184846046466747
 10
901.079327166361
 20
-1361.30868169355
 42
-0.0179866351308685
 10
901.0689941612874
 20
-1361.165790880468
 10
901.0689377188417
 20
-1361.164233193856
 42
-0.0085497186138666
 10
901.0675054377379
 20
-1361.089360028846
 42
-0.0085497186138666
  0
ENDBLK
  5
5A
330
23
100
AcDbEntity
  8
1_10
390
1D
100
AcDbBlockEnd
  0
BLOCK
  5
5B
330
24
100
AcDbEntity
  8
notes
390
1D
100
AcDbBlockBegin
  2
*D3
 70
     1
 10
0.0
 20
0.0
 30
0.0
  3
*D3
  1
*D3
  0
LINE
  5
5C
330
24
100
AcDbEntity
  8
0
  6
Continuous
 62
     0
370
    -2
390
1D
100
AcDbLine
 10
24650.48011583032
 20
8835.533001908714
 30
0.0
 11
24650.48011583032
 21
8915.533017308713
 31
0.0
  0
LINE
  5
5D
330
24
100
AcDbEntity
  8
0
  6
Continuous
 62
     0
370
    -2
390
1D
100
AcDbLine
 10
24585.48011583032
 20
8840.533017308691
 30
0.0
 11
24585.48011583032
 21
8915.533017308713
 31
0.0
  0
LINE
  5
5E
330
24
100
AcDbEntity
  8
0
  6
Continuous
 62
     0
370
    -2
390
1D
100
AcDbLine
 10
24650.48011583032
 20
8915.533017308713
 30
0.0
 11
24585.48011583032
 21
8915.533017308713
 31
0.0
  0
CIRCLE
  5
5F
102
{ACAD_REACTORS
330
60
102
}
330
24
100
AcDbEntity
  8
0
  6
Continuous
 62
     0
370
    -2
390
1D
100
AcDbCircle
 10
24650.48011583032
 20
8915.533017308713
 30
0.0
 40
1.9998779296875
  0
HATCH
  5
60
330
24
100
AcDbEntity
  8
0
  6
Continuous
 62
     0
370
    -2
390
1D
100
AcDbHatch
 10
0.0
 20
0.0
 30
0.0
210
0.0
220
0.0
230
1.0
  2
SOLID
 70
     1
 71
     1
 91
        1
 92
        1
 93
        1
 72
     2
 10
24650.48011583032
 20
8915.533017308713
 40
1.9998779296875
 50
0.0
 51
360.0
 73
     0
 97
        1
330
5F
 75
     0
 76
     1
 98
        1
 10
0.0
 20
0.0
  0
CIRCLE
  5
61
102
{ACAD_REACTORS
330
62
102
}
330
24
100
AcDbEntity
  8
0
  6
Continuous
 62
     0
370
    -2
390
1D
100
AcDbCircle
 10
24585.48011583032
 20
8915.533017308713
 30
0.0
 40
1.9998779296875
  0
HATCH
  5
62
330
24
100
AcDbEntity
  8
0
  6
Continuous
 62
     0
370
    -2
390
1D
100
AcDbHatch
 10
0.0
 20
0.0
 30
0.0
210
0.0
220
0.0
230
1.0
  2
SOLID
 70
     1
 71
     1
 91
        1
 92
        1
 93
        1
 72
     2
 10
24585.48011583032
 20
8915.533017308713
 40
1.9998779296875
 50
0.0
 51
360.0
 73
     0
 97
        1
330
61
 75
     0
 76
     1
 98
        1
 10
0.0
 20
0.0
  0
MTEXT
  5
63
330
24
100
AcDbEntity
  8
0
 62
     0
390
1D
100
AcDbMText
 10
24602.10511583032
 20
8949.410634496213
 30
0.0
 40
24.4326171875
 41
0.0
 46
0.0
 71
     1
 72
     1
  1
65
  7
ＭＳ ゴシック
 73
     1
 44
0.7828267384257843
  0
POINT
  5
64
330
24
100
AcDbEntity
  8
Defpoints
 62
     0
370
     0
390
1D
100
AcDbPoint
 10
24585.48011583032
 20
8815.533017308691
 30
0.0
  0
POINT
  5
65
330
24
100
AcDbEntity
  8
Defpoints
 62
     0
370
     0
390
1D
100
AcDbPoint
 10
24650.48011583032
 20
8810.533001908714
 30
0.0
  0
POINT
  5
66
330
24
100
AcDbEntity
  8
Defpoints
 62
     0
370
     0
390
1D
100
AcDbPoint
 10
24650.48011583032
 20
8915.533017308713
 30
0.0
  0
ENDBLK
  5
67
330
24
100
AcDbEntity
  8
notes
390
1D
100
AcDbBlockEnd
  0
BLOCK
  5
68
330
25
100
AcDbEntity
  8
notes
390
1D
100
AcDbBlockBegin
  2
*D4
 70
     1
 10
0.0
 20
0.0
 30
0.0
  3
*D4
  1
*D4
  0
LINE
  5
69
330
25
100
AcDbEntity
  8
notes
  6
Continuous
 62
     0
370
    -2
100
AcDbLine
 10
23545.11789880326
 20
8805.533012897402
 30
0.0
 11
23545.11789880326
 21
8915.533017308402
 31
0.0
  0
LINE
  5
6A
330
25
100
AcDbEntity
  8
notes
  6
Continuous
 62
     0
370
    -2
100
AcDbLine
 10
23265.11789880326
 20
8805.533012897402
 30
0.0
 11
23265.11789880326
 21
8915.533017308402
 31
0.0
  0
LINE
  5
6B
330
25
100
AcDbEntity
  8
notes
  6
Continuous
 62
     0
370
    -2
100
AcDbLine
 10
23541.11814294388
 20
8915.533017308402
 30
0.0
 11
23269.11765466263
 21
8915.533017308402
 31
0.0
  0
INSERT
  5
6C
102
{ACAD_REACTORS
330
6D
102
}
330
25
100
AcDbEntity
  8
notes
 62
     0
370
    -2
100
AcDbBlockReference
  2
_DOT
 10
23545.11789880326
 20
8915.533017308402
 30
0.0
 41
3.999755859375
 42
3.999755859375
 43
3.999755859375
  0
INSERT
  5
6D
330
25
100
AcDbEntity
  8
notes
 62
     0
370
    -2
100
AcDbBlockReference
  2
_DOT
 10
23265.11789880326
 20
8915.533017308402
 30
0.0
 41
3.999755859375
 42
3.999755859375
 43
3.999755859375
 50
180.0
  0
MTEXT
  5
6E
102
{ACAD_REACTORS
330
6F
102
}
330
25
100
AcDbEntity
  8
notes
  6
Continuous
 62
     0
370
    20
100
AcDbMText
 10
23405.11789880326
 20
8932.749325902152
 30
0.0
 40
24.4326171875
 41
0.0
 46
0.0
 71
     5
 72
     1
  1
\A1;280
  7
ＭＳ ゴシック
 73
     1
 44
1.0
  0
POINT
  5
6F
330
25
100
AcDbEntity
  8
Defpoints
 62
     0
100
AcDbPoint
 10
23545.11789880326
 20
8780.533012897402
 30
0.0
  0
POINT
  5
70
330
25
100
AcDbEntity
  8
Defpoints
 62
     0
100
AcDbPoint
 10
23265.11789880326
 20
8780.533012897402
 30
0.0
  0
POINT
  5
71
330
25
100
AcDbEntity
  8
Defpoints
 62
     0
100
AcDbPoint
 10
23265.11789880326
 20
8915.533017308402
 30
0.0
  0
ENDBLK
  5
74
330
25
100
AcDbEntity
  8
notes
390
1D
100
AcDbBlockEnd
  0
BLOCK
  5
75
330
26
100
AcDbEntity
  8
notes
390
1D
100
AcDbBlockBegin
  2
*D5
 70
     1
 10
0.0
 20
0.0
 30
0.0
  3
*D5
  1
*D5
  0
LINE
  5
76
330
26
100
AcDbEntity
  8
0
  6
Continuous
 62
     0
370
    -2
390
1D
100
AcDbLine
 10
24424.22040927143
 20
8675.533017308588
 30
0.0
 11
24401.22040927143
 21
8675.533017308588
 31
0.0
  0
LINE
  5
77
330
26
100
AcDbEntity
  8
0
  6
Continuous
 62
     0
370
    -2
390
1D
100
AcDbLine
 10
24425.09363833319
 20
8815.53301730862
 30
0.0
 11
24401.22040927143
 21
8815.53301730862
 31
0.0
  0
LINE
  5
78
330
26
100
AcDbEntity
  8
0
  6
Continuous
 62
     0
370
    -2
390
1D
100
AcDbLine
 10
24401.22040927143
 20
8815.53301730862
 30
0.0
 11
24401.22040927143
 21
8965.555343574555
 31
0.0
  0
LINE
  5
79
330
26
100
AcDbEntity
  8
0
  6
Continuous
 62
     0
370
    -2
390
1D
100
AcDbLine
 10
24401.22040927143
 20
8675.533017308588
 30
0.0
 11
24401.22040927143
 21
8815.53301730862
 31
0.0
  0
CIRCLE
  5
7A
102
{ACAD_REACTORS
330
7B
102
}
330
26
100
AcDbEntity
  8
0
  6
Continuous
 62
     0
370
    -2
390
1D
100
AcDbCircle
 10
24401.22040927143
 20
8675.533017308588
 30
0.0
 40
1.9998779296875
  0
HATCH
  5
7B
330
26
100
AcDbEntity
  8
0
  6
Continuous
 62
     0
370
    -2
390
1D
100
AcDbHatch
 10
0.0
 20
0.0
 30
0.0
210
0.0
220
0.0
230
1.0
  2
SOLID
 70
     1
 71
     1
 91
        1
 92
        1
 93
        1
 72
     2
 10
24401.22040927143
 20
8675.533017308588
 40
1.9998779296875
 50
0.0
 51
360.0
 73
     0
 97
        1
330
7A
 75
     0
 76
     1
 98
        1
 10
0.0
 20
0.0
  0
CIRCLE
  5
7C
102
{ACAD_REACTORS
330
7D
102
}
330
26
100
AcDbEntity
  8
0
  6
Continuous
 62
     0
370
    -2
390
1D
100
AcDbCircle
 10
24401.22040927143
 20
8815.53301730862
 30
0.0
 40
1.9998779296875
  0
HATCH
  5
7D
330
26
100
AcDbEntity
  8
0
  6
Continuous
 62
     0
370
    -2
390
1D
100
AcDbHatch
 10
0.0
 20
0.0
 30
0.0
210
0.0
220
0.0
230
1.0
  2
SOLID
 70
     1
 71
     1
 91
        1
 92
        1
 93
        1
 72
     2
 10
24401.22040927143
 20
8815.53301730862
 40
1.9998779296875
 50
0.0
 51
360.0
 73
     0
 97
        1
330
7C
 75
     0
 76
     1
 98
        1
 10
0.0
 20
0.0
  0
MTEXT
  5
7E
330
26
100
AcDbEntity
  8
0
 62
     0
390
1D
100
AcDbMText
 10
24367.34279208393
 20
8822.680343574555
 30
0.0
 40
24.4326171875
 41
0.0
 46
0.0
 71
     1
 72
     1
  1
140(深さ)
  7
ＭＳ ゴシック
 11
0.0
 21
1.0
 31
0.0
 73
     1
 44
0.7828267384257843
  0
POINT
  5
7F
330
26
100
AcDbEntity
  8
Defpoints
 62
     0
370
     0
390
1D
100
AcDbPoint
 10
24400.09363833319
 20
8815.53301730862
 30
0.0
  0
POINT
  5
80
330
26
100
AcDbEntity
  8
Defpoints
 62
     0
370
     0
390
1D
100
AcDbPoint
 10
24399.22040927143
 20
8675.533017308588
 30
0.0
  0
POINT
  5
81
330
26
100
AcDbEntity
  8
Defpoints
 62
     0
370
     0
390
1D
100
AcDbPoint
 10
24401.22040927143
 20
8675.533017308588
 30
0.0
  0
ENDBLK
  5
82
330
26
100
AcDbEntity
  8
notes
390
1D
100
AcDbBlockEnd
  0
BLOCK
  5
83
330
27
100
AcDbEntity
  8
notes
390
1D
100
AcDbBlockBegin
  2
*D6
 70
     1
 10
0.0
 20
0.0
 30
0.0
  3
*D6
  1
*D6
  0
LINE
  5
84
330
27
100
AcDbEntity
  8
notes
  6
Continuous
 62
     0
370
    -2
100
AcDbLine
 10
23710.61283223172
 20
9706.680343574557
 30
0.0
 11
23710.61283223172
 21
9441.680343574557
 31
0.0
  0
LINE
  5
85
330
27
100
AcDbEntity
  8
notes
  6
Continuous
 62
     0
370
    -2
100
AcDbLine
 10
23096.61283223172
 20
9706.680343574557
 30
0.0
 11
23096.61283223172
 21
9441.680343574557
 31
0.0
  0
LINE
  5
86
330
27
100
AcDbEntity
  8
notes
  6
Continuous
 62
     0
370
    -2
100
AcDbLine
 10
23706.61307637234
 20
9441.680343574557
 30
0.0
 11
23100.61258809109
 21
9441.680343574557
 31
0.0
  0
INSERT
  5
87
102
{ACAD_REACTORS
330
88
102
}
330
27
100
AcDbEntity
  8
notes
 62
     0
370
    -2
100
AcDbBlockReference
  2
_DOT
 10
23710.61283223172
 20
9441.680343574557
 30
0.0
 41
3.999755859375
 42
3.999755859375
 43
3.999755859375
  0
INSERT
  5
88
330
27
100
AcDbEntity
  8
notes
 62
     0
370
    -2
100
AcDbBlockReference
  2
_DOT
 10
23096.61283223172
 20
9441.680343574557
 30
0.0
 41
3.999755859375
 42
3.999755859375
 43
3.999755859375
 50
180.0
  0
MTEXT
  5
89
102
{ACAD_REACTORS
330
8A
102
}
330
27
100
AcDbEntity
  8
notes
  6
Continuous
 62
     0
370
    20
100
AcDbMText
 10
23403.61283223172
 20
9458.896652168307
 30
0.0
 40
24.4326171875
 41
0.0
 46
0.0
 71
     5
 72
     1
  1
\A1;630
  7
ＭＳ ゴシック
 73
     1
 44
1.0
  0
POINT
  5
8A
330
27
100
AcDbEntity
  8
Defpoints
 62
     0
100
AcDbPoint
 10
23710.61283223172
 20
9731.680343574557
 30
0.0
  0
POINT
  5
8B
330
27
100
AcDbEntity
  8
Defpoints
 62
     0
100
AcDbPoint
 10
23096.61283223172
 20
9731.680343574557
 30
0.0
  0
POINT
  5
8C
330
27
100
AcDbEntity
  8
Defpoints
 62
     0
100
AcDbPoint
 10
23096.61283223172
 20
9441.680343574557
 30
0.0
  0
ENDBLK
  5
8F
330
27
100
AcDbEntity
  8
notes
390
1D
100
AcDbBlockEnd
  0
BLOCK
  5
90
330
28
100
AcDbEntity
  8
notes
390
1D
100
AcDbBlockBegin
  2
*D7
 70
     1
 10
0.0
 20
0.0
 30
0.0
  3
*D7
  1
*D7
  0
LINE
  5
91
330
28
100
AcDbEntity
  8
notes
  6
Continuous
 62
     0
370
    -2
100
AcDbLine
 10
23055.11797378221
 20
10042.6316293485
 30
0.0
 11
23055.11797378221
 21
10181.55355775245
 31
0.0
  0
LINE
  5
92
330
28
100
AcDbEntity
  8
notes
  6
Continuous
 62
     0
370
    -2
100
AcDbLine
 10
23755.11783819299
 20
10042.63156641045
 30
0.0
 11
23755.11783819299
 21
10181.55355775245
 31
0.0
  0
LINE
  5
93
330
28
100
AcDbEntity
  8
notes
  6
Continuous
 62
     0
370
    -2
100
AcDbLine
 10
23059.11772964158
 20
10181.55355775245
 30
0.0
 11
23751.11808233361
 21
10181.55355775245
 31
0.0
  0
INSERT
  5
94
102
{ACAD_REACTORS
330
95
102
}
330
28
100
AcDbEntity
  8
notes
 62
     0
370
    -2
100
AcDbBlockReference
  2
_DOT
 10
23055.11797378221
 20
10181.55355775245
 30
0.0
 41
3.999755859375
 42
3.999755859375
 43
3.999755859375
 50
180.0
  0
INSERT
  5
95
330
28
100
AcDbEntity
  8
notes
 62
     0
370
    -2
100
AcDbBlockReference
  2
_DOT
 10
23755.11783819299
 20
10181.55355775245
 30
0.0
 41
3.999755859375
 42
3.999755859375
 43
3.999755859375
  0
MTEXT
  5
96
102
{ACAD_REACTORS
330
97
102
}
330
28
100
AcDbEntity
  8
notes
  6
Continuous
 62
     0
370
    20
100
AcDbMText
 10
23405.1179059876
 20
10198.7698663462
 30
0.0
 40
24.4326171875
 41
0.0
 46
0.0
 71
     5
 72
     1
  1
\A1;700
  7
ＭＳ ゴシック
 73
     1
 44
1.0
  0
POINT
  5
97
330
28
100
AcDbEntity
  8
Defpoints
 62
     0
100
AcDbPoint
 10
23055.11797378221
 20
10017.6316293485
 30
0.0
  0
POINT
  5
98
330
28
100
AcDbEntity
  8
Defpoints
 62
     0
100
AcDbPoint
 10
23755.11783819299
 20
10017.63156641045
 30
0.0
  0
POINT
  5
99
330
28
100
AcDbEntity
  8
Defpoints
 62
     0
100
AcDbPoint
 10
23755.11783819299
 20
10181.55355775245
 30
0.0
  0
ENDBLK
  5
9C
330
28
100
AcDbEntity
  8
notes
390
1D
100
AcDbBlockEnd
  0
BLOCK
  5
9D
330
29
100
AcDbEntity
  8
notes
390
1D
100
AcDbBlockBegin
  2
*D8
 70
     1
 10
0.0
 20
0.0
 30
0.0
  3
*D8
  1
*D8
  0
LINE
  5
9E
330
29
100
AcDbEntity
  8
notes
  6
Continuous
 62
     0
370
    -2
100
AcDbLine
 10
23404.42323460711
 20
10012.03147291127
 30
0.0
 11
23404.42323460711
 21
10131.55355775226
 31
0.0
  0
LINE
  5
9F
330
29
100
AcDbEntity
  8
notes
  6
Continuous
 62
     0
370
    -2
100
AcDbLine
 10
23304.42323460711
 20
10012.03147291127
 30
0.0
 11
23304.42323460711
 21
10131.55355775226
 31
0.0
  0
LINE
  5
A0
330
29
100
AcDbEntity
  8
notes
  6
Continuous
 62
     0
370
    -2
100
AcDbLine
 10
23400.42347874774
 20
10131.55355775226
 30
0.0
 11
23308.42299046649
 21
10131.55355775226
 31
0.0
  0
INSERT
  5
A1
102
{ACAD_REACTORS
330
A2
102
}
330
29
100
AcDbEntity
  8
notes
 62
     0
370
    -2
100
AcDbBlockReference
  2
_DOT
 10
23404.42323460711
 20
10131.55355775226
 30
0.0
 41
3.999755859375
 42
3.999755859375
 43
3.999755859375
  0
INSERT
  5
A2
330
29
100
AcDbEntity
  8
notes
 62
     0
370
    -2
100
AcDbBlockReference
  2
_DOT
 10
23304.42323460711
 20
10131.55355775226
 30
0.0
 41
3.999755859375
 42
3.999755859375
 43
3.999755859375
 50
180.0
  0
MTEXT
  5
A3
102
{ACAD_REACTORS
330
A4
102
}
330
29
100
AcDbEntity
  8
notes
  6
Continuous
 62
     0
370
    20
100
AcDbMText
 10
23354.42323460711
 20
10148.76986634601
 30
0.0
 40
24.4326171875
 41
0.0
 46
0.0
 71
     5
 72
     1
  1
\A1;100
  7
ＭＳ ゴシック
 73
     1
 44
1.0
  0
POINT
  5
A4
330
29
100
AcDbEntity
  8
Defpoints
 62
     0
100
AcDbPoint
 10
23404.42323460711
 20
9987.031472911265
 30
0.0
  0
POINT
  5
A5
330
29
100
AcDbEntity
  8
Defpoints
 62
     0
100
AcDbPoint
 10
23304.42323460711
 20
9987.031472911265
 30
0.0
  0
POINT
  5
A6
330
29
100
AcDbEntity
  8
Defpoints
 62
     0
100
AcDbPoint
 10
23304.42323460711
 20
10131.55355775226
 30
0.0
  0
ENDBLK
  5
A9
330
29
100
AcDbEntity
  8
notes
390
1D
100
AcDbBlockEnd
  0
BLOCK
  5
AA
330
2A
100
AcDbEntity
  8
notes
390
1D
100
AcDbBlockBegin
  2
*D9
 70
     1
 10
0.0
 20
0.0
 30
0.0
  3
*D9
  1
*D9
  0
LINE
  5
AB
330
2A
100
AcDbEntity
  8
notes
  6
Continuous
 62
     0
370
    -2
100
AcDbLine
 10
23504.42323460711
 20
10012.03147291127
 30
0.0
 11
23504.42323460711
 21
10131.55355775226
 31
0.0
  0
LINE
  5
AC
330
2A
100
AcDbEntity
  8
notes
  6
Continuous
 62
     0
370
    -2
100
AcDbLine
 10
23404.42323460711
 20
10012.03147291127
 30
0.0
 11
23404.42323460711
 21
10131.55355775226
 31
0.0
  0
LINE
  5
AD
330
2A
100
AcDbEntity
  8
notes
  6
Continuous
 62
     0
370
    -2
100
AcDbLine
 10
23500.42347874774
 20
10131.55355775226
 30
0.0
 11
23408.42299046649
 21
10131.55355775226
 31
0.0
  0
INSERT
  5
AE
102
{ACAD_REACTORS
330
AF
102
}
330
2A
100
AcDbEntity
  8
notes
 62
     0
370
    -2
100
AcDbBlockReference
  2
_DOT
 10
23504.42323460711
 20
10131.55355775226
 30
0.0
 41
3.999755859375
 42
3.999755859375
 43
3.999755859375
  0
INSERT
  5
AF
330
2A
100
AcDbEntity
  8
notes
 62
     0
370
    -2
100
AcDbBlockReference
  2
_DOT
 10
23404.42323460711
 20
10131.55355775226
 30
0.0
 41
3.999755859375
 42
3.999755859375
 43
3.999755859375
 50
180.0
  0
MTEXT
  5
B0
102
{ACAD_REACTORS
330
B1
102
}
330
2A
100
AcDbEntity
  8
notes
  6
Continuous
 62
     0
370
    20
100
AcDbMText
 10
23454.42323460711
 20
10148.76986634601
 30
0.0
 40
24.4326171875
 41
0.0
 46
0.0
 71
     5
 72
     1
  1
\A1;100
  7
ＭＳ ゴシック
 73
     1
 44
1.0
  0
POINT
  5
B1
330
2A
100
AcDbEntity
  8
Defpoints
 62
     0
100
AcDbPoint
 10
23504.42323460711
 20
9987.031472911265
 30
0.0
  0
POINT
  5
B2
330
2A
100
AcDbEntity
  8
Defpoints
 62
     0
100
AcDbPoint
 10
23404.42323460711
 20
9987.031472911265
 30
0.0
  0
POINT
  5
B3
330
2A
100
AcDbEntity
  8
Defpoints
 62
     0
100
AcDbPoint
 10
23404.42323460711
 20
10131.55355775226
 30
0.0
  0
ENDBLK
  5
B6
330
2A
100
AcDbEntity
  8
notes
390
1D
100
AcDbBlockEnd
  0
BLOCK
  5
B7
330
2B
100
AcDbEntity
  8
notes
390
1D
100
AcDbBlockBegin
  2
*D10
 70
     1
 10
0.0
 20
0.0
 30
0.0
  3
*D10
  1
*D10
  0
LINE
  5
B8
330
2B
100
AcDbEntity
  8
notes
  6
Continuous
 62
     0
370
    -2
100
AcDbLine
 10
23567.61785702481
 20
9531.553650975458
 30
0.0
 11
23855.1178381934
 21
9531.553650975458
 31
0.0
  0
LINE
  5
B9
330
2B
100
AcDbEntity
  8
notes
  6
Continuous
 62
     0
370
    -2
100
AcDbLine
 10
23775.1178241794
 20
10031.5535577528
 30
0.0
 11
23855.1178381934
 21
10031.5535577528
 31
0.0
  0
LINE
  5
BA
330
2B
100
AcDbEntity
  8
notes
  6
Continuous
 62
     0
370
    -2
100
AcDbLine
 10
23855.1178381934
 20
9535.553406834833
 30
0.0
 11
23855.1178381934
 21
10027.55380189343
 31
0.0
  0
INSERT
  5
BB
102
{ACAD_REACTORS
330
BC
102
}
330
2B
100
AcDbEntity
  8
notes
 62
     0
370
    -2
100
AcDbBlockReference
  2
_DOT
 10
23855.1178381934
 20
9531.553650975458
 30
0.0
 41
3.999755859375
 42
3.999755859375
 43
3.999755859375
 50
270.0
  0
INSERT
  5
BC
330
2B
100
AcDbEntity
  8
notes
 62
     0
370
    -2
100
AcDbBlockReference
  2
_DOT
 10
23855.1178381934
 20
10031.5535577528
 30
0.0
 41
3.999755859375
 42
3.999755859375
 43
3.999755859375
 50
90.0
  0
MTEXT
  5
BD
102
{ACAD_REACTORS
330
BE
102
}
330
2B
100
AcDbEntity
  8
notes
  6
Continuous
 62
     0
370
    20
100
AcDbMText
 10
23837.90152959965
 20
9781.55360436413
 30
0.0
 40
24.4326171875
 41
0.0
 46
0.0
 71
     5
 72
     1
  1
\A1;500
  7
ＭＳ ゴシック
 11
0.0
 21
1.0
 31
0.0
 73
     1
 44
1.0
  0
POINT
  5
BE
330
2B
100
AcDbEntity
  8
Defpoints
 62
     0
100
AcDbPoint
 10
23542.61785702481
 20
9531.553650975458
 30
0.0
  0
POINT
  5
BF
330
2B
100
AcDbEntity
  8
Defpoints
 62
     0
100
AcDbPoint
 10
23750.1178241794
 20
10031.5535577528
 30
0.0
  0
POINT
  5
C0
330
2B
100
AcDbEntity
  8
Defpoints
 62
     0
100
AcDbPoint
 10
23855.1178381934
 20
10031.5535577528
 30
0.0
  0
ENDBLK
  5
C3
330
2B
100
AcDbEntity
  8
notes
390
1D
100
AcDbBlockEnd
  0
BLOCK
  5
C4
330
2C
100
AcDbEntity
  8
notes
390
1D
100
AcDbBlockBegin
  2
*D11
 70
     1
 10
0.0
 20
0.0
 30
0.0
  3
*D11
  1
*D11
  0
LINE
  5
C5
330
2C
100
AcDbEntity
  8
notes
  6
Continuous
 62
     0
370
    -2
100
AcDbLine
 10
23462.68019139541
 20
8630.533245912291
 30
0.0
 11
23855.11782629557
 21
8630.533245912291
 31
0.0
  0
LINE
  5
C6
330
2C
100
AcDbEntity
  8
notes
  6
Continuous
 62
     0
370
    -2
100
AcDbLine
 10
23775.11782359557
 20
8815.533017308406
 30
0.0
 11
23855.11782629557
 21
8815.533017308406
 31
0.0
  0
LINE
  5
C7
330
2C
100
AcDbEntity
  8
notes
  6
Continuous
 62
     0
370
    -2
100
AcDbLine
 10
23855.11782629557
 20
8634.533001771666
 30
0.0
 11
23855.11782629557
 21
8811.53326144903
 31
0.0
  0
INSERT
  5
C8
102
{ACAD_REACTORS
330
C9
102
}
330
2C
100
AcDbEntity
  8
notes
 62
     0
370
    -2
100
AcDbBlockReference
  2
_DOT
 10
23855.11782629557
 20
8630.533245912291
 30
0.0
 41
3.999755859375
 42
3.999755859375
 43
3.999755859375
 50
270.0
  0
INSERT
  5
C9
330
2C
100
AcDbEntity
  8
notes
 62
     0
370
    -2
100
AcDbBlockReference
  2
_DOT
 10
23855.11782629557
 20
8815.533017308406
 30
0.0
 41
3.999755859375
 42
3.999755859375
 43
3.999755859375
 50
90.0
  0
MTEXT
  5
CA
102
{ACAD_REACTORS
330
CB
102
}
330
2C
100
AcDbEntity
  8
notes
  6
Continuous
 62
     0
370
    20
100
AcDbMText
 10
23837.90151770182
 20
8723.033131610347
 30
0.0
 40
24.4326171875
 41
0.0
 46
0.0
 71
     5
 72
     1
  1
\A1;185
  7
ＭＳ ゴシック
 11
0.0
 21
1.0
 31
0.0
 73
     1
 44
1.0
  0
POINT
  5
CB
330
2C
100
AcDbEntity
  8
Defpoints
 62
     0
100
AcDbPoint
 10
23437.68019139541
 20
8630.533245912291
 30
0.0
  0
POINT
  5
CC
330
2C
100
AcDbEntity
  8
Defpoints
 62
     0
100
AcDbPoint
 10
23750.11782359557
 20
8815.533017308406
 30
0.0
  0
POINT
  5
CD
330
2C
100
AcDbEntity
  8
Defpoints
 62
     0
100
AcDbPoint
 10
23855.11782629557
 20
8815.533017308406
 30
0.0
  0
ENDBLK
  5
D0
330
2C
100
AcDbEntity
  8
notes
390
1D
100
AcDbBlockEnd
  0
BLOCK
  5
D1
330
2D
100
AcDbEntity
  8
notes
390
1D
100
AcDbBlockBegin
  2
*D12
 70
     1
 10
0.0
 20
0.0
 30
0.0
  3
*D12
  1
*D12
  0
LINE
  5
D2
330
2D
100
AcDbEntity
  8
0
  6
Continuous
 62
     0
370
    -2
390
1D
100
AcDbLine
 10
24129.70717623606
 20
8815.533017308526
 30
0.0
 11
24049.70713660306
 21
8815.533017308526
 31
0.0
  0
LINE
  5
D3
330
2D
100
AcDbEntity
  8
0
  6
Continuous
 62
     0
370
    -2
390
1D
100
AcDbLine
 10
24131.52216115222
 20
8745.533106508916
 30
0.0
 11
24049.70713660306
 21
8745.533106508916
 31
0.0
  0
LINE
  5
D4
330
2D
100
AcDbEntity
  8
0
  6
Continuous
 62
     0
370
    -2
390
1D
100
AcDbLine
 10
24049.70713660306
 20
8815.533017308526
 30
0.0
 11
24049.70713660306
 21
8745.533106508916
 31
0.0
  0
CIRCLE
  5
D5
102
{ACAD_REACTORS
330
D6
102
}
330
2D
100
AcDbEntity
  8
0
  6
Continuous
 62
     0
370
    -2
390
1D
100
AcDbCircle
 10
24049.70713660306
 20
8815.533017308526
 30
0.0
 40
1.9998779296875
  0
HATCH
  5
D6
330
2D
100
AcDbEntity
  8
0
  6
Continuous
 62
     0
370
    -2
390
1D
100
AcDbHatch
 10
0.0
 20
0.0
 30
0.0
210
0.0
220
0.0
230
1.0
  2
SOLID
 70
     1
 71
     1
 91
        1
 92
        1
 93
        1
 72
     2
 10
24049.70713660306
 20
8815.533017308526
 40
1.9998779296875
 50
0.0
 51
360.0
 73
     0
 97
        1
330
D5
 75
     0
 76
     1
 98
        1
 10
0.0
 20
0.0
  0
CIRCLE
  5
D7
102
{ACAD_REACTORS
330
D8
102
}
330
2D
100
AcDbEntity
  8
0
  6
Continuous
 62
     0
370
    -2
390
1D
100
AcDbCircle
 10
24049.70713660306
 20
8745.533106508916
 30
0.0
 40
1.9998779296875
  0
HATCH
  5
D8
330
2D
100
AcDbEntity
  8
0
  6
Continuous
 62
     0
370
    -2
390
1D
100
AcDbHatch
 10
0.0
 20
0.0
 30
0.0
210
0.0
220
0.0
230
1.0
  2
SOLID
 70
     1
 71
     1
 91
        1
 92
        1
 93
        1
 72
     2
 10
24049.70713660306
 20
8745.533106508916
 40
1.9998779296875
 50
0.0
 51
360.0
 73
     0
 97
        1
330
D7
 75
     0
 76
     1
 98
        1
 10
0.0
 20
0.0
  0
MTEXT
  5
D9
330
2D
100
AcDbEntity
  8
0
 62
     0
390
1D
100
AcDbMText
 10
24015.82951941556
 20
8764.65806190872
 30
0.0
 40
24.4326171875
 41
0.0
 46
0.0
 71
     1
 72
     1
  1
70
  7
ＭＳ ゴシック
 11
0.0
 21
1.0
 31
0.0
 73
     1
 44
0.7828267384257843
  0
POINT
  5
DA
330
2D
100
AcDbEntity
  8
Defpoints
 62
     0
370
     0
390
1D
100
AcDbPoint
 10
24156.52216115222
 20
8745.533106508916
 30
0.0
  0
POINT
  5
DB
330
2D
100
AcDbEntity
  8
Defpoints
 62
     0
370
     0
390
1D
100
AcDbPoint
 10
24154.70717623606
 20
8815.533017308526
 30
0.0
  0
POINT
  5
DC
330
2D
100
AcDbEntity
  8
Defpoints
 62
     0
370
     0
390
1D
100
AcDbPoint
 10
24049.70713660306
 20
8815.533017308526
 30
0.0
  0
ENDBLK
  5
DD
330
2D
100
AcDbEntity
  8
notes
390
1D
100
AcDbBlockEnd
  0
BLOCK
  5
DE
330
2E
100
AcDbEntity
  8
notes
390
1D
100
AcDbBlockBegin
  2
*D13
 70
     1
 10
0.0
 20
0.0
 30
0.0
  3
*D13
  1
*D13
  0
LINE
  5
DF
330
2E
100
AcDbEntity
  8
notes
  6
Continuous
 62
     0
370
    -2
100
AcDbLine
 10
24341.94049036583
 20
8630.533245912291
 30
0.0
 11
24050.0
 21
8630.533245912291
 31
0.0
  0
LINE
  5
E0
330
2E
100
AcDbEntity
  8
notes
  6
Continuous
 62
     0
370
    -2
100
AcDbLine
 10
24173.36303603183
 20
8745.533106508914
 30
0.0
 11
24050.0
 21
8745.533106508914
 31
0.0
  0
LINE
  5
E1
330
2E
100
AcDbEntity
  8
notes
  6
Continuous
 62
     0
370
    -2
100
AcDbLine
 10
24050.0
 20
8634.533001771666
 30
0.0
 11
24050.0
 21
8741.533350649539
 31
0.0
  0
INSERT
  5
E2
102
{ACAD_REACTORS
330
E3
102
}
330
2E
100
AcDbEntity
  8
notes
 62
     0
370
    -2
100
AcDbBlockReference
  2
_DOT
 10
24050.0
 20
8630.533245912291
 30
0.0
 41
3.999755859375
 42
3.999755859375
 43
3.999755859375
 50
270.0
  0
INSERT
  5
E3
330
2E
100
AcDbEntity
  8
notes
 62
     0
370
    -2
100
AcDbBlockReference
  2
_DOT
 10
24050.0
 20
8745.533106508914
 30
0.0
 41
3.999755859375
 42
3.999755859375
 43
3.999755859375
 50
90.0
  0
MTEXT
  5
E4
102
{ACAD_REACTORS
330
E5
102
}
330
2E
100
AcDbEntity
  8
notes
  6
Continuous
 62
     0
370
    20
100
AcDbMText
 10
24032.78369140625
 20
8688.033176210603
 30
0.0
 40
24.4326171875
 41
0.0
 46
0.0
 71
     5
 72
     1
  1
\A1;115
  7
ＭＳ ゴシック
 11
0.0
 21
1.0
 31
0.0
 73
     1
 44
1.0
  0
POINT
  5
E5
330
2E
100
AcDbEntity
  8
Defpoints
 62
     0
100
AcDbPoint
 10
24366.94049036583
 20
8630.533245912291
 30
0.0
  0
POINT
  5
E6
330
2E
100
AcDbEntity
  8
Defpoints
 62
     0
100
AcDbPoint
 10
24198.36303603183
 20
8745.533106508914
 30
0.0
  0
POINT
  5
E7
330
2E
100
AcDbEntity
  8
Defpoints
 62
     0
100
AcDbPoint
 10
24050.0
 20
8745.533106508914
 30
0.0
  0
ENDBLK
  5
EA
330
2E
100
AcDbEntity
  8
notes
390
1D
100
AcDbBlockEnd
  0
BLOCK
  5
EB
330
2F
100
AcDbEntity
  8
notes
390
1D
100
AcDbBlockBegin
  2
*D14
 70
     1
 10
0.0
 20
0.0
 30
0.0
  3
*D14
  1
*D14
  0
LINE
  5
EC
330
2F
100
AcDbEntity
  8
notes
  6
Continuous
 62
     0
370
    -2
100
AcDbLine
 10
24399.70711685362
 20
8605.533245912291
 30
0.0
 11
24399.70711685362
 21
8530.533245912726
 31
0.0
  0
LINE
  5
ED
330
2F
100
AcDbEntity
  8
notes
  6
Continuous
 62
     0
370
    -2
100
AcDbLine
 10
24649.70711685362
 20
8633.316454016725
 30
0.0
 11
24649.70711685362
 21
8530.533245912726
 31
0.0
  0
LINE
  5
EE
330
2F
100
AcDbEntity
  8
notes
  6
Continuous
 62
     0
370
    -2
100
AcDbLine
 10
24403.706872713
 20
8530.533245912726
 30
0.0
 11
24645.70736099425
 21
8530.533245912726
 31
0.0
  0
INSERT
  5
EF
102
{ACAD_REACTORS
330
F0
102
}
330
2F
100
AcDbEntity
  8
notes
 62
     0
370
    -2
100
AcDbBlockReference
  2
_DOT
 10
24399.70711685362
 20
8530.533245912726
 30
0.0
 41
3.999755859375
 42
3.999755859375
 43
3.999755859375
 50
180.0
  0
INSERT
  5
F0
330
2F
100
AcDbEntity
  8
notes
 62
     0
370
    -2
100
AcDbBlockReference
  2
_DOT
 10
24649.70711685362
 20
8530.533245912726
 30
0.0
 41
3.999755859375
 42
3.999755859375
 43
3.999755859375
  0
MTEXT
  5
F1
102
{ACAD_REACTORS
330
F2
102
}
330
2F
100
AcDbEntity
  8
notes
  6
Continuous
 62
     0
370
    20
100
AcDbMText
 10
24524.70711685362
 20
8547.749554506476
 30
0.0
 40
24.4326171875
 41
0.0
 46
0.0
 71
     5
 72
     1
  1
\A1;250
  7
ＭＳ ゴシック
 73
     1
 44
1.0
  0
POINT
  5
F2
330
2F
100
AcDbEntity
  8
Defpoints
 62
     0
100
AcDbPoint
 10
24399.70711685362
 20
8630.533245912291
 30
0.0
  0
POINT
  5
F3
330
2F
100
AcDbEntity
  8
Defpoints
 62
     0
100
AcDbPoint
 10
24649.70711685362
 20
8658.316454016725
 30
0.0
  0
POINT
  5
F4
330
2F
100
AcDbEntity
  8
Defpoints
 62
     0
100
AcDbPoint
 10
24649.70711685362
 20
8530.533245912726
 30
0.0
  0
ENDBLK
  5
F7
330
2F
100
AcDbEntity
  8
notes
390
1D
100
AcDbBlockEnd
  0
BLOCK
  5
F8
330
30
100
AcDbEntity
  8
notes
390
1D
100
AcDbBlockBegin
  2
*D15
 70
     1
 10
0.0
 20
0.0
 30
0.0
  3
*D15
  1
*D15
  0
LINE
  5
F9
330
30
100
AcDbEntity
  8
notes
  6
Continuous
 62
     0
370
    -2
100
AcDbLine
 10
23030.11792195413
 20
9921.553557752599
 30
0.0
 11
22955.11795162316
 21
9921.553557752599
 31
0.0
  0
LINE
  5
FA
330
30
100
AcDbEntity
  8
notes
  6
Continuous
 62
     0
370
    -2
100
AcDbLine
 10
23035.11794942816
 20
10031.5535577526
 30
0.0
 11
22955.11795162316
 21
10031.5535577526
 31
0.0
  0
LINE
  5
FB
330
30
100
AcDbEntity
  8
notes
  6
Continuous
 62
     0
370
    -2
100
AcDbLine
 10
22955.11795162316
 20
9925.553313611974
 30
0.0
 11
22955.11795162316
 21
10027.55380189323
 31
0.0
  0
INSERT
  5
FC
102
{ACAD_REACTORS
330
FD
102
}
330
30
100
AcDbEntity
  8
notes
 62
     0
370
    -2
100
AcDbBlockReference
  2
_DOT
 10
22955.11795162316
 20
9921.553557752599
 30
0.0
 41
3.999755859375
 42
3.999755859375
 43
3.999755859375
 50
270.0
  0
INSERT
  5
FD
330
30
100
AcDbEntity
  8
notes
 62
     0
370
    -2
100
AcDbBlockReference
  2
_DOT
 10
22955.11795162316
 20
10031.5535577526
 30
0.0
 41
3.999755859375
 42
3.999755859375
 43
3.999755859375
 50
90.0
  0
MTEXT
  5
FE
102
{ACAD_REACTORS
330
FF
102
}
330
30
100
AcDbEntity
  8
notes
  6
Continuous
 62
     0
370
    20
100
AcDbMText
 10
22937.90164302941
 20
9976.553557752599
 30
0.0
 40
24.4326171875
 41
0.0
 46
0.0
 71
     5
 72
     1
  1
\A1;110
  7
ＭＳ ゴシック
 11
0.0
 21
1.0
 31
0.0
 73
     1
 44
1.0
  0
POINT
  5
FF
330
30
100
AcDbEntity
  8
Defpoints
 62
     0
100
AcDbPoint
 10
23055.11792195413
 20
9921.553557752599
 30
0.0
  0
POINT
  5
100
330
30
100
AcDbEntity
  8
Defpoints
 62
     0
100
AcDbPoint
 10
23060.11794942816
 20
10031.5535577526
 30
0.0
  0
POINT
  5
101
330
30
100
AcDbEntity
  8
Defpoints
 62
     0
100
AcDbPoint
 10
22955.11795162316
 20
10031.5535577526
 30
0.0
  0
ENDBLK
  5
104
330
30
100
AcDbEntity
  8
notes
390
1D
100
AcDbBlockEnd
  0
BLOCK
  5
105
330
31
100
AcDbEntity
  8
notes
390
1D
100
AcDbBlockBegin
  2
*D16
 70
     1
 10
0.0
 20
0.0
 30
0.0
  3
*D16
  1
*D16
  0
LINE
  5
106
330
31
100
AcDbEntity
  8
notes
  6
Continuous
 62
     0
370
    -2
100
AcDbLine
 10
23035.10602781067
 20
8815.532980709668
 30
0.0
 11
22955.11795421226
 21
8815.532980709668
 31
0.0
  0
LINE
  5
107
330
31
100
AcDbEntity
  8
notes
  6
Continuous
 62
     0
370
    -2
100
AcDbLine
 10
23220.11789880326
 20
8760.533012897402
 30
0.0
 11
22955.11795421226
 21
8760.533012897402
 31
0.0
  0
LINE
  5
108
330
31
100
AcDbEntity
  8
notes
  6
Continuous
 62
     0
370
    -2
100
AcDbLine
 10
22955.11795421226
 20
8811.533224850293
 30
0.0
 11
22955.11795421226
 21
8764.532768756777
 31
0.0
  0
INSERT
  5
109
102
{ACAD_REACTORS
330
10A
102
}
330
31
100
AcDbEntity
  8
notes
 62
     0
370
    -2
100
AcDbBlockReference
  2
_DOT
 10
22955.11795421226
 20
8815.532980709668
 30
0.0
 41
3.999755859375
 42
3.999755859375
 43
3.999755859375
 50
90.0
  0
INSERT
  5
10A
330
31
100
AcDbEntity
  8
notes
 62
     0
370
    -2
100
AcDbBlockReference
  2
_DOT
 10
22955.11795421226
 20
8760.533012897402
 30
0.0
 41
3.999755859375
 42
3.999755859375
 43
3.999755859375
 50
270.0
  0
MTEXT
  5
10B
102
{ACAD_REACTORS
330
10C
102
}
330
31
100
AcDbEntity
  8
notes
  6
Continuous
 62
     0
370
    20
100
AcDbMText
 10
22937.90164561851
 20
8788.032996803535
 30
0.0
 40
24.4326171875
 41
0.0
 46
0.0
 71
     5
 72
     1
  1
\A1;55
  7
ＭＳ ゴシック
 11
0.0
 21
1.0
 31
0.0
 73
     1
 44
1.0
  0
POINT
  5
10C
330
31
100
AcDbEntity
  8
Defpoints
 62
     0
100
AcDbPoint
 10
23060.10602781067
 20
8815.532980709668
 30
0.0
  0
POINT
  5
10D
330
31
100
AcDbEntity
  8
Defpoints
 62
     0
100
AcDbPoint
 10
23245.11789880326
 20
8760.533012897402
 30
0.0
  0
POINT
  5
10E
330
31
100
AcDbEntity
  8
Defpoints
 62
     0
100
AcDbPoint
 10
22955.11795421226
 20
8760.533012897402
 30
0.0
  0
ENDBLK
  5
111
330
31
100
AcDbEntity
  8
notes
390
1D
100
AcDbBlockEnd
  0
BLOCK
  5
112
330
32
100
AcDbEntity
  8
notes
390
1D
100
AcDbBlockBegin
  2
*D17
 70
     1
 10
0.0
 20
0.0
 30
0.0
  3
*D17
  1
*D17
  0
LINE
  5
113
330
32
100
AcDbEntity
  8
notes
  6
Continuous
 62
     0
370
    -2
100
AcDbLine
 10
23125.78769131153
 20
9566.55160397027
 30
0.0
 11
22955.11795162316
 21
9566.55160397027
 31
0.0
  0
LINE
  5
114
330
32
100
AcDbEntity
  8
notes
  6
Continuous
 62
     0
370
    -2
100
AcDbLine
 10
23030.11792195413
 20
9921.553557752599
 30
0.0
 11
22955.11795162316
 21
9921.553557752599
 31
0.0
  0
LINE
  5
115
330
32
100
AcDbEntity
  8
notes
  6
Continuous
 62
     0
370
    -2
100
AcDbLine
 10
22955.11795162316
 20
9570.551359829646
 30
0.0
 11
22955.11795162316
 21
9917.553801893224
 31
0.0
  0
INSERT
  5
116
102
{ACAD_REACTORS
330
117
102
}
330
32
100
AcDbEntity
  8
notes
 62
     0
370
    -2
100
AcDbBlockReference
  2
_DOT
 10
22955.11795162316
 20
9566.55160397027
 30
0.0
 41
3.999755859375
 42
3.999755859375
 43
3.999755859375
 50
270.0
  0
INSERT
  5
117
330
32
100
AcDbEntity
  8
notes
 62
     0
370
    -2
100
AcDbBlockReference
  2
_DOT
 10
22955.11795162316
 20
9921.553557752599
 30
0.0
 41
3.999755859375
 42
3.999755859375
 43
3.999755859375
 50
90.0
  0
MTEXT
  5
118
102
{ACAD_REACTORS
330
119
102
}
330
32
100
AcDbEntity
  8
notes
  6
Continuous
 62
     0
370
    20
100
AcDbMText
 10
22937.90164302941
 20
9744.052580861435
 30
0.0
 40
24.4326171875
 41
0.0
 46
0.0
 71
     5
 72
     1
  1
\A1;355
  7
ＭＳ ゴシック
 11
0.0
 21
1.0
 31
0.0
 73
     1
 44
1.0
  0
POINT
  5
119
330
32
100
AcDbEntity
  8
Defpoints
 62
     0
100
AcDbPoint
 10
23150.78769131153
 20
9566.55160397027
 30
0.0
  0
POINT
  5
11A
330
32
100
AcDbEntity
  8
Defpoints
 62
     0
100
AcDbPoint
 10
23055.11792195413
 20
9921.553557752599
 30
0.0
  0
POINT
  5
11B
330
32
100
AcDbEntity
  8
Defpoints
 62
     0
100
AcDbPoint
 10
22955.11795162316
 20
9921.553557752599
 30
0.0
  0
ENDBLK
  5
11E
330
32
100
AcDbEntity
  8
notes
390
1D
100
AcDbBlockEnd
  0
BLOCK
  5
11F
330
33
100
AcDbEntity
  8
ABA70-1504
390
1D
100
AcDbBlockBegin
  2
グループ-1
 70
     0
 10
0.0
 20
0.0
 30
0.0
  3
グループ-1
  1
グループ-1
  0
SPLINE
  5
120
330
33
100
AcDbEntity
  8
0
  6
Continuous
 62
     7
370
    15
390
1D
100
AcDbSpline
210
0.0
220
0.0
230
1.0
 70
     8
 71
     2
 72
     8
 73
     5
 74
     0
 42
0.000000001
 43
0.000001
 40
0.0
 40
0.0
 40
0.0
 40
1.0
 40
2.0
 40
3.0
 40
3.0
 40
3.0
 10
-126.872276124128
 20
582.0784611848616
 30
0.0
 10
-126.8726053098477
 20
621.4477882676787
 30
0.0
 10
-163.2141275017675
 20
689.6371064173455
 30
0.0
 10
-226.1588319910813
 20
729.0058158203302
 30
0.0
 10
-262.4997840165335
 20
729.0054592026653
 30
0.0
  0
SPLINE
  5
121
330
33
100
AcDbEntity
  8
0
  6
Continuous
 62
     7
370
    15
390
1D
100
AcDbSpline
210
0.0
220
0.0
230
1.0
 70
     8
 71
     2
 72
     8
 73
     5
 74
     0
 42
0.000000001
 43
0.000001
 40
0.0
 40
0.0
 40
0.0
 40
1.0
 40
2.0
 40
3.0
 40
3.0
 40
3.0
 10
-262.49740032113
 20
435.1488013369367
 30
0.0
 10
-226.1564482955935
 20
435.1491366536405
 30
0.0
 10
-163.2123825153476
 20
474.5190445221165
 30
0.0
 10
-126.8719666000776
 20
542.7090546062157
 30
0.0
 10
-126.8722761234845
 20
582.0783816891243
 30
0.0
  0
ENDBLK
  5
122
330
33
100
AcDbEntity
  8
ABA70-1504
390
1D
100
AcDbBlockEnd
  0
BLOCK
  5
123
330
34
100
AcDbEntity
  8
ABA70-1504
390
1D
100
AcDbBlockBegin
  2
グループ-2
 70
     0
 10
0.0
 20
0.0
 30
0.0
  3
グループ-2
  1
グループ-2
  0
SPLINE
  5
124
330
34
100
AcDbEntity
  8
0
  6
Continuous
 62
     7
370
    15
390
1D
100
AcDbSpline
210
0.0
220
0.0
230
1.0
 70
     8
 71
     2
 72
     8
 73
     5
 74
     0
 42
0.000000001
 43
0.000001
 40
0.0
 40
0.0
 40
0.0
 40
1.0
 40
2.0
 40
3.0
 40
3.0
 40
3.0
 10
-707.9579666552902
 20
582.4318570171117
 30
0.0
 10
-707.9576374695705
 20
543.0625299342946
 30
0.0
 10
-671.6161152776506
 20
474.8732117846278
 30
0.0
 10
-608.671410788337
 20
435.504502381643
 30
0.0
 10
-572.3304587628847
 20
435.5048589993082
 30
0.0
  0
SPLINE
  5
125
330
34
100
AcDbEntity
  8
0
  6
Continuous
 62
     7
370
    15
390
1D
100
AcDbSpline
210
0.0
220
0.0
230
1.0
 70
     8
 71
     2
 72
     8
 73
     5
 74
     0
 42
0.000000001
 43
0.000001
 40
0.0
 40
0.0
 40
0.0
 40
1.0
 40
2.0
 40
3.0
 40
3.0
 40
3.0
 10
-572.332842458288
 20
729.3615168650367
 30
0.0
 10
-608.6737944838246
 20
729.3611815483328
 30
0.0
 10
-671.6178602640705
 20
689.9912736798567
 30
0.0
 10
-707.9582761793406
 20
621.8012635957577
 30
0.0
 10
-707.9579666559337
 20
582.4319365128491
 30
0.0
  0
ENDBLK
  5
126
330
34
100
AcDbEntity
  8
ABA70-1504
390
1D
100
AcDbBlockEnd
  0
BLOCK
  5
1F9
330
1F8
100
AcDbEntity
  8
0
100
AcDbBlockBegin
  2
*D20
 70
     1
 10
0.0
 20
0.0
 30
0.0
  3
*D20
  1
*D20
  0
LINE
  5
1FB
330
1F8
100
AcDbEntity
  8
ABA70-1504
  6
Continuous
 62
     0
370
    -2
100
AcDbLine
 10
23432.16850096114
 20
10008.44941309599
 30
0.0
 11
23470.93096526096
 21
10066.98143712963
 31
0.0
  0
MTEXT
  5
1FC
330
1F8
100
AcDbEntity
  8
ABA70-1504
  6
Continuous
 62
     0
370
    20
100
AcDbMText
 10
23451.55558459058
 20
10061.66057853461
 30
0.0
 40
24.4326171875
 41
0.0
 46
0.0
 71
     5
 72
     1
  1
\A1;37
  7
ＭＳ ゴシック
 11
0.5521446040602593
 21
0.8337483650401598
 31
0.0
 73
     1
 44
1.0
  0
INSERT
  5
1FD
330
1F8
100
AcDbEntity
  8
ABA70-1504
 62
     0
370
    -2
100
AcDbBlockReference
  2
VW_FILLEDARROW
 10
23414.63790978223
 20
9981.977902505963
 30
0.0
 41
31.75
 42
31.75
 43
31.75
 50
236.4857334683467
  0
POINT
  5
1FE
330
1F8
100
AcDbEntity
  8
Defpoints
 62
     0
100
AcDbPoint
 10
23414.63790978223
 20
9981.977902505963
 30
0.0
  0
POINT
  5
1FF
330
1F8
100
AcDbEntity
  8
Defpoints
 62
     0
100
AcDbPoint
 10
23394.208559432
 20
9951.129212999482
 30
0.0
  0
ENDBLK
  5
1FA
330
1F8
100
AcDbEntity
  8
0
100
AcDbBlockEnd
  0
BLOCK
  5
211
330
210
100
AcDbEntity
  8
0
100
AcDbBlockBegin
  2
*D21
 70
     1
 10
0.0
 20
0.0
 30
0.0
  3
*D21
  1
*D21
  0
LINE
  5
213
330
210
100
AcDbEntity
  8
notes
  6
Continuous
 62
     0
370
    -2
100
AcDbLine
 10
24585.48011583032
 20
8840.533017308691
 30
0.0
 11
24585.48011583032
 21
8915.533017308713
 31
0.0
  0
LINE
  5
214
330
210
100
AcDbEntity
  8
notes
  6
Continuous
 62
     0
370
    -2
100
AcDbLine
 10
24650.48011583032
 20
8835.533001908714
 30
0.0
 11
24650.48011583032
 21
8915.533017308713
 31
0.0
  0
LINE
  5
215
330
210
100
AcDbEntity
  8
notes
  6
Continuous
 62
     0
370
    -2
100
AcDbLine
 10
24589.47987168969
 20
8915.533017308713
 30
0.0
 11
24598.90692833032
 21
8915.533017308713
 31
0.0
  0
LINE
  5
216
330
210
100
AcDbEntity
  8
notes
  6
Continuous
 62
     0
370
    -2
100
AcDbLine
 10
24646.48035997094
 20
8915.533017308713
 30
0.0
 11
24637.05330333032
 21
8915.533017308713
 31
0.0
  0
INSERT
  5
217
330
210
100
AcDbEntity
  8
notes
 62
     0
370
    -2
100
AcDbBlockReference
  2
_DOT
 10
24585.48011583032
 20
8915.533017308713
 30
0.0
 41
3.999755859375
 42
3.999755859375
 43
3.999755859375
 50
180.0
  0
INSERT
  5
218
330
210
100
AcDbEntity
  8
notes
 62
     0
370
    -2
100
AcDbBlockReference
  2
_DOT
 10
24650.48011583032
 20
8915.533017308713
 30
0.0
 41
3.999755859375
 42
3.999755859375
 43
3.999755859375
  0
MTEXT
  5
219
330
210
100
AcDbEntity
  8
notes
  6
Continuous
 62
     0
370
    20
100
AcDbMText
 10
24617.98011583032
 20
8920.533017308713
 30
0.0
 40
24.4326171875
 41
0.0
 46
0.0
 71
     5
 72
     1
  1
\A1;65
  7
ＭＳ ゴシック
 73
     1
 44
1.0
  0
POINT
  5
21A
330
210
100
AcDbEntity
  8
Defpoints
 62
     0
100
AcDbPoint
 10
24585.48011583032
 20
8815.533017308691
 30
0.0
  0
POINT
  5
21B
330
210
100
AcDbEntity
  8
Defpoints
 62
     0
100
AcDbPoint
 10
24650.48011583032
 20
8810.533001908714
 30
0.0
  0
POINT
  5
21C
330
210
100
AcDbEntity
  8
Defpoints
 62
     0
100
AcDbPoint
 10
24650.48011583032
 20
8915.533017308713
 30
0.0
  0
ENDBLK
  5
212
330
210
100
AcDbEntity
  8
0
100
AcDbBlockEnd
  0
BLOCK
  5
21E
330
21D
100
AcDbEntity
  8
0
100
AcDbBlockBegin
  2
*D22
 70
     1
 10
0.0
 20
0.0
 30
0.0
  3
*D22
  1
*D22
  0
LINE
  5
220
330
21D
100
AcDbEntity
  8
notes
  6
Continuous
 62
     0
370
    -2
100
AcDbLine
 10
24425.09363833319
 20
8815.53301730862
 30
0.0
 11
24401.22040927143
 21
8815.53301730862
 31
0.0
  0
LINE
  5
221
330
21D
100
AcDbEntity
  8
notes
  6
Continuous
 62
     0
370
    -2
100
AcDbLine
 10
24424.22040927143
 20
8675.533017308588
 30
0.0
 11
24401.22040927143
 21
8675.533017308588
 31
0.0
  0
LINE
  5
222
330
21D
100
AcDbEntity
  8
notes
  6
Continuous
 62
     0
370
    -2
100
AcDbLine
 10
24401.22040927143
 20
8811.533261449245
 30
0.0
 11
24401.22040927143
 21
8679.532773167963
 31
0.0
  0
INSERT
  5
223
330
21D
100
AcDbEntity
  8
notes
 62
     0
370
    -2
100
AcDbBlockReference
  2
_DOT
 10
24401.22040927143
 20
8815.53301730862
 30
0.0
 41
3.999755859375
 42
3.999755859375
 43
3.999755859375
 50
90.0
  0
INSERT
  5
224
330
21D
100
AcDbEntity
  8
notes
 62
     0
370
    -2
100
AcDbBlockReference
  2
_DOT
 10
24401.22040927143
 20
8675.533017308588
 30
0.0
 41
3.999755859375
 42
3.999755859375
 43
3.999755859375
 50
270.0
  0
MTEXT
  5
225
330
21D
100
AcDbEntity
  8
notes
  6
Continuous
 62
     0
370
    20
100
AcDbMText
 10
24406.22040927143
 20
8822.680343574555
 30
0.0
 40
24.4326171875
 41
0.0
 46
0.0
 71
     5
 72
     1
  1
\A1;140(深さ)
  7
ＭＳ ゴシック
 11
0.0
 21
1.0
 31
0.0
 73
     1
 44
1.0
  0
POINT
  5
226
330
21D
100
AcDbEntity
  8
Defpoints
 62
     0
100
AcDbPoint
 10
24400.09363833319
 20
8815.53301730862
 30
0.0
  0
POINT
  5
227
330
21D
100
AcDbEntity
  8
Defpoints
 62
     0
100
AcDbPoint
 10
24399.22040927143
 20
8675.533017308588
 30
0.0
  0
POINT
  5
228
330
21D
100
AcDbEntity
  8
Defpoints
 62
     0
100
AcDbPoint
 10
24401.22040927143
 20
8675.533017308588
 30
0.0
  0
ENDBLK
  5
21F
330
21D
100
AcDbEntity
  8
0
100
AcDbBlockEnd
  0
BLOCK
  5
22A
330
229
100
AcDbEntity
  8
0
100
AcDbBlockBegin
  2
*D23
 70
     1
 10
0.0
 20
0.0
 30
0.0
  3
*D23
  1
*D23
  0
LINE
  5
22C
330
229
100
AcDbEntity
  8
notes
  6
Continuous
 62
     0
370
    -2
100
AcDbLine
 10
24131.52216115222
 20
8745.533106508916
 30
0.0
 11
24049.70713660306
 21
8745.533106508916
 31
0.0
  0
LINE
  5
22D
330
229
100
AcDbEntity
  8
notes
  6
Continuous
 62
     0
370
    -2
100
AcDbLine
 10
24129.70717623606
 20
8815.533017308526
 30
0.0
 11
24049.70713660306
 21
8815.533017308526
 31
0.0
  0
LINE
  5
22E
330
229
100
AcDbEntity
  8
notes
  6
Continuous
 62
     0
370
    -2
100
AcDbLine
 10
24049.70713660306
 20
8749.53286236829
 30
0.0
 11
24049.70713660306
 21
8761.264413471219
 31
0.0
  0
LINE
  5
22F
330
229
100
AcDbEntity
  8
notes
  6
Continuous
 62
     0
370
    -2
100
AcDbLine
 10
24049.70713660306
 20
8811.53326144915
 30
0.0
 11
24049.70713660306
 21
8799.80171034622
 31
0.0
  0
INSERT
  5
230
330
229
100
AcDbEntity
  8
notes
 62
     0
370
    -2
100
AcDbBlockReference
  2
_DOT
 10
24049.70713660306
 20
8745.533106508916
 30
0.0
 41
3.999755859375
 42
3.999755859375
 43
3.999755859375
 50
270.0
  0
INSERT
  5
231
330
229
100
AcDbEntity
  8
notes
 62
     0
370
    -2
100
AcDbBlockReference
  2
_DOT
 10
24049.70713660306
 20
8815.533017308526
 30
0.0
 41
3.999755859375
 42
3.999755859375
 43
3.999755859375
 50
90.0
  0
MTEXT
  5
232
330
229
100
AcDbEntity
  8
notes
  6
Continuous
 62
     0
370
    20
100
AcDbMText
 10
24044.70713660306
 20
8780.53306190872
 30
0.0
 40
24.4326171875
 41
0.0
 46
0.0
 71
     5
 72
     1
  1
\A1;70
  7
ＭＳ ゴシック
 11
0.0
 21
1.0
 31
0.0
 73
     1
 44
1.0
  0
POINT
  5
233
330
229
100
AcDbEntity
  8
Defpoints
 62
     0
100
AcDbPoint
 10
24156.52216115222
 20
8745.533106508916
 30
0.0
  0
POINT
  5
234
330
229
100
AcDbEntity
  8
Defpoints
 62
     0
100
AcDbPoint
 10
24154.70717623606
 20
8815.533017308526
 30
0.0
  0
POINT
  5
235
330
229
100
AcDbEntity
  8
Defpoints
 62
     0
100
AcDbPoint
 10
24049.70713660306
 20
8815.533017308526
 30
0.0
  0
ENDBLK
  5
22B
330
229
100
AcDbEntity
  8
0
100
AcDbBlockEnd
  0
ENDSEC
  0
SECTION
  2
ENTITIES
  0
MTEXT
  5
127
330
A
100
AcDbEntity
  8
1_10
 62
     7
370
    20
390
1D
100
AcDbMText
 10
22854.0527975329
 20
8014.021233766521
 30
0.0
 40
16.28841145833333
 41
0.0
 46
0.0
 71
     1
 72
     1
  1
品名
  7
ＭＳ ゴシック
 73
     1
 44
0.7828267384257843
  0
MTEXT
  5
128
330
A
100
AcDbEntity
  8
1_10
 62
     7
370
    20
390
1D
100
AcDbMText
 10
22854.0527975329
 20
7929.021233766521
 30
0.0
 40
16.28841145833333
 41
0.0
 46
0.0
 71
     1
 72
     1
  1
仕様
  7
ＭＳ ゴシック
 73
     1
 44
0.7828267384257843
  0
MTEXT
  5
129
330
A
100
AcDbEntity
  8
1_10
 62
     7
370
    20
390
1D
100
AcDbMText
 10
22907.0527975329
 20
7985.43877282902
 30
0.0
 40
24.4326171875
 41
0.0
 46
0.0
 71
     1
 72
     1
  1
洗面器  -HATRIA,Daytime-
  7
ＭＳ ゴシック
 73
     1
 44
0.7828267384257843
  0
LINE
  5
12A
330
A
100
AcDbEntity
  8
1_10
  6
Continuous
 62
     7
370
    20
390
1D
100
AcDbLine
 10
24797.05279753241
 20
7937.436155641521
 30
0.0
 11
22847.05279753241
 21
7937.436155641521
 31
0.0
  0
LWPOLYLINE
  5
12B
330
A
100
AcDbEntity
  8
1_10
  6
Continuous
 62
     7
370
    20
390
1D
100
AcDbPolyline
 90
        5
 70
   128
 43
0.0
 10
24797.0527975329
 20
10567.43615564152
 10
22847.0527975329
 20
10567.43615564152
 10
22847.0527975329
 20
7767.436155641521
 10
24797.0527975329
 20
7767.436155641521
 10
24797.0527975329
 20
10567.43615564152
  0
LINE
  5
12C
330
A
100
AcDbEntity
  8
1_10
  6
Continuous
 62
     7
370
    20
390
1D
100
AcDbLine
 10
24797.05279753241
 20
8022.436155641521
 30
0.0
 11
22847.05279753241
 21
8022.436155641521
 31
0.0
  0
LINE
  5
12D
330
A
100
AcDbEntity
  8
1_10
  6
Continuous
 62
     7
370
    20
390
1D
100
AcDbLine
 10
24797.0527975329
 20
7852.436155641521
 30
0.0
 11
24044.0527975329
 21
7852.436155641521
 31
0.0
  0
MTEXT
  5
12E
330
A
100
AcDbEntity
  8
1_10
 62
     7
370
    20
390
1D
100
AcDbMText
 10
22907.0527975329
 20
7900.43877282902
 30
0.0
 40
24.4326171875
 41
0.0
 46
0.0
 71
     1
 72
     1
  1
壁掛け/オーバーフロー付き/壁取付ボルト付属/\P陶器/ホワイト
  7
ＭＳ ゴシック
 73
     1
 44
1.130749733281688
  0
MTEXT
  5
12F
330
A
100
AcDbEntity
  8
1_10
 62
     7
370
    20
390
1D
100
AcDbMText
 10
22847.0527975331
 20
7755.582333584664
 30
0.0
 40
21.71788194444445
 41
0.0
 46
0.0
 71
     1
 72
     1
  1
110628HS
  7
ＭＳ ゴシック
 73
     1
 44
0.7828267384257843
  0
MTEXT
  5
130
330
A
100
AcDbEntity
  8
1_10
 62
     7
370
    20
390
1D
100
AcDbMText
 10
24073.92420378515
 20
7822.525761168214
 30
0.0
 40
24.4326171875
 41
0.0
 46
0.0
 71
     1
 72
     1
  1
大洋金物株式会社 ティーフォルム事業部
  7
ＭＳ ゴシック
 73
     1
 44
0.7828267384257843
  0
INSERT
  5
131
330
A
100
AcDbEntity
  8
1_10
 62
     7
370
    20
390
1D
100
AcDbBlockReference
  2
グループ
 10
23822.05279753265
 20
9161.438863000221
 30
0.0
  0
MTEXT
  5
132
330
A
100
AcDbEntity
  8
1_10
 62
     7
370
    20
390
1D
100
AcDbMText
 10
24606.05279753315
 20
7900.43877282902
 30
0.0
 40
24.4326171875
 41
0.0
 46
0.0
 71
     1
 72
     1
  1
1:10
  7
ＭＳ ゴシック
 73
     1
 44
0.7828267384257843
  0
MTEXT
  5
133
330
A
100
AcDbEntity
  8
1_10
 62
     7
370
    20
390
1D
100
AcDbMText
 10
24553.05279753315
 20
7929.021233766521
 30
0.0
 40
16.28841145833333
 41
0.0
 46
0.0
 71
     1
 72
     1
  1
縮尺
  7
ＭＳ ゴシック
 73
     1
 44
0.7828267384257843
  0
LINE
  5
134
330
A
100
AcDbEntity
  8
1_10
  6
Continuous
 62
     7
370
    20
390
1D
100
AcDbLine
 10
24546.05279753315
 20
7852.436155641521
 30
0.0
 11
24546.05279753315
 21
7937.436155641521
 31
0.0
  0
MTEXT
  5
135
330
A
100
AcDbEntity
  8
1_10
 62
     7
370
    20
390
1D
100
AcDbMText
 10
24302.05279753315
 20
7929.021233766521
 30
0.0
 40
16.28841145833333
 41
0.0
 46
0.0
 71
     1
 72
     1
  1
容量
  7
ＭＳ ゴシック
 73
     1
 44
0.7828267384257843
  0
MTEXT
  5
136
330
A
100
AcDbEntity
  8
1_10
 62
     7
370
    20
390
1D
100
AcDbMText
 10
24355.05279753315
 20
7900.43877282902
 30
0.0
 40
24.4326171875
 41
0.0
 46
0.0
 71
     1
 72
     1
  1
7.5L
  7
ＭＳ ゴシック
 73
     1
 44
0.7828267384257843
  0
LINE
  5
137
330
A
100
AcDbEntity
  8
1_10
  6
Continuous
 62
     7
370
    20
390
1D
100
AcDbLine
 10
24295.05279753315
 20
7852.436155641521
 30
0.0
 11
24295.05279753315
 21
7937.436155641521
 31
0.0
  0
MTEXT
  5
138
330
A
100
AcDbEntity
  8
1_10
 62
     7
370
    20
390
1D
100
AcDbMText
 10
24051.05279753315
 20
8014.021233766521
 30
0.0
 40
16.28841145833333
 41
0.0
 46
0.0
 71
     1
 72
     1
  1
品番
  7
ＭＳ ゴシック
 73
     1
 44
0.7828267384257843
  0
MTEXT
  5
139
330
A
100
AcDbEntity
  8
1_10
 62
     7
370
    20
390
1D
100
AcDbMText
 10
24051.05279753315
 20
7929.021233766521
 30
0.0
 40
16.28841145833333
 41
0.0
 46
0.0
 71
     1
 72
     1
  1
重量
  7
ＭＳ ゴシック
 73
     1
 44
0.7828267384257843
  0
MTEXT
  5
13A
330
A
100
AcDbEntity
  8
1_10
 62
     7
370
    20
390
1D
100
AcDbMText
 10
24104.05279753315
 20
7985.43877282902
 30
0.0
 40
24.4326171875
 41
0.0
 46
0.0
 71
     1
 72
     1
  1
ABA70-1504
  7
ＭＳ ゴシック
 73
     1
 44
0.7828267384257843
  0
MTEXT
  5
13B
330
A
100
AcDbEntity
  8
1_10
 62
     7
370
    20
390
1D
100
AcDbMText
 10
24104.05279753315
 20
7900.43877282902
 30
0.0
 40
24.4326171875
 41
0.0
 46
0.0
 71
     1
 72
     1
  1
21kg
  7
ＭＳ ゴシック
 73
     1
 44
0.7828267384257843
  0
LINE
  5
13C
330
A
100
AcDbEntity
  8
1_10
  6
Continuous
 62
     7
370
    20
390
1D
100
AcDbLine
 10
24044.05279753315
 20
7767.436155641521
 30
0.0
 11
24044.05279753315
 21
8022.436155641521
 31
0.0
  0
DIMENSION
  5
13D
330
A
100
AcDbEntity
  8
notes
  6
Continuous
 62
     7
370
    20
390
1D
100
AcDbDimension
  2
*D21
 10
24650.48011583032
 20
8915.533017308713
 30
0.0
 11
24617.98011583032
 21
8920.533017308713
 31
0.0
 70
   160
 71
     5
 42
65.0
 73
     0
 74
     0
 75
     0
  3
tfrom線あり
100
AcDbAlignedDimension
 13
24585.48011583032
 23
8815.533017308691
 33
0.0
 14
24650.48011583032
 24
8810.533001908714
 34
0.0
100
AcDbRotatedDimension
1001
ACAD
1000
DSTYLE
1002
{
1070
   279
1070
     2
1070
   340
1005
35
1070
   147
1040
5.0
1002
}
  0
MTEXT
  5
13E
330
A
100
AcDbEntity
  8
notes
 62
     7
370
    20
390
1D
100
AcDbMText
 10
23048.80479327396
 20
9330.32388571771
 30
0.0
 40
24.4326171875
 41
833.9297986418387
 46
68.27975785302668
 71
     1
 72
     1
  1
{=φ30もしくはφ35の水栓取付用穴あけ加工を承ります。\P 必要な場合、ご注文の際にご指示ください。}
  7
ＭＳ ゴシック
 73
     1
 44
1.043768984567712
1001
ACAD
1000
ACAD_MTEXT_DEFINED_HEIGHT_BEGIN
1070
    46
1040
68.27975785302668
1000
ACAD_MTEXT_DEFINED_HEIGHT_END
  0
CIRCLE
  5
13F
330
A
100
AcDbEntity
  8
notes
  6
STYLE_11
 62
     7
370
    20
390
1D
100
AcDbCircle
 10
23026.15336912514
 20
9318.12927151057
 30
0.0
 40
17.5
  0
MTEXT
  5
140
330
A
100
AcDbEntity
  8
notes
 62
     7
370
    20
390
1D
100
AcDbMText
 10
23628.3933642242
 20
8885.881831483086
 30
0.0
 40
24.4326171875
 41
0.0
 46
0.0
 71
     1
 72
     1
  1
壁取付ボルト穴(2ヶ所)
  7
ＭＳ ゴシック
 73
     1
 44
0.7828267384257843
  0
DIMENSION
  5
141
330
A
100
AcDbEntity
  8
notes
  6
Continuous
 62
     7
370
    20
390
1D
100
AcDbDimension
  2
*D4
 10
23265.11789880326
 20
8915.533017308402
 30
0.0
 11
23405.11789880326
 21
8932.749325902152
 31
0.0
 70
    32
 71
     5
 42
280.0
 73
     0
 74
     0
 75
     0
  3
tfrom線あり
100
AcDbAlignedDimension
 13
23545.11789880326
 23
8780.533012897402
 33
0.0
 14
23265.11789880326
 24
8780.533012897402
 34
0.0
100
AcDbRotatedDimension
1001
ACAD
1000
DSTYLE
1002
{
1070
   279
1070
     2
1070
   340
1005
35
1070
   147
1040
5.0
1002
}
  0
DIMENSION
  5
142
330
A
100
AcDbEntity
  8
notes
  6
Continuous
 62
     7
370
    20
390
1D
100
AcDbDimension
  2
*D22
 10
24401.22040927143
 20
8675.533017308588
 30
0.0
 11
24406.22040927143
 21
8822.680343574555
 31
0.0
 70
   160
 71
     5
 42
140.0000000000327
 73
     0
 74
     0
 75
     0
  3
tfrom線あり
100
AcDbAlignedDimension
 13
24400.09363833319
 23
8815.53301730862
 33
0.0
 14
24399.22040927143
 24
8675.533017308588
 34
0.0
 50
90.0
100
AcDbRotatedDimension
1001
ACAD
1000
DSTYLE
1002
{
1070
   279
1070
     2
1070
   340
1005
35
1070
     3
1000
<>(深さ)
1070
   174
1070
     0
1070
   147
1040
5.0
1002
}
  0
DIMENSION
  5
143
330
A
100
AcDbEntity
  8
notes
  6
Continuous
 62
     7
370
    20
390
1D
100
AcDbDimension
  2
*D6
 10
23096.61283223172
 20
9441.680343574557
 30
0.0
 11
23403.61283223172
 21
9458.896652168307
 31
0.0
 70
    32
  1
630
 71
     5
 42
614.0
 73
     0
 74
     0
 75
     0
  3
tfrom線あり
100
AcDbAlignedDimension
 13
23710.61283223172
 23
9731.680343574557
 33
0.0
 14
23096.61283223172
 24
9731.680343574557
 34
0.0
100
AcDbRotatedDimension
1001
ACAD
1000
DSTYLE
1002
{
1070
   279
1070
     2
1070
   340
1005
35
1070
   147
1040
5.0
1002
}
  0
LINE
  5
144
330
A
100
AcDbEntity
  8
notes
  6
Continuous
 62
     7
370
    20
390
1D
100
AcDbLine
 10
23545.11789880326
 20
8760.533012897402
 30
0.0
 11
23640.45685838277
 21
8855.871972476922
 31
0.0
  0
DIMENSION
  5
145
330
A
100
AcDbEntity
  8
notes
  6
Continuous
 62
     7
370
    20
390
1D
100
AcDbDimension
  2
*D7
 10
23755.11783819299
 20
10181.55355775245
 30
0.0
 11
23405.1179059876
 21
10198.7698663462
 31
0.0
 70
    32
 71
     5
 42
699.99986441078
 73
     0
 74
     0
 75
     0
  3
tfrom線あり
100
AcDbAlignedDimension
 13
23055.11797378221
 23
10017.6316293485
 33
0.0
 14
23755.11783819299
 24
10017.63156641045
 34
0.0
100
AcDbRotatedDimension
1001
ACAD
1000
DSTYLE
1002
{
1070
   279
1070
     2
1070
   340
1005
35
1070
   147
1040
5.0
1002
}
  0
DIMENSION
  5
146
330
A
100
AcDbEntity
  8
notes
  6
Continuous
 62
     7
370
    20
390
1D
100
AcDbDimension
  2
*D8
 10
23304.42323460711
 20
10131.55355775226
 30
0.0
 11
23354.42323460711
 21
10148.76986634601
 31
0.0
 70
    32
 71
     5
 42
100.0
 73
     0
 74
     0
 75
     0
  3
tfrom線あり
100
AcDbAlignedDimension
 13
23404.42323460711
 23
9987.031472911265
 33
0.0
 14
23304.42323460711
 24
9987.031472911265
 34
0.0
100
AcDbRotatedDimension
1001
ACAD
1000
DSTYLE
1002
{
1070
   279
1070
     2
1070
   340
1005
35
1070
   147
1040
5.0
1002
}
  0
DIMENSION
  5
147
330
A
100
AcDbEntity
  8
notes
  6
Continuous
 62
     7
370
    20
390
1D
100
AcDbDimension
  2
*D9
 10
23404.42323460711
 20
10131.55355775226
 30
0.0
 11
23454.42323460711
 21
10148.76986634601
 31
0.0
 70
    32
 71
     5
 42
100.0
 73
     0
 74
     0
 75
     0
  3
tfrom線あり
100
AcDbAlignedDimension
 13
23504.42323460711
 23
9987.031472911265
 33
0.0
 14
23404.42323460711
 24
9987.031472911265
 34
0.0
100
AcDbRotatedDimension
1001
ACAD
1000
DSTYLE
1002
{
1070
   279
1070
     2
1070
   340
1005
35
1070
   147
1040
5.0
1002
}
  0
DIMENSION
  5
148
330
A
100
AcDbEntity
  8
notes
  6
Continuous
 62
     7
370
    20
390
1D
100
AcDbDimension
  2
*D10
 10
23855.1178381934
 20
10031.5535577528
 30
0.0
 11
23837.90152959965
 21
9781.55360436413
 31
0.0
 70
    32
 71
     5
 42
499.9999067773424
 73
     0
 74
     0
 75
     0
  3
tfrom線あり
100
AcDbAlignedDimension
 13
23542.61785702481
 23
9531.553650975458
 33
0.0
 14
23750.1178241794
 24
10031.5535577528
 34
0.0
 50
90.0
100
AcDbRotatedDimension
1001
ACAD
1000
DSTYLE
1002
{
1070
   279
1070
     2
1070
   340
1005
35
1070
   147
1040
5.0
1002
}
  0
DIMENSION
  5
149
330
A
100
AcDbEntity
  8
notes
  6
Continuous
 62
     7
370
    20
390
1D
100
AcDbDimension
  2
*D11
 10
23855.11782629557
 20
8815.533017308406
 30
0.0
 11
23837.90151770182
 21
8723.033131610347
 31
0.0
 70
    32
 71
     5
 42
184.9997713961148
 73
     0
 74
     0
 75
     0
  3
tfrom線あり
100
AcDbAlignedDimension
 13
23437.68019139541
 23
8630.533245912291
 33
0.0
 14
23750.11782359557
 24
8815.533017308406
 34
0.0
 50
90.0
100
AcDbRotatedDimension
1001
ACAD
1000
DSTYLE
1002
{
1070
   279
1070
     2
1070
   340
1005
35
1070
   147
1040
5.0
1002
}
  0
DIMENSION
  5
14A
330
A
100
AcDbEntity
  8
notes
  6
Continuous
 62
     7
370
    20
390
1D
100
AcDbDimension
  2
*D23
 10
24049.70713660306
 20
8815.533017308526
 30
0.0
 11
24044.70713660306
 21
8780.53306190872
 31
0.0
 70
   160
 71
     5
 42
69.99991079961
 73
     0
 74
     0
 75
     0
  3
tfrom線あり
100
AcDbAlignedDimension
 13
24156.52216115222
 23
8745.533106508916
 33
0.0
 14
24154.70717623606
 24
8815.533017308526
 34
0.0
 50
90.0
100
AcDbRotatedDimension
1001
ACAD
1000
DSTYLE
1002
{
1070
   279
1070
     2
1070
   340
1005
35
1070
   147
1040
5.0
1002
}
  0
DIMENSION
  5
14B
330
A
100
AcDbEntity
  8
notes
  6
Continuous
 62
     7
370
    20
390
1D
100
AcDbDimension
  2
*D13
 10
24050.0
 20
8745.533106508914
 30
0.0
 11
24032.78369140625
 21
8688.033176210603
 31
0.0
 70
    32
 71
     5
 42
114.999860596623
 73
     0
 74
     0
 75
     0
  3
tfrom線あり
100
AcDbAlignedDimension
 13
24366.94049036583
 23
8630.533245912291
 33
0.0
 14
24198.36303603183
 24
8745.533106508914
 34
0.0
 50
90.0
100
AcDbRotatedDimension
1001
ACAD
1000
DSTYLE
1002
{
1070
   279
1070
     2
1070
   340
1005
35
1070
   147
1040
5.0
1002
}
  0
DIMENSION
  5
14C
330
A
100
AcDbEntity
  8
notes
  6
Continuous
 62
     7
370
    20
390
1D
100
AcDbDimension
  2
*D14
 10
24649.70711685362
 20
8530.533245912726
 30
0.0
 11
24524.70711685362
 21
8547.749554506476
 31
0.0
 70
    32
 71
     5
 42
250.0
 73
     0
 74
     0
 75
     0
  3
tfrom線あり
100
AcDbAlignedDimension
 13
24399.70711685362
 23
8630.533245912291
 33
0.0
 14
24649.70711685362
 24
8658.316454016725
 34
0.0
100
AcDbRotatedDimension
1001
ACAD
1000
DSTYLE
1002
{
1070
   279
1070
     2
1070
   340
1005
35
1070
   147
1040
5.0
1002
}
  0
DIMENSION
  5
14D
330
A
100
AcDbEntity
  8
notes
  6
Continuous
 62
     7
370
    20
390
1D
100
AcDbDimension
  2
*D15
 10
22955.11795162316
 20
10031.5535577526
 30
0.0
 11
22937.90164302941
 21
9976.553557752599
 31
0.0
 70
    32
 71
     5
 42
110.0000000000018
 73
     0
 74
     0
 75
     0
  3
tfrom線あり
100
AcDbAlignedDimension
 13
23055.11792195413
 23
9921.553557752599
 33
0.0
 14
23060.11794942816
 24
10031.5535577526
 34
0.0
 50
90.0
100
AcDbRotatedDimension
1001
ACAD
1000
DSTYLE
1002
{
1070
   279
1070
     2
1070
   340
1005
35
1070
   147
1040
5.0
1002
}
  0
DIMENSION
  5
14E
330
A
100
AcDbEntity
  8
notes
  6
Continuous
 62
     7
370
    20
390
1D
100
AcDbDimension
  2
*D16
 10
22955.11795421226
 20
8760.533012897402
 30
0.0
 11
22937.90164561851
 21
8788.032996803535
 31
0.0
 70
    32
 71
     5
 42
54.99996781226581
 73
     0
 74
     0
 75
     0
  3
tfrom線あり
100
AcDbAlignedDimension
 13
23060.10602781067
 23
8815.532980709668
 33
0.0
 14
23245.11789880326
 24
8760.533012897402
 34
0.0
 50
90.0
100
AcDbRotatedDimension
1001
ACAD
1000
DSTYLE
1002
{
1070
   279
1070
     2
1070
   340
1005
35
1070
   147
1040
5.0
1002
}
  0
DIMENSION
  5
14F
330
A
100
AcDbEntity
  8
notes
  6
Continuous
 62
     7
370
    20
390
1D
100
AcDbDimension
  2
*D17
 10
22955.11795162316
 20
9921.553557752599
 30
0.0
 11
22937.90164302941
 21
9744.052580861435
 31
0.0
 70
    32
 71
     5
 42
355.0019537823282
 73
     0
 74
     0
 75
     0
  3
tfrom線あり
100
AcDbAlignedDimension
 13
23150.78769131153
 23
9566.55160397027
 33
0.0
 14
23055.11792195413
 24
9921.553557752599
 34
0.0
 50
90.0
100
AcDbRotatedDimension
1001
ACAD
1000
DSTYLE
1002
{
1070
   279
1070
     2
1070
   340
1005
35
1070
   147
1040
5.0
1002
}
  0
ARC
  5
150
330
A
100
AcDbEntity
  8
ABA70-1504
  6
Continuous
 62
     7
370
    20
390
1D
100
AcDbCircle
 10
23542.61785702481
 20
9744.053607545826
 30
0.0
 40
136.8620928083012
100
AcDbArc
 50
0.0000150000278926
 51
90.00001499981924
  0
ARC
  5
151
330
A
100
AcDbEntity
  8
ABA70-1504
  6
Continuous
 62
     7
370
    20
390
1D
100
AcDbCircle
 10
23267.61765576521
 20
9744.053607545826
 30
0.0
 40
136.8620928083002
100
AcDbArc
 50
90.00048800000776
 51
180.0004880000077
  0
LINE
  5
152
330
A
100
AcDbEntity
  8
ABA70-1504
  6
Continuous
 62
     7
370
    20
390
1D
100
AcDbLine
 10
23427.26154319541
 20
8630.533245912291
 30
0.0
 11
23437.68019139541
 21
8630.533245912291
 31
0.0
  0
LINE
  5
153
330
A
100
AcDbEntity
  8
ABA70-1504
  6
Continuous
 62
     7
370
    20
390
1D
100
AcDbLine
 10
23755.11783899554
 20
8810.533001908401
 30
0.0
 11
23755.11783899554
 21
8750.533121908406
 31
0.0
  0
LINE
  5
154
330
A
100
AcDbEntity
  8
ABA70-1504
  6
Continuous
 62
     7
370
    20
390
1D
100
AcDbLine
 10
23676.56910850608
 20
8745.533106508405
 30
0.0
 11
23750.11789979554
 21
8745.533106508405
 31
0.0
  0
LINE
  5
155
330
A
100
AcDbEntity
  8
ABA70-1504
  6
Continuous
 62
     7
370
    20
390
1D
100
AcDbLine
 10
23267.61765576521
 20
9607.191514737528
 30
0.0
 11
23542.61785702481
 21
9607.191514737528
 31
0.0
  0
LWPOLYLINE
  5
156
330
A
100
AcDbEntity
  8
ABA70-1504
  6
Continuous
 62
     7
370
    20
390
1D
100
AcDbPolyline
 90
        5
 70
   128
 43
0.0
 10
23439.63174472331
 20
9781.567492939177
 42
0.4142137749297854
 10
23404.63171679024
 20
9816.56749462693
 42
0.4142133498164363
 10
23369.63168970249
 20
9781.56749209386
 42
0.4142137749297868
 10
23404.63171763556
 20
9746.567490406107
 42
0.4142133498164348
 10
23439.63174472331
 20
9781.567492939177
 42
0.4142133498164348
  0
LWPOLYLINE
  5
157
330
A
100
AcDbEntity
  8
ABA70-1504
  6
Continuous
 62
     7
370
    20
390
1D
100
AcDbPolyline
 90
        5
 70
   128
 43
0.0
 10
23427.23134267781
 20
9781.741105094901
 42
0.4142138930167829
 10
23404.73131401371
 20
9804.241108172766
 42
0.4142132317295078
 10
23382.23128553585
 20
9781.741104908673
 42
0.4142138930167377
 10
23404.73131419994
 20
9759.241101830808
 42
0.4142132317295078
 10
23427.23134267781
 20
9781.741105094901
 42
0.4142132317295078
  0
ARC
  5
158
330
A
100
AcDbEntity
  8
ABA70-1504
  6
Continuous
 62
     7
370
    20
390
1D
100
AcDbCircle
 10
23267.61765576521
 20
9744.053607545826
 30
0.0
 40
136.8620928083016
100
AcDbArc
 50
180.0005189999535
 51
270.0005190001622
  0
ARC
  5
159
330
A
100
AcDbEntity
  8
ABA70-1504
  6
Continuous
 62
     7
370
    20
390
1D
100
AcDbCircle
 10
23542.61785702481
 20
9744.053607545826
 30
0.0
 40
136.8620928083018
100
AcDbArc
 50
269.9999850001809
 51
359.9999849999721
  0
ARC
  5
15A
330
A
100
AcDbEntity
  8
ABA70-1504
  6
Continuous
 62
     7
370
    20
390
1D
100
AcDbCircle
 10
23749.56183541256
 20
8731.233813513756
 30
0.0
 40
84.3010372609424
100
AcDbArc
 50
90.0
 51
90.37504441040781
  0
LINE
  5
15B
330
A
100
AcDbEntity
  8
ABA70-1504
  6
Continuous
 62
     7
370
    20
390
1D
100
AcDbLine
 10
23542.61785702481
 20
9880.91570035413
 30
0.0
 11
23267.61765576521
 21
9880.91570035413
 31
0.0
  0
CIRCLE
  5
15C
102
{ACAD_REACTORS
330
1F7
102
}
330
A
100
AcDbEntity
  8
ABA70-1504
  6
Continuous
 62
     7
370
    20
390
1D
100
AcDbCircle
 10
23404.42323460711
 20
9966.553557752723
 30
0.0
 40
18.5
  0
SPLINE
  5
15D
330
A
100
AcDbEntity
  8
ABA70-1504
  6
Continuous
 62
     7
370
    20
390
1D
100
AcDbSpline
210
0.0
220
0.0
230
1.0
 70
    11
 71
     2
 72
    26
 73
    23
 74
     0
 42
0.000000001
 43
0.000001
 40
0.0
 40
0.0
 40
0.0
 40
1.0
 40
2.0
 40
3.0
 40
4.0
 40
4.0
 40
5.0
 40
6.0
 40
7.0
 40
8.0
 40
9.0
 40
9.0
 40
10.0
 40
11.0
 40
12.0
 40
13.0
 40
13.0
 40
14.0
 40
15.0
 40
16.0
 40
17.0
 40
18.0
 40
18.0
 40
18.0
 10
23413.98791718453
 20
9912.454847576815
 30
0.0
 10
23413.97171398141
 20
9913.751920065057
 30
0.0
 10
23412.06979545821
 20
9915.846129427038
 30
0.0
 10
23409.17298951365
 20
9917.188479587214
 30
0.0
 10
23406.21199707305
 20
9917.67752445525
 30
0.0
 10
23404.94168180501
 20
9917.677610806188
 30
0.0
 10
23403.67136653698
 20
9917.67752445525
 30
0.0
 10
23400.69865742337
 20
9917.187370706371
 30
0.0
 10
23398.52315887199
 20
9916.174639961217
 30
0.0
 10
23396.77426803978
 20
9914.938780528415
 30
0.0
 10
23395.89788783862
 20
9913.19737190853
 30
0.0
 10
23395.8954464255
 20
9912.454847576815
 30
0.0
 10
23395.91164962862
 20
9911.157775088577
 30
0.0
 10
23397.81356815182
 20
9909.063565726596
 30
0.0
 10
23400.71037409637
 20
9907.721215566413
 30
0.0
 10
23403.67136653698
 20
9907.232170698384
 30
0.0
 10
23404.94168180501
 20
9907.232084347444
 30
0.0
 10
23406.21199707305
 20
9907.232170698384
 30
0.0
 10
23409.18470618667
 20
9907.722324447266
 30
0.0
 10
23411.36020473804
 20
9908.735055192412
 30
0.0
 10
23413.10909557023
 20
9909.970914625219
 30
0.0
 10
23413.98547577142
 20
9911.7123232451
 30
0.0
 10
23413.98791718453
 20
9912.454847576815
 30
0.0
  0
LINE
  5
15E
330
A
100
AcDbEntity
  8
ABA70-1504
  6
Continuous
 62
     7
370
    20
390
1D
100
AcDbLine
 10
24422.41960892161
 20
8630.533245912291
 30
0.0
 11
24432.83825710496
 21
8630.533245912291
 31
0.0
  0
LINE
  5
15F
330
A
100
AcDbEntity
  8
ABA70-1504
  6
Continuous
 62
     7
370
    20
390
1D
100
AcDbLine
 10
24149.70711685362
 20
8810.533001908714
 30
0.0
 11
24149.70711685362
 21
8751.533121908711
 31
0.0
  0
LINE
  5
160
330
A
100
AcDbEntity
  8
ABA70-1504
  6
Continuous
 62
     7
370
    20
390
1D
100
AcDbLine
 10
24581.54906243032
 20
8745.53310650871
 30
0.0
 11
24645.48017663032
 21
8745.53310650871
 31
0.0
  0
ARC
  5
161
330
A
100
AcDbEntity
  8
ABA70-1504
  6
Continuous
 62
     7
370
    20
390
1D
100
AcDbCircle
 10
24644.15111327064
 20
8731.233813841312
 30
0.0
 40
84.3010372609424
100
AcDbArc
 50
90.0
 51
90.37504441051166
  0
LINE
  5
162
330
A
100
AcDbEntity
  8
ABA70-1504
  6
Continuous
 62
     7
370
    20
390
1D
100
AcDbLine
 10
24649.70711685343
 20
8810.533046218387
 30
0.0
 11
24649.70709145343
 21
8750.533166218383
 31
0.0
  0
LINE
  5
163
330
A
100
AcDbEntity
  8
ABA70-1504
  6
Continuous
 62
     7
370
    20
390
1D
100
AcDbLine
 10
23676.56910850608
 20
8745.533106508405
 30
0.0
 11
23750.11784217797
 21
8745.533106508594
 31
0.0
  0
LINE
  5
164
330
A
100
AcDbEntity
  8
ABA70-1504
  6
Continuous
 62
     7
370
    20
390
1D
100
AcDbLine
 10
23437.68019139541
 20
8653.89949331229
 30
0.0
 11
23442.15640799541
 21
8658.316451712288
 31
0.0
  0
LINE
  5
165
330
A
100
AcDbEntity
  8
ABA70-1504
  6
Continuous
 62
     7
370
    20
390
1D
100
AcDbLine
 10
23371.78242463984
 20
8653.89949331229
 30
0.0
 11
23367.30620803984
 21
8658.316451712288
 31
0.0
  0
LINE
  5
166
330
A
100
AcDbEntity
  8
ABA70-1504
  6
Continuous
 62
     7
370
    20
390
1D
100
AcDbLine
 10
23755.11783899554
 20
8810.533001908401
 30
0.0
 11
23755.11781359535
 21
8750.533165890834
 31
0.0
  0
LINE
  5
167
330
A
100
AcDbEntity
  8
ABA70-1504
  6
Continuous
 62
     7
370
    20
390
1D
100
AcDbLine
 10
24149.70711685362
 20
8810.533001908714
 30
0.0
 11
24149.70711685362
 21
8751.949039744652
 31
0.0
  0
LINE
  5
168
330
A
100
AcDbEntity
  8
ABA70-1504
  6
Continuous
 62
     7
370
    20
390
1D
100
AcDbLine
 10
24432.83825710496
 20
8653.89949331229
 30
0.0
 11
24437.31447371921
 21
8658.316451712295
 31
0.0
  0
LINE
  5
169
330
A
100
AcDbEntity
  8
ABA70-1504
  6
Continuous
 62
     7
370
    20
390
1D
100
AcDbLine
 10
24366.94049036583
 20
8653.89949331229
 30
0.0
 11
24362.46427375158
 21
8658.316451712295
 31
0.0
  0
LINE
  5
16A
330
A
100
AcDbEntity
  8
ABA70-1504
  6
Continuous
 62
     7
370
    20
390
1D
100
AcDbLine
 10
24649.70711685362
 20
8810.53300223595
 30
0.0
 11
24649.70709145343
 21
8750.533166218383
 31
0.0
  0
LINE
  5
16B
330
A
100
AcDbEntity
  8
ABA70-1504
  6
Continuous
 62
     7
370
    20
390
1D
100
AcDbLine
 10
24581.54906243032
 20
8745.53310650871
 30
0.0
 11
24645.48011901275
 21
8745.533106508914
 31
0.0
  0
LINE
  5
16C
330
A
100
AcDbEntity
  8
ABA70-1504
  6
Continuous
 62
     7
370
    20
390
1D
100
AcDbLine
 10
23060.11794942816
 20
10031.5535577526
 30
0.0
 11
23750.1178241794
 21
10031.5535577528
 31
0.0
  0
LWPOLYLINE
  5
16D
330
A
100
AcDbEntity
  8
ABA70-1504
  6
Continuous
 62
     7
370
    20
390
1D
100
AcDbPolyline
 90
        2
 70
   128
 43
0.0
 10
23060.11794942816
 20
10031.5535577526
 42
0.4142135623734014
 10
23055.117978595
 20
10026.55349895459
 42
0.4142135623734014
  0
LINE
  5
16E
330
A
100
AcDbEntity
  8
ABA70-1504
  6
Continuous
 62
     7
370
    20
390
1D
100
AcDbLine
 10
23055.117978595
 20
10026.5534989546
 30
0.0
 11
23055.11782620305
 21
9744.051738298473
 31
0.0
  0
LINE
  5
16F
330
A
100
AcDbEntity
  8
ABA70-1504
  6
Continuous
 62
     7
370
    20
390
1D
100
AcDbLine
 10
23267.61965201217
 20
9531.55365098368
 30
0.0
 11
23542.61785702481
 21
9531.553650975458
 31
0.0
  0
LWPOLYLINE
  5
170
330
A
100
AcDbEntity
  8
ABA70-1504
  6
Continuous
 62
     7
370
    20
390
1D
100
AcDbPolyline
 90
        2
 70
   128
 43
0.0
 10
23755.11783899517
 20
10026.55354293702
 42
0.4142171544780657
 10
23750.1178241794
 20
10031.55353235279
 42
0.4142171544780657
  0
LINE
  5
171
330
A
100
AcDbEntity
  8
ABA70-1504
  6
Continuous
 62
     7
370
    20
390
1D
100
AcDbLine
 10
23755.11781359518
 20
9744.053607545826
 30
0.0
 11
23755.11783899517
 21
10026.55354293702
 31
0.0
  0
LINE
  5
172
330
A
100
AcDbEntity
  8
ABA70-1504
  6
Continuous
 62
     7
370
    20
390
1D
100
AcDbLine
 10
24649.70711685362
 20
8810.53300223595
 30
0.0
 11
24649.70711685362
 21
8658.316454016725
 31
0.0
  0
LWPOLYLINE
  5
173
330
A
100
AcDbEntity
  8
ABA70-1504
  6
Continuous
 62
     7
370
    20
390
1D
100
AcDbPolyline
 90
        2
 70
   128
 43
0.0
 10
24644.70717765362
 20
8745.53310683595
 42
0.4142076106679069
 10
24649.70709145362
 20
8750.533122235958
 42
0.4142076106679069
  0
LWPOLYLINE
  5
174
330
A
100
AcDbEntity
  8
ABA70-1504
  6
Continuous
 62
     7
370
    20
390
1D
100
AcDbPolyline
 90
        2
 70
   128
 43
0.0
 10
24649.70711685343
 20
8810.533046218383
 42
0.4142109859507443
 10
24644.70710145365
 20
8815.533017635955
 42
0.4142109859507443
  0
LINE
  5
175
330
A
100
AcDbEntity
  8
ABA70-1504
  6
Continuous
 62
     7
370
    20
390
1D
100
AcDbLine
 10
24645.48011901275
 20
8745.533106508914
 30
0.0
 11
24154.70711367119
 21
8745.533106508914
 31
0.0
  0
LINE
  5
176
330
A
100
AcDbEntity
  8
ABA70-1504
  6
Continuous
 62
     7
370
    20
390
1D
100
AcDbLine
 10
24645.48010043032
 20
8815.533017308715
 30
0.0
 11
24154.70717623606
 21
8815.533017308526
 31
0.0
  0
LWPOLYLINE
  5
177
330
A
100
AcDbEntity
  8
ABA70-1504
  6
Continuous
 62
     7
370
    20
390
1D
100
AcDbPolyline
 90
        2
 70
   128
 43
0.0
 10
24154.70717623606
 20
8815.533017308519
 42
0.4142135623732083
 10
24149.70711685382
 20
8810.533045891145
 42
0.4142135623732083
  0
LINE
  5
178
330
A
100
AcDbEntity
  8
ABA70-1504
  6
Continuous
 62
     7
370
    20
390
1D
100
AcDbLine
 10
24149.70711685362
 20
8810.533001908714
 30
0.0
 11
24149.70714225382
 21
8751.533165891147
 31
0.0
  0
LWPOLYLINE
  5
179
330
A
100
AcDbEntity
  8
ABA70-1504
  6
Continuous
 62
     7
370
    20
390
1D
100
AcDbPolyline
 90
        2
 70
   128
 43
0.0
 10
24149.70711685362
 20
8751.94903974465
 42
0.3955639093631271
 10
24154.70711367119
 20
8745.533106508907
 42
0.3955639093631271
  0
LWPOLYLINE
  5
17A
330
A
100
AcDbEntity
  8
ABA70-1504
  6
Continuous
 62
     7
370
    20
390
1D
100
AcDbPolyline
 90
        3
 70
   128
 43
0.0
 10
24198.36303603183
 20
8745.533106508914
 10
24206.79746242741
 20
8732.88049817019
 42
0.2404337761180007
 10
24335.66527153835
 20
8660.64162258302
 42
0.2404337761180007
  0
LINE
  5
17B
330
A
100
AcDbEntity
  8
ABA70-1504
  6
Continuous
 62
     7
370
    20
390
1D
100
AcDbLine
 10
24362.46424836
 20
8658.316451712295
 30
0.0
 11
24335.66527153835
 21
8660.64162258302
 31
0.0
  0
LINE
  5
17C
330
A
100
AcDbEntity
  8
ABA70-1504
  6
Continuous
 62
     7
370
    20
390
1D
100
AcDbLine
 10
24649.70711685362
 20
8658.316454016725
 30
0.0
 11
24363.26427375158
 21
8658.316451712295
 31
0.0
  0
LINE
  5
17D
330
A
100
AcDbEntity
  8
ABA70-1504
  6
Continuous
 62
     7
370
    20
390
1D
100
AcDbLine
 10
24432.83825710496
 20
8653.89949331229
 30
0.0
 11
24437.31449911078
 21
8658.316451712295
 31
0.0
  0
LINE
  5
17E
330
A
100
AcDbEntity
  8
ABA70-1504
  6
Continuous
 62
     7
370
    20
390
1D
100
AcDbLine
 10
24432.83825710496
 20
8653.89949331229
 30
0.0
 11
24432.83825710496
 21
8630.533245912291
 31
0.0
  0
LINE
  5
17F
330
A
100
AcDbEntity
  8
ABA70-1504
  6
Continuous
 62
     7
370
    20
390
1D
100
AcDbLine
 10
24366.94049036583
 20
8630.533245912291
 30
0.0
 11
24432.41969052037
 21
8630.533245912291
 31
0.0
  0
LINE
  5
180
330
A
100
AcDbEntity
  8
ABA70-1504
  6
Continuous
 62
     7
370
    20
390
1D
100
AcDbLine
 10
24366.94049036583
 20
8653.89949331229
 30
0.0
 11
24366.94049036583
 21
8630.533245912291
 31
0.0
  0
LINE
  5
181
330
A
100
AcDbEntity
  8
ABA70-1504
  6
Continuous
 62
     7
370
    20
390
1D
100
AcDbLine
 10
24366.94049036583
 20
8653.89949331229
 30
0.0
 11
24362.46424836
 21
8658.316451712295
 31
0.0
  0
LINE
  5
182
330
A
100
AcDbEntity
  8
ABA70-1504
  6
Continuous
 62
     7
370
    20
390
1D
100
AcDbLine
 10
23750.11782359554
 20
8815.53301730841
 30
0.0
 11
23060.11791216108
 21
8815.533017308215
 31
0.0
  0
LINE
  5
183
330
A
100
AcDbEntity
  8
ABA70-1504
  6
Continuous
 62
     7
370
    20
390
1D
100
AcDbLine
 10
23750.11784217797
 20
8745.533106508594
 30
0.0
 11
23060.11787139882
 21
8745.533106508597
 31
0.0
  0
LWPOLYLINE
  5
184
330
A
100
AcDbEntity
  8
ABA70-1504
  6
Continuous
 62
     7
370
    20
390
1D
100
AcDbPolyline
 90
        2
 70
   128
 43
0.0
 10
23755.11783899535
 20
8810.533045890837
 42
0.4142109859505295
 10
23750.11782359557
 20
8815.533017308406
 42
0.4142109859505295
  0
LINE
  5
185
330
A
100
AcDbEntity
  8
ABA70-1504
  6
Continuous
 62
     7
370
    20
390
1D
100
AcDbLine
 10
23755.11783899535
 20
8810.533045890837
 30
0.0
 11
23755.11781359535
 21
8750.533165890834
 31
0.0
  0
LWPOLYLINE
  5
186
330
A
100
AcDbEntity
  8
ABA70-1504
  6
Continuous
 62
     7
370
    20
390
1D
100
AcDbPolyline
 90
        2
 70
   128
 43
0.0
 10
23750.11789979554
 20
8745.533106508405
 42
0.4142076106681059
 10
23755.11781359554
 20
8750.533121908407
 42
0.4142076106681059
  0
LWPOLYLINE
  5
187
330
A
100
AcDbEntity
  8
ABA70-1504
  6
Continuous
 62
     7
370
    20
390
1D
100
AcDbPolyline
 90
        2
 70
   128
 43
0.0
 10
23132.8935197079
 20
8745.533106508445
 42
0.1967105110556098
 10
23269.94874743655
 20
8660.64162237913
 42
0.1967105110556098
  0
LINE
  5
188
330
A
100
AcDbEntity
  8
ABA70-1504
  6
Continuous
 62
     7
370
    20
390
1D
100
AcDbLine
 10
23367.30620803984
 20
8658.316451712288
 30
0.0
 11
23269.9487474365
 21
8660.641622379133
 31
0.0
  0
LINE
  5
189
330
A
100
AcDbEntity
  8
ABA70-1504
  6
Continuous
 62
     7
370
    20
390
1D
100
AcDbLine
 10
23442.15642017417
 20
8658.316452227557
 30
0.0
 11
23539.51388077752
 21
8660.641622379133
 31
0.0
  0
LWPOLYLINE
  5
18A
330
A
100
AcDbEntity
  8
ABA70-1504
  6
Continuous
 62
     7
370
    20
390
1D
100
AcDbPolyline
 90
        2
 70
   128
 43
0.0
 10
23539.51388077747
 20
8660.641622379131
 42
0.1967105110556122
 10
23676.56910850611
 20
8745.533106508443
 42
0.1967105110556122
  0
LINE
  5
18B
330
A
100
AcDbEntity
  8
ABA70-1504
  6
Continuous
 62
     7
370
    20
390
1D
100
AcDbLine
 10
23442.15642017417
 20
8658.316452227557
 30
0.0
 11
23367.30620803984
 21
8658.316451712288
 31
0.0
  0
LINE
  5
18C
330
A
100
AcDbEntity
  8
ABA70-1504
  6
Continuous
 62
     7
370
    20
390
1D
100
AcDbLine
 10
23371.78242463984
 20
8653.89949331229
 30
0.0
 11
23367.30618263984
 21
8658.316451712288
 31
0.0
  0
LINE
  5
18D
330
A
100
AcDbEntity
  8
ABA70-1504
  6
Continuous
 62
     7
370
    20
390
1D
100
AcDbLine
 10
23437.68019139541
 20
8653.89949331229
 30
0.0
 11
23442.15643339541
 21
8658.316451712288
 31
0.0
  0
LINE
  5
18E
330
A
100
AcDbEntity
  8
ABA70-1504
  6
Continuous
 62
     7
370
    20
390
1D
100
AcDbLine
 10
23437.68019139541
 20
8653.89949331229
 30
0.0
 11
23437.68019139541
 21
8630.533245912291
 31
0.0
  0
LINE
  5
18F
330
A
100
AcDbEntity
  8
ABA70-1504
  6
Continuous
 62
     7
370
    20
390
1D
100
AcDbLine
 10
23371.78242463984
 20
8630.533245912291
 30
0.0
 11
23437.26162479541
 21
8630.533245912291
 31
0.0
  0
LINE
  5
190
330
A
100
AcDbEntity
  8
ABA70-1504
  6
Continuous
 62
     7
370
    20
390
1D
100
AcDbLine
 10
23371.78242463984
 20
8653.89949331229
 30
0.0
 11
23371.78242463984
 21
8630.533245912291
 31
0.0
  0
CIRCLE
  5
191
330
A
100
AcDbEntity
  8
ABA70-1504
  6
STYLE_11
 62
     7
370
    20
390
1D
100
AcDbCircle
 10
23504.42323460711
 20
9966.553557752723
 30
0.0
 40
20.4779151585426
  0
CIRCLE
  5
192
330
A
100
AcDbEntity
  8
ABA70-1504
  6
STYLE_11
 62
     7
370
    20
390
1D
100
AcDbCircle
 10
23304.42323460711
 20
9966.553557752723
 30
0.0
 40
20.4779151585426
  0
LINE
  5
193
330
A
100
AcDbEntity
  8
ABA70-1504
  6
Continuous
 62
     7
370
    20
390
1D
100
AcDbLine
 10
23055.11794151254
 20
8810.533001908401
 30
0.0
 11
23055.11794151254
 21
8750.533121908406
 31
0.0
  0
ARC
  5
194
330
A
100
AcDbEntity
  8
ABA70-1504
  6
Continuous
 62
     7
370
    20
390
1D
100
AcDbCircle
 10
23060.67394509553
 20
8731.233813513756
 30
0.0
 40
84.30103726094188
100
AcDbArc
 50
89.6249555895922
 51
90.0
  0
LINE
  5
195
330
A
100
AcDbEntity
  8
ABA70-1504
  6
Continuous
 62
     7
370
    20
390
1D
100
AcDbLine
 10
23055.11794151254
 20
8810.533001908401
 30
0.0
 11
23055.11796691274
 21
8750.533165890834
 31
0.0
  0
LWPOLYLINE
  5
196
330
A
100
AcDbEntity
  8
ABA70-1504
  6
Continuous
 62
     7
370
    20
390
1D
100
AcDbPolyline
 90
        2
 70
   128
 43
0.0
 10
23055.11794151274
 20
8810.533045890837
 42
-0.4142109859535946
 10
23060.11795691252
 20
8815.533017308406
 42
-0.4142109859535946
  0
LINE
  5
197
330
A
100
AcDbEntity
  8
ABA70-1504
  6
Continuous
 62
     7
370
    20
390
1D
100
AcDbLine
 10
23055.11794151273
 20
8810.533045890837
 30
0.0
 11
23055.11796691274
 21
8750.533165890834
 31
0.0
  0
LWPOLYLINE
  5
198
330
A
100
AcDbEntity
  8
ABA70-1504
  6
Continuous
 62
     7
370
    20
390
1D
100
AcDbPolyline
 90
        2
 70
   128
 43
0.0
 10
23060.11788071255
 20
8745.533106508405
 42
-0.4142076106677871
 10
23055.11796691255
 20
8750.533121908407
 42
-0.4142076106677871
  0
LINE
  5
199
330
A
100
AcDbEntity
  8
ABA70-1504
  6
Continuous
 62
     7
370
    20
390
1D
100
AcDbLine
 10
24602.98011583032
 20
8799.533017308699
 30
0.0
 11
24602.98011583032
 21
8815.533017308699
 31
0.0
  0
LINE
  5
19A
330
A
100
AcDbEntity
  8
ABA70-1504
  6
Continuous
 62
     7
370
    20
390
1D
100
AcDbLine
 10
24567.98011583032
 20
8799.533017308699
 30
0.0
 11
24567.98011583032
 21
8815.533017308699
 31
0.0
  0
LINE
  5
19B
330
A
100
AcDbEntity
  8
ABA70-1504
  6
STYLE_11
 62
     7
370
    20
390
1D
100
AcDbLine
 10
23427.02202471763
 20
8630.533245912291
 30
0.0
 11
23427.02202471763
 21
8675.533017308318
 31
0.0
  0
LINE
  5
19C
330
A
100
AcDbEntity
  8
ABA70-1504
  6
STYLE_11
 62
     7
370
    20
390
1D
100
AcDbLine
 10
23382.02202471763
 20
8630.533245912291
 30
0.0
 11
23382.02202471763
 21
8675.533017308318
 31
0.0
  0
SPLINE
  5
19D
330
A
100
AcDbEntity
  8
ABA70-1504
  6
STYLE_11
 62
     7
370
    20
390
1D
100
AcDbSpline
210
0.0
220
0.0
230
1.0
 70
     8
 71
     2
 72
     9
 73
     6
 74
     0
 42
0.000000001
 43
0.000001
 40
0.0
 40
0.0
 40
0.0
 40
1.0
 40
2.0
 40
3.0
 40
4.0
 40
4.0
 40
4.0
 10
23739.07454241699
 20
8815.532980709668
 30
0.0
 10
23707.47208873726
 20
8811.145273658623
 30
0.0
 10
23679.67106625985
 20
8760.532980709631
 30
0.0
 10
23620.21093874214
 20
8702.664122676593
 30
0.0
 10
23555.05585549278
 20
8675.533017308318
 30
0.0
 10
23427.02202471763
 20
8675.533017308318
 30
0.0
  0
LINE
  5
19E
330
A
100
AcDbEntity
  8
ABA70-1504
  6
STYLE_11
 62
     7
370
    20
390
1D
100
AcDbLine
 10
23545.11789880326
 20
8780.533012897402
 30
0.0
 11
23545.11789880326
 21
8740.533012897402
 31
0.0
  0
LINE
  5
19F
330
A
100
AcDbEntity
  8
ABA70-1504
  6
STYLE_11
 62
     7
370
    20
390
1D
100
AcDbLine
 10
23525.11789880326
 20
8760.533012897402
 30
0.0
 11
23565.11789880326
 21
8760.533012897402
 31
0.0
  0
CIRCLE
  5
1A0
330
A
100
AcDbEntity
  8
ABA70-1504
  6
STYLE_11
 62
     7
370
    20
390
1D
100
AcDbCircle
 10
23545.11789880326
 20
8760.533012897402
 30
0.0
 40
10.0
  0
LINE
  5
1A1
330
A
100
AcDbEntity
  8
ABA70-1504
  6
STYLE_11
 62
     7
370
    20
390
1D
100
AcDbLine
 10
23265.11789880326
 20
8780.533012897402
 30
0.0
 11
23265.11789880326
 21
8740.533012897402
 31
0.0
  0
LINE
  5
1A2
330
A
100
AcDbEntity
  8
ABA70-1504
  6
STYLE_11
 62
     7
370
    20
390
1D
100
AcDbLine
 10
23245.11789880326
 20
8760.533012897402
 30
0.0
 11
23285.11789880326
 21
8760.533012897402
 31
0.0
  0
CIRCLE
  5
1A3
330
A
100
AcDbEntity
  8
ABA70-1504
  6
STYLE_11
 62
     7
370
    20
390
1D
100
AcDbCircle
 10
23265.11789880326
 20
8760.533012897402
 30
0.0
 40
10.0
  0
LINE
  5
1A4
330
A
100
AcDbEntity
  8
ABA70-1504
  6
Continuous
 62
     7
370
    20
390
1D
100
AcDbLine
 10
24149.70711685362
 20
8810.533001908714
 30
0.0
 11
24149.70711685362
 21
8751.949039744652
 31
0.0
  0
SPLINE
  5
1A5
330
A
100
AcDbEntity
  8
ABA70-1504
  6
STYLE_11
 62
     7
370
    20
390
1D
100
AcDbSpline
210
0.0
220
0.0
230
1.0
 70
     8
 71
     2
 72
     9
 73
     6
 74
     0
 42
0.000000001
 43
0.000001
 40
0.0
 40
0.0
 40
0.0
 40
1.0
 40
2.0
 40
3.0
 40
4.0
 40
4.0
 40
4.0
 10
24159.82885828941
 20
8815.533017308628
 30
0.0
 10
24191.43131196913
 20
8811.145310257585
 30
0.0
 10
24219.23233444655
 20
8760.533017308593
 30
0.0
 10
24272.49907457055
 20
8692.583420407138
 30
0.0
 10
24329.22040927143
 20
8677.680343574555
 30
0.0
 10
24377.9800904431
 20
8675.533017308582
 30
0.0
  0
SPLINE
  5
1A6
330
A
100
AcDbEntity
  8
ABA70-1504
  6
STYLE_11
 62
     7
370
    20
390
1D
100
AcDbSpline
210
0.0
220
0.0
230
1.0
 70
     8
 71
     2
 72
     8
 73
     5
 74
     0
 42
0.000000001
 43
0.000001
 40
0.0
 40
0.0
 40
0.0
 40
1.0
 40
2.0
 40
3.0
 40
3.0
 40
3.0
 10
24556.79197003146
 20
8815.53299531741
 30
0.0
 10
24528.48954490139
 20
8811.145288266367
 30
0.0
 10
24512.19943559804
 20
8764.57837261683
 30
0.0
 10
24482.64812687252
 20
8689.68034357455
 30
0.0
 10
24424.22040927143
 20
8675.533017308588
 30
0.0
  0
LINE
  5
1A7
330
A
100
AcDbEntity
  8
ABA70-1504
  6
STYLE_11
 62
     7
370
    20
390
1D
100
AcDbLine
 10
24422.9800904431
 20
8630.533245912291
 30
0.0
 11
24422.9800904431
 21
8675.533017308595
 31
0.0
  0
LINE
  5
1A8
330
A
100
AcDbEntity
  8
ABA70-1504
  6
STYLE_11
 62
     7
370
    20
390
1D
100
AcDbLine
 10
24377.9800904431
 20
8630.533245912291
 30
0.0
 11
24377.9800904431
 21
8675.533017308582
 31
0.0
  0
SPLINE
  5
1A9
330
A
100
AcDbEntity
  8
ABA70-1504
  6
STYLE_11
 62
     7
370
    20
390
1D
100
AcDbSpline
210
0.0
220
0.0
230
1.0
 70
     8
 71
     2
 72
     9
 73
     6
 74
     0
 42
0.000000001
 43
0.000001
 40
0.0
 40
0.0
 40
0.0
 40
1.0
 40
2.0
 40
3.0
 40
4.0
 40
4.0
 40
4.0
 10
23069.96950701826
 20
8815.532980709668
 30
0.0
 10
23101.57196069799
 20
8811.145273658623
 30
0.0
 10
23129.37298317541
 20
8760.532980709631
 30
0.0
 10
23188.83311069311
 20
8702.664122676593
 30
0.0
 10
23253.98819394247
 20
8675.533017308318
 30
0.0
 10
23382.02202471763
 20
8675.533017308318
 30
0.0
  0
LWPOLYLINE
  5
1AA
330
A
100
AcDbEntity
  8
ABA70-1504
  6
Continuous
 62
     7
370
    20
390
1D
100
AcDbPolyline
 90
        2
 70
   128
 43
0.0
 10
23541.64378241364
 20
9531.55365098368
 42
0.410992186413942
 10
23755.11781359518
 20
9744.053607545826
 42
0.410992186413942
  0
LWPOLYLINE
  5
1AB
330
A
100
AcDbEntity
  8
ABA70-1504
  6
Continuous
 62
     7
370
    20
390
1D
100
AcDbPolyline
 90
        2
 70
   128
 43
0.0
 10
23055.11782620305
 20
9744.051738298473
 42
0.4142135623725476
 10
23267.61965201217
 20
9531.553650983677
 42
0.4142135623725476
  0
INSERT
  5
1AC
330
A
100
AcDbEntity
  8
ABA70-1504
 62
     7
370
    20
390
1D
100
AcDbBlockReference
  2
グループ-1
 10
23822.05279753265
 20
9161.438863000221
 30
0.0
  0
SPLINE
  5
1AD
330
A
100
AcDbEntity
  8
ABA70-1504
  6
Continuous
 62
     7
370
    20
390
1D
100
AcDbSpline
210
0.0
220
0.0
230
1.0
 70
     8
 71
     2
 72
     8
 73
     5
 74
     0
 42
0.000000001
 43
0.000001
 40
0.0
 40
0.0
 40
0.0
 40
1.0
 40
2.0
 40
3.0
 40
3.0
 40
3.0
 10
23236.33734994148
 20
9901.921870290858
 30
0.0
 10
23200.0459988428
 20
9901.921509709693
 30
0.0
 10
23137.18784396552
 20
9859.585273341843
 30
0.0
 10
23100.89702824538
 20
9786.257482113811
 30
0.0
 10
23100.89733734633
 20
9743.921870290858
 30
0.0
  0
INSERT
  5
1AE
330
A
100
AcDbEntity
  8
ABA70-1504
 62
     7
370
    20
390
1D
100
AcDbBlockReference
  2
グループ-2
 10
23822.05279753265
 20
9161.438863000221
 30
0.0
  0
SPLINE
  5
1AF
330
A
100
AcDbEntity
  8
ABA70-1504
  6
Continuous
 62
     7
370
    20
390
1D
100
AcDbSpline
210
0.0
220
0.0
230
1.0
 70
     8
 71
     2
 72
     8
 73
     5
 74
     0
 42
0.000000001
 43
0.000001
 40
0.0
 40
0.0
 40
0.0
 40
1.0
 40
2.0
 40
3.0
 40
3.0
 40
3.0
 10
23574.25830114218
 20
9584.562946327005
 30
0.0
 10
23610.54965224086
 20
9584.56330690817
 30
0.0
 10
23673.40780711815
 20
9626.89954327602
 30
0.0
 10
23709.69862283828
 20
9700.227334504052
 30
0.0
 10
23709.69831373734
 20
9742.562946327005
 30
0.0
  0
DIMENSION
  5
1F5
102
{ACAD_REACTORS
330
1F7
102
}
102
{ACAD_XDICTIONARY
360
1F6
102
}
330
A
100
AcDbEntity
  8
ABA70-1504
  6
Continuous
370
    20
100
AcDbDimension
  2
*D20
 10
23394.208559432
 20
9951.129212999482
 30
0.0
 11
23462.57466027248
 21
10054.36326505897
 31
0.0
 70
   163
  1
<>
 71
     5
 42
36.99999999999483
 73
     0
 74
     0
 75
     0
  3
JIS
100
AcDbDiametricDimension
 15
23414.63790978223
 25
9981.977902505963
 35
0.0
 40
0.0
1001
ACAD
1000
DSTYLE
1002
{
1070
   341
1005
0
1002
}
1001
ACAD_DSTYLE_DIMRADIAL_EXTENSION
1070
   387
1070
     1
1070
   388
1040
0.0
1070
   390
1040
6.283185307179586
  0
ENDSEC
  0
SECTION
  2
OBJECTS
  0
DICTIONARY
  5
19
330
0
100
AcDbDictionary
281
     1
  3
ACAD_DETAILVIEWSTYLE
350
209
  3
ACAD_GROUP
350
1A
  3
ACAD_IMAGE_VARS
350
1F3
  3
ACAD_LAYOUT
350
1E
  3
ACAD_MATERIAL
350
1EB
  3
ACAD_MLEADERSTYLE
350
207
  3
ACAD_MLINESTYLE
350
1B
  3
ACAD_PLOTSETTINGS
350
22
  3
ACAD_PLOTSTYLENAME
350
1F
  3
ACAD_SCALELIST
350
1B0
  3
ACAD_SECTIONVIEWSTYLE
350
20A
  3
ACAD_TABLESTYLE
350
1EF
  3
ACAD_VISUALSTYLE
350
1D2
  3
ACDB_RECOMPOSE_DATA
350
23E
  3
AcDbVariableDictionary
350
200
  3
APPDATA
350
1F1
  0
SUN
  5
1F2
330
15
100
AcDbSun
 90
        1
290
     0
 63
     7
421
 16777215
 40
1.0
291
     1
 91
  2455826
 92
 54000000
292
     0
 70
     2
 71
   256
280
     1
  0
DICTIONARY
  5
1F6
330
1F5
100
AcDbDictionary
280
     1
281
     1
  3
ACAD_DIMASSOC
360
1F7
  0
DICTIONARY
  5
209
102
{ACAD_REACTORS
330
19
102
}
330
19
100
AcDbDictionary
281
     1
  0
DICTIONARY
  5
1A
102
{ACAD_REACTORS
330
19
102
}
330
19
100
AcDbDictionary
281
     1
  0
RASTERVARIABLES
  5
1F3
102
{ACAD_REACTORS
330
19
102
}
330
19
100
AcDbRasterVariables
 90
        0
 70
     1
 71
     1
 72
     1
  0
DICTIONARY
  5
1E
102
{ACAD_REACTORS
330
19
102
}
330
19
100
AcDbDictionary
281
     1
  3
Layout1
350
21
  3
Model
350
20
  0
DICTIONARY
  5
1EB
102
{ACAD_REACTORS
330
19
102
}
330
19
100
AcDbDictionary
281
     1
  3
ByBlock
350
1ED
  3
ByLayer
350
1EC
  3
Global
350
1EE
  0
DICTIONARY
  5
207
102
{ACAD_REACTORS
330
19
102
}
330
19
100
AcDbDictionary
281
     1
  3
Standard
350
20F
  0
DICTIONARY
  5
1B
102
{ACAD_REACTORS
330
19
102
}
330
19
100
AcDbDictionary
281
     1
  3
Standard
350
1C
  0
DICTIONARY
  5
22
102
{ACAD_REACTORS
330
19
102
}
330
19
100
AcDbDictionary
281
     1
  0
ACDBDICTIONARYWDFLT
  5
1F
102
{ACAD_REACTORS
330
19
102
}
330
19
100
AcDbDictionary
281
     1
  3
Normal
350
1D
100
AcDbDictionaryWithDefault
340
1D
  0
DICTIONARY
  5
1B0
102
{ACAD_REACTORS
330
19
102
}
330
19
100
AcDbDictionary
281
     1
  3
A0
350
1B1
  3
A1
350
1B2
  3
A2
350
1B3
  3
A3
350
1B4
  3
A4
350
1B5
  3
A5
350
1B6
  3
A6
350
1B7
  3
A7
350
1B8
  3
A8
350
1B9
  3
A9
350
1BA
  3
B0
350
1BB
  3
B1
350
1BC
  3
B2
350
1BD
  3
B3
350
1BE
  3
B4
350
1BF
  3
B5
350
1C0
  3
B6
350
1C1
  3
B7
350
1C2
  3
B8
350
1C3
  3
B9
350
1C4
  3
C0
350
1C5
  3
C1
350
1C6
  3
C2
350
1C7
  3
C3
350
1C8
  3
C4
350
1C9
  3
C5
350
1CA
  3
C6
350
1CB
  3
C7
350
1CC
  3
C8
350
1CD
  3
C9
350
1CE
  3
D0
350
1CF
  3
D1
350
1D0
  3
D2
350
1D1
  0
DICTIONARY
  5
20A
102
{ACAD_REACTORS
330
19
102
}
330
19
100
AcDbDictionary
281
     1
  0
DICTIONARY
  5
1EF
102
{ACAD_REACTORS
330
19
102
}
330
19
100
AcDbDictionary
281
     1
  3
Standard
350
1F0
  0
DICTIONARY
  5
1D2
102
{ACAD_REACTORS
330
19
102
}
330
19
100
AcDbDictionary
281
     1
  3
2dWireframe
350
1D7
  3
Basic
350
1DA
  3
Brighten
350
1DE
  3
ColorChange
350
1E2
  3
Conceptual
350
1DC
  3
Dim
350
1DD
  3
EdgeColorOff
350
1E5
  3
Facepattern
350
1E1
  3
Flat
350
1D3
  3
FlatWithEdges
350
1D4
  3
Gouraud
350
1D5
  3
GouraudWithEdges
350
1D6
  3
Hidden
350
1D9
  3
JitterOff
350
1E3
  3
Linepattern
350
1E0
  3
OverhangOff
350
1E4
  3
Realistic
350
1DB
  3
Shaded
350
1EA
  3
Shaded with edges
350
1E9
  3
Shades of Gray
350
1E6
  3
Sketchy
350
1E7
  3
Thicken
350
1DF
  3
Wireframe
350
1D8
  3
X-Ray
350
1E8
  0
XRECORD
  5
23E
102
{ACAD_REACTORS
330
19
102
}
330
19
100
AcDbXrecord
280
     1
 90
        1
330
1F0
  0
DICTIONARY
  5
200
102
{ACAD_REACTORS
330
19
102
}
330
19
100
AcDbDictionary
281
     1
  3
CANNOSCALE
350
201
  3
CMLEADERSTYLE
350
23A
  3
CTABLESTYLE
350
206
  3
LIGHTINGUNITS
350
202
  3
MSLTSCALE
350
208
  3
XCLIPFRAME
350
23B
  0
DICTIONARY
  5
1F1
102
{ACAD_REACTORS
330
19
102
}
330
19
100
AcDbDictionary
281
     1
  0
DIMASSOC
  5
1F7
102
{ACAD_REACTORS
330
1F6
102
}
330
1F6
100
AcDbDimAssoc
330
1F5
 90
        2
 70
     0
 71
     1
  1
AcDbOsnapPointRef
 72
     3
331
15C
 73
     0
 91
        0
 40
0.0
 10
0.0
 20
0.0
 30
0.0
 75
     0
  0
LAYOUT
  5
21
102
{ACAD_REACTORS
330
1E
102
}
330
1E
100
AcDbPlotSettings
  1

  2

  4

  6

 40
0.0
 41
0.0
 42
0.0
 43
0.0
 44
0.0
 45
0.0
 46
0.0
 47
0.0
 48
0.0
 49
0.0
140
0.0
141
0.0
142
1.0
143
1.0
 70
     0
 72
     0
 73
     0
 74
     0
  7

 75
     0
 76
     0
 77
     2
 78
   300
147
1.0
148
0.0
149
0.0
100
AcDbLayout
  1
Layout1
 70
     0
 71
     0
 10
0.0
 20
0.0
 11
0.0
 21
0.0
 12
0.0
 22
0.0
 32
0.0
 14
0.0
 24
0.0
 34
0.0
 15
0.0
 25
0.0
 35
0.0
146
0.0
 13
0.0
 23
0.0
 33
0.0
 16
0.0
 26
0.0
 36
0.0
 17
0.0
 27
0.0
 37
0.0
 76
     0
330
B
  0
LAYOUT
  5
20
102
{ACAD_REACTORS
330
1E
102
}
330
1E
100
AcDbPlotSettings
  1

  2

  4

  6

 40
0.0
 41
0.0
 42
0.0
 43
0.0
 44
0.0
 45
0.0
 46
0.0
 47
0.0
 48
0.0
 49
0.0
140
0.0
141
0.0
142
1.0
143
1.0
 70
  1024
 72
     0
 73
     0
 74
     0
  7

 75
     0
 76
     0
 77
     2
 78
   300
147
1.0
148
0.0
149
0.0
100
AcDbLayout
  1
Model
 70
     0
 71
     1
 10
22772.0527975329
 20
7663.815233019744
 11
24872.0527975329
 21
10633.81523301974
 12
0.0
 22
0.0
 32
0.0
 14
22847.05279753241
 24
7734.081630459665
 34
0.0
 15
24797.0527975329
 25
10567.43615564152
 35
0.0
146
0.0
 13
0.0
 23
0.0
 33
0.0
 16
0.0
 26
0.0
 36
0.0
 17
0.0
 27
0.0
 37
0.0
 76
     0
330
A
331
15
  0
MATERIAL
  5
1ED
102
{ACAD_REACTORS
330
1EB
102
}
330
1EB
100
AcDbMaterial
  1
ByBlock
 72
     1
 94
      127
  0
MATERIAL
  5
1EC
102
{ACAD_REACTORS
330
1EB
102
}
330
1EB
100
AcDbMaterial
  1
ByLayer
 72
     1
 94
      127
  0
MATERIAL
  5
1EE
102
{ACAD_REACTORS
330
1EB
102
}
330
1EB
100
AcDbMaterial
  1
Global
 72
     1
 94
      127
  0
MLEADERSTYLE
  5
20F
102
{ACAD_REACTORS
330
207
102
}
330
207
100
AcDbMLeaderStyle
170
     2
171
     1
172
     0
 90
        2
 40
0.0
 41
0.0
173
     1
 91
-1056964608
340
11
 92
       -2
290
     1
 42
2.0
291
     1
 43
8.0
  3
Standard
341
0
 44
4.0
300

342
17
174
     1
178
     6
175
     1
176
     0
 93
-1056964608
 45
4.0
292
     0
297
     0
 46
4.0
343
0
 94
-1056964608
 47
1.0
 49
1.0
140
1.0
293
     1
141
0.0
294
     1
177
     0
142
1.0
295
     0
296
     0
143
3.75
1001
ACAD_MLEADERVER
1070
     2
  0
MLINESTYLE
  5
1C
102
{ACAD_REACTORS
330
1B
102
}
330
1B
100
AcDbMlineStyle
  2
Standard
 70
     0
  3

 62
     0
 51
90.0
 52
90.0
 71
     2
 49
0.5
 62
   256
  6
BYLAYER
 49
-0.5
 62
   256
  6
BYLAYER
  0
ACDBPLACEHOLDER
  5
1D
102
{ACAD_REACTORS
330
1F
102
}
330
1F
  0
SCALE
  5
1B1
102
{ACAD_REACTORS
330
1B0
102
}
330
1B0
100
AcDbScale
 70
     0
300
1:1
140
1.0
141
1.0
290
     1
  0
SCALE
  5
1B2
102
{ACAD_REACTORS
330
1B0
102
}
330
1B0
100
AcDbScale
 70
     0
300
1:2
140
1.0
141
2.0
290
     0
  0
SCALE
  5
1B3
102
{ACAD_REACTORS
330
1B0
102
}
330
1B0
100
AcDbScale
 70
     0
300
1:4
140
1.0
141
4.0
290
     0
  0
SCALE
  5
1B4
102
{ACAD_REACTORS
330
1B0
102
}
330
1B0
100
AcDbScale
 70
     0
300
1:5
140
1.0
141
5.0
290
     0
  0
SCALE
  5
1B5
102
{ACAD_REACTORS
330
1B0
102
}
330
1B0
100
AcDbScale
 70
     0
300
1:8
140
1.0
141
8.0
290
     0
  0
SCALE
  5
1B6
102
{ACAD_REACTORS
330
1B0
102
}
330
1B0
100
AcDbScale
 70
     0
300
1:10
140
1.0
141
10.0
290
     0
  0
SCALE
  5
1B7
102
{ACAD_REACTORS
330
1B0
102
}
330
1B0
100
AcDbScale
 70
     0
300
1:16
140
1.0
141
16.0
290
     0
  0
SCALE
  5
1B8
102
{ACAD_REACTORS
330
1B0
102
}
330
1B0
100
AcDbScale
 70
     0
300
1:20
140
1.0
141
20.0
290
     0
  0
SCALE
  5
1B9
102
{ACAD_REACTORS
330
1B0
102
}
330
1B0
100
AcDbScale
 70
     0
300
1:30
140
1.0
141
30.0
290
     0
  0
SCALE
  5
1BA
102
{ACAD_REACTORS
330
1B0
102
}
330
1B0
100
AcDbScale
 70
     0
300
1:40
140
1.0
141
40.0
290
     0
  0
SCALE
  5
1BB
102
{ACAD_REACTORS
330
1B0
102
}
330
1B0
100
AcDbScale
 70
     0
300
1:50
140
1.0
141
50.0
290
     0
  0
SCALE
  5
1BC
102
{ACAD_REACTORS
330
1B0
102
}
330
1B0
100
AcDbScale
 70
     0
300
1:100
140
1.0
141
100.0
290
     0
  0
SCALE
  5
1BD
102
{ACAD_REACTORS
330
1B0
102
}
330
1B0
100
AcDbScale
 70
     0
300
2:1
140
2.0
141
1.0
290
     0
  0
SCALE
  5
1BE
102
{ACAD_REACTORS
330
1B0
102
}
330
1B0
100
AcDbScale
 70
     0
300
4:1
140
4.0
141
1.0
290
     0
  0
SCALE
  5
1BF
102
{ACAD_REACTORS
330
1B0
102
}
330
1B0
100
AcDbScale
 70
     0
300
8:1
140
8.0
141
1.0
290
     0
  0
SCALE
  5
1C0
102
{ACAD_REACTORS
330
1B0
102
}
330
1B0
100
AcDbScale
 70
     0
300
10:1
140
10.0
141
1.0
290
     0
  0
SCALE
  5
1C1
102
{ACAD_REACTORS
330
1B0
102
}
330
1B0
100
AcDbScale
 70
     0
300
100:1
140
100.0
141
1.0
290
     0
  0
SCALE
  5
1C2
102
{ACAD_REACTORS
330
1B0
102
}
330
1B0
100
AcDbScale
 70
     0
300
1/128" = 1'-0"
140
0.0078125
141
12.0
290
     0
  0
SCALE
  5
1C3
102
{ACAD_REACTORS
330
1B0
102
}
330
1B0
100
AcDbScale
 70
     0
300
1/64" = 1'-0"
140
0.015625
141
12.0
290
     0
  0
SCALE
  5
1C4
102
{ACAD_REACTORS
330
1B0
102
}
330
1B0
100
AcDbScale
 70
     0
300
1/32" = 1'-0"
140
0.03125
141
12.0
290
     0
  0
SCALE
  5
1C5
102
{ACAD_REACTORS
330
1B0
102
}
330
1B0
100
AcDbScale
 70
     0
300
1/16" = 1'-0"
140
0.0625
141
12.0
290
     0
  0
SCALE
  5
1C6
102
{ACAD_REACTORS
330
1B0
102
}
330
1B0
100
AcDbScale
 70
     0
300
3/32" = 1'-0"
140
0.09375
141
12.0
290
     0
  0
SCALE
  5
1C7
102
{ACAD_REACTORS
330
1B0
102
}
330
1B0
100
AcDbScale
 70
     0
300
1/8" = 1'-0"
140
0.125
141
12.0
290
     0
  0
SCALE
  5
1C8
102
{ACAD_REACTORS
330
1B0
102
}
330
1B0
100
AcDbScale
 70
     0
300
3/16" = 1'-0"
140
0.1875
141
12.0
290
     0
  0
SCALE
  5
1C9
102
{ACAD_REACTORS
330
1B0
102
}
330
1B0
100
AcDbScale
 70
     0
300
1/4" = 1'-0"
140
0.25
141
12.0
290
     0
  0
SCALE
  5
1CA
102
{ACAD_REACTORS
330
1B0
102
}
330
1B0
100
AcDbScale
 70
     0
300
3/8" = 1'-0"
140
0.375
141
12.0
290
     0
  0
SCALE
  5
1CB
102
{ACAD_REACTORS
330
1B0
102
}
330
1B0
100
AcDbScale
 70
     0
300
1/2" = 1'-0"
140
0.5
141
12.0
290
     0
  0
SCALE
  5
1CC
102
{ACAD_REACTORS
330
1B0
102
}
330
1B0
100
AcDbScale
 70
     0
300
3/4" = 1'-0"
140
0.75
141
12.0
290
     0
  0
SCALE
  5
1CD
102
{ACAD_REACTORS
330
1B0
102
}
330
1B0
100
AcDbScale
 70
     0
300
1" = 1'-0"
140
1.0
141
12.0
290
     0
  0
SCALE
  5
1CE
102
{ACAD_REACTORS
330
1B0
102
}
330
1B0
100
AcDbScale
 70
     0
300
1-1/2" = 1'-0"
140
1.5
141
12.0
290
     0
  0
SCALE
  5
1CF
102
{ACAD_REACTORS
330
1B0
102
}
330
1B0
100
AcDbScale
 70
     0
300
3" = 1'-0"
140
3.0
141
12.0
290
     0
  0
SCALE
  5
1D0
102
{ACAD_REACTORS
330
1B0
102
}
330
1B0
100
AcDbScale
 70
     0
300
6" = 1'-0"
140
6.0
141
12.0
290
     0
  0
SCALE
  5
1D1
102
{ACAD_REACTORS
330
1B0
102
}
330
1B0
100
AcDbScale
 70
     0
300
1'-0" = 1'-0"
140
12.0
141
12.0
290
     0
  0
TABLESTYLE
  5
1F0
102
{ACAD_REACTORS
330
1EF
102
}
102
{ACAD_XDICTIONARY
360
23C
102
}
330
1EF
100
AcDbTableStyle
  3
Standard
 70
     0
 71
     0
 40
0.06
 41
0.06
280
     0
281
     0
  7
Standard
140
4.5
170
     2
 62
     0
 63
   257
283
     0
 90
        4
 91
        0
  1

274
    -2
284
     1
 64
     0
275
    -2
285
     1
 65
     0
276
    -2
286
     1
 66
     0
277
    -2
287
     1
 67
     0
278
    -2
288
     1
 68
     0
279
    -2
289
     1
 69
     0
  7
Standard
140
6.0
170
     5
 62
     0
 63
   257
283
     0
 90
        4
 91
        0
  1

274
    -2
284
     1
 64
     0
275
    -2
285
     1
 65
     0
276
    -2
286
     1
 66
     0
277
    -2
287
     1
 67
     0
278
    -2
288
     1
 68
     0
279
    -2
289
     1
 69
     0
  7
Standard
140
4.5
170
     5
 62
     0
 63
   257
283
     0
 90
        4
 91
        0
  1

274
    -2
284
     1
 64
     0
275
    -2
285
     1
 65
     0
276
    -2
286
     1
 66
     0
277
    -2
287
     1
 67
     0
278
    -2
288
     1
 68
     0
279
    -2
289
     1
 69
     0
  0
VISUALSTYLE
  5
1D7
102
{ACAD_REACTORS
330
1D2
102
}
330
1D2
100
AcDbVisualStyle
  2
2dWireframe
 70
     4
 71
     0
 72
     2
 73
     0
 90
        0
 40
0.6
 41
30.0
 62
     5
 63
     7
421
 16777215
 74
     1
 91
        4
 64
     7
 65
   257
 75
     1
175
     1
 42
1.0
 92
        0
 66
   257
 43
1.0
 76
     1
 77
     6
 78
     2
 67
     7
 79
     5
170
     0
171
     0
290
     0
174
     0
 93
        1
 44
0.0
173
     0
291
     0
 45
0.0
  0
VISUALSTYLE
  5
1DA
102
{ACAD_REACTORS
330
1D2
102
}
330
1D2
100
AcDbVisualStyle
  2
Basic
 70
     7
 71
     1
 72
     0
 73
     1
 90
        0
 40
0.6
 41
30.0
 62
     5
 63
     7
421
 16777215
 74
     0
 91
        4
 64
     7
 65
   257
 75
     1
175
     1
 42
1.0
 92
        8
 66
     7
 43
1.0
 76
     1
 77
     6
 78
     2
 67
     7
 79
     5
170
     0
171
     0
290
     0
174
     0
 93
        1
 44
0.0
173
     0
291
     1
 45
0.0
  0
VISUALSTYLE
  5
1DE
102
{ACAD_REACTORS
330
1D2
102
}
330
1D2
100
AcDbVisualStyle
  2
Brighten
 70
    12
 71
     2
 72
     2
 73
     0
 90
        0
 40
0.6
 41
30.0
 62
     5
 63
     7
421
 16777215
 74
     1
 91
        4
 64
     7
 65
   257
 75
     1
175
     1
 42
1.0
 92
        8
 66
     7
 43
1.0
 76
     1
 77
     6
 78
     2
 67
     7
 79
     5
170
     0
171
     0
290
     0
174
     0
 93
        1
 44
50.0
173
     0
291
     1
 45
0.0
  0
VISUALSTYLE
  5
1E2
102
{ACAD_REACTORS
330
1D2
102
}
330
1D2
100
AcDbVisualStyle
  2
ColorChange
 70
    16
 71
     2
 72
     2
 73
     3
 90
        0
 40
0.6
 41
30.0
 62
     5
 63
     8
421
  8421504
 74
     1
 91
        4
 64
     7
 65
   257
 75
     1
175
     1
 42
1.0
 92
        8
 66
     8
424
  8421504
 43
1.0
 76
     1
 77
     6
 78
     2
 67
     7
 79
     5
170
     0
171
     0
290
     0
174
     0
 93
        1
 44
0.0
173
     0
291
     1
 45
0.0
  0
VISUALSTYLE
  5
1DC
102
{ACAD_REACTORS
330
1D2
102
}
330
1D2
100
AcDbVisualStyle
  2
Conceptual
 70
     9
 71
     3
 72
     2
 73
     0
 90
        0
 40
0.6
 41
30.0
 62
     5
 63
     7
421
 16777215
 74
     2
 91
        2
 64
     7
 65
   257
 75
     1
175
     1
 42
179.0
 92
        8
 66
     7
 43
1.0
 76
     1
 77
     6
 78
     2
 67
     7
 79
     3
170
     0
171
     0
290
     0
174
     0
 93
        1
 44
0.0
173
     0
291
     0
 45
0.0
  0
VISUALSTYLE
  5
1DD
102
{ACAD_REACTORS
330
1D2
102
}
330
1D2
100
AcDbVisualStyle
  2
Dim
 70
    11
 71
     2
 72
     2
 73
     0
 90
        0
 40
0.6
 41
30.0
 62
     5
 63
     7
421
 16777215
 74
     1
 91
        4
 64
     7
 65
   257
 75
     1
175
     1
 42
1.0
 92
        8
 66
     7
 43
1.0
 76
     1
 77
     6
 78
     2
 67
     7
 79
     5
170
     0
171
     0
290
     0
174
     0
 93
        1
 44
-50.0
173
     0
291
     1
 45
0.0
  0
VISUALSTYLE
  5
1E5
102
{ACAD_REACTORS
330
1D2
102
}
330
1D2
100
AcDbVisualStyle
  2
EdgeColorOff
 70
    22
 71
     2
 72
     2
 73
     0
 90
        0
 40
0.6
 41
30.0
 62
     5
 63
     7
421
 16777215
 74
     1
 91
        4
 64
     7
 65
   257
 75
     1
175
     1
 42
1.0
 92
        8
 66
     7
 43
1.0
 76
     1
 77
     6
 78
     2
 67
     7
 79
     5
170
     0
171
     0
290
     0
174
     0
 93
        1
 44
0.0
173
     0
291
     1
 45
0.0
  0
VISUALSTYLE
  5
1E1
102
{ACAD_REACTORS
330
1D2
102
}
330
1D2
100
AcDbVisualStyle
  2
Facepattern
 70
    15
 71
     2
 72
     2
 73
     0
 90
        0
 40
0.6
 41
30.0
 62
     5
 63
     7
421
 16777215
 74
     1
 91
        4
 64
     7
 65
   257
 75
     1
175
     1
 42
1.0
 92
        8
 66
     7
 43
1.0
 76
     1
 77
     6
 78
     2
 67
     7
 79
     5
170
     0
171
     0
290
     0
174
     0
 93
        1
 44
0.0
173
     0
291
     1
 45
0.0
  0
VISUALSTYLE
  5
1D3
102
{ACAD_REACTORS
330
1D2
102
}
330
1D2
100
AcDbVisualStyle
  2
Flat
 70
     0
 71
     2
 72
     1
 73
     1
 90
        2
 40
0.6
 41
30.0
 62
     5
 63
     7
421
 16777215
 74
     0
 91
        0
 64
     7
 65
   257
 75
     1
175
     1
 42
1.0
 92
        8
 66
     7
 43
1.0
 76
     1
 77
     6
 78
     2
 67
     7
 79
     5
170
     0
171
     0
290
     0
174
     0
 93
       13
 44
0.0
173
     0
291
     1
 45
0.0
  0
VISUALSTYLE
  5
1D4
102
{ACAD_REACTORS
330
1D2
102
}
330
1D2
100
AcDbVisualStyle
  2
FlatWithEdges
 70
     1
 71
     2
 72
     1
 73
     1
 90
        2
 40
0.6
 41
30.0
 62
     5
 63
     7
421
 16777215
 74
     1
 91
        0
 64
     7
 65
   257
 75
     1
175
     1
 42
1.0
 92
        0
 66
   257
 43
1.0
 76
     1
 77
     6
 78
     2
 67
     7
 79
     5
170
     0
171
     0
290
     0
174
     0
 93
       13
 44
0.0
173
     0
291
     1
 45
0.0
  0
VISUALSTYLE
  5
1D5
102
{ACAD_REACTORS
330
1D2
102
}
330
1D2
100
AcDbVisualStyle
  2
Gouraud
 70
     2
 71
     2
 72
     2
 73
     1
 90
        2
 40
0.6
 41
30.0
 62
     5
 63
     7
421
 16777215
 74
     0
 91
        0
 64
     7
 65
   257
 75
     1
175
     1
 42
1.0
 92
        0
 66
     7
 43
1.0
 76
     1
 77
     6
 78
     2
 67
     7
 79
     5
170
     0
171
     0
290
     0
174
     0
 93
       13
 44
0.0
173
     0
291
     1
 45
0.0
  0
VISUALSTYLE
  5
1D6
102
{ACAD_REACTORS
330
1D2
102
}
330
1D2
100
AcDbVisualStyle
  2
GouraudWithEdges
 70
     3
 71
     2
 72
     2
 73
     1
 90
        2
 40
0.6
 41
30.0
 62
     5
 63
     7
421
 16777215
 74
     1
 91
        0
 64
     7
 65
   257
 75
     1
175
     1
 42
1.0
 92
        0
 66
   257
 43
1.0
 76
     1
 77
     6
 78
     2
 67
     7
 79
     5
170
     0
171
     0
290
     0
174
     0
 93
       13
 44
0.0
173
     0
291
     1
 45
0.0
  0
VISUALSTYLE
  5
1D9
102
{ACAD_REACTORS
330
1D2
102
}
330
1D2
100
AcDbVisualStyle
  2
Hidden
 70
     6
 71
     1
 72
     2
 73
     2
 90
        0
 40
0.6
 41
30.0
 62
     5
 63
     7
421
 16777215
 74
     2
 91
        2
 64
     7
 65
   257
 75
     2
175
     1
 42
40.0
 92
        0
 66
   257
 43
1.0
 76
     1
 77
     6
 78
     2
 67
     7
 79
     3
170
     0
171
     0
290
     0
174
     0
 93
        1
 44
0.0
173
     0
291
     0
 45
0.0
  0
VISUALSTYLE
  5
1E3
102
{ACAD_REACTORS
330
1D2
102
}
330
1D2
100
AcDbVisualStyle
  2
JitterOff
 70
    20
 71
     2
 72
     2
 73
     0
 90
        0
 40
0.6
 41
30.0
 62
     5
 63
     7
421
 16777215
 74
     1
 91
        4
 64
     7
 65
   257
 75
     1
175
     1
 42
1.0
 92
       10
 66
     7
 43
1.0
 76
     1
 77
     6
 78
     2
 67
     7
 79
     5
170
     0
171
     0
290
     0
174
     0
 93
        1
 44
0.0
173
     0
291
     1
 45
0.0
  0
VISUALSTYLE
  5
1E0
102
{ACAD_REACTORS
330
1D2
102
}
330
1D2
100
AcDbVisualStyle
  2
Linepattern
 70
    14
 71
     2
 72
     2
 73
     0
 90
        0
 40
0.6
 41
30.0
 62
     5
 63
     7
421
 16777215
 74
     1
 91
        4
 64
     7
 65
   257
 75
     7
175
     7
 42
1.0
 92
        8
 66
     7
 43
1.0
 76
     1
 77
     6
 78
     2
 67
     7
 79
     5
170
     0
171
     0
290
     0
174
     0
 93
        1
 44
0.0
173
     0
291
     1
 45
0.0
  0
VISUALSTYLE
  5
1E4
102
{ACAD_REACTORS
330
1D2
102
}
330
1D2
100
AcDbVisualStyle
  2
OverhangOff
 70
    21
 71
     2
 72
     2
 73
     0
 90
        0
 40
0.6
 41
30.0
 62
     5
 63
     7
421
 16777215
 74
     1
 91
        4
 64
     7
 65
   257
 75
     1
175
     1
 42
1.0
 92
        9
 66
     7
 43
1.0
 76
     1
 77
     6
 78
     2
 67
     7
 79
     5
170
     0
171
     0
290
     0
174
     0
 93
        1
 44
0.0
173
     0
291
     1
 45
0.0
  0
VISUALSTYLE
  5
1DB
102
{ACAD_REACTORS
330
1D2
102
}
330
1D2
100
AcDbVisualStyle
  2
Realistic
 70
     8
 71
     2
 72
     3
 73
     0
 90
        2
 40
0.6
 41
30.0
 62
     5
 63
     7
421
 16777215
 74
     0
 91
        0
 64
     7
 65
   257
 75
     1
175
     1
 42
1.0
 92
        8
 66
   257
 43
1.0
 76
     1
 77
     6
 78
     2
 67
     7
 79
     3
170
     0
171
     0
290
     0
174
     0
 93
       13
 44
0.0
173
     0
291
     0
 45
0.0
  0
VISUALSTYLE
  5
1EA
102
{ACAD_REACTORS
330
1D2
102
}
330
1D2
100
AcDbVisualStyle
  2
Shaded
 70
    27
 71
     2
 72
     2
 73
     1
 90
        2
 40
0.6
 41
30.0
 62
     5
 63
     7
421
 16777215
 74
     0
 91
        4
 64
     7
 65
   257
 75
     1
175
     1
 42
1.0
 92
        8
 66
   257
 43
1.0
 76
     1
 77
     6
 78
     2
 67
     8
425
  7895160
 79
     3
170
     0
171
     0
290
     0
174
     0
 93
        5
 44
0.0
173
     0
291
     0
 45
0.0
  0
VISUALSTYLE
  5
1E9
102
{ACAD_REACTORS
330
1D2
102
}
330
1D2
100
AcDbVisualStyle
  2
Shaded with edges
 70
    26
 71
     2
 72
     2
 73
     1
 90
        2
 40
0.6
 41
30.0
 62
     5
 63
     7
421
 16777215
 74
     1
 91
       10
 64
     7
 65
   257
 75
     2
175
     1
 42
1.0
 92
        8
 66
   257
 43
1.0
 76
     1
 77
     6
 78
     2
 67
     7
 79
     3
170
     0
171
     0
290
     0
174
     0
 93
        5
 44
0.0
173
     0
291
     0
 45
0.0
  0
VISUALSTYLE
  5
1E6
102
{ACAD_REACTORS
330
1D2
102
}
330
1D2
100
AcDbVisualStyle
  2
Shades of Gray
 70
    23
 71
     2
 72
     2
 73
     3
 90
        0
 40
0.6
 41
30.0
 62
     5
 63
     7
421
 16777215
 74
     2
 91
        2
 64
     7
 65
     7
 75
     1
175
     1
 42
40.0
 92
        8
 66
     7
 43
1.0
 76
     1
 77
     6
 78
     2
 67
     7
 79
     3
170
     0
171
     0
290
     0
174
     0
 93
        1
 44
0.0
173
     0
291
     0
 45
0.0
  0
VISUALSTYLE
  5
1E7
102
{ACAD_REACTORS
330
1D2
102
}
330
1D2
100
AcDbVisualStyle
  2
Sketchy
 70
    24
 71
     1
 72
     2
 73
     2
 90
        0
 40
0.6
 41
30.0
 62
     5
 63
     7
421
 16777215
 74
     2
 91
        2
 64
     7
 65
     7
 75
     1
175
     1
 42
40.0
 92
       11
 66
     7
 43
1.0
 76
     1
 77
     6
 78
     2
 67
     7
 79
     6
170
     0
171
     0
290
     0
174
     0
 93
        1
 44
0.0
173
     0
291
     0
 45
0.0
  0
VISUALSTYLE
  5
1DF
102
{ACAD_REACTORS
330
1D2
102
}
330
1D2
100
AcDbVisualStyle
  2
Thicken
 70
    13
 71
     2
 72
     2
 73
     0
 90
        0
 40
0.6
 41
30.0
 62
     5
 63
     7
421
 16777215
 74
     1
 91
        4
 64
     7
 65
   257
 75
     1
175
     1
 42
1.0
 92
       12
 66
     7
 43
1.0
 76
     1
 77
     6
 78
     2
 67
     7
 79
     5
170
     0
171
     0
290
     0
174
     0
 93
        1
 44
0.0
173
     0
291
     1
 45
0.0
  0
VISUALSTYLE
  5
1D8
102
{ACAD_REACTORS
330
1D2
102
}
330
1D2
100
AcDbVisualStyle
  2
Wireframe
 70
     5
 71
     0
 72
     2
 73
     0
 90
        0
 40
0.6
 41
30.0
 62
     5
 63
     7
421
 16777215
 74
     1
 91
        4
 64
     7
 65
   257
 75
     1
175
     1
 42
1.0
 92
        0
 66
   257
 43
1.0
 76
     1
 77
     6
 78
     2
 67
     7
 79
     3
170
     0
171
     0
290
     0
174
     0
 93
        1
 44
0.0
173
     0
291
     0
 45
0.0
  0
VISUALSTYLE
  5
1E8
102
{ACAD_REACTORS
330
1D2
102
}
330
1D2
100
AcDbVisualStyle
  2
X-Ray
 70
    25
 71
     2
 72
     2
 73
     1
 90
        1
 40
0.5
 41
30.0
 62
     5
 63
     7
421
 16777215
 74
     1
 91
        0
 64
     7
 65
   257
 75
     1
175
     1
 42
1.0
 92
        8
 66
     7
 43
1.0
 76
     1
 77
     6
 78
     2
 67
     7
 79
     3
170
     0
171
     0
290
     0
174
     0
 93
       13
 44
0.0
173
     0
291
     0
 45
0.0
  0
DICTIONARYVAR
  5
201
102
{ACAD_REACTORS
330
200
102
}
330
200
100
DictionaryVariables
280
     0
  1
1:1
  0
DICTIONARYVAR
  5
23A
102
{ACAD_REACTORS
330
200
102
}
330
200
100
DictionaryVariables
280
     0
  1
Standard
  0
DICTIONARYVAR
  5
206
102
{ACAD_REACTORS
330
200
102
}
330
200
100
DictionaryVariables
280
     0
  1
Standard
  0
DICTIONARYVAR
  5
202
102
{ACAD_REACTORS
330
200
102
}
330
200
100
DictionaryVariables
280
     0
  1
0
  0
DICTIONARYVAR
  5
208
102
{ACAD_REACTORS
330
200
102
}
330
200
100
DictionaryVariables
280
     0
  1
0
  0
DICTIONARYVAR
  5
23B
102
{ACAD_REACTORS
330
200
102
}
330
200
100
DictionaryVariables
280
     0
  1
0
  0
DICTIONARY
  5
23C
330
1F0
100
AcDbDictionary
280
     1
281
     1
  3
ACAD_ROUNDTRIP_2008_TABLESTYLE_CELLSTYLEMAP
360
23D
  0
CELLSTYLEMAP
  5
23D
102
{ACAD_REACTORS
330
23C
102
}
330
23C
100
AcDbCellStyleMap
 90
        3
300
CELLSTYLE
  1
TABLEFORMAT_BEGIN
 90
        5
170
     1
 91
        0
 92
        0
 62
   257
 93
        1
300
CONTENTFORMAT
  1
CONTENTFORMAT_BEGIN
 90
        0
 91
        0
 92
        4
 93
        0
300

 40
0.0
140
1.0
 94
        5
 62
     0
340
17
144
6.0
309
CONTENTFORMAT_END
171
     1
301
MARGIN
  1
CELLMARGIN_BEGIN
 40
1.5
 40
1.5
 40
1.5
 40
1.5
 40
1.5
 40
1.5
309
CELLMARGIN_END
 94
        6
 95
        1
302
GRIDFORMAT
  1
GRIDFORMAT_BEGIN
 90
        0
 91
        1
 62
     0
 92
       -2
340
11
 93
        0
 40
0.045
309
GRIDFORMAT_END
 95
        2
302
GRIDFORMAT
  1
GRIDFORMAT_BEGIN
 90
        0
 91
        1
 62
     0
 92
       -2
340
11
 93
        0
 40
0.045
309
GRIDFORMAT_END
 95
        4
302
GRIDFORMAT
  1
GRIDFORMAT_BEGIN
 90
        0
 91
        1
 62
     0
 92
       -2
340
11
 93
        0
 40
0.045
309
GRIDFORMAT_END
 95
        8
302
GRIDFORMAT
  1
GRIDFORMAT_BEGIN
 90
        0
 91
        1
 62
     0
 92
       -2
340
11
 93
        0
 40
0.045
309
GRIDFORMAT_END
 95
       16
302
GRIDFORMAT
  1
GRIDFORMAT_BEGIN
 90
        0
 91
        1
 62
     0
 92
       -2
340
11
 93
        0
 40
0.045
309
GRIDFORMAT_END
 95
       32
302
GRIDFORMAT
  1
GRIDFORMAT_BEGIN
 90
        0
 91
        1
 62
     0
 92
       -2
340
11
 93
        0
 40
0.045
309
GRIDFORMAT_END
309
TABLEFORMAT_END
  1
CELLSTYLE_BEGIN
 90
        1
 91
        1
300
_TITLE
309
CELLSTYLE_END
300
CELLSTYLE
  1
TABLEFORMAT_BEGIN
 90
        5
170
     1
 91
        0
 92
        0
 62
   257
 93
        1
300
CONTENTFORMAT
  1
CONTENTFORMAT_BEGIN
 90
        0
 91
        0
 92
        4
 93
        0
300

 40
0.0
140
1.0
 94
        5
 62
     0
340
17
144
4.5
309
CONTENTFORMAT_END
171
     1
301
MARGIN
  1
CELLMARGIN_BEGIN
 40
1.5
 40
1.5
 40
1.5
 40
1.5
 40
1.5
 40
1.5
309
CELLMARGIN_END
 94
        6
 95
        1
302
GRIDFORMAT
  1
GRIDFORMAT_BEGIN
 90
        0
 91
        1
 62
     0
 92
       -2
340
11
 93
        0
 40
0.045
309
GRIDFORMAT_END
 95
        2
302
GRIDFORMAT
  1
GRIDFORMAT_BEGIN
 90
        0
 91
        1
 62
     0
 92
       -2
340
11
 93
        0
 40
0.045
309
GRIDFORMAT_END
 95
        4
302
GRIDFORMAT
  1
GRIDFORMAT_BEGIN
 90
        0
 91
        1
 62
     0
 92
       -2
340
11
 93
        0
 40
0.045
309
GRIDFORMAT_END
 95
        8
302
GRIDFORMAT
  1
GRIDFORMAT_BEGIN
 90
        0
 91
        1
 62
     0
 92
       -2
340
11
 93
        0
 40
0.045
309
GRIDFORMAT_END
 95
       16
302
GRIDFORMAT
  1
GRIDFORMAT_BEGIN
 90
        0
 91
        1
 62
     0
 92
       -2
340
11
 93
        0
 40
0.045
309
GRIDFORMAT_END
 95
       32
302
GRIDFORMAT
  1
GRIDFORMAT_BEGIN
 90
        0
 91
        1
 62
     0
 92
       -2
340
11
 93
        0
 40
0.045
309
GRIDFORMAT_END
309
TABLEFORMAT_END
  1
CELLSTYLE_BEGIN
 90
        2
 91
        1
300
_HEADER
309
CELLSTYLE_END
300
CELLSTYLE
  1
TABLEFORMAT_BEGIN
 90
        5
170
     1
 91
        0
 92
        0
 62
   257
 93
        1
300
CONTENTFORMAT
  1
CONTENTFORMAT_BEGIN
 90
        0
 91
        0
 92
        4
 93
        0
300

 40
0.0
140
1.0
 94
        2
 62
     0
340
17
144
4.5
309
CONTENTFORMAT_END
171
     1
301
MARGIN
  1
CELLMARGIN_BEGIN
 40
1.5
 40
1.5
 40
1.5
 40
1.5
 40
1.5
 40
1.5
309
CELLMARGIN_END
 94
        6
 95
        1
302
GRIDFORMAT
  1
GRIDFORMAT_BEGIN
 90
        0
 91
        1
 62
     0
 92
       -2
340
11
 93
        0
 40
0.045
309
GRIDFORMAT_END
 95
        2
302
GRIDFORMAT
  1
GRIDFORMAT_BEGIN
 90
        0
 91
        1
 62
     0
 92
       -2
340
11
 93
        0
 40
0.045
309
GRIDFORMAT_END
 95
        4
302
GRIDFORMAT
  1
GRIDFORMAT_BEGIN
 90
        0
 91
        1
 62
     0
 92
       -2
340
11
 93
        0
 40
0.045
309
GRIDFORMAT_END
 95
        8
302
GRIDFORMAT
  1
GRIDFORMAT_BEGIN
 90
        0
 91
        1
 62
     0
 92
       -2
340
11
 93
        0
 40
0.045
309
GRIDFORMAT_END
 95
       16
302
GRIDFORMAT
  1
GRIDFORMAT_BEGIN
 90
        0
 91
        1
 62
     0
 92
       -2
340
11
 93
        0
 40
0.045
309
GRIDFORMAT_END
 95
       32
302
GRIDFORMAT
  1
GRIDFORMAT_BEGIN
 90
        0
 91
        1
 62
     0
 92
       -2
340
11
 93
        0
 40
0.045
309
GRIDFORMAT_END
309
TABLEFORMAT_END
  1
CELLSTYLE_BEGIN
 90
        3
 91
        2
300
_DATA
309
CELLSTYLE_END
  0
ENDSEC
  0
EOF
