  0
SECTION
  2
HEADER
  9
$ACADVER
  1
AC1021
  9
$ACADMAINTVER
 70
    25
  9
$DWGCODEPAGE
  3
ANSI_932
  9
$LASTSAVEDBY
  1
howeNelson
  9
$INSBASE
 10
0.0
 20
0.0
 30
0.0
  9
$EXTMIN
 10
0.0
 20
0.0
 30
0.0
  9
$EXTMAX
 10
2100.0
 20
2970.0
 30
0.0
  9
$LIMMIN
 10
0.0
 20
0.0
  9
$LIMMAX
 10
2100.0
 20
2970.0
  9
$ORTHOMODE
 70
     0
  9
$REGENMODE
 70
     1
  9
$FILLMODE
 70
     1
  9
$QTEXTMODE
 70
     0
  9
$MIRRTEXT
 70
     1
  9
$LTSCALE
 40
5.0
  9
$ATTMODE
 70
     1
  9
$TEXTSIZE
 40
533.0403732820173
  9
$TRACEWID
 40
1.0
  9
$TEXTSTYLE
  7
Standard
  9
$CLAYER
  8
Dim
  9
$CELTYPE
  6
ByLayer
  9
$CECOLOR
 62
   256
  9
$CELTSCALE
 40
1.0
  9
$DISPSILH
 70
     0
  9
$DIMSCALE
 40
1.0
  9
$DIMASZ
 40
9.999389648437498
  9
$DIMEXO
 40
25.0
  9
$DIMDLI
 40
0.9999999999999999
  9
$DIMRND
 40
0.0
  9
$DIMDLE
 40
0.0
  9
$DIMEXE
 40
0.0
  9
$DIMTP
 40
0.0
  9
$DIMTM
 40
0.0
  9
$DIMTXT
 40
24.4326171875
  9
$DIMCEN
 40
0.0
  9
$DIMTSZ
 40
0.0
  9
$DIMTOL
 70
     0
  9
$DIMLIM
 70
     0
  9
$DIMTIH
 70
     0
  9
$DIMTOH
 70
     0
  9
$DIMSE1
 70
     0
  9
$DIMSE2
 70
     0
  9
$DIMTAD
 70
     1
  9
$DIMZIN
 70
    11
  9
$DIMBLK
  1
DOT
  9
$DIMASO
 70
     1
  9
$DIMSHO
 70
     1
  9
$DIMPOST
  1
<>
  9
$DIMAPOST
  1
[]
  9
$DIMALT
 70
     0
  9
$DIMALTD
 70
     1
  9
$DIMALTF
 40
1.0
  9
$DIMLFAC
 40
1.0
  9
$DIMTOFL
 70
     1
  9
$DIMTVP
 40
0.0
  9
$DIMTIX
 70
     1
  9
$DIMSOXD
 70
     0
  9
$DIMSAH
 70
     0
  9
$DIMBLK1
  1

  9
$DIMBLK2
  1

  9
$DIMSTYLE
  2
tform線あり
  9
$DIMCLRD
 70
     0
  9
$DIMCLRE
 70
     0
  9
$DIMCLRT
 70
     0
  9
$DIMTFAC
 40
0.8
  9
$DIMGAP
 40
10.0
  9
$DIMJUST
 70
     0
  9
$DIMSD1
 70
     0
  9
$DIMSD2
 70
     0
  9
$DIMTOLJ
 70
     1
  9
$DIMTZIN
 70
    11
  9
$DIMALTZ
 70
    11
  9
$DIMALTTZ
 70
    11
  9
$DIMUPT
 70
     0
  9
$DIMDEC
 70
     0
  9
$DIMTDEC
 70
     1
  9
$DIMALTU
 70
     2
  9
$DIMALTTD
 70
     2
  9
$DIMTXSTY
  7
ＭＳ ゴシック
  9
$DIMAUNIT
 70
     0
  9
$DIMADEC
 70
     2
  9
$DIMALTRND
 40
0.0
  9
$DIMAZIN
 70
     0
  9
$DIMDSEP
 70
    46
  9
$DIMATFIT
 70
     0
  9
$DIMFRAC
 70
     2
  9
$DIMLDRBLK
  1
DOT
  9
$DIMLUNIT
 70
     2
  9
$DIMLWD
 70
    -2
  9
$DIMLWE
 70
    -2
  9
$DIMTMOVE
 70
     0
  9
$DIMFXL
 40
1.0
  9
$DIMFXLON
 70
     0
  9
$DIMJOGANG
 40
0.7853981633974483
  9
$DIMTFILL
 70
     0
  9
$DIMTFILLCLR
 70
     0
  9
$DIMARCSYM
 70
     0
  9
$DIMLTYPE
  6

  9
$DIMLTEX1
  6

  9
$DIMLTEX2
  6

  9
$LUNITS
 70
     2
  9
$LUPREC
 70
     0
  9
$SKETCHINC
 40
0.1
  9
$FILLETRAD
 40
0.0
  9
$AUNITS
 70
     0
  9
$AUPREC
 70
     0
  9
$MENU
  1
acad
  9
$ELEVATION
 40
0.0
  9
$PELEVATION
 40
0.0
  9
$THICKNESS
 40
0.0
  9
$LIMCHECK
 70
     0
  9
$CHAMFERA
 40
0.0
  9
$CHAMFERB
 40
0.0
  9
$CHAMFERC
 40
0.0
  9
$CHAMFERD
 40
0.0
  9
$SKPOLY
 70
     0
  9
$TDCREATE
 40
2447893.375
  9
$TDUCREATE
 40
0.0
  9
$TDUPDATE
 40
2458786.420966099
  9
$TDUUPDATE
 40
2458786.045966099
  9
$TDINDWG
 40
0.4187897917
  9
$TDUSRTIMER
 40
0.01104125
  9
$USRTIMER
 70
     1
  9
$ANGBASE
 50
0.0
  9
$ANGDIR
 70
     0
  9
$PDMODE
 70
     1
  9
$PDSIZE
 40
-2.0
  9
$PLINEWID
 40
0.0
  9
$SPLFRAME
 70
     0
  9
$SPLINETYPE
 70
     6
  9
$SPLINESEGS
 70
     8
  9
$HANDSEED
  5
7A4F
  9
$SURFTAB1
 70
     6
  9
$SURFTAB2
 70
     6
  9
$SURFTYPE
 70
     6
  9
$SURFU
 70
     6
  9
$SURFV
 70
     6
  9
$UCSBASE
  2

  9
$UCSNAME
  2

  9
$UCSORG
 10
0.0
 20
0.0
 30
0.0
  9
$UCSXDIR
 10
1.0
 20
0.0
 30
0.0
  9
$UCSYDIR
 10
0.0
 20
1.0
 30
0.0
  9
$UCSORTHOREF
  2

  9
$UCSORTHOVIEW
 70
     0
  9
$UCSORGTOP
 10
0.0
 20
0.0
 30
0.0
  9
$UCSORGBOTTOM
 10
0.0
 20
0.0
 30
0.0
  9
$UCSORGLEFT
 10
0.0
 20
0.0
 30
0.0
  9
$UCSORGRIGHT
 10
0.0
 20
0.0
 30
0.0
  9
$UCSORGFRONT
 10
0.0
 20
0.0
 30
0.0
  9
$UCSORGBACK
 10
0.0
 20
0.0
 30
0.0
  9
$PUCSBASE
  2

  9
$PUCSNAME
  2

  9
$PUCSORG
 10
0.0
 20
0.0
 30
0.0
  9
$PUCSXDIR
 10
1.0
 20
0.0
 30
0.0
  9
$PUCSYDIR
 10
0.0
 20
1.0
 30
0.0
  9
$PUCSORTHOREF
  2

  9
$PUCSORTHOVIEW
 70
     0
  9
$PUCSORGTOP
 10
0.0
 20
0.0
 30
0.0
  9
$PUCSORGBOTTOM
 10
0.0
 20
0.0
 30
0.0
  9
$PUCSORGLEFT
 10
0.0
 20
0.0
 30
0.0
  9
$PUCSORGRIGHT
 10
0.0
 20
0.0
 30
0.0
  9
$PUCSORGFRONT
 10
0.0
 20
0.0
 30
0.0
  9
$PUCSORGBACK
 10
0.0
 20
0.0
 30
0.0
  9
$USERI1
 70
     0
  9
$USERI2
 70
     0
  9
$USERI3
 70
     0
  9
$USERI4
 70
     0
  9
$USERI5
 70
     0
  9
$USERR1
 40
0.0
  9
$USERR2
 40
0.0
  9
$USERR3
 40
0.0
  9
$USERR4
 40
0.0
  9
$USERR5
 40
0.0
  9
$WORLDVIEW
 70
     1
  9
$SHADEDGE
 70
     3
  9
$SHADEDIF
 70
    70
  9
$TILEMODE
 70
     1
  9
$MAXACTVP
 70
    64
  9
$PINSBASE
 10
0.0
 20
0.0
 30
0.0
  9
$PLIMCHECK
 70
     0
  9
$PEXTMIN
 10
0.0
 20
0.0
 30
0.0
  9
$PEXTMAX
 10
0.0
 20
0.0
 30
0.0
  9
$PLIMMIN
 10
-7.5
 20
-20.0
  9
$PLIMMAX
 10
412.5
 20
277.0
  9
$UNITMODE
 70
     0
  9
$VISRETAIN
 70
     0
  9
$PLINEGEN
 70
     1
  9
$PSLTSCALE
 70
     0
  9
$TREEDEPTH
 70
  3020
  9
$CMLSTYLE
  2
Standard
  9
$CMLJUST
 70
     0
  9
$CMLSCALE
 40
1.0
  9
$PROXYGRAPHICS
 70
     0
  9
$MEASUREMENT
 70
     1
  9
$CELWEIGHT
370
    -1
  9
$ENDCAPS
280
     0
  9
$JOINSTYLE
280
     0
  9
$LWDISPLAY
290
     1
  9
$INSUNITS
 70
     4
  9
$HYPERLINKBASE
  1

  9
$STYLESHEET
  1

  9
$XEDIT
290
     1
  9
$CEPSNTYPE
380
     0
  9
$PSTYLEMODE
290
     1
  9
$FINGERPRINTGUID
  2

  9
$VERSIONGUID
  2

  9
$EXTNAMES
290
     1
  9
$PSVPSCALE
 40
0.0
  9
$OLESTARTUP
290
     0
  9
$SORTENTS
280
   127
  9
$INDEXCTL
280
     0
  9
$HIDETEXT
280
     1
  9
$XCLIPFRAME
290
     0
  9
$HALOGAP
280
     0
  9
$OBSCOLOR
 70
   257
  9
$OBSLTYPE
280
     0
  9
$INTERSECTIONDISPLAY
280
     0
  9
$INTERSECTIONCOLOR
 70
   257
  9
$DIMASSOC
280
     2
  9
$PROJECTNAME
  1

  9
$CAMERADISPLAY
290
     0
  9
$LENSLENGTH
 40
50.0
  9
$CAMERAHEIGHT
 40
0.0
  9
$STEPSPERSEC
 40
2.0
  9
$STEPSIZE
 40
6.0
  9
$3DDWFPREC
 40
2.0
  9
$PSOLWIDTH
 40
0.25
  9
$PSOLHEIGHT
 40
4.0
  9
$LOFTANG1
 40
1.570796326794897
  9
$LOFTANG2
 40
1.570796326794897
  9
$LOFTMAG1
 40
0.0
  9
$LOFTMAG2
 40
0.0
  9
$LOFTPARAM
 70
     7
  9
$LOFTNORMALS
280
     1
  9
$LATITUDE
 40
37.795
  9
$LONGITUDE
 40
-122.394
  9
$NORTHDIRECTION
 40
0.0
  9
$TIMEZONE
 70
 -8000
  9
$LIGHTGLYPHDISPLAY
280
     1
  9
$TILEMODELIGHTSYNCH
280
     1
  9
$SOLIDHIST
280
     1
  9
$SHOWHIST
280
     1
  9
$DWFFRAME
280
     2
  9
$DGNFRAME
280
     2
  9
$REALWORLDSCALE
290
     1
  9
$INTERFERECOLOR
 62
   256
  9
$CSHADOW
280
     0
  9
$SHADOWPLANELOCATION
 40
0.0
  0
ENDSEC
  0
SECTION
  2
CLASSES
  0
CLASS
  1
LWPOLYLINE
  2
AcDbPolyline
  3
ObjectDBX Classes
 90
        0
 91
        1
280
     0
281
     1
  0
CLASS
  1
IMAGE
  2
AcDbRasterImage
  3
ISM
 90
      127
 91
        5
280
     0
281
     1
  0
CLASS
  1
OLE2FRAME
  2
AcDbOle2Frame
  3
ObjectDBX Classes
 90
        0
 91
        1
280
     0
281
     1
  0
CLASS
  1
HATCH
  2
AcDbHatch
  3
ObjectDBX Classes
 90
        0
 91
        1
280
     0
281
     1
  0
CLASS
  1
DICTIONARYVAR
  2
AcDbDictionaryVar
  3
ObjectDBX Classes
 90
        0
 91
        5
280
     0
281
     0
  0
CLASS
  1
RASTERVARIABLES
  2
AcDbRasterVariables
  3
ISM
 90
        0
 91
        4
280
     0
281
     0
  0
CLASS
  1
IMAGEDEF
  2
AcDbRasterImageDef
  3
ISM
 90
        0
 91
        4
280
     0
281
     0
  0
CLASS
  1
IMAGEDEF_REACTOR
  2
AcDbRasterImageDefReactor
  3
ISM
 90
        1
 91
        4
280
     0
281
     0
  0
CLASS
  1
IDBUFFER
  2
AcDbIdBuffer
  3
ObjectDBX Classes
 90
        0
 91
        4
280
     0
281
     0
  0
CLASS
  1
SPATIAL_FILTER
  2
AcDbSpatialFilter
  3
ObjectDBX Classes
 90
        0
 91
        4
280
     0
281
     0
  0
CLASS
  1
XRECORD
  2
AcDbXrecord
  3
ObjectDBX Classes
 90
        0
 91
        1
280
     0
281
     0
  0
CLASS
  1
SORTENTSTABLE
  2
AcDbSortentsTable
  3
ObjectDBX Classes
 90
        0
 91
        4
280
     0
281
     0
  0
CLASS
  1
LAYER_INDEX
  2
AcDbLayerIndex
  3
ObjectDBX Classes
 90
        0
 91
        4
280
     0
281
     0
  0
CLASS
  1
SPATIAL_INDEX
  2
AcDbSpatialIndex
  3
AutoCAD 2000
 90
        0
 91
        4
280
     0
281
     0
  0
CLASS
  1
OBJECT_PTR
  2
CAseDLPNTableRecord
  3
ASE-LPNTableRecord
 90
        1
 91
        4
280
     0
281
     0
  0
CLASS
  1
LAYOUT
  2
AcDbLayout
  3
ObjectDBX Classes
 90
        0
 91
        1
280
     0
281
     0
  0
CLASS
  1
PLOTSETTINGS
  2
AcDbPlotSettings
  3
ObjectDBX Classes
 90
        0
 91
        4
280
     0
281
     0
  0
CLASS
  1
ACDBDICTIONARYWDFLT
  2
AcDbDictionaryWithDefault
  3
ObjectDBX Classes
 90
        0
 91
        5
280
     0
281
     0
  0
CLASS
  1
ACDBPLACEHOLDER
  2
AcDbPlaceHolder
  3
ObjectDBX Classes
 90
        0
 91
        1
280
     0
281
     0
  0
CLASS
  1
SCALE
  2
AcDbScale
  3
ObjectDBX Classes
 90
     1153
 91
        5
280
     0
281
     0
  0
CLASS
  1
MATERIAL
  2
AcDbMaterial
  3
ObjectDBX Classes
 90
     1153
 91
        5
280
     0
281
     0
  0
CLASS
  1
VISUALSTYLE
  2
AcDbVisualStyle
  3
ObjectDBX Classes
 90
     4095
 91
        5
280
     0
281
     0
  0
CLASS
  1
TABLESTYLE
  2
AcDbTableStyle
  3
ObjectDBX Classes
 90
     4095
 91
        5
280
     0
281
     0
  0
CLASS
  1
DIMASSOC
  2
AcDbDimAssoc
  3
"AcDbDimAssoc|Product Desc:     AcDim ARX App For Dimension|Company:          Autodesk, Inc.|WEB Address:      www.autodesk.com"
 90
        0
 91
        4
280
     0
281
     0
  0
CLASS
  1
CELLSTYLEMAP
  2
AcDbCellStyleMap
  3
ObjectDBX Classes
 90
     1152
 91
        4
280
     0
281
     0
  0
CLASS
  1
SUN
  2
AcDbSun
  3
SCENEOE
 90
     1153
 91
        4
280
     0
281
     0
  0
CLASS
  1
MLEADERSTYLE
  2
AcDbMLeaderStyle
  3
ACDB_MLEADERSTYLE_CLASS
 90
     4095
 91
        5
280
     0
281
     0
  0
CLASS
  1
FIELD
  2
AcDbField
  3
ObjectDBX Classes
 90
     1152
 91
        4
280
     0
281
     0
  0
CLASS
  1
FIELDLIST
  2
AcDbFieldList
  3
ObjectDBX Classes
 90
     1152
 91
        4
280
     0
281
     0
  0
CLASS
  1
ACDB_ALDIMOBJECTCONTEXTDATA_CLASS
  2
AcDbAlignedDimensionObjectContextData
  3
ObjectDBX Classes
 90
     1153
 91
        4
280
     0
281
     0
  0
ENDSEC
  0
SECTION
  2
TABLES
  0
TABLE
  2
VPORT
  5
7
330
0
100
AcDbSymbolTable
 70
     1
  0
VPORT
  5
15
330
7
100
AcDbSymbolTableRecord
100
AcDbViewportTableRecord
  2
*ACTIVE
 70
     0
 10
0.0
 20
0.0
 11
1.0
 21
1.0
 12
672.9525617540357
 22
1782.61237023454
 13
0.0
 23
0.0
 14
1.0
 24
1.0
 15
0.0
 25
0.0
 16
0.0
 26
0.0
 36
1.0
 17
377.0474382459643
 27
-297.6123702345399
 37
0.0
 40
3029.4
 41
2.310294117647059
 42
50.0
 43
0.0
 44
0.0
 50
0.0
 51
0.0
 71
    16
 72
  2000
 73
     1
 74
     1
 75
     0
 76
     0
 77
     0
 78
     0
281
     0
 65
     1
110
0.0
120
0.0
130
0.0
111
1.0
121
0.0
131
0.0
112
0.0
122
1.0
132
0.0
 79
     0
146
0.0
348
26C
 60
     3
 61
     5
292
     1
282
     1
141
0.0
142
0.0
 63
   256
361
8C2
  0
ENDTAB
  0
TABLE
  2
LTYPE
  5
4
330
0
100
AcDbSymbolTable
 70
     4
  0
LTYPE
  5
11
330
4
100
AcDbSymbolTableRecord
100
AcDbLinetypeTableRecord
  2
ByBlock
 70
     0
  3

 72
    65
 73
     0
 40
0.0
  0
LTYPE
  5
12
330
4
100
AcDbSymbolTableRecord
100
AcDbLinetypeTableRecord
  2
ByLayer
 70
     0
  3

 72
    65
 73
     0
 40
0.0
  0
LTYPE
  5
13
330
4
100
AcDbSymbolTableRecord
100
AcDbLinetypeTableRecord
  2
Continuous
 70
     0
  3
Solid line
 72
    65
 73
     0
 40
0.0
  0
LTYPE
  5
BF2
330
4
100
AcDbSymbolTableRecord
100
AcDbLinetypeTableRecord
  2
BORDER
 70
     0
  3
Border __  __  . __  __  . __  __  . __  __  . 
 72
    65
 73
     6
 40
44.45
 49
12.7
 74
     0
 49
-6.35
 74
     0
 49
12.7
 74
     0
 49
-6.35
 74
     0
 49
0.0
 74
     0
 49
-6.35
 74
     0
  0
LTYPE
  5
6EAA
330
4
100
AcDbSymbolTableRecord
100
AcDbLinetypeTableRecord
  2
HIDDEN2
 70
     0
  3
Hidden (.5x) _ _ _ _ _ _ _ _ _ _ _ _ _ _ _ _ _ 
 72
    65
 73
     2
 40
4.762499999999999
 49
3.175
 74
     0
 49
-1.5875
 74
     0
  0
LTYPE
  5
79BA
330
4
100
AcDbSymbolTableRecord
100
AcDbLinetypeTableRecord
  2
HIDDEN
 70
     0
  3
Hidden _ _ _ _ _ _ _ _ _ _ _ _ _ _ _ _ _ _ _ _ 
 72
    65
 73
     2
 40
9.524999999999999
 49
6.35
 74
     0
 49
-3.175
 74
     0
  0
ENDTAB
  0
TABLE
  2
LAYER
  5
2
102
{ACAD_XDICTIONARY
360
2E1
102
}
330
0
100
AcDbSymbolTable
 70
     9
  0
LAYER
  5
14
330
2
100
AcDbSymbolTableRecord
100
AcDbLayerTableRecord
  2
0
 70
     0
 62
     7
  6
Continuous
370
    -3
390
1D
347
266
  0
LAYER
  5
4A
330
2
100
AcDbSymbolTableRecord
100
AcDbLayerTableRecord
  2
Defpoints
 70
     0
 62
     7
  6
Continuous
290
     0
370
    20
390
1D
347
266
  0
LAYER
  5
4B
330
2
100
AcDbSymbolTableRecord
100
AcDbLayerTableRecord
  2
template
 70
     0
 62
     7
  6
Continuous
370
    20
390
1D
347
266
  0
LAYER
  5
4D
330
2
100
AcDbSymbolTableRecord
100
AcDbLayerTableRecord
  2
MODEL
 70
     0
 62
     7
  6
Continuous
370
    20
390
1D
347
266
  0
LAYER
  5
382
330
2
100
AcDbSymbolTableRecord
100
AcDbLayerTableRecord
  2
レイヤー 1
 70
     0
 62
     7
  6
Continuous
370
    -3
390
1D
347
266
  0
LAYER
  5
5EB
330
2
100
AcDbSymbolTableRecord
100
AcDbLayerTableRecord
  2
Dim
 70
     0
 62
     3
  6
Continuous
370
    13
390
1D
347
266
1001
AcAecLayerStandard
1000

1000

  0
LAYER
  5
BF1
330
2
100
AcDbSymbolTableRecord
100
AcDbLayerTableRecord
  2
PRINT BORDER
 70
     0
 62
     4
  6
BORDER
290
     0
370
    20
390
1D
347
266
1001
AcAecLayerStandard
1000

1000

  0
LAYER
  5
1BD2
330
2
100
AcDbSymbolTableRecord
100
AcDbLayerTableRecord
  2
retino
 70
     0
 62
   253
  6
Continuous
370
     0
390
1D
347
266
  0
LAYER
  5
79B9
330
2
100
AcDbSymbolTableRecord
100
AcDbLayerTableRecord
  2
HIDDEN
 70
     0
 62
   252
  6
HIDDEN
370
    13
390
1D
347
266
1001
AcAecLayerStandard
1000

1000

  0
ENDTAB
  0
TABLE
  2
STYLE
  5
3
330
0
100
AcDbSymbolTable
 70
     2
  0
STYLE
  5
17
330
3
100
AcDbSymbolTableRecord
100
AcDbTextStyleTableRecord
  2
Standard
 70
     0
 40
0.0
 41
1.0
 50
0.0
 71
     0
 42
533.0403732820173
  3
txt
  4
BIGFONT.SHX
  0
STYLE
  5
39
330
3
100
AcDbSymbolTableRecord
100
AcDbTextStyleTableRecord
  2
ＭＳ ゴシック
 70
     0
 40
0.0
 41
1.0
 50
0.0
 71
     0
 42
533.0403732820173
  3
msgothic.ttc
  4
ＭＳ ゴシック
1001
ACAD
1000
ＭＳ ゴシック
1071
        0
  0
ENDTAB
  0
TABLE
  2
VIEW
  5
5
330
0
100
AcDbSymbolTable
 70
     0
  0
ENDTAB
  0
TABLE
  2
UCS
  5
6
330
0
100
AcDbSymbolTable
 70
     0
  0
ENDTAB
  0
TABLE
  2
APPID
  5
8
330
0
100
AcDbSymbolTable
 70
    16
  0
APPID
  5
16
330
8
100
AcDbSymbolTableRecord
100
AcDbRegAppTableRecord
  2
ACAD
 70
     0
  0
APPID
  5
5C5
330
8
100
AcDbSymbolTableRecord
100
AcDbRegAppTableRecord
  2
AcAecLayerStandard
 70
     0
  0
APPID
  5
913
330
8
100
AcDbSymbolTableRecord
100
AcDbRegAppTableRecord
  2
ACAD_DSTYLE_DIMBREAK
 70
     0
  0
APPID
  5
914
330
8
100
AcDbSymbolTableRecord
100
AcDbRegAppTableRecord
  2
ACAD_DSTYLE_DIMJAG
 70
     0
  0
APPID
  5
915
330
8
100
AcDbSymbolTableRecord
100
AcDbRegAppTableRecord
  2
ACAD_DSTYLE_DIMTALN
 70
     0
  0
APPID
  5
E4F
330
8
100
AcDbSymbolTableRecord
100
AcDbRegAppTableRecord
  2
ACAD_MLEADERVER
 70
     0
  0
APPID
  5
E79
330
8
100
AcDbSymbolTableRecord
100
AcDbRegAppTableRecord
  2
ACAD_PSEXT
 70
     0
  0
APPID
  5
E7A
330
8
100
AcDbSymbolTableRecord
100
AcDbRegAppTableRecord
  2
ACAD_NAV_VCDISPLAY
 70
     0
  0
APPID
  5
166E
330
8
100
AcDbSymbolTableRecord
100
AcDbRegAppTableRecord
  2
AcadAnnotative
 70
     0
  0
APPID
  5
166F
330
8
100
AcDbSymbolTableRecord
100
AcDbRegAppTableRecord
  2
GradientColor1ACI
 70
     0
  0
APPID
  5
1670
330
8
100
AcDbSymbolTableRecord
100
AcDbRegAppTableRecord
  2
GradientColor2ACI
 70
     0
  0
APPID
  5
20FE
330
8
100
AcDbSymbolTableRecord
100
AcDbRegAppTableRecord
  2
AcLayerTools
 70
     0
  0
APPID
  5
27AB
330
8
100
AcDbSymbolTableRecord
100
AcDbRegAppTableRecord
  2
ACAD_DSTYLE_DIMRADIAL_EXTENSION
 70
     0
  0
APPID
  5
4342
330
8
100
AcDbSymbolTableRecord
100
AcDbRegAppTableRecord
  2
AcadAnnoAV
 70
     0
  0
APPID
  5
6EA6
330
8
100
AcDbSymbolTableRecord
100
AcDbRegAppTableRecord
  2
AcCmTransparency
 70
     0
  0
APPID
  5
6EA9
330
8
100
AcDbSymbolTableRecord
100
AcDbRegAppTableRecord
  2
RAK
 70
     0
  0
ENDTAB
  0
TABLE
  2
DIMSTYLE
  5
9
330
0
100
AcDbSymbolTable
 70
     2
100
AcDbDimStyleTable
  0
DIMSTYLE
105
18
102
{ACAD_REACTORS
102
}
330
9
100
AcDbSymbolTableRecord
100
AcDbDimStyleTableRecord
  2
Standard
 70
     0
178
     0
340
17
  0
DIMSTYLE
105
56
102
{ACAD_REACTORS
330
7954
330
7981
330
7993
330
79A2
330
79BD
330
79CC
330
79D9
330
79E9
330
79F6
330
7A04
330
7A15
330
7A22
102
}
330
9
100
AcDbSymbolTableRecord
100
AcDbDimStyleTableRecord
  2
tform線あり
 70
     0
  3
<>
  4
[]
 41
9.999389648437498
 42
25.0
 43
0.9999999999999999
 44
0.0
 73
     0
 74
     0
 77
     1
 78
    11
140
24.4326171875
141
0.0
143
1.0
146
0.8
147
10.0
171
     1
172
     1
174
     1
178
     0
179
     2
271
     0
272
     1
276
     2
284
    11
285
    11
286
    11
289
     0
340
39
341
4E
342
4E
  0
ENDTAB
  0
TABLE
  2
BLOCK_RECORD
  5
1
330
0
100
AcDbSymbolTable
 70
    40
  0
BLOCK_RECORD
  5
A
102
{ACAD_XDICTIONARY
360
7557
102
}
330
1
100
AcDbSymbolTableRecord
100
AcDbBlockTableRecord
  2
*MODEL_SPACE
340
20
 70
     0
280
     1
281
     0
  0
BLOCK_RECORD
  5
B
330
1
100
AcDbSymbolTableRecord
100
AcDbBlockTableRecord
  2
*PAPER_SPACE
340
21
 70
     0
280
     1
281
     0
  0
BLOCK_RECORD
  5
4E
330
1
100
AcDbSymbolTableRecord
100
AcDbBlockTableRecord
  2
_DOT
340
0
102
{BLKREFS
331
7410
331
7411
331
741D
331
741E
331
7537
331
7538
331
7543
331
7544
331
754F
331
7550
331
7598
331
7599
331
7650
331
7651
331
765F
331
7660
331
76BC
331
76BD
331
76C8
331
76C9
331
76D4
331
76D5
331
76E0
331
76E1
331
76EC
331
76ED
331
793E
331
793D
331
0
331
0
331
0
331
0
331
794C
331
794D
331
795E
331
795D
331
796D
331
796C
331
797C
331
797B
331
798B
331
798A
331
799D
331
799C
331
79AA
331
79A9
331
79C7
331
79C6
331
79D4
331
79D3
331
79E1
331
79E0
331
79F1
331
79F0
331
79FE
331
79FD
331
7A0E
331
7A0D
331
7A1D
331
7A1C
331
7A2C
331
7A2B
102
}
 70
     0
280
     1
281
     0
  0
BLOCK_RECORD
  5
3A5
330
1
100
AcDbSymbolTableRecord
100
AcDbBlockTableRecord
  2
名称未設定-1
340
0
102
{BLKREFS
331
3D0
102
}
 70
     1
280
     1
281
     0
  0
BLOCK_RECORD
  5
3A8
330
1
100
AcDbSymbolTableRecord
100
AcDbBlockTableRecord
  2
block 2
340
0
102
{BLKREFS
331
3A7
102
}
 70
     0
280
     1
281
     0
  0
BLOCK_RECORD
  5
3AB
330
1
100
AcDbSymbolTableRecord
100
AcDbBlockTableRecord
  2
block 3
340
0
102
{BLKREFS
331
3AA
102
}
 70
     0
280
     1
281
     0
  0
BLOCK_RECORD
  5
3AE
330
1
100
AcDbSymbolTableRecord
100
AcDbBlockTableRecord
  2
block 4
340
0
102
{BLKREFS
331
3AD
102
}
 70
     0
280
     1
281
     0
  0
BLOCK_RECORD
  5
3BD
330
1
100
AcDbSymbolTableRecord
100
AcDbBlockTableRecord
  2
block 5
340
0
102
{BLKREFS
331
3BC
102
}
 70
     0
280
     1
281
     0
  0
BLOCK_RECORD
  5
11F0
330
1
100
AcDbSymbolTableRecord
100
AcDbBlockTableRecord
  2
BLOCK_2
340
0
102
{BLKREFS
331
1273
331
127B
331
127C
102
}
 70
     0
280
     1
281
     0
  0
BLOCK_RECORD
  5
38B6
330
1
100
AcDbSymbolTableRecord
100
AcDbBlockTableRecord
  2
mobile_latù
340
0
310
2800000020000000200000000100080000000000000400000000000000000000000000000000000000000000000080000080000000808000800000008000800080800000C0C0C000C0DCC000F0CAA6000020400000206000002080000020A0000020C0000020E00000400000004020000040400000406000004080000040A0
310
000040C0000040E00000600000006020000060400000606000006080000060A0000060C0000060E00000800000008020000080400000806000008080000080A0000080C0000080E00000A0000000A0200000A0400000A0600000A0800000A0A00000A0C00000A0E00000C0000000C0200000C0400000C0600000C0800000C0
310
A00000C0C00000C0E00000E0000000E0200000E0400000E0600000E0800000E0A00000E0C00000E0E00040000000400020004000400040006000400080004000A0004000C0004000E00040200000402020004020400040206000402080004020A0004020C0004020E000404000004040200040404000404060004040800040
310
40A0004040C0004040E00040600000406020004060400040606000406080004060A0004060C0004060E00040800000408020004080400040806000408080004080A0004080C0004080E00040A0000040A0200040A0400040A0600040A0800040A0A00040A0C00040A0E00040C0000040C0200040C0400040C0600040C08000
310
40C0A00040C0C00040C0E00040E0000040E0200040E0400040E0600040E0800040E0A00040E0C00040E0E00080000000800020008000400080006000800080008000A0008000C0008000E00080200000802020008020400080206000802080008020A0008020C0008020E00080400000804020008040400080406000804080
310
008040A0008040C0008040E00080600000806020008060400080606000806080008060A0008060C0008060E00080800000808020008080400080806000808080008080A0008080C0008080E00080A0000080A0200080A0400080A0600080A0800080A0A00080A0C00080A0E00080C0000080C0200080C0400080C0600080C0
310
800080C0A00080C0C00080C0E00080E0000080E0200080E0400080E0600080E0800080E0A00080E0C00080E0E000C0000000C0002000C0004000C0006000C0008000C000A000C000C000C000E000C0200000C0202000C0204000C0206000C0208000C020A000C020C000C020E000C0400000C0402000C0404000C0406000C0
310
408000C040A000C040C000C040E000C0600000C0602000C0604000C0606000C0608000C060A000C060C000C060E000C0800000C0802000C0804000C0806000C0808000C080A000C080C000C080E000C0A00000C0A02000C0A04000C0A06000C0A08000C0A0A000C0A0C000C0A0E000C0C00000C0C02000C0C04000C0C06000
310
C0C08000C0C0A000F0FBFF00A4A0A000808080000000FF0000FF000000FFFF00FF000000FF00FF00FFFF0000FFFFFF0049494949494949494949494949494949494949494949494949494949494949494949494949494949494949494949494949494949494949494949494949494949494949494949494949494949494949
310
49494949494949494949494949494949494949494949494949494949494949494949494949494949494949494949494949494949494949494949494949494949494949494949494949494949494949494949FAFAFAFAFAFAFAFAFAFAFAFAFAFAFAFAFAFAFAFAFAFAFAFAFAFAFAFAFAFA4949FAFA4949494949494949494949
310
494949494949494949494949494949FAFA4949FAFA4949494949494949494949494949494949494949494949494949FAFA4949FAFA4949494949494949494949494949494949494949494949494949FAFA4949FAFA4949494949494949494949494949494949494949494949494949FAFA4949FAFA49494949494949494949
310
49494949494949494949494949494949FAFA4949FAFA4949494949494949494949494949494949494949494949494949FAFA4949FAFA4949494949494949494949494949494949494949494949494949FAFA4949FAFA4949494949494949494949494949494949494949494949494949FAFA4949FAFA494949494949494949
310
4949494949494949494949494949494949FAFA4949FAFA4949494949494949494949494949494949494949494949494949FAFA4949FAFA4949494949494949494949494949494949494949494949494949FAFA4949FAFA4949494949494949494949494949494949494949494949494949FAFA4949FAFA4949494949494949
310
494949494949494949494949494949494949FAFA4949FAFA4949494949494949494949494949494949494949494949494949FAFA4949FAFA4949494949494949494949494949494949494949494949494949FAFA4949FAFA4949494949494949494949494949494949494949494949494949FAFA4949FAFA49494949494949
310
49494949494949494949494949494949494949FAFA4949FAFAFAFAFAFAFAFAFAFAFAFAFAFAFAFAFAFAFAFAFAFAFAFAFAFAFAFAFAFA4949FAFAFAFAFAFAFAFAFAFAFAFAFAFAFAFAFAFAFAFAFAFAFAFAFAFAFAFAFAFA4949FAFA4949494949494949494949494949494949494949494949494949FAFA4949FAFAFAFAFAFAFAFA
310
FAFAFAFAFAFAFAFAFAFAFAFAFAFAFAFAFAFAFAFAFAFA494949494949494949494949494949494949494949494949494949494949494949494949494949494949494949494949494949494949494949494949494949494949494949494949494949494949494949494949494949494949494949494949494949494949494949
310
4949494949494949494949494949494949494949494949494949494949494949494949494949494949494949494949494949494949494949
102
{BLKREFS
331
3B99
331
45C2
102
}
 70
     4
280
     1
281
     0
  0
BLOCK_RECORD
  5
436B
330
1
100
AcDbSymbolTableRecord
100
AcDbBlockTableRecord
  2
.TD_SECTION_1
340
0
102
{BLKREFS
331
45C3
331
45C5
331
45C7
331
45C9
331
45CB
331
45CD
331
4611
102
}
 70
     0
280
     1
281
     0
  0
BLOCK_RECORD
  5
436F
330
1
100
AcDbSymbolTableRecord
100
AcDbBlockTableRecord
  2
.TD_SECTION_2
340
0
102
{BLKREFS
331
45C4
331
45C6
331
45C8
331
45CA
331
45CC
331
45CE
331
4612
102
}
 70
     0
280
     1
281
     0
  0
BLOCK_RECORD
  5
740A
330
1
100
AcDbSymbolTableRecord
100
AcDbBlockTableRecord
  2
*D10
340
0
 70
     0
280
     1
281
     0
  0
BLOCK_RECORD
  5
7417
330
1
100
AcDbSymbolTableRecord
100
AcDbBlockTableRecord
  2
*D11
340
0
 70
     0
280
     1
281
     0
  0
BLOCK_RECORD
  5
7531
330
1
100
AcDbSymbolTableRecord
100
AcDbBlockTableRecord
  2
*D12
340
0
 70
     0
280
     1
281
     0
  0
BLOCK_RECORD
  5
753D
330
1
100
AcDbSymbolTableRecord
100
AcDbBlockTableRecord
  2
*D13
340
0
 70
     0
280
     1
281
     0
  0
BLOCK_RECORD
  5
7549
330
1
100
AcDbSymbolTableRecord
100
AcDbBlockTableRecord
  2
*D14
340
0
 70
     0
280
     1
281
     0
  0
BLOCK_RECORD
  5
7590
330
1
100
AcDbSymbolTableRecord
100
AcDbBlockTableRecord
  2
*D15
340
0
 70
     0
280
     1
281
     0
  0
BLOCK_RECORD
  5
764A
330
1
100
AcDbSymbolTableRecord
100
AcDbBlockTableRecord
  2
*D16
340
0
 70
     0
280
     1
281
     0
  0
BLOCK_RECORD
  5
7659
330
1
100
AcDbSymbolTableRecord
100
AcDbBlockTableRecord
  2
*D17
340
0
 70
     0
280
     1
281
     0
  0
BLOCK_RECORD
  5
76B6
330
1
100
AcDbSymbolTableRecord
100
AcDbBlockTableRecord
  2
*D18
340
0
 70
     0
280
     1
281
     0
  0
BLOCK_RECORD
  5
76C2
330
1
100
AcDbSymbolTableRecord
100
AcDbBlockTableRecord
  2
*D19
340
0
 70
     0
280
     1
281
     0
  0
BLOCK_RECORD
  5
76CE
330
1
100
AcDbSymbolTableRecord
100
AcDbBlockTableRecord
  2
*D20
340
0
 70
     0
280
     1
281
     0
  0
BLOCK_RECORD
  5
76DA
330
1
100
AcDbSymbolTableRecord
100
AcDbBlockTableRecord
  2
*D21
340
0
 70
     0
280
     1
281
     0
  0
BLOCK_RECORD
  5
76E6
330
1
100
AcDbSymbolTableRecord
100
AcDbBlockTableRecord
  2
*D22
340
0
 70
     0
280
     1
281
     0
  0
BLOCK_RECORD
  5
7937
330
1
100
AcDbSymbolTableRecord
100
AcDbBlockTableRecord
  2
*D24
340
0
 70
     0
280
     1
281
     0
  0
BLOCK_RECORD
  5
7946
330
1
100
AcDbSymbolTableRecord
100
AcDbBlockTableRecord
  2
*D25
340
0
 70
     0
280
     1
281
     0
  0
BLOCK_RECORD
  5
7957
330
1
100
AcDbSymbolTableRecord
100
AcDbBlockTableRecord
  2
*D26
340
0
 70
     0
280
     1
281
     0
  0
BLOCK_RECORD
  5
7966
330
1
100
AcDbSymbolTableRecord
100
AcDbBlockTableRecord
  2
*D27
340
0
 70
     0
280
     1
281
     0
  0
BLOCK_RECORD
  5
7975
330
1
100
AcDbSymbolTableRecord
100
AcDbBlockTableRecord
  2
*D28
340
0
 70
     0
280
     1
281
     0
  0
BLOCK_RECORD
  5
7984
330
1
100
AcDbSymbolTableRecord
100
AcDbBlockTableRecord
  2
*D29
340
0
 70
     0
280
     1
281
     0
  0
BLOCK_RECORD
  5
7996
330
1
100
AcDbSymbolTableRecord
100
AcDbBlockTableRecord
  2
*D30
340
0
 70
     0
280
     1
281
     0
  0
BLOCK_RECORD
  5
79A3
330
1
100
AcDbSymbolTableRecord
100
AcDbBlockTableRecord
  2
*D31
340
0
 70
     0
280
     1
281
     0
  0
BLOCK_RECORD
  5
79C0
330
1
100
AcDbSymbolTableRecord
100
AcDbBlockTableRecord
  2
*D32
340
0
 70
     0
280
     1
281
     0
  0
BLOCK_RECORD
  5
79CD
330
1
100
AcDbSymbolTableRecord
100
AcDbBlockTableRecord
  2
*D33
340
0
 70
     0
280
     1
281
     0
  0
BLOCK_RECORD
  5
79DA
330
1
100
AcDbSymbolTableRecord
100
AcDbBlockTableRecord
  2
*D34
340
0
 70
     0
280
     1
281
     0
  0
BLOCK_RECORD
  5
79EA
330
1
100
AcDbSymbolTableRecord
100
AcDbBlockTableRecord
  2
*D35
340
0
 70
     0
280
     1
281
     0
  0
BLOCK_RECORD
  5
79F7
330
1
100
AcDbSymbolTableRecord
100
AcDbBlockTableRecord
  2
*D36
340
0
 70
     0
280
     1
281
     0
  0
BLOCK_RECORD
  5
7A07
330
1
100
AcDbSymbolTableRecord
100
AcDbBlockTableRecord
  2
*D37
340
0
 70
     0
280
     1
281
     0
  0
BLOCK_RECORD
  5
7A16
330
1
100
AcDbSymbolTableRecord
100
AcDbBlockTableRecord
  2
*D38
340
0
 70
     0
280
     1
281
     0
  0
BLOCK_RECORD
  5
7A25
330
1
100
AcDbSymbolTableRecord
100
AcDbBlockTableRecord
  2
*D39
340
0
 70
     0
280
     1
281
     0
  0
ENDTAB
  0
ENDSEC
  0
SECTION
  2
BLOCKS
  0
BLOCK
  5
D
330
A
100
AcDbEntity
  8
0
390
1D
100
AcDbBlockBegin
  2
*MODEL_SPACE
 70
     0
 10
0.0
 20
0.0
 30
0.0
  3
*MODEL_SPACE
  1
*MODEL_SPACE
  0
ENDBLK
  5
E
330
A
100
AcDbEntity
  8
0
390
1D
100
AcDbBlockEnd
  0
BLOCK
  5
F
330
B
100
AcDbEntity
 67
     1
  8
0
390
1D
100
AcDbBlockBegin
  2
*PAPER_SPACE
 70
     0
 10
0.0
 20
0.0
 30
0.0
  3
*PAPER_SPACE
  1
*PAPER_SPACE
  0
ENDBLK
  5
10
330
B
100
AcDbEntity
 67
     1
  8
0
390
1D
100
AcDbBlockEnd
  0
BLOCK
  5
490E
330
4E
100
AcDbEntity
  8
0
390
1D
100
AcDbBlockBegin
  2
_DOT
 70
     0
 10
0.0
 20
0.0
 30
0.0
  3
_DOT
  1
_DOT
  0
POLYLINE
  5
4910
330
4E
100
AcDbEntity
  8
0
  6
ByBlock
 62
     0
370
    -2
390
1D
100
AcDb2dPolyline
 66
     1
 10
0.0
 20
0.0
 30
0.0
 70
     1
 40
0.5
 41
0.5
  0
VERTEX
  5
4911
330
4910
100
AcDbEntity
  8
0
  6
ByBlock
 62
     0
370
    -2
390
1D
100
AcDbVertex
100
AcDb2dVertex
 10
-0.25
 20
0.0
 30
0.0
 42
1.0
  0
VERTEX
  5
4912
330
4910
100
AcDbEntity
  8
0
  6
ByBlock
 62
     0
370
    -2
390
1D
100
AcDbVertex
100
AcDb2dVertex
 10
0.25
 20
0.0
 30
0.0
 42
1.0
  0
SEQEND
  5
4913
330
4910
100
AcDbEntity
  8
0
390
1D
  0
LINE
  5
4914
330
4E
100
AcDbEntity
  8
0
  6
ByBlock
 62
     0
370
    -2
390
1D
100
AcDbLine
 10
-0.5
 20
0.0
 30
0.0
 11
-1.0
 21
0.0
 31
0.0
  0
ENDBLK
  5
4915
330
4E
100
AcDbEntity
  8
0
390
1D
100
AcDbBlockEnd
  0
BLOCK
  5
3A6
330
3A5
100
AcDbEntity
  8
0
100
AcDbBlockBegin
  2
名称未設定-1
 70
     0
 10
0.0
 20
0.0
 30
0.0
  3
名称未設定-1
  1
名称未設定-1
  0
INSERT
  5
3A7
330
3A5
100
AcDbEntity
  8
レイヤー 1
100
AcDbBlockReference
  2
block 2
 10
0.0
 20
0.0
 30
0.0
  0
ENDBLK
  5
3CC
330
3A5
100
AcDbEntity
  8
0
100
AcDbBlockEnd
  0
BLOCK
  5
3A9
330
3A8
100
AcDbEntity
  8
0
100
AcDbBlockBegin
  2
block 2
 70
     0
 10
0.0
 20
0.0
 30
0.0
  3
block 2
  1
block 2
  0
INSERT
  5
3AA
330
3A8
100
AcDbEntity
  8
レイヤー 1
100
AcDbBlockReference
  2
block 3
 10
0.0
 20
0.0
 30
0.0
  0
ENDBLK
  5
3CB
330
3A8
100
AcDbEntity
  8
0
100
AcDbBlockEnd
  0
BLOCK
  5
3AC
330
3AB
100
AcDbEntity
  8
0
100
AcDbBlockBegin
  2
block 3
 70
     0
 10
0.0
 20
0.0
 30
0.0
  3
block 3
  1
block 3
  0
INSERT
  5
3AD
330
3AB
100
AcDbEntity
  8
レイヤー 1
100
AcDbBlockReference
  2
block 4
 10
0.0
 20
0.0
 30
0.0
  0
ENDBLK
  5
3CA
330
3AB
100
AcDbEntity
  8
0
100
AcDbBlockEnd
  0
BLOCK
  5
3AF
330
3AE
100
AcDbEntity
  8
0
100
AcDbBlockBegin
  2
block 4
 70
     0
 10
0.0
 20
0.0
 30
0.0
  3
block 4
  1
block 4
  0
POLYLINE
  5
3B0
330
3AE
100
AcDbEntity
  8
レイヤー 1
370
     0
100
AcDb2dPolyline
 66
     1
 10
0.0
 20
0.0
 30
0.0
  0
VERTEX
  5
3B1
330
3B0
100
AcDbEntity
  8
レイヤー 1
370
     0
100
AcDbVertex
100
AcDb2dVertex
 10
83.79545727667795
 20
167.6444858234922
 30
0.0
  0
VERTEX
  5
3B2
330
3B0
100
AcDbEntity
  8
レイヤー 1
370
     0
100
AcDbVertex
100
AcDb2dVertex
 10
83.79545727667795
 20
159.7968976406313
 30
0.0
  0
VERTEX
  5
3B3
330
3B0
100
AcDbEntity
  8
レイヤー 1
370
     0
100
AcDbVertex
100
AcDb2dVertex
 10
71.3631329975216
 20
159.7968976406313
 30
0.0
  0
VERTEX
  5
3B4
330
3B0
100
AcDbEntity
  8
レイヤー 1
370
     0
100
AcDbVertex
100
AcDb2dVertex
 10
71.3631329975216
 20
127.8027915271048
 30
0.0
  0
VERTEX
  5
3B5
330
3B0
100
AcDbEntity
  8
レイヤー 1
370
     0
100
AcDbVertex
100
AcDb2dVertex
 10
60.43011526263018
 20
127.8027915271048
 30
0.0
  0
VERTEX
  5
3B6
330
3B0
100
AcDbEntity
  8
レイヤー 1
370
     0
100
AcDbVertex
100
AcDb2dVertex
 10
60.43011526263018
 20
159.7968976406313
 30
0.0
  0
VERTEX
  5
3B7
330
3B0
100
AcDbEntity
  8
レイヤー 1
370
     0
100
AcDbVertex
100
AcDb2dVertex
 10
48.21793273020759
 20
159.7968976406313
 30
0.0
  0
VERTEX
  5
3B8
330
3B0
100
AcDbEntity
  8
レイヤー 1
370
     0
100
AcDbVertex
100
AcDb2dVertex
 10
48.21793273020759
 20
167.6444858234922
 30
0.0
  0
VERTEX
  5
3B9
330
3B0
100
AcDbEntity
  8
レイヤー 1
370
     0
100
AcDbVertex
100
AcDb2dVertex
 10
83.79545727667795
 20
167.6444858234922
 30
0.0
  0
SEQEND
  5
3BA
330
3B0
100
AcDbEntity
  8
レイヤー 1
370
     0
  0
HATCH
  5
3BB
330
3AE
100
AcDbEntity
  8
レイヤー 1
 62
   250
420
  2234388
100
AcDbHatch
 10
0.0
 20
0.0
 30
0.0
210
0.0
220
0.0
230
1.0
  2
SOLID
 70
     1
 71
     0
 91
        1
 92
        1
 93
        8
 72
     1
 10
83.79545727667795
 20
167.6444858234922
 11
83.79545727667795
 21
159.7968976406313
 72
     1
 10
83.79545727667795
 20
159.7968976406313
 11
71.3631329975216
 21
159.7968976406313
 72
     1
 10
71.3631329975216
 20
159.7968976406313
 11
71.3631329975216
 21
127.8027915271048
 72
     1
 10
71.3631329975216
 20
127.8027915271048
 11
60.43011526263018
 21
127.8027915271048
 72
     1
 10
60.43011526263018
 20
127.8027915271048
 11
60.43011526263018
 21
159.7968976406313
 72
     1
 10
60.43011526263018
 20
159.7968976406313
 11
48.21793273020759
 21
159.7968976406313
 72
     1
 10
48.21793273020759
 20
159.7968976406313
 11
48.21793273020759
 21
167.6444858234922
 72
     1
 10
48.21793273020759
 20
167.6444858234922
 11
83.79545727667795
 21
167.6444858234922
 97
        0
 75
     2
 76
     1
 98
        0
  0
INSERT
  5
3BC
330
3AE
100
AcDbEntity
  8
レイヤー 1
100
AcDbBlockReference
  2
block 5
 10
0.0
 20
0.0
 30
0.0
  0
ENDBLK
  5
3C9
330
3AE
100
AcDbEntity
  8
0
100
AcDbBlockEnd
  0
BLOCK
  5
3BE
330
3BD
100
AcDbEntity
  8
0
100
AcDbBlockBegin
  2
block 5
 70
     0
 10
0.0
 20
0.0
 30
0.0
  3
block 5
  1
block 5
  0
SPLINE
  5
3BF
330
3BD
100
AcDbEntity
  8
レイヤー 1
370
     0
100
AcDbSpline
210
0.0
220
0.0
230
1.0
 70
    11
 71
     3
 72
    56
 73
    52
 74
     0
 42
0.000000001
 43
0.0000000001
 40
0.0
 40
0.0
 40
0.0
 40
0.0
 40
1.0
 40
1.0
 40
1.0
 40
2.0
 40
2.0
 40
2.0
 40
3.0
 40
3.0
 40
3.0
 40
4.0
 40
4.0
 40
4.0
 40
5.0
 40
5.0
 40
5.0
 40
6.0
 40
6.0
 40
6.0
 40
7.0
 40
7.0
 40
7.0
 40
8.0
 40
8.0
 40
8.0
 40
9.0
 40
9.0
 40
9.0
 40
10.0
 40
10.0
 40
10.0
 40
11.0
 40
11.0
 40
11.0
 40
12.0
 40
12.0
 40
12.0
 40
13.0
 40
13.0
 40
13.0
 40
14.0
 40
14.0
 40
14.0
 40
15.0
 40
15.0
 40
15.0
 40
16.0
 40
16.0
 40
16.0
 40
17.0
 40
17.0
 40
17.0
 40
17.0
 10
100.4504378777679
 20
166.69157178364
 30
0.0
 10
101.9848844191641
 20
167.1313385124438
 30
0.0
 10
103.9637485713373
 20
166.7649523658846
 30
0.0
 10
103.9637485713373
 20
166.7649523658846
 30
0.0
 10
103.9637485713373
 20
166.7649523658846
 30
0.0
 10
103.0132460999156
 20
163.911205638077
 30
0.0
 10
103.0132460999156
 20
163.911205638077
 30
0.0
 10
103.0132460999156
 20
163.911205638077
 30
0.0
 10
101.0674548862189
 20
164.3601018759394
 30
0.0
 10
99.57090442016032
 20
163.1805004036133
 30
0.0
 10
98.40508333886608
 20
162.258247733807
 30
0.0
 10
97.65301849830304
 20
159.804132345923
 30
0.0
 10
97.3598406791005
 20
158.8699940888517
 30
0.0
 10
97.3598406791005
 20
158.8699940888517
 30
0.0
 10
96.07137411762282
 20
154.9119212747295
 30
0.0
 10
96.07137411762282
 20
154.9119212747295
 30
0.0
 10
96.07137411762282
 20
154.9119212747295
 30
0.0
 10
100.3012651448482
 20
154.9119212747295
 30
0.0
 10
100.3012651448482
 20
154.9119212747295
 30
0.0
 10
100.3012651448482
 20
154.9119212747295
 30
0.0
 10
99.64152892419852
 20
152.4199098115079
 30
0.0
 10
99.64152892419852
 20
152.4199098115079
 30
0.0
 10
99.64152892419852
 20
152.4199098115079
 30
0.0
 10
95.38097652692731
 20
152.4199098115079
 30
0.0
 10
95.38097652692731
 20
152.4199098115079
 30
0.0
 10
95.38097652692731
 20
152.4199098115079
 30
0.0
 10
87.75353009080013
 20
127.8027915271048
 30
0.0
 10
87.75353009080013
 20
127.8027915271048
 30
0.0
 10
87.75353009080013
 20
127.8027915271048
 30
0.0
 10
85.36538832498108
 20
127.8027915271048
 30
0.0
 10
85.36538832498108
 20
127.8027915271048
 30
0.0
 10
85.36538832498108
 20
127.8027915271048
 30
0.0
 10
93.00006946639998
 20
152.4199098115079
 30
0.0
 10
93.00006946639998
 20
152.4199098115079
 30
0.0
 10
93.00006946639998
 20
152.4199098115079
 30
0.0
 10
89.85297266450198
 20
152.4199098115079
 30
0.0
 10
89.85297266450198
 20
152.4199098115079
 30
0.0
 10
89.85297266450198
 20
152.4199098115079
 30
0.0
 10
90.51270888515164
 20
154.9119212747295
 30
0.0
 10
90.51270888515164
 20
154.9119212747295
 30
0.0
 10
90.51270888515164
 20
154.9119212747295
 30
0.0
 10
93.6904670570955
 20
154.9119212747295
 30
0.0
 10
93.6904670570955
 20
154.9119212747295
 30
0.0
 10
93.6904670570955
 20
154.9119212747295
 30
0.0
 10
94.81598049462158
 20
158.3616699146644
 30
0.0
 10
94.81598049462158
 20
158.3616699146644
 30
0.0
 10
95.7237637538445
 20
161.2605474231013
 30
0.0
 10
96.4968436907311
 20
162.8139420021662
 30
0.0
 10
97.15657991138076
 20
163.9844139654337
 30
0.0
 10
97.81183750494507
 20
165.1523021053827
 30
0.0
 10
99.1047826935081
 20
166.3084769129547
 30
0.0
 10
100.4504378777679
 20
166.69157178364
 30
0.0
  0
HATCH
  5
3C0
330
3BD
100
AcDbEntity
  8
レイヤー 1
 62
   250
420
  2234388
100
AcDbHatch
 10
0.0
 20
0.0
 30
0.0
210
0.0
220
0.0
230
1.0
  2
SOLID
 70
     1
 71
     0
 91
        1
 92
        1
 93
        1
 72
     4
 94
        3
 73
     0
 74
     1
 95
       56
 96
       52
 40
0.0
 40
0.0
 40
0.0
 40
0.0
 40
1.0
 40
1.0
 40
1.0
 40
2.0
 40
2.0
 40
2.0
 40
3.0
 40
3.0
 40
3.0
 40
4.0
 40
4.0
 40
4.0
 40
5.0
 40
5.0
 40
5.0
 40
6.0
 40
6.0
 40
6.0
 40
7.0
 40
7.0
 40
7.0
 40
8.0
 40
8.0
 40
8.0
 40
9.0
 40
9.0
 40
9.0
 40
10.0
 40
10.0
 40
10.0
 40
11.0
 40
11.0
 40
11.0
 40
12.0
 40
12.0
 40
12.0
 40
13.0
 40
13.0
 40
13.0
 40
14.0
 40
14.0
 40
14.0
 40
15.0
 40
15.0
 40
15.0
 40
16.0
 40
16.0
 40
16.0
 40
17.0
 40
17.0
 40
17.0
 40
17.0
 10
100.4504378777679
 20
166.69157178364
 10
101.9848844191641
 20
167.1313385124438
 10
103.9637485713373
 20
166.7649523658846
 10
103.9637485713373
 20
166.7649523658846
 10
103.9637485713373
 20
166.7649523658846
 10
103.0132460999156
 20
163.911205638077
 10
103.0132460999156
 20
163.911205638077
 10
103.0132460999156
 20
163.911205638077
 10
101.0674548862189
 20
164.3601018759394
 10
99.57090442016032
 20
163.1805004036133
 10
98.40508333886608
 20
162.258247733807
 10
97.65301849830304
 20
159.804132345923
 10
97.3598406791005
 20
158.8699940888517
 10
97.3598406791005
 20
158.8699940888517
 10
96.07137411762282
 20
154.9119212747295
 10
96.07137411762282
 20
154.9119212747295
 10
96.07137411762282
 20
154.9119212747295
 10
100.3012651448482
 20
154.9119212747295
 10
100.3012651448482
 20
154.9119212747295
 10
100.3012651448482
 20
154.9119212747295
 10
99.64152892419852
 20
152.4199098115079
 10
99.64152892419852
 20
152.4199098115079
 10
99.64152892419852
 20
152.4199098115079
 10
95.38097652692731
 20
152.4199098115079
 10
95.38097652692731
 20
152.4199098115079
 10
95.38097652692731
 20
152.4199098115079
 10
87.75353009080013
 20
127.8027915271048
 10
87.75353009080013
 20
127.8027915271048
 10
87.75353009080013
 20
127.8027915271048
 10
85.36538832498108
 20
127.8027915271048
 10
85.36538832498108
 20
127.8027915271048
 10
85.36538832498108
 20
127.8027915271048
 10
93.00006946639998
 20
152.4199098115079
 10
93.00006946639998
 20
152.4199098115079
 10
93.00006946639998
 20
152.4199098115079
 10
89.85297266450198
 20
152.4199098115079
 10
89.85297266450198
 20
152.4199098115079
 10
89.85297266450198
 20
152.4199098115079
 10
90.51270888515164
 20
154.9119212747295
 10
90.51270888515164
 20
154.9119212747295
 10
90.51270888515164
 20
154.9119212747295
 10
93.6904670570955
 20
154.9119212747295
 10
93.6904670570955
 20
154.9119212747295
 10
93.6904670570955
 20
154.9119212747295
 10
94.81598049462158
 20
158.3616699146644
 10
94.81598049462158
 20
158.3616699146644
 10
95.7237637538445
 20
161.2605474231013
 10
96.4968436907311
 20
162.8139420021662
 10
97.15657991138076
 20
163.9844139654337
 10
97.81183750494507
 20
165.1523021053827
 10
99.1047826935081
 20
166.3084769129547
 10
100.4504378777679
 20
166.69157178364
 97
        0
 75
     2
 76
     1
 98
        0
  0
SPLINE
  5
3C1
330
3BD
100
AcDbEntity
  8
レイヤー 1
370
     0
100
AcDbSpline
210
0.0
220
0.0
230
1.0
 70
    11
 71
     3
 72
    38
 73
    34
 74
     0
 42
0.000000001
 43
0.0000000001
 40
0.0
 40
0.0
 40
0.0
 40
0.0
 40
1.0
 40
1.0
 40
1.0
 40
2.0
 40
2.0
 40
2.0
 40
3.0
 40
3.0
 40
3.0
 40
4.0
 40
4.0
 40
4.0
 40
5.0
 40
5.0
 40
5.0
 40
6.0
 40
6.0
 40
6.0
 40
7.0
 40
7.0
 40
7.0
 40
8.0
 40
8.0
 40
8.0
 40
9.0
 40
9.0
 40
9.0
 40
10.0
 40
10.0
 40
10.0
 40
11.0
 40
11.0
 40
11.0
 40
11.0
 10
126.377554584636
 20
154.8151140277308
 30
0.0
 10
126.377554584636
 20
154.8151140277308
 30
0.0
 10
128.8311532078563
 20
154.8151140277308
 30
0.0
 10
128.8311532078563
 20
154.8151140277308
 30
0.0
 10
128.8311532078563
 20
154.8151140277308
 30
0.0
 10
127.7345785914971
 20
151.3062819612468
 30
0.0
 10
127.7345785914971
 20
151.3062819612468
 30
0.0
 10
128.571392836906
 20
152.2922689395754
 30
0.0
 10
129.8860421413442
 20
153.604506675583
 30
0.0
 10
131.0163787157314
 20
154.2664822097754
 30
0.0
 10
132.7044766171327
 20
155.2500576196734
 30
0.0
 10
133.6642808525008
 20
155.3847609420097
 30
0.0
 10
134.7284715499351
 20
155.3565111403944
 30
0.0
 10
134.7284715499351
 20
155.3565111403944
 30
0.0
 10
133.6877075172549
 20
152.0345756272799
 30
0.0
 10
133.6877075172549
 20
152.0345756272799
 30
0.0
 10
133.011434827367
 20
152.3184516825359
 30
0.0
 10
130.930940291334
 20
151.7768823149844
 30
0.0
 10
129.739280976855
 20
150.9162968950455
 30
0.0
 10
128.66613302525
 20
150.1454562717016
 30
0.0
 10
127.9192358313239
 20
149.4857200510519
 30
0.0
 10
127.0393578639405
 20
147.8282835196966
 30
0.0
 10
126.164647543194
 20
146.1699857139017
 30
0.0
 10
125.4742499524985
 20
143.5262176944419
 30
0.0
 10
124.2822461282437
 20
139.6959580071401
 30
0.0
 10
124.2822461282437
 20
139.6959580071401
 30
0.0
 10
120.5753209406769
 20
127.8027915271048
 30
0.0
 10
120.5753209406769
 20
127.8027915271048
 30
0.0
 10
120.5753209406769
 20
127.8027915271048
 30
0.0
 10
118.1964809388044
 20
127.8027915271048
 30
0.0
 10
118.1964809388044
 20
127.8027915271048
 30
0.0
 10
118.1964809388044
 20
127.8027915271048
 30
0.0
 10
126.377554584636
 20
154.8151140277308
 30
0.0
 10
126.377554584636
 20
154.8151140277308
 30
0.0
  0
HATCH
  5
3C2
330
3BD
100
AcDbEntity
  8
レイヤー 1
 62
   250
420
  2234388
100
AcDbHatch
 10
0.0
 20
0.0
 30
0.0
210
0.0
220
0.0
230
1.0
  2
SOLID
 70
     1
 71
     0
 91
        1
 92
        1
 93
        1
 72
     4
 94
        3
 73
     0
 74
     1
 95
       38
 96
       34
 40
0.0
 40
0.0
 40
0.0
 40
0.0
 40
1.0
 40
1.0
 40
1.0
 40
2.0
 40
2.0
 40
2.0
 40
3.0
 40
3.0
 40
3.0
 40
4.0
 40
4.0
 40
4.0
 40
5.0
 40
5.0
 40
5.0
 40
6.0
 40
6.0
 40
6.0
 40
7.0
 40
7.0
 40
7.0
 40
8.0
 40
8.0
 40
8.0
 40
9.0
 40
9.0
 40
9.0
 40
10.0
 40
10.0
 40
10.0
 40
11.0
 40
11.0
 40
11.0
 40
11.0
 10
126.377554584636
 20
154.8151140277308
 10
126.377554584636
 20
154.8151140277308
 10
128.8311532078563
 20
154.8151140277308
 10
128.8311532078563
 20
154.8151140277308
 10
128.8311532078563
 20
154.8151140277308
 10
127.7345785914971
 20
151.3062819612468
 10
127.7345785914971
 20
151.3062819612468
 10
128.571392836906
 20
152.2922689395754
 10
129.8860421413442
 20
153.604506675583
 10
131.0163787157314
 20
154.2664822097754
 10
132.7044766171327
 20
155.2500576196734
 10
133.6642808525008
 20
155.3847609420097
 10
134.7284715499351
 20
155.3565111403944
 10
134.7284715499351
 20
155.3565111403944
 10
133.6877075172549
 20
152.0345756272799
 10
133.6877075172549
 20
152.0345756272799
 10
133.011434827367
 20
152.3184516825359
 10
130.930940291334
 20
151.7768823149844
 10
129.739280976855
 20
150.9162968950455
 10
128.66613302525
 20
150.1454562717016
 10
127.9192358313239
 20
149.4857200510519
 10
127.0393578639405
 20
147.8282835196966
 10
126.164647543194
 20
146.1699857139017
 10
125.4742499524985
 20
143.5262176944419
 10
124.2822461282437
 20
139.6959580071401
 10
124.2822461282437
 20
139.6959580071401
 10
120.5753209406769
 20
127.8027915271048
 10
120.5753209406769
 20
127.8027915271048
 10
120.5753209406769
 20
127.8027915271048
 10
118.1964809388044
 20
127.8027915271048
 10
118.1964809388044
 20
127.8027915271048
 10
118.1964809388044
 20
127.8027915271048
 10
126.377554584636
 20
154.8151140277308
 10
126.377554584636
 20
154.8151140277308
 97
        0
 75
     2
 76
     1
 98
        0
  0
SPLINE
  5
3C3
330
3BD
100
AcDbEntity
  8
レイヤー 1
370
     0
100
AcDbSpline
210
0.0
220
0.0
230
1.0
 70
    11
 71
     3
 72
   104
 73
   100
 74
     0
 42
0.000000001
 43
0.0000000001
 40
0.0
 40
0.0
 40
0.0
 40
0.0
 40
1.0
 40
1.0
 40
1.0
 40
2.0
 40
2.0
 40
2.0
 40
3.0
 40
3.0
 40
3.0
 40
4.0
 40
4.0
 40
4.0
 40
5.0
 40
5.0
 40
5.0
 40
6.0
 40
6.0
 40
6.0
 40
7.0
 40
7.0
 40
7.0
 40
8.0
 40
8.0
 40
8.0
 40
9.0
 40
9.0
 40
9.0
 40
10.0
 40
10.0
 40
10.0
 40
11.0
 40
11.0
 40
11.0
 40
12.0
 40
12.0
 40
12.0
 40
13.0
 40
13.0
 40
13.0
 40
14.0
 40
14.0
 40
14.0
 40
15.0
 40
15.0
 40
15.0
 40
16.0
 40
16.0
 40
16.0
 40
17.0
 40
17.0
 40
17.0
 40
18.0
 40
18.0
 40
18.0
 40
19.0
 40
19.0
 40
19.0
 40
20.0
 40
20.0
 40
20.0
 40
21.0
 40
21.0
 40
21.0
 40
22.0
 40
22.0
 40
22.0
 40
23.0
 40
23.0
 40
23.0
 40
24.0
 40
24.0
 40
24.0
 40
25.0
 40
25.0
 40
25.0
 40
26.0
 40
26.0
 40
26.0
 40
27.0
 40
27.0
 40
27.0
 40
28.0
 40
28.0
 40
28.0
 40
29.0
 40
29.0
 40
29.0
 40
30.0
 40
30.0
 40
30.0
 40
31.0
 40
31.0
 40
31.0
 40
32.0
 40
32.0
 40
32.0
 40
33.0
 40
33.0
 40
33.0
 40
33.0
 10
139.8926730891197
 20
154.8294111834263
 30
0.0
 10
139.8926730891197
 20
154.8294111834263
 30
0.0
 10
142.0344903652445
 20
154.8294111834263
 30
0.0
 10
142.0344903652445
 20
154.8294111834263
 30
0.0
 10
142.0344903652445
 20
154.8294111834263
 30
0.0
 10
140.9516961399171
 20
151.3157559800812
 30
0.0
 10
140.9516961399171
 20
151.3157559800812
 30
0.0
 10
141.8928968473923
 20
152.7887075264977
 30
0.0
 10
142.7341897198865
 20
153.4484437471474
 30
0.0
 10
143.8552245303272
 20
154.2926649527359
 30
0.0
 10
144.9803934580775
 20
155.1296514530327
 30
0.0
 10
146.3139908001845
 20
155.3044901642492
 30
0.0
 10
147.241066606852
 20
155.3044901642492
 30
0.0
 10
148.3855280820469
 20
155.3044901642492
 30
0.0
 10
149.4969166187653
 20
155.0752189084569
 30
0.0
 10
150.0784491203092
 20
153.8172414621372
 30
0.0
 10
150.5228667310863
 20
152.833838307127
 30
0.0
 10
150.5414702589793
 20
152.7201500811143
 30
0.0
 10
150.4140016419347
 20
150.7765981809602
 30
0.0
 10
151.5818897818837
 20
152.7699317437168
 30
0.0
 10
152.4424752018226
 20
153.6256940267945
 30
0.0
 10
153.9038856707499
 20
154.4507949398263
 30
0.0
 10
155.4455669174378
 20
155.3044901642492
 30
0.0
 10
156.339225275853
 20
155.3659851592288
 30
0.0
 10
157.3748216618963
 20
155.2147453676543
 30
0.0
 10
158.911679771723
 20
154.9877134254046
 30
0.0
 10
159.8859534176746
 20
154.4390816074493
 30
0.0
 10
160.3965169054045
 20
152.7816450760939
 30
0.0
 10
160.9070803931344
 20
151.1219692311958
 30
0.0
 10
160.6328506116007
 20
150.2303779314354
 30
0.0
 10
159.9992971339115
 20
147.597634224801
 30
0.0
 10
159.7105979417943
 20
146.4014962832367
 30
0.0
 10
159.2947746424084
 20
144.9400858143094
 30
0.0
 10
158.7463150793409
 20
143.2092687007094
 30
0.0
 10
158.7463150793409
 20
143.2092687007094
 30
0.0
 10
153.9038856707499
 20
127.8027915271048
 30
0.0
 10
153.9038856707499
 20
127.8027915271048
 30
0.0
 10
153.9038856707499
 20
127.8027915271048
 30
0.0
 10
151.3882752878863
 20
127.8027915271048
 30
0.0
 10
151.3882752878863
 20
127.8027915271048
 30
0.0
 10
151.3882752878863
 20
127.8027915271048
 30
0.0
 10
155.6250565106276
 20
141.2751908193897
 30
0.0
 10
155.6250565106276
 20
141.2751908193897
 30
0.0
 10
156.5094131050963
 20
144.0936252951782
 30
0.0
 10
157.109893644309
 20
146.1506931664571
 30
0.0
 10
157.4220195011804
 20
147.4415712963654
 30
0.0
 10
157.8095929989511
 20
149.0530157726519
 30
0.0
 10
157.9656559273867
 20
149.5826995529385
 30
0.0
 10
157.7816877071116
 20
150.7529992613181
 30
0.0
 10
157.6111553680925
 20
151.8430281919372
 30
0.0
 10
157.0582171779396
 20
152.5547853887321
 30
0.0
 10
156.1170164704645
 20
152.5547853887321
 30
0.0
 10
155.1096698860365
 20
152.5547853887321
 30
0.0
 10
154.2962823053817
 20
152.4412694176073
 30
0.0
 10
153.156643967048
 20
151.2945686288697
 30
0.0
 10
152.0170056287143
 20
150.1476955852443
 30
0.0
 10
151.076149431015
 20
148.7930831468137
 30
0.0
 10
150.3337308641742
 20
147.2290087646991
 30
0.0
 10
149.5957909244188
 20
145.6683794803425
 30
0.0
 10
148.8530278478023
 20
143.6822806228776
 30
0.0
 10
148.0964843801539
 20
141.2751908193897
 30
0.0
 10
148.0964843801539
 20
141.2751908193897
 30
0.0
 10
143.8552245303272
 20
127.8027915271048
 30
0.0
 10
143.8552245303272
 20
127.8027915271048
 30
0.0
 10
143.8552245303272
 20
127.8027915271048
 30
0.0
 10
141.486030802177
 20
127.8027915271048
 30
0.0
 10
141.486030802177
 20
127.8027915271048
 30
0.0
 10
141.486030802177
 20
127.8027915271048
 30
0.0
 10
146.3329388378533
 20
143.2092687007094
 30
0.0
 10
146.3329388378533
 20
143.2092687007094
 30
0.0
 10
146.8483254624444
 20
144.8408669988801
 30
0.0
 10
147.2314203331297
 20
146.1837661049335
 30
0.0
 10
147.4867020769946
 20
147.224185627838
 30
0.0
 10
147.9169947869641
 20
149.0197705792876
 30
0.0
 10
148.0306830129768
 20
150.2400242051577
 30
0.0
 10
147.709255392159
 20
151.3157559800812
 30
0.0
 10
147.3874832615654
 20
152.3916600098926
 30
0.0
 10
146.8245542879144
 20
152.6683013598569
 30
0.0
 10
145.8840425999909
 20
152.6683013598569
 30
0.0
 10
145.0989048209514
 20
152.6683013598569
 30
0.0
 10
144.3282364524954
 20
152.3275811915945
 30
0.0
 10
143.4531816219731
 20
151.6538923250251
 30
0.0
 10
142.34627171234
 20
150.8074318058939
 30
0.0
 10
141.901854101563
 20
150.1097995099067
 30
0.0
 10
141.3578731655808
 20
149.289521733736
 30
0.0
 10
140.6299240093235
 20
148.192602607601
 30
0.0
 10
140.2850697237515
 20
147.455696197173
 30
0.0
 10
139.6652966370942
 20
145.8385673095858
 30
0.0
 10
139.0506911970739
 20
144.2214384219986
 30
0.0
 10
138.463991048893
 20
142.3252566160164
 30
0.0
 10
138.0571250036777
 20
141.0154304484394
 30
0.0
 10
138.0571250036777
 20
141.0154304484394
 30
0.0
 10
133.9009590684727
 20
127.8027915271048
 30
0.0
 10
133.9009590684727
 20
127.8027915271048
 30
0.0
 10
133.9009590684727
 20
127.8027915271048
 30
0.0
 10
131.4180771143097
 20
127.8027915271048
 30
0.0
 10
131.4180771143097
 20
127.8027915271048
 30
0.0
 10
131.4180771143097
 20
127.8027915271048
 30
0.0
 10
139.8926730891197
 20
154.8294111834263
 30
0.0
 10
139.8926730891197
 20
154.8294111834263
 30
0.0
  0
HATCH
  5
3C4
330
3BD
100
AcDbEntity
  8
レイヤー 1
 62
   250
420
  2234388
100
AcDbHatch
 10
0.0
 20
0.0
 30
0.0
210
0.0
220
0.0
230
1.0
  2
SOLID
 70
     1
 71
     0
 91
        1
 92
        1
 93
        1
 72
     4
 94
        3
 73
     0
 74
     1
 95
      104
 96
      100
 40
0.0
 40
0.0
 40
0.0
 40
0.0
 40
1.0
 40
1.0
 40
1.0
 40
2.0
 40
2.0
 40
2.0
 40
3.0
 40
3.0
 40
3.0
 40
4.0
 40
4.0
 40
4.0
 40
5.0
 40
5.0
 40
5.0
 40
6.0
 40
6.0
 40
6.0
 40
7.0
 40
7.0
 40
7.0
 40
8.0
 40
8.0
 40
8.0
 40
9.0
 40
9.0
 40
9.0
 40
10.0
 40
10.0
 40
10.0
 40
11.0
 40
11.0
 40
11.0
 40
12.0
 40
12.0
 40
12.0
 40
13.0
 40
13.0
 40
13.0
 40
14.0
 40
14.0
 40
14.0
 40
15.0
 40
15.0
 40
15.0
 40
16.0
 40
16.0
 40
16.0
 40
17.0
 40
17.0
 40
17.0
 40
18.0
 40
18.0
 40
18.0
 40
19.0
 40
19.0
 40
19.0
 40
20.0
 40
20.0
 40
20.0
 40
21.0
 40
21.0
 40
21.0
 40
22.0
 40
22.0
 40
22.0
 40
23.0
 40
23.0
 40
23.0
 40
24.0
 40
24.0
 40
24.0
 40
25.0
 40
25.0
 40
25.0
 40
26.0
 40
26.0
 40
26.0
 40
27.0
 40
27.0
 40
27.0
 40
28.0
 40
28.0
 40
28.0
 40
29.0
 40
29.0
 40
29.0
 40
30.0
 40
30.0
 40
30.0
 40
31.0
 40
31.0
 40
31.0
 40
32.0
 40
32.0
 40
32.0
 40
33.0
 40
33.0
 40
33.0
 40
33.0
 10
139.8926730891197
 20
154.8294111834263
 10
139.8926730891197
 20
154.8294111834263
 10
142.0344903652445
 20
154.8294111834263
 10
142.0344903652445
 20
154.8294111834263
 10
142.0344903652445
 20
154.8294111834263
 10
140.9516961399171
 20
151.3157559800812
 10
140.9516961399171
 20
151.3157559800812
 10
141.8928968473923
 20
152.7887075264977
 10
142.7341897198865
 20
153.4484437471474
 10
143.8552245303272
 20
154.2926649527359
 10
144.9803934580775
 20
155.1296514530327
 10
146.3139908001845
 20
155.3044901642492
 10
147.241066606852
 20
155.3044901642492
 10
148.3855280820469
 20
155.3044901642492
 10
149.4969166187653
 20
155.0752189084569
 10
150.0784491203092
 20
153.8172414621372
 10
150.5228667310863
 20
152.833838307127
 10
150.5414702589793
 20
152.7201500811143
 10
150.4140016419347
 20
150.7765981809602
 10
151.5818897818837
 20
152.7699317437168
 10
152.4424752018226
 20
153.6256940267945
 10
153.9038856707499
 20
154.4507949398263
 10
155.4455669174378
 20
155.3044901642492
 10
156.339225275853
 20
155.3659851592288
 10
157.3748216618963
 20
155.2147453676543
 10
158.911679771723
 20
154.9877134254046
 10
159.8859534176746
 20
154.4390816074493
 10
160.3965169054045
 20
152.7816450760939
 10
160.9070803931344
 20
151.1219692311958
 10
160.6328506116007
 20
150.2303779314354
 10
159.9992971339115
 20
147.597634224801
 10
159.7105979417943
 20
146.4014962832367
 10
159.2947746424084
 20
144.9400858143094
 10
158.7463150793409
 20
143.2092687007094
 10
158.7463150793409
 20
143.2092687007094
 10
153.9038856707499
 20
127.8027915271048
 10
153.9038856707499
 20
127.8027915271048
 10
153.9038856707499
 20
127.8027915271048
 10
151.3882752878863
 20
127.8027915271048
 10
151.3882752878863
 20
127.8027915271048
 10
151.3882752878863
 20
127.8027915271048
 10
155.6250565106276
 20
141.2751908193897
 10
155.6250565106276
 20
141.2751908193897
 10
156.5094131050963
 20
144.0936252951782
 10
157.109893644309
 20
146.1506931664571
 10
157.4220195011804
 20
147.4415712963654
 10
157.8095929989511
 20
149.0530157726519
 10
157.9656559273867
 20
149.5826995529385
 10
157.7816877071116
 20
150.7529992613181
 10
157.6111553680925
 20
151.8430281919372
 10
157.0582171779396
 20
152.5547853887321
 10
156.1170164704645
 20
152.5547853887321
 10
155.1096698860365
 20
152.5547853887321
 10
154.2962823053817
 20
152.4412694176073
 10
153.156643967048
 20
151.2945686288697
 10
152.0170056287143
 20
150.1476955852443
 10
151.076149431015
 20
148.7930831468137
 10
150.3337308641742
 20
147.2290087646991
 10
149.5957909244188
 20
145.6683794803425
 10
148.8530278478023
 20
143.6822806228776
 10
148.0964843801539
 20
141.2751908193897
 10
148.0964843801539
 20
141.2751908193897
 10
143.8552245303272
 20
127.8027915271048
 10
143.8552245303272
 20
127.8027915271048
 10
143.8552245303272
 20
127.8027915271048
 10
141.486030802177
 20
127.8027915271048
 10
141.486030802177
 20
127.8027915271048
 10
141.486030802177
 20
127.8027915271048
 10
146.3329388378533
 20
143.2092687007094
 10
146.3329388378533
 20
143.2092687007094
 10
146.8483254624444
 20
144.8408669988801
 10
147.2314203331297
 20
146.1837661049335
 10
147.4867020769946
 20
147.224185627838
 10
147.9169947869641
 20
149.0197705792876
 10
148.0306830129768
 20
150.2400242051577
 10
147.709255392159
 20
151.3157559800812
 10
147.3874832615654
 20
152.3916600098926
 10
146.8245542879144
 20
152.6683013598569
 10
145.8840425999909
 20
152.6683013598569
 10
145.0989048209514
 20
152.6683013598569
 10
144.3282364524954
 20
152.3275811915945
 10
143.4531816219731
 20
151.6538923250251
 10
142.34627171234
 20
150.8074318058939
 10
141.901854101563
 20
150.1097995099067
 10
141.3578731655808
 20
149.289521733736
 10
140.6299240093235
 20
148.192602607601
 10
140.2850697237515
 20
147.455696197173
 10
139.6652966370942
 20
145.8385673095858
 10
139.0506911970739
 20
144.2214384219986
 10
138.463991048893
 20
142.3252566160164
 10
138.0571250036777
 20
141.0154304484394
 10
138.0571250036777
 20
141.0154304484394
 10
133.9009590684727
 20
127.8027915271048
 10
133.9009590684727
 20
127.8027915271048
 10
133.9009590684727
 20
127.8027915271048
 10
131.4180771143097
 20
127.8027915271048
 10
131.4180771143097
 20
127.8027915271048
 10
131.4180771143097
 20
127.8027915271048
 10
139.8926730891197
 20
154.8294111834263
 10
139.8926730891197
 20
154.8294111834263
 97
        0
 75
     2
 76
     1
 98
        0
  0
SPLINE
  5
3C5
330
3BD
100
AcDbEntity
  8
レイヤー 1
370
     0
100
AcDbSpline
210
0.0
220
0.0
230
1.0
 70
    11
 71
     3
 72
    29
 73
    25
 74
     0
 42
0.000000001
 43
0.0000000001
 40
0.0
 40
0.0
 40
0.0
 40
0.0
 40
1.0
 40
1.0
 40
1.0
 40
2.0
 40
2.0
 40
2.0
 40
3.0
 40
3.0
 40
3.0
 40
4.0
 40
4.0
 40
4.0
 40
5.0
 40
5.0
 40
5.0
 40
6.0
 40
6.0
 40
6.0
 40
7.0
 40
7.0
 40
7.0
 40
8.0
 40
8.0
 40
8.0
 40
8.0
 10
101.6420971922469
 20
132.8388354296931
 30
0.0
 10
101.630039350094
 20
134.7164137077823
 30
0.0
 10
102.2236296937908
 20
138.0598810818841
 30
0.0
 10
103.7487744712405
 20
142.5378191476827
 30
0.0
 10
105.819967243327
 20
148.5896501242061
 30
0.0
 10
107.0602024361932
 20
150.8074318058939
 30
0.0
 10
108.1522984254671
 20
151.8833358357054
 30
0.0
 10
109.741177511439
 20
153.4532668840085
 30
0.0
 10
111.8740375333931
 20
153.5290590346837
 30
0.0
 10
112.5075910110823
 20
153.4532668840085
 30
0.0
 10
113.4012493694975
 20
153.3490526768302
 30
0.0
 10
114.6683563248758
 20
152.7580461564518
 30
0.0
 10
114.7493161221879
 20
150.7838328862519
 30
0.0
 10
114.8106388622796
 20
149.0909118479895
 30
0.0
 10
114.3186789024427
 20
145.9191825971221
 30
0.0
 10
112.6164561002338
 20
140.9489400617108
 30
0.0
 10
110.6444821435766
 20
135.1746117095912
 30
0.0
 10
109.4669477299053
 20
132.8960240524753
 30
0.0
 10
108.5212683953448
 20
131.9072809959403
 30
0.0
 10
106.7346406980658
 20
130.0538184021569
 30
0.0
 10
104.8222669326213
 20
130.2336525051225
 30
0.0
 10
104.5408024457958
 20
130.2336525051225
 30
0.0
 10
104.1721769856939
 20
130.2336525051225
 30
0.0
 10
101.6465758193322
 20
130.6305277668397
 30
0.0
 10
101.6420971922469
 20
132.8388354296931
 30
0.0
  0
SPLINE
  5
3C6
330
3BD
100
AcDbEntity
  8
レイヤー 1
370
     0
100
AcDbSpline
210
0.0
220
0.0
230
1.0
 70
    11
 71
     3
 72
    32
 73
    28
 74
     0
 42
0.000000001
 43
0.0000000001
 40
0.0
 40
0.0
 40
0.0
 40
0.0
 40
1.0
 40
1.0
 40
1.0
 40
2.0
 40
2.0
 40
2.0
 40
3.0
 40
3.0
 40
3.0
 40
4.0
 40
4.0
 40
4.0
 40
5.0
 40
5.0
 40
5.0
 40
6.0
 40
6.0
 40
6.0
 40
7.0
 40
7.0
 40
7.0
 40
8.0
 40
8.0
 40
8.0
 40
9.0
 40
9.0
 40
9.0
 40
9.0
 10
106.2595617172429
 20
153.4105476718098
 30
0.0
 10
104.8222669326213
 20
151.5474388043041
 30
0.0
 10
103.7177685914188
 20
149.8758773721411
 30
0.0
 10
101.9232171692965
 20
144.6141795664062
 30
0.0
 10
100.2754269116635
 20
139.7999999594306
 30
0.0
 10
99.22777268346732
 20
136.3052927937542
 30
0.0
 10
99.06964269637689
 20
132.039572749846
 30
0.0
 10
98.94665270641765
 20
128.8673267343149
 30
0.0
 10
100.8807305877373
 20
127.8027915271048
 30
0.0
 10
103.7129454545577
 20
127.8027915271048
 30
0.0
 10
104.9352661390825
 20
127.8027915271048
 30
0.0
 10
108.0151835347002
 20
127.8827177950895
 30
0.0
 10
110.2045431598849
 20
130.5926316915021
 30
0.0
 10
111.7417457794874
 20
132.4984597712065
 30
0.0
 10
113.155269389579
 20
134.475256864725
 30
0.0
 10
115.0562743324223
 20
140.9489400617108
 30
0.0
 10
116.6361961642235
 20
146.3680788349845
 30
0.0
 10
117.7282921534974
 20
149.8639917848761
 30
0.0
 10
117.6480213757369
 20
151.8595646611754
 30
0.0
 10
117.6480213757369
 20
151.8595646611754
 30
0.0
 10
117.6480213757369
 20
151.8595646611754
 30
0.0
 10
117.6480213757369
 20
151.8595646611754
 30
0.0
 10
117.13229024137
 20
155.18150017429
 30
0.0
 10
114.7162431837115
 20
155.886194920681
 30
0.0
 10
113.3351034925446
 20
155.886194920681
 30
0.0
 10
111.9829026225447
 20
155.886194920681
 30
0.0
 10
108.3414342923792
 20
156.1251124501957
 30
0.0
 10
106.2595617172429
 20
153.4105476718098
 30
0.0
  0
HATCH
  5
3C7
330
3BD
100
AcDbEntity
  8
レイヤー 1
 62
   250
420
  2234388
100
AcDbHatch
 10
0.0
 20
0.0
 30
0.0
210
0.0
220
0.0
230
1.0
  2
SOLID
 70
     1
 71
     0
 91
        2
 92
        1
 93
        1
 72
     4
 94
        3
 73
     0
 74
     1
 95
       29
 96
       25
 40
0.0
 40
0.0
 40
0.0
 40
0.0
 40
1.0
 40
1.0
 40
1.0
 40
2.0
 40
2.0
 40
2.0
 40
3.0
 40
3.0
 40
3.0
 40
4.0
 40
4.0
 40
4.0
 40
5.0
 40
5.0
 40
5.0
 40
6.0
 40
6.0
 40
6.0
 40
7.0
 40
7.0
 40
7.0
 40
8.0
 40
8.0
 40
8.0
 40
8.0
 10
101.6420971922469
 20
132.8388354296931
 10
101.630039350094
 20
134.7164137077823
 10
102.2236296937908
 20
138.0598810818841
 10
103.7487744712405
 20
142.5378191476827
 10
105.819967243327
 20
148.5896501242061
 10
107.0602024361932
 20
150.8074318058939
 10
108.1522984254671
 20
151.8833358357054
 10
109.741177511439
 20
153.4532668840085
 10
111.8740375333931
 20
153.5290590346837
 10
112.5075910110823
 20
153.4532668840085
 10
113.4012493694975
 20
153.3490526768302
 10
114.6683563248758
 20
152.7580461564518
 10
114.7493161221879
 20
150.7838328862519
 10
114.8106388622796
 20
149.0909118479895
 10
114.3186789024427
 20
145.9191825971221
 10
112.6164561002338
 20
140.9489400617108
 10
110.6444821435766
 20
135.1746117095912
 10
109.4669477299053
 20
132.8960240524753
 10
108.5212683953448
 20
131.9072809959403
 10
106.7346406980658
 20
130.0538184021569
 10
104.8222669326213
 20
130.2336525051225
 10
104.5408024457958
 20
130.2336525051225
 10
104.1721769856939
 20
130.2336525051225
 10
101.6465758193322
 20
130.6305277668397
 10
101.6420971922469
 20
132.8388354296931
 97
        0
 92
        1
 93
        1
 72
     4
 94
        3
 73
     0
 74
     1
 95
       32
 96
       28
 40
0.0
 40
0.0
 40
0.0
 40
0.0
 40
1.0
 40
1.0
 40
1.0
 40
2.0
 40
2.0
 40
2.0
 40
3.0
 40
3.0
 40
3.0
 40
4.0
 40
4.0
 40
4.0
 40
5.0
 40
5.0
 40
5.0
 40
6.0
 40
6.0
 40
6.0
 40
7.0
 40
7.0
 40
7.0
 40
8.0
 40
8.0
 40
8.0
 40
9.0
 40
9.0
 40
9.0
 40
9.0
 10
106.2595617172429
 20
153.4105476718098
 10
104.8222669326213
 20
151.5474388043041
 10
103.7177685914188
 20
149.8758773721411
 10
101.9232171692965
 20
144.6141795664062
 10
100.2754269116635
 20
139.7999999594306
 10
99.22777268346732
 20
136.3052927937542
 10
99.06964269637689
 20
132.039572749846
 10
98.94665270641765
 20
128.8673267343149
 10
100.8807305877373
 20
127.8027915271048
 10
103.7129454545577
 20
127.8027915271048
 10
104.9352661390825
 20
127.8027915271048
 10
108.0151835347002
 20
127.8827177950895
 10
110.2045431598849
 20
130.5926316915021
 10
111.7417457794874
 20
132.4984597712065
 10
113.155269389579
 20
134.475256864725
 10
115.0562743324223
 20
140.9489400617108
 10
116.6361961642235
 20
146.3680788349845
 10
117.7282921534974
 20
149.8639917848761
 10
117.6480213757369
 20
151.8595646611754
 10
117.6480213757369
 20
151.8595646611754
 10
117.6480213757369
 20
151.8595646611754
 10
117.6480213757369
 20
151.8595646611754
 10
117.13229024137
 20
155.18150017429
 10
114.7162431837115
 20
155.886194920681
 10
113.3351034925446
 20
155.886194920681
 10
111.9829026225447
 20
155.886194920681
 10
108.3414342923792
 20
156.1251124501957
 10
106.2595617172429
 20
153.4105476718098
 97
        0
 75
     2
 76
     1
 98
        0
  0
ENDBLK
  5
3C8
330
3BD
100
AcDbEntity
  8
0
100
AcDbBlockEnd
  0
BLOCK
  5
11F1
330
11F0
100
AcDbEntity
  8
0
100
AcDbBlockBegin
  2
BLOCK_2
 70
     0
 10
0.0
 20
0.0
 30
0.0
  3
BLOCK_2
  1
BLOCK_2
  0
ENDBLK
  5
11F2
330
11F0
100
AcDbEntity
  8
0
100
AcDbBlockEnd
  0
BLOCK
  5
38B7
330
38B6
100
AcDbEntity
  8
0
100
AcDbBlockBegin
  2
mobile_latù
 70
     0
 10
0.0
 20
0.0
 30
0.0
  3
mobile_latù
  1
mobile_latù
  0
ENDBLK
  5
38B8
330
38B6
100
AcDbEntity
  8
0
100
AcDbBlockEnd
  0
BLOCK
  5
436C
330
436B
100
AcDbEntity
  8
0
100
AcDbBlockBegin
  2
.TD_SECTION_1
 70
     0
 10
225818116096.0
 20
0.0
 30
0.0
  3
.TD_SECTION_1
  1
.TD_SECTION_1
  0
ENDBLK
  5
436D
330
436B
100
AcDbEntity
  8
0
100
AcDbBlockEnd
  0
BLOCK
  5
4370
330
436F
100
AcDbEntity
  8
0
100
AcDbBlockBegin
  2
.TD_SECTION_2
 70
     0
 10
225818181632.0
 20
0.0
 30
0.0
  3
.TD_SECTION_2
  1
.TD_SECTION_2
  0
ENDBLK
  5
4371
330
436F
100
AcDbEntity
  8
0
100
AcDbBlockEnd
  0
BLOCK
  5
740B
330
740A
100
AcDbEntity
  8
0
100
AcDbBlockBegin
  2
*D10
 70
     1
 10
0.0
 20
0.0
 30
0.0
  3
*D10
  1

  0
LINE
  5
740D
330
740A
100
AcDbEntity
  8
Dim
 62
     0
370
    -2
100
AcDbLine
 10
363.3875131701811
 20
2475.42890580639
 30
0.0
 11
363.3875131701811
 21
2521.86687265439
 31
0.0
  0
LINE
  5
740E
330
740A
100
AcDbEntity
  8
Dim
 62
     0
370
    -2
100
AcDbLine
 10
902.5688664903146
 20
2326.94051105439
 30
0.0
 11
902.5688664903146
 21
2521.86687265439
 31
0.0
  0
LINE
  5
740F
330
740A
100
AcDbEntity
  8
Dim
 62
     0
370
    -2
100
AcDbLine
 10
373.3869028186186
 20
2521.86687265439
 30
0.0
 11
892.5694768418771
 21
2521.86687265439
 31
0.0
  0
INSERT
  5
7410
330
740A
100
AcDbEntity
  8
Dim
 62
     0
370
    -2
100
AcDbBlockReference
  2
_DOT
 10
363.3875131701811
 20
2521.86687265439
 30
0.0
 41
9.999389648437498
 42
9.999389648437498
 43
9.999389648437498
 50
180.0
  0
INSERT
  5
7411
330
740A
100
AcDbEntity
  8
Dim
 62
     0
370
    -2
100
AcDbBlockReference
  2
_DOT
 10
902.5688664903146
 20
2521.86687265439
 30
0.0
 41
9.999389648437498
 42
9.999389648437498
 43
9.999389648437498
  0
MTEXT
  5
7412
330
740A
100
AcDbEntity
  8
Dim
 62
     0
100
AcDbMText
 10
632.9781898302479
 20
2544.08318124814
 30
0.0
 40
24.4326171875
 41
0.0
 46
0.0
 71
     5
 72
     1
  1
\A1;540
  7
ＭＳ ゴシック
 73
     1
 44
1.0
  0
POINT
  5
7413
330
740A
100
AcDbEntity
  8
Defpoints
 62
     0
100
AcDbPoint
 10
363.3875131701811
 20
2450.42890580639
 30
0.0
  0
POINT
  5
7414
330
740A
100
AcDbEntity
  8
Defpoints
 62
     0
100
AcDbPoint
 10
902.5688664903146
 20
2301.94051105439
 30
0.0
  0
POINT
  5
7415
330
740A
100
AcDbEntity
  8
Defpoints
 62
     0
100
AcDbPoint
 10
902.5688664903146
 20
2521.86687265439
 30
0.0
  0
ENDBLK
  5
740C
330
740A
100
AcDbEntity
  8
0
100
AcDbBlockEnd
  0
BLOCK
  5
7418
330
7417
100
AcDbEntity
  8
0
100
AcDbBlockBegin
  2
*D11
 70
     1
 10
0.0
 20
0.0
 30
0.0
  3
*D11
  1

  0
LINE
  5
741A
330
7417
100
AcDbEntity
  8
Dim
 62
     0
370
    -2
100
AcDbLine
 10
335.5150362732961
 20
2439.398312107352
 30
0.0
 11
240.5434504703999
 21
2439.398312107352
 31
0.0
  0
LINE
  5
741B
330
7417
100
AcDbEntity
  8
Dim
 62
     0
370
    -2
100
AcDbLine
 10
335.5150362732961
 20
2089.398312107351
 30
0.0
 11
240.5434504703999
 21
2089.398312107351
 31
0.0
  0
LINE
  5
741C
330
7417
100
AcDbEntity
  8
Dim
 62
     0
370
    -2
100
AcDbLine
 10
240.5434504703999
 20
2429.398922458914
 30
0.0
 11
240.5434504703999
 21
2099.397701755788
 31
0.0
  0
INSERT
  5
741D
330
7417
100
AcDbEntity
  8
Dim
 62
     0
370
    -2
100
AcDbBlockReference
  2
_DOT
 10
240.5434504703999
 20
2439.398312107352
 30
0.0
 41
9.999389648437498
 42
9.999389648437498
 43
9.999389648437498
 50
90.0
  0
INSERT
  5
741E
330
7417
100
AcDbEntity
  8
Dim
 62
     0
370
    -2
100
AcDbBlockReference
  2
_DOT
 10
240.5434504703999
 20
2089.398312107351
 30
0.0
 41
9.999389648437498
 42
9.999389648437498
 43
9.999389648437498
 50
270.0
  0
MTEXT
  5
741F
330
7417
100
AcDbEntity
  8
Dim
 62
     0
100
AcDbMText
 10
218.3271418766499
 20
2264.398312107351
 30
0.0
 40
24.4326171875
 41
0.0
 46
0.0
 71
     5
 72
     1
  1
\A1;350
  7
ＭＳ ゴシック
 11
8.120488408686838E-17
 21
1.0
 31
0.0
 73
     1
 44
1.0
  0
POINT
  5
7420
330
7417
100
AcDbEntity
  8
Defpoints
 62
     0
100
AcDbPoint
 10
360.5150362732961
 20
2439.398312107352
 30
0.0
  0
POINT
  5
7421
330
7417
100
AcDbEntity
  8
Defpoints
 62
     0
100
AcDbPoint
 10
360.5150362732961
 20
2089.398312107351
 30
0.0
  0
POINT
  5
7422
330
7417
100
AcDbEntity
  8
Defpoints
 62
     0
100
AcDbPoint
 10
240.5434504703999
 20
2089.398312107351
 30
0.0
  0
ENDBLK
  5
7419
330
7417
100
AcDbEntity
  8
0
100
AcDbBlockEnd
  0
BLOCK
  5
7532
330
7531
100
AcDbEntity
  8
0
100
AcDbBlockBegin
  2
*D12
 70
     1
 10
0.0
 20
0.0
 30
0.0
  3
*D12
  1

  0
LINE
  5
7534
330
7531
100
AcDbEntity
  8
Dim
 62
     0
370
    -2
100
AcDbLine
 10
363.387656928327
 20
1407.227405068983
 30
0.0
 11
363.387656928327
 21
1331.533623438547
 31
0.0
  0
LINE
  5
7535
330
7531
100
AcDbEntity
  8
Dim
 62
     0
370
    -2
100
AcDbLine
 10
459.3266437228253
 20
1365.43173038988
 30
0.0
 11
459.3266437228253
 21
1331.533623438547
 31
0.0
  0
LINE
  5
7536
330
7531
100
AcDbEntity
  8
Dim
 62
     0
370
    -2
100
AcDbLine
 10
373.3870465767645
 20
1331.533623438547
 30
0.0
 11
449.3272540743878
 21
1331.533623438547
 31
0.0
  0
INSERT
  5
7537
330
7531
100
AcDbEntity
  8
Dim
 62
     0
370
    -2
100
AcDbBlockReference
  2
_DOT
 10
363.387656928327
 20
1331.533623438547
 30
0.0
 41
9.999389648437498
 42
9.999389648437498
 43
9.999389648437498
 50
180.0
  0
INSERT
  5
7538
330
7531
100
AcDbEntity
  8
Dim
 62
     0
370
    -2
100
AcDbBlockReference
  2
_DOT
 10
459.3266437228253
 20
1331.533623438547
 30
0.0
 41
9.999389648437498
 42
9.999389648437498
 43
9.999389648437498
  0
MTEXT
  5
7539
330
7531
100
AcDbEntity
  8
Dim
 62
     0
100
AcDbMText
 10
411.3571503255762
 20
1353.749932032297
 30
0.0
 40
24.4326171875
 41
0.0
 46
0.0
 71
     5
 72
     1
  1
\A1;105
  7
ＭＳ ゴシック
 73
     1
 44
1.0
  0
POINT
  5
753A
330
7531
100
AcDbEntity
  8
Defpoints
 62
     0
100
AcDbPoint
 10
363.387656928327
 20
1432.227405068983
 30
0.0
  0
POINT
  5
753B
330
7531
100
AcDbEntity
  8
Defpoints
 62
     0
100
AcDbPoint
 10
459.3266437228253
 20
1390.43173038988
 30
0.0
  0
POINT
  5
753C
330
7531
100
AcDbEntity
  8
Defpoints
 62
     0
100
AcDbPoint
 10
459.3266437228253
 20
1331.533623438547
 30
0.0
  0
ENDBLK
  5
7533
330
7531
100
AcDbEntity
  8
0
100
AcDbBlockEnd
  0
BLOCK
  5
753E
330
753D
100
AcDbEntity
  8
0
100
AcDbBlockBegin
  2
*D13
 70
     1
 10
0.0
 20
0.0
 30
0.0
  3
*D13
  1

  0
LINE
  5
7540
330
753D
100
AcDbEntity
  8
Dim
 62
     0
370
    -2
100
AcDbLine
 10
338.387656928327
 20
1820.438938104096
 30
0.0
 11
301.1747900552377
 21
1820.438938104096
 31
0.0
  0
LINE
  5
7541
330
753D
100
AcDbEntity
  8
Dim
 62
     0
370
    -2
100
AcDbLine
 10
338.387656928327
 20
1765.438938104096
 30
0.0
 11
301.1747900552377
 21
1765.438938104096
 31
0.0
  0
LINE
  5
7542
330
753D
100
AcDbEntity
  8
Dim
 62
     0
370
    -2
100
AcDbLine
 10
301.1747900552377
 20
1810.439548455658
 30
0.0
 11
301.1747900552377
 21
1775.438327752533
 31
0.0
  0
INSERT
  5
7543
330
753D
100
AcDbEntity
  8
Dim
 62
     0
370
    -2
100
AcDbBlockReference
  2
_DOT
 10
301.1747900552377
 20
1820.438938104096
 30
0.0
 41
9.999389648437498
 42
9.999389648437498
 43
9.999389648437498
 50
90.0
  0
INSERT
  5
7544
330
753D
100
AcDbEntity
  8
Dim
 62
     0
370
    -2
100
AcDbBlockReference
  2
_DOT
 10
301.1747900552377
 20
1765.438938104096
 30
0.0
 41
9.999389648437498
 42
9.999389648437498
 43
9.999389648437498
 50
270.0
  0
MTEXT
  5
7545
330
753D
100
AcDbEntity
  8
Dim
 62
     0
100
AcDbMText
 10
278.9584814614877
 20
1792.938938104096
 30
0.0
 40
24.4326171875
 41
0.0
 46
0.0
 71
     5
 72
     1
  1
\A1;55
  7
ＭＳ ゴシック
 11
0.0
 21
1.0
 31
0.0
 73
     1
 44
1.0
  0
POINT
  5
7546
330
753D
100
AcDbEntity
  8
Defpoints
 62
     0
100
AcDbPoint
 10
363.387656928327
 20
1820.438938104096
 30
0.0
  0
POINT
  5
7547
330
753D
100
AcDbEntity
  8
Defpoints
 62
     0
100
AcDbPoint
 10
363.387656928327
 20
1765.438938104096
 30
0.0
  0
POINT
  5
7548
330
753D
100
AcDbEntity
  8
Defpoints
 62
     0
100
AcDbPoint
 10
301.1747900552377
 20
1765.438938104096
 30
0.0
  0
ENDBLK
  5
753F
330
753D
100
AcDbEntity
  8
0
100
AcDbBlockEnd
  0
BLOCK
  5
754A
330
7549
100
AcDbEntity
  8
0
100
AcDbBlockBegin
  2
*D14
 70
     1
 10
0.0
 20
0.0
 30
0.0
  3
*D14
  1

  0
LINE
  5
754C
330
7549
100
AcDbEntity
  8
Dim
 62
     0
370
    -2
100
AcDbLine
 10
338.387656928327
 20
1663.929044707942
 30
0.0
 11
301.1747900552377
 21
1663.929044707942
 31
0.0
  0
LINE
  5
754D
330
7549
100
AcDbEntity
  8
Dim
 62
     0
370
    -2
100
AcDbLine
 10
338.387656928327
 20
1563.929044707942
 30
0.0
 11
301.1747900552377
 21
1563.929044707942
 31
0.0
  0
LINE
  5
754E
330
7549
100
AcDbEntity
  8
Dim
 62
     0
370
    -2
100
AcDbLine
 10
301.1747900552377
 20
1653.929655059504
 30
0.0
 11
301.1747900552377
 21
1573.928434356379
 31
0.0
  0
INSERT
  5
754F
330
7549
100
AcDbEntity
  8
Dim
 62
     0
370
    -2
100
AcDbBlockReference
  2
_DOT
 10
301.1747900552377
 20
1663.929044707942
 30
0.0
 41
9.999389648437498
 42
9.999389648437498
 43
9.999389648437498
 50
90.0
  0
INSERT
  5
7550
330
7549
100
AcDbEntity
  8
Dim
 62
     0
370
    -2
100
AcDbBlockReference
  2
_DOT
 10
301.1747900552377
 20
1563.929044707942
 30
0.0
 41
9.999389648437498
 42
9.999389648437498
 43
9.999389648437498
 50
270.0
  0
MTEXT
  5
7551
330
7549
100
AcDbEntity
  8
Dim
 62
     0
100
AcDbMText
 10
278.9584814614877
 20
1613.929044707942
 30
0.0
 40
24.4326171875
 41
0.0
 46
0.0
 71
     5
 72
     1
  1
\A1;100
  7
ＭＳ ゴシック
 11
0.0
 21
1.0
 31
0.0
 73
     1
 44
1.0
  0
POINT
  5
7552
330
7549
100
AcDbEntity
  8
Defpoints
 62
     0
100
AcDbPoint
 10
363.387656928327
 20
1663.929044707942
 30
0.0
  0
POINT
  5
7553
330
7549
100
AcDbEntity
  8
Defpoints
 62
     0
100
AcDbPoint
 10
363.387656928327
 20
1563.929044707942
 30
0.0
  0
POINT
  5
7554
330
7549
100
AcDbEntity
  8
Defpoints
 62
     0
100
AcDbPoint
 10
301.1747900552377
 20
1563.929044707942
 30
0.0
  0
ENDBLK
  5
754B
330
7549
100
AcDbEntity
  8
0
100
AcDbBlockEnd
  0
BLOCK
  5
7591
330
7590
100
AcDbEntity
  8
0
100
AcDbBlockBegin
  2
*D15
 70
     1
 10
0.0
 20
0.0
 30
0.0
  3
*D15
  1

  0
LINE
  5
7593
330
7590
100
AcDbEntity
  8
Dim
 62
     0
370
    -2
100
AcDbLine
 10
845.8401562351023
 20
859.4182029203541
 30
0.0
 11
897.2269078038721
 21
859.4182029203541
 31
0.0
  0
LINE
  5
7594
330
7590
100
AcDbEntity
  8
Dim
 62
     0
370
    -2
100
AcDbLine
 10
845.8401562351023
 20
873.05352619875
 30
0.0
 11
897.2269078038721
 21
873.05352619875
 31
0.0
  0
LINE
  5
7595
330
7590
100
AcDbEntity
  8
Dim
 62
     0
370
    -2
100
AcDbLine
 10
897.2269078038721
 20
873.05352619875
 30
0.0
 11
897.2269078038721
 21
1003.355258620625
 31
0.0
  0
LINE
  5
7596
330
7590
100
AcDbEntity
  8
Dim
 62
     0
370
    -2
100
AcDbLine
 10
897.2269078038721
 20
869.4175925687916
 30
0.0
 11
897.2269078038721
 21
863.0541365503125
 31
0.0
  0
LINE
  5
7597
330
7590
100
AcDbEntity
  8
Dim
 62
     0
370
    -2
100
AcDbLine
 10
897.2269078038721
 20
863.0541365503125
 30
0.0
 11
897.2269078038721
 21
853.054746901875
 31
0.0
  0
INSERT
  5
7598
330
7590
100
AcDbEntity
  8
Dim
 62
     0
370
    -2
100
AcDbBlockReference
  2
_DOT
 10
897.2269078038721
 20
859.4182029203541
 30
0.0
 41
9.999389648437498
 42
9.999389648437498
 43
9.999389648437498
 50
270.0
  0
INSERT
  5
7599
330
7590
100
AcDbEntity
  8
Dim
 62
     0
370
    -2
100
AcDbBlockReference
  2
_DOT
 10
897.2269078038721
 20
873.05352619875
 30
0.0
 41
9.999389648437498
 42
9.999389648437498
 43
9.999389648437498
 50
90.0
  0
MTEXT
  5
759A
330
7590
100
AcDbEntity
  8
Dim
 62
     0
100
AcDbMText
 10
875.0105992101221
 20
948.2037820581252
 30
0.0
 40
24.4326171875
 41
0.0
 46
0.0
 71
     5
 72
     1
  1
\A1;10～15
  7
ＭＳ ゴシック
 11
0.0
 21
1.0
 31
0.0
 73
     1
 44
1.0
  0
POINT
  5
759B
330
7590
100
AcDbEntity
  8
Defpoints
 62
     0
100
AcDbPoint
 10
820.8401562351023
 20
859.4182029203541
 30
0.0
  0
POINT
  5
759C
330
7590
100
AcDbEntity
  8
Defpoints
 62
     0
100
AcDbPoint
 10
820.8401562351023
 20
873.05352619875
 30
0.0
  0
POINT
  5
759D
330
7590
100
AcDbEntity
  8
Defpoints
 62
     0
100
AcDbPoint
 10
897.2269078038721
 20
873.05352619875
 30
0.0
  0
ENDBLK
  5
7592
330
7590
100
AcDbEntity
  8
0
100
AcDbBlockEnd
  0
BLOCK
  5
764B
330
764A
100
AcDbEntity
  8
0
100
AcDbBlockBegin
  2
*D16
 70
     1
 10
0.0
 20
0.0
 30
0.0
  3
*D16
  1

  0
LINE
  5
764D
330
764A
100
AcDbEntity
  8
Dim
 62
     0
370
    -2
100
AcDbLine
 10
912.1931256810017
 20
1432.2279073533
 30
0.0
 11
1015.998343010962
 21
1432.2279073533
 31
0.0
  0
LINE
  5
764E
330
764A
100
AcDbEntity
  8
Dim
 62
     0
370
    -2
100
AcDbLine
 10
912.1931256810017
 20
1842.2279073533
 30
0.0
 11
1015.998343010962
 21
1842.2279073533
 31
0.0
  0
LINE
  5
764F
330
764A
100
AcDbEntity
  8
Dim
 62
     0
370
    -2
100
AcDbLine
 10
1015.998343010962
 20
1442.227297001738
 30
0.0
 11
1015.998343010962
 21
1832.228517704863
 31
0.0
  0
INSERT
  5
7650
330
764A
100
AcDbEntity
  8
Dim
 62
     0
370
    -2
100
AcDbBlockReference
  2
_DOT
 10
1015.998343010962
 20
1432.2279073533
 30
0.0
 41
9.999389648437498
 42
9.999389648437498
 43
9.999389648437498
 50
270.0
  0
INSERT
  5
7651
330
764A
100
AcDbEntity
  8
Dim
 62
     0
370
    -2
100
AcDbBlockReference
  2
_DOT
 10
1015.998343010962
 20
1842.2279073533
 30
0.0
 41
9.999389648437498
 42
9.999389648437498
 43
9.999389648437498
 50
90.0
  0
MTEXT
  5
7652
330
764A
100
AcDbEntity
  8
Dim
 62
     0
100
AcDbMText
 10
993.7820344172119
 20
1637.2279073533
 30
0.0
 40
24.4326171875
 41
0.0
 46
0.0
 71
     5
 72
     1
  1
\A1;410
  7
ＭＳ ゴシック
 11
0.0
 21
1.0
 31
0.0
 73
     1
 44
1.0
  0
POINT
  5
7653
330
764A
100
AcDbEntity
  8
Defpoints
 62
     0
100
AcDbPoint
 10
887.1931256810017
 20
1432.2279073533
 30
0.0
  0
POINT
  5
7654
330
764A
100
AcDbEntity
  8
Defpoints
 62
     0
100
AcDbPoint
 10
887.1931256810017
 20
1842.2279073533
 30
0.0
  0
POINT
  5
7655
330
764A
100
AcDbEntity
  8
Defpoints
 62
     0
100
AcDbPoint
 10
1015.998343010962
 20
1842.2279073533
 30
0.0
  0
ENDBLK
  5
764C
330
764A
100
AcDbEntity
  8
0
100
AcDbBlockEnd
  0
BLOCK
  5
765A
330
7659
100
AcDbEntity
  8
0
100
AcDbBlockBegin
  2
*D17
 70
     1
 10
0.0
 20
0.0
 30
0.0
  3
*D17
  1

  0
LINE
  5
765C
330
7659
100
AcDbEntity
  8
Dim
 62
     0
370
    -2
100
AcDbLine
 10
435.6374380319253
 20
2374.398312108556
 30
0.0
 11
310.0766124509623
 21
2374.398312108556
 31
0.0
  0
LINE
  5
765D
330
7659
100
AcDbEntity
  8
Dim
 62
     0
370
    -2
100
AcDbLine
 10
435.6374380319253
 20
2154.398312108556
 30
0.0
 11
310.0766124509623
 21
2154.398312108556
 31
0.0
  0
LINE
  5
765E
330
7659
100
AcDbEntity
  8
Dim
 62
     0
370
    -2
100
AcDbLine
 10
310.0766124509623
 20
2364.398922460119
 30
0.0
 11
310.0766124509623
 21
2164.397701756994
 31
0.0
  0
INSERT
  5
765F
330
7659
100
AcDbEntity
  8
Dim
 62
     0
370
    -2
100
AcDbBlockReference
  2
_DOT
 10
310.0766124509623
 20
2374.398312108556
 30
0.0
 41
9.999389648437498
 42
9.999389648437498
 43
9.999389648437498
 50
90.0
  0
INSERT
  5
7660
330
7659
100
AcDbEntity
  8
Dim
 62
     0
370
    -2
100
AcDbBlockReference
  2
_DOT
 10
310.0766124509623
 20
2154.398312108556
 30
0.0
 41
9.999389648437498
 42
9.999389648437498
 43
9.999389648437498
 50
270.0
  0
MTEXT
  5
7661
330
7659
100
AcDbEntity
  8
Dim
 62
     0
100
AcDbMText
 10
287.8603038572123
 20
2264.398312108556
 30
0.0
 40
24.4326171875
 41
0.0
 46
0.0
 71
     5
 72
     1
  1
\A1;220
  7
ＭＳ ゴシック
 11
0.0
 21
1.0
 31
0.0
 73
     1
 44
1.0
  0
POINT
  5
7662
330
7659
100
AcDbEntity
  8
Defpoints
 62
     0
100
AcDbPoint
 10
460.6374380319253
 20
2374.398312108556
 30
0.0
  0
POINT
  5
7663
330
7659
100
AcDbEntity
  8
Defpoints
 62
     0
100
AcDbPoint
 10
460.6374380319253
 20
2154.398312108556
 30
0.0
  0
POINT
  5
7664
330
7659
100
AcDbEntity
  8
Defpoints
 62
     0
100
AcDbPoint
 10
310.0766124509623
 20
2154.398312108556
 30
0.0
  0
ENDBLK
  5
765B
330
7659
100
AcDbEntity
  8
0
100
AcDbBlockEnd
  0
BLOCK
  5
76B7
330
76B6
100
AcDbEntity
  8
0
100
AcDbBlockBegin
  2
*D18
 70
     1
 10
0.0
 20
0.0
 30
0.0
  3
*D18
  1

  0
LINE
  5
76B9
330
76B6
100
AcDbEntity
  8
Dim
 62
     0
370
    -2
100
AcDbLine
 10
1724.05660579622
 20
1432.2279073533
 30
0.0
 11
1813.07025930925
 21
1432.2279073533
 31
0.0
  0
LINE
  5
76BA
330
76B6
100
AcDbEntity
  8
Dim
 62
     0
370
    -2
100
AcDbLine
 10
1769.674659004376
 20
1855.901841710558
 30
0.0
 11
1813.07025930925
 21
1855.901841710558
 31
0.0
  0
LINE
  5
76BB
330
76B6
100
AcDbEntity
  8
Dim
 62
     0
370
    -2
100
AcDbLine
 10
1813.07025930925
 20
1442.227297001738
 30
0.0
 11
1813.07025930925
 21
1845.902452062121
 31
0.0
  0
INSERT
  5
76BC
330
76B6
100
AcDbEntity
  8
Dim
 62
     0
370
    -2
100
AcDbBlockReference
  2
_DOT
 10
1813.07025930925
 20
1432.2279073533
 30
0.0
 41
9.999389648437498
 42
9.999389648437498
 43
9.999389648437498
 50
270.0
  0
INSERT
  5
76BD
330
76B6
100
AcDbEntity
  8
Dim
 62
     0
370
    -2
100
AcDbBlockReference
  2
_DOT
 10
1813.07025930925
 20
1855.901841710558
 30
0.0
 41
9.999389648437498
 42
9.999389648437498
 43
9.999389648437498
 50
90.0
  0
MTEXT
  5
76BE
330
76B6
100
AcDbEntity
  8
Dim
 62
     0
100
AcDbMText
 10
1790.8539507155
 20
1644.064874531929
 30
0.0
 40
24.4326171875
 41
0.0
 46
0.0
 71
     5
 72
     1
  1
\A1;424
  7
ＭＳ ゴシック
 11
0.0
 21
1.0
 31
0.0
 73
     1
 44
1.0
  0
POINT
  5
76BF
330
76B6
100
AcDbEntity
  8
Defpoints
 62
     0
100
AcDbPoint
 10
1699.05660579622
 20
1432.2279073533
 30
0.0
  0
POINT
  5
76C0
330
76B6
100
AcDbEntity
  8
Defpoints
 62
     0
100
AcDbPoint
 10
1744.674659004376
 20
1855.901841710558
 30
0.0
  0
POINT
  5
76C1
330
76B6
100
AcDbEntity
  8
Defpoints
 62
     0
100
AcDbPoint
 10
1813.07025930925
 20
1855.901841710558
 30
0.0
  0
ENDBLK
  5
76B8
330
76B6
100
AcDbEntity
  8
0
100
AcDbBlockEnd
  0
BLOCK
  5
76C3
330
76C2
100
AcDbEntity
  8
0
100
AcDbBlockBegin
  2
*D19
 70
     1
 10
0.0
 20
0.0
 30
0.0
  3
*D19
  1

  0
LINE
  5
76C5
330
76C2
100
AcDbEntity
  8
Dim
 62
     0
370
    -2
100
AcDbLine
 10
1724.05660579622
 20
1432.2279073533
 30
0.0
 11
1880.45175306925
 21
1432.2279073533
 31
0.0
  0
LINE
  5
76C6
330
76C2
100
AcDbEntity
  8
Dim
 62
     0
370
    -2
100
AcDbLine
 10
1766.531832120566
 20
1872.2279073533
 30
0.0
 11
1880.45175306925
 21
1872.2279073533
 31
0.0
  0
LINE
  5
76C7
330
76C2
100
AcDbEntity
  8
Dim
 62
     0
370
    -2
100
AcDbLine
 10
1880.45175306925
 20
1442.227297001738
 30
0.0
 11
1880.45175306925
 21
1862.228517704863
 31
0.0
  0
INSERT
  5
76C8
330
76C2
100
AcDbEntity
  8
Dim
 62
     0
370
    -2
100
AcDbBlockReference
  2
_DOT
 10
1880.45175306925
 20
1432.2279073533
 30
0.0
 41
9.999389648437498
 42
9.999389648437498
 43
9.999389648437498
 50
270.0
  0
INSERT
  5
76C9
330
76C2
100
AcDbEntity
  8
Dim
 62
     0
370
    -2
100
AcDbBlockReference
  2
_DOT
 10
1880.45175306925
 20
1872.2279073533
 30
0.0
 41
9.999389648437498
 42
9.999389648437498
 43
9.999389648437498
 50
90.0
  0
MTEXT
  5
76CA
330
76C2
100
AcDbEntity
  8
Dim
 62
     0
100
AcDbMText
 10
1858.2354444755
 20
1652.2279073533
 30
0.0
 40
24.4326171875
 41
0.0
 46
0.0
 71
     5
 72
     1
  1
\A1;440
  7
ＭＳ ゴシック
 11
0.0
 21
1.0
 31
0.0
 73
     1
 44
1.0
  0
POINT
  5
76CB
330
76C2
100
AcDbEntity
  8
Defpoints
 62
     0
100
AcDbPoint
 10
1699.05660579622
 20
1432.2279073533
 30
0.0
  0
POINT
  5
76CC
330
76C2
100
AcDbEntity
  8
Defpoints
 62
     0
100
AcDbPoint
 10
1741.531832120566
 20
1872.2279073533
 30
0.0
  0
POINT
  5
76CD
330
76C2
100
AcDbEntity
  8
Defpoints
 62
     0
100
AcDbPoint
 10
1880.45175306925
 20
1872.2279073533
 30
0.0
  0
ENDBLK
  5
76C4
330
76C2
100
AcDbEntity
  8
0
100
AcDbBlockEnd
  0
BLOCK
  5
76CF
330
76CE
100
AcDbEntity
  8
0
100
AcDbBlockBegin
  2
*D20
 70
     1
 10
0.0
 20
0.0
 30
0.0
  3
*D20
  1

  0
LINE
  5
76D1
330
76CE
100
AcDbEntity
  8
Dim
 62
     0
370
    -2
100
AcDbLine
 10
1378.559553169444
 20
1613.2538680281
 30
0.0
 11
1304.021176969848
 21
1613.2538680281
 31
0.0
  0
LINE
  5
76D2
330
76CE
100
AcDbEntity
  8
Dim
 62
     0
370
    -2
100
AcDbLine
 10
1420.811633681855
 20
1432.2279073533
 30
0.0
 11
1304.021176969848
 21
1432.2279073533
 31
0.0
  0
LINE
  5
76D3
330
76CE
100
AcDbEntity
  8
Dim
 62
     0
370
    -2
100
AcDbLine
 10
1304.021176969848
 20
1603.254478379663
 30
0.0
 11
1304.021176969848
 21
1442.227297001738
 31
0.0
  0
INSERT
  5
76D4
330
76CE
100
AcDbEntity
  8
Dim
 62
     0
370
    -2
100
AcDbBlockReference
  2
_DOT
 10
1304.021176969848
 20
1613.2538680281
 30
0.0
 41
9.999389648437498
 42
9.999389648437498
 43
9.999389648437498
 50
90.0
  0
INSERT
  5
76D5
330
76CE
100
AcDbEntity
  8
Dim
 62
     0
370
    -2
100
AcDbBlockReference
  2
_DOT
 10
1304.021176969848
 20
1432.2279073533
 30
0.0
 41
9.999389648437498
 42
9.999389648437498
 43
9.999389648437498
 50
270.0
  0
MTEXT
  5
76D6
330
76CE
100
AcDbEntity
  8
Dim
 62
     0
100
AcDbMText
 10
1281.804868376098
 20
1522.7408876907
 30
0.0
 40
24.4326171875
 41
0.0
 46
0.0
 71
     5
 72
     1
  1
\A1;180
  7
ＭＳ ゴシック
 11
0.0
 21
1.0
 31
0.0
 73
     1
 44
1.0
  0
POINT
  5
76D7
330
76CE
100
AcDbEntity
  8
Defpoints
 62
     0
100
AcDbPoint
 10
1403.559553169444
 20
1613.2538680281
 30
0.0
  0
POINT
  5
76D8
330
76CE
100
AcDbEntity
  8
Defpoints
 62
     0
100
AcDbPoint
 10
1445.811633681855
 20
1432.2279073533
 30
0.0
  0
POINT
  5
76D9
330
76CE
100
AcDbEntity
  8
Defpoints
 62
     0
100
AcDbPoint
 10
1304.021176969848
 20
1432.2279073533
 30
0.0
  0
ENDBLK
  5
76D0
330
76CE
100
AcDbEntity
  8
0
100
AcDbBlockEnd
  0
BLOCK
  5
76DB
330
76DA
100
AcDbEntity
  8
0
100
AcDbBlockBegin
  2
*D21
 70
     1
 10
0.0
 20
0.0
 30
0.0
  3
*D21
  1

  0
LINE
  5
76DD
330
76DA
100
AcDbEntity
  8
Dim
 62
     0
370
    -2
100
AcDbLine
 10
1378.559553169444
 20
1613.2538680281
 30
0.0
 11
1304.021176969848
 21
1613.2538680281
 31
0.0
  0
LINE
  5
76DE
330
76DA
100
AcDbEntity
  8
Dim
 62
     0
370
    -2
100
AcDbLine
 10
1367.91645250354
 20
1792.938938104096
 30
0.0
 11
1304.021176969848
 21
1792.938938104096
 31
0.0
  0
LINE
  5
76DF
330
76DA
100
AcDbEntity
  8
Dim
 62
     0
370
    -2
100
AcDbLine
 10
1304.021176969848
 20
1623.253257676538
 30
0.0
 11
1304.021176969848
 21
1782.939548455658
 31
0.0
  0
INSERT
  5
76E0
330
76DA
100
AcDbEntity
  8
Dim
 62
     0
370
    -2
100
AcDbBlockReference
  2
_DOT
 10
1304.021176969848
 20
1613.2538680281
 30
0.0
 41
9.999389648437498
 42
9.999389648437498
 43
9.999389648437498
 50
270.0
  0
INSERT
  5
76E1
330
76DA
100
AcDbEntity
  8
Dim
 62
     0
370
    -2
100
AcDbBlockReference
  2
_DOT
 10
1304.021176969848
 20
1792.938938104096
 30
0.0
 41
9.999389648437498
 42
9.999389648437498
 43
9.999389648437498
 50
90.0
  0
MTEXT
  5
76E2
330
76DA
100
AcDbEntity
  8
Dim
 62
     0
100
AcDbMText
 10
1281.804868376098
 20
1703.096403066098
 30
0.0
 40
24.4326171875
 41
0.0
 46
0.0
 71
     5
 72
     1
  1
\A1;180
  7
ＭＳ ゴシック
 11
0.0
 21
1.0
 31
0.0
 73
     1
 44
1.0
  0
POINT
  5
76E3
330
76DA
100
AcDbEntity
  8
Defpoints
 62
     0
100
AcDbPoint
 10
1403.559553169444
 20
1613.2538680281
 30
0.0
  0
POINT
  5
76E4
330
76DA
100
AcDbEntity
  8
Defpoints
 62
     0
100
AcDbPoint
 10
1392.91645250354
 20
1792.938938104096
 30
0.0
  0
POINT
  5
76E5
330
76DA
100
AcDbEntity
  8
Defpoints
 62
     0
100
AcDbPoint
 10
1304.021176969848
 20
1792.938938104096
 30
0.0
  0
ENDBLK
  5
76DC
330
76DA
100
AcDbEntity
  8
0
100
AcDbBlockEnd
  0
BLOCK
  5
76E7
330
76E6
100
AcDbEntity
  8
0
100
AcDbBlockBegin
  2
*D22
 70
     1
 10
0.0
 20
0.0
 30
0.0
  3
*D22
  1

  0
LINE
  5
76E9
330
76E6
100
AcDbEntity
  8
Dim
 62
     0
370
    -2
100
AcDbLine
 10
1342.91645250354
 20
1792.938938104096
 30
0.0
 11
1304.021176969848
 21
1792.938938104096
 31
0.0
  0
LINE
  5
76EA
330
76E6
100
AcDbEntity
  8
Dim
 62
     0
370
    -2
100
AcDbLine
 10
1357.943862966978
 20
1857.938938104096
 30
0.0
 11
1304.021176969848
 21
1857.938938104096
 31
0.0
  0
LINE
  5
76EB
330
76E6
100
AcDbEntity
  8
Dim
 62
     0
370
    -2
100
AcDbLine
 10
1304.021176969848
 20
1802.938327752533
 30
0.0
 11
1304.021176969848
 21
1847.939548455658
 31
0.0
  0
INSERT
  5
76EC
330
76E6
100
AcDbEntity
  8
Dim
 62
     0
370
    -2
100
AcDbBlockReference
  2
_DOT
 10
1304.021176969848
 20
1792.938938104096
 30
0.0
 41
9.999389648437498
 42
9.999389648437498
 43
9.999389648437498
 50
270.0
  0
INSERT
  5
76ED
330
76E6
100
AcDbEntity
  8
Dim
 62
     0
370
    -2
100
AcDbBlockReference
  2
_DOT
 10
1304.021176969848
 20
1857.938938104096
 30
0.0
 41
9.999389648437498
 42
9.999389648437498
 43
9.999389648437498
 50
90.0
  0
MTEXT
  5
76EE
330
76E6
100
AcDbEntity
  8
Dim
 62
     0
100
AcDbMText
 10
1281.804868376098
 20
1825.438938104096
 30
0.0
 40
24.4326171875
 41
0.0
 46
0.0
 71
     5
 72
     1
  1
\A1;65
  7
ＭＳ ゴシック
 11
0.0
 21
1.0
 31
0.0
 73
     1
 44
1.0
  0
POINT
  5
76EF
330
76E6
100
AcDbEntity
  8
Defpoints
 62
     0
100
AcDbPoint
 10
1367.91645250354
 20
1792.938938104096
 30
0.0
  0
POINT
  5
76F0
330
76E6
100
AcDbEntity
  8
Defpoints
 62
     0
100
AcDbPoint
 10
1382.943862966978
 20
1857.938938104096
 30
0.0
  0
POINT
  5
76F1
330
76E6
100
AcDbEntity
  8
Defpoints
 62
     0
100
AcDbPoint
 10
1304.021176969848
 20
1857.938938104096
 30
0.0
  0
ENDBLK
  5
76E8
330
76E6
100
AcDbEntity
  8
0
100
AcDbBlockEnd
  0
BLOCK
  5
7938
330
7937
100
AcDbEntity
  8
0
100
AcDbBlockBegin
  2
*D24
 70
     1
 10
0.0
 20
0.0
 30
0.0
  3
*D24
  1

  0
LINE
  5
793A
330
7937
100
AcDbEntity
  8
Dim
 62
     0
370
    -2
100
AcDbLine
 10
3154.897144689905
 20
1907.717717100588
 30
0.0
 11
3305.479947744061
 21
1907.717717100588
 31
0.0
  0
LINE
  5
793B
330
7937
100
AcDbEntity
  8
Dim
 62
     0
370
    -2
100
AcDbLine
 10
3154.897144689905
 20
1484.301422256063
 30
0.0
 11
3305.479947744061
 21
1484.301422256063
 31
0.0
  0
LINE
  5
793C
330
7937
100
AcDbEntity
  8
Dim
 62
     0
370
    -2
100
AcDbLine
 10
3305.479947744061
 20
1897.71832745215
 30
0.0
 11
3305.479947744061
 21
1494.300811904501
 31
0.0
  0
INSERT
  5
793D
330
7937
100
AcDbEntity
  8
Dim
 62
     0
370
    -2
100
AcDbBlockReference
  2
_DOT
 10
3305.479947744061
 20
1907.717717100588
 30
0.0
 41
9.999389648437498
 42
9.999389648437498
 43
9.999389648437498
 50
90.0
  0
INSERT
  5
793E
330
7937
100
AcDbEntity
  8
Dim
 62
     0
370
    -2
100
AcDbBlockReference
  2
_DOT
 10
3305.479947744061
 20
1484.301422256063
 30
0.0
 41
9.999389648437498
 42
9.999389648437498
 43
9.999389648437498
 50
270.0
  0
MTEXT
  5
793F
330
7937
100
AcDbEntity
  8
Dim
 62
     0
100
AcDbMText
 10
3283.263639150311
 20
1696.009569678326
 30
0.0
 40
24.4326171875
 41
0.0
 46
0.0
 71
     5
 72
     1
  1
\A1;423
  7
ＭＳ ゴシック
 11
0.0
 21
1.0
 31
0.0
 73
     1
 44
1.0
  0
POINT
  5
7940
330
7937
100
AcDbEntity
  8
Defpoints
 62
     0
100
AcDbPoint
 10
3129.897144689905
 20
1907.717717100588
 30
0.0
  0
POINT
  5
7941
330
7937
100
AcDbEntity
  8
Defpoints
 62
     0
100
AcDbPoint
 10
3129.897144689905
 20
1484.301422256063
 30
0.0
  0
POINT
  5
7942
330
7937
100
AcDbEntity
  8
Defpoints
 62
     0
100
AcDbPoint
 10
3305.479947744061
 20
1484.301422256063
 30
0.0
  0
ENDBLK
  5
7939
330
7937
100
AcDbEntity
  8
0
100
AcDbBlockEnd
  0
BLOCK
  5
7947
330
7946
100
AcDbEntity
  8
0
100
AcDbBlockBegin
  2
*D25
 70
     1
 10
0.0
 20
0.0
 30
0.0
  3
*D25
  1

  0
LINE
  5
7949
330
7946
100
AcDbEntity
  8
Dim
 62
     0
370
    -2
100
AcDbLine
 10
2524.776282607449
 20
1612.28356947472
 30
0.0
 11
2346.659808454614
 21
1612.28356947472
 31
0.0
  0
LINE
  5
794A
330
7946
100
AcDbEntity
  8
Dim
 62
     0
370
    -2
100
AcDbLine
 10
2524.776282607449
 20
1712.283569471319
 30
0.0
 11
2346.659808454614
 21
1712.283569471319
 31
0.0
  0
LINE
  5
794B
330
7946
100
AcDbEntity
  8
Dim
 62
     0
370
    -2
100
AcDbLine
 10
2346.659808454614
 20
1622.282959123157
 30
0.0
 11
2346.659808454614
 21
1702.284179822882
 31
0.0
  0
INSERT
  5
794C
330
7946
100
AcDbEntity
  8
Dim
 62
     0
370
    -2
100
AcDbBlockReference
  2
_DOT
 10
2346.659808454614
 20
1612.28356947472
 30
0.0
 41
9.999389648437498
 42
9.999389648437498
 43
9.999389648437498
 50
270.0
  0
INSERT
  5
794D
330
7946
100
AcDbEntity
  8
Dim
 62
     0
370
    -2
100
AcDbBlockReference
  2
_DOT
 10
2346.659808454614
 20
1712.283569471319
 30
0.0
 41
9.999389648437498
 42
9.999389648437498
 43
9.999389648437498
 50
90.0
  0
MTEXT
  5
794E
330
7946
100
AcDbEntity
  8
Dim
 62
     0
100
AcDbMText
 10
2324.443499860864
 20
1662.283569473019
 30
0.0
 40
24.4326171875
 41
0.0
 46
0.0
 71
     5
 72
     1
  1
\A1;100
  7
ＭＳ ゴシック
 11
0.0
 21
1.0
 31
0.0
 73
     1
 44
1.0
  0
POINT
  5
794F
330
7946
100
AcDbEntity
  8
Defpoints
 62
     0
100
AcDbPoint
 10
2549.776282607449
 20
1612.28356947472
 30
0.0
  0
POINT
  5
7950
330
7946
100
AcDbEntity
  8
Defpoints
 62
     0
100
AcDbPoint
 10
2549.776282607449
 20
1712.283569471319
 30
0.0
  0
POINT
  5
7951
330
7946
100
AcDbEntity
  8
Defpoints
 62
     0
100
AcDbPoint
 10
2346.659808454614
 20
1712.283569471319
 30
0.0
  0
ENDBLK
  5
7948
330
7946
100
AcDbEntity
  8
0
100
AcDbBlockEnd
  0
BLOCK
  5
7958
330
7957
100
AcDbEntity
  8
0
100
AcDbBlockBegin
  2
*D26
 70
     1
 10
0.0
 20
0.0
 30
0.0
  3
*D26
  1

  0
LINE
  5
795A
330
7957
100
AcDbEntity
  8
Dim
 62
     0
370
    -2
100
AcDbLine
 10
710.2388971966561
 20
2127.748360419598
 30
0.0
 11
959.1749671279908
 21
2127.748360419598
 31
0.0
  0
LINE
  5
795B
330
7957
100
AcDbEntity
  8
Dim
 62
     0
370
    -2
100
AcDbLine
 10
698.0456469845617
 20
1752.914036458852
 30
0.0
 11
959.1749671279908
 21
1752.914036458852
 31
0.0
  0
LINE
  5
795C
330
7957
100
AcDbEntity
  8
Dim
 62
     0
370
    -2
100
AcDbLine
 10
959.1749671279908
 20
2117.74897077116
 30
0.0
 11
959.1749671279908
 21
1762.91342610729
 31
0.0
  0
INSERT
  5
795D
330
7957
100
AcDbEntity
  8
Dim
 62
     0
370
    -2
100
AcDbBlockReference
  2
_DOT
 10
959.1749671279908
 20
2127.748360419598
 30
0.0
 41
9.999389648437498
 42
9.999389648437498
 43
9.999389648437498
 50
90.0
  0
INSERT
  5
795E
330
7957
100
AcDbEntity
  8
Dim
 62
     0
370
    -2
100
AcDbBlockReference
  2
_DOT
 10
959.1749671279908
 20
1752.914036458852
 30
0.0
 41
9.999389648437498
 42
9.999389648437498
 43
9.999389648437498
 50
270.0
  0
MTEXT
  5
795F
330
7957
100
AcDbEntity
  8
Dim
 62
     0
100
AcDbMText
 10
936.9586585342408
 20
1940.331198439225
 30
0.0
 40
24.4326171875
 41
0.0
 46
0.0
 71
     5
 72
     1
  1
\A1;375
  7
ＭＳ ゴシック
 11
0.0
 21
1.0
 31
0.0
 73
     1
 44
1.0
  0
POINT
  5
7960
330
7957
100
AcDbEntity
  8
Defpoints
 62
     0
100
AcDbPoint
 10
685.2388971966561
 20
2127.748360419598
 30
0.0
  0
POINT
  5
7961
330
7957
100
AcDbEntity
  8
Defpoints
 62
     0
100
AcDbPoint
 10
673.0456469845617
 20
1752.914036458852
 30
0.0
  0
POINT
  5
7962
330
7957
100
AcDbEntity
  8
Defpoints
 62
     0
100
AcDbPoint
 10
959.1749671279908
 20
1752.914036458852
 30
0.0
  0
ENDBLK
  5
7959
330
7957
100
AcDbEntity
  8
0
100
AcDbBlockEnd
  0
BLOCK
  5
7967
330
7966
100
AcDbEntity
  8
0
100
AcDbBlockBegin
  2
*D27
 70
     1
 10
0.0
 20
0.0
 30
0.0
  3
*D27
  1

  0
LINE
  5
7969
330
7966
100
AcDbEntity
  8
Dim
 62
     0
370
    -2
100
AcDbLine
 10
2768.167392972668
 20
1323.020897980812
 30
0.0
 11
2768.167392972668
 21
1239.393670491307
 31
0.0
  0
LINE
  5
796A
330
7966
100
AcDbEntity
  8
Dim
 62
     0
370
    -2
100
AcDbLine
 10
2583.102147368527
 20
1306.789243298472
 30
0.0
 11
2583.102147368527
 21
1239.393670491307
 31
0.0
  0
LINE
  5
796B
330
7966
100
AcDbEntity
  8
Dim
 62
     0
370
    -2
100
AcDbLine
 10
2758.16800332423
 20
1239.393670491307
 30
0.0
 11
2593.101537016965
 21
1239.393670491307
 31
0.0
  0
INSERT
  5
796C
330
7966
100
AcDbEntity
  8
Dim
 62
     0
370
    -2
100
AcDbBlockReference
  2
_DOT
 10
2768.167392972668
 20
1239.393670491307
 30
0.0
 41
9.999389648437498
 42
9.999389648437498
 43
9.999389648437498
  0
INSERT
  5
796D
330
7966
100
AcDbEntity
  8
Dim
 62
     0
370
    -2
100
AcDbBlockReference
  2
_DOT
 10
2583.102147368527
 20
1239.393670491307
 30
0.0
 41
9.999389648437498
 42
9.999389648437498
 43
9.999389648437498
 50
180.0
  0
MTEXT
  5
796E
330
7966
100
AcDbEntity
  8
Dim
 62
     0
100
AcDbMText
 10
2675.634770170597
 20
1261.609979085057
 30
0.0
 40
24.4326171875
 41
0.0
 46
0.0
 71
     5
 72
     1
  1
\A1;185
  7
ＭＳ ゴシック
 73
     1
 44
1.0
  0
POINT
  5
796F
330
7966
100
AcDbEntity
  8
Defpoints
 62
     0
100
AcDbPoint
 10
2768.167392972668
 20
1348.020897980812
 30
0.0
  0
POINT
  5
7970
330
7966
100
AcDbEntity
  8
Defpoints
 62
     0
100
AcDbPoint
 10
2583.102147368527
 20
1331.789243298472
 30
0.0
  0
POINT
  5
7971
330
7966
100
AcDbEntity
  8
Defpoints
 62
     0
100
AcDbPoint
 10
2583.102147368527
 20
1239.393670491307
 30
0.0
  0
ENDBLK
  5
7968
330
7966
100
AcDbEntity
  8
0
100
AcDbBlockEnd
  0
BLOCK
  5
7976
330
7975
100
AcDbEntity
  8
0
100
AcDbBlockBegin
  2
*D28
 70
     1
 10
0.0
 20
0.0
 30
0.0
  3
*D28
  1

  0
LINE
  5
7978
330
7975
100
AcDbEntity
  8
Dim
 62
     0
370
    -2
100
AcDbLine
 10
3163.103172149816
 20
1901.9262558077
 30
0.0
 11
3141.306556843019
 21
1901.9262558077
 31
0.0
  0
LINE
  5
7979
330
7975
100
AcDbEntity
  8
Dim
 62
     0
370
    -2
100
AcDbLine
 10
3163.103172149816
 20
1482.086124647555
 30
0.0
 11
3141.306556843019
 21
1482.086124647555
 31
0.0
  0
LINE
  5
797A
330
7975
100
AcDbEntity
  8
Dim
 62
     0
370
    -2
100
AcDbLine
 10
3141.306556843019
 20
1891.926866159263
 30
0.0
 11
3141.306556843019
 21
1492.085514295992
 31
0.0
  0
INSERT
  5
797B
330
7975
100
AcDbEntity
  8
Dim
 62
     0
370
    -2
100
AcDbBlockReference
  2
_DOT
 10
3141.306556843019
 20
1901.9262558077
 30
0.0
 41
9.999389648437498
 42
9.999389648437498
 43
9.999389648437498
 50
90.0
  0
INSERT
  5
797C
330
7975
100
AcDbEntity
  8
Dim
 62
     0
370
    -2
100
AcDbBlockReference
  2
_DOT
 10
3141.306556843019
 20
1482.086124647555
 30
0.0
 41
9.999389648437498
 42
9.999389648437498
 43
9.999389648437498
 50
270.0
  0
MTEXT
  5
797D
330
7975
100
AcDbEntity
  8
Dim
 62
     0
100
AcDbMText
 10
3119.090248249269
 20
1692.006190227627
 30
0.0
 40
24.4326171875
 41
0.0
 46
0.0
 71
     5
 72
     1
  1
\A1;420
  7
ＭＳ ゴシック
 11
0.0
 21
1.0
 31
0.0
 73
     1
 44
1.0
  0
POINT
  5
797E
330
7975
100
AcDbEntity
  8
Defpoints
 62
     0
100
AcDbPoint
 10
3138.103172149816
 20
1901.9262558077
 30
0.0
  0
POINT
  5
797F
330
7975
100
AcDbEntity
  8
Defpoints
 62
     0
100
AcDbPoint
 10
3138.103172149816
 20
1482.086124647555
 30
0.0
  0
POINT
  5
7980
330
7975
100
AcDbEntity
  8
Defpoints
 62
     0
100
AcDbPoint
 10
3141.306556843019
 20
1482.086124647555
 30
0.0
  0
ENDBLK
  5
7977
330
7975
100
AcDbEntity
  8
0
100
AcDbBlockEnd
  0
BLOCK
  5
7985
330
7984
100
AcDbEntity
  8
0
100
AcDbBlockBegin
  2
*D29
 70
     1
 10
0.0
 20
0.0
 30
0.0
  3
*D29
  1

  0
LINE
  5
7987
330
7984
100
AcDbEntity
  8
Dim
 62
     0
370
    -2
100
AcDbLine
 10
869.1770617079446
 20
1381.973953121054
 30
0.0
 11
979.3935860062438
 21
1381.973953121054
 31
0.0
  0
LINE
  5
7988
330
7984
100
AcDbEntity
  8
Dim
 62
     0
370
    -2
100
AcDbLine
 10
869.1770617079446
 20
952.1727643674785
 30
0.0
 11
979.3935860062438
 21
952.1727643674785
 31
0.0
  0
LINE
  5
7989
330
7984
100
AcDbEntity
  8
Dim
 62
     0
370
    -2
100
AcDbLine
 10
979.3935860062438
 20
1371.974563472616
 30
0.0
 11
979.3935860062438
 21
962.172154015916
 31
0.0
  0
INSERT
  5
798A
330
7984
100
AcDbEntity
  8
Dim
 62
     0
370
    -2
100
AcDbBlockReference
  2
_DOT
 10
979.3935860062438
 20
1381.973953121054
 30
0.0
 41
9.999389648437498
 42
9.999389648437498
 43
9.999389648437498
 50
90.0
  0
INSERT
  5
798B
330
7984
100
AcDbEntity
  8
Dim
 62
     0
370
    -2
100
AcDbBlockReference
  2
_DOT
 10
979.3935860062438
 20
952.1727643674785
 30
0.0
 41
9.999389648437498
 42
9.999389648437498
 43
9.999389648437498
 50
270.0
  0
MTEXT
  5
798C
330
7984
100
AcDbEntity
  8
Dim
 62
     0
100
AcDbMText
 10
957.1772774124938
 20
1167.073358744266
 30
0.0
 40
24.4326171875
 41
0.0
 46
0.0
 71
     5
 72
     1
  1
\A1;430
  7
ＭＳ ゴシック
 11
0.0
 21
1.0
 31
0.0
 73
     1
 44
1.0
  0
POINT
  5
798D
330
7984
100
AcDbEntity
  8
Defpoints
 62
     0
100
AcDbPoint
 10
844.1770617079446
 20
1381.973953121054
 30
0.0
  0
POINT
  5
798E
330
7984
100
AcDbEntity
  8
Defpoints
 62
     0
100
AcDbPoint
 10
844.1770617079446
 20
952.1727643674785
 30
0.0
  0
POINT
  5
798F
330
7984
100
AcDbEntity
  8
Defpoints
 62
     0
100
AcDbPoint
 10
979.3935860062438
 20
952.1727643674785
 30
0.0
  0
ENDBLK
  5
7986
330
7984
100
AcDbEntity
  8
0
100
AcDbBlockEnd
  0
BLOCK
  5
7997
330
7996
100
AcDbEntity
  8
0
100
AcDbBlockBegin
  2
*D30
 70
     1
 10
0.0
 20
0.0
 30
0.0
  3
*D30
  1

  0
LINE
  5
7999
330
7996
100
AcDbEntity
  8
Dim
 62
     0
370
    -2
100
AcDbLine
 10
351.9706903347928
 20
2134.844456004024
 30
0.0
 11
351.9706903347928
 21
2252.505483485526
 31
0.0
  0
LINE
  5
799A
330
7996
100
AcDbEntity
  8
Dim
 62
     0
370
    -2
100
AcDbLine
 10
856.75309108281
 20
2041.926470691864
 30
0.0
 11
856.75309108281
 21
2252.505483485526
 31
0.0
  0
LINE
  5
799B
330
7996
100
AcDbEntity
  8
Dim
 62
     0
370
    -2
100
AcDbLine
 10
361.9700799832303
 20
2252.505483485526
 30
0.0
 11
846.7537014343725
 21
2252.505483485526
 31
0.0
  0
INSERT
  5
799C
330
7996
100
AcDbEntity
  8
Dim
 62
     0
370
    -2
100
AcDbBlockReference
  2
_DOT
 10
351.9706903347928
 20
2252.505483485526
 30
0.0
 41
9.999389648437498
 42
9.999389648437498
 43
9.999389648437498
 50
180.0
  0
INSERT
  5
799D
330
7996
100
AcDbEntity
  8
Dim
 62
     0
370
    -2
100
AcDbBlockReference
  2
_DOT
 10
856.75309108281
 20
2252.505483485526
 30
0.0
 41
9.999389648437498
 42
9.999389648437498
 43
9.999389648437498
  0
MTEXT
  5
799E
330
7996
100
AcDbEntity
  8
Dim
 62
     0
100
AcDbMText
 10
604.3618907088014
 20
2274.721792079276
 30
0.0
 40
24.4326171875
 41
0.0
 46
0.0
 71
     5
 72
     1
  1
\A1;505
  7
ＭＳ ゴシック
 73
     1
 44
1.0
  0
POINT
  5
799F
330
7996
100
AcDbEntity
  8
Defpoints
 62
     0
100
AcDbPoint
 10
351.9706903347928
 20
2109.844456004024
 30
0.0
  0
POINT
  5
79A0
330
7996
100
AcDbEntity
  8
Defpoints
 62
     0
100
AcDbPoint
 10
856.75309108281
 20
2016.926470691864
 30
0.0
  0
POINT
  5
79A1
330
7996
100
AcDbEntity
  8
Defpoints
 62
     0
100
AcDbPoint
 10
856.75309108281
 20
2252.505483485526
 30
0.0
  0
ENDBLK
  5
7998
330
7996
100
AcDbEntity
  8
0
100
AcDbBlockEnd
  0
BLOCK
  5
79A4
330
79A3
100
AcDbEntity
  8
0
100
AcDbBlockBegin
  2
*D31
 70
     1
 10
0.0
 20
0.0
 30
0.0
  3
*D31
  1

  0
LINE
  5
79A6
330
79A3
100
AcDbEntity
  8
Dim
 62
     0
370
    -2
100
AcDbLine
 10
326.9706903347928
 20
2062.826074438406
 30
0.0
 11
187.7031489087049
 21
2062.826074438406
 31
0.0
  0
LINE
  5
79A7
330
79A3
100
AcDbEntity
  8
Dim
 62
     0
370
    -2
100
AcDbLine
 10
326.9706903347924
 20
1817.826074438407
 30
0.0
 11
187.7031489087049
 21
1817.826074438407
 31
0.0
  0
LINE
  5
79A8
330
79A3
100
AcDbEntity
  8
Dim
 62
     0
370
    -2
100
AcDbLine
 10
187.7031489087049
 20
2052.826684789969
 30
0.0
 11
187.7031489087049
 21
1827.825464086844
 31
0.0
  0
INSERT
  5
79A9
330
79A3
100
AcDbEntity
  8
Dim
 62
     0
370
    -2
100
AcDbBlockReference
  2
_DOT
 10
187.7031489087049
 20
2062.826074438406
 30
0.0
 41
9.999389648437498
 42
9.999389648437498
 43
9.999389648437498
 50
90.0
  0
INSERT
  5
79AA
330
79A3
100
AcDbEntity
  8
Dim
 62
     0
370
    -2
100
AcDbBlockReference
  2
_DOT
 10
187.7031489087049
 20
1817.826074438407
 30
0.0
 41
9.999389648437498
 42
9.999389648437498
 43
9.999389648437498
 50
270.0
  0
MTEXT
  5
79AB
330
79A3
100
AcDbEntity
  8
Dim
 62
     0
100
AcDbMText
 10
165.4868403149549
 20
1940.326074438406
 30
0.0
 40
24.4326171875
 41
0.0
 46
0.0
 71
     5
 72
     1
  1
\A1;245
  7
ＭＳ ゴシック
 11
1.160069772669553E-16
 21
1.0
 31
0.0
 73
     1
 44
1.0
  0
POINT
  5
79AC
330
79A3
100
AcDbEntity
  8
Defpoints
 62
     0
100
AcDbPoint
 10
351.9706903347928
 20
2062.826074438406
 30
0.0
  0
POINT
  5
79AD
330
79A3
100
AcDbEntity
  8
Defpoints
 62
     0
100
AcDbPoint
 10
351.9706903347924
 20
1817.826074438407
 30
0.0
  0
POINT
  5
79AE
330
79A3
100
AcDbEntity
  8
Defpoints
 62
     0
100
AcDbPoint
 10
187.7031489087049
 20
1817.826074438407
 30
0.0
  0
ENDBLK
  5
79A5
330
79A3
100
AcDbEntity
  8
0
100
AcDbBlockEnd
  0
BLOCK
  5
79C1
330
79C0
100
AcDbEntity
  8
0
100
AcDbBlockBegin
  2
*D32
 70
     1
 10
0.0
 20
0.0
 30
0.0
  3
*D32
  1

  0
LINE
  5
79C3
330
79C0
100
AcDbEntity
  8
Dim
 62
     0
370
    -2
100
AcDbLine
 10
326.9449159664273
 20
1182.370209191243
 30
0.0
 11
275.0490959499398
 21
1182.370209191243
 31
0.0
  0
LINE
  5
79C4
330
79C0
100
AcDbEntity
  8
Dim
 62
     0
370
    -2
100
AcDbLine
 10
326.9449159664273
 20
1082.370209194644
 30
0.0
 11
275.0490959499398
 21
1082.370209194644
 31
0.0
  0
LINE
  5
79C5
330
79C0
100
AcDbEntity
  8
Dim
 62
     0
370
    -2
100
AcDbLine
 10
275.0490959499398
 20
1172.370819542806
 30
0.0
 11
275.0490959499398
 21
1092.369598843081
 31
0.0
  0
INSERT
  5
79C6
330
79C0
100
AcDbEntity
  8
Dim
 62
     0
370
    -2
100
AcDbBlockReference
  2
_DOT
 10
275.0490959499398
 20
1182.370209191243
 30
0.0
 41
9.999389648437498
 42
9.999389648437498
 43
9.999389648437498
 50
90.0
  0
INSERT
  5
79C7
330
79C0
100
AcDbEntity
  8
Dim
 62
     0
370
    -2
100
AcDbBlockReference
  2
_DOT
 10
275.0490959499398
 20
1082.370209194644
 30
0.0
 41
9.999389648437498
 42
9.999389648437498
 43
9.999389648437498
 50
270.0
  0
MTEXT
  5
79C8
330
79C0
100
AcDbEntity
  8
Dim
 62
     0
100
AcDbMText
 10
252.8327873561898
 20
1132.370209192943
 30
0.0
 40
24.4326171875
 41
0.0
 46
0.0
 71
     5
 72
     1
  1
\A1;100
  7
ＭＳ ゴシック
 11
0.0
 21
1.0
 31
0.0
 73
     1
 44
1.0
  0
POINT
  5
79C9
330
79C0
100
AcDbEntity
  8
Defpoints
 62
     0
100
AcDbPoint
 10
351.9449159664273
 20
1182.370209191243
 30
0.0
  0
POINT
  5
79CA
330
79C0
100
AcDbEntity
  8
Defpoints
 62
     0
100
AcDbPoint
 10
351.9449159664273
 20
1082.370209194644
 30
0.0
  0
POINT
  5
79CB
330
79C0
100
AcDbEntity
  8
Defpoints
 62
     0
100
AcDbPoint
 10
275.0490959499398
 20
1082.370209194644
 30
0.0
  0
ENDBLK
  5
79C2
330
79C0
100
AcDbEntity
  8
0
100
AcDbBlockEnd
  0
BLOCK
  5
79CE
330
79CD
100
AcDbEntity
  8
0
100
AcDbBlockBegin
  2
*D33
 70
     1
 10
0.0
 20
0.0
 30
0.0
  3
*D33
  1

  0
LINE
  5
79D0
330
79CD
100
AcDbEntity
  8
Dim
 62
     0
370
    -2
100
AcDbLine
 10
351.9706903347928
 20
927.1727643674785
 30
0.0
 11
351.9706903347928
 21
853.8851117428414
 31
0.0
  0
LINE
  5
79D1
330
79CD
100
AcDbEntity
  8
Dim
 62
     0
370
    -2
100
AcDbLine
 10
451.9706903347928
 20
927.1727643674785
 30
0.0
 11
451.9706903347928
 21
853.8851117428414
 31
0.0
  0
LINE
  5
79D2
330
79CD
100
AcDbEntity
  8
Dim
 62
     0
370
    -2
100
AcDbLine
 10
361.9700799832303
 20
853.8851117428414
 30
0.0
 11
441.9713006863553
 21
853.8851117428414
 31
0.0
  0
INSERT
  5
79D3
330
79CD
100
AcDbEntity
  8
Dim
 62
     0
370
    -2
100
AcDbBlockReference
  2
_DOT
 10
351.9706903347928
 20
853.8851117428414
 30
0.0
 41
9.999389648437498
 42
9.999389648437498
 43
9.999389648437498
 50
180.0
  0
INSERT
  5
79D4
330
79CD
100
AcDbEntity
  8
Dim
 62
     0
370
    -2
100
AcDbBlockReference
  2
_DOT
 10
451.9706903347928
 20
853.8851117428414
 30
0.0
 41
9.999389648437498
 42
9.999389648437498
 43
9.999389648437498
  0
MTEXT
  5
79D5
330
79CD
100
AcDbEntity
  8
Dim
 62
     0
100
AcDbMText
 10
401.9706903347928
 20
876.1014203365914
 30
0.0
 40
24.4326171875
 41
0.0
 46
0.0
 71
     5
 72
     1
  1
\A1;100
  7
ＭＳ ゴシック
 73
     1
 44
1.0
  0
POINT
  5
79D6
330
79CD
100
AcDbEntity
  8
Defpoints
 62
     0
100
AcDbPoint
 10
351.9706903347928
 20
952.1727643674785
 30
0.0
  0
POINT
  5
79D7
330
79CD
100
AcDbEntity
  8
Defpoints
 62
     0
100
AcDbPoint
 10
451.9706903347928
 20
952.1727643674785
 30
0.0
  0
POINT
  5
79D8
330
79CD
100
AcDbEntity
  8
Defpoints
 62
     0
100
AcDbPoint
 10
451.9706903347928
 20
853.8851117428414
 30
0.0
  0
ENDBLK
  5
79CF
330
79CD
100
AcDbEntity
  8
0
100
AcDbBlockEnd
  0
BLOCK
  5
79DB
330
79DA
100
AcDbEntity
  8
0
100
AcDbBlockBegin
  2
*D34
 70
     1
 10
0.0
 20
0.0
 30
0.0
  3
*D34
  1

  0
LINE
  5
79DD
330
79DA
100
AcDbEntity
  8
Dim
 62
     0
370
    -2
100
AcDbLine
 10
351.9706903347928
 20
907.1686651675029
 30
0.0
 11
351.9706903347928
 21
794.5771427112152
 31
0.0
  0
LINE
  5
79DE
330
79DA
100
AcDbEntity
  8
Dim
 62
     0
370
    -2
100
AcDbLine
 10
537.026106613388
 20
948.5705983683335
 30
0.0
 11
537.026106613388
 21
794.5771427112152
 31
0.0
  0
LINE
  5
79DF
330
79DA
100
AcDbEntity
  8
Dim
 62
     0
370
    -2
100
AcDbLine
 10
361.9700799832303
 20
794.5771427112152
 30
0.0
 11
527.0267169649505
 21
794.5771427112152
 31
0.0
  0
INSERT
  5
79E0
330
79DA
100
AcDbEntity
  8
Dim
 62
     0
370
    -2
100
AcDbBlockReference
  2
_DOT
 10
351.9706903347928
 20
794.5771427112152
 30
0.0
 41
9.999389648437498
 42
9.999389648437498
 43
9.999389648437498
 50
180.0
  0
INSERT
  5
79E1
330
79DA
100
AcDbEntity
  8
Dim
 62
     0
370
    -2
100
AcDbBlockReference
  2
_DOT
 10
537.026106613388
 20
794.5771427112152
 30
0.0
 41
9.999389648437498
 42
9.999389648437498
 43
9.999389648437498
  0
MTEXT
  5
79E2
330
79DA
100
AcDbEntity
  8
Dim
 62
     0
100
AcDbMText
 10
444.4983984740904
 20
816.7934513049652
 30
0.0
 40
24.4326171875
 41
0.0
 46
0.0
 71
     5
 72
     1
  1
\A1;185
  7
ＭＳ ゴシック
 73
     1
 44
1.0
  0
POINT
  5
79E3
330
79DA
100
AcDbEntity
  8
Defpoints
 62
     0
100
AcDbPoint
 10
351.9706903347928
 20
932.1686651675029
 30
0.0
  0
POINT
  5
79E4
330
79DA
100
AcDbEntity
  8
Defpoints
 62
     0
100
AcDbPoint
 10
537.026106613388
 20
973.5705983683335
 30
0.0
  0
POINT
  5
79E5
330
79DA
100
AcDbEntity
  8
Defpoints
 62
     0
100
AcDbPoint
 10
537.026106613388
 20
794.5771427112152
 30
0.0
  0
ENDBLK
  5
79DC
330
79DA
100
AcDbEntity
  8
0
100
AcDbBlockEnd
  0
BLOCK
  5
79EB
330
79EA
100
AcDbEntity
  8
0
100
AcDbBlockBegin
  2
*D35
 70
     1
 10
0.0
 20
0.0
 30
0.0
  3
*D35
  1

  0
LINE
  5
79ED
330
79EA
100
AcDbEntity
  8
Dim
 62
     0
370
    -2
100
AcDbLine
 10
1320.616464571811
 20
952.1727643674785
 30
0.0
 11
1260.556351092241
 21
952.1727643674785
 31
0.0
  0
LINE
  5
79EE
330
79EA
100
AcDbEntity
  8
Dim
 62
     0
370
    -2
100
AcDbLine
 10
1401.77473798351
 20
1297.172764367479
 30
0.0
 11
1260.556351092241
 21
1297.172764367479
 31
0.0
  0
LINE
  5
79EF
330
79EA
100
AcDbEntity
  8
Dim
 62
     0
370
    -2
100
AcDbLine
 10
1260.556351092241
 20
962.172154015916
 30
0.0
 11
1260.556351092241
 21
1287.173374719041
 31
0.0
  0
INSERT
  5
79F0
330
79EA
100
AcDbEntity
  8
Dim
 62
     0
370
    -2
100
AcDbBlockReference
  2
_DOT
 10
1260.556351092241
 20
952.1727643674785
 30
0.0
 41
9.999389648437498
 42
9.999389648437498
 43
9.999389648437498
 50
270.0
  0
INSERT
  5
79F1
330
79EA
100
AcDbEntity
  8
Dim
 62
     0
370
    -2
100
AcDbBlockReference
  2
_DOT
 10
1260.556351092241
 20
1297.172764367479
 30
0.0
 41
9.999389648437498
 42
9.999389648437498
 43
9.999389648437498
 50
90.0
  0
MTEXT
  5
79F2
330
79EA
100
AcDbEntity
  8
Dim
 62
     0
100
AcDbMText
 10
1238.340042498491
 20
1124.672764367479
 30
0.0
 40
24.4326171875
 41
0.0
 46
0.0
 71
     5
 72
     1
  1
\A1;345
  7
ＭＳ ゴシック
 11
0.0
 21
1.0
 31
0.0
 73
     1
 44
1.0
  0
POINT
  5
79F3
330
79EA
100
AcDbEntity
  8
Defpoints
 62
     0
100
AcDbPoint
 10
1345.616464571811
 20
952.1727643674785
 30
0.0
  0
POINT
  5
79F4
330
79EA
100
AcDbEntity
  8
Defpoints
 62
     0
100
AcDbPoint
 10
1426.77473798351
 20
1297.172764367479
 30
0.0
  0
POINT
  5
79F5
330
79EA
100
AcDbEntity
  8
Defpoints
 62
     0
100
AcDbPoint
 10
1260.556351092241
 20
1297.172764367479
 30
0.0
  0
ENDBLK
  5
79EC
330
79EA
100
AcDbEntity
  8
0
100
AcDbBlockEnd
  0
BLOCK
  5
79F8
330
79F7
100
AcDbEntity
  8
0
100
AcDbBlockBegin
  2
*D36
 70
     1
 10
0.0
 20
0.0
 30
0.0
  3
*D36
  1

  0
LINE
  5
79FA
330
79F7
100
AcDbEntity
  8
Dim
 62
     0
370
    -2
100
AcDbLine
 10
1334.077812805962
 20
952.1727643674785
 30
0.0
 11
1325.912172229066
 21
952.1727643674785
 31
0.0
  0
LINE
  5
79FB
330
79F7
100
AcDbEntity
  8
Dim
 62
     0
370
    -2
100
AcDbLine
 10
1410.16369412943
 20
1127.172764367479
 30
0.0
 11
1325.912172229066
 21
1127.172764367479
 31
0.0
  0
LINE
  5
79FC
330
79F7
100
AcDbEntity
  8
Dim
 62
     0
370
    -2
100
AcDbLine
 10
1325.912172229066
 20
962.172154015916
 30
0.0
 11
1325.912172229066
 21
1117.173374719041
 31
0.0
  0
INSERT
  5
79FD
330
79F7
100
AcDbEntity
  8
Dim
 62
     0
370
    -2
100
AcDbBlockReference
  2
_DOT
 10
1325.912172229066
 20
952.1727643674785
 30
0.0
 41
9.999389648437498
 42
9.999389648437498
 43
9.999389648437498
 50
270.0
  0
INSERT
  5
79FE
330
79F7
100
AcDbEntity
  8
Dim
 62
     0
370
    -2
100
AcDbBlockReference
  2
_DOT
 10
1325.912172229066
 20
1127.172764367479
 30
0.0
 41
9.999389648437498
 42
9.999389648437498
 43
9.999389648437498
 50
90.0
  0
MTEXT
  5
79FF
330
79F7
100
AcDbEntity
  8
Dim
 62
     0
100
AcDbMText
 10
1303.695863635316
 20
1039.672764367479
 30
0.0
 40
24.4326171875
 41
0.0
 46
0.0
 71
     5
 72
     1
  1
\A1;175
  7
ＭＳ ゴシック
 11
0.0
 21
1.0
 31
0.0
 73
     1
 44
1.0
  0
POINT
  5
7A00
330
79F7
100
AcDbEntity
  8
Defpoints
 62
     0
100
AcDbPoint
 10
1359.077812805962
 20
952.1727643674785
 30
0.0
  0
POINT
  5
7A01
330
79F7
100
AcDbEntity
  8
Defpoints
 62
     0
100
AcDbPoint
 10
1435.16369412943
 20
1127.172764367479
 30
0.0
  0
POINT
  5
7A02
330
79F7
100
AcDbEntity
  8
Defpoints
 62
     0
100
AcDbPoint
 10
1325.912172229066
 20
1127.172764367479
 30
0.0
  0
ENDBLK
  5
79F9
330
79F7
100
AcDbEntity
  8
0
100
AcDbBlockEnd
  0
BLOCK
  5
7A08
330
7A07
100
AcDbEntity
  8
0
100
AcDbBlockBegin
  2
*D37
 70
     1
 10
0.0
 20
0.0
 30
0.0
  3
*D37
  1

  0
LINE
  5
7A0A
330
7A07
100
AcDbEntity
  8
Dim
 62
     0
370
    -2
100
AcDbLine
 10
1411.44841140646
 20
920.0183663179064
 30
0.0
 11
1411.44841140646
 21
861.5573347824461
 31
0.0
  0
LINE
  5
7A0B
330
7A07
100
AcDbEntity
  8
Dim
 62
     0
370
    -2
100
AcDbLine
 10
1646.400873808338
 20
924.7449307461441
 30
0.0
 11
1646.400873808338
 21
861.5573347824461
 31
0.0
  0
LINE
  5
7A0C
330
7A07
100
AcDbEntity
  8
Dim
 62
     0
370
    -2
100
AcDbLine
 10
1421.447801054898
 20
861.5573347824461
 30
0.0
 11
1636.401484159901
 21
861.5573347824461
 31
0.0
  0
INSERT
  5
7A0D
330
7A07
100
AcDbEntity
  8
Dim
 62
     0
370
    -2
100
AcDbBlockReference
  2
_DOT
 10
1411.44841140646
 20
861.5573347824461
 30
0.0
 41
9.999389648437498
 42
9.999389648437498
 43
9.999389648437498
 50
180.0
  0
INSERT
  5
7A0E
330
7A07
100
AcDbEntity
  8
Dim
 62
     0
370
    -2
100
AcDbBlockReference
  2
_DOT
 10
1646.400873808338
 20
861.5573347824461
 30
0.0
 41
9.999389648437498
 42
9.999389648437498
 43
9.999389648437498
  0
MTEXT
  5
7A0F
330
7A07
100
AcDbEntity
  8
Dim
 62
     0
100
AcDbMText
 10
1528.924642607399
 20
883.7736433761961
 30
0.0
 40
24.4326171875
 41
0.0
 46
0.0
 71
     5
 72
     1
  1
\A1;235
  7
ＭＳ ゴシック
 73
     1
 44
1.0
  0
POINT
  5
7A10
330
7A07
100
AcDbEntity
  8
Defpoints
 62
     0
100
AcDbPoint
 10
1411.44841140646
 20
945.0183663179064
 30
0.0
  0
POINT
  5
7A11
330
7A07
100
AcDbEntity
  8
Defpoints
 62
     0
100
AcDbPoint
 10
1646.400873808338
 20
949.7449307461441
 30
0.0
  0
POINT
  5
7A12
330
7A07
100
AcDbEntity
  8
Defpoints
 62
     0
100
AcDbPoint
 10
1646.400873808338
 20
861.5573347824461
 30
0.0
  0
ENDBLK
  5
7A09
330
7A07
100
AcDbEntity
  8
0
100
AcDbBlockEnd
  0
BLOCK
  5
7A17
330
7A16
100
AcDbEntity
  8
0
100
AcDbBlockBegin
  2
*D38
 70
     1
 10
0.0
 20
0.0
 30
0.0
  3
*D38
  1

  0
LINE
  5
7A19
330
7A16
100
AcDbEntity
  8
Dim
 62
     0
370
    -2
100
AcDbLine
 10
1763.662519119276
 20
952.1727643674785
 30
0.0
 11
1794.75147009491
 21
952.1727643674785
 31
0.0
  0
LINE
  5
7A1A
330
7A16
100
AcDbEntity
  8
Dim
 62
     0
370
    -2
100
AcDbLine
 10
1742.933993758716
 20
1402.172764367479
 30
0.0
 11
1794.75147009491
 21
1402.172764367479
 31
0.0
  0
LINE
  5
7A1B
330
7A16
100
AcDbEntity
  8
Dim
 62
     0
370
    -2
100
AcDbLine
 10
1794.75147009491
 20
962.172154015916
 30
0.0
 11
1794.75147009491
 21
1392.173374719041
 31
0.0
  0
INSERT
  5
7A1C
330
7A16
100
AcDbEntity
  8
Dim
 62
     0
370
    -2
100
AcDbBlockReference
  2
_DOT
 10
1794.75147009491
 20
952.1727643674785
 30
0.0
 41
9.999389648437498
 42
9.999389648437498
 43
9.999389648437498
 50
270.0
  0
INSERT
  5
7A1D
330
7A16
100
AcDbEntity
  8
Dim
 62
     0
370
    -2
100
AcDbBlockReference
  2
_DOT
 10
1794.75147009491
 20
1402.172764367479
 30
0.0
 41
9.999389648437498
 42
9.999389648437498
 43
9.999389648437498
 50
90.0
  0
MTEXT
  5
7A1E
330
7A16
100
AcDbEntity
  8
Dim
 62
     0
100
AcDbMText
 10
1772.53516150116
 20
1177.172764367479
 30
0.0
 40
24.4326171875
 41
0.0
 46
0.0
 71
     5
 72
     1
  1
\A1;450
  7
ＭＳ ゴシック
 11
0.0
 21
1.0
 31
0.0
 73
     1
 44
1.0
  0
POINT
  5
7A1F
330
7A16
100
AcDbEntity
  8
Defpoints
 62
     0
100
AcDbPoint
 10
1738.662519119276
 20
952.1727643674785
 30
0.0
  0
POINT
  5
7A20
330
7A16
100
AcDbEntity
  8
Defpoints
 62
     0
100
AcDbPoint
 10
1717.933993758716
 20
1402.172764367479
 30
0.0
  0
POINT
  5
7A21
330
7A16
100
AcDbEntity
  8
Defpoints
 62
     0
100
AcDbPoint
 10
1794.75147009491
 20
1402.172764367479
 30
0.0
  0
ENDBLK
  5
7A18
330
7A16
100
AcDbEntity
  8
0
100
AcDbBlockEnd
  0
BLOCK
  5
7A26
330
7A25
100
AcDbEntity
  8
0
100
AcDbBlockBegin
  2
*D39
 70
     1
 10
0.0
 20
0.0
 30
0.0
  3
*D39
  1

  0
LINE
  5
7A28
330
7A25
100
AcDbEntity
  8
Dim
 62
     0
370
    -2
100
AcDbLine
 10
1804.206994607093
 20
952.1727643674785
 30
0.0
 11
1854.498396134171
 21
952.1727643674785
 31
0.0
  0
LINE
  5
7A29
330
7A25
100
AcDbEntity
  8
Dim
 62
     0
370
    -2
100
AcDbLine
 10
1672.21314252857
 20
1447.172764367479
 30
0.0
 11
1854.498396134171
 21
1447.172764367479
 31
0.0
  0
LINE
  5
7A2A
330
7A25
100
AcDbEntity
  8
Dim
 62
     0
370
    -2
100
AcDbLine
 10
1854.498396134171
 20
962.172154015916
 30
0.0
 11
1854.498396134171
 21
1437.173374719041
 31
0.0
  0
INSERT
  5
7A2B
330
7A25
100
AcDbEntity
  8
Dim
 62
     0
370
    -2
100
AcDbBlockReference
  2
_DOT
 10
1854.498396134171
 20
952.1727643674785
 30
0.0
 41
9.999389648437498
 42
9.999389648437498
 43
9.999389648437498
 50
270.0
  0
INSERT
  5
7A2C
330
7A25
100
AcDbEntity
  8
Dim
 62
     0
370
    -2
100
AcDbBlockReference
  2
_DOT
 10
1854.498396134171
 20
1447.172764367479
 30
0.0
 41
9.999389648437498
 42
9.999389648437498
 43
9.999389648437498
 50
90.0
  0
MTEXT
  5
7A2D
330
7A25
100
AcDbEntity
  8
Dim
 62
     0
100
AcDbMText
 10
1832.282087540421
 20
1199.672764367479
 30
0.0
 40
24.4326171875
 41
0.0
 46
0.0
 71
     5
 72
     1
  1
\A1;495
  7
ＭＳ ゴシック
 11
0.0
 21
1.0
 31
0.0
 73
     1
 44
1.0
  0
POINT
  5
7A2E
330
7A25
100
AcDbEntity
  8
Defpoints
 62
     0
100
AcDbPoint
 10
1779.206994607093
 20
952.1727643674785
 30
0.0
  0
POINT
  5
7A2F
330
7A25
100
AcDbEntity
  8
Defpoints
 62
     0
100
AcDbPoint
 10
1647.21314252857
 20
1447.172764367479
 30
0.0
  0
POINT
  5
7A30
330
7A25
100
AcDbEntity
  8
Defpoints
 62
     0
100
AcDbPoint
 10
1854.498396134171
 20
1447.172764367479
 30
0.0
  0
ENDBLK
  5
7A27
330
7A25
100
AcDbEntity
  8
0
100
AcDbBlockEnd
  0
ENDSEC
  0
SECTION
  2
ENTITIES
  0
MTEXT
  5
177
330
A
100
AcDbEntity
  8
template
390
1D
100
AcDbMText
 10
82.00000000048226
 20
348.023957835319
 30
0.0
 40
16.28841145833333
 41
0.0
 46
0.0
 71
     1
 72
     1
  1
品名
  7
ＭＳ ゴシック
 73
     1
 44
0.7828267384257843
  0
MTEXT
  5
178
330
A
100
AcDbEntity
  8
template
390
1D
100
AcDbMText
 10
82.00000000048226
 20
263.0239578353188
 30
0.0
 40
16.28841145833333
 41
0.0
 46
0.0
 71
     1
 72
     1
  1
仕様
  7
ＭＳ ゴシック
 73
     1
 44
0.7828267384257843
  0
LINE
  5
179
330
A
100
AcDbEntity
  8
template
390
1D
100
AcDbLine
 10
2025.0
 20
271.4388797103189
 30
0.0
 11
75.00000000000023
 21
271.4388797103189
 31
0.0
  0
LWPOLYLINE
  5
17A
330
A
100
AcDbEntity
  8
template
390
1D
100
AcDbPolyline
 90
        5
 70
   128
 43
0.0
 10
2025.0
 20
2901.438879710319
 10
75.00000000000023
 20
2901.438879710319
 10
75.00000000000023
 20
101.4388797103188
 10
2025.0
 20
101.4388797103188
 10
2025.0
 20
2901.438879710319
  0
LINE
  5
17B
330
A
100
AcDbEntity
  8
template
390
1D
100
AcDbLine
 10
2025.0
 20
356.4388797103188
 30
0.0
 11
75.00000000000023
 21
356.4388797103188
 31
0.0
  0
LINE
  5
17C
330
A
100
AcDbEntity
  8
template
390
1D
100
AcDbLine
 10
2025.000000000482
 20
186.4388797103189
 30
0.0
 11
1272.000000000482
 21
186.4388797103189
 31
0.0
  0
MTEXT
  5
17E
330
A
100
AcDbEntity
  8
template
390
1D
100
AcDbMText
 10
1301.871406252743
 20
156.5284852370108
 30
0.0
 40
24.4326171875
 41
0.0
 46
0.0
 71
     1
 72
     1
  1
大洋金物株式会社 ティーフォルム事業部
  7
ＭＳ ゴシック
 73
     1
 44
0.7828267384257843
  0
MTEXT
  5
180
330
A
100
AcDbEntity
  8
template
390
1D
100
AcDbMText
 10
1834.000000000742
 20
234.4414968978188
 30
0.0
 40
24.4326171875
 41
0.0
 46
0.0
 71
     1
 72
     1
  1
1:10
  7
ＭＳ ゴシック
 73
     1
 44
0.7828267384257843
  0
MTEXT
  5
181
330
A
100
AcDbEntity
  8
template
390
1D
100
AcDbMText
 10
1781.000000000742
 20
263.0239578353188
 30
0.0
 40
16.28841145833333
 41
0.0
 46
0.0
 71
     1
 72
     1
  1
縮尺
  7
ＭＳ ゴシック
 73
     1
 44
0.7828267384257843
  0
LINE
  5
182
330
A
100
AcDbEntity
  8
template
390
1D
100
AcDbLine
 10
1774.000000000742
 20
186.4388797103189
 30
0.0
 11
1774.000000000742
 21
271.4388797103189
 31
0.0
  0
MTEXT
  5
183
330
A
100
AcDbEntity
  8
template
390
1D
100
AcDbMText
 10
1530.000000000742
 20
263.0239578353188
 30
0.0
 40
16.28841145833333
 41
0.0
 46
0.0
 71
     1
 72
     1
  1
容量
  7
ＭＳ ゴシック
 73
     1
 44
0.7828267384257843
  0
LINE
  5
184
330
A
100
AcDbEntity
  8
template
390
1D
100
AcDbLine
 10
1523.000000000742
 20
186.4388797103189
 30
0.0
 11
1523.000000000742
 21
271.4388797103189
 31
0.0
  0
MTEXT
  5
185
330
A
100
AcDbEntity
  8
template
390
1D
100
AcDbMText
 10
1279.000000000742
 20
348.023957835319
 30
0.0
 40
16.28841145833333
 41
0.0
 46
0.0
 71
     1
 72
     1
  1
品番
  7
ＭＳ ゴシック
 73
     1
 44
0.7828267384257843
  0
MTEXT
  5
186
330
A
100
AcDbEntity
  8
template
390
1D
100
AcDbMText
 10
1279.000000000742
 20
263.0239578353188
 30
0.0
 40
16.28841145833333
 41
0.0
 46
0.0
 71
     1
 72
     1
  1
重量
  7
ＭＳ ゴシック
 73
     1
 44
0.7828267384257843
  0
MTEXT
  5
187
330
A
100
AcDbEntity
  8
template
390
1D
100
AcDbMText
 10
1332.000000000742
 20
319.4414968978188
 30
0.0
 40
24.4326171875
 41
0.0
 46
24.4326171875
 71
     1
 72
     1
  1
{ABA71-0201}
  7
ＭＳ ゴシック
 73
     1
 44
0.7828267384257843
1001
ACAD
1000
ACAD_MTEXT_DEFINED_HEIGHT_BEGIN
1070
    46
1040
24.4326171875
1000
ACAD_MTEXT_DEFINED_HEIGHT_END
  0
LINE
  5
188
330
A
100
AcDbEntity
  8
template
390
1D
100
AcDbLine
 10
1272.000000000742
 20
101.4388797103188
 30
0.0
 11
1272.000000000742
 21
356.4388797103188
 31
0.0
  0
MTEXT
  5
189
330
A
100
AcDbEntity
  8
template
390
1D
100
AcDbMText
 10
135.0000000004822
 20
319.4414968978188
 30
0.0
 40
24.4326171875
 41
0.0
 46
27.5355595703125
 71
     1
 72
     1
  1
{床置便器 -HATRIA,You and me}
  7
ＭＳ ゴシック
 73
     1
 44
0.7828267384257843
1001
ACAD
1000
ACAD_MTEXT_DEFINED_HEIGHT_BEGIN
1070
    46
1040
27.5355595703125
1000
ACAD_MTEXT_DEFINED_HEIGHT_END
  0
MTEXT
  5
18A
330
A
100
AcDbEntity
  8
template
390
1D
100
AcDbMText
 10
135.0000000004822
 20
234.4414968978188
 30
0.0
 40
24.4326171875
 41
0.0
 46
69.196517578125
 71
     1
 72
     1
  1
{ウォッシュダウン式/\P陶器/ホワイト}
  7
ＭＳ ゴシック
 73
     1
 44
0.9822934569727008
1001
ACAD
1000
ACAD_MTEXT_DEFINED_HEIGHT_BEGIN
1070
    46
1040
69.196517578125
1000
ACAD_MTEXT_DEFINED_HEIGHT_END
  0
INSERT
  5
3D0
330
A
100
AcDbEntity
  8
template
100
AcDbBlockReference
  2
名称未設定-1
 10
1873.559250554905
 20
30.23897196054438
 30
0.0
 41
0.7619999999999999
 42
0.7619999999999999
 43
0.7619999999999999
  0
MTEXT
  5
BDB
102
{ACAD_XDICTIONARY
360
BDC
102
}
330
A
100
AcDbEntity
  8
template
  6
Continuous
100
AcDbMText
 10
78.95663872901252
 20
86.10730750352229
 30
0.0
 40
23.0
 41
0.0
 46
23.0
 71
     1
 72
     1
  1
{20191029N}
  7
ＭＳ ゴシック
 73
     1
 44
1.0
1001
ACAD
1000
ACAD_MTEXT_DEFINED_HEIGHT_BEGIN
1070
    46
1040
23.0
1000
ACAD_MTEXT_DEFINED_HEIGHT_END
  0
LWPOLYLINE
  5
BEE
330
A
100
AcDbEntity
  8
PRINT BORDER
100
AcDbPolyline
 90
        4
 70
     1
 43
0.0
 10
0.0
 20
0.0
 10
0.0
 20
2970.0
 10
2100.0
 20
2970.0
 10
2100.0
 20
0.0
  0
INSERT
  5
1273
330
A
100
AcDbEntity
  8
0
 62
     7
100
AcDbBlockReference
  2
BLOCK_2
 10
591.2037060744204
 20
943.564364962162
 30
0.0
  0
INSERT
  5
127B
330
A
100
AcDbEntity
  8
0
 62
     7
100
AcDbBlockReference
  2
BLOCK_2
 10
1291.863324028138
 20
1038.76992320659
 30
0.0
  0
INSERT
  5
127C
330
A
100
AcDbEntity
  8
0
 62
     7
100
AcDbBlockReference
  2
BLOCK_2
 10
652.1648429406905
 20
1595.641631888467
 30
0.0
  0
CIRCLE
  5
142C
330
A
100
AcDbEntity
  8
Dim
  6
Continuous
100
AcDbCircle
 10
1366.841726484681
 20
1758.85027442579
 30
0.0
 40
0.0
  0
INSERT
  5
3B99
330
A
100
AcDbEntity
  8
retino
100
AcDbBlockReference
  2
mobile_latù
 10
-92101.31485198285
 20
1730.415535296608
 30
0.0
  0
INSERT
  5
45C2
330
A
100
AcDbEntity
  8
retino
100
AcDbBlockReference
  2
mobile_latù
 10
-86439.67799028098
 20
684.0045377191276
 30
0.0
  0
INSERT
  5
45C3
330
A
100
AcDbEntity
  8
0
100
AcDbBlockReference
  2
.TD_SECTION_1
 10
225818108268.3253
 20
1093.456007493889
 30
0.0
  0
INSERT
  5
45C4
330
A
100
AcDbEntity
  8
0
100
AcDbBlockReference
  2
.TD_SECTION_2
 10
225818173804.3253
 20
1093.456007493889
 30
0.0
  0
INSERT
  5
45C5
330
A
100
AcDbEntity
  8
0
  6
Continuous
 62
     0
370
     0
100
AcDbBlockReference
  2
.TD_SECTION_1
 10
-5309.067341990833
 20
1307.927120367214
 30
0.0
  0
INSERT
  5
45C6
330
A
100
AcDbEntity
  8
0
  6
Continuous
 62
     0
370
     0
100
AcDbBlockReference
  2
.TD_SECTION_2
 10
-5866.445500560169
 20
1615.480640569851
 30
0.0
  0
INSERT
  5
45C7
330
A
100
AcDbEntity
  8
0
  6
Continuous
 62
     0
370
     0
100
AcDbBlockReference
  2
.TD_SECTION_1
 10
-7732.562264964368
 20
-610.0674069533197
 30
0.0
  0
INSERT
  5
45C8
330
A
100
AcDbEntity
  8
0
  6
Continuous
 62
     0
370
     0
100
AcDbBlockReference
  2
.TD_SECTION_2
 10
-7444.601476237562
 20
-908.1755612501947
 30
0.0
  0
INSERT
  5
45C9
330
A
100
AcDbEntity
  8
0
  6
Continuous
 62
     0
370
     0
100
AcDbBlockReference
  2
.TD_SECTION_1
 10
-7604.211434120536
 20
-675.956232615647
 30
0.0
  0
INSERT
  5
45CA
330
A
100
AcDbEntity
  8
0
  6
Continuous
 62
     0
370
     0
100
AcDbBlockReference
  2
.TD_SECTION_2
 10
-7316.160069221854
 20
-974.1548715316626
 30
0.0
  0
INSERT
  5
45CB
330
A
100
AcDbEntity
  8
0
  6
Continuous
 62
     0
370
     0
100
AcDbBlockReference
  2
.TD_SECTION_1
 10
1998.261972039336
 20
584.7577436013784
 30
0.0
  0
INSERT
  5
45CC
330
A
100
AcDbEntity
  8
0
  6
Continuous
 62
     0
370
     0
100
AcDbBlockReference
  2
.TD_SECTION_2
 10
2325.569123833769
 20
298.7106092019643
 30
0.0
  0
INSERT
  5
45CD
330
A
100
AcDbEntity
  8
0
  6
Continuous
 62
     0
370
     0
100
AcDbBlockReference
  2
.TD_SECTION_1
 10
4096.079043894448
 20
729.9229578437947
 30
0.0
  0
INSERT
  5
45CE
330
A
100
AcDbEntity
  8
0
  6
Continuous
 62
     0
370
     0
100
AcDbBlockReference
  2
.TD_SECTION_2
 10
4527.386195688881
 20
443.5448297920369
 30
0.0
  0
INSERT
  5
4611
330
A
100
AcDbEntity
  8
0
  6
Continuous
 62
     0
370
     0
100
AcDbBlockReference
  2
.TD_SECTION_1
 10
6135.868573041045
 20
-239.8054397977554
 30
0.0
  0
INSERT
  5
4612
330
A
100
AcDbEntity
  8
0
  6
Continuous
 62
     0
370
     0
100
AcDbBlockReference
  2
.TD_SECTION_2
 10
6878.171818585479
 20
-958.2465713895522
 30
0.0
  0
SPLINE
  5
785F
102
{ACAD_REACTORS
330
7A14
102
}
330
A
100
AcDbEntity
  8
HIDDEN
100
AcDbSpline
210
0.0
220
0.0
230
1.0
 70
    11
 71
     3
 72
    17
 73
    13
 74
     0
 42
0.000000001
 43
0.0000000001
 40
0.0
 40
0.0
 40
0.0
 40
0.0
 40
1.0
 40
1.0
 40
1.0
 40
2.0
 40
2.0
 40
2.0
 40
3.0
 40
3.0
 40
3.0
 40
4.0
 40
4.0
 40
4.0
 40
4.0
 10
1579.546354705156
 20
1127.159100365292
 30
0.0
 10
1579.546354705156
 20
1154.780880783838
 30
0.0
 10
1557.151055122665
 20
1177.148852361953
 30
0.0
 10
1529.542938706304
 20
1177.148852361953
 30
0.0
 10
1501.94165429104
 20
1177.148852361953
 30
0.0
 10
1479.573682712927
 20
1154.780880783838
 30
0.0
 10
1479.573682712927
 20
1127.159100365292
 30
0.0
 10
1479.573682712927
 20
1099.564647951118
 30
0.0
 10
1501.94165429104
 20
1077.176180369726
 30
0.0
 10
1529.542938706304
 20
1077.176180369726
 30
0.0
 10
1557.151055122665
 20
1077.176180369726
 30
0.0
 10
1579.546354705156
 20
1099.564647951118
 30
0.0
 10
1579.546354705156
 20
1127.159100365292
 30
0.0
  0
SPLINE
  5
7860
102
{ACAD_REACTORS
330
7A14
102
}
330
A
100
AcDbEntity
  8
HIDDEN
100
AcDbSpline
210
0.0
220
0.0
230
1.0
 70
    11
 71
     3
 72
    17
 73
    13
 74
     0
 42
0.000000001
 43
0.0000000001
 40
0.0
 40
0.0
 40
0.0
 40
0.0
 40
1.0
 40
1.0
 40
1.0
 40
2.0
 40
2.0
 40
2.0
 40
3.0
 40
3.0
 40
3.0
 40
4.0
 40
4.0
 40
4.0
 40
4.0
 10
1553.099678474583
 20
1298.596211783451
 30
0.0
 10
1553.099678474583
 20
1312.424181995455
 30
0.0
 10
1541.90544468388
 20
1323.608167784514
 30
0.0
 10
1528.118466478437
 20
1323.608167784514
 30
0.0
 10
1514.324656271893
 20
1323.608167784514
 30
0.0
 10
1503.133838481741
 20
1312.424181995455
 30
0.0
 10
1503.133838481741
 20
1298.596211783451
 30
0.0
 10
1503.133838481741
 20
1284.802401576911
 30
0.0
 10
1514.324656271893
 20
1273.625247788946
 30
0.0
 10
1528.118466478437
 20
1273.625247788946
 30
0.0
 10
1541.90544468388
 20
1273.625247788946
 30
0.0
 10
1553.099678474583
 20
1284.802401576911
 30
0.0
 10
1553.099678474583
 20
1298.596211783451
 30
0.0
  0
SPLINE
  5
7861
330
A
100
AcDbEntity
  8
MODEL
100
AcDbSpline
210
0.0
220
0.0
230
1.0
 70
     8
 71
     3
 72
     8
 73
     4
 74
     0
 42
0.000000001
 43
0.0000000001
 40
0.0
 40
0.0
 40
0.0
 40
0.0
 40
1.0
 40
1.0
 40
1.0
 40
1.0
 10
1341.50406462648
 20
1381.994449124332
 30
0.0
 10
1341.50406462648
 20
1329.128424667566
 30
0.0
 10
1363.834460198587
 20
1268.747199008623
 30
0.0
 10
1411.448411406461
 20
1229.672534145588
 30
0.0
  0
SPLINE
  5
7862
330
A
100
AcDbEntity
  8
HIDDEN
 48
0.5
100
AcDbSpline
210
0.0
220
0.0
230
1.0
 70
     8
 71
     3
 72
     8
 73
     4
 74
     0
 42
0.000000001
 43
0.0000000001
 40
0.0
 40
0.0
 40
0.0
 40
0.0
 40
1.0
 40
1.0
 40
1.0
 40
1.0
 10
1416.804957025966
 20
960.9518857718404
 30
0.0
 10
1416.804957025966
 20
958.7793094243018
 30
0.0
 10
1418.567613307935
 20
957.0029891401509
 30
0.0
 10
1420.770933660391
 20
957.0029891401509
 30
0.0
  0
SPLINE
  5
7863
330
A
100
AcDbEntity
  8
HIDDEN
 48
0.5
100
AcDbSpline
210
0.0
220
0.0
230
1.0
 70
     8
 71
     3
 72
     8
 73
     4
 74
     0
 42
0.000000001
 43
0.0000000001
 40
0.0
 40
0.0
 40
0.0
 40
0.0
 40
1.0
 40
1.0
 40
1.0
 40
1.0
 10
1426.178462525412
 20
970.9334393685488
 30
0.0
 10
1426.178462525412
 20
968.7676950221035
 30
0.0
 10
1427.968446811748
 20
966.9913747379528
 30
0.0
 10
1430.144439159833
 20
966.9913747379528
 30
0.0
  0
SPLINE
  5
7873
330
A
100
AcDbEntity
  8
MODEL
100
AcDbSpline
210
0.0
220
0.0
230
1.0
 70
    11
 71
     3
 72
    17
 73
    13
 74
     0
 42
0.000000001
 43
0.0000000001
 40
0.0
 40
0.0
 40
0.0
 40
0.0
 40
1.0
 40
1.0
 40
1.0
 40
2.0
 40
2.0
 40
2.0
 40
3.0
 40
3.0
 40
3.0
 40
4.0
 40
4.0
 40
4.0
 40
4.0
 10
544.2368650908406
 20
980.7715209423079
 30
0.0
 10
544.2368650908406
 20
984.7477455783692
 30
0.0
 10
540.9984965728149
 20
987.9587860920251
 30
0.0
 10
537.0359359389331
 20
987.9587860920251
 30
0.0
 10
533.0665433039721
 20
987.9587860920251
 30
0.0
 10
529.8350067870329
 20
984.7477455783692
 30
0.0
 10
529.8350067870329
 20
980.7715209423079
 30
0.0
 10
529.8350067870329
 20
976.788464305155
 30
0.0
 10
533.0665433039721
 20
973.570591790404
 30
0.0
 10
537.0359359389331
 20
973.570591790404
 30
0.0
 10
540.9984965728149
 20
973.570591790404
 30
0.0
 10
544.2368650908406
 20
976.788464305155
 30
0.0
 10
544.2368650908406
 20
980.7715209423079
 30
0.0
  0
SPLINE
  5
7874
330
A
100
AcDbEntity
  8
HIDDEN
100
AcDbSpline
210
0.0
220
0.0
230
1.0
 70
     8
 71
     3
 72
     8
 73
     4
 74
     0
 42
0.000000001
 43
0.0000000001
 40
0.0
 40
0.0
 40
0.0
 40
0.0
 40
1.0
 40
1.0
 40
1.0
 40
1.0
 10
416.2085806106675
 20
1188.915266238229
 30
0.0
 10
395.3675612768143
 20
1187.357569989051
 30
0.0
 10
376.5488142664558
 20
1175.920800159556
 30
0.0
 10
365.5527085074518
 20
1158.164429319141
 30
0.0
  0
SPLINE
  5
7875
330
A
100
AcDbEntity
  8
HIDDEN
100
AcDbSpline
210
0.0
220
0.0
230
1.0
 70
     8
 71
     3
 72
     8
 73
     4
 74
     0
 42
0.000000001
 43
0.0000000001
 40
0.0
 40
0.0
 40
0.0
 40
0.0
 40
1.0
 40
1.0
 40
1.0
 40
1.0
 10
362.1093799566338
 20
1153.279548537727
 30
0.0
 10
359.1852834888768
 20
1150.478428089642
 30
0.0
 10
357.5319392244019
 20
1146.577355465603
 30
0.0
 10
357.5319392244019
 20
1142.484986810962
 30
0.0
  0
SPLINE
  5
7876
330
A
100
AcDbEntity
  8
MODEL
100
AcDbSpline
210
0.0
220
0.0
230
1.0
 70
     8
 71
     3
 72
    11
 73
     7
 74
     0
 42
0.000000001
 43
0.0000000001
 40
0.0
 40
0.0
 40
0.0
 40
0.0
 40
1.0
 40
1.0
 40
1.0
 40
2.0
 40
2.0
 40
2.0
 40
2.0
 10
481.9051031198792
 20
1381.973953121054
 30
0.0
 10
481.9051031198792
 20
1278.46230456271
 30
0.0
 10
565.8396525465487
 20
1194.558499140953
 30
0.0
 10
669.361549106533
 20
1194.558499140953
 30
0.0
 10
772.8561176621433
 20
1194.558499140953
 30
0.0
 10
856.75309108281
 20
1278.46230456271
 30
0.0
 10
856.75309108281
 20
1381.973953121054
 30
0.0
  0
SPLINE
  5
7877
330
A
100
AcDbEntity
  8
MODEL
100
AcDbSpline
210
0.0
220
0.0
230
1.0
 70
    11
 71
     3
 72
    17
 73
    13
 74
     0
 42
0.000000001
 43
0.0000000001
 40
0.0
 40
0.0
 40
0.0
 40
0.0
 40
1.0
 40
1.0
 40
1.0
 40
2.0
 40
2.0
 40
2.0
 40
3.0
 40
3.0
 40
3.0
 40
4.0
 40
4.0
 40
4.0
 40
4.0
 10
813.7798042085446
 20
1940.332906439501
 30
0.0
 10
813.7798042085446
 20
2020.082855196778
 30
0.0
 10
749.1080818632668
 20
2084.76824154424
 30
0.0
 10
669.34105310326
 20
2084.76824154424
 30
0.0
 10
589.577440343789
 20
2084.76824154424
 30
0.0
 10
524.8954699968708
 20
2020.082855196778
 30
0.0
 10
524.8954699968708
 20
1940.332906439501
 30
0.0
 10
524.8954699968708
 20
1860.559045678393
 30
0.0
 10
589.577440343789
 20
1795.887323333117
 30
0.0
 10
669.34105310326
 20
1795.887323333117
 30
0.0
 10
749.1080818632668
 20
1795.887323333117
 30
0.0
 10
813.7798042085446
 20
1860.559045678393
 30
0.0
 10
813.7798042085446
 20
1940.332906439501
 30
0.0
  0
SPLINE
  5
7878
330
A
100
AcDbEntity
  8
MODEL
100
AcDbSpline
210
0.0
220
0.0
230
1.0
 70
    11
 71
     3
 72
    17
 73
    13
 74
     0
 42
0.000000001
 43
0.0000000001
 40
0.0
 40
0.0
 40
0.0
 40
0.0
 40
1.0
 40
1.0
 40
1.0
 40
2.0
 40
2.0
 40
2.0
 40
3.0
 40
3.0
 40
3.0
 40
4.0
 40
4.0
 40
4.0
 40
4.0
 10
482.5985512308039
 20
1905.339396841726
 30
0.0
 10
482.5985512308039
 20
1909.59231752205
 30
0.0
 10
479.1347266767134
 20
1913.045894074506
 30
0.0
 10
474.878389995843
 20
1913.045894074506
 30
0.0
 10
470.6288853160631
 20
1913.045894074506
 30
0.0
 10
467.1821407647058
 20
1909.59231752205
 30
0.0
 10
467.1821407647058
 20
1905.339396841726
 30
0.0
 10
467.1821407647058
 20
1901.093308162498
 30
0.0
 10
470.6288853160631
 20
1897.643147610591
 30
0.0
 10
474.878389995843
 20
1897.643147610591
 30
0.0
 10
479.1347266767134
 20
1897.643147610591
 30
0.0
 10
482.5985512308039
 20
1901.093308162498
 30
0.0
 10
482.5985512308039
 20
1905.339396841726
 30
0.0
  0
SPLINE
  5
7879
330
A
100
AcDbEntity
  8
MODEL
100
AcDbSpline
210
0.0
220
0.0
230
1.0
 70
    11
 71
     3
 72
    17
 73
    13
 74
     0
 42
0.000000001
 43
0.0000000001
 40
0.0
 40
0.0
 40
0.0
 40
0.0
 40
1.0
 40
1.0
 40
1.0
 40
2.0
 40
2.0
 40
2.0
 40
3.0
 40
3.0
 40
3.0
 40
4.0
 40
4.0
 40
4.0
 40
4.0
 10
482.5985512308039
 20
1975.305920033993
 30
0.0
 10
482.5985512308039
 20
1979.562256714862
 30
0.0
 10
479.1347266767134
 20
1983.026081268954
 30
0.0
 10
474.878389995843
 20
1983.026081268954
 30
0.0
 10
470.6288853160631
 20
1983.026081268954
 30
0.0
 10
467.1821407647058
 20
1979.562256714862
 30
0.0
 10
467.1821407647058
 20
1975.305920033993
 30
0.0
 10
467.1821407647058
 20
1971.059831354762
 30
0.0
 10
470.6288853160631
 20
1967.596006800669
 30
0.0
 10
474.878389995843
 20
1967.596006800669
 30
0.0
 10
479.1347266767134
 20
1967.596006800669
 30
0.0
 10
482.5985512308039
 20
1971.059831354762
 30
0.0
 10
482.5985512308039
 20
1975.305920033993
 30
0.0
  0
SPLINE
  5
7880
330
A
100
AcDbEntity
  8
MODEL
100
AcDbSpline
210
0.0
220
0.0
230
1.0
 70
     8
 71
     3
 72
    11
 73
     7
 74
     0
 42
0.000000001
 43
0.0000000001
 40
0.0
 40
0.0
 40
0.0
 40
0.0
 40
1.0
 40
1.0
 40
1.0
 40
2.0
 40
2.0
 40
2.0
 40
2.0
 10
856.75309108281
 20
1388.443858156019
 30
0.0
 10
856.75309108281
 20
1428.851728619903
 30
0.0
 10
773.8894578274426
 20
1446.338235417149
 30
0.0
 10
668.8901410311264
 20
1446.338235417149
 30
0.0
 10
563.8959482356254
 20
1446.338235417149
 30
0.0
 10
481.9051031198792
 20
1428.851728619903
 30
0.0
 10
481.9051031198792
 20
1388.443858156019
 30
0.0
  0
SPLINE
  5
7881
330
A
100
AcDbEntity
  8
MODEL
100
AcDbSpline
210
0.0
220
0.0
230
1.0
 70
     8
 71
     3
 72
    11
 73
     7
 74
     0
 42
0.000000001
 43
0.0000000001
 40
0.0
 40
0.0
 40
0.0
 40
0.0
 40
1.0
 40
1.0
 40
1.0
 40
2.0
 40
2.0
 40
2.0
 40
2.0
 10
1716.34522058832
 20
1388.443858156019
 30
0.0
 10
1716.34522058832
 20
1428.851728619903
 30
0.0
 10
1633.483295333232
 20
1446.338235417149
 30
0.0
 10
1528.482270536637
 20
1446.338235417149
 30
0.0
 10
1423.488077741136
 20
1446.338235417149
 30
0.0
 10
1341.49723262539
 20
1428.851728619903
 30
0.0
 10
1341.49723262539
 20
1388.443858156019
 30
0.0
  0
LINE
  5
788A
330
A
100
AcDbEntity
  8
MODEL
100
AcDbLine
 10
1341.50406462648
 20
1381.973953121054
 30
0.0
 11
1716.34522058832
 21
1381.973953121054
 31
0.0
  0
LINE
  5
788B
330
A
100
AcDbEntity
  8
MODEL
100
AcDbLine
 10
1191.811504680757
 20
952.1727643674785
 30
0.0
 11
1917.35294074272
 21
952.1727643674785
 31
0.0
  0
LINE
  5
788F
330
A
100
AcDbEntity
  8
HIDDEN
 48
0.5
100
AcDbLine
 10
1416.804957025966
 20
1006.801445106211
 30
0.0
 11
1426.178462525412
 21
1006.801445106211
 31
0.0
  0
LINE
  5
7890
330
A
100
AcDbEntity
  8
HIDDEN
 48
0.5
100
AcDbLine
 10
1426.178462525412
 20
1006.801445106211
 30
0.0
 11
1426.178462525412
 21
970.9402713696422
 31
0.0
  0
LINE
  5
7891
330
A
100
AcDbEntity
  8
HIDDEN
 48
0.5
100
AcDbLine
 10
1458.691955726467
 20
956.9756611357791
 30
0.0
 11
1420.770933660391
 21
956.9756611357791
 31
0.0
  0
LINE
  5
7892
330
A
100
AcDbEntity
  8
HIDDEN
 48
0.5
100
AcDbLine
 10
1458.691955726467
 20
966.964046733581
 30
0.0
 11
1430.144439159833
 21
966.964046733581
 31
0.0
  0
LINE
  5
7893
330
A
100
AcDbEntity
  8
HIDDEN
 48
0.5
100
AcDbLine
 10
1458.691955726467
 20
966.964046733581
 30
0.0
 11
1458.691955726467
 21
956.9756611357791
 31
0.0
  0
LINE
  5
7894
330
A
100
AcDbEntity
  8
HIDDEN
 48
0.5
100
AcDbLine
 10
1416.804957025966
 20
1006.801445106211
 30
0.0
 11
1416.804957025966
 21
960.9655497740255
 31
0.0
  0
LINE
  5
78C6
330
A
100
AcDbEntity
  8
HIDDEN
100
AcDbLine
 10
491.9378967247831
 20
952.1727643674785
 30
0.0
 11
491.9378967247831
 21
1025.486968095259
 31
0.0
  0
LINE
  5
78C7
330
A
100
AcDbEntity
  8
HIDDEN
100
AcDbLine
 10
402.062922347845
 20
1014.644582360846
 30
0.0
 11
402.062922347845
 21
952.1591003652936
 31
0.0
  0
LINE
  5
78C8
330
A
100
AcDbEntity
  8
HIDDEN
100
AcDbLine
 10
357.5319392244019
 20
1076.726976291917
 30
0.0
 11
357.5319392244019
 21
1142.484986810962
 31
0.0
  0
LINE
  5
78C9
330
A
100
AcDbEntity
  8
MODEL
100
AcDbLine
 10
491.9378967247831
 20
952.1727643674785
 30
0.0
 11
402.049258345658
 21
952.1727643674785
 31
0.0
  0
LINE
  5
78CA
330
A
100
AcDbEntity
  8
HIDDEN
100
AcDbLine
 10
497.0550655433558
 20
1066.007566577177
 30
0.0
 11
497.0550655433558
 21
1199.784979977014
 31
0.0
  0
LINE
  5
78CB
330
A
100
AcDbEntity
  8
HIDDEN
100
AcDbLine
 10
482.3970071985623
 20
1199.784979977014
 30
0.0
 11
482.3970071985623
 21
1066.007566577177
 31
0.0
  0
LINE
  5
78CC
330
A
100
AcDbEntity
  8
HIDDEN
100
AcDbLine
 10
357.5319392244019
 20
1076.699648287545
 30
0.0
 11
402.049258345658
 21
1014.644582360846
 31
0.0
  0
LINE
  5
78CD
330
A
100
AcDbEntity
  8
HIDDEN
100
AcDbLine
 10
482.3970071985623
 20
1066.007566577177
 30
0.0
 11
497.0414015411689
 21
1066.007566577177
 31
0.0
  0
LINE
  5
78CE
330
A
100
AcDbEntity
  8
HIDDEN
100
AcDbLine
 10
478.8853586368214
 20
1076.658656280988
 30
0.0
 11
482.383343196379
 21
1066.007566577177
 31
0.0
  0
LINE
  5
78CF
330
A
100
AcDbEntity
  8
HIDDEN
100
AcDbLine
 10
457.221083171276
 20
1076.658656280988
 30
0.0
 11
478.8853586368214
 21
1076.658656280988
 31
0.0
  0
LINE
  5
78D0
330
A
100
AcDbEntity
  8
HIDDEN
100
AcDbLine
 10
491.9378967247831
 20
1025.486968095259
 30
0.0
 11
457.2449951750991
 21
1076.658656280988
 31
0.0
  0
LINE
  5
78D1
330
A
100
AcDbEntity
  8
HIDDEN
100
AcDbLine
 10
482.3970071985623
 20
1199.784979977014
 30
0.0
 11
478.5813345881893
 21
1188.915266238229
 31
0.0
  0
LINE
  5
78D2
330
A
100
AcDbEntity
  8
HIDDEN
100
AcDbLine
 10
478.5813345881893
 20
1188.915266238229
 30
0.0
 11
423.5119897789655
 21
1188.915266238229
 31
0.0
  0
LINE
  5
78D3
330
A
100
AcDbEntity
  8
HIDDEN
100
AcDbLine
 10
482.3970071985623
 20
1199.784979977014
 30
0.0
 11
497.0414015411689
 21
1199.784979977014
 31
0.0
  0
LINE
  5
78D4
330
A
100
AcDbEntity
  8
MODEL
100
AcDbLine
 10
721.8210694982718
 20
952.1727643674785
 30
0.0
 11
721.8210694982718
 21
1202.060036340945
 31
0.0
  0
LINE
  5
78D5
330
A
100
AcDbEntity
  8
MODEL
100
AcDbLine
 10
351.9706903347928
 20
1516.297926608323
 30
0.0
 11
351.9706903347928
 21
952.1727643674785
 31
0.0
  0
LINE
  5
78D6
102
{ACAD_REACTORS
330
7983
102
}
330
A
100
AcDbEntity
  8
MODEL
100
AcDbLine
 10
351.9706903347928
 20
952.1727643674785
 30
0.0
 11
1058.778779400046
 21
952.1727643674785
 31
0.0
  0
LINE
  5
78D7
330
A
100
AcDbEntity
  8
MODEL
100
AcDbLine
 10
351.9706903347928
 20
952.1727643674785
 30
0.0
 11
351.9706903347928
 21
1381.994449124332
 31
0.0
  0
LINE
  5
78D8
330
A
100
AcDbEntity
  8
MODEL
100
AcDbLine
 10
351.9706903347928
 20
952.1727643674785
 30
0.0
 11
721.8347335004582
 21
952.1727643674785
 31
0.0
  0
LINE
  5
78DE
102
{ACAD_REACTORS
330
7983
102
}
330
A
100
AcDbEntity
  8
MODEL
100
AcDbLine
 10
351.9570263326063
 20
1381.973953121054
 30
0.0
 11
856.75309108281
 21
1381.973953121054
 31
0.0
  0
POLYLINE
  5
78DF
330
A
100
AcDbEntity
  8
MODEL
100
AcDb2dPolyline
 66
     1
 10
0.0
 20
0.0
 30
0.0
  0
VERTEX
  5
78E0
330
78DF
100
AcDbEntity
  8
MODEL
100
AcDbVertex
100
AcDb2dVertex
 10
856.75309108281
 20
1388.443858156019
 30
0.0
  0
VERTEX
  5
78E1
330
78DF
100
AcDbEntity
  8
MODEL
100
AcDbVertex
100
AcDb2dVertex
 10
856.75309108281
 20
1388.443858156019
 30
0.0
  0
SEQEND
  5
78E2
330
78DF
100
AcDbEntity
  8
MODEL
  0
POLYLINE
  5
78E3
330
A
100
AcDbEntity
  8
MODEL
100
AcDb2dPolyline
 66
     1
 10
0.0
 20
0.0
 30
0.0
  0
VERTEX
  5
78E4
330
78E3
100
AcDbEntity
  8
MODEL
100
AcDbVertex
100
AcDb2dVertex
 10
493.837193028603
 20
1414.661662349975
 30
0.0
  0
VERTEX
  5
78E5
330
78E3
100
AcDbEntity
  8
MODEL
100
AcDbVertex
100
AcDb2dVertex
 10
439.1196962756649
 20
1414.661662349975
 30
0.0
  0
VERTEX
  5
78E6
330
78E3
100
AcDbEntity
  8
MODEL
100
AcDbVertex
100
AcDb2dVertex
 10
439.1196962756649
 20
1388.443858156019
 30
0.0
  0
VERTEX
  5
78E7
330
78E3
100
AcDbEntity
  8
MODEL
100
AcDbVertex
100
AcDb2dVertex
 10
481.9051031198792
 20
1388.443858156019
 30
0.0
  0
VERTEX
  5
78E8
330
78E3
100
AcDbEntity
  8
MODEL
100
AcDbVertex
100
AcDb2dVertex
 10
856.2611870041196
 20
1388.443858156019
 30
0.0
  0
SEQEND
  5
78E9
330
78E3
100
AcDbEntity
  8
MODEL
  0
LINE
  5
78EA
330
A
100
AcDbEntity
  8
MODEL
100
AcDbLine
 10
351.9706903347928
 20
1402.005380325401
 30
0.0
 11
351.9706903347928
 21
1461.539437848826
 31
0.0
  0
LINE
  5
78EB
330
A
100
AcDbEntity
  8
HIDDEN
100
AcDbLine
 10
405.058754827076
 20
1381.994449124332
 30
0.0
 11
405.058754827076
 21
1367.715566840197
 31
0.0
  0
LINE
  5
78EC
330
A
100
AcDbEntity
  8
HIDDEN
100
AcDbLine
 10
417.7696928603955
 20
1381.994449124332
 30
0.0
 11
417.7696928603955
 21
1367.715566840197
 31
0.0
  0
LINE
  5
78ED
330
A
100
AcDbEntity
  8
HIDDEN
100
AcDbLine
 10
439.1196962756649
 20
1349.296491893771
 30
0.0
 11
382.8240072702729
 21
1349.296491893771
 31
0.0
  0
LINE
  5
78EE
330
A
100
AcDbEntity
  8
HIDDEN
100
AcDbLine
 10
405.0485068254357
 20
1367.558430815061
 30
0.0
 11
417.7696928603955
 21
1367.558430815061
 31
0.0
  0
LINE
  5
78EF
330
A
100
AcDbEntity
  8
HIDDEN
100
AcDbLine
 10
417.7696928603955
 20
1316.270598610752
 30
0.0
 11
405.0485068254357
 21
1316.270598610752
 31
0.0
  0
LINE
  5
78F0
330
A
100
AcDbEntity
  8
HIDDEN
100
AcDbLine
 10
405.0485068254357
 20
1331.273673010732
 30
0.0
 11
405.0485068254357
 21
1316.270598610752
 31
0.0
  0
LINE
  5
78F1
330
A
100
AcDbEntity
  8
HIDDEN
100
AcDbLine
 10
417.7696928603955
 20
1331.273673010732
 30
0.0
 11
417.7696928603955
 21
1316.270598610752
 31
0.0
  0
LINE
  5
78F2
330
A
100
AcDbEntity
  8
HIDDEN
100
AcDbLine
 10
405.0485068254357
 20
1331.273673010732
 30
0.0
 11
417.7696928603955
 21
1331.273673010732
 31
0.0
  0
LINE
  5
78F3
330
A
100
AcDbEntity
  8
HIDDEN
100
AcDbLine
 10
417.7696928603955
 20
1316.270598610752
 30
0.0
 11
493.837193028603
 21
1316.270598610752
 31
0.0
  0
LINE
  5
78F4
330
A
100
AcDbEntity
  8
HIDDEN
100
AcDbLine
 10
405.0485068254357
 20
1367.544766812876
 30
0.0
 11
405.0485068254357
 21
1331.273673010732
 31
0.0
  0
LINE
  5
78F5
330
A
100
AcDbEntity
  8
HIDDEN
100
AcDbLine
 10
417.7696928603955
 20
1367.544766812876
 30
0.0
 11
417.7696928603955
 21
1331.273673010732
 31
0.0
  0
LINE
  5
78F6
330
A
100
AcDbEntity
  8
MODEL
100
AcDbLine
 10
405.0485068254357
 20
1381.973953121054
 30
0.0
 11
417.7696928603955
 21
1381.973953121054
 31
0.0
  0
LINE
  5
78FB
330
A
100
AcDbEntity
  8
HIDDEN
100
AcDbLine
 10
358.8266034315006
 20
1082.356545192457
 30
0.0
 11
559.8753155924605
 21
1082.356545192457
 31
0.0
  0
LINE
  5
78FC
330
A
100
AcDbEntity
  8
HIDDEN
100
AcDbLine
 10
358.8266034315006
 20
1182.370209191243
 30
0.0
 11
559.8753155924605
 21
1182.370209191243
 31
0.0
  0
LINE
  5
78FD
330
A
100
AcDbEntity
  8
HIDDEN
100
AcDbLine
 10
446.4982574559872
 20
1082.356545192457
 30
0.0
 11
446.4982574559872
 21
1182.370209191243
 31
0.0
  0
LINE
  5
7901
330
A
100
AcDbEntity
  8
MODEL
100
AcDbLine
 10
351.9706903347928
 20
2064.791470348637
 30
0.0
 11
351.9706903347928
 21
1815.860678528176
 31
0.0
  0
LINE
  5
7902
330
A
100
AcDbEntity
  8
MODEL
100
AcDbLine
 10
351.9706903347928
 20
2064.791470348637
 30
0.0
 11
529.2064626864849
 21
2064.791470348637
 31
0.0
  0
SPLINE
  5
7903
330
A
100
AcDbEntity
  8
MODEL
100
AcDbSpline
210
0.0
220
0.0
230
1.0
 70
     8
 71
     3
 72
     8
 73
     4
 74
     0
 42
0.000000001
 43
0.0000000001
 40
0.0
 40
0.0
 40
0.0
 40
0.0
 40
1.0
 40
1.0
 40
1.0
 40
1.0
 10
529.2064626864849
 20
1815.860678528176
 30
0.0
 10
580.8768869520018
 20
1757.710101226059
 30
0.0
 10
663.154676113646
 20
1737.466881987833
 30
0.0
 10
735.9018237507175
 20
1765.13648641403
 30
0.0
  0
SPLINE
  5
7904
330
A
100
AcDbEntity
  8
MODEL
100
AcDbSpline
210
0.0
220
0.0
230
1.0
 70
     8
 71
     3
 72
    11
 73
     7
 74
     0
 42
0.000000001
 43
0.0000000001
 40
1.0
 40
1.0
 40
1.0
 40
1.0
 40
2.0
 40
2.0
 40
2.0
 40
3.0
 40
3.0
 40
3.0
 40
3.0
 10
735.9018237507175
 20
1765.13648641403
 30
0.0
 10
808.6694673910656
 20
1792.748018830936
 30
0.0
 10
856.75309108281
 20
1862.485669986587
 30
0.0
 10
856.75309108281
 20
1940.308994435674
 30
0.0
 10
856.75309108281
 20
2018.169894890769
 30
0.0
 10
808.6694673910656
 20
2087.904130045876
 30
0.0
 10
735.9018237507175
 20
2115.515662462782
 30
0.0
  0
SPLINE
  5
7905
330
A
100
AcDbEntity
  8
MODEL
100
AcDbSpline
210
0.0
220
0.0
230
1.0
 70
     8
 71
     3
 72
     8
 73
     4
 74
     0
 42
0.000000001
 43
0.0000000001
 40
3.0
 40
3.0
 40
3.0
 40
3.0
 40
4.0
 40
4.0
 40
4.0
 40
4.0
 10
735.9018237507175
 20
2115.515662462782
 30
0.0
 10
663.154676113646
 20
2143.178434887885
 30
0.0
 10
580.8768869520018
 20
2122.969375655122
 30
0.0
 10
529.2064626864849
 20
2064.791470348637
 30
0.0
  0
LINE
  5
7906
330
A
100
AcDbEntity
  8
MODEL
100
AcDbLine
 10
351.9706903347928
 20
1815.860678528176
 30
0.0
 11
529.2064626864849
 21
1815.860678528176
 31
0.0
  0
LINE
  5
7923
102
{ACAD_REACTORS
330
7A14
102
}
330
A
100
AcDbEntity
  8
HIDDEN
100
AcDbLine
 10
1455.466966856667
 20
1127.172764367479
 30
0.0
 11
1602.382318358133
 21
1127.172764367479
 31
0.0
  0
LINE
  5
7924
102
{ACAD_REACTORS
330
7A14
102
}
330
A
100
AcDbEntity
  8
HIDDEN
100
AcDbLine
 10
1452.518958385082
 20
1298.61670778673
 30
0.0
 11
1599.434309886548
 21
1298.61670778673
 31
0.0
  0
LINE
  5
7925
102
{ACAD_REACTORS
330
7A14
102
}
330
A
100
AcDbEntity
  8
HIDDEN
100
AcDbLine
 10
1528.9246426074
 20
1331.775825091061
 30
0.0
 11
1528.9246426074
 21
1072.340831590285
 31
0.0
  0
LINE
  5
7926
330
A
100
AcDbEntity
  8
HIDDEN
100
AcDbLine
 10
488.2793601395406
 20
1403.487924562558
 30
0.0
 11
850.3207620538547
 21
1403.487924562558
 31
0.0
  0
POLYLINE
  5
7927
330
A
100
AcDbEntity
  8
MODEL
100
AcDb2dPolyline
 66
     1
 10
0.0
 20
0.0
 30
0.0
  0
VERTEX
  5
7928
330
7927
100
AcDbEntity
  8
MODEL
100
AcDbVertex
100
AcDb2dVertex
 10
1716.34522058832
 20
1388.443858156019
 30
0.0
  0
VERTEX
  5
7929
330
7927
100
AcDbEntity
  8
MODEL
100
AcDbVertex
100
AcDb2dVertex
 10
1716.34522058832
 20
1388.443858156019
 30
0.0
  0
SEQEND
  5
792A
330
7927
100
AcDbEntity
  8
MODEL
  0
POLYLINE
  5
792B
330
A
100
AcDbEntity
  8
MODEL
100
AcDb2dPolyline
 66
     1
 10
0.0
 20
0.0
 30
0.0
  0
VERTEX
  5
792C
330
792B
100
AcDbEntity
  8
MODEL
100
AcDbVertex
100
AcDb2dVertex
 10
1341.49723262539
 20
1388.443858156019
 30
0.0
  0
VERTEX
  5
792D
330
792B
100
AcDbEntity
  8
MODEL
100
AcDbVertex
100
AcDb2dVertex
 10
1715.85331650963
 20
1388.443858156019
 30
0.0
  0
SEQEND
  5
792E
330
792B
100
AcDbEntity
  8
MODEL
  0
POLYLINE
  5
792F
330
A
100
AcDbEntity
  8
MODEL
100
AcDb2dPolyline
 66
     1
 10
0.0
 20
0.0
 30
0.0
  0
VERTEX
  5
7930
330
792F
100
AcDbEntity
  8
MODEL
100
AcDbVertex
100
AcDb2dVertex
 10
1353.429322534113
 20
1414.661662349975
 30
0.0
  0
VERTEX
  5
7931
330
792F
100
AcDbEntity
  8
MODEL
100
AcDbVertex
100
AcDb2dVertex
 10
1353.429322534113
 20
1414.661662349975
 30
0.0
  0
SEQEND
  5
7932
330
792F
100
AcDbEntity
  8
MODEL
  0
LINE
  5
7933
330
A
100
AcDbEntity
  8
HIDDEN
100
AcDbLine
 10
1347.871489645051
 20
1403.487924562558
 30
0.0
 11
1709.912891559365
 21
1403.487924562558
 31
0.0
  0
DIMENSION
  5
7954
102
{ACAD_XDICTIONARY
360
7955
102
}
330
A
100
AcDbEntity
  8
Dim
100
AcDbDimension
  2
*D26
 10
959.1749671279908
 20
1752.914036458852
 30
0.0
 11
936.9586585342408
 21
1940.331198439225
 31
0.0
 70
    32
 71
     5
 42
374.8343239607452
 73
     0
 74
     0
 75
     0
  3
tform線あり
100
AcDbAlignedDimension
 13
685.2388971966561
 23
2127.748360419598
 33
0.0
 14
673.0456469845617
 24
1752.914036458852
 34
0.0
 50
90.0
100
AcDbRotatedDimension
1001
ACAD
1000
DSTYLE
1002
{
1070
   144
1040
1.0
1002
}
  0
DIMENSION
  5
7981
102
{ACAD_REACTORS
330
7983
102
}
102
{ACAD_XDICTIONARY
360
7982
102
}
330
A
100
AcDbEntity
  8
Dim
100
AcDbDimension
  2
*D29
 10
979.3935860062438
 20
952.1727643674785
 30
0.0
 11
979.3935860062438
 21
1167.073358744266
 31
0.0
 70
   160
 71
     5
 42
429.8011887535754
 73
     0
 74
     0
 75
     0
  3
tform線あり
100
AcDbAlignedDimension
 13
844.1770617079446
 23
1381.973953121054
 33
0.0
 14
844.1770617079446
 24
952.1727643674785
 34
0.0
 50
90.0
100
AcDbRotatedDimension
1001
ACAD
1000
DSTYLE
1002
{
1070
   144
1040
1.0
1002
}
  0
DIMENSION
  5
7993
102
{ACAD_XDICTIONARY
360
7994
102
}
330
A
100
AcDbEntity
  8
Dim
100
AcDbDimension
  2
*D30
 10
856.75309108281
 20
2252.505483485526
 30
0.0
 11
604.3618907088014
 21
2274.721792079276
 31
0.0
 70
    32
 71
     5
 42
504.7824007480172
 73
     0
 74
     0
 75
     0
  3
tform線あり
100
AcDbAlignedDimension
 13
351.9706903347928
 23
2109.844456004024
 33
0.0
 14
856.75309108281
 24
2016.926470691864
 34
0.0
100
AcDbRotatedDimension
1001
ACAD
1000
DSTYLE
1002
{
1070
   144
1040
1.0
1002
}
  0
DIMENSION
  5
79A2
330
A
100
AcDbEntity
  8
Dim
100
AcDbDimension
  2
*D31
 10
187.7031489087049
 20
1817.826074438407
 30
0.0
 11
165.4868403149549
 21
1940.326074438406
 31
0.0
 70
    32
 71
     5
 42
244.9999999999995
 73
     0
 74
     0
 75
     0
  3
tform線あり
100
AcDbAlignedDimension
 13
351.9706903347928
 23
2062.826074438406
 33
0.0
 14
351.9706903347924
 24
1817.826074438407
 34
0.0
 50
90.0
100
AcDbRotatedDimension
1001
ACAD
1000
DSTYLE
1002
{
1070
   144
1040
1.0
1002
}
  0
DIMENSION
  5
79BD
102
{ACAD_XDICTIONARY
360
79BE
102
}
330
A
100
AcDbEntity
  8
Dim
100
AcDbDimension
  2
*D32
 10
275.0490959499398
 20
1082.370209194644
 30
0.0
 11
252.8327873561898
 21
1132.370209192943
 31
0.0
 70
    32
 71
     5
 42
99.9999999965994
 73
     0
 74
     0
 75
     0
  3
tform線あり
100
AcDbAlignedDimension
 13
351.9449159664273
 23
1182.370209191243
 33
0.0
 14
351.9449159664273
 24
1082.370209194644
 34
0.0
 50
90.0
100
AcDbRotatedDimension
1001
ACAD
1000
DSTYLE
1002
{
1070
   144
1040
1.0
1002
}
  0
DIMENSION
  5
79CC
330
A
100
AcDbEntity
  8
Dim
100
AcDbDimension
  2
*D33
 10
451.9706903347928
 20
853.8851117428414
 30
0.0
 11
401.9706903347928
 21
876.1014203365914
 31
0.0
 70
    32
 71
     5
 42
100.0
 73
     0
 74
     0
 75
     0
  3
tform線あり
100
AcDbAlignedDimension
 13
351.9706903347928
 23
952.1727643674785
 33
0.0
 14
451.9706903347928
 24
952.1727643674785
 34
0.0
100
AcDbRotatedDimension
1001
ACAD
1000
DSTYLE
1002
{
1070
   144
1040
1.0
1002
}
  0
DIMENSION
  5
79D9
330
A
100
AcDbEntity
  8
Dim
100
AcDbDimension
  2
*D34
 10
537.026106613388
 20
794.5771427112152
 30
0.0
 11
444.4983984740904
 21
816.7934513049652
 31
0.0
 70
    32
 71
     5
 42
185.0554162785952
 73
     0
 74
     0
 75
     0
  3
tform線あり
100
AcDbAlignedDimension
 13
351.9706903347928
 23
932.1686651675029
 33
0.0
 14
537.026106613388
 24
973.5705983683335
 34
0.0
100
AcDbRotatedDimension
1001
ACAD
1000
DSTYLE
1002
{
1070
   144
1040
1.0
1002
}
  0
DIMENSION
  5
79E9
330
A
100
AcDbEntity
  8
Dim
100
AcDbDimension
  2
*D35
 10
1260.556351092241
 20
1297.172764367479
 30
0.0
 11
1260.556351092241
 21
1124.672764367479
 31
0.0
 70
   160
 71
     5
 42
345.0
 73
     0
 74
     0
 75
     0
  3
tform線あり
100
AcDbAlignedDimension
 13
1345.616464571811
 23
952.1727643674785
 33
0.0
 14
1426.77473798351
 24
1297.172764367479
 34
0.0
 50
90.0
100
AcDbRotatedDimension
1001
ACAD
1000
DSTYLE
1002
{
1070
   144
1040
1.0
1002
}
  0
DIMENSION
  5
79F6
330
A
100
AcDbEntity
  8
Dim
100
AcDbDimension
  2
*D36
 10
1325.912172229066
 20
1127.172764367479
 30
0.0
 11
1325.912172229066
 21
1039.672764367479
 31
0.0
 70
   160
 71
     5
 42
175.0000000000005
 73
     0
 74
     0
 75
     0
  3
tform線あり
100
AcDbAlignedDimension
 13
1359.077812805962
 23
952.1727643674785
 33
0.0
 14
1435.16369412943
 24
1127.172764367479
 34
0.0
 50
90.0
100
AcDbRotatedDimension
1001
ACAD
1000
DSTYLE
1002
{
1070
   144
1040
1.0
1002
}
  0
DIMENSION
  5
7A04
102
{ACAD_XDICTIONARY
360
7A05
102
}
330
A
100
AcDbEntity
  8
Dim
100
AcDbDimension
  2
*D37
 10
1646.400873808338
 20
861.5573347824461
 30
0.0
 11
1528.924642607399
 21
883.7736433761961
 31
0.0
 70
    32
 71
     5
 42
234.9524624018777
 73
     0
 74
     0
 75
     0
  3
tform線あり
100
AcDbAlignedDimension
 13
1411.44841140646
 23
945.0183663179064
 33
0.0
 14
1646.400873808338
 24
949.7449307461441
 34
0.0
100
AcDbRotatedDimension
1001
ACAD
1000
DSTYLE
1002
{
1070
   144
1040
1.0
1002
}
  0
DIMENSION
  5
7A15
330
A
100
AcDbEntity
  8
Dim
100
AcDbDimension
  2
*D38
 10
1794.75147009491
 20
1402.172764367479
 30
0.0
 11
1772.53516150116
 21
1177.172764367479
 31
0.0
 70
    32
 71
     5
 42
450.0
 73
     0
 74
     0
 75
     0
  3
tform線あり
100
AcDbAlignedDimension
 13
1738.662519119276
 23
952.1727643674785
 33
0.0
 14
1717.933993758716
 24
1402.172764367479
 34
0.0
 50
90.0
100
AcDbRotatedDimension
1001
ACAD
1000
DSTYLE
1002
{
1070
   144
1040
1.0
1002
}
  0
DIMENSION
  5
7A22
102
{ACAD_XDICTIONARY
360
7A23
102
}
330
A
100
AcDbEntity
  8
Dim
100
AcDbDimension
  2
*D39
 10
1854.498396134171
 20
1447.172764367479
 30
0.0
 11
1832.282087540421
 21
1199.672764367479
 31
0.0
 70
    32
 71
     5
 42
495.0
 73
     0
 74
     0
 75
     0
  3
tform線あり
100
AcDbAlignedDimension
 13
1779.206994607093
 23
952.1727643674785
 33
0.0
 14
1647.21314252857
 24
1447.172764367479
 34
0.0
 50
90.0
100
AcDbRotatedDimension
1001
ACAD
1000
DSTYLE
1002
{
1070
   144
1040
1.0
1002
}
  0
LINE
  5
7A35
330
A
100
AcDbEntity
  8
MODEL
100
AcDbLine
 10
1411.44841140646
 20
952.1727643674785
 30
0.0
 11
1411.44841140646
 21
1229.672534145588
 31
0.0
  0
SPLINE
  5
7A36
330
A
100
AcDbEntity
  8
HIDDEN
 48
0.5
100
AcDbSpline
210
0.0
220
0.0
230
1.0
 70
     8
 71
     3
 72
     8
 73
     4
 74
     0
 42
0.000000001
 43
0.0000000001
 40
0.0
 40
0.0
 40
0.0
 40
0.0
 40
1.0
 40
1.0
 40
1.0
 40
1.0
 10
1641.044328188834
 20
960.9518857718404
 30
0.0
 10
1641.044328188834
 20
958.7793094243018
 30
0.0
 10
1639.281671906865
 20
957.0029891401509
 30
0.0
 10
1637.078351554409
 20
957.0029891401509
 30
0.0
  0
SPLINE
  5
7A37
330
A
100
AcDbEntity
  8
HIDDEN
 48
0.5
100
AcDbSpline
210
0.0
220
0.0
230
1.0
 70
     8
 71
     3
 72
     8
 73
     4
 74
     0
 42
0.000000001
 43
0.0000000001
 40
0.0
 40
0.0
 40
0.0
 40
0.0
 40
1.0
 40
1.0
 40
1.0
 40
1.0
 10
1631.670822689388
 20
970.9334393685488
 30
0.0
 10
1631.670822689388
 20
968.7676950221035
 30
0.0
 10
1629.880838403052
 20
966.9913747379528
 30
0.0
 10
1627.704846054967
 20
966.9913747379528
 30
0.0
  0
LINE
  5
7A38
330
A
100
AcDbEntity
  8
HIDDEN
 48
0.5
100
AcDbLine
 10
1641.044328188834
 20
1006.801445106211
 30
0.0
 11
1631.670822689388
 21
1006.801445106211
 31
0.0
  0
LINE
  5
7A39
330
A
100
AcDbEntity
  8
HIDDEN
 48
0.5
100
AcDbLine
 10
1631.670822689388
 20
1006.801445106211
 30
0.0
 11
1631.670822689388
 21
970.9402713696422
 31
0.0
  0
LINE
  5
7A3A
330
A
100
AcDbEntity
  8
HIDDEN
 48
0.5
100
AcDbLine
 10
1599.157329488333
 20
956.9756611357791
 30
0.0
 11
1637.078351554409
 21
956.9756611357791
 31
0.0
  0
LINE
  5
7A3B
330
A
100
AcDbEntity
  8
HIDDEN
 48
0.5
100
AcDbLine
 10
1599.157329488333
 20
966.964046733581
 30
0.0
 11
1627.704846054967
 21
966.964046733581
 31
0.0
  0
LINE
  5
7A3C
330
A
100
AcDbEntity
  8
HIDDEN
 48
0.5
100
AcDbLine
 10
1599.157329488333
 20
966.964046733581
 30
0.0
 11
1599.157329488333
 21
956.9756611357791
 31
0.0
  0
LINE
  5
7A3D
330
A
100
AcDbEntity
  8
HIDDEN
 48
0.5
100
AcDbLine
 10
1641.044328188834
 20
1006.801445106211
 30
0.0
 11
1641.044328188834
 21
960.9655497740255
 31
0.0
  0
LINE
  5
7A3E
330
A
100
AcDbEntity
  8
MODEL
100
AcDbLine
 10
1646.40087380834
 20
952.1727643674785
 30
0.0
 11
1646.40087380834
 21
1229.672534145588
 31
0.0
  0
SPLINE
  5
7A3F
330
A
100
AcDbEntity
  8
MODEL
100
AcDbSpline
210
0.0
220
0.0
230
1.0
 70
     8
 71
     3
 72
     8
 73
     4
 74
     0
 42
0.000000001
 43
0.0000000001
 40
0.0
 40
0.0
 40
0.0
 40
0.0
 40
1.0
 40
1.0
 40
1.0
 40
1.0
 10
1716.34522058832
 20
1381.994449124332
 30
0.0
 10
1716.34522058832
 20
1329.128424667566
 30
0.0
 10
1694.014825016213
 20
1268.747199008623
 30
0.0
 10
1646.400873808339
 20
1229.672534145588
 30
0.0
  0
VIEWPORT
  5
349
330
B
100
AcDbEntity
 67
     1
  8
0
100
AcDbViewport
 10
202.5
 20
128.5
 30
0.0
 40
486.0
 41
308.4
 68
     1
 69
     1
 12
202.5
 22
128.5
 13
0.0
 23
0.0
 14
0.5
 24
0.5
 15
0.0
 25
0.0
 16
0.0
 26
0.0
 36
1.0
 17
0.0
 27
0.0
 37
0.0
 42
50.0
 43
0.0
 44
0.0
 45
308.4
 50
0.0
 51
0.0
 72
   100
 90
   557152
  1

281
     0
 71
     1
 74
     0
110
0.0
120
0.0
130
0.0
111
1.0
121
0.0
131
0.0
112
0.0
122
1.0
132
0.0
 79
     0
146
0.0
170
     0
 61
     5
348
26C
292
     1
282
     1
141
0.0
142
0.0
 63
   256
  0
VIEWPORT
  5
34A
330
B
100
AcDbEntity
 67
     1
  8
0
100
AcDbViewport
 10
202.5
 20
128.5
 30
0.0
 40
324.0
 41
205.6
 68
     2
 69
     2
 12
986.6781359294573
 22
1427.077061889956
 13
0.0
 23
0.0
 14
0.5
 24
0.5
 15
0.0
 25
0.0
 16
0.0
 26
0.0
 36
1.0
 17
0.0
 27
0.0
 37
0.0
 42
50.0
 43
0.0
 44
0.0
 45
2890.021615685494
 50
0.0
 51
0.0
 72
   100
 90
   557152
  1

281
     0
 71
     1
 74
     0
110
0.0
120
0.0
130
0.0
111
1.0
121
0.0
131
0.0
112
0.0
122
1.0
132
0.0
 79
     0
146
0.0
170
     0
 61
     5
348
26C
292
     1
282
     1
141
0.0
142
0.0
 63
   256
  0
ENDSEC
  0
SECTION
  2
OBJECTS
  0
DICTIONARY
  5
19
330
0
100
AcDbDictionary
281
     1
  3
ACAD_COLOR
350
38F
  3
ACAD_DETAILVIEWSTYLE
350
8CF
  3
ACAD_FIELDLIST
350
BA6
  3
ACAD_GROUP
350
1A
  3
ACAD_IMAGE_VARS
350
27B
  3
ACAD_LAYOUT
350
1E
  3
ACAD_MATERIAL
350
263
  3
ACAD_MLEADERSTYLE
350
336
  3
ACAD_MLINESTYLE
350
1B
  3
ACAD_PLOTSETTINGS
350
22
  3
ACAD_PLOTSTYLENAME
350
1F
  3
ACAD_SCALELIST
350
241
  3
ACAD_SECTIONVIEWSTYLE
350
8D0
  3
ACAD_TABLESTYLE
350
278
  3
ACAD_VISUALSTYLE
350
267
  3
ACDB_RECOMPOSE_DATA
350
7A4E
  3
AcDbVariableDictionary
350
330
  3
APPDATA
350
27A
  3
DimOffsetDictionary
350
C08
  0
SUN
  5
8C2
330
15
100
AcDbSun
 90
        1
290
     0
 63
     7
421
 16777215
 40
1.0
291
     1
 91
  2455826
 92
 54000000
292
     0
 70
     2
 71
   256
280
     1
  0
DICTIONARY
  5
2E1
330
2
100
AcDbDictionary
280
     1
281
     1
  3
ACAD_LAYERSTATES
360
2E2
  3
ACLYDICTIONARY
360
79BB
  0
DICTIONARY
  5
7557
330
A
100
AcDbDictionary
280
     1
281
     1
  3
ACAD_SORTENTS
360
7558
  0
DICTIONARY
  5
BDC
330
BDB
100
AcDbDictionary
280
     1
281
     1
  3
ACAD_FIELD
360
7A43
  0
DICTIONARY
  5
7955
330
7954
100
AcDbDictionary
280
     1
281
     1
  0
DICTIONARY
  5
7982
330
7981
100
AcDbDictionary
280
     1
281
     1
  3
ACAD_DIMASSOC
360
7983
  0
DICTIONARY
  5
7994
330
7993
100
AcDbDictionary
280
     1
281
     1
  0
DICTIONARY
  5
79BE
330
79BD
100
AcDbDictionary
280
     1
281
     1
  0
DICTIONARY
  5
7A05
330
7A04
100
AcDbDictionary
280
     1
281
     1
  0
DICTIONARY
  5
7A23
330
7A22
100
AcDbDictionary
280
     1
281
     1
  0
DICTIONARY
  5
38F
102
{ACAD_REACTORS
330
19
102
}
330
19
100
AcDbDictionary
281
     1
  0
DICTIONARY
  5
8CF
102
{ACAD_REACTORS
330
19
102
}
330
19
100
AcDbDictionary
281
     1
  0
FIELDLIST
  5
BA6
102
{ACAD_REACTORS
330
19
102
}
330
19
100
AcDbIdSet
 90
        2
330
BDF
330
BDE
100
AcDbFieldList
  0
DICTIONARY
  5
1A
102
{ACAD_REACTORS
330
19
102
}
330
19
100
AcDbDictionary
281
     1
  3
*A1
350
76A1
  3
*A2
350
7735
  3
*A6
350
7A14
  0
RASTERVARIABLES
  5
27B
102
{ACAD_REACTORS
330
19
102
}
330
19
100
AcDbRasterVariables
 90
        0
 70
     1
 71
     1
 72
     1
  0
DICTIONARY
  5
1E
102
{ACAD_REACTORS
330
19
102
}
330
19
100
AcDbDictionary
281
     1
  3
Layout1
350
21
  3
Model
350
20
  0
DICTIONARY
  5
263
102
{ACAD_REACTORS
330
19
102
}
330
19
100
AcDbDictionary
281
     1
  3
ByBlock
350
6EA1
  3
ByLayer
350
264
  3
Global
350
266
  0
DICTIONARY
  5
336
102
{ACAD_REACTORS
330
19
102
}
330
19
100
AcDbDictionary
281
     1
  3
Standard
350
8D1
  0
DICTIONARY
  5
1B
102
{ACAD_REACTORS
330
19
102
}
330
19
100
AcDbDictionary
281
     1
  3
Standard
350
1C
  0
DICTIONARY
  5
22
102
{ACAD_REACTORS
330
19
102
}
330
19
100
AcDbDictionary
281
     1
  0
ACDBDICTIONARYWDFLT
  5
1F
102
{ACAD_REACTORS
330
19
102
}
330
19
100
AcDbDictionary
281
     1
  3
Normal
350
1D
100
AcDbDictionaryWithDefault
340
1D
  0
DICTIONARY
  5
241
102
{ACAD_REACTORS
330
19
102
}
330
19
100
AcDbDictionary
281
     1
  3
A0
350
242
  3
A1
350
243
  3
A2
350
244
  3
A3
350
245
  3
A4
350
246
  3
A5
350
247
  3
A6
350
248
  3
A7
350
249
  3
A8
350
24A
  3
A9
350
24B
  3
B0
350
24C
  3
B1
350
24D
  3
B2
350
24E
  3
B3
350
24F
  3
B4
350
250
  3
B5
350
251
  3
B6
350
252
  3
B7
350
253
  3
B8
350
254
  3
B9
350
255
  3
C0
350
256
  3
C1
350
257
  3
C2
350
258
  3
C3
350
259
  3
C4
350
25A
  3
C5
350
25B
  3
C6
350
25C
  3
C7
350
25D
  3
C8
350
25E
  3
C9
350
25F
  3
D0
350
260
  3
D1
350
261
  3
D2
350
262
  0
DICTIONARY
  5
8D0
102
{ACAD_REACTORS
330
19
102
}
330
19
100
AcDbDictionary
281
     1
  0
DICTIONARY
  5
278
102
{ACAD_REACTORS
330
19
102
}
330
19
100
AcDbDictionary
281
     1
  3
Standard
350
279
  0
DICTIONARY
  5
267
102
{ACAD_REACTORS
330
19
102
}
330
19
100
AcDbDictionary
281
     1
  3
2dWireframe
350
26C
  3
3D Hidden
350
26E
  3
3dWireframe
350
26D
  3
Basic
350
26F
  3
Brighten
350
273
  3
ColorChange
350
277
  3
Conceptual
350
271
  3
Dim
350
272
  3
EdgeColorOff
350
8BC
  3
Facepattern
350
276
  3
Flat
350
268
  3
FlatWithEdges
350
269
  3
Gouraud
350
26A
  3
GouraudWithEdges
350
26B
  3
Hidden
350
8B9
  3
JitterOff
350
8BA
  3
Linepattern
350
275
  3
OverhangOff
350
8BB
  3
Realistic
350
270
  3
Shaded
350
8C1
  3
Shaded with edges
350
8C0
  3
Shades of Gray
350
8BD
  3
Sketchy
350
8BE
  3
Thicken
350
274
  3
Wireframe
350
8B8
  3
X-Ray
350
8BF
  0
XRECORD
  5
7A4E
102
{ACAD_REACTORS
330
19
102
}
330
19
100
AcDbXrecord
280
     1
 90
        1
330
279
  0
DICTIONARY
  5
330
102
{ACAD_REACTORS
330
19
102
}
330
19
100
AcDbDictionary
281
     1
  3
CANNOSCALE
350
331
  3
CMLEADERSTYLE
350
8DA
  3
CTABLESTYLE
350
335
  3
HPTRANSPARENCY
350
C07
  3
XCLIPFRAME
350
64A
  0
DICTIONARY
  5
27A
102
{ACAD_REACTORS
330
19
102
}
330
19
100
AcDbDictionary
281
     1
  0
DICTIONARY
  5
C08
102
{ACAD_REACTORS
330
19
102
}
330
19
100
AcDbDictionary
281
     1
  3
DIMRAILANGLE
350
4918
  3
DIMRAILFIRSTOFFSET
350
4916
  3
DIMRAILOFFSET
350
4917
  3
DIMRAILSENABLED
350
4919
  0
DICTIONARY
  5
2E2
102
{ACAD_REACTORS
330
2E1
102
}
330
2E1
100
AcDbDictionary
281
     1
  0
DICTIONARY
  5
79BB
102
{ACAD_REACTORS
330
2E1
102
}
330
2E1
100
AcDbDictionary
281
     1
1001
ACAD
1000
<All
  0
SORTENTSTABLE
  5
7558
102
{ACAD_REACTORS
330
7557
102
}
330
7557
100
AcDbSortentsTable
330
A
331
0
  5
755B
331
0
  5
7555
331
0
  5
7556
331
0
  5
7559
331
0
  5
755A
331
0
  5
7524
  0
DICTIONARY
  5
7A43
102
{ACAD_REACTORS
330
BDC
102
}
330
BDC
100
AcDbDictionary
280
     1
281
     1
  3
TEXT
360
BDE
  0
DIMASSOC
  5
7983
102
{ACAD_REACTORS
330
7982
102
}
330
7982
100
AcDbDimAssoc
330
7981
 90
        3
 70
     0
 71
     1
  1
AcDbOsnapPointRef
 72
    10
331
78DE
 73
     0
 91
        0
 40
0.9750869108278636
 10
0.0
 20
0.0
 30
0.0
 75
     0
  1
AcDbOsnapPointRef
 72
     8
331
78D6
 73
     0
 91
        0
 40
0.6963790864704024
 10
0.0
 20
0.0
 30
0.0
 75
     1
  1
AcDbOsnapPointRef
 72
    10
331
78DE
 73
     0
 91
        0
 40
0.9750869108278636
 10
0.0
 20
0.0
 30
0.0
 75
     0
  0
GROUP
  5
76A1
102
{ACAD_REACTORS
330
1A
102
}
330
1A
100
AcDbGroup
300

 70
     1
 71
     1
  0
GROUP
  5
7735
102
{ACAD_REACTORS
330
1A
102
}
330
1A
100
AcDbGroup
300

 70
     1
 71
     1
  0
GROUP
  5
7A14
102
{ACAD_REACTORS
330
1A
102
}
330
1A
100
AcDbGroup
300

 70
     1
 71
     1
340
7923
340
785F
340
7860
340
7924
340
7925
  0
LAYOUT
  5
21
102
{ACAD_REACTORS
330
1E
102
}
330
1E
100
AcDbPlotSettings
  1

  2
none_device
  4
ISO_A3_(420.00_x_297.00_MM)
  6

 40
7.5
 41
20.0
 42
7.5
 43
20.0
 44
420.0
 45
297.0
 46
0.0
 47
0.0
 48
0.0
 49
0.0
140
0.0
141
0.0
142
1.0
143
1.0
 70
     0
 72
     1
 73
     0
 74
     0
  7

 75
     0
 76
     0
 77
     2
 78
   300
147
1.0
148
0.0
149
0.0
100
AcDbLayout
  1
Layout1
 70
     0
 71
     0
 10
0.0
 20
0.0
 11
0.0
 21
0.0
 12
0.0
 22
0.0
 32
0.0
 14
0.0
 24
0.0
 34
0.0
 15
0.0
 25
0.0
 35
0.0
146
0.0
 13
0.0
 23
0.0
 33
0.0
 16
0.0
 26
0.0
 36
0.0
 17
0.0
 27
0.0
 37
0.0
 76
     0
330
B
331
349
  0
LAYOUT
  5
20
102
{ACAD_REACTORS
330
1E
102
}
330
1E
100
AcDbPlotSettings
  1

  2
none_device
  4
ISO_A3_(420.00_x_297.00_MM)
  6

 40
7.5
 41
20.0
 42
7.5
 43
20.0
 44
420.0
 45
297.0
 46
0.0
 47
0.0
 48
0.0
 49
0.0
140
0.0
141
0.0
142
1.0
143
1.0
 70
  1024
 72
     1
 73
     0
 74
     0
  7

 75
     0
 76
     0
 77
     2
 78
   300
147
1.0
148
0.0
149
0.0
100
AcDbLayout
  1
Model
 70
     0
 71
     1
 10
0.0
 20
0.0
 11
2100.0
 21
2970.0
 12
0.0
 22
0.0
 32
0.0
 14
0.0
 24
0.0
 34
0.0
 15
2100.0
 25
2970.0
 35
0.0
146
0.0
 13
0.0
 23
0.0
 33
0.0
 16
0.0
 26
0.0
 36
0.0
 17
0.0
 27
0.0
 37
0.0
 76
     0
330
A
331
15
  0
MATERIAL
  5
6EA1
102
{ACAD_REACTORS
330
263
102
}
330
263
100
AcDbMaterial
  1
ByBlock
 72
     1
 94
      127
  0
MATERIAL
  5
264
102
{ACAD_REACTORS
330
263
102
}
330
263
100
AcDbMaterial
  1
ByLayer
 72
     1
 94
      127
  0
MATERIAL
  5
266
102
{ACAD_REACTORS
330
263
102
}
330
263
100
AcDbMaterial
  1
Global
 72
     1
 94
      127
  0
MLEADERSTYLE
  5
8D1
102
{ACAD_REACTORS
330
336
102
}
330
336
100
AcDbMLeaderStyle
170
     2
171
     1
172
     0
 90
        2
 40
0.0
 41
0.0
173
     1
 91
-1056964608
340
11
 92
       -2
290
     1
 42
2.0
291
     1
 43
8.0
  3
Standard
341
0
 44
4.0
300

342
17
174
     1
178
     6
175
     1
176
     0
 93
-1056964608
 45
4.0
292
     0
297
     0
 46
4.0
343
0
 94
-1056964608
 47
1.0
 49
1.0
140
1.0
293
     1
141
0.0
294
     1
177
     0
142
1.0
295
     0
296
     0
143
3.75
1001
ACAD_MLEADERVER
1070
     2
  0
MLINESTYLE
  5
1C
102
{ACAD_REACTORS
330
1B
102
}
330
1B
100
AcDbMlineStyle
  2
Standard
 70
     0
  3

 62
     0
 51
90.0
 52
90.0
 71
     2
 49
0.5
 62
   256
  6
BYLAYER
 49
-0.5
 62
   256
  6
BYLAYER
  0
ACDBPLACEHOLDER
  5
1D
102
{ACAD_REACTORS
330
1F
102
}
330
1F
  0
SCALE
  5
242
102
{ACAD_REACTORS
330
241
102
}
330
241
100
AcDbScale
 70
     0
300
1:1
140
1.0
141
1.0
290
     1
  0
SCALE
  5
243
102
{ACAD_REACTORS
330
241
102
}
330
241
100
AcDbScale
 70
     0
300
1:2
140
1.0
141
2.0
290
     0
  0
SCALE
  5
244
102
{ACAD_REACTORS
330
241
102
}
330
241
100
AcDbScale
 70
     0
300
1:4
140
1.0
141
4.0
290
     0
  0
SCALE
  5
245
102
{ACAD_REACTORS
330
241
102
}
330
241
100
AcDbScale
 70
     0
300
1:5
140
1.0
141
5.0
290
     0
  0
SCALE
  5
246
102
{ACAD_REACTORS
330
241
102
}
330
241
100
AcDbScale
 70
     0
300
1:8
140
1.0
141
8.0
290
     0
  0
SCALE
  5
247
102
{ACAD_REACTORS
330
241
102
}
330
241
100
AcDbScale
 70
     0
300
1:10
140
1.0
141
10.0
290
     0
  0
SCALE
  5
248
102
{ACAD_REACTORS
330
241
102
}
330
241
100
AcDbScale
 70
     0
300
1:16
140
1.0
141
16.0
290
     0
  0
SCALE
  5
249
102
{ACAD_REACTORS
330
241
102
}
330
241
100
AcDbScale
 70
     0
300
1:20
140
1.0
141
20.0
290
     0
  0
SCALE
  5
24A
102
{ACAD_REACTORS
330
241
102
}
330
241
100
AcDbScale
 70
     0
300
1:30
140
1.0
141
30.0
290
     0
  0
SCALE
  5
24B
102
{ACAD_REACTORS
330
241
102
}
330
241
100
AcDbScale
 70
     0
300
1:40
140
1.0
141
40.0
290
     0
  0
SCALE
  5
24C
102
{ACAD_REACTORS
330
241
102
}
330
241
100
AcDbScale
 70
     0
300
1:50
140
1.0
141
50.0
290
     0
  0
SCALE
  5
24D
102
{ACAD_REACTORS
330
241
102
}
330
241
100
AcDbScale
 70
     0
300
1:100
140
1.0
141
100.0
290
     0
  0
SCALE
  5
24E
102
{ACAD_REACTORS
330
241
102
}
330
241
100
AcDbScale
 70
     0
300
2:1
140
2.0
141
1.0
290
     0
  0
SCALE
  5
24F
102
{ACAD_REACTORS
330
241
102
}
330
241
100
AcDbScale
 70
     0
300
4:1
140
4.0
141
1.0
290
     0
  0
SCALE
  5
250
102
{ACAD_REACTORS
330
241
102
}
330
241
100
AcDbScale
 70
     0
300
8:1
140
8.0
141
1.0
290
     0
  0
SCALE
  5
251
102
{ACAD_REACTORS
330
241
102
}
330
241
100
AcDbScale
 70
     0
300
10:1
140
10.0
141
1.0
290
     0
  0
SCALE
  5
252
102
{ACAD_REACTORS
330
241
102
}
330
241
100
AcDbScale
 70
     0
300
100:1
140
100.0
141
1.0
290
     0
  0
SCALE
  5
253
102
{ACAD_REACTORS
330
241
102
}
330
241
100
AcDbScale
 70
     0
300
1/128" = 1'-0"
140
0.0078125
141
12.0
290
     0
  0
SCALE
  5
254
102
{ACAD_REACTORS
330
241
102
}
330
241
100
AcDbScale
 70
     0
300
1/64" = 1'-0"
140
0.015625
141
12.0
290
     0
  0
SCALE
  5
255
102
{ACAD_REACTORS
330
241
102
}
330
241
100
AcDbScale
 70
     0
300
1/32" = 1'-0"
140
0.03125
141
12.0
290
     0
  0
SCALE
  5
256
102
{ACAD_REACTORS
330
241
102
}
330
241
100
AcDbScale
 70
     0
300
1/16" = 1'-0"
140
0.0625
141
12.0
290
     0
  0
SCALE
  5
257
102
{ACAD_REACTORS
330
241
102
}
330
241
100
AcDbScale
 70
     0
300
3/32" = 1'-0"
140
0.09375
141
12.0
290
     0
  0
SCALE
  5
258
102
{ACAD_REACTORS
330
241
102
}
330
241
100
AcDbScale
 70
     0
300
1/8" = 1'-0"
140
0.125
141
12.0
290
     0
  0
SCALE
  5
259
102
{ACAD_REACTORS
330
241
102
}
330
241
100
AcDbScale
 70
     0
300
3/16" = 1'-0"
140
0.1875
141
12.0
290
     0
  0
SCALE
  5
25A
102
{ACAD_REACTORS
330
241
102
}
330
241
100
AcDbScale
 70
     0
300
1/4" = 1'-0"
140
0.25
141
12.0
290
     0
  0
SCALE
  5
25B
102
{ACAD_REACTORS
330
241
102
}
330
241
100
AcDbScale
 70
     0
300
3/8" = 1'-0"
140
0.375
141
12.0
290
     0
  0
SCALE
  5
25C
102
{ACAD_REACTORS
330
241
102
}
330
241
100
AcDbScale
 70
     0
300
1/2" = 1'-0"
140
0.5
141
12.0
290
     0
  0
SCALE
  5
25D
102
{ACAD_REACTORS
330
241
102
}
330
241
100
AcDbScale
 70
     0
300
3/4" = 1'-0"
140
0.75
141
12.0
290
     0
  0
SCALE
  5
25E
102
{ACAD_REACTORS
330
241
102
}
330
241
100
AcDbScale
 70
     0
300
1" = 1'-0"
140
1.0
141
12.0
290
     0
  0
SCALE
  5
25F
102
{ACAD_REACTORS
330
241
102
}
330
241
100
AcDbScale
 70
     0
300
1-1/2" = 1'-0"
140
1.5
141
12.0
290
     0
  0
SCALE
  5
260
102
{ACAD_REACTORS
330
241
102
}
330
241
100
AcDbScale
 70
     0
300
3" = 1'-0"
140
3.0
141
12.0
290
     0
  0
SCALE
  5
261
102
{ACAD_REACTORS
330
241
102
}
330
241
100
AcDbScale
 70
     0
300
6" = 1'-0"
140
6.0
141
12.0
290
     0
  0
SCALE
  5
262
102
{ACAD_REACTORS
330
241
102
}
330
241
100
AcDbScale
 70
     0
300
1'-0" = 1'-0"
140
12.0
141
12.0
290
     0
  0
TABLESTYLE
  5
279
102
{ACAD_REACTORS
330
278
102
}
102
{ACAD_XDICTIONARY
360
7A4C
102
}
330
278
100
AcDbTableStyle
  3
Standard
 70
     0
 71
     0
 40
0.06
 41
0.06
280
     0
281
     0
  7
Standard
140
4.5
170
     2
 62
     0
 63
   257
283
     0
 90
        4
 91
        0
  1

274
    -2
284
     1
 64
     0
275
    -2
285
     1
 65
     0
276
    -2
286
     1
 66
     0
277
    -2
287
     1
 67
     0
278
    -2
288
     1
 68
     0
279
    -2
289
     1
 69
     0
  7
Standard
140
6.0
170
     5
 62
     0
 63
   257
283
     0
 90
        4
 91
        0
  1

274
    -2
284
     1
 64
     0
275
    -2
285
     1
 65
     0
276
    -2
286
     1
 66
     0
277
    -2
287
     1
 67
     0
278
    -2
288
     1
 68
     0
279
    -2
289
     1
 69
     0
  7
Standard
140
4.5
170
     5
 62
     0
 63
   257
283
     0
 90
        4
 91
        0
  1

274
    -2
284
     1
 64
     0
275
    -2
285
     1
 65
     0
276
    -2
286
     1
 66
     0
277
    -2
287
     1
 67
     0
278
    -2
288
     1
 68
     0
279
    -2
289
     1
 69
     0
  0
VISUALSTYLE
  5
26C
102
{ACAD_REACTORS
330
267
102
}
330
267
100
AcDbVisualStyle
  2
2dWireframe
 70
     4
 71
     0
 72
     2
 73
     0
 90
        0
 40
-0.6
 41
-30.0
 62
     5
 63
     7
421
 16777215
 74
     1
 91
        4
 64
     7
 65
   257
 75
     1
175
     1
 42
1.0
 92
        0
 66
   257
 43
1.0
 76
     1
 77
     6
 78
     2
 67
     7
 79
     5
170
     0
171
     0
290
     0
174
     0
 93
        1
 44
0.0
173
     0
291
     0
 45
0.0
  0
VISUALSTYLE
  5
26E
102
{ACAD_REACTORS
330
267
102
}
330
267
100
AcDbVisualStyle
  2
3D Hidden
 70
     6
 71
     1
 72
     2
 73
     2
 90
        0
 40
-0.6
 41
-30.0
 62
     5
 63
     7
421
 16777215
 74
     2
 91
        2
 64
     7
 65
   257
 75
     2
175
     1
 42
40.0
 92
        0
 66
   257
 43
1.0
 76
     1
 77
     6
 78
     2
 67
     7
 79
     3
170
     0
171
     0
290
     0
174
     0
 93
        1
 44
0.0
173
     0
291
     0
 45
0.0
  0
VISUALSTYLE
  5
26D
102
{ACAD_REACTORS
330
267
102
}
330
267
100
AcDbVisualStyle
  2
3dWireframe
 70
     5
 71
     0
 72
     2
 73
     0
 90
        0
 40
-0.6
 41
-30.0
 62
     5
 63
     7
421
 16777215
 74
     1
 91
        4
 64
     7
 65
   257
 75
     1
175
     1
 42
1.0
 92
        0
 66
   257
 43
1.0
 76
     1
 77
     6
 78
     2
 67
     7
 79
     5
170
     0
171
     0
290
     0
174
     0
 93
        1
 44
0.0
173
     0
291
     0
 45
0.0
  0
VISUALSTYLE
  5
26F
102
{ACAD_REACTORS
330
267
102
}
330
267
100
AcDbVisualStyle
  2
Basic
 70
     7
 71
     1
 72
     0
 73
     1
 90
        0
 40
-0.6
 41
-30.0
 62
     5
 63
     7
421
 16777215
 74
     0
 91
        4
 64
     7
 65
   257
 75
     1
175
     1
 42
1.0
 92
        8
 66
     7
 43
1.0
 76
     1
 77
     6
 78
     2
 67
     7
 79
     5
170
     0
171
     0
290
     0
174
     0
 93
        1
 44
0.0
173
     0
291
     1
 45
0.0
  0
VISUALSTYLE
  5
273
102
{ACAD_REACTORS
330
267
102
}
330
267
100
AcDbVisualStyle
  2
Brighten
 70
    12
 71
     2
 72
     2
 73
     0
 90
        0
 40
-0.6
 41
-30.0
 62
     5
 63
     7
421
 16777215
 74
     1
 91
        4
 64
     7
 65
   257
 75
     1
175
     1
 42
1.0
 92
        8
 66
     7
 43
1.0
 76
     1
 77
     6
 78
     2
 67
     7
 79
     5
170
     0
171
     0
290
     0
174
     0
 93
        1
 44
50.0
173
     0
291
     1
 45
0.0
  0
VISUALSTYLE
  5
277
102
{ACAD_REACTORS
330
267
102
}
330
267
100
AcDbVisualStyle
  2
ColorChange
 70
    16
 71
     2
 72
     2
 73
     3
 90
        0
 40
-0.6
 41
-30.0
 62
     5
 63
     8
421
  8421504
 74
     1
 91
        4
 64
     7
 65
   257
 75
     1
175
     1
 42
1.0
 92
        8
 66
     8
424
  8421504
 43
1.0
 76
     1
 77
     6
 78
     2
 67
     7
 79
     5
170
     0
171
     0
290
     0
174
     0
 93
        1
 44
0.0
173
     0
291
     1
 45
0.0
  0
VISUALSTYLE
  5
271
102
{ACAD_REACTORS
330
267
102
}
330
267
100
AcDbVisualStyle
  2
Conceptual
 70
     9
 71
     3
 72
     2
 73
     0
 90
        0
 40
-0.6
 41
-30.0
 62
     5
 63
     7
421
 16777215
 74
     2
 91
        2
 64
     7
 65
   257
 75
     1
175
     1
 42
40.0
 92
        8
 66
     7
 43
1.0
 76
     1
 77
     6
 78
     2
 67
     7
 79
     3
170
     0
171
     0
290
     0
174
     0
 93
        1
 44
0.0
173
     0
291
     0
 45
0.0
  0
VISUALSTYLE
  5
272
102
{ACAD_REACTORS
330
267
102
}
330
267
100
AcDbVisualStyle
  2
Dim
 70
    11
 71
     2
 72
     2
 73
     0
 90
        0
 40
-0.6
 41
-30.0
 62
     5
 63
     7
421
 16777215
 74
     1
 91
        4
 64
     7
 65
   257
 75
     1
175
     1
 42
1.0
 92
        8
 66
     7
 43
1.0
 76
     1
 77
     6
 78
     2
 67
     7
 79
     5
170
     0
171
     0
290
     0
174
     0
 93
        1
 44
-50.0
173
     0
291
     1
 45
0.0
  0
VISUALSTYLE
  5
8BC
102
{ACAD_REACTORS
330
267
102
}
330
267
100
AcDbVisualStyle
  2
EdgeColorOff
 70
    22
 71
     2
 72
     2
 73
     0
 90
        0
 40
0.6
 41
30.0
 62
     5
 63
     7
421
 16777215
 74
     1
 91
        4
 64
     7
 65
   257
 75
     1
175
     1
 42
1.0
 92
        8
 66
     7
 43
1.0
 76
     1
 77
     6
 78
     2
 67
     7
 79
     5
170
     0
171
     0
290
     0
174
     0
 93
        1
 44
0.0
173
     0
291
     1
 45
0.0
  0
VISUALSTYLE
  5
276
102
{ACAD_REACTORS
330
267
102
}
330
267
100
AcDbVisualStyle
  2
Facepattern
 70
    15
 71
     2
 72
     2
 73
     0
 90
        0
 40
-0.6
 41
-30.0
 62
     5
 63
     7
421
 16777215
 74
     1
 91
        4
 64
     7
 65
   257
 75
     1
175
     1
 42
1.0
 92
        8
 66
     7
 43
1.0
 76
     1
 77
     6
 78
     2
 67
     7
 79
     5
170
     0
171
     0
290
     0
174
     0
 93
        1
 44
0.0
173
     0
291
     1
 45
0.0
  0
VISUALSTYLE
  5
268
102
{ACAD_REACTORS
330
267
102
}
330
267
100
AcDbVisualStyle
  2
Flat
 70
     0
 71
     2
 72
     1
 73
     1
 90
        2
 40
-0.6
 41
30.0
 62
     5
 63
     7
421
 16777215
 74
     0
 91
        4
 64
     7
 65
   257
 75
     1
175
     1
 42
1.0
 92
        8
 66
     7
 43
1.0
 76
     1
 77
     6
 78
     2
 67
     7
 79
     5
170
     0
171
     0
290
     0
174
     0
 93
       13
 44
0.0
173
     0
291
     1
 45
0.0
  0
VISUALSTYLE
  5
269
102
{ACAD_REACTORS
330
267
102
}
330
267
100
AcDbVisualStyle
  2
FlatWithEdges
 70
     1
 71
     2
 72
     1
 73
     1
 90
        2
 40
-0.6
 41
30.0
 62
     5
 63
     7
421
 16777215
 74
     1
 91
        4
 64
     7
 65
   257
 75
     1
175
     1
 42
1.0
 92
        0
 66
   257
 43
1.0
 76
     1
 77
     6
 78
     2
 67
     7
 79
     5
170
     0
171
     0
290
     0
174
     0
 93
       13
 44
0.0
173
     0
291
     1
 45
0.0
  0
VISUALSTYLE
  5
26A
102
{ACAD_REACTORS
330
267
102
}
330
267
100
AcDbVisualStyle
  2
Gouraud
 70
     2
 71
     2
 72
     2
 73
     1
 90
        2
 40
-0.6
 41
30.0
 62
     5
 63
     7
421
 16777215
 74
     0
 91
        4
 64
     7
 65
   257
 75
     1
175
     1
 42
1.0
 92
        0
 66
     7
 43
1.0
 76
     1
 77
     6
 78
     2
 67
     7
 79
     5
170
     0
171
     0
290
     0
174
     0
 93
       13
 44
0.0
173
     0
291
     1
 45
0.0
  0
VISUALSTYLE
  5
26B
102
{ACAD_REACTORS
330
267
102
}
330
267
100
AcDbVisualStyle
  2
GouraudWithEdges
 70
     3
 71
     2
 72
     2
 73
     1
 90
        2
 40
-0.6
 41
30.0
 62
     5
 63
     7
421
 16777215
 74
     1
 91
        4
 64
     7
 65
   257
 75
     1
175
     1
 42
1.0
 92
        0
 66
   257
 43
1.0
 76
     1
 77
     6
 78
     2
 67
     7
 79
     5
170
     0
171
     0
290
     0
174
     0
 93
       13
 44
0.0
173
     0
291
     1
 45
0.0
  0
VISUALSTYLE
  5
8B9
102
{ACAD_REACTORS
330
267
102
}
330
267
100
AcDbVisualStyle
  2
Hidden
 70
     6
 71
     1
 72
     2
 73
     2
 90
        0
 40
0.6
 41
30.0
 62
     5
 63
     7
421
 16777215
 74
     2
 91
        2
 64
     7
 65
   257
 75
     2
175
     1
 42
40.0
 92
        0
 66
   257
 43
1.0
 76
     1
 77
     6
 78
     2
 67
     7
 79
     3
170
     0
171
     0
290
     0
174
     0
 93
        1
 44
0.0
173
     0
291
     0
 45
0.0
  0
VISUALSTYLE
  5
8BA
102
{ACAD_REACTORS
330
267
102
}
330
267
100
AcDbVisualStyle
  2
JitterOff
 70
    20
 71
     2
 72
     2
 73
     0
 90
        0
 40
0.6
 41
30.0
 62
     5
 63
     7
421
 16777215
 74
     1
 91
        4
 64
     7
 65
   257
 75
     1
175
     1
 42
1.0
 92
       10
 66
     7
 43
1.0
 76
     1
 77
     6
 78
     2
 67
     7
 79
     5
170
     0
171
     0
290
     0
174
     0
 93
        1
 44
0.0
173
     0
291
     1
 45
0.0
  0
VISUALSTYLE
  5
275
102
{ACAD_REACTORS
330
267
102
}
330
267
100
AcDbVisualStyle
  2
Linepattern
 70
    14
 71
     2
 72
     2
 73
     0
 90
        0
 40
-0.6
 41
-30.0
 62
     5
 63
     7
421
 16777215
 74
     1
 91
        4
 64
     7
 65
   257
 75
     7
175
     7
 42
1.0
 92
        8
 66
     7
 43
1.0
 76
     1
 77
     6
 78
     2
 67
     7
 79
     5
170
     0
171
     0
290
     0
174
     0
 93
        1
 44
0.0
173
     0
291
     1
 45
0.0
  0
VISUALSTYLE
  5
8BB
102
{ACAD_REACTORS
330
267
102
}
330
267
100
AcDbVisualStyle
  2
OverhangOff
 70
    21
 71
     2
 72
     2
 73
     0
 90
        0
 40
0.6
 41
30.0
 62
     5
 63
     7
421
 16777215
 74
     1
 91
        4
 64
     7
 65
   257
 75
     1
175
     1
 42
1.0
 92
        9
 66
     7
 43
1.0
 76
     1
 77
     6
 78
     2
 67
     7
 79
     5
170
     0
171
     0
290
     0
174
     0
 93
        1
 44
0.0
173
     0
291
     1
 45
0.0
  0
VISUALSTYLE
  5
270
102
{ACAD_REACTORS
330
267
102
}
330
267
100
AcDbVisualStyle
  2
Realistic
 70
     8
 71
     2
 72
     2
 73
     0
 90
        0
 40
-0.6
 41
-30.0
 62
     5
 63
     7
421
 16777215
 74
     1
 91
        0
 64
     7
 65
   257
 75
     1
175
     1
 42
1.0
 92
        8
 66
     8
424
  7895160
 43
1.0
 76
     1
 77
     6
 78
     2
 67
     7
 79
     5
170
     0
171
     0
290
     0
174
     0
 93
       13
 44
0.0
173
     0
291
     0
 45
0.0
  0
VISUALSTYLE
  5
8C1
102
{ACAD_REACTORS
330
267
102
}
330
267
100
AcDbVisualStyle
  2
Shaded
 70
    27
 71
     2
 72
     2
 73
     1
 90
        2
 40
0.6
 41
30.0
 62
     5
 63
     7
421
 16777215
 74
     0
 91
        4
 64
     7
 65
   257
 75
     1
175
     1
 42
1.0
 92
        8
 66
   257
 43
1.0
 76
     1
 77
     6
 78
     2
 67
     8
425
  7895160
 79
     3
170
     0
171
     0
290
     0
174
     0
 93
        5
 44
0.0
173
     0
291
     0
 45
0.0
  0
VISUALSTYLE
  5
8C0
102
{ACAD_REACTORS
330
267
102
}
330
267
100
AcDbVisualStyle
  2
Shaded with edges
 70
    26
 71
     2
 72
     2
 73
     1
 90
        2
 40
0.6
 41
30.0
 62
     5
 63
     7
421
 16777215
 74
     1
 91
       10
 64
     7
 65
   257
 75
     2
175
     1
 42
1.0
 92
        8
 66
   257
 43
1.0
 76
     1
 77
     6
 78
     2
 67
     7
 79
     3
170
     0
171
     0
290
     0
174
     0
 93
        5
 44
0.0
173
     0
291
     0
 45
0.0
  0
VISUALSTYLE
  5
8BD
102
{ACAD_REACTORS
330
267
102
}
330
267
100
AcDbVisualStyle
  2
Shades of Gray
 70
    23
 71
     2
 72
     2
 73
     3
 90
        0
 40
0.6
 41
30.0
 62
     5
 63
     7
421
 16777215
 74
     2
 91
        2
 64
     7
 65
     7
 75
     1
175
     1
 42
40.0
 92
        8
 66
     7
 43
1.0
 76
     1
 77
     6
 78
     2
 67
     7
 79
     3
170
     0
171
     0
290
     0
174
     0
 93
        1
 44
0.0
173
     0
291
     0
 45
0.0
  0
VISUALSTYLE
  5
8BE
102
{ACAD_REACTORS
330
267
102
}
330
267
100
AcDbVisualStyle
  2
Sketchy
 70
    24
 71
     1
 72
     2
 73
     2
 90
        0
 40
0.6
 41
30.0
 62
     5
 63
     7
421
 16777215
 74
     2
 91
        2
 64
     7
 65
     7
 75
     1
175
     1
 42
40.0
 92
       11
 66
     7
 43
1.0
 76
     1
 77
     6
 78
     2
 67
     7
 79
     6
170
     0
171
     0
290
     0
174
     0
 93
        1
 44
0.0
173
     0
291
     0
 45
0.0
  0
VISUALSTYLE
  5
274
102
{ACAD_REACTORS
330
267
102
}
330
267
100
AcDbVisualStyle
  2
Thicken
 70
    13
 71
     2
 72
     2
 73
     0
 90
        0
 40
-0.6
 41
-30.0
 62
     5
 63
     7
421
 16777215
 74
     1
 91
        4
 64
     7
 65
   257
 75
     1
175
     1
 42
1.0
 92
       12
 66
     7
 43
1.0
 76
     1
 77
     6
 78
     2
 67
     7
 79
     5
170
     0
171
     0
290
     0
174
     0
 93
        1
 44
0.0
173
     0
291
     1
 45
0.0
  0
VISUALSTYLE
  5
8B8
102
{ACAD_REACTORS
330
267
102
}
330
267
100
AcDbVisualStyle
  2
Wireframe
 70
     5
 71
     0
 72
     2
 73
     0
 90
        0
 40
0.6
 41
30.0
 62
     5
 63
     7
421
 16777215
 74
     1
 91
        4
 64
     7
 65
   257
 75
     1
175
     1
 42
1.0
 92
        0
 66
   257
 43
1.0
 76
     1
 77
     6
 78
     2
 67
     7
 79
     3
170
     0
171
     0
290
     0
174
     0
 93
        1
 44
0.0
173
     0
291
     0
 45
0.0
  0
VISUALSTYLE
  5
8BF
102
{ACAD_REACTORS
330
267
102
}
330
267
100
AcDbVisualStyle
  2
X-Ray
 70
    25
 71
     2
 72
     2
 73
     1
 90
        1
 40
0.5
 41
30.0
 62
     5
 63
     7
421
 16777215
 74
     1
 91
        0
 64
     7
 65
   257
 75
     1
175
     1
 42
1.0
 92
        8
 66
     7
 43
1.0
 76
     1
 77
     6
 78
     2
 67
     7
 79
     3
170
     0
171
     0
290
     0
174
     0
 93
       13
 44
0.0
173
     0
291
     0
 45
0.0
  0
DICTIONARYVAR
  5
331
102
{ACAD_REACTORS
330
330
102
}
330
330
100
DictionaryVariables
280
     0
  1
1:1
  0
DICTIONARYVAR
  5
8DA
102
{ACAD_REACTORS
330
330
102
}
330
330
100
DictionaryVariables
280
     0
  1
Standard
  0
DICTIONARYVAR
  5
335
102
{ACAD_REACTORS
330
330
102
}
330
330
100
DictionaryVariables
280
     0
  1
Standard
  0
DICTIONARYVAR
  5
C07
102
{ACAD_REACTORS
330
330
102
}
330
330
100
DictionaryVariables
280
     0
  1
ByLayer
  0
DICTIONARYVAR
  5
64A
102
{ACAD_REACTORS
330
330
102
}
330
330
100
DictionaryVariables
280
     0
  1
0
  0
DICTIONARYVAR
  5
4918
102
{ACAD_REACTORS
330
C08
102
}
330
C08
100
DictionaryVariables
280
     0
  1
0.261799
  0
DICTIONARYVAR
  5
4916
102
{ACAD_REACTORS
330
C08
102
}
330
C08
100
DictionaryVariables
280
     0
  1
0.400000
  0
DICTIONARYVAR
  5
4917
102
{ACAD_REACTORS
330
C08
102
}
330
C08
100
DictionaryVariables
280
     0
  1
0.250000
  0
DICTIONARYVAR
  5
4919
102
{ACAD_REACTORS
330
C08
102
}
330
C08
100
DictionaryVariables
280
     0
  1
1
  0
FIELD
  5
BDE
102
{ACAD_REACTORS
330
773D
330
7A43
102
}
330
7A43
100
AcDbField
  1
_text
  2
{%<\_FldIdx 0>%N}
 90
        1
360
BDF
 97
        0
 91
       63
 92
        0
 94
       11
 95
        2
 96
        0
300

 93
        1
  6
ACFD_FIELDTEXT_CHECKSUM
 93
        2
 90
        2
140
4546.0
 94
        0
300

302

304
ACVALUE_END
  7
ACFD_FIELD_VALUE
 93
        6
 90
        4
  1
{20191029N}
 94
        0
300

302

304
ACVALUE_END
301
{20191029N}
 98
       11
  0
DICTIONARY
  5
7A4C
330
279
100
AcDbDictionary
280
     1
281
     1
  3
ACAD_ROUNDTRIP_2008_TABLESTYLE_CELLSTYLEMAP
360
7A4D
  0
FIELD
  5
BDF
330
BDE
100
AcDbField
  1
AcVar
  2
\AcVar Date \f "yyyyMMdd"
 90
        0
 97
        0
 91
       63
 92
        0
 94
        8
 95
       64
 96
        0
300
Variable not supported
 93
        1
  6
Variable
 93
        2
 90
        4
  1
Date
 94
        0
300

302

304
ACVALUE_END
  7
ACFD_FIELD_VALUE
 93
        6
 90
        8
 92
       16
310
E3070A0000001D000A00030003000000
 94
        0
300
yyyyMMdd
302

304
ACVALUE_END
301
20191029
 98
        8
  0
CELLSTYLEMAP
  5
7A4D
102
{ACAD_REACTORS
330
7A4C
102
}
330
7A4C
100
AcDbCellStyleMap
 90
        3
300
CELLSTYLE
  1
TABLEFORMAT_BEGIN
 90
        5
170
     1
 91
        0
 92
    32768
 62
   257
 93
        1
300
CONTENTFORMAT
  1
CONTENTFORMAT_BEGIN
 90
        0
 91
        0
 92
        4
 93
        0
300

 40
0.0
140
1.0
 94
        5
 62
     0
340
17
144
6.0
309
CONTENTFORMAT_END
171
     1
301
MARGIN
  1
CELLMARGIN_BEGIN
 40
0.06
 40
0.06
 40
0.06
 40
0.06
 40
0.18
 40
0.18
309
CELLMARGIN_END
 94
        6
 95
        1
302
GRIDFORMAT
  1
GRIDFORMAT_BEGIN
 90
        0
 91
        1
 62
     0
 92
       -2
340
0
 93
        0
 40
0.045
309
GRIDFORMAT_END
 95
        2
302
GRIDFORMAT
  1
GRIDFORMAT_BEGIN
 90
        0
 91
        1
 62
     0
 92
       -2
340
0
 93
        0
 40
0.045
309
GRIDFORMAT_END
 95
        4
302
GRIDFORMAT
  1
GRIDFORMAT_BEGIN
 90
        0
 91
        1
 62
     0
 92
       -2
340
0
 93
        0
 40
0.045
309
GRIDFORMAT_END
 95
        8
302
GRIDFORMAT
  1
GRIDFORMAT_BEGIN
 90
        0
 91
        1
 62
     0
 92
       -2
340
0
 93
        0
 40
0.045
309
GRIDFORMAT_END
 95
       16
302
GRIDFORMAT
  1
GRIDFORMAT_BEGIN
 90
        0
 91
        1
 62
     0
 92
       -2
340
0
 93
        0
 40
0.045
309
GRIDFORMAT_END
 95
       32
302
GRIDFORMAT
  1
GRIDFORMAT_BEGIN
 90
        0
 91
        1
 62
     0
 92
       -2
340
0
 93
        0
 40
0.045
309
GRIDFORMAT_END
309
TABLEFORMAT_END
  1
CELLSTYLE_BEGIN
 90
        1
 91
        1
300
_TITLE
309
CELLSTYLE_END
300
CELLSTYLE
  1
TABLEFORMAT_BEGIN
 90
        5
170
     1
 91
        0
 92
        0
 62
   257
 93
        1
300
CONTENTFORMAT
  1
CONTENTFORMAT_BEGIN
 90
        0
 91
        0
 92
        4
 93
        0
300

 40
0.0
140
1.0
 94
        5
 62
     0
340
17
144
4.5
309
CONTENTFORMAT_END
171
     1
301
MARGIN
  1
CELLMARGIN_BEGIN
 40
0.06
 40
0.06
 40
0.06
 40
0.06
 40
0.18
 40
0.18
309
CELLMARGIN_END
 94
        6
 95
        1
302
GRIDFORMAT
  1
GRIDFORMAT_BEGIN
 90
        0
 91
        1
 62
     0
 92
       -2
340
0
 93
        0
 40
0.045
309
GRIDFORMAT_END
 95
        2
302
GRIDFORMAT
  1
GRIDFORMAT_BEGIN
 90
        0
 91
        1
 62
     0
 92
       -2
340
0
 93
        0
 40
0.045
309
GRIDFORMAT_END
 95
        4
302
GRIDFORMAT
  1
GRIDFORMAT_BEGIN
 90
        0
 91
        1
 62
     0
 92
       -2
340
0
 93
        0
 40
0.045
309
GRIDFORMAT_END
 95
        8
302
GRIDFORMAT
  1
GRIDFORMAT_BEGIN
 90
        0
 91
        1
 62
     0
 92
       -2
340
0
 93
        0
 40
0.045
309
GRIDFORMAT_END
 95
       16
302
GRIDFORMAT
  1
GRIDFORMAT_BEGIN
 90
        0
 91
        1
 62
     0
 92
       -2
340
0
 93
        0
 40
0.045
309
GRIDFORMAT_END
 95
       32
302
GRIDFORMAT
  1
GRIDFORMAT_BEGIN
 90
        0
 91
        1
 62
     0
 92
       -2
340
0
 93
        0
 40
0.045
309
GRIDFORMAT_END
309
TABLEFORMAT_END
  1
CELLSTYLE_BEGIN
 90
        2
 91
        1
300
_HEADER
309
CELLSTYLE_END
300
CELLSTYLE
  1
TABLEFORMAT_BEGIN
 90
        5
170
     1
 91
        0
 92
        0
 62
   257
 93
        1
300
CONTENTFORMAT
  1
CONTENTFORMAT_BEGIN
 90
        0
 91
        0
 92
        4
 93
        0
300

 40
0.0
140
1.0
 94
        2
 62
     0
340
17
144
4.5
309
CONTENTFORMAT_END
171
     1
301
MARGIN
  1
CELLMARGIN_BEGIN
 40
0.06
 40
0.06
 40
0.06
 40
0.06
 40
0.18
 40
0.18
309
CELLMARGIN_END
 94
        6
 95
        1
302
GRIDFORMAT
  1
GRIDFORMAT_BEGIN
 90
        0
 91
        1
 62
     0
 92
       -2
340
0
 93
        0
 40
0.045
309
GRIDFORMAT_END
 95
        2
302
GRIDFORMAT
  1
GRIDFORMAT_BEGIN
 90
        0
 91
        1
 62
     0
 92
       -2
340
0
 93
        0
 40
0.045
309
GRIDFORMAT_END
 95
        4
302
GRIDFORMAT
  1
GRIDFORMAT_BEGIN
 90
        0
 91
        1
 62
     0
 92
       -2
340
0
 93
        0
 40
0.045
309
GRIDFORMAT_END
 95
        8
302
GRIDFORMAT
  1
GRIDFORMAT_BEGIN
 90
        0
 91
        1
 62
     0
 92
       -2
340
0
 93
        0
 40
0.045
309
GRIDFORMAT_END
 95
       16
302
GRIDFORMAT
  1
GRIDFORMAT_BEGIN
 90
        0
 91
        1
 62
     0
 92
       -2
340
0
 93
        0
 40
0.045
309
GRIDFORMAT_END
 95
       32
302
GRIDFORMAT
  1
GRIDFORMAT_BEGIN
 90
        0
 91
        1
 62
     0
 92
       -2
340
0
 93
        0
 40
0.045
309
GRIDFORMAT_END
309
TABLEFORMAT_END
  1
CELLSTYLE_BEGIN
 90
        3
 91
        2
300
_DATA
309
CELLSTYLE_END
  0
ENDSEC
  0
EOF
