  0
SECTION
  2
HEADER
  9
$ACADVER
  1
AC1021
  9
$ACADMAINTVER
 70
    25
  9
$DWGCODEPAGE
  3
ANSI_932
  9
$LASTSAVEDBY
  1
howeNelson
  9
$INSBASE
 10
0.0
 20
0.0
 30
0.0
  9
$EXTMIN
 10
0.0
 20
0.0
 30
0.0
  9
$EXTMAX
 10
2100.0
 20
2970.0
 30
0.0
  9
$LIMMIN
 10
0.0
 20
0.0
  9
$LIMMAX
 10
2100.0
 20
2970.0
  9
$ORTHOMODE
 70
     0
  9
$REGENMODE
 70
     1
  9
$FILLMODE
 70
     1
  9
$QTEXTMODE
 70
     0
  9
$MIRRTEXT
 70
     1
  9
$LTSCALE
 40
10.0
  9
$ATTMODE
 70
     1
  9
$TEXTSIZE
 40
2.5
  9
$TRACEWID
 40
1.0
  9
$TEXTSTYLE
  7
Standard
  9
$CLAYER
  8
MODEL
  9
$CELTYPE
  6
Continuous
  9
$CECOLOR
 62
   256
  9
$CELTSCALE
 40
1.0
  9
$DISPSILH
 70
     0
  9
$DIMSCALE
 40
1.0
  9
$DIMASZ
 40
31.75
  9
$DIMEXO
 40
0.0
  9
$DIMDLI
 40
6.99999999999994
  9
$DIMRND
 40
0.0
  9
$DIMDLE
 40
0.0
  9
$DIMEXE
 40
19.9999999999962
  9
$DIMTP
 40
0.0
  9
$DIMTM
 40
0.0
  9
$DIMTXT
 40
24.4326171875
  9
$DIMCEN
 40
0.0
  9
$DIMTSZ
 40
0.0
  9
$DIMTOL
 70
     0
  9
$DIMLIM
 70
     0
  9
$DIMTIH
 70
     0
  9
$DIMTOH
 70
     0
  9
$DIMSE1
 70
     0
  9
$DIMSE2
 70
     0
  9
$DIMTAD
 70
     1
  9
$DIMZIN
 70
    11
  9
$DIMBLK
  1
VW_FILLEDARROW
  9
$DIMASO
 70
     1
  9
$DIMSHO
 70
     1
  9
$DIMPOST
  1
<>
  9
$DIMAPOST
  1
[]
  9
$DIMALT
 70
     0
  9
$DIMALTD
 70
     1
  9
$DIMALTF
 40
1.0
  9
$DIMLFAC
 40
1.0
  9
$DIMTOFL
 70
     0
  9
$DIMTVP
 40
0.0
  9
$DIMTIX
 70
     1
  9
$DIMSOXD
 70
     0
  9
$DIMSAH
 70
     0
  9
$DIMBLK1
  1

  9
$DIMBLK2
  1

  9
$DIMSTYLE
  2
JIS
  9
$DIMCLRD
 70
     0
  9
$DIMCLRE
 70
     0
  9
$DIMCLRT
 70
     0
  9
$DIMTFAC
 40
1.0
  9
$DIMGAP
 40
10.0
  9
$DIMJUST
 70
     0
  9
$DIMSD1
 70
     0
  9
$DIMSD2
 70
     0
  9
$DIMTOLJ
 70
     1
  9
$DIMTZIN
 70
    11
  9
$DIMALTZ
 70
    11
  9
$DIMALTTZ
 70
    11
  9
$DIMUPT
 70
     0
  9
$DIMDEC
 70
     1
  9
$DIMTDEC
 70
     1
  9
$DIMALTU
 70
     2
  9
$DIMALTTD
 70
     2
  9
$DIMTXSTY
  7
ＭＳ ゴシック
  9
$DIMAUNIT
 70
     0
  9
$DIMADEC
 70
     2
  9
$DIMALTRND
 40
0.0
  9
$DIMAZIN
 70
     0
  9
$DIMDSEP
 70
    46
  9
$DIMATFIT
 70
     0
  9
$DIMFRAC
 70
     2
  9
$DIMLDRBLK
  1

  9
$DIMLUNIT
 70
     2
  9
$DIMLWD
 70
    -2
  9
$DIMLWE
 70
    -2
  9
$DIMTMOVE
 70
     0
  9
$DIMFXL
 40
1.0
  9
$DIMFXLON
 70
     0
  9
$DIMJOGANG
 40
0.7853981633974483
  9
$DIMTFILL
 70
     0
  9
$DIMTFILLCLR
 70
     0
  9
$DIMARCSYM
 70
     0
  9
$DIMLTYPE
  6

  9
$DIMLTEX1
  6

  9
$DIMLTEX2
  6

  9
$LUNITS
 70
     2
  9
$LUPREC
 70
     4
  9
$SKETCHINC
 40
0.1
  9
$FILLETRAD
 40
0.0
  9
$AUNITS
 70
     0
  9
$AUPREC
 70
     0
  9
$MENU
  1
acad
  9
$ELEVATION
 40
0.0
  9
$PELEVATION
 40
0.0
  9
$THICKNESS
 40
0.0
  9
$LIMCHECK
 70
     0
  9
$CHAMFERA
 40
0.0
  9
$CHAMFERB
 40
0.0
  9
$CHAMFERC
 40
0.0
  9
$CHAMFERD
 40
0.0
  9
$SKPOLY
 70
     0
  9
$TDCREATE
 40
2447893.375
  9
$TDUCREATE
 40
0.0
  9
$TDUPDATE
 40
2458764.739833553
  9
$TDUUPDATE
 40
2458764.364833553
  9
$TDINDWG
 40
0.0133781019
  9
$TDUSRTIMER
 40
0.0209154861
  9
$USRTIMER
 70
     1
  9
$ANGBASE
 50
0.0
  9
$ANGDIR
 70
     0
  9
$PDMODE
 70
     1
  9
$PDSIZE
 40
-2.0
  9
$PLINEWID
 40
0.0
  9
$SPLFRAME
 70
     0
  9
$SPLINETYPE
 70
     6
  9
$SPLINESEGS
 70
     8
  9
$HANDSEED
  5
7F1
  9
$SURFTAB1
 70
     6
  9
$SURFTAB2
 70
     6
  9
$SURFTYPE
 70
     6
  9
$SURFU
 70
     6
  9
$SURFV
 70
     6
  9
$UCSBASE
  2

  9
$UCSNAME
  2

  9
$UCSORG
 10
0.0
 20
0.0
 30
0.0
  9
$UCSXDIR
 10
1.0
 20
0.0
 30
0.0
  9
$UCSYDIR
 10
0.0
 20
1.0
 30
0.0
  9
$UCSORTHOREF
  2

  9
$UCSORTHOVIEW
 70
     0
  9
$UCSORGTOP
 10
0.0
 20
0.0
 30
0.0
  9
$UCSORGBOTTOM
 10
0.0
 20
0.0
 30
0.0
  9
$UCSORGLEFT
 10
0.0
 20
0.0
 30
0.0
  9
$UCSORGRIGHT
 10
0.0
 20
0.0
 30
0.0
  9
$UCSORGFRONT
 10
0.0
 20
0.0
 30
0.0
  9
$UCSORGBACK
 10
0.0
 20
0.0
 30
0.0
  9
$PUCSBASE
  2

  9
$PUCSNAME
  2

  9
$PUCSORG
 10
0.0
 20
0.0
 30
0.0
  9
$PUCSXDIR
 10
1.0
 20
0.0
 30
0.0
  9
$PUCSYDIR
 10
0.0
 20
1.0
 30
0.0
  9
$PUCSORTHOREF
  2

  9
$PUCSORTHOVIEW
 70
     0
  9
$PUCSORGTOP
 10
0.0
 20
0.0
 30
0.0
  9
$PUCSORGBOTTOM
 10
0.0
 20
0.0
 30
0.0
  9
$PUCSORGLEFT
 10
0.0
 20
0.0
 30
0.0
  9
$PUCSORGRIGHT
 10
0.0
 20
0.0
 30
0.0
  9
$PUCSORGFRONT
 10
0.0
 20
0.0
 30
0.0
  9
$PUCSORGBACK
 10
0.0
 20
0.0
 30
0.0
  9
$USERI1
 70
     0
  9
$USERI2
 70
     0
  9
$USERI3
 70
     0
  9
$USERI4
 70
     0
  9
$USERI5
 70
     0
  9
$USERR1
 40
0.0
  9
$USERR2
 40
0.0
  9
$USERR3
 40
0.0
  9
$USERR4
 40
0.0
  9
$USERR5
 40
0.0
  9
$WORLDVIEW
 70
     1
  9
$SHADEDGE
 70
     3
  9
$SHADEDIF
 70
    70
  9
$TILEMODE
 70
     1
  9
$MAXACTVP
 70
    64
  9
$PINSBASE
 10
0.0
 20
0.0
 30
0.0
  9
$PLIMCHECK
 70
     0
  9
$PEXTMIN
 10
1.000000000000000E+20
 20
1.000000000000000E+20
 30
1.000000000000000E+20
  9
$PEXTMAX
 10
-1.000000000000000E+20
 20
-1.000000000000000E+20
 30
-1.000000000000000E+20
  9
$PLIMMIN
 10
0.0
 20
0.0
  9
$PLIMMAX
 10
0.0
 20
0.0
  9
$UNITMODE
 70
     0
  9
$VISRETAIN
 70
     0
  9
$PLINEGEN
 70
     1
  9
$PSLTSCALE
 70
     0
  9
$TREEDEPTH
 70
  3020
  9
$CMLSTYLE
  2
Standard
  9
$CMLJUST
 70
     0
  9
$CMLSCALE
 40
1.0
  9
$PROXYGRAPHICS
 70
     0
  9
$MEASUREMENT
 70
     1
  9
$CELWEIGHT
370
     0
  9
$ENDCAPS
280
     0
  9
$JOINSTYLE
280
     0
  9
$LWDISPLAY
290
     1
  9
$INSUNITS
 70
     4
  9
$HYPERLINKBASE
  1

  9
$STYLESHEET
  1

  9
$XEDIT
290
     1
  9
$CEPSNTYPE
380
     0
  9
$PSTYLEMODE
290
     1
  9
$FINGERPRINTGUID
  2

  9
$VERSIONGUID
  2

  9
$EXTNAMES
290
     1
  9
$PSVPSCALE
 40
0.0
  9
$OLESTARTUP
290
     0
  9
$SORTENTS
280
   127
  9
$INDEXCTL
280
     0
  9
$HIDETEXT
280
     1
  9
$XCLIPFRAME
290
     0
  9
$HALOGAP
280
     0
  9
$OBSCOLOR
 70
   257
  9
$OBSLTYPE
280
     0
  9
$INTERSECTIONDISPLAY
280
     0
  9
$INTERSECTIONCOLOR
 70
   257
  9
$DIMASSOC
280
     2
  9
$PROJECTNAME
  1

  9
$CAMERADISPLAY
290
     0
  9
$LENSLENGTH
 40
50.0
  9
$CAMERAHEIGHT
 40
0.0
  9
$STEPSPERSEC
 40
2.0
  9
$STEPSIZE
 40
6.0
  9
$3DDWFPREC
 40
2.0
  9
$PSOLWIDTH
 40
0.25
  9
$PSOLHEIGHT
 40
4.0
  9
$LOFTANG1
 40
1.570796326794897
  9
$LOFTANG2
 40
1.570796326794897
  9
$LOFTMAG1
 40
0.0
  9
$LOFTMAG2
 40
0.0
  9
$LOFTPARAM
 70
     7
  9
$LOFTNORMALS
280
     1
  9
$LATITUDE
 40
37.795
  9
$LONGITUDE
 40
-122.394
  9
$NORTHDIRECTION
 40
0.0
  9
$TIMEZONE
 70
 -8000
  9
$LIGHTGLYPHDISPLAY
280
     1
  9
$TILEMODELIGHTSYNCH
280
     1
  9
$SOLIDHIST
280
     0
  9
$SHOWHIST
280
     1
  9
$DWFFRAME
280
     2
  9
$DGNFRAME
280
     2
  9
$REALWORLDSCALE
290
     1
  9
$INTERFERECOLOR
 62
   256
  9
$CSHADOW
280
     0
  9
$SHADOWPLANELOCATION
 40
0.0
  0
ENDSEC
  0
SECTION
  2
CLASSES
  0
CLASS
  1
LWPOLYLINE
  2
AcDbPolyline
  3
ObjectDBX Classes
 90
        0
 91
        1
280
     0
281
     1
  0
CLASS
  1
IMAGE
  2
AcDbRasterImage
  3
ISM
 90
      127
 91
       19
280
     0
281
     1
  0
CLASS
  1
OLE2FRAME
  2
AcDbOle2Frame
  3
ObjectDBX Classes
 90
        0
 91
        1
280
     0
281
     1
  0
CLASS
  1
HATCH
  2
AcDbHatch
  3
ObjectDBX Classes
 90
        0
 91
        1
280
     0
281
     1
  0
CLASS
  1
DICTIONARYVAR
  2
AcDbDictionaryVar
  3
ObjectDBX Classes
 90
        0
 91
       19
280
     0
281
     0
  0
CLASS
  1
RASTERVARIABLES
  2
AcDbRasterVariables
  3
ISM
 90
        0
 91
       18
280
     0
281
     0
  0
CLASS
  1
IMAGEDEF
  2
AcDbRasterImageDef
  3
ISM
 90
        0
 91
       18
280
     0
281
     0
  0
CLASS
  1
IMAGEDEF_REACTOR
  2
AcDbRasterImageDefReactor
  3
ISM
 90
        1
 91
       18
280
     0
281
     0
  0
CLASS
  1
IDBUFFER
  2
AcDbIdBuffer
  3
ObjectDBX Classes
 90
        0
 91
       18
280
     0
281
     0
  0
CLASS
  1
SPATIAL_FILTER
  2
AcDbSpatialFilter
  3
ObjectDBX Classes
 90
        0
 91
       18
280
     0
281
     0
  0
CLASS
  1
XRECORD
  2
AcDbXrecord
  3
ObjectDBX Classes
 90
        0
 91
        1
280
     0
281
     0
  0
CLASS
  1
SORTENTSTABLE
  2
AcDbSortentsTable
  3
ObjectDBX Classes
 90
        0
 91
       18
280
     0
281
     0
  0
CLASS
  1
LAYER_INDEX
  2
AcDbLayerIndex
  3
ObjectDBX Classes
 90
        0
 91
       18
280
     0
281
     0
  0
CLASS
  1
SPATIAL_INDEX
  2
AcDbSpatialIndex
  3
AutoCAD 2000
 90
        0
 91
       18
280
     0
281
     0
  0
CLASS
  1
OBJECT_PTR
  2
CAseDLPNTableRecord
  3
ASE-LPNTableRecord
 90
        1
 91
       18
280
     0
281
     0
  0
CLASS
  1
LAYOUT
  2
AcDbLayout
  3
ObjectDBX Classes
 90
        0
 91
        1
280
     0
281
     0
  0
CLASS
  1
PLOTSETTINGS
  2
AcDbPlotSettings
  3
ObjectDBX Classes
 90
        0
 91
       18
280
     0
281
     0
  0
CLASS
  1
ACDBDICTIONARYWDFLT
  2
AcDbDictionaryWithDefault
  3
ObjectDBX Classes
 90
        0
 91
       19
280
     0
281
     0
  0
CLASS
  1
ACDBPLACEHOLDER
  2
AcDbPlaceHolder
  3
ObjectDBX Classes
 90
        0
 91
        1
280
     0
281
     0
  0
CLASS
  1
SCALE
  2
AcDbScale
  3
ObjectDBX Classes
 90
     1153
 91
       19
280
     0
281
     0
  0
CLASS
  1
VISUALSTYLE
  2
AcDbVisualStyle
  3
ObjectDBX Classes
 90
     4095
 91
       19
280
     0
281
     0
  0
CLASS
  1
MATERIAL
  2
AcDbMaterial
  3
ObjectDBX Classes
 90
     1153
 91
       19
280
     0
281
     0
  0
CLASS
  1
TABLESTYLE
  2
AcDbTableStyle
  3
ObjectDBX Classes
 90
     4095
 91
       19
280
     0
281
     0
  0
CLASS
  1
MLEADERSTYLE
  2
AcDbMLeaderStyle
  3
ACDB_MLEADERSTYLE_CLASS
 90
     4095
 91
       19
280
     0
281
     0
  0
CLASS
  1
DIMASSOC
  2
AcDbDimAssoc
  3
"AcDbDimAssoc|Product Desc:     AcDim ARX App For Dimension|Company:          Autodesk, Inc.|WEB Address:      www.autodesk.com"
 90
        0
 91
       18
280
     0
281
     0
  0
CLASS
  1
CELLSTYLEMAP
  2
AcDbCellStyleMap
  3
ObjectDBX Classes
 90
     1152
 91
       18
280
     0
281
     0
  0
ENDSEC
  0
SECTION
  2
TABLES
  0
TABLE
  2
VPORT
  5
7
330
0
100
AcDbSymbolTable
 70
     1
  0
VPORT
  5
15
330
7
100
AcDbSymbolTableRecord
100
AcDbViewportTableRecord
  2
*ACTIVE
 70
     0
 10
0.0
 20
0.0
 11
1.0
 21
1.0
 12
1050.0
 22
1485.0
 13
0.0
 23
0.0
 14
1.0
 24
1.0
 15
0.0
 25
0.0
 16
0.0
 26
0.0
 36
1.0
 17
0.0
 27
0.0
 37
0.0
 40
3029.400000000001
 41
2.310294117647059
 42
50.0
 43
0.0
 44
0.0
 50
0.0
 51
0.0
 71
    16
 72
  2000
 73
     1
 74
     1
 75
     0
 76
     0
 77
     0
 78
     0
281
     0
 65
     1
110
0.0
120
0.0
130
0.0
111
1.0
121
0.0
131
0.0
112
0.0
122
1.0
132
0.0
 79
     0
146
0.0
348
1EC
 60
     3
 61
     5
292
     1
282
     1
141
0.0
142
0.0
 63
   250
  0
ENDTAB
  0
TABLE
  2
LTYPE
  5
4
330
0
100
AcDbSymbolTable
 70
    24
  0
LTYPE
  5
11
330
4
100
AcDbSymbolTableRecord
100
AcDbLinetypeTableRecord
  2
ByBlock
 70
     0
  3

 72
    65
 73
     0
 40
0.0
  0
LTYPE
  5
12
330
4
100
AcDbSymbolTableRecord
100
AcDbLinetypeTableRecord
  2
ByLayer
 70
     0
  3

 72
    65
 73
     0
 40
0.0
  0
LTYPE
  5
13
330
4
100
AcDbSymbolTableRecord
100
AcDbLinetypeTableRecord
  2
Continuous
 70
     0
  3
Solid line
 72
    65
 73
     0
 40
0.0
  0
LTYPE
  5
7B0
330
4
100
AcDbSymbolTableRecord
100
AcDbLinetypeTableRecord
  2
HIDDEN
 70
     0
  3
Hidden _ _ _ _ _ _ _ _ _ _ _ _ _ _ _ _ _ _ _ _ 
 72
    65
 73
     2
 40
9.524999999999999
 49
6.35
 74
     0
 49
-3.175
 74
     0
  0
ENDTAB
  0
TABLE
  2
LAYER
  5
2
102
{ACAD_XDICTIONARY
360
7A9
102
}
330
0
100
AcDbSymbolTable
 70
    11
  0
LAYER
  5
14
330
2
100
AcDbSymbolTableRecord
100
AcDbLayerTableRecord
  2
0
 70
     0
 62
     7
  6
Continuous
370
    -3
390
1D
347
203
  0
LAYER
  5
44
330
2
100
AcDbSymbolTableRecord
100
AcDbLayerTableRecord
  2
Defpoints
 70
     0
 62
     7
  6
Continuous
290
     0
370
    -3
390
1D
347
203
  0
LAYER
  5
48
330
2
100
AcDbSymbolTableRecord
100
AcDbLayerTableRecord
  2
ABA70-0001
 70
     0
 62
     7
  6
Continuous
370
    -3
390
1D
347
203
  0
LAYER
  5
7AC
330
2
100
AcDbSymbolTableRecord
100
AcDbLayerTableRecord
  2
DIM
 70
     0
 62
     3
  6
Continuous
370
    13
390
1D
347
203
1001
AcAecLayerStandard
1000

1000

  0
LAYER
  5
7AE
330
2
100
AcDbSymbolTableRecord
100
AcDbLayerTableRecord
  2
MODEL
 70
     0
 62
     7
  6
Continuous
370
    20
390
1D
347
203
1001
AcAecLayerStandard
1000

1000

  0
LAYER
  5
7AF
330
2
100
AcDbSymbolTableRecord
100
AcDbLayerTableRecord
  2
HIDDEN
 70
     0
 62
   252
  6
HIDDEN
370
    20
390
1D
347
203
1001
AcAecLayerStandard
1000

1000

  0
LAYER
  5
7D3
330
2
100
AcDbSymbolTableRecord
100
AcDbLayerTableRecord
  2
border
 70
     0
 62
     4
  6
HIDDEN
290
     0
370
    20
390
1D
347
203
1001
AcAecLayerStandard
1000

1000

  0
ENDTAB
  0
TABLE
  2
STYLE
  5
3
330
0
100
AcDbSymbolTable
 70
     2
  0
STYLE
  5
17
330
3
100
AcDbSymbolTableRecord
100
AcDbTextStyleTableRecord
  2
Standard
 70
     0
 40
0.0
 41
1.0
 50
0.0
 71
     0
 42
2.5
  3
txt
  4
BIGFONT.SHX
  0
STYLE
  5
35
330
3
100
AcDbSymbolTableRecord
100
AcDbTextStyleTableRecord
  2
ＭＳ ゴシック
 70
     0
 40
0.0
 41
1.0
 50
0.0
 71
     0
 42
0.0
  3
msgothic.ttc
  4
ＭＳ ゴシック
1001
ACAD
1000
ＭＳ ゴシック
1071
        0
  0
ENDTAB
  0
TABLE
  2
VIEW
  5
5
330
0
100
AcDbSymbolTable
 70
     0
  0
ENDTAB
  0
TABLE
  2
UCS
  5
6
330
0
100
AcDbSymbolTable
 70
     0
  0
ENDTAB
  0
TABLE
  2
APPID
  5
8
330
0
100
AcDbSymbolTable
 70
     3
  0
APPID
  5
16
330
8
100
AcDbSymbolTableRecord
100
AcDbRegAppTableRecord
  2
ACAD
 70
     0
  0
APPID
  5
7AD
330
8
100
AcDbSymbolTableRecord
100
AcDbRegAppTableRecord
  2
AcAecLayerStandard
 70
     0
  0
APPID
  5
7EF
330
8
100
AcDbSymbolTableRecord
100
AcDbRegAppTableRecord
  2
ACAD_MLEADERVER
 70
     0
  0
ENDTAB
  0
TABLE
  2
DIMSTYLE
  5
9
330
0
100
AcDbSymbolTable
 70
     3
100
AcDbDimStyleTable
  0
DIMSTYLE
105
18
330
9
100
AcDbSymbolTableRecord
100
AcDbDimStyleTableRecord
  2
Standard
 70
     0
178
     0
340
17
  0
DIMSTYLE
105
51
102
{ACAD_REACTORS
330
770
102
}
330
9
100
AcDbSymbolTableRecord
100
AcDbDimStyleTableRecord
  2
tfrom線あり
 70
     0
  3
<>
  4
[]
 41
6.0
 42
25.0
 43
0.9999999999999999
 44
0.0
 73
     0
 74
     0
 77
     1
 78
    11
140
24.4326171875
141
0.0
143
1.0
147
10.0
171
     1
174
     1
178
     0
179
     2
271
     1
272
     1
276
     2
284
    11
285
    11
286
    11
289
     0
340
35
341
49
342
49
  0
DIMSTYLE
105
56
330
9
100
AcDbSymbolTableRecord
100
AcDbDimStyleTableRecord
  2
JIS
 70
     0
  3
<>
  4
[]
 41
31.75
 42
0.0
 43
6.99999999999994
 44
19.9999999999962
 73
     0
 74
     0
 77
     1
 78
    11
140
24.4326171875
141
0.0
143
1.0
147
1.00000000000108
171
     1
174
     1
178
     0
179
     2
271
     1
272
     1
276
     2
284
    11
285
    11
286
    11
289
     0
340
35
341
52
342
52
  0
ENDTAB
  0
TABLE
  2
BLOCK_RECORD
  5
1
330
0
100
AcDbSymbolTable
 70
    32
  0
BLOCK_RECORD
  5
A
330
1
100
AcDbSymbolTableRecord
100
AcDbBlockTableRecord
  2
*MODEL_SPACE
340
20
 70
     0
280
     1
281
     0
  0
BLOCK_RECORD
  5
B
330
1
100
AcDbSymbolTableRecord
100
AcDbBlockTableRecord
  2
*PAPER_SPACE
340
21
 70
     0
280
     1
281
     0
  0
BLOCK_RECORD
  5
49
330
1
100
AcDbSymbolTableRecord
100
AcDbBlockTableRecord
  2
_DOT
340
0
102
{BLKREFS
331
793
331
794
331
79F
331
7A0
331
5B
331
5C
331
68
331
69
331
75
331
76
331
82
331
83
331
8F
331
90
331
9C
331
9D
331
A9
331
AA
331
B6
331
B7
331
C3
331
C4
331
D0
331
D1
331
DD
331
DE
331
EA
331
EB
331
F7
331
F8
331
104
331
105
331
7B9
331
7BA
331
7C4
102
}
 70
     0
280
     1
281
     0
  0
BLOCK_RECORD
  5
52
330
1
100
AcDbSymbolTableRecord
100
AcDbBlockTableRecord
  2
VW_FILLEDARROW
340
0
102
{BLKREFS
331
722
331
721
331
731
331
730
331
740
331
73F
331
75E
331
75D
331
76B
331
76A
331
77A
331
779
102
}
 70
     0
280
     1
281
     0
  0
BLOCK_RECORD
  5
23
330
1
100
AcDbSymbolTableRecord
100
AcDbBlockTableRecord
  2
*D2
340
0
 70
     0
280
     1
281
     0
  0
BLOCK_RECORD
  5
24
330
1
100
AcDbSymbolTableRecord
100
AcDbBlockTableRecord
  2
*D3
340
0
 70
     0
280
     1
281
     0
  0
BLOCK_RECORD
  5
25
330
1
100
AcDbSymbolTableRecord
100
AcDbBlockTableRecord
  2
*D4
340
0
 70
     0
280
     1
281
     0
  0
BLOCK_RECORD
  5
26
330
1
100
AcDbSymbolTableRecord
100
AcDbBlockTableRecord
  2
*D5
340
0
 70
     0
280
     1
281
     0
  0
BLOCK_RECORD
  5
27
330
1
100
AcDbSymbolTableRecord
100
AcDbBlockTableRecord
  2
*D6
340
0
 70
     0
280
     1
281
     0
  0
BLOCK_RECORD
  5
28
330
1
100
AcDbSymbolTableRecord
100
AcDbBlockTableRecord
  2
*D7
340
0
 70
     0
280
     1
281
     0
  0
BLOCK_RECORD
  5
29
330
1
100
AcDbSymbolTableRecord
100
AcDbBlockTableRecord
  2
*D8
340
0
 70
     0
280
     1
281
     0
  0
BLOCK_RECORD
  5
2A
330
1
100
AcDbSymbolTableRecord
100
AcDbBlockTableRecord
  2
*D9
340
0
 70
     0
280
     1
281
     0
  0
BLOCK_RECORD
  5
2B
330
1
100
AcDbSymbolTableRecord
100
AcDbBlockTableRecord
  2
*D10
340
0
 70
     0
280
     1
281
     0
  0
BLOCK_RECORD
  5
2C
330
1
100
AcDbSymbolTableRecord
100
AcDbBlockTableRecord
  2
*D11
340
0
 70
     0
280
     1
281
     0
  0
BLOCK_RECORD
  5
2D
330
1
100
AcDbSymbolTableRecord
100
AcDbBlockTableRecord
  2
*D12
340
0
 70
     0
280
     1
281
     0
  0
BLOCK_RECORD
  5
2E
330
1
100
AcDbSymbolTableRecord
100
AcDbBlockTableRecord
  2
*D13
340
0
 70
     0
280
     1
281
     0
  0
BLOCK_RECORD
  5
2F
330
1
100
AcDbSymbolTableRecord
100
AcDbBlockTableRecord
  2
*D14
340
0
 70
     0
280
     1
281
     0
  0
BLOCK_RECORD
  5
30
330
1
100
AcDbSymbolTableRecord
100
AcDbBlockTableRecord
  2
*D15
340
0
 70
     0
280
     1
281
     0
  0
BLOCK_RECORD
  5
33
330
1
100
AcDbSymbolTableRecord
100
AcDbBlockTableRecord
  2
グループ
340
0
102
{BLKREFS
331
1BD
102
}
 70
     0
280
     1
281
     0
  0
BLOCK_RECORD
  5
745
330
1
100
AcDbSymbolTableRecord
100
AcDbBlockTableRecord
  2
*D24
340
0
 70
     0
280
     1
281
     0
  0
BLOCK_RECORD
  5
773
330
1
100
AcDbSymbolTableRecord
100
AcDbBlockTableRecord
  2
*D27
340
0
 70
     0
280
     1
281
     0
  0
BLOCK_RECORD
  5
7B2
330
1
100
AcDbSymbolTableRecord
100
AcDbBlockTableRecord
  2
*D30
340
0
 70
     0
280
     1
281
     0
  0
BLOCK_RECORD
  5
7BF
330
1
100
AcDbSymbolTableRecord
100
AcDbBlockTableRecord
  2
*D31
340
0
 70
     0
280
     1
281
     0
  0
ENDTAB
  0
ENDSEC
  0
SECTION
  2
BLOCKS
  0
BLOCK
  5
D
330
A
100
AcDbEntity
  8
0
390
1D
100
AcDbBlockBegin
  2
*MODEL_SPACE
 70
     0
 10
0.0
 20
0.0
 30
0.0
  3
*MODEL_SPACE
  1

  0
ENDBLK
  5
E
330
A
100
AcDbEntity
  8
0
390
1D
100
AcDbBlockEnd
  0
BLOCK
  5
F
330
B
100
AcDbEntity
 67
     1
  8
0
390
1D
100
AcDbBlockBegin
  2
*PAPER_SPACE
 70
     0
 10
0.0
 20
0.0
 30
0.0
  3
*PAPER_SPACE
  1

  0
ENDBLK
  5
10
330
B
100
AcDbEntity
 67
     1
  8
0
390
1D
100
AcDbBlockEnd
  0
BLOCK
  5
782
330
49
100
AcDbEntity
  8
0
390
1D
100
AcDbBlockBegin
  2
_DOT
 70
     0
 10
0.0
 20
0.0
 30
0.0
  3
_DOT
  1

  0
POLYLINE
  5
784
330
49
100
AcDbEntity
  8
0
  6
ByBlock
 62
     0
370
    -2
390
1D
100
AcDb2dPolyline
 66
     1
 10
0.0
 20
0.0
 30
0.0
 70
     1
 40
0.5
 41
0.5
  0
VERTEX
  5
785
330
784
100
AcDbEntity
  8
0
  6
ByBlock
 62
     0
370
    -2
390
1D
100
AcDbVertex
100
AcDb2dVertex
 10
-0.25
 20
0.0
 30
0.0
 42
1.0
  0
VERTEX
  5
786
330
784
100
AcDbEntity
  8
0
  6
ByBlock
 62
     0
370
    -2
390
1D
100
AcDbVertex
100
AcDb2dVertex
 10
0.25
 20
0.0
 30
0.0
 42
1.0
  0
SEQEND
  5
787
330
784
100
AcDbEntity
  8
0
390
1D
  0
LINE
  5
788
330
49
100
AcDbEntity
  8
0
  6
ByBlock
 62
     0
370
    -2
390
1D
100
AcDbLine
 10
-0.5
 20
0.0
 30
0.0
 11
-1.0
 21
0.0
 31
0.0
  0
ENDBLK
  5
789
330
49
100
AcDbEntity
  8
0
390
1D
100
AcDbBlockEnd
  0
BLOCK
  5
53
330
52
100
AcDbEntity
  8
0
  6
ByBlock
 62
     0
370
    -2
390
1D
100
AcDbBlockBegin
  2
VW_FILLEDARROW
 70
     0
 10
0.0
 20
0.0
 30
0.0
  3
VW_FILLEDARROW
  1

  0
SOLID
  5
54
330
52
100
AcDbEntity
  8
0
 62
     0
370
    -2
390
1D
100
AcDbTrace
 10
0.0
 20
0.0
 30
0.0
 11
-0.9921874999999999
 21
-0.2658558393652545
 31
0.0
 12
-0.9921874999999999
 22
0.2658558393652548
 32
0.0
 13
-0.9921874999999999
 23
0.2658558393652548
 33
0.0
  0
ENDBLK
  5
55
330
52
100
AcDbEntity
  8
0
390
1D
100
AcDbBlockEnd
  0
BLOCK
  5
57
330
23
100
AcDbEntity
  8
ABA70-0001
390
1D
100
AcDbBlockBegin
  2
*D2
 70
     1
 10
0.0
 20
0.0
 30
0.0
  3
*D2
  1

  0
LINE
  5
58
330
23
100
AcDbEntity
  8
MODEL
 62
     0
370
    -2
100
AcDbLine
 10
-1977.10396702697
 20
1578.102396923797
 30
0.0
 11
-2178.32922728297
 21
1578.102396923797
 31
0.0
  0
LINE
  5
59
330
23
100
AcDbEntity
  8
MODEL
 62
     0
370
    -2
100
AcDbLine
 10
-1977.103967026961
 20
578.1024453033529
 30
0.0
 11
-2178.32922728297
 21
578.1024453033529
 31
0.0
  0
LINE
  5
5A
330
23
100
AcDbEntity
  8
MODEL
 62
     0
370
    -2
100
AcDbLine
 10
-2178.32922728297
 20
1572.102396923797
 30
0.0
 11
-2178.32922728297
 21
584.1024453033529
 31
0.0
  0
INSERT
  5
5B
102
{ACAD_REACTORS
330
5C
102
}
330
23
100
AcDbEntity
  8
MODEL
 62
     0
370
    -2
100
AcDbBlockReference
  2
_DOT
 10
-2178.32922728297
 20
1578.102396923797
 30
0.0
 41
6.0
 42
6.0
 43
6.0
 50
90.0
  0
INSERT
  5
5C
330
23
100
AcDbEntity
  8
MODEL
 62
     0
370
    -2
100
AcDbBlockReference
  2
_DOT
 10
-2178.32922728297
 20
578.1024453033529
 30
0.0
 41
6.0
 42
6.0
 43
6.0
 50
270.0
  0
MTEXT
  5
5D
102
{ACAD_REACTORS
330
5E
102
}
330
23
100
AcDbEntity
  8
MODEL
  6
Continuous
 62
     0
100
AcDbMText
 10
-2195.54553587672
 20
1078.102421113575
 30
0.0
 40
24.4326171875
 41
0.0
 46
0.0
 71
     5
 72
     1
  1
\A1;1000
  7
ＭＳ ゴシック
 11
0.0
 21
1.0
 31
0.0
 73
     1
 44
1.0
  0
POINT
  5
5E
330
23
100
AcDbEntity
  8
Defpoints
 62
     0
100
AcDbPoint
 10
-1952.10396702697
 20
1578.102396923797
 30
0.0
  0
POINT
  5
5F
330
23
100
AcDbEntity
  8
Defpoints
 62
     0
100
AcDbPoint
 10
-1952.103967026961
 20
578.1024453033529
 30
0.0
  0
POINT
  5
60
330
23
100
AcDbEntity
  8
Defpoints
 62
     0
100
AcDbPoint
 10
-2178.32922728297
 20
578.1024453033529
 30
0.0
  0
ENDBLK
  5
63
330
23
100
AcDbEntity
  8
ABA70-0001
390
1D
100
AcDbBlockEnd
  0
BLOCK
  5
64
330
24
100
AcDbEntity
  8
ABA70-0001
390
1D
100
AcDbBlockBegin
  2
*D3
 70
     1
 10
0.0
 20
0.0
 30
0.0
  3
*D3
  1

  0
LINE
  5
65
330
24
100
AcDbEntity
  8
MODEL
 62
     0
370
    -2
100
AcDbLine
 10
-1988.80714244148
 20
981.1513920977027
 30
0.0
 11
-2128.329227282481
 21
981.1513920977027
 31
0.0
  0
LINE
  5
66
330
24
100
AcDbEntity
  8
MODEL
 62
     0
370
    -2
100
AcDbLine
 10
-1988.80714244148
 20
1081.151392097703
 30
0.0
 11
-2128.329227282481
 21
1081.151392097703
 31
0.0
  0
LINE
  5
67
330
24
100
AcDbEntity
  8
MODEL
 62
     0
370
    -2
100
AcDbLine
 10
-2128.329227282481
 20
987.1513920977027
 30
0.0
 11
-2128.329227282481
 21
1075.151392097703
 31
0.0
  0
INSERT
  5
68
102
{ACAD_REACTORS
330
69
102
}
330
24
100
AcDbEntity
  8
MODEL
 62
     0
370
    -2
100
AcDbBlockReference
  2
_DOT
 10
-2128.329227282481
 20
981.1513920977027
 30
0.0
 41
6.0
 42
6.0
 43
6.0
 50
270.0
  0
INSERT
  5
69
330
24
100
AcDbEntity
  8
MODEL
 62
     0
370
    -2
100
AcDbBlockReference
  2
_DOT
 10
-2128.329227282481
 20
1081.151392097703
 30
0.0
 41
6.0
 42
6.0
 43
6.0
 50
90.0
  0
MTEXT
  5
6A
102
{ACAD_REACTORS
330
6B
102
}
330
24
100
AcDbEntity
  8
MODEL
  6
Continuous
 62
     0
100
AcDbMText
 10
-2145.545535876231
 20
1031.151392097703
 30
0.0
 40
24.4326171875
 41
0.0
 46
0.0
 71
     5
 72
     1
  1
\A1;100
  7
ＭＳ ゴシック
 11
0.0
 21
1.0
 31
0.0
 73
     1
 44
1.0
  0
POINT
  5
6B
330
24
100
AcDbEntity
  8
Defpoints
 62
     0
100
AcDbPoint
 10
-1963.80714244148
 20
981.1513920977027
 30
0.0
  0
POINT
  5
6C
330
24
100
AcDbEntity
  8
Defpoints
 62
     0
100
AcDbPoint
 10
-1963.80714244148
 20
1081.151392097703
 30
0.0
  0
POINT
  5
6D
330
24
100
AcDbEntity
  8
Defpoints
 62
     0
100
AcDbPoint
 10
-2128.329227282481
 20
1081.151392097703
 30
0.0
  0
ENDBLK
  5
70
330
24
100
AcDbEntity
  8
ABA70-0001
390
1D
100
AcDbBlockEnd
  0
BLOCK
  5
71
330
25
100
AcDbEntity
  8
ABA70-0001
390
1D
100
AcDbBlockBegin
  2
*D4
 70
     1
 10
0.0
 20
0.0
 30
0.0
  3
*D4
  1

  0
LINE
  5
72
330
25
100
AcDbEntity
  8
MODEL
 62
     0
370
    -2
100
AcDbLine
 10
-1988.80714244148
 20
1081.151392097703
 30
0.0
 11
-2128.329227282481
 21
1081.151392097703
 31
0.0
  0
LINE
  5
73
330
25
100
AcDbEntity
  8
MODEL
 62
     0
370
    -2
100
AcDbLine
 10
-1988.80714244148
 20
1181.151392097703
 30
0.0
 11
-2128.329227282481
 21
1181.151392097703
 31
0.0
  0
LINE
  5
74
330
25
100
AcDbEntity
  8
MODEL
 62
     0
370
    -2
100
AcDbLine
 10
-2128.329227282481
 20
1087.151392097703
 30
0.0
 11
-2128.329227282481
 21
1175.151392097703
 31
0.0
  0
INSERT
  5
75
102
{ACAD_REACTORS
330
76
102
}
330
25
100
AcDbEntity
  8
MODEL
 62
     0
370
    -2
100
AcDbBlockReference
  2
_DOT
 10
-2128.329227282481
 20
1081.151392097703
 30
0.0
 41
6.0
 42
6.0
 43
6.0
 50
270.0
  0
INSERT
  5
76
330
25
100
AcDbEntity
  8
MODEL
 62
     0
370
    -2
100
AcDbBlockReference
  2
_DOT
 10
-2128.329227282481
 20
1181.151392097703
 30
0.0
 41
6.0
 42
6.0
 43
6.0
 50
90.0
  0
MTEXT
  5
77
102
{ACAD_REACTORS
330
78
102
}
330
25
100
AcDbEntity
  8
MODEL
  6
Continuous
 62
     0
100
AcDbMText
 10
-2145.545535876231
 20
1131.151392097703
 30
0.0
 40
24.4326171875
 41
0.0
 46
0.0
 71
     5
 72
     1
  1
\A1;100
  7
ＭＳ ゴシック
 11
0.0
 21
1.0
 31
0.0
 73
     1
 44
1.0
  0
POINT
  5
78
330
25
100
AcDbEntity
  8
Defpoints
 62
     0
100
AcDbPoint
 10
-1963.80714244148
 20
1081.151392097703
 30
0.0
  0
POINT
  5
79
330
25
100
AcDbEntity
  8
Defpoints
 62
     0
100
AcDbPoint
 10
-1963.80714244148
 20
1181.151392097703
 30
0.0
  0
POINT
  5
7A
330
25
100
AcDbEntity
  8
Defpoints
 62
     0
100
AcDbPoint
 10
-2128.329227282481
 20
1181.151392097703
 30
0.0
  0
ENDBLK
  5
7D
330
25
100
AcDbEntity
  8
ABA70-0001
390
1D
100
AcDbBlockEnd
  0
BLOCK
  5
7E
330
26
100
AcDbEntity
  8
ABA70-0001
390
1D
100
AcDbBlockBegin
  2
*D5
 70
     1
 10
0.0
 20
0.0
 30
0.0
  3
*D5
  1

  0
LINE
  5
7F
330
26
100
AcDbEntity
  8
MODEL
 62
     0
370
    -2
100
AcDbLine
 10
-893.8381041241505
 20
938.102421113575
 30
0.0
 11
-1028.838104124151
 21
938.102421113575
 31
0.0
  0
LINE
  5
80
330
26
100
AcDbEntity
  8
MODEL
 62
     0
370
    -2
100
AcDbLine
 10
-893.8381041241505
 20
1218.102421113575
 30
0.0
 11
-1028.838104124151
 21
1218.102421113575
 31
0.0
  0
LINE
  5
81
330
26
100
AcDbEntity
  8
MODEL
 62
     0
370
    -2
100
AcDbLine
 10
-1028.838104124151
 20
944.102421113575
 30
0.0
 11
-1028.838104124151
 21
1212.102421113575
 31
0.0
  0
INSERT
  5
82
102
{ACAD_REACTORS
330
83
102
}
330
26
100
AcDbEntity
  8
MODEL
 62
     0
370
    -2
100
AcDbBlockReference
  2
_DOT
 10
-1028.838104124151
 20
938.102421113575
 30
0.0
 41
6.0
 42
6.0
 43
6.0
 50
270.0
  0
INSERT
  5
83
330
26
100
AcDbEntity
  8
MODEL
 62
     0
370
    -2
100
AcDbBlockReference
  2
_DOT
 10
-1028.838104124151
 20
1218.102421113575
 30
0.0
 41
6.0
 42
6.0
 43
6.0
 50
90.0
  0
MTEXT
  5
84
102
{ACAD_REACTORS
330
85
102
}
330
26
100
AcDbEntity
  8
MODEL
  6
Continuous
 62
     0
100
AcDbMText
 10
-1046.054412717901
 20
1078.102421113575
 30
0.0
 40
24.4326171875
 41
0.0
 46
0.0
 71
     5
 72
     1
  1
\A1;280
  7
ＭＳ ゴシック
 11
0.0
 21
1.0
 31
0.0
 73
     1
 44
1.0
  0
POINT
  5
85
330
26
100
AcDbEntity
  8
Defpoints
 62
     0
100
AcDbPoint
 10
-868.8381041241505
 20
938.102421113575
 30
0.0
  0
POINT
  5
86
330
26
100
AcDbEntity
  8
Defpoints
 62
     0
100
AcDbPoint
 10
-868.8381041241505
 20
1218.102421113575
 30
0.0
  0
POINT
  5
87
330
26
100
AcDbEntity
  8
Defpoints
 62
     0
100
AcDbPoint
 10
-1028.838104124151
 20
1218.102421113575
 30
0.0
  0
ENDBLK
  5
8A
330
26
100
AcDbEntity
  8
ABA70-0001
390
1D
100
AcDbBlockEnd
  0
BLOCK
  5
8B
330
27
100
AcDbEntity
  8
ABA70-0001
390
1D
100
AcDbBlockBegin
  2
*D6
 70
     1
 10
0.0
 20
0.0
 30
0.0
  3
*D6
  1

  0
LINE
  5
8C
330
27
100
AcDbEntity
  8
MODEL
 62
     0
370
    -2
100
AcDbLine
 10
-1454.004829141603
 20
1338.102421113573
 30
0.0
 11
-1378.329227282603
 21
1338.102421113573
 31
0.0
  0
LINE
  5
8D
330
27
100
AcDbEntity
  8
MODEL
 62
     0
370
    -2
100
AcDbLine
 10
-1454.004808137243
 20
818.1024211135732
 30
0.0
 11
-1378.329227282603
 21
818.1024211135732
 31
0.0
  0
LINE
  5
8E
330
27
100
AcDbEntity
  8
MODEL
 62
     0
370
    -2
100
AcDbLine
 10
-1378.329227282603
 20
1332.102421113573
 30
0.0
 11
-1378.329227282603
 21
824.1024211135732
 31
0.0
  0
INSERT
  5
8F
102
{ACAD_REACTORS
330
90
102
}
330
27
100
AcDbEntity
  8
MODEL
 62
     0
370
    -2
100
AcDbBlockReference
  2
_DOT
 10
-1378.329227282603
 20
1338.102421113573
 30
0.0
 41
6.0
 42
6.0
 43
6.0
 50
90.0
  0
INSERT
  5
90
330
27
100
AcDbEntity
  8
MODEL
 62
     0
370
    -2
100
AcDbBlockReference
  2
_DOT
 10
-1378.329227282603
 20
818.1024211135732
 30
0.0
 41
6.0
 42
6.0
 43
6.0
 50
270.0
  0
MTEXT
  5
91
102
{ACAD_REACTORS
330
92
102
}
330
27
100
AcDbEntity
  8
MODEL
  6
Continuous
 62
     0
100
AcDbMText
 10
-1395.545535876353
 20
1078.102421113573
 30
0.0
 40
24.4326171875
 41
0.0
 46
0.0
 71
     5
 72
     1
  1
\A1;520
  7
ＭＳ ゴシック
 11
0.0
 21
1.0
 31
0.0
 73
     1
 44
1.0
  0
POINT
  5
92
330
27
100
AcDbEntity
  8
Defpoints
 62
     0
100
AcDbPoint
 10
-1479.004829141603
 20
1338.102421113573
 30
0.0
  0
POINT
  5
93
330
27
100
AcDbEntity
  8
Defpoints
 62
     0
100
AcDbPoint
 10
-1479.004808137243
 20
818.1024211135732
 30
0.0
  0
POINT
  5
94
330
27
100
AcDbEntity
  8
Defpoints
 62
     0
100
AcDbPoint
 10
-1378.329227282603
 20
818.1024211135732
 30
0.0
  0
ENDBLK
  5
97
330
27
100
AcDbEntity
  8
ABA70-0001
390
1D
100
AcDbBlockEnd
  0
BLOCK
  5
98
330
28
100
AcDbEntity
  8
ABA70-0001
390
1D
100
AcDbBlockBegin
  2
*D7
 70
     1
 10
0.0
 20
0.0
 30
0.0
  3
*D7
  1

  0
LINE
  5
99
330
28
100
AcDbEntity
  8
MODEL
 62
     0
370
    -2
100
AcDbLine
 10
-2028.329227282939
 20
1536.07375037629
 30
0.0
 11
-2028.329227282939
 21
1678.10239692429
 31
0.0
  0
LINE
  5
9A
330
28
100
AcDbEntity
  8
MODEL
 62
     0
370
    -2
100
AcDbLine
 10
-1478.329227282939
 20
1536.073750376306
 30
0.0
 11
-1478.329227282939
 21
1678.10239692429
 31
0.0
  0
LINE
  5
9B
330
28
100
AcDbEntity
  8
MODEL
 62
     0
370
    -2
100
AcDbLine
 10
-2022.329227282939
 20
1678.10239692429
 30
0.0
 11
-1484.329227282939
 21
1678.10239692429
 31
0.0
  0
INSERT
  5
9C
102
{ACAD_REACTORS
330
9D
102
}
330
28
100
AcDbEntity
  8
MODEL
 62
     0
370
    -2
100
AcDbBlockReference
  2
_DOT
 10
-2028.329227282939
 20
1678.10239692429
 30
0.0
 41
6.0
 42
6.0
 43
6.0
 50
180.0
  0
INSERT
  5
9D
330
28
100
AcDbEntity
  8
MODEL
 62
     0
370
    -2
100
AcDbBlockReference
  2
_DOT
 10
-1478.329227282939
 20
1678.10239692429
 30
0.0
 41
6.0
 42
6.0
 43
6.0
  0
MTEXT
  5
9E
102
{ACAD_REACTORS
330
9F
102
}
330
28
100
AcDbEntity
  8
MODEL
  6
Continuous
 62
     0
100
AcDbMText
 10
-1753.329227282939
 20
1695.31870551804
 30
0.0
 40
24.4326171875
 41
0.0
 46
0.0
 71
     5
 72
     1
  1
\A1;550
  7
ＭＳ ゴシック
 73
     1
 44
1.0
  0
POINT
  5
9F
330
28
100
AcDbEntity
  8
Defpoints
 62
     0
100
AcDbPoint
 10
-2028.329227282939
 20
1511.07375037629
 30
0.0
  0
POINT
  5
A0
330
28
100
AcDbEntity
  8
Defpoints
 62
     0
100
AcDbPoint
 10
-1478.329227282939
 20
1511.073750376306
 30
0.0
  0
POINT
  5
A1
330
28
100
AcDbEntity
  8
Defpoints
 62
     0
100
AcDbPoint
 10
-1478.329227282939
 20
1678.10239692429
 30
0.0
  0
ENDBLK
  5
A4
330
28
100
AcDbEntity
  8
ABA70-0001
390
1D
100
AcDbBlockEnd
  0
BLOCK
  5
A5
330
29
100
AcDbEntity
  8
ABA70-0001
390
1D
100
AcDbBlockBegin
  2
*D8
 70
     1
 10
0.0
 20
0.0
 30
0.0
  3
*D8
  1

  0
LINE
  5
A6
330
29
100
AcDbEntity
  8
MODEL
 62
     0
370
    -2
100
AcDbLine
 10
-843.8207313874741
 20
2092.17025409121
 30
0.0
 11
-843.8207313874741
 21
1987.69967466926
 31
0.0
  0
LINE
  5
A7
330
29
100
AcDbEntity
  8
MODEL
 62
     0
370
    -2
100
AcDbLine
 10
-698.8352806658318
 20
2336.095967866413
 30
0.0
 11
-698.8352806658318
 21
1987.69967466926
 31
0.0
  0
LINE
  5
A8
330
29
100
AcDbEntity
  8
MODEL
 62
     0
370
    -2
100
AcDbLine
 10
-837.8207313874741
 20
1987.69967466926
 30
0.0
 11
-704.8352806658318
 21
1987.69967466926
 31
0.0
  0
INSERT
  5
A9
102
{ACAD_REACTORS
330
AA
102
}
330
29
100
AcDbEntity
  8
MODEL
 62
     0
370
    -2
100
AcDbBlockReference
  2
_DOT
 10
-843.8207313874741
 20
1987.69967466926
 30
0.0
 41
6.0
 42
6.0
 43
6.0
 50
180.0
  0
INSERT
  5
AA
330
29
100
AcDbEntity
  8
MODEL
 62
     0
370
    -2
100
AcDbBlockReference
  2
_DOT
 10
-698.8352806658318
 20
1987.69967466926
 30
0.0
 41
6.0
 42
6.0
 43
6.0
  0
MTEXT
  5
AB
102
{ACAD_REACTORS
330
AC
102
}
330
29
100
AcDbEntity
  8
MODEL
  6
Continuous
 62
     0
100
AcDbMText
 10
-771.3280060266529
 20
2004.91598326301
 30
0.0
 40
24.4326171875
 41
0.0
 46
0.0
 71
     5
 72
     1
  1
\A1;145
  7
ＭＳ ゴシック
 73
     1
 44
1.0
  0
POINT
  5
AC
330
29
100
AcDbEntity
  8
Defpoints
 62
     0
100
AcDbPoint
 10
-843.8207313874741
 20
2117.17025409121
 30
0.0
  0
POINT
  5
AD
330
29
100
AcDbEntity
  8
Defpoints
 62
     0
100
AcDbPoint
 10
-698.8352806658318
 20
2361.095967866413
 30
0.0
  0
POINT
  5
AE
330
29
100
AcDbEntity
  8
Defpoints
 62
     0
100
AcDbPoint
 10
-698.8352806658318
 20
1987.69967466926
 30
0.0
  0
ENDBLK
  5
B1
330
29
100
AcDbEntity
  8
ABA70-0001
390
1D
100
AcDbBlockEnd
  0
BLOCK
  5
B2
330
2A
100
AcDbEntity
  8
ABA70-0001
390
1D
100
AcDbBlockBegin
  2
*D9
 70
     1
 10
0.0
 20
0.0
 30
0.0
  3
*D9
  1

  0
LINE
  5
B3
330
2A
100
AcDbEntity
  8
MODEL
 62
     0
370
    -2
100
AcDbLine
 10
-928.8391458459814
 20
2044.202003502681
 30
0.0
 11
-928.8391458459814
 21
1987.69967466926
 31
0.0
  0
LINE
  5
B4
330
2A
100
AcDbEntity
  8
MODEL
 62
     0
370
    -2
100
AcDbLine
 10
-843.8320645785429
 20
2092.152738117096
 30
0.0
 11
-843.8320645785429
 21
1987.69967466926
 31
0.0
  0
LINE
  5
B5
330
2A
100
AcDbEntity
  8
MODEL
 62
     0
370
    -2
100
AcDbLine
 10
-922.8391458459814
 20
1987.69967466926
 30
0.0
 11
-849.8320645785429
 21
1987.69967466926
 31
0.0
  0
INSERT
  5
B6
102
{ACAD_REACTORS
330
B7
102
}
330
2A
100
AcDbEntity
  8
MODEL
 62
     0
370
    -2
100
AcDbBlockReference
  2
_DOT
 10
-928.8391458459814
 20
1987.69967466926
 30
0.0
 41
6.0
 42
6.0
 43
6.0
 50
180.0
  0
INSERT
  5
B7
330
2A
100
AcDbEntity
  8
MODEL
 62
     0
370
    -2
100
AcDbBlockReference
  2
_DOT
 10
-843.8320645785429
 20
1987.69967466926
 30
0.0
 41
6.0
 42
6.0
 43
6.0
  0
MTEXT
  5
B8
102
{ACAD_REACTORS
330
B9
102
}
330
2A
100
AcDbEntity
  8
MODEL
  6
Continuous
 62
     0
100
AcDbMText
 10
-886.3356052122622
 20
2004.91598326301
 30
0.0
 40
24.4326171875
 41
0.0
 46
0.0
 71
     5
 72
     1
  1
\A1;85
  7
ＭＳ ゴシック
 73
     1
 44
1.0
  0
POINT
  5
B9
330
2A
100
AcDbEntity
  8
Defpoints
 62
     0
100
AcDbPoint
 10
-928.8391458459814
 20
2069.202003502681
 30
0.0
  0
POINT
  5
BA
330
2A
100
AcDbEntity
  8
Defpoints
 62
     0
100
AcDbPoint
 10
-843.8320645785429
 20
2117.152738117096
 30
0.0
  0
POINT
  5
BB
330
2A
100
AcDbEntity
  8
Defpoints
 62
     0
100
AcDbPoint
 10
-843.8320645785429
 20
1987.69967466926
 30
0.0
  0
ENDBLK
  5
BE
330
2A
100
AcDbEntity
  8
ABA70-0001
390
1D
100
AcDbBlockEnd
  0
BLOCK
  5
BF
330
2B
100
AcDbEntity
  8
ABA70-0001
390
1D
100
AcDbBlockBegin
  2
*D10
 70
     1
 10
0.0
 20
0.0
 30
0.0
  3
*D10
  1

  0
LINE
  5
C0
330
2B
100
AcDbEntity
  8
MODEL
 62
     0
370
    -2
100
AcDbLine
 10
-928.8381041241505
 20
1597.046465511808
 30
0.0
 11
-928.8381041241505
 21
1678.10239692429
 31
0.0
  0
LINE
  5
C1
330
2B
100
AcDbEntity
  8
MODEL
 62
     0
370
    -2
100
AcDbLine
 10
-698.8380287672812
 20
1135.603557862414
 30
0.0
 11
-698.8380287672812
 21
1678.10239692429
 31
0.0
  0
LINE
  5
C2
330
2B
100
AcDbEntity
  8
MODEL
 62
     0
370
    -2
100
AcDbLine
 10
-922.8381041241505
 20
1678.10239692429
 30
0.0
 11
-704.8380287672812
 21
1678.10239692429
 31
0.0
  0
INSERT
  5
C3
102
{ACAD_REACTORS
330
C4
102
}
330
2B
100
AcDbEntity
  8
MODEL
 62
     0
370
    -2
100
AcDbBlockReference
  2
_DOT
 10
-928.8381041241505
 20
1678.10239692429
 30
0.0
 41
6.0
 42
6.0
 43
6.0
 50
180.0
  0
INSERT
  5
C4
330
2B
100
AcDbEntity
  8
MODEL
 62
     0
370
    -2
100
AcDbBlockReference
  2
_DOT
 10
-698.8380287672812
 20
1678.10239692429
 30
0.0
 41
6.0
 42
6.0
 43
6.0
  0
MTEXT
  5
C5
102
{ACAD_REACTORS
330
C6
102
}
330
2B
100
AcDbEntity
  8
MODEL
  6
Continuous
 62
     0
100
AcDbMText
 10
-813.8380664457159
 20
1695.31870551804
 30
0.0
 40
24.4326171875
 41
0.0
 46
0.0
 71
     5
 72
     1
  1
\A1;230
  7
ＭＳ ゴシック
 73
     1
 44
1.0
  0
POINT
  5
C6
330
2B
100
AcDbEntity
  8
Defpoints
 62
     0
100
AcDbPoint
 10
-928.8381041241505
 20
1572.046465511808
 30
0.0
  0
POINT
  5
C7
330
2B
100
AcDbEntity
  8
Defpoints
 62
     0
100
AcDbPoint
 10
-698.8380287672812
 20
1110.603557862414
 30
0.0
  0
POINT
  5
C8
330
2B
100
AcDbEntity
  8
Defpoints
 62
     0
100
AcDbPoint
 10
-698.8380287672812
 20
1678.10239692429
 30
0.0
  0
ENDBLK
  5
CB
330
2B
100
AcDbEntity
  8
ABA70-0001
390
1D
100
AcDbBlockEnd
  0
BLOCK
  5
CC
330
2C
100
AcDbEntity
  8
ABA70-0001
390
1D
100
AcDbBlockBegin
  2
*D11
 70
     1
 10
0.0
 20
0.0
 30
0.0
  3
*D11
  1

  0
LINE
  5
CD
330
2C
100
AcDbEntity
  8
MODEL
 62
     0
370
    -2
100
AcDbLine
 10
-674.0697855457879
 20
2393.174896769645
 30
0.0
 11
-598.8183618467888
 21
2393.174896769645
 31
0.0
  0
LINE
  5
CE
330
2C
100
AcDbEntity
  8
MODEL
 62
     0
370
    -2
100
AcDbLine
 10
-701.7193700358225
 20
2638.174896769645
 30
0.0
 11
-598.8183618467888
 21
2638.174896769645
 31
0.0
  0
LINE
  5
CF
330
2C
100
AcDbEntity
  8
MODEL
 62
     0
370
    -2
100
AcDbLine
 10
-598.8183618467888
 20
2399.174896769645
 30
0.0
 11
-598.8183618467888
 21
2632.174896769645
 31
0.0
  0
INSERT
  5
D0
102
{ACAD_REACTORS
330
D1
102
}
330
2C
100
AcDbEntity
  8
MODEL
 62
     0
370
    -2
100
AcDbBlockReference
  2
_DOT
 10
-598.8183618467888
 20
2393.174896769645
 30
0.0
 41
6.0
 42
6.0
 43
6.0
 50
270.0
  0
INSERT
  5
D1
330
2C
100
AcDbEntity
  8
MODEL
 62
     0
370
    -2
100
AcDbBlockReference
  2
_DOT
 10
-598.8183618467888
 20
2638.174896769645
 30
0.0
 41
6.0
 42
6.0
 43
6.0
 50
90.0
  0
MTEXT
  5
D2
102
{ACAD_REACTORS
330
D3
102
}
330
2C
100
AcDbEntity
  8
MODEL
  6
Continuous
 62
     0
100
AcDbMText
 10
-616.0346704405388
 20
2515.674896769645
 30
0.0
 40
24.4326171875
 41
0.0
 46
0.0
 71
     5
 72
     1
  1
\A1;245
  7
ＭＳ ゴシック
 11
0.0
 21
1.0
 31
0.0
 73
     1
 44
1.0
  0
POINT
  5
D3
330
2C
100
AcDbEntity
  8
Defpoints
 62
     0
100
AcDbPoint
 10
-699.0697855457879
 20
2393.174896769645
 30
0.0
  0
POINT
  5
D4
330
2C
100
AcDbEntity
  8
Defpoints
 62
     0
100
AcDbPoint
 10
-726.7193700358225
 20
2638.174896769645
 30
0.0
  0
POINT
  5
D5
330
2C
100
AcDbEntity
  8
Defpoints
 62
     0
100
AcDbPoint
 10
-598.8183618467888
 20
2638.174896769645
 30
0.0
  0
ENDBLK
  5
D8
330
2C
100
AcDbEntity
  8
ABA70-0001
390
1D
100
AcDbBlockEnd
  0
BLOCK
  5
D9
330
2D
100
AcDbEntity
  8
ABA70-0001
390
1D
100
AcDbBlockBegin
  2
*D12
 70
     1
 10
0.0
 20
0.0
 30
0.0
  3
*D12
  1

  0
LINE
  5
DA
330
2D
100
AcDbEntity
  8
MODEL
 62
     0
370
    -2
100
AcDbLine
 10
-953.8338222607058
 20
2638.153363771998
 30
0.0
 11
-1028.833822260706
 21
2638.153363771998
 31
0.0
  0
LINE
  5
DB
330
2D
100
AcDbEntity
  8
MODEL
 62
     0
370
    -2
100
AcDbLine
 10
-935.3860573278221
 20
2553.153363771998
 30
0.0
 11
-1028.833822260706
 21
2553.153363771998
 31
0.0
  0
LINE
  5
DC
330
2D
100
AcDbEntity
  8
MODEL
 62
     0
370
    -2
100
AcDbLine
 10
-1028.833822260706
 20
2632.153363771998
 30
0.0
 11
-1028.833822260706
 21
2559.153363771998
 31
0.0
  0
INSERT
  5
DD
102
{ACAD_REACTORS
330
DE
102
}
330
2D
100
AcDbEntity
  8
MODEL
 62
     0
370
    -2
100
AcDbBlockReference
  2
_DOT
 10
-1028.833822260706
 20
2638.153363771998
 30
0.0
 41
6.0
 42
6.0
 43
6.0
 50
90.0
  0
INSERT
  5
DE
330
2D
100
AcDbEntity
  8
MODEL
 62
     0
370
    -2
100
AcDbBlockReference
  2
_DOT
 10
-1028.833822260706
 20
2553.153363771998
 30
0.0
 41
6.0
 42
6.0
 43
6.0
 50
270.0
  0
MTEXT
  5
DF
102
{ACAD_REACTORS
330
E0
102
}
330
2D
100
AcDbEntity
  8
MODEL
  6
Continuous
 62
     0
100
AcDbMText
 10
-1046.050130854456
 20
2595.653363771998
 30
0.0
 40
24.4326171875
 41
0.0
 46
0.0
 71
     5
 72
     1
  1
\A1;85
  7
ＭＳ ゴシック
 11
0.0
 21
1.0
 31
0.0
 73
     1
 44
1.0
  0
POINT
  5
E0
330
2D
100
AcDbEntity
  8
Defpoints
 62
     0
100
AcDbPoint
 10
-928.8338222607058
 20
2638.153363771998
 30
0.0
  0
POINT
  5
E1
330
2D
100
AcDbEntity
  8
Defpoints
 62
     0
100
AcDbPoint
 10
-910.3860573278221
 20
2553.153363771998
 30
0.0
  0
POINT
  5
E2
330
2D
100
AcDbEntity
  8
Defpoints
 62
     0
100
AcDbPoint
 10
-1028.833822260706
 20
2553.153363771998
 30
0.0
  0
ENDBLK
  5
E5
330
2D
100
AcDbEntity
  8
ABA70-0001
390
1D
100
AcDbBlockEnd
  0
BLOCK
  5
E6
330
2E
100
AcDbEntity
  8
ABA70-0001
390
1D
100
AcDbBlockBegin
  2
*D13
 70
     1
 10
0.0
 20
0.0
 30
0.0
  3
*D13
  1

  0
LINE
  5
E7
330
2E
100
AcDbEntity
  8
MODEL
 62
     0
370
    -2
100
AcDbLine
 10
-2028.329227282939
 20
620.088280073754
 30
0.0
 11
-2028.329227282939
 21
478.1024444677546
 31
0.0
  0
LINE
  5
E8
330
2E
100
AcDbEntity
  8
MODEL
 62
     0
370
    -2
100
AcDbLine
 10
-1883.329227282939
 20
553.1024438587824
 30
0.0
 11
-1883.329227282939
 21
478.1024444677546
 31
0.0
  0
LINE
  5
E9
330
2E
100
AcDbEntity
  8
MODEL
 62
     0
370
    -2
100
AcDbLine
 10
-2022.329227282939
 20
478.1024444677546
 30
0.0
 11
-1889.329227282939
 21
478.1024444677546
 31
0.0
  0
INSERT
  5
EA
102
{ACAD_REACTORS
330
EB
102
}
330
2E
100
AcDbEntity
  8
MODEL
 62
     0
370
    -2
100
AcDbBlockReference
  2
_DOT
 10
-2028.329227282939
 20
478.1024444677546
 30
0.0
 41
6.0
 42
6.0
 43
6.0
 50
180.0
  0
INSERT
  5
EB
330
2E
100
AcDbEntity
  8
MODEL
 62
     0
370
    -2
100
AcDbBlockReference
  2
_DOT
 10
-1883.329227282939
 20
478.1024444677546
 30
0.0
 41
6.0
 42
6.0
 43
6.0
  0
MTEXT
  5
EC
102
{ACAD_REACTORS
330
ED
102
}
330
2E
100
AcDbEntity
  8
MODEL
  6
Continuous
 62
     0
100
AcDbMText
 10
-1955.829227282939
 20
495.3187530615046
 30
0.0
 40
24.4326171875
 41
0.0
 46
0.0
 71
     5
 72
     1
  1
\A1;145
  7
ＭＳ ゴシック
 73
     1
 44
1.0
  0
POINT
  5
ED
330
2E
100
AcDbEntity
  8
Defpoints
 62
     0
100
AcDbPoint
 10
-2028.329227282939
 20
645.088280073754
 30
0.0
  0
POINT
  5
EE
330
2E
100
AcDbEntity
  8
Defpoints
 62
     0
100
AcDbPoint
 10
-1883.329227282939
 20
578.1024438587824
 30
0.0
  0
POINT
  5
EF
330
2E
100
AcDbEntity
  8
Defpoints
 62
     0
100
AcDbPoint
 10
-1883.329227282939
 20
478.1024444677546
 30
0.0
  0
ENDBLK
  5
F2
330
2E
100
AcDbEntity
  8
ABA70-0001
390
1D
100
AcDbBlockEnd
  0
BLOCK
  5
F3
330
2F
100
AcDbEntity
  8
ABA70-0001
390
1D
100
AcDbBlockBegin
  2
*D14
 70
     1
 10
0.0
 20
0.0
 30
0.0
  3
*D14
  1

  0
LINE
  5
F4
330
2F
100
AcDbEntity
  8
MODEL
 62
     0
370
    -2
100
AcDbLine
 10
-1883.329227282939
 20
553.1024438587824
 30
0.0
 11
-1883.329227282939
 21
478.1024444677546
 31
0.0
  0
LINE
  5
F5
330
2F
100
AcDbEntity
  8
MODEL
 62
     0
370
    -2
100
AcDbLine
 10
-1558.329227282939
 20
553.2110437248189
 30
0.0
 11
-1558.329227282939
 21
478.1024444677546
 31
0.0
  0
LINE
  5
F6
330
2F
100
AcDbEntity
  8
MODEL
 62
     0
370
    -2
100
AcDbLine
 10
-1877.329227282939
 20
478.1024444677546
 30
0.0
 11
-1564.329227282939
 21
478.1024444677546
 31
0.0
  0
INSERT
  5
F7
102
{ACAD_REACTORS
330
F8
102
}
330
2F
100
AcDbEntity
  8
MODEL
 62
     0
370
    -2
100
AcDbBlockReference
  2
_DOT
 10
-1883.329227282939
 20
478.1024444677546
 30
0.0
 41
6.0
 42
6.0
 43
6.0
 50
180.0
  0
INSERT
  5
F8
330
2F
100
AcDbEntity
  8
MODEL
 62
     0
370
    -2
100
AcDbBlockReference
  2
_DOT
 10
-1558.329227282939
 20
478.1024444677546
 30
0.0
 41
6.0
 42
6.0
 43
6.0
  0
MTEXT
  5
F9
102
{ACAD_REACTORS
330
FA
102
}
330
2F
100
AcDbEntity
  8
MODEL
  6
Continuous
 62
     0
100
AcDbMText
 10
-1720.829227282939
 20
495.3187530615046
 30
0.0
 40
24.4326171875
 41
0.0
 46
0.0
 71
     5
 72
     1
  1
\A1;325
  7
ＭＳ ゴシック
 73
     1
 44
1.0
  0
POINT
  5
FA
330
2F
100
AcDbEntity
  8
Defpoints
 62
     0
100
AcDbPoint
 10
-1883.329227282939
 20
578.1024438587824
 30
0.0
  0
POINT
  5
FB
330
2F
100
AcDbEntity
  8
Defpoints
 62
     0
100
AcDbPoint
 10
-1558.329227282939
 20
578.2110437248189
 30
0.0
  0
POINT
  5
FC
330
2F
100
AcDbEntity
  8
Defpoints
 62
     0
100
AcDbPoint
 10
-1558.329227282939
 20
478.1024444677546
 30
0.0
  0
ENDBLK
  5
FF
330
2F
100
AcDbEntity
  8
ABA70-0001
390
1D
100
AcDbBlockEnd
  0
BLOCK
  5
100
330
30
100
AcDbEntity
  8
ABA70-0001
390
1D
100
AcDbBlockBegin
  2
*D15
 70
     1
 10
0.0
 20
0.0
 30
0.0
  3
*D15
  1

  0
LINE
  5
101
330
30
100
AcDbEntity
  8
MODEL
 62
     0
370
    -2
100
AcDbLine
 10
-848.8381041241505
 20
893.102421113575
 30
0.0
 11
-848.8381041241505
 21
478.1024444677546
 31
0.0
  0
LINE
  5
102
330
30
100
AcDbEntity
  8
MODEL
 62
     0
370
    -2
100
AcDbLine
 10
-928.8381041241505
 20
559.1583767153402
 30
0.0
 11
-928.8381041241505
 21
478.1024444677546
 31
0.0
  0
LINE
  5
103
330
30
100
AcDbEntity
  8
MODEL
 62
     0
370
    -2
100
AcDbLine
 10
-854.8381041241505
 20
478.1024444677546
 30
0.0
 11
-922.8381041241505
 21
478.1024444677546
 31
0.0
  0
INSERT
  5
104
102
{ACAD_REACTORS
330
105
102
}
330
30
100
AcDbEntity
  8
MODEL
 62
     0
370
    -2
100
AcDbBlockReference
  2
_DOT
 10
-848.8381041241505
 20
478.1024444677546
 30
0.0
 41
6.0
 42
6.0
 43
6.0
  0
INSERT
  5
105
330
30
100
AcDbEntity
  8
MODEL
 62
     0
370
    -2
100
AcDbBlockReference
  2
_DOT
 10
-928.8381041241505
 20
478.1024444677546
 30
0.0
 41
6.0
 42
6.0
 43
6.0
 50
180.0
  0
MTEXT
  5
106
102
{ACAD_REACTORS
330
107
102
}
330
30
100
AcDbEntity
  8
MODEL
  6
Continuous
 62
     0
100
AcDbMText
 10
-888.8381041241505
 20
495.3187530615046
 30
0.0
 40
24.4326171875
 41
0.0
 46
0.0
 71
     5
 72
     1
  1
\A1;80
  7
ＭＳ ゴシック
 73
     1
 44
1.0
  0
POINT
  5
107
330
30
100
AcDbEntity
  8
Defpoints
 62
     0
100
AcDbPoint
 10
-848.8381041241505
 20
918.102421113575
 30
0.0
  0
POINT
  5
108
330
30
100
AcDbEntity
  8
Defpoints
 62
     0
100
AcDbPoint
 10
-928.8381041241505
 20
584.1583767153402
 30
0.0
  0
POINT
  5
109
330
30
100
AcDbEntity
  8
Defpoints
 62
     0
100
AcDbPoint
 10
-928.8381041241505
 20
478.1024444677546
 30
0.0
  0
ENDBLK
  5
10C
330
30
100
AcDbEntity
  8
ABA70-0001
390
1D
100
AcDbBlockEnd
  0
BLOCK
  5
124
330
33
100
AcDbEntity
  8
ABA70-0001
390
1D
100
AcDbBlockBegin
  2
グループ
 70
     0
 10
0.0
 20
0.0
 30
0.0
  3
グループ
  1

  0
LWPOLYLINE
  5
125
330
33
100
AcDbEntity
  8
0
  6
Continuous
 62
     7
370
    15
390
1D
100
AcDbPolyline
 90
        8
 70
   129
 43
0.0
 10
881.169653007608
 20
-1323.280324576448
 10
881.169653007608
 20
-1329.277713270024
 10
871.6684560896047
 20
-1329.277713270024
 10
871.6684560896047
 20
-1353.728676533533
 10
863.3130788278219
 20
-1353.728676533533
 10
863.3130788278219
 20
-1329.277713270024
 10
853.9801218815124
 20
-1329.277713270024
 10
853.9801218815124
 20
-1323.280324576448
  0
LWPOLYLINE
  5
126
330
33
100
AcDbEntity
  8
0
  6
Continuous
 62
     7
370
    15
390
1D
100
AcDbPolyline
 90
      101
 70
   128
 43
0.0
 10
893.8979448381649
 20
-1324.008573069384
 10
893.9132948669509
 20
-1324.004212312699
 42
-0.0222221607812931
 10
894.2032994436211
 20
-1323.935587847455
 10
894.2190932076078
 20
-1323.932584424359
 42
-0.0146883565592267
 10
894.4817959128388
 20
-1323.890581237408
 42
-0.0127458844184666
 10
894.7464348799923
 20
-1323.863044269336
 10
894.8088899583046
 20
-1323.858150846748
 42
-0.01980990185689
 10
895.1997390677776
 20
-1323.843065689351
 10
895.2515505372253
 20
-1323.843119465016
 42
-0.0147617382762108
 10
895.7461739982049
 20
-1323.858239490261
 10
895.8188654530807
 20
-1323.862612097149
 42
-0.0162624549000684
 10
896.2090190825389
 20
-1323.898844972421
 10
896.3305514737873
 20
-1323.914131531416
 42
-0.0080020874667715
 10
896.4761305048896
 20
-1323.934814378686
 10
896.5144499754815
 20
-1323.940885656496
 42
-0.005382192968109
 10
896.5829340807995
 20
-1323.952493180318
 10
895.8565283816009
 20
-1326.133421636032
 42
0.010866775739817
 10
895.7892113114692
 20
-1326.120234520812
 10
895.7517432882805
 20
-1326.113736778218
 42
0.0170663203306539
 10
895.6085265013705
 20
-1326.093907180927
 10
895.5406511686821
 20
-1326.086860010339
 42
0.0220162375278043
 10
895.2602717608245
 20
-1326.070177649569
 10
895.1824161937744
 20
-1326.068978282302
 42
0.0282606915783708
 10
894.8467798701968
 20
-1326.082781559271
 10
894.8028665964208
 20
-1326.087081549275
 42
0.0169677213689478
 10
894.5569421014654
 20
-1326.119618598827
 42
0.0190576269868722
 10
894.3140341388852
 20
-1326.169765470933
 10
894.3077749507746
 20
-1326.171308445043
 42
0.0213685642845283
 10
894.0573904662946
 20
-1326.244508730148
 10
894.0519005713807
 20
-1326.246371726206
 42
0.0237595297586609
 10
893.7984056864848
 20
-1326.3460562481
 10
893.7933036124523
 20
-1326.34834802358
 42
0.0261857468812785
 10
893.5411328362215
 20
-1326.477884360955
 10
893.5307066471321
 20
-1326.483949835425
 42
0.0272553062021734
 10
893.294276871897
 20
-1326.639322041367
 10
893.2595138583891
 20
-1326.664983189458
 42
0.0325996893175725
 10
893.109358514736
 20
-1326.791731062431
 10
893.0856490856103
 20
-1326.814549090946
 42
0.0138050960644999
 10
892.9937659294027
 20
-1326.907998752496
 42
0.0125280103813456
 10
892.9069233965643
 20
-1327.006162079101
 10
892.8832429516608
 20
-1327.034320577283
 42
0.0205218024732364
 10
892.7581428761488
 20
-1327.19611389151
 10
892.73567653566
 20
-1327.227773621339
 42
0.0163110129583472
 10
892.5799661564104
 20
-1327.463104056406
 10
892.5772422603577
 20
-1327.467527818394
 42
0.0131897341901279
 10
892.4304417394501
 20
-1327.720659910762
 10
892.4287416440853
 20
-1327.723778149894
 42
0.0107895576060733
 10
892.2909649418764
 20
-1327.989993359526
 10
892.2902320523494
 20
-1327.991487592176
 42
0.0091371507215289
 10
892.1617521037011
 20
-1328.266012789933
 10
892.1320064722909
 20
-1328.332719297095
 42
0.0135418326354831
 10
891.9602925332192
 20
-1328.747657082363
 10
891.9266877247852
 20
-1328.835523224644
 42
0.0092834542410131
 10
891.7554586648639
 20
-1329.30942172295
 10
891.7298415371482
 20
-1329.384662792738
 42
0.0054261043576785
 10
891.6222033888534
 20
-1329.712426765808
 10
891.6046774026703
 20
-1329.767814928056
 42
0.0008225090820305
 10
891.5360073508459
 20
-1329.986083686188
 10
890.5513182189125
 20
-1333.010974979444
 10
893.7839420589863
 20
-1333.010974979444
 10
893.2797496291329
 20
-1334.915453277797
 10
890.0236933471496
 20
-1334.915453277797
 10
884.1945443147957
 20
-1353.728676343801
 10
882.3694467044854
 20
-1353.728676343801
 10
888.2041247399864
 20
-1334.915453277797
 10
885.799008370946
 20
-1334.915453277797
 10
886.3032008007995
 20
-1333.010974979444
 10
888.7317496117495
 20
-1333.010974979444
 10
889.5919045299381
 20
-1330.374561978745
 42
-0.0005863560633813
 10
889.6286392081367
 20
-1330.257735558469
 10
889.704727041802
 20
-1330.016743259068
 42
-0.0087522378925471
 10
889.9041951852591
 20
-1329.421467171921
 10
889.9964594606749
 20
-1329.161327003401
 42
-0.0077400953828832
 10
890.2543931198035
 20
-1328.46832232586
 10
890.27015809138
 20
-1328.42789144248
 42
-0.0082369946330535
 10
890.5172425619943
 20
-1327.823812376279
 42
-0.0085725238365598
 10
890.7844886579943
 20
-1327.228386336998
 10
890.8861182590073
 20
-1327.011965235001
 42
-0.0168109410596619
 10
891.1730626877345
 20
-1326.450757708902
 10
891.298906078221
 20
-1326.223793675855
 42
-0.0007817726858293
 10
891.3531904282502
 20
-1326.126249430873
 10
891.353318734261
 20
-1326.126019722149
 42
-0.0036626142156972
 10
891.4082065982888
 20
-1326.029421842169
 42
-0.0080221150683728
 10
891.4653308536914
 20
-1325.934142607422
 10
891.4960308050566
 20
-1325.884751658294
 42
-0.0202139325566736
 10
891.6236865448672
 20
-1325.696770057607
 10
891.677754010051
 20
-1325.623691193371
 42
-0.0249323791802345
 10
891.9369168037664
 20
-1325.307645951221
 10
891.9610566178972
 20
-1325.281031678304
 42
-0.0242132121536776
 10
892.3007373594381
 20
-1324.941148192101
 10
892.3486489321936
 20
-1324.897639055911
 42
-0.0251017527859704
 10
892.6326306328306
 20
-1324.66464631015
 10
892.6340761096463
 20
-1324.663577052569
 42
-0.013086806903873
 10
892.9323367596016
 20
-1324.454796584028
 10
892.9338985787442
 20
-1324.453763143753
 42
-0.0290329526392233
 10
893.2450097201377
 20
-1324.272937642124
 10
893.2748552821263
 20
-1324.257835259283
 42
-0.0160250190046709
 10
893.5407596958883
 20
-1324.133819149071
 42
-0.0267600374780434
 10
893.8160357733562
 20
-1324.033070828523
 10
893.8427716928779
 20
-1324.024878269697
 42
-0.0049981587669942
 10
893.8979448381649
 20
-1324.008573069384
 42
-0.0049981587669942
  0
LWPOLYLINE
  5
127
330
33
100
AcDbEntity
  8
0
  6
Continuous
 62
     7
370
    15
390
1D
100
AcDbPolyline
 90
      118
 70
   128
 43
0.0
 10
913.7123124026118
 20
-1333.084958307272
 10
915.5874343271113
 20
-1333.084958307272
 10
914.7493954215114
 20
-1335.766524833672
 42
-0.001058722920382
 10
914.780851237153
 20
-1335.729620300235
 10
914.8390453277152
 20
-1335.661638044141
 42
-0.0071874740412293
 10
914.9894205458066
 20
-1335.490997352119
 10
915.1311433190756
 20
-1335.334761210798
 42
-0.0148118053509925
 10
915.5812726117877
 20
-1334.867147364786
 10
915.6684949466919
 20
-1334.78175004393
 42
-0.0086273358688711
 10
916.0040437476985
 20
-1334.464374409915
 10
916.0478774639151
 20
-1334.424324765591
 42
-0.0103138323113996
 10
916.3059011661579
 20
-1334.198161628244
 10
916.3516755724837
 20
-1334.159679580985
 42
-0.006020674856387
 10
916.5245236365972
 20
-1334.017884930229
 10
916.5265547674916
 20
-1334.016259224591
 42
-0.0067069027284746
 10
916.6988475821456
 20
-1333.882108590803
 10
916.7013963480724
 20
-1333.880178420927
 42
-0.0076184352039504
 10
916.872301613943
 20
-1333.754803545684
 42
-0.0089652861671889
 10
917.04726257668
 20
-1333.63517028535
 10
917.0836142968232
 20
-1333.611259071868
 42
-0.0156916245933725
 10
917.2795737939825
 20
-1333.490996585394
 42
-0.0023299011060103
 10
917.4798358379492
 20
-1333.377818645861
 10
917.4952199703423
 20
-1333.369218650789
 42
-0.0107669341484195
 10
917.7294567954419
 20
-1333.24481851744
 10
917.7517215965186
 20
-1333.233601767489
 42
-0.007805804589717
 10
918.0353117144706
 20
-1333.096240311851
 10
918.0452188021804
 20
-1333.091631183982
 42
-0.0181829330471043
 10
918.355528206796
 20
-1332.960767442886
 10
918.4095836493626
 20
-1332.940252322943
 42
-0.020841153602777
 10
918.758668616813
 20
-1332.82416186045
 10
918.7730247169383
 20
-1332.820043415497
 42
-0.0222799817136565
 10
919.1017445108578
 20
-1332.741401849356
 10
919.1106334740978
 20
-1332.73968983877
 42
-0.0215509523882616
 10
919.4271044423745
 20
-1332.692774150237
 10
919.4695864034268
 20
-1332.688336623446
 42
-0.0182545924871645
 10
919.7036951827288
 20
-1332.672492798055
 10
919.743096199071
 20
-1332.671268252976
 42
-0.0072962856532422
 10
919.8990190787656
 20
-1332.668698924454
 10
919.9281187493397
 20
-1332.66864408905
 42
-0.0059227516308165
 10
920.0258682484827
 20
-1332.66961780084
 10
920.0551104659701
 20
-1332.670255567444
 42
-0.0011833111918332
 10
920.094361749687
 20
-1332.671204571754
 10
919.2989751540798
 20
-1335.209938516853
 42
0.0143932051544099
 10
919.272573771726
 20
-1335.199739546806
 10
919.2653017993119
 20
-1335.19716832795
 42
0.0234388603523887
 10
919.2234709333783
 20
-1335.184549092234
 10
919.2147892704671
 20
-1335.18236813023
 42
0.0199162742986188
 10
919.1545004363846
 20
-1335.169751394894
 10
919.1336864985809
 20
-1335.166254195466
 42
0.0293643550668272
 10
919.0306116398209
 20
-1335.155104149813
 10
919.0059264591014
 20
-1335.153892532794
 42
0.0214606686870471
 10
918.8527855431468
 20
-1335.152953972377
 10
918.843413632331
 20
-1335.153298883921
 42
0.0167564054191849
 10
918.671893441219
 20
-1335.16537592629
 10
918.6634336484635
 20
-1335.166257266716
 42
0.0137677553247786
 10
918.4760803351977
 20
-1335.19100657526
 10
918.4687285956911
 20
-1335.192184495228
 42
0.0118497261487562
 10
918.2682308315882
 20
-1335.229201845417
 10
918.2620808243425
 20
-1335.230488708137
 42
0.0106421143891799
 10
918.0511999370556
 20
-1335.279321083712
 10
918.0462911286684
 20
-1335.280568426397
 42
0.0099746379701262
 10
917.827832659508
 20
-1335.340742954711
 10
917.7662846193357
 20
-1335.359024833342
 42
0.0191613675864349
 10
917.4303001568172
 20
-1335.47300221363
 10
917.3422403840742
 20
-1335.506689123953
 42
0.0205274080145956
 10
916.956933612174
 20
-1335.67251753178
 10
916.8992843301908
 20
-1335.700185496353
 42
0.018125691219481
 10
916.6410073895249
 20
-1335.83586931533
 10
916.5880520062095
 20
-1335.866186928546
 42
0.0140709242410374
 10
916.4430970715825
 20
-1335.954681601979
 10
916.4168482029752
 20
-1335.971738420687
 42
0.0086667884383526
 10
916.3279220414215
 20
-1336.031741088578
 42
0.003640819202258
 10
916.2404888034002
 20
-1336.093921946361
 10
916.2052619289195
 20
-1336.119362892283
 42
0.0052260781275362
 10
916.0490332315336
 20
-1336.234695278913
 10
916.032826375269
 20
-1336.246923389535
 42
0.0050024435889563
 10
915.8468230322297
 20
-1336.390205957782
 10
915.8315048756949
 20
-1336.402251980243
 42
0.0136138710269109
 10
915.6210636073761
 20
-1336.577218485151
 10
915.587395731576
 20
-1336.60679745787
 42
0.0172815186912965
 10
915.3229921899136
 20
-1336.855794130494
 10
915.320429844071
 20
-1336.858379947641
 42
0.018940385799676
 10
915.0698480454887
 20
-1337.131185212449
 10
915.0372165519573
 20
-1337.169529143941
 42
0.0185044199503083
 10
914.8452601129758
 20
-1337.412777725066
 42
0.0088565243900229
 10
914.6668000063481
 20
-1337.666294145214
 10
914.6576220266988
 20
-1337.679835524975
 42
0.0157195347226663
 10
914.4744014203636
 20
-1337.969357734293
 10
914.4283184784402
 20
-1338.047509931301
 42
0.0095451879781015
 10
914.2632329282962
 20
-1338.340104573669
 10
914.2520850093622
 20
-1338.360775245809
 42
0.0100351706255223
 10
914.1200412602072
 20
-1338.617830806291
 42
0.0086935915415017
 10
913.9977101084199
 20
-1338.879663951681
 10
913.9943893669988
 20
-1338.887106274668
 42
0.007258017486468
 10
913.8740429150539
 20
-1339.16769826625
 10
913.8707812817474
 20
-1339.175618292269
 42
0.0060005122618126
 10
913.7515806134008
 20
-1339.475227962884
 10
913.7483696350632
 20
-1339.483589490778
 42
0.0049017786978926
 10
913.629469476204
 20
-1339.802518471388
 10
913.6263036698153
 20
-1339.811271408613
 42
0.0039415167603427
 10
913.5068673917561
 20
-1340.149813471034
 10
913.5037362891064
 20
-1340.158916671902
 42
0.0031035838761432
 10
913.38293150342
 20
-1340.517356533656
 10
913.379821458883
 20
-1340.526777155051
 42
0.0025070747154839
 10
913.2569201075668
 20
-1340.905424371998
 10
913.2196262111422
 20
-1341.022316037248
 42
0.0029081910284596
 10
913.0276079133364
 20
-1341.636479695523
 10
912.9868047448144
 20
-1341.769702937815
 42
0.0009266453734512
 10
912.7183873704867
 20
-1342.651927397781
 10
912.697499897866
 20
-1342.721039276952
 42
-0.0005809993665352
 10
912.4201632172679
 20
-1343.634847383614
 10
912.3538814190094
 20
-1343.852332315726
 42
-0.0012018708169591
 10
912.2068971095657
 20
-1344.330494980294
 10
912.154577257969
 20
-1344.49925412126
 42
-0.0002691059617996
 10
912.1110077768317
 20
-1344.639521741502
 10
909.2780518785424
 20
-1353.728676343801
 10
907.4600629865639
 20
-1353.728676343801
 10
913.7123124026118
 20
-1333.084958307272
  0
SPLINE
  5
128
330
33
100
AcDbEntity
  8
0
  6
Continuous
 62
     7
370
    15
390
1D
100
AcDbSpline
210
0.0
220
0.0
230
1.0
 70
    15
 71
     2
 72
   782
 73
   779
 74
     0
 42
0.000000001
 43
0.000001
 40
0.0
 40
0.0
 40
0.0
 40
1.0
 40
1.0
 40
2.0
 40
2.0
 40
3.0
 40
3.0
 40
4.0
 40
4.0
 40
5.0
 40
5.0
 40
6.0
 40
6.0
 40
7.0
 40
7.0
 40
8.0
 40
8.0
 40
9.0
 40
9.0
 40
10.0
 40
10.0
 40
11.0
 40
11.0
 40
12.0
 40
12.0
 40
13.0
 40
13.0
 40
14.0
 40
14.0
 40
15.0
 40
15.0
 40
16.0
 40
16.0
 40
17.0
 40
17.0
 40
18.0
 40
18.0
 40
19.0
 40
19.0
 40
20.0
 40
20.0
 40
21.0
 40
21.0
 40
22.0
 40
22.0
 40
23.0
 40
23.0
 40
24.0
 40
24.0
 40
25.0
 40
25.0
 40
26.0
 40
26.0
 40
27.0
 40
27.0
 40
28.0
 40
28.0
 40
29.0
 40
29.0
 40
30.0
 40
30.0
 40
31.0
 40
31.0
 40
32.0
 40
32.0
 40
33.0
 40
33.0
 40
34.0
 40
34.0
 40
35.0
 40
35.0
 40
36.0
 40
36.0
 40
37.0
 40
37.0
 40
38.0
 40
38.0
 40
39.0
 40
39.0
 40
40.0
 40
40.0
 40
41.0
 40
41.0
 40
42.0
 40
42.0
 40
43.0
 40
43.0
 40
44.0
 40
44.0
 40
45.0
 40
45.0
 40
46.0
 40
46.0
 40
47.0
 40
47.0
 40
48.0
 40
48.0
 40
49.0
 40
49.0
 40
50.0
 40
50.0
 40
51.0
 40
51.0
 40
52.0
 40
52.0
 40
53.0
 40
53.0
 40
54.0
 40
54.0
 40
55.0
 40
55.0
 40
56.0
 40
56.0
 40
57.0
 40
57.0
 40
58.0
 40
58.0
 40
59.0
 40
59.0
 40
60.0
 40
60.0
 40
61.0
 40
61.0
 40
62.0
 40
62.0
 40
63.0
 40
63.0
 40
64.0
 40
64.0
 40
65.0
 40
65.0
 40
66.0
 40
66.0
 40
67.0
 40
67.0
 40
68.0
 40
68.0
 40
69.0
 40
69.0
 40
70.0
 40
70.0
 40
71.0
 40
71.0
 40
72.0
 40
72.0
 40
73.0
 40
73.0
 40
74.0
 40
74.0
 40
75.0
 40
75.0
 40
76.0
 40
76.0
 40
77.0
 40
77.0
 40
78.0
 40
78.0
 40
79.0
 40
79.0
 40
80.0
 40
80.0
 40
81.0
 40
81.0
 40
82.0
 40
82.0
 40
83.0
 40
83.0
 40
84.0
 40
84.0
 40
85.0
 40
85.0
 40
86.0
 40
86.0
 40
87.0
 40
87.0
 40
88.0
 40
88.0
 40
89.0
 40
89.0
 40
90.0
 40
90.0
 40
91.0
 40
91.0
 40
92.0
 40
92.0
 40
93.0
 40
93.0
 40
94.0
 40
94.0
 40
95.0
 40
95.0
 40
96.0
 40
96.0
 40
97.0
 40
97.0
 40
98.0
 40
98.0
 40
99.0
 40
99.0
 40
100.0
 40
100.0
 40
101.0
 40
101.0
 40
102.0
 40
102.0
 40
103.0
 40
103.0
 40
104.0
 40
104.0
 40
105.0
 40
105.0
 40
106.0
 40
106.0
 40
107.0
 40
107.0
 40
108.0
 40
108.0
 40
109.0
 40
109.0
 40
110.0
 40
110.0
 40
111.0
 40
111.0
 40
112.0
 40
112.0
 40
113.0
 40
113.0
 40
114.0
 40
114.0
 40
115.0
 40
115.0
 40
116.0
 40
116.0
 40
117.0
 40
117.0
 40
118.0
 40
118.0
 40
119.0
 40
119.0
 40
120.0
 40
120.0
 40
121.0
 40
121.0
 40
122.0
 40
122.0
 40
123.0
 40
123.0
 40
124.0
 40
124.0
 40
125.0
 40
125.0
 40
126.0
 40
126.0
 40
127.0
 40
127.0
 40
128.0
 40
128.0
 40
129.0
 40
129.0
 40
130.0
 40
130.0
 40
131.0
 40
131.0
 40
132.0
 40
132.0
 40
133.0
 40
133.0
 40
134.0
 40
134.0
 40
135.0
 40
135.0
 40
136.0
 40
136.0
 40
137.0
 40
137.0
 40
138.0
 40
138.0
 40
139.0
 40
139.0
 40
140.0
 40
140.0
 40
141.0
 40
141.0
 40
142.0
 40
142.0
 40
143.0
 40
143.0
 40
144.0
 40
144.0
 40
145.0
 40
145.0
 40
146.0
 40
146.0
 40
147.0
 40
147.0
 40
148.0
 40
148.0
 40
149.0
 40
149.0
 40
150.0
 40
150.0
 40
151.0
 40
151.0
 40
152.0
 40
152.0
 40
153.0
 40
153.0
 40
154.0
 40
154.0
 40
155.0
 40
155.0
 40
156.0
 40
156.0
 40
157.0
 40
157.0
 40
158.0
 40
158.0
 40
159.0
 40
159.0
 40
160.0
 40
160.0
 40
161.0
 40
161.0
 40
162.0
 40
162.0
 40
163.0
 40
163.0
 40
164.0
 40
164.0
 40
165.0
 40
165.0
 40
166.0
 40
166.0
 40
167.0
 40
167.0
 40
168.0
 40
168.0
 40
169.0
 40
169.0
 40
170.0
 40
170.0
 40
171.0
 40
171.0
 40
172.0
 40
172.0
 40
173.0
 40
173.0
 40
174.0
 40
174.0
 40
175.0
 40
175.0
 40
176.0
 40
176.0
 40
177.0
 40
177.0
 40
178.0
 40
178.0
 40
179.0
 40
179.0
 40
180.0
 40
180.0
 40
181.0
 40
181.0
 40
182.0
 40
182.0
 40
183.0
 40
183.0
 40
184.0
 40
184.0
 40
185.0
 40
185.0
 40
186.0
 40
186.0
 40
187.0
 40
187.0
 40
188.0
 40
188.0
 40
189.0
 40
189.0
 40
190.0
 40
190.0
 40
191.0
 40
191.0
 40
192.0
 40
192.0
 40
193.0
 40
193.0
 40
194.0
 40
194.0
 40
195.0
 40
195.0
 40
196.0
 40
196.0
 40
197.0
 40
197.0
 40
198.0
 40
198.0
 40
199.0
 40
199.0
 40
200.0
 40
200.0
 40
201.0
 40
201.0
 40
202.0
 40
202.0
 40
203.0
 40
203.0
 40
204.0
 40
204.0
 40
205.0
 40
205.0
 40
206.0
 40
206.0
 40
207.0
 40
207.0
 40
208.0
 40
208.0
 40
209.0
 40
209.0
 40
210.0
 40
210.0
 40
211.0
 40
211.0
 40
212.0
 40
212.0
 40
213.0
 40
213.0
 40
214.0
 40
214.0
 40
215.0
 40
215.0
 40
216.0
 40
216.0
 40
217.0
 40
217.0
 40
218.0
 40
218.0
 40
219.0
 40
219.0
 40
220.0
 40
220.0
 40
221.0
 40
221.0
 40
222.0
 40
222.0
 40
223.0
 40
223.0
 40
224.0
 40
224.0
 40
225.0
 40
225.0
 40
226.0
 40
226.0
 40
227.0
 40
227.0
 40
228.0
 40
228.0
 40
229.0
 40
229.0
 40
230.0
 40
230.0
 40
231.0
 40
231.0
 40
232.0
 40
232.0
 40
233.0
 40
233.0
 40
234.0
 40
234.0
 40
235.0
 40
235.0
 40
236.0
 40
236.0
 40
237.0
 40
237.0
 40
238.0
 40
238.0
 40
239.0
 40
239.0
 40
240.0
 40
240.0
 40
241.0
 40
241.0
 40
242.0
 40
242.0
 40
243.0
 40
243.0
 40
244.0
 40
244.0
 40
245.0
 40
245.0
 40
246.0
 40
246.0
 40
247.0
 40
247.0
 40
248.0
 40
248.0
 40
249.0
 40
249.0
 40
250.0
 40
250.0
 40
251.0
 40
251.0
 40
252.0
 40
252.0
 40
253.0
 40
253.0
 40
254.0
 40
254.0
 40
255.0
 40
255.0
 40
256.0
 40
256.0
 40
257.0
 40
257.0
 40
258.0
 40
258.0
 40
259.0
 40
259.0
 40
260.0
 40
260.0
 40
261.0
 40
261.0
 40
262.0
 40
262.0
 40
263.0
 40
263.0
 40
264.0
 40
264.0
 40
265.0
 40
265.0
 40
266.0
 40
266.0
 40
267.0
 40
267.0
 40
268.0
 40
268.0
 40
269.0
 40
269.0
 40
270.0
 40
270.0
 40
271.0
 40
271.0
 40
272.0
 40
272.0
 40
273.0
 40
273.0
 40
274.0
 40
274.0
 40
275.0
 40
275.0
 40
276.0
 40
276.0
 40
277.0
 40
277.0
 40
278.0
 40
278.0
 40
279.0
 40
279.0
 40
280.0
 40
280.0
 40
281.0
 40
281.0
 40
282.0
 40
282.0
 40
283.0
 40
283.0
 40
284.0
 40
284.0
 40
285.0
 40
285.0
 40
286.0
 40
286.0
 40
287.0
 40
287.0
 40
288.0
 40
288.0
 40
289.0
 40
289.0
 40
290.0
 40
290.0
 40
291.0
 40
291.0
 40
292.0
 40
292.0
 40
293.0
 40
293.0
 40
294.0
 40
294.0
 40
295.0
 40
295.0
 40
296.0
 40
296.0
 40
297.0
 40
297.0
 40
298.0
 40
298.0
 40
299.0
 40
299.0
 40
300.0
 40
300.0
 40
301.0
 40
301.0
 40
302.0
 40
302.0
 40
303.0
 40
303.0
 40
304.0
 40
304.0
 40
305.0
 40
305.0
 40
306.0
 40
306.0
 40
307.0
 40
307.0
 40
308.0
 40
308.0
 40
309.0
 40
309.0
 40
310.0
 40
310.0
 40
311.0
 40
311.0
 40
312.0
 40
312.0
 40
313.0
 40
313.0
 40
314.0
 40
314.0
 40
315.0
 40
315.0
 40
316.0
 40
316.0
 40
317.0
 40
317.0
 40
318.0
 40
318.0
 40
319.0
 40
319.0
 40
320.0
 40
320.0
 40
321.0
 40
321.0
 40
322.0
 40
322.0
 40
323.0
 40
323.0
 40
324.0
 40
324.0
 40
325.0
 40
325.0
 40
326.0
 40
326.0
 40
327.0
 40
327.0
 40
328.0
 40
328.0
 40
329.0
 40
329.0
 40
330.0
 40
330.0
 40
331.0
 40
331.0
 40
332.0
 40
332.0
 40
333.0
 40
333.0
 40
334.0
 40
334.0
 40
335.0
 40
335.0
 40
336.0
 40
336.0
 40
337.0
 40
337.0
 40
338.0
 40
338.0
 40
339.0
 40
339.0
 40
340.0
 40
340.0
 40
341.0
 40
341.0
 40
342.0
 40
342.0
 40
343.0
 40
343.0
 40
344.0
 40
344.0
 40
345.0
 40
345.0
 40
346.0
 40
346.0
 40
347.0
 40
347.0
 40
348.0
 40
348.0
 40
349.0
 40
349.0
 40
350.0
 40
350.0
 40
351.0
 40
351.0
 40
352.0
 40
352.0
 40
353.0
 40
353.0
 40
354.0
 40
354.0
 40
355.0
 40
355.0
 40
356.0
 40
356.0
 40
357.0
 40
357.0
 40
358.0
 40
358.0
 40
359.0
 40
359.0
 40
360.0
 40
360.0
 40
361.0
 40
361.0
 40
362.0
 40
362.0
 40
363.0
 40
363.0
 40
364.0
 40
364.0
 40
365.0
 40
365.0
 40
366.0
 40
366.0
 40
367.0
 40
367.0
 40
368.0
 40
368.0
 40
369.0
 40
369.0
 40
370.0
 40
370.0
 40
371.0
 40
371.0
 40
372.0
 40
372.0
 40
373.0
 40
373.0
 40
374.0
 40
374.0
 40
375.0
 40
375.0
 40
376.0
 40
376.0
 40
377.0
 40
377.0
 40
378.0
 40
378.0
 40
379.0
 40
379.0
 40
380.0
 40
380.0
 40
381.0
 40
381.0
 40
382.0
 40
382.0
 40
383.0
 40
383.0
 40
384.0
 40
384.0
 40
385.0
 40
385.0
 40
386.0
 40
386.0
 40
387.0
 40
387.0
 40
388.0
 40
388.0
 40
389.0
 40
389.0
 40
389.0
 10
924.0410168533444
 20
-1333.074031943909
 30
0.0
 41
1.0
 10
924.8594409620649
 20
-1333.074031943909
 30
0.0
 41
1.0
 10
925.6778650707854
 20
-1333.074031943909
 30
0.0
 41
1.0
 10
925.2641113352686
 20
-1334.416658208159
 30
0.0
 41
1.0
 10
924.8503575997519
 20
-1335.759284472409
 30
0.0
 41
1.0
 10
924.8686970949095
 20
-1335.730583699513
 30
0.0
 41
0.9999957264344712
 10
924.8872040917314
 20
-1335.701990649376
 30
0.0
 41
1.0
 10
924.9176334158783
 20
-1335.654977770985
 30
0.0
 41
1.0
 10
924.9480627400251
 20
-1335.607964892595
 30
0.0
 41
1.0
 10
925.0274283851322
 20
-1335.48534608569
 30
0.0
 41
0.9995394069081438
 10
925.1140867766856
 20
-1335.367768023946
 30
0.0
 41
1.0
 10
925.1498436389444
 20
-1335.319253131354
 30
0.0
 41
1.0
 10
925.1856005012032
 20
-1335.270738238762
 30
0.0
 41
1.0
 10
925.3193271690217
 20
-1335.089297963635
 30
0.0
 41
0.9994460617143249
 10
925.4648276503088
 20
-1334.917155565986
 30
0.0
 41
1.0
 10
925.4692158312826
 20
-1334.911963885605
 30
0.0
 41
1.0
 10
925.4736040122561
 20
-1334.906772205224
 30
0.0
 41
1.0
 10
925.6103281315953
 20
-1334.745013168338
 30
0.0
 41
0.9994359394934509
 10
925.7576023619481
 20
-1334.592796967172
 30
0.0
 41
1.0
 10
925.7599857159021
 20
-1334.590333636798
 30
0.0
 41
1.0
 10
925.7623690698559
 20
-1334.587870306425
 30
0.0
 41
1.0
 10
925.9048765922997
 20
-1334.440580766007
 30
0.0
 41
0.9995293688568286
 10
926.0561482732818
 20
-1334.302307553843
 30
0.0
 41
1.0
 10
926.07544203254
 20
-1334.284671668197
 30
0.0
 41
1.0
 10
926.094735791798
 20
-1334.26703578255
 30
0.0
 41
1.0
 10
926.2074199542593
 20
-1334.164034341683
 30
0.0
 41
0.9997087614802969
 10
926.3249428432189
 20
-1334.066590060881
 30
0.0
 41
1.0
 10
926.3441089164103
 20
-1334.05069848236
 30
0.0
 41
1.0
 10
926.3632749896018
 20
-1334.034806903839
 30
0.0
 41
1.0
 10
926.442465732187
 20
-1333.969145780073
 30
0.0
 41
0.999959533869677
 10
926.5228250030291
 20
-1333.904920049428
 30
0.0
 41
1.0
 10
926.6031842738844
 20
-1333.840694318773
 30
0.0
 41
0.9999749417504022
 10
926.6844448082295
 20
-1333.777612764826
 30
0.0
 41
1.0
 10
926.705430954402
 20
-1333.761321477516
 30
0.0
 41
1.0
 10
926.7264171005745
 20
-1333.745030190207
 30
0.0
 41
1.0
 10
926.8109849858663
 20
-1333.679381180374
 30
0.0
 41
0.9999792037120698
 10
926.8963925856301
 20
-1333.614828398735
 30
0.0
 41
1.0
 10
926.9172174115423
 20
-1333.599088576476
 30
0.0
 41
1.0
 10
926.9380422374545
 20
-1333.583348754218
 30
0.0
 41
1.0
 10
926.9818001854223
 20
-1333.550275617074
 30
0.0
 41
0.9999993374031644
 10
927.0254818715429
 20
-1333.517101821667
 30
0.0
 41
1.0
 10
927.0691635576895
 20
-1333.48392802624
 30
0.0
 41
0.9999160953816962
 10
927.1136899686129
 20
-1333.451896961039
 30
0.0
 41
1.0
 10
927.1465118560288
 20
-1333.428285805457
 30
0.0
 41
1.0
 10
927.1793337434447
 20
-1333.404674649875
 30
0.0
 41
1.0
 10
927.2895039292032
 20
-1333.325421273507
 30
0.0
 41
0.9980964527231783
 10
927.408592922704
 20
-1333.260333800651
 30
0.0
 41
1.0
 10
927.4456255296318
 20
-1333.240093821058
 30
0.0
 41
1.0
 10
927.4826581365595
 20
-1333.219853841465
 30
0.0
 41
1.0
 10
927.6619851498322
 20
-1333.121843590764
 30
0.0
 41
0.9984572810572498
 10
927.8510737161919
 20
-1333.044321329417
 30
0.0
 41
1.0
 10
927.8547199855884
 20
-1333.042826437079
 30
0.0
 41
1.0
 10
927.8583662549848
 20
-1333.041331544741
 30
0.0
 41
1.0
 10
928.0401622825518
 20
-1332.96679906807
 30
0.0
 41
0.9987838528034101
 10
928.22841494111
 20
-1332.910533427905
 30
0.0
 41
1.0
 10
928.2326528903063
 20
-1332.909266774215
 30
0.0
 41
1.0
 10
928.2368908395026
 20
-1332.908000120526
 30
0.0
 41
1.0
 10
928.4166675996669
 20
-1332.854267787739
 30
0.0
 41
0.9990652816207128
 10
928.6004135313851
 20
-1332.816264108197
 30
0.0
 41
1.0
 10
928.6056019324179
 20
-1332.81519100509
 30
0.0
 41
1.0
 10
928.6107903334507
 20
-1332.814117901983
 30
0.0
 41
1.0
 10
928.7841594631025
 20
-1332.778260428655
 30
0.0
 41
0.9992909934270338
 10
928.9597352295593
 20
-1332.755549996188
 30
0.0
 41
1.0
 10
929.135310996019
 20
-1332.732839563722
 30
0.0
 41
0.9994553539448211
 10
929.3120024291135
 20
-1332.721760259515
 30
0.0
 41
1.0
 10
929.3474368369068
 20
-1332.719538371468
 30
0.0
 41
1.0
 10
929.3828712447001
 20
-1332.71731648342
 30
0.0
 41
1.0
 10
929.5490970112705
 20
-1332.706893421008
 30
0.0
 41
0.9990928098293186
 10
929.7156068031741
 20
-1332.710653062243
 30
0.0
 41
1.0
 10
929.7541686384493
 20
-1332.711523753776
 30
0.0
 41
1.0
 10
929.7927304737246
 20
-1332.712394445309
 30
0.0
 41
1.0
 10
929.8821165950802
 20
-1332.714412703478
 30
0.0
 41
0.9998382089204461
 10
929.971372277863
 20
-1332.719644830006
 30
0.0
 41
1.0
 10
929.9718021840815
 20
-1332.719670030908
 30
0.0
 41
1.0
 10
929.9722320903
 20
-1332.71969523181
 30
0.0
 41
1.0
 10
930.0606279606478
 20
-1332.724876956533
 30
0.0
 41
0.9997558016758533
 10
930.14870853785
 20
-1332.7339594719
 30
0.0
 41
1.0
 10
930.1491846762792
 20
-1332.734008569383
 30
0.0
 41
1.0
 10
930.1496608147086
 20
-1332.734057666865
 30
0.0
 41
1.0
 10
930.2367891150503
 20
-1332.743041987266
 30
0.0
 41
0.999656514418139
 10
930.3233269683928
 20
-1332.756579293955
 30
0.0
 41
1.0
 10
930.3237928937704
 20
-1332.756652179687
 30
0.0
 41
1.0
 10
930.3242588191479
 20
-1332.756725065418
 30
0.0
 41
1.0
 10
930.4098648217349
 20
-1332.770116600645
 30
0.0
 41
0.9995321806867472
 10
930.4944919020629
 20
-1332.788717089074
 30
0.0
 41
1.0
 10
930.4948810966334
 20
-1332.788802631539
 30
0.0
 41
1.0
 10
930.4952702912038
 20
-1332.788888174005
 30
0.0
 41
1.0
 10
930.5791189823894
 20
-1332.807317577503
 30
0.0
 41
0.9993819199219044
 10
930.6614655165871
 20
-1332.831592960764
 30
0.0
 41
1.0
 10
930.6617039500852
 20
-1332.831663249873
 30
0.0
 41
1.0
 10
930.6619423835833
 20
-1332.831733538983
 30
0.0
 41
1.0
 10
930.743812050783
 20
-1332.855868344024
 30
0.0
 41
0.9992088568504687
 10
930.8235045697716
 20
-1332.886433579819
 30
0.0
 41
1.0
 10
930.9031855606506
 20
-1332.916993180552
 30
0.0
 41
0.9990226101773113
 10
930.9798562305577
 20
-1332.954470612166
 30
0.0
 41
1.0
 10
931.0565153723556
 20
-1332.99194240872
 30
0.0
 41
0.9988424273972396
 10
931.1292189995672
 20
-1333.036607183972
 30
0.0
 41
1.0
 10
931.1294867079471
 20
-1333.036771648045
 30
0.0
 41
1.0
 10
931.1297544163268
 20
-1333.036936112117
 30
0.0
 41
1.0
 10
931.2029934602972
 20
-1333.081929815514
 30
0.0
 41
0.9986928844490379
 10
931.2712563270064
 20
-1333.134165549794
 30
0.0
 41
1.0
 10
931.2718376192297
 20
-1333.134610363022
 30
0.0
 41
1.0
 10
931.2724189114531
 20
-1333.13505517625
 30
0.0
 41
1.0
 10
931.3418443626078
 20
-1333.188180536985
 30
0.0
 41
0.9986007262277996
 10
931.4052705323749
 20
-1333.248341306679
 30
0.0
 41
1.0
 10
931.4061649478322
 20
-1333.249189674514
 30
0.0
 41
1.0
 10
931.4070593632895
 20
-1333.250038042349
 30
0.0
 41
1.0
 10
931.4722743639711
 20
-1333.311895547713
 30
0.0
 41
0.9985581491381109
 10
931.5304819756723
 20
-1333.380388037985
 30
0.0
 41
1.0
 10
931.5397404292681
 20
-1333.391282395686
 30
0.0
 41
1.0
 10
931.548998882864
 20
-1333.402176753388
 30
0.0
 41
1.0
 10
931.6257234017573
 20
-1333.492457959064
 30
0.0
 41
0.9970460233521251
 10
931.687715302917
 20
-1333.593425043245
 30
0.0
 41
1.0
 10
931.7021846679963
 20
-1333.616991502326
 30
0.0
 41
1.0
 10
931.7166540330757
 20
-1333.640557961407
 30
0.0
 41
1.0
 10
931.7563907330874
 20
-1333.705277685438
 30
0.0
 41
0.9988468816636175
 10
931.7897371038395
 20
-1333.773510137867
 30
0.0
 41
1.0
 10
931.7967731263315
 20
-1333.787907059005
 30
0.0
 41
1.0
 10
931.8038091488235
 20
-1333.802303980144
 30
0.0
 41
1.0
 10
931.8230834745926
 20
-1333.841742590298
 30
0.0
 41
0.9998431189997854
 10
931.8409488020859
 20
-1333.881839144735
 30
0.0
 41
1.0
 10
931.8588141295661
 20
-1333.921935699143
 30
0.0
 41
0.9999989989829229
 10
931.8767928530068
 20
-1333.961981536768
 30
0.0
 41
1.0
 10
931.8829651645991
 20
-1333.975729753577
 30
0.0
 41
1.0
 10
931.8891374761914
 20
-1333.989477970385
 30
0.0
 41
1.0
 10
931.9194608228003
 20
-1334.05702024159
 30
0.0
 41
0.9998790356319553
 10
931.9476687029365
 20
-1334.125472993523
 30
0.0
 41
1.0
 10
931.9545038842227
 20
-1334.142060094955
 30
0.0
 41
1.0
 10
931.9613390655088
 20
-1334.158647196387
 30
0.0
 41
1.0
 10
931.9848967278899
 20
-1334.215815151274
 30
0.0
 41
0.9998227574561194
 10
932.0062854762781
 20
-1334.273829459549
 30
0.0
 41
1.0
 10
932.0276742246666
 20
-1334.331843767824
 30
0.0
 41
0.9996797971041685
 10
932.0461005096255
 20
-1334.390865886941
 30
0.0
 41
1.0
 10
932.0500043123516
 20
-1334.403370345111
 30
0.0
 41
1.0
 10
932.0539081150778
 20
-1334.415874803282
 30
0.0
 41
1.0
 10
932.0801420054878
 20
-1334.499905838737
 30
0.0
 41
0.9979274938733899
 10
932.095366528967
 20
-1334.586610197398
 30
0.0
 41
1.0
 10
932.0975902162284
 20
-1334.59927419822
 30
0.0
 41
1.0
 10
932.0998139034896
 20
-1334.611938199041
 30
0.0
 41
1.0
 10
932.1107438431877
 20
-1334.674184706331
 30
0.0
 41
0.9994985982138548
 10
932.1177120083648
 20
-1334.736998207473
 30
0.0
 41
1.0
 10
932.1246801735416
 20
-1334.799811708614
 30
0.0
 41
0.9996372611202314
 10
932.1282560393095
 20
-1334.862909287297
 30
0.0
 41
1.0
 10
932.1284246167988
 20
-1334.865883904379
 30
0.0
 41
1.0
 10
932.1285931942881
 20
-1334.868858521462
 30
0.0
 41
1.0
 10
932.1325062150344
 20
-1334.937905334311
 30
0.0
 41
0.9997730630738285
 10
932.1334745285227
 20
-1335.007056158348
 30
0.0
 41
1.0
 10
932.1335316349407
 20
-1335.011134337487
 30
0.0
 41
1.0
 10
932.1335887413588
 20
-1335.015212516626
 30
0.0
 41
1.0
 10
932.1346712676828
 20
-1335.092519698948
 30
0.0
 41
0.9998772614071049
 10
932.1333311809512
 20
-1335.169822845517
 30
0.0
 41
1.0
 10
932.1332419177526
 20
-1335.174972009348
 30
0.0
 41
1.0
 10
932.1331526545539
 20
-1335.180121173178
 30
0.0
 41
1.0
 10
932.1316340414248
 20
-1335.267722647408
 30
0.0
 41
0.9999415567328397
 10
932.1282217311791
 20
-1335.355270809079
 30
0.0
 41
1.0
 10
932.1279804105036
 20
-1335.36146226882
 30
0.0
 41
1.0
 10
932.1277390898281
 20
-1335.367653728562
 30
0.0
 41
1.0
 10
932.1238441382314
 20
-1335.467584809714
 30
0.0
 41
0.9999716810426026
 10
932.1184455551127
 20
-1335.567445947943
 30
0.0
 41
1.0
 10
932.1152327563241
 20
-1335.626875197598
 30
0.0
 41
1.0
 10
932.1120199575355
 20
-1335.686304447253
 30
0.0
 41
1.0
 10
932.1039460483827
 20
-1335.835652848534
 30
0.0
 41
0.9999819129893133
 10
932.0940762567661
 20
-1335.984893326247
 30
0.0
 41
1.0
 10
932.0842064651495
 20
-1336.134133803959
 30
0.0
 41
1.0
 10
932.0817671445856
 20
-1336.171326849808
 30
0.0
 41
1.0
 10
932.1044653784148
 20
-1336.132585852481
 30
0.0
 41
0.9999982128087233
 10
932.1273099371768
 20
-1336.093930958512
 30
0.0
 41
1.0
 10
932.1542194970593
 20
-1336.048397744461
 30
0.0
 41
1.0
 10
932.1811290569417
 20
-1336.00286453041
 30
0.0
 41
1.0
 10
932.257792735464
 20
-1335.873143208346
 30
0.0
 41
0.9998609190057957
 10
932.3387400483267
 20
-1335.746050826415
 30
0.0
 41
1.0
 10
932.3683883698081
 20
-1335.699501093458
 30
0.0
 41
1.0
 10
932.3980366912897
 20
-1335.652951360501
 30
0.0
 41
1.0
 10
932.4803089115286
 20
-1335.523778790503
 30
0.0
 41
0.9999067609732311
 10
932.5660779209938
 20
-1335.39690110106
 30
0.0
 41
1.0
 10
932.5684826241967
 20
-1335.393343835003
 30
0.0
 41
1.0
 10
932.5708873273995
 20
-1335.389786568945
 30
0.0
 41
1.0
 10
932.6518469304592
 20
-1335.270023411617
 30
0.0
 41
0.9998784952151001
 10
932.7365005401393
 20
-1335.15284219491
 30
0.0
 41
1.0
 10
932.8211541498205
 20
-1335.035660978202
 30
0.0
 41
0.9998532968283074
 10
932.9097717706427
 20
-1334.921448069732
 30
0.0
 41
1.0
 10
932.9297335596333
 20
-1334.895720748712
 30
0.0
 41
1.0
 10
932.9496953486239
 20
-1334.869993427693
 30
0.0
 41
1.0
 10
933.0681793983833
 20
-1334.717287816723
 30
0.0
 41
0.9991551975794944
 10
933.1988038480079
 20
-1334.574828254639
 30
0.0
 41
1.0
 10
933.2023134639904
 20
-1334.571000653011
 30
0.0
 41
1.0
 10
933.205823079973
 20
-1334.567173051384
 30
0.0
 41
1.0
 10
933.3294282976343
 20
-1334.432368692552
 30
0.0
 41
0.9997418144181058
 10
933.4590304373321
 20
-1334.303319281943
 30
0.0
 41
1.0
 10
933.5886325770334
 20
-1334.17426987133
 30
0.0
 41
0.9989238204633302
 10
933.7296351252846
 20
-1334.057784909291
 30
0.0
 41
1.0
 10
933.7748828034232
 20
-1334.020404917683
 30
0.0
 41
1.0
 10
933.8201304815618
 20
-1333.983024926075
 30
0.0
 41
1.0
 10
933.9603705387829
 20
-1333.867169872784
 30
0.0
 41
0.9990825084096482
 10
934.1100104713881
 20
-1333.76374087495
 30
0.0
 41
1.0
 10
934.1200558354437
 20
-1333.756797661872
 30
0.0
 41
1.0
 10
934.1301011994992
 20
-1333.749854448793
 30
0.0
 41
1.0
 10
934.2596504039906
 20
-1333.660311877118
 30
0.0
 41
0.9998164899825216
 10
934.3925346073684
 20
-1333.575797635601
 30
0.0
 41
1.0
 10
934.4043801678916
 20
-1333.568263869077
 30
0.0
 41
1.0
 10
934.4162257284149
 20
-1333.560730102553
 30
0.0
 41
1.0
 10
934.5254188107422
 20
-1333.491283394086
 30
0.0
 41
0.9997473449131407
 10
934.6376227679941
 20
-1333.426814436269
 30
0.0
 41
1.0
 10
934.7498267252349
 20
-1333.362345478458
 30
0.0
 41
0.9999327861145896
 10
934.8634953359955
 20
-1333.300495486778
 30
0.0
 41
1.0
 10
934.8640473385619
 20
-1333.300195128095
 30
0.0
 41
1.0
 10
934.8645993411284
 20
-1333.299894769413
 30
0.0
 41
1.0
 10
934.9793719570159
 20
-1333.237444060372
 30
0.0
 41
0.9996956420483266
 10
935.0970852828585
 20
-1333.180730593396
 30
0.0
 41
1.0
 10
935.1275256877495
 20
-1333.166064616667
 30
0.0
 41
1.0
 10
935.1579660926404
 20
-1333.151398639938
 30
0.0
 41
1.0
 10
935.2609431993835
 20
-1333.101784981495
 30
0.0
 41
0.9998070570176161
 10
935.3657895883237
 20
-1333.056254394594
 30
0.0
 41
1.0
 10
935.470635977264
 20
-1333.010723807693
 30
0.0
 41
0.9997827436147427
 10
935.5772889138751
 20
-1332.969602636381
 30
0.0
 41
1.0
 10
935.5965117635062
 20
-1332.962191062749
 30
0.0
 41
1.0
 10
935.6157346131372
 20
-1332.954779489117
 30
0.0
 41
1.0
 10
935.7608332490095
 20
-1332.89883517054
 30
0.0
 41
0.9988031841976961
 10
935.9107036116136
 20
-1332.857335106372
 30
0.0
 41
1.0
 10
935.9356208599775
 20
-1332.850435360565
 30
0.0
 41
1.0
 10
935.9605381083414
 20
-1332.843535614758
 30
0.0
 41
1.0
 10
936.1278081339888
 20
-1332.797217472352
 30
0.0
 41
0.9984748040550077
 10
936.2991650426372
 20
-1332.769623240087
 30
0.0
 41
1.0
 10
936.3039041788851
 20
-1332.768860079573
 30
0.0
 41
1.0
 10
936.3086433151329
 20
-1332.76809691906
 30
0.0
 41
1.0
 10
936.4705219512851
 20
-1332.742029007822
 30
0.0
 41
0.9984436495479951
 10
936.634296695011
 20
-1332.734151054003
 30
0.0
 41
1.0
 10
936.6559939031422
 20
-1332.733107366804
 30
0.0
 41
1.0
 10
936.6776911112732
 20
-1332.732063679604
 30
0.0
 41
1.0
 10
936.7980714387354
 20
-1332.726273100184
 30
0.0
 41
0.9987954789335232
 10
936.9184396836455
 20
-1332.732309627927
 30
0.0
 41
1.0
 10
936.9384044761389
 20
-1332.733310872265
 30
0.0
 41
1.0
 10
936.9583692686322
 20
-1332.734312116604
 30
0.0
 41
1.0
 10
937.0388079285542
 20
-1332.738346155669
 30
0.0
 41
0.9997941595876645
 10
937.1190167066497
 20
-1332.74564022159
 30
0.0
 41
1.0
 10
937.1992254847426
 20
-1332.752934287511
 30
0.0
 41
0.9998589466237321
 10
937.2791440315957
 20
-1332.762918141961
 30
0.0
 41
1.0
 10
937.3115502334057
 20
-1332.76696649888
 30
0.0
 41
1.0
 10
937.3439564352157
 20
-1332.7710148558
 30
0.0
 41
1.0
 10
937.4886873856876
 20
-1332.789095424088
 30
0.0
 41
0.9993495063249295
 10
937.6317386294536
 20
-1332.81756113383
 30
0.0
 41
1.0
 10
937.6646723266049
 20
-1332.824114597045
 30
0.0
 41
1.0
 10
937.6976060237563
 20
-1332.830668060259
 30
0.0
 41
1.0
 10
937.8068998469607
 20
-1332.852416394395
 30
0.0
 41
0.9996788715561045
 10
937.9149514189178
 20
-1332.879674193758
 30
0.0
 41
1.0
 10
937.9170144214559
 20
-1332.880194620331
 30
0.0
 41
1.0
 10
937.9190774239939
 20
-1332.880715046903
 30
0.0
 41
1.0
 10
938.0230029908738
 20
-1332.906931993121
 30
0.0
 41
0.9995480654492744
 10
938.1251652261036
 20
-1332.939346949745
 30
0.0
 41
1.0
 10
938.1268548682344
 20
-1332.93988305466
 30
0.0
 41
1.0
 10
938.1285445103651
 20
-1332.940419159574
 30
0.0
 41
1.0
 10
938.2273274613347
 20
-1332.97176190637
 30
0.0
 41
0.9993867959456314
 10
938.3236746197756
 20
-1333.009941275659
 30
0.0
 41
1.0
 10
938.3249175688601
 20
-1333.010433817556
 30
0.0
 41
1.0
 10
938.3261605179446
 20
-1333.010926359452
 30
0.0
 41
1.0
 10
938.420021778217
 20
-1333.048120644949
 30
0.0
 41
0.9992050256521768
 10
938.5106214532515
 20
-1333.092674544188
 30
0.0
 41
1.0
 10
938.5113561359641
 20
-1333.093035836649
 30
0.0
 41
1.0
 10
938.5120908186767
 20
-1333.09339712911
 30
0.0
 41
1.0
 10
938.6012211282844
 20
-1333.137228443426
 30
0.0
 41
0.9990222350741829
 10
938.6861311896785
 20
-1333.188761711125
 30
0.0
 41
1.0
 10
938.6863150749607
 20
-1333.18887331403
 30
0.0
 41
1.0
 10
938.686498960243
 20
-1333.188984916934
 30
0.0
 41
1.0
 10
938.7710412510719
 20
-1333.240294978823
 30
0.0
 41
0.9988642743805236
 10
938.8503157856912
 20
-1333.299419166349
 30
0.0
 41
1.0
 10
938.92959032031
 20
-1333.358543353874
 30
0.0
 41
0.9987681233310929
 10
939.0026141045864
 20
-1333.425234045275
 30
0.0
 41
1.0
 10
939.0029430325521
 20
-1333.425534446489
 30
0.0
 41
1.0
 10
939.0032719605178
 20
-1333.425834847703
 30
0.0
 41
1.0
 10
939.0769536007255
 20
-1333.493126341532
 30
0.0
 41
0.9987496570899143
 10
939.1435474060527
 20
-1333.567439155619
 30
0.0
 41
1.0
 10
939.1443195758133
 20
-1333.568300828977
 30
0.0
 41
1.0
 10
939.1450917455738
 20
-1333.569162502335
 30
0.0
 41
1.0
 10
939.2132298904224
 20
-1333.645198663138
 30
0.0
 41
0.9988147669827355
 10
939.2736521446479
 20
-1333.727499669981
 30
0.0
 41
1.0
 10
939.2747714707251
 20
-1333.729024301333
 30
0.0
 41
1.0
 10
939.2758907968023
 20
-1333.730548932685
 30
0.0
 41
1.0
 10
939.3385517031818
 20
-1333.815899202231
 30
0.0
 41
0.998945263621616
 10
939.3931186161436
 20
-1333.906637891389
 30
0.0
 41
1.0
 10
939.3944673422295
 20
-1333.908880672416
 30
0.0
 41
1.0
 10
939.3958160683154
 20
-1333.911123453442
 30
0.0
 41
1.0
 10
939.4530804334483
 20
-1334.006347704653
 30
0.0
 41
0.9991046436070719
 10
939.502089646769
 20
-1334.106072137676
 30
0.0
 41
1.0
 10
939.5035535083593
 20
-1334.109050817749
 30
0.0
 41
1.0
 10
939.5050173699498
 20
-1334.112029497823
 30
0.0
 41
1.0
 10
939.5569543064515
 20
-1334.217711290994
 30
0.0
 41
0.9992763831100605
 10
939.6007074350067
 20
-1334.32703535295
 30
0.0
 41
1.0
 10
939.60218670467
 20
-1334.330731540483
 30
0.0
 41
1.0
 10
939.6036659743331
 20
-1334.334427728016
 30
0.0
 41
1.0
 10
939.6503776422148
 20
-1334.45114416504
 30
0.0
 41
0.9994163472883129
 10
939.6890106734047
 20
-1334.570777753504
 30
0.0
 41
1.0
 10
939.6902488256517
 20
-1334.574611897287
 30
0.0
 41
1.0
 10
939.6914869778986
 20
-1334.57844604107
 30
0.0
 41
1.0
 10
939.7313705389163
 20
-1334.70195210255
 30
0.0
 41
0.9997268055892037
 10
939.7654385948275
 20
-1334.827187134498
 30
0.0
 41
1.0
 10
939.766368775098
 20
-1334.83060650061
 30
0.0
 41
1.0
 10
939.7672989553686
 20
-1334.834025866723
 30
0.0
 41
1.0
 10
939.7995066507406
 20
-1334.952422166454
 30
0.0
 41
0.9996701319001119
 10
939.82559226751
 20
-1335.072316119712
 30
0.0
 41
1.0
 10
939.85167788428
 20
-1335.192210072973
 30
0.0
 41
0.9995785451109048
 10
939.8707614616194
 20
-1335.313415834002
 30
0.0
 41
1.0
 10
939.8749812437934
 20
-1335.340216988769
 30
0.0
 41
1.0
 10
939.8792010259673
 20
-1335.367018143535
 30
0.0
 41
1.0
 10
939.9057760019064
 20
-1335.535804117239
 30
0.0
 41
0.9979925101215805
 10
939.9108015878326
 20
-1335.706595445332
 30
0.0
 41
1.0
 10
939.9116264002573
 20
-1335.734626168817
 30
0.0
 41
1.0
 10
939.912451212682
 20
-1335.762656892302
 30
0.0
 41
1.0
 10
939.9158271737589
 20
-1335.877386773429
 30
0.0
 41
0.9995314902263278
 10
939.9121769816204
 20
-1335.992108257176
 30
0.0
 41
1.0
 10
939.9085267894818
 20
-1336.106829740929
 30
0.0
 41
0.9996245486944388
 10
939.898597694351
 20
-1336.221179012052
 30
0.0
 41
1.0
 10
939.8984346463567
 20
-1336.223056768187
 30
0.0
 41
1.0
 10
939.8982715983625
 20
-1336.224934524322
 30
0.0
 41
1.0
 10
939.8880164072435
 20
-1336.343039307714
 30
0.0
 41
0.9997286095000416
 10
939.8722710836726
 20
-1336.460538216605
 30
0.0
 41
1.0
 10
939.8718775910218
 20
-1336.46347464131
 30
0.0
 41
1.0
 10
939.8714840983711
 20
-1336.466411066015
 30
0.0
 41
1.0
 10
939.8549517894993
 20
-1336.589782824312
 30
0.0
 41
0.9998265533968311
 10
939.833836330768
 20
-1336.712453299092
 30
0.0
 41
1.0
 10
939.83315978863
 20
-1336.716383677604
 30
0.0
 41
1.0
 10
939.8324832464921
 20
-1336.720314056117
 30
0.0
 41
1.0
 10
939.8100147034859
 20
-1336.850845287916
 30
0.0
 41
0.999902253085364
 10
939.7839052388755
 20
-1336.980697256557
 30
0.0
 41
1.0
 10
939.78292659771
 20
-1336.985564398945
 30
0.0
 41
1.0
 10
939.7819479565444
 20
-1336.990431541333
 30
0.0
 41
1.0
 10
939.7538812096063
 20
-1337.130017794735
 30
0.0
 41
0.9999524761938131
 10
939.723098240772
 20
-1337.269030287898
 30
0.0
 41
1.0
 10
939.721822133595
 20
-1337.274793047207
 30
0.0
 41
1.0
 10
939.720546026418
 20
-1337.280555806516
 30
0.0
 41
1.0
 10
939.687210843234
 20
-1337.431093818278
 30
0.0
 41
0.9999813588720673
 10
939.6520398424394
 20
-1337.581213530928
 30
0.0
 41
1.0
 10
939.6504859169814
 20
-1337.587846121357
 30
0.0
 41
1.0
 10
939.6489319915235
 20
-1337.594478711786
 30
0.0
 41
1.0
 10
939.6106531398103
 20
-1337.757863605304
 30
0.0
 41
0.9999955237638222
 10
939.5713972618258
 20
-1337.921016508927
 30
0.0
 41
1.0
 10
939.5591156261955
 20
-1337.972060699433
 30
0.0
 41
1.0
 10
939.5468339905652
 20
-1338.023104889939
 30
0.0
 41
1.0
 10
939.4830148412982
 20
-1338.288346174664
 30
0.0
 41
0.9999993604735478
 10
939.4185958941273
 20
-1338.553442425361
 30
0.0
 41
1.0
 10
939.4138770585906
 20
-1338.572861333359
 30
0.0
 41
1.0
 10
939.409158223054
 20
-1338.592280241357
 30
0.0
 41
1.0
 10
939.3353016047918
 20
-1338.896214308122
 30
0.0
 41
0.9999659914726906
 10
939.2564420089085
 20
-1339.198888854674
 30
0.0
 41
1.0
 10
939.2514893199777
 20
-1339.217897991857
 30
0.0
 41
1.0
 10
939.2465366310469
 20
-1339.23690712904
 30
0.0
 41
1.0
 10
939.1577716573061
 20
-1339.577599949943
 30
0.0
 41
0.9999441976023179
 10
939.0618286243431
 20
-1339.91634137524
 30
0.0
 41
1.0
 10
939.045128105915
 20
-1339.975305087776
 30
0.0
 41
1.0
 10
939.0284275874869
 20
-1340.034268800313
 30
0.0
 41
1.0
 10
938.8990835176767
 20
-1340.490937650653
 30
0.0
 41
0.9999625120734649
 10
938.7618507503573
 20
-1340.945298184635
 30
0.0
 41
1.0
 10
938.7260608072668
 20
-1341.063794211288
 30
0.0
 41
1.0
 10
938.6902708641763
 20
-1341.182290237939
 30
0.0
 41
1.0
 10
938.6157506601419
 20
-1341.42901731602
 30
0.0
 41
0.9999793386302165
 10
938.5380646370045
 20
-1341.674765955256
 30
0.0
 41
1.0
 10
938.4603786138669
 20
-1341.920514594492
 30
0.0
 41
1.0
 10
938.4495990549962
 20
-1341.954532498866
 30
0.0
 41
1.0
 10
936.599226001727
 20
-1347.841604421334
 30
0.0
 41
1.0
 10
934.7488529484579
 20
-1353.728676343801
 30
0.0
 41
1.0
 10
933.7875962584343
 20
-1353.728676343801
 30
0.0
 41
1.0
 10
932.8263395684107
 20
-1353.728676343801
 30
0.0
 41
1.0
 10
934.4452843470892
 20
-1348.580647842012
 30
0.0
 41
1.0
 10
936.0642291257676
 20
-1343.432619340223
 30
0.0
 41
1.0
 10
936.109394948947
 20
-1343.288588117936
 30
0.0
 41
1.0
 10
936.1545607721265
 20
-1343.14455689565
 30
0.0
 41
1.0
 10
936.3248651894886
 20
-1342.60146586649
 30
0.0
 41
0.9999911657893492
 10
936.4905980011592
 20
-1342.056962335157
 30
0.0
 41
1.0
 10
936.520293944664
 20
-1341.959398395092
 30
0.0
 41
1.0
 10
936.5499898881686
 20
-1341.861834455028
 30
0.0
 41
1.0
 10
936.6563308128493
 20
-1341.51245880376
 30
0.0
 41
0.9999952428218929
 10
936.7605144021643
 20
-1341.162433779443
 30
0.0
 41
1.0
 10
936.7655738724977
 20
-1341.145435505165
 30
0.0
 41
1.0
 10
936.7706333428312
 20
-1341.128437230887
 30
0.0
 41
1.0
 10
936.8646979914961
 20
-1340.812408755071
 30
0.0
 41
0.9999931687547685
 10
936.956423829363
 20
-1340.495693541823
 30
0.0
 41
1.0
 10
936.9613590938234
 20
-1340.478652832549
 30
0.0
 41
1.0
 10
936.9662943582837
 20
-1340.461612123275
 30
0.0
 41
1.0
 10
937.0481496672379
 20
-1340.178978328548
 30
0.0
 41
0.9999893840779521
 10
937.1273968936935
 20
-1339.895602199306
 30
0.0
 41
1.0
 10
937.206644120155
 20
-1339.612226070043
 30
0.0
 41
0.9999833980070197
 10
937.2826203608939
 20
-1339.327955487024
 30
0.0
 41
1.0
 10
937.2916242976148
 20
-1339.294266608551
 30
0.0
 41
1.0
 10
937.3006282343356
 20
-1339.260577730078
 30
0.0
 41
1.0
 10
937.3695927832027
 20
-1339.002541897778
 30
0.0
 41
0.9999233658069748
 10
937.4321477544238
 20
-1338.742877739053
 30
0.0
 41
1.0
 10
937.4947027256441
 20
-1338.483213580331
 30
0.0
 41
1.0
 10
937.5341861445016
 20
-1338.319406915905
 30
0.0
 41
1.0
 10
937.5391647484794
 20
-1338.298751954032
 30
0.0
 41
1.0
 10
937.5441433524572
 20
-1338.278096992159
 30
0.0
 41
1.0
 10
937.5736695633603
 20
-1338.155600251473
 30
0.0
 41
0.9999868670859262
 10
937.6019386473554
 20
-1338.032807305833
 30
0.0
 41
1.0
 10
937.6058361345099
 20
-1338.01587771843
 30
0.0
 41
1.0
 10
937.6097336216644
 20
-1337.998948131027
 30
0.0
 41
1.0
 10
937.6302077313478
 20
-1337.910014360205
 30
0.0
 41
0.9999778173361416
 10
937.6494953294671
 20
-1337.820815742957
 30
0.0
 41
1.0
 10
937.668782927581
 20
-1337.731617125733
 30
0.0
 41
0.9999602692860231
 10
937.6864772862116
 20
-1337.642088837309
 30
0.0
 41
1.0
 10
937.6896811182901
 20
-1337.625878382419
 30
0.0
 41
1.0
 10
937.6928849503685
 20
-1337.609667927529
 30
0.0
 41
1.0
 10
937.7169869731549
 20
-1337.487718729329
 30
0.0
 41
0.9995617985320115
 10
937.7338303203742
 20
-1337.364556981619
 30
0.0
 41
1.0
 10
937.7362948102799
 20
-1337.346536164257
 30
0.0
 41
1.0
 10
937.7387593001856
 20
-1337.328515346895
 30
0.0
 41
1.0
 10
937.7590425612339
 20
-1337.180200297195
 30
0.0
 41
0.9991121410639426
 10
937.7667679148223
 20
-1337.030704198387
 30
0.0
 41
1.0
 10
937.7676867048467
 20
-1337.012924361811
 30
0.0
 41
1.0
 10
937.7686054948713
 20
-1336.995144525236
 30
0.0
 41
1.0
 10
937.7744932684103
 20
-1336.881208099583
 30
0.0
 41
0.9989792494906204
 10
937.7700741762932
 20
-1336.767205263682
 30
0.0
 41
1.0
 10
937.7694262044245
 20
-1336.750489017755
 30
0.0
 41
1.0
 10
937.7687782325559
 20
-1336.733772771828
 30
0.0
 41
1.0
 10
937.7656550841758
 20
-1336.653202427787
 30
0.0
 41
0.9997820295394051
 10
937.7591710868002
 20
-1336.57283270604
 30
0.0
 41
1.0
 10
937.7526870894242
 20
-1336.492462984291
 30
0.0
 41
0.9998335105972991
 10
937.7432748939125
 20
-1336.412383367843
 30
0.0
 41
1.0
 10
937.7416799692363
 20
-1336.398813637361
 30
0.0
 41
1.0
 10
937.7400850445601
 20
-1336.38524390688
 30
0.0
 41
1.0
 10
937.7274829996957
 20
-1336.278024829463
 30
0.0
 41
0.9996876457879432
 10
937.7095390868966
 20
-1336.171569401743
 30
0.0
 41
1.0
 10
937.7073074237517
 20
-1336.158329666503
 30
0.0
 41
1.0
 10
937.7050757606066
 20
-1336.145089931263
 30
0.0
 41
1.0
 10
937.691279939186
 20
-1336.063243787307
 30
0.0
 41
0.9995547496495037
 10
937.6726266172931
 20
-1335.982366290114
 30
0.0
 41
1.0
 10
937.6722526604217
 20
-1335.980744879409
 30
0.0
 41
1.0
 10
937.6718787035503
 20
-1335.979123468703
 30
0.0
 41
1.0
 10
937.6539732954006
 20
-1335.901488792925
 30
0.0
 41
0.9994899427176205
 10
937.6311483867212
 20
-1335.825155510089
 30
0.0
 41
1.0
 10
937.6306898599801
 20
-1335.823622060299
 30
0.0
 41
1.0
 10
937.630231333239
 20
-1335.822088610509
 30
0.0
 41
1.0
 10
937.6083234780418
 20
-1335.748822227255
 30
0.0
 41
0.9993784877591416
 10
937.5813078429352
 20
-1335.677281522095
 30
0.0
 41
1.0
 10
937.5807761519583
 20
-1335.675873539375
 30
0.0
 41
1.0
 10
937.5802444609814
 20
-1335.674465556654
 30
0.0
 41
1.0
 10
937.5542922078289
 20
-1335.605740816937
 30
0.0
 41
0.9992430832254923
 10
937.5230756726692
 20
-1335.539241664868
 30
0.0
 41
1.0
 10
937.5224935566125
 20
-1335.538001609751
 30
0.0
 41
1.0
 10
937.521911440556
 20
-1335.536761554633
 30
0.0
 41
1.0
 10
937.4918591375097
 20
-1335.472742512799
 30
0.0
 41
0.9990789632799238
 10
937.4564285107332
 20
-1335.41153590105
 30
0.0
 41
1.0
 10
937.4558328045514
 20
-1335.410506815191
 30
0.0
 41
1.0
 10
937.4552370983696
 20
-1335.409477729332
 30
0.0
 41
1.0
 10
937.4209978839569
 20
-1335.350329289301
 30
0.0
 41
0.9988874801121737
 10
937.3813386079244
 20
-1335.294669576882
 30
0.0
 41
1.0
 10
937.38078308186
 20
-1335.293889925208
 30
0.0
 41
1.0
 10
937.3802275557956
 20
-1335.293110273533
 30
0.0
 41
1.0
 10
937.3416793318918
 20
-1335.239009864464
 30
0.0
 41
0.998676206069247
 10
937.2977768606163
 20
-1335.189156150026
 30
0.0
 41
1.0
 10
937.2973329002843
 20
-1335.188652008209
 30
0.0
 41
1.0
 10
937.2968889399524
 20
-1335.188147866393
 30
0.0
 41
1.0
 10
937.2538743893402
 20
-1335.139302435586
 30
0.0
 41
0.9984621642488358
 10
937.2057168325623
 20
-1335.095519135115
 30
0.0
 41
1.0
 10
937.2054701980452
 20
-1335.095294902951
 30
0.0
 41
1.0
 10
937.2052235635281
 20
-1335.095070670787
 30
0.0
 41
1.0
 10
937.1575592757839
 20
-1335.051735834644
 30
0.0
 41
0.9982724693852615
 10
937.1051406439431
 20
-1335.014291484126
 30
0.0
 41
1.0
 10
937.0527220121011
 20
-1334.976847133608
 30
0.0
 41
0.9981399180159733
 10
936.9961359487074
 20
-1334.946060614165
 30
0.0
 41
1.0
 10
936.9960902866294
 20
-1334.946035771008
 30
0.0
 41
1.0
 10
936.9960446245514
 20
-1334.946010927851
 30
0.0
 41
1.0
 10
936.939367237001
 20
-1334.915174722093
 30
0.0
 41
0.9980927086837402
 10
936.8793218859333
 20
-1334.89155791324
 30
0.0
 41
1.0
 10
936.8788817162224
 20
-1334.891384787365
 30
0.0
 41
1.0
 10
936.8784415465113
 20
-1334.891211661491
 30
0.0
 41
1.0
 10
936.817515856021
 20
-1334.867248600888
 30
0.0
 41
0.9981411356562032
 10
936.7541273346209
 20
-1334.850875959382
 30
0.0
 41
1.0
 10
936.75324521792
 20
-1334.850648117177
 30
0.0
 41
1.0
 10
936.7523631012193
 20
-1334.850420274972
 30
0.0
 41
1.0
 10
936.6872103464176
 20
-1334.833591949055
 30
0.0
 41
0.998303181293547
 10
936.6205429174237
 20
-1334.824452587879
 30
0.0
 41
1.0
 10
936.6116718920186
 20
-1334.823236469208
 30
0.0
 41
1.0
 10
936.6028008666136
 20
-1334.822020350536
 30
0.0
 41
1.0
 10
936.5484512241098
 20
-1334.814569620545
 30
0.0
 41
0.99838877082623
 10
936.4936073748174
 20
-1334.813324946912
 30
0.0
 41
1.0
 10
936.4855439695928
 20
-1334.813141949037
 30
0.0
 41
1.0
 10
936.4774805643681
 20
-1334.812958951162
 30
0.0
 41
1.0
 10
936.4387635255175
 20
-1334.812080273278
 30
0.0
 41
0.9998869563080008
 10
936.4000375723219
 20
-1334.812366142638
 30
0.0
 41
1.0
 10
936.3613116191518
 20
-1334.812652011998
 30
0.0
 41
0.9999972320111389
 10
936.3225874399739
 20
-1334.813120111526
 30
0.0
 41
1.0
 10
936.3032344233611
 20
-1334.813354051616
 30
0.0
 41
1.0
 10
936.2838814067485
 20
-1334.813587991706
 30
0.0
 41
1.0
 10
936.2064511943746
 20
-1334.814523971414
 30
0.0
 41
0.9997304945087666
 10
936.1291478881338
 20
-1334.8190530652
 30
0.0
 41
1.0
 10
936.1200982464327
 20
-1334.819583271189
 30
0.0
 41
1.0
 10
936.1110486047316
 20
-1334.820113477179
 30
0.0
 41
1.0
 10
936.0156460150821
 20
-1334.825702982946
 30
0.0
 41
0.9997888306415568
 10
935.9205536792368
 20
-1334.835207947435
 30
0.0
 41
1.0
 10
935.9118326176672
 20
-1334.836079662067
 30
0.0
 41
1.0
 10
935.9031115560974
 20
-1334.836951376699
 30
0.0
 41
1.0
 10
935.7905770971072
 20
-1334.848199770452
 30
0.0
 41
0.9984170238190173
 10
935.6800179497537
 20
-1334.872015852389
 30
0.0
 41
1.0
 10
935.6436368187698
 20
-1334.879852888194
 30
0.0
 41
1.0
 10
935.6072556877858
 20
-1334.887689924
 30
0.0
 41
1.0
 10
935.492064619364
 20
-1334.91250379051
 30
0.0
 41
0.9976592854198559
 10
935.3813364529586
 20
-1334.952802467657
 30
0.0
 41
1.0
 10
935.270608286553
 20
-1334.993101144804
 30
0.0
 41
0.999325507435174
 10
935.1631364877635
 20
-1335.041418043296
 30
0.0
 41
1.0
 10
935.1585113088399
 20
-1335.043497419496
 30
0.0
 41
1.0
 10
935.1538861299163
 20
-1335.045576795696
 30
0.0
 41
1.0
 10
935.0371639732781
 20
-1335.098052446588
 30
0.0
 41
0.9976475078275108
 10
934.9287166289664
 20
-1335.166000436247
 30
0.0
 41
1.0
 10
934.9103742348321
 20
-1335.177492915062
 30
0.0
 41
1.0
 10
934.8920318406979
 20
-1335.188985393876
 30
0.0
 41
1.0
 10
934.8078296491472
 20
-1335.241742514643
 30
0.0
 41
0.9995131336407016
 10
934.7270819341893
 20
-1335.299648726597
 30
0.0
 41
1.0
 10
934.6463342192299
 20
-1335.357554938551
 30
0.0
 41
0.9995810107606312
 10
934.569072571499
 20
-1335.420036621019
 30
0.0
 41
1.0
 10
934.566102540291
 20
-1335.422438492482
 30
0.0
 41
1.0
 10
934.563132509083
 20
-1335.424840363945
 30
0.0
 41
1.0
 10
934.4799307989299
 20
-1335.492125789343
 30
0.0
 41
0.9996617837954163
 10
934.4003401117923
 20
-1335.563646244906
 30
0.0
 41
1.0
 10
934.3882093609175
 20
-1335.574546977894
 30
0.0
 41
1.0
 10
934.3760786100428
 20
-1335.585447710883
 30
0.0
 41
1.0
 10
934.3078030826471
 20
-1335.646800326355
 30
0.0
 41
0.9997267750052974
 10
934.2424695743634
 20
-1335.71127686288
 30
0.0
 41
1.0
 10
934.1771360660745
 20
-1335.77575339941
 30
0.0
 41
0.9999667288954495
 10
934.1128631229293
 20
-1335.841287206303
 30
0.0
 41
1.0
 10
934.044035675156
 20
-1335.91146486506
 30
0.0
 41
1.0
 10
933.9752082273828
 20
-1335.981642523816
 30
0.0
 41
1.0
 10
933.7732803886844
 20
-1336.187531648229
 30
0.0
 41
0.9988205335175206
 10
933.5922747717034
 20
-1336.412035880291
 30
0.0
 41
1.0
 10
933.5616348068003
 20
-1336.450039130719
 30
0.0
 41
1.0
 10
933.5309948418972
 20
-1336.488042381147
 30
0.0
 41
1.0
 10
933.2887092951063
 20
-1336.78855311407
 30
0.0
 41
0.9997077826755313
 10
933.0612313439997
 20
-1337.100422908289
 30
0.0
 41
1.0
 10
933.059507928871
 20
-1337.102785691666
 30
0.0
 41
1.0
 10
933.0577845137421
 20
-1337.105148475043
 30
0.0
 41
1.0
 10
932.8268597323776
 20
-1337.421743836017
 30
0.0
 41
0.9989147567079137
 10
932.6263962294948
 20
-1337.7584532972
 30
0.0
 41
1.0
 10
932.6016550841858
 20
-1337.800009877755
 30
0.0
 41
1.0
 10
932.5769139388768
 20
-1337.841566458311
 30
0.0
 41
1.0
 10
932.42170264024
 20
-1338.102267842763
 30
0.0
 41
0.9997476598181327
 10
932.2783576527316
 20
-1338.369677591344
 30
0.0
 41
1.0
 10
932.1350126652219
 20
-1338.637087339926
 30
0.0
 41
0.9996258967110137
 10
932.0065044132901
 20
-1338.911935276551
 30
0.0
 41
1.0
 10
931.9933045038401
 20
-1338.940166676647
 30
0.0
 41
1.0
 10
931.98010459439
 20
-1338.968398076743
 30
0.0
 41
1.0
 10
931.8398958733922
 20
-1339.268270474692
 30
0.0
 41
0.9998735413946833
 10
931.7092945266705
 20
-1339.572450074163
 30
0.0
 41
1.0
 10
931.7058516986137
 20
-1339.580468659618
 30
0.0
 41
1.0
 10
931.7024088705571
 20
-1339.588487245074
 30
0.0
 41
1.0
 10
931.5786931799544
 20
-1339.876629673621
 30
0.0
 41
0.9999377418861504
 10
931.4614383777755
 20
-1340.167461141305
 30
0.0
 41
1.0
 10
931.3441835755997
 20
-1340.458292608983
 30
0.0
 41
0.9999508299507408
 10
931.2327196322228
 20
-1340.751392285803
 30
0.0
 41
1.0
 10
931.2296388635604
 20
-1340.759493311767
 30
0.0
 41
1.0
 10
931.2265580948979
 20
-1340.76759433773
 30
0.0
 41
1.0
 10
931.108932614196
 20
-1341.076896066479
 30
0.0
 41
0.999960922843288
 10
930.9967940113213
 20
-1341.388229082496
 30
0.0
 41
1.0
 10
930.9938380009719
 20
-1341.396435922905
 30
0.0
 41
1.0
 10
930.9908819906224
 20
-1341.404642763314
 30
0.0
 41
1.0
 10
930.8728313670492
 20
-1341.732389460148
 30
0.0
 41
0.9999674607398871
 10
930.76008384098
 20
-1342.061998080146
 30
0.0
 41
1.0
 10
930.7086854504175
 20
-1342.212257275838
 30
0.0
 41
1.0
 10
930.6572870598551
 20
-1342.36251647153
 30
0.0
 41
1.0
 10
930.541276453099
 20
-1342.701664454027
 30
0.0
 41
0.9999287532310462
 10
930.4333950491273
 20
-1343.043485193006
 30
0.0
 41
1.0
 10
930.3869177930073
 20
-1343.190747737316
 30
0.0
 41
1.0
 10
930.3404405368875
 20
-1343.338010281626
 30
0.0
 41
1.0
 10
930.3255136451719
 20
-1343.385305931934
 30
0.0
 41
0.9999998223138904
 10
930.3106431364262
 20
-1343.432619340223
 30
0.0
 41
1.0
 10
928.6899869996307
 20
-1348.580647842012
 30
0.0
 41
1.0
 10
927.0693308628353
 20
-1353.728676343801
 30
0.0
 41
1.0
 10
926.1640224189443
 20
-1353.728676343801
 30
0.0
 41
1.0
 10
925.2587139750534
 20
-1353.728676343801
 30
0.0
 41
1.0
 10
927.1107983864395
 20
-1347.841604421334
 30
0.0
 41
1.0
 10
928.9628827978255
 20
-1341.954532498866
 30
0.0
 41
1.0
 10
928.9730045561282
 20
-1341.922489285417
 30
0.0
 41
1.0
 10
929.045612224978
 20
-1341.692189743591
 30
0.0
 41
1.0
 10
929.1182198938201
 20
-1341.461890201789
 30
0.0
 41
0.9999825681967902
 10
929.1881029330243
 20
-1341.230749306749
 30
0.0
 41
1.0
 10
929.2363939951914
 20
-1341.071024723232
 30
0.0
 41
1.0
 10
929.2846850573585
 20
-1340.911300139716
 30
0.0
 41
1.0
 10
929.3818374106738
 20
-1340.589964917946
 30
0.0
 41
0.999967252895563
 10
929.4737762163
 20
-1340.26709937235
 30
0.0
 41
1.0
 10
929.4765650999659
 20
-1340.257305526974
 30
0.0
 41
1.0
 10
929.4793539836317
 20
-1340.247511681598
 30
0.0
 41
1.0
 10
929.5657150219165
 20
-1339.944233826788
 30
0.0
 41
0.999989974913189
 10
929.6493566314581
 20
-1339.640194738311
 30
0.0
 41
1.0
 10
929.6594625504775
 20
-1339.603459500626
 30
0.0
 41
1.0
 10
929.669568469497
 20
-1339.56672426294
 30
0.0
 41
1.0
 10
929.7329982409954
 20
-1339.33615564985
 30
0.0
 41
0.9999214200504934
 10
929.7906276693705
 20
-1339.10406930765
 30
0.0
 41
1.0
 10
929.8033935215528
 20
-1339.052658422246
 30
0.0
 41
1.0
 10
929.8161593737352
 20
-1339.001247536843
 30
0.0
 41
1.0
 10
929.8482570977499
 20
-1338.871982965434
 30
0.0
 41
0.9999828681655718
 10
929.8788393497437
 20
-1338.742351490973
 30
0.0
 41
1.0
 10
929.9094216017379
 20
-1338.61272001651
 30
0.0
 41
0.9999389844475011
 10
929.9371325905263
 20
-1338.482444560615
 30
0.0
 41
1.0
 10
929.9442703342474
 20
-1338.448888456772
 30
0.0
 41
1.0
 10
929.9514080779687
 20
-1338.41533235293
 30
0.0
 41
1.0
 10
929.9933945541969
 20
-1338.217944689362
 30
0.0
 41
0.999893369944064
 10
930.0295988185994
 20
-1338.019415081603
 30
0.0
 41
1.0
 10
930.0309716438164
 20
-1338.011887060904
 30
0.0
 41
1.0
 10
930.0323444690333
 20
-1338.004359040204
 30
0.0
 41
1.0
 10
930.0712943838693
 20
-1337.790773391047
 30
0.0
 41
0.9996850305193341
 10
930.0994780601279
 20
-1337.575502385609
 30
0.0
 41
1.0
 10
930.1014730934968
 20
-1337.56026403149
 30
0.0
 41
1.0
 10
930.1034681268657
 20
-1337.545025677372
 30
0.0
 41
1.0
 10
930.1308759893246
 20
-1337.335680450216
 30
0.0
 41
0.9994697936706931
 10
930.1446005485443
 20
-1337.124995254886
 30
0.0
 41
1.0
 10
930.1450776177941
 20
-1337.117671782673
 30
0.0
 41
1.0
 10
930.1455546870438
 20
-1337.110348310461
 30
0.0
 41
1.0
 10
930.158325107764
 20
-1336.914310059554
 30
0.0
 41
0.9991804893136988
 10
930.1551967914911
 20
-1336.717881209582
 30
0.0
 41
1.0
 10
930.155112912669
 20
-1336.712614408169
 30
0.0
 41
1.0
 10
930.1550290338469
 20
-1336.707347606757
 30
0.0
 41
1.0
 10
930.1520684752181
 20
-1336.52145235961
 30
0.0
 41
0.9988448329322128
 10
930.1312769295945
 20
-1336.336699769775
 30
0.0
 41
1.0
 10
930.1296828558915
 20
-1336.322534914004
 30
0.0
 41
1.0
 10
930.1280887821885
 20
-1336.308370058233
 30
0.0
 41
1.0
 10
930.1104853839709
 20
-1336.151947179943
 30
0.0
 41
0.9985503209458646
 10
930.0761691116711
 20
-1335.998322995853
 30
0.0
 41
1.0
 10
930.0685831196001
 20
-1335.964362668454
 30
0.0
 41
1.0
 10
930.0609971275293
 20
-1335.930402341055
 30
0.0
 41
1.0
 10
930.0418528393717
 20
-1335.844698811763
 30
0.0
 41
0.9991036781369912
 10
930.0155279777205
 20
-1335.760921724438
 30
0.0
 41
1.0
 10
930.0115457522647
 20
-1335.748248561928
 30
0.0
 41
1.0
 10
930.007563526809
 20
-1335.735575399419
 30
0.0
 41
1.0
 10
929.9892031160695
 20
-1335.677144637114
 30
0.0
 41
0.9998874504368817
 10
929.9690979083907
 20
-1335.61929103489
 30
0.0
 41
1.0
 10
929.9489927007131
 20
-1335.561437432669
 30
0.0
 41
0.99940416375444
 10
929.9249440877787
 20
-1335.505108728778
 30
0.0
 41
1.0
 10
929.9207473035544
 20
-1335.495278664296
 30
0.0
 41
1.0
 10
929.9165505193301
 20
-1335.485448599813
 30
0.0
 41
1.0
 10
929.888671688336
 20
-1335.420148433847
 30
0.0
 41
0.9991846840701959
 10
929.8556153316424
 20
-1335.357310402566
 30
0.0
 41
1.0
 10
929.854478725247
 20
-1335.35514978611
 30
0.0
 41
1.0
 10
929.8533421188516
 20
-1335.352989169655
 30
0.0
 41
1.0
 10
929.8225589749495
 20
-1335.294472371286
 30
0.0
 41
0.9989253167922991
 10
929.7864895508944
 20
-1335.239057442895
 30
0.0
 41
1.0
 10
929.7854354262201
 20
-1335.237437948133
 30
0.0
 41
1.0
 10
929.784381301546
 20
-1335.23581845337
 30
0.0
 41
1.0
 10
929.7504201268389
 20
-1335.183642514504
 30
0.0
 41
0.9986467172836442
 10
929.711222974202
 20
-1335.135276480875
 30
0.0
 41
1.0
 10
929.7103488455017
 20
-1335.134197878598
 30
0.0
 41
1.0
 10
929.7094747168014
 20
-1335.13311927632
 30
0.0
 41
1.0
 10
929.6720258215645
 20
-1335.086910447246
 30
0.0
 41
0.9984001104267881
 10
929.6295990910475
 20
-1335.045225339877
 30
0.0
 41
1.0
 10
929.6290119529378
 20
-1335.044648464996
 30
0.0
 41
1.0
 10
929.6284248148281
 20
-1335.044071590114
 30
0.0
 41
1.0
 10
929.5871723605298
 20
-1335.003540232508
 30
0.0
 41
0.9982442159082041
 10
929.5414162591946
 20
-1334.968171671248
 30
0.0
 41
1.0
 10
929.5412014637332
 20
-1334.968005638605
 30
0.0
 41
1.0
 10
929.5409866682717
 20
-1334.967839605962
 30
0.0
 41
1.0
 10
929.4956601578598
 20
-1334.932803109988
 30
0.0
 41
0.9982450060836061
 10
929.4465091787873
 20
-1334.903371326954
 30
0.0
 41
1.0
 10
929.3973581997166
 20
-1334.873939543921
 30
0.0
 41
0.9983922639636027
 10
929.345191893552
 20
-1334.850259909267
 30
0.0
 41
1.0
 10
929.344965016227
 20
-1334.850156923786
 30
0.0
 41
1.0
 10
929.3447381389018
 20
-1334.850053938304
 30
0.0
 41
1.0
 10
929.2921180780869
 20
-1334.826168332686
 30
0.0
 41
0.9986517147149357
 10
929.2373051052176
 20
-1334.807867213564
 30
0.0
 41
1.0
 10
929.2366271837909
 20
-1334.807640867133
 30
0.0
 41
1.0
 10
929.2359492623643
 20
-1334.807414520702
 30
0.0
 41
1.0
 10
929.1797804466398
 20
-1334.788660708717
 30
0.0
 41
0.9989435598955623
 10
929.1221270594876
 20
-1334.775143006483
 30
0.0
 41
1.0
 10
929.1210469399068
 20
-1334.77488975623
 30
0.0
 41
1.0
 10
929.119966820326
 20
-1334.774636505977
 30
0.0
 41
1.0
 10
929.060153194011
 20
-1334.760612303236
 30
0.0
 41
0.9992249241240143
 10
928.9994216851138
 20
-1334.751336960521
 30
0.0
 41
1.0
 10
928.9980079968227
 20
-1334.751121052113
 30
0.0
 41
1.0
 10
928.9965943085317
 20
-1334.750905143705
 30
0.0
 41
1.0
 10
928.9330354230542
 20
-1334.741197984175
 30
0.0
 41
0.9994396597834696
 10
928.8689694865199
 20
-1334.735765061829
 30
0.0
 41
1.0
 10
928.8498288190398
 20
-1334.734141894111
 30
0.0
 41
1.0
 10
928.8306881515597
 20
-1334.732518726392
 30
0.0
 41
1.0
 10
928.728340880068
 20
-1334.723839468609
 30
0.0
 41
0.9987693403121813
 10
928.6256372564817
 20
-1334.725342532061
 30
0.0
 41
1.0
 10
928.6153829222554
 20
-1334.725492603835
 30
0.0
 41
1.0
 10
928.6051285880292
 20
-1334.72564267561
 30
0.0
 41
1.0
 10
928.4955728218487
 20
-1334.727246019897
 30
0.0
 41
0.9989753644966489
 10
928.3866108218302
 20
-1334.738749026822
 30
0.0
 41
1.0
 10
928.2776488218154
 20
-1334.750252033747
 30
0.0
 41
0.9983190067306154
 10
928.1707500108521
 20
-1334.774287025534
 30
0.0
 41
1.0
 10
928.1618490592437
 20
-1334.776288304097
 30
0.0
 41
1.0
 10
928.1529481076353
 20
-1334.77828958266
 30
0.0
 41
1.0
 10
928.0282473934561
 20
-1334.806327131572
 30
0.0
 41
0.9985539388302845
 10
927.9072776397782
 20
-1334.847590807618
 30
0.0
 41
1.0
 10
927.9049322088182
 20
-1334.848390851434
 30
0.0
 41
1.0
 10
927.9025867778582
 20
-1334.849190895249
 30
0.0
 41
1.0
 10
927.7769261622602
 20
-1334.892054658926
 30
0.0
 41
0.998846874649347
 10
927.6559558199606
 20
-1334.946772743988
 30
0.0
 41
1.0
 10
927.6527729979714
 20
-1334.948212418548
 30
0.0
 41
1.0
 10
927.6495901759821
 20
-1334.949652093109
 30
0.0
 41
1.0
 10
927.5222541897034
 20
-1335.007249527291
 30
0.0
 41
0.9991322885918948
 10
927.4001536056464
 20
-1335.075244859474
 30
0.0
 41
1.0
 10
927.382551594603
 20
-1335.085047061463
 30
0.0
 41
1.0
 10
927.3649495835596
 20
-1335.094849263452
 30
0.0
 41
1.0
 10
927.2627729025025
 20
-1335.151749379233
 30
0.0
 41
0.999386003784959
 10
927.1648318984292
 20
-1335.215665394822
 30
0.0
 41
1.0
 10
927.1592135855798
 20
-1335.219331889515
 30
0.0
 41
1.0
 10
927.1535952727304
 20
-1335.222998384208
 30
0.0
 41
1.0
 10
927.0668908943588
 20
-1335.279581410408
 30
0.0
 41
0.9998821494952894
 10
926.981964518543
 20
-1335.338799640487
 30
0.0
 41
1.0
 10
926.8970381427284
 20
-1335.398017870565
 30
0.0
 41
0.999797648274435
 10
926.8145625123229
 20
-1335.460604278608
 30
0.0
 41
1.0
 10
926.7999262475198
 20
-1335.471710968387
 30
0.0
 41
1.0
 10
926.7852899827167
 20
-1335.482817658165
 30
0.0
 41
1.0
 10
926.6735418227066
 20
-1335.567617445764
 30
0.0
 41
0.9998091630800993
 10
926.5651915446826
 20
-1335.656717796462
 30
0.0
 41
1.0
 10
926.5521857922017
 20
-1335.667412896911
 30
0.0
 41
1.0
 10
926.5391800397209
 20
-1335.67810799736
 30
0.0
 41
1.0
 10
926.4048182567378
 20
-1335.788598548954
 30
0.0
 41
0.9995035112316966
 10
926.2776823789733
 20
-1335.90733236597
 30
0.0
 41
1.0
 10
926.2680350685857
 20
-1335.916342112128
 30
0.0
 41
1.0
 10
926.2583877581982
 20
-1335.925351858286
 30
0.0
 41
1.0
 10
926.1349646954353
 20
-1336.04061823004
 30
0.0
 41
0.9994630424299178
 10
926.0193562896513
 20
-1336.163720973275
 30
0.0
 41
1.0
 10
926.0156734508801
 20
-1336.167642552788
 30
0.0
 41
1.0
 10
926.0119906121088
 20
-1336.171564132301
 30
0.0
 41
1.0
 10
925.9037478838678
 20
-1336.28682371651
 30
0.0
 41
0.9995160693750061
 10
925.8028818543355
 20
-1336.408591134383
 30
0.0
 41
1.0
 10
925.8009481342568
 20
-1336.410925558588
 30
0.0
 41
1.0
 10
925.7990144141781
 20
-1336.413259982794
 30
0.0
 41
1.0
 10
925.702015824805
 20
-1336.530358552254
 30
0.0
 41
0.9996561470514751
 10
925.6112896061377
 20
-1336.652381314705
 30
0.0
 41
1.0
 10
925.6051319402346
 20
-1336.660663103748
 30
0.0
 41
1.0
 10
925.5989742743316
 20
-1336.668944892792
 30
0.0
 41
1.0
 10
925.5205633874702
 20
-1336.774404077156
 30
0.0
 41
0.9998349055172211
 10
925.4460361055396
 20
-1336.882642660817
 30
0.0
 41
1.0
 10
925.3715088236064
 20
-1336.990881244482
 30
0.0
 41
0.9999728109555446
 10
925.2985859276899
 20
-1337.100207170047
 30
0.0
 41
1.0
 10
925.2972707122818
 20
-1337.102178939544
 30
0.0
 41
1.0
 10
925.2959554968737
 20
-1337.104150709041
 30
0.0
 41
1.0
 10
925.2204021701689
 20
-1337.217420173558
 30
0.0
 41
0.9999972147419088
 10
925.1453843598212
 20
-1337.331045016353
 30
0.0
 41
1.0
 10
925.1404128171712
 20
-1337.338575104867
 30
0.0
 41
1.0
 10
925.1354412745213
 20
-1337.346105193381
 30
0.0
 41
1.0
 10
925.0504803789065
 20
-1337.474790213156
 30
0.0
 41
0.9999371979005526
 10
924.9684250295023
 20
-1337.605347126933
 30
0.0
 41
1.0
 10
924.9649161451382
 20
-1337.610930055002
 30
0.0
 41
1.0
 10
924.9614072607742
 20
-1337.61651298307
 30
0.0
 41
1.0
 10
924.8723341426462
 20
-1337.758235752978
 30
0.0
 41
0.9998272025609803
 10
924.7885907517615
 20
-1337.903171629725
 30
0.0
 41
1.0
 10
924.7733755797385
 20
-1337.92950474418
 30
0.0
 41
1.0
 10
924.7581604077156
 20
-1337.955837858634
 30
0.0
 41
1.0
 10
924.6439866727833
 20
-1338.153439964294
 30
0.0
 41
0.9995217214838039
 10
924.5422469832275
 20
-1338.357722292157
 30
0.0
 41
1.0
 10
924.5346034205929
 20
-1338.373069741859
 30
0.0
 41
1.0
 10
924.5269598579583
 20
-1338.388417191561
 30
0.0
 41
1.0
 10
924.4400545653697
 20
-1338.562913649641
 30
0.0
 41
0.9998269762607634
 10
924.359700099098
 20
-1338.740521936363
 30
0.0
 41
1.0
 10
924.2793456328275
 20
-1338.918130223083
 30
0.0
 41
0.9998944747388626
 10
924.2041848382643
 20
-1339.097997948709
 30
0.0
 41
1.0
 10
924.1992311686665
 20
-1339.109852603642
 30
0.0
 41
1.0
 10
924.1942774990689
 20
-1339.121707258575
 30
0.0
 41
1.0
 10
924.1136304385191
 20
-1339.314704198586
 30
0.0
 41
0.9999506734407702
 10
924.0368329096221
 20
-1339.509265003426
 30
0.0
 41
1.0
 10
924.0222329443533
 20
-1339.546252925227
 30
0.0
 41
1.0
 10
924.0076329790844
 20
-1339.583240847028
 30
0.0
 41
1.0
 10
923.9600353807227
 20
-1339.703825808272
 30
0.0
 41
0.999991239391097
 10
923.9134489366961
 20
-1339.824805010978
 30
0.0
 41
1.0
 10
923.8668624926676
 20
-1339.945784213689
 30
0.0
 41
0.9999927113932989
 10
923.8212011982687
 20
-1340.067115621204
 30
0.0
 41
1.0
 10
923.8072327668763
 20
-1340.104232603189
 30
0.0
 41
1.0
 10
923.7932643354839
 20
-1340.141349585174
 30
0.0
 41
1.0
 10
923.7196661782943
 20
-1340.336914956674
 30
0.0
 41
0.9999487550945507
 10
923.6500425533229
 20
-1340.533930321855
 30
0.0
 41
1.0
 10
923.6264489433892
 20
-1340.600693632139
 30
0.0
 41
1.0
 10
923.6028553334554
 20
-1340.667456942423
 30
0.0
 41
1.0
 10
923.5081696990852
 20
-1340.935390777246
 30
0.0
 41
0.9999808436928276
 10
923.4168081104368
 20
-1341.204476208531
 30
0.0
 41
1.0
 10
923.3254465217998
 20
-1341.473561639782
 30
0.0
 41
0.9999873932895601
 10
923.2367918130794
 20
-1341.743550994802
 30
0.0
 41
1.0
 10
923.216699456209
 20
-1341.804740327558
 30
0.0
 41
1.0
 10
923.1966070993385
 20
-1341.865929660315
 30
0.0
 41
1.0
 10
923.0677676768827
 20
-1342.258297680831
 30
0.0
 41
0.9999794883025743
 10
922.943964891924
 20
-1342.652283887111
 30
0.0
 41
1.0
 10
922.9328126324697
 20
-1342.687774497402
 30
0.0
 41
1.0
 10
922.9216603730152
 20
-1342.723265107692
 30
0.0
 41
1.0
 10
922.7791022091386
 20
-1343.176937859712
 30
0.0
 41
0.99999827617657
 10
922.638229769136
 20
-1343.631136881795
 30
0.0
 41
1.0
 10
921.0500894365634
 20
-1348.679906612798
 30
0.0
 41
1.0
 10
919.4619491039908
 20
-1353.728676343801
 30
0.0
 41
1.0
 10
918.5131984925144
 20
-1353.728676343801
 30
0.0
 41
1.0
 10
917.5644478810381
 20
-1353.728676343801
 30
0.0
 41
1.0
 10
920.8027323671913
 20
-1343.401354143855
 30
0.0
 41
1.0
 10
924.0410168533444
 20
-1333.074031943909
 30
0.0
 41
1.0
  0
LWPOLYLINE
  5
129
330
33
100
AcDbEntity
  8
0
  6
Continuous
 62
     7
370
    15
390
1D
100
AcDbPolyline
 90
      232
 70
   128
 43
0.0
 10
898.3374710795174
 20
-1334.158374775424
 42
0.0004370800698785
 10
898.2845939053745
 20
-1334.227041414773
 10
898.2453096743179
 20
-1334.278148527577
 42
0.003048199218266
 10
898.1149709571725
 20
-1334.449870219956
 10
898.0764592854483
 20
-1334.501257003709
 42
0.0042058245761476
 10
897.8724742347626
 20
-1334.778262748805
 10
897.8200691122778
 20
-1334.850695595564
 42
0.0120948898744151
 10
897.5240251955172
 20
-1335.281445200112
 10
897.4278326963907
 20
-1335.428925935344
 42
0.0141601263949357
 10
897.1241886494724
 20
-1335.924595272073
 10
897.0846513820534
 20
-1335.993439239493
 42
0.0071131081300471
 10
896.8793790588081
 20
-1336.362942038343
 42
0.0068458790999311
 10
896.6844995319738
 20
-1336.738033601802
 10
896.6776876695072
 20
-1336.751595315543
 42
0.0064120880291366
 10
896.4795454194673
 20
-1337.159019790453
 10
896.4720107339459
 20
-1337.175031647183
 42
0.0058857236447965
 10
896.2692553420753
 20
-1337.619407758215
 10
896.2610804157803
 20
-1337.637897911852
 42
0.0053189741896548
 10
896.0523761031117
 20
-1338.123861385772
 10
896.0436282974314
 20
-1338.144843263966
 42
0.0047503650418332
 10
895.8276545712835
 20
-1338.677042697169
 10
895.8183863229326
 20
-1338.700519073283
 42
0.0042071762173138
 10
895.593838939202
 20
-1339.283612667361
 10
895.5840895368561
 20
-1339.309578842223
 42
0.0036680086486283
 10
895.3496348935363
 20
-1339.948214226776
 10
895.3394271136963
 20
-1339.976662761099
 42
0.0032573142628552
 10
895.0937948277258
 20
-1340.675515420863
 10
895.025144306879
 20
-1340.874978504934
 42
0.0026133366648926
 10
894.6766991081308
 20
-1341.904841788577
 10
894.6134423206314
 20
-1342.095072623966
 42
0.0020592950741957
 10
894.3995792516631
 20
-1342.747176276583
 10
894.3965274604955
 20
-1342.756612765007
 42
0.0025609928535635
 10
894.1947069590142
 20
-1343.391757987359
 10
894.1921155918892
 20
-1343.400060328294
 42
0.0031362356241801
 10
894.0026248062106
 20
-1344.020823184479
 10
894.0004937632875
 20
-1344.027964490675
 42
0.0037229918030328
 10
893.8236933763568
 20
-1344.636949792664
 10
893.8220147871558
 20
-1344.642896682819
 42
0.0043077623706719
 10
893.6582739850853
 20
-1345.242715414608
 42
0.0047654161825976
 10
893.5054452625646
 20
-1345.845401503529
 10
893.4709806537303
 20
-1345.986963280659
 42
0.0112969368446837
 10
893.2751162955859
 20
-1346.878655441287
 10
893.24710990649
 20
-1347.021483487382
 42
0.0130056762570164
 10
893.0462726628434
 20
-1348.208424559027
 10
893.0257329126961
 20
-1348.352502672505
 42
0.0138721532145191
 10
892.9220299081584
 20
-1349.259332158329
 10
892.9027344202503
 20
-1349.482829880256
 42
0.0071254697009148
 10
892.8693877743278
 20
-1349.946016889101
 10
892.8644268001649
 20
-1350.032020883657
 42
0.0028881799198488
 10
892.8492885068747
 20
-1350.323762593504
 42
0.0060297297139082
 10
892.8393563070991
 20
-1350.615711529623
 10
892.8382940254321
 20
-1350.664103901553
 42
0.0229523164157403
 10
892.8460250532179
 20
-1350.986858747836
 10
892.8502508267383
 20
-1351.047262281851
 42
0.0123673300666922
 10
892.8693294732566
 20
-1351.248383007027
 42
0.012857767446693
 10
892.8985248636628
 20
-1351.448280856953
 10
892.9056507370499
 20
-1351.489609671551
 42
0.0285717853763912
 10
892.9701447387454
 20
-1351.767725822863
 10
892.9838132624118
 20
-1351.81438059234
 42
0.0316283099163068
 10
893.0996238423263
 20
-1352.133395094167
 10
893.1026725340821
 20
-1352.140381466493
 42
0.0338984824238894
 10
893.2521042450489
 20
-1352.427947430682
 10
893.2544129744178
 20
-1352.431738459956
 42
0.0350228718351788
 10
893.4367732650924
 20
-1352.688790444634
 10
893.4376585168683
 20
-1352.689869522399
 42
0.0347476747529224
 10
893.6520832041075
 20
-1352.917054569618
 42
0.0331337701907943
 10
893.8953265298532
 20
-1353.113183231696
 10
893.89642662837
 20
-1353.113955934868
 42
0.0305233319077587
 10
894.1649713239423
 20
-1353.279084104959
 10
894.1682013684447
 20
-1353.280808116822
 42
0.0273744481156058
 10
894.4607550800206
 20
-1353.416946260714
 10
894.4658596151564
 20
-1353.418989845183
 42
0.0240964406194374
 10
894.7813366907982
 20
-1353.527973571463
 10
894.787920020012
 20
-1353.529898311139
 42
0.0209636179815776
 10
895.1253201726696
 20
-1353.613366459072
 10
895.1329526331134
 20
-1353.614918372072
 42
0.018138870469287
 10
895.491275025113
 20
-1353.674334465287
 10
895.49955587349
 20
-1353.675400649103
 42
0.0156086547586945
 10
895.8777432376802
 20
-1353.71213683568
 10
895.9209384900112
 20
-1353.714975338159
 42
0.0137148329028336
 10
896.2486116353048
 20
-1353.72749559341
 10
896.2945478252502
 20
-1353.727990026526
 42
0.0051057823883906
 10
896.530693411823
 20
-1353.728120280935
 42
0.0052256693311499
 10
896.7667906956083
 20
-1353.72337145647
 10
896.8370174793511
 20
-1353.721224490457
 42
0.0161507179047334
 10
897.2127545574497
 20
-1353.69757412013
 10
897.2327675178253
 20
-1353.695663924842
 42
0.0101216737833563
 10
897.6467947393163
 20
-1353.647670994477
 10
897.6808480287428
 20
-1353.643023297667
 42
0.0245291776398331
 10
898.1576376842943
 20
-1353.553948219591
 10
898.2424609998203
 20
-1353.533752299244
 42
0.01435092125621
 10
898.5990921037576
 20
-1353.437947665466
 42
0.0156557857039146
 10
898.9493081684807
 20
-1353.320936449649
 10
898.9568093829795
 20
-1353.318166287893
 42
0.0170137333629913
 10
899.3134053786604
 20
-1353.172508673023
 10
899.3205093010683
 20
-1353.169320837459
 42
0.0183105364408212
 10
899.6798589692326
 20
-1352.991985795635
 10
899.6868057338734
 20
-1352.988235360762
 42
0.0194899958149054
 10
900.0452864748607
 20
-1352.776256378869
 10
900.0523003541941
 20
-1352.771731036577
 42
0.0204869852947035
 10
900.4063146562856
 20
-1352.522211021492
 10
900.413580264875
 20
-1352.516630956142
 42
0.0212516938557745
 10
900.7595701959848
 20
-1352.226726959246
 10
900.8060868900594
 20
-1352.184259649153
 42
0.0215248918256642
 10
901.0661130589463
 20
-1351.925495370159
 10
901.1111427933271
 20
-1351.876651248809
 42
0.0114578554957224
 10
901.2659349470043
 20
-1351.700828315351
 10
901.2771294829921
 20
-1351.687509551805
 42
0.0061531305122572
 10
901.4036041289853
 20
-1351.5332200185
 42
0.0006325587117338
 10
901.5279826131135
 20
-1351.377216642854
 10
901.5510227481886
 20
-1351.348243122165
 42
0.0041897761548327
 10
901.7194781521578
 20
-1351.132723746108
 10
901.7779402720535
 20
-1351.056622399118
 42
0.0092993880036782
 10
902.0545521992767
 20
-1350.682343635235
 10
902.1369466924801
 20
-1350.56640663166
 42
0.0159321727085468
 10
902.4835531751185
 20
-1350.044232410909
 10
902.5279093105053
 20
-1349.972552846663
 42
0.0085547317020028
 10
902.7624210758333
 20
-1349.578677897435
 42
0.0084601156883265
 10
902.9833972532707
 20
-1349.177051048412
 10
902.9915127271057
 20
-1349.16169136613
 42
0.0081429654285035
 10
903.2147619975425
 20
-1348.72196985359
 10
903.2236221617272
 20
-1348.70379101157
 42
0.0076574581328133
 10
903.4500296722986
 20
-1348.220608136306
 10
903.4595093130176
 20
-1348.199543658013
 42
0.0070682724200021
 10
903.6899542208239
 20
-1347.667506353233
 10
903.6999445048061
 20
-1347.643517164221
 42
0.0064559514448275
 10
903.9352777129872
 20
-1347.057204897703
 10
903.9456870711529
 20
-1347.030269972259
 42
0.0058311413905803
 10
904.1867338079129
 20
-1346.384237877883
 10
904.1974888853031
 20
-1346.354353536715
 42
0.0052312425817969
 10
904.4450701633443
 20
-1345.64315112288
 10
904.4561139997238
 20
-1345.610324410811
 42
0.0046680544798046
 10
904.711042427455
 20
-1344.828498095066
 10
904.7530345775084
 20
-1344.695514857743
 42
0.0041666856446523
 10
904.9563205898967
 20
-1344.032546082758
 10
904.993983030562
 20
-1343.9059649751
 42
0.0015170975154759
 10
905.1151696089736
 20
-1343.494096623611
 42
-0.0004887993110782
 10
905.2355093821423
 20
-1343.081978211414
 10
905.3119866395919
 20
-1342.821020825628
 42
0.0002583378929194
 10
905.5852012097365
 20
-1341.886964122173
 10
905.6669740592419
 20
-1341.606864862834
 42
0.0006636169673198
 10
905.860841819244
 20
-1340.939511939279
 10
905.8659384736006
 20
-1340.921880356366
 42
0.0010589131321231
 10
906.0473871745077
 20
-1340.28914901335
 10
906.052369244976
 20
-1340.271636106372
 42
0.0015655524459489
 10
906.2206394521709
 20
-1339.673019427129
 10
906.225469652583
 20
-1339.655627268204
 42
0.0021640440475619
 10
906.379759624572
 20
-1339.090600250175
 10
906.3843938440069
 20
-1339.073335520163
 42
0.0028763871853739
 10
906.5239095620548
 20
-1338.541367569334
 10
906.5282954262226
 20
-1338.524243591177
 42
0.0037310511948802
 10
906.6522521180589
 20
-1338.024795997156
 10
906.6563273383451
 20
-1338.007835725922
 42
0.0047652197772527
 10
906.7639512388564
 20
-1337.540357957605
 10
906.76764183818
 20
-1337.523598402454
 42
0.0060276699297924
 10
906.8581719373335
 20
-1337.087522607311
 10
906.8613906276212
 20
-1337.071021393009
 42
0.0075824337753777
 10
906.9340799370381
 20
-1336.665754228576
 10
906.936725314419
 20
-1336.649599281121
 42
0.0095130624612062
 10
906.9908405500496
 20
-1336.274509928053
 10
906.9978267739315
 20
-1336.218576369942
 42
0.0121054653222962
 10
907.02441810451
 20
-1335.953680541463
 10
907.0252845942692
 20
-1335.942277098537
 42
0.0069050827385072
 10
907.0403734123072
 20
-1335.69933587169
 10
907.0415087119761
 20
-1335.675809614638
 42
0.0169063976703997
 10
907.0443359909561
 20
-1335.479616887344
 10
907.0431653394252
 20
-1335.419281126011
 42
0.0052007732885694
 10
907.0409118908318
 20
-1335.343687735843
 42
0.0054038123297046
 10
907.0209483789937
 20
-1335.223669439837
 10
907.0158625231225
 20
-1335.195010953252
 42
0.0112050460458649
 10
906.9804781610645
 20
-1335.018684514915
 10
906.9626531990234
 20
-1334.939142928192
 42
0.0240764468003733
 10
906.8717558328775
 20
-1334.608905892692
 10
906.8531970700637
 20
-1334.552285727697
 42
0.0256812331836524
 10
906.7098341498743
 20
-1334.18056152144
 10
906.7044247240527
 20
-1334.16843018645
 42
0.0268360501219859
 10
906.5349974832029
 20
-1333.837437052429
 10
906.5294610755674
 20
-1333.827917382116
 42
0.0274670231731341
 10
906.3372600991545
 20
-1333.535630007199
 10
906.3318787991927
 20
-1333.528350859659
 42
0.0275035967099969
 10
906.12030591963
 20
-1333.272834969354
 10
906.1152364186632
 20
-1333.267355881723
 42
0.0269557673527106
 10
905.8878328752239
 20
-1333.046713595761
 10
905.8830898174413
 20
-1333.0425836413
 42
0.0259124802209568
 10
905.6435349860105
 20
-1332.854893114148
 10
905.6390041408274
 20
-1332.851707611817
 42
0.024516215300534
 10
905.3910877877339
 20
-1332.694974602707
 10
905.386561241411
 20
-1332.692414405507
 42
0.0229282588834241
 10
905.1341416845823
 20
-1332.564546213007
 10
905.1293611907466
 20
-1332.562393913246
 42
0.0212984135689932
 10
904.8763232382839
 20
-1332.461194996003
 10
904.8710189533156
 20
-1332.459331433244
 42
0.0197555462335813
 10
904.6212406155914
 20
-1332.382516015278
 42
0.0183511896788858
 10
904.3663118901276
 20
-1332.324933108313
 10
904.2799466934052
 20
-1332.308730317928
 42
0.0338057877150234
 10
903.9944393441449
 20
-1332.274921912788
 10
903.9034339390898
 20
-1332.270342257525
 42
0.0091990524507295
 10
903.797586830469
 20
-1332.266966401604
 42
0.0028333980771751
 10
903.6916729144924
 20
-1332.266138294087
 10
903.6907574614268
 20
-1332.266136324263
 42
-0.0023619827802102
 10
903.5830114463114
 20
-1332.265395483185
 10
903.546606276145
 20
-1332.264973176722
 42
0.0008824598477828
 10
903.3660502863478
 20
-1332.263197398484
 10
903.3221888538891
 20
-1332.262843436958
 42
0.0038132665772496
 10
903.0539059580012
 20
-1332.262724500891
 10
903.0373723032168
 20
-1332.262843267035
 42
0.0060665569333051
 10
902.7360918116347
 20
-1332.268663566455
 10
902.7218414796001
 20
-1332.269111874423
 42
0.0080356953339408
 10
902.3923827632511
 20
-1332.284779596491
 10
902.3803127481737
 20
-1332.285548179431
 42
0.0098996399102004
 10
902.0275496635335
 20
-1332.315033408628
 10
902.0175039541481
 20
-1332.316073704827
 42
0.0117740981368606
 10
901.6463470957946
 20
-1332.363365952358
 10
901.6381243993168
 20
-1332.364611068928
 42
0.0137435215134848
 10
901.2535355798324
 20
-1332.433708042489
 10
901.2468785407084
 20
-1332.435093938723
 42
0.0158359869387405
 10
900.8538814469008
 20
-1332.529986027205
 10
900.8484682600388
 20
-1332.531475968074
 42
0.0180554124027319
 10
900.4521532154242
 20
-1332.656113984313
 10
900.4475964273429
 20
-1332.657730020579
 42
0.0203657431284286
 10
900.0531189095287
 20
-1332.815990362096
 10
900.0489753705242
 20
-1332.817851983537
 42
0.0226819684659627
 10
899.6615393143165
 20
-1333.01349456221
 10
899.6573395233024
 20
-1333.015860154127
 42
0.0248634984605712
 10
899.2821575821232
 20
-1333.252486800073
 10
899.2339626533382
 20
-1333.2863438419
 42
0.0267044190883726
 10
898.9596699564207
 20
-1333.501784217769
 42
0.0139303002198198
 10
898.703502790483
 20
-1333.73902305868
 10
898.698649404761
 20
-1333.743775721541
 42
0.0283460963440792
 10
898.4545768105334
 20
-1334.011506381986
 10
898.4149083053773
 20
-1334.060307959459
 42
0.0070695364826138
 10
898.3374710795174
 20
-1334.158374775424
 42
0.0070695364826138
  0
LWPOLYLINE
  5
12A
330
33
100
AcDbEntity
  8
0
  6
Continuous
 62
     7
370
    15
390
1D
100
AcDbPolyline
 90
      226
 70
   128
 43
0.0
 10
894.808650642271
 20
-1349.879963581608
 42
-0.0026277636635946
 10
894.8085727584711
 20
-1349.813191655858
 10
894.808790116703
 20
-1349.760036438422
 42
-0.0088680296726388
 10
894.8125667329964
 20
-1349.587020656011
 10
894.8149130921086
 20
-1349.527740630565
 42
-0.0077381705619513
 10
894.8309592028717
 20
-1349.236480134767
 10
894.8318271140447
 20
-1349.224191901082
 42
-0.0068872530532016
 10
894.8584591937923
 20
-1348.908970149019
 10
894.8596634179789
 20
-1348.896729169995
 42
-0.0062130021492838
 10
894.8972571348061
 20
-1348.557859478762
 10
894.898761038342
 20
-1348.545685606839
 42
-0.0056726929675333
 10
894.9476828978433
 20
-1348.183490384732
 10
894.9494563434886
 20
-1348.171396584481
 42
-0.0052341884494609
 10
895.0100669297503
 20
-1347.786203328953
 10
895.0120849185253
 20
-1347.77419839897
 42
-0.0049768450165593
 10
895.0848235999526
 20
-1347.366353831532
 10
895.1090726146733
 20
-1347.237805848532
 42
-0.0089029805623894
 10
895.2461534664684
 20
-1346.576030401108
 10
895.2788988417866
 20
-1346.430998970586
 42
-0.0080318257099376
 10
895.5084474561269
 20
-1345.485289338734
 10
895.5204323825756
 20
-1345.439158703542
 42
-0.0074265721319375
 10
895.8044439214261
 20
-1344.40909412516
 10
895.8243234645383
 20
-1344.340960064585
 42
-0.0069711922703101
 10
896.1516280430488
 20
-1343.274692324244
 10
896.211579990154
 20
-1343.088670965875
 42
-0.0052070422894837
 10
896.4410052154137
 20
-1342.401398888842
 10
896.4582864075838
 20
-1342.351371608231
 42
-0.0009167004449983
 10
896.6613782948752
 20
-1341.766915760071
 42
-0.002516272694451
 10
896.8684759251346
 20
-1341.183874495918
 10
896.9057005369425
 20
-1341.080724950005
 42
-0.0028212681456967
 10
897.1538764559064
 20
-1340.404994317832
 10
897.1637072186505
 20
-1340.378686873173
 42
-0.0031964916819852
 10
897.3999994763194
 20
-1339.758482111028
 10
897.4096339303265
 20
-1339.733672120864
 42
-0.0036281836450607
 10
897.6347398914196
 20
-1339.166231439992
 10
897.6441783015773
 20
-1339.142934008489
 42
-0.0041269166834447
 10
897.8587959982362
 20
-1338.625493112511
 10
897.8914289546628
 20
-1338.548614666136
 42
-0.0047472213054532
 10
898.0484737602106
 20
-1338.188193198266
 10
898.0553678414065
 20
-1338.172772600962
 42
-0.0025651659997019
 10
898.203725875269
 20
-1337.845444545186
 42
-0.0057144634993348
 10
898.3574755690453
 20
-1337.520634871813
 10
898.3855062744419
 20
-1337.463126489429
 42
-0.0065388068374019
 10
898.5689733021813
 20
-1337.098893992764
 10
898.5774317579559
 20
-1337.082634413402
 42
-0.0074510843023567
 10
898.7536140038377
 20
-1336.755946132272
 10
898.7617936743706
 20
-1336.741305355
 42
-0.0084648979861011
 10
898.9314275274687
 20
-1336.449396344042
 10
898.9392836539546
 20
-1336.436389352395
 42
-0.0095638542808577
 10
899.1031191015511
 20
-1336.176500480413
 10
899.1105940452189
 20
-1336.165131118963
 42
-0.0107191626809667
 10
899.2693956256104
 20
-1335.934519884413
 10
899.2764123593397
 20
-1335.924783792051
 42
-0.0118458573905862
 10
899.430960457854
 20
-1335.720711596738
 42
-0.0129184518196784
 10
899.5954130814548
 20
-1335.524551080568
 10
899.6255578538204
 20
-1335.490425001666
 42
-0.0217742579632721
 10
899.802170176154
 20
-1335.307218231418
 10
899.812915720618
 20
-1335.297001398211
 42
-0.0097266568652504
 10
899.97897333947
 20
-1335.145153823777
 42
-0.0187720905720869
 10
900.1533209153592
 20
-1335.003084970389
 10
900.1840269060293
 20
-1334.979925887995
 42
-0.0179428207522207
 10
900.4164476260299
 20
-1334.81737371088
 10
900.4200999529502
 20
-1334.81500977599
 42
-0.0170047877697398
 10
900.6558635904761
 20
-1334.673549261841
 10
900.6596465792189
 20
-1334.671450956807
 42
-0.0160190788374169
 10
900.896555126858
 20
-1334.549799654817
 42
-0.0151102861492986
 10
901.1405869093076
 20
-1334.443116878761
 10
901.1929734115164
 20
-1334.422076745868
 42
-0.0271945441884162
 10
901.5516359705771
 20
-1334.300211935161
 10
901.6207007710608
 20
-1334.280862393896
 42
-0.0237596594021576
 10
902.0364976180851
 20
-1334.185411681914
 10
902.1045604718188
 20
-1334.173156993786
 42
-0.0213715440549727
 10
902.3904354032609
 20
-1334.134209962277
 10
902.4505825694816
 20
-1334.128620247576
 42
-0.010146565581737
 10
902.6180751014731
 20
-1334.116476704312
 10
902.6274154876774
 20
-1334.115989789314
 42
-0.010037591087426
 10
902.7765695882339
 20
-1334.11121397139
 10
902.7868288579132
 20
-1334.111091532375
 42
-0.0103625633383069
 10
902.9155368525692
 20
-1334.112222965902
 10
902.9378025038404
 20
-1334.112880324367
 42
-0.0115689250226216
 10
903.0218532413639
 20
-1334.117309830612
 42
-0.0072438037426461
 10
903.1056915208034
 20
-1334.124899030361
 10
903.1224920302759
 20
-1334.126665573085
 42
-0.0217917313132728
 10
903.2390617935931
 20
-1334.144085465807
 10
903.3046618841603
 20
-1334.156832074222
 42
-0.0332943556748326
 10
903.5090540491847
 20
-1334.210872365528
 10
903.5392266177323
 20
-1334.221040442646
 42
-0.018482408479863
 10
903.6777316742
 20
-1334.273491458033
 42
-0.0198002050689026
 10
903.8118060146977
 20
-1334.336375518231
 10
903.8136926520763
 20
-1334.337353305112
 42
-0.0212242342987148
 10
903.9458315944763
 20
-1334.413116043904
 10
903.9476468900218
 20
-1334.414261846114
 42
-0.0226090605796758
 10
904.0761507912438
 20
-1334.503741489679
 10
904.0779952329808
 20
-1334.505153742666
 42
-0.0238457052251574
 10
904.2011773142734
 20
-1334.609149638528
 10
904.2031300428329
 20
-1334.610964516294
 42
-0.0248160564157479
 10
904.319331550133
 20
-1334.730239117502
 10
904.3214351835356
 20
-1334.732624451207
 42
-0.0254109591448964
 10
904.4290404014022
 20
-1334.867912837173
 10
904.4312884233157
 20
-1334.871054385572
 42
-0.0255528488296968
 10
904.5287351021126
 20
-1335.023081439806
 10
904.5310662020288
 20
-1335.027163051414
 42
-0.025214679322478
 10
904.6168472280383
 20
-1335.196665297412
 10
904.6191494671956
 20
-1335.201847379324
 42
-0.0244265635947868
 10
904.6918041609573
 20
-1335.389593951371
 10
904.7010505624258
 20
-1335.417459369709
 42
-0.0231319612902842
 10
904.7469733414175
 20
-1335.58076041651
 42
-0.0112130424367273
 10
904.7816093639558
 20
-1335.746964016699
 10
904.7828118890682
 20
-1335.753460603586
 42
-0.021052788123622
 10
904.8084983644388
 20
-1335.934516249024
 10
904.812008959261
 20
-1335.969921797574
 42
-0.0190029892421606
 10
904.8274504328054
 20
-1336.223457643843
 10
904.8282604092495
 20
-1336.258933258216
 42
-0.0137974553662359
 10
904.8267115564141
 20
-1336.583964664946
 10
904.8258661014585
 20
-1336.610083409541
 42
-0.0081336634215704
 10
904.8110067662359
 20
-1336.915430877141
 42
-0.0073526923570441
 10
904.7866982328611
 20
-1337.220179121429
 10
904.7854368090785
 20
-1337.233515796092
 42
-0.0066886138687118
 10
904.7497012230298
 20
-1337.564101839609
 10
904.7480441335622
 20
-1337.577723458581
 42
-0.0061359187351536
 10
904.7001935315112
 20
-1337.934487438681
 10
904.6981560304384
 20
-1337.94838224151
 42
-0.0056698610063853
 10
904.6375056996734
 20
-1338.331660810336
 10
904.6351002663482
 20
-1338.345819929579
 42
-0.0052721077275812
 10
904.5609680655499
 20
-1338.755947269251
 10
904.5582049167069
 20
-1338.770363904643
 42
-0.0049289272177967
 10
904.4699107986024
 20
-1339.207672415787
 10
904.4667983039244
 20
-1339.222341268581
 42
-0.0047415956710664
 10
904.3635603123887
 20
-1339.687138026006
 10
904.3287921020323
 20
-1339.836945121375
 42
-0.008440447090194
 10
904.1387756584587
 20
-1340.597169145913
 10
904.1326489704747
 20
-1340.62003327006
 42
-0.003963594025906
 10
903.9111952861916
 20
-1341.421022134304
 10
903.8978184910112
 20
-1341.467953750899
 42
-0.0072475040837749
 10
903.6303716031508
 20
-1342.357173467281
 10
903.5601592763209
 20
-1342.578913817261
 42
-0.0051345458829113
 10
903.2733999042619
 20
-1343.453239005072
 10
903.2518736374831
 20
-1343.516665272235
 42
-0.0019150016601272
 10
902.9963402306277
 20
-1344.260214392428
 10
902.98987262624
 20
-1344.278801857325
 42
-0.0021524362752172
 10
902.7413945751675
 20
-1344.983127679058
 10
902.7321841544672
 20
-1345.00888125737
 42
-0.0024331286821469
 10
902.4959288954351
 20
-1345.659480565477
 10
902.4868809428833
 20
-1345.684023871835
 42
-0.002744972179027
 10
902.2622663720492
 20
-1346.283153750756
 10
902.2533763646497
 20
-1346.306476340627
 42
-0.00310832297684
 10
902.039833878047
 20
-1346.856400378188
 10
902.0310977463722
 20
-1346.878490094044
 42
-0.0035311343281756
 10
901.8280565607797
 20
-1347.381473219776
 10
901.8194712216293
 20
-1347.402315943293
 42
-0.0040245640949964
 10
901.6263594178375
 20
-1347.860625265879
 10
901.6179233042315
 20
-1347.880204633958
 42
-0.0046015135851372
 10
901.4341670110707
 20
-1348.296109663593
 10
901.4258808332492
 20
-1348.31440680303
 42
-0.0052768638269329
 10
901.2509033142869
 20
-1348.690179687315
 10
901.2427711036618
 20
-1348.707173025855
 42
-0.006067267563956
 10
901.075991490894
 20
-1349.045088648973
 10
901.0680220104123
 20
-1349.06075390797
 42
-0.0069904648870958
 10
900.9088536164109
 20
-1349.363089714634
 10
900.9010622167988
 20
-1349.377400263863
 42
-0.0080637022769273
 10
900.7489103564542
 20
-1349.646435567014
 10
900.7413213238187
 20
-1349.659363432622
 42
-0.00930064556652
 10
900.5955806472915
 20
-1349.897377831118
 10
900.5882299805506
 20
-1349.908895800287
 42
-0.0107060778056004
 10
900.4482814371095
 20
-1350.11816611767
 10
900.4412196688278
 20
-1350.128251660239
 42
-0.0122723111415703
 10
900.3064259506316
 20
-1350.311044989725
 10
900.3060997270771
 20
-1350.311465377535
 42
-0.0141836319630116
 10
900.1625181241036
 20
-1350.486035135364
 10
900.1555703684552
 20
-1350.494010135625
 42
-0.0175957477206254
 10
900.015664200417
 20
-1350.643631024034
 42
-0.0080466359664691
 10
899.8682004353769
 20
-1350.785953552194
 10
899.8221658908692
 20
-1350.828973990276
 42
-0.0269600260398984
 10
899.5688856448884
 20
-1351.041297248784
 10
899.5023185085875
 20
-1351.091248663411
 42
-0.0178362839750986
 10
899.2623740189334
 20
-1351.258266589662
 10
899.255129047934
 20
-1351.262935101866
 42
-0.0174650732649039
 10
899.0187928504918
 20
-1351.403796066826
 42
-0.0169240130167047
 10
898.7733266046365
 20
-1351.528088326602
 10
898.7273404490761
 20
-1351.54945028217
 42
-0.0318883036844203
 10
898.3769895934586
 20
-1351.68578859168
 10
898.3086240582901
 20
-1351.707489212156
 42
-0.0284435909900545
 10
897.9325739320004
 20
-1351.80370664763
 10
897.8974157714982
 20
-1351.81060024346
 42
-0.0243909341010652
 10
897.5839723105829
 20
-1351.856321274489
 10
897.5336915838172
 20
-1351.86116682139
 42
-0.0196639292935015
 10
897.3180960062846
 20
-1351.873415106904
 10
897.2662719351258
 20
-1351.874318367641
 42
-0.0100501510682827
 10
897.1538486534569
 20
-1351.874017969288
 10
897.1221887921087
 20
-1351.873296897402
 42
-0.0019752031113465
 10
897.0730964554314
 20
-1351.871984737193
 10
897.0703361522023
 20
-1351.871900045367
 42
0.0065378752019438
 10
897.0267595774544
 20
-1351.871133154152
 42
-0.0167974694660236
 10
896.9832287545224
 20
-1351.869473255626
 10
896.9791494152605
 20
-1351.869180244731
 42
-0.0081283276287781
 10
896.9275896175191
 20
-1351.864633251093
 10
896.9158500436436
 20
-1351.863405333514
 42
-0.0126703440184053
 10
896.8411317478507
 20
-1351.853670542443
 10
896.8183438801732
 20
-1351.850112286528
 42
-0.0117852088439516
 10
896.6988048943424
 20
-1351.828549291371
 10
896.6434244425778
 20
-1351.817205751136
 42
-0.0251774592291683
 10
896.416580403571
 20
-1351.758707741704
 10
896.3718612137142
 20
-1351.744740922366
 42
-0.0146525199878462
 10
896.1854682261804
 20
-1351.68047439517
 42
-0.0166929435854563
 10
896.0034905700523
 20
-1351.604667262114
 10
895.9988339387805
 20
-1351.602542361501
 42
-0.0191684358433994
 10
895.8136503075337
 20
-1351.509306277712
 10
895.8103177217745
 20
-1351.507465030158
 42
-0.0221181781811252
 10
895.6270074178711
 20
-1351.395331531786
 10
895.6246576138637
 20
-1351.393747233796
 42
-0.025498468538351
 10
895.4483674634788
 20
-1351.261336083827
 10
895.4258853157768
 20
-1351.24258377489
 42
-0.0292492648810045
 10
895.3011163769335
 20
-1351.125490975247
 42
-0.0159048957496639
 10
895.1872763794823
 20
-1350.997470983647
 10
895.1859575889041
 20
-1350.995889370628
 42
-0.0343813379558936
 10
895.0833203272771
 20
-1350.854018044857
 10
895.0518287959165
 20
-1350.803514652764
 42
-0.0369117275695536
 10
894.9659362940197
 20
-1350.640037411816
 42
-0.0191751379907219
 10
894.898742908463
 20
-1350.467632805811
 10
894.8969795847031
 20
-1350.462539461135
 42
-0.0378178042219201
 10
894.8471848659187
 20
-1350.273598685052
 10
894.8411895701881
 20
-1350.241038066854
 42
-0.0184846046473205
 10
894.8204723708943
 20
-1350.099285246312
 42
-0.0179866351323726
 10
894.8101393658206
 20
-1349.956394433232
 10
894.8100829233748
 20
-1349.954836746618
 42
-0.0085497186109164
 10
894.808650642271
 20
-1349.879963581608
 42
-0.0085497186109164
  0
ENDBLK
  5
12B
330
33
100
AcDbEntity
  8
ABA70-0001
390
1D
100
AcDbBlockEnd
  0
BLOCK
  5
746
330
745
100
AcDbEntity
  8
0
100
AcDbBlockBegin
  2
*D24
 70
     1
 10
0.0
 20
0.0
 30
0.0
  3
*D24
  1

  0
LINE
  5
748
330
745
100
AcDbEntity
  8
MODEL
 62
     0
370
    -2
100
AcDbLine
 10
-907.6865494235985
 20
2418.596234477068
 30
0.0
 11
-907.6865494235985
 21
2415.045672924948
 31
0.0
  0
LINE
  5
749
330
745
100
AcDbEntity
  8
MODEL
 62
     0
370
    -2
100
AcDbLine
 10
-742.6865494235985
 20
2418.596234477068
 30
0.0
 11
-742.6865494235985
 21
2415.045672924948
 31
0.0
  0
LINE
  5
74A
330
745
100
AcDbEntity
  8
MODEL
 62
     0
370
    -2
100
AcDbLine
 10
-901.6865494235985
 20
2415.045672924948
 30
0.0
 11
-748.6865494235985
 21
2415.045672924948
 31
0.0
  0
INSERT
  5
74B
330
745
100
AcDbEntity
  8
MODEL
 62
     0
370
    -2
100
AcDbBlockReference
  2
_DOT
 10
-907.6865494235985
 20
2415.045672924948
 30
0.0
 41
6.0
 42
6.0
 43
6.0
 50
180.0
  0
INSERT
  5
74C
330
745
100
AcDbEntity
  8
MODEL
 62
     0
370
    -2
100
AcDbBlockReference
  2
_DOT
 10
-742.6865494235985
 20
2415.045672924948
 30
0.0
 41
6.0
 42
6.0
 43
6.0
  0
MTEXT
  5
74D
330
745
100
AcDbEntity
  8
MODEL
  6
Continuous
 62
     0
100
AcDbMText
 10
-1009.521918017762
 20
2434.163851628895
 30
0.0
 40
24.4326171875
 41
0.0
 46
0.0
 71
     5
 72
     1
  1
\A1;165(深さ)
  7
ＭＳ ゴシック
 73
     1
 44
1.0
  0
POINT
  5
74E
330
745
100
AcDbEntity
  8
Defpoints
 62
     0
100
AcDbPoint
 10
-907.6865494235985
 20
2393.596234477068
 30
0.0
  0
POINT
  5
74F
330
745
100
AcDbEntity
  8
Defpoints
 62
     0
100
AcDbPoint
 10
-742.6865494235985
 20
2393.596234477068
 30
0.0
  0
POINT
  5
750
330
745
100
AcDbEntity
  8
Defpoints
 62
     0
100
AcDbPoint
 10
-742.6865494235985
 20
2415.045672924948
 30
0.0
  0
ENDBLK
  5
747
330
745
100
AcDbEntity
  8
0
100
AcDbBlockEnd
  0
BLOCK
  5
774
330
773
100
AcDbEntity
  8
0
100
AcDbBlockBegin
  2
*D27
 70
     1
 10
0.0
 20
0.0
 30
0.0
  3
*D27
  1

  0
LINE
  5
776
330
773
100
AcDbEntity
  8
DIM
 62
     0
370
    -2
100
AcDbLine
 10
448.3235767556198
 20
1063.020939039689
 30
0.0
 11
404.7191560961591
 21
1063.020939039689
 31
0.0
  0
LINE
  5
777
330
773
100
AcDbEntity
  8
DIM
 62
     0
370
    -2
100
AcDbLine
 10
536.1442444208806
 20
1913.020939039689
 30
0.0
 11
404.7191560961592
 21
1913.020939039689
 31
0.0
  0
LINE
  5
778
330
773
100
AcDbEntity
  8
DIM
 62
     0
370
    -2
100
AcDbLine
 10
404.7191560961591
 20
1069.020939039689
 30
0.0
 11
404.7191560961592
 21
1907.020939039689
 31
0.0
  0
INSERT
  5
779
330
773
100
AcDbEntity
  8
DIM
 62
     0
370
    -2
100
AcDbBlockReference
  2
_DOT
 10
404.7191560961591
 20
1063.020939039689
 30
0.0
 41
6.0
 42
6.0
 43
6.0
 50
270.0
  0
INSERT
  5
77A
330
773
100
AcDbEntity
  8
DIM
 62
     0
370
    -2
100
AcDbBlockReference
  2
_DOT
 10
404.7191560961592
 20
1913.020939039689
 30
0.0
 41
6.0
 42
6.0
 43
6.0
 50
90.0
  0
MTEXT
  5
77B
330
773
100
AcDbEntity
  8
DIM
  6
Continuous
 62
     0
100
AcDbMText
 10
382.5028475024091
 20
1488.020939039689
 30
0.0
 40
24.4326171875
 41
0.0
 46
0.0
 71
     5
 72
     1
  1
\A1;850
  7
ＭＳ ゴシック
 11
1.337492208489600E-16
 21
1.0
 31
0.0
 73
     1
 44
1.0
  0
POINT
  5
77C
330
773
100
AcDbEntity
  8
Defpoints
 62
     0
100
AcDbPoint
 10
473.3235767556198
 20
1063.020939039689
 30
0.0
  0
POINT
  5
77D
330
773
100
AcDbEntity
  8
Defpoints
 62
     0
100
AcDbPoint
 10
561.1442444208806
 20
1913.020939039689
 30
0.0
  0
POINT
  5
77E
330
773
100
AcDbEntity
  8
Defpoints
 62
     0
100
AcDbPoint
 10
404.7191560961592
 20
1913.020939039689
 30
0.0
  0
ENDBLK
  5
775
330
773
100
AcDbEntity
  8
0
100
AcDbBlockEnd
  0
BLOCK
  5
7B3
330
7B2
100
AcDbEntity
  8
0
100
AcDbBlockBegin
  2
*D30
 70
     1
 10
0.0
 20
0.0
 30
0.0
  3
*D30
  1

  0
LINE
  5
7B5
330
7B2
100
AcDbEntity
  8
MODEL
 62
     0
370
    -2
100
AcDbLine
 10
-907.8872296800259
 20
834.5827790264207
 30
0.0
 11
-907.8872296800259
 21
873.667077710104
 31
0.0
  0
LINE
  5
7B6
330
7B2
100
AcDbEntity
  8
MODEL
 62
     0
370
    -2
100
AcDbLine
 10
-928.8381041241505
 20
855.5336534705434
 30
0.0
 11
-928.8381041241505
 21
873.667077710104
 31
0.0
  0
LINE
  5
7B7
330
7B2
100
AcDbEntity
  8
MODEL
 62
     0
370
    -2
100
AcDbLine
 10
-901.8872296800259
 20
873.667077710104
 30
0.0
 11
-895.8872296800259
 21
873.667077710104
 31
0.0
  0
LINE
  5
7B8
330
7B2
100
AcDbEntity
  8
MODEL
 62
     0
370
    -2
100
AcDbLine
 10
-934.8381041241505
 20
873.667077710104
 30
0.0
 11
-940.8381041241505
 21
873.667077710104
 31
0.0
  0
INSERT
  5
7B9
330
7B2
100
AcDbEntity
  8
MODEL
 62
     0
370
    -2
100
AcDbBlockReference
  2
_DOT
 10
-907.8872296800259
 20
873.667077710104
 30
0.0
 41
6.0
 42
6.0
 43
6.0
 50
180.0
  0
INSERT
  5
7BA
330
7B2
100
AcDbEntity
  8
MODEL
 62
     0
370
    -2
100
AcDbBlockReference
  2
_DOT
 10
-928.8381041241505
 20
873.667077710104
 30
0.0
 41
6.0
 42
6.0
 43
6.0
  0
MTEXT
  5
7BB
330
7B2
100
AcDbEntity
  8
MODEL
  6
Continuous
 62
     0
100
AcDbMText
 10
-929.2251630956962
 20
878.667077710104
 30
0.0
 40
24.4326171875
 41
0.0
 46
0.0
 71
     5
 72
     1
  1
\A1;17
  7
ＭＳ ゴシック
 73
     1
 44
1.0
  0
POINT
  5
7BC
330
7B2
100
AcDbEntity
  8
Defpoints
 62
     0
100
AcDbPoint
 10
-907.8872296800259
 20
809.5827790264207
 30
0.0
  0
POINT
  5
7BD
330
7B2
100
AcDbEntity
  8
Defpoints
 62
     0
100
AcDbPoint
 10
-928.8381041241505
 20
830.5336534705434
 30
0.0
  0
POINT
  5
7BE
330
7B2
100
AcDbEntity
  8
Defpoints
 62
     0
100
AcDbPoint
 10
-928.8381041241505
 20
873.667077710104
 30
0.0
  0
ENDBLK
  5
7B4
330
7B2
100
AcDbEntity
  8
0
100
AcDbBlockEnd
  0
BLOCK
  5
7C0
330
7BF
100
AcDbEntity
  8
0
100
AcDbBlockBegin
  2
*D31
 70
     1
 10
0.0
 20
0.0
 30
0.0
  3
*D31
  1

  0
LINE
  5
7C2
330
7BF
100
AcDbEntity
  8
MODEL
 62
     0
370
    -2
100
AcDbLine
 10
-1951.870635299957
 20
1104.114282793046
 30
0.0
 11
-2041.237102395582
 21
1344.368865135574
 31
0.0
  0
MTEXT
  5
7C3
330
7BF
100
AcDbEntity
  8
MODEL
  6
Continuous
 62
     0
100
AcDbMText
 10
-2015.52982077579
 20
1324.639806761678
 30
0.0
 40
24.4326171875
 41
0.0
 46
0.0
 71
     5
 72
     1
  1
\A1;%%c37
  7
ＭＳ ゴシック
 11
0.3486288986539565
 21
-0.9372608447083071
 31
0.0
 73
     1
 44
1.0
  0
INSERT
  5
7C4
330
7BF
100
AcDbEntity
  8
MODEL
 62
     0
370
    -2
100
AcDbBlockReference
  2
_DOT
 10
-1949.778861908034
 20
1098.490717724796
 30
0.0
 41
6.0
 42
6.0
 43
6.0
 50
290.4034753448478
  0
POINT
  5
7C5
330
7BF
100
AcDbEntity
  8
Defpoints
 62
     0
100
AcDbPoint
 10
-1949.778861908034
 20
1098.490717724796
 30
0.0
  0
POINT
  5
7C6
330
7BF
100
AcDbEntity
  8
Defpoints
 62
     0
100
AcDbPoint
 10
-1936.879592657845
 20
1063.81206647061
 30
0.0
  0
ENDBLK
  5
7C1
330
7BF
100
AcDbEntity
  8
0
100
AcDbBlockEnd
  0
ENDSEC
  0
SECTION
  2
ENTITIES
  0
MTEXT
  5
139
330
A
100
AcDbEntity
  8
MODEL
390
1D
100
AcDbMText
 10
78.57032773880383
 20
354.4484600433575
 30
0.0
 40
16.28841145833333
 41
0.0
 46
0.0
 71
     1
 72
     1
  1
品名
  7
ＭＳ ゴシック
 73
     1
 44
0.785970620909422
  0
MTEXT
  5
13A
330
A
100
AcDbEntity
  8
MODEL
390
1D
100
AcDbMText
 10
78.57032773880383
 20
269.4484600433575
 30
0.0
 40
16.28841145833333
 41
0.0
 46
0.0
 71
     1
 72
     1
  1
仕様
  7
ＭＳ ゴシック
 73
     1
 44
0.785970620909422
  0
MTEXT
  5
13B
330
A
100
AcDbEntity
  8
MODEL
390
1D
100
AcDbMText
 10
131.5703277388038
 20
325.865999105858
 30
0.0
 40
24.4326
 41
0.0
 46
27.5355402
 71
     1
 72
     1
  1
{ペデスタル -HATRIA,Dolcevita-}
  7
ＭＳ ゴシック
 73
     1
 44
0.7859706209094218
1001
ACAD
1000
ACAD_MTEXT_DEFINED_HEIGHT_BEGIN
1070
    46
1040
27.5355402
1000
ACAD_MTEXT_DEFINED_HEIGHT_END
  0
LINE
  5
13C
330
A
100
AcDbEntity
  8
MODEL
390
1D
100
AcDbLine
 10
2021.570327738322
 20
277.8633819183583
 30
0.0
 11
71.5703277383218
 21
277.8633819183583
 31
0.0
  0
POLYLINE
  5
13D
330
A
100
AcDbEntity
  8
MODEL
390
1D
100
AcDb2dPolyline
 66
     1
 10
0.0
 20
0.0
 30
0.0
 75
     5
  0
VERTEX
  5
13E
330
13D
100
AcDbEntity
  8
MODEL
390
1D
100
AcDbVertex
100
AcDb2dVertex
 10
2021.570327738804
 20
2907.863381918358
 30
0.0
  0
VERTEX
  5
13F
330
13D
100
AcDbEntity
  8
MODEL
390
1D
100
AcDbVertex
100
AcDb2dVertex
 10
71.57032773880383
 20
2907.863381918358
 30
0.0
  0
VERTEX
  5
140
330
13D
100
AcDbEntity
  8
MODEL
390
1D
100
AcDbVertex
100
AcDb2dVertex
 10
71.57032773880383
 20
107.8633819183583
 30
0.0
  0
VERTEX
  5
141
330
13D
100
AcDbEntity
  8
MODEL
390
1D
100
AcDbVertex
100
AcDb2dVertex
 10
2021.570327738804
 20
107.8633819183583
 30
0.0
  0
VERTEX
  5
142
330
13D
100
AcDbEntity
  8
MODEL
390
1D
100
AcDbVertex
100
AcDb2dVertex
 10
2021.570327738804
 20
2907.863381918358
 30
0.0
  0
SEQEND
  5
143
330
13D
100
AcDbEntity
  8
MODEL
390
1D
  0
LINE
  5
144
330
A
100
AcDbEntity
  8
MODEL
390
1D
100
AcDbLine
 10
2021.570327738322
 20
362.8633819183583
 30
0.0
 11
71.5703277383218
 21
362.8633819183583
 31
0.0
  0
LINE
  5
145
330
A
100
AcDbEntity
  8
MODEL
390
1D
100
AcDbLine
 10
2021.570327738804
 20
192.8633819183583
 30
0.0
 11
1268.570327738804
 21
192.8633819183583
 31
0.0
  0
MTEXT
  5
146
330
A
100
AcDbEntity
  8
MODEL
390
1D
100
AcDbMText
 10
131.5703277388038
 20
240.865999105858
 30
0.0
 40
24.4326
 41
0.0
 46
25.5564996
 71
     1
 72
     1
  1
{\fＭＳ ゴシック|b0|i0|c1|p0;陶器/ホワイト}
  7
ＭＳ ゴシック
 73
     1
 44
1.135290896869165
1001
ACAD
1000
ACAD_MTEXT_DEFINED_HEIGHT_BEGIN
1070
    46
1040
25.5564996
1000
ACAD_MTEXT_DEFINED_HEIGHT_END
  0
MTEXT
  5
147
330
A
100
AcDbEntity
  8
MODEL
390
1D
100
AcDbMText
 10
71.5703277390071
 20
96.00955986150302
 30
0.0
 40
21.71788194444445
 41
0.0
 46
21.71788194444445
 71
     1
 72
     1
  1
{20191007N}
  7
ＭＳ ゴシック
 73
     1
 44
0.785970620909422
1001
ACAD
1000
ACAD_MTEXT_DEFINED_HEIGHT_BEGIN
1070
    46
1040
21.71788194444445
1000
ACAD_MTEXT_DEFINED_HEIGHT_END
  0
MTEXT
  5
148
330
A
100
AcDbEntity
  8
MODEL
390
1D
100
AcDbMText
 10
1298.441733991064
 20
162.9529874450513
 30
0.0
 40
24.4326171875
 41
0.0
 46
0.0
 71
     1
 72
     1
  1
大洋金物株式会社 ティーフォルム事業部
  7
ＭＳ ゴシック
 73
     1
 44
0.7859706209094218
  0
MTEXT
  5
149
330
A
100
AcDbEntity
  8
MODEL
390
1D
100
AcDbMText
 10
1830.570327739063
 20
240.865999105858
 30
0.0
 40
24.4326171875
 41
0.0
 46
0.0
 71
     1
 72
     1
  1
1:10
  7
ＭＳ ゴシック
 73
     1
 44
0.7859706209094218
  0
MTEXT
  5
14A
330
A
100
AcDbEntity
  8
MODEL
390
1D
100
AcDbMText
 10
1777.570327739063
 20
269.4484600433575
 30
0.0
 40
16.28841145833333
 41
0.0
 46
0.0
 71
     1
 72
     1
  1
縮尺
  7
ＭＳ ゴシック
 73
     1
 44
0.785970620909422
  0
LINE
  5
14B
330
A
100
AcDbEntity
  8
MODEL
390
1D
100
AcDbLine
 10
1770.570327739063
 20
192.8633819183583
 30
0.0
 11
1770.570327739063
 21
277.8633819183583
 31
0.0
  0
MTEXT
  5
14C
330
A
100
AcDbEntity
  8
MODEL
390
1D
100
AcDbMText
 10
1526.570327739063
 20
269.4484600433575
 30
0.0
 40
16.28841145833333
 41
0.0
 46
0.0
 71
     1
 72
     1
  1
容量
  7
ＭＳ ゴシック
 73
     1
 44
0.785970620909422
  0
LINE
  5
14E
330
A
100
AcDbEntity
  8
MODEL
390
1D
100
AcDbLine
 10
1519.570327739063
 20
192.8633819183583
 30
0.0
 11
1519.570327739063
 21
277.8633819183583
 31
0.0
  0
MTEXT
  5
14F
330
A
100
AcDbEntity
  8
MODEL
390
1D
100
AcDbMText
 10
1275.570327739063
 20
354.4484600433575
 30
0.0
 40
16.28841145833333
 41
0.0
 46
0.0
 71
     1
 72
     1
  1
品番
  7
ＭＳ ゴシック
 73
     1
 44
0.785970620909422
  0
MTEXT
  5
150
330
A
100
AcDbEntity
  8
MODEL
390
1D
100
AcDbMText
 10
1275.570327739063
 20
269.4484600433575
 30
0.0
 40
16.28841145833333
 41
0.0
 46
0.0
 71
     1
 72
     1
  1
重量
  7
ＭＳ ゴシック
 73
     1
 44
0.785970620909422
  0
MTEXT
  5
151
330
A
100
AcDbEntity
  8
MODEL
390
1D
100
AcDbMText
 10
1328.570327739063
 20
325.865999105858
 30
0.0
 40
24.4326171875
 41
0.0
 46
24.4326171875
 71
     1
 72
     1
  1
{ATB75-0001}
  7
ＭＳ ゴシック
 73
     1
 44
0.7859706209094218
1001
ACAD
1000
ACAD_MTEXT_DEFINED_HEIGHT_BEGIN
1070
    46
1040
24.4326171875
1000
ACAD_MTEXT_DEFINED_HEIGHT_END
  0
LINE
  5
153
330
A
100
AcDbEntity
  8
MODEL
390
1D
100
AcDbLine
 10
1268.570327739063
 20
107.8633819183583
 30
0.0
 11
1268.570327739063
 21
362.8633819183583
 31
0.0
  0
INSERT
  5
1BD
330
A
100
AcDbEntity
  8
MODEL
390
1D
100
AcDbBlockReference
  2
グループ
 10
1046.570327738563
 20
1489.101974362153
 30
0.0
  0
LINE
  5
59A
330
A
100
AcDbEntity
  8
HIDDEN
 48
0.5
100
AcDbLine
 10
602.2493636517393
 20
1913.339128021155
 30
0.0
 11
1589.726542046427
 21
1913.316798969745
 31
0.0
  0
LINE
  5
59B
330
A
100
AcDbEntity
  8
HIDDEN
 48
0.5
100
AcDbLine
 10
625.0975655063339
 20
1831.011915474964
 30
0.0
 11
1567.121168625908
 21
1831.011915474963
 31
0.0
  0
LINE
  5
59C
330
A
100
AcDbEntity
  8
HIDDEN
 48
0.5
100
AcDbLine
 10
1196.531484648144
 20
1706.912630004771
 30
0.0
 11
1196.93061644209
 21
1706.912630004771
 31
0.0
  0
LINE
  5
5AC
330
A
100
AcDbEntity
  8
HIDDEN
 48
0.5
100
AcDbLine
 10
1571.494871570712
 20
1832.36840534808
 30
0.0
 11
1572.117293878746
 21
1832.826150901971
 31
0.0
  0
LINE
  5
5AD
330
A
100
AcDbEntity
  8
HIDDEN
 48
0.5
100
AcDbLine
 10
1570.797088714169
 20
1831.955317897006
 30
0.0
 11
1571.494871570712
 21
1832.36840534808
 31
0.0
  0
LINE
  5
5AE
330
A
100
AcDbEntity
  8
HIDDEN
 48
0.5
100
AcDbLine
 10
1570.09093246335
 20
1831.637128914424
 30
0.0
 11
1570.797088714169
 21
1831.955317897006
 31
0.0
  0
LINE
  5
5AF
330
A
100
AcDbEntity
  8
HIDDEN
 48
0.5
100
AcDbLine
 10
1569.395940738231
 20
1831.352433508954
 30
0.0
 11
1570.09093246335
 21
1831.637128914424
 31
0.0
  0
LINE
  5
5B0
330
A
100
AcDbEntity
  8
HIDDEN
 48
0.5
100
AcDbLine
 10
1568.617215070337
 20
1831.168218834829
 30
0.0
 11
1569.395940738231
 21
1831.352433508954
 31
0.0
  0
LINE
  5
5B1
330
A
100
AcDbEntity
  8
HIDDEN
 48
0.5
100
AcDbLine
 10
1567.838489402432
 20
1831.062155840632
 30
0.0
 11
1568.617215070337
 21
1831.168218834829
 31
0.0
  0
LINE
  5
5B2
330
A
100
AcDbEntity
  8
HIDDEN
 48
0.5
100
AcDbLine
 10
1567.121168625908
 20
1831.023080000668
 30
0.0
 11
1567.838489402432
 21
1831.062155840632
 31
0.0
  0
LINE
  5
5B5
330
A
100
AcDbEntity
  8
HIDDEN
 48
0.5
100
AcDbLine
 10
1590.256857017399
 20
1913.350292546858
 30
0.0
 11
1589.726542046427
 21
1913.339128021154
 31
0.0
  0
LINE
  5
5B6
330
A
100
AcDbEntity
  8
HIDDEN
 48
0.5
100
AcDbLine
 10
1590.845785748322
 20
1913.283305392631
 30
0.0
 11
1590.256857017399
 21
1913.350292546858
 31
0.0
  0
LINE
  5
5B7
330
A
100
AcDbEntity
  8
HIDDEN
 48
0.5
100
AcDbLine
 10
1591.434714479239
 20
1913.177242398438
 30
0.0
 11
1590.845785748322
 21
1913.283305392631
 31
0.0
  0
LINE
  5
5B8
330
A
100
AcDbEntity
  8
HIDDEN
 48
0.5
100
AcDbLine
 10
1591.990149633051
 20
1913.020939038572
 30
0.0
 11
1591.434714479239
 21
1913.177242398438
 31
0.0
  0
LINE
  5
5B9
330
A
100
AcDbEntity
  8
HIDDEN
 48
0.5
100
AcDbLine
 10
1592.556749312556
 20
1912.819977575887
 30
0.0
 11
1591.990149633051
 21
1913.020939038572
 31
0.0
  0
LINE
  5
5BA
330
A
100
AcDbEntity
  8
HIDDEN
 48
0.5
100
AcDbLine
 10
1593.061944100694
 20
1912.529699907566
 30
0.0
 11
1592.556749312556
 21
1912.819977575887
 31
0.0
  0
LINE
  5
5BB
330
A
100
AcDbEntity
  8
HIDDEN
 48
0.5
100
AcDbLine
 10
1593.569930020255
 20
1912.205928662129
 30
0.0
 11
1593.061944100694
 21
1912.529699907566
 31
0.0
  0
LINE
  5
5BC
330
A
100
AcDbEntity
  8
HIDDEN
 48
0.5
100
AcDbLine
 10
1594.041631231281
 20
1911.831917051025
 30
0.0
 11
1593.569930020255
 21
1912.205928662129
 31
0.0
  0
LINE
  5
5BD
330
A
100
AcDbEntity
  8
HIDDEN
 48
0.5
100
AcDbLine
 10
1594.451927550927
 20
1911.429994125657
 30
0.0
 11
1594.041631231281
 21
1911.831917051025
 31
0.0
  0
LINE
  5
5BE
330
A
100
AcDbEntity
  8
HIDDEN
 48
0.5
100
AcDbLine
 10
1594.817565767751
 20
1910.961084046062
 30
0.0
 11
1594.451927550927
 21
1911.429994125657
 31
0.0
  0
LINE
  5
5BF
330
A
100
AcDbEntity
  8
HIDDEN
 48
0.5
100
AcDbLine
 10
1595.16087493317
 20
1910.464262652204
 30
0.0
 11
1594.817565767751
 21
1910.961084046062
 31
0.0
  0
LINE
  5
5C0
330
A
100
AcDbEntity
  8
HIDDEN
 48
0.5
100
AcDbLine
 10
1595.431614681508
 20
1909.967441258346
 30
0.0
 11
1595.16087493317
 21
1910.464262652204
 31
0.0
  0
LINE
  5
5CE
102
{ACAD_REACTORS
102
}
330
A
100
AcDbEntity
  8
MODEL
100
AcDbLine
 10
386.7433151060359
 20
1063.020939039689
 30
0.0
 11
1650.079176874413
 21
1063.020939039689
 31
0.0
  0
LINE
  5
5D8
330
A
100
AcDbEntity
  8
HIDDEN
 48
0.5
100
AcDbLine
 10
1572.201027821531
 20
1832.837315427676
 30
0.0
 11
1571.575814382069
 21
1832.36840534808
 31
0.0
  0
LINE
  5
5D9
330
A
100
AcDbEntity
  8
HIDDEN
 48
0.5
100
AcDbLine
 10
1571.575814382069
 20
1832.36840534808
 30
0.0
 11
1570.90315170836
 21
1831.96648242271
 31
0.0
  0
LINE
  5
5DA
330
A
100
AcDbEntity
  8
HIDDEN
 48
0.5
100
AcDbLine
 10
1570.90315170836
 20
1831.96648242271
 30
0.0
 11
1570.208159983246
 21
1831.614799863015
 31
0.0
  0
LINE
  5
5DB
330
A
100
AcDbEntity
  8
HIDDEN
 48
0.5
100
AcDbLine
 10
1570.208159983246
 20
1831.614799863015
 30
0.0
 11
1569.476883549592
 21
1831.369180297511
 31
0.0
  0
LINE
  5
5DC
330
A
100
AcDbEntity
  8
HIDDEN
 48
0.5
100
AcDbLine
 10
1569.476883549592
 20
1831.369180297511
 30
0.0
 11
1568.723278064528
 21
1831.168218834829
 31
0.0
  0
LINE
  5
5DD
330
A
100
AcDbEntity
  8
HIDDEN
 48
0.5
100
AcDbLine
 10
1568.723278064528
 20
1831.168218834829
 30
0.0
 11
1567.944552396629
 21
1831.050991314928
 31
0.0
  0
LINE
  5
5DE
330
A
100
AcDbEntity
  8
HIDDEN
 48
0.5
100
AcDbLine
 10
1567.944552396629
 20
1831.050991314928
 30
0.0
 11
1567.216067094399
 21
1831.011915474963
 31
0.0
  0
LINE
  5
5DF
330
A
100
AcDbEntity
  8
HIDDEN
 48
0.5
100
AcDbLine
 10
1567.944552396629
 20
1831.050991314928
 30
0.0
 11
1567.216067094399
 21
1831.011915474963
 31
0.0
  0
LINE
  5
5E0
330
A
100
AcDbEntity
  8
HIDDEN
 48
0.5
100
AcDbLine
 10
1568.723278064528
 20
1831.168218834829
 30
0.0
 11
1567.944552396629
 21
1831.050991314928
 31
0.0
  0
LINE
  5
5E1
330
A
100
AcDbEntity
  8
HIDDEN
 48
0.5
100
AcDbLine
 10
1569.476883549592
 20
1831.369180297511
 30
0.0
 11
1568.723278064528
 21
1831.168218834829
 31
0.0
  0
LINE
  5
5E2
330
A
100
AcDbEntity
  8
HIDDEN
 48
0.5
100
AcDbLine
 10
1570.208159983246
 20
1831.614799863015
 30
0.0
 11
1569.476883549592
 21
1831.369180297511
 31
0.0
  0
LINE
  5
5E3
330
A
100
AcDbEntity
  8
HIDDEN
 48
0.5
100
AcDbLine
 10
1570.90315170836
 20
1831.96648242271
 30
0.0
 11
1570.208159983246
 21
1831.614799863015
 31
0.0
  0
LINE
  5
5E4
330
A
100
AcDbEntity
  8
HIDDEN
 48
0.5
100
AcDbLine
 10
1571.575814382069
 20
1832.36840534808
 30
0.0
 11
1570.90315170836
 21
1831.96648242271
 31
0.0
  0
LINE
  5
5E5
330
A
100
AcDbEntity
  8
HIDDEN
 48
0.5
100
AcDbLine
 10
1572.201027821531
 20
1832.837315427676
 30
0.0
 11
1571.575814382069
 21
1832.36840534808
 31
0.0
  0
LINE
  5
5F0
330
A
100
AcDbEntity
  8
HIDDEN
 48
0.5
100
AcDbLine
 10
1567.132333151613
 20
1831.011915474963
 30
0.0
 11
1567.827324876726
 21
1831.050991314928
 31
0.0
  0
LINE
  5
5F1
330
A
100
AcDbEntity
  8
HIDDEN
 48
0.5
100
AcDbLine
 10
1567.827324876726
 20
1831.050991314928
 30
0.0
 11
1568.617215070337
 21
1831.168218834829
 31
0.0
  0
LINE
  5
5F2
330
A
100
AcDbEntity
  8
HIDDEN
 48
0.5
100
AcDbLine
 10
1568.617215070337
 20
1831.168218834829
 30
0.0
 11
1569.384776212532
 21
1831.369180297511
 31
0.0
  0
LINE
  5
5F3
330
A
100
AcDbEntity
  8
HIDDEN
 48
0.5
100
AcDbLine
 10
1569.384776212532
 20
1831.369180297511
 30
0.0
 11
1570.12721717189
 21
1831.614799863015
 31
0.0
  0
LINE
  5
5F4
330
A
100
AcDbEntity
  8
HIDDEN
 48
0.5
100
AcDbLine
 10
1570.12721717189
 20
1831.614799863015
 30
0.0
 11
1570.822208897004
 21
1831.96648242271
 31
0.0
  0
LINE
  5
5F5
330
A
100
AcDbEntity
  8
HIDDEN
 48
0.5
100
AcDbLine
 10
1570.822208897004
 20
1831.96648242271
 30
0.0
 11
1571.480915913584
 21
1832.36840534808
 31
0.0
  0
LINE
  5
5F6
330
A
100
AcDbEntity
  8
HIDDEN
 48
0.5
100
AcDbLine
 10
1571.480915913584
 20
1832.36840534808
 30
0.0
 11
1572.10612935304
 21
1832.837315427676
 31
0.0
  0
POLYLINE
  5
618
330
A
100
AcDbEntity
  8
HIDDEN
 48
0.5
100
AcDb2dPolyline
 66
     1
 10
0.0
 20
0.0
 30
0.0
  0
VERTEX
  5
619
330
618
100
AcDbEntity
  8
HIDDEN
 48
0.5
100
AcDbVertex
100
AcDb2dVertex
 10
1063.634552922682
 20
1695.999306128463
 30
0.0
  0
VERTEX
  5
61A
330
618
100
AcDbEntity
  8
HIDDEN
 48
0.5
100
AcDbVertex
100
AcDb2dVertex
 10
1055.367221638375
 20
1704.194067995685
 30
0.0
  0
SEQEND
  5
61B
330
618
100
AcDbEntity
  8
HIDDEN
 48
0.5
  0
POLYLINE
  5
61C
330
A
100
AcDbEntity
  8
HIDDEN
 48
0.5
100
AcDb2dPolyline
 66
     1
 10
0.0
 20
0.0
 30
0.0
  0
VERTEX
  5
61D
330
61C
100
AcDbEntity
  8
HIDDEN
 48
0.5
100
AcDbVertex
100
AcDb2dVertex
 10
1128.628839312381
 20
1696.177938539736
 30
0.0
  0
VERTEX
  5
61E
330
61C
100
AcDbEntity
  8
HIDDEN
 48
0.5
100
AcDbVertex
100
AcDb2dVertex
 10
1136.692418002578
 20
1704.143827630014
 30
0.0
  0
SEQEND
  5
61F
330
61C
100
AcDbEntity
  8
HIDDEN
 48
0.5
  0
POLYLINE
  5
620
330
A
100
AcDbEntity
  8
HIDDEN
 48
0.5
100
AcDb2dPolyline
 66
     1
 10
0.0
 20
0.0
 30
0.0
  0
VERTEX
  5
621
330
620
100
AcDbEntity
  8
HIDDEN
 48
0.5
100
AcDbVertex
100
AcDb2dVertex
 10
1128.628839312381
 20
1676.483715196709
 30
0.0
  0
VERTEX
  5
622
330
620
100
AcDbEntity
  8
HIDDEN
 48
0.5
100
AcDbVertex
100
AcDb2dVertex
 10
1128.628839312381
 20
1696.177938539736
 30
0.0
  0
SEQEND
  5
623
330
620
100
AcDbEntity
  8
HIDDEN
 48
0.5
  0
POLYLINE
  5
624
330
A
100
AcDbEntity
  8
HIDDEN
 48
0.5
100
AcDb2dPolyline
 66
     1
 10
0.0
 20
0.0
 30
0.0
  0
VERTEX
  5
625
330
624
100
AcDbEntity
  8
HIDDEN
 48
0.5
100
AcDbVertex
100
AcDb2dVertex
 10
1063.634552922682
 20
1676.483715196709
 30
0.0
  0
VERTEX
  5
626
330
624
100
AcDbEntity
  8
HIDDEN
 48
0.5
100
AcDbVertex
100
AcDb2dVertex
 10
1063.634552922682
 20
1695.999306128463
 30
0.0
  0
SEQEND
  5
627
330
624
100
AcDbEntity
  8
HIDDEN
 48
0.5
  0
SPLINE
  5
628
102
{ACAD_REACTORS
330
7A7
102
}
330
A
100
AcDbEntity
  8
MODEL
100
AcDbSpline
210
0.0
220
0.0
230
1.0
 70
     8
 71
     3
 72
     8
 73
     4
 74
     0
 42
0.000000001
 43
0.0000000001
 40
0.0
 40
0.0
 40
0.0
 40
0.0
 40
1.0
 40
1.0
 40
1.0
 40
1.0
 10
1569.454554498182
 20
1818.624874205637
 30
0.0
 10
1571.282745582319
 20
1822.19752243113
 30
0.0
 10
1571.221340690944
 20
1826.428877673198
 30
0.0
 10
1569.337326978285
 20
1829.973614584428
 30
0.0
  0
SPLINE
  5
629
330
A
100
AcDbEntity
  8
HIDDEN
 48
0.5
100
AcDbSpline
210
0.0
220
0.0
230
1.0
 70
     8
 71
     3
 72
     8
 73
     4
 74
     0
 42
0.000000001
 43
0.0000000001
 40
0.0
 40
0.0
 40
0.0
 40
0.0
 40
1.0
 40
1.0
 40
1.0
 40
1.0
 10
1569.337326978285
 20
1829.973614584428
 30
0.0
 10
1568.865625767259
 20
1830.531840869662
 30
0.0
 10
1568.262741379207
 20
1830.894687955062
 30
0.0
 10
1567.581705311229
 20
1831.034244526373
 30
0.0
  0
SPLINE
  5
62A
102
{ACAD_REACTORS
330
7A7
102
}
330
A
100
AcDbEntity
  8
MODEL
100
AcDbSpline
210
0.0
220
0.0
230
1.0
 70
     8
 71
     3
 72
     8
 73
     4
 74
     0
 42
0.000000001
 43
0.0000000001
 40
0.0
 40
0.0
 40
0.0
 40
0.0
 40
1.0
 40
1.0
 40
1.0
 40
1.0
 10
1569.454554498182
 20
1818.624874205637
 30
0.0
 10
1564.410980011097
 20
1803.552764504341
 30
0.0
 10
1561.028128722585
 20
1787.944757569222
 30
0.0
 10
1559.40089910113
 20
1772.119042382861
 30
0.0
  0
SPLINE
  5
62B
102
{ACAD_REACTORS
330
7A7
102
}
330
A
100
AcDbEntity
  8
MODEL
100
AcDbSpline
210
0.0
220
0.0
230
1.0
 70
     8
 71
     3
 72
     8
 73
     4
 74
     0
 42
0.000000001
 43
0.0000000001
 40
0.0
 40
0.0
 40
0.0
 40
0.0
 40
1.0
 40
1.0
 40
1.0
 40
1.0
 10
1468.694710013595
 20
1829.973614584428
 30
0.0
 10
1469.11896199037
 20
1830.531840869662
 30
0.0
 10
1469.766504481238
 20
1830.894687955062
 30
0.0
 10
1470.439167154947
 20
1831.034244526373
 30
0.0
  0
SPLINE
  5
62C
102
{ACAD_REACTORS
330
7A7
102
}
330
A
100
AcDbEntity
  8
MODEL
100
AcDbSpline
210
0.0
220
0.0
230
1.0
 70
     8
 71
     3
 72
     8
 73
     4
 74
     0
 42
0.000000001
 43
0.0000000001
 40
0.0
 40
0.0
 40
0.0
 40
0.0
 40
1.0
 40
1.0
 40
1.0
 40
1.0
 10
1468.563526836564
 20
1818.624874205637
 30
0.0
 10
1466.760455935255
 20
1822.19752243113
 30
0.0
 10
1466.782784986666
 20
1826.428877673198
 30
0.0
 10
1468.694710013595
 20
1829.973614584428
 30
0.0
  0
SPLINE
  5
62D
102
{ACAD_REACTORS
330
7A7
102
}
330
A
100
AcDbEntity
  8
MODEL
100
AcDbSpline
210
0.0
220
0.0
230
1.0
 70
     8
 71
     3
 72
     8
 73
     4
 74
     0
 42
0.000000001
 43
0.0000000001
 40
0.0
 40
0.0
 40
0.0
 40
0.0
 40
1.0
 40
1.0
 40
1.0
 40
1.0
 10
1468.563526836564
 20
1818.624874205637
 30
0.0
 10
1473.621056980771
 20
1803.552764504341
 30
0.0
 10
1476.978788086449
 20
1787.944757569222
 30
0.0
 10
1478.61718223361
 20
1772.119042382861
 30
0.0
  0
SPLINE
  5
62E
102
{ACAD_REACTORS
330
7A7
102
}
330
A
100
AcDbEntity
  8
MODEL
100
AcDbSpline
210
0.0
220
0.0
230
1.0
 70
     8
 71
     3
 72
     8
 73
     4
 74
     0
 42
0.000000001
 43
0.0000000001
 40
0.0
 40
0.0
 40
0.0
 40
0.0
 40
1.0
 40
1.0
 40
1.0
 40
1.0
 10
1569.454554498182
 20
1818.624874205637
 30
0.0
 10
1564.410980011097
 20
1803.552764504341
 30
0.0
 10
1561.028128722585
 20
1787.944757569222
 30
0.0
 10
1559.40089910113
 20
1772.119042382861
 30
0.0
  0
SPLINE
  5
62F
102
{ACAD_REACTORS
330
7A7
102
}
330
A
100
AcDbEntity
  8
MODEL
100
AcDbSpline
210
0.0
220
0.0
230
1.0
 70
     8
 71
     3
 72
     8
 73
     4
 74
     0
 42
0.000000001
 43
0.0000000001
 40
0.0
 40
0.0
 40
0.0
 40
0.0
 40
1.0
 40
1.0
 40
1.0
 40
1.0
 10
1569.454554498182
 20
1818.624874205637
 30
0.0
 10
1571.282745582319
 20
1822.19752243113
 30
0.0
 10
1571.221340690944
 20
1826.428877673198
 30
0.0
 10
1569.337326978285
 20
1829.973614584428
 30
0.0
  0
SPLINE
  5
630
102
{ACAD_REACTORS
330
7A7
102
}
330
A
100
AcDbEntity
  8
MODEL
100
AcDbSpline
210
0.0
220
0.0
230
1.0
 70
     8
 71
     3
 72
     8
 73
     4
 74
     0
 42
0.000000001
 43
0.0000000001
 40
0.0
 40
0.0
 40
0.0
 40
0.0
 40
1.0
 40
1.0
 40
1.0
 40
1.0
 10
1569.337326978285
 20
1829.973614584428
 30
0.0
 10
1568.865625767259
 20
1830.531840869662
 30
0.0
 10
1568.262741379207
 20
1830.894687955062
 30
0.0
 10
1567.581705311229
 20
1831.034244526373
 30
0.0
  0
SPLINE
  5
631
102
{ACAD_REACTORS
330
7A7
102
}
330
A
100
AcDbEntity
  8
MODEL
100
AcDbSpline
210
0.0
220
0.0
230
1.0
 70
     8
 71
     3
 72
     8
 73
     4
 74
     0
 42
0.000000001
 43
0.0000000001
 40
0.0
 40
0.0
 40
0.0
 40
0.0
 40
1.0
 40
1.0
 40
1.0
 40
1.0
 10
1478.61718223361
 20
1772.091131068599
 30
0.0
 10
1480.917074528767
 20
1724.440935361094
 30
0.0
 10
1480.492822551993
 20
1676.707005710802
 30
0.0
 10
1477.369546486113
 20
1629.101468106116
 30
0.0
  0
SPLINE
  5
632
102
{ACAD_REACTORS
330
7A7
102
}
330
A
100
AcDbEntity
  8
MODEL
100
AcDbSpline
210
0.0
220
0.0
230
1.0
 70
     8
 71
     3
 72
     8
 73
     4
 74
     0
 42
0.000000001
 43
0.0000000001
 40
0.0
 40
0.0
 40
0.0
 40
0.0
 40
1.0
 40
1.0
 40
1.0
 40
1.0
 10
1560.651325980056
 20
1629.101468106116
 30
0.0
 10
1557.528049914176
 20
1676.707005710802
 30
0.0
 10
1557.114962463102
 20
1724.440935361094
 30
0.0
 10
1559.40089910113
 20
1772.091131068599
 30
0.0
  0
SPLINE
  5
633
102
{ACAD_REACTORS
330
7A7
102
}
330
A
100
AcDbEntity
  8
MODEL
100
AcDbSpline
210
0.0
220
0.0
230
1.0
 70
     8
 71
     3
 72
    11
 73
     7
 74
     0
 42
0.000000001
 43
0.0000000001
 40
0.0
 40
0.0
 40
0.0
 40
0.0
 40
1.0
 40
1.0
 40
1.0
 40
2.0
 40
2.0
 40
2.0
 40
2.0
 10
1540.401667483222
 20
1067.347192750246
 30
0.0
 10
1540.354218248976
 20
1066.096765871325
 30
0.0
 10
1539.787618569464
 20
1064.91890840948
 30
0.0
 10
1538.810722570306
 20
1064.115062558747
 30
0.0
 10
1537.867320148259
 20
1063.2888876566
 30
0.0
 10
1536.642013452174
 20
1062.914876045495
 30
0.0
 10
1535.380422047549
 20
1063.020939039689
 30
0.0
  0
SPLINE
  5
634
102
{ACAD_REACTORS
330
7A7
102
}
330
A
100
AcDbEntity
  8
MODEL
100
AcDbSpline
210
0.0
220
0.0
230
1.0
 70
     8
 71
     3
 72
    11
 73
     7
 74
     0
 42
0.000000001
 43
0.0000000001
 40
0.0
 40
0.0
 40
0.0
 40
0.0
 40
1.0
 40
1.0
 40
1.0
 40
2.0
 40
2.0
 40
2.0
 40
2.0
 10
1502.637659287197
 20
1063.020939039689
 30
0.0
 10
1501.401188065406
 20
1062.914876045496
 30
0.0
 10
1500.128432135069
 20
1063.2888876566
 30
0.0
 10
1499.185029713029
 20
1064.115062558747
 30
0.0
 10
1498.230462765281
 20
1064.91890840948
 30
0.0
 10
1497.66386308577
 20
1066.096765871325
 30
0.0
 10
1497.605249325818
 20
1067.347192750246
 30
0.0
  0
POLYLINE
  5
635
102
{ACAD_REACTORS
330
7A7
102
}
330
A
100
AcDbEntity
  8
MODEL
100
AcDb2dPolyline
 66
     1
 10
0.0
 20
0.0
 30
0.0
  0
VERTEX
  5
636
330
635
100
AcDbEntity
  8
MODEL
100
AcDbVertex
100
AcDb2dVertex
 10
1535.603712561641
 20
1063.020939039689
 30
0.0
  0
VERTEX
  5
637
330
635
100
AcDbEntity
  8
MODEL
100
AcDbVertex
100
AcDb2dVertex
 10
1502.637659287197
 20
1063.020939039689
 30
0.0
  0
SEQEND
  5
638
330
635
100
AcDbEntity
  8
MODEL
  0
SPLINE
  5
639
102
{ACAD_REACTORS
330
7A7
102
}
330
A
100
AcDbEntity
  8
MODEL
100
AcDbSpline
210
0.0
220
0.0
230
1.0
 70
     8
 71
     3
 72
     8
 73
     4
 74
     0
 42
0.000000001
 43
0.0000000001
 40
0.0
 40
0.0
 40
0.0
 40
0.0
 40
1.0
 40
1.0
 40
1.0
 40
1.0
 10
1497.605249325818
 20
1067.274623333166
 30
0.0
 10
1479.066554393225
 20
1253.850594646656
 30
0.0
 10
1472.312016341906
 20
1441.3922974336
 30
0.0
 10
1477.355590828985
 20
1628.816772700646
 30
0.0
  0
SPLINE
  5
63A
102
{ACAD_REACTORS
330
7A7
102
}
330
A
100
AcDbEntity
  8
MODEL
100
AcDbSpline
210
0.0
220
0.0
230
1.0
 70
     8
 71
     3
 72
     8
 73
     4
 74
     0
 42
0.000000001
 43
0.0000000001
 40
0.0
 40
0.0
 40
0.0
 40
0.0
 40
1.0
 40
1.0
 40
1.0
 40
1.0
 10
1560.695984082872
 20
1628.816772700646
 30
0.0
 10
1565.683735941435
 20
1441.3922974336
 30
0.0
 10
1558.929197890109
 20
1253.850594646655
 30
0.0
 10
1540.401667483222
 20
1067.274623333166
 30
0.0
  0
SPLINE
  5
63B
102
{ACAD_REACTORS
330
7A7
102
}
330
A
100
AcDbEntity
  8
MODEL
100
AcDbSpline
210
0.0
220
0.0
230
1.0
 70
     8
 71
     3
 72
     8
 73
     4
 74
     0
 42
0.000000001
 43
0.0000000001
 40
0.0
 40
0.0
 40
0.0
 40
0.0
 40
1.0
 40
1.0
 40
1.0
 40
1.0
 10
622.9232741253486
 20
1829.973614584428
 30
0.0
 10
621.0253047555607
 20
1826.428877673199
 30
0.0
 10
620.9666909956095
 20
1822.19752243113
 30
0.0
 10
622.7865086854704
 20
1818.624874205637
 30
0.0
  0
SPLINE
  5
63D
102
{ACAD_REACTORS
330
7A7
102
}
330
A
100
AcDbEntity
  8
MODEL
100
AcDbSpline
210
0.0
220
0.0
230
1.0
 70
     8
 71
     3
 72
     8
 73
     4
 74
     0
 42
0.000000001
 43
0.0000000001
 40
0.0
 40
0.0
 40
0.0
 40
0.0
 40
1.0
 40
1.0
 40
1.0
 40
1.0
 10
632.8289995568166
 20
1772.119042382861
 30
0.0
 10
631.2073521982084
 20
1787.944757569222
 30
0.0
 10
627.8412476982539
 20
1803.552764504342
 30
0.0
 10
622.7865086854704
 20
1818.624874205637
 30
0.0
  0
SPLINE
  5
63F
102
{ACAD_REACTORS
330
7A7
102
}
330
A
100
AcDbEntity
  8
MODEL
100
AcDbSpline
210
0.0
220
0.0
230
1.0
 70
     8
 71
     3
 72
     8
 73
     4
 74
     0
 42
0.000000001
 43
0.0000000001
 40
0.0
 40
0.0
 40
0.0
 40
0.0
 40
1.0
 40
1.0
 40
1.0
 40
1.0
 10
723.6942831356464
 20
1818.624874205637
 30
0.0
 10
725.4806072483916
 20
1822.19752243113
 30
0.0
 10
725.4554870655566
 20
1826.428877673198
 30
0.0
 10
723.5658910900447
 20
1829.973614584428
 30
0.0
  0
SPLINE
  5
640
102
{ACAD_REACTORS
330
7A7
102
}
330
A
100
AcDbEntity
  8
MODEL
100
AcDbSpline
210
0.0
220
0.0
230
1.0
 70
     8
 71
     3
 72
     8
 73
     4
 74
     0
 42
0.000000001
 43
0.0000000001
 40
0.0
 40
0.0
 40
0.0
 40
0.0
 40
1.0
 40
1.0
 40
1.0
 40
1.0
 10
723.6942831356464
 20
1818.624874205637
 30
0.0
 10
718.6395441228633
 20
1803.552764504342
 30
0.0
 10
715.2622750972032
 20
1787.944757569222
 30
0.0
 10
713.640627738595
 20
1772.119042382861
 30
0.0
  0
SPLINE
  5
641
102
{ACAD_REACTORS
330
7A7
102
}
330
A
100
AcDbEntity
  8
MODEL
100
AcDbSpline
210
0.0
220
0.0
230
1.0
 70
     8
 71
     3
 72
     8
 73
     4
 74
     0
 42
0.000000001
 43
0.0000000001
 40
0.0
 40
0.0
 40
0.0
 40
0.0
 40
1.0
 40
1.0
 40
1.0
 40
1.0
 10
622.7865086854704
 20
1818.624874205637
 30
0.0
 10
627.8412476982539
 20
1803.552764504342
 30
0.0
 10
631.2073521982084
 20
1787.944757569222
 30
0.0
 10
632.8289995568166
 20
1772.119042382861
 30
0.0
  0
SPLINE
  5
642
102
{ACAD_REACTORS
330
7A7
102
}
330
A
100
AcDbEntity
  8
MODEL
100
AcDbSpline
210
0.0
220
0.0
230
1.0
 70
     8
 71
     3
 72
     8
 73
     4
 74
     0
 42
0.000000001
 43
0.0000000001
 40
0.0
 40
0.0
 40
0.0
 40
0.0
 40
1.0
 40
1.0
 40
1.0
 40
1.0
 10
622.7865086854704
 20
1818.624874205637
 30
0.0
 10
620.9666909956095
 20
1822.19752243113
 30
0.0
 10
621.0253047555607
 20
1826.428877673199
 30
0.0
 10
622.9232741253486
 20
1829.973614584428
 30
0.0
  0
SPLINE
  5
644
102
{ACAD_REACTORS
330
7A7
102
}
330
A
100
AcDbEntity
  8
MODEL
100
AcDbSpline
210
0.0
220
0.0
230
1.0
 70
     8
 71
     3
 72
     8
 73
     4
 74
     0
 42
0.000000001
 43
0.0000000001
 40
0.0
 40
0.0
 40
0.0
 40
0.0
 40
1.0
 40
1.0
 40
1.0
 40
1.0
 10
713.640627738595
 20
1772.091131068599
 30
0.0
 10
711.3239886548781
 20
1724.440935361094
 30
0.0
 10
711.7621962887888
 20
1676.707005710802
 30
0.0
 10
714.8715166975326
 20
1629.101468106116
 30
0.0
  0
SPLINE
  5
645
102
{ACAD_REACTORS
330
7A7
102
}
330
A
100
AcDbEntity
  8
MODEL
100
AcDbSpline
210
0.0
220
0.0
230
1.0
 70
     8
 71
     3
 72
     8
 73
     4
 74
     0
 42
0.000000001
 43
0.0000000001
 40
0.0
 40
0.0
 40
0.0
 40
0.0
 40
1.0
 40
1.0
 40
1.0
 40
1.0
 10
631.5953194664489
 20
1629.101468106116
 30
0.0
 10
634.7325511894578
 20
1676.707005710802
 30
0.0
 10
635.1205184576975
 20
1724.440935361094
 30
0.0
 10
632.8289995568166
 20
1772.091131068599
 30
0.0
  0
SPLINE
  5
646
102
{ACAD_REACTORS
330
7A7
102
}
330
A
100
AcDbEntity
  8
MODEL
100
AcDbSpline
210
0.0
220
0.0
230
1.0
 70
     8
 71
     3
 72
    11
 73
     7
 74
     0
 42
0.000000001
 43
0.0000000001
 40
0.0
 40
0.0
 40
0.0
 40
0.0
 40
1.0
 40
1.0
 40
1.0
 40
2.0
 40
2.0
 40
2.0
 40
2.0
 10
651.8226489118724
 20
1067.347192750246
 30
0.0
 10
651.8868449346755
 20
1066.096765871325
 30
0.0
 10
652.4646091398936
 20
1064.91890840948
 30
0.0
 10
653.4303406133458
 20
1064.115062558747
 30
0.0
 10
654.3849075610924
 20
1063.2888876566
 30
0.0
 10
655.6297521771658
 20
1062.914876045496
 30
0.0
 10
656.8829701875147
 20
1063.020939039689
 30
0.0
  0
SPLINE
  5
647
102
{ACAD_REACTORS
330
7A7
102
}
330
A
100
AcDbEntity
  8
MODEL
100
AcDbSpline
210
0.0
220
0.0
230
1.0
 70
     8
 71
     3
 72
    11
 73
     7
 74
     0
 42
0.000000001
 43
0.0000000001
 40
0.0
 40
0.0
 40
0.0
 40
0.0
 40
1.0
 40
1.0
 40
1.0
 40
2.0
 40
2.0
 40
2.0
 40
2.0
 10
689.6034038964544
 20
1063.020939039689
 30
0.0
 10
690.8454573810986
 20
1062.914876045496
 30
0.0
 10
692.1126310485824
 20
1063.2888876566
 30
0.0
 10
693.0504512077705
 20
1064.115062558747
 30
0.0
 10
694.005018155518
 20
1064.91890840948
 30
0.0
 10
694.5827823607351
 20
1066.096765871325
 30
0.0
 10
694.6469783835391
 20
1067.347192750246
 30
0.0
  0
POLYLINE
  5
648
102
{ACAD_REACTORS
330
7A7
102
}
330
A
100
AcDbEntity
  8
MODEL
100
AcDb2dPolyline
 66
     1
 10
0.0
 20
0.0
 30
0.0
  0
VERTEX
  5
649
330
648
100
AcDbEntity
  8
MODEL
100
AcDbVertex
100
AcDb2dVertex
 10
656.6540974105683
 20
1063.020939039689
 30
0.0
  0
VERTEX
  5
64A
330
648
100
AcDbEntity
  8
MODEL
100
AcDbVertex
100
AcDb2dVertex
 10
689.6034038964544
 20
1063.020939039689
 30
0.0
  0
SEQEND
  5
64B
330
648
100
AcDbEntity
  8
MODEL
  0
SPLINE
  5
64C
102
{ACAD_REACTORS
330
7A7
102
}
330
A
100
AcDbEntity
  8
MODEL
100
AcDbSpline
210
0.0
220
0.0
230
1.0
 70
     8
 71
     3
 72
     8
 73
     4
 74
     0
 42
0.000000001
 43
0.0000000001
 40
0.0
 40
0.0
 40
0.0
 40
0.0
 40
1.0
 40
1.0
 40
1.0
 40
1.0
 10
694.6358138578335
 20
1067.274623333166
 30
0.0
 10
713.1326418190338
 20
1253.850594646656
 30
0.0
 10
719.9290468417457
 20
1441.3922974336
 30
0.0
 10
714.896636880374
 20
1628.816772700646
 30
0.0
  0
SPLINE
  5
64D
102
{ACAD_REACTORS
330
7A7
102
}
330
A
100
AcDbEntity
  8
MODEL
100
AcDbSpline
210
0.0
220
0.0
230
1.0
 70
     8
 71
     3
 72
     8
 73
     4
 74
     0
 42
0.000000001
 43
0.0000000001
 40
0.0
 40
0.0
 40
0.0
 40
0.0
 40
1.0
 40
1.0
 40
1.0
 40
1.0
 10
631.5729904150376
 20
1628.816772700646
 30
0.0
 10
626.5629095050699
 20
1441.3922974336
 30
0.0
 10
633.3230298192484
 20
1253.850594646656
 30
0.0
 10
651.8226489118724
 20
1067.274623333166
 30
0.0
  0
SPLINE
  5
651
330
A
100
AcDbEntity
  8
HIDDEN
 48
0.5
100
AcDbSpline
210
0.0
220
0.0
230
1.0
 70
     8
 71
     3
 72
     8
 73
     4
 74
     0
 42
0.000000001
 43
0.0000000001
 40
0.0
 40
0.0
 40
0.0
 40
0.0
 40
1.0
 40
1.0
 40
1.0
 40
1.0
 10
995.3969718157769
 20
1708.916662368758
 30
0.0
 10
1062.425993015148
 20
1703.306488202164
 30
0.0
 10
1129.773203197111
 20
1702.62545213418
 30
0.0
 10
1196.925034179238
 20
1706.940541319032
 30
0.0
  0
SPLINE
  5
654
330
A
100
AcDbEntity
  8
HIDDEN
 48
0.5
100
AcDbSpline
210
0.0
220
0.0
230
1.0
 70
     8
 71
     3
 72
     8
 73
     4
 74
     0
 42
0.000000001
 43
0.0000000001
 40
0.0
 40
0.0
 40
0.0
 40
0.0
 40
1.0
 40
1.0
 40
1.0
 40
1.0
 10
837.1481933464438
 20
1831.011915474963
 30
0.0
 10
866.5750919725106
 20
1766.743323256064
 30
0.0
 10
925.7470782072269
 20
1721.08041312399
 30
0.0
 10
995.3858072900712
 20
1708.916662368758
 30
0.0
  0
SPLINE
  5
657
330
A
100
AcDbEntity
  8
HIDDEN
 48
0.5
100
AcDbSpline
210
0.0
220
0.0
230
1.0
 70
     8
 71
     3
 72
     8
 73
     4
 74
     0
 42
0.000000001
 43
0.0000000001
 40
0.0
 40
0.0
 40
0.0
 40
0.0
 40
1.0
 40
1.0
 40
1.0
 40
1.0
 10
1196.93061644209
 20
1706.912630004771
 30
0.0
 10
1267.32015987857
 20
1719.210355068458
 30
0.0
 10
1327.011296558553
 20
1765.738515942645
 30
0.0
 10
1356.053019047814
 20
1831.011915474963
 30
0.0
  0
POLYLINE
  5
66F
330
A
100
AcDbEntity
  8
HIDDEN
 48
0.5
100
AcDb2dPolyline
 66
     1
 10
0.0
 20
0.0
 30
0.0
  0
VERTEX
  5
670
330
66F
100
AcDbEntity
  8
HIDDEN
 48
0.5
100
AcDbVertex
100
AcDb2dVertex
 10
1128.617674786677
 20
1676.494879722413
 30
0.0
  0
VERTEX
  5
671
330
66F
100
AcDbEntity
  8
HIDDEN
 48
0.5
100
AcDbVertex
100
AcDb2dVertex
 10
1063.628970659829
 20
1676.494879722413
 30
0.0
  0
SEQEND
  5
672
330
66F
100
AcDbEntity
  8
HIDDEN
 48
0.5
  0
DIMENSION
  5
770
102
{ACAD_XDICTIONARY
360
771
102
}
330
A
100
AcDbEntity
  8
DIM
100
AcDbDimension
  2
*D27
 10
404.7191560961592
 20
1913.020939039689
 30
0.0
 11
382.5028475024091
 21
1488.020939039689
 31
0.0
 70
    32
 71
     5
 42
850.0000000000005
 73
     0
 74
     0
 75
     0
  3
tfrom線あり
100
AcDbAlignedDimension
 13
473.3235767556198
 23
1063.020939039689
 33
0.0
 14
561.1442444208806
 24
1913.020939039689
 34
0.0
 50
-90.00000000000001
100
AcDbRotatedDimension
  0
LINE
  5
7C8
330
A
100
AcDbEntity
  8
MODEL
  6
Continuous
100
AcDbLine
 10
625.036160614959
 20
1831.011915474964
 30
0.0
 11
721.7907315029997
 21
1831.034244526373
 31
0.0
  0
LINE
  5
7C9
330
A
100
AcDbEntity
  8
MODEL
  6
Continuous
100
AcDbLine
 10
1470.439167154947
 20
1831.034244526373
 30
0.0
 11
1567.944552396629
 21
1831.050991314928
 31
0.0
  0
LWPOLYLINE
  5
7D0
330
A
100
AcDbEntity
  8
border
100
AcDbPolyline
 90
        4
 70
     1
 43
0.0
 10
0.0
 20
0.0
 10
0.0
 20
2970.0
 10
2100.0
 20
2970.0
 10
2100.0
 20
0.0
  0
SPLINE
  5
7DB
330
A
100
AcDbEntity
  8
HIDDEN
 48
0.5
100
AcDbSpline
210
0.0
220
0.0
230
1.0
 70
  1064
 71
     3
 72
    23
 73
    19
 74
    17
 42
0.000000001
 43
0.0000000001
 44
0.0
 40
0.0
 40
0.0
 40
0.0
 40
0.0
 40
2.928879849811974
 40
6.726753673980095
 40
9.676525370466482
 40
15.27583015250471
 40
26.66768082540731
 40
35.62427849239297
 40
47.84862842569608
 40
54.15189896689006
 40
64.89646865997035
 40
74.45869037848287
 40
81.62098033021026
 40
84.79962132263958
 40
87.7838338937453
 40
90.50305098040057
 40
93.93222970049587
 40
97.50386939038566
 40
97.50386939038566
 40
97.50386939038566
 40
97.50386939038566
 10
1591.712432056145
 20
1913.099090718505
 30
0.0
 10
1592.6212142052
 20
1912.690480805523
 30
0.0
 10
1594.708412715712
 20
1911.752027070879
 30
0.0
 10
1596.254004851212
 20
1908.563458638603
 30
0.0
 10
1595.821132976631
 20
1904.287633249368
 30
0.0
 10
1590.756187842609
 20
1899.471517474296
 30
0.0
 10
1585.479202046061
 20
1892.781551298847
 30
0.0
 10
1579.962044493166
 20
1883.332456434996
 30
0.0
 10
1577.007190700307
 20
1874.598131884678
 30
0.0
 10
1575.138853872372
 20
1864.994341275834
 30
0.0
 10
1575.170848183907
 20
1856.084946019148
 30
0.0
 10
1574.824614185589
 20
1846.950133551483
 30
0.0
 10
1575.480488622589
 20
1840.287036537739
 30
0.0
 10
1574.547653919904
 20
1835.891634953125
 30
0.0
 10
1572.991278165153
 20
1833.28077743528
 30
0.0
 10
1570.419787019262
 20
1831.49456126509
 30
0.0
 10
1567.165319439768
 20
1830.86417873512
 30
0.0
 10
1564.834008682378
 20
1830.987392341611
 30
0.0
 10
1563.644633163269
 20
1831.050252793276
 30
0.0
 11
1591.712432056145
 21
1913.099090718505
 31
0.0
 11
1594.246779391104
 21
1911.630955588341
 31
0.0
 11
1595.973094178185
 21
1908.248104299826
 31
0.0
 11
1595.691189904142
 21
1905.311834039501
 31
0.0
 11
1592.320898707049
 21
1900.840441494783
 31
0.0
 11
1585.200722438898
 21
1891.947896771018
 31
0.0
 11
1580.74985407899
 21
1884.175483206943
 31
0.0
 11
1576.722948477375
 21
1872.63343994903
 31
0.0
 11
1575.573879776985
 21
1866.43579034315
 31
0.0
 11
1575.093776761135
 21
1855.701952307124
 31
0.0
 11
1575.043437359407
 21
1846.139863093013
 31
0.0
 11
1575.101013373318
 21
1838.97780456524
 31
0.0
 11
1574.361536979458
 21
1835.886375571769
 31
0.0
 11
1572.778792026749
 21
1833.356465872941
 31
0.0
 11
1570.555655845803
 21
1831.790641142862
 31
0.0
 11
1567.216067094399
 21
1831.011915474963
 31
0.0
 11
1563.644633163269
 21
1831.050252793276
 31
0.0
  0
SPLINE
  5
7DC
330
A
100
AcDbEntity
  8
HIDDEN
 48
0.5
100
AcDbSpline
210
0.0
220
0.0
230
1.0
 70
  1064
 71
     3
 72
    23
 73
    19
 74
    17
 42
0.000000001
 43
0.0000000001
 44
0.0
 40
0.0
 40
0.0
 40
0.0
 40
0.0
 40
2.928879849811974
 40
6.726753673980095
 40
9.676525370466482
 40
15.27583015250471
 40
26.66768082540731
 40
35.62427849239297
 40
47.84862842569608
 40
54.15189896689006
 40
64.89646865997035
 40
74.45869037848287
 40
81.62098033021026
 40
84.79962132263958
 40
87.7838338937453
 40
90.50305098040057
 40
93.93222970049587
 40
97.50386939038566
 40
97.50386939038566
 40
97.50386939038566
 40
97.50386939038566
 10
600.2634736420214
 20
1913.099090718505
 30
0.0
 10
599.354691492967
 20
1912.690480805523
 30
0.0
 10
597.2674929824535
 20
1911.752027070879
 30
0.0
 10
595.7219008469542
 20
1908.563458638603
 30
0.0
 10
596.1547727215356
 20
1904.287633249368
 30
0.0
 10
601.2197178555575
 20
1899.471517474296
 30
0.0
 10
606.4967036521062
 20
1892.781551298847
 30
0.0
 10
612.0138612050001
 20
1883.332456434996
 30
0.0
 10
614.9687149978604
 20
1874.598131884678
 30
0.0
 10
616.8370518257939
 20
1864.994341275834
 30
0.0
 10
616.8050575142599
 20
1856.084946019148
 30
0.0
 10
617.1512915125775
 20
1846.950133551483
 30
0.0
 10
616.495417075578
 20
1840.287036537739
 30
0.0
 10
617.4282517782622
 20
1835.891634953125
 30
0.0
 10
618.9846275330134
 20
1833.28077743528
 30
0.0
 10
621.5561186789042
 20
1831.49456126509
 30
0.0
 10
624.8105862583985
 20
1830.86417873512
 30
0.0
 10
627.1418970157886
 20
1830.987392341611
 30
0.0
 10
628.3312725348972
 20
1831.050252793276
 30
0.0
 11
600.2634736420214
 21
1913.099090718505
 31
0.0
 11
597.7291263070624
 21
1911.630955588341
 31
0.0
 11
596.0028115199812
 21
1908.248104299826
 31
0.0
 11
596.284715794025
 21
1905.311834039501
 31
0.0
 11
599.6550069911173
 21
1900.840441494783
 31
0.0
 11
606.7751832592689
 21
1891.947896771018
 31
0.0
 11
611.2260516191766
 21
1884.175483206943
 31
0.0
 11
615.2529572207914
 21
1872.63343994903
 31
0.0
 11
616.4020259211811
 21
1866.43579034315
 31
0.0
 11
616.8821289370317
 21
1855.701952307124
 31
0.0
 11
616.9324683387592
 21
1846.139863093013
 31
0.0
 11
616.8748923248486
 21
1838.97780456524
 31
0.0
 11
617.6143687187084
 21
1835.886375571769
 31
0.0
 11
619.1971136714174
 21
1833.356465872941
 31
0.0
 11
621.4202498523632
 21
1831.790641142862
 31
0.0
 11
624.759838603768
 21
1831.011915474963
 31
0.0
 11
628.3312725348972
 21
1831.050252793276
 31
0.0
  0
ENDSEC
  0
SECTION
  2
OBJECTS
  0
DICTIONARY
  5
19
330
0
100
AcDbDictionary
281
     1
  3
ACAD_DETAILVIEWSTYLE
350
716
  3
ACAD_GROUP
350
1A
  3
ACAD_LAYOUT
350
1E
  3
ACAD_MATERIAL
350
200
  3
ACAD_MLEADERSTYLE
350
206
  3
ACAD_MLINESTYLE
350
1B
  3
ACAD_PLOTSETTINGS
350
22
  3
ACAD_PLOTSTYLENAME
350
1F
  3
ACAD_SCALELIST
350
1C5
  3
ACAD_SECTIONVIEWSTYLE
350
717
  3
ACAD_TABLESTYLE
350
204
  3
ACAD_VISUALSTYLE
350
1E7
  3
ACDB_RECOMPOSE_DATA
350
7F0
  3
AcDbVariableDictionary
350
711
  3
APPDATA
350
208
  0
DICTIONARY
  5
7A9
330
2
100
AcDbDictionary
280
     1
281
     1
  3
ACAD_LAYERSTATES
360
7AA
  3
ACLYDICTIONARY
360
7D4
  0
DICTIONARY
  5
771
330
770
100
AcDbDictionary
280
     1
281
     1
  0
DICTIONARY
  5
716
102
{ACAD_REACTORS
330
19
102
}
330
19
100
AcDbDictionary
281
     1
  0
DICTIONARY
  5
1A
102
{ACAD_REACTORS
330
19
102
}
330
19
100
AcDbDictionary
281
     1
  3
*A1
350
7A7
  0
DICTIONARY
  5
1E
102
{ACAD_REACTORS
330
19
102
}
330
19
100
AcDbDictionary
281
     1
  3
Layout1
350
21
  3
Model
350
20
  0
DICTIONARY
  5
200
102
{ACAD_REACTORS
330
19
102
}
330
19
100
AcDbDictionary
281
     1
  3
ByBlock
350
202
  3
ByLayer
350
201
  3
Global
350
203
  0
DICTIONARY
  5
206
102
{ACAD_REACTORS
330
19
102
}
330
19
100
AcDbDictionary
281
     1
  3
Standard
350
207
  0
DICTIONARY
  5
1B
102
{ACAD_REACTORS
330
19
102
}
330
19
100
AcDbDictionary
281
     1
  3
Standard
350
1C
  0
DICTIONARY
  5
22
102
{ACAD_REACTORS
330
19
102
}
330
19
100
AcDbDictionary
281
     1
  0
ACDBDICTIONARYWDFLT
  5
1F
102
{ACAD_REACTORS
330
19
102
}
330
19
100
AcDbDictionary
281
     1
  3
Normal
350
1D
100
AcDbDictionaryWithDefault
340
1D
  0
DICTIONARY
  5
1C5
102
{ACAD_REACTORS
330
19
102
}
330
19
100
AcDbDictionary
281
     1
  3
A0
350
1C6
  3
A1
350
1C7
  3
A2
350
1C8
  3
A3
350
1C9
  3
A4
350
1CA
  3
A5
350
1CB
  3
A6
350
1CC
  3
A7
350
1CD
  3
A8
350
1CE
  3
A9
350
1CF
  3
B0
350
1D0
  3
B1
350
1D1
  3
B2
350
1D2
  3
B3
350
1D3
  3
B4
350
1D4
  3
B5
350
1D5
  3
B6
350
1D6
  3
B7
350
1D7
  3
B8
350
1D8
  3
B9
350
1D9
  3
C0
350
1DA
  3
C1
350
1DB
  3
C2
350
1DC
  3
C3
350
1DD
  3
C4
350
1DE
  3
C5
350
1DF
  3
C6
350
1E0
  3
C7
350
1E1
  3
C8
350
1E2
  3
C9
350
1E3
  3
D0
350
1E4
  3
D1
350
1E5
  3
D2
350
1E6
  0
DICTIONARY
  5
717
102
{ACAD_REACTORS
330
19
102
}
330
19
100
AcDbDictionary
281
     1
  0
DICTIONARY
  5
204
102
{ACAD_REACTORS
330
19
102
}
330
19
100
AcDbDictionary
281
     1
  3
Standard
350
205
  0
DICTIONARY
  5
1E7
102
{ACAD_REACTORS
330
19
102
}
330
19
100
AcDbDictionary
281
     1
  3
2dWireframe
350
1EC
  3
Basic
350
1EF
  3
Brighten
350
1F3
  3
ColorChange
350
1F7
  3
Conceptual
350
1F1
  3
Dim
350
1F2
  3
EdgeColorOff
350
1FA
  3
Facepattern
350
1F6
  3
Flat
350
1E8
  3
FlatWithEdges
350
1E9
  3
Gouraud
350
1EA
  3
GouraudWithEdges
350
1EB
  3
Hidden
350
1EE
  3
JitterOff
350
1F8
  3
Linepattern
350
1F5
  3
OverhangOff
350
1F9
  3
Realistic
350
1F0
  3
Shaded
350
1FF
  3
Shaded with edges
350
1FE
  3
Shades of Gray
350
1FB
  3
Sketchy
350
1FC
  3
Thicken
350
1F4
  3
Wireframe
350
1ED
  3
X-Ray
350
1FD
  0
XRECORD
  5
7F0
102
{ACAD_REACTORS
330
19
102
}
330
19
100
AcDbXrecord
280
     1
 90
        1
330
205
  0
DICTIONARY
  5
711
102
{ACAD_REACTORS
330
19
102
}
330
19
100
AcDbDictionary
281
     1
  3
CANNOSCALE
350
712
  3
CMLEADERSTYLE
350
714
  3
CTABLESTYLE
350
713
  3
MSLTSCALE
350
715
  0
DICTIONARY
  5
208
102
{ACAD_REACTORS
330
19
102
}
330
19
100
AcDbDictionary
281
     1
  0
DICTIONARY
  5
7AA
102
{ACAD_REACTORS
330
7A9
102
}
330
7A9
100
AcDbDictionary
281
     1
  0
DICTIONARY
  5
7D4
102
{ACAD_REACTORS
330
7A9
102
}
330
7A9
100
AcDbDictionary
281
     1
1001
ACAD
1000
<All
  0
GROUP
  5
7A7
102
{ACAD_REACTORS
330
1A
102
}
330
1A
100
AcDbGroup
300

 70
     1
 71
     1
340
63D
340
640
340
641
340
644
340
645
340
63B
340
63F
340
642
340
646
340
647
340
648
340
64C
340
64D
340
62A
340
62D
340
62E
340
631
340
632
340
633
340
634
340
635
340
639
340
63A
340
628
340
62B
340
62C
340
62F
340
630
  0
LAYOUT
  5
21
102
{ACAD_REACTORS
330
1E
102
}
330
1E
100
AcDbPlotSettings
  1

  2

  4

  6

 40
0.0
 41
0.0
 42
0.0
 43
0.0
 44
0.0
 45
0.0
 46
0.0
 47
0.0
 48
0.0
 49
0.0
140
0.0
141
0.0
142
1.0
143
1.0
 70
     0
 72
     0
 73
     0
 74
     0
  7

 75
     0
 76
     0
 77
     2
 78
   300
147
1.0
148
0.0
149
0.0
100
AcDbLayout
  1
Layout1
 70
     0
 71
     0
 10
0.0
 20
0.0
 11
0.0
 21
0.0
 12
0.0
 22
0.0
 32
0.0
 14
0.0
 24
0.0
 34
0.0
 15
0.0
 25
0.0
 35
0.0
146
0.0
 13
0.0
 23
0.0
 33
0.0
 16
0.0
 26
0.0
 36
0.0
 17
0.0
 27
0.0
 37
0.0
 76
     0
330
B
  0
LAYOUT
  5
20
102
{ACAD_REACTORS
330
1E
102
}
330
1E
100
AcDbPlotSettings
  1

  2

  4

  6

 40
0.0
 41
0.0
 42
0.0
 43
0.0
 44
0.0
 45
0.0
 46
0.0
 47
0.0
 48
0.0
 49
0.0
140
0.0
141
0.0
142
1.0
143
1.0
 70
  1024
 72
     0
 73
     0
 74
     0
  7

 75
     0
 76
     0
 77
     2
 78
   300
147
1.0
148
0.0
149
0.0
100
AcDbLayout
  1
Model
 70
     0
 71
     1
 10
0.0
 20
0.0
 11
2100.0
 21
2970.0
 12
0.0
 22
0.0
 32
0.0
 14
0.0
 24
0.0
 34
0.0
 15
2100.0
 25
2970.0
 35
0.0
146
0.0
 13
0.0
 23
0.0
 33
0.0
 16
0.0
 26
0.0
 36
0.0
 17
0.0
 27
0.0
 37
0.0
 76
     0
330
A
331
15
  0
MATERIAL
  5
202
102
{ACAD_REACTORS
330
200
102
}
330
200
100
AcDbMaterial
  1
ByBlock
 72
     1
 94
      127
  0
MATERIAL
  5
201
102
{ACAD_REACTORS
330
200
102
}
330
200
100
AcDbMaterial
  1
ByLayer
 72
     1
 94
      127
  0
MATERIAL
  5
203
102
{ACAD_REACTORS
330
200
102
}
330
200
100
AcDbMaterial
  1
Global
 72
     1
 94
      127
  0
MLEADERSTYLE
  5
207
102
{ACAD_REACTORS
330
206
102
}
330
206
100
AcDbMLeaderStyle
170
     2
171
     1
172
     0
 90
        2
 40
0.0
 41
0.0
173
     1
 91
-1056964608
340
11
 92
       -2
290
     1
 42
2.0
291
     1
 43
8.0
  3
Standard
341
0
 44
4.0
300

342
17
174
     1
178
     1
175
     1
176
     0
 93
-1056964608
 45
4.0
292
     0
297
     0
 46
4.0
343
0
 94
-1056964608
 47
1.0
 49
1.0
140
1.0
293
     1
141
0.0
294
     1
177
     0
142
1.0
295
     0
296
     0
143
3.75
1001
ACAD_MLEADERVER
1070
     2
  0
MLINESTYLE
  5
1C
102
{ACAD_REACTORS
330
1B
102
}
330
1B
100
AcDbMlineStyle
  2
Standard
 70
     0
  3

 62
     0
 51
90.0
 52
90.0
 71
     2
 49
0.5
 62
   256
  6
BYLAYER
 49
-0.5
 62
   256
  6
BYLAYER
  0
ACDBPLACEHOLDER
  5
1D
102
{ACAD_REACTORS
330
1F
102
}
330
1F
  0
SCALE
  5
1C6
102
{ACAD_REACTORS
330
1C5
102
}
330
1C5
100
AcDbScale
 70
     0
300
1:1
140
1.0
141
1.0
290
     1
  0
SCALE
  5
1C7
102
{ACAD_REACTORS
330
1C5
102
}
330
1C5
100
AcDbScale
 70
     0
300
1:2
140
1.0
141
2.0
290
     0
  0
SCALE
  5
1C8
102
{ACAD_REACTORS
330
1C5
102
}
330
1C5
100
AcDbScale
 70
     0
300
1:4
140
1.0
141
4.0
290
     0
  0
SCALE
  5
1C9
102
{ACAD_REACTORS
330
1C5
102
}
330
1C5
100
AcDbScale
 70
     0
300
1:5
140
1.0
141
5.0
290
     0
  0
SCALE
  5
1CA
102
{ACAD_REACTORS
330
1C5
102
}
330
1C5
100
AcDbScale
 70
     0
300
1:8
140
1.0
141
8.0
290
     0
  0
SCALE
  5
1CB
102
{ACAD_REACTORS
330
1C5
102
}
330
1C5
100
AcDbScale
 70
     0
300
1:10
140
1.0
141
10.0
290
     0
  0
SCALE
  5
1CC
102
{ACAD_REACTORS
330
1C5
102
}
330
1C5
100
AcDbScale
 70
     0
300
1:16
140
1.0
141
16.0
290
     0
  0
SCALE
  5
1CD
102
{ACAD_REACTORS
330
1C5
102
}
330
1C5
100
AcDbScale
 70
     0
300
1:20
140
1.0
141
20.0
290
     0
  0
SCALE
  5
1CE
102
{ACAD_REACTORS
330
1C5
102
}
330
1C5
100
AcDbScale
 70
     0
300
1:30
140
1.0
141
30.0
290
     0
  0
SCALE
  5
1CF
102
{ACAD_REACTORS
330
1C5
102
}
330
1C5
100
AcDbScale
 70
     0
300
1:40
140
1.0
141
40.0
290
     0
  0
SCALE
  5
1D0
102
{ACAD_REACTORS
330
1C5
102
}
330
1C5
100
AcDbScale
 70
     0
300
1:50
140
1.0
141
50.0
290
     0
  0
SCALE
  5
1D1
102
{ACAD_REACTORS
330
1C5
102
}
330
1C5
100
AcDbScale
 70
     0
300
1:100
140
1.0
141
100.0
290
     0
  0
SCALE
  5
1D2
102
{ACAD_REACTORS
330
1C5
102
}
330
1C5
100
AcDbScale
 70
     0
300
2:1
140
2.0
141
1.0
290
     0
  0
SCALE
  5
1D3
102
{ACAD_REACTORS
330
1C5
102
}
330
1C5
100
AcDbScale
 70
     0
300
4:1
140
4.0
141
1.0
290
     0
  0
SCALE
  5
1D4
102
{ACAD_REACTORS
330
1C5
102
}
330
1C5
100
AcDbScale
 70
     0
300
8:1
140
8.0
141
1.0
290
     0
  0
SCALE
  5
1D5
102
{ACAD_REACTORS
330
1C5
102
}
330
1C5
100
AcDbScale
 70
     0
300
10:1
140
10.0
141
1.0
290
     0
  0
SCALE
  5
1D6
102
{ACAD_REACTORS
330
1C5
102
}
330
1C5
100
AcDbScale
 70
     0
300
100:1
140
100.0
141
1.0
290
     0
  0
SCALE
  5
1D7
102
{ACAD_REACTORS
330
1C5
102
}
330
1C5
100
AcDbScale
 70
     0
300
1/128" = 1'-0"
140
0.0078125
141
12.0
290
     0
  0
SCALE
  5
1D8
102
{ACAD_REACTORS
330
1C5
102
}
330
1C5
100
AcDbScale
 70
     0
300
1/64" = 1'-0"
140
0.015625
141
12.0
290
     0
  0
SCALE
  5
1D9
102
{ACAD_REACTORS
330
1C5
102
}
330
1C5
100
AcDbScale
 70
     0
300
1/32" = 1'-0"
140
0.03125
141
12.0
290
     0
  0
SCALE
  5
1DA
102
{ACAD_REACTORS
330
1C5
102
}
330
1C5
100
AcDbScale
 70
     0
300
1/16" = 1'-0"
140
0.0625
141
12.0
290
     0
  0
SCALE
  5
1DB
102
{ACAD_REACTORS
330
1C5
102
}
330
1C5
100
AcDbScale
 70
     0
300
3/32" = 1'-0"
140
0.09375
141
12.0
290
     0
  0
SCALE
  5
1DC
102
{ACAD_REACTORS
330
1C5
102
}
330
1C5
100
AcDbScale
 70
     0
300
1/8" = 1'-0"
140
0.125
141
12.0
290
     0
  0
SCALE
  5
1DD
102
{ACAD_REACTORS
330
1C5
102
}
330
1C5
100
AcDbScale
 70
     0
300
3/16" = 1'-0"
140
0.1875
141
12.0
290
     0
  0
SCALE
  5
1DE
102
{ACAD_REACTORS
330
1C5
102
}
330
1C5
100
AcDbScale
 70
     0
300
1/4" = 1'-0"
140
0.25
141
12.0
290
     0
  0
SCALE
  5
1DF
102
{ACAD_REACTORS
330
1C5
102
}
330
1C5
100
AcDbScale
 70
     0
300
3/8" = 1'-0"
140
0.375
141
12.0
290
     0
  0
SCALE
  5
1E0
102
{ACAD_REACTORS
330
1C5
102
}
330
1C5
100
AcDbScale
 70
     0
300
1/2" = 1'-0"
140
0.5
141
12.0
290
     0
  0
SCALE
  5
1E1
102
{ACAD_REACTORS
330
1C5
102
}
330
1C5
100
AcDbScale
 70
     0
300
3/4" = 1'-0"
140
0.75
141
12.0
290
     0
  0
SCALE
  5
1E2
102
{ACAD_REACTORS
330
1C5
102
}
330
1C5
100
AcDbScale
 70
     0
300
1" = 1'-0"
140
1.0
141
12.0
290
     0
  0
SCALE
  5
1E3
102
{ACAD_REACTORS
330
1C5
102
}
330
1C5
100
AcDbScale
 70
     0
300
1-1/2" = 1'-0"
140
1.5
141
12.0
290
     0
  0
SCALE
  5
1E4
102
{ACAD_REACTORS
330
1C5
102
}
330
1C5
100
AcDbScale
 70
     0
300
3" = 1'-0"
140
3.0
141
12.0
290
     0
  0
SCALE
  5
1E5
102
{ACAD_REACTORS
330
1C5
102
}
330
1C5
100
AcDbScale
 70
     0
300
6" = 1'-0"
140
6.0
141
12.0
290
     0
  0
SCALE
  5
1E6
102
{ACAD_REACTORS
330
1C5
102
}
330
1C5
100
AcDbScale
 70
     0
300
1'-0" = 1'-0"
140
12.0
141
12.0
290
     0
  0
TABLESTYLE
  5
205
102
{ACAD_REACTORS
330
204
102
}
102
{ACAD_XDICTIONARY
360
7ED
102
}
330
204
100
AcDbTableStyle
  3
Standard
 70
     0
 71
     0
 40
0.06
 41
0.06
280
     0
281
     0
  7
Standard
140
4.5
170
     2
 62
     0
 63
   257
283
     0
 90
        4
 91
        0
  1

274
    -2
284
     1
 64
     0
275
    -2
285
     1
 65
     0
276
    -2
286
     1
 66
     0
277
    -2
287
     1
 67
     0
278
    -2
288
     1
 68
     0
279
    -2
289
     1
 69
     0
  7
Standard
140
6.0
170
     5
 62
     0
 63
   257
283
     0
 90
        4
 91
        0
  1

274
    -2
284
     1
 64
     0
275
    -2
285
     1
 65
     0
276
    -2
286
     1
 66
     0
277
    -2
287
     1
 67
     0
278
    -2
288
     1
 68
     0
279
    -2
289
     1
 69
     0
  7
Standard
140
4.5
170
     5
 62
     0
 63
   257
283
     0
 90
        4
 91
        0
  1

274
    -2
284
     1
 64
     0
275
    -2
285
     1
 65
     0
276
    -2
286
     1
 66
     0
277
    -2
287
     1
 67
     0
278
    -2
288
     1
 68
     0
279
    -2
289
     1
 69
     0
  0
VISUALSTYLE
  5
1EC
102
{ACAD_REACTORS
330
1E7
102
}
330
1E7
100
AcDbVisualStyle
  2
2dWireframe
 70
     4
 71
     0
 72
     2
 73
     0
 90
        0
 40
0.6
 41
30.0
 62
     5
 63
     7
421
 16777215
 74
     1
 91
        4
 64
     7
 65
   257
 75
     1
175
     1
 42
1.0
 92
        0
 66
   257
 43
1.0
 76
     1
 77
     6
 78
     2
 67
     7
 79
     5
170
     0
171
     0
290
     0
174
     0
 93
        1
 44
0.0
173
     0
291
     0
 45
0.0
  0
VISUALSTYLE
  5
1EF
102
{ACAD_REACTORS
330
1E7
102
}
330
1E7
100
AcDbVisualStyle
  2
Basic
 70
     7
 71
     1
 72
     0
 73
     1
 90
        0
 40
0.6
 41
30.0
 62
     5
 63
     7
421
 16777215
 74
     0
 91
        4
 64
     7
 65
   257
 75
     1
175
     1
 42
1.0
 92
        8
 66
     7
 43
1.0
 76
     1
 77
     6
 78
     2
 67
     7
 79
     5
170
     0
171
     0
290
     0
174
     0
 93
        1
 44
0.0
173
     0
291
     1
 45
0.0
  0
VISUALSTYLE
  5
1F3
102
{ACAD_REACTORS
330
1E7
102
}
330
1E7
100
AcDbVisualStyle
  2
Brighten
 70
    12
 71
     2
 72
     2
 73
     0
 90
        0
 40
0.6
 41
30.0
 62
     5
 63
     7
421
 16777215
 74
     1
 91
        4
 64
     7
 65
   257
 75
     1
175
     1
 42
1.0
 92
        8
 66
     7
 43
1.0
 76
     1
 77
     6
 78
     2
 67
     7
 79
     5
170
     0
171
     0
290
     0
174
     0
 93
        1
 44
50.0
173
     0
291
     1
 45
0.0
  0
VISUALSTYLE
  5
1F7
102
{ACAD_REACTORS
330
1E7
102
}
330
1E7
100
AcDbVisualStyle
  2
ColorChange
 70
    16
 71
     2
 72
     2
 73
     3
 90
        0
 40
0.6
 41
30.0
 62
     5
 63
     8
421
  8421504
 74
     1
 91
        4
 64
     7
 65
   257
 75
     1
175
     1
 42
1.0
 92
        8
 66
     8
424
  8421504
 43
1.0
 76
     1
 77
     6
 78
     2
 67
     7
 79
     5
170
     0
171
     0
290
     0
174
     0
 93
        1
 44
0.0
173
     0
291
     1
 45
0.0
  0
VISUALSTYLE
  5
1F1
102
{ACAD_REACTORS
330
1E7
102
}
330
1E7
100
AcDbVisualStyle
  2
Conceptual
 70
     9
 71
     3
 72
     2
 73
     0
 90
        0
 40
0.6
 41
30.0
 62
     5
 63
     7
421
 16777215
 74
     2
 91
        2
 64
     7
 65
   257
 75
     1
175
     1
 42
179.0
 92
        8
 66
     7
 43
1.0
 76
     1
 77
     6
 78
     2
 67
     7
 79
     3
170
     0
171
     0
290
     0
174
     0
 93
        1
 44
0.0
173
     0
291
     0
 45
0.0
  0
VISUALSTYLE
  5
1F2
102
{ACAD_REACTORS
330
1E7
102
}
330
1E7
100
AcDbVisualStyle
  2
Dim
 70
    11
 71
     2
 72
     2
 73
     0
 90
        0
 40
0.6
 41
30.0
 62
     5
 63
     7
421
 16777215
 74
     1
 91
        4
 64
     7
 65
   257
 75
     1
175
     1
 42
1.0
 92
        8
 66
     7
 43
1.0
 76
     1
 77
     6
 78
     2
 67
     7
 79
     5
170
     0
171
     0
290
     0
174
     0
 93
        1
 44
-50.0
173
     0
291
     1
 45
0.0
  0
VISUALSTYLE
  5
1FA
102
{ACAD_REACTORS
330
1E7
102
}
330
1E7
100
AcDbVisualStyle
  2
EdgeColorOff
 70
    22
 71
     2
 72
     2
 73
     0
 90
        0
 40
0.6
 41
30.0
 62
     5
 63
     7
421
 16777215
 74
     1
 91
        4
 64
     7
 65
   257
 75
     1
175
     1
 42
1.0
 92
        8
 66
     7
 43
1.0
 76
     1
 77
     6
 78
     2
 67
     7
 79
     5
170
     0
171
     0
290
     0
174
     0
 93
        1
 44
0.0
173
     0
291
     1
 45
0.0
  0
VISUALSTYLE
  5
1F6
102
{ACAD_REACTORS
330
1E7
102
}
330
1E7
100
AcDbVisualStyle
  2
Facepattern
 70
    15
 71
     2
 72
     2
 73
     0
 90
        0
 40
0.6
 41
30.0
 62
     5
 63
     7
421
 16777215
 74
     1
 91
        4
 64
     7
 65
   257
 75
     1
175
     1
 42
1.0
 92
        8
 66
     7
 43
1.0
 76
     1
 77
     6
 78
     2
 67
     7
 79
     5
170
     0
171
     0
290
     0
174
     0
 93
        1
 44
0.0
173
     0
291
     1
 45
0.0
  0
VISUALSTYLE
  5
1E8
102
{ACAD_REACTORS
330
1E7
102
}
330
1E7
100
AcDbVisualStyle
  2
Flat
 70
     0
 71
     2
 72
     1
 73
     1
 90
        2
 40
0.6
 41
30.0
 62
     5
 63
     7
421
 16777215
 74
     0
 91
        0
 64
     7
 65
   257
 75
     1
175
     1
 42
1.0
 92
        8
 66
     7
 43
1.0
 76
     1
 77
     6
 78
     2
 67
     7
 79
     5
170
     0
171
     0
290
     0
174
     0
 93
       13
 44
0.0
173
     0
291
     1
 45
0.0
  0
VISUALSTYLE
  5
1E9
102
{ACAD_REACTORS
330
1E7
102
}
330
1E7
100
AcDbVisualStyle
  2
FlatWithEdges
 70
     1
 71
     2
 72
     1
 73
     1
 90
        2
 40
0.6
 41
30.0
 62
     5
 63
     7
421
 16777215
 74
     1
 91
        0
 64
     7
 65
   257
 75
     1
175
     1
 42
1.0
 92
        0
 66
   257
 43
1.0
 76
     1
 77
     6
 78
     2
 67
     7
 79
     5
170
     0
171
     0
290
     0
174
     0
 93
       13
 44
0.0
173
     0
291
     1
 45
0.0
  0
VISUALSTYLE
  5
1EA
102
{ACAD_REACTORS
330
1E7
102
}
330
1E7
100
AcDbVisualStyle
  2
Gouraud
 70
     2
 71
     2
 72
     2
 73
     1
 90
        2
 40
0.6
 41
30.0
 62
     5
 63
     7
421
 16777215
 74
     0
 91
        0
 64
     7
 65
   257
 75
     1
175
     1
 42
1.0
 92
        0
 66
     7
 43
1.0
 76
     1
 77
     6
 78
     2
 67
     7
 79
     5
170
     0
171
     0
290
     0
174
     0
 93
       13
 44
0.0
173
     0
291
     1
 45
0.0
  0
VISUALSTYLE
  5
1EB
102
{ACAD_REACTORS
330
1E7
102
}
330
1E7
100
AcDbVisualStyle
  2
GouraudWithEdges
 70
     3
 71
     2
 72
     2
 73
     1
 90
        2
 40
0.6
 41
30.0
 62
     5
 63
     7
421
 16777215
 74
     1
 91
        0
 64
     7
 65
   257
 75
     1
175
     1
 42
1.0
 92
        0
 66
   257
 43
1.0
 76
     1
 77
     6
 78
     2
 67
     7
 79
     5
170
     0
171
     0
290
     0
174
     0
 93
       13
 44
0.0
173
     0
291
     1
 45
0.0
  0
VISUALSTYLE
  5
1EE
102
{ACAD_REACTORS
330
1E7
102
}
330
1E7
100
AcDbVisualStyle
  2
Hidden
 70
     6
 71
     1
 72
     2
 73
     2
 90
        0
 40
0.6
 41
30.0
 62
     5
 63
     7
421
 16777215
 74
     2
 91
        2
 64
     7
 65
   257
 75
     2
175
     1
 42
40.0
 92
        0
 66
   257
 43
1.0
 76
     1
 77
     6
 78
     2
 67
     7
 79
     3
170
     0
171
     0
290
     0
174
     0
 93
        1
 44
0.0
173
     0
291
     0
 45
0.0
  0
VISUALSTYLE
  5
1F8
102
{ACAD_REACTORS
330
1E7
102
}
330
1E7
100
AcDbVisualStyle
  2
JitterOff
 70
    20
 71
     2
 72
     2
 73
     0
 90
        0
 40
0.6
 41
30.0
 62
     5
 63
     7
421
 16777215
 74
     1
 91
        4
 64
     7
 65
   257
 75
     1
175
     1
 42
1.0
 92
       10
 66
     7
 43
1.0
 76
     1
 77
     6
 78
     2
 67
     7
 79
     5
170
     0
171
     0
290
     0
174
     0
 93
        1
 44
0.0
173
     0
291
     1
 45
0.0
  0
VISUALSTYLE
  5
1F5
102
{ACAD_REACTORS
330
1E7
102
}
330
1E7
100
AcDbVisualStyle
  2
Linepattern
 70
    14
 71
     2
 72
     2
 73
     0
 90
        0
 40
0.6
 41
30.0
 62
     5
 63
     7
421
 16777215
 74
     1
 91
        4
 64
     7
 65
   257
 75
     7
175
     7
 42
1.0
 92
        8
 66
     7
 43
1.0
 76
     1
 77
     6
 78
     2
 67
     7
 79
     5
170
     0
171
     0
290
     0
174
     0
 93
        1
 44
0.0
173
     0
291
     1
 45
0.0
  0
VISUALSTYLE
  5
1F9
102
{ACAD_REACTORS
330
1E7
102
}
330
1E7
100
AcDbVisualStyle
  2
OverhangOff
 70
    21
 71
     2
 72
     2
 73
     0
 90
        0
 40
0.6
 41
30.0
 62
     5
 63
     7
421
 16777215
 74
     1
 91
        4
 64
     7
 65
   257
 75
     1
175
     1
 42
1.0
 92
        9
 66
     7
 43
1.0
 76
     1
 77
     6
 78
     2
 67
     7
 79
     5
170
     0
171
     0
290
     0
174
     0
 93
        1
 44
0.0
173
     0
291
     1
 45
0.0
  0
VISUALSTYLE
  5
1F0
102
{ACAD_REACTORS
330
1E7
102
}
330
1E7
100
AcDbVisualStyle
  2
Realistic
 70
     8
 71
     2
 72
     3
 73
     0
 90
        2
 40
0.6
 41
30.0
 62
     5
 63
     7
421
 16777215
 74
     0
 91
        0
 64
     7
 65
   257
 75
     1
175
     1
 42
1.0
 92
        8
 66
   257
 43
1.0
 76
     1
 77
     6
 78
     2
 67
     7
 79
     3
170
     0
171
     0
290
     0
174
     0
 93
       13
 44
0.0
173
     0
291
     0
 45
0.0
  0
VISUALSTYLE
  5
1FF
102
{ACAD_REACTORS
330
1E7
102
}
330
1E7
100
AcDbVisualStyle
  2
Shaded
 70
    27
 71
     2
 72
     2
 73
     1
 90
        2
 40
0.6
 41
30.0
 62
     5
 63
     7
421
 16777215
 74
     0
 91
        4
 64
     7
 65
   257
 75
     1
175
     1
 42
1.0
 92
        8
 66
   257
 43
1.0
 76
     1
 77
     6
 78
     2
 67
     8
425
  7895160
 79
     3
170
     0
171
     0
290
     0
174
     0
 93
        5
 44
0.0
173
     0
291
     0
 45
0.0
  0
VISUALSTYLE
  5
1FE
102
{ACAD_REACTORS
330
1E7
102
}
330
1E7
100
AcDbVisualStyle
  2
Shaded with edges
 70
    26
 71
     2
 72
     2
 73
     1
 90
        2
 40
0.6
 41
30.0
 62
     5
 63
     7
421
 16777215
 74
     1
 91
       10
 64
     7
 65
   257
 75
     2
175
     1
 42
1.0
 92
        8
 66
   257
 43
1.0
 76
     1
 77
     6
 78
     2
 67
     7
 79
     3
170
     0
171
     0
290
     0
174
     0
 93
        5
 44
0.0
173
     0
291
     0
 45
0.0
  0
VISUALSTYLE
  5
1FB
102
{ACAD_REACTORS
330
1E7
102
}
330
1E7
100
AcDbVisualStyle
  2
Shades of Gray
 70
    23
 71
     2
 72
     2
 73
     3
 90
        0
 40
0.6
 41
30.0
 62
     5
 63
     7
421
 16777215
 74
     2
 91
        2
 64
     7
 65
     7
 75
     1
175
     1
 42
40.0
 92
        8
 66
     7
 43
1.0
 76
     1
 77
     6
 78
     2
 67
     7
 79
     3
170
     0
171
     0
290
     0
174
     0
 93
        1
 44
0.0
173
     0
291
     0
 45
0.0
  0
VISUALSTYLE
  5
1FC
102
{ACAD_REACTORS
330
1E7
102
}
330
1E7
100
AcDbVisualStyle
  2
Sketchy
 70
    24
 71
     1
 72
     2
 73
     2
 90
        0
 40
0.6
 41
30.0
 62
     5
 63
     7
421
 16777215
 74
     2
 91
        2
 64
     7
 65
     7
 75
     1
175
     1
 42
40.0
 92
       11
 66
     7
 43
1.0
 76
     1
 77
     6
 78
     2
 67
     7
 79
     6
170
     0
171
     0
290
     0
174
     0
 93
        1
 44
0.0
173
     0
291
     0
 45
0.0
  0
VISUALSTYLE
  5
1F4
102
{ACAD_REACTORS
330
1E7
102
}
330
1E7
100
AcDbVisualStyle
  2
Thicken
 70
    13
 71
     2
 72
     2
 73
     0
 90
        0
 40
0.6
 41
30.0
 62
     5
 63
     7
421
 16777215
 74
     1
 91
        4
 64
     7
 65
   257
 75
     1
175
     1
 42
1.0
 92
       12
 66
     7
 43
1.0
 76
     1
 77
     6
 78
     2
 67
     7
 79
     5
170
     0
171
     0
290
     0
174
     0
 93
        1
 44
0.0
173
     0
291
     1
 45
0.0
  0
VISUALSTYLE
  5
1ED
102
{ACAD_REACTORS
330
1E7
102
}
330
1E7
100
AcDbVisualStyle
  2
Wireframe
 70
     5
 71
     0
 72
     2
 73
     0
 90
        0
 40
0.6
 41
30.0
 62
     5
 63
     7
421
 16777215
 74
     1
 91
        4
 64
     7
 65
   257
 75
     1
175
     1
 42
1.0
 92
        0
 66
   257
 43
1.0
 76
     1
 77
     6
 78
     2
 67
     7
 79
     3
170
     0
171
     0
290
     0
174
     0
 93
        1
 44
0.0
173
     0
291
     0
 45
0.0
  0
VISUALSTYLE
  5
1FD
102
{ACAD_REACTORS
330
1E7
102
}
330
1E7
100
AcDbVisualStyle
  2
X-Ray
 70
    25
 71
     2
 72
     2
 73
     1
 90
        1
 40
0.5
 41
30.0
 62
     5
 63
     7
421
 16777215
 74
     1
 91
        0
 64
     7
 65
   257
 75
     1
175
     1
 42
1.0
 92
        8
 66
     7
 43
1.0
 76
     1
 77
     6
 78
     2
 67
     7
 79
     3
170
     0
171
     0
290
     0
174
     0
 93
       13
 44
0.0
173
     0
291
     0
 45
0.0
  0
DICTIONARYVAR
  5
712
102
{ACAD_REACTORS
330
711
102
}
330
711
100
DictionaryVariables
280
     0
  1
1:1
  0
DICTIONARYVAR
  5
714
102
{ACAD_REACTORS
330
711
102
}
330
711
100
DictionaryVariables
280
     0
  1
Standard
  0
DICTIONARYVAR
  5
713
102
{ACAD_REACTORS
330
711
102
}
330
711
100
DictionaryVariables
280
     0
  1
Standard
  0
DICTIONARYVAR
  5
715
102
{ACAD_REACTORS
330
711
102
}
330
711
100
DictionaryVariables
280
     0
  1
0
  0
DICTIONARY
  5
7ED
330
205
100
AcDbDictionary
280
     1
281
     1
  3
ACAD_ROUNDTRIP_2008_TABLESTYLE_CELLSTYLEMAP
360
7EE
  0
CELLSTYLEMAP
  5
7EE
102
{ACAD_REACTORS
330
7ED
102
}
330
7ED
100
AcDbCellStyleMap
 90
        3
300
CELLSTYLE
  1
TABLEFORMAT_BEGIN
 90
        5
170
     1
 91
        0
 92
    32768
 62
   257
 93
        1
300
CONTENTFORMAT
  1
CONTENTFORMAT_BEGIN
 90
        0
 91
        0
 92
        4
 93
        0
300

 40
0.0
140
1.0
 94
        5
 62
     0
340
17
144
6.0
309
CONTENTFORMAT_END
171
     1
301
MARGIN
  1
CELLMARGIN_BEGIN
 40
1.5
 40
1.5
 40
1.5
 40
1.5
 40
1.5
 40
1.5
309
CELLMARGIN_END
 94
        6
 95
        1
302
GRIDFORMAT
  1
GRIDFORMAT_BEGIN
 90
        0
 91
        1
 62
     0
 92
       -2
340
11
 93
        0
 40
0.045
309
GRIDFORMAT_END
 95
        2
302
GRIDFORMAT
  1
GRIDFORMAT_BEGIN
 90
        0
 91
        1
 62
     0
 92
       -2
340
11
 93
        0
 40
0.045
309
GRIDFORMAT_END
 95
        4
302
GRIDFORMAT
  1
GRIDFORMAT_BEGIN
 90
        0
 91
        1
 62
     0
 92
       -2
340
11
 93
        0
 40
0.045
309
GRIDFORMAT_END
 95
        8
302
GRIDFORMAT
  1
GRIDFORMAT_BEGIN
 90
        0
 91
        1
 62
     0
 92
       -2
340
11
 93
        0
 40
0.045
309
GRIDFORMAT_END
 95
       16
302
GRIDFORMAT
  1
GRIDFORMAT_BEGIN
 90
        0
 91
        1
 62
     0
 92
       -2
340
11
 93
        0
 40
0.045
309
GRIDFORMAT_END
 95
       32
302
GRIDFORMAT
  1
GRIDFORMAT_BEGIN
 90
        0
 91
        1
 62
     0
 92
       -2
340
11
 93
        0
 40
0.045
309
GRIDFORMAT_END
309
TABLEFORMAT_END
  1
CELLSTYLE_BEGIN
 90
        1
 91
        1
300
_TITLE
309
CELLSTYLE_END
300
CELLSTYLE
  1
TABLEFORMAT_BEGIN
 90
        5
170
     1
 91
        0
 92
        0
 62
   257
 93
        1
300
CONTENTFORMAT
  1
CONTENTFORMAT_BEGIN
 90
        0
 91
        0
 92
        4
 93
        0
300

 40
0.0
140
1.0
 94
        5
 62
     0
340
17
144
4.5
309
CONTENTFORMAT_END
171
     1
301
MARGIN
  1
CELLMARGIN_BEGIN
 40
1.5
 40
1.5
 40
1.5
 40
1.5
 40
1.5
 40
1.5
309
CELLMARGIN_END
 94
        6
 95
        1
302
GRIDFORMAT
  1
GRIDFORMAT_BEGIN
 90
        0
 91
        1
 62
     0
 92
       -2
340
11
 93
        0
 40
0.045
309
GRIDFORMAT_END
 95
        2
302
GRIDFORMAT
  1
GRIDFORMAT_BEGIN
 90
        0
 91
        1
 62
     0
 92
       -2
340
11
 93
        0
 40
0.045
309
GRIDFORMAT_END
 95
        4
302
GRIDFORMAT
  1
GRIDFORMAT_BEGIN
 90
        0
 91
        1
 62
     0
 92
       -2
340
11
 93
        0
 40
0.045
309
GRIDFORMAT_END
 95
        8
302
GRIDFORMAT
  1
GRIDFORMAT_BEGIN
 90
        0
 91
        1
 62
     0
 92
       -2
340
11
 93
        0
 40
0.045
309
GRIDFORMAT_END
 95
       16
302
GRIDFORMAT
  1
GRIDFORMAT_BEGIN
 90
        0
 91
        1
 62
     0
 92
       -2
340
11
 93
        0
 40
0.045
309
GRIDFORMAT_END
 95
       32
302
GRIDFORMAT
  1
GRIDFORMAT_BEGIN
 90
        0
 91
        1
 62
     0
 92
       -2
340
11
 93
        0
 40
0.045
309
GRIDFORMAT_END
309
TABLEFORMAT_END
  1
CELLSTYLE_BEGIN
 90
        2
 91
        1
300
_HEADER
309
CELLSTYLE_END
300
CELLSTYLE
  1
TABLEFORMAT_BEGIN
 90
        5
170
     1
 91
        0
 92
        0
 62
   257
 93
        1
300
CONTENTFORMAT
  1
CONTENTFORMAT_BEGIN
 90
        0
 91
        0
 92
        4
 93
        0
300

 40
0.0
140
1.0
 94
        2
 62
     0
340
17
144
4.5
309
CONTENTFORMAT_END
171
     1
301
MARGIN
  1
CELLMARGIN_BEGIN
 40
1.5
 40
1.5
 40
1.5
 40
1.5
 40
1.5
 40
1.5
309
CELLMARGIN_END
 94
        6
 95
        1
302
GRIDFORMAT
  1
GRIDFORMAT_BEGIN
 90
        0
 91
        1
 62
     0
 92
       -2
340
11
 93
        0
 40
0.045
309
GRIDFORMAT_END
 95
        2
302
GRIDFORMAT
  1
GRIDFORMAT_BEGIN
 90
        0
 91
        1
 62
     0
 92
       -2
340
11
 93
        0
 40
0.045
309
GRIDFORMAT_END
 95
        4
302
GRIDFORMAT
  1
GRIDFORMAT_BEGIN
 90
        0
 91
        1
 62
     0
 92
       -2
340
11
 93
        0
 40
0.045
309
GRIDFORMAT_END
 95
        8
302
GRIDFORMAT
  1
GRIDFORMAT_BEGIN
 90
        0
 91
        1
 62
     0
 92
       -2
340
11
 93
        0
 40
0.045
309
GRIDFORMAT_END
 95
       16
302
GRIDFORMAT
  1
GRIDFORMAT_BEGIN
 90
        0
 91
        1
 62
     0
 92
       -2
340
11
 93
        0
 40
0.045
309
GRIDFORMAT_END
 95
       32
302
GRIDFORMAT
  1
GRIDFORMAT_BEGIN
 90
        0
 91
        1
 62
     0
 92
       -2
340
11
 93
        0
 40
0.045
309
GRIDFORMAT_END
309
TABLEFORMAT_END
  1
CELLSTYLE_BEGIN
 90
        3
 91
        2
300
_DATA
309
CELLSTYLE_END
  0
ENDSEC
  0
EOF
