  0
SECTION
  2
HEADER
  9
$ACADVER
  1
AC1021
  9
$ACADMAINTVER
 70
    25
  9
$DWGCODEPAGE
  3
ANSI_932
  9
$LASTSAVEDBY
  1
Shimosaki
  9
$INSBASE
 10
0.0
 20
0.0
 30
0.0
  9
$EXTMIN
 10
-559.1601058244232
 20
-1173.354525181857
 30
0.0
  9
$EXTMAX
 10
4984.588765759614
 20
1660.0
 30
0.0
  9
$LIMMIN
 10
0.0
 20
0.0
  9
$LIMMAX
 10
0.0
 20
0.0
  9
$ORTHOMODE
 70
     0
  9
$REGENMODE
 70
     1
  9
$FILLMODE
 70
     1
  9
$QTEXTMODE
 70
     0
  9
$MIRRTEXT
 70
     1
  9
$LTSCALE
 40
50.8
  9
$ATTMODE
 70
     1
  9
$TEXTSIZE
 40
0.0
  9
$TRACEWID
 40
1.0
  9
$TEXTSTYLE
  7
Standard
  9
$CLAYER
  8
ADF70-0111
  9
$CELTYPE
  6
Continuous
  9
$CECOLOR
 62
   256
  9
$CELTSCALE
 40
1.0
  9
$DISPSILH
 70
     0
  9
$DIMSCALE
 40
1.0
  9
$DIMASZ
 40
31.75
  9
$DIMEXO
 40
0.0
  9
$DIMDLI
 40
6.99999999999994
  9
$DIMRND
 40
0.0
  9
$DIMDLE
 40
0.0
  9
$DIMEXE
 40
19.9999999999962
  9
$DIMTP
 40
0.0
  9
$DIMTM
 40
0.0
  9
$DIMTXT
 40
24.4326171875
  9
$DIMCEN
 40
0.0
  9
$DIMTSZ
 40
0.0
  9
$DIMTOL
 70
     0
  9
$DIMLIM
 70
     0
  9
$DIMTIH
 70
     0
  9
$DIMTOH
 70
     0
  9
$DIMSE1
 70
     0
  9
$DIMSE2
 70
     0
  9
$DIMTAD
 70
     1
  9
$DIMZIN
 70
    11
  9
$DIMBLK
  1
VW_FILLEDARROW
  9
$DIMASO
 70
     1
  9
$DIMSHO
 70
     1
  9
$DIMPOST
  1
<>
  9
$DIMAPOST
  1
[]
  9
$DIMALT
 70
     0
  9
$DIMALTD
 70
     1
  9
$DIMALTF
 40
1.0
  9
$DIMLFAC
 40
1.0
  9
$DIMTOFL
 70
     0
  9
$DIMTVP
 40
0.0
  9
$DIMTIX
 70
     1
  9
$DIMSOXD
 70
     0
  9
$DIMSAH
 70
     0
  9
$DIMBLK1
  1

  9
$DIMBLK2
  1

  9
$DIMSTYLE
  2
JIS
  9
$DIMCLRD
 70
     0
  9
$DIMCLRE
 70
     0
  9
$DIMCLRT
 70
     0
  9
$DIMTFAC
 40
1.0
  9
$DIMGAP
 40
1.00000000000108
  9
$DIMJUST
 70
     0
  9
$DIMSD1
 70
     0
  9
$DIMSD2
 70
     0
  9
$DIMTOLJ
 70
     1
  9
$DIMTZIN
 70
    11
  9
$DIMALTZ
 70
    11
  9
$DIMALTTZ
 70
    11
  9
$DIMUPT
 70
     0
  9
$DIMDEC
 70
     1
  9
$DIMTDEC
 70
     1
  9
$DIMALTU
 70
     2
  9
$DIMALTTD
 70
     2
  9
$DIMTXSTY
  7
ＭＳ ゴシック
  9
$DIMAUNIT
 70
     0
  9
$DIMADEC
 70
     2
  9
$DIMALTRND
 40
0.0
  9
$DIMAZIN
 70
     0
  9
$DIMDSEP
 70
    46
  9
$DIMATFIT
 70
     0
  9
$DIMFRAC
 70
     2
  9
$DIMLDRBLK
  1

  9
$DIMLUNIT
 70
     2
  9
$DIMLWD
 70
    -2
  9
$DIMLWE
 70
    -2
  9
$DIMTMOVE
 70
     0
  9
$DIMFXL
 40
1.0
  9
$DIMFXLON
 70
     0
  9
$DIMJOGANG
 40
0.7853981633974483
  9
$DIMTFILL
 70
     0
  9
$DIMTFILLCLR
 70
     0
  9
$DIMARCSYM
 70
     0
  9
$DIMLTYPE
  6

  9
$DIMLTEX1
  6

  9
$DIMLTEX2
  6

  9
$LUNITS
 70
     2
  9
$LUPREC
 70
     4
  9
$SKETCHINC
 40
0.1
  9
$FILLETRAD
 40
0.0
  9
$AUNITS
 70
     0
  9
$AUPREC
 70
     0
  9
$MENU
  1
acad
  9
$ELEVATION
 40
0.0
  9
$PELEVATION
 40
0.0
  9
$THICKNESS
 40
0.0
  9
$LIMCHECK
 70
     0
  9
$CHAMFERA
 40
0.0
  9
$CHAMFERB
 40
0.0
  9
$CHAMFERC
 40
0.0
  9
$CHAMFERD
 40
0.0
  9
$SKPOLY
 70
     0
  9
$TDCREATE
 40
2447893.375
  9
$TDUCREATE
 40
0.0
  9
$TDUPDATE
 40
2457036.706580521
  9
$TDUUPDATE
 40
2457036.331580521
  9
$TDINDWG
 40
0.0429911111
  9
$TDUSRTIMER
 40
2457036.32815478
  9
$USRTIMER
 70
     1
  9
$ANGBASE
 50
0.0
  9
$ANGDIR
 70
     0
  9
$PDMODE
 70
     1
  9
$PDSIZE
 40
-2.0
  9
$PLINEWID
 40
0.0
  9
$SPLFRAME
 70
     0
  9
$SPLINETYPE
 70
     6
  9
$SPLINESEGS
 70
     8
  9
$HANDSEED
  5
30F
  9
$SURFTAB1
 70
     6
  9
$SURFTAB2
 70
     6
  9
$SURFTYPE
 70
     6
  9
$SURFU
 70
     6
  9
$SURFV
 70
     6
  9
$UCSBASE
  2

  9
$UCSNAME
  2

  9
$UCSORG
 10
0.0
 20
0.0
 30
0.0
  9
$UCSXDIR
 10
1.0
 20
0.0
 30
0.0
  9
$UCSYDIR
 10
0.0
 20
1.0
 30
0.0
  9
$UCSORTHOREF
  2

  9
$UCSORTHOVIEW
 70
     0
  9
$UCSORGTOP
 10
0.0
 20
0.0
 30
0.0
  9
$UCSORGBOTTOM
 10
0.0
 20
0.0
 30
0.0
  9
$UCSORGLEFT
 10
0.0
 20
0.0
 30
0.0
  9
$UCSORGRIGHT
 10
0.0
 20
0.0
 30
0.0
  9
$UCSORGFRONT
 10
0.0
 20
0.0
 30
0.0
  9
$UCSORGBACK
 10
0.0
 20
0.0
 30
0.0
  9
$PUCSBASE
  2

  9
$PUCSNAME
  2

  9
$PUCSORG
 10
0.0
 20
0.0
 30
0.0
  9
$PUCSXDIR
 10
1.0
 20
0.0
 30
0.0
  9
$PUCSYDIR
 10
0.0
 20
1.0
 30
0.0
  9
$PUCSORTHOREF
  2

  9
$PUCSORTHOVIEW
 70
     0
  9
$PUCSORGTOP
 10
0.0
 20
0.0
 30
0.0
  9
$PUCSORGBOTTOM
 10
0.0
 20
0.0
 30
0.0
  9
$PUCSORGLEFT
 10
0.0
 20
0.0
 30
0.0
  9
$PUCSORGRIGHT
 10
0.0
 20
0.0
 30
0.0
  9
$PUCSORGFRONT
 10
0.0
 20
0.0
 30
0.0
  9
$PUCSORGBACK
 10
0.0
 20
0.0
 30
0.0
  9
$USERI1
 70
     0
  9
$USERI2
 70
     0
  9
$USERI3
 70
     0
  9
$USERI4
 70
     0
  9
$USERI5
 70
     0
  9
$USERR1
 40
0.0
  9
$USERR2
 40
0.0
  9
$USERR3
 40
0.0
  9
$USERR4
 40
0.0
  9
$USERR5
 40
0.0
  9
$WORLDVIEW
 70
     1
  9
$SHADEDGE
 70
     3
  9
$SHADEDIF
 70
    70
  9
$TILEMODE
 70
     1
  9
$MAXACTVP
 70
    64
  9
$PINSBASE
 10
0.0
 20
0.0
 30
0.0
  9
$PLIMCHECK
 70
     0
  9
$PEXTMIN
 10
1.000000000000000E+20
 20
1.000000000000000E+20
 30
1.000000000000000E+20
  9
$PEXTMAX
 10
-1.000000000000000E+20
 20
-1.000000000000000E+20
 30
-1.000000000000000E+20
  9
$PLIMMIN
 10
0.0
 20
0.0
  9
$PLIMMAX
 10
0.0
 20
0.0
  9
$UNITMODE
 70
     0
  9
$VISRETAIN
 70
     0
  9
$PLINEGEN
 70
     1
  9
$PSLTSCALE
 70
     0
  9
$TREEDEPTH
 70
  3020
  9
$CMLSTYLE
  2
Standard
  9
$CMLJUST
 70
     0
  9
$CMLSCALE
 40
1.0
  9
$PROXYGRAPHICS
 70
     0
  9
$MEASUREMENT
 70
     1
  9
$CELWEIGHT
370
     0
  9
$ENDCAPS
280
     0
  9
$JOINSTYLE
280
     0
  9
$LWDISPLAY
290
     1
  9
$INSUNITS
 70
     4
  9
$HYPERLINKBASE
  1

  9
$STYLESHEET
  1

  9
$XEDIT
290
     1
  9
$CEPSNTYPE
380
     0
  9
$PSTYLEMODE
290
     1
  9
$FINGERPRINTGUID
  2

  9
$VERSIONGUID
  2

  9
$EXTNAMES
290
     1
  9
$PSVPSCALE
 40
0.0
  9
$OLESTARTUP
290
     0
  9
$SORTENTS
280
   127
  9
$INDEXCTL
280
     0
  9
$HIDETEXT
280
     1
  9
$XCLIPFRAME
290
     0
  9
$HALOGAP
280
     0
  9
$OBSCOLOR
 70
   257
  9
$OBSLTYPE
280
     0
  9
$INTERSECTIONDISPLAY
280
     0
  9
$INTERSECTIONCOLOR
 70
   257
  9
$DIMASSOC
280
     2
  9
$PROJECTNAME
  1

  9
$CAMERADISPLAY
290
     0
  9
$LENSLENGTH
 40
50.0
  9
$CAMERAHEIGHT
 40
0.0
  9
$STEPSPERSEC
 40
2.0
  9
$STEPSIZE
 40
6.0
  9
$3DDWFPREC
 40
2.0
  9
$PSOLWIDTH
 40
0.25
  9
$PSOLHEIGHT
 40
4.0
  9
$LOFTANG1
 40
1.570796326794897
  9
$LOFTANG2
 40
1.570796326794897
  9
$LOFTMAG1
 40
0.0
  9
$LOFTMAG2
 40
0.0
  9
$LOFTPARAM
 70
     7
  9
$LOFTNORMALS
280
     1
  9
$LATITUDE
 40
37.795
  9
$LONGITUDE
 40
-122.394
  9
$NORTHDIRECTION
 40
0.0
  9
$TIMEZONE
 70
 -8000
  9
$LIGHTGLYPHDISPLAY
280
     1
  9
$TILEMODELIGHTSYNCH
280
     1
  9
$SOLIDHIST
280
     1
  9
$SHOWHIST
280
     1
  9
$DWFFRAME
280
     2
  9
$DGNFRAME
280
     2
  9
$REALWORLDSCALE
290
     1
  9
$INTERFERECOLOR
 62
   256
  9
$CSHADOW
280
     0
  9
$SHADOWPLANELOCATION
 40
0.0
  0
ENDSEC
  0
SECTION
  2
CLASSES
  0
CLASS
  1
LWPOLYLINE
  2
AcDbPolyline
  3
ObjectDBX Classes
 90
        0
 91
        1
280
     0
281
     1
  0
CLASS
  1
IMAGE
  2
AcDbRasterImage
  3
ISM
 90
      127
 91
        6
280
     0
281
     1
  0
CLASS
  1
OLE2FRAME
  2
AcDbOle2Frame
  3
ObjectDBX Classes
 90
        0
 91
        1
280
     0
281
     1
  0
CLASS
  1
HATCH
  2
AcDbHatch
  3
ObjectDBX Classes
 90
        0
 91
        1
280
     0
281
     1
  0
CLASS
  1
DICTIONARYVAR
  2
AcDbDictionaryVar
  3
ObjectDBX Classes
 90
        0
 91
        5
280
     0
281
     0
  0
CLASS
  1
RASTERVARIABLES
  2
AcDbRasterVariables
  3
ISM
 90
        0
 91
        7
280
     0
281
     0
  0
CLASS
  1
IMAGEDEF
  2
AcDbRasterImageDef
  3
ISM
 90
        0
 91
        5
280
     0
281
     0
  0
CLASS
  1
IMAGEDEF_REACTOR
  2
AcDbRasterImageDefReactor
  3
ISM
 90
        1
 91
        5
280
     0
281
     0
  0
CLASS
  1
IDBUFFER
  2
AcDbIdBuffer
  3
ObjectDBX Classes
 90
        0
 91
        4
280
     0
281
     0
  0
CLASS
  1
SPATIAL_FILTER
  2
AcDbSpatialFilter
  3
ObjectDBX Classes
 90
        0
 91
        4
280
     0
281
     0
  0
CLASS
  1
XRECORD
  2
AcDbXrecord
  3
ObjectDBX Classes
 90
        0
 91
        1
280
     0
281
     0
  0
CLASS
  1
SORTENTSTABLE
  2
AcDbSortentsTable
  3
ObjectDBX Classes
 90
        0
 91
        5
280
     0
281
     0
  0
CLASS
  1
LAYER_INDEX
  2
AcDbLayerIndex
  3
ObjectDBX Classes
 90
        0
 91
        4
280
     0
281
     0
  0
CLASS
  1
SPATIAL_INDEX
  2
AcDbSpatialIndex
  3
AutoCAD 2000
 90
        0
 91
        4
280
     0
281
     0
  0
CLASS
  1
OBJECT_PTR
  2
CAseDLPNTableRecord
  3
ASE-LPNTableRecord
 90
        1
 91
        4
280
     0
281
     0
  0
CLASS
  1
LAYOUT
  2
AcDbLayout
  3
ObjectDBX Classes
 90
        0
 91
        1
280
     0
281
     0
  0
CLASS
  1
PLOTSETTINGS
  2
AcDbPlotSettings
  3
ObjectDBX Classes
 90
        0
 91
        4
280
     0
281
     0
  0
CLASS
  1
ACDBDICTIONARYWDFLT
  2
AcDbDictionaryWithDefault
  3
ObjectDBX Classes
 90
        0
 91
        7
280
     0
281
     0
  0
CLASS
  1
ACDBPLACEHOLDER
  2
AcDbPlaceHolder
  3
ObjectDBX Classes
 90
        0
 91
        1
280
     0
281
     0
  0
CLASS
  1
SCALE
  2
AcDbScale
  3
ObjectDBX Classes
 90
     1153
 91
        7
280
     0
281
     0
  0
CLASS
  1
VISUALSTYLE
  2
AcDbVisualStyle
  3
ObjectDBX Classes
 90
     4095
 91
        7
280
     0
281
     0
  0
CLASS
  1
MATERIAL
  2
AcDbMaterial
  3
ObjectDBX Classes
 90
     1153
 91
        7
280
     0
281
     0
  0
CLASS
  1
TABLESTYLE
  2
AcDbTableStyle
  3
ObjectDBX Classes
 90
     4095
 91
        7
280
     0
281
     0
  0
CLASS
  1
SUN
  2
AcDbSun
  3
SCENEOE
 90
     1153
 91
        7
280
     0
281
     0
  0
CLASS
  1
CELLSTYLEMAP
  2
AcDbCellStyleMap
  3
ObjectDBX Classes
 90
     1152
 91
        5
280
     0
281
     0
  0
ENDSEC
  0
SECTION
  2
TABLES
  0
TABLE
  2
VPORT
  5
7
330
0
100
AcDbSymbolTable
 70
     1
  0
VPORT
  5
15
330
7
100
AcDbSymbolTableRecord
100
AcDbViewportTableRecord
  2
*ACTIVE
 70
     0
 10
0.0
 20
0.0
 11
1.0
 21
1.0
 12
2103.933751904607
 22
-244.0507037934642
 13
0.0
 23
0.0
 14
1.0
 24
1.0
 15
0.0
 25
0.0
 16
0.0
 26
0.0
 36
1.0
 17
0.0
 27
0.0
 37
0.0
 40
5491.441106526774
 41
1.60893098782138
 42
50.0
 43
0.0
 44
0.0
 50
0.0
 51
0.0
 71
    16
 72
  2000
 73
     1
 74
     1
 75
     0
 76
     0
 77
     0
 78
     0
281
     0
 65
     0
110
0.0
120
0.0
130
0.0
111
1.0
121
0.0
131
0.0
112
0.0
122
1.0
132
0.0
 79
     0
146
0.0
348
147
 60
     3
 61
     5
292
     1
282
     1
141
0.0
142
0.0
 63
   250
361
162
  0
ENDTAB
  0
TABLE
  2
LTYPE
  5
4
330
0
100
AcDbSymbolTable
 70
    16
  0
LTYPE
  5
11
330
4
100
AcDbSymbolTableRecord
100
AcDbLinetypeTableRecord
  2
ByBlock
 70
     0
  3

 72
    65
 73
     0
 40
0.0
  0
LTYPE
  5
12
330
4
100
AcDbSymbolTableRecord
100
AcDbLinetypeTableRecord
  2
ByLayer
 70
     0
  3

 72
    65
 73
     0
 40
0.0
  0
LTYPE
  5
13
330
4
100
AcDbSymbolTableRecord
100
AcDbLinetypeTableRecord
  2
Continuous
 70
     0
  3
Solid line
 72
    65
 73
     0
 40
0.0
  0
LTYPE
  5
2E
330
4
100
AcDbSymbolTableRecord
100
AcDbLinetypeTableRecord
  2
STYLE_01
 70
     0
  3

 72
    65
 73
     2
 40
0.516732283464567
 49
0.344488188976378
 74
     0
 49
-0.172244094488189
 74
     0
  0
LTYPE
  5
2F
330
4
100
AcDbSymbolTableRecord
100
AcDbLinetypeTableRecord
  2
STYLE_02
 70
     0
  3

 72
    65
 73
     2
 40
0.6944250000000001
 49
0.48607
 74
     0
 49
-0.2083550000000001
 74
     0
  0
LTYPE
  5
30
330
4
100
AcDbSymbolTableRecord
100
AcDbLinetypeTableRecord
  2
STYLE_03
 70
     0
  3

 72
    65
 73
     2
 40
1.25
 49
1.04164
 74
     0
 49
-0.2083599999999999
 74
     0
  0
LTYPE
  5
31
330
4
100
AcDbSymbolTableRecord
100
AcDbLinetypeTableRecord
  2
STYLE_04
 70
     0
  3

 72
    65
 73
     2
 40
1.52771
 49
1.319425
 74
     0
 49
-0.208285
 74
     0
  0
LTYPE
  5
32
330
4
100
AcDbSymbolTableRecord
100
AcDbLinetypeTableRecord
  2
STYLE_05
 70
     0
  3

 72
    65
 73
     2
 40
0.20828
 49
0.069425
 74
     0
 49
-0.138855
 74
     0
  0
LTYPE
  5
33
330
4
100
AcDbSymbolTableRecord
100
AcDbLinetypeTableRecord
  2
STYLE_06
 70
     0
  3

 72
    65
 73
     4
 40
1.04164
 49
0.625
 74
     0
 49
-0.20828
 74
     0
 49
0.06943
 74
     0
 49
-0.13893
 74
     0
  0
LTYPE
  5
34
330
4
100
AcDbSymbolTableRecord
100
AcDbLinetypeTableRecord
  2
STYLE_07
 70
     0
  3

 72
    65
 73
     6
 40
1.875
 49
0.625
 74
     0
 49
-0.20828
 74
     0
 49
0.6250000000000001
 74
     0
 49
-0.2083599999999999
 74
     0
 49
0.06943
 74
     0
 49
-0.1389299999999999
 74
     0
  0
LTYPE
  5
35
330
4
100
AcDbSymbolTableRecord
100
AcDbLinetypeTableRecord
  2
STYLE_08
 70
     0
  3

 72
    65
 73
     6
 40
1.25
 49
0.625
 74
     0
 49
-0.20828
 74
     0
 49
0.06943
 74
     0
 49
-0.13893
 74
     0
 49
0.0694299999999999
 74
     0
 49
-0.13893
 74
     0
  0
LTYPE
  5
36
330
4
100
AcDbSymbolTableRecord
100
AcDbLinetypeTableRecord
  2
STYLE_09
 70
     0
  3

 72
    65
 73
     4
 40
5.0
 49
3.75
 74
     0
 49
-0.2777849999999998
 74
     0
 49
0.6944300000000003
 74
     0
 49
-0.2777849999999998
 74
     0
  0
LTYPE
  5
37
330
4
100
AcDbSymbolTableRecord
100
AcDbLinetypeTableRecord
  2
STYLE_10
 70
     0
  3

 72
    65
 73
     6
 40
5.9375
 49
3.75
 74
     0
 49
-0.2777849999999998
 74
     0
 49
0.6944300000000003
 74
     0
 49
-0.2777849999999998
 74
     0
 49
0.625
 74
     0
 49
-0.3125
 74
     0
  0
LTYPE
  5
38
330
4
100
AcDbSymbolTableRecord
100
AcDbLinetypeTableRecord
  2
STYLE_11
 70
     0
  3

 72
    65
 73
     2
 40
0.0694444881889764
 49
0.0347222440944882
 74
     0
 49
-0.0347222440944882
 74
     0
  0
LTYPE
  5
39
330
4
100
AcDbSymbolTableRecord
100
AcDbLinetypeTableRecord
  2
STYLE_12
 70
     0
  3

 72
    65
 73
     2
 40
0.1875
 49
0.125
 74
     0
 49
-0.0625
 74
     0
  0
LTYPE
  5
3A
330
4
100
AcDbSymbolTableRecord
100
AcDbLinetypeTableRecord
  2
STYLE_13
 70
     0
  3

 72
    65
 73
     2
 40
1.041666666666667
 49
0.6944444444444444
 74
     0
 49
-0.3472222222222222
 74
     0
  0
LTYPE
  5
3B
330
4
100
AcDbSymbolTableRecord
100
AcDbLinetypeTableRecord
  2
STYLE_14
 70
     0
  3

 72
    65
 73
     2
 40
0.6944444444444444
 49
0.3472222222222222
 74
     0
 49
-0.3472222222222222
 74
     0
  0
LTYPE
  5
166
330
4
100
AcDbSymbolTableRecord
100
AcDbLinetypeTableRecord
  2
HIDDEN2
 70
     0
  3
Hidden (.5x) _ _ _ _ _ _ _ _ _ _ _ _ _ _ _ _ _
 72
    65
 73
     2
 40
0.1875
 49
0.125
 74
     0
 49
-0.0625
 74
     0
  0
ENDTAB
  0
TABLE
  2
LAYER
  5
2
330
0
100
AcDbSymbolTable
 70
     6
  0
LAYER
  5
14
330
2
100
AcDbSymbolTableRecord
100
AcDbLayerTableRecord
  2
0
 70
     0
 62
     7
  6
Continuous
370
    -3
390
1D
347
15E
  0
LAYER
  5
3C
330
2
100
AcDbSymbolTableRecord
100
AcDbLayerTableRecord
  2
Defpoints
 70
     0
 62
     7
  6
Continuous
290
     0
370
    -3
390
1D
347
15E
  0
LAYER
  5
3D
330
2
100
AcDbSymbolTableRecord
100
AcDbLayerTableRecord
  2
template
 70
     0
 62
     7
  6
Continuous
370
    -3
390
1D
347
15E
  0
LAYER
  5
3E
330
2
100
AcDbSymbolTableRecord
100
AcDbLayerTableRecord
  2
notes
 70
     0
 62
     7
  6
Continuous
370
    -3
390
1D
347
15E
  0
LAYER
  5
3F
330
2
100
AcDbSymbolTableRecord
100
AcDbLayerTableRecord
  2
ADF70-0111
 70
     0
 62
     7
  6
Continuous
370
    -3
390
1D
347
15E
  0
LAYER
  5
20D
330
2
100
AcDbSymbolTableRecord
100
AcDbLayerTableRecord
  2
Retino
 70
     0
 62
   253
  6
Continuous
370
    40
390
1D
347
15E
1001
AcAecLayerStandard
1000

1000

  0
ENDTAB
  0
TABLE
  2
STYLE
  5
3
330
0
100
AcDbSymbolTable
 70
     2
  0
STYLE
  5
17
330
3
100
AcDbSymbolTableRecord
100
AcDbTextStyleTableRecord
  2
Standard
 70
     0
 40
0.0
 41
1.0
 50
0.0
 71
     0
 42
0.0
  3
txt
  4
BIGFONT.SHX
  0
STYLE
  5
2D
330
3
100
AcDbSymbolTableRecord
100
AcDbTextStyleTableRecord
  2
ＭＳ ゴシック
 70
     0
 40
0.0
 41
1.0
 50
0.0
 71
     0
 42
0.0
  3
msgothic.ttc
  4
ＭＳ ゴシック
1001
ACAD
1000
ＭＳ ゴシック
1071
        0
  0
ENDTAB
  0
TABLE
  2
VIEW
  5
5
330
0
100
AcDbSymbolTable
 70
     0
  0
ENDTAB
  0
TABLE
  2
UCS
  5
6
330
0
100
AcDbSymbolTable
 70
     0
  0
ENDTAB
  0
TABLE
  2
APPID
  5
8
330
0
100
AcDbSymbolTable
 70
     6
  0
APPID
  5
16
330
8
100
AcDbSymbolTableRecord
100
AcDbRegAppTableRecord
  2
ACAD
 70
     0
  0
APPID
  5
16C
330
8
100
AcDbSymbolTableRecord
100
AcDbRegAppTableRecord
  2
ACAD_DSTYLE_DIMBREAK
 70
     0
  0
APPID
  5
16D
330
8
100
AcDbSymbolTableRecord
100
AcDbRegAppTableRecord
  2
ACAD_DSTYLE_DIMJAG
 70
     0
  0
APPID
  5
16E
330
8
100
AcDbSymbolTableRecord
100
AcDbRegAppTableRecord
  2
ACAD_DSTYLE_DIMTALN
 70
     0
  0
APPID
  5
16F
330
8
100
AcDbSymbolTableRecord
100
AcDbRegAppTableRecord
  2
ACAD_PSEXT
 70
     0
  0
APPID
  5
20F
330
8
100
AcDbSymbolTableRecord
100
AcDbRegAppTableRecord
  2
AcAecLayerStandard
 70
     0
  0
ENDTAB
  0
TABLE
  2
DIMSTYLE
  5
9
330
0
100
AcDbSymbolTable
 70
     3
100
AcDbDimStyleTable
  0
DIMSTYLE
105
18
330
9
100
AcDbSymbolTableRecord
100
AcDbDimStyleTableRecord
  2
Standard
 70
     0
178
     0
340
17
  0
DIMSTYLE
105
48
330
9
100
AcDbSymbolTableRecord
100
AcDbDimStyleTableRecord
  2
tfrom線あり
 70
     0
  3
<>
  4
[]
 41
3.999755859375
 42
25.0
 43
0.9999999999999999
 44
0.0
 73
     0
 74
     0
 77
     1
 78
    11
140
24.4326171875
141
0.0
143
1.0
147
0.4999999999999999
171
     1
174
     1
178
     0
179
     2
271
     1
272
     1
276
     2
284
    11
285
    11
286
    11
289
     0
340
2D
341
40
342
40
  0
DIMSTYLE
105
4D
330
9
100
AcDbSymbolTableRecord
100
AcDbDimStyleTableRecord
  2
JIS
 70
     0
  3
<>
  4
[]
 41
31.75
 42
0.0
 43
6.99999999999994
 44
19.9999999999962
 73
     0
 74
     0
 77
     1
 78
    11
140
24.4326171875
141
0.0
143
1.0
147
1.00000000000108
171
     1
174
     1
178
     0
179
     2
271
     1
272
     1
276
     2
284
    11
285
    11
286
    11
289
     0
340
2D
341
49
342
49
  0
ENDTAB
  0
TABLE
  2
BLOCK_RECORD
  5
1
330
0
100
AcDbSymbolTable
 70
    14
  0
BLOCK_RECORD
  5
A
330
1
100
AcDbSymbolTableRecord
100
AcDbBlockTableRecord
  2
*MODEL_SPACE
340
20
 70
     0
280
     1
281
     0
  0
BLOCK_RECORD
  5
B
330
1
100
AcDbSymbolTableRecord
100
AcDbBlockTableRecord
  2
*PAPER_SPACE
340
21
 70
     0
280
     1
281
     0
  0
BLOCK_RECORD
  5
40
330
1
100
AcDbSymbolTableRecord
100
AcDbBlockTableRecord
  2
_DOT
340
0
 70
     0
280
     1
281
     0
  0
BLOCK_RECORD
  5
49
330
1
100
AcDbSymbolTableRecord
100
AcDbBlockTableRecord
  2
VW_FILLEDARROW
340
0
 70
     0
280
     1
281
     0
  0
BLOCK_RECORD
  5
23
330
1
100
AcDbSymbolTableRecord
100
AcDbBlockTableRecord
  2
グループ
340
0
102
{BLKREFS
331
D1
102
}
 70
     0
280
     1
281
     0
  0
BLOCK_RECORD
  5
24
330
1
100
AcDbSymbolTableRecord
100
AcDbBlockTableRecord
  2
*D3
340
0
 70
     0
280
     1
281
     0
  0
BLOCK_RECORD
  5
25
330
1
100
AcDbSymbolTableRecord
100
AcDbBlockTableRecord
  2
*D4
340
0
 70
     0
280
     1
281
     0
  0
BLOCK_RECORD
  5
26
330
1
100
AcDbSymbolTableRecord
100
AcDbBlockTableRecord
  2
*D5
340
0
 70
     0
280
     1
281
     0
  0
BLOCK_RECORD
  5
27
330
1
100
AcDbSymbolTableRecord
100
AcDbBlockTableRecord
  2
*D6
340
0
 70
     0
280
     1
281
     0
  0
BLOCK_RECORD
  5
28
330
1
100
AcDbSymbolTableRecord
100
AcDbBlockTableRecord
  2
*D7
340
0
 70
     0
280
     1
281
     0
  0
BLOCK_RECORD
  5
29
330
1
100
AcDbSymbolTableRecord
100
AcDbBlockTableRecord
  2
*D8
340
0
 70
     0
280
     1
281
     0
  0
BLOCK_RECORD
  5
2A
330
1
100
AcDbSymbolTableRecord
100
AcDbBlockTableRecord
  2
*D9
340
0
 70
     0
280
     1
281
     0
  0
BLOCK_RECORD
  5
2B
330
1
100
AcDbSymbolTableRecord
100
AcDbBlockTableRecord
  2
*D10
340
0
 70
     0
280
     1
281
     0
  0
BLOCK_RECORD
  5
2C
330
1
100
AcDbSymbolTableRecord
100
AcDbBlockTableRecord
  2
*D11
340
0
 70
     0
280
     1
281
     0
  0
BLOCK_RECORD
  5
169
330
1
100
AcDbSymbolTableRecord
100
AcDbBlockTableRecord
  2
_None
340
0
 70
     0
280
     1
281
     0
  0
ENDTAB
  0
ENDSEC
  0
SECTION
  2
BLOCKS
  0
BLOCK
  5
D
330
A
100
AcDbEntity
  8
0
390
1D
100
AcDbBlockBegin
  2
*MODEL_SPACE
 70
     0
 10
0.0
 20
0.0
 30
0.0
  3
*MODEL_SPACE
  1
*MODEL_SPACE
  0
ENDBLK
  5
E
330
A
100
AcDbEntity
  8
0
390
1D
100
AcDbBlockEnd
  0
BLOCK
  5
F
330
B
100
AcDbEntity
 67
     1
  8
0
390
1D
100
AcDbBlockBegin
  2
*PAPER_SPACE
 70
     0
 10
0.0
 20
0.0
 30
0.0
  3
*PAPER_SPACE
  1
*PAPER_SPACE
  0
ENDBLK
  5
10
330
B
100
AcDbEntity
 67
     1
  8
0
390
1D
100
AcDbBlockEnd
  0
BLOCK
  5
41
330
40
100
AcDbEntity
  8
0
390
1D
100
AcDbBlockBegin
  2
_DOT
 70
     0
 10
0.0
 20
0.0
 30
0.0
  3
_DOT
  1
_DOT
  0
POLYLINE
  5
42
330
40
100
AcDbEntity
  8
0
  6
ByBlock
 62
     0
370
    -2
390
1D
100
AcDb2dPolyline
 66
     1
 10
0.0
 20
0.0
 30
0.0
 70
     1
 40
0.5
 41
0.5
  0
VERTEX
  5
43
330
42
100
AcDbEntity
  8
0
  6
ByBlock
 62
     0
370
    -2
390
1D
100
AcDbVertex
100
AcDb2dVertex
 10
-0.25
 20
0.0
 30
0.0
 42
1.0
  0
VERTEX
  5
44
330
42
100
AcDbEntity
  8
0
  6
ByBlock
 62
     0
370
    -2
390
1D
100
AcDbVertex
100
AcDb2dVertex
 10
0.25
 20
0.0
 30
0.0
 42
1.0
  0
SEQEND
  5
45
330
42
100
AcDbEntity
  8
0
390
1D
  0
LINE
  5
46
330
40
100
AcDbEntity
  8
0
  6
ByBlock
 62
     0
370
    -2
390
1D
100
AcDbLine
 10
-0.5
 20
0.0
 30
0.0
 11
-1.0
 21
0.0
 31
0.0
  0
ENDBLK
  5
47
330
40
100
AcDbEntity
  8
0
390
1D
100
AcDbBlockEnd
  0
BLOCK
  5
4A
330
49
100
AcDbEntity
  8
0
  6
ByBlock
 62
     0
370
    -2
390
1D
100
AcDbBlockBegin
  2
VW_FILLEDARROW
 70
     0
 10
0.0
 20
0.0
 30
0.0
  3
VW_FILLEDARROW
  1
VW_FILLEDARROW
  0
SOLID
  5
4B
330
49
100
AcDbEntity
  8
0
 62
     0
370
    -2
390
1D
100
AcDbTrace
 10
0.0
 20
0.0
 30
0.0
 11
-0.9921874999999999
 21
-0.2658558393652545
 31
0.0
 12
-0.9921874999999999
 22
0.2658558393652548
 32
0.0
 13
-0.9921874999999999
 23
0.2658558393652548
 33
0.0
  0
ENDBLK
  5
4C
330
49
100
AcDbEntity
  8
0
390
1D
100
AcDbBlockEnd
  0
BLOCK
  5
4E
330
23
100
AcDbEntity
  8
template
390
1D
100
AcDbBlockBegin
  2
グループ
 70
     0
 10
0.0
 20
0.0
 30
0.0
  3
グループ
  1
グループ
  0
LWPOLYLINE
  5
4F
330
23
100
AcDbEntity
  8
0
  6
Continuous
 62
     7
370
    15
390
1D
100
AcDbPolyline
 90
        8
 70
   129
 43
0.0
 10
878.0739260643861
 20
-1297.914563244878
 10
878.0739260643861
 20
-1303.911951938454
 10
868.5727291463827
 20
-1303.911951938454
 10
868.5727291463827
 20
-1328.362915201963
 10
860.2173518846
 20
-1328.362915201963
 10
860.2173518846
 20
-1303.911951938454
 10
850.8843949382906
 20
-1303.911951938454
 10
850.8843949382906
 20
-1297.914563244878
  0
LWPOLYLINE
  5
50
330
23
100
AcDbEntity
  8
0
  6
Continuous
 62
     7
370
    15
390
1D
100
AcDbPolyline
 90
      101
 70
   128
 43
0.0
 10
890.8022178949432
 20
-1298.642811737815
 10
890.8175679237289
 20
-1298.638450981129
 42
-0.0222221607811423
 10
891.1075725003992
 20
-1298.569826515885
 10
891.12336626439
 20
-1298.566823092788
 42
-0.0146883565586386
 10
891.386068969617
 20
-1298.524819905839
 42
-0.0127458844187744
 10
891.6507079367652
 20
-1298.497282937766
 10
891.7131630150827
 20
-1298.492389515178
 42
-0.0198099018565981
 10
892.1040121245558
 20
-1298.477304357781
 10
892.1558235940034
 20
-1298.477358133446
 42
-0.0147617382763999
 10
892.6504470549735
 20
-1298.492478158691
 10
892.7231385098556
 20
-1298.496850765579
 42
-0.016262454900106
 10
893.1132921393171
 20
-1298.533083640851
 10
893.2348245305722
 20
-1298.548370199847
 42
-0.0080020874674637
 10
893.3804035616679
 20
-1298.569053047116
 10
893.4187230322761
 20
-1298.575124324929
 42
-0.0053821929664469
 10
893.4872071375776
 20
-1298.586731848749
 10
892.7608014383791
 20
-1300.767660304463
 42
0.0108667757392753
 10
892.6934843682492
 20
-1300.754473189243
 10
892.6560163450588
 20
-1300.747975446648
 42
0.017066320331227
 10
892.5127995581405
 20
-1300.728145849356
 10
892.4449242254602
 20
-1300.721098678769
 42
0.0220162375270351
 10
892.1645448176096
 20
-1300.704416317999
 10
892.0866892505505
 20
-1300.703216950732
 42
0.028260691578998
 10
891.7510529269749
 20
-1300.717020227702
 10
891.707139653199
 20
-1300.721320217706
 42
0.0169677213689154
 10
891.4612151582436
 20
-1300.753857267257
 42
0.0190576269868
 10
891.2183071956606
 20
-1300.804004139364
 10
891.2120480075528
 20
-1300.805547113473
 42
0.02136856428435
 10
890.9616635230786
 20
-1300.878747398576
 10
890.9561736281589
 20
-1300.880610394637
 42
0.0237595297599265
 10
890.7026787432625
 20
-1300.980294916531
 10
890.6975766692306
 20
-1300.98258669201
 42
0.0261857468821602
 10
890.4454058929991
 20
-1301.112123029386
 10
890.4349797039137
 20
-1301.118188503853
 42
0.0272553062022954
 10
890.198549928675
 20
-1301.273560709797
 10
890.1637869151666
 20
-1301.299221857889
 42
0.032599689317061
 10
890.013631571514
 20
-1301.425969730861
 10
889.9899221423854
 20
-1301.448787759379
 42
0.0138050960652761
 10
889.8980389861808
 20
-1301.542237420926
 42
0.0125280103795061
 10
889.8111964533491
 20
-1301.640400747523
 10
889.787516008439
 20
-1301.668559245713
 42
0.020521802473065
 10
889.6624159329294
 20
-1301.830352559936
 10
889.6399495924381
 20
-1301.862012289769
 42
0.0163110129585082
 10
889.4842392131837
 20
-1302.097342724844
 10
889.4815153171359
 20
-1302.101766486825
 42
0.0131897341897446
 10
889.3347147962286
 20
-1302.354898579192
 10
889.3330147008635
 20
-1302.358016818325
 42
0.0107895576063442
 10
889.1952379986564
 20
-1302.624232027953
 10
889.1945051091277
 20
-1302.625726260606
 42
0.0091371507217006
 10
889.0660251604777
 20
-1302.900251458367
 10
889.036279529069
 20
-1302.966957965525
 42
0.013541832635457
 10
888.8645655899973
 20
-1303.381895750794
 10
888.8309607815654
 20
-1303.469761893068
 42
0.0092834542409114
 10
888.6597317216421
 20
-1303.94366039138
 10
888.6341145939247
 20
-1304.018901461173
 42
0.0054261043588437
 10
888.5264764456315
 20
-1304.346665434239
 10
888.5089504593908
 20
-1304.402053596669
 42
0.000822509082621
 10
888.440280407624
 20
-1304.620322354618
 10
887.4555912756905
 20
-1307.645213647874
 10
890.6882151157645
 20
-1307.645213647874
 10
890.184022685911
 20
-1309.549691946227
 10
886.9279664039277
 20
-1309.549691946227
 10
881.0988173715739
 20
-1328.362915012232
 10
879.2737197612637
 20
-1328.362915012232
 10
885.1083977967646
 20
-1309.549691946227
 10
882.703281427724
 20
-1309.549691946227
 10
883.2074738575775
 20
-1307.645213647874
 10
885.6360226685276
 20
-1307.645213647874
 10
886.4961775867164
 20
-1305.008800647176
 42
-0.0005863560654641
 10
886.5329122649472
 20
-1304.891974226797
 10
886.6090000985802
 20
-1304.650981927498
 42
-0.0087522378929508
 10
886.8084682420347
 20
-1304.055705840359
 10
886.900732517452
 20
-1303.795565671835
 42
-0.0077400953829711
 10
887.1586661765816
 20
-1303.102560994291
 10
887.1744311481589
 20
-1303.062130110909
 42
-0.0082369946331445
 10
887.4215156187724
 20
-1302.458051044709
 42
-0.0085725238365323
 10
887.6887617147767
 20
-1301.862625005419
 10
887.7903913157822
 20
-1301.646203903438
 42
-0.016810941059623
 10
888.0773357445128
 20
-1301.084996377332
 10
888.2031791350108
 20
-1300.858032344265
 42
-0.0007817726865571
 10
888.2574634850284
 20
-1300.760488099304
 10
888.2575917910519
 20
-1300.760258390556
 42
-0.0036626142154793
 10
888.3124796550669
 20
-1300.663660510599
 42
-0.0080221150666078
 10
888.3696039104773
 20
-1300.56838127584
 10
888.4003038618348
 20
-1300.518990326724
 42
-0.0202139325578887
 10
888.5279596016376
 20
-1300.331008726048
 10
888.5820270668291
 20
-1300.257929861802
 42
-0.0249323791798274
 10
888.8411898605483
 20
-1299.941884619647
 10
888.8653296746753
 20
-1299.915270346735
 42
-0.0242132121539731
 10
889.2050104162167
 20
-1299.575386860531
 10
889.2529219889641
 20
-1299.531877724348
 42
-0.0251017527864726
 10
889.5369036896087
 20
-1299.29888497858
 10
889.5383491664171
 20
-1299.297815721005
 42
-0.0130868069036868
 10
889.8366098163798
 20
-1299.089035252458
 10
889.8381716355238
 20
-1299.088001812182
 42
-0.029032952638966
 10
890.1492827769158
 20
-1298.907176310554
 10
890.179128338908
 20
-1298.892073927711
 42
-0.0160250190043311
 10
890.4450327526665
 20
-1298.768057817501
 42
-0.0267600374789429
 10
890.7203088301334
 20
-1298.667309496953
 10
890.7470447496562
 20
-1298.659116938127
 42
-0.0049981587669748
 10
890.8022178949432
 20
-1298.642811737815
 42
-0.0049981587669748
  0
LWPOLYLINE
  5
51
330
23
100
AcDbEntity
  8
0
  6
Continuous
 62
     7
370
    15
390
1D
100
AcDbPolyline
 90
      118
 70
   128
 43
0.0
 10
910.6165854593901
 20
-1307.719196975702
 10
912.4917073838894
 20
-1307.719196975702
 10
911.6536684782895
 20
-1310.400763502102
 42
-0.00105872292166
 10
911.6851242938877
 20
-1310.363858968715
 10
911.7433183844934
 20
-1310.295876712571
 42
-0.007187474040451
 10
911.8936936025907
 20
-1310.125236020543
 10
912.0354163758537
 20
-1309.968999879229
 42
-0.0148118053513357
 10
912.4855456685634
 20
-1309.501386033219
 10
912.5727680034714
 20
-1309.415988712359
 42
-0.0086273358693257
 10
912.9083168044766
 20
-1309.098613078346
 10
912.9521505206973
 20
-1309.058563434017
 42
-0.0103138323115477
 10
913.2101742229361
 20
-1308.832400296674
 10
913.2559486292631
 20
-1308.793918249414
 42
-0.0060206748567559
 10
913.4287966933755
 20
-1308.65212359866
 10
913.4308278242597
 20
-1308.65049789303
 42
-0.0067069027300267
 10
913.6031206389239
 20
-1308.516347259233
 10
913.6056694048405
 20
-1308.514417089365
 42
-0.0076184352055847
 10
913.7765746707212
 20
-1308.389042214114
 42
-0.0089652861673778
 10
913.9515356334465
 20
-1308.269408953788
 10
913.9878873535984
 20
-1308.2454977403
 42
-0.0156916245938302
 10
914.1838468507607
 20
-1308.125235253824
 42
-0.0023299011064809
 10
914.3841088947278
 20
-1308.012057314291
 10
914.3994930271203
 20
-1308.003457319219
 42
-0.010766934148504
 10
914.6337298522226
 20
-1307.879057185869
 10
914.6559946532966
 20
-1307.867840435919
 42
-0.0078058045894672
 10
914.9395847712562
 20
-1307.730478980278
 10
914.9494918589585
 20
-1307.725869852412
 42
-0.0181829330473
 10
915.2598012635716
 20
-1307.595006111318
 10
915.3138567061388
 20
-1307.574490991374
 42
-0.0208411536033363
 10
915.6629416735911
 20
-1307.45840052888
 10
915.6772977737184
 20
-1307.454282083927
 42
-0.0222799817142213
 10
916.0060175676359
 20
-1307.375640517786
 10
916.014906530878
 20
-1307.3739285072
 42
-0.0215509523879997
 10
916.3313774991526
 20
-1307.327012818667
 10
916.3738594602012
 20
-1307.322575291876
 42
-0.0182545924871078
 10
916.6079682395068
 20
-1307.306731466485
 10
916.6473692558536
 20
-1307.305506921406
 42
-0.007296285653461
 10
916.8032921355439
 20
-1307.302937592884
 10
916.832391806118
 20
-1307.30288275748
 42
-0.00592275163198
 10
916.9301413052608
 20
-1307.303856469271
 10
916.9593835227284
 20
-1307.304494235874
 42
-0.0011833111890712
 10
916.9986348064651
 20
-1307.305443240184
 10
916.203248210858
 20
-1309.844177185283
 42
0.0143932051571346
 10
916.1768468285038
 20
-1309.833978215236
 10
916.1695748560901
 20
-1309.83140699638
 42
0.0234388603530765
 10
916.1277439901562
 20
-1309.818787760664
 10
916.1190623272453
 20
-1309.81660679866
 42
0.019916274296367
 10
916.0587734931673
 20
-1309.803990063325
 10
916.0379595553591
 20
-1309.800492863896
 42
0.0293643550672111
 10
915.9348846966004
 20
-1309.789342818243
 10
915.9101995158796
 20
-1309.788131201225
 42
0.0214606686862923
 10
915.7570585999285
 20
-1309.787192640807
 10
915.7476866891092
 20
-1309.787537552351
 42
0.0167564054167099
 10
915.5761664980045
 20
-1309.799614594719
 10
915.5677067052417
 20
-1309.800495935147
 42
0.0137677553241457
 10
915.3803533919742
 20
-1309.82524524369
 10
915.3730016524692
 20
-1309.826423163658
 42
0.0118497261478334
 10
915.1725038883719
 20
-1309.863440513846
 10
915.1663538811206
 20
-1309.864727376567
 42
0.0106421143897428
 10
914.9554729938229
 20
-1309.913559752145
 10
914.9505641854464
 20
-1309.914807094827
 42
0.0099746379701269
 10
914.7321057162926
 20
-1309.974981623139
 10
914.6705576761137
 20
-1309.993263501773
 42
0.0191613675860429
 10
914.334573213595
 20
-1310.107240882061
 10
914.2465134408544
 20
-1310.140927792383
 42
0.0205274080140397
 10
913.8612066689521
 20
-1310.30675620021
 10
913.8035573869738
 20
-1310.334424164781
 42
0.0181256912193407
 10
913.5452804463031
 20
-1310.47010798376
 10
913.4923250629896
 20
-1310.500425596975
 42
0.0140709242415255
 10
913.3473701283608
 20
-1310.58892027041
 10
913.3211212597407
 20
-1310.605977089126
 42
0.0086667884401409
 10
913.2321950981998
 20
-1310.665979757008
 42
0.003640819201953
 10
913.1447618601632
 20
-1310.728160614802
 10
913.1095349856978
 20
-1310.753601560713
 42
0.0052260781278071
 10
912.9533062883011
 20
-1310.868933947351
 10
912.9370994320471
 20
-1310.881162057965
 42
0.0050024435901216
 10
912.7510960889969
 20
-1311.024444626221
 10
912.7357779324731
 20
-1311.036490648673
 42
0.0136138710280091
 10
912.5253366641443
 20
-1311.21145715359
 10
912.4916687883542
 20
-1311.241036126301
 42
0.0172815186915602
 10
912.2272652466914
 20
-1311.490032798925
 10
912.2247029008491
 20
-1311.492618616071
 42
0.0189403857997142
 10
911.9741211022696
 20
-1311.765423880876
 10
911.9414896087314
 20
-1311.803767812376
 42
0.0185044199506627
 10
911.7495331697539
 20
-1312.047016393496
 42
0.0088565243901616
 10
911.5710730631228
 20
-1312.30053281365
 10
911.561895083477
 20
-1312.314074193406
 42
0.0157195347231205
 10
911.3786744771431
 20
-1312.603596402721
 10
911.3325915352143
 20
-1312.681748599738
 42
0.0095451879780702
 10
911.1675059850744
 20
-1312.974343242099
 10
911.1563580661488
 20
-1312.995013914223
 42
0.0100351706246334
 10
911.0243143169854
 20
-1313.252069474722
 42
0.0086935915423289
 10
910.9019831651882
 20
-1313.513902620133
 10
910.8986624237768
 20
-1313.521344943098
 42
0.0072580174868037
 10
910.7783159718321
 20
-1313.80193693468
 10
910.7750543385256
 20
-1313.809856960699
 42
0.0060005122620081
 10
910.6558536701796
 20
-1314.109466631313
 10
910.6526426918414
 20
-1314.117828159209
 42
0.0049017786978445
 10
910.5337425329853
 20
-1314.436757139809
 10
910.5305767265935
 20
-1314.445510077043
 42
0.0039415167603691
 10
910.4111404485284
 20
-1314.784052139481
 10
910.4080093458846
 20
-1314.793155340333
 42
0.0031035838768072
 10
910.2872045601982
 20
-1315.151595202086
 10
910.2840945156611
 20
-1315.161015823481
 42
0.0025070747152846
 10
910.1611931643499
 20
-1315.539663040412
 10
910.1238992679204
 20
-1315.656554705678
 42
0.0029081910280898
 10
909.9318809701161
 20
-1316.270718363948
 10
909.8910778015926
 20
-1316.403941606246
 42
0.0009266453733089
 10
909.6226604272797
 20
-1317.286166066163
 10
909.6017729546438
 20
-1317.355277945383
 42
-0.0005809993665711
 10
909.3244362740461
 20
-1318.269086052044
 10
909.2581544757736
 20
-1318.486570984202
 42
-0.0012018708167686
 10
909.1111701663439
 20
-1318.964733648724
 10
909.0588503148092
 20
-1319.133492789491
 42
-0.0002691059611034
 10
909.0152808336097
 20
-1319.273760409932
 10
906.1823249353206
 20
-1328.362915012232
 10
904.3643360433421
 20
-1328.362915012232
 10
910.6165854593901
 20
-1307.719196975702
  0
SPLINE
  5
52
330
23
100
AcDbEntity
  8
0
  6
Continuous
 62
     7
370
    15
390
1D
100
AcDbSpline
210
0.0
220
0.0
230
1.0
 70
    15
 71
     2
 72
   782
 73
   779
 74
     0
 42
0.000000001
 43
0.000001
 40
0.0
 40
0.0
 40
0.0
 40
1.0
 40
1.0
 40
2.0
 40
2.0
 40
3.0
 40
3.0
 40
4.0
 40
4.0
 40
5.0
 40
5.0
 40
6.0
 40
6.0
 40
7.0
 40
7.0
 40
8.0
 40
8.0
 40
9.0
 40
9.0
 40
10.0
 40
10.0
 40
11.0
 40
11.0
 40
12.0
 40
12.0
 40
13.0
 40
13.0
 40
14.0
 40
14.0
 40
15.0
 40
15.0
 40
16.0
 40
16.0
 40
17.0
 40
17.0
 40
18.0
 40
18.0
 40
19.0
 40
19.0
 40
20.0
 40
20.0
 40
21.0
 40
21.0
 40
22.0
 40
22.0
 40
23.0
 40
23.0
 40
24.0
 40
24.0
 40
25.0
 40
25.0
 40
26.0
 40
26.0
 40
27.0
 40
27.0
 40
28.0
 40
28.0
 40
29.0
 40
29.0
 40
30.0
 40
30.0
 40
31.0
 40
31.0
 40
32.0
 40
32.0
 40
33.0
 40
33.0
 40
34.0
 40
34.0
 40
35.0
 40
35.0
 40
36.0
 40
36.0
 40
37.0
 40
37.0
 40
38.0
 40
38.0
 40
39.0
 40
39.0
 40
40.0
 40
40.0
 40
41.0
 40
41.0
 40
42.0
 40
42.0
 40
43.0
 40
43.0
 40
44.0
 40
44.0
 40
45.0
 40
45.0
 40
46.0
 40
46.0
 40
47.0
 40
47.0
 40
48.0
 40
48.0
 40
49.0
 40
49.0
 40
50.0
 40
50.0
 40
51.0
 40
51.0
 40
52.0
 40
52.0
 40
53.0
 40
53.0
 40
54.0
 40
54.0
 40
55.0
 40
55.0
 40
56.0
 40
56.0
 40
57.0
 40
57.0
 40
58.0
 40
58.0
 40
59.0
 40
59.0
 40
60.0
 40
60.0
 40
61.0
 40
61.0
 40
62.0
 40
62.0
 40
63.0
 40
63.0
 40
64.0
 40
64.0
 40
65.0
 40
65.0
 40
66.0
 40
66.0
 40
67.0
 40
67.0
 40
68.0
 40
68.0
 40
69.0
 40
69.0
 40
70.0
 40
70.0
 40
71.0
 40
71.0
 40
72.0
 40
72.0
 40
73.0
 40
73.0
 40
74.0
 40
74.0
 40
75.0
 40
75.0
 40
76.0
 40
76.0
 40
77.0
 40
77.0
 40
78.0
 40
78.0
 40
79.0
 40
79.0
 40
80.0
 40
80.0
 40
81.0
 40
81.0
 40
82.0
 40
82.0
 40
83.0
 40
83.0
 40
84.0
 40
84.0
 40
85.0
 40
85.0
 40
86.0
 40
86.0
 40
87.0
 40
87.0
 40
88.0
 40
88.0
 40
89.0
 40
89.0
 40
90.0
 40
90.0
 40
91.0
 40
91.0
 40
92.0
 40
92.0
 40
93.0
 40
93.0
 40
94.0
 40
94.0
 40
95.0
 40
95.0
 40
96.0
 40
96.0
 40
97.0
 40
97.0
 40
98.0
 40
98.0
 40
99.0
 40
99.0
 40
100.0
 40
100.0
 40
101.0
 40
101.0
 40
102.0
 40
102.0
 40
103.0
 40
103.0
 40
104.0
 40
104.0
 40
105.0
 40
105.0
 40
106.0
 40
106.0
 40
107.0
 40
107.0
 40
108.0
 40
108.0
 40
109.0
 40
109.0
 40
110.0
 40
110.0
 40
111.0
 40
111.0
 40
112.0
 40
112.0
 40
113.0
 40
113.0
 40
114.0
 40
114.0
 40
115.0
 40
115.0
 40
116.0
 40
116.0
 40
117.0
 40
117.0
 40
118.0
 40
118.0
 40
119.0
 40
119.0
 40
120.0
 40
120.0
 40
121.0
 40
121.0
 40
122.0
 40
122.0
 40
123.0
 40
123.0
 40
124.0
 40
124.0
 40
125.0
 40
125.0
 40
126.0
 40
126.0
 40
127.0
 40
127.0
 40
128.0
 40
128.0
 40
129.0
 40
129.0
 40
130.0
 40
130.0
 40
131.0
 40
131.0
 40
132.0
 40
132.0
 40
133.0
 40
133.0
 40
134.0
 40
134.0
 40
135.0
 40
135.0
 40
136.0
 40
136.0
 40
137.0
 40
137.0
 40
138.0
 40
138.0
 40
139.0
 40
139.0
 40
140.0
 40
140.0
 40
141.0
 40
141.0
 40
142.0
 40
142.0
 40
143.0
 40
143.0
 40
144.0
 40
144.0
 40
145.0
 40
145.0
 40
146.0
 40
146.0
 40
147.0
 40
147.0
 40
148.0
 40
148.0
 40
149.0
 40
149.0
 40
150.0
 40
150.0
 40
151.0
 40
151.0
 40
152.0
 40
152.0
 40
153.0
 40
153.0
 40
154.0
 40
154.0
 40
155.0
 40
155.0
 40
156.0
 40
156.0
 40
157.0
 40
157.0
 40
158.0
 40
158.0
 40
159.0
 40
159.0
 40
160.0
 40
160.0
 40
161.0
 40
161.0
 40
162.0
 40
162.0
 40
163.0
 40
163.0
 40
164.0
 40
164.0
 40
165.0
 40
165.0
 40
166.0
 40
166.0
 40
167.0
 40
167.0
 40
168.0
 40
168.0
 40
169.0
 40
169.0
 40
170.0
 40
170.0
 40
171.0
 40
171.0
 40
172.0
 40
172.0
 40
173.0
 40
173.0
 40
174.0
 40
174.0
 40
175.0
 40
175.0
 40
176.0
 40
176.0
 40
177.0
 40
177.0
 40
178.0
 40
178.0
 40
179.0
 40
179.0
 40
180.0
 40
180.0
 40
181.0
 40
181.0
 40
182.0
 40
182.0
 40
183.0
 40
183.0
 40
184.0
 40
184.0
 40
185.0
 40
185.0
 40
186.0
 40
186.0
 40
187.0
 40
187.0
 40
188.0
 40
188.0
 40
189.0
 40
189.0
 40
190.0
 40
190.0
 40
191.0
 40
191.0
 40
192.0
 40
192.0
 40
193.0
 40
193.0
 40
194.0
 40
194.0
 40
195.0
 40
195.0
 40
196.0
 40
196.0
 40
197.0
 40
197.0
 40
198.0
 40
198.0
 40
199.0
 40
199.0
 40
200.0
 40
200.0
 40
201.0
 40
201.0
 40
202.0
 40
202.0
 40
203.0
 40
203.0
 40
204.0
 40
204.0
 40
205.0
 40
205.0
 40
206.0
 40
206.0
 40
207.0
 40
207.0
 40
208.0
 40
208.0
 40
209.0
 40
209.0
 40
210.0
 40
210.0
 40
211.0
 40
211.0
 40
212.0
 40
212.0
 40
213.0
 40
213.0
 40
214.0
 40
214.0
 40
215.0
 40
215.0
 40
216.0
 40
216.0
 40
217.0
 40
217.0
 40
218.0
 40
218.0
 40
219.0
 40
219.0
 40
220.0
 40
220.0
 40
221.0
 40
221.0
 40
222.0
 40
222.0
 40
223.0
 40
223.0
 40
224.0
 40
224.0
 40
225.0
 40
225.0
 40
226.0
 40
226.0
 40
227.0
 40
227.0
 40
228.0
 40
228.0
 40
229.0
 40
229.0
 40
230.0
 40
230.0
 40
231.0
 40
231.0
 40
232.0
 40
232.0
 40
233.0
 40
233.0
 40
234.0
 40
234.0
 40
235.0
 40
235.0
 40
236.0
 40
236.0
 40
237.0
 40
237.0
 40
238.0
 40
238.0
 40
239.0
 40
239.0
 40
240.0
 40
240.0
 40
241.0
 40
241.0
 40
242.0
 40
242.0
 40
243.0
 40
243.0
 40
244.0
 40
244.0
 40
245.0
 40
245.0
 40
246.0
 40
246.0
 40
247.0
 40
247.0
 40
248.0
 40
248.0
 40
249.0
 40
249.0
 40
250.0
 40
250.0
 40
251.0
 40
251.0
 40
252.0
 40
252.0
 40
253.0
 40
253.0
 40
254.0
 40
254.0
 40
255.0
 40
255.0
 40
256.0
 40
256.0
 40
257.0
 40
257.0
 40
258.0
 40
258.0
 40
259.0
 40
259.0
 40
260.0
 40
260.0
 40
261.0
 40
261.0
 40
262.0
 40
262.0
 40
263.0
 40
263.0
 40
264.0
 40
264.0
 40
265.0
 40
265.0
 40
266.0
 40
266.0
 40
267.0
 40
267.0
 40
268.0
 40
268.0
 40
269.0
 40
269.0
 40
270.0
 40
270.0
 40
271.0
 40
271.0
 40
272.0
 40
272.0
 40
273.0
 40
273.0
 40
274.0
 40
274.0
 40
275.0
 40
275.0
 40
276.0
 40
276.0
 40
277.0
 40
277.0
 40
278.0
 40
278.0
 40
279.0
 40
279.0
 40
280.0
 40
280.0
 40
281.0
 40
281.0
 40
282.0
 40
282.0
 40
283.0
 40
283.0
 40
284.0
 40
284.0
 40
285.0
 40
285.0
 40
286.0
 40
286.0
 40
287.0
 40
287.0
 40
288.0
 40
288.0
 40
289.0
 40
289.0
 40
290.0
 40
290.0
 40
291.0
 40
291.0
 40
292.0
 40
292.0
 40
293.0
 40
293.0
 40
294.0
 40
294.0
 40
295.0
 40
295.0
 40
296.0
 40
296.0
 40
297.0
 40
297.0
 40
298.0
 40
298.0
 40
299.0
 40
299.0
 40
300.0
 40
300.0
 40
301.0
 40
301.0
 40
302.0
 40
302.0
 40
303.0
 40
303.0
 40
304.0
 40
304.0
 40
305.0
 40
305.0
 40
306.0
 40
306.0
 40
307.0
 40
307.0
 40
308.0
 40
308.0
 40
309.0
 40
309.0
 40
310.0
 40
310.0
 40
311.0
 40
311.0
 40
312.0
 40
312.0
 40
313.0
 40
313.0
 40
314.0
 40
314.0
 40
315.0
 40
315.0
 40
316.0
 40
316.0
 40
317.0
 40
317.0
 40
318.0
 40
318.0
 40
319.0
 40
319.0
 40
320.0
 40
320.0
 40
321.0
 40
321.0
 40
322.0
 40
322.0
 40
323.0
 40
323.0
 40
324.0
 40
324.0
 40
325.0
 40
325.0
 40
326.0
 40
326.0
 40
327.0
 40
327.0
 40
328.0
 40
328.0
 40
329.0
 40
329.0
 40
330.0
 40
330.0
 40
331.0
 40
331.0
 40
332.0
 40
332.0
 40
333.0
 40
333.0
 40
334.0
 40
334.0
 40
335.0
 40
335.0
 40
336.0
 40
336.0
 40
337.0
 40
337.0
 40
338.0
 40
338.0
 40
339.0
 40
339.0
 40
340.0
 40
340.0
 40
341.0
 40
341.0
 40
342.0
 40
342.0
 40
343.0
 40
343.0
 40
344.0
 40
344.0
 40
345.0
 40
345.0
 40
346.0
 40
346.0
 40
347.0
 40
347.0
 40
348.0
 40
348.0
 40
349.0
 40
349.0
 40
350.0
 40
350.0
 40
351.0
 40
351.0
 40
352.0
 40
352.0
 40
353.0
 40
353.0
 40
354.0
 40
354.0
 40
355.0
 40
355.0
 40
356.0
 40
356.0
 40
357.0
 40
357.0
 40
358.0
 40
358.0
 40
359.0
 40
359.0
 40
360.0
 40
360.0
 40
361.0
 40
361.0
 40
362.0
 40
362.0
 40
363.0
 40
363.0
 40
364.0
 40
364.0
 40
365.0
 40
365.0
 40
366.0
 40
366.0
 40
367.0
 40
367.0
 40
368.0
 40
368.0
 40
369.0
 40
369.0
 40
370.0
 40
370.0
 40
371.0
 40
371.0
 40
372.0
 40
372.0
 40
373.0
 40
373.0
 40
374.0
 40
374.0
 40
375.0
 40
375.0
 40
376.0
 40
376.0
 40
377.0
 40
377.0
 40
378.0
 40
378.0
 40
379.0
 40
379.0
 40
380.0
 40
380.0
 40
381.0
 40
381.0
 40
382.0
 40
382.0
 40
383.0
 40
383.0
 40
384.0
 40
384.0
 40
385.0
 40
385.0
 40
386.0
 40
386.0
 40
387.0
 40
387.0
 40
388.0
 40
388.0
 40
389.0
 40
389.0
 40
389.0
 10
920.9452899101225
 20
-1307.708270612339
 30
0.0
 41
1.0
 10
921.7637140188431
 20
-1307.708270612339
 30
0.0
 41
1.0
 10
922.5821381275637
 20
-1307.708270612339
 30
0.0
 41
1.0
 10
922.1683843920468
 20
-1309.050896876589
 30
0.0
 41
1.0
 10
921.75463065653
 20
-1310.393523140839
 30
0.0
 41
1.0
 10
921.7729701517128
 20
-1310.364822367904
 30
0.0
 41
0.9999957264350535
 10
921.7914771485413
 20
-1310.336229317757
 30
0.0
 41
1.0
 10
921.8219064726723
 20
-1310.289216439391
 30
0.0
 41
1.0
 10
921.8523357968032
 20
-1310.242203561025
 30
0.0
 41
1.0
 10
921.9317014419094
 20
-1310.119584754121
 30
0.0
 41
0.9995394069081454
 10
922.01835983346
 20
-1310.002006692382
 30
0.0
 41
1.0
 10
922.0541166957207
 20
-1309.953491799787
 30
0.0
 41
1.0
 10
922.0898735579816
 20
-1309.904976907192
 30
0.0
 41
1.0
 10
922.2236002257985
 20
-1309.723536632067
 30
0.0
 41
0.999446061714334
 10
922.369100707087
 20
-1309.551394234416
 30
0.0
 41
1.0
 10
922.3734888880633
 20
-1309.546202554032
 30
0.0
 41
1.0
 10
922.3778770690395
 20
-1309.541010873648
 30
0.0
 41
1.0
 10
922.5146011883774
 20
-1309.379251836765
 30
0.0
 41
0.9994359394934444
 10
922.6618754187264
 20
-1309.227035635602
 30
0.0
 41
1.0
 10
922.6642587726817
 20
-1309.224572305227
 30
0.0
 41
1.0
 10
922.666642126637
 20
-1309.222108974852
 30
0.0
 41
1.0
 10
922.8091496490794
 20
-1309.074819434436
 30
0.0
 41
0.9995293688567967
 10
922.96042133006
 20
-1308.936546222274
 30
0.0
 41
1.0
 10
922.979715089324
 20
-1308.918910336622
 30
0.0
 41
1.0
 10
922.9990088485881
 20
-1308.90127445097
 30
0.0
 41
1.0
 10
923.1116930110423
 20
-1308.798273010109
 30
0.0
 41
0.9997087614803789
 10
923.229215899997
 20
-1308.700828729312
 30
0.0
 41
1.0
 10
923.248381973163
 20
-1308.684937150811
 30
0.0
 41
1.0
 10
923.2675480463289
 20
-1308.669045572311
 30
0.0
 41
1.0
 10
923.3467387889423
 20
-1308.603384448521
 30
0.0
 41
0.999959533869323
 10
923.4270980598072
 20
-1308.539158717859
 30
0.0
 41
1.0
 10
923.5074573306691
 20
-1308.474932987198
 30
0.0
 41
0.9999749417508489
 10
923.5887178650211
 20
-1308.411851433245
 30
0.0
 41
1.0
 10
923.6097040111762
 20
-1308.39556014595
 30
0.0
 41
1.0
 10
923.6306901573313
 20
-1308.379268858654
 30
0.0
 41
1.0
 10
923.7152580426338
 20
-1308.313619848812
 30
0.0
 41
0.9999792037125398
 10
923.8006656424083
 20
-1308.249067067165
 30
0.0
 41
1.0
 10
923.8214904683764
 20
-1308.233327244864
 30
0.0
 41
1.0
 10
923.8423152943445
 20
-1308.217587422563
 30
0.0
 41
1.0
 10
923.8860732422544
 20
-1308.184514285463
 30
0.0
 41
0.9999993374116287
 10
923.929754928321
 20
-1308.151340490097
 30
0.0
 41
1.0
 10
923.9734366144696
 20
-1308.118166694669
 30
0.0
 41
0.9999160953816226
 10
924.0179630253949
 20
-1308.086135629467
 30
0.0
 41
1.0
 10
924.0507849128089
 20
-1308.062524473886
 30
0.0
 41
1.0
 10
924.0836068002228
 20
-1308.038913318305
 30
0.0
 41
1.0
 10
924.1937769859807
 20
-1307.959659941937
 30
0.0
 41
0.9980964527231898
 10
924.3128659794805
 20
-1307.894572469082
 30
0.0
 41
1.0
 10
924.3498985864095
 20
-1307.874332489488
 30
0.0
 41
1.0
 10
924.3869311933385
 20
-1307.854092509895
 30
0.0
 41
1.0
 10
924.5662582066118
 20
-1307.756082259193
 30
0.0
 41
0.9984572810572919
 10
924.7553467729701
 20
-1307.678559997847
 30
0.0
 41
1.0
 10
924.7589930423653
 20
-1307.677065105509
 30
0.0
 41
1.0
 10
924.7626393117606
 20
-1307.675570213172
 30
0.0
 41
1.0
 10
924.9444353393288
 20
-1307.601037736501
 30
0.0
 41
0.998783852803437
 10
925.1326879978883
 20
-1307.544772096335
 30
0.0
 41
1.0
 10
925.1369259470873
 20
-1307.543505442645
 30
0.0
 41
1.0
 10
925.1411638962863
 20
-1307.542238788954
 30
0.0
 41
1.0
 10
925.3209406564478
 20
-1307.488506456169
 30
0.0
 41
0.9990652816207213
 10
925.5046865881634
 20
-1307.450502776627
 30
0.0
 41
1.0
 10
925.509874989195
 20
-1307.449429673521
 30
0.0
 41
1.0
 10
925.5150633902267
 20
-1307.448356570414
 30
0.0
 41
1.0
 10
925.6884325198797
 20
-1307.412499097085
 30
0.0
 41
0.9992909934270191
 10
925.8640082863376
 20
-1307.389788664619
 30
0.0
 41
1.0
 10
926.0395840527942
 20
-1307.367078232152
 30
0.0
 41
0.9994553539448393
 10
926.2162754858857
 20
-1307.355998927946
 30
0.0
 41
1.0
 10
926.2517098936837
 20
-1307.353777039898
 30
0.0
 41
1.0
 10
926.2871443014818
 20
-1307.35155515185
 30
0.0
 41
1.0
 10
926.4533700680507
 20
-1307.341132089439
 30
0.0
 41
0.999092809829311
 10
926.6198798599522
 20
-1307.344891730673
 30
0.0
 41
1.0
 10
926.6584416952207
 20
-1307.345762422206
 30
0.0
 41
1.0
 10
926.6970035304894
 20
-1307.346633113739
 30
0.0
 41
1.0
 10
926.7863896518517
 20
-1307.348651371907
 30
0.0
 41
0.9998382089205577
 10
926.8756453346411
 20
-1307.353883498436
 30
0.0
 41
1.0
 10
926.8760752408626
 20
-1307.353908699338
 30
0.0
 41
1.0
 10
926.8765051470841
 20
-1307.35393390024
 30
0.0
 41
1.0
 10
926.9649010174289
 20
-1307.359115624964
 30
0.0
 41
0.9997558016759139
 10
927.0529815946281
 20
-1307.36819814033
 30
0.0
 41
1.0
 10
927.0534577330575
 20
-1307.368247237813
 30
0.0
 41
1.0
 10
927.053933871487
 20
-1307.368296335295
 30
0.0
 41
1.0
 10
927.1410621718287
 20
-1307.377280655697
 30
0.0
 41
0.9996565144181326
 10
927.227600025171
 20
-1307.390817962386
 30
0.0
 41
1.0
 10
927.2280659505476
 20
-1307.390890848117
 30
0.0
 41
1.0
 10
927.2285318759242
 20
-1307.390963733848
 30
0.0
 41
1.0
 10
927.3141378785122
 20
-1307.404355269075
 30
0.0
 41
0.9995321806866537
 10
927.3987649588411
 20
-1307.422955757504
 30
0.0
 41
1.0
 10
927.3991541534137
 20
-1307.42304129997
 30
0.0
 41
1.0
 10
927.3995433479865
 20
-1307.423126842436
 30
0.0
 41
1.0
 10
927.48339203917
 20
-1307.441556245933
 30
0.0
 41
0.9993819199220001
 10
927.5657385733653
 20
-1307.465831629194
 30
0.0
 41
1.0
 10
927.5659770068637
 20
-1307.465901918303
 30
0.0
 41
1.0
 10
927.566215440362
 20
-1307.465972207413
 30
0.0
 41
1.0
 10
927.6480851075619
 20
-1307.490107012455
 30
0.0
 41
0.9992088568505794
 10
927.7277776265497
 20
-1307.520672248249
 30
0.0
 41
1.0
 10
927.8074586174287
 20
-1307.551231848982
 30
0.0
 41
0.9990226101773221
 10
927.8841292873359
 20
-1307.588709280597
 30
0.0
 41
1.0
 10
927.9607884291347
 20
-1307.62618107715
 30
0.0
 41
0.9988424273972166
 10
928.033492056347
 20
-1307.670845852404
 30
0.0
 41
1.0
 10
928.033759764726
 20
-1307.671010316476
 30
0.0
 41
1.0
 10
928.034027473105
 20
-1307.671174780548
 30
0.0
 41
1.0
 10
928.107266517076
 20
-1307.716168483945
 30
0.0
 41
0.9986928844491498
 10
928.1755293837862
 20
-1307.768404218225
 30
0.0
 41
1.0
 10
928.1761106760086
 20
-1307.768849031453
 30
0.0
 41
1.0
 10
928.1766919682311
 20
-1307.76929384468
 30
0.0
 41
1.0
 10
928.2461174193868
 20
-1307.822419205416
 30
0.0
 41
0.9986007262279114
 10
928.3095435891539
 20
-1307.88257997511
 30
0.0
 41
1.0
 10
928.3104380046108
 20
-1307.883428342945
 30
0.0
 41
1.0
 10
928.3113324200676
 20
-1307.884276710779
 30
0.0
 41
1.0
 10
928.3765474207491
 20
-1307.946134216143
 30
0.0
 41
0.9985581491381516
 10
928.4347550324512
 20
-1308.014626706416
 30
0.0
 41
1.0
 10
928.4440134860467
 20
-1308.025521064117
 30
0.0
 41
1.0
 10
928.4532719396421
 20
-1308.036415421818
 30
0.0
 41
1.0
 10
928.5299964585355
 20
-1308.126696627494
 30
0.0
 41
0.9970460233520698
 10
928.5919883596946
 20
-1308.227663711675
 30
0.0
 41
1.0
 10
928.6064577247748
 20
-1308.251230170757
 30
0.0
 41
1.0
 10
928.6209270898551
 20
-1308.27479662984
 30
0.0
 41
1.0
 10
928.6606637898666
 20
-1308.33951635387
 30
0.0
 41
0.9988468816636669
 10
928.6940101606176
 20
-1308.407748806297
 30
0.0
 41
1.0
 10
928.7010461831085
 20
-1308.422145727433
 30
0.0
 41
1.0
 10
928.7080822055992
 20
-1308.436542648569
 30
0.0
 41
1.0
 10
928.7273565313671
 20
-1308.47598125872
 30
0.0
 41
0.9998431189998231
 10
928.7452218588642
 20
-1308.516077813165
 30
0.0
 41
1.0
 10
928.7630871863557
 20
-1308.556174367598
 30
0.0
 41
0.999998999008236
 10
928.7810659098078
 20
-1308.596220205249
 30
0.0
 41
1.0
 10
928.7872382213886
 20
-1308.609968422032
 30
0.0
 41
1.0
 10
928.7934105329696
 20
-1308.623716638815
 30
0.0
 41
1.0
 10
928.8237338795782
 20
-1308.69125891002
 30
0.0
 41
0.999879035632205
 10
928.8519417597175
 20
-1308.75971166196
 30
0.0
 41
1.0
 10
928.8587769410019
 20
-1308.776298763388
 30
0.0
 41
1.0
 10
928.8656121222862
 20
-1308.792885864815
 30
0.0
 41
1.0
 10
928.8891697846667
 20
-1308.850053819701
 30
0.0
 41
0.9998227574560883
 10
928.9105585330562
 20
-1308.908068127979
 30
0.0
 41
1.0
 10
928.9319472814458
 20
-1308.966082436258
 30
0.0
 41
0.999679797104181
 10
928.9503735664052
 20
-1309.025104555377
 30
0.0
 41
1.0
 10
928.9542773691305
 20
-1309.037609013545
 30
0.0
 41
1.0
 10
928.9581811718558
 20
-1309.050113471713
 30
0.0
 41
1.0
 10
928.9844150622665
 20
-1309.13414450717
 30
0.0
 41
0.9979274938733917
 10
928.9996395857455
 20
-1309.22084886583
 30
0.0
 41
1.0
 10
929.0018632730067
 20
-1309.233512866651
 30
0.0
 41
1.0
 10
929.004086960268
 20
-1309.246176867473
 30
0.0
 41
1.0
 10
929.015016899966
 20
-1309.308423374762
 30
0.0
 41
0.9994985982137995
 10
929.021985065143
 20
-1309.371236875903
 30
0.0
 41
1.0
 10
929.0289532303201
 20
-1309.434050377049
 30
0.0
 41
0.999637261120208
 10
929.0325290960877
 20
-1309.49714795573
 30
0.0
 41
1.0
 10
929.032697673577
 20
-1309.500122572811
 30
0.0
 41
1.0
 10
929.0328662510663
 20
-1309.503097189892
 30
0.0
 41
1.0
 10
929.0367792718125
 20
-1309.572144002738
 30
0.0
 41
0.9997730630736434
 10
929.0377475853006
 20
-1309.64129482677
 30
0.0
 41
1.0
 10
929.0378046917187
 20
-1309.645373005913
 30
0.0
 41
1.0
 10
929.0378617981369
 20
-1309.649451185056
 30
0.0
 41
1.0
 10
929.0389443244612
 20
-1309.726758367378
 30
0.0
 41
0.9998772614070738
 10
929.0376042377294
 20
-1309.80406151394
 30
0.0
 41
1.0
 10
929.0375149745307
 20
-1309.809210677774
 30
0.0
 41
1.0
 10
929.0374257113319
 20
-1309.814359841608
 30
0.0
 41
1.0
 10
929.0359070982029
 20
-1309.901961315838
 30
0.0
 41
0.9999415567331137
 10
929.0324947879571
 20
-1309.989509477508
 30
0.0
 41
1.0
 10
929.0322534672816
 20
-1309.99570093725
 30
0.0
 41
1.0
 10
929.0320121466061
 20
-1310.001892396992
 30
0.0
 41
1.0
 10
929.0281171950095
 20
-1310.101823478144
 30
0.0
 41
0.9999716810424648
 10
929.0227186118909
 20
-1310.201684616373
 30
0.0
 41
1.0
 10
929.0195058131017
 20
-1310.261113866039
 30
0.0
 41
1.0
 10
929.0162930143124
 20
-1310.320543115704
 30
0.0
 41
1.0
 10
929.0082191051597
 20
-1310.469891516985
 30
0.0
 41
0.9999819129914017
 10
928.9983493135443
 20
-1310.619131994678
 30
0.0
 41
1.0
 10
928.9884795219277
 20
-1310.768372472389
 30
0.0
 41
1.0
 10
928.9860402013637
 20
-1310.805565518238
 30
0.0
 41
1.0
 10
929.0087384351555
 20
-1310.766824520975
 30
0.0
 41
0.9999982128223041
 10
929.0315829939053
 20
-1310.728169627027
 30
0.0
 41
1.0
 10
929.0584925538126
 20
-1310.682636412933
 30
0.0
 41
1.0
 10
929.0854021137197
 20
-1310.63710319884
 30
0.0
 41
1.0
 10
929.162065792248
 20
-1310.507381876767
 30
0.0
 41
0.9998609190057752
 10
929.2430131051104
 20
-1310.380289494837
 30
0.0
 41
1.0
 10
929.2726614265872
 20
-1310.333739761887
 30
0.0
 41
1.0
 10
929.302309748064
 20
-1310.287190028938
 30
0.0
 41
1.0
 10
929.3845819683048
 20
-1310.158017458936
 30
0.0
 41
0.9999067609733483
 10
929.470350977772
 20
-1310.03113976949
 30
0.0
 41
1.0
 10
929.4727556809759
 20
-1310.027582503431
 30
0.0
 41
1.0
 10
929.4751603841797
 20
-1310.024025237372
 30
0.0
 41
1.0
 10
929.5561199872403
 20
-1309.904262080043
 30
0.0
 41
0.9998784952149979
 10
929.6407735969174
 20
-1309.787080863341
 30
0.0
 41
1.0
 10
929.7254272066004
 20
-1309.66989964663
 30
0.0
 41
0.9998532968283019
 10
929.8140448274215
 20
-1309.555686738161
 30
0.0
 41
1.0
 10
929.8340066164133
 20
-1309.52995941714
 30
0.0
 41
1.0
 10
929.8539684054051
 20
-1309.504232096119
 30
0.0
 41
1.0
 10
929.9724524551633
 20
-1309.351526485152
 30
0.0
 41
0.9991551975795505
 10
930.1030769047861
 20
-1309.209066923069
 30
0.0
 41
1.0
 10
930.1065865207629
 20
-1309.205239321448
 30
0.0
 41
1.0
 10
930.1100961367396
 20
-1309.201411719827
 30
0.0
 41
1.0
 10
930.2337013544062
 20
-1309.066607360989
 30
0.0
 41
0.9997418144181437
 10
930.3633034941103
 20
-1308.937557950373
 30
0.0
 41
1.0
 10
930.4929056338112
 20
-1308.80850853976
 30
0.0
 41
0.998923820463324
 10
930.6339081820628
 20
-1308.692023577721
 30
0.0
 41
1.0
 10
930.6791558602001
 20
-1308.654643586114
 30
0.0
 41
1.0
 10
930.7244035383375
 20
-1308.617263594507
 30
0.0
 41
1.0
 10
930.8646435955612
 20
-1308.501408541214
 30
0.0
 41
0.9990825084096738
 10
931.0142835281663
 20
-1308.39797954338
 30
0.0
 41
1.0
 10
931.0243288922252
 20
-1308.391036330299
 30
0.0
 41
1.0
 10
931.0343742562842
 20
-1308.384093117218
 30
0.0
 41
1.0
 10
931.1639234607724
 20
-1308.294550545546
 30
0.0
 41
0.9998164899824639
 10
931.2968076641465
 20
-1308.210036304031
 30
0.0
 41
1.0
 10
931.30865322467
 20
-1308.202502537507
 30
0.0
 41
1.0
 10
931.3204987851936
 20
-1308.194968770983
 30
0.0
 41
1.0
 10
931.4296918675207
 20
-1308.125522062516
 30
0.0
 41
0.9997473449131855
 10
931.5418958247722
 20
-1308.061053104699
 30
0.0
 41
1.0
 10
931.6540997820243
 20
-1307.996584146882
 30
0.0
 41
0.9999327861141506
 10
931.7677683927876
 20
-1307.9347341552
 30
0.0
 41
1.0
 10
931.768320395347
 20
-1307.934433796522
 30
0.0
 41
1.0
 10
931.7688723979065
 20
-1307.934133437843
 30
0.0
 41
1.0
 10
931.8836450137948
 20
-1307.871682728802
 30
0.0
 41
0.9996956420484486
 10
932.0013583396383
 20
-1307.814969261826
 30
0.0
 41
1.0
 10
932.0317987445276
 20
-1307.800303285097
 30
0.0
 41
1.0
 10
932.0622391494168
 20
-1307.785637308369
 30
0.0
 41
1.0
 10
932.1652162561596
 20
-1307.736023649926
 30
0.0
 41
0.9998070570176274
 10
932.2700626451017
 20
-1307.690493063024
 30
0.0
 41
1.0
 10
932.3749090340469
 20
-1307.644962476122
 30
0.0
 41
0.9997827436147885
 10
932.4815619706588
 20
-1307.603841304809
 30
0.0
 41
1.0
 10
932.5007848202871
 20
-1307.596429731178
 30
0.0
 41
1.0
 10
932.5200076699153
 20
-1307.589018157547
 30
0.0
 41
1.0
 10
932.6651063057884
 20
-1307.53307383897
 30
0.0
 41
0.9988031841976515
 10
932.8149766683933
 20
-1307.491573774802
 30
0.0
 41
1.0
 10
932.839893916756
 20
-1307.484674028996
 30
0.0
 41
1.0
 10
932.8648111651186
 20
-1307.477774283189
 30
0.0
 41
1.0
 10
933.032081190766
 20
-1307.431456140782
 30
0.0
 41
0.9984748040549448
 10
933.2034380994154
 20
-1307.403861908517
 30
0.0
 41
1.0
 10
933.2081772356645
 20
-1307.403098748004
 30
0.0
 41
1.0
 10
933.2129163719136
 20
-1307.40233558749
 30
0.0
 41
1.0
 10
933.3747950080642
 20
-1307.376267676252
 30
0.0
 41
0.9984436495479797
 10
933.538569751789
 20
-1307.368389722433
 30
0.0
 41
1.0
 10
933.5602669599199
 20
-1307.367346035234
 30
0.0
 41
1.0
 10
933.5819641680507
 20
-1307.366302348034
 30
0.0
 41
1.0
 10
933.7023444955131
 20
-1307.360511768615
 30
0.0
 41
0.9987954789335314
 10
933.8227127404236
 20
-1307.366548296357
 30
0.0
 41
1.0
 10
933.8426775329194
 20
-1307.367549540696
 30
0.0
 41
1.0
 10
933.8626423254152
 20
-1307.368550785034
 30
0.0
 41
1.0
 10
933.9430809853349
 20
-1307.372584824099
 30
0.0
 41
0.9997941595878287
 10
934.023289763428
 20
-1307.37987889002
 30
0.0
 41
1.0
 10
934.1034985415228
 20
-1307.387172955941
 30
0.0
 41
0.9998589466238532
 10
934.1834170883778
 20
-1307.397156810392
 30
0.0
 41
1.0
 10
934.2158232901859
 20
-1307.401205167311
 30
0.0
 41
1.0
 10
934.2482294919939
 20
-1307.40525352423
 30
0.0
 41
1.0
 10
934.3929604424663
 20
-1307.423334092519
 30
0.0
 41
0.999349506324944
 10
934.536011686233
 20
-1307.45179980226
 30
0.0
 41
1.0
 10
934.5689453833838
 20
-1307.458353265475
 30
0.0
 41
1.0
 10
934.6018790805346
 20
-1307.46490672869
 30
0.0
 41
1.0
 10
934.7111729037397
 20
-1307.486655062825
 30
0.0
 41
0.9996788715560934
 10
934.819224475696
 20
-1307.513912862188
 30
0.0
 41
1.0
 10
934.8212874782375
 20
-1307.514433288762
 30
0.0
 41
1.0
 10
934.823350480779
 20
-1307.514953715335
 30
0.0
 41
1.0
 10
934.9272760476549
 20
-1307.541170661552
 30
0.0
 41
0.9995480654492804
 10
935.0294382828818
 20
-1307.573585618175
 30
0.0
 41
1.0
 10
935.0311279250108
 20
-1307.574121723089
 30
0.0
 41
1.0
 10
935.0328175671398
 20
-1307.574657828003
 30
0.0
 41
1.0
 10
935.131600518111
 20
-1307.6060005748
 30
0.0
 41
0.9993867959456906
 10
935.2279476765536
 20
-1307.64417994409
 30
0.0
 41
1.0
 10
935.2291906256396
 20
-1307.644672485987
 30
0.0
 41
1.0
 10
935.2304335747256
 20
-1307.645165027883
 30
0.0
 41
1.0
 10
935.324294834997
 20
-1307.68235931338
 30
0.0
 41
0.9992050256522353
 10
935.4148945100296
 20
-1307.726913212618
 30
0.0
 41
1.0
 10
935.415629192742
 20
-1307.727274505079
 30
0.0
 41
1.0
 10
935.4163638754544
 20
-1307.72763579754
 30
0.0
 41
1.0
 10
935.5054941850627
 20
-1307.771467111857
 30
0.0
 41
0.9990222350741884
 10
935.5904042464567
 20
-1307.823000379555
 30
0.0
 41
1.0
 10
935.5905881317399
 20
-1307.82311198246
 30
0.0
 41
1.0
 10
935.590772017023
 20
-1307.823223585365
 30
0.0
 41
1.0
 10
935.6753143078507
 20
-1307.874533647254
 30
0.0
 41
0.9988642743805358
 10
935.7545888424693
 20
-1307.933657834779
 30
0.0
 41
1.0
 10
935.8338633770883
 20
-1307.992782022304
 30
0.0
 41
0.9987681233311223
 10
935.9068871613637
 20
-1308.059472713704
 30
0.0
 41
1.0
 10
935.9072160893298
 20
-1308.059773114919
 30
0.0
 41
1.0
 10
935.907545017296
 20
-1308.060073516133
 30
0.0
 41
1.0
 10
935.9812266575035
 20
-1308.127365009962
 30
0.0
 41
0.9987496570897775
 10
936.0478204628304
 20
-1308.201677824048
 30
0.0
 41
1.0
 10
936.0485926325912
 20
-1308.202539497407
 30
0.0
 41
1.0
 10
936.049364802352
 20
-1308.203401170765
 30
0.0
 41
1.0
 10
936.1175029472005
 20
-1308.279437331568
 30
0.0
 41
0.9988147669826731
 10
936.1779252014259
 20
-1308.361738338411
 30
0.0
 41
1.0
 10
936.1790445275033
 20
-1308.363262969763
 30
0.0
 41
1.0
 10
936.1801638535806
 20
-1308.364787601115
 30
0.0
 41
1.0
 10
936.2428247599607
 20
-1308.450137870662
 30
0.0
 41
0.9989452636215608
 10
936.2973916729218
 20
-1308.540876559819
 30
0.0
 41
1.0
 10
936.2987403990077
 20
-1308.543119340846
 30
0.0
 41
1.0
 10
936.3000891250936
 20
-1308.545362121873
 30
0.0
 41
1.0
 10
936.3573534902255
 20
-1308.640586373081
 30
0.0
 41
0.9991046436069917
 10
936.4063627035474
 20
-1308.740310806107
 30
0.0
 41
1.0
 10
936.4078265651376
 20
-1308.74328948618
 30
0.0
 41
1.0
 10
936.4092904267279
 20
-1308.746268166253
 30
0.0
 41
1.0
 10
936.4612273632296
 20
-1308.851949959423
 30
0.0
 41
0.999276383110068
 10
936.5049804917844
 20
-1308.961274021379
 30
0.0
 41
1.0
 10
936.5064597614479
 20
-1308.964970208913
 30
0.0
 41
1.0
 10
936.5079390311114
 20
-1308.968666396447
 30
0.0
 41
1.0
 10
936.5546506989928
 20
-1309.085382833469
 30
0.0
 41
0.9994163472883345
 10
936.5932837301831
 20
-1309.205016421935
 30
0.0
 41
1.0
 10
936.5945218824297
 20
-1309.208850565717
 30
0.0
 41
1.0
 10
936.5957600346762
 20
-1309.212684709499
 30
0.0
 41
1.0
 10
936.6356435956935
 20
-1309.336190770978
 30
0.0
 41
0.999726805589004
 10
936.6697116516057
 20
-1309.461425802928
 30
0.0
 41
1.0
 10
936.6706418318759
 20
-1309.464845169039
 30
0.0
 41
1.0
 10
936.6715720121459
 20
-1309.46826453515
 30
0.0
 41
1.0
 10
936.7037797075176
 20
-1309.586660834879
 30
0.0
 41
0.9996701319000574
 10
936.7298653242881
 20
-1309.706554788143
 30
0.0
 41
1.0
 10
936.7559509410585
 20
-1309.826448741407
 30
0.0
 41
0.999578545111018
 10
936.775034518398
 20
-1309.947654502436
 30
0.0
 41
1.0
 10
936.7792543005719
 20
-1309.974455657202
 30
0.0
 41
1.0
 10
936.7834740827459
 20
-1310.001256811968
 30
0.0
 41
1.0
 10
936.8100490586843
 20
-1310.17004278567
 30
0.0
 41
0.9979925101217069
 10
936.8150746446107
 20
-1310.340834113762
 30
0.0
 41
1.0
 10
936.8158994570354
 20
-1310.36886483724
 30
0.0
 41
1.0
 10
936.8167242694599
 20
-1310.396895560717
 30
0.0
 41
1.0
 10
936.8201002305374
 20
-1310.511625441848
 30
0.0
 41
0.9995314902262492
 10
936.8164500383986
 20
-1310.626346925606
 30
0.0
 41
1.0
 10
936.81279984626
 20
-1310.741068409357
 30
0.0
 41
0.9996245486944912
 10
936.8028707511293
 20
-1310.855417680482
 30
0.0
 41
1.0
 10
936.802707703135
 20
-1310.857295436617
 30
0.0
 41
1.0
 10
936.8025446551408
 20
-1310.859173192752
 30
0.0
 41
1.0
 10
936.7922894640211
 20
-1310.977277976148
 30
0.0
 41
0.9997286095001071
 10
936.7765441404503
 20
-1311.094776885039
 30
0.0
 41
1.0
 10
936.7761506477998
 20
-1311.097713309742
 30
0.0
 41
1.0
 10
936.7757571551492
 20
-1311.100649734445
 30
0.0
 41
1.0
 10
936.7592248462774
 20
-1311.22402149274
 30
0.0
 41
0.9998265533968587
 10
936.7381093875446
 20
-1311.346691967531
 30
0.0
 41
1.0
 10
936.7374328454073
 20
-1311.350622346039
 30
0.0
 41
1.0
 10
936.7367563032701
 20
-1311.354552724547
 30
0.0
 41
1.0
 10
936.7142877602635
 20
-1311.48508395635
 30
0.0
 41
0.9999022530852122
 10
936.6881782956556
 20
-1311.614935924978
 30
0.0
 41
1.0
 10
936.6871996544891
 20
-1311.619803067371
 30
0.0
 41
1.0
 10
936.6862210133226
 20
-1311.624670209764
 30
0.0
 41
1.0
 10
936.6581542663845
 20
-1311.764256463165
 30
0.0
 41
0.999952476193471
 10
936.6273712975501
 20
-1311.903268956328
 30
0.0
 41
1.0
 10
936.6260951903731
 20
-1311.909031715637
 30
0.0
 41
1.0
 10
936.6248190831961
 20
-1311.914794474946
 30
0.0
 41
1.0
 10
936.5914839000088
 20
-1312.065332486723
 30
0.0
 41
0.9999813588737556
 10
936.5563128992065
 20
-1312.215452199406
 30
0.0
 41
1.0
 10
936.5547589737541
 20
-1312.222084789811
 30
0.0
 41
1.0
 10
936.5532050483016
 20
-1312.228717380216
 30
0.0
 41
1.0
 10
936.5149261965943
 20
-1312.39210227371
 30
0.0
 41
0.9999955237645187
 10
936.4756703186142
 20
-1312.555255177315
 30
0.0
 41
1.0
 10
936.4633886829788
 20
-1312.606299367842
 30
0.0
 41
1.0
 10
936.4511070473434
 20
-1312.657343558369
 30
0.0
 41
1.0
 10
936.3872878980937
 20
-1312.922584843023
 30
0.0
 41
0.999999360415134
 10
936.3228689509092
 20
-1313.187681093776
 30
0.0
 41
1.0
 10
936.3181501153706
 20
-1313.207100001781
 30
0.0
 41
1.0
 10
936.3134312798321
 20
-1313.226518909787
 30
0.0
 41
1.0
 10
936.2395746615713
 20
-1313.530452976548
 30
0.0
 41
0.9999659914725348
 10
936.1607150656858
 20
-1313.833127523107
 30
0.0
 41
1.0
 10
936.1557623767555
 20
-1313.852136660289
 30
0.0
 41
1.0
 10
936.1508096878251
 20
-1313.87114579747
 30
0.0
 41
1.0
 10
936.0620447140785
 20
-1314.211838618394
 30
0.0
 41
0.999944197602537
 10
935.9661016811131
 20
-1314.550580043699
 30
0.0
 41
1.0
 10
935.9494011626891
 20
-1314.609543756221
 30
0.0
 41
1.0
 10
935.9327006442652
 20
-1314.668507468743
 30
0.0
 41
1.0
 10
935.803356574449
 20
-1315.125176319103
 30
0.0
 41
0.999962512073358
 10
935.6661238071277
 20
-1315.579536853091
 30
0.0
 41
1.0
 10
935.6303338640429
 20
-1315.698032879725
 30
0.0
 41
1.0
 10
935.594543920958
 20
-1315.816528906358
 30
0.0
 41
1.0
 10
935.5200237169216
 20
-1316.063255984445
 30
0.0
 41
0.999979338631729
 10
935.4423376937825
 20
-1316.309004623686
 30
0.0
 41
1.0
 10
935.3646516706449
 20
-1316.554753262922
 30
0.0
 41
1.0
 10
935.3538721117743
 20
-1316.588771167297
 30
0.0
 41
1.0
 10
933.5034990585052
 20
-1322.475843089764
 30
0.0
 41
1.0
 10
931.6531260052361
 20
-1328.362915012232
 30
0.0
 41
1.0
 10
930.6918693152124
 20
-1328.362915012232
 30
0.0
 41
1.0
 10
929.7306126251888
 20
-1328.362915012232
 30
0.0
 41
1.0
 10
931.3495574038673
 20
-1323.214886510442
 30
0.0
 41
1.0
 10
932.9685021825458
 20
-1318.066858008653
 30
0.0
 41
1.0
 10
933.0136680057176
 20
-1317.922826786391
 30
0.0
 41
1.0
 10
933.0588338288895
 20
-1317.778795564129
 30
0.0
 41
1.0
 10
933.2291382462544
 20
-1317.235704534959
 30
0.0
 41
0.9999911657891926
 10
933.3948710579374
 20
-1316.691201003587
 30
0.0
 41
1.0
 10
933.4245670014454
 20
-1316.593637063512
 30
0.0
 41
1.0
 10
933.4542629449534
 20
-1316.496073123436
 30
0.0
 41
1.0
 10
933.5606038696205
 20
-1316.146697472213
 30
0.0
 41
0.9999952428159671
 10
933.6647874589424
 20
-1315.796672447874
 30
0.0
 41
1.0
 10
933.6698469292676
 20
-1315.779674173623
 30
0.0
 41
1.0
 10
933.6749063995927
 20
-1315.762675899373
 30
0.0
 41
1.0
 10
933.7689710482575
 20
-1315.446647423557
 30
0.0
 41
0.9999931687520052
 10
933.8606968861411
 20
-1315.129932210254
 30
0.0
 41
1.0
 10
933.8656321506028
 20
-1315.112891500975
 30
0.0
 41
1.0
 10
933.8705674150643
 20
-1315.095850791697
 30
0.0
 41
1.0
 10
933.9524227240204
 20
-1314.813216996964
 30
0.0
 41
0.9999893840780352
 10
934.0316699504717
 20
-1314.529840867737
 30
0.0
 41
1.0
 10
934.1109171769289
 20
-1314.246464738489
 30
0.0
 41
0.999983398006744
 10
934.1868934176684
 20
-1313.962194155468
 30
0.0
 41
1.0
 10
934.1958973543917
 20
-1313.928505276986
 30
0.0
 41
1.0
 10
934.204901291115
 20
-1313.894816398504
 30
0.0
 41
1.0
 10
934.2738658399826
 20
-1313.636780566202
 30
0.0
 41
0.999923365806814
 10
934.336420811202
 20
-1313.377116407484
 30
0.0
 41
1.0
 10
934.3989757824222
 20
-1313.117452248761
 30
0.0
 41
1.0
 10
934.4384592012798
 20
-1312.953645584335
 30
0.0
 41
1.0
 10
934.443437805259
 20
-1312.932990622456
 30
0.0
 41
1.0
 10
934.4484164092383
 20
-1312.912335660578
 30
0.0
 41
1.0
 10
934.4779426201401
 20
-1312.789838919898
 30
0.0
 41
0.9999868670863681
 10
934.5062117041335
 20
-1312.667045974263
 30
0.0
 41
1.0
 10
934.5101091912948
 20
-1312.650116386831
 30
0.0
 41
1.0
 10
934.514006678456
 20
-1312.633186799399
 30
0.0
 41
1.0
 10
934.5344807881345
 20
-1312.544253028598
 30
0.0
 41
0.9999778173356592
 10
934.5537683862451
 20
-1312.455054411387
 30
0.0
 41
1.0
 10
934.5730559843608
 20
-1312.365855794155
 30
0.0
 41
0.9999602692859295
 10
934.590750342993
 20
-1312.276327505722
 30
0.0
 41
1.0
 10
934.5939541750698
 20
-1312.260117050841
 30
0.0
 41
1.0
 10
934.5971580071466
 20
-1312.243906595959
 30
0.0
 41
1.0
 10
934.6212600299324
 20
-1312.121957397763
 30
0.0
 41
0.999561798532053
 10
934.6381033771514
 20
-1311.998795650056
 30
0.0
 41
1.0
 10
934.6405678670576
 20
-1311.980774832691
 30
0.0
 41
1.0
 10
934.6430323569637
 20
-1311.962754015326
 30
0.0
 41
1.0
 10
934.6633156180119
 20
-1311.814438965625
 30
0.0
 41
0.9991121410639695
 10
934.6710409716004
 20
-1311.664942866817
 30
0.0
 41
1.0
 10
934.671959761625
 20
-1311.647163030241
 30
0.0
 41
1.0
 10
934.6728785516494
 20
-1311.629383193666
 30
0.0
 41
1.0
 10
934.6787663251885
 20
-1311.515446768013
 30
0.0
 41
0.9989792494906293
 10
934.6743472330713
 20
-1311.401443932112
 30
0.0
 41
1.0
 10
934.6736992612027
 20
-1311.384727686185
 30
0.0
 41
1.0
 10
934.6730512893341
 20
-1311.368011440258
 30
0.0
 41
1.0
 10
934.669928140954
 20
-1311.287441096214
 30
0.0
 41
0.9997820295395323
 10
934.6634441435783
 20
-1311.20707137447
 30
0.0
 41
1.0
 10
934.6569601462022
 20
-1311.126701652721
 30
0.0
 41
0.9998335105974429
 10
934.6475479506898
 20
-1311.046622036265
 30
0.0
 41
1.0
 10
934.645953026014
 20
-1311.033052305788
 30
0.0
 41
1.0
 10
934.6443581013383
 20
-1311.01948257531
 30
0.0
 41
1.0
 10
934.6317560564743
 20
-1310.912263497896
 30
0.0
 41
0.9996876457878726
 10
934.6138121436762
 20
-1310.805808070182
 30
0.0
 41
1.0
 10
934.6115804805308
 20
-1310.79256833494
 30
0.0
 41
1.0
 10
934.6093488173856
 20
-1310.779328599698
 30
0.0
 41
1.0
 10
934.5955529959641
 20
-1310.697482455738
 30
0.0
 41
0.9995547496495542
 10
934.5768996740712
 20
-1310.616604958544
 30
0.0
 41
1.0
 10
934.5765257171997
 20
-1310.614983547838
 30
0.0
 41
1.0
 10
934.5761517603283
 20
-1310.613362137132
 30
0.0
 41
1.0
 10
934.5582463521787
 20
-1310.535727461353
 30
0.0
 41
0.9994899427174667
 10
934.5354214434993
 20
-1310.459394178519
 30
0.0
 41
1.0
 10
934.5349629167583
 20
-1310.457860728729
 30
0.0
 41
1.0
 10
934.5345043900172
 20
-1310.456327278939
 30
0.0
 41
1.0
 10
934.5125965348196
 20
-1310.383060895684
 30
0.0
 41
0.9993784877591348
 10
934.4855808997133
 20
-1310.311520190525
 30
0.0
 41
1.0
 10
934.4850492087364
 20
-1310.310112207805
 30
0.0
 41
1.0
 10
934.4845175177595
 20
-1310.308704225084
 30
0.0
 41
1.0
 10
934.458565264606
 20
-1310.239979485365
 30
0.0
 41
0.9992430832254073
 10
934.4273487294473
 20
-1310.173480333298
 30
0.0
 41
1.0
 10
934.426766613391
 20
-1310.172240278182
 30
0.0
 41
1.0
 10
934.4261844973347
 20
-1310.171000223065
 30
0.0
 41
1.0
 10
934.3961321942886
 20
-1310.106981181232
 30
0.0
 41
0.9990789632800243
 10
934.3607015675113
 20
-1310.04577456948
 30
0.0
 41
1.0
 10
934.360105861329
 20
-1310.04474548362
 30
0.0
 41
1.0
 10
934.3595101551466
 20
-1310.043716397761
 30
0.0
 41
1.0
 10
934.3252709407341
 20
-1309.984567957729
 30
0.0
 41
0.9988874801119507
 10
934.2856116647026
 20
-1309.928908245313
 30
0.0
 41
1.0
 10
934.2850561386383
 20
-1309.928128593638
 30
0.0
 41
1.0
 10
934.2845006125739
 20
-1309.927348941963
 30
0.0
 41
1.0
 10
934.2459523886707
 20
-1309.873248532895
 30
0.0
 41
0.9986762060692457
 10
934.2020499173943
 20
-1309.823394818456
 30
0.0
 41
1.0
 10
934.2016059570628
 20
-1309.82289067664
 30
0.0
 41
1.0
 10
934.2011619967313
 20
-1309.822386534824
 30
0.0
 41
1.0
 10
934.1581474461187
 20
-1309.773541104017
 30
0.0
 41
0.9984621642488928
 10
934.1099898893403
 20
-1309.729757803545
 30
0.0
 41
1.0
 10
934.1097432548231
 20
-1309.729533571381
 30
0.0
 41
1.0
 10
934.109496620306
 20
-1309.729309339217
 30
0.0
 41
1.0
 10
934.0618323325626
 20
-1309.685974503074
 30
0.0
 41
0.9982724693850356
 10
934.0094137007211
 20
-1309.648530152557
 30
0.0
 41
1.0
 10
933.9569950688801
 20
-1309.611085802039
 30
0.0
 41
0.9981399180159077
 10
933.900409005486
 20
-1309.580299282595
 30
0.0
 41
1.0
 10
933.9003633434077
 20
-1309.580274439438
 30
0.0
 41
1.0
 10
933.9003176813294
 20
-1309.580249596281
 30
0.0
 41
1.0
 10
933.8436402937793
 20
-1309.549413390524
 30
0.0
 41
0.9980927086836819
 10
933.7835949427127
 20
-1309.525796581671
 30
0.0
 41
1.0
 10
933.7831547730011
 20
-1309.525623455796
 30
0.0
 41
1.0
 10
933.7827146032894
 20
-1309.525450329921
 30
0.0
 41
1.0
 10
933.7217889128005
 20
-1309.501487269319
 30
0.0
 41
0.9981411356562093
 10
933.6584003914018
 20
-1309.485114627813
 30
0.0
 41
1.0
 10
933.6575182746996
 20
-1309.484886785608
 30
0.0
 41
1.0
 10
933.6566361579974
 20
-1309.484658943402
 30
0.0
 41
1.0
 10
933.5914834031942
 20
-1309.467830617485
 30
0.0
 41
0.9983031812934628
 10
933.5248159741982
 20
-1309.458691256309
 30
0.0
 41
1.0
 10
933.5159449487962
 20
-1309.457475137638
 30
0.0
 41
1.0
 10
933.5070739233943
 20
-1309.456259018967
 30
0.0
 41
1.0
 10
933.4527242808894
 20
-1309.448808288975
 30
0.0
 41
0.9983887708264949
 10
933.3978804315956
 20
-1309.447563615342
 30
0.0
 41
1.0
 10
933.389817026379
 20
-1309.447380617467
 30
0.0
 41
1.0
 10
933.3817536211624
 20
-1309.447197619592
 30
0.0
 41
1.0
 10
933.3430365823036
 20
-1309.446318941709
 30
0.0
 41
0.9998869563080546
 10
933.3043106291001
 20
-1309.446604811068
 30
0.0
 41
1.0
 10
933.2655846758917
 20
-1309.446890680428
 30
0.0
 41
0.9999972320109598
 10
933.2268604966747
 20
-1309.447358779957
 30
0.0
 41
1.0
 10
933.2075074801007
 20
-1309.447592720046
 30
0.0
 41
1.0
 10
933.1881544635266
 20
-1309.447826660136
 30
0.0
 41
1.0
 10
933.1107242511564
 20
-1309.448762639844
 30
0.0
 41
0.9997304945088009
 10
933.0334209449195
 20
-1309.45329173363
 30
0.0
 41
1.0
 10
933.0243713032146
 20
-1309.45382193962
 30
0.0
 41
1.0
 10
933.0153216615098
 20
-1309.45435214561
 30
0.0
 41
1.0
 10
932.9199190718635
 20
-1309.459941651376
 30
0.0
 41
0.999788830641592
 10
932.824826736021
 20
-1309.469446615865
 30
0.0
 41
1.0
 10
932.8161056744483
 20
-1309.470318330497
 30
0.0
 41
1.0
 10
932.8073846128756
 20
-1309.471190045129
 30
0.0
 41
1.0
 10
932.6948501538881
 20
-1309.482438438882
 30
0.0
 41
0.9984170238191427
 10
932.5842910065373
 20
-1309.506254520818
 30
0.0
 41
1.0
 10
932.54790987555
 20
-1309.514091556624
 30
0.0
 41
1.0
 10
932.5115287445627
 20
-1309.52192859243
 30
0.0
 41
1.0
 10
932.3963376761413
 20
-1309.54674245894
 30
0.0
 41
0.9976592854199166
 10
932.2856095097368
 20
-1309.587041136087
 30
0.0
 41
1.0
 10
932.1748813433314
 20
-1309.627339813234
 30
0.0
 41
0.9993255074352504
 10
932.0674095445404
 20
-1309.675656711727
 30
0.0
 41
1.0
 10
932.0627843656174
 20
-1309.677736087926
 30
0.0
 41
1.0
 10
932.0581591866944
 20
-1309.679815464126
 30
0.0
 41
1.0
 10
931.941437030057
 20
-1309.732291115018
 30
0.0
 41
0.9976475078275289
 10
931.8329896857465
 20
-1309.800239104677
 30
0.0
 41
1.0
 10
931.8146472916133
 20
-1309.81173158349
 30
0.0
 41
1.0
 10
931.7963048974801
 20
-1309.823224062304
 30
0.0
 41
1.0
 10
931.7121027059272
 20
-1309.875981183073
 30
0.0
 41
0.9995131336407471
 10
931.6313549909675
 20
-1309.933887395027
 30
0.0
 41
1.0
 10
931.5506072760074
 20
-1309.991793606982
 30
0.0
 41
0.9995810107606229
 10
931.4733456282758
 20
-1310.054275289451
 30
0.0
 41
1.0
 10
931.4703755970684
 20
-1310.056677160913
 30
0.0
 41
1.0
 10
931.4674055658611
 20
-1310.059079032375
 30
0.0
 41
1.0
 10
931.3842038557098
 20
-1310.126364457772
 30
0.0
 41
0.9996617837954382
 10
931.3046131685741
 20
-1310.197884913333
 30
0.0
 41
1.0
 10
931.2924824176979
 20
-1310.208785646323
 30
0.0
 41
1.0
 10
931.2803516668217
 20
-1310.219686379312
 30
0.0
 41
1.0
 10
931.2120761394244
 20
-1310.281038994785
 30
0.0
 41
0.9997267750052544
 10
931.1467426311416
 20
-1310.34551553131
 30
0.0
 41
1.0
 10
931.0814091228591
 20
-1310.409992067834
 30
0.0
 41
0.9999667288962335
 10
931.0171361797063
 20
-1310.475525874735
 30
0.0
 41
1.0
 10
930.9483087319336
 20
-1310.545703533491
 30
0.0
 41
1.0
 10
930.879481284161
 20
-1310.615881192246
 30
0.0
 41
1.0
 10
930.6775534454656
 20
-1310.821770316656
 30
0.0
 41
0.9988205335174994
 10
930.4965478284872
 20
-1311.046274548715
 30
0.0
 41
1.0
 10
930.4659078635813
 20
-1311.084277799146
 30
0.0
 41
1.0
 10
930.4352678986753
 20
-1311.122281049578
 30
0.0
 41
1.0
 10
930.1929823518865
 20
-1311.422791782498
 30
0.0
 41
0.9997077826755099
 10
929.9655044007793
 20
-1311.734661576717
 30
0.0
 41
1.0
 10
929.9637809856498
 20
-1311.737024360095
 30
0.0
 41
1.0
 10
929.9620575705203
 20
-1311.739387143474
 30
0.0
 41
1.0
 10
929.7311327891542
 20
-1312.055982504449
 30
0.0
 41
0.9989147567079117
 10
929.5306692862705
 20
-1312.392691965634
 30
0.0
 41
1.0
 10
929.5059281409647
 20
-1312.434248546184
 30
0.0
 41
1.0
 10
929.481186995659
 20
-1312.475805126735
 30
0.0
 41
1.0
 10
929.3259756970191
 20
-1312.736506511192
 30
0.0
 41
0.9997476598182118
 10
929.1826307095098
 20
-1313.003916259774
 30
0.0
 41
1.0
 10
929.0392857219977
 20
-1313.271326008361
 30
0.0
 41
0.999625896711019
 10
928.9107774700655
 20
-1313.546173944987
 30
0.0
 41
1.0
 10
928.8975775606157
 20
-1313.574405345083
 30
0.0
 41
1.0
 10
928.884377651166
 20
-1313.602636745178
 30
0.0
 41
1.0
 10
928.744168930168
 20
-1313.902509143127
 30
0.0
 41
0.999873541394467
 10
928.6135675834487
 20
-1314.206688742593
 30
0.0
 41
1.0
 10
928.6101247553879
 20
-1314.214707328058
 30
0.0
 41
1.0
 10
928.6066819273273
 20
-1314.222725913523
 30
0.0
 41
1.0
 10
928.4829662367287
 20
-1314.51086834206
 30
0.0
 41
0.999937741885929
 10
928.3657114345536
 20
-1314.801699809736
 30
0.0
 41
1.0
 10
928.2484566323742
 20
-1315.092531277422
 30
0.0
 41
0.9999508299510192
 10
928.1369926889981
 20
-1315.38563095424
 30
0.0
 41
1.0
 10
928.1339119203371
 20
-1315.3937319802
 30
0.0
 41
1.0
 10
928.1308311516761
 20
-1315.40183300616
 30
0.0
 41
1.0
 10
928.0132056709707
 20
-1315.711134734917
 30
0.0
 41
0.9999609228430605
 10
927.9010670680972
 20
-1316.022467750932
 30
0.0
 41
1.0
 10
927.8981110577488
 20
-1316.030674591338
 30
0.0
 41
1.0
 10
927.8951550474005
 20
-1316.038881431744
 30
0.0
 41
1.0
 10
927.7771044238289
 20
-1316.366628128574
 30
0.0
 41
0.9999674607404456
 10
927.6643568977606
 20
-1316.696236748569
 30
0.0
 41
1.0
 10
927.6129585071955
 20
-1316.846495944269
 30
0.0
 41
1.0
 10
927.5615601166303
 20
-1316.996755139968
 30
0.0
 41
1.0
 10
927.4455495098728
 20
-1317.335903122471
 30
0.0
 41
0.999928753230791
 10
927.3376681059054
 20
-1317.677723861436
 30
0.0
 41
1.0
 10
927.2911908497947
 20
-1317.824986405717
 30
0.0
 41
1.0
 10
927.2447135936841
 20
-1317.972248949998
 30
0.0
 41
1.0
 10
927.229786701959
 20
-1318.019544600334
 30
0.0
 41
0.9999998223755887
 10
927.2149161932043
 20
-1318.066858008653
 30
0.0
 41
1.0
 10
925.5942600564089
 20
-1323.214886510442
 30
0.0
 41
1.0
 10
923.9736039196134
 20
-1328.362915012232
 30
0.0
 41
1.0
 10
923.0682954757225
 20
-1328.362915012232
 30
0.0
 41
1.0
 10
922.1629870318316
 20
-1328.362915012232
 30
0.0
 41
1.0
 10
924.0150714432176
 20
-1322.475843089764
 30
0.0
 41
1.0
 10
925.8671558546037
 20
-1316.588771167297
 30
0.0
 41
1.0
 10
925.8772776129063
 20
-1316.556727953847
 30
0.0
 41
1.0
 10
925.949885281756
 20
-1316.326428412021
 30
0.0
 41
1.0
 10
926.0224929506022
 20
-1316.096128870206
 30
0.0
 41
0.9999825681972182
 10
926.0923759898159
 20
-1315.864987975135
 30
0.0
 41
1.0
 10
926.1406670519768
 20
-1315.705263391639
 30
0.0
 41
1.0
 10
926.1889581141378
 20
-1315.545538808142
 30
0.0
 41
1.0
 10
926.286110467456
 20
-1315.224203586362
 30
0.0
 41
0.9999672528965251
 10
926.3780492730782
 20
-1314.901338040781
 30
0.0
 41
1.0
 10
926.3808381567492
 20
-1314.891544195386
 30
0.0
 41
1.0
 10
926.38362704042
 20
-1314.881750349992
 30
0.0
 41
1.0
 10
926.469988078707
 20
-1314.578472495175
 30
0.0
 41
0.9999899749125442
 10
926.5536296882362
 20
-1314.274433406742
 30
0.0
 41
1.0
 10
926.563735607254
 20
-1314.237698169062
 30
0.0
 41
1.0
 10
926.5738415262717
 20
-1314.200962931383
 30
0.0
 41
1.0
 10
926.6372712977693
 20
-1313.970394318295
 30
0.0
 41
0.9999214200504808
 10
926.6949007261486
 20
-1313.73830797608
 30
0.0
 41
1.0
 10
926.7076665783309
 20
-1313.686897090677
 30
0.0
 41
1.0
 10
926.720432430513
 20
-1313.635486205274
 30
0.0
 41
1.0
 10
926.7525301545254
 20
-1313.506221633875
 30
0.0
 41
0.9999828681652394
 10
926.7831124065218
 20
-1313.376590159403
 30
0.0
 41
1.0
 10
926.8136946585166
 20
-1313.246958684939
 30
0.0
 41
0.999938984447989
 10
926.8414056473051
 20
-1313.116683229042
 30
0.0
 41
1.0
 10
926.8485433910259
 20
-1313.083127125201
 30
0.0
 41
1.0
 10
926.8556811347469
 20
-1313.049571021361
 30
0.0
 41
1.0
 10
926.8976676109772
 20
-1312.852183357782
 30
0.0
 41
0.9998933699440354
 10
926.9338718753787
 20
-1312.653653750028
 30
0.0
 41
1.0
 10
926.9352447005951
 20
-1312.646125729331
 30
0.0
 41
1.0
 10
926.9366175258115
 20
-1312.638597708634
 30
0.0
 41
1.0
 10
926.9755674406468
 20
-1312.42501205948
 30
0.0
 41
0.9996850305193948
 10
927.0037511169052
 20
-1312.209741054046
 30
0.0
 41
1.0
 10
927.0057461502739
 20
-1312.194502699928
 30
0.0
 41
1.0
 10
927.0077411836427
 20
-1312.17926434581
 30
0.0
 41
1.0
 10
927.0351490461021
 20
-1311.969919118651
 30
0.0
 41
0.9994697936707067
 10
927.0488736053225
 20
-1311.759233923317
 30
0.0
 41
1.0
 10
927.0493506745722
 20
-1311.751910451105
 30
0.0
 41
1.0
 10
927.0498277438219
 20
-1311.744586978894
 30
0.0
 41
1.0
 10
927.0625981645422
 20
-1311.548548727984
 30
0.0
 41
0.9991804893136665
 10
927.0594698482693
 20
-1311.352119878012
 30
0.0
 41
1.0
 10
927.0593859694471
 20
-1311.346853076599
 30
0.0
 41
1.0
 10
927.059302090625
 20
-1311.341586275187
 30
0.0
 41
1.0
 10
927.0563415319965
 20
-1311.15569102804
 30
0.0
 41
0.9988448329321539
 10
927.0355499863726
 20
-1310.970938438205
 30
0.0
 41
1.0
 10
927.0339559126697
 20
-1310.956773582435
 30
0.0
 41
1.0
 10
927.0323618389668
 20
-1310.942608726665
 30
0.0
 41
1.0
 10
927.0147584407489
 20
-1310.786185848372
 30
0.0
 41
0.9985503209458491
 10
926.9804421684493
 20
-1310.632561664283
 30
0.0
 41
1.0
 10
926.9728561763784
 20
-1310.598601336884
 30
0.0
 41
1.0
 10
926.9652701843074
 20
-1310.564641009485
 30
0.0
 41
1.0
 10
926.94612589615
 20
-1310.478937480195
 30
0.0
 41
0.9991036781370954
 10
926.9198010344985
 20
-1310.395160392869
 30
0.0
 41
1.0
 10
926.9158188090421
 20
-1310.382487230356
 30
0.0
 41
1.0
 10
926.9118365835857
 20
-1310.369814067844
 30
0.0
 41
1.0
 10
926.8934761728468
 20
-1310.311383305542
 30
0.0
 41
0.9998874504369951
 10
926.873370965169
 20
-1310.25352970332
 30
0.0
 41
1.0
 10
926.85326575749
 20
-1310.195676101095
 30
0.0
 41
0.9994041637543098
 10
926.8292171445551
 20
-1310.139347397204
 30
0.0
 41
1.0
 10
926.825020360332
 20
-1310.129517332725
 30
0.0
 41
1.0
 10
926.820823576109
 20
-1310.119687268245
 30
0.0
 41
1.0
 10
926.792944745114
 20
-1310.054387102277
 30
0.0
 41
0.9991846840702248
 10
926.7598883884207
 20
-1309.991549070996
 30
0.0
 41
1.0
 10
926.7587517820257
 20
-1309.989388454541
 30
0.0
 41
1.0
 10
926.7576151756306
 20
-1309.987227838086
 30
0.0
 41
1.0
 10
926.7268320317278
 20
-1309.928711039716
 30
0.0
 41
0.9989253167922217
 10
926.6907626076726
 20
-1309.873296111326
 30
0.0
 41
1.0
 10
926.6897084829988
 20
-1309.871676616564
 30
0.0
 41
1.0
 10
926.6886543583249
 20
-1309.870057121802
 30
0.0
 41
1.0
 10
926.6546931836181
 20
-1309.817881182936
 30
0.0
 41
0.9986467172837052
 10
926.6154960309801
 20
-1309.769515149306
 30
0.0
 41
1.0
 10
926.6146219022793
 20
-1309.768436547027
 30
0.0
 41
1.0
 10
926.6137477735784
 20
-1309.767357944749
 30
0.0
 41
1.0
 10
926.576298878343
 20
-1309.721149115677
 30
0.0
 41
0.9984001104269796
 10
926.5338721478256
 20
-1309.679464008307
 30
0.0
 41
1.0
 10
926.5332850097159
 20
-1309.678887133426
 30
0.0
 41
1.0
 10
926.5326978716062
 20
-1309.678310258544
 30
0.0
 41
1.0
 10
926.4914454173081
 20
-1309.637778900938
 30
0.0
 41
0.9982442159081849
 10
926.4456893159729
 20
-1309.602410339678
 30
0.0
 41
1.0
 10
926.4454745205117
 20
-1309.602244307036
 30
0.0
 41
1.0
 10
926.4452597250503
 20
-1309.602078274393
 30
0.0
 41
1.0
 10
926.3999332146383
 20
-1309.567041778419
 30
0.0
 41
0.998245006083567
 10
926.3507822355655
 20
-1309.537609995385
 30
0.0
 41
1.0
 10
926.3016312564932
 20
-1309.508178212351
 30
0.0
 41
0.9983922639633883
 10
926.2494649503286
 20
-1309.484498577697
 30
0.0
 41
1.0
 10
926.2492380730043
 20
-1309.484395592215
 30
0.0
 41
1.0
 10
926.2490111956799
 20
-1309.484292606734
 30
0.0
 41
1.0
 10
926.1963911348661
 20
-1309.460407001117
 30
0.0
 41
0.9986517147150219
 10
926.1415781619975
 20
-1309.442105881995
 30
0.0
 41
1.0
 10
926.1409002405701
 20
-1309.441879535564
 30
0.0
 41
1.0
 10
926.1402223191426
 20
-1309.441653189132
 30
0.0
 41
1.0
 10
926.0840535034199
 20
-1309.422899377148
 30
0.0
 41
0.9989435598956875
 10
926.0264001162693
 20
-1309.409381674914
 30
0.0
 41
1.0
 10
926.0253199966867
 20
-1309.409128424661
 30
0.0
 41
1.0
 10
926.0242398771042
 20
-1309.408875174407
 30
0.0
 41
1.0
 10
925.9644262507891
 20
-1309.394850971667
 30
0.0
 41
0.9992249241239597
 10
925.9036947418919
 20
-1309.385575628952
 30
0.0
 41
1.0
 10
925.9022810536009
 20
-1309.385359720544
 30
0.0
 41
1.0
 10
925.9008673653099
 20
-1309.385143812136
 30
0.0
 41
1.0
 10
925.837308479832
 20
-1309.375436652605
 30
0.0
 41
0.9994396597833413
 10
925.7732425432973
 20
-1309.37000373026
 30
0.0
 41
1.0
 10
925.7541018758176
 20
-1309.368380562541
 30
0.0
 41
1.0
 10
925.7349612083378
 20
-1309.366757394822
 30
0.0
 41
1.0
 10
925.6326139368448
 20
-1309.358078137039
 30
0.0
 41
0.9987693403121485
 10
925.5299103132576
 20
-1309.359581200492
 30
0.0
 41
1.0
 10
925.5196559790298
 20
-1309.359731272266
 30
0.0
 41
1.0
 10
925.5094016448021
 20
-1309.35988134404
 30
0.0
 41
1.0
 10
925.3998458786241
 20
-1309.361484688327
 30
0.0
 41
0.9989753644966052
 10
925.2908838786084
 20
-1309.372987695253
 30
0.0
 41
1.0
 10
925.1819218785907
 20
-1309.384490702178
 30
0.0
 41
0.9983190067306034
 10
925.0750230676249
 20
-1309.408525693965
 30
0.0
 41
1.0
 10
925.0661221160192
 20
-1309.410526972527
 30
0.0
 41
1.0
 10
925.0572211644135
 20
-1309.41252825109
 30
0.0
 41
1.0
 10
924.9325204502352
 20
-1309.440565800002
 30
0.0
 41
0.9985539388303505
 10
924.8115506965576
 20
-1309.481829476047
 30
0.0
 41
1.0
 10
924.809205265597
 20
-1309.482629519863
 30
0.0
 41
1.0
 10
924.8068598346364
 20
-1309.483429563679
 30
0.0
 41
1.0
 10
924.6811992190369
 20
-1309.526293327357
 30
0.0
 41
0.9988468746493697
 10
924.5602288767348
 20
-1309.58101141242
 30
0.0
 41
1.0
 10
924.5570460547475
 20
-1309.58245108698
 30
0.0
 41
1.0
 10
924.5538632327602
 20
-1309.583890761539
 30
0.0
 41
1.0
 10
924.4265272464835
 20
-1309.641488195721
 30
0.0
 41
0.9991322885919637
 10
924.304426662427
 20
-1309.709483527902
 30
0.0
 41
1.0
 10
924.2868246513822
 20
-1309.719285729893
 30
0.0
 41
1.0
 10
924.2692226403374
 20
-1309.729087931883
 30
0.0
 41
1.0
 10
924.1670459592799
 20
-1309.785988047664
 30
0.0
 41
0.9993860037849138
 10
924.0691049552073
 20
-1309.849904063252
 30
0.0
 41
1.0
 10
924.0634866423522
 20
-1309.853570557949
 30
0.0
 41
1.0
 10
924.0578683294971
 20
-1309.857237052645
 30
0.0
 41
1.0
 10
923.9711639511311
 20
-1309.913820078842
 30
0.0
 41
0.999882149495416
 10
923.886237575321
 20
-1309.973038308917
 30
0.0
 41
1.0
 10
923.8013111995064
 20
-1310.032256538995
 30
0.0
 41
0.9997976482744265
 10
923.7188355690979
 20
-1310.094842947041
 30
0.0
 41
1.0
 10
923.7041993042963
 20
-1310.105949636818
 30
0.0
 41
1.0
 10
923.6895630394947
 20
-1310.117056326595
 30
0.0
 41
1.0
 10
923.5778148794826
 20
-1310.201856114196
 30
0.0
 41
0.9998091630800957
 10
923.4694646014566
 20
-1310.290956464896
 30
0.0
 41
1.0
 10
923.4564588489778
 20
-1310.301651565343
 30
0.0
 41
1.0
 10
923.4434530964991
 20
-1310.31234666579
 30
0.0
 41
1.0
 10
923.3090913135145
 20
-1310.422837217386
 30
0.0
 41
0.9995035112317115
 10
923.1819554357492
 20
-1310.541571034403
 30
0.0
 41
1.0
 10
923.1723081253635
 20
-1310.550580780559
 30
0.0
 41
1.0
 10
923.162660814978
 20
-1310.559590526715
 30
0.0
 41
1.0
 10
923.0392377522143
 20
-1310.67485689847
 30
0.0
 41
0.9994630424299381
 10
922.9236293464296
 20
-1310.797959641705
 30
0.0
 41
1.0
 10
922.9199465076541
 20
-1310.801881221223
 30
0.0
 41
1.0
 10
922.9162636688786
 20
-1310.80580280074
 30
0.0
 41
1.0
 10
922.8080209406409
 20
-1310.921062384946
 30
0.0
 41
0.9995160693749191
 10
922.7071549111137
 20
-1311.042829802813
 30
0.0
 41
1.0
 10
922.7052211910313
 20
-1311.045164227023
 30
0.0
 41
1.0
 10
922.703287470949
 20
-1311.047498651233
 30
0.0
 41
1.0
 10
922.6062888815796
 20
-1311.164597220688
 30
0.0
 41
0.9996561470515101
 10
922.5155626629158
 20
-1311.286619983135
 30
0.0
 41
1.0
 10
922.5094049970153
 20
-1311.294901772175
 30
0.0
 41
1.0
 10
922.5032473311146
 20
-1311.303183561216
 30
0.0
 41
1.0
 10
922.4248364442509
 20
-1311.408642745583
 30
0.0
 41
0.9998349055173419
 10
922.3503091623177
 20
-1311.516881329248
 30
0.0
 41
1.0
 10
922.2757818803861
 20
-1311.62511991291
 30
0.0
 41
0.9999728109560283
 10
922.2028589844712
 20
-1311.734445838472
 30
0.0
 41
1.0
 10
922.2015437690616
 20
-1311.736417607972
 30
0.0
 41
1.0
 10
922.2002285536519
 20
-1311.738389377471
 30
0.0
 41
1.0
 10
922.1246752269137
 20
-1311.851658842038
 30
0.0
 41
0.9999972147332267
 10
922.0496574165583
 20
-1311.965283684846
 30
0.0
 41
1.0
 10
922.044685873929
 20
-1311.972813773329
 30
0.0
 41
1.0
 10
922.0397143312996
 20
-1311.980343861812
 30
0.0
 41
1.0
 10
921.9547534356822
 20
-1312.10902888159
 30
0.0
 41
0.9999371979004478
 10
921.8726980862847
 20
-1312.239585795357
 30
0.0
 41
1.0
 10
921.8691892019185
 20
-1312.245168723428
 30
0.0
 41
1.0
 10
921.8656803175525
 20
-1312.2507516515
 30
0.0
 41
1.0
 10
921.7766071994228
 20
-1312.392474421411
 30
0.0
 41
0.9998272025610787
 10
921.6928638085368
 20
-1312.53741029816
 30
0.0
 41
1.0
 10
921.6776486365152
 20
-1312.563743412612
 30
0.0
 41
1.0
 10
921.6624334644937
 20
-1312.590076527065
 30
0.0
 41
1.0
 10
921.5482597295639
 20
-1312.78767863272
 30
0.0
 41
0.9995217214838321
 10
921.4465200400091
 20
-1312.99196096058
 30
0.0
 41
1.0
 10
921.4388764773723
 20
-1313.007308410286
 30
0.0
 41
1.0
 10
921.4312329147357
 20
-1313.022655859993
 30
0.0
 41
1.0
 10
921.3443276221462
 20
-1313.197152318074
 30
0.0
 41
0.9998269762608606
 10
921.2639731558761
 20
-1313.374760604793
 30
0.0
 41
1.0
 10
921.1836186896032
 20
-1313.552368891518
 30
0.0
 41
0.9998944747387258
 10
921.1084578950381
 20
-1313.732236617149
 30
0.0
 41
1.0
 10
921.1035042254498
 20
-1313.744091272059
 30
0.0
 41
1.0
 10
921.0985505558615
 20
-1313.75594592697
 30
0.0
 41
1.0
 10
921.0179034953067
 20
-1313.948942866994
 30
0.0
 41
0.9999506734416161
 10
920.9411059664003
 20
-1314.143503671856
 30
0.0
 41
1.0
 10
920.9265060011347
 20
-1314.180491593649
 30
0.0
 41
1.0
 10
920.9119060358692
 20
-1314.217479515441
 30
0.0
 41
1.0
 10
920.8643084374995
 20
-1314.338064476705
 30
0.0
 41
0.9999912393936053
 10
920.8177219934742
 20
-1314.459043679408
 30
0.0
 41
1.0
 10
920.7711355494555
 20
-1314.580022882094
 30
0.0
 41
0.9999927113984909
 10
920.7254742550658
 20
-1314.701354289584
 30
0.0
 41
1.0
 10
920.7115058236639
 20
-1314.738471271594
 30
0.0
 41
1.0
 10
920.697537392262
 20
-1314.775588253604
 30
0.0
 41
1.0
 10
920.6239392350757
 20
-1314.971153625095
 30
0.0
 41
0.9999487550946646
 10
920.5543156101041
 20
-1315.168168990277
 30
0.0
 41
1.0
 10
920.5307220001673
 20
-1315.234932300569
 30
0.0
 41
1.0
 10
920.5071283902305
 20
-1315.301695610862
 30
0.0
 41
1.0
 10
920.4124427558589
 20
-1315.569629445689
 30
0.0
 41
0.999980843692734
 10
920.321081167215
 20
-1315.838714876961
 30
0.0
 41
1.0
 10
920.2297195785757
 20
-1316.107800308219
 30
0.0
 41
0.9999873932906966
 10
920.1410648698597
 20
-1316.377789663226
 30
0.0
 41
1.0
 10
920.1209725129883
 20
-1316.438978995986
 30
0.0
 41
1.0
 10
920.1008801561168
 20
-1316.500168328745
 30
0.0
 41
1.0
 10
919.9720407336513
 20
-1316.89253634929
 30
0.0
 41
0.9999794883032184
 10
919.8482379486885
 20
-1317.286522555584
 30
0.0
 41
1.0
 10
919.8370856892617
 20
-1317.322013165788
 30
0.0
 41
1.0
 10
919.8259334298349
 20
-1317.357503775991
 30
0.0
 41
1.0
 10
919.6833752659268
 20
-1317.811176528111
 30
0.0
 41
0.9999982761667591
 10
919.5425028259142
 20
-1318.265375550225
 30
0.0
 41
1.0
 10
917.9543624933416
 20
-1323.314145281228
 30
0.0
 41
1.0
 10
916.366222160769
 20
-1328.362915012232
 30
0.0
 41
1.0
 10
915.4174715492926
 20
-1328.362915012232
 30
0.0
 41
1.0
 10
914.4687209378162
 20
-1328.362915012232
 30
0.0
 41
1.0
 10
917.7070054239693
 20
-1318.035592812286
 30
0.0
 41
1.0
 10
920.9452899101225
 20
-1307.708270612339
 30
0.0
 41
1.0
  0
LWPOLYLINE
  5
53
330
23
100
AcDbEntity
  8
0
  6
Continuous
 62
     7
370
    15
390
1D
100
AcDbPolyline
 90
      232
 70
   128
 43
0.0
 10
895.2417441362954
 20
-1308.792613443855
 42
0.0004370800688942
 10
895.1888669623221
 20
-1308.861280082982
 10
895.149582731096
 20
-1308.912387196007
 42
0.0030481992176923
 10
895.0192440139523
 20
-1309.084108888384
 10
894.9807323422265
 20
-1309.13549567214
 42
0.0042058245753176
 10
894.7767472915576
 20
-1309.412501417212
 10
894.724342169056
 20
-1309.484934263994
 42
0.0120948898742331
 10
894.4282982522953
 20
-1309.915683868542
 10
894.3321057531704
 20
-1310.063164603772
 42
0.0141601263951098
 10
894.0284617062507
 20
-1310.558833940504
 10
893.988924438826
 20
-1310.627677907933
 42
0.0071131081303067
 10
893.7836521155863
 20
-1310.997180706773
 42
0.0068458791007067
 10
893.5887725887416
 20
-1311.372272270253
 10
893.5819607262854
 20
-1311.385833983973
 42
0.0064120880289321
 10
893.3838184762421
 20
-1311.79325845889
 10
893.3762837907241
 20
-1311.809270315613
 42
0.0058857236450087
 10
893.1735283988501
 20
-1312.253646426654
 10
893.1653534725584
 20
-1312.272136580282
 42
0.0053189741891343
 10
892.9566491598957
 20
-1312.758100054189
 10
892.9479013542095
 20
-1312.779081932396
 42
0.004750365041988
 10
892.7319276280582
 20
-1313.311281365608
 10
892.7226593797106
 20
-1313.334757741714
 42
0.0042071762173798
 10
892.4981119959834
 20
-1313.917851335782
 10
892.4883625936343
 20
-1313.943817510653
 42
0.0036680086482631
 10
892.2539079503226
 20
-1314.582452895183
 10
892.2437001704745
 20
-1314.610901429529
 42
0.0032573142627402
 10
891.9980678845101
 20
-1315.309754089276
 10
891.9294173636686
 20
-1315.509217173331
 42
0.0026133366648819
 10
891.5809721649091
 20
-1316.539080457007
 10
891.5177153774011
 20
-1316.729311292422
 42
0.0020592950741081
 10
891.3038523084413
 20
-1317.381414945013
 10
891.3008005172776
 20
-1317.390851433425
 42
0.0025609928536014
 10
891.0989800157922
 20
-1318.025996655789
 10
891.0963886486688
 20
-1318.034298996719
 42
0.0031362356241756
 10
890.9068978629887
 20
-1318.655061852909
 10
890.9047668200558
 20
-1318.662203159138
 42
0.0037229918029843
 10
890.727966433135
 20
-1319.271188461094
 10
890.7262878439275
 20
-1319.277135351273
 42
0.0043077623706348
 10
890.5625470418635
 20
-1319.876954083038
 42
0.0047654161822088
 10
890.4097183193531
 20
-1320.479640171917
 10
890.3752537105084
 20
-1320.62120194909
 42
0.011296936844224
 10
890.1793893523666
 20
-1321.512894109705
 10
890.1513829632681
 20
-1321.655722155812
 42
0.0130056762571974
 10
889.9505457196215
 20
-1322.842663227457
 10
889.9300059694745
 20
-1322.986741340933
 42
0.01387215321443
 10
889.8263029649365
 20
-1323.89357082676
 10
889.8070074770288
 20
-1324.117068548682
 42
0.0071254697009596
 10
889.7736608311061
 20
-1324.580255557532
 10
889.7686998569438
 20
-1324.666259552076
 42
0.0028881799197888
 10
889.753561563653
 20
-1324.958001261934
 42
0.0060297297134801
 10
889.7436293638773
 20
-1325.249950198053
 10
889.7425670822101
 20
-1325.298342569987
 42
0.0229523164157575
 10
889.750298109996
 20
-1325.621097416266
 10
889.7545238835168
 20
-1325.681500950287
 42
0.0123673300678425
 10
889.7736025300347
 20
-1325.882621675457
 42
0.0128577674467703
 10
889.8027979204402
 20
-1326.082519525379
 10
889.809923793828
 20
-1326.123848339981
 42
0.0285717853763317
 10
889.8744177955235
 20
-1326.401964491293
 10
889.8880863191899
 20
-1326.448619260771
 42
0.0316283099155096
 10
890.0038968991045
 20
-1326.767633762597
 10
890.0069455908603
 20
-1326.774620134923
 42
0.0338984824232342
 10
890.1563773018272
 20
-1327.062186099112
 10
890.1586860311967
 20
-1327.065977128387
 42
0.0350228718354611
 10
890.3410463218706
 20
-1327.323029113065
 10
890.3419315736459
 20
-1327.324108190829
 42
0.0347476747526633
 10
890.5563562608857
 20
-1327.551293238049
 42
0.0331337701916076
 10
890.7995995866326
 20
-1327.747421900126
 10
890.8006996851482
 20
-1327.748194603299
 42
0.030523331908168
 10
891.0692443807219
 20
-1327.91332277339
 10
891.0724744252228
 20
-1327.915046785253
 42
0.027374448115167
 10
891.3650281367981
 20
-1328.051184929144
 10
891.3701326719346
 20
-1328.053228513613
 42
0.0240964406195416
 10
891.6856097475801
 20
-1328.162212239894
 10
891.6921930767903
 20
-1328.164136979569
 42
0.0209636179810408
 10
892.0295932294433
 20
-1328.247605127501
 10
892.0372256898916
 20
-1328.249157040503
 42
0.0181388704692456
 10
892.3955480818912
 20
-1328.308573133717
 10
892.4038289302681
 20
-1328.309639317534
 42
0.0156086547585503
 10
892.782016294454
 20
-1328.34637550411
 10
892.8252115467855
 20
-1328.349214006589
 42
0.0137148329023319
 10
893.1528846920829
 20
-1328.361734261841
 10
893.1988208820261
 20
-1328.362228694956
 42
0.0051057823887821
 10
893.4349664686011
 20
-1328.362358949365
 42
0.0052256693315775
 10
893.6710637523764
 20
-1328.357610124901
 10
893.7412905361292
 20
-1328.355463158887
 42
0.0161507179049807
 10
894.1170276142324
 20
-1328.33181278856
 10
894.1370405746035
 20
-1328.329902593273
 42
0.0101216737834194
 10
894.5510677961015
 20
-1328.281909662906
 10
894.585121085521
 20
-1328.277261966098
 42
0.0245291776395591
 10
895.0619107410705
 20
-1328.188186888022
 10
895.146734056603
 20
-1328.167990967674
 42
0.0143509212558785
 10
895.5033651605357
 20
-1328.072186333897
 42
0.0156557857038942
 10
895.8535812252704
 20
-1327.955175118075
 10
895.8610824397576
 20
-1327.952404956324
 42
0.0170137333629394
 10
896.2176784354382
 20
-1327.806747341453
 10
896.2247823578465
 20
-1327.803559505889
 42
0.0183105364411794
 10
896.5841320260108
 20
-1327.626224464065
 10
896.5910787906515
 20
-1327.622474029192
 42
0.0194899958155672
 10
896.9495595316373
 20
-1327.4104950473
 10
896.9565734109722
 20
-1327.405969705007
 42
0.0204869852953997
 10
897.3105877130683
 20
-1327.156449689919
 10
897.317853321653
 20
-1327.150869624572
 42
0.0212516938556512
 10
897.6638432527617
 20
-1326.860965627677
 10
897.7103599468335
 20
-1326.818498317587
 42
0.021524891824818
 10
897.9703861157244
 20
-1326.55973403859
 10
898.0154158501107
 20
-1326.510889917234
 42
0.0114578554960605
 10
898.1702080037825
 20
-1326.335066983781
 10
898.1814025397855
 20
-1326.321748220216
 42
0.0061531305146889
 10
898.3078771857636
 20
-1326.16745868693
 42
0.0006325587126333
 10
898.4322556699166
 20
-1326.011455311253
 10
898.4552958049668
 20
-1325.982481790595
 42
0.0041897761560434
 10
898.6237512089576
 20
-1325.76696241451
 10
898.6822133288316
 20
-1325.690861067548
 42
0.0092993880039275
 10
898.9588252560544
 20
-1325.316582303666
 10
899.0412197492545
 20
-1325.200645300095
 42
0.0159321727083266
 10
899.3878262318965
 20
-1324.67847107934
 10
899.4321823672816
 20
-1324.606791515096
 42
0.0085547317016466
 10
899.6666941326114
 20
-1324.212916565865
 42
0.0084601156889353
 10
899.8876703100531
 20
-1323.811289716834
 10
899.8957857838839
 20
-1323.79593003456
 42
0.008142965428587
 10
900.1190350543262
 20
-1323.356208522009
 10
900.1278952185054
 20
-1323.33802968
 42
0.0076574581328605
 10
900.3543027290758
 20
-1322.854846804739
 10
900.3637823697958
 20
-1322.833782326444
 42
0.0070682724199127
 10
900.5942272776014
 20
-1322.301745021665
 10
900.6042175615843
 20
-1322.277755832651
 42
0.0064559514446694
 10
900.839550769764
 20
-1321.691443566137
 10
900.849960127931
 20
-1321.66450864069
 42
0.0058311413908219
 10
901.0910068646937
 20
-1321.018476546306
 10
901.1017619420813
 20
-1320.988592205145
 42
0.0052312425820039
 10
901.3493432201248
 20
-1320.277389791303
 10
901.360387056502
 20
-1320.244563079241
 42
0.0046680544797481
 10
901.6153154842372
 20
-1319.462736763484
 10
901.6573076342834
 20
-1319.329753526183
 42
0.0041666856445057
 10
901.8605936466748
 20
-1318.666784751189
 10
901.8982560873333
 20
-1318.540203643553
 42
0.0015170975152975
 10
902.0194426657517
 20
-1318.128335292041
 42
-0.0004887993112201
 10
902.1397824388706
 20
-1317.716216880015
 10
902.21625969637
 20
-1317.455259494058
 42
0.0002583378926239
 10
902.4894742663931
 20
-1316.52120279102
 10
902.5712471160133
 20
-1316.241103531288
 42
0.0006636169669956
 10
902.7651148760222
 20
-1315.573750607709
 10
902.7702115303839
 20
-1315.556119024778
 42
0.0010589131323917
 10
902.9516602312858
 20
-1314.92338768178
 10
902.9566423017608
 20
-1314.905874774779
 42
0.001565552445838
 10
903.1249125089491
 20
-1314.307258095559
 10
903.1297427093538
 20
-1314.289865936661
 42
0.0021640440475523
 10
903.2840326813501
 20
-1313.724838918605
 10
903.2886669007751
 20
-1313.70757418863
 42
0.0028763871852822
 10
903.4281826188329
 20
-1313.175606237764
 10
903.4325684830019
 20
-1313.158482259603
 42
0.0037310511946124
 10
903.556525174837
 20
-1312.659034665586
 10
903.560600395131
 20
-1312.64207439432
 42
0.0047652197775556
 10
903.6682242956346
 20
-1312.174596626036
 10
903.671914894953
 20
-1312.157837070908
 42
0.0060276699299133
 10
903.7624449941115
 20
-1311.721761275741
 10
903.7656636844007
 20
-1311.705260061432
 42
0.0075824337751507
 10
903.8383529938162
 20
-1311.299992897006
 10
903.8409983711979
 20
-1311.283837949547
 42
0.0095130624610019
 10
903.8951136068277
 20
-1310.908748596484
 10
903.9020998307108
 20
-1310.852815038363
 42
0.0121054653232644
 10
903.9286911612882
 20
-1310.587919209893
 10
903.9295576510475
 20
-1310.576515766967
 42
0.006905082737676
 10
903.9446464690855
 20
-1310.33357454012
 10
903.9457817687544
 20
-1310.310048283067
 42
0.0169063976705098
 10
903.9486090477343
 20
-1310.113855555775
 10
903.947438396203
 20
-1310.053519794426
 42
0.0052007732891565
 10
903.94518494761
 20
-1309.977926404273
 42
0.0054038123306344
 10
903.9252214357692
 20
-1309.857908108253
 10
903.9201355799007
 20
-1309.829249621682
 42
0.0112050460467032
 10
903.884751217842
 20
-1309.652923183342
 10
903.8669262558016
 20
-1309.573381596622
 42
0.0240764468005617
 10
903.7760288896551
 20
-1309.24314456112
 10
903.7574701268411
 20
-1309.186524396125
 42
0.0256812331837583
 10
903.6141072066523
 20
-1308.81480018987
 10
903.6086977808313
 20
-1308.802668854881
 42
0.0268360501215025
 10
903.439270539981
 20
-1308.471675720859
 10
903.4337341323455
 20
-1308.462156050546
 42
0.0274670231729142
 10
903.2415331559326
 20
-1308.169868675629
 10
903.2361518559705
 20
-1308.162589528089
 42
0.0275035967102381
 10
903.0245789764082
 20
-1307.907073637784
 10
903.0195094754422
 20
-1307.901594550154
 42
0.0269557673527243
 10
902.7921059320021
 20
-1307.680952264192
 10
902.7873628742201
 20
-1307.676822309731
 42
0.0259124802211847
 10
902.5478080427887
 20
-1307.489131782578
 10
902.5432771976058
 20
-1307.485946280247
 42
0.0245162153001805
 10
902.2953608445121
 20
-1307.329213271138
 10
902.2908342981868
 20
-1307.326653073936
 42
0.0229282588845854
 10
902.0384147413606
 20
-1307.198784881438
 10
902.0336342475239
 20
-1307.196632581676
 42
0.0212984135700814
 10
901.7805962950621
 20
-1307.095433664434
 10
901.7752920100943
 20
-1307.093570101674
 42
0.0197555462344868
 10
901.5255136723696
 20
-1307.016754683709
 42
0.0183511896793375
 10
901.2705849469041
 20
-1306.959171776743
 10
901.1842197501838
 20
-1306.942968986358
 42
0.0338057877145847
 10
900.898712400923
 20
-1306.909160581218
 10
900.8077069958748
 20
-1306.904580925956
 42
0.0091990524496142
 10
900.7018598872471
 20
-1306.901205070034
 42
0.0028333980790193
 10
900.5959459712492
 20
-1306.900376962518
 10
900.5950305182049
 20
-1306.900374992694
 42
-0.0023619827794317
 10
900.4872845030793
 20
-1306.899634151615
 10
900.4508793329231
 20
-1306.899211845152
 42
0.0008824598470437
 10
900.2703233430609
 20
-1306.897436066914
 10
900.2264619106672
 20
-1306.897082105388
 42
0.0038132665768256
 10
899.9581790147903
 20
-1306.896963169322
 10
899.9416453599949
 20
-1306.897081935465
 42
0.0060665569333589
 10
899.640364868403
 20
-1306.902902234886
 10
899.6261145363783
 20
-1306.903350542854
 42
0.0080356953334554
 10
899.2966558200416
 20
-1306.91901826492
 10
899.2845858049518
 20
-1306.919786847861
 42
0.0098996399108596
 10
898.9318227202982
 20
-1306.94927207706
 10
898.9217770109262
 20
-1306.950312373257
 42
0.0117740981367934
 10
898.5506201525795
 20
-1306.997604620787
 10
898.5423974560949
 20
-1306.998849737358
 42
0.0137435215136616
 10
898.1578086366077
 20
-1307.06794671092
 10
898.1511515974865
 20
-1307.069332607153
 42
0.0158359869388063
 10
897.7581545036858
 20
-1307.164224695633
 10
897.7527413168169
 20
-1307.165714636504
 42
0.0180554124028804
 10
897.3564262722055
 20
-1307.290352652743
 10
897.351869484121
 20
-1307.29196868901
 42
0.0203657431281402
 10
896.9573919663117
 20
-1307.450229030524
 10
896.9532484273024
 20
-1307.452090651967
 42
0.0226819684656225
 10
896.5658123710998
 20
-1307.647733230638
 10
896.5616125800806
 20
-1307.650098822558
 42
0.0248634984607127
 10
896.1864306388992
 20
-1307.886725468505
 10
896.138235710117
 20
-1307.920582510329
 42
0.0267044190883298
 10
895.8639430131989
 20
-1308.136022886199
 42
0.0139303002201957
 10
895.6077758472594
 20
-1308.373261727112
 10
895.6029224615392
 20
-1308.378014389971
 42
0.0283460963440439
 10
895.3588498673155
 20
-1308.645745050412
 10
895.3191813621554
 20
-1308.694546627889
 42
0.0070695364819118
 10
895.2417441362954
 20
-1308.792613443855
 42
0.0070695364819118
  0
LWPOLYLINE
  5
54
330
23
100
AcDbEntity
  8
0
  6
Continuous
 62
     7
370
    15
390
1D
100
AcDbPolyline
 90
      226
 70
   128
 43
0.0
 10
891.712923699049
 20
-1324.514202250039
 42
-0.0026277636613474
 10
891.712845815249
 20
-1324.447430324281
 10
891.713063173481
 20
-1324.394275106853
 42
-0.0088680296729816
 10
891.7168397897739
 20
-1324.221259324456
 10
891.7191861488866
 20
-1324.161979298996
 42
-0.0077381705616832
 10
891.7352322596488
 20
-1323.870718803212
 10
891.7361001708229
 20
-1323.858430569513
 42
-0.0068872530531189
 10
891.7627322505705
 20
-1323.543208817449
 10
891.7639364747571
 20
-1323.530967838425
 42
-0.0062130021484527
 10
891.8015301915848
 20
-1323.192098147187
 10
891.80303409512
 20
-1323.17992427527
 42
-0.0056726929669436
 10
891.851955954623
 20
-1322.817729053151
 10
891.8537294002667
 20
-1322.805635252911
 42
-0.0052341884491016
 10
891.9143399865271
 20
-1322.420441997391
 10
891.9163579753034
 20
-1322.408437067401
 42
-0.0049768450171854
 10
891.9890966567282
 20
-1322.000592499976
 10
892.0133456714515
 20
-1321.872044516962
 42
-0.0089029805624923
 10
892.1504265232468
 20
-1321.210269069537
 10
892.1831718985648
 20
-1321.065237639016
 42
-0.008031825709999
 10
892.4127205129029
 20
-1320.119528007173
 10
892.4247054393537
 20
-1320.073397371973
 42
-0.0074265721318179
 10
892.7087169782073
 20
-1319.043332793579
 10
892.7285965213212
 20
-1318.975198733
 42
-0.0069711922703549
 10
893.055901099827
 20
-1317.908930992674
 10
893.1158530469303
 20
-1317.722909634311
 42
-0.0052070422892412
 10
893.3452782721919
 20
-1317.035637557273
 10
893.3625594643894
 20
-1316.985610276582
 42
-0.0009167004448923
 10
893.5656513516534
 20
-1316.401154428501
 42
-0.0025162726944676
 10
893.7727489819206
 20
-1315.818113164326
 10
893.8099735937284
 20
-1315.714963618414
 42
-0.0028212681456229
 10
894.0581495126845
 20
-1315.039232986263
 10
894.0679802754381
 20
-1315.012925541578
 42
-0.003196491682313
 10
894.3042725330976
 20
-1314.392720779459
 10
894.3139069870964
 20
-1314.367910789316
 42
-0.0036281836452883
 10
894.5390129481978
 20
-1313.800470108422
 10
894.548451358348
 20
-1313.777172676937
 42
-0.0041269166832597
 10
894.7630690550144
 20
-1313.259731780941
 10
894.7957020114454
 20
-1313.182853334556
 42
-0.0047472213054415
 10
894.9527468169888
 20
-1312.822431866697
 10
894.9596408981929
 20
-1312.807011269374
 42
-0.0025651659996586
 10
895.1079989320472
 20
-1312.479683213616
 42
-0.0057144635000829
 10
895.2617486258147
 20
-1312.154873540262
 10
895.2897793312235
 20
-1312.097365157852
 42
-0.0065388068371196
 10
895.4732463589596
 20
-1311.733132661195
 10
895.4817048147348
 20
-1311.716873081831
 42
-0.0074510843022803
 10
895.6578870606158
 20
-1311.390184800702
 10
895.666066731148
 20
-1311.375544023431
 42
-0.0084648979859067
 10
895.8357005842469
 20
-1311.083635012472
 10
895.843556710737
 20
-1311.070628020818
 42
-0.0095638542800753
 10
896.0073921583293
 20
-1310.810739148843
 10
896.0148671019989
 20
-1310.799369787391
 42
-0.0107191626807996
 10
896.1736686823886
 20
-1310.568758552844
 10
896.1806854161156
 20
-1310.559022460484
 42
-0.0118458573908019
 10
896.3352335146321
 20
-1310.354950265168
 42
-0.0129184518188974
 10
896.4996861382375
 20
-1310.158789748993
 10
896.5298309105997
 20
-1310.124663670095
 42
-0.0217742579627364
 10
896.7064432329322
 20
-1309.941456899848
 10
896.717188777388
 20
-1309.93124006665
 42
-0.0097266568653581
 10
896.8832463962482
 20
-1309.779392492208
 42
-0.0187720905716886
 10
897.0575939721402
 20
-1309.637323638817
 10
897.088299962807
 20
-1309.614164556426
 42
-0.0179428207524197
 10
897.3207206828081
 20
-1309.451612379311
 10
897.3243730097248
 20
-1309.449248444422
 42
-0.017004787769522
 10
897.5601366472542
 20
-1309.307787930271
 10
897.563919636004
 20
-1309.305689625233
 42
-0.0160190788360268
 10
897.8008281836361
 20
-1309.184038323247
 42
-0.0151102861491864
 10
898.0448599660822
 20
-1309.077355547193
 10
898.0972464682945
 20
-1309.056315414298
 42
-0.0271945441883998
 10
898.4559090273555
 20
-1308.934450603591
 10
898.5249738278378
 20
-1308.915101062326
 42
-0.0237596594024342
 10
898.9407706748633
 20
-1308.819650350344
 10
899.0088335285917
 20
-1308.807395662218
 42
-0.0213715440557003
 10
899.294708460039
 20
-1308.768448630707
 10
899.3548556262585
 20
-1308.762858916006
 42
-0.0101465655821352
 10
899.5223481582512
 20
-1308.750715372742
 10
899.5316885444521
 20
-1308.750228457745
 42
-0.0100375910878347
 10
899.680842645012
 20
-1308.74545263982
 10
899.6911019146914
 20
-1308.745330200805
 42
-0.0103625633383384
 10
899.8198099093472
 20
-1308.746461634332
 10
899.8420755606103
 20
-1308.747118992797
 42
-0.0115689250251637
 10
899.926126298142
 20
-1308.751548499042
 42
-0.0072438037433637
 10
900.0099645775819
 20
-1308.759137698791
 10
900.026765087054
 20
-1308.760904241516
 42
-0.0217917313129037
 10
900.1433348503693
 20
-1308.778324134237
 10
900.2089349409362
 20
-1308.791070742651
 42
-0.033294355675103
 10
900.4133271059628
 20
-1308.845111033958
 10
900.4434996745114
 20
-1308.855279111076
 42
-0.0184824084808773
 10
900.5820047309783
 20
-1308.907730126463
 42
-0.0198002050696675
 10
900.7160790714759
 20
-1308.970614186662
 10
900.7179657088545
 20
-1308.971591973542
 42
-0.0212242342974234
 10
900.8501046512569
 20
-1309.047354712336
 10
900.8519199468
 20
-1309.048500514544
 42
-0.0226090605790226
 10
900.9804238480208
 20
-1309.137980158108
 10
900.982268289759
 20
-1309.139392411096
 42
-0.0238457052221615
 10
901.1054503710529
 20
-1309.243388306959
 10
901.107403099611
 20
-1309.245203184724
 42
-0.0248160564140731
 10
901.2236046069128
 20
-1309.364477785934
 10
901.2257082403138
 20
-1309.366863119637
 42
-0.0254109591448274
 10
901.3333134581802
 20
-1309.502151505602
 10
901.3355614800938
 20
-1309.505293054002
 42
-0.0255528488295794
 10
901.4330081588909
 20
-1309.657320108237
 10
901.4353392588071
 20
-1309.661401719844
 42
-0.0252146793219932
 10
901.5211202848163
 20
-1309.830903965842
 10
901.5234225239737
 20
-1309.836086047754
 42
-0.0244265635952758
 10
901.596077217735
 20
-1310.0238326198
 10
901.6053236192032
 20
-1310.051698038137
 42
-0.0231319612897383
 10
901.6512463981957
 20
-1310.21499908494
 42
-0.0112130424356234
 10
901.6858824207336
 20
-1310.381202685127
 10
901.6870849458463
 20
-1310.387699272016
 42
-0.0210527881237822
 10
901.712771421217
 20
-1310.568754917456
 10
901.716282016039
 20
-1310.604160466005
 42
-0.0190029892428791
 10
901.7317234895837
 20
-1310.857696312279
 10
901.7325334660277
 20
-1310.893171926646
 42
-0.0137974553666093
 10
901.7309846131925
 20
-1311.218203333368
 10
901.7301391582366
 20
-1311.244322077971
 42
-0.0081336634216019
 10
901.715279823014
 20
-1311.549669545572
 42
-0.0073526923568449
 10
901.6909712896389
 20
-1311.854417789862
 10
901.6897098658567
 20
-1311.867754464523
 42
-0.0066886138696726
 10
901.653974279812
 20
-1312.198340508004
 10
901.6523171903402
 20
-1312.211962127011
 42
-0.0061359187352169
 10
901.6044665882882
 20
-1312.568726107119
 10
901.6024290872165
 20
-1312.58262090994
 42
-0.005669861006411
 10
901.5417787564479
 20
-1312.965899478788
 10
901.5393733231265
 20
-1312.980058598009
 42
-0.0052721077278103
 10
901.4652411223295
 20
-1313.390185937674
 10
901.4624779734852
 20
-1313.404602573073
 42
-0.0049289272178502
 10
901.3741838553844
 20
-1313.841911084199
 10
901.3710713607026
 20
-1313.856579937011
 42
-0.004741595670819
 10
901.2678333691705
 20
-1314.321376694421
 10
901.2330651588104
 20
-1314.471183789805
 42
-0.0084404470903281
 10
901.0430487152377
 20
-1315.23140781434
 10
901.0369220272529
 20
-1315.25427193849
 42
-0.0039635940259848
 10
900.8154683429699
 20
-1316.055260802734
 10
900.8020915477894
 20
-1316.102192419329
 42
-0.0072475040835192
 10
900.5346446599215
 20
-1316.991412135735
 10
900.4644323330956
 20
-1317.213152485702
 42
-0.0051345458825491
 10
900.17767296104
 20
-1318.087477673502
 10
900.156146694275
 20
-1318.150903940625
 42
-0.0019150016601417
 10
899.9006132874058
 20
-1318.894453060858
 10
899.8941456830046
 20
-1318.913040525794
 42
-0.0021524362752333
 10
899.6456676319458
 20
-1319.617366347488
 10
899.6364572112518
 20
-1319.643119925782
 42
-0.0024331286821954
 10
899.4002019522134
 20
-1320.293719233908
 10
899.391153999657
 20
-1320.318262540278
 42
-0.0027449721786604
 10
899.1665394288274
 20
-1320.917392419186
 10
899.1576494214395
 20
-1320.940715009027
 42
-0.003108322976849
 10
898.9441069348252
 20
-1321.490639046618
 10
898.935370803139
 20
-1321.512728762503
 42
-0.0035311343276233
 10
898.7323296175579
 20
-1322.015711888206
 10
898.7237442784133
 20
-1322.036554611709
 42
-0.0040245640951119
 10
898.5306324746157
 20
-1322.494863934309
 10
898.5221963610094
 20
-1322.514443302388
 42
-0.0046015135851643
 10
898.3384400678488
 20
-1322.930348332023
 10
898.3301538900201
 20
-1322.948645471476
 42
-0.0052768638270157
 10
898.155176371065
 20
-1323.324418355746
 10
898.1470441604461
 20
-1323.341411694272
 42
-0.0060672675645314
 10
897.980264547672
 20
-1323.679327317403
 10
897.9722950671853
 20
-1323.694992576411
 42
-0.0069904648868853
 10
897.813126673189
 20
-1323.997328383064
 10
897.8053352735772
 20
-1324.011638932293
 42
-0.0080637022766561
 10
897.6531834132323
 20
-1324.280674235444
 10
897.6455943806038
 20
-1324.293602101041
 42
-0.0093006455665797
 10
897.4998537040697
 20
-1324.531616499548
 10
897.4925030373252
 20
-1324.543134468723
 42
-0.0107060778050836
 10
897.3525544938876
 20
-1324.7524047861
 10
897.3454927256105
 20
-1324.762490328663
 42
-0.0122723111415284
 10
897.2106990074097
 20
-1324.945283658155
 10
897.2103727838544
 20
-1324.945704045967
 42
-0.0141836319618943
 10
897.0667911808816
 20
-1325.120273803795
 10
897.0598434252342
 20
-1325.128248804054
 42
-0.0175957477212839
 10
896.919937257195
 20
-1325.277869692464
 42
-0.0080466359675438
 10
896.7724734921616
 20
-1325.420192220618
 10
896.7264389476472
 20
-1325.463212658706
 42
-0.0269600260388876
 10
896.4731587016641
 20
-1325.675535917216
 10
896.4065915653682
 20
-1325.725487331839
 42
-0.017836283975513
 10
896.1666470757116
 20
-1325.892505258092
 10
896.159402104713
 20
-1325.897173770296
 42
-0.0174650732651521
 10
895.9230659072698
 20
-1326.038034735256
 42
-0.0169240130160647
 10
895.6775996614111
 20
-1326.162326995034
 10
895.6316135058543
 20
-1326.183688950601
 42
-0.0318883036844553
 10
895.2812626502354
 20
-1326.32002726011
 10
895.2128971150688
 20
-1326.341727880586
 42
-0.0284435909898844
 10
894.8368469887786
 20
-1326.437945316061
 10
894.801688828278
 20
-1326.44483891189
 42
-0.0243909341010507
 10
894.4882453673611
 20
-1326.490559942919
 10
894.4379646405935
 20
-1326.495405489821
 42
-0.0196639292932418
 10
894.2223690630626
 20
-1326.507653775335
 10
894.1705449918984
 20
-1326.508557036071
 42
-0.0100501510681998
 10
894.0581217102349
 20
-1326.508256637718
 10
894.026461848878
 20
-1326.507535565833
 42
-0.001975203113507
 10
893.9773695122095
 20
-1326.506223405623
 10
893.9746092089841
 20
-1326.506138713797
 42
0.0065378751975247
 10
893.9310326342326
 20
-1326.505371822582
 42
-0.0167974694648152
 10
893.8875018113015
 20
-1326.503711924056
 10
893.8834224720387
 20
-1326.503418913161
 42
-0.00812832762505
 10
893.8318626742963
 20
-1326.498871919523
 10
893.8201231004217
 20
-1326.497644001945
 42
-0.0126703440175433
 10
893.7454048046321
 20
-1326.487909210874
 10
893.7226169369515
 20
-1326.484350954958
 42
-0.0117852088433925
 10
893.6030779511186
 20
-1326.462787959801
 10
893.547697499356
 20
-1326.451444419566
 42
-0.0251774592295325
 10
893.3208534603484
 20
-1326.392946410133
 10
893.2761342704939
 20
-1326.378979590797
 42
-0.0146525199891681
 10
893.0897412829586
 20
-1326.3147130636
 42
-0.0166929435860019
 10
892.9077636268345
 20
-1326.238905930546
 10
892.9031069955588
 20
-1326.236781029931
 42
-0.0191684358429524
 10
892.7179233643077
 20
-1326.14354494614
 10
892.7145907785526
 20
-1326.141703698588
 42
-0.0221181781803595
 10
892.5312804746492
 20
-1326.029570200217
 10
892.5289306706419
 20
-1326.027985902226
 42
-0.0254984685381249
 10
892.3526405202555
 20
-1325.895574752256
 10
892.3301583725553
 20
-1325.876822443321
 42
-0.0292492648805015
 10
892.2053894337116
 20
-1325.759729643677
 42
-0.0159048957504814
 10
892.0915494362602
 20
-1325.631709652077
 10
892.0902306456821
 20
-1325.630128039058
 42
-0.034381337956989
 10
891.9875933840555
 20
-1325.488256713288
 10
891.956101852694
 20
-1325.437753321193
 42
-0.0369117275701424
 10
891.8702093507977
 20
-1325.274276080246
 42
-0.0191751379909462
 10
891.8030159652405
 20
-1325.101871474239
 10
891.8012526414813
 20
-1325.096778129565
 42
-0.0378178042231292
 10
891.7514579226969
 20
-1324.907837353483
 10
891.7454626269671
 20
-1324.875276735288
 42
-0.0184846046468206
 10
891.7247454276725
 20
-1324.733523914742
 42
-0.0179866351324333
 10
891.7144124225988
 20
-1324.590633101664
 10
891.714355980153
 20
-1324.589075415048
 42
-0.0085497186108425
 10
891.712923699049
 20
-1324.514202250039
 42
-0.0085497186108425
  0
ENDBLK
  5
55
330
23
100
AcDbEntity
  8
template
390
1D
100
AcDbBlockEnd
  0
BLOCK
  5
56
330
24
100
AcDbEntity
  8
notes
390
1D
100
AcDbBlockBegin
  2
*D3
 70
     1
 10
0.0
 20
0.0
 30
0.0
  3
*D3
  1
*D3
  0
LINE
  5
57
330
24
100
AcDbEntity
  8
0
  6
Continuous
 62
     0
370
    -2
390
1D
100
AcDbLine
 10
311.6358413957323
 20
-210.9416087663516
 30
0.0
 11
386.5909769298992
 21
-210.9416087663516
 31
0.0
  0
LINE
  5
58
330
24
100
AcDbEntity
  8
0
  6
Continuous
 62
     0
370
    -2
390
1D
100
AcDbLine
 10
223.0444604637519
 20
-390.9287149342557
 30
0.0
 11
386.5909769298992
 21
-390.9287149342557
 31
0.0
  0
LINE
  5
59
330
24
100
AcDbEntity
  8
0
  6
Continuous
 62
     0
370
    -2
390
1D
100
AcDbLine
 10
386.5909769298992
 20
-210.9416087663516
 30
0.0
 11
386.5909769298992
 21
-390.9287149342557
 31
0.0
  0
CIRCLE
  5
5A
102
{ACAD_REACTORS
330
5B
102
}
330
24
100
AcDbEntity
  8
0
  6
Continuous
 62
     0
370
    -2
390
1D
100
AcDbCircle
 10
386.5909769298992
 20
-210.9416087663516
 30
0.0
 40
1.9998779296875
  0
HATCH
  5
5B
330
24
100
AcDbEntity
  8
0
  6
Continuous
 62
     0
370
    -2
390
1D
100
AcDbHatch
 10
0.0
 20
0.0
 30
0.0
210
0.0
220
0.0
230
1.0
  2
SOLID
 70
     1
 71
     1
 91
        1
 92
        1
 93
        1
 72
     2
 10
386.5909769298992
 20
-210.9416087663516
 40
1.9998779296875
 50
0.0
 51
360.0
 73
     0
 97
        1
330
5A
 75
     0
 76
     1
 98
        1
 10
0.0
 20
0.0
  0
CIRCLE
  5
5C
102
{ACAD_REACTORS
330
5D
102
}
330
24
100
AcDbEntity
  8
0
  6
Continuous
 62
     0
370
    -2
390
1D
100
AcDbCircle
 10
386.5909769298992
 20
-390.9287149342557
 30
0.0
 40
1.9998779296875
  0
HATCH
  5
5D
330
24
100
AcDbEntity
  8
0
  6
Continuous
 62
     0
370
    -2
390
1D
100
AcDbHatch
 10
0.0
 20
0.0
 30
0.0
210
0.0
220
0.0
230
1.0
  2
SOLID
 70
     1
 71
     1
 91
        1
 92
        1
 93
        1
 72
     2
 10
386.5909769298992
 20
-390.9287149342557
 40
1.9998779296875
 50
0.0
 51
360.0
 73
     0
 97
        1
330
5C
 75
     0
 76
     1
 98
        1
 10
0.0
 20
0.0
  0
MTEXT
  5
5E
330
24
100
AcDbEntity
  8
0
 62
     0
390
1D
100
AcDbMText
 10
352.7133597423992
 20
-324.7476635324791
 30
0.0
 40
24.4326171875
 41
0.0
 46
0.0
 71
     1
 72
     1
  1
180
  7
ＭＳ ゴシック
 11
0.0
 21
1.0
 31
0.0
 73
     1
 44
0.7828267384257843
  0
POINT
  5
5F
330
24
100
AcDbEntity
  8
Defpoints
 62
     0
370
     0
390
1D
100
AcDbPoint
 10
198.0444604637519
 20
-390.9287149342557
 30
0.0
  0
POINT
  5
60
330
24
100
AcDbEntity
  8
Defpoints
 62
     0
370
     0
390
1D
100
AcDbPoint
 10
286.6358413957323
 20
-210.9416087663516
 30
0.0
  0
POINT
  5
61
330
24
100
AcDbEntity
  8
Defpoints
 62
     0
370
     0
390
1D
100
AcDbPoint
 10
386.5909769298992
 20
-210.9416087663516
 30
0.0
  0
ENDBLK
  5
62
330
24
100
AcDbEntity
  8
notes
390
1D
100
AcDbBlockEnd
  0
BLOCK
  5
63
330
25
100
AcDbEntity
  8
notes
390
1D
100
AcDbBlockBegin
  2
*D4
 70
     1
 10
0.0
 20
0.0
 30
0.0
  3
*D4
  1
*D4
  0
LINE
  5
64
330
25
100
AcDbEntity
  8
0
  6
Continuous
 62
     0
370
    -2
390
1D
100
AcDbLine
 10
-220.9007606162509
 20
-415.9470853539327
 30
0.0
 11
-220.9007606162509
 21
-490.9419650645602
 31
0.0
  0
LINE
  5
65
330
25
100
AcDbEntity
  8
0
  6
Continuous
 62
     0
370
    -2
390
1D
100
AcDbLine
 10
194.0992393837491
 20
-415.9416087663511
 30
0.0
 11
194.0992393837491
 21
-490.9419650645602
 31
0.0
  0
LINE
  5
66
330
25
100
AcDbEntity
  8
0
  6
Continuous
 62
     0
370
    -2
390
1D
100
AcDbLine
 10
-220.9007606162509
 20
-490.9419650645602
 30
0.0
 11
194.0992393837491
 21
-490.9419650645602
 31
0.0
  0
CIRCLE
  5
67
102
{ACAD_REACTORS
330
68
102
}
330
25
100
AcDbEntity
  8
0
  6
Continuous
 62
     0
370
    -2
390
1D
100
AcDbCircle
 10
-220.9007606162509
 20
-490.9419650645602
 30
0.0
 40
1.9998779296875
  0
HATCH
  5
68
330
25
100
AcDbEntity
  8
0
  6
Continuous
 62
     0
370
    -2
390
1D
100
AcDbHatch
 10
0.0
 20
0.0
 30
0.0
210
0.0
220
0.0
230
1.0
  2
SOLID
 70
     1
 71
     1
 91
        1
 92
        1
 93
        1
 72
     2
 10
-220.9007606162509
 20
-490.9419650645602
 40
1.9998779296875
 50
0.0
 51
360.0
 73
     0
 97
        1
330
67
 75
     0
 76
     1
 98
        1
 10
0.0
 20
0.0
  0
CIRCLE
  5
69
102
{ACAD_REACTORS
330
6A
102
}
330
25
100
AcDbEntity
  8
0
  6
Continuous
 62
     0
370
    -2
390
1D
100
AcDbCircle
 10
194.0992393837491
 20
-490.9419650645602
 30
0.0
 40
1.9998779296875
  0
HATCH
  5
6A
330
25
100
AcDbEntity
  8
0
  6
Continuous
 62
     0
370
    -2
390
1D
100
AcDbHatch
 10
0.0
 20
0.0
 30
0.0
210
0.0
220
0.0
230
1.0
  2
SOLID
 70
     1
 71
     1
 91
        1
 92
        1
 93
        1
 72
     2
 10
194.0992393837491
 20
-490.9419650645602
 40
1.9998779296875
 50
0.0
 51
360.0
 73
     0
 97
        1
330
69
 75
     0
 76
     1
 98
        1
 10
0.0
 20
0.0
  0
MTEXT
  5
6B
330
25
100
AcDbEntity
  8
0
 62
     0
390
1D
100
AcDbMText
 10
-37.2132622984264
 20
-457.0643478770602
 30
0.0
 40
24.4326171875
 41
0.0
 46
0.0
 71
     1
 72
     1
  1
415
  7
ＭＳ ゴシック
 73
     1
 44
0.7828267384257843
  0
POINT
  5
6C
330
25
100
AcDbEntity
  8
Defpoints
 62
     0
370
     0
390
1D
100
AcDbPoint
 10
194.0992393837491
 20
-390.9416087663511
 30
0.0
  0
POINT
  5
6D
330
25
100
AcDbEntity
  8
Defpoints
 62
     0
370
     0
390
1D
100
AcDbPoint
 10
-220.9007606162509
 20
-390.9470853539327
 30
0.0
  0
POINT
  5
6E
330
25
100
AcDbEntity
  8
Defpoints
 62
     0
370
     0
390
1D
100
AcDbPoint
 10
-220.9007606162509
 20
-490.9419650645602
 30
0.0
  0
ENDBLK
  5
6F
330
25
100
AcDbEntity
  8
notes
390
1D
100
AcDbBlockEnd
  0
BLOCK
  5
70
330
26
100
AcDbEntity
  8
notes
390
1D
100
AcDbBlockBegin
  2
*D5
 70
     1
 10
0.0
 20
0.0
 30
0.0
  3
*D5
  1
*D5
  0
LINE
  5
71
330
26
100
AcDbEntity
  8
0
  6
Continuous
 62
     0
370
    -2
390
1D
100
AcDbLine
 10
926.6171353964382
 20
-210.9341915218378
 30
0.0
 11
917.6171353964382
 21
-210.9341915218378
 31
0.0
  0
LINE
  5
72
330
26
100
AcDbEntity
  8
0
  6
Continuous
 62
     0
370
    -2
390
1D
100
AcDbLine
 10
926.6171353964382
 20
-340.9341915218378
 30
0.0
 11
917.6171353964382
 21
-340.9341915218378
 31
0.0
  0
LINE
  5
73
330
26
100
AcDbEntity
  8
0
  6
Continuous
 62
     0
370
    -2
390
1D
100
AcDbLine
 10
917.6171353964382
 20
-210.9341915218378
 30
0.0
 11
917.6171353964382
 21
-42.72023194231801
 31
0.0
  0
LINE
  5
74
330
26
100
AcDbEntity
  8
0
  6
Continuous
 62
     0
370
    -2
390
1D
100
AcDbLine
 10
917.6171353964382
 20
-210.9341915218378
 30
0.0
 11
917.6171353964382
 21
-340.9341915218378
 31
0.0
  0
CIRCLE
  5
75
102
{ACAD_REACTORS
330
76
102
}
330
26
100
AcDbEntity
  8
0
  6
Continuous
 62
     0
370
    -2
390
1D
100
AcDbCircle
 10
917.6171353964382
 20
-210.9341915218378
 30
0.0
 40
1.9998779296875
  0
HATCH
  5
76
330
26
100
AcDbEntity
  8
0
  6
Continuous
 62
     0
370
    -2
390
1D
100
AcDbHatch
 10
0.0
 20
0.0
 30
0.0
210
0.0
220
0.0
230
1.0
  2
SOLID
 70
     1
 71
     1
 91
        1
 92
        1
 93
        1
 72
     2
 10
917.6171353964382
 20
-210.9341915218378
 40
1.9998779296875
 50
0.0
 51
360.0
 73
     0
 97
        1
330
75
 75
     0
 76
     1
 98
        1
 10
0.0
 20
0.0
  0
CIRCLE
  5
77
102
{ACAD_REACTORS
330
78
102
}
330
26
100
AcDbEntity
  8
0
  6
Continuous
 62
     0
370
    -2
390
1D
100
AcDbCircle
 10
917.6171353964382
 20
-340.9341915218378
 30
0.0
 40
1.9998779296875
  0
HATCH
  5
78
330
26
100
AcDbEntity
  8
0
  6
Continuous
 62
     0
370
    -2
390
1D
100
AcDbHatch
 10
0.0
 20
0.0
 30
0.0
210
0.0
220
0.0
230
1.0
  2
SOLID
 70
     1
 71
     1
 91
        1
 92
        1
 93
        1
 72
     2
 10
917.6171353964382
 20
-340.9341915218378
 40
1.9998779296875
 50
0.0
 51
360.0
 73
     0
 97
        1
330
77
 75
     0
 76
     1
 98
        1
 10
0.0
 20
0.0
  0
MTEXT
  5
79
330
26
100
AcDbEntity
  8
0
 62
     0
390
1D
100
AcDbMText
 10
883.7395182089383
 20
-185.595231942318
 30
0.0
 40
24.4326171875
 41
0.0
 46
0.0
 71
     1
 72
     1
  1
130(深さ)
  7
ＭＳ ゴシック
 11
0.0
 21
1.0
 31
0.0
 73
     1
 44
0.7828267384257843
  0
POINT
  5
7A
330
26
100
AcDbEntity
  8
Defpoints
 62
     0
370
     0
390
1D
100
AcDbPoint
 10
901.6171353964382
 20
-340.9341915218378
 30
0.0
  0
POINT
  5
7B
330
26
100
AcDbEntity
  8
Defpoints
 62
     0
370
     0
390
1D
100
AcDbPoint
 10
901.6171353964382
 20
-210.9341915218378
 30
0.0
  0
POINT
  5
7C
330
26
100
AcDbEntity
  8
Defpoints
 62
     0
370
     0
390
1D
100
AcDbPoint
 10
917.6171353964382
 20
-210.9341915218378
 30
0.0
  0
ENDBLK
  5
7D
330
26
100
AcDbEntity
  8
notes
390
1D
100
AcDbBlockEnd
  0
BLOCK
  5
7E
330
27
100
AcDbEntity
  8
notes
390
1D
100
AcDbBlockBegin
  2
*D6
 70
     1
 10
0.0
 20
0.0
 30
0.0
  3
*D6
  1
*D6
  0
LINE
  5
7F
330
27
100
AcDbEntity
  8
0
  6
Continuous
 62
     0
370
    -2
390
1D
100
AcDbLine
 10
-312.3488372088896
 20
828.8649313906268
 30
0.0
 11
-312.3488372088896
 21
1106.404768057682
 31
0.0
  0
LINE
  5
80
330
27
100
AcDbEntity
  8
0
  6
Continuous
 62
     0
370
    -2
390
1D
100
AcDbLine
 10
287.6511627911104
 20
828.8649313906268
 30
0.0
 11
287.6511627911104
 21
1106.404768057682
 31
0.0
  0
LINE
  5
81
330
27
100
AcDbEntity
  8
0
  6
Continuous
 62
     0
370
    -2
390
1D
100
AcDbLine
 10
-312.3488372088896
 20
1106.404768057682
 30
0.0
 11
287.6511627911104
 21
1106.404768057682
 31
0.0
  0
CIRCLE
  5
82
102
{ACAD_REACTORS
330
83
102
}
330
27
100
AcDbEntity
  8
0
  6
Continuous
 62
     0
370
    -2
390
1D
100
AcDbCircle
 10
-312.3488372088896
 20
1106.404768057682
 30
0.0
 40
1.9998779296875
  0
HATCH
  5
83
330
27
100
AcDbEntity
  8
0
  6
Continuous
 62
     0
370
    -2
390
1D
100
AcDbHatch
 10
0.0
 20
0.0
 30
0.0
210
0.0
220
0.0
230
1.0
  2
SOLID
 70
     1
 71
     1
 91
        1
 92
        1
 93
        1
 72
     2
 10
-312.3488372088896
 20
1106.404768057682
 40
1.9998779296875
 50
0.0
 51
360.0
 73
     0
 97
        1
330
82
 75
     0
 76
     1
 98
        1
 10
0.0
 20
0.0
  0
CIRCLE
  5
84
102
{ACAD_REACTORS
330
85
102
}
330
27
100
AcDbEntity
  8
0
  6
Continuous
 62
     0
370
    -2
390
1D
100
AcDbCircle
 10
287.6511627911104
 20
1106.404768057682
 30
0.0
 40
1.9998779296875
  0
HATCH
  5
85
330
27
100
AcDbEntity
  8
0
  6
Continuous
 62
     0
370
    -2
390
1D
100
AcDbHatch
 10
0.0
 20
0.0
 30
0.0
210
0.0
220
0.0
230
1.0
  2
SOLID
 70
     1
 71
     1
 91
        1
 92
        1
 93
        1
 72
     2
 10
287.6511627911104
 20
1106.404768057682
 40
1.9998779296875
 50
0.0
 51
360.0
 73
     0
 97
        1
330
84
 75
     0
 76
     1
 98
        1
 10
0.0
 20
0.0
  0
MTEXT
  5
86
330
27
100
AcDbEntity
  8
0
 62
     0
390
1D
100
AcDbMText
 10
-36.1613388910651
 20
1140.282385245182
 30
0.0
 40
24.4326171875
 41
0.0
 46
0.0
 71
     1
 72
     1
  1
600
  7
ＭＳ ゴシック
 73
     1
 44
0.7828267384257843
  0
POINT
  5
87
330
27
100
AcDbEntity
  8
Defpoints
 62
     0
370
     0
390
1D
100
AcDbPoint
 10
287.6511627911104
 20
803.8649313906268
 30
0.0
  0
POINT
  5
88
330
27
100
AcDbEntity
  8
Defpoints
 62
     0
370
     0
390
1D
100
AcDbPoint
 10
-312.3488372088896
 20
803.8649313906268
 30
0.0
  0
POINT
  5
89
330
27
100
AcDbEntity
  8
Defpoints
 62
     0
370
     0
390
1D
100
AcDbPoint
 10
-312.3488372088896
 20
1106.404768057682
 30
0.0
  0
ENDBLK
  5
8A
330
27
100
AcDbEntity
  8
notes
390
1D
100
AcDbBlockEnd
  0
BLOCK
  5
8B
330
28
100
AcDbEntity
  8
notes
390
1D
100
AcDbBlockBegin
  2
*D7
 70
     1
 10
0.0
 20
0.0
 30
0.0
  3
*D7
  1
*D7
  0
LINE
  5
8C
330
28
100
AcDbEntity
  8
0
  6
Continuous
 62
     0
370
    -2
390
1D
100
AcDbLine
 10
764.0894626669435
 20
-415.9668201025664
 30
0.0
 11
764.0894626669435
 21
-490.9419650645602
 31
0.0
  0
LINE
  5
8D
330
28
100
AcDbEntity
  8
0
  6
Continuous
 62
     0
370
    -2
390
1D
100
AcDbLine
 10
1039.089462666944
 20
-415.9668201025664
 30
0.0
 11
1039.089462666944
 21
-490.9419650645602
 31
0.0
  0
LINE
  5
8E
330
28
100
AcDbEntity
  8
0
  6
Continuous
 62
     0
370
    -2
390
1D
100
AcDbLine
 10
764.0894626669435
 20
-490.9419650645602
 30
0.0
 11
1039.089462666944
 21
-490.9419650645602
 31
0.0
  0
CIRCLE
  5
8F
102
{ACAD_REACTORS
330
90
102
}
330
28
100
AcDbEntity
  8
0
  6
Continuous
 62
     0
370
    -2
390
1D
100
AcDbCircle
 10
764.0894626669435
 20
-490.9419650645602
 30
0.0
 40
1.9998779296875
  0
HATCH
  5
90
330
28
100
AcDbEntity
  8
0
  6
Continuous
 62
     0
370
    -2
390
1D
100
AcDbHatch
 10
0.0
 20
0.0
 30
0.0
210
0.0
220
0.0
230
1.0
  2
SOLID
 70
     1
 71
     1
 91
        1
 92
        1
 93
        1
 72
     2
 10
764.0894626669435
 20
-490.9419650645602
 40
1.9998779296875
 50
0.0
 51
360.0
 73
     0
 97
        1
330
8F
 75
     0
 76
     1
 98
        1
 10
0.0
 20
0.0
  0
CIRCLE
  5
91
102
{ACAD_REACTORS
330
92
102
}
330
28
100
AcDbEntity
  8
0
  6
Continuous
 62
     0
370
    -2
390
1D
100
AcDbCircle
 10
1039.089462666944
 20
-490.9419650645602
 30
0.0
 40
1.9998779296875
  0
HATCH
  5
92
330
28
100
AcDbEntity
  8
0
  6
Continuous
 62
     0
370
    -2
390
1D
100
AcDbHatch
 10
0.0
 20
0.0
 30
0.0
210
0.0
220
0.0
230
1.0
  2
SOLID
 70
     1
 71
     1
 91
        1
 92
        1
 93
        1
 72
     2
 10
1039.089462666944
 20
-490.9419650645602
 40
1.9998779296875
 50
0.0
 51
360.0
 73
     0
 97
        1
330
91
 75
     0
 76
     1
 98
        1
 10
0.0
 20
0.0
  0
MTEXT
  5
93
330
28
100
AcDbEntity
  8
0
 62
     0
390
1D
100
AcDbMText
 10
877.776960984768
 20
-457.0643478770602
 30
0.0
 40
24.4326171875
 41
0.0
 46
0.0
 71
     1
 72
     1
  1
275
  7
ＭＳ ゴシック
 73
     1
 44
0.7828267384257843
  0
POINT
  5
94
330
28
100
AcDbEntity
  8
Defpoints
 62
     0
370
     0
390
1D
100
AcDbPoint
 10
1039.089462666944
 20
-390.9668201025664
 30
0.0
  0
POINT
  5
95
330
28
100
AcDbEntity
  8
Defpoints
 62
     0
370
     0
390
1D
100
AcDbPoint
 10
764.0894626669435
 20
-390.9668201025664
 30
0.0
  0
POINT
  5
96
330
28
100
AcDbEntity
  8
Defpoints
 62
     0
370
     0
390
1D
100
AcDbPoint
 10
764.0894626669435
 20
-490.9419650645602
 30
0.0
  0
ENDBLK
  5
97
330
28
100
AcDbEntity
  8
notes
390
1D
100
AcDbBlockEnd
  0
BLOCK
  5
98
330
29
100
AcDbEntity
  8
notes
390
1D
100
AcDbBlockBegin
  2
*D8
 70
     1
 10
0.0
 20
0.0
 30
0.0
  3
*D8
  1
*D8
  0
LINE
  5
99
330
29
100
AcDbEntity
  8
0
  6
Continuous
 62
     0
370
    -2
390
1D
100
AcDbLine
 10
948.6931285698449
 20
833.2794547268596
 30
0.0
 11
993.316499458196
 21
866.2546718607061
 31
0.0
  0
CIRCLE
  5
9A
102
{ACAD_REACTORS
330
9B
102
}
330
29
100
AcDbEntity
  8
0
  6
Continuous
 62
     0
370
    -2
390
1D
100
AcDbCircle
 10
948.6931285698449
 20
833.2794547268596
 30
0.0
 40
1.9998779296875
  0
HATCH
  5
9B
330
29
100
AcDbEntity
  8
0
  6
Continuous
 62
     0
370
    -2
390
1D
100
AcDbHatch
 10
0.0
 20
0.0
 30
0.0
210
0.0
220
0.0
230
1.0
  2
SOLID
 70
     1
 71
     1
 91
        1
 92
        1
 93
        1
 72
     2
 10
948.6931285698449
 20
833.2794547268596
 40
1.9998779296875
 50
0.0
 51
360.0
 73
     0
 97
        1
330
9A
 75
     0
 76
     1
 98
        1
 10
0.0
 20
0.0
  0
LINE
  5
9C
330
29
100
AcDbEntity
  8
0
  6
Continuous
 62
     0
370
    -2
390
1D
100
AcDbLine
 10
993.316499458196
 20
866.2546718607061
 30
0.0
 11
1132.691499458196
 21
866.2546718607061
 31
0.0
  0
MTEXT
  5
9D
330
29
100
AcDbEntity
  8
0
 62
     0
390
1D
100
AcDbMText
 10
1053.316499458196
 20
900.1322890482062
 30
0.0
 40
24.4326171875
 41
0.0
 46
0.0
 71
     1
 72
     1
  1
φ120
  7
ＭＳ ゴシック
 73
     1
 44
0.7828267384257843
  0
POINT
  5
9E
330
29
100
AcDbEntity
  8
Defpoints
 62
     0
370
     0
390
1D
100
AcDbPoint
 10
852.2349450775122
 20
762.0
 30
0.0
  0
POINT
  5
9F
330
29
100
AcDbEntity
  8
Defpoints
 62
     0
370
     0
390
1D
100
AcDbPoint
 10
948.6931285698449
 20
833.2794547268596
 30
0.0
  0
ENDBLK
  5
A0
330
29
100
AcDbEntity
  8
notes
390
1D
100
AcDbBlockEnd
  0
BLOCK
  5
A1
330
2A
100
AcDbEntity
  8
notes
390
1D
100
AcDbBlockBegin
  2
*D9
 70
     1
 10
0.0
 20
0.0
 30
0.0
  3
*D9
  1
*D9
  0
LINE
  5
A2
330
2A
100
AcDbEntity
  8
0
  6
Continuous
 62
     0
370
    -2
390
1D
100
AcDbLine
 10
-272.3488372088896
 20
667.3462641075417
 30
0.0
 11
-272.3488372088896
 21
486.1274313906259
 31
0.0
  0
LINE
  5
A3
330
2A
100
AcDbEntity
  8
0
  6
Continuous
 62
     0
370
    -2
390
1D
100
AcDbLine
 10
247.6511627911104
 20
667.3462641075417
 30
0.0
 11
247.6511627911104
 21
486.1274313906259
 31
0.0
  0
LINE
  5
A4
330
2A
100
AcDbEntity
  8
0
  6
Continuous
 62
     0
370
    -2
390
1D
100
AcDbLine
 10
-272.3488372088896
 20
486.1274313906259
 30
0.0
 11
247.6511627911104
 21
486.1274313906259
 31
0.0
  0
CIRCLE
  5
A5
102
{ACAD_REACTORS
330
A6
102
}
330
2A
100
AcDbEntity
  8
0
  6
Continuous
 62
     0
370
    -2
390
1D
100
AcDbCircle
 10
-272.3488372088896
 20
486.1274313906259
 30
0.0
 40
1.9998779296875
  0
HATCH
  5
A6
330
2A
100
AcDbEntity
  8
0
  6
Continuous
 62
     0
370
    -2
390
1D
100
AcDbHatch
 10
0.0
 20
0.0
 30
0.0
210
0.0
220
0.0
230
1.0
  2
SOLID
 70
     1
 71
     1
 91
        1
 92
        1
 93
        1
 72
     2
 10
-272.3488372088896
 20
486.1274313906259
 40
1.9998779296875
 50
0.0
 51
360.0
 73
     0
 97
        1
330
A5
 75
     0
 76
     1
 98
        1
 10
0.0
 20
0.0
  0
CIRCLE
  5
A7
102
{ACAD_REACTORS
330
A8
102
}
330
2A
100
AcDbEntity
  8
0
  6
Continuous
 62
     0
370
    -2
390
1D
100
AcDbCircle
 10
247.6511627911104
 20
486.1274313906259
 30
0.0
 40
1.9998779296875
  0
HATCH
  5
A8
330
2A
100
AcDbEntity
  8
0
  6
Continuous
 62
     0
370
    -2
390
1D
100
AcDbHatch
 10
0.0
 20
0.0
 30
0.0
210
0.0
220
0.0
230
1.0
  2
SOLID
 70
     1
 71
     1
 91
        1
 92
        1
 93
        1
 72
     2
 10
247.6511627911104
 20
486.1274313906259
 40
1.9998779296875
 50
0.0
 51
360.0
 73
     0
 97
        1
330
A7
 75
     0
 76
     1
 98
        1
 10
0.0
 20
0.0
  0
MTEXT
  5
A9
330
2A
100
AcDbEntity
  8
0
 62
     0
390
1D
100
AcDbMText
 10
-36.1613388910651
 20
520.0050485781259
 30
0.0
 40
24.4326171875
 41
0.0
 46
0.0
 71
     1
 72
     1
  1
520
  7
ＭＳ ゴシック
 73
     1
 44
0.7828267384257843
  0
POINT
  5
AA
330
2A
100
AcDbEntity
  8
Defpoints
 62
     0
370
     0
390
1D
100
AcDbPoint
 10
247.6511627911104
 20
692.3462641075417
 30
0.0
  0
POINT
  5
AB
330
2A
100
AcDbEntity
  8
Defpoints
 62
     0
370
     0
390
1D
100
AcDbPoint
 10
-272.3488372088896
 20
692.3462641075417
 30
0.0
  0
POINT
  5
AC
330
2A
100
AcDbEntity
  8
Defpoints
 62
     0
370
     0
390
1D
100
AcDbPoint
 10
-272.3488372088896
 20
486.1274313906259
 30
0.0
  0
ENDBLK
  5
AD
330
2A
100
AcDbEntity
  8
notes
390
1D
100
AcDbBlockEnd
  0
BLOCK
  5
AE
330
2B
100
AcDbEntity
  8
notes
390
1D
100
AcDbBlockBegin
  2
*D10
 70
     1
 10
0.0
 20
0.0
 30
0.0
  3
*D10
  1
*D10
  0
LINE
  5
AF
330
2B
100
AcDbEntity
  8
0
  6
Continuous
 62
     0
370
    -2
390
1D
100
AcDbLine
 10
63.52913794711912
 20
1006.127431390627
 30
0.0
 11
387.6511627911103
 21
1006.127431390627
 31
0.0
  0
LINE
  5
B0
330
2B
100
AcDbEntity
  8
0
  6
Continuous
 62
     0
370
    -2
390
1D
100
AcDbLine
 10
63.52913794711912
 20
586.1274313906267
 30
0.0
 11
387.6511627911103
 21
586.1274313906267
 31
0.0
  0
LINE
  5
B1
330
2B
100
AcDbEntity
  8
0
  6
Continuous
 62
     0
370
    -2
390
1D
100
AcDbLine
 10
387.6511627911103
 20
1006.127431390627
 30
0.0
 11
387.6511627911103
 21
586.1274313906267
 31
0.0
  0
CIRCLE
  5
B2
102
{ACAD_REACTORS
330
B3
102
}
330
2B
100
AcDbEntity
  8
0
  6
Continuous
 62
     0
370
    -2
390
1D
100
AcDbCircle
 10
387.6511627911103
 20
1006.127431390627
 30
0.0
 40
1.9998779296875
  0
HATCH
  5
B3
330
2B
100
AcDbEntity
  8
0
  6
Continuous
 62
     0
370
    -2
390
1D
100
AcDbHatch
 10
0.0
 20
0.0
 30
0.0
210
0.0
220
0.0
230
1.0
  2
SOLID
 70
     1
 71
     1
 91
        1
 92
        1
 93
        1
 72
     2
 10
387.6511627911103
 20
1006.127431390627
 40
1.9998779296875
 50
0.0
 51
360.0
 73
     0
 97
        1
330
B2
 75
     0
 76
     1
 98
        1
 10
0.0
 20
0.0
  0
CIRCLE
  5
B4
102
{ACAD_REACTORS
330
B5
102
}
330
2B
100
AcDbEntity
  8
0
  6
Continuous
 62
     0
370
    -2
390
1D
100
AcDbCircle
 10
387.6511627911103
 20
586.1274313906267
 30
0.0
 40
1.9998779296875
  0
HATCH
  5
B5
330
2B
100
AcDbEntity
  8
0
  6
Continuous
 62
     0
370
    -2
390
1D
100
AcDbHatch
 10
0.0
 20
0.0
 30
0.0
210
0.0
220
0.0
230
1.0
  2
SOLID
 70
     1
 71
     1
 91
        1
 92
        1
 93
        1
 72
     2
 10
387.6511627911103
 20
586.1274313906267
 40
1.9998779296875
 50
0.0
 51
360.0
 73
     0
 97
        1
330
B4
 75
     0
 76
     1
 98
        1
 10
0.0
 20
0.0
  0
MTEXT
  5
B6
330
2B
100
AcDbEntity
  8
0
 62
     0
390
1D
100
AcDbMText
 10
353.7735456036103
 20
772.3149297084512
 30
0.0
 40
24.4326171875
 41
0.0
 46
0.0
 71
     1
 72
     1
  1
420
  7
ＭＳ ゴシック
 11
0.0
 21
1.0
 31
0.0
 73
     1
 44
0.7828267384257843
  0
POINT
  5
B7
330
2B
100
AcDbEntity
  8
Defpoints
 62
     0
370
     0
390
1D
100
AcDbPoint
 10
38.52913794711912
 20
586.1274313906267
 30
0.0
  0
POINT
  5
B8
330
2B
100
AcDbEntity
  8
Defpoints
 62
     0
370
     0
390
1D
100
AcDbPoint
 10
38.52913794711912
 20
1006.127431390627
 30
0.0
  0
POINT
  5
B9
330
2B
100
AcDbEntity
  8
Defpoints
 62
     0
370
     0
390
1D
100
AcDbPoint
 10
387.6511627911103
 20
1006.127431390627
 30
0.0
  0
ENDBLK
  5
BA
330
2B
100
AcDbEntity
  8
notes
390
1D
100
AcDbBlockEnd
  0
BLOCK
  5
BB
330
2C
100
AcDbEntity
  8
notes
390
1D
100
AcDbBlockBegin
  2
*D11
 70
     1
 10
0.0
 20
0.0
 30
0.0
  3
*D11
  1
*D11
  0
LINE
  5
BC
330
2C
100
AcDbEntity
  8
0
  6
Continuous
 62
     0
370
    -2
390
1D
100
AcDbLine
 10
-215.3488372088896
 20
966.1274313906267
 30
0.0
 11
-411.9470034566818
 21
966.1274313906267
 31
0.0
  0
LINE
  5
BD
330
2C
100
AcDbEntity
  8
0
  6
Continuous
 62
     0
370
    -2
390
1D
100
AcDbLine
 10
-215.3488372088896
 20
626.1274313906267
 30
0.0
 11
-411.9470034566818
 21
626.1274313906267
 31
0.0
  0
LINE
  5
BE
330
2C
100
AcDbEntity
  8
0
  6
Continuous
 62
     0
370
    -2
390
1D
100
AcDbLine
 10
-411.9470034566818
 20
966.1274313906267
 30
0.0
 11
-411.9470034566818
 21
626.1274313906267
 31
0.0
  0
CIRCLE
  5
BF
102
{ACAD_REACTORS
330
C0
102
}
330
2C
100
AcDbEntity
  8
0
  6
Continuous
 62
     0
370
    -2
390
1D
100
AcDbCircle
 10
-411.9470034566818
 20
966.1274313906267
 30
0.0
 40
1.9998779296875
  0
HATCH
  5
C0
330
2C
100
AcDbEntity
  8
0
  6
Continuous
 62
     0
370
    -2
390
1D
100
AcDbHatch
 10
0.0
 20
0.0
 30
0.0
210
0.0
220
0.0
230
1.0
  2
SOLID
 70
     1
 71
     1
 91
        1
 92
        1
 93
        1
 72
     2
 10
-411.9470034566818
 20
966.1274313906267
 40
1.9998779296875
 50
0.0
 51
360.0
 73
     0
 97
        1
330
BF
 75
     0
 76
     1
 98
        1
 10
0.0
 20
0.0
  0
CIRCLE
  5
C1
102
{ACAD_REACTORS
330
C2
102
}
330
2C
100
AcDbEntity
  8
0
  6
Continuous
 62
     0
370
    -2
390
1D
100
AcDbCircle
 10
-411.9470034566818
 20
626.1274313906267
 30
0.0
 40
1.9998779296875
  0
HATCH
  5
C2
330
2C
100
AcDbEntity
  8
0
  6
Continuous
 62
     0
370
    -2
390
1D
100
AcDbHatch
 10
0.0
 20
0.0
 30
0.0
210
0.0
220
0.0
230
1.0
  2
SOLID
 70
     1
 71
     1
 91
        1
 92
        1
 93
        1
 72
     2
 10
-411.9470034566818
 20
626.1274313906267
 40
1.9998779296875
 50
0.0
 51
360.0
 73
     0
 97
        1
330
C1
 75
     0
 76
     1
 98
        1
 10
0.0
 20
0.0
  0
MTEXT
  5
C3
330
2C
100
AcDbEntity
  8
0
 62
     0
390
1D
100
AcDbMText
 10
-445.8246206441819
 20
772.3149297084512
 30
0.0
 40
24.4326171875
 41
0.0
 46
0.0
 71
     1
 72
     1
  1
340
  7
ＭＳ ゴシック
 11
0.0
 21
1.0
 31
0.0
 73
     1
 44
0.7828267384257843
  0
POINT
  5
C4
330
2C
100
AcDbEntity
  8
Defpoints
 62
     0
370
     0
390
1D
100
AcDbPoint
 10
-190.3488372088896
 20
626.1274313906267
 30
0.0
  0
POINT
  5
C5
330
2C
100
AcDbEntity
  8
Defpoints
 62
     0
370
     0
390
1D
100
AcDbPoint
 10
-190.3488372088896
 20
966.1274313906267
 30
0.0
  0
POINT
  5
C6
330
2C
100
AcDbEntity
  8
Defpoints
 62
     0
370
     0
390
1D
100
AcDbPoint
 10
-411.9470034566818
 20
966.1274313906267
 30
0.0
  0
ENDBLK
  5
C7
330
2C
100
AcDbEntity
  8
notes
390
1D
100
AcDbBlockEnd
  0
BLOCK
  5
16A
330
169
100
AcDbEntity
  8
0
 62
     4
 48
0.2
100
AcDbBlockBegin
  2
_None
 70
     0
 10
0.0
 20
0.0
 30
0.0
  3
_None
  1
_None
  0
ENDBLK
  5
16B
330
169
100
AcDbEntity
  8
0
 62
     4
 48
0.2
100
AcDbBlockEnd
  0
ENDSEC
  0
SECTION
  2
ENTITIES
  0
MTEXT
  5
C8
330
A
100
AcDbEntity
  8
template
 62
     7
390
1D
100
AcDbMText
 10
-552.1601058239412
 20
-893.4149218749998
 30
0.0
 40
16.28841145833333
 41
0.0
 46
0.0
 71
     1
 72
     1
  1
品名
  7
ＭＳ ゴシック
 73
     1
 44
0.7828267384257843
  0
MTEXT
  5
C9
330
A
100
AcDbEntity
  8
template
 62
     7
390
1D
100
AcDbMText
 10
-552.1601058239412
 20
-978.4149218749998
 30
0.0
 40
16.28841145833333
 41
0.0
 46
0.0
 71
     1
 72
     1
  1
仕様
  7
ＭＳ ゴシック
 73
     1
 44
0.7828267384257843
  0
MTEXT
  5
CA
330
A
100
AcDbEntity
  8
template
 62
     7
390
1D
100
AcDbMText
 10
-499.1601058239412
 20
-921.9973828125
 30
0.0
 40
24.4326171875
 41
0.0
 46
0.0
 71
     1
 72
     1
  1
洗面器 -CATALANO,Zero-
  7
ＭＳ ゴシック
 73
     1
 44
0.7828267384257843
  0
LINE
  5
CB
330
A
100
AcDbEntity
  8
template
  6
Continuous
 62
     7
370
     5
390
1D
100
AcDbLine
 10
1390.839894175577
 20
-969.9999999999999
 30
0.0
 11
-559.1601058244232
 21
-969.9999999999999
 31
0.0
  0
LWPOLYLINE
  5
CC
330
A
100
AcDbEntity
  8
template
  6
Continuous
 62
     7
370
     5
390
1D
100
AcDbPolyline
 90
        5
 70
   128
 43
0.0
 10
1390.839894176059
 20
1660.0
 10
-559.1601058239412
 20
1660.0
 10
-559.1601058239412
 20
-1140.0
 10
1390.839894176059
 20
-1140.0
 10
1390.839894176059
 20
1660.0
  0
LINE
  5
CD
330
A
100
AcDbEntity
  8
template
  6
Continuous
 62
     7
370
     5
390
1D
100
AcDbLine
 10
1390.839894175577
 20
-884.9999999999999
 30
0.0
 11
-559.1601058244232
 21
-884.9999999999999
 31
0.0
  0
LINE
  5
CE
330
A
100
AcDbEntity
  8
template
  6
Continuous
 62
     7
370
     5
390
1D
100
AcDbLine
 10
1390.839894176059
 20
-1055.0
 30
0.0
 11
637.8398941760593
 21
-1055.0
 31
0.0
  0
MTEXT
  5
CF
330
A
100
AcDbEntity
  8
template
 62
     7
390
1D
100
AcDbMText
 10
-559.1601058237379
 20
-1151.853822056857
 30
0.0
 40
21.71788194444445
 41
0.0
 46
0.0
 71
     1
 72
     1
  1
110222SO
  7
ＭＳ ゴシック
 73
     1
 44
0.7828267384257843
  0
MTEXT
  5
D0
330
A
100
AcDbEntity
  8
template
 62
     7
390
1D
100
AcDbMText
 10
667.711300428319
 20
-1084.910394473308
 30
0.0
 40
24.4326171875
 41
0.0
 46
0.0
 71
     1
 72
     1
  1
大洋金物株式会社 ティーフォルム事業部
  7
ＭＳ ゴシック
 73
     1
 44
0.7828267384257843
  0
INSERT
  5
D1
330
A
100
AcDbEntity
  8
template
 62
     7
390
1D
100
AcDbBlockReference
  2
グループ
 10
425.1944759145067
 20
217.4275495798928
 30
0.0
  0
MTEXT
  5
D2
330
A
100
AcDbEntity
  8
template
 62
     7
390
1D
100
AcDbMText
 10
1199.839894176318
 20
-1006.9973828125
 30
0.0
 40
24.4326171875
 41
0.0
 46
0.0
 71
     1
 72
     1
  1
1:10
  7
ＭＳ ゴシック
 73
     1
 44
0.7828267384257843
  0
MTEXT
  5
D3
330
A
100
AcDbEntity
  8
template
 62
     7
390
1D
100
AcDbMText
 10
1146.839894176318
 20
-978.4149218749998
 30
0.0
 40
16.28841145833333
 41
0.0
 46
0.0
 71
     1
 72
     1
  1
縮尺
  7
ＭＳ ゴシック
 73
     1
 44
0.7828267384257843
  0
LINE
  5
D4
330
A
100
AcDbEntity
  8
template
  6
Continuous
 62
     7
370
     5
390
1D
100
AcDbLine
 10
1139.839894176318
 20
-1055.0
 30
0.0
 11
1139.839894176318
 21
-969.9999999999999
 31
0.0
  0
MTEXT
  5
D5
330
A
100
AcDbEntity
  8
template
 62
     7
390
1D
100
AcDbMText
 10
895.839894176318
 20
-978.4149218749998
 30
0.0
 40
16.28841145833333
 41
0.0
 46
0.0
 71
     1
 72
     1
  1
容量
  7
ＭＳ ゴシック
 73
     1
 44
0.7828267384257843
  0
MTEXT
  5
D6
330
A
100
AcDbEntity
  8
template
 62
     7
390
1D
100
AcDbMText
 10
948.839894176318
 20
-1006.9973828125
 30
0.0
 40
24.4326171875
 41
0.0
 46
0.0
 71
     1
 72
     1
  1
5L
  7
ＭＳ ゴシック
 73
     1
 44
0.7828267384257843
  0
LINE
  5
D7
330
A
100
AcDbEntity
  8
template
  6
Continuous
 62
     7
370
     5
390
1D
100
AcDbLine
 10
888.839894176318
 20
-1055.0
 30
0.0
 11
888.839894176318
 21
-969.9999999999999
 31
0.0
  0
MTEXT
  5
D8
330
A
100
AcDbEntity
  8
template
 62
     7
390
1D
100
AcDbMText
 10
644.839894176318
 20
-893.4149218749998
 30
0.0
 40
16.28841145833333
 41
0.0
 46
0.0
 71
     1
 72
     1
  1
品番
  7
ＭＳ ゴシック
 73
     1
 44
0.7828267384257843
  0
MTEXT
  5
D9
330
A
100
AcDbEntity
  8
template
 62
     7
390
1D
100
AcDbMText
 10
644.839894176318
 20
-978.4149218749998
 30
0.0
 40
16.28841145833333
 41
0.0
 46
0.0
 71
     1
 72
     1
  1
重量
  7
ＭＳ ゴシック
 73
     1
 44
0.7828267384257843
  0
MTEXT
  5
DA
330
A
100
AcDbEntity
  8
template
 62
     7
390
1D
100
AcDbMText
 10
697.839894176318
 20
-921.9973828125
 30
0.0
 40
24.4326171875
 41
0.0
 46
0.0
 71
     1
 72
     1
  1
ADF70-0111
  7
ＭＳ ゴシック
 73
     1
 44
0.7828267384257843
  0
MTEXT
  5
DB
330
A
100
AcDbEntity
  8
template
 62
     7
390
1D
100
AcDbMText
 10
697.839894176318
 20
-1006.9973828125
 30
0.0
 40
24.4326171875
 41
0.0
 46
0.0
 71
     1
 72
     1
  1
13.5kg
  7
ＭＳ ゴシック
 73
     1
 44
0.7828267384257843
  0
LINE
  5
DC
330
A
100
AcDbEntity
  8
template
  6
Continuous
 62
     7
370
     5
390
1D
100
AcDbLine
 10
637.839894176318
 20
-1140.0
 30
0.0
 11
637.839894176318
 21
-884.9999999999999
 31
0.0
  0
MTEXT
  5
DD
330
A
100
AcDbEntity
  8
notes
 62
     7
390
1D
100
AcDbMText
 10
752.770100899718
 20
1227.75741596373
 30
0.0
 40
24.4326171875
 41
0.0
 46
0.0
 71
     1
 72
     1
  1
カウンター切込寸法
  7
ＭＳ ゴシック
 73
     1
 44
0.7828267384257843
  0
DIMENSION
  5
DE
330
A
100
AcDbEntity
  8
notes
  6
Continuous
 62
     7
370
     5
390
1D
100
AcDbDimension
  2
*D3
 10
386.5909769298992
 20
-210.9416087663516
 30
0.0
 11
386.5909769298992
 21
-300.9351618503036
 31
0.0
 70
    32
 71
     5
 42
0.0
 73
     0
 74
     0
 75
     0
  3
tfrom線あり
100
AcDbAlignedDimension
 13
198.0444604637519
 23
-390.9287149342557
 33
0.0
 14
286.6358413957323
 24
-210.9416087663516
 34
0.0
 50
90.0
100
AcDbRotatedDimension
1001
ACAD
1000
DSTYLE
1002
{
1070
   279
1070
     2
1070
   340
1005
2D
1070
   147
1040
5.0
1002
}
  0
DIMENSION
  5
DF
330
A
100
AcDbEntity
  8
notes
  6
Continuous
 62
     7
370
     5
390
1D
100
AcDbDimension
  2
*D4
 10
-220.9007606162509
 20
-490.9419650645602
 30
0.0
 11
-13.40076061625086
 21
-490.9419650645602
 31
0.0
 70
    32
 71
     5
 42
0.0
 73
     0
 74
     0
 75
     0
  3
tfrom線あり
100
AcDbAlignedDimension
 13
194.0992393837491
 23
-390.9416087663511
 33
0.0
 14
-220.9007606162509
 24
-390.9470853539327
 34
0.0
100
AcDbRotatedDimension
1001
ACAD
1000
DSTYLE
1002
{
1070
   279
1070
     2
1070
   340
1005
2D
1070
   147
1040
5.0
1002
}
  0
DIMENSION
  5
E0
330
A
100
AcDbEntity
  8
notes
  6
Continuous
 62
     7
370
     5
390
1D
100
AcDbDimension
  2
*D5
 10
917.6171353964382
 20
-210.9341915218378
 30
0.0
 11
922.6171353964382
 21
-185.595231942318
 31
0.0
 70
   128
 71
     5
 42
0.0
 73
     0
 74
     0
 75
     0
  3
tfrom線あり
100
AcDbAlignedDimension
 13
901.6171353964382
 23
-340.9341915218378
 33
0.0
 14
901.6171353964382
 24
-210.9341915218378
 34
0.0
 50
90.0
100
AcDbRotatedDimension
1001
ACAD
1000
DSTYLE
1002
{
1070
   279
1070
     2
1070
   340
1005
2D
1070
     3
1000
<>(深さ)
1070
   174
1070
     0
1070
   147
1040
5.0
1002
}
  0
DIMENSION
  5
E1
330
A
100
AcDbEntity
  8
notes
  6
Continuous
 62
     7
370
     5
390
1D
100
AcDbDimension
  2
*D6
 10
-312.3488372088896
 20
1106.404768057682
 30
0.0
 11
-12.34883720888956
 21
1111.404768057682
 31
0.0
 70
   128
 71
     5
 42
0.0
 73
     0
 74
     0
 75
     0
  3
tfrom線あり
100
AcDbAlignedDimension
 13
287.6511627911104
 23
803.8649313906268
 33
0.0
 14
-312.3488372088896
 24
803.8649313906268
 34
0.0
100
AcDbRotatedDimension
1001
ACAD
1000
DSTYLE
1002
{
1070
   279
1070
     2
1070
   340
1005
2D
1070
   147
1040
5.0
1002
}
  0
DIMENSION
  5
E2
330
A
100
AcDbEntity
  8
notes
  6
Continuous
 62
     7
370
     5
390
1D
100
AcDbDimension
  2
*D7
 10
764.0894626669435
 20
-490.9419650645602
 30
0.0
 11
901.5894626669435
 21
-490.9419650645602
 31
0.0
 70
    32
 71
     5
 42
0.0
 73
     0
 74
     0
 75
     0
  3
tfrom線あり
100
AcDbAlignedDimension
 13
1039.089462666944
 23
-390.9668201025664
 33
0.0
 14
764.0894626669435
 24
-390.9668201025664
 34
0.0
100
AcDbRotatedDimension
1001
ACAD
1000
DSTYLE
1002
{
1070
   279
1070
     2
1070
   340
1005
2D
1070
   147
1040
5.0
1002
}
  0
DIMENSION
  5
E3
330
A
100
AcDbEntity
  8
notes
  6
Continuous
 62
     7
370
     5
390
1D
100
AcDbDimension
  2
*D8
 10
852.2349450775122
 20
762.0
 30
0.0
 11
1053.316499458196
 21
866.2546718607061
 31
0.0
 70
     3
  1
 
 71
     5
 42
0.0
 73
     0
 74
     0
 75
     0
  3
tfrom線あり
100
AcDbDiametricDimension
 15
948.6931285698449
 25
833.2794547268596
 35
0.0
 40
55.48522483025239
1001
ACAD
1000
DSTYLE
1002
{
1070
   289
1070
     0
1070
   342
1005
40
1070
   340
1005
2D
1070
    73
1070
     1
1070
    74
1070
     1
1070
   174
1070
     0
1070
   147
1040
5.0
1002
}
  0
DIMENSION
  5
E4
330
A
100
AcDbEntity
  8
notes
  6
Continuous
 62
     7
370
     5
390
1D
100
AcDbDimension
  2
*D9
 10
-272.3488372088896
 20
486.1274313906259
 30
0.0
 11
-12.34883720888956
 21
491.1274313906259
 31
0.0
 70
   128
 71
     5
 42
0.0
 73
     0
 74
     0
 75
     0
  3
tfrom線あり
100
AcDbAlignedDimension
 13
247.6511627911104
 23
692.3462641075417
 33
0.0
 14
-272.3488372088896
 24
692.3462641075417
 34
0.0
100
AcDbRotatedDimension
1001
ACAD
1000
DSTYLE
1002
{
1070
   279
1070
     2
1070
   340
1005
2D
1070
   147
1040
5.0
1002
}
  0
DIMENSION
  5
E5
330
A
100
AcDbEntity
  8
notes
  6
Continuous
 62
     7
370
     5
390
1D
100
AcDbDimension
  2
*D10
 10
387.6511627911103
 20
1006.127431390627
 30
0.0
 11
387.6511627911103
 21
796.1274313906267
 31
0.0
 70
    32
 71
     5
 42
0.0
 73
     0
 74
     0
 75
     0
  3
tfrom線あり
100
AcDbAlignedDimension
 13
38.52913794711912
 23
586.1274313906267
 33
0.0
 14
38.52913794711912
 24
1006.127431390627
 34
0.0
 50
90.0
100
AcDbRotatedDimension
1001
ACAD
1000
DSTYLE
1002
{
1070
   279
1070
     2
1070
   340
1005
2D
1070
   147
1040
5.0
1002
}
  0
DIMENSION
  5
E6
330
A
100
AcDbEntity
  8
notes
  6
Continuous
 62
     7
370
     5
390
1D
100
AcDbDimension
  2
*D11
 10
-411.9470034566818
 20
966.1274313906267
 30
0.0
 11
-411.9470034566818
 21
796.1274313906267
 31
0.0
 70
    32
 71
     5
 42
0.0
 73
     0
 74
     0
 75
     0
  3
tfrom線あり
100
AcDbAlignedDimension
 13
-190.3488372088896
 23
626.1274313906267
 33
0.0
 14
-190.3488372088896
 24
966.1274313906267
 34
0.0
 50
90.0
100
AcDbRotatedDimension
1001
ACAD
1000
DSTYLE
1002
{
1070
   279
1070
     2
1070
   340
1005
2D
1070
   147
1040
5.0
1002
}
  0
MTEXT
  5
E7
330
A
100
AcDbEntity
  8
notes
 62
     7
390
1D
100
AcDbMText
 10
-499.1601058239412
 20
-1006.9973828125
 30
0.0
 40
24.4326171875
 41
0.0
 46
0.0
 71
     1
 72
     1
  1
カウンター置き/オーバーフロー付き/\P陶器/ホワイト
  7
ＭＳ ゴシック
 73
     1
 44
1.304711230709641
  0
LINE
  5
EB
330
A
100
AcDbEntity
  8
ADF70-0111
  6
STYLE_14
 62
     7
370
    15
390
1D
100
AcDbLine
 10
901.6171353964382
 20
-340.9341915218378
 30
0.0
 11
941.4197446493627
 21
-340.9341915218378
 31
0.0
  0
LINE
  5
EC
330
A
100
AcDbEntity
  8
ADF70-0111
  6
STYLE_14
 62
     7
370
    15
390
1D
100
AcDbLine
 10
901.6171353964382
 20
-340.9341915218378
 30
0.0
 11
861.8083766480654
 21
-340.9341915218378
 31
0.0
  0
LINE
  5
EE
330
A
100
AcDbEntity
  8
ADF70-0111
  6
STYLE_14
 62
     7
370
    15
390
1D
100
AcDbLine
 10
925.3142160849097
 20
-350.4167134944938
 30
0.0
 11
901.6171353964382
 21
-350.4167134944938
 31
0.0
  0
LINE
  5
EF
330
A
100
AcDbEntity
  8
ADF70-0111
  6
STYLE_14
 62
     7
370
    15
390
1D
100
AcDbLine
 10
877.8339617717634
 20
-350.4167134944938
 30
0.0
 11
901.6171353964382
 21
-350.4167134944938
 31
0.0
  0
POLYLINE
  5
F2
330
A
100
AcDbEntity
  8
ADF70-0111
  6
STYLE_14
 62
     7
370
    15
390
1D
100
AcDb2dPolyline
 66
     1
 10
0.0
 20
0.0
 30
0.0
 75
     5
  0
VERTEX
  5
F3
330
F2
100
AcDbEntity
  8
ADF70-0111
  6
STYLE_14
 62
     7
370
    15
390
1D
100
AcDbVertex
100
AcDb2dVertex
 10
1073.448972554636
 20
-210.9341915218378
 30
0.0
  0
VERTEX
  5
F4
330
F2
100
AcDbEntity
  8
ADF70-0111
  6
STYLE_14
 62
     7
370
    15
390
1D
100
AcDbVertex
100
AcDb2dVertex
 10
1073.713840108347
 20
-210.9341915218378
 30
0.0
  0
VERTEX
  5
F5
330
F2
100
AcDbEntity
  8
ADF70-0111
  6
STYLE_14
 62
     7
370
    15
390
1D
100
AcDbVertex
100
AcDb2dVertex
 10
1073.713840108347
 20
-210.9341915218378
 30
0.0
  0
SEQEND
  5
F6
330
F2
100
AcDbEntity
  8
ADF70-0111
  6
STYLE_14
 62
     7
370
    15
390
1D
  0
SPLINE
  5
F7
330
A
100
AcDbEntity
  8
ADF70-0111
  6
STYLE_14
 62
     7
370
    15
390
1D
100
AcDbSpline
210
0.0
220
0.0
230
1.0
 70
    24
 71
     2
 72
     7
 73
     4
 74
     0
 42
0.000000001
 43
0.000001
 40
0.0
 40
0.0
 40
0.0
 40
1.0
 40
2.0
 40
2.0
 40
2.0
 10
941.4197446493627
 20
-340.9341915218378
 30
0.0
 10
941.8453828837005
 20
-340.934191521838
 30
0.0
 10
944.0324918406668
 20
-340.9341915218378
 30
0.0
 10
944.4083994345192
 20
-340.9341915218378
 30
0.0
  0
SPLINE
  5
F8
330
A
100
AcDbEntity
  8
ADF70-0111
  6
STYLE_14
 62
     7
370
    15
390
1D
100
AcDbSpline
210
0.0
220
0.0
230
1.0
 70
    24
 71
     2
 72
     9
 73
     6
 74
     0
 42
0.000000001
 43
0.000001
 40
0.0
 40
0.0
 40
0.0
 40
1.0
 40
2.0
 40
3.0
 40
4.0
 40
4.0
 40
4.0
 10
925.3142160849097
 20
-350.4167134944938
 30
0.0
 10
926.028853851029
 20
-349.9959531144419
 30
0.0
 10
929.7752256894178
 20
-347.7901855028364
 30
0.0
 10
937.0690369817798
 20
-343.4957765632327
 30
0.0
 10
940.7051068832429
 20
-341.3549519018903
 30
0.0
 10
941.4197446493627
 20
-340.9341915218378
 30
0.0
  0
SPLINE
  5
F9
330
A
100
AcDbEntity
  8
ADF70-0111
  6
STYLE_14
 62
     7
370
    15
390
1D
100
AcDbSpline
210
0.0
220
0.0
230
1.0
 70
    24
 71
     2
 72
     8
 73
     5
 74
     0
 42
0.000000001
 43
0.000001
 40
0.0
 40
0.0
 40
0.0
 40
1.0
 40
2.0
 40
3.0
 40
3.0
 40
3.0
 10
925.3142160849097
 20
-390.9668201025664
 30
0.0
 10
925.3142160849093
 20
-385.1031761391683
 30
0.0
 10
925.3142160849102
 20
-361.3708190387512
 30
0.0
 10
925.3142160849093
 20
-352.2160110143714
 30
0.0
 10
925.3142160849097
 20
-350.4167134944938
 30
0.0
  0
SPLINE
  5
FC
330
A
100
AcDbEntity
  8
ADF70-0111
  6
STYLE_14
 62
     7
370
    15
390
1D
100
AcDbSpline
210
0.0
220
0.0
230
1.0
 70
    24
 71
     2
 72
     8
 73
     5
 74
     0
 42
0.000000001
 43
0.000001
 40
0.0
 40
0.0
 40
0.0
 40
1.0
 40
2.0
 40
3.0
 40
3.0
 40
3.0
 10
877.8339617717634
 20
-350.4167134944938
 30
0.0
 10
877.8339617717634
 20
-356.2803574578927
 30
0.0
 10
877.8339617717634
 20
-380.0127145583091
 30
0.0
 10
877.8339617717634
 20
-389.1675225826906
 30
0.0
 10
877.8339617717634
 20
-390.9668201025664
 30
0.0
  0
SPLINE
  5
FD
330
A
100
AcDbEntity
  8
ADF70-0111
  6
STYLE_14
 62
     7
370
    15
390
1D
100
AcDbSpline
210
0.0
220
0.0
230
1.0
 70
    24
 71
     2
 72
     9
 73
     6
 74
     0
 42
0.000000001
 43
0.000001
 40
0.0
 40
0.0
 40
0.0
 40
1.0
 40
2.0
 40
3.0
 40
4.0
 40
4.0
 40
4.0
 10
861.8083766480654
 20
-340.9341915218378
 30
0.0
 10
862.519467147687
 20
-341.3549519018899
 30
0.0
 10
866.2190452424657
 20
-343.5440345658
 30
0.0
 10
873.4881480667927
 20
-347.8452458302328
 30
0.0
 10
877.1228712721422
 20
-349.9959531144419
 30
0.0
 10
877.8339617717634
 20
-350.4167134944938
 30
0.0
  0
SPLINE
  5
FE
330
A
100
AcDbEntity
  8
ADF70-0111
  6
STYLE_14
 62
     7
370
    15
390
1D
100
AcDbSpline
210
0.0
220
0.0
230
1.0
 70
    24
 71
     2
 72
     7
 73
     4
 74
     0
 42
0.000000001
 43
0.000001
 40
0.0
 40
0.0
 40
0.0
 40
1.0
 40
2.0
 40
2.0
 40
2.0
 10
858.7397784221539
 20
-340.9341915218378
 30
0.0
 10
859.1722958732139
 20
-340.9341915218378
 30
0.0
 10
861.4213106814086
 20
-340.9341915218378
 30
0.0
 10
861.8083766480654
 20
-340.9341915218378
 30
0.0
  0
ARC
  5
102
330
A
100
AcDbEntity
  8
ADF70-0111
  6
STYLE_01
 62
     7
370
    15
390
1D
100
AcDbCircle
 10
-278.1486211487327
 20
-215.6416087663519
 30
0.0
 40
5.000000000000497
100
AcDbArc
 50
8.316080728895958
 51
90.0
  0
LINE
  5
103
330
A
100
AcDbEntity
  8
ADF70-0111
  6
STYLE_01
 62
     7
370
    15
390
1D
100
AcDbLine
 10
-53.16984260491881
 20
-340.9341915218378
 30
0.0
 11
26.44152539638344
 21
-340.9341915218378
 31
0.0
  0
ARC
  5
104
330
A
100
AcDbEntity
  8
ADF70-0111
  6
STYLE_01
 62
     7
370
    15
390
1D
100
AcDbCircle
 10
251.3768764213787
 20
-215.6416087663519
 30
0.0
 40
5.000000000000227
100
AcDbArc
 50
90.0
 51
171.6839192711041
  0
LINE
  5
105
330
A
100
AcDbEntity
  8
ADF70-0111
  6
STYLE_01
 62
     7
370
    15
390
1D
100
AcDbLine
 10
10.33599683193052
 20
-350.4167134944938
 30
0.0
 11
-13.36108385654597
 21
-350.4167134944938
 31
0.0
  0
LINE
  5
106
330
A
100
AcDbEntity
  8
ADF70-0111
  6
STYLE_01
 62
     7
370
    15
390
1D
100
AcDbLine
 10
-37.14425748122085
 20
-350.4167134944938
 30
0.0
 11
-13.36108385654597
 21
-350.4167134944938
 31
0.0
  0
LINE
  5
107
330
A
100
AcDbEntity
  8
ADF70-0111
  6
STYLE_01
 62
     7
370
    15
390
1D
100
AcDbLine
 10
-37.14425748122085
 20
-390.9440348127948
 30
0.0
 11
-37.14425748122085
 21
-350.4167134944938
 31
0.0
  0
LINE
  5
108
330
A
100
AcDbEntity
  8
ADF70-0111
  6
STYLE_01
 62
     7
370
    15
390
1D
100
AcDbLine
 10
-53.16984260491881
 20
-340.9341915218378
 30
0.0
 11
-37.14425748122085
 21
-350.4167134944938
 31
0.0
  0
LINE
  5
109
330
A
100
AcDbEntity
  8
ADF70-0111
  6
STYLE_01
 62
     7
370
    15
390
1D
100
AcDbLine
 10
10.33599683193052
 20
-350.4167134944938
 30
0.0
 11
10.33599683193052
 21
-390.9440348127948
 31
0.0
  0
LINE
  5
10A
330
A
100
AcDbEntity
  8
ADF70-0111
  6
STYLE_01
 62
     7
370
    15
390
1D
100
AcDbLine
 10
26.44152539638344
 20
-340.9341915218378
 30
0.0
 11
10.33599683193052
 21
-350.4167134944938
 31
0.0
  0
CIRCLE
  5
10D
330
A
100
AcDbEntity
  8
ADF70-0111
  6
Continuous
 62
     7
370
    15
390
1D
100
AcDbCircle
 10
-12.34883720888962
 20
796.079308673019
 30
0.0
 40
23.0
  0
CIRCLE
  5
10E
330
A
100
AcDbEntity
  8
ADF70-0111
  6
Continuous
 62
     7
370
    15
390
1D
100
AcDbCircle
 10
-12.34883720888962
 20
796.079308673019
 30
0.0
 40
38.87119637634987
  0
SPLINE
  5
10F
330
A
100
AcDbEntity
  8
ADF70-0111
  6
STYLE_01
 62
     7
370
     5
390
1D
100
AcDbSpline
210
0.0
220
0.0
230
1.0
 70
    11
 71
     2
 72
    31
 73
    28
 74
     0
 42
0.000000001
 43
0.000001
 40
0.0
 40
0.0
 40
0.0
 40
1.0
 40
1.0
 40
2.0
 40
3.0
 40
4.0
 40
5.0
 40
6.0
 40
7.0
 40
8.0
 40
9.0
 40
10.0
 40
11.0
 40
12.0
 40
13.0
 40
14.0
 40
15.0
 40
16.0
 40
17.0
 40
18.0
 40
19.0
 40
20.0
 40
21.0
 40
22.0
 40
23.0
 40
23.0
 40
24.0
 40
24.0
 40
24.0
 10
602.6079324981449
 20
796.079308673019
 30
0.0
 10
602.6079324981449
 20
792.726699271606
 30
0.0
 10
602.6079324981449
 20
789.374089870193
 30
0.0
 10
606.5606115948146
 20
740.2000097490959
 30
0.0
 10
658.1404085269883
 20
670.9759683526111
 30
0.0
 10
722.5273331564927
 20
626.0805929515104
 30
0.0
 10
801.3360483533286
 20
597.3135749802252
 30
0.0
 10
882.2986249764797
 20
586.0793086658894
 30
0.0
 10
940.7542965595528
 20
588.7811839417539
 30
0.0
 10
1002.05378971091
 20
597.2665492299374
 30
0.0
 10
1080.861569954281
 20
626.1524697367629
 30
0.0
 10
1145.250913329319
 20
671.1143524580289
 30
0.0
 10
1186.505976697563
 20
726.1136204194158
 30
0.0
 10
1202.607932498145
 20
782.6008660550249
 30
0.0
 10
1198.735363031058
 20
823.3851396939064
 30
0.0
 10
1186.529282499559
 20
866.1972020529025
 30
0.0
 10
1145.093862259296
 20
921.1820141625305
 30
0.0
 10
1080.706937629792
 20
966.0780779630576
 30
0.0
 10
1001.898222432957
 20
994.8450425319564
 30
0.0
 10
920.9356458098052
 20
1006.07930866589
 30
0.0
 10
862.4799742267326
 20
1003.377433400605
 30
0.0
 10
801.1804810753749
 20
994.8922662235148
 30
0.0
 10
722.3727008320038
 20
966.005329940518
 30
0.0
 10
657.9833574569664
 20
921.0476216155638
 30
0.0
 10
606.7678414932757
 20
851.4858814488061
 30
0.0
 10
602.6079324981449
 20
802.784527475845
 30
0.0
 10
602.6079324981449
 20
799.431918074432
 30
0.0
 10
602.6079324981449
 20
796.079308673019
 30
0.0
  0
CIRCLE
  5
110
330
A
100
AcDbEntity
  8
ADF70-0111
  6
STYLE_01
 62
     7
370
     5
390
1D
100
AcDbCircle
 10
901.6171353931425
 20
796.079308673019
 30
0.0
 40
23.0
  0
CIRCLE
  5
111
330
A
100
AcDbEntity
  8
ADF70-0111
  6
Continuous
 62
     7
370
    15
390
1D
100
AcDbCircle
 10
901.6171353931425
 20
796.079308673019
 30
0.0
 40
60.0
  0
ARC
  5
113
330
A
100
AcDbEntity
  8
ADF70-0111
  6
STYLE_14
 62
     7
370
     5
390
1D
100
AcDbCircle
 10
875.4774891247978
 20
-199.8805785855776
 30
0.0
 40
141.7143830324709
100
AcDbArc
 50
186.2819313684124
 51
264.4649092207162
  0
ARC
  5
114
330
A
100
AcDbEntity
  8
ADF70-0111
  6
STYLE_14
 62
     7
370
     5
390
1D
100
AcDbCircle
 10
729.6440509143122
 20
-215.9341915218392
 30
0.0
 40
5.000000000001251
100
AcDbArc
 50
6.281931368428073
 51
90.0
  0
ARC
  5
119
330
A
100
AcDbEntity
  8
ADF70-0111
  6
STYLE_14
 62
     7
370
     5
390
1D
100
AcDbCircle
 10
927.7567816680787
 20
-199.8805785855776
 30
0.0
 40
141.7143830324708
100
AcDbArc
 50
275.5350907792838
 51
353.7180686315877
  0
ARC
  5
11A
330
A
100
AcDbEntity
  8
ADF70-0111
  6
STYLE_14
 62
     7
370
     5
390
1D
100
AcDbCircle
 10
1073.590219878564
 20
-215.9341915218392
 30
0.0
 40
5.000000000001364
100
AcDbArc
 50
90.0
 51
173.7180686315719
  0
ARC
  5
11B
330
A
100
AcDbEntity
  8
ADF70-0111
  6
STYLE_14
 62
     7
370
     5
390
1D
100
AcDbCircle
 10
106.2208896528873
 20
-194.524476878163
 30
0.0
 40
141.7143830324709
100
AcDbArc
 50
275.5350907792838
 51
351.4994319801452
  0
ARC
  5
11C
330
A
100
AcDbEntity
  8
ADF70-0111
  6
STYLE_14
 62
     7
370
     5
390
1D
100
AcDbCircle
 10
38.80132343620153
 20
261.3039083660424
 30
0.0
 40
602.3649172753584
100
AcDbArc
 50
268.8242775361148
 51
277.736485023833
  0
ARC
  5
11D
330
A
100
AcDbEntity
  8
ADF70-0111
  6
STYLE_14
 62
     7
370
     5
390
1D
100
AcDbCircle
 10
-132.9430573659793
 20
-194.524476878163
 30
0.0
 40
141.714383032471
100
AcDbArc
 50
188.5005680198548
 51
264.4649092207162
  0
ARC
  5
11E
330
A
100
AcDbEntity
  8
ADF70-0111
  6
STYLE_14
 62
     7
370
     5
390
1D
100
AcDbCircle
 10
-65.52349114929348
 20
261.3039083660424
 30
0.0
 40
602.3649172753587
100
AcDbArc
 50
262.263514976167
 51
271.1757224638852
  0
SPLINE
  5
11F
330
A
100
AcDbEntity
  8
ADF70-0111
  6
Continuous
 62
     7
370
     5
390
1D
100
AcDbSpline
210
0.0
220
0.0
230
1.0
 70
    11
 71
     2
 72
    17
 73
    14
 74
     0
 42
0.000000001
 43
0.000001
 40
0.0
 40
0.0
 40
0.0
 40
1.0
 40
2.0
 40
3.0
 40
4.0
 40
5.0
 40
6.0
 40
7.0
 40
8.0
 40
9.0
 40
10.0
 40
11.0
 40
12.0
 40
12.0
 40
12.0
 10
-20.12818343310244
 20
955.0769946009938
 30
0.0
 10
-16.99906597618627
 20
955.5850999527028
 30
0.0
 10
-9.772678751880335
 20
955.5850999527028
 30
0.0
 10
-3.51444383804801
 20
954.5688892492848
 30
0.0
 10
0.0987497741049879
 20
952.8087606797694
 30
0.0
 10
0.0987497741049879
 20
950.7763392729333
 30
0.0
 10
-3.51444383804801
 20
949.016210703418
 30
0.0
 10
-9.772678751880335
 20
948.0
 30
0.0
 10
-16.99906597618627
 20
948.0
 30
0.0
 10
-23.2573008900186
 20
949.016210703418
 30
0.0
 10
-26.8704945021716
 20
950.7763392729333
 30
0.0
 10
-26.8704945021716
 20
952.8087606797694
 30
0.0
 10
-23.2573008900186
 20
954.5688892492848
 30
0.0
 10
-20.12818343310244
 20
955.0769946009938
 30
0.0
  0
ELLIPSE
  5
29A
330
A
100
AcDbEntity
  8
0
100
AcDbEllipse
 10
-12.34883720888962
 20
796.079308673019
 30
0.0
 11
300.0
 21
-3.673940397442063E-14
 31
0.0
210
0.0
220
0.0
230
1.0
 40
0.7
 41
0.0
 42
6.283185307179586
  0
LINE
  5
2A3
330
A
100
AcDbEntity
  8
0
100
AcDbLine
 10
1076.909168028363
 20
-210.9341991840988
 30
0.0
 11
726.3251027645138
 21
-210.9341838595769
 31
0.0
  0
LINE
  5
2B1
330
A
100
AcDbEntity
  8
0
100
AcDbLine
 10
1034.41444067638
 20
-390.9341983319541
 30
0.0
 11
1032.067583071273
 21
-390.9341982293695
 31
0.0
  0
LINE
  5
2BB
330
A
100
AcDbEntity
  8
0
100
AcDbLine
 10
1076.909168028363
 20
-210.9342001894597
 30
0.0
 11
1104.617127310054
 21
-210.9342014006097
 31
0.0
  0
SPLINE
  5
2CB
330
A
100
AcDbEntity
  8
0
100
AcDbSpline
210
0.0
220
0.0
230
1.0
 70
     8
 71
     3
 72
    12
 73
     8
 74
     0
 42
0.000000001
 43
0.0000000001
 40
0.0022351068784795
 40
0.0022351068784795
 40
0.0022351068784795
 40
0.0022351068784795
 40
0.2
 40
0.4
 40
0.6000000000000001
 40
0.8
 40
0.9999999101133126
 40
0.9999999101133126
 40
0.9999999101133126
 40
0.9999999101133126
 10
1039.3401691079
 20
-388.3601583437821
 30
0.0
 10
1047.045164638337
 20
-377.2821792088238
 30
0.0
 10
1063.412105675563
 20
-353.4145957552806
 30
0.0
 10
1081.89754025235
 20
-321.8185336812058
 30
0.0
 10
1096.240433164507
 20
-290.0147034823672
 30
0.0
 10
1107.232969331226
 20
-255.3523269299109
 30
0.0
 10
1111.036920830427
 20
-231.0066042270574
 30
0.0
 10
1111.61007405896
 20
-218.2483534140966
 30
0.0
  0
ARC
  5
2CE
330
A
100
AcDbEntity
  8
0
100
AcDbCircle
 10
1104.617127004076
 20
-217.9342014006096
 30
0.0
 40
7.0
100
AcDbArc
 50
357.4277668317483
 51
89.99999749527075
  0
LINE
  5
2DE
330
A
100
AcDbEntity
  8
0
100
AcDbLine
 10
1032.067583071273
 20
-390.9341982293695
 30
0.0
 11
768.8198062182428
 21
-390.9341867224433
 31
0.0
  0
LINE
  5
2E8
330
A
100
AcDbEntity
  8
0
100
AcDbLine
 10
698.6171280528779
 20
-210.9341848649433
 30
0.0
 11
726.3251027645138
 21
-210.9341848649387
 31
0.0
  0
SPLINE
  5
2EC
330
A
100
AcDbEntity
  8
0
100
AcDbSpline
210
0.0
220
0.0
230
1.0
 70
     8
 71
     3
 72
    12
 73
     8
 74
     0
 42
0.000000001
 43
0.0000000001
 40
0.0022351761080496
 40
0.0022351761080496
 40
0.0022351761080496
 40
0.0022351761080496
 40
0.2
 40
0.4
 40
0.6000000000000001
 40
0.8
 40
1.0
 40
1.0
 40
1.0
 40
1.0
 10
763.8940782943182
 20
-388.3601467099111
 30
0.0
 10
756.1890851582957
 20
-377.2821709006872
 30
0.0
 10
739.8221476774143
 20
-353.4145920960128
 30
0.0
 10
721.3367152415012
 20
-321.8185336812062
 30
0.0
 10
706.993822329343
 20
-290.0147034823672
 30
0.0
 10
696.0012845158199
 20
-255.3523217370998
 30
0.0
 10
692.1973329537996
 20
-231.0065932852732
 30
0.0
 10
691.6241806621074
 20
-218.248336212135
 30
0.0
  0
ARC
  5
2ED
330
A
100
AcDbEntity
  8
0
100
AcDbCircle
 10
-698.6171277469248
 20
-217.9341848649433
 30
0.0
 40
7.0
210
0.0
220
0.0
230
-1.0
100
AcDbArc
 50
357.4277722909504
 51
90.00000250426027
  0
ARC
  5
2EE
330
A
100
AcDbEntity
  8
0
100
AcDbCircle
 10
768.8198064805119
 20
-384.9341867224433
 30
0.0
 40
6.0
100
AcDbArc
 50
214.8195228463399
 51
269.999997495375
  0
ARC
  5
2F2
330
A
100
AcDbEntity
  8
0
100
AcDbCircle
 10
1034.414440938659
 20
-384.934198331943
 30
0.0
 40
6.0
100
AcDbArc
 50
269.9999974954532
 51
325.1804768704529
  0
ELLIPSE
  5
2F9
330
A
100
AcDbEntity
  8
ADF70-0111
  6
Continuous
370
     0
100
AcDbEllipse
 10
-12.34884356049912
 20
796.079308673019
 30
0.0
 11
258.5000063516097
 21
0.0
 31
0.0
210
0.0
220
0.0
230
1.0
 40
0.6518374501693278
 41
0.0
 42
6.283185307179586
  0
LINE
  5
2FC
330
A
100
AcDbEntity
  8
0
100
AcDbLine
 10
210.4555294085303
 20
-390.9341983319541
 30
0.0
 11
208.1086718034239
 21
-390.9341982293695
 31
0.0
  0
LINE
  5
2FD
330
A
100
AcDbEntity
  8
0
100
AcDbLine
 10
252.9502567605132
 20
-210.9342001894597
 30
0.0
 11
280.6582160422049
 21
-210.9342014006097
 31
0.0
  0
SPLINE
  5
2FE
330
A
100
AcDbEntity
  8
0
100
AcDbSpline
210
0.0
220
0.0
230
1.0
 70
     8
 71
     3
 72
    12
 73
     8
 74
     0
 42
0.000000001
 43
0.0000000001
 40
0.0022351068784795
 40
0.0022351068784795
 40
0.0022351068784795
 40
0.0022351068784795
 40
0.2
 40
0.4
 40
0.6000000000000001
 40
0.8
 40
0.9999999101133126
 40
0.9999999101133126
 40
0.9999999101133126
 40
0.9999999101133126
 10
215.3812578400502
 20
-388.3601583437821
 30
0.0
 10
223.0862533704876
 20
-377.2821792088238
 30
0.0
 10
239.4531944077135
 20
-353.4145957552806
 30
0.0
 10
257.9386289845006
 20
-321.8185336812058
 30
0.0
 10
272.2815218966571
 20
-290.0147034823672
 30
0.0
 10
283.2740580633763
 20
-255.3523269299109
 30
0.0
 10
287.0780095625778
 20
-231.0066042270574
 30
0.0
 10
287.6511627911104
 20
-218.2483534140966
 30
0.0
  0
ARC
  5
2FF
330
A
100
AcDbEntity
  8
0
100
AcDbCircle
 10
280.6582157362263
 20
-217.9342014006096
 30
0.0
 40
7.0
100
AcDbArc
 50
357.4277668317483
 51
89.99999749527075
  0
LINE
  5
300
330
A
100
AcDbEntity
  8
0
100
AcDbLine
 10
208.1086718034239
 20
-390.9341982293695
 30
0.0
 11
-235.1532116527687
 21
-390.9341867224432
 31
0.0
  0
LINE
  5
301
330
A
100
AcDbEntity
  8
0
100
AcDbLine
 10
-305.3558898181191
 20
-210.9341848649432
 30
0.0
 11
252.9502567605132
 21
-210.9342001894597
 31
0.0
  0
SPLINE
  5
302
330
A
100
AcDbEntity
  8
0
100
AcDbSpline
210
0.0
220
0.0
230
1.0
 70
     8
 71
     3
 72
    12
 73
     8
 74
     0
 42
0.000000001
 43
0.0000000001
 40
0.0022351761080496
 40
0.0022351761080496
 40
0.0022351761080496
 40
0.0022351761080496
 40
0.2
 40
0.4
 40
0.6000000000000001
 40
0.8
 40
1.0
 40
1.0
 40
1.0
 40
1.0
 10
-240.0789395766787
 20
-388.360146709911
 30
0.0
 10
-247.7839327127012
 20
-377.2821709006871
 30
0.0
 10
-264.1508701935827
 20
-353.4145920960127
 30
0.0
 10
-282.6363026294957
 20
-321.8185336812061
 30
0.0
 10
-296.979195541654
 20
-290.0147034823671
 30
0.0
 10
-307.9717333551771
 20
-255.3523217370997
 30
0.0
 10
-311.7756849171974
 20
-231.0065932852731
 30
0.0
 10
-312.3488372088896
 20
-218.2483362121349
 30
0.0
  0
ARC
  5
303
330
A
100
AcDbEntity
  8
0
100
AcDbCircle
 10
305.3558901240722
 20
-217.9341848649432
 30
0.0
 40
7.0
210
0.0
220
0.0
230
-1.0
100
AcDbArc
 50
357.4277722909504
 51
90.00000250426027
  0
ARC
  5
304
330
A
100
AcDbEntity
  8
0
100
AcDbCircle
 10
-235.153211390485
 20
-384.9341867224432
 30
0.0
 40
6.0
100
AcDbArc
 50
214.8195228463361
 51
269.999997495375
  0
ARC
  5
305
330
A
100
AcDbEntity
  8
0
100
AcDbCircle
 10
210.4555296708095
 20
-384.934198331943
 30
0.0
 40
6.0
100
AcDbArc
 50
269.9999974954532
 51
325.1804768704529
  0
ENDSEC
  0
SECTION
  2
OBJECTS
  0
DICTIONARY
  5
19
330
0
100
AcDbDictionary
281
     1
  3
ACAD_COLOR
350
171
  3
ACAD_DETAILVIEWSTYLE
350
20A
  3
ACAD_GROUP
350
1A
  3
ACAD_IMAGE_VARS
350
163
  3
ACAD_LAYOUT
350
1E
  3
ACAD_MATERIAL
350
15B
  3
ACAD_MLEADERSTYLE
350
176
  3
ACAD_MLINESTYLE
350
1B
  3
ACAD_PLOTSETTINGS
350
22
  3
ACAD_PLOTSTYLENAME
350
1F
  3
ACAD_SCALELIST
350
120
  3
ACAD_SECTIONVIEWSTYLE
350
20B
  3
ACAD_TABLESTYLE
350
15F
  3
ACAD_VISUALSTYLE
350
142
  3
ACDB_RECOMPOSE_DATA
350
30D
  3
AcDbVariableDictionary
350
202
  3
APPDATA
350
161
  0
SUN
  5
162
330
15
100
AcDbSun
 90
        1
290
     0
 63
     7
421
 16777215
 40
1.0
291
     1
 91
  2455826
 92
 54000000
292
     0
 70
     2
 71
   256
280
     1
  0
DICTIONARY
  5
171
102
{ACAD_REACTORS
330
19
102
}
330
19
100
AcDbDictionary
281
     1
  0
DICTIONARY
  5
20A
102
{ACAD_REACTORS
330
19
102
}
330
19
100
AcDbDictionary
281
     1
  0
DICTIONARY
  5
1A
102
{ACAD_REACTORS
330
19
102
}
330
19
100
AcDbDictionary
281
     1
  0
RASTERVARIABLES
  5
163
102
{ACAD_REACTORS
330
19
102
}
330
19
100
AcDbRasterVariables
 90
        0
 70
     1
 71
     1
 72
     1
  0
DICTIONARY
  5
1E
102
{ACAD_REACTORS
330
19
102
}
330
19
100
AcDbDictionary
281
     1
  3
Layout1
350
21
  3
Model
350
20
  0
DICTIONARY
  5
15B
102
{ACAD_REACTORS
330
19
102
}
330
19
100
AcDbDictionary
281
     1
  3
ByBlock
350
15D
  3
ByLayer
350
15C
  3
Global
350
15E
  0
DICTIONARY
  5
176
102
{ACAD_REACTORS
330
19
102
}
330
19
100
AcDbDictionary
281
     1
  0
DICTIONARY
  5
1B
102
{ACAD_REACTORS
330
19
102
}
330
19
100
AcDbDictionary
281
     1
  3
Standard
350
1C
  0
DICTIONARY
  5
22
102
{ACAD_REACTORS
330
19
102
}
330
19
100
AcDbDictionary
281
     1
  0
ACDBDICTIONARYWDFLT
  5
1F
102
{ACAD_REACTORS
330
19
102
}
330
19
100
AcDbDictionary
281
     1
  3
Normal
350
1D
100
AcDbDictionaryWithDefault
340
1D
  0
DICTIONARY
  5
120
102
{ACAD_REACTORS
330
19
102
}
330
19
100
AcDbDictionary
281
     1
  3
A0
350
121
  3
A1
350
122
  3
A2
350
123
  3
A3
350
124
  3
A4
350
125
  3
A5
350
126
  3
A6
350
127
  3
A7
350
128
  3
A8
350
129
  3
A9
350
12A
  3
B0
350
12B
  3
B1
350
12C
  3
B2
350
12D
  3
B3
350
12E
  3
B4
350
12F
  3
B5
350
130
  3
B6
350
131
  3
B7
350
132
  3
B8
350
133
  3
B9
350
134
  3
C0
350
135
  3
C1
350
136
  3
C2
350
137
  3
C3
350
138
  3
C4
350
139
  3
C5
350
13A
  3
C6
350
13B
  3
C7
350
13C
  3
C8
350
13D
  3
C9
350
13E
  3
D0
350
13F
  3
D1
350
140
  3
D2
350
141
  0
DICTIONARY
  5
20B
102
{ACAD_REACTORS
330
19
102
}
330
19
100
AcDbDictionary
281
     1
  0
DICTIONARY
  5
15F
102
{ACAD_REACTORS
330
19
102
}
330
19
100
AcDbDictionary
281
     1
  3
Standard
350
160
  0
DICTIONARY
  5
142
102
{ACAD_REACTORS
330
19
102
}
330
19
100
AcDbDictionary
281
     1
  3
2dWireframe
350
147
  3
Basic
350
14A
  3
Brighten
350
14E
  3
ColorChange
350
152
  3
Conceptual
350
14C
  3
Dim
350
14D
  3
EdgeColorOff
350
155
  3
Facepattern
350
151
  3
Flat
350
143
  3
FlatWithEdges
350
144
  3
Gouraud
350
145
  3
GouraudWithEdges
350
146
  3
Hidden
350
149
  3
JitterOff
350
153
  3
Linepattern
350
150
  3
OverhangOff
350
154
  3
Realistic
350
14B
  3
Shaded
350
15A
  3
Shaded with edges
350
159
  3
Shades of Gray
350
156
  3
Sketchy
350
157
  3
Thicken
350
14F
  3
Wireframe
350
148
  3
X-Ray
350
158
  0
XRECORD
  5
30D
102
{ACAD_REACTORS
330
19
102
}
330
19
100
AcDbXrecord
280
     1
 90
        1
330
160
  0
DICTIONARY
  5
202
102
{ACAD_REACTORS
330
19
102
}
330
19
100
AcDbDictionary
281
     1
  3
CANNOSCALE
350
203
  3
CTABLESTYLE
350
208
  3
LIGHTINGUNITS
350
204
  3
MSLTSCALE
350
209
  3
XCLIPFRAME
350
30E
  0
DICTIONARY
  5
161
102
{ACAD_REACTORS
330
19
102
}
330
19
100
AcDbDictionary
281
     1
  0
LAYOUT
  5
21
102
{ACAD_REACTORS
330
1E
102
}
330
1E
100
AcDbPlotSettings
  1

  2

  4

  6

 40
0.0
 41
0.0
 42
0.0
 43
0.0
 44
0.0
 45
0.0
 46
0.0
 47
0.0
 48
0.0
 49
0.0
140
0.0
141
0.0
142
1.0
143
1.0
 70
     0
 72
     0
 73
     0
 74
     0
  7

 75
     0
 76
     0
 77
     2
 78
   300
147
1.0
148
0.0
149
0.0
100
AcDbLayout
  1
Layout1
 70
     0
 71
     0
 10
0.0
 20
0.0
 11
0.0
 21
0.0
 12
0.0
 22
0.0
 32
0.0
 14
0.0
 24
0.0
 34
0.0
 15
0.0
 25
0.0
 35
0.0
146
0.0
 13
0.0
 23
0.0
 33
0.0
 16
0.0
 26
0.0
 36
0.0
 17
0.0
 27
0.0
 37
0.0
 76
     0
330
B
  0
LAYOUT
  5
20
102
{ACAD_REACTORS
330
1E
102
}
330
1E
100
AcDbPlotSettings
  1

  2

  4

  6

 40
0.0
 41
0.0
 42
0.0
 43
0.0
 44
0.0
 45
0.0
 46
0.0
 47
0.0
 48
0.0
 49
0.0
140
0.0
141
0.0
142
1.0
143
1.0
 70
  1024
 72
     0
 73
     0
 74
     0
  7

 75
     0
 76
     0
 77
     2
 78
   300
147
1.0
148
0.0
149
0.0
100
AcDbLayout
  1
Model
 70
     0
 71
     1
 10
0.0
 20
0.0
 11
0.0
 21
0.0
 12
0.0
 22
0.0
 32
0.0
 14
-559.1601058244232
 24
-1173.354525181857
 34
0.0
 15
4984.588765759614
 25
1660.0
 35
0.0
146
0.0
 13
0.0
 23
0.0
 33
0.0
 16
0.0
 26
0.0
 36
0.0
 17
0.0
 27
0.0
 37
0.0
 76
     0
330
A
331
15
  0
MATERIAL
  5
15D
102
{ACAD_REACTORS
330
15B
102
}
330
15B
100
AcDbMaterial
  1
ByBlock
 72
     1
 94
      127
  0
MATERIAL
  5
15C
102
{ACAD_REACTORS
330
15B
102
}
330
15B
100
AcDbMaterial
  1
ByLayer
 72
     1
 94
      127
  0
MATERIAL
  5
15E
102
{ACAD_REACTORS
330
15B
102
}
330
15B
100
AcDbMaterial
  1
Global
 72
     1
 94
      127
  0
MLINESTYLE
  5
1C
102
{ACAD_REACTORS
330
1B
102
}
330
1B
100
AcDbMlineStyle
  2
Standard
 70
     0
  3

 62
     0
 51
90.0
 52
90.0
 71
     2
 49
0.5
 62
   256
  6
BYLAYER
 49
-0.5
 62
   256
  6
BYLAYER
  0
ACDBPLACEHOLDER
  5
1D
102
{ACAD_REACTORS
330
1F
102
}
330
1F
  0
SCALE
  5
121
102
{ACAD_REACTORS
330
120
102
}
330
120
100
AcDbScale
 70
     0
300
1:1
140
1.0
141
1.0
290
     1
  0
SCALE
  5
122
102
{ACAD_REACTORS
330
120
102
}
330
120
100
AcDbScale
 70
     0
300
1:2
140
1.0
141
2.0
290
     0
  0
SCALE
  5
123
102
{ACAD_REACTORS
330
120
102
}
330
120
100
AcDbScale
 70
     0
300
1:4
140
1.0
141
4.0
290
     0
  0
SCALE
  5
124
102
{ACAD_REACTORS
330
120
102
}
330
120
100
AcDbScale
 70
     0
300
1:5
140
1.0
141
5.0
290
     0
  0
SCALE
  5
125
102
{ACAD_REACTORS
330
120
102
}
330
120
100
AcDbScale
 70
     0
300
1:8
140
1.0
141
8.0
290
     0
  0
SCALE
  5
126
102
{ACAD_REACTORS
330
120
102
}
330
120
100
AcDbScale
 70
     0
300
1:10
140
1.0
141
10.0
290
     0
  0
SCALE
  5
127
102
{ACAD_REACTORS
330
120
102
}
330
120
100
AcDbScale
 70
     0
300
1:16
140
1.0
141
16.0
290
     0
  0
SCALE
  5
128
102
{ACAD_REACTORS
330
120
102
}
330
120
100
AcDbScale
 70
     0
300
1:20
140
1.0
141
20.0
290
     0
  0
SCALE
  5
129
102
{ACAD_REACTORS
330
120
102
}
330
120
100
AcDbScale
 70
     0
300
1:30
140
1.0
141
30.0
290
     0
  0
SCALE
  5
12A
102
{ACAD_REACTORS
330
120
102
}
330
120
100
AcDbScale
 70
     0
300
1:40
140
1.0
141
40.0
290
     0
  0
SCALE
  5
12B
102
{ACAD_REACTORS
330
120
102
}
330
120
100
AcDbScale
 70
     0
300
1:50
140
1.0
141
50.0
290
     0
  0
SCALE
  5
12C
102
{ACAD_REACTORS
330
120
102
}
330
120
100
AcDbScale
 70
     0
300
1:100
140
1.0
141
100.0
290
     0
  0
SCALE
  5
12D
102
{ACAD_REACTORS
330
120
102
}
330
120
100
AcDbScale
 70
     0
300
2:1
140
2.0
141
1.0
290
     0
  0
SCALE
  5
12E
102
{ACAD_REACTORS
330
120
102
}
330
120
100
AcDbScale
 70
     0
300
4:1
140
4.0
141
1.0
290
     0
  0
SCALE
  5
12F
102
{ACAD_REACTORS
330
120
102
}
330
120
100
AcDbScale
 70
     0
300
8:1
140
8.0
141
1.0
290
     0
  0
SCALE
  5
130
102
{ACAD_REACTORS
330
120
102
}
330
120
100
AcDbScale
 70
     0
300
10:1
140
10.0
141
1.0
290
     0
  0
SCALE
  5
131
102
{ACAD_REACTORS
330
120
102
}
330
120
100
AcDbScale
 70
     0
300
100:1
140
100.0
141
1.0
290
     0
  0
SCALE
  5
132
102
{ACAD_REACTORS
330
120
102
}
330
120
100
AcDbScale
 70
     0
300
1/128" = 1'-0"
140
0.0078125
141
12.0
290
     0
  0
SCALE
  5
133
102
{ACAD_REACTORS
330
120
102
}
330
120
100
AcDbScale
 70
     0
300
1/64" = 1'-0"
140
0.015625
141
12.0
290
     0
  0
SCALE
  5
134
102
{ACAD_REACTORS
330
120
102
}
330
120
100
AcDbScale
 70
     0
300
1/32" = 1'-0"
140
0.03125
141
12.0
290
     0
  0
SCALE
  5
135
102
{ACAD_REACTORS
330
120
102
}
330
120
100
AcDbScale
 70
     0
300
1/16" = 1'-0"
140
0.0625
141
12.0
290
     0
  0
SCALE
  5
136
102
{ACAD_REACTORS
330
120
102
}
330
120
100
AcDbScale
 70
     0
300
3/32" = 1'-0"
140
0.09375
141
12.0
290
     0
  0
SCALE
  5
137
102
{ACAD_REACTORS
330
120
102
}
330
120
100
AcDbScale
 70
     0
300
1/8" = 1'-0"
140
0.125
141
12.0
290
     0
  0
SCALE
  5
138
102
{ACAD_REACTORS
330
120
102
}
330
120
100
AcDbScale
 70
     0
300
3/16" = 1'-0"
140
0.1875
141
12.0
290
     0
  0
SCALE
  5
139
102
{ACAD_REACTORS
330
120
102
}
330
120
100
AcDbScale
 70
     0
300
1/4" = 1'-0"
140
0.25
141
12.0
290
     0
  0
SCALE
  5
13A
102
{ACAD_REACTORS
330
120
102
}
330
120
100
AcDbScale
 70
     0
300
3/8" = 1'-0"
140
0.375
141
12.0
290
     0
  0
SCALE
  5
13B
102
{ACAD_REACTORS
330
120
102
}
330
120
100
AcDbScale
 70
     0
300
1/2" = 1'-0"
140
0.5
141
12.0
290
     0
  0
SCALE
  5
13C
102
{ACAD_REACTORS
330
120
102
}
330
120
100
AcDbScale
 70
     0
300
3/4" = 1'-0"
140
0.75
141
12.0
290
     0
  0
SCALE
  5
13D
102
{ACAD_REACTORS
330
120
102
}
330
120
100
AcDbScale
 70
     0
300
1" = 1'-0"
140
1.0
141
12.0
290
     0
  0
SCALE
  5
13E
102
{ACAD_REACTORS
330
120
102
}
330
120
100
AcDbScale
 70
     0
300
1-1/2" = 1'-0"
140
1.5
141
12.0
290
     0
  0
SCALE
  5
13F
102
{ACAD_REACTORS
330
120
102
}
330
120
100
AcDbScale
 70
     0
300
3" = 1'-0"
140
3.0
141
12.0
290
     0
  0
SCALE
  5
140
102
{ACAD_REACTORS
330
120
102
}
330
120
100
AcDbScale
 70
     0
300
6" = 1'-0"
140
6.0
141
12.0
290
     0
  0
SCALE
  5
141
102
{ACAD_REACTORS
330
120
102
}
330
120
100
AcDbScale
 70
     0
300
1'-0" = 1'-0"
140
12.0
141
12.0
290
     0
  0
TABLESTYLE
  5
160
102
{ACAD_REACTORS
330
15F
102
}
102
{ACAD_XDICTIONARY
360
30B
102
}
330
15F
100
AcDbTableStyle
  3
Standard
 70
     0
 71
     0
 40
0.06
 41
0.06
280
     0
281
     0
  7
Standard
140
4.5
170
     2
 62
     0
 63
   257
283
     0
 90
        4
 91
        0
  1

274
    -2
284
     1
 64
     0
275
    -2
285
     1
 65
     0
276
    -2
286
     1
 66
     0
277
    -2
287
     1
 67
     0
278
    -2
288
     1
 68
     0
279
    -2
289
     1
 69
     0
  7
Standard
140
6.0
170
     5
 62
     0
 63
   257
283
     0
 90
        4
 91
        0
  1

274
    -2
284
     1
 64
     0
275
    -2
285
     1
 65
     0
276
    -2
286
     1
 66
     0
277
    -2
287
     1
 67
     0
278
    -2
288
     1
 68
     0
279
    -2
289
     1
 69
     0
  7
Standard
140
4.5
170
     5
 62
     0
 63
   257
283
     0
 90
        4
 91
        0
  1

274
    -2
284
     1
 64
     0
275
    -2
285
     1
 65
     0
276
    -2
286
     1
 66
     0
277
    -2
287
     1
 67
     0
278
    -2
288
     1
 68
     0
279
    -2
289
     1
 69
     0
  0
VISUALSTYLE
  5
147
102
{ACAD_REACTORS
330
142
102
}
330
142
100
AcDbVisualStyle
  2
2dWireframe
 70
     4
 71
     0
 72
     2
 73
     0
 90
        0
 40
0.6
 41
30.0
 62
     5
 63
     7
421
 16777215
 74
     1
 91
        4
 64
     7
 65
   257
 75
     1
175
     1
 42
1.0
 92
        0
 66
   257
 43
1.0
 76
     1
 77
     6
 78
     2
 67
     7
 79
     5
170
     0
171
     0
290
     0
174
     0
 93
        1
 44
0.0
173
     0
291
     0
 45
0.0
  0
VISUALSTYLE
  5
14A
102
{ACAD_REACTORS
330
142
102
}
330
142
100
AcDbVisualStyle
  2
Basic
 70
     7
 71
     1
 72
     0
 73
     1
 90
        0
 40
0.6
 41
30.0
 62
     5
 63
     7
421
 16777215
 74
     0
 91
        4
 64
     7
 65
   257
 75
     1
175
     1
 42
1.0
 92
        8
 66
     7
 43
1.0
 76
     1
 77
     6
 78
     2
 67
     7
 79
     5
170
     0
171
     0
290
     0
174
     0
 93
        1
 44
0.0
173
     0
291
     1
 45
0.0
  0
VISUALSTYLE
  5
14E
102
{ACAD_REACTORS
330
142
102
}
330
142
100
AcDbVisualStyle
  2
Brighten
 70
    12
 71
     2
 72
     2
 73
     0
 90
        0
 40
0.6
 41
30.0
 62
     5
 63
     7
421
 16777215
 74
     1
 91
        4
 64
     7
 65
   257
 75
     1
175
     1
 42
1.0
 92
        8
 66
     7
 43
1.0
 76
     1
 77
     6
 78
     2
 67
     7
 79
     5
170
     0
171
     0
290
     0
174
     0
 93
        1
 44
50.0
173
     0
291
     1
 45
0.0
  0
VISUALSTYLE
  5
152
102
{ACAD_REACTORS
330
142
102
}
330
142
100
AcDbVisualStyle
  2
ColorChange
 70
    16
 71
     2
 72
     2
 73
     3
 90
        0
 40
0.6
 41
30.0
 62
     5
 63
     8
421
  8421504
 74
     1
 91
        4
 64
     7
 65
   257
 75
     1
175
     1
 42
1.0
 92
        8
 66
     8
424
  8421504
 43
1.0
 76
     1
 77
     6
 78
     2
 67
     7
 79
     5
170
     0
171
     0
290
     0
174
     0
 93
        1
 44
0.0
173
     0
291
     1
 45
0.0
  0
VISUALSTYLE
  5
14C
102
{ACAD_REACTORS
330
142
102
}
330
142
100
AcDbVisualStyle
  2
Conceptual
 70
     9
 71
     3
 72
     2
 73
     0
 90
        0
 40
0.6
 41
30.0
 62
     5
 63
     7
421
 16777215
 74
     2
 91
        2
 64
     7
 65
   257
 75
     1
175
     1
 42
179.0
 92
        8
 66
     7
 43
1.0
 76
     1
 77
     6
 78
     2
 67
     7
 79
     3
170
     0
171
     0
290
     0
174
     0
 93
        1
 44
0.0
173
     0
291
     0
 45
0.0
  0
VISUALSTYLE
  5
14D
102
{ACAD_REACTORS
330
142
102
}
330
142
100
AcDbVisualStyle
  2
Dim
 70
    11
 71
     2
 72
     2
 73
     0
 90
        0
 40
0.6
 41
30.0
 62
     5
 63
     7
421
 16777215
 74
     1
 91
        4
 64
     7
 65
   257
 75
     1
175
     1
 42
1.0
 92
        8
 66
     7
 43
1.0
 76
     1
 77
     6
 78
     2
 67
     7
 79
     5
170
     0
171
     0
290
     0
174
     0
 93
        1
 44
-50.0
173
     0
291
     1
 45
0.0
  0
VISUALSTYLE
  5
155
102
{ACAD_REACTORS
330
142
102
}
330
142
100
AcDbVisualStyle
  2
EdgeColorOff
 70
    22
 71
     2
 72
     2
 73
     0
 90
        0
 40
0.6
 41
30.0
 62
     5
 63
     7
421
 16777215
 74
     1
 91
        4
 64
     7
 65
   257
 75
     1
175
     1
 42
1.0
 92
        8
 66
     7
 43
1.0
 76
     1
 77
     6
 78
     2
 67
     7
 79
     5
170
     0
171
     0
290
     0
174
     0
 93
        1
 44
0.0
173
     0
291
     1
 45
0.0
  0
VISUALSTYLE
  5
151
102
{ACAD_REACTORS
330
142
102
}
330
142
100
AcDbVisualStyle
  2
Facepattern
 70
    15
 71
     2
 72
     2
 73
     0
 90
        0
 40
0.6
 41
30.0
 62
     5
 63
     7
421
 16777215
 74
     1
 91
        4
 64
     7
 65
   257
 75
     1
175
     1
 42
1.0
 92
        8
 66
     7
 43
1.0
 76
     1
 77
     6
 78
     2
 67
     7
 79
     5
170
     0
171
     0
290
     0
174
     0
 93
        1
 44
0.0
173
     0
291
     1
 45
0.0
  0
VISUALSTYLE
  5
143
102
{ACAD_REACTORS
330
142
102
}
330
142
100
AcDbVisualStyle
  2
Flat
 70
     0
 71
     2
 72
     1
 73
     1
 90
        2
 40
0.6
 41
30.0
 62
     5
 63
     7
421
 16777215
 74
     0
 91
        0
 64
     7
 65
   257
 75
     1
175
     1
 42
1.0
 92
        8
 66
     7
 43
1.0
 76
     1
 77
     6
 78
     2
 67
     7
 79
     5
170
     0
171
     0
290
     0
174
     0
 93
       13
 44
0.0
173
     0
291
     1
 45
0.0
  0
VISUALSTYLE
  5
144
102
{ACAD_REACTORS
330
142
102
}
330
142
100
AcDbVisualStyle
  2
FlatWithEdges
 70
     1
 71
     2
 72
     1
 73
     1
 90
        2
 40
0.6
 41
30.0
 62
     5
 63
     7
421
 16777215
 74
     1
 91
        0
 64
     7
 65
   257
 75
     1
175
     1
 42
1.0
 92
        0
 66
   257
 43
1.0
 76
     1
 77
     6
 78
     2
 67
     7
 79
     5
170
     0
171
     0
290
     0
174
     0
 93
       13
 44
0.0
173
     0
291
     1
 45
0.0
  0
VISUALSTYLE
  5
145
102
{ACAD_REACTORS
330
142
102
}
330
142
100
AcDbVisualStyle
  2
Gouraud
 70
     2
 71
     2
 72
     2
 73
     1
 90
        2
 40
0.6
 41
30.0
 62
     5
 63
     7
421
 16777215
 74
     0
 91
        0
 64
     7
 65
   257
 75
     1
175
     1
 42
1.0
 92
        0
 66
     7
 43
1.0
 76
     1
 77
     6
 78
     2
 67
     7
 79
     5
170
     0
171
     0
290
     0
174
     0
 93
       13
 44
0.0
173
     0
291
     1
 45
0.0
  0
VISUALSTYLE
  5
146
102
{ACAD_REACTORS
330
142
102
}
330
142
100
AcDbVisualStyle
  2
GouraudWithEdges
 70
     3
 71
     2
 72
     2
 73
     1
 90
        2
 40
0.6
 41
30.0
 62
     5
 63
     7
421
 16777215
 74
     1
 91
        0
 64
     7
 65
   257
 75
     1
175
     1
 42
1.0
 92
        0
 66
   257
 43
1.0
 76
     1
 77
     6
 78
     2
 67
     7
 79
     5
170
     0
171
     0
290
     0
174
     0
 93
       13
 44
0.0
173
     0
291
     1
 45
0.0
  0
VISUALSTYLE
  5
149
102
{ACAD_REACTORS
330
142
102
}
330
142
100
AcDbVisualStyle
  2
Hidden
 70
     6
 71
     1
 72
     2
 73
     2
 90
        0
 40
0.6
 41
30.0
 62
     5
 63
     7
421
 16777215
 74
     2
 91
        2
 64
     7
 65
   257
 75
     2
175
     1
 42
40.0
 92
        0
 66
   257
 43
1.0
 76
     1
 77
     6
 78
     2
 67
     7
 79
     3
170
     0
171
     0
290
     0
174
     0
 93
        1
 44
0.0
173
     0
291
     0
 45
0.0
  0
VISUALSTYLE
  5
153
102
{ACAD_REACTORS
330
142
102
}
330
142
100
AcDbVisualStyle
  2
JitterOff
 70
    20
 71
     2
 72
     2
 73
     0
 90
        0
 40
0.6
 41
30.0
 62
     5
 63
     7
421
 16777215
 74
     1
 91
        4
 64
     7
 65
   257
 75
     1
175
     1
 42
1.0
 92
       10
 66
     7
 43
1.0
 76
     1
 77
     6
 78
     2
 67
     7
 79
     5
170
     0
171
     0
290
     0
174
     0
 93
        1
 44
0.0
173
     0
291
     1
 45
0.0
  0
VISUALSTYLE
  5
150
102
{ACAD_REACTORS
330
142
102
}
330
142
100
AcDbVisualStyle
  2
Linepattern
 70
    14
 71
     2
 72
     2
 73
     0
 90
        0
 40
0.6
 41
30.0
 62
     5
 63
     7
421
 16777215
 74
     1
 91
        4
 64
     7
 65
   257
 75
     7
175
     7
 42
1.0
 92
        8
 66
     7
 43
1.0
 76
     1
 77
     6
 78
     2
 67
     7
 79
     5
170
     0
171
     0
290
     0
174
     0
 93
        1
 44
0.0
173
     0
291
     1
 45
0.0
  0
VISUALSTYLE
  5
154
102
{ACAD_REACTORS
330
142
102
}
330
142
100
AcDbVisualStyle
  2
OverhangOff
 70
    21
 71
     2
 72
     2
 73
     0
 90
        0
 40
0.6
 41
30.0
 62
     5
 63
     7
421
 16777215
 74
     1
 91
        4
 64
     7
 65
   257
 75
     1
175
     1
 42
1.0
 92
        9
 66
     7
 43
1.0
 76
     1
 77
     6
 78
     2
 67
     7
 79
     5
170
     0
171
     0
290
     0
174
     0
 93
        1
 44
0.0
173
     0
291
     1
 45
0.0
  0
VISUALSTYLE
  5
14B
102
{ACAD_REACTORS
330
142
102
}
330
142
100
AcDbVisualStyle
  2
Realistic
 70
     8
 71
     2
 72
     3
 73
     0
 90
        2
 40
0.6
 41
30.0
 62
     5
 63
     7
421
 16777215
 74
     0
 91
        0
 64
     7
 65
   257
 75
     1
175
     1
 42
1.0
 92
        8
 66
   257
 43
1.0
 76
     1
 77
     6
 78
     2
 67
     7
 79
     3
170
     0
171
     0
290
     0
174
     0
 93
       13
 44
0.0
173
     0
291
     0
 45
0.0
  0
VISUALSTYLE
  5
15A
102
{ACAD_REACTORS
330
142
102
}
330
142
100
AcDbVisualStyle
  2
Shaded
 70
    27
 71
     2
 72
     2
 73
     1
 90
        2
 40
0.6
 41
30.0
 62
     5
 63
     7
421
 16777215
 74
     0
 91
        4
 64
     7
 65
   257
 75
     1
175
     1
 42
1.0
 92
        8
 66
   257
 43
1.0
 76
     1
 77
     6
 78
     2
 67
     8
425
  7895160
 79
     3
170
     0
171
     0
290
     0
174
     0
 93
        5
 44
0.0
173
     0
291
     0
 45
0.0
  0
VISUALSTYLE
  5
159
102
{ACAD_REACTORS
330
142
102
}
330
142
100
AcDbVisualStyle
  2
Shaded with edges
 70
    26
 71
     2
 72
     2
 73
     1
 90
        2
 40
0.6
 41
30.0
 62
     5
 63
     7
421
 16777215
 74
     1
 91
       10
 64
     7
 65
   257
 75
     2
175
     1
 42
1.0
 92
        8
 66
   257
 43
1.0
 76
     1
 77
     6
 78
     2
 67
     7
 79
     3
170
     0
171
     0
290
     0
174
     0
 93
        5
 44
0.0
173
     0
291
     0
 45
0.0
  0
VISUALSTYLE
  5
156
102
{ACAD_REACTORS
330
142
102
}
330
142
100
AcDbVisualStyle
  2
Shades of Gray
 70
    23
 71
     2
 72
     2
 73
     3
 90
        0
 40
0.6
 41
30.0
 62
     5
 63
     7
421
 16777215
 74
     2
 91
        2
 64
     7
 65
     7
 75
     1
175
     1
 42
40.0
 92
        8
 66
     7
 43
1.0
 76
     1
 77
     6
 78
     2
 67
     7
 79
     3
170
     0
171
     0
290
     0
174
     0
 93
        1
 44
0.0
173
     0
291
     0
 45
0.0
  0
VISUALSTYLE
  5
157
102
{ACAD_REACTORS
330
142
102
}
330
142
100
AcDbVisualStyle
  2
Sketchy
 70
    24
 71
     1
 72
     2
 73
     2
 90
        0
 40
0.6
 41
30.0
 62
     5
 63
     7
421
 16777215
 74
     2
 91
        2
 64
     7
 65
     7
 75
     1
175
     1
 42
40.0
 92
       11
 66
     7
 43
1.0
 76
     1
 77
     6
 78
     2
 67
     7
 79
     6
170
     0
171
     0
290
     0
174
     0
 93
        1
 44
0.0
173
     0
291
     0
 45
0.0
  0
VISUALSTYLE
  5
14F
102
{ACAD_REACTORS
330
142
102
}
330
142
100
AcDbVisualStyle
  2
Thicken
 70
    13
 71
     2
 72
     2
 73
     0
 90
        0
 40
0.6
 41
30.0
 62
     5
 63
     7
421
 16777215
 74
     1
 91
        4
 64
     7
 65
   257
 75
     1
175
     1
 42
1.0
 92
       12
 66
     7
 43
1.0
 76
     1
 77
     6
 78
     2
 67
     7
 79
     5
170
     0
171
     0
290
     0
174
     0
 93
        1
 44
0.0
173
     0
291
     1
 45
0.0
  0
VISUALSTYLE
  5
148
102
{ACAD_REACTORS
330
142
102
}
330
142
100
AcDbVisualStyle
  2
Wireframe
 70
     5
 71
     0
 72
     2
 73
     0
 90
        0
 40
0.6
 41
30.0
 62
     5
 63
     7
421
 16777215
 74
     1
 91
        4
 64
     7
 65
   257
 75
     1
175
     1
 42
1.0
 92
        0
 66
   257
 43
1.0
 76
     1
 77
     6
 78
     2
 67
     7
 79
     3
170
     0
171
     0
290
     0
174
     0
 93
        1
 44
0.0
173
     0
291
     0
 45
0.0
  0
VISUALSTYLE
  5
158
102
{ACAD_REACTORS
330
142
102
}
330
142
100
AcDbVisualStyle
  2
X-Ray
 70
    25
 71
     2
 72
     2
 73
     1
 90
        1
 40
0.5
 41
30.0
 62
     5
 63
     7
421
 16777215
 74
     1
 91
        0
 64
     7
 65
   257
 75
     1
175
     1
 42
1.0
 92
        8
 66
     7
 43
1.0
 76
     1
 77
     6
 78
     2
 67
     7
 79
     3
170
     0
171
     0
290
     0
174
     0
 93
       13
 44
0.0
173
     0
291
     0
 45
0.0
  0
DICTIONARYVAR
  5
203
102
{ACAD_REACTORS
330
202
102
}
330
202
100
DictionaryVariables
280
     0
  1
1:1
  0
DICTIONARYVAR
  5
208
102
{ACAD_REACTORS
330
202
102
}
330
202
100
DictionaryVariables
280
     0
  1
Standard
  0
DICTIONARYVAR
  5
204
102
{ACAD_REACTORS
330
202
102
}
330
202
100
DictionaryVariables
280
     0
  1
0
  0
DICTIONARYVAR
  5
209
102
{ACAD_REACTORS
330
202
102
}
330
202
100
DictionaryVariables
280
     0
  1
0
  0
DICTIONARYVAR
  5
30E
102
{ACAD_REACTORS
330
202
102
}
330
202
100
DictionaryVariables
280
     0
  1
0
  0
DICTIONARY
  5
30B
330
160
100
AcDbDictionary
280
     1
281
     1
  3
ACAD_ROUNDTRIP_2008_TABLESTYLE_CELLSTYLEMAP
360
30C
  0
CELLSTYLEMAP
  5
30C
102
{ACAD_REACTORS
330
30B
102
}
330
30B
100
AcDbCellStyleMap
 90
        3
300
CELLSTYLE
  1
TABLEFORMAT_BEGIN
 90
        5
170
     1
 91
        0
 92
        0
 62
   257
 93
        1
300
CONTENTFORMAT
  1
CONTENTFORMAT_BEGIN
 90
        0
 91
        0
 92
        4
 93
        0
300

 40
0.0
140
1.0
 94
        5
 62
     0
340
17
144
6.0
309
CONTENTFORMAT_END
171
     1
301
MARGIN
  1
CELLMARGIN_BEGIN
 40
1.5
 40
1.5
 40
1.5
 40
1.5
 40
1.5
 40
1.5
309
CELLMARGIN_END
 94
        6
 95
        1
302
GRIDFORMAT
  1
GRIDFORMAT_BEGIN
 90
        0
 91
        1
 62
     0
 92
       -2
340
11
 93
        0
 40
0.045
309
GRIDFORMAT_END
 95
        2
302
GRIDFORMAT
  1
GRIDFORMAT_BEGIN
 90
        0
 91
        1
 62
     0
 92
       -2
340
11
 93
        0
 40
0.045
309
GRIDFORMAT_END
 95
        4
302
GRIDFORMAT
  1
GRIDFORMAT_BEGIN
 90
        0
 91
        1
 62
     0
 92
       -2
340
11
 93
        0
 40
0.045
309
GRIDFORMAT_END
 95
        8
302
GRIDFORMAT
  1
GRIDFORMAT_BEGIN
 90
        0
 91
        1
 62
     0
 92
       -2
340
11
 93
        0
 40
0.045
309
GRIDFORMAT_END
 95
       16
302
GRIDFORMAT
  1
GRIDFORMAT_BEGIN
 90
        0
 91
        1
 62
     0
 92
       -2
340
11
 93
        0
 40
0.045
309
GRIDFORMAT_END
 95
       32
302
GRIDFORMAT
  1
GRIDFORMAT_BEGIN
 90
        0
 91
        1
 62
     0
 92
       -2
340
11
 93
        0
 40
0.045
309
GRIDFORMAT_END
309
TABLEFORMAT_END
  1
CELLSTYLE_BEGIN
 90
        1
 91
        1
300
_TITLE
309
CELLSTYLE_END
300
CELLSTYLE
  1
TABLEFORMAT_BEGIN
 90
        5
170
     1
 91
        0
 92
        0
 62
   257
 93
        1
300
CONTENTFORMAT
  1
CONTENTFORMAT_BEGIN
 90
        0
 91
        0
 92
        4
 93
        0
300

 40
0.0
140
1.0
 94
        5
 62
     0
340
17
144
4.5
309
CONTENTFORMAT_END
171
     1
301
MARGIN
  1
CELLMARGIN_BEGIN
 40
1.5
 40
1.5
 40
1.5
 40
1.5
 40
1.5
 40
1.5
309
CELLMARGIN_END
 94
        6
 95
        1
302
GRIDFORMAT
  1
GRIDFORMAT_BEGIN
 90
        0
 91
        1
 62
     0
 92
       -2
340
11
 93
        0
 40
0.045
309
GRIDFORMAT_END
 95
        2
302
GRIDFORMAT
  1
GRIDFORMAT_BEGIN
 90
        0
 91
        1
 62
     0
 92
       -2
340
11
 93
        0
 40
0.045
309
GRIDFORMAT_END
 95
        4
302
GRIDFORMAT
  1
GRIDFORMAT_BEGIN
 90
        0
 91
        1
 62
     0
 92
       -2
340
11
 93
        0
 40
0.045
309
GRIDFORMAT_END
 95
        8
302
GRIDFORMAT
  1
GRIDFORMAT_BEGIN
 90
        0
 91
        1
 62
     0
 92
       -2
340
11
 93
        0
 40
0.045
309
GRIDFORMAT_END
 95
       16
302
GRIDFORMAT
  1
GRIDFORMAT_BEGIN
 90
        0
 91
        1
 62
     0
 92
       -2
340
11
 93
        0
 40
0.045
309
GRIDFORMAT_END
 95
       32
302
GRIDFORMAT
  1
GRIDFORMAT_BEGIN
 90
        0
 91
        1
 62
     0
 92
       -2
340
11
 93
        0
 40
0.045
309
GRIDFORMAT_END
309
TABLEFORMAT_END
  1
CELLSTYLE_BEGIN
 90
        2
 91
        1
300
_HEADER
309
CELLSTYLE_END
300
CELLSTYLE
  1
TABLEFORMAT_BEGIN
 90
        5
170
     1
 91
        0
 92
        0
 62
   257
 93
        1
300
CONTENTFORMAT
  1
CONTENTFORMAT_BEGIN
 90
        0
 91
        0
 92
        4
 93
        0
300

 40
0.0
140
1.0
 94
        2
 62
     0
340
17
144
4.5
309
CONTENTFORMAT_END
171
     1
301
MARGIN
  1
CELLMARGIN_BEGIN
 40
1.5
 40
1.5
 40
1.5
 40
1.5
 40
1.5
 40
1.5
309
CELLMARGIN_END
 94
        6
 95
        1
302
GRIDFORMAT
  1
GRIDFORMAT_BEGIN
 90
        0
 91
        1
 62
     0
 92
       -2
340
11
 93
        0
 40
0.045
309
GRIDFORMAT_END
 95
        2
302
GRIDFORMAT
  1
GRIDFORMAT_BEGIN
 90
        0
 91
        1
 62
     0
 92
       -2
340
11
 93
        0
 40
0.045
309
GRIDFORMAT_END
 95
        4
302
GRIDFORMAT
  1
GRIDFORMAT_BEGIN
 90
        0
 91
        1
 62
     0
 92
       -2
340
11
 93
        0
 40
0.045
309
GRIDFORMAT_END
 95
        8
302
GRIDFORMAT
  1
GRIDFORMAT_BEGIN
 90
        0
 91
        1
 62
     0
 92
       -2
340
11
 93
        0
 40
0.045
309
GRIDFORMAT_END
 95
       16
302
GRIDFORMAT
  1
GRIDFORMAT_BEGIN
 90
        0
 91
        1
 62
     0
 92
       -2
340
11
 93
        0
 40
0.045
309
GRIDFORMAT_END
 95
       32
302
GRIDFORMAT
  1
GRIDFORMAT_BEGIN
 90
        0
 91
        1
 62
     0
 92
       -2
340
11
 93
        0
 40
0.045
309
GRIDFORMAT_END
309
TABLEFORMAT_END
  1
CELLSTYLE_BEGIN
 90
        3
 91
        2
300
_DATA
309
CELLSTYLE_END
  0
ENDSEC
  0
EOF
