  0
SECTION
  2
HEADER
  9
$ACADVER
  1
AC1021
  9
$ACADMAINTVER
 70
    25
  9
$DWGCODEPAGE
  3
ANSI_932
  9
$LASTSAVEDBY
  1
howeNelson
  9
$INSBASE
 10
0.0
 20
0.0
 30
0.0
  9
$EXTMIN
 10
0.0
 20
0.0
 30
-0.0000000000000071
  9
$EXTMAX
 10
2100.0
 20
2970.0
 30
34.99521132346014
  9
$LIMMIN
 10
0.0
 20
0.0
  9
$LIMMAX
 10
2100.0
 20
2970.0
  9
$ORTHOMODE
 70
     0
  9
$REGENMODE
 70
     1
  9
$FILLMODE
 70
     1
  9
$QTEXTMODE
 70
     0
  9
$MIRRTEXT
 70
     1
  9
$LTSCALE
 40
5.0
  9
$ATTMODE
 70
     1
  9
$TEXTSIZE
 40
2.5
  9
$TRACEWID
 40
1.0
  9
$TEXTSTYLE
  7
ＭＳ ゴシック
  9
$CLAYER
  8
DIM
  9
$CELTYPE
  6
ByLayer
  9
$CECOLOR
 62
   256
  9
$CELTSCALE
 40
1.0
  9
$DISPSILH
 70
     0
  9
$DIMSCALE
 40
1.0
  9
$DIMASZ
 40
10.0
  9
$DIMEXO
 40
30.0
  9
$DIMDLI
 40
0.9999999999999999
  9
$DIMRND
 40
0.0
  9
$DIMDLE
 40
0.0
  9
$DIMEXE
 40
0.0
  9
$DIMTP
 40
0.0
  9
$DIMTM
 40
0.0
  9
$DIMTXT
 40
24.0
  9
$DIMCEN
 40
0.0
  9
$DIMTSZ
 40
0.0
  9
$DIMTOL
 70
     0
  9
$DIMLIM
 70
     0
  9
$DIMTIH
 70
     0
  9
$DIMTOH
 70
     0
  9
$DIMSE1
 70
     0
  9
$DIMSE2
 70
     0
  9
$DIMTAD
 70
     1
  9
$DIMZIN
 70
    11
  9
$DIMBLK
  1
DOT
  9
$DIMASO
 70
     1
  9
$DIMSHO
 70
     1
  9
$DIMPOST
  1
<>
  9
$DIMAPOST
  1
[]
  9
$DIMALT
 70
     0
  9
$DIMALTD
 70
     1
  9
$DIMALTF
 40
1.0
  9
$DIMLFAC
 40
1.0
  9
$DIMTOFL
 70
     0
  9
$DIMTVP
 40
0.0
  9
$DIMTIX
 70
     1
  9
$DIMSOXD
 70
     0
  9
$DIMSAH
 70
     0
  9
$DIMBLK1
  1

  9
$DIMBLK2
  1

  9
$DIMSTYLE
  2
tfrom線あり
  9
$DIMCLRD
 70
     0
  9
$DIMCLRE
 70
     0
  9
$DIMCLRT
 70
     0
  9
$DIMTFAC
 40
1.0
  9
$DIMGAP
 40
20.0
  9
$DIMJUST
 70
     0
  9
$DIMSD1
 70
     0
  9
$DIMSD2
 70
     0
  9
$DIMTOLJ
 70
     1
  9
$DIMTZIN
 70
    11
  9
$DIMALTZ
 70
    11
  9
$DIMALTTZ
 70
    11
  9
$DIMUPT
 70
     0
  9
$DIMDEC
 70
     0
  9
$DIMTDEC
 70
     1
  9
$DIMALTU
 70
     2
  9
$DIMALTTD
 70
     2
  9
$DIMTXSTY
  7
ＭＳ ゴシック
  9
$DIMAUNIT
 70
     0
  9
$DIMADEC
 70
     2
  9
$DIMALTRND
 40
0.0
  9
$DIMAZIN
 70
     0
  9
$DIMDSEP
 70
    46
  9
$DIMATFIT
 70
     0
  9
$DIMFRAC
 70
     2
  9
$DIMLDRBLK
  1
DOT
  9
$DIMLUNIT
 70
     2
  9
$DIMLWD
 70
    -2
  9
$DIMLWE
 70
    -2
  9
$DIMTMOVE
 70
     0
  9
$DIMFXL
 40
1.0
  9
$DIMFXLON
 70
     0
  9
$DIMJOGANG
 40
0.7853981633974483
  9
$DIMTFILL
 70
     0
  9
$DIMTFILLCLR
 70
     0
  9
$DIMARCSYM
 70
     0
  9
$DIMLTYPE
  6

  9
$DIMLTEX1
  6

  9
$DIMLTEX2
  6

  9
$LUNITS
 70
     2
  9
$LUPREC
 70
     0
  9
$SKETCHINC
 40
0.1
  9
$FILLETRAD
 40
0.0
  9
$AUNITS
 70
     0
  9
$AUPREC
 70
     0
  9
$MENU
  1
acad
  9
$ELEVATION
 40
0.0
  9
$PELEVATION
 40
0.0
  9
$THICKNESS
 40
0.0
  9
$LIMCHECK
 70
     0
  9
$CHAMFERA
 40
0.0
  9
$CHAMFERB
 40
0.0
  9
$CHAMFERC
 40
0.0
  9
$CHAMFERD
 40
0.0
  9
$SKPOLY
 70
     0
  9
$TDCREATE
 40
2447893.375
  9
$TDUCREATE
 40
0.0
  9
$TDUPDATE
 40
2457883.639174734
  9
$TDUUPDATE
 40
2457883.264174734
  9
$TDINDWG
 40
0.172593588
  9
$TDUSRTIMER
 40
2457883.263894815
  9
$USRTIMER
 70
     1
  9
$ANGBASE
 50
0.0
  9
$ANGDIR
 70
     0
  9
$PDMODE
 70
     1
  9
$PDSIZE
 40
-2.0
  9
$PLINEWID
 40
0.0
  9
$SPLFRAME
 70
     0
  9
$SPLINETYPE
 70
     6
  9
$SPLINESEGS
 70
     8
  9
$HANDSEED
  5
3E09
  9
$SURFTAB1
 70
     6
  9
$SURFTAB2
 70
     6
  9
$SURFTYPE
 70
     6
  9
$SURFU
 70
     6
  9
$SURFV
 70
     6
  9
$UCSBASE
  2

  9
$UCSNAME
  2

  9
$UCSORG
 10
0.0
 20
0.0
 30
0.0
  9
$UCSXDIR
 10
1.0
 20
0.0
 30
0.0
  9
$UCSYDIR
 10
0.0
 20
1.0
 30
0.0
  9
$UCSORTHOREF
  2

  9
$UCSORTHOVIEW
 70
     0
  9
$UCSORGTOP
 10
0.0
 20
0.0
 30
0.0
  9
$UCSORGBOTTOM
 10
0.0
 20
0.0
 30
0.0
  9
$UCSORGLEFT
 10
0.0
 20
0.0
 30
0.0
  9
$UCSORGRIGHT
 10
0.0
 20
0.0
 30
0.0
  9
$UCSORGFRONT
 10
0.0
 20
0.0
 30
0.0
  9
$UCSORGBACK
 10
0.0
 20
0.0
 30
0.0
  9
$PUCSBASE
  2

  9
$PUCSNAME
  2

  9
$PUCSORG
 10
0.0
 20
0.0
 30
0.0
  9
$PUCSXDIR
 10
1.0
 20
0.0
 30
0.0
  9
$PUCSYDIR
 10
0.0
 20
1.0
 30
0.0
  9
$PUCSORTHOREF
  2

  9
$PUCSORTHOVIEW
 70
     0
  9
$PUCSORGTOP
 10
0.0
 20
0.0
 30
0.0
  9
$PUCSORGBOTTOM
 10
0.0
 20
0.0
 30
0.0
  9
$PUCSORGLEFT
 10
0.0
 20
0.0
 30
0.0
  9
$PUCSORGRIGHT
 10
0.0
 20
0.0
 30
0.0
  9
$PUCSORGFRONT
 10
0.0
 20
0.0
 30
0.0
  9
$PUCSORGBACK
 10
0.0
 20
0.0
 30
0.0
  9
$USERI1
 70
     0
  9
$USERI2
 70
     0
  9
$USERI3
 70
     0
  9
$USERI4
 70
     0
  9
$USERI5
 70
     0
  9
$USERR1
 40
0.0
  9
$USERR2
 40
0.0
  9
$USERR3
 40
0.0
  9
$USERR4
 40
0.0
  9
$USERR5
 40
0.0
  9
$WORLDVIEW
 70
     1
  9
$SHADEDGE
 70
     3
  9
$SHADEDIF
 70
    70
  9
$TILEMODE
 70
     1
  9
$MAXACTVP
 70
    64
  9
$PINSBASE
 10
0.0
 20
0.0
 30
0.0
  9
$PLIMCHECK
 70
     0
  9
$PEXTMIN
 10
0.0
 20
0.0
 30
0.0
  9
$PEXTMAX
 10
0.0
 20
0.0
 30
0.0
  9
$PLIMMIN
 10
-95.87226993865028
 20
-25.69999999999999
  9
$PLIMMAX
 10
201.1277300613497
 20
184.3
  9
$UNITMODE
 70
     0
  9
$VISRETAIN
 70
     0
  9
$PLINEGEN
 70
     1
  9
$PSLTSCALE
 70
     0
  9
$TREEDEPTH
 70
  3020
  9
$CMLSTYLE
  2
Standard
  9
$CMLJUST
 70
     0
  9
$CMLSCALE
 40
1.0
  9
$PROXYGRAPHICS
 70
     0
  9
$MEASUREMENT
 70
     1
  9
$CELWEIGHT
370
    -1
  9
$ENDCAPS
280
     0
  9
$JOINSTYLE
280
     0
  9
$LWDISPLAY
290
     1
  9
$INSUNITS
 70
     4
  9
$HYPERLINKBASE
  1

  9
$STYLESHEET
  1

  9
$XEDIT
290
     1
  9
$CEPSNTYPE
380
     0
  9
$PSTYLEMODE
290
     1
  9
$FINGERPRINTGUID
  2

  9
$VERSIONGUID
  2

  9
$EXTNAMES
290
     1
  9
$PSVPSCALE
 40
0.0
  9
$OLESTARTUP
290
     0
  9
$SORTENTS
280
   127
  9
$INDEXCTL
280
     0
  9
$HIDETEXT
280
     1
  9
$XCLIPFRAME
290
     0
  9
$HALOGAP
280
     0
  9
$OBSCOLOR
 70
   257
  9
$OBSLTYPE
280
     0
  9
$INTERSECTIONDISPLAY
280
     0
  9
$INTERSECTIONCOLOR
 70
   257
  9
$DIMASSOC
280
     2
  9
$PROJECTNAME
  1

  9
$CAMERADISPLAY
290
     0
  9
$LENSLENGTH
 40
50.0
  9
$CAMERAHEIGHT
 40
0.0
  9
$STEPSPERSEC
 40
2.0
  9
$STEPSIZE
 40
6.0
  9
$3DDWFPREC
 40
2.0
  9
$PSOLWIDTH
 40
0.25
  9
$PSOLHEIGHT
 40
4.0
  9
$LOFTANG1
 40
1.570796326794897
  9
$LOFTANG2
 40
1.570796326794897
  9
$LOFTMAG1
 40
0.0
  9
$LOFTMAG2
 40
0.0
  9
$LOFTPARAM
 70
     7
  9
$LOFTNORMALS
280
     1
  9
$LATITUDE
 40
37.795
  9
$LONGITUDE
 40
-122.394
  9
$NORTHDIRECTION
 40
0.0
  9
$TIMEZONE
 70
 -8000
  9
$LIGHTGLYPHDISPLAY
280
     1
  9
$TILEMODELIGHTSYNCH
280
     1
  9
$SOLIDHIST
280
     1
  9
$SHOWHIST
280
     1
  9
$DWFFRAME
280
     2
  9
$DGNFRAME
280
     2
  9
$REALWORLDSCALE
290
     1
  9
$INTERFERECOLOR
 62
   256
  9
$CSHADOW
280
     0
  9
$SHADOWPLANELOCATION
 40
0.0
  0
ENDSEC
  0
SECTION
  2
CLASSES
  0
CLASS
  1
LWPOLYLINE
  2
AcDbPolyline
  3
ObjectDBX Classes
 90
        0
 91
        1
280
     0
281
     1
  0
CLASS
  1
IMAGE
  2
AcDbRasterImage
  3
ISM
 90
      127
 91
        5
280
     0
281
     1
  0
CLASS
  1
OLE2FRAME
  2
AcDbOle2Frame
  3
ObjectDBX Classes
 90
        0
 91
        1
280
     0
281
     1
  0
CLASS
  1
HATCH
  2
AcDbHatch
  3
ObjectDBX Classes
 90
        0
 91
        1
280
     0
281
     1
  0
CLASS
  1
DICTIONARYVAR
  2
AcDbDictionaryVar
  3
ObjectDBX Classes
 90
        0
 91
        4
280
     0
281
     0
  0
CLASS
  1
RASTERVARIABLES
  2
AcDbRasterVariables
  3
ISM
 90
        0
 91
        4
280
     0
281
     0
  0
CLASS
  1
IMAGEDEF
  2
AcDbRasterImageDef
  3
ISM
 90
        0
 91
        4
280
     0
281
     0
  0
CLASS
  1
IMAGEDEF_REACTOR
  2
AcDbRasterImageDefReactor
  3
ISM
 90
        1
 91
        4
280
     0
281
     0
  0
CLASS
  1
IDBUFFER
  2
AcDbIdBuffer
  3
ObjectDBX Classes
 90
        0
 91
        4
280
     0
281
     0
  0
CLASS
  1
SPATIAL_FILTER
  2
AcDbSpatialFilter
  3
ObjectDBX Classes
 90
        0
 91
        4
280
     0
281
     0
  0
CLASS
  1
XRECORD
  2
AcDbXrecord
  3
ObjectDBX Classes
 90
        0
 91
        1
280
     0
281
     0
  0
CLASS
  1
SORTENTSTABLE
  2
AcDbSortentsTable
  3
ObjectDBX Classes
 90
        0
 91
        4
280
     0
281
     0
  0
CLASS
  1
LAYER_INDEX
  2
AcDbLayerIndex
  3
ObjectDBX Classes
 90
        0
 91
        4
280
     0
281
     0
  0
CLASS
  1
SPATIAL_INDEX
  2
AcDbSpatialIndex
  3
AutoCAD 2000
 90
        0
 91
        4
280
     0
281
     0
  0
CLASS
  1
OBJECT_PTR
  2
CAseDLPNTableRecord
  3
ASE-LPNTableRecord
 90
        1
 91
        4
280
     0
281
     0
  0
CLASS
  1
LAYOUT
  2
AcDbLayout
  3
ObjectDBX Classes
 90
        0
 91
        1
280
     0
281
     0
  0
CLASS
  1
PLOTSETTINGS
  2
AcDbPlotSettings
  3
ObjectDBX Classes
 90
        0
 91
        4
280
     0
281
     0
  0
CLASS
  1
ACDBDICTIONARYWDFLT
  2
AcDbDictionaryWithDefault
  3
ObjectDBX Classes
 90
        0
 91
        4
280
     0
281
     0
  0
CLASS
  1
ACDBPLACEHOLDER
  2
AcDbPlaceHolder
  3
ObjectDBX Classes
 90
        0
 91
        1
280
     0
281
     0
  0
CLASS
  1
SCALE
  2
AcDbScale
  3
ObjectDBX Classes
 90
     1153
 91
        4
280
     0
281
     0
  0
CLASS
  1
MATERIAL
  2
AcDbMaterial
  3
ObjectDBX Classes
 90
     1153
 91
        4
280
     0
281
     0
  0
CLASS
  1
VISUALSTYLE
  2
AcDbVisualStyle
  3
ObjectDBX Classes
 90
     4095
 91
        4
280
     0
281
     0
  0
CLASS
  1
TABLESTYLE
  2
AcDbTableStyle
  3
ObjectDBX Classes
 90
     4095
 91
        4
280
     0
281
     0
  0
CLASS
  1
DIMASSOC
  2
AcDbDimAssoc
  3
"AcDbDimAssoc|Product Desc:     AcDim ARX App For Dimension|Company:          Autodesk, Inc.|WEB Address:      www.autodesk.com"
 90
        0
 91
        4
280
     0
281
     0
  0
CLASS
  1
CELLSTYLEMAP
  2
AcDbCellStyleMap
  3
ObjectDBX Classes
 90
     1152
 91
        4
280
     0
281
     0
  0
CLASS
  1
SUN
  2
AcDbSun
  3
SCENEOE
 90
     1153
 91
        4
280
     0
281
     0
  0
CLASS
  1
MLEADERSTYLE
  2
AcDbMLeaderStyle
  3
ACDB_MLEADERSTYLE_CLASS
 90
     4095
 91
        4
280
     0
281
     0
  0
CLASS
  1
FIELD
  2
AcDbField
  3
ObjectDBX Classes
 90
     1152
 91
        4
280
     0
281
     0
  0
CLASS
  1
FIELDLIST
  2
AcDbFieldList
  3
ObjectDBX Classes
 90
     1152
 91
        4
280
     0
281
     0
  0
CLASS
  1
MULTILEADER
  2
AcDbMLeader
  3
ACDB_MLEADER_CLASS
 90
     1025
 91
        4
280
     0
281
     1
  0
ENDSEC
  0
SECTION
  2
TABLES
  0
TABLE
  2
VPORT
  5
7
330
0
100
AcDbSymbolTable
 70
     1
  0
VPORT
  5
15
330
7
100
AcDbSymbolTableRecord
100
AcDbViewportTableRecord
  2
*ACTIVE
 70
     0
 10
0.0
 20
0.0
 11
1.0
 21
1.0
 12
1141.020135670899
 22
1411.401285469834
 13
0.0
 23
0.0
 14
1.0
 24
1.0
 15
0.0
 25
0.0
 16
0.0
 26
0.0
 36
1.0
 17
-91.02013567089898
 27
73.59871453016603
 37
-46.86809886248109
 40
3029.4
 41
2.719424460431655
 42
50.0
 43
0.0
 44
0.0
 50
0.0
 51
0.0
 71
    16
 72
  2000
 73
     1
 74
     1
 75
     0
 76
     0
 77
     0
 78
     0
281
     0
 65
     1
110
0.0
120
0.0
130
0.0
111
1.0
121
0.0
131
0.0
112
0.0
122
1.0
132
0.0
 79
     0
146
0.0
348
26C
 60
     3
 61
     5
292
     1
282
     1
141
0.0
142
0.0
 63
   256
361
904
  0
ENDTAB
  0
TABLE
  2
LTYPE
  5
4
330
0
100
AcDbSymbolTable
 70
     6
  0
LTYPE
  5
11
330
4
100
AcDbSymbolTableRecord
100
AcDbLinetypeTableRecord
  2
ByBlock
 70
     0
  3

 72
    65
 73
     0
 40
0.0
  0
LTYPE
  5
12
330
4
100
AcDbSymbolTableRecord
100
AcDbLinetypeTableRecord
  2
ByLayer
 70
     0
  3

 72
    65
 73
     0
 40
0.0
  0
LTYPE
  5
13
330
4
100
AcDbSymbolTableRecord
100
AcDbLinetypeTableRecord
  2
Continuous
 70
     0
  3
Solid line
 72
    65
 73
     0
 40
0.0
  0
LTYPE
  5
DAF
330
4
100
AcDbSymbolTableRecord
100
AcDbLinetypeTableRecord
  2
BORDER
 70
     0
  3
Border __  __  . __  __  . __  __  . __  __  . 
 72
    65
 73
     6
 40
44.45
 49
12.7
 74
     0
 49
-6.35
 74
     0
 49
12.7
 74
     0
 49
-6.35
 74
     0
 49
0.0
 74
     0
 49
-6.35
 74
     0
  0
LTYPE
  5
33DD
330
4
100
AcDbSymbolTableRecord
100
AcDbLinetypeTableRecord
  2
HIDDEN
 70
     0
  3
Hidden _ _ _ _ _ _ _ _ _ _ _ _ _ _ _ _ _ _ _ _ 
 72
    65
 73
     2
 40
9.524999999999999
 49
6.35
 74
     0
 49
-3.175
 74
     0
  0
ENDTAB
  0
TABLE
  2
LAYER
  5
2
102
{ACAD_XDICTIONARY
360
2E1
102
}
330
0
100
AcDbSymbolTable
 70
    16
  0
LAYER
  5
14
330
2
100
AcDbSymbolTableRecord
100
AcDbLayerTableRecord
  2
0
 70
     0
 62
     7
  6
Continuous
370
    -3
390
1D
347
266
  0
LAYER
  5
4B
330
2
100
AcDbSymbolTableRecord
100
AcDbLayerTableRecord
  2
TEMPLATE
 70
     0
 62
     7
  6
Continuous
370
    20
390
1D
347
266
  0
LAYER
  5
4C
330
2
100
AcDbSymbolTableRecord
100
AcDbLayerTableRecord
  2
DIM
 70
     0
 62
     3
  6
Continuous
370
    13
390
1D
347
266
  0
LAYER
  5
4D
330
2
100
AcDbSymbolTableRecord
100
AcDbLayerTableRecord
  2
MODEL
 70
     0
 62
     7
  6
Continuous
370
    20
390
1D
347
266
  0
LAYER
  5
667
330
2
100
AcDbSymbolTableRecord
100
AcDbLayerTableRecord
  2
LOGO
 70
     0
 62
     7
  6
Continuous
370
    -3
390
1D
347
266
  0
LAYER
  5
D5D
330
2
100
AcDbSymbolTableRecord
100
AcDbLayerTableRecord
  2
Defpoints
 70
     0
 62
     7
  6
Continuous
290
     0
370
    -3
390
1D
347
266
  0
LAYER
  5
DAE
330
2
100
AcDbSymbolTableRecord
100
AcDbLayerTableRecord
  2
BORDER
 70
     0
 62
     4
  6
BORDER
290
     0
370
    20
390
1D
347
266
1001
AcAecLayerStandard
1000

1000

  0
LAYER
  5
157B
330
2
100
AcDbSymbolTableRecord
100
AcDbLayerTableRecord
  2
Layer3
 70
     0
 62
     7
  6
Continuous
370
    -3
390
1D
347
266
  0
LAYER
  5
157F
330
2
100
AcDbSymbolTableRecord
100
AcDbLayerTableRecord
  2
Layer9
 70
     0
 62
     7
  6
Continuous
370
    -3
390
1D
347
266
  0
LAYER
  5
1582
330
2
100
AcDbSymbolTableRecord
100
AcDbLayerTableRecord
  2
Standard
 70
     0
 62
     7
  6
Continuous
370
    -3
390
1D
347
266
  0
LAYER
  5
33DC
330
2
100
AcDbSymbolTableRecord
100
AcDbLayerTableRecord
  2
HIDDEN
 70
     0
 62
     8
  6
HIDDEN
370
    20
390
1D
347
266
1001
AcAecLayerStandard
1000

1000

  0
ENDTAB
  0
TABLE
  2
STYLE
  5
3
330
0
100
AcDbSymbolTable
 70
     6
  0
STYLE
  5
17
330
3
100
AcDbSymbolTableRecord
100
AcDbTextStyleTableRecord
  2
Standard
 70
     0
 40
0.0
 41
1.0
 50
0.0
 71
     0
 42
2.5
  3
txt
  4
BIGFONT.SHX
  0
STYLE
  5
39
330
3
100
AcDbSymbolTableRecord
100
AcDbTextStyleTableRecord
  2
ＭＳ ゴシック
 70
     0
 40
0.0
 41
1.0
 50
0.0
 71
     0
 42
2.5
  3
msgothic.ttc
  4
ＭＳ ゴシック
1001
ACAD
1000
ＭＳ ゴシック
1071
        0
  0
STYLE
  5
384
330
3
100
AcDbSymbolTableRecord
100
AcDbTextStyleTableRecord
  2
ARIAL
 70
     0
 40
0.0
 41
1.0
 50
0.0
 71
     0
 42
12.0
  3
ARIAL.TTF
  4

1001
ACAD
1000
Arial
1071
       34
  0
STYLE
  5
385
330
3
100
AcDbSymbolTableRecord
100
AcDbTextStyleTableRecord
  2
ROMANS
 70
     0
 40
0.0
 41
1.0
 50
0.0
 71
     0
 42
5.0
  3
romans.shx
  4

  0
STYLE
  5
158C
330
3
100
AcDbSymbolTableRecord
100
AcDbTextStyleTableRecord
  2
SEACAD_Arial
 70
     0
 40
0.0
 41
1.0
 50
0.0
 71
     0
 42
2.5
  3
arial.ttf
  4

1001
ACAD
1000
Arial
1071
        0
  0
STYLE
  5
158D
330
3
100
AcDbSymbolTableRecord
100
AcDbTextStyleTableRecord
  2
SEACAD_Solid_Edge_ANSI1_Symbols
 70
     0
 40
0.0
 41
1.0
 50
0.0
 71
     0
 42
2.5
  3
semeca1.ttf
  4

1001
ACAD
1000
Solid Edge ANSI1 Symbols
1071
        0
  0
ENDTAB
  0
TABLE
  2
VIEW
  5
5
330
0
100
AcDbSymbolTable
 70
     0
  0
ENDTAB
  0
TABLE
  2
UCS
  5
6
330
0
100
AcDbSymbolTable
 70
     0
  0
ENDTAB
  0
TABLE
  2
APPID
  5
8
330
0
100
AcDbSymbolTable
 70
     3
  0
APPID
  5
16
330
8
100
AcDbSymbolTableRecord
100
AcDbRegAppTableRecord
  2
ACAD
 70
     0
  0
APPID
  5
7AC
330
8
100
AcDbSymbolTableRecord
100
AcDbRegAppTableRecord
  2
AcAecLayerStandard
 70
     0
  0
APPID
  5
F3A
330
8
100
AcDbSymbolTableRecord
100
AcDbRegAppTableRecord
  2
ACAD_MLEADERVER
 70
     0
  0
ENDTAB
  0
TABLE
  2
DIMSTYLE
  5
9
330
0
100
AcDbSymbolTable
 70
     3
100
AcDbDimStyleTable
  0
DIMSTYLE
105
18
330
9
100
AcDbSymbolTableRecord
100
AcDbDimStyleTableRecord
  2
Standard
 70
     0
178
     0
340
17
  0
DIMSTYLE
105
57
102
{ACAD_REACTORS
330
3B86
330
3B93
330
3BA3
330
3BB1
330
3D01
330
3D11
330
3D22
330
3D31
330
3D40
330
3D4E
330
3D5B
330
3D6F
330
3D9E
330
3DB2
330
3DDD
102
}
330
9
100
AcDbSymbolTableRecord
100
AcDbDimStyleTableRecord
  2
tfrom線あり
 70
     0
  3
<>
  4
[]
 41
10.0
 42
30.0
 43
0.9999999999999999
 44
0.0
 73
     0
 74
     0
 77
     1
 78
    11
140
24.0
141
0.0
143
1.0
147
20.0
171
     1
174
     1
178
     0
179
     2
271
     0
272
     1
276
     2
284
    11
285
    11
286
    11
289
     0
340
39
341
4E
342
4E
  0
ENDTAB
  0
TABLE
  2
BLOCK_RECORD
  5
1
330
0
100
AcDbSymbolTable
 70
   184
  0
BLOCK_RECORD
  5
A
330
1
100
AcDbSymbolTableRecord
100
AcDbBlockTableRecord
  2
*MODEL_SPACE
340
20
 70
     0
280
     1
281
     0
  0
BLOCK_RECORD
  5
B
330
1
100
AcDbSymbolTableRecord
100
AcDbBlockTableRecord
  2
*PAPER_SPACE
340
21
 70
     0
280
     1
281
     0
  0
BLOCK_RECORD
  5
4E
330
1
100
AcDbSymbolTableRecord
100
AcDbBlockTableRecord
  2
_DOT
340
0
102
{BLKREFS
331
3106
331
3107
331
313D
331
313E
331
3216
331
3217
331
3225
331
3226
331
3449
331
344A
331
3458
331
3459
331
3465
331
3466
331
3472
331
3473
331
347F
331
3480
331
348C
331
348D
331
3499
331
349A
331
34BB
331
34BC
331
34CF
331
34D0
331
34DE
331
34DF
331
34ED
331
34EE
331
34FC
331
34FD
331
3509
331
350A
331
3516
331
3517
331
35B5
331
35B6
331
35C1
331
35C2
331
35CD
331
35CE
331
35D9
331
35DA
331
35E5
331
35E6
331
35F1
331
35F2
331
35FD
331
35FE
331
3609
331
360A
331
3615
331
3616
331
3621
331
3622
331
362D
331
362E
331
3639
331
363A
331
3645
331
3646
331
3651
331
3652
331
3B01
331
3B02
331
3B11
331
3B12
331
3B20
331
3B21
331
3B2D
331
3B2E
331
3B8D
331
3B8E
331
3B9A
331
3B9B
331
3BAA
331
3BAB
331
3BB8
331
3BB9
331
3D08
331
3D09
331
3D18
331
3D19
331
3D29
331
3D2A
331
3D3A
331
3D3B
331
3D47
331
3D48
331
3D55
331
3D56
331
3D62
331
3D63
331
3D76
331
3D77
331
3DA6
331
3DA5
331
3DBA
331
3DB9
331
0
331
0
331
0
331
0
331
0
331
0
331
0
331
0
331
3DE9
331
0
331
3DE8
102
}
 70
     0
280
     1
281
     0
  0
BLOCK_RECORD
  5
68A
330
1
100
AcDbSymbolTableRecord
100
AcDbBlockTableRecord
  2
名称未設定-1
340
0
102
{BLKREFS
331
6B5
102
}
 70
     1
280
     1
281
     0
  0
BLOCK_RECORD
  5
68D
330
1
100
AcDbSymbolTableRecord
100
AcDbBlockTableRecord
  2
block 2
340
0
102
{BLKREFS
331
68C
102
}
 70
     0
280
     1
281
     0
  0
BLOCK_RECORD
  5
690
330
1
100
AcDbSymbolTableRecord
100
AcDbBlockTableRecord
  2
block 3
340
0
102
{BLKREFS
331
68F
102
}
 70
     0
280
     1
281
     0
  0
BLOCK_RECORD
  5
693
330
1
100
AcDbSymbolTableRecord
100
AcDbBlockTableRecord
  2
block 4
340
0
102
{BLKREFS
331
692
102
}
 70
     0
280
     1
281
     0
  0
BLOCK_RECORD
  5
6A2
330
1
100
AcDbSymbolTableRecord
100
AcDbBlockTableRecord
  2
block 5
340
0
102
{BLKREFS
331
6A1
102
}
 70
     0
280
     1
281
     0
  0
BLOCK_RECORD
  5
199A
330
1
100
AcDbSymbolTableRecord
100
AcDbBlockTableRecord
  2
SEANNOT_GROUP
340
0
102
{BLKREFS
331
28CA
102
}
 70
     0
280
     1
281
     0
  0
BLOCK_RECORD
  5
1F2F
330
1
100
AcDbSymbolTableRecord
100
AcDbBlockTableRecord
  2
SEANNOT_GROUP1
340
0
102
{BLKREFS
331
2B9B
102
}
 70
     0
280
     1
281
     0
  0
BLOCK_RECORD
  5
3B87
330
1
100
AcDbSymbolTableRecord
100
AcDbBlockTableRecord
  2
*D169
340
0
 70
     0
280
     1
281
     0
  0
BLOCK_RECORD
  5
3B94
330
1
100
AcDbSymbolTableRecord
100
AcDbBlockTableRecord
  2
*D170
340
0
 70
     0
280
     1
281
     0
  0
BLOCK_RECORD
  5
3BA4
330
1
100
AcDbSymbolTableRecord
100
AcDbBlockTableRecord
  2
*D171
340
0
 70
     0
280
     1
281
     0
  0
BLOCK_RECORD
  5
3BB2
330
1
100
AcDbSymbolTableRecord
100
AcDbBlockTableRecord
  2
*D172
340
0
 70
     0
280
     1
281
     0
  0
BLOCK_RECORD
  5
3D02
330
1
100
AcDbSymbolTableRecord
100
AcDbBlockTableRecord
  2
*D173
340
0
 70
     0
280
     1
281
     0
  0
BLOCK_RECORD
  5
3D12
330
1
100
AcDbSymbolTableRecord
100
AcDbBlockTableRecord
  2
*D174
340
0
 70
     0
280
     1
281
     0
  0
BLOCK_RECORD
  5
3D23
330
1
100
AcDbSymbolTableRecord
100
AcDbBlockTableRecord
  2
*D175
340
0
 70
     0
280
     1
281
     0
  0
BLOCK_RECORD
  5
3D34
330
1
100
AcDbSymbolTableRecord
100
AcDbBlockTableRecord
  2
*D176
340
0
 70
     0
280
     1
281
     0
  0
BLOCK_RECORD
  5
3D41
330
1
100
AcDbSymbolTableRecord
100
AcDbBlockTableRecord
  2
*D177
340
0
 70
     0
280
     1
281
     0
  0
BLOCK_RECORD
  5
3D4F
330
1
100
AcDbSymbolTableRecord
100
AcDbBlockTableRecord
  2
*D178
340
0
 70
     0
280
     1
281
     0
  0
BLOCK_RECORD
  5
3D5C
330
1
100
AcDbSymbolTableRecord
100
AcDbBlockTableRecord
  2
*D179
340
0
 70
     0
280
     1
281
     0
  0
BLOCK_RECORD
  5
3D70
330
1
100
AcDbSymbolTableRecord
100
AcDbBlockTableRecord
  2
*D180
340
0
 70
     0
280
     1
281
     0
  0
BLOCK_RECORD
  5
3D9F
330
1
100
AcDbSymbolTableRecord
100
AcDbBlockTableRecord
  2
*D181
340
0
 70
     0
280
     1
281
     0
  0
BLOCK_RECORD
  5
3DB3
330
1
100
AcDbSymbolTableRecord
100
AcDbBlockTableRecord
  2
*D182
340
0
 70
     0
280
     1
281
     0
  0
BLOCK_RECORD
  5
3DE0
330
1
100
AcDbSymbolTableRecord
100
AcDbBlockTableRecord
  2
*D183
340
0
 70
     0
280
     1
281
     0
  0
ENDTAB
  0
ENDSEC
  0
SECTION
  2
BLOCKS
  0
BLOCK
  5
D
330
A
100
AcDbEntity
  8
0
390
1D
100
AcDbBlockBegin
  2
*MODEL_SPACE
 70
     0
 10
0.0
 20
0.0
 30
0.0
  3
*MODEL_SPACE
  1
*MODEL_SPACE
  0
ENDBLK
  5
E
330
A
100
AcDbEntity
  8
0
390
1D
100
AcDbBlockEnd
  0
BLOCK
  5
F
330
B
100
AcDbEntity
 67
     1
  8
0
390
1D
100
AcDbBlockBegin
  2
*PAPER_SPACE
 70
     0
 10
0.0
 20
0.0
 30
0.0
  3
*PAPER_SPACE
  1
*PAPER_SPACE
  0
ENDBLK
  5
10
330
B
100
AcDbEntity
 67
     1
  8
0
390
1D
100
AcDbBlockEnd
  0
BLOCK
  5
EC4
330
4E
100
AcDbEntity
  8
0
390
1D
100
AcDbBlockBegin
  2
_DOT
 70
     0
 10
0.0
 20
0.0
 30
0.0
  3
_DOT
  1
_DOT
  0
POLYLINE
  5
EC6
330
4E
100
AcDbEntity
  8
0
  6
ByBlock
 62
     0
370
    -2
390
1D
100
AcDb2dPolyline
 66
     1
 10
0.0
 20
0.0
 30
0.0
 70
     1
 40
0.5
 41
0.5
  0
VERTEX
  5
EC7
330
EC6
100
AcDbEntity
  8
0
  6
ByBlock
 62
     0
370
    -2
390
1D
100
AcDbVertex
100
AcDb2dVertex
 10
-0.25
 20
0.0
 30
0.0
 42
1.0
  0
VERTEX
  5
EC8
330
EC6
100
AcDbEntity
  8
0
  6
ByBlock
 62
     0
370
    -2
390
1D
100
AcDbVertex
100
AcDb2dVertex
 10
0.25
 20
0.0
 30
0.0
 42
1.0
  0
SEQEND
  5
EC9
330
EC6
100
AcDbEntity
  8
0
390
1D
  0
LINE
  5
ECA
330
4E
100
AcDbEntity
  8
0
  6
ByBlock
 62
     0
370
    -2
390
1D
100
AcDbLine
 10
-0.5
 20
0.0
 30
0.0
 11
-1.0
 21
0.0
 31
0.0
  0
ENDBLK
  5
ECB
330
4E
100
AcDbEntity
  8
0
390
1D
100
AcDbBlockEnd
  0
BLOCK
  5
68B
330
68A
100
AcDbEntity
  8
0
100
AcDbBlockBegin
  2
名称未設定-1
 70
     0
 10
0.0
 20
0.0
 30
0.0
  3
名称未設定-1
  1
名称未設定-1
  0
INSERT
  5
68F
330
68A
100
AcDbEntity
  8
LOGO
100
AcDbBlockReference
  2
block 3
 10
0.0
 20
0.0
 30
0.0
  0
ENDBLK
  5
6B1
330
68A
100
AcDbEntity
  8
0
100
AcDbBlockEnd
  0
BLOCK
  5
68E
330
68D
100
AcDbEntity
  8
0
100
AcDbBlockBegin
  2
block 2
 70
     0
 10
0.0
 20
0.0
 30
0.0
  3
block 2
  1
block 2
  0
ENDBLK
  5
6B0
330
68D
100
AcDbEntity
  8
0
100
AcDbBlockEnd
  0
BLOCK
  5
691
330
690
100
AcDbEntity
  8
0
100
AcDbBlockBegin
  2
block 3
 70
     0
 10
0.0
 20
0.0
 30
0.0
  3
block 3
  1
block 3
  0
INSERT
  5
692
330
690
100
AcDbEntity
  8
LOGO
100
AcDbBlockReference
  2
block 4
 10
0.0
 20
0.0
 30
0.0
  0
INSERT
  5
6A1
330
690
100
AcDbEntity
  8
LOGO
100
AcDbBlockReference
  2
block 5
 10
0.0
 20
0.0
 30
0.0
  0
ENDBLK
  5
6AF
330
690
100
AcDbEntity
  8
0
100
AcDbBlockEnd
  0
BLOCK
  5
694
330
693
100
AcDbEntity
  8
0
100
AcDbBlockBegin
  2
block 4
 70
     0
 10
0.0
 20
0.0
 30
0.0
  3
block 4
  1
block 4
  0
POLYLINE
  5
695
330
693
100
AcDbEntity
  8
LOGO
370
     0
100
AcDb2dPolyline
 66
     1
 10
0.0
 20
0.0
 30
0.0
  0
VERTEX
  5
696
330
695
100
AcDbEntity
  8
LOGO
370
     0
100
AcDbVertex
100
AcDb2dVertex
 10
83.79545727667795
 20
167.6444858234922
 30
0.0
  0
VERTEX
  5
697
330
695
100
AcDbEntity
  8
LOGO
370
     0
100
AcDbVertex
100
AcDb2dVertex
 10
83.79545727667795
 20
159.7968976406313
 30
0.0
  0
VERTEX
  5
698
330
695
100
AcDbEntity
  8
LOGO
370
     0
100
AcDbVertex
100
AcDb2dVertex
 10
71.3631329975216
 20
159.7968976406313
 30
0.0
  0
VERTEX
  5
699
330
695
100
AcDbEntity
  8
LOGO
370
     0
100
AcDbVertex
100
AcDb2dVertex
 10
71.3631329975216
 20
127.8027915271048
 30
0.0
  0
VERTEX
  5
69A
330
695
100
AcDbEntity
  8
LOGO
370
     0
100
AcDbVertex
100
AcDb2dVertex
 10
60.43011526263018
 20
127.8027915271048
 30
0.0
  0
VERTEX
  5
69B
330
695
100
AcDbEntity
  8
LOGO
370
     0
100
AcDbVertex
100
AcDb2dVertex
 10
60.43011526263018
 20
159.7968976406313
 30
0.0
  0
VERTEX
  5
69C
330
695
100
AcDbEntity
  8
LOGO
370
     0
100
AcDbVertex
100
AcDb2dVertex
 10
48.21793273020759
 20
159.7968976406313
 30
0.0
  0
VERTEX
  5
69D
330
695
100
AcDbEntity
  8
LOGO
370
     0
100
AcDbVertex
100
AcDb2dVertex
 10
48.21793273020759
 20
167.6444858234922
 30
0.0
  0
VERTEX
  5
69E
330
695
100
AcDbEntity
  8
LOGO
370
     0
100
AcDbVertex
100
AcDb2dVertex
 10
83.79545727667795
 20
167.6444858234922
 30
0.0
  0
SEQEND
  5
69F
330
695
100
AcDbEntity
  8
LOGO
370
     0
  0
HATCH
  5
6A0
330
693
100
AcDbEntity
  8
LOGO
 62
   250
420
  2234388
100
AcDbHatch
 10
0.0
 20
0.0
 30
0.0
210
0.0
220
0.0
230
1.0
  2
SOLID
 70
     1
 71
     0
 91
        1
 92
        1
 93
        8
 72
     1
 10
83.79545727667795
 20
167.6444858234922
 11
83.79545727667795
 21
159.7968976406313
 72
     1
 10
83.79545727667795
 20
159.7968976406313
 11
71.3631329975216
 21
159.7968976406313
 72
     1
 10
71.3631329975216
 20
159.7968976406313
 11
71.3631329975216
 21
127.8027915271048
 72
     1
 10
71.3631329975216
 20
127.8027915271048
 11
60.43011526263018
 21
127.8027915271048
 72
     1
 10
60.43011526263018
 20
127.8027915271048
 11
60.43011526263018
 21
159.7968976406313
 72
     1
 10
60.43011526263018
 20
159.7968976406313
 11
48.21793273020759
 21
159.7968976406313
 72
     1
 10
48.21793273020759
 20
159.7968976406313
 11
48.21793273020759
 21
167.6444858234922
 72
     1
 10
48.21793273020759
 20
167.6444858234922
 11
83.79545727667795
 21
167.6444858234922
 97
        0
 75
     2
 76
     1
 98
        0
  0
ENDBLK
  5
6AE
330
693
100
AcDbEntity
  8
0
100
AcDbBlockEnd
  0
BLOCK
  5
6A3
330
6A2
100
AcDbEntity
  8
0
100
AcDbBlockBegin
  2
block 5
 70
     0
 10
0.0
 20
0.0
 30
0.0
  3
block 5
  1
block 5
  0
SPLINE
  5
6A4
330
6A2
100
AcDbEntity
  8
LOGO
370
     0
100
AcDbSpline
210
0.0
220
0.0
230
1.0
 70
    11
 71
     3
 72
    56
 73
    52
 74
     0
 42
0.000000001
 43
0.0000000001
 40
0.0
 40
0.0
 40
0.0
 40
0.0
 40
1.0
 40
1.0
 40
1.0
 40
2.0
 40
2.0
 40
2.0
 40
3.0
 40
3.0
 40
3.0
 40
4.0
 40
4.0
 40
4.0
 40
5.0
 40
5.0
 40
5.0
 40
6.0
 40
6.0
 40
6.0
 40
7.0
 40
7.0
 40
7.0
 40
8.0
 40
8.0
 40
8.0
 40
9.0
 40
9.0
 40
9.0
 40
10.0
 40
10.0
 40
10.0
 40
11.0
 40
11.0
 40
11.0
 40
12.0
 40
12.0
 40
12.0
 40
13.0
 40
13.0
 40
13.0
 40
14.0
 40
14.0
 40
14.0
 40
15.0
 40
15.0
 40
15.0
 40
16.0
 40
16.0
 40
16.0
 40
17.0
 40
17.0
 40
17.0
 40
17.0
 10
100.4504378777679
 20
166.69157178364
 30
0.0
 10
101.9848844191641
 20
167.1313385124438
 30
0.0
 10
103.9637485713373
 20
166.7649523658846
 30
0.0
 10
103.9637485713373
 20
166.7649523658846
 30
0.0
 10
103.9637485713373
 20
166.7649523658846
 30
0.0
 10
103.0132460999156
 20
163.911205638077
 30
0.0
 10
103.0132460999156
 20
163.911205638077
 30
0.0
 10
103.0132460999156
 20
163.911205638077
 30
0.0
 10
101.0674548862189
 20
164.3601018759394
 30
0.0
 10
99.57090442016032
 20
163.1805004036133
 30
0.0
 10
98.40508333886608
 20
162.258247733807
 30
0.0
 10
97.65301849830304
 20
159.804132345923
 30
0.0
 10
97.3598406791005
 20
158.8699940888517
 30
0.0
 10
97.3598406791005
 20
158.8699940888517
 30
0.0
 10
96.07137411762282
 20
154.9119212747295
 30
0.0
 10
96.07137411762282
 20
154.9119212747295
 30
0.0
 10
96.07137411762282
 20
154.9119212747295
 30
0.0
 10
100.3012651448482
 20
154.9119212747295
 30
0.0
 10
100.3012651448482
 20
154.9119212747295
 30
0.0
 10
100.3012651448482
 20
154.9119212747295
 30
0.0
 10
99.64152892419852
 20
152.4199098115079
 30
0.0
 10
99.64152892419852
 20
152.4199098115079
 30
0.0
 10
99.64152892419852
 20
152.4199098115079
 30
0.0
 10
95.38097652692731
 20
152.4199098115079
 30
0.0
 10
95.38097652692731
 20
152.4199098115079
 30
0.0
 10
95.38097652692731
 20
152.4199098115079
 30
0.0
 10
87.75353009080013
 20
127.8027915271048
 30
0.0
 10
87.75353009080013
 20
127.8027915271048
 30
0.0
 10
87.75353009080013
 20
127.8027915271048
 30
0.0
 10
85.36538832498108
 20
127.8027915271048
 30
0.0
 10
85.36538832498108
 20
127.8027915271048
 30
0.0
 10
85.36538832498108
 20
127.8027915271048
 30
0.0
 10
93.00006946639998
 20
152.4199098115079
 30
0.0
 10
93.00006946639998
 20
152.4199098115079
 30
0.0
 10
93.00006946639998
 20
152.4199098115079
 30
0.0
 10
89.85297266450198
 20
152.4199098115079
 30
0.0
 10
89.85297266450198
 20
152.4199098115079
 30
0.0
 10
89.85297266450198
 20
152.4199098115079
 30
0.0
 10
90.51270888515164
 20
154.9119212747295
 30
0.0
 10
90.51270888515164
 20
154.9119212747295
 30
0.0
 10
90.51270888515164
 20
154.9119212747295
 30
0.0
 10
93.6904670570955
 20
154.9119212747295
 30
0.0
 10
93.6904670570955
 20
154.9119212747295
 30
0.0
 10
93.6904670570955
 20
154.9119212747295
 30
0.0
 10
94.81598049462158
 20
158.3616699146644
 30
0.0
 10
94.81598049462158
 20
158.3616699146644
 30
0.0
 10
95.7237637538445
 20
161.2605474231013
 30
0.0
 10
96.4968436907311
 20
162.8139420021662
 30
0.0
 10
97.15657991138076
 20
163.9844139654337
 30
0.0
 10
97.81183750494507
 20
165.1523021053827
 30
0.0
 10
99.1047826935081
 20
166.3084769129547
 30
0.0
 10
100.4504378777679
 20
166.69157178364
 30
0.0
  0
HATCH
  5
6A5
330
6A2
100
AcDbEntity
  8
LOGO
 62
   250
420
  2234388
100
AcDbHatch
 10
0.0
 20
0.0
 30
0.0
210
0.0
220
0.0
230
1.0
  2
SOLID
 70
     1
 71
     0
 91
        1
 92
        1
 93
        1
 72
     4
 94
        3
 73
     0
 74
     1
 95
       56
 96
       52
 40
0.0
 40
0.0
 40
0.0
 40
0.0
 40
1.0
 40
1.0
 40
1.0
 40
2.0
 40
2.0
 40
2.0
 40
3.0
 40
3.0
 40
3.0
 40
4.0
 40
4.0
 40
4.0
 40
5.0
 40
5.0
 40
5.0
 40
6.0
 40
6.0
 40
6.0
 40
7.0
 40
7.0
 40
7.0
 40
8.0
 40
8.0
 40
8.0
 40
9.0
 40
9.0
 40
9.0
 40
10.0
 40
10.0
 40
10.0
 40
11.0
 40
11.0
 40
11.0
 40
12.0
 40
12.0
 40
12.0
 40
13.0
 40
13.0
 40
13.0
 40
14.0
 40
14.0
 40
14.0
 40
15.0
 40
15.0
 40
15.0
 40
16.0
 40
16.0
 40
16.0
 40
17.0
 40
17.0
 40
17.0
 40
17.0
 10
100.4504378777679
 20
166.69157178364
 10
101.9848844191641
 20
167.1313385124438
 10
103.9637485713373
 20
166.7649523658846
 10
103.9637485713373
 20
166.7649523658846
 10
103.9637485713373
 20
166.7649523658846
 10
103.0132460999156
 20
163.911205638077
 10
103.0132460999156
 20
163.911205638077
 10
103.0132460999156
 20
163.911205638077
 10
101.0674548862189
 20
164.3601018759394
 10
99.57090442016032
 20
163.1805004036133
 10
98.40508333886608
 20
162.258247733807
 10
97.65301849830304
 20
159.804132345923
 10
97.3598406791005
 20
158.8699940888517
 10
97.3598406791005
 20
158.8699940888517
 10
96.07137411762282
 20
154.9119212747295
 10
96.07137411762282
 20
154.9119212747295
 10
96.07137411762282
 20
154.9119212747295
 10
100.3012651448482
 20
154.9119212747295
 10
100.3012651448482
 20
154.9119212747295
 10
100.3012651448482
 20
154.9119212747295
 10
99.64152892419852
 20
152.4199098115079
 10
99.64152892419852
 20
152.4199098115079
 10
99.64152892419852
 20
152.4199098115079
 10
95.38097652692731
 20
152.4199098115079
 10
95.38097652692731
 20
152.4199098115079
 10
95.38097652692731
 20
152.4199098115079
 10
87.75353009080013
 20
127.8027915271048
 10
87.75353009080013
 20
127.8027915271048
 10
87.75353009080013
 20
127.8027915271048
 10
85.36538832498108
 20
127.8027915271048
 10
85.36538832498108
 20
127.8027915271048
 10
85.36538832498108
 20
127.8027915271048
 10
93.00006946639998
 20
152.4199098115079
 10
93.00006946639998
 20
152.4199098115079
 10
93.00006946639998
 20
152.4199098115079
 10
89.85297266450198
 20
152.4199098115079
 10
89.85297266450198
 20
152.4199098115079
 10
89.85297266450198
 20
152.4199098115079
 10
90.51270888515164
 20
154.9119212747295
 10
90.51270888515164
 20
154.9119212747295
 10
90.51270888515164
 20
154.9119212747295
 10
93.6904670570955
 20
154.9119212747295
 10
93.6904670570955
 20
154.9119212747295
 10
93.6904670570955
 20
154.9119212747295
 10
94.81598049462158
 20
158.3616699146644
 10
94.81598049462158
 20
158.3616699146644
 10
95.7237637538445
 20
161.2605474231013
 10
96.4968436907311
 20
162.8139420021662
 10
97.15657991138076
 20
163.9844139654337
 10
97.81183750494507
 20
165.1523021053827
 10
99.1047826935081
 20
166.3084769129547
 10
100.4504378777679
 20
166.69157178364
 97
        0
 75
     2
 76
     1
 98
        0
  0
SPLINE
  5
6A6
330
6A2
100
AcDbEntity
  8
LOGO
370
     0
100
AcDbSpline
210
0.0
220
0.0
230
1.0
 70
    11
 71
     3
 72
    38
 73
    34
 74
     0
 42
0.000000001
 43
0.0000000001
 40
0.0
 40
0.0
 40
0.0
 40
0.0
 40
1.0
 40
1.0
 40
1.0
 40
2.0
 40
2.0
 40
2.0
 40
3.0
 40
3.0
 40
3.0
 40
4.0
 40
4.0
 40
4.0
 40
5.0
 40
5.0
 40
5.0
 40
6.0
 40
6.0
 40
6.0
 40
7.0
 40
7.0
 40
7.0
 40
8.0
 40
8.0
 40
8.0
 40
9.0
 40
9.0
 40
9.0
 40
10.0
 40
10.0
 40
10.0
 40
11.0
 40
11.0
 40
11.0
 40
11.0
 10
126.377554584636
 20
154.8151140277308
 30
0.0
 10
126.377554584636
 20
154.8151140277308
 30
0.0
 10
128.8311532078563
 20
154.8151140277308
 30
0.0
 10
128.8311532078563
 20
154.8151140277308
 30
0.0
 10
128.8311532078563
 20
154.8151140277308
 30
0.0
 10
127.7345785914971
 20
151.3062819612468
 30
0.0
 10
127.7345785914971
 20
151.3062819612468
 30
0.0
 10
128.571392836906
 20
152.2922689395754
 30
0.0
 10
129.8860421413442
 20
153.604506675583
 30
0.0
 10
131.0163787157314
 20
154.2664822097754
 30
0.0
 10
132.7044766171327
 20
155.2500576196734
 30
0.0
 10
133.6642808525008
 20
155.3847609420097
 30
0.0
 10
134.7284715499351
 20
155.3565111403944
 30
0.0
 10
134.7284715499351
 20
155.3565111403944
 30
0.0
 10
133.6877075172549
 20
152.0345756272799
 30
0.0
 10
133.6877075172549
 20
152.0345756272799
 30
0.0
 10
133.011434827367
 20
152.3184516825359
 30
0.0
 10
130.930940291334
 20
151.7768823149844
 30
0.0
 10
129.739280976855
 20
150.9162968950455
 30
0.0
 10
128.66613302525
 20
150.1454562717016
 30
0.0
 10
127.9192358313239
 20
149.4857200510519
 30
0.0
 10
127.0393578639405
 20
147.8282835196966
 30
0.0
 10
126.164647543194
 20
146.1699857139017
 30
0.0
 10
125.4742499524985
 20
143.5262176944419
 30
0.0
 10
124.2822461282437
 20
139.6959580071401
 30
0.0
 10
124.2822461282437
 20
139.6959580071401
 30
0.0
 10
120.5753209406769
 20
127.8027915271048
 30
0.0
 10
120.5753209406769
 20
127.8027915271048
 30
0.0
 10
120.5753209406769
 20
127.8027915271048
 30
0.0
 10
118.1964809388044
 20
127.8027915271048
 30
0.0
 10
118.1964809388044
 20
127.8027915271048
 30
0.0
 10
118.1964809388044
 20
127.8027915271048
 30
0.0
 10
126.377554584636
 20
154.8151140277308
 30
0.0
 10
126.377554584636
 20
154.8151140277308
 30
0.0
  0
HATCH
  5
6A7
330
6A2
100
AcDbEntity
  8
LOGO
 62
   250
420
  2234388
100
AcDbHatch
 10
0.0
 20
0.0
 30
0.0
210
0.0
220
0.0
230
1.0
  2
SOLID
 70
     1
 71
     0
 91
        1
 92
        1
 93
        1
 72
     4
 94
        3
 73
     0
 74
     1
 95
       38
 96
       34
 40
0.0
 40
0.0
 40
0.0
 40
0.0
 40
1.0
 40
1.0
 40
1.0
 40
2.0
 40
2.0
 40
2.0
 40
3.0
 40
3.0
 40
3.0
 40
4.0
 40
4.0
 40
4.0
 40
5.0
 40
5.0
 40
5.0
 40
6.0
 40
6.0
 40
6.0
 40
7.0
 40
7.0
 40
7.0
 40
8.0
 40
8.0
 40
8.0
 40
9.0
 40
9.0
 40
9.0
 40
10.0
 40
10.0
 40
10.0
 40
11.0
 40
11.0
 40
11.0
 40
11.0
 10
126.377554584636
 20
154.8151140277308
 10
126.377554584636
 20
154.8151140277308
 10
128.8311532078563
 20
154.8151140277308
 10
128.8311532078563
 20
154.8151140277308
 10
128.8311532078563
 20
154.8151140277308
 10
127.7345785914971
 20
151.3062819612468
 10
127.7345785914971
 20
151.3062819612468
 10
128.571392836906
 20
152.2922689395754
 10
129.8860421413442
 20
153.604506675583
 10
131.0163787157314
 20
154.2664822097754
 10
132.7044766171327
 20
155.2500576196734
 10
133.6642808525008
 20
155.3847609420097
 10
134.7284715499351
 20
155.3565111403944
 10
134.7284715499351
 20
155.3565111403944
 10
133.6877075172549
 20
152.0345756272799
 10
133.6877075172549
 20
152.0345756272799
 10
133.011434827367
 20
152.3184516825359
 10
130.930940291334
 20
151.7768823149844
 10
129.739280976855
 20
150.9162968950455
 10
128.66613302525
 20
150.1454562717016
 10
127.9192358313239
 20
149.4857200510519
 10
127.0393578639405
 20
147.8282835196966
 10
126.164647543194
 20
146.1699857139017
 10
125.4742499524985
 20
143.5262176944419
 10
124.2822461282437
 20
139.6959580071401
 10
124.2822461282437
 20
139.6959580071401
 10
120.5753209406769
 20
127.8027915271048
 10
120.5753209406769
 20
127.8027915271048
 10
120.5753209406769
 20
127.8027915271048
 10
118.1964809388044
 20
127.8027915271048
 10
118.1964809388044
 20
127.8027915271048
 10
118.1964809388044
 20
127.8027915271048
 10
126.377554584636
 20
154.8151140277308
 10
126.377554584636
 20
154.8151140277308
 97
        0
 75
     2
 76
     1
 98
        0
  0
SPLINE
  5
6A8
330
6A2
100
AcDbEntity
  8
LOGO
370
     0
100
AcDbSpline
210
0.0
220
0.0
230
1.0
 70
    11
 71
     3
 72
   104
 73
   100
 74
     0
 42
0.000000001
 43
0.0000000001
 40
0.0
 40
0.0
 40
0.0
 40
0.0
 40
1.0
 40
1.0
 40
1.0
 40
2.0
 40
2.0
 40
2.0
 40
3.0
 40
3.0
 40
3.0
 40
4.0
 40
4.0
 40
4.0
 40
5.0
 40
5.0
 40
5.0
 40
6.0
 40
6.0
 40
6.0
 40
7.0
 40
7.0
 40
7.0
 40
8.0
 40
8.0
 40
8.0
 40
9.0
 40
9.0
 40
9.0
 40
10.0
 40
10.0
 40
10.0
 40
11.0
 40
11.0
 40
11.0
 40
12.0
 40
12.0
 40
12.0
 40
13.0
 40
13.0
 40
13.0
 40
14.0
 40
14.0
 40
14.0
 40
15.0
 40
15.0
 40
15.0
 40
16.0
 40
16.0
 40
16.0
 40
17.0
 40
17.0
 40
17.0
 40
18.0
 40
18.0
 40
18.0
 40
19.0
 40
19.0
 40
19.0
 40
20.0
 40
20.0
 40
20.0
 40
21.0
 40
21.0
 40
21.0
 40
22.0
 40
22.0
 40
22.0
 40
23.0
 40
23.0
 40
23.0
 40
24.0
 40
24.0
 40
24.0
 40
25.0
 40
25.0
 40
25.0
 40
26.0
 40
26.0
 40
26.0
 40
27.0
 40
27.0
 40
27.0
 40
28.0
 40
28.0
 40
28.0
 40
29.0
 40
29.0
 40
29.0
 40
30.0
 40
30.0
 40
30.0
 40
31.0
 40
31.0
 40
31.0
 40
32.0
 40
32.0
 40
32.0
 40
33.0
 40
33.0
 40
33.0
 40
33.0
 10
139.8926730891197
 20
154.8294111834263
 30
0.0
 10
139.8926730891197
 20
154.8294111834263
 30
0.0
 10
142.0344903652445
 20
154.8294111834263
 30
0.0
 10
142.0344903652445
 20
154.8294111834263
 30
0.0
 10
142.0344903652445
 20
154.8294111834263
 30
0.0
 10
140.9516961399171
 20
151.3157559800812
 30
0.0
 10
140.9516961399171
 20
151.3157559800812
 30
0.0
 10
141.8928968473923
 20
152.7887075264977
 30
0.0
 10
142.7341897198865
 20
153.4484437471474
 30
0.0
 10
143.8552245303272
 20
154.2926649527359
 30
0.0
 10
144.9803934580775
 20
155.1296514530327
 30
0.0
 10
146.3139908001845
 20
155.3044901642492
 30
0.0
 10
147.241066606852
 20
155.3044901642492
 30
0.0
 10
148.3855280820469
 20
155.3044901642492
 30
0.0
 10
149.4969166187653
 20
155.0752189084569
 30
0.0
 10
150.0784491203092
 20
153.8172414621372
 30
0.0
 10
150.5228667310863
 20
152.833838307127
 30
0.0
 10
150.5414702589793
 20
152.7201500811143
 30
0.0
 10
150.4140016419347
 20
150.7765981809602
 30
0.0
 10
151.5818897818837
 20
152.7699317437168
 30
0.0
 10
152.4424752018226
 20
153.6256940267945
 30
0.0
 10
153.9038856707499
 20
154.4507949398263
 30
0.0
 10
155.4455669174378
 20
155.3044901642492
 30
0.0
 10
156.339225275853
 20
155.3659851592288
 30
0.0
 10
157.3748216618963
 20
155.2147453676543
 30
0.0
 10
158.911679771723
 20
154.9877134254046
 30
0.0
 10
159.8859534176746
 20
154.4390816074493
 30
0.0
 10
160.3965169054045
 20
152.7816450760939
 30
0.0
 10
160.9070803931344
 20
151.1219692311958
 30
0.0
 10
160.6328506116007
 20
150.2303779314354
 30
0.0
 10
159.9992971339115
 20
147.597634224801
 30
0.0
 10
159.7105979417943
 20
146.4014962832367
 30
0.0
 10
159.2947746424084
 20
144.9400858143094
 30
0.0
 10
158.7463150793409
 20
143.2092687007094
 30
0.0
 10
158.7463150793409
 20
143.2092687007094
 30
0.0
 10
153.9038856707499
 20
127.8027915271048
 30
0.0
 10
153.9038856707499
 20
127.8027915271048
 30
0.0
 10
153.9038856707499
 20
127.8027915271048
 30
0.0
 10
151.3882752878863
 20
127.8027915271048
 30
0.0
 10
151.3882752878863
 20
127.8027915271048
 30
0.0
 10
151.3882752878863
 20
127.8027915271048
 30
0.0
 10
155.6250565106276
 20
141.2751908193897
 30
0.0
 10
155.6250565106276
 20
141.2751908193897
 30
0.0
 10
156.5094131050963
 20
144.0936252951782
 30
0.0
 10
157.109893644309
 20
146.1506931664571
 30
0.0
 10
157.4220195011804
 20
147.4415712963654
 30
0.0
 10
157.8095929989511
 20
149.0530157726519
 30
0.0
 10
157.9656559273867
 20
149.5826995529385
 30
0.0
 10
157.7816877071116
 20
150.7529992613181
 30
0.0
 10
157.6111553680925
 20
151.8430281919372
 30
0.0
 10
157.0582171779396
 20
152.5547853887321
 30
0.0
 10
156.1170164704645
 20
152.5547853887321
 30
0.0
 10
155.1096698860365
 20
152.5547853887321
 30
0.0
 10
154.2962823053817
 20
152.4412694176073
 30
0.0
 10
153.156643967048
 20
151.2945686288697
 30
0.0
 10
152.0170056287143
 20
150.1476955852443
 30
0.0
 10
151.076149431015
 20
148.7930831468137
 30
0.0
 10
150.3337308641742
 20
147.2290087646991
 30
0.0
 10
149.5957909244188
 20
145.6683794803425
 30
0.0
 10
148.8530278478023
 20
143.6822806228776
 30
0.0
 10
148.0964843801539
 20
141.2751908193897
 30
0.0
 10
148.0964843801539
 20
141.2751908193897
 30
0.0
 10
143.8552245303272
 20
127.8027915271048
 30
0.0
 10
143.8552245303272
 20
127.8027915271048
 30
0.0
 10
143.8552245303272
 20
127.8027915271048
 30
0.0
 10
141.486030802177
 20
127.8027915271048
 30
0.0
 10
141.486030802177
 20
127.8027915271048
 30
0.0
 10
141.486030802177
 20
127.8027915271048
 30
0.0
 10
146.3329388378533
 20
143.2092687007094
 30
0.0
 10
146.3329388378533
 20
143.2092687007094
 30
0.0
 10
146.8483254624444
 20
144.8408669988801
 30
0.0
 10
147.2314203331297
 20
146.1837661049335
 30
0.0
 10
147.4867020769946
 20
147.224185627838
 30
0.0
 10
147.9169947869641
 20
149.0197705792876
 30
0.0
 10
148.0306830129768
 20
150.2400242051577
 30
0.0
 10
147.709255392159
 20
151.3157559800812
 30
0.0
 10
147.3874832615654
 20
152.3916600098926
 30
0.0
 10
146.8245542879144
 20
152.6683013598569
 30
0.0
 10
145.8840425999909
 20
152.6683013598569
 30
0.0
 10
145.0989048209514
 20
152.6683013598569
 30
0.0
 10
144.3282364524954
 20
152.3275811915945
 30
0.0
 10
143.4531816219731
 20
151.6538923250251
 30
0.0
 10
142.34627171234
 20
150.8074318058939
 30
0.0
 10
141.901854101563
 20
150.1097995099067
 30
0.0
 10
141.3578731655808
 20
149.289521733736
 30
0.0
 10
140.6299240093235
 20
148.192602607601
 30
0.0
 10
140.2850697237515
 20
147.455696197173
 30
0.0
 10
139.6652966370942
 20
145.8385673095858
 30
0.0
 10
139.0506911970739
 20
144.2214384219986
 30
0.0
 10
138.463991048893
 20
142.3252566160164
 30
0.0
 10
138.0571250036777
 20
141.0154304484394
 30
0.0
 10
138.0571250036777
 20
141.0154304484394
 30
0.0
 10
133.9009590684727
 20
127.8027915271048
 30
0.0
 10
133.9009590684727
 20
127.8027915271048
 30
0.0
 10
133.9009590684727
 20
127.8027915271048
 30
0.0
 10
131.4180771143097
 20
127.8027915271048
 30
0.0
 10
131.4180771143097
 20
127.8027915271048
 30
0.0
 10
131.4180771143097
 20
127.8027915271048
 30
0.0
 10
139.8926730891197
 20
154.8294111834263
 30
0.0
 10
139.8926730891197
 20
154.8294111834263
 30
0.0
  0
HATCH
  5
6A9
330
6A2
100
AcDbEntity
  8
LOGO
 62
   250
420
  2234388
100
AcDbHatch
 10
0.0
 20
0.0
 30
0.0
210
0.0
220
0.0
230
1.0
  2
SOLID
 70
     1
 71
     0
 91
        1
 92
        1
 93
        1
 72
     4
 94
        3
 73
     0
 74
     1
 95
      104
 96
      100
 40
0.0
 40
0.0
 40
0.0
 40
0.0
 40
1.0
 40
1.0
 40
1.0
 40
2.0
 40
2.0
 40
2.0
 40
3.0
 40
3.0
 40
3.0
 40
4.0
 40
4.0
 40
4.0
 40
5.0
 40
5.0
 40
5.0
 40
6.0
 40
6.0
 40
6.0
 40
7.0
 40
7.0
 40
7.0
 40
8.0
 40
8.0
 40
8.0
 40
9.0
 40
9.0
 40
9.0
 40
10.0
 40
10.0
 40
10.0
 40
11.0
 40
11.0
 40
11.0
 40
12.0
 40
12.0
 40
12.0
 40
13.0
 40
13.0
 40
13.0
 40
14.0
 40
14.0
 40
14.0
 40
15.0
 40
15.0
 40
15.0
 40
16.0
 40
16.0
 40
16.0
 40
17.0
 40
17.0
 40
17.0
 40
18.0
 40
18.0
 40
18.0
 40
19.0
 40
19.0
 40
19.0
 40
20.0
 40
20.0
 40
20.0
 40
21.0
 40
21.0
 40
21.0
 40
22.0
 40
22.0
 40
22.0
 40
23.0
 40
23.0
 40
23.0
 40
24.0
 40
24.0
 40
24.0
 40
25.0
 40
25.0
 40
25.0
 40
26.0
 40
26.0
 40
26.0
 40
27.0
 40
27.0
 40
27.0
 40
28.0
 40
28.0
 40
28.0
 40
29.0
 40
29.0
 40
29.0
 40
30.0
 40
30.0
 40
30.0
 40
31.0
 40
31.0
 40
31.0
 40
32.0
 40
32.0
 40
32.0
 40
33.0
 40
33.0
 40
33.0
 40
33.0
 10
139.8926730891197
 20
154.8294111834263
 10
139.8926730891197
 20
154.8294111834263
 10
142.0344903652445
 20
154.8294111834263
 10
142.0344903652445
 20
154.8294111834263
 10
142.0344903652445
 20
154.8294111834263
 10
140.9516961399171
 20
151.3157559800812
 10
140.9516961399171
 20
151.3157559800812
 10
141.8928968473923
 20
152.7887075264977
 10
142.7341897198865
 20
153.4484437471474
 10
143.8552245303272
 20
154.2926649527359
 10
144.9803934580775
 20
155.1296514530327
 10
146.3139908001845
 20
155.3044901642492
 10
147.241066606852
 20
155.3044901642492
 10
148.3855280820469
 20
155.3044901642492
 10
149.4969166187653
 20
155.0752189084569
 10
150.0784491203092
 20
153.8172414621372
 10
150.5228667310863
 20
152.833838307127
 10
150.5414702589793
 20
152.7201500811143
 10
150.4140016419347
 20
150.7765981809602
 10
151.5818897818837
 20
152.7699317437168
 10
152.4424752018226
 20
153.6256940267945
 10
153.9038856707499
 20
154.4507949398263
 10
155.4455669174378
 20
155.3044901642492
 10
156.339225275853
 20
155.3659851592288
 10
157.3748216618963
 20
155.2147453676543
 10
158.911679771723
 20
154.9877134254046
 10
159.8859534176746
 20
154.4390816074493
 10
160.3965169054045
 20
152.7816450760939
 10
160.9070803931344
 20
151.1219692311958
 10
160.6328506116007
 20
150.2303779314354
 10
159.9992971339115
 20
147.597634224801
 10
159.7105979417943
 20
146.4014962832367
 10
159.2947746424084
 20
144.9400858143094
 10
158.7463150793409
 20
143.2092687007094
 10
158.7463150793409
 20
143.2092687007094
 10
153.9038856707499
 20
127.8027915271048
 10
153.9038856707499
 20
127.8027915271048
 10
153.9038856707499
 20
127.8027915271048
 10
151.3882752878863
 20
127.8027915271048
 10
151.3882752878863
 20
127.8027915271048
 10
151.3882752878863
 20
127.8027915271048
 10
155.6250565106276
 20
141.2751908193897
 10
155.6250565106276
 20
141.2751908193897
 10
156.5094131050963
 20
144.0936252951782
 10
157.109893644309
 20
146.1506931664571
 10
157.4220195011804
 20
147.4415712963654
 10
157.8095929989511
 20
149.0530157726519
 10
157.9656559273867
 20
149.5826995529385
 10
157.7816877071116
 20
150.7529992613181
 10
157.6111553680925
 20
151.8430281919372
 10
157.0582171779396
 20
152.5547853887321
 10
156.1170164704645
 20
152.5547853887321
 10
155.1096698860365
 20
152.5547853887321
 10
154.2962823053817
 20
152.4412694176073
 10
153.156643967048
 20
151.2945686288697
 10
152.0170056287143
 20
150.1476955852443
 10
151.076149431015
 20
148.7930831468137
 10
150.3337308641742
 20
147.2290087646991
 10
149.5957909244188
 20
145.6683794803425
 10
148.8530278478023
 20
143.6822806228776
 10
148.0964843801539
 20
141.2751908193897
 10
148.0964843801539
 20
141.2751908193897
 10
143.8552245303272
 20
127.8027915271048
 10
143.8552245303272
 20
127.8027915271048
 10
143.8552245303272
 20
127.8027915271048
 10
141.486030802177
 20
127.8027915271048
 10
141.486030802177
 20
127.8027915271048
 10
141.486030802177
 20
127.8027915271048
 10
146.3329388378533
 20
143.2092687007094
 10
146.3329388378533
 20
143.2092687007094
 10
146.8483254624444
 20
144.8408669988801
 10
147.2314203331297
 20
146.1837661049335
 10
147.4867020769946
 20
147.224185627838
 10
147.9169947869641
 20
149.0197705792876
 10
148.0306830129768
 20
150.2400242051577
 10
147.709255392159
 20
151.3157559800812
 10
147.3874832615654
 20
152.3916600098926
 10
146.8245542879144
 20
152.6683013598569
 10
145.8840425999909
 20
152.6683013598569
 10
145.0989048209514
 20
152.6683013598569
 10
144.3282364524954
 20
152.3275811915945
 10
143.4531816219731
 20
151.6538923250251
 10
142.34627171234
 20
150.8074318058939
 10
141.901854101563
 20
150.1097995099067
 10
141.3578731655808
 20
149.289521733736
 10
140.6299240093235
 20
148.192602607601
 10
140.2850697237515
 20
147.455696197173
 10
139.6652966370942
 20
145.8385673095858
 10
139.0506911970739
 20
144.2214384219986
 10
138.463991048893
 20
142.3252566160164
 10
138.0571250036777
 20
141.0154304484394
 10
138.0571250036777
 20
141.0154304484394
 10
133.9009590684727
 20
127.8027915271048
 10
133.9009590684727
 20
127.8027915271048
 10
133.9009590684727
 20
127.8027915271048
 10
131.4180771143097
 20
127.8027915271048
 10
131.4180771143097
 20
127.8027915271048
 10
131.4180771143097
 20
127.8027915271048
 10
139.8926730891197
 20
154.8294111834263
 10
139.8926730891197
 20
154.8294111834263
 97
        0
 75
     2
 76
     1
 98
        0
  0
SPLINE
  5
6AA
330
6A2
100
AcDbEntity
  8
LOGO
370
     0
100
AcDbSpline
210
0.0
220
0.0
230
1.0
 70
    11
 71
     3
 72
    29
 73
    25
 74
     0
 42
0.000000001
 43
0.0000000001
 40
0.0
 40
0.0
 40
0.0
 40
0.0
 40
1.0
 40
1.0
 40
1.0
 40
2.0
 40
2.0
 40
2.0
 40
3.0
 40
3.0
 40
3.0
 40
4.0
 40
4.0
 40
4.0
 40
5.0
 40
5.0
 40
5.0
 40
6.0
 40
6.0
 40
6.0
 40
7.0
 40
7.0
 40
7.0
 40
8.0
 40
8.0
 40
8.0
 40
8.0
 10
101.6420971922469
 20
132.8388354296931
 30
0.0
 10
101.630039350094
 20
134.7164137077823
 30
0.0
 10
102.2236296937908
 20
138.0598810818841
 30
0.0
 10
103.7487744712405
 20
142.5378191476827
 30
0.0
 10
105.819967243327
 20
148.5896501242061
 30
0.0
 10
107.0602024361932
 20
150.8074318058939
 30
0.0
 10
108.1522984254671
 20
151.8833358357054
 30
0.0
 10
109.741177511439
 20
153.4532668840085
 30
0.0
 10
111.8740375333931
 20
153.5290590346837
 30
0.0
 10
112.5075910110823
 20
153.4532668840085
 30
0.0
 10
113.4012493694975
 20
153.3490526768302
 30
0.0
 10
114.6683563248758
 20
152.7580461564518
 30
0.0
 10
114.7493161221879
 20
150.7838328862519
 30
0.0
 10
114.8106388622796
 20
149.0909118479895
 30
0.0
 10
114.3186789024427
 20
145.9191825971221
 30
0.0
 10
112.6164561002338
 20
140.9489400617108
 30
0.0
 10
110.6444821435766
 20
135.1746117095912
 30
0.0
 10
109.4669477299053
 20
132.8960240524753
 30
0.0
 10
108.5212683953448
 20
131.9072809959403
 30
0.0
 10
106.7346406980658
 20
130.0538184021569
 30
0.0
 10
104.8222669326213
 20
130.2336525051225
 30
0.0
 10
104.5408024457958
 20
130.2336525051225
 30
0.0
 10
104.1721769856939
 20
130.2336525051225
 30
0.0
 10
101.6465758193322
 20
130.6305277668397
 30
0.0
 10
101.6420971922469
 20
132.8388354296931
 30
0.0
  0
SPLINE
  5
6AB
330
6A2
100
AcDbEntity
  8
LOGO
370
     0
100
AcDbSpline
210
0.0
220
0.0
230
1.0
 70
    11
 71
     3
 72
    32
 73
    28
 74
     0
 42
0.000000001
 43
0.0000000001
 40
0.0
 40
0.0
 40
0.0
 40
0.0
 40
1.0
 40
1.0
 40
1.0
 40
2.0
 40
2.0
 40
2.0
 40
3.0
 40
3.0
 40
3.0
 40
4.0
 40
4.0
 40
4.0
 40
5.0
 40
5.0
 40
5.0
 40
6.0
 40
6.0
 40
6.0
 40
7.0
 40
7.0
 40
7.0
 40
8.0
 40
8.0
 40
8.0
 40
9.0
 40
9.0
 40
9.0
 40
9.0
 10
106.2595617172429
 20
153.4105476718098
 30
0.0
 10
104.8222669326213
 20
151.5474388043041
 30
0.0
 10
103.7177685914188
 20
149.8758773721411
 30
0.0
 10
101.9232171692965
 20
144.6141795664062
 30
0.0
 10
100.2754269116635
 20
139.7999999594306
 30
0.0
 10
99.22777268346732
 20
136.3052927937542
 30
0.0
 10
99.06964269637689
 20
132.039572749846
 30
0.0
 10
98.94665270641765
 20
128.8673267343149
 30
0.0
 10
100.8807305877373
 20
127.8027915271048
 30
0.0
 10
103.7129454545577
 20
127.8027915271048
 30
0.0
 10
104.9352661390825
 20
127.8027915271048
 30
0.0
 10
108.0151835347002
 20
127.8827177950895
 30
0.0
 10
110.2045431598849
 20
130.5926316915021
 30
0.0
 10
111.7417457794874
 20
132.4984597712065
 30
0.0
 10
113.155269389579
 20
134.475256864725
 30
0.0
 10
115.0562743324223
 20
140.9489400617108
 30
0.0
 10
116.6361961642235
 20
146.3680788349845
 30
0.0
 10
117.7282921534974
 20
149.8639917848761
 30
0.0
 10
117.6480213757369
 20
151.8595646611754
 30
0.0
 10
117.6480213757369
 20
151.8595646611754
 30
0.0
 10
117.6480213757369
 20
151.8595646611754
 30
0.0
 10
117.6480213757369
 20
151.8595646611754
 30
0.0
 10
117.13229024137
 20
155.18150017429
 30
0.0
 10
114.7162431837115
 20
155.886194920681
 30
0.0
 10
113.3351034925446
 20
155.886194920681
 30
0.0
 10
111.9829026225447
 20
155.886194920681
 30
0.0
 10
108.3414342923792
 20
156.1251124501957
 30
0.0
 10
106.2595617172429
 20
153.4105476718098
 30
0.0
  0
HATCH
  5
6AC
330
6A2
100
AcDbEntity
  8
LOGO
 62
   250
420
  2234388
100
AcDbHatch
 10
0.0
 20
0.0
 30
0.0
210
0.0
220
0.0
230
1.0
  2
SOLID
 70
     1
 71
     0
 91
        2
 92
        1
 93
        1
 72
     4
 94
        3
 73
     0
 74
     1
 95
       29
 96
       25
 40
0.0
 40
0.0
 40
0.0
 40
0.0
 40
1.0
 40
1.0
 40
1.0
 40
2.0
 40
2.0
 40
2.0
 40
3.0
 40
3.0
 40
3.0
 40
4.0
 40
4.0
 40
4.0
 40
5.0
 40
5.0
 40
5.0
 40
6.0
 40
6.0
 40
6.0
 40
7.0
 40
7.0
 40
7.0
 40
8.0
 40
8.0
 40
8.0
 40
8.0
 10
101.6420971922469
 20
132.8388354296931
 10
101.630039350094
 20
134.7164137077823
 10
102.2236296937908
 20
138.0598810818841
 10
103.7487744712405
 20
142.5378191476827
 10
105.819967243327
 20
148.5896501242061
 10
107.0602024361932
 20
150.8074318058939
 10
108.1522984254671
 20
151.8833358357054
 10
109.741177511439
 20
153.4532668840085
 10
111.8740375333931
 20
153.5290590346837
 10
112.5075910110823
 20
153.4532668840085
 10
113.4012493694975
 20
153.3490526768302
 10
114.6683563248758
 20
152.7580461564518
 10
114.7493161221879
 20
150.7838328862519
 10
114.8106388622796
 20
149.0909118479895
 10
114.3186789024427
 20
145.9191825971221
 10
112.6164561002338
 20
140.9489400617108
 10
110.6444821435766
 20
135.1746117095912
 10
109.4669477299053
 20
132.8960240524753
 10
108.5212683953448
 20
131.9072809959403
 10
106.7346406980658
 20
130.0538184021569
 10
104.8222669326213
 20
130.2336525051225
 10
104.5408024457958
 20
130.2336525051225
 10
104.1721769856939
 20
130.2336525051225
 10
101.6465758193322
 20
130.6305277668397
 10
101.6420971922469
 20
132.8388354296931
 97
        0
 92
        1
 93
        1
 72
     4
 94
        3
 73
     0
 74
     1
 95
       32
 96
       28
 40
0.0
 40
0.0
 40
0.0
 40
0.0
 40
1.0
 40
1.0
 40
1.0
 40
2.0
 40
2.0
 40
2.0
 40
3.0
 40
3.0
 40
3.0
 40
4.0
 40
4.0
 40
4.0
 40
5.0
 40
5.0
 40
5.0
 40
6.0
 40
6.0
 40
6.0
 40
7.0
 40
7.0
 40
7.0
 40
8.0
 40
8.0
 40
8.0
 40
9.0
 40
9.0
 40
9.0
 40
9.0
 10
106.2595617172429
 20
153.4105476718098
 10
104.8222669326213
 20
151.5474388043041
 10
103.7177685914188
 20
149.8758773721411
 10
101.9232171692965
 20
144.6141795664062
 10
100.2754269116635
 20
139.7999999594306
 10
99.22777268346732
 20
136.3052927937542
 10
99.06964269637689
 20
132.039572749846
 10
98.94665270641765
 20
128.8673267343149
 10
100.8807305877373
 20
127.8027915271048
 10
103.7129454545577
 20
127.8027915271048
 10
104.9352661390825
 20
127.8027915271048
 10
108.0151835347002
 20
127.8827177950895
 10
110.2045431598849
 20
130.5926316915021
 10
111.7417457794874
 20
132.4984597712065
 10
113.155269389579
 20
134.475256864725
 10
115.0562743324223
 20
140.9489400617108
 10
116.6361961642235
 20
146.3680788349845
 10
117.7282921534974
 20
149.8639917848761
 10
117.6480213757369
 20
151.8595646611754
 10
117.6480213757369
 20
151.8595646611754
 10
117.6480213757369
 20
151.8595646611754
 10
117.6480213757369
 20
151.8595646611754
 10
117.13229024137
 20
155.18150017429
 10
114.7162431837115
 20
155.886194920681
 10
113.3351034925446
 20
155.886194920681
 10
111.9829026225447
 20
155.886194920681
 10
108.3414342923792
 20
156.1251124501957
 10
106.2595617172429
 20
153.4105476718098
 97
        0
 75
     2
 76
     1
 98
        0
  0
ENDBLK
  5
6AD
330
6A2
100
AcDbEntity
  8
0
100
AcDbBlockEnd
  0
BLOCK
  5
199B
330
199A
100
AcDbEntity
  8
0
100
AcDbBlockBegin
  2
SEANNOT_GROUP
 70
     0
 10
0.0
 20
0.0
 30
0.0
  3
SEANNOT_GROUP
  1
SEANNOT_GROUP
  0
ENDBLK
  5
199C
330
199A
100
AcDbEntity
  8
0
100
AcDbBlockEnd
  0
BLOCK
  5
1F30
330
1F2F
100
AcDbEntity
  8
0
100
AcDbBlockBegin
  2
SEANNOT_GROUP1
 70
     0
 10
0.0
 20
0.0
 30
0.0
  3
SEANNOT_GROUP1
  1
SEANNOT_GROUP1
  0
ENDBLK
  5
1F31
330
1F2F
100
AcDbEntity
  8
0
100
AcDbBlockEnd
  0
BLOCK
  5
3B88
330
3B87
100
AcDbEntity
  8
0
100
AcDbBlockBegin
  2
*D169
 70
     1
 10
0.0
 20
0.0
 30
0.0
  3
*D169
  1

  0
LINE
  5
3B8A
330
3B87
100
AcDbEntity
  8
DIM
 62
     0
370
    -2
100
AcDbLine
 10
250.0826530704317
 20
2249.059360311827
 30
0.0
 11
250.0826530704317
 21
2392.89522661295
 31
0.0
  0
LINE
  5
3B8B
330
3B87
100
AcDbEntity
  8
DIM
 62
     0
370
    -2
100
AcDbLine
 10
850.0826530704317
 20
2249.059360311827
 30
0.0
 11
850.0826530704317
 21
2392.89522661295
 31
0.0
  0
LINE
  5
3B8C
330
3B87
100
AcDbEntity
  8
DIM
 62
     0
370
    -2
100
AcDbLine
 10
260.0826530704317
 20
2392.89522661295
 30
0.0
 11
840.0826530704317
 21
2392.89522661295
 31
0.0
  0
INSERT
  5
3B8D
330
3B87
100
AcDbEntity
  8
DIM
 62
     0
370
    -2
100
AcDbBlockReference
  2
_DOT
 10
250.0826530704317
 20
2392.89522661295
 30
0.0
 41
10.0
 42
10.0
 43
10.0
 50
180.0
  0
INSERT
  5
3B8E
330
3B87
100
AcDbEntity
  8
DIM
 62
     0
370
    -2
100
AcDbBlockReference
  2
_DOT
 10
850.0826530704317
 20
2392.89522661295
 30
0.0
 41
10.0
 42
10.0
 43
10.0
  0
MTEXT
  5
3B8F
330
3B87
100
AcDbEntity
  8
DIM
 62
     0
100
AcDbMText
 10
550.0826530704317
 20
2424.89522661295
 30
0.0
 40
24.0
 41
0.0
 46
0.0
 71
     5
 72
     1
  1
\A1;600
  7
ＭＳ ゴシック
 73
     1
 44
1.0
  0
POINT
  5
3B90
330
3B87
100
AcDbEntity
  8
Defpoints
 62
     0
100
AcDbPoint
 10
250.0826530704317
 20
2219.059360311827
 30
0.0
  0
POINT
  5
3B91
330
3B87
100
AcDbEntity
  8
Defpoints
 62
     0
100
AcDbPoint
 10
850.0826530704317
 20
2219.059360311827
 30
0.0
  0
POINT
  5
3B92
330
3B87
100
AcDbEntity
  8
Defpoints
 62
     0
100
AcDbPoint
 10
850.0826530704317
 20
2392.89522661295
 30
0.0
  0
ENDBLK
  5
3B89
330
3B87
100
AcDbEntity
  8
0
100
AcDbBlockEnd
  0
BLOCK
  5
3B95
330
3B94
100
AcDbEntity
  8
0
100
AcDbBlockBegin
  2
*D170
 70
     1
 10
0.0
 20
0.0
 30
0.0
  3
*D170
  1

  0
LINE
  5
3B97
330
3B94
100
AcDbEntity
  8
DIM
 62
     0
370
    -2
100
AcDbLine
 10
722.9122695556371
 20
2305.759040303476
 30
0.0
 11
979.3786171701117
 21
2305.759040303476
 31
0.0
  0
LINE
  5
3B98
330
3B94
100
AcDbEntity
  8
DIM
 62
     0
370
    -2
100
AcDbLine
 10
722.9122695556371
 20
1855.759040303476
 30
0.0
 11
979.3786171701117
 21
1855.759040303476
 31
0.0
  0
LINE
  5
3B99
330
3B94
100
AcDbEntity
  8
DIM
 62
     0
370
    -2
100
AcDbLine
 10
979.3786171701117
 20
2295.759040303476
 30
0.0
 11
979.3786171701117
 21
1865.759040303476
 31
0.0
  0
INSERT
  5
3B9A
330
3B94
100
AcDbEntity
  8
DIM
 62
     0
370
    -2
100
AcDbBlockReference
  2
_DOT
 10
979.3786171701117
 20
2305.759040303476
 30
0.0
 41
10.0
 42
10.0
 43
10.0
 50
90.0
  0
INSERT
  5
3B9B
330
3B94
100
AcDbEntity
  8
DIM
 62
     0
370
    -2
100
AcDbBlockReference
  2
_DOT
 10
979.3786171701117
 20
1855.759040303476
 30
0.0
 41
10.0
 42
10.0
 43
10.0
 50
270.0
  0
MTEXT
  5
3B9C
330
3B94
100
AcDbEntity
  8
DIM
 62
     0
100
AcDbMText
 10
947.3786171701117
 20
2080.759040303476
 30
0.0
 40
24.0
 41
0.0
 46
0.0
 71
     5
 72
     1
  1
\A1;450
  7
ＭＳ ゴシック
 11
0.0
 21
1.0
 31
0.0
 73
     1
 44
1.0
  0
POINT
  5
3B9D
330
3B94
100
AcDbEntity
  8
Defpoints
 62
     0
100
AcDbPoint
 10
692.9122695556371
 20
2305.759040303476
 30
0.0
  0
POINT
  5
3B9E
330
3B94
100
AcDbEntity
  8
Defpoints
 62
     0
100
AcDbPoint
 10
692.9122695556371
 20
1855.759040303476
 30
0.0
  0
POINT
  5
3B9F
330
3B94
100
AcDbEntity
  8
Defpoints
 62
     0
100
AcDbPoint
 10
979.3786171701117
 20
1855.759040303476
 30
0.0
  0
ENDBLK
  5
3B96
330
3B94
100
AcDbEntity
  8
0
100
AcDbBlockEnd
  0
BLOCK
  5
3BA5
330
3BA4
100
AcDbEntity
  8
0
100
AcDbBlockBegin
  2
*D171
 70
     1
 10
0.0
 20
0.0
 30
0.0
  3
*D171
  1

  0
LINE
  5
3BA7
330
3BA4
100
AcDbEntity
  8
DIM
 62
     0
370
    -2
100
AcDbLine
 10
1209.734026102398
 20
2254.220298867465
 30
0.0
 11
1209.734026102398
 21
2392.89522661295
 31
0.0
  0
LINE
  5
3BA8
330
3BA4
100
AcDbEntity
  8
DIM
 62
     0
370
    -2
100
AcDbLine
 10
1764.734026102398
 20
2254.220298867465
 30
0.0
 11
1764.734026102398
 21
2392.89522661295
 31
0.0
  0
LINE
  5
3BA9
330
3BA4
100
AcDbEntity
  8
DIM
 62
     0
370
    -2
100
AcDbLine
 10
1219.734026102398
 20
2392.89522661295
 30
0.0
 11
1754.734026102398
 21
2392.89522661295
 31
0.0
  0
INSERT
  5
3BAA
330
3BA4
100
AcDbEntity
  8
DIM
 62
     0
370
    -2
100
AcDbBlockReference
  2
_DOT
 10
1209.734026102398
 20
2392.89522661295
 30
0.0
 41
10.0
 42
10.0
 43
10.0
 50
180.0
  0
INSERT
  5
3BAB
330
3BA4
100
AcDbEntity
  8
DIM
 62
     0
370
    -2
100
AcDbBlockReference
  2
_DOT
 10
1764.734026102398
 20
2392.89522661295
 30
0.0
 41
10.0
 42
10.0
 43
10.0
  0
MTEXT
  5
3BAC
330
3BA4
100
AcDbEntity
  8
DIM
 62
     0
100
AcDbMText
 10
1487.234026102398
 20
2424.89522661295
 30
0.0
 40
24.0
 41
0.0
 46
0.0
 71
     5
 72
     1
  1
\A1;555
  7
ＭＳ ゴシック
 73
     1
 44
1.0
  0
POINT
  5
3BAD
330
3BA4
100
AcDbEntity
  8
Defpoints
 62
     0
100
AcDbPoint
 10
1209.734026102398
 20
2224.220298867465
 30
0.0
  0
POINT
  5
3BAE
330
3BA4
100
AcDbEntity
  8
Defpoints
 62
     0
100
AcDbPoint
 10
1764.734026102398
 20
2224.220298867465
 30
0.0
  0
POINT
  5
3BAF
330
3BA4
100
AcDbEntity
  8
Defpoints
 62
     0
100
AcDbPoint
 10
1764.734026102398
 20
2392.89522661295
 30
0.0
  0
ENDBLK
  5
3BA6
330
3BA4
100
AcDbEntity
  8
0
100
AcDbBlockEnd
  0
BLOCK
  5
3BB3
330
3BB2
100
AcDbEntity
  8
0
100
AcDbBlockBegin
  2
*D172
 70
     1
 10
0.0
 20
0.0
 30
0.0
  3
*D172
  1

  0
LINE
  5
3BB5
330
3BB2
100
AcDbEntity
  8
DIM
 62
     0
370
    -2
100
AcDbLine
 10
1597.653877096136
 20
2270.881251639619
 30
0.0
 11
1859.271442725834
 21
2270.881251639619
 31
0.0
  0
LINE
  5
3BB6
330
3BB2
100
AcDbEntity
  8
DIM
 62
     0
370
    -2
100
AcDbLine
 10
1590.798000547071
 20
1890.526880672741
 30
0.0
 11
1859.271442725834
 21
1890.526880672741
 31
0.0
  0
LINE
  5
3BB7
330
3BB2
100
AcDbEntity
  8
DIM
 62
     0
370
    -2
100
AcDbLine
 10
1859.271442725834
 20
2260.881251639619
 30
0.0
 11
1859.271442725834
 21
1900.526880672741
 31
0.0
  0
INSERT
  5
3BB8
330
3BB2
100
AcDbEntity
  8
DIM
 62
     0
370
    -2
100
AcDbBlockReference
  2
_DOT
 10
1859.271442725834
 20
2270.881251639619
 30
0.0
 41
10.0
 42
10.0
 43
10.0
 50
90.0
  0
INSERT
  5
3BB9
330
3BB2
100
AcDbEntity
  8
DIM
 62
     0
370
    -2
100
AcDbBlockReference
  2
_DOT
 10
1859.271442725834
 20
1890.526880672741
 30
0.0
 41
10.0
 42
10.0
 43
10.0
 50
270.0
  0
MTEXT
  5
3BBA
330
3BB2
100
AcDbEntity
  8
DIM
 62
     0
100
AcDbMText
 10
1827.271442725834
 20
2080.70406615618
 30
0.0
 40
24.0
 41
0.0
 46
0.0
 71
     5
 72
     1
  1
\A1;405
  7
ＭＳ ゴシック
 11
0.0
 21
1.0
 31
0.0
 73
     1
 44
1.0
  0
POINT
  5
3BBB
330
3BB2
100
AcDbEntity
  8
Defpoints
 62
     0
100
AcDbPoint
 10
1567.653877096136
 20
2270.881251639619
 30
0.0
  0
POINT
  5
3BBC
330
3BB2
100
AcDbEntity
  8
Defpoints
 62
     0
100
AcDbPoint
 10
1560.798000547071
 20
1890.526880672741
 30
0.0
  0
POINT
  5
3BBD
330
3BB2
100
AcDbEntity
  8
Defpoints
 62
     0
100
AcDbPoint
 10
1859.271442725834
 20
1890.526880672741
 30
0.0
  0
ENDBLK
  5
3BB4
330
3BB2
100
AcDbEntity
  8
0
100
AcDbBlockEnd
  0
BLOCK
  5
3D03
330
3D02
100
AcDbEntity
  8
0
100
AcDbBlockBegin
  2
*D173
 70
     1
 10
0.0
 20
0.0
 30
0.0
  3
*D173
  1

  0
LINE
  5
3D05
330
3D02
100
AcDbEntity
  8
DIM
 62
     0
370
    -2
100
AcDbLine
 10
886.4219662853992
 20
1153.47404187381
 30
0.0
 11
979.3786171701117
 21
1153.47404187381
 31
0.0
  0
LINE
  5
3D06
330
3D02
100
AcDbEntity
  8
DIM
 62
     0
370
    -2
100
AcDbLine
 10
806.3183717998489
 20
993.4740418738104
 30
0.0
 11
979.3786171701117
 21
993.4740418738104
 31
0.0
  0
LINE
  5
3D07
330
3D02
100
AcDbEntity
  8
DIM
 62
     0
370
    -2
100
AcDbLine
 10
979.3786171701117
 20
1143.47404187381
 30
0.0
 11
979.3786171701117
 21
1003.47404187381
 31
0.0
  0
INSERT
  5
3D08
330
3D02
100
AcDbEntity
  8
DIM
 62
     0
370
    -2
100
AcDbBlockReference
  2
_DOT
 10
979.3786171701117
 20
1153.47404187381
 30
0.0
 41
10.0
 42
10.0
 43
10.0
 50
90.0
  0
INSERT
  5
3D09
330
3D02
100
AcDbEntity
  8
DIM
 62
     0
370
    -2
100
AcDbBlockReference
  2
_DOT
 10
979.3786171701117
 20
993.4740418738104
 30
0.0
 41
10.0
 42
10.0
 43
10.0
 50
270.0
  0
MTEXT
  5
3D0A
330
3D02
100
AcDbEntity
  8
DIM
 62
     0
100
AcDbMText
 10
947.3786171701117
 20
1073.47404187381
 30
0.0
 40
24.0
 41
0.0
 46
0.0
 71
     5
 72
     1
  1
\A1;160
  7
ＭＳ ゴシック
 11
0.0
 21
1.0
 31
0.0
 73
     1
 44
1.0
  0
POINT
  5
3D0B
330
3D02
100
AcDbEntity
  8
Defpoints
 62
     0
100
AcDbPoint
 10
856.4219662853992
 20
1153.47404187381
 30
0.0
  0
POINT
  5
3D0C
330
3D02
100
AcDbEntity
  8
Defpoints
 62
     0
100
AcDbPoint
 10
776.3183717998489
 20
993.4740418738104
 30
0.0
  0
POINT
  5
3D0D
330
3D02
100
AcDbEntity
  8
Defpoints
 62
     0
100
AcDbPoint
 10
979.3786171701117
 20
993.4740418738104
 30
0.0
  0
ENDBLK
  5
3D04
330
3D02
100
AcDbEntity
  8
0
100
AcDbBlockEnd
  0
BLOCK
  5
3D13
330
3D12
100
AcDbEntity
  8
0
100
AcDbBlockBegin
  2
*D174
 70
     1
 10
0.0
 20
0.0
 30
0.0
  3
*D174
  1

  0
LINE
  5
3D15
330
3D12
100
AcDbEntity
  8
DIM
 62
     0
370
    -2
100
AcDbLine
 10
766.8545542436195
 20
957.573151659668
 30
0.0
 11
766.8545542436195
 21
826.3787154352202
 31
0.0
  0
LINE
  5
3D16
330
3D12
100
AcDbEntity
  8
DIM
 62
     0
370
    -2
100
AcDbLine
 10
356.8545542436195
 20
957.573151659668
 30
0.0
 11
356.8545542436195
 21
826.3787154352202
 31
0.0
  0
LINE
  5
3D17
330
3D12
100
AcDbEntity
  8
DIM
 62
     0
370
    -2
100
AcDbLine
 10
756.8545542436195
 20
826.3787154352202
 30
0.0
 11
366.8545542436195
 21
826.3787154352202
 31
0.0
  0
INSERT
  5
3D18
330
3D12
100
AcDbEntity
  8
DIM
 62
     0
370
    -2
100
AcDbBlockReference
  2
_DOT
 10
766.8545542436195
 20
826.3787154352202
 30
0.0
 41
10.0
 42
10.0
 43
10.0
  0
INSERT
  5
3D19
330
3D12
100
AcDbEntity
  8
DIM
 62
     0
370
    -2
100
AcDbBlockReference
  2
_DOT
 10
356.8545542436195
 20
826.3787154352202
 30
0.0
 41
10.0
 42
10.0
 43
10.0
 50
180.0
  0
MTEXT
  5
3D1A
330
3D12
100
AcDbEntity
  8
DIM
 62
     0
100
AcDbMText
 10
561.8545542436195
 20
858.3787154352202
 30
0.0
 40
24.0
 41
0.0
 46
0.0
 71
     5
 72
     1
  1
\A1;410
  7
ＭＳ ゴシック
 73
     1
 44
1.0
  0
POINT
  5
3D1B
330
3D12
100
AcDbEntity
  8
Defpoints
 62
     0
100
AcDbPoint
 10
766.8545542436195
 20
987.573151659668
 30
0.0
  0
POINT
  5
3D1C
330
3D12
100
AcDbEntity
  8
Defpoints
 62
     0
100
AcDbPoint
 10
356.8545542436195
 20
987.573151659668
 30
0.0
  0
POINT
  5
3D1D
330
3D12
100
AcDbEntity
  8
Defpoints
 62
     0
100
AcDbPoint
 10
356.8545542436195
 20
826.3787154352202
 30
0.0
  0
ENDBLK
  5
3D14
330
3D12
100
AcDbEntity
  8
0
100
AcDbBlockEnd
  0
BLOCK
  5
3D24
330
3D23
100
AcDbEntity
  8
0
100
AcDbBlockBegin
  2
*D175
 70
     1
 10
0.0
 20
0.0
 30
0.0
  3
*D175
  1

  0
LINE
  5
3D26
330
3D23
100
AcDbEntity
  8
DIM
 62
     0
370
    -2
100
AcDbLine
 10
1245.418062327796
 20
1153.480911630851
 30
0.0
 11
1181.846766211003
 21
1153.480911630851
 31
0.0
  0
LINE
  5
3D27
330
3D23
100
AcDbEntity
  8
DIM
 62
     0
370
    -2
100
AcDbLine
 10
1245.418062327796
 20
1138.480911630851
 30
0.0
 11
1181.846766211003
 21
1138.480911630851
 31
0.0
  0
LINE
  5
3D28
330
3D23
100
AcDbEntity
  8
DIM
 62
     0
370
    -2
100
AcDbLine
 10
1181.846766211003
 20
1143.480911630851
 30
0.0
 11
1181.846766211003
 21
1148.480911630851
 31
0.0
  0
INSERT
  5
3D29
330
3D23
100
AcDbEntity
  8
DIM
 62
     0
370
    -2
100
AcDbBlockReference
  2
_DOT
 10
1181.846766211003
 20
1153.480911630851
 30
0.0
 41
10.0
 42
10.0
 43
10.0
 50
90.0
  0
INSERT
  5
3D2A
330
3D23
100
AcDbEntity
  8
DIM
 62
     0
370
    -2
100
AcDbBlockReference
  2
_DOT
 10
1181.846766211003
 20
1138.480911630851
 30
0.0
 41
10.0
 42
10.0
 43
10.0
 50
270.0
  0
MTEXT
  5
3D2B
330
3D23
100
AcDbEntity
  8
DIM
 62
     0
100
AcDbMText
 10
1149.846766211003
 20
1145.980911630851
 30
0.0
 40
24.0
 41
0.0
 46
0.0
 71
     5
 72
     1
  1
\A1;15
  7
ＭＳ ゴシック
 11
0.0
 21
1.0
 31
0.0
 73
     1
 44
1.0
  0
POINT
  5
3D2C
330
3D23
100
AcDbEntity
  8
Defpoints
 62
     0
100
AcDbPoint
 10
1275.418062327796
 20
1153.480911630851
 30
0.0
  0
POINT
  5
3D2D
330
3D23
100
AcDbEntity
  8
Defpoints
 62
     0
100
AcDbPoint
 10
1275.418062327796
 20
1138.480911630851
 30
0.0
  0
POINT
  5
3D2E
330
3D23
100
AcDbEntity
  8
Defpoints
 62
     0
100
AcDbPoint
 10
1181.846766211003
 20
1138.480911630851
 30
0.0
  0
ENDBLK
  5
3D25
330
3D23
100
AcDbEntity
  8
0
100
AcDbBlockEnd
  0
BLOCK
  5
3D35
330
3D34
100
AcDbEntity
  8
0
100
AcDbBlockBegin
  2
*D176
 70
     1
 10
0.0
 20
0.0
 30
0.0
  3
*D176
  1

  0
LINE
  5
3D37
330
3D34
100
AcDbEntity
  8
DIM
 62
     0
370
    -2
100
AcDbLine
 10
1215.418062327796
 20
1138.480911630851
 30
0.0
 11
1181.846766211003
 21
1138.480911630851
 31
0.0
  0
LINE
  5
3D38
330
3D34
100
AcDbEntity
  8
DIM
 62
     0
370
    -2
100
AcDbLine
 10
1329.087021986293
 20
993.4809116308509
 30
0.0
 11
1181.846766211003
 21
993.4809116308509
 31
0.0
  0
LINE
  5
3D39
330
3D34
100
AcDbEntity
  8
DIM
 62
     0
370
    -2
100
AcDbLine
 10
1181.846766211003
 20
1128.480911630851
 30
0.0
 11
1181.846766211003
 21
1003.480911630851
 31
0.0
  0
INSERT
  5
3D3A
330
3D34
100
AcDbEntity
  8
DIM
 62
     0
370
    -2
100
AcDbBlockReference
  2
_DOT
 10
1181.846766211003
 20
1138.480911630851
 30
0.0
 41
10.0
 42
10.0
 43
10.0
 50
90.0
  0
INSERT
  5
3D3B
330
3D34
100
AcDbEntity
  8
DIM
 62
     0
370
    -2
100
AcDbBlockReference
  2
_DOT
 10
1181.846766211003
 20
993.4809116308509
 30
0.0
 41
10.0
 42
10.0
 43
10.0
 50
270.0
  0
MTEXT
  5
3D3C
330
3D34
100
AcDbEntity
  8
DIM
 62
     0
100
AcDbMText
 10
1149.846766211003
 20
1065.980911630851
 30
0.0
 40
24.0
 41
0.0
 46
0.0
 71
     5
 72
     1
  1
\A1;145
  7
ＭＳ ゴシック
 11
0.0
 21
1.0
 31
0.0
 73
     1
 44
1.0
  0
POINT
  5
3D3D
330
3D34
100
AcDbEntity
  8
Defpoints
 62
     0
100
AcDbPoint
 10
1245.418062327796
 20
1138.480911630851
 30
0.0
  0
POINT
  5
3D3E
330
3D34
100
AcDbEntity
  8
Defpoints
 62
     0
100
AcDbPoint
 10
1359.087021986293
 20
993.4809116308509
 30
0.0
  0
POINT
  5
3D3F
330
3D34
100
AcDbEntity
  8
Defpoints
 62
     0
100
AcDbPoint
 10
1181.846766211003
 20
993.4809116308509
 30
0.0
  0
ENDBLK
  5
3D36
330
3D34
100
AcDbEntity
  8
0
100
AcDbBlockEnd
  0
BLOCK
  5
3D42
330
3D41
100
AcDbEntity
  8
0
100
AcDbBlockBegin
  2
*D177
 70
     1
 10
0.0
 20
0.0
 30
0.0
  3
*D177
  1

  0
LINE
  5
3D44
330
3D41
100
AcDbEntity
  8
DIM
 62
     0
370
    -2
100
AcDbLine
 10
1721.443907889107
 20
1179.259445929939
 30
0.0
 11
1721.443907889107
 21
1216.040705831441
 31
0.0
  0
LINE
  5
3D45
330
3D41
100
AcDbEntity
  8
DIM
 62
     0
370
    -2
100
AcDbLine
 10
1666.443907889107
 20
1179.259445929939
 30
0.0
 11
1666.443907889107
 21
1216.040705831441
 31
0.0
  0
LINE
  5
3D46
330
3D41
100
AcDbEntity
  8
DIM
 62
     0
370
    -2
100
AcDbLine
 10
1711.443907889107
 20
1216.040705831441
 30
0.0
 11
1676.443907889107
 21
1216.040705831441
 31
0.0
  0
INSERT
  5
3D47
330
3D41
100
AcDbEntity
  8
DIM
 62
     0
370
    -2
100
AcDbBlockReference
  2
_DOT
 10
1721.443907889107
 20
1216.040705831441
 30
0.0
 41
10.0
 42
10.0
 43
10.0
  0
INSERT
  5
3D48
330
3D41
100
AcDbEntity
  8
DIM
 62
     0
370
    -2
100
AcDbBlockReference
  2
_DOT
 10
1666.443907889107
 20
1216.040705831441
 30
0.0
 41
10.0
 42
10.0
 43
10.0
 50
180.0
  0
MTEXT
  5
3D49
330
3D41
100
AcDbEntity
  8
DIM
 62
     0
100
AcDbMText
 10
1693.943907889107
 20
1248.040705831441
 30
0.0
 40
24.0
 41
0.0
 46
0.0
 71
     5
 72
     1
  1
\A1;55
  7
ＭＳ ゴシック
 73
     1
 44
1.0
  0
POINT
  5
3D4A
330
3D41
100
AcDbEntity
  8
Defpoints
 62
     0
100
AcDbPoint
 10
1721.443907889107
 20
1149.259445929939
 30
0.0
  0
POINT
  5
3D4B
330
3D41
100
AcDbEntity
  8
Defpoints
 62
     0
100
AcDbPoint
 10
1666.443907889107
 20
1149.259445929939
 30
0.0
  0
POINT
  5
3D4C
330
3D41
100
AcDbEntity
  8
Defpoints
 62
     0
100
AcDbPoint
 10
1666.443907889107
 20
1216.040705831441
 30
0.0
  0
ENDBLK
  5
3D43
330
3D41
100
AcDbEntity
  8
0
100
AcDbBlockEnd
  0
BLOCK
  5
3D50
330
3D4F
100
AcDbEntity
  8
0
100
AcDbBlockBegin
  2
*D178
 70
     1
 10
0.0
 20
0.0
 30
0.0
  3
*D178
  1

  0
LINE
  5
3D52
330
3D4F
100
AcDbEntity
  8
DIM
 62
     0
370
    -2
100
AcDbLine
 10
1721.258424449033
 20
1115.281856603937
 30
0.0
 11
1721.258424449033
 21
785.9973608592014
 31
0.0
  0
LINE
  5
3D53
330
3D4F
100
AcDbEntity
  8
DIM
 62
     0
370
    -2
100
AcDbLine
 10
1496.579825949579
 20
853.4422195432419
 30
0.0
 11
1496.579825949579
 21
785.9973608592014
 31
0.0
  0
LINE
  5
3D54
330
3D4F
100
AcDbEntity
  8
DIM
 62
     0
370
    -2
100
AcDbLine
 10
1711.258424449033
 20
785.9973608592014
 30
0.0
 11
1506.579825949579
 21
785.9973608592014
 31
0.0
  0
INSERT
  5
3D55
330
3D4F
100
AcDbEntity
  8
DIM
 62
     0
370
    -2
100
AcDbBlockReference
  2
_DOT
 10
1721.258424449033
 20
785.9973608592014
 30
0.0
 41
10.0
 42
10.0
 43
10.0
  0
INSERT
  5
3D56
330
3D4F
100
AcDbEntity
  8
DIM
 62
     0
370
    -2
100
AcDbBlockReference
  2
_DOT
 10
1496.579825949579
 20
785.9973608592014
 30
0.0
 41
10.0
 42
10.0
 43
10.0
 50
180.0
  0
MTEXT
  5
3D57
330
3D4F
100
AcDbEntity
  8
DIM
 62
     0
100
AcDbMText
 10
1608.919125199306
 20
817.9973608592014
 30
0.0
 40
24.0
 41
0.0
 46
0.0
 71
     5
 72
     1
  1
\A1;225
  7
ＭＳ ゴシック
 73
     1
 44
1.0
  0
POINT
  5
3D58
330
3D4F
100
AcDbEntity
  8
Defpoints
 62
     0
100
AcDbPoint
 10
1721.258424449033
 20
1145.281856603937
 30
0.0
  0
POINT
  5
3D59
330
3D4F
100
AcDbEntity
  8
Defpoints
 62
     0
100
AcDbPoint
 10
1496.579825949579
 20
883.4422195432419
 30
0.0
  0
POINT
  5
3D5A
330
3D4F
100
AcDbEntity
  8
Defpoints
 62
     0
100
AcDbPoint
 10
1496.579825949579
 20
785.9973608592014
 30
0.0
  0
ENDBLK
  5
3D51
330
3D4F
100
AcDbEntity
  8
0
100
AcDbBlockEnd
  0
BLOCK
  5
3D5D
330
3D5C
100
AcDbEntity
  8
0
100
AcDbBlockBegin
  2
*D179
 70
     1
 10
0.0
 20
0.0
 30
0.0
  3
*D179
  1

  0
LINE
  5
3D5F
330
3D5C
100
AcDbEntity
  8
DIM
 62
     0
370
    -2
100
AcDbLine
 10
1627.579825949579
 20
957.7246724388827
 30
0.0
 11
1627.579825949579
 21
869.4105255394893
 31
0.0
  0
LINE
  5
3D60
330
3D5C
100
AcDbEntity
  8
DIM
 62
     0
370
    -2
100
AcDbLine
 10
1367.579825949579
 20
957.9857313631032
 30
0.0
 11
1367.579825949579
 21
869.4105255394893
 31
0.0
  0
LINE
  5
3D61
330
3D5C
100
AcDbEntity
  8
DIM
 62
     0
370
    -2
100
AcDbLine
 10
1617.579825949579
 20
869.4105255394893
 30
0.0
 11
1377.579825949579
 21
869.4105255394893
 31
0.0
  0
INSERT
  5
3D62
330
3D5C
100
AcDbEntity
  8
DIM
 62
     0
370
    -2
100
AcDbBlockReference
  2
_DOT
 10
1627.579825949579
 20
869.4105255394893
 30
0.0
 41
10.0
 42
10.0
 43
10.0
  0
INSERT
  5
3D63
330
3D5C
100
AcDbEntity
  8
DIM
 62
     0
370
    -2
100
AcDbBlockReference
  2
_DOT
 10
1367.579825949579
 20
869.4105255394893
 30
0.0
 41
10.0
 42
10.0
 43
10.0
 50
180.0
  0
MTEXT
  5
3D64
330
3D5C
100
AcDbEntity
  8
DIM
 62
     0
100
AcDbMText
 10
1497.579825949579
 20
901.4105255394893
 30
0.0
 40
24.0
 41
0.0
 46
0.0
 71
     5
 72
     1
  1
\A1;260
  7
ＭＳ ゴシック
 73
     1
 44
1.0
  0
POINT
  5
3D65
330
3D5C
100
AcDbEntity
  8
Defpoints
 62
     0
100
AcDbPoint
 10
1627.579825949579
 20
987.7246724388827
 30
0.0
  0
POINT
  5
3D66
330
3D5C
100
AcDbEntity
  8
Defpoints
 62
     0
100
AcDbPoint
 10
1367.579825949579
 20
987.9857313631032
 30
0.0
  0
POINT
  5
3D67
330
3D5C
100
AcDbEntity
  8
Defpoints
 62
     0
100
AcDbPoint
 10
1367.579825949579
 20
869.4105255394893
 30
0.0
  0
ENDBLK
  5
3D5E
330
3D5C
100
AcDbEntity
  8
0
100
AcDbBlockEnd
  0
BLOCK
  5
3D71
330
3D70
100
AcDbEntity
  8
0
100
AcDbBlockBegin
  2
*D180
 70
     1
 10
0.0
 20
0.0
 30
0.0
  3
*D180
  1

  0
LINE
  5
3D73
330
3D70
100
AcDbEntity
  8
DIM
 62
     0
370
    -2
100
AcDbLine
 10
1496.998482157141
 20
1153.480911630851
 30
0.0
 11
1496.998482157141
 21
1362.160911630851
 31
0.0
  0
LINE
  5
3D74
330
3D70
100
AcDbEntity
  8
DIM
 62
     0
370
    -2
100
AcDbLine
 10
1496.998482157141
 20
1143.480911630851
 30
0.0
 11
1496.998482157141
 21
1053.480911630851
 31
0.0
  0
LINE
  5
3D75
330
3D70
100
AcDbEntity
  8
DIM
 62
     0
370
    -2
100
AcDbLine
 10
1496.998482157141
 20
1143.480911630851
 30
0.0
 11
1496.998482157141
 21
1133.480911630851
 31
0.0
  0
INSERT
  5
3D76
330
3D70
100
AcDbEntity
  8
DIM
 62
     0
370
    -2
100
AcDbBlockReference
  2
_DOT
 10
1496.998482157141
 20
1153.480911630851
 30
0.0
 41
10.0
 42
10.0
 43
10.0
 50
90.0
  0
INSERT
  5
3D77
330
3D70
100
AcDbEntity
  8
DIM
 62
     0
370
    -2
100
AcDbBlockReference
  2
_DOT
 10
1496.998482157141
 20
1043.480911630851
 30
0.0
 41
10.0
 42
10.0
 43
10.0
 50
270.0
  0
MTEXT
  5
3D78
330
3D70
100
AcDbEntity
  8
DIM
 62
     0
100
AcDbMText
 10
1462.874482157141
 20
1267.820911630851
 30
0.0
 40
24.0
 41
0.0
 46
0.0
 71
     5
 72
     1
  1
\A1; 110(深さ)
  7
ＭＳ ゴシック
 11
0.0
 21
1.0
 31
0.0
 73
     1
 44
1.0
  0
POINT
  5
3D79
330
3D70
100
AcDbEntity
  8
Defpoints
 62
     0
100
AcDbPoint
 10
1528.413447358287
 20
1153.480911630851
 30
0.0
  0
POINT
  5
3D7E
330
3D70
100
AcDbEntity
  8
Defpoints
 62
     0
100
AcDbPoint
 10
1528.413447358287
 20
1043.480911630851
 30
0.0
  0
POINT
  5
3D7F
330
3D70
100
AcDbEntity
  8
Defpoints
 62
     0
100
AcDbPoint
 10
1496.998482157141
 20
1043.480911630851
 30
0.0
  0
ENDBLK
  5
3D72
330
3D70
100
AcDbEntity
  8
0
100
AcDbBlockEnd
  0
BLOCK
  5
3DA0
330
3D9F
100
AcDbEntity
  8
0
100
AcDbBlockBegin
  2
*D181
 70
     1
 10
0.0
 20
0.0
 30
0.0
  3
*D181
  1

  0
LINE
  5
3DA2
330
3D9F
100
AcDbEntity
  8
DIM
 62
     0
370
    -2
100
AcDbLine
 10
419.6034069049896
 20
2197.882100546206
 30
0.0
 11
177.1430394010705
 21
2197.882100546206
 31
0.0
  0
LINE
  5
3DA3
330
3D9F
100
AcDbEntity
  8
DIM
 62
     0
370
    -2
100
AcDbLine
 10
419.6034069049896
 20
1897.882100546206
 30
0.0
 11
177.1430394010705
 21
1897.882100546206
 31
0.0
  0
LINE
  5
3DA4
330
3D9F
100
AcDbEntity
  8
DIM
 62
     0
370
    -2
100
AcDbLine
 10
177.1430394010705
 20
2187.882100546206
 30
0.0
 11
177.1430394010705
 21
1907.882100546206
 31
0.0
  0
INSERT
  5
3DA5
330
3D9F
100
AcDbEntity
  8
DIM
 62
     0
370
    -2
100
AcDbBlockReference
  2
_DOT
 10
177.1430394010705
 20
2197.882100546206
 30
0.0
 41
10.0
 42
10.0
 43
10.0
 50
90.0
  0
INSERT
  5
3DA6
330
3D9F
100
AcDbEntity
  8
DIM
 62
     0
370
    -2
100
AcDbBlockReference
  2
_DOT
 10
177.1430394010705
 20
1897.882100546206
 30
0.0
 41
10.0
 42
10.0
 43
10.0
 50
270.0
  0
MTEXT
  5
3DA7
330
3D9F
100
AcDbEntity
  8
DIM
 62
     0
100
AcDbMText
 10
145.1430394010705
 20
2047.882100546206
 30
0.0
 40
24.0
 41
0.0
 46
0.0
 71
     5
 72
     1
  1
\A1;300
  7
ＭＳ ゴシック
 11
9.473903143468003E-17
 21
1.0
 31
0.0
 73
     1
 44
1.0
  0
POINT
  5
3DA8
330
3D9F
100
AcDbEntity
  8
Defpoints
 62
     0
100
AcDbPoint
 10
449.6034069049896
 20
2197.882100546206
 30
0.0
  0
POINT
  5
3DA9
330
3D9F
100
AcDbEntity
  8
Defpoints
 62
     0
100
AcDbPoint
 10
449.6034069049896
 20
1897.882100546206
 30
0.0
  0
POINT
  5
3DAA
330
3D9F
100
AcDbEntity
  8
Defpoints
 62
     0
100
AcDbPoint
 10
177.1430394010705
 20
1897.882100546206
 30
0.0
  0
ENDBLK
  5
3DA1
330
3D9F
100
AcDbEntity
  8
0
100
AcDbBlockEnd
  0
BLOCK
  5
3DB4
330
3DB3
100
AcDbEntity
  8
0
100
AcDbBlockBegin
  2
*D182
 70
     1
 10
0.0
 20
0.0
 30
0.0
  3
*D182
  1

  0
LINE
  5
3DB6
330
3DB3
100
AcDbEntity
  8
DIM
 62
     0
370
    -2
100
AcDbLine
 10
299.7248852317771
 20
2022.708004762673
 30
0.0
 11
299.7248852317771
 21
1785.054584287217
 31
0.0
  0
LINE
  5
3DB7
330
3DB3
100
AcDbEntity
  8
DIM
 62
     0
370
    -2
100
AcDbLine
 10
799.7248852317771
 20
2022.708004762673
 30
0.0
 11
799.7248852317771
 21
1785.054584287217
 31
0.0
  0
LINE
  5
3DB8
330
3DB3
100
AcDbEntity
  8
DIM
 62
     0
370
    -2
100
AcDbLine
 10
309.7248852317771
 20
1785.054584287217
 30
0.0
 11
789.7248852317771
 21
1785.054584287217
 31
0.0
  0
INSERT
  5
3DB9
330
3DB3
100
AcDbEntity
  8
DIM
 62
     0
370
    -2
100
AcDbBlockReference
  2
_DOT
 10
299.7248852317771
 20
1785.054584287217
 30
0.0
 41
10.0
 42
10.0
 43
10.0
 50
180.0
  0
INSERT
  5
3DBA
330
3DB3
100
AcDbEntity
  8
DIM
 62
     0
370
    -2
100
AcDbBlockReference
  2
_DOT
 10
799.7248852317771
 20
1785.054584287217
 30
0.0
 41
10.0
 42
10.0
 43
10.0
  0
MTEXT
  5
3DBB
330
3DB3
100
AcDbEntity
  8
DIM
 62
     0
100
AcDbMText
 10
549.7248852317771
 20
1817.054584287217
 30
0.0
 40
24.0
 41
0.0
 46
0.0
 71
     5
 72
     1
  1
\A1;500
  7
ＭＳ ゴシック
 73
     1
 44
1.0
  0
POINT
  5
3DBC
330
3DB3
100
AcDbEntity
  8
Defpoints
 62
     0
100
AcDbPoint
 10
299.7248852317771
 20
2052.708004762673
 30
0.0
  0
POINT
  5
3DBD
330
3DB3
100
AcDbEntity
  8
Defpoints
 62
     0
100
AcDbPoint
 10
799.7248852317771
 20
2052.708004762673
 30
0.0
  0
POINT
  5
3DBE
330
3DB3
100
AcDbEntity
  8
Defpoints
 62
     0
100
AcDbPoint
 10
799.7248852317771
 20
1785.054584287217
 30
0.0
  0
ENDBLK
  5
3DB5
330
3DB3
100
AcDbEntity
  8
0
100
AcDbBlockEnd
  0
BLOCK
  5
3DE1
330
3DE0
100
AcDbEntity
  8
0
100
AcDbBlockBegin
  2
*D183
 70
     1
 10
0.0
 20
0.0
 30
0.0
  3
*D183
  1

  0
LINE
  5
3DE3
330
3DE0
100
AcDbEntity
  8
DIM
 62
     0
370
    -2
100
AcDbLine
 10
559.5821531102438
 20
997.6186807886045
 30
0.0
 11
564.1830058455329
 21
997.6186807886045
 31
0.0
  0
LINE
  5
3DE4
330
3DE0
100
AcDbEntity
  8
DIM
 62
     0
370
    -2
100
AcDbLine
 10
520.8658603680003
 20
992.3782392922142
 30
0.0
 11
564.1830058455329
 21
992.3782392922142
 31
0.0
  0
LINE
  5
3DE5
330
3DE0
100
AcDbEntity
  8
DIM
 62
     0
370
    -2
100
AcDbLine
 10
564.1830058455329
 20
997.6186807886045
 30
0.0
 11
564.1830058455329
 21
919.9702392922143
 31
0.0
  0
LINE
  5
3DE6
330
3DE0
100
AcDbEntity
  8
DIM
 62
     0
370
    -2
100
AcDbLine
 10
564.1830058455329
 20
987.6186807886045
 30
0.0
 11
564.1830058455329
 21
1002.378239292214
 31
0.0
  0
LINE
  5
3DE7
330
3DE0
100
AcDbEntity
  8
DIM
 62
     0
370
    -2
100
AcDbLine
 10
564.1830058455329
 20
1002.378239292214
 30
0.0
 11
564.1830058455329
 21
1012.378239292214
 31
0.0
  0
INSERT
  5
3DE8
330
3DE0
100
AcDbEntity
  8
DIM
 62
     0
370
    -2
100
AcDbBlockReference
  2
_DOT
 10
564.1830058455329
 20
997.6186807886045
 30
0.0
 41
10.0
 42
10.0
 43
10.0
 50
90.0
  0
INSERT
  5
3DE9
330
3DE0
100
AcDbEntity
  8
DIM
 62
     0
370
    -2
100
AcDbBlockReference
  2
_DOT
 10
564.1830058455329
 20
992.3782392922142
 30
0.0
 41
10.0
 42
10.0
 43
10.0
 50
270.0
  0
MTEXT
  5
3DEA
330
3DE0
100
AcDbEntity
  8
DIM
 62
     0
100
AcDbMText
 10
532.1830058455329
 20
946.1742392922142
 30
0.0
 40
24.0
 41
0.0
 46
0.0
 71
     5
 72
     1
  1
\A1;5
  7
ＭＳ ゴシック
 11
0.0
 21
1.0
 31
0.0
 73
     1
 44
1.0
  0
POINT
  5
3DEB
330
3DE0
100
AcDbEntity
  8
Defpoints
 62
     0
100
AcDbPoint
 10
529.5821531102438
 20
997.6186807886045
 30
0.0
  0
POINT
  5
3DEE
330
3DE0
100
AcDbEntity
  8
Defpoints
 62
     0
100
AcDbPoint
 10
490.8658603680003
 20
992.3782392922142
 30
0.0
  0
POINT
  5
3DF1
330
3DE0
100
AcDbEntity
  8
Defpoints
 62
     0
100
AcDbPoint
 10
564.1830058455329
 20
992.3782392922142
 30
0.0
  0
ENDBLK
  5
3DE2
330
3DE0
100
AcDbEntity
  8
0
100
AcDbBlockEnd
  0
ENDSEC
  0
SECTION
  2
ENTITIES
  0
MTEXT
  5
177
330
A
100
AcDbEntity
  8
TEMPLATE
390
1D
100
AcDbMText
 10
79.20214454773075
 20
343.7317516314282
 30
0.0
 40
16.28841145833333
 41
0.0
 46
0.0
 71
     1
 72
     1
  1
品名
  7
ＭＳ ゴシック
 73
     1
 44
0.7828267384257843
  0
MTEXT
  5
178
330
A
100
AcDbEntity
  8
TEMPLATE
390
1D
100
AcDbMText
 10
79.20214454773075
 20
258.731751631428
 30
0.0
 40
16.28841145833333
 41
0.0
 46
0.0
 71
     1
 72
     1
  1
仕様
  7
ＭＳ ゴシック
 73
     1
 44
0.7828267384257843
  0
LINE
  5
179
330
A
100
AcDbEntity
  8
TEMPLATE
390
1D
100
AcDbLine
 10
2022.202144547248
 20
267.1466735064284
 30
0.0
 11
72.20214454724874
 21
267.1466735064284
 31
0.0
  0
LWPOLYLINE
  5
17A
330
A
100
AcDbEntity
  8
TEMPLATE
390
1D
100
AcDbPolyline
 90
        5
 70
   128
 43
0.0
 10
2022.202144547248
 20
2897.146673506426
 10
72.20214454724874
 20
2897.146673506426
 10
72.20214454724874
 20
97.14667350642826
 10
2022.202144547248
 20
97.14667350642826
 10
2022.202144547248
 20
2897.146673506426
  0
LINE
  5
17B
330
A
100
AcDbEntity
  8
TEMPLATE
390
1D
100
AcDbLine
 10
2022.202144547248
 20
352.1466735064282
 30
0.0
 11
72.20214454724874
 21
352.1466735064282
 31
0.0
  0
LINE
  5
17C
330
A
100
AcDbEntity
  8
TEMPLATE
390
1D
100
AcDbLine
 10
2022.202144547732
 20
182.1466735064282
 30
0.0
 11
1269.20214454773
 21
182.1466735064282
 31
0.0
  0
MTEXT
  5
17E
330
A
100
AcDbEntity
  8
TEMPLATE
390
1D
100
AcDbMText
 10
1299.073550799991
 20
152.2362790331201
 30
0.0
 40
24.4326171875
 41
0.0
 46
0.0
 71
     1
 72
     1
  1
大洋金物株式会社 ティーフォルム事業部
  7
ＭＳ ゴシック
 73
     1
 44
0.7828267384257843
  0
MTEXT
  5
180
330
A
100
AcDbEntity
  8
TEMPLATE
390
1D
100
AcDbMText
 10
1831.20214454799
 20
230.1492906939282
 30
0.0
 40
24.4326171875
 41
0.0
 46
24.4326171875
 71
     1
 72
     1
  1
{1:10}
  7
ＭＳ ゴシック
 73
     1
 44
0.7828267384257843
1001
ACAD
1000
ACAD_MTEXT_DEFINED_HEIGHT_BEGIN
1070
    46
1040
24.4326171875
1000
ACAD_MTEXT_DEFINED_HEIGHT_END
  0
MTEXT
  5
181
330
A
100
AcDbEntity
  8
TEMPLATE
390
1D
100
AcDbMText
 10
1778.20214454799
 20
258.731751631428
 30
0.0
 40
16.28841145833333
 41
0.0
 46
0.0
 71
     1
 72
     1
  1
縮尺
  7
ＭＳ ゴシック
 73
     1
 44
0.7828267384257843
  0
LINE
  5
182
330
A
100
AcDbEntity
  8
TEMPLATE
390
1D
100
AcDbLine
 10
1771.20214454799
 20
182.1466735064282
 30
0.0
 11
1771.20214454799
 21
267.1466735064284
 31
0.0
  0
MTEXT
  5
183
330
A
100
AcDbEntity
  8
TEMPLATE
390
1D
100
AcDbMText
 10
1527.20214454799
 20
258.731751631428
 30
0.0
 40
16.28841145833333
 41
0.0
 46
0.0
 71
     1
 72
     1
  1
容量
  7
ＭＳ ゴシック
 73
     1
 44
0.7828267384257843
  0
LINE
  5
184
330
A
100
AcDbEntity
  8
TEMPLATE
390
1D
100
AcDbLine
 10
1520.20214454799
 20
182.1466735064282
 30
0.0
 11
1520.20214454799
 21
267.1466735064284
 31
0.0
  0
MTEXT
  5
185
330
A
100
AcDbEntity
  8
TEMPLATE
390
1D
100
AcDbMText
 10
1276.20214454799
 20
343.7317516314282
 30
0.0
 40
16.28841145833333
 41
0.0
 46
0.0
 71
     1
 72
     1
  1
品番
  7
ＭＳ ゴシック
 73
     1
 44
0.7828267384257843
  0
MTEXT
  5
186
330
A
100
AcDbEntity
  8
TEMPLATE
390
1D
100
AcDbMText
 10
1276.20214454799
 20
258.731751631428
 30
0.0
 40
16.28841145833333
 41
0.0
 46
0.0
 71
     1
 72
     1
  1
重量
  7
ＭＳ ゴシック
 73
     1
 44
0.7828267384257843
  0
MTEXT
  5
187
330
A
100
AcDbEntity
  8
TEMPLATE
390
1D
100
AcDbMText
 10
1329.20214454799
 20
315.1492906939282
 30
0.0
 40
24.4326171875
 41
0.0
 46
24.4326171875
 71
     1
 72
     1
  1
{ADF70-0303}
  7
ＭＳ ゴシック
 73
     1
 44
0.7828267384257843
1001
ACAD
1000
ACAD_MTEXT_DEFINED_HEIGHT_BEGIN
1070
    46
1040
24.4326171875
1000
ACAD_MTEXT_DEFINED_HEIGHT_END
  0
LINE
  5
188
330
A
100
AcDbEntity
  8
TEMPLATE
390
1D
100
AcDbLine
 10
1269.20214454799
 20
97.14667350642826
 30
0.0
 11
1269.20214454799
 21
352.1466735064282
 31
0.0
  0
MTEXT
  5
189
330
A
100
AcDbEntity
  8
TEMPLATE
390
1D
100
AcDbMText
 10
132.2021445477307
 20
315.1492906939282
 30
0.0
 40
24.4326171875
 41
0.0
 46
27.5355595703125
 71
     1
 72
     1
  1
{洗面器 -CATALANO, Incasso-}
  7
ＭＳ ゴシック
 73
     1
 44
0.7828267384257843
1001
ACAD
1000
ACAD_MTEXT_DEFINED_HEIGHT_BEGIN
1070
    46
1040
27.5355595703125
1000
ACAD_MTEXT_DEFINED_HEIGHT_END
  0
INSERT
  5
6B5
330
A
100
AcDbEntity
  8
TEMPLATE
100
AcDbBlockReference
  2
名称未設定-1
 10
1870.75074808845
 20
25.94676575665382
 30
0.0
 41
0.7619999999999998
 42
0.7619999999999998
 43
0.7619999999999998
  0
MTEXT
  5
7D9
330
A
100
AcDbEntity
  8
TEMPLATE
390
1D
100
AcDbMText
 10
125.2543452760364
 20
226.8119760293952
 30
0.0
 40
24.4326171875
 41
0.0
 46
66.254517578125
 71
     1
 72
     1
  1
{オーバーカウンター/オーバーフロー付き\P陶器/ホワイト}
  7
ＭＳ ゴシック
 73
     1
 44
0.9331787841240657
1001
ACAD
1000
ACAD_MTEXT_DEFINED_HEIGHT_BEGIN
1070
    46
1040
66.254517578125
1000
ACAD_MTEXT_DEFINED_HEIGHT_END
  0
INSERT
  5
68C
330
A
100
AcDbEntity
  8
TEMPLATE
100
AcDbBlockReference
  2
block 2
 10
919.2743017702577
 20
8.373076514336368
 30
0.0
 41
0.3809999999999999
 42
0.3809999999999999
 43
0.3809999999999999
  0
LWPOLYLINE
  5
DAC
330
A
100
AcDbEntity
  8
BORDER
100
AcDbPolyline
 90
        4
 70
     1
 43
0.0
 10
0.0
 20
0.0
 10
0.0
 20
2970.0
 10
2100.0
 20
2970.0
 10
2100.0
 20
0.0
  0
MTEXT
  5
121B
330
A
100
AcDbEntity
  8
TEMPLATE
390
1D
100
AcDbMText
 10
1329.20214454799
 20
227.1688729773101
 30
0.0
 40
24.4326171875
 41
0.0
 46
28.390701171875
 71
     1
 72
     1
  1
{12kg}
  7
ＭＳ ゴシック
 73
     1
 44
0.7828267384257843
1001
ACAD
1000
ACAD_MTEXT_DEFINED_HEIGHT_BEGIN
1070
    46
1040
28.390701171875
1000
ACAD_MTEXT_DEFINED_HEIGHT_END
  0
MTEXT
  5
1466
102
{ACAD_XDICTIONARY
360
1468
102
}
330
A
100
AcDbEntity
  8
TEMPLATE
 48
0.05
100
AcDbMText
 10
74.728656548571
 20
83.86172105142839
 30
0.0
 40
22.0
 41
0.0
 46
22.0
 71
     1
 72
     1
  1
{20170510N}
  7
ＭＳ ゴシック
 73
     1
 44
1.0
1001
ACAD
1000
ACAD_MTEXT_DEFINED_HEIGHT_BEGIN
1070
    46
1040
22.0
1000
ACAD_MTEXT_DEFINED_HEIGHT_END
  0
MTEXT
  5
146D
330
A
100
AcDbEntity
  8
TEMPLATE
390
1D
100
AcDbMText
 10
1583.904999862276
 20
227.1688729773101
 30
0.0
 40
24.4326171875
 41
0.0
 46
24.4326171875
 71
     1
 72
     1
  1
{3.8L}
  7
ＭＳ ゴシック
 73
     1
 44
0.7828267384257843
1001
ACAD
1000
ACAD_MTEXT_DEFINED_HEIGHT_BEGIN
1070
    46
1040
24.4326171875
1000
ACAD_MTEXT_DEFINED_HEIGHT_END
  0
POINT
  5
262A
330
A
100
AcDbEntity
  8
Layer9
  6
Continuous
 62
     7
100
AcDbPoint
 10
1037.460145007193
 20
1010.220672371878
 30
0.0
  0
POINT
  5
262B
330
A
100
AcDbEntity
  8
Layer9
  6
Continuous
 62
     7
100
AcDbPoint
 10
1037.460146257193
 20
1010.220672788578
 30
0.0
  0
POINT
  5
262C
330
A
100
AcDbEntity
  8
Layer9
  6
Continuous
 62
     7
100
AcDbPoint
 10
1037.853693340493
 20
1015.267975288578
 30
0.0
  0
POINT
  5
2812
330
A
100
AcDbEntity
  8
Layer9
  6
Continuous
 62
     7
100
AcDbPoint
 10
925.7934783404928
 20
1010.220672371878
 30
0.0
  0
POINT
  5
2813
330
A
100
AcDbEntity
  8
Layer9
  6
Continuous
 62
     7
100
AcDbPoint
 10
925.7934795904928
 20
1010.220672788578
 30
0.0
  0
POINT
  5
2814
330
A
100
AcDbEntity
  8
Layer9
  6
Continuous
 62
     7
100
AcDbPoint
 10
926.1870266737928
 20
1015.267975288578
 30
0.0
  0
INSERT
  5
28CA
330
A
100
AcDbEntity
  8
Layer3
100
AcDbBlockReference
  2
SEANNOT_GROUP
 10
859.7083018867928
 20
826.1905269541776
 30
0.0
  0
POINT
  5
2A52
330
A
100
AcDbEntity
  8
Standard
  6
Continuous
 62
     7
100
AcDbPoint
 10
1036.111241014893
 20
1018.794321538578
 30
0.0
  0
INSERT
  5
2B9B
330
A
100
AcDbEntity
  8
Layer3
100
AcDbBlockReference
  2
SEANNOT_GROUP1
 10
859.7083018867928
 20
826.1905269541776
 30
0.0
  0
POLYLINE
  5
3907
330
A
100
AcDbEntity
  8
HIDDEN
 48
0.75
100
AcDb2dPolyline
 66
     1
 10
0.0
 20
0.0
 30
0.0
  0
VERTEX
  5
3908
330
3907
100
AcDbEntity
  8
HIDDEN
 48
0.75
100
AcDbVertex
100
AcDb2dVertex
 10
1474.421184254606
 20
997.3816741707344
 30
0.0
  0
VERTEX
  5
3909
330
3907
100
AcDbEntity
  8
HIDDEN
 48
0.75
100
AcDbVertex
100
AcDb2dVertex
 10
1518.463196636293
 20
997.3816741707344
 30
0.0
  0
SEQEND
  5
390A
330
3907
100
AcDbEntity
  8
HIDDEN
 48
0.75
  0
POLYLINE
  5
390B
330
A
100
AcDbEntity
  8
HIDDEN
 48
0.75
100
AcDb2dPolyline
 66
     1
 10
0.0
 20
0.0
 30
0.0
  0
VERTEX
  5
390C
330
390B
100
AcDbEntity
  8
HIDDEN
 48
0.75
100
AcDbVertex
100
AcDb2dVertex
 10
1518.463196636293
 20
1030.275254001868
 30
0.0
  0
VERTEX
  5
390D
330
390B
100
AcDbEntity
  8
HIDDEN
 48
0.75
100
AcDbVertex
100
AcDb2dVertex
 10
1474.421184254606
 20
1030.275254001868
 30
0.0
  0
SEQEND
  5
390E
330
390B
100
AcDbEntity
  8
HIDDEN
 48
0.75
  0
POLYLINE
  5
390F
330
A
100
AcDbEntity
  8
HIDDEN
100
AcDb2dPolyline
 66
     1
 10
0.0
 20
0.0
 30
0.0
  0
VERTEX
  5
3910
330
390F
100
AcDbEntity
  8
HIDDEN
100
AcDbVertex
100
AcDb2dVertex
 10
1460.049652527497
 20
1042.098105867238
 30
0.0
  0
VERTEX
  5
3911
330
390F
100
AcDbEntity
  8
HIDDEN
100
AcDbVertex
100
AcDb2dVertex
 10
1532.340105856542
 20
1042.098105867238
 30
0.0
  0
SEQEND
  5
3912
330
390F
100
AcDbEntity
  8
HIDDEN
  0
POLYLINE
  5
3913
330
A
100
AcDbEntity
  8
MODEL
100
AcDb2dPolyline
 66
     1
 10
0.0
 20
0.0
 30
0.0
  0
VERTEX
  5
3914
330
3913
100
AcDbEntity
  8
MODEL
100
AcDbVertex
100
AcDb2dVertex
 10
1388.617918828414
 20
993.3503099133361
 30
0.0
  0
VERTEX
  5
3915
330
3913
100
AcDbEntity
  8
MODEL
100
AcDbVertex
100
AcDb2dVertex
 10
1388.734704698089
 20
993.2266542866212
 30
0.0
  0
VERTEX
  5
3916
330
3913
100
AcDbEntity
  8
MODEL
100
AcDbVertex
100
AcDb2dVertex
 10
1389.703340440693
 20
992.6289854241643
 30
0.0
  0
VERTEX
  5
3917
330
3913
100
AcDbEntity
  8
MODEL
100
AcDbVertex
100
AcDb2dVertex
 10
1390.919287436725
 20
992.388543927774
 30
0.0
  0
SEQEND
  5
3918
330
3913
100
AcDbEntity
  8
MODEL
  0
POLYLINE
  5
3919
330
A
100
AcDbEntity
  8
MODEL
100
AcDb2dPolyline
 66
     1
 10
0.0
 20
0.0
 30
0.0
  0
VERTEX
  5
391A
330
3919
100
AcDbEntity
  8
MODEL
100
AcDbVertex
100
AcDb2dVertex
 10
1388.617918828414
 20
993.3503099133361
 30
0.0
  0
VERTEX
  5
391B
330
3919
100
AcDbEntity
  8
MODEL
100
AcDbVertex
100
AcDb2dVertex
 10
1374.617353981451
 20
993.3503099133361
 30
0.0
  0
SEQEND
  5
391C
330
3919
100
AcDbEntity
  8
MODEL
  0
POLYLINE
  5
391D
330
A
100
AcDbEntity
  8
MODEL
100
AcDb2dPolyline
 66
     1
 10
0.0
 20
0.0
 30
0.0
  0
VERTEX
  5
391E
330
391D
100
AcDbEntity
  8
MODEL
100
AcDbVertex
100
AcDb2dVertex
 10
1618.857826014863
 20
993.3503099133361
 30
0.0
  0
VERTEX
  5
391F
330
391D
100
AcDbEntity
  8
MODEL
100
AcDbVertex
100
AcDb2dVertex
 10
1616.577066677673
 20
993.3503099133361
 30
0.0
  0
SEQEND
  5
3920
330
391D
100
AcDbEntity
  8
MODEL
  0
POLYLINE
  5
3921
330
A
100
AcDbEntity
  8
MODEL
100
AcDb2dPolyline
 66
     1
 10
0.0
 20
0.0
 30
0.0
  0
VERTEX
  5
3922
330
3921
100
AcDbEntity
  8
MODEL
100
AcDbVertex
100
AcDb2dVertex
 10
1624.655900956393
 20
993.3503099133361
 30
0.0
  0
VERTEX
  5
3923
330
3921
100
AcDbEntity
  8
MODEL
100
AcDbVertex
100
AcDb2dVertex
 10
1624.52537557264
 20
993.3503099133361
 30
0.0
  0
VERTEX
  5
3924
330
3921
100
AcDbEntity
  8
MODEL
100
AcDbVertex
100
AcDb2dVertex
 10
1619.709675887791
 20
993.3503099133361
 30
0.0
  0
VERTEX
  5
3925
330
3921
100
AcDbEntity
  8
MODEL
100
AcDbVertex
100
AcDb2dVertex
 10
1618.864695771902
 20
993.3503099133361
 30
0.0
  0
SEQEND
  5
3926
330
3921
100
AcDbEntity
  8
MODEL
  0
POLYLINE
  5
3927
330
A
100
AcDbEntity
  8
MODEL
100
AcDb2dPolyline
 66
     1
 10
0.0
 20
0.0
 30
0.0
  0
VERTEX
  5
3928
330
3927
100
AcDbEntity
  8
MODEL
100
AcDbVertex
100
AcDb2dVertex
 10
1398.022616215802
 20
992.3816741707344
 30
0.0
  0
VERTEX
  5
3929
330
3927
100
AcDbEntity
  8
MODEL
100
AcDbVertex
100
AcDb2dVertex
 10
1600.165217109766
 20
992.3816741707344
 30
0.0
  0
SEQEND
  5
392A
330
3927
100
AcDbEntity
  8
MODEL
  0
POLYLINE
  5
392B
330
A
100
AcDbEntity
  8
MODEL
100
AcDb2dPolyline
 66
     1
 10
0.0
 20
0.0
 30
0.0
  0
VERTEX
  5
392C
330
392B
100
AcDbEntity
  8
MODEL
100
AcDbVertex
100
AcDb2dVertex
 10
1721.443907889107
 20
1149.259445929939
 30
0.0
  0
VERTEX
  5
392D
330
392B
100
AcDbEntity
  8
MODEL
100
AcDbVertex
100
AcDb2dVertex
 10
1721.203466392714
 20
1150.588743917126
 30
0.0
  0
VERTEX
  5
392E
330
392B
100
AcDbEntity
  8
MODEL
100
AcDbVertex
100
AcDb2dVertex
 10
1720.715713642893
 20
1151.794386277599
 30
0.0
  0
VERTEX
  5
392F
330
392B
100
AcDbEntity
  8
MODEL
100
AcDbVertex
100
AcDb2dVertex
 10
1719.753947657332
 20
1152.629061757925
 30
0.0
  0
VERTEX
  5
3930
330
392B
100
AcDbEntity
  8
MODEL
100
AcDbVertex
100
AcDb2dVertex
 10
1718.654786530976
 20
1153.243905012981
 30
0.0
  0
VERTEX
  5
3931
330
392B
100
AcDbEntity
  8
MODEL
100
AcDbVertex
100
AcDb2dVertex
 10
1717.328923422311
 20
1153.474041873811
 30
0.0
  0
SEQEND
  5
3932
330
392B
100
AcDbEntity
  8
MODEL
  0
POLYLINE
  5
3933
330
A
100
AcDbEntity
  8
MODEL
100
AcDb2dPolyline
 66
     1
 10
0.0
 20
0.0
 30
0.0
  0
VERTEX
  5
3934
330
3933
100
AcDbEntity
  8
MODEL
100
AcDbVertex
100
AcDb2dVertex
 10
1721.079810766
 20
1141.297397520895
 30
0.0
  0
VERTEX
  5
3935
330
3933
100
AcDbEntity
  8
MODEL
100
AcDbVertex
100
AcDb2dVertex
 10
1721.437038132065
 20
1149.266315686979
 30
0.0
  0
SEQEND
  5
3936
330
3933
100
AcDbEntity
  8
MODEL
  0
POLYLINE
  5
3937
330
A
100
AcDbEntity
  8
MODEL
100
AcDb2dPolyline
 66
     1
 10
0.0
 20
0.0
 30
0.0
  0
VERTEX
  5
3938
330
3937
100
AcDbEntity
  8
MODEL
100
AcDbVertex
100
AcDb2dVertex
 10
1718.050247911479
 20
1138.398360050131
 30
0.0
  0
VERTEX
  5
3939
330
3937
100
AcDbEntity
  8
MODEL
100
AcDbVertex
100
AcDb2dVertex
 10
1719.266194907511
 20
1138.645671303561
 30
0.0
  0
VERTEX
  5
393A
330
3937
100
AcDbEntity
  8
MODEL
100
AcDbVertex
100
AcDb2dVertex
 10
1720.227960893076
 20
1139.243340166017
 30
0.0
  0
VERTEX
  5
393B
330
3937
100
AcDbEntity
  8
MODEL
100
AcDbVertex
100
AcDb2dVertex
 10
1720.839369269611
 20
1140.215410787139
 30
0.0
  0
VERTEX
  5
393C
330
3937
100
AcDbEntity
  8
MODEL
100
AcDbVertex
100
AcDb2dVertex
 10
1721.072941008962
 20
1141.297397520895
 30
0.0
  0
SEQEND
  5
393D
330
3937
100
AcDbEntity
  8
MODEL
  0
POLYLINE
  5
393E
330
A
100
AcDbEntity
  8
MODEL
100
AcDb2dPolyline
 66
     1
 10
0.0
 20
0.0
 30
0.0
  0
VERTEX
  5
393F
330
393E
100
AcDbEntity
  8
MODEL
100
AcDbVertex
100
AcDb2dVertex
 10
1718.050247911479
 20
1138.398360050131
 30
0.0
  0
VERTEX
  5
3940
330
393E
100
AcDbEntity
  8
MODEL
100
AcDbVertex
100
AcDb2dVertex
 10
1684.38156865978
 20
1138.398360050131
 30
0.0
  0
SEQEND
  5
3941
330
393E
100
AcDbEntity
  8
MODEL
  0
POLYLINE
  5
3942
330
A
100
AcDbEntity
  8
HIDDEN
100
AcDb2dPolyline
 66
     1
 10
0.0
 20
0.0
 30
0.0
  0
VERTEX
  5
3943
330
3942
100
AcDbEntity
  8
HIDDEN
100
AcDbVertex
100
AcDb2dVertex
 10
1462.467807005479
 20
1040.408145635465
 30
0.0
  0
VERTEX
  5
3944
330
3942
100
AcDbEntity
  8
HIDDEN
100
AcDbVertex
100
AcDb2dVertex
 10
1459.93973641486
 20
1042.098105867238
 30
0.0
  0
VERTEX
  5
3945
330
3942
100
AcDbEntity
  8
HIDDEN
100
AcDbVertex
100
AcDb2dVertex
 10
1457.157484813771
 20
1043.30718310623
 30
0.0
  0
VERTEX
  5
3946
330
3942
100
AcDbEntity
  8
HIDDEN
100
AcDbVertex
100
AcDb2dVertex
 10
1454.265317100045
 20
1043.774326584931
 30
0.0
  0
SEQEND
  5
3947
330
3942
100
AcDbEntity
  8
HIDDEN
  0
POLYLINE
  5
3948
330
A
100
AcDbEntity
  8
HIDDEN
100
AcDb2dPolyline
 66
     1
 10
0.0
 20
0.0
 30
0.0
  0
VERTEX
  5
3949
330
3948
100
AcDbEntity
  8
HIDDEN
100
AcDbVertex
100
AcDb2dVertex
 10
1537.519902664498
 20
1044.159032979156
 30
0.0
  0
VERTEX
  5
394A
330
3948
100
AcDbEntity
  8
HIDDEN
100
AcDbVertex
100
AcDb2dVertex
 10
1535.108617943554
 20
1043.430838732946
 30
0.0
  0
VERTEX
  5
394B
330
3948
100
AcDbEntity
  8
HIDDEN
100
AcDbVertex
100
AcDb2dVertex
 10
1532.944644476039
 20
1042.338547363629
 30
0.0
  0
VERTEX
  5
394C
330
3948
100
AcDbEntity
  8
HIDDEN
100
AcDbVertex
100
AcDb2dVertex
 10
1530.897456878199
 20
1040.889028628246
 30
0.0
  0
SEQEND
  5
394D
330
3948
100
AcDbEntity
  8
HIDDEN
  0
POLYLINE
  5
394E
330
A
100
AcDbEntity
  8
HIDDEN
100
AcDb2dPolyline
 66
     1
 10
0.0
 20
0.0
 30
0.0
  0
VERTEX
  5
394F
330
394E
100
AcDbEntity
  8
HIDDEN
100
AcDbVertex
100
AcDb2dVertex
 10
1472.717484508753
 20
1031.841558606926
 30
0.0
  0
VERTEX
  5
3950
330
394E
100
AcDbEntity
  8
HIDDEN
100
AcDbVertex
100
AcDb2dVertex
 10
1462.467807005479
 20
1040.408145635465
 30
0.0
  0
SEQEND
  5
3951
330
394E
100
AcDbEntity
  8
HIDDEN
  0
POLYLINE
  5
3952
330
A
100
AcDbEntity
  8
HIDDEN
100
AcDb2dPolyline
 66
     1
 10
0.0
 20
0.0
 30
0.0
  0
VERTEX
  5
3953
330
3952
100
AcDbEntity
  8
HIDDEN
100
AcDbVertex
100
AcDb2dVertex
 10
1520.036370998393
 20
1031.841558606926
 30
0.0
  0
VERTEX
  5
3954
330
3952
100
AcDbEntity
  8
HIDDEN
100
AcDbVertex
100
AcDb2dVertex
 10
1530.897456878199
 20
1040.882158871206
 30
0.0
  0
SEQEND
  5
3955
330
3952
100
AcDbEntity
  8
HIDDEN
  0
POLYLINE
  5
395A
330
A
100
AcDbEntity
  8
HIDDEN
 48
0.5
100
AcDb2dPolyline
 66
     1
 10
0.0
 20
0.0
 30
0.0
  0
VERTEX
  5
395B
330
395A
100
AcDbEntity
  8
HIDDEN
 48
0.5
100
AcDbVertex
100
AcDb2dVertex
 10
1518.463196636293
 20
997.3816741707344
 30
0.0
  0
VERTEX
  5
395C
330
395A
100
AcDbEntity
  8
HIDDEN
 48
0.5
100
AcDbVertex
100
AcDb2dVertex
 10
1519.06773525579
 20
1029.560799269737
 30
0.0
  0
SEQEND
  5
395D
330
395A
100
AcDbEntity
  8
HIDDEN
 48
0.5
  0
POLYLINE
  5
395E
330
A
100
AcDbEntity
  8
HIDDEN
 48
0.5
100
AcDb2dPolyline
 66
     1
 10
0.0
 20
0.0
 30
0.0
  0
VERTEX
  5
395F
330
395E
100
AcDbEntity
  8
HIDDEN
 48
0.5
100
AcDbVertex
100
AcDb2dVertex
 10
1474.421184254606
 20
997.3816741707344
 30
0.0
  0
VERTEX
  5
3960
330
395E
100
AcDbEntity
  8
HIDDEN
 48
0.5
100
AcDbVertex
100
AcDb2dVertex
 10
1473.816645635109
 20
1029.560799269737
 30
0.0
  0
VERTEX
  5
3961
330
395E
100
AcDbEntity
  8
HIDDEN
 48
0.5
100
AcDbVertex
100
AcDb2dVertex
 10
1473.445678754963
 20
1030.769876508729
 30
0.0
  0
VERTEX
  5
3962
330
395E
100
AcDbEntity
  8
HIDDEN
 48
0.5
100
AcDbVertex
100
AcDb2dVertex
 10
1472.710614751714
 20
1031.841558606926
 30
0.0
  0
SEQEND
  5
3963
330
395E
100
AcDbEntity
  8
HIDDEN
 48
0.5
  0
POLYLINE
  5
3964
330
A
100
AcDbEntity
  8
HIDDEN
100
AcDb2dPolyline
 66
     1
 10
0.0
 20
0.0
 30
0.0
  0
VERTEX
  5
3965
330
3964
100
AcDbEntity
  8
HIDDEN
100
AcDbVertex
100
AcDb2dVertex
 10
1520.036370998393
 20
1031.841558606926
 30
0.0
  0
VERTEX
  5
3966
330
3964
100
AcDbEntity
  8
HIDDEN
100
AcDbVertex
100
AcDb2dVertex
 10
1519.308176752179
 20
1030.763006751689
 30
0.0
  0
VERTEX
  5
3967
330
3964
100
AcDbEntity
  8
HIDDEN
100
AcDbVertex
100
AcDb2dVertex
 10
1519.060865498751
 20
1029.560799269737
 30
0.0
  0
SEQEND
  5
3968
330
3964
100
AcDbEntity
  8
HIDDEN
  0
POLYLINE
  5
3969
330
A
100
AcDbEntity
  8
MODEL
100
AcDb2dPolyline
 66
     1
 10
0.0
 20
0.0
 30
0.0
  0
VERTEX
  5
396A
330
3969
100
AcDbEntity
  8
MODEL
100
AcDbVertex
100
AcDb2dVertex
 10
1635.887953716348
 20
1153.480911630851
 30
0.0
  0
VERTEX
  5
396B
330
3969
100
AcDbEntity
  8
MODEL
100
AcDbVertex
100
AcDb2dVertex
 10
1717.33579317935
 20
1153.480911630851
 30
0.0
  0
SEQEND
  5
396C
330
3969
100
AcDbEntity
  8
MODEL
  0
POLYLINE
  5
396D
330
A
100
AcDbEntity
  8
MODEL
100
AcDb2dPolyline
 66
     1
 10
0.0
 20
0.0
 30
0.0
  0
VERTEX
  5
396E
330
396D
100
AcDbEntity
  8
MODEL
100
AcDbVertex
100
AcDb2dVertex
 10
1374.617353981451
 20
993.3503099133361
 30
0.0
  0
VERTEX
  5
396F
330
396D
100
AcDbEntity
  8
MODEL
100
AcDbVertex
100
AcDb2dVertex
 10
1366.174422579627
 20
993.3503099133361
 30
0.0
  0
SEQEND
  5
3970
330
396D
100
AcDbEntity
  8
MODEL
  0
POLYLINE
  5
3971
330
A
100
AcDbEntity
  8
MODEL
100
AcDb2dPolyline
 66
     1
 10
0.0
 20
0.0
 30
0.0
  0
VERTEX
  5
3972
330
3971
100
AcDbEntity
  8
MODEL
100
AcDbVertex
100
AcDb2dVertex
 10
1390.919287436725
 20
992.3816741707344
 30
0.0
  0
VERTEX
  5
3973
330
3971
100
AcDbEntity
  8
MODEL
100
AcDbVertex
100
AcDb2dVertex
 10
1398.022616215802
 20
992.3816741707344
 30
0.0
  0
SEQEND
  5
3974
330
3971
100
AcDbEntity
  8
MODEL
  0
POLYLINE
  5
3975
330
A
100
AcDbEntity
  8
MODEL
100
AcDb2dPolyline
 66
     1
 10
0.0
 20
0.0
 30
0.0
  0
VERTEX
  5
3976
330
3975
100
AcDbEntity
  8
MODEL
100
AcDbVertex
100
AcDb2dVertex
 10
1607.886824022421
 20
1153.480911630851
 30
0.0
  0
VERTEX
  5
3977
330
3975
100
AcDbEntity
  8
MODEL
100
AcDbVertex
100
AcDb2dVertex
 10
1476.351585982767
 20
1153.480911630851
 30
0.0
  0
SEQEND
  5
3978
330
3975
100
AcDbEntity
  8
MODEL
  0
POLYLINE
  5
3979
330
A
100
AcDbEntity
  8
MODEL
100
AcDb2dPolyline
 66
     1
 10
0.0
 20
0.0
 30
0.0
  0
VERTEX
  5
397A
330
3979
100
AcDbEntity
  8
MODEL
100
AcDbVertex
100
AcDb2dVertex
 10
1616.577066677673
 20
993.3503099133361
 30
0.0
  0
VERTEX
  5
397B
330
3979
100
AcDbEntity
  8
MODEL
100
AcDbVertex
100
AcDb2dVertex
 10
1613.794815076583
 20
993.2266542866212
 30
0.0
  0
VERTEX
  5
397C
330
3979
100
AcDbEntity
  8
MODEL
100
AcDbVertex
100
AcDb2dVertex
 10
1611.149958616289
 20
993.1098684169458
 30
0.0
  0
VERTEX
  5
397D
330
3979
100
AcDbEntity
  8
MODEL
100
AcDbVertex
100
AcDb2dVertex
 10
1608.360837258161
 20
992.8694269205555
 30
0.0
  0
VERTEX
  5
397E
330
3979
100
AcDbEntity
  8
MODEL
100
AcDbVertex
100
AcDb2dVertex
 10
1605.702241283786
 20
992.6289854241643
 30
0.0
  0
VERTEX
  5
397F
330
3979
100
AcDbEntity
  8
MODEL
100
AcDbVertex
100
AcDb2dVertex
 10
1602.933729196778
 20
992.3816741707344
 30
0.0
  0
VERTEX
  5
3980
330
3979
100
AcDbEntity
  8
MODEL
100
AcDbVertex
100
AcDb2dVertex
 10
1600.158347352727
 20
992.3816741707344
 30
0.0
  0
SEQEND
  5
3981
330
3979
100
AcDbEntity
  8
MODEL
  0
SPLINE
  5
399B
330
A
100
AcDbEntity
  8
MODEL
100
AcDbSpline
210
0.0
220
0.0
230
1.0
 70
    27
 71
     3
 72
    11
 73
     7
 74
     0
 42
0.000000001
 43
0.0000000001
 40
0.0
 40
0.0
 40
0.0
 40
0.0
 40
1.0
 40
1.0
 40
1.0
 40
2.0
 40
2.0
 40
2.0
 40
2.0
 10
832.5796571044402
 20
1153.47404187381
 30
0.0
 10
832.5796571044402
 20
1153.47404187381
 30
0.0
 10
857.9324954595495
 20
1153.47404187381
 30
0.0
 10
857.9324954595495
 20
1153.47404187381
 30
0.0
 10
857.9324954595495
 20
1153.47404187381
 30
0.0
 10
832.5796571044402
 20
1153.47404187381
 30
0.0
 10
832.5796571044402
 20
1153.47404187381
 30
0.0
  0
POLYLINE
  5
399C
330
A
100
AcDbEntity
  8
MODEL
100
AcDb2dPolyline
 66
     1
 10
0.0
 20
0.0
 30
0.0
  0
VERTEX
  5
399D
330
399C
100
AcDbEntity
  8
MODEL
100
AcDbVertex
100
AcDb2dVertex
 10
832.5865268614789
 20
1153.47404187381
 30
0.0
  0
VERTEX
  5
399E
330
399C
100
AcDbEntity
  8
MODEL
100
AcDbVertex
100
AcDb2dVertex
 10
830.4122487584054
 20
1153.47404187381
 30
0.0
  0
VERTEX
  5
399F
330
399C
100
AcDbEntity
  8
MODEL
100
AcDbVertex
100
AcDb2dVertex
 10
857.9256257025108
 20
1153.47404187381
 30
0.0
  0
VERTEX
  5
39A0
330
399C
100
AcDbEntity
  8
MODEL
100
AcDbVertex
100
AcDb2dVertex
 10
832.5865268614789
 20
1153.47404187381
 30
0.0
  0
SEQEND
  5
39A1
330
399C
100
AcDbEntity
  8
MODEL
  0
SPLINE
  5
39A2
330
A
100
AcDbEntity
  8
MODEL
100
AcDbSpline
210
0.0
220
0.0
230
1.0
 70
    27
 71
     3
 72
    11
 73
     7
 74
     0
 42
0.000000001
 43
0.0000000001
 40
0.0
 40
0.0
 40
0.0
 40
0.0
 40
1.0
 40
1.0
 40
1.0
 40
2.0
 40
2.0
 40
2.0
 40
2.0
 10
832.5796571044402
 20
1153.47404187381
 30
0.0
 10
832.5796571044402
 20
1153.47404187381
 30
0.0
 10
857.9324954595495
 20
1153.47404187381
 30
0.0
 10
857.9324954595495
 20
1153.47404187381
 30
0.0
 10
857.9324954595495
 20
1153.47404187381
 30
0.0
 10
832.5796571044402
 20
1153.47404187381
 30
0.0
 10
832.5796571044402
 20
1153.47404187381
 30
0.0
  0
POLYLINE
  5
39A3
330
A
100
AcDbEntity
  8
MODEL
100
AcDb2dPolyline
 66
     1
 10
0.0
 20
0.0
 30
0.0
  0
VERTEX
  5
39A4
330
39A3
100
AcDbEntity
  8
MODEL
100
AcDbVertex
100
AcDb2dVertex
 10
830.4122487584054
 20
1153.47404187381
 30
0.0
  0
VERTEX
  5
39A5
330
39A3
100
AcDbEntity
  8
MODEL
100
AcDbVertex
100
AcDb2dVertex
 10
828.237970655332
 20
1153.47404187381
 30
0.0
  0
VERTEX
  5
39A6
330
39A3
100
AcDbEntity
  8
MODEL
100
AcDbVertex
100
AcDb2dVertex
 10
858.2897228256179
 20
1153.47404187381
 30
0.0
  0
VERTEX
  5
39A7
330
39A3
100
AcDbEntity
  8
MODEL
100
AcDbVertex
100
AcDb2dVertex
 10
830.4122487584054
 20
1153.47404187381
 30
0.0
  0
SEQEND
  5
39A8
330
39A3
100
AcDbEntity
  8
MODEL
  0
SPLINE
  5
39A9
330
A
100
AcDbEntity
  8
MODEL
100
AcDbSpline
210
0.0
220
0.0
230
1.0
 70
    27
 71
     3
 72
    11
 73
     7
 74
     0
 42
0.000000001
 43
0.0000000001
 40
0.0
 40
0.0
 40
0.0
 40
0.0
 40
1.0
 40
1.0
 40
1.0
 40
2.0
 40
2.0
 40
2.0
 40
2.0
 10
830.4122487584054
 20
1153.47404187381
 30
0.0
 10
830.4122487584054
 20
1153.47404187381
 30
0.0
 10
858.2965925826566
 20
1153.47404187381
 30
0.0
 10
858.2965925826566
 20
1153.47404187381
 30
0.0
 10
858.2965925826566
 20
1153.47404187381
 30
0.0
 10
830.4122487584054
 20
1153.47404187381
 30
0.0
 10
830.4122487584054
 20
1153.47404187381
 30
0.0
  0
SPLINE
  5
39AA
330
A
100
AcDbEntity
  8
MODEL
100
AcDbSpline
210
0.0
220
0.0
230
1.0
 70
    27
 71
     3
 72
    11
 73
     7
 74
     0
 42
0.000000001
 43
0.0000000001
 40
0.0
 40
0.0
 40
0.0
 40
0.0
 40
1.0
 40
1.0
 40
1.0
 40
2.0
 40
2.0
 40
2.0
 40
2.0
 10
265.7628735136086
 20
1153.47404187381
 30
0.0
 10
265.7628735136086
 20
1153.47404187381
 30
0.0
 10
291.1157118687215
 20
1153.47404187381
 30
0.0
 10
291.1157118687215
 20
1153.47404187381
 30
0.0
 10
291.1157118687215
 20
1153.47404187381
 30
0.0
 10
265.7628735136086
 20
1153.47404187381
 30
0.0
 10
265.7628735136086
 20
1153.47404187381
 30
0.0
  0
POLYLINE
  5
39AB
330
A
100
AcDbEntity
  8
MODEL
100
AcDb2dPolyline
 66
     1
 10
0.0
 20
0.0
 30
0.0
  0
VERTEX
  5
39AC
330
39AB
100
AcDbEntity
  8
MODEL
100
AcDbVertex
100
AcDb2dVertex
 10
265.7697432706473
 20
1153.47404187381
 30
0.0
  0
VERTEX
  5
39AD
330
39AB
100
AcDbEntity
  8
MODEL
100
AcDbVertex
100
AcDb2dVertex
 10
265.6598271580142
 20
1153.47404187381
 30
0.0
  0
VERTEX
  5
39AE
330
39AB
100
AcDbEntity
  8
MODEL
100
AcDbVertex
100
AcDb2dVertex
 10
293.289989971795
 20
1153.47404187381
 30
0.0
  0
VERTEX
  5
39AF
330
39AB
100
AcDbEntity
  8
MODEL
100
AcDbVertex
100
AcDb2dVertex
 10
265.7697432706473
 20
1153.47404187381
 30
0.0
  0
SEQEND
  5
39B0
330
39AB
100
AcDbEntity
  8
MODEL
  0
SPLINE
  5
39B1
330
A
100
AcDbEntity
  8
MODEL
100
AcDbSpline
210
0.0
220
0.0
230
1.0
 70
    27
 71
     3
 72
    11
 73
     7
 74
     0
 42
0.000000001
 43
0.0000000001
 40
0.0
 40
0.0
 40
0.0
 40
0.0
 40
1.0
 40
1.0
 40
1.0
 40
2.0
 40
2.0
 40
2.0
 40
2.0
 10
265.7628735136086
 20
1153.47404187381
 30
0.0
 10
265.7628735136086
 20
1153.47404187381
 30
0.0
 10
293.2831202147563
 20
1153.47404187381
 30
0.0
 10
293.2831202147563
 20
1153.47404187381
 30
0.0
 10
293.2831202147563
 20
1153.47404187381
 30
0.0
 10
265.7628735136086
 20
1153.47404187381
 30
0.0
 10
265.7628735136086
 20
1153.47404187381
 30
0.0
  0
POLYLINE
  5
39B2
330
A
100
AcDbEntity
  8
MODEL
100
AcDb2dPolyline
 66
     1
 10
0.0
 20
0.0
 30
0.0
  0
VERTEX
  5
39B3
330
39B2
100
AcDbEntity
  8
MODEL
100
AcDbVertex
100
AcDb2dVertex
 10
265.6598271580142
 20
1153.47404187381
 30
0.0
  0
VERTEX
  5
39B4
330
39B2
100
AcDbEntity
  8
MODEL
100
AcDbVertex
100
AcDb2dVertex
 10
265.2922951563878
 20
1153.47404187381
 30
0.0
  0
VERTEX
  5
39B5
330
39B2
100
AcDbEntity
  8
MODEL
100
AcDbVertex
100
AcDb2dVertex
 10
295.4505285607875
 20
1153.47404187381
 30
0.0
  0
VERTEX
  5
39B6
330
39B2
100
AcDbEntity
  8
MODEL
100
AcDbVertex
100
AcDb2dVertex
 10
265.6598271580142
 20
1153.47404187381
 30
0.0
  0
SEQEND
  5
39B7
330
39B2
100
AcDbEntity
  8
MODEL
  0
SPLINE
  5
39B8
330
A
100
AcDbEntity
  8
MODEL
100
AcDbSpline
210
0.0
220
0.0
230
1.0
 70
    27
 71
     3
 72
    11
 73
     7
 74
     0
 42
0.000000001
 43
0.0000000001
 40
0.0
 40
0.0
 40
0.0
 40
0.0
 40
1.0
 40
1.0
 40
1.0
 40
2.0
 40
2.0
 40
2.0
 40
2.0
 10
265.6598271580142
 20
1153.47404187381
 30
0.0
 10
265.6598271580142
 20
1153.47404187381
 30
0.0
 10
295.4436588037488
 20
1153.47404187381
 30
0.0
 10
295.4436588037488
 20
1153.47404187381
 30
0.0
 10
295.4436588037488
 20
1153.47404187381
 30
0.0
 10
265.6598271580142
 20
1153.47404187381
 30
0.0
 10
265.6598271580142
 20
1153.47404187381
 30
0.0
  0
SPLINE
  5
39C0
330
A
100
AcDbEntity
  8
MODEL
100
AcDbSpline
210
0.0
220
0.0
230
1.0
 70
    27
 71
     3
 72
    11
 73
     7
 74
     0
 42
0.000000001
 43
0.0000000001
 40
0.0
 40
0.0
 40
0.0
 40
0.0
 40
1.0
 40
1.0
 40
1.0
 40
2.0
 40
2.0
 40
2.0
 40
2.0
 10
355.5540329013593
 20
993.5873165312062
 30
0.0
 10
355.5540329013593
 20
993.5873165312062
 30
0.0
 10
365.8105801616721
 20
993.5873165312062
 30
0.0
 10
365.8105801616721
 20
993.5873165312062
 30
0.0
 10
365.8105801616721
 20
993.5873165312062
 30
0.0
 10
355.5540329013593
 20
993.5873165312062
 30
0.0
 10
355.5540329013593
 20
993.5873165312062
 30
0.0
  0
POLYLINE
  5
39C1
330
A
100
AcDbEntity
  8
MODEL
100
AcDb2dPolyline
 66
     1
 10
0.0
 20
0.0
 30
0.0
  0
VERTEX
  5
39C2
330
39C1
100
AcDbEntity
  8
MODEL
100
AcDbVertex
100
AcDb2dVertex
 10
379.0760810053862
 20
993.5873165312062
 30
0.0
  0
VERTEX
  5
39C3
330
39C1
100
AcDbEntity
  8
MODEL
100
AcDbVertex
100
AcDb2dVertex
 10
355.5540329013593
 20
993.5873165312062
 30
0.0
  0
VERTEX
  5
39C4
330
39C1
100
AcDbEntity
  8
MODEL
100
AcDbVertex
100
AcDb2dVertex
 10
365.9376706669054
 20
993.5873165312062
 30
0.0
  0
VERTEX
  5
39C5
330
39C1
100
AcDbEntity
  8
MODEL
100
AcDbVertex
100
AcDb2dVertex
 10
379.0760810053862
 20
993.5873165312062
 30
0.0
  0
SEQEND
  5
39C6
330
39C1
100
AcDbEntity
  8
MODEL
  0
POLYLINE
  5
39C7
330
A
100
AcDbEntity
  8
MODEL
100
AcDb2dPolyline
 66
     1
 10
0.0
 20
0.0
 30
0.0
  0
VERTEX
  5
39C8
330
39C7
100
AcDbEntity
  8
MODEL
100
AcDbVertex
100
AcDb2dVertex
 10
379.0760810053862
 20
993.5873165312062
 30
0.0
  0
VERTEX
  5
39C9
330
39C7
100
AcDbEntity
  8
MODEL
100
AcDbVertex
100
AcDb2dVertex
 10
379.4367432499703
 20
993.0926940243455
 30
0.0
  0
SEQEND
  5
39CA
330
39C7
100
AcDbEntity
  8
MODEL
  0
POLYLINE
  5
39CB
330
A
100
AcDbEntity
  8
HIDDEN
 48
0.5
100
AcDb2dPolyline
 66
     1
 10
0.0
 20
0.0
 30
0.0
  0
VERTEX
  5
39CC
330
39CB
100
AcDbEntity
  8
HIDDEN
 48
0.5
100
AcDbVertex
100
AcDb2dVertex
 10
620.6820012140624
 20
1033.644869829854
 30
0.0
  0
VERTEX
  5
39CD
330
39CB
100
AcDbEntity
  8
HIDDEN
 48
0.5
100
AcDbVertex
100
AcDb2dVertex
 10
622.01129920125
 20
995.2772767629788
 30
0.0
  0
SEQEND
  5
39CE
330
39CB
100
AcDbEntity
  8
HIDDEN
 48
0.5
  0
POLYLINE
  5
39CF
330
A
100
AcDbEntity
  8
HIDDEN
 48
0.5
100
AcDb2dPolyline
 66
     1
 10
0.0
 20
0.0
 30
0.0
  0
VERTEX
  5
39D0
330
39CF
100
AcDbEntity
  8
HIDDEN
 48
0.5
100
AcDbVertex
100
AcDb2dVertex
 10
503.020237516138
 20
1033.644869829854
 30
0.0
  0
VERTEX
  5
39D1
330
39CF
100
AcDbEntity
  8
HIDDEN
 48
0.5
100
AcDbVertex
100
AcDb2dVertex
 10
501.5775885377943
 20
995.2772767629788
 30
0.0
  0
SEQEND
  5
39D2
330
39CF
100
AcDbEntity
  8
HIDDEN
 48
0.5
  0
POLYLINE
  5
39D3
330
A
100
AcDbEntity
  8
HIDDEN
 48
0.5
100
AcDb2dPolyline
 66
     1
 10
0.0
 20
0.0
 30
0.0
  0
VERTEX
  5
39D4
330
39D3
100
AcDbEntity
  8
HIDDEN
 48
0.5
100
AcDbVertex
100
AcDb2dVertex
 10
498.6819859455491
 20
992.3782392922142
 30
0.0
  0
VERTEX
  5
39D5
330
39D3
100
AcDbEntity
  8
HIDDEN
 48
0.5
100
AcDbVertex
100
AcDb2dVertex
 10
499.7639726793086
 20
992.6186807886045
 30
0.0
  0
VERTEX
  5
39D6
330
39D3
100
AcDbEntity
  8
HIDDEN
 48
0.5
100
AcDbVertex
100
AcDb2dVertex
 10
500.7360433004278
 20
993.2232194081009
 30
0.0
  0
VERTEX
  5
39D7
330
39D3
100
AcDbEntity
  8
HIDDEN
 48
0.5
100
AcDbVertex
100
AcDb2dVertex
 10
501.3405819199243
 20
994.1918551507017
 30
0.0
  0
VERTEX
  5
39D8
330
39D3
100
AcDbEntity
  8
HIDDEN
 48
0.5
100
AcDbVertex
100
AcDb2dVertex
 10
501.5775885377943
 20
995.2841465200183
 30
0.0
  0
SEQEND
  5
39D9
330
39D3
100
AcDbEntity
  8
HIDDEN
 48
0.5
  0
POLYLINE
  5
39DA
330
A
100
AcDbEntity
  8
HIDDEN
 48
0.5
100
AcDb2dPolyline
 66
     1
 10
0.0
 20
0.0
 30
0.0
  0
VERTEX
  5
39DB
330
39DA
100
AcDbEntity
  8
HIDDEN
 48
0.5
100
AcDbVertex
100
AcDb2dVertex
 10
622.0044294442077
 20
995.2772767629788
 30
0.0
  0
VERTEX
  5
39DC
330
39DA
100
AcDbEntity
  8
HIDDEN
 48
0.5
100
AcDbVertex
100
AcDb2dVertex
 10
622.2448709406008
 20
994.1918551507017
 30
0.0
  0
VERTEX
  5
39DD
330
39DA
100
AcDbEntity
  8
HIDDEN
 48
0.5
100
AcDbVertex
100
AcDb2dVertex
 10
622.8494095600936
 20
993.2163496510605
 30
0.0
  0
VERTEX
  5
39DE
330
39DA
100
AcDbEntity
  8
HIDDEN
 48
0.5
100
AcDbVertex
100
AcDb2dVertex
 10
623.8180453026971
 20
992.6186807886045
 30
0.0
  0
VERTEX
  5
39DF
330
39DA
100
AcDbEntity
  8
HIDDEN
 48
0.5
100
AcDbVertex
100
AcDb2dVertex
 10
625.023687663167
 20
992.3713695351746
 30
0.0
  0
VERTEX
  5
39E0
330
39DA
100
AcDbEntity
  8
HIDDEN
 48
0.5
100
AcDbVertex
100
AcDb2dVertex
 10
629.6092504871876
 20
992.3713695351746
 30
0.0
  0
SEQEND
  5
39E1
330
39DA
100
AcDbEntity
  8
HIDDEN
 48
0.5
  0
POLYLINE
  5
39E2
330
A
100
AcDbEntity
  8
MODEL
100
AcDb2dPolyline
 66
     1
 10
0.0
 20
0.0
 30
0.0
  0
VERTEX
  5
39E3
330
39E2
100
AcDbEntity
  8
MODEL
100
AcDbVertex
100
AcDb2dVertex
 10
735.1974161877906
 20
992.3782392922142
 30
0.0
  0
VERTEX
  5
39E4
330
39E2
100
AcDbEntity
  8
MODEL
100
AcDbVertex
100
AcDb2dVertex
 10
735.073760561073
 20
992.3782392922142
 30
0.0
  0
VERTEX
  5
39E5
330
39E2
100
AcDbEntity
  8
MODEL
100
AcDbVertex
100
AcDb2dVertex
 10
632.0274049651698
 20
992.3782392922142
 30
0.0
  0
VERTEX
  5
39E6
330
39E2
100
AcDbEntity
  8
MODEL
100
AcDbVertex
100
AcDb2dVertex
 10
629.6161202442263
 20
992.3782392922142
 30
0.0
  0
SEQEND
  5
39E7
330
39E2
100
AcDbEntity
  8
MODEL
  0
POLYLINE
  5
39E8
330
A
100
AcDbEntity
  8
MODEL
100
AcDb2dPolyline
 66
     1
 10
0.0
 20
0.0
 30
0.0
  0
VERTEX
  5
39E9
330
39E8
100
AcDbEntity
  8
MODEL
100
AcDbVertex
100
AcDb2dVertex
 10
388.3777320371764
 20
992.3782392922142
 30
0.0
  0
VERTEX
  5
39EA
330
39E8
100
AcDbEntity
  8
MODEL
100
AcDbVertex
100
AcDb2dVertex
 10
625.023687663167
 20
992.3713695351746
 30
0.0
  0
SEQEND
  5
39EB
330
39E8
100
AcDbEntity
  8
MODEL
  0
POLYLINE
  5
39EC
330
A
100
AcDbEntity
  8
HIDDEN
 48
0.5
100
AcDb2dPolyline
 66
     1
 10
0.0
 20
0.0
 30
0.0
  0
VERTEX
  5
39ED
330
39EC
100
AcDbEntity
  8
HIDDEN
 48
0.5
100
AcDbVertex
100
AcDb2dVertex
 10
583.8772778737248
 20
997.3782392922142
 30
0.0
  0
VERTEX
  5
39EE
330
39EC
100
AcDbEntity
  8
HIDDEN
 48
0.5
100
AcDbVertex
100
AcDb2dVertex
 10
539.8318306135143
 20
997.3782392922142
 30
0.0
  0
SEQEND
  5
39EF
330
39EC
100
AcDbEntity
  8
HIDDEN
 48
0.5
  0
POLYLINE
  5
39F0
330
A
100
AcDbEntity
  8
MODEL
100
AcDb2dPolyline
 66
     1
 10
0.0
 20
0.0
 30
0.0
  0
VERTEX
  5
39F1
330
39F0
100
AcDbEntity
  8
MODEL
100
AcDbVertex
100
AcDb2dVertex
 10
291.1088421116829
 20
1153.480911630851
 30
0.0
  0
VERTEX
  5
39F2
330
39F0
100
AcDbEntity
  8
MODEL
100
AcDbVertex
100
AcDb2dVertex
 10
832.5865268614789
 20
1153.480911630851
 30
0.0
  0
SEQEND
  5
39F3
330
39F0
100
AcDbEntity
  8
MODEL
  0
POLYLINE
  5
39F4
330
A
100
AcDbEntity
  8
HIDDEN
 48
0.5
100
AcDb2dPolyline
 66
     1
 10
0.0
 20
0.0
 30
0.0
  0
VERTEX
  5
39F5
330
39F4
100
AcDbEntity
  8
HIDDEN
 48
0.5
100
AcDbVertex
100
AcDb2dVertex
 10
583.8772778737248
 20
1030.395474750063
 30
0.0
  0
VERTEX
  5
39F6
330
39F4
100
AcDbEntity
  8
HIDDEN
 48
0.5
100
AcDbVertex
100
AcDb2dVertex
 10
539.8318306135143
 20
1030.395474750063
 30
0.0
  0
SEQEND
  5
39F7
330
39F4
100
AcDbEntity
  8
HIDDEN
 48
0.5
  0
POLYLINE
  5
39F8
330
A
100
AcDbEntity
  8
HIDDEN
100
AcDb2dPolyline
 66
     1
 10
0.0
 20
0.0
 30
0.0
  0
VERTEX
  5
39F9
330
39F8
100
AcDbEntity
  8
HIDDEN
100
AcDbVertex
100
AcDb2dVertex
 10
525.3503827737686
 20
1042.094670988718
 30
0.0
  0
VERTEX
  5
39FA
330
39F8
100
AcDbEntity
  8
HIDDEN
100
AcDbVertex
100
AcDb2dVertex
 10
598.2350700867528
 20
1042.094670988718
 30
0.0
  0
SEQEND
  5
39FB
330
39F8
100
AcDbEntity
  8
HIDDEN
  0
POLYLINE
  5
39FC
330
A
100
AcDbEntity
  8
MODEL
100
AcDb2dPolyline
 66
     1
 10
0.0
 20
0.0
 30
0.0
  0
VERTEX
  5
39FD
330
39FC
100
AcDbEntity
  8
MODEL
100
AcDbVertex
100
AcDb2dVertex
 10
301.7260516165798
 20
1129.945124012746
 30
0.0
  0
VERTEX
  5
39FE
330
39FC
100
AcDbEntity
  8
MODEL
100
AcDbVertex
100
AcDb2dVertex
 10
304.0239853463672
 20
1116.920064665424
 30
0.0
  0
VERTEX
  5
39FF
330
39FC
100
AcDbEntity
  8
MODEL
100
AcDbVertex
100
AcDb2dVertex
 10
306.9161530600932
 20
1103.874396046982
 30
0.0
  0
VERTEX
  5
3A00
330
39FC
100
AcDbEntity
  8
MODEL
100
AcDbVertex
100
AcDb2dVertex
 10
310.2995084021595
 20
1091.08977819605
 30
0.0
  0
VERTEX
  5
3A01
330
39FC
100
AcDbEntity
  8
MODEL
100
AcDbVertex
100
AcDb2dVertex
 10
314.1534421014467
 20
1078.415076457755
 30
0.0
  0
VERTEX
  5
3A02
330
39FC
100
AcDbEntity
  8
MODEL
100
AcDbVertex
100
AcDb2dVertex
 10
318.3817775593989
 20
1065.877769860253
 30
0.0
  0
VERTEX
  5
3A03
330
39FC
100
AcDbEntity
  8
MODEL
100
AcDbVertex
100
AcDb2dVertex
 10
323.2146516368439
 20
1053.429770104267
 30
0.0
  0
VERTEX
  5
3A04
330
39FC
100
AcDbEntity
  8
MODEL
100
AcDbVertex
100
AcDb2dVertex
 10
328.5112343144747
 20
1041.249690872832
 30
0.0
  0
VERTEX
  5
3A05
330
39FC
100
AcDbEntity
  8
MODEL
100
AcDbVertex
100
AcDb2dVertex
 10
334.1959582648478
 20
1029.303183380747
 30
0.0
  0
VERTEX
  5
3A06
330
39FC
100
AcDbEntity
  8
MODEL
100
AcDbVertex
100
AcDb2dVertex
 10
340.3443908154031
 20
1017.597117385051
 30
0.0
  0
VERTEX
  5
3A07
330
39FC
100
AcDbEntity
  8
MODEL
100
AcDbVertex
100
AcDb2dVertex
 10
346.9840109942988
 20
1006.000967501992
 30
0.0
  0
VERTEX
  5
3A08
330
39FC
100
AcDbEntity
  8
MODEL
100
AcDbVertex
100
AcDb2dVertex
 10
353.9774236607436
 20
994.7963937701982
 30
0.0
  0
VERTEX
  5
3A09
330
39FC
100
AcDbEntity
  8
MODEL
100
AcDbVertex
100
AcDb2dVertex
 10
354.7159225425121
 20
994.0681995239868
 30
0.0
  0
VERTEX
  5
3A0A
330
39FC
100
AcDbEntity
  8
MODEL
100
AcDbVertex
100
AcDb2dVertex
 10
355.5540329013593
 20
993.5804467741666
 30
0.0
  0
SEQEND
  5
3A0B
330
39FC
100
AcDbEntity
  8
MODEL
  0
POLYLINE
  5
3A0C
330
A
100
AcDbEntity
  8
MODEL
100
AcDb2dPolyline
 66
     1
 10
0.0
 20
0.0
 30
0.0
  0
VERTEX
  5
3A0D
330
3A0C
100
AcDbEntity
  8
MODEL
100
AcDbVertex
100
AcDb2dVertex
 10
758.6164179362195
 20
993.4636609044912
 30
0.0
  0
VERTEX
  5
3A0E
330
3A0C
100
AcDbEntity
  8
MODEL
100
AcDbVertex
100
AcDb2dVertex
 10
768.0279850806428
 20
993.5873165312062
 30
0.0
  0
VERTEX
  5
3A0F
330
3A0C
100
AcDbEntity
  8
MODEL
100
AcDbVertex
100
AcDb2dVertex
 10
768.993185944727
 20
994.0681995239868
 30
0.0
  0
VERTEX
  5
3A10
330
3A0C
100
AcDbEntity
  8
MODEL
100
AcDbVertex
100
AcDb2dVertex
 10
769.5908548071811
 20
994.7963937701982
 30
0.0
  0
SEQEND
  5
3A11
330
3A0C
100
AcDbEntity
  8
MODEL
  0
POLYLINE
  5
3A12
330
A
100
AcDbEntity
  8
MODEL
100
AcDb2dPolyline
 66
     1
 10
0.0
 20
0.0
 30
0.0
  0
VERTEX
  5
3A13
330
3A12
100
AcDbEntity
  8
MODEL
100
AcDbVertex
100
AcDb2dVertex
 10
861.9135196640736
 20
1149.379666678134
 30
0.0
  0
VERTEX
  5
3A14
330
3A12
100
AcDbEntity
  8
MODEL
100
AcDbVertex
100
AcDb2dVertex
 10
861.6730781676806
 20
1150.712399543841
 30
0.0
  0
VERTEX
  5
3A15
330
3A12
100
AcDbEntity
  8
MODEL
100
AcDbVertex
100
AcDb2dVertex
 10
861.1887602963825
 20
1151.790951399077
 30
0.0
  0
VERTEX
  5
3A16
330
3A12
100
AcDbEntity
  8
MODEL
100
AcDbVertex
100
AcDb2dVertex
 10
860.2269943108213
 20
1152.7458476276
 30
0.0
  0
VERTEX
  5
3A17
330
3A12
100
AcDbEntity
  8
MODEL
100
AcDbVertex
100
AcDb2dVertex
 10
859.1415726985424
 20
1153.357256004135
 30
0.0
  0
VERTEX
  5
3A18
330
3A12
100
AcDbEntity
  8
MODEL
100
AcDbVertex
100
AcDb2dVertex
 10
858.2897228256179
 20
1153.47404187381
 30
0.0
  0
SEQEND
  5
3A19
330
3A12
100
AcDbEntity
  8
MODEL
  0
POLYLINE
  5
3A1A
330
A
100
AcDbEntity
  8
MODEL
100
AcDb2dPolyline
 66
     1
 10
0.0
 20
0.0
 30
0.0
  0
VERTEX
  5
3A1B
330
3A1A
100
AcDbEntity
  8
MODEL
100
AcDbVertex
100
AcDb2dVertex
 10
265.7697432706473
 20
1153.480911630851
 30
0.0
  0
VERTEX
  5
3A1C
330
3A1A
100
AcDbEntity
  8
MODEL
100
AcDbVertex
100
AcDb2dVertex
 10
264.4404452834597
 20
1153.350386247095
 30
0.0
  0
VERTEX
  5
3A1D
330
3A1A
100
AcDbEntity
  8
MODEL
100
AcDbVertex
100
AcDb2dVertex
 10
263.3584585497038
 20
1152.752717384639
 30
0.0
  0
VERTEX
  5
3A1E
330
3A1A
100
AcDbEntity
  8
MODEL
100
AcDbVertex
100
AcDb2dVertex
 10
262.5134784338179
 20
1151.790951399077
 30
0.0
  0
VERTEX
  5
3A1F
330
3A1A
100
AcDbEntity
  8
MODEL
100
AcDbVertex
100
AcDb2dVertex
 10
261.9089398143215
 20
1150.712399543841
 30
0.0
  0
VERTEX
  5
3A20
330
3A1A
100
AcDbEntity
  8
MODEL
100
AcDbVertex
100
AcDb2dVertex
 10
261.7887190661268
 20
1149.379666678134
 30
0.0
  0
SEQEND
  5
3A21
330
3A1A
100
AcDbEntity
  8
MODEL
  0
POLYLINE
  5
3A22
330
A
100
AcDbEntity
  8
MODEL
100
AcDb2dPolyline
 66
     1
 10
0.0
 20
0.0
 30
0.0
  0
VERTEX
  5
3A23
330
3A22
100
AcDbEntity
  8
MODEL
100
AcDbVertex
100
AcDb2dVertex
 10
261.7887190661268
 20
1149.379666678134
 30
0.0
  0
VERTEX
  5
3A24
330
3A22
100
AcDbEntity
  8
MODEL
100
AcDbVertex
100
AcDb2dVertex
 10
262.0291605625162
 20
1141.403878755011
 30
0.0
  0
SEQEND
  5
3A25
330
3A22
100
AcDbEntity
  8
MODEL
  0
POLYLINE
  5
3A26
330
A
100
AcDbEntity
  8
MODEL
100
AcDb2dPolyline
 66
     1
 10
0.0
 20
0.0
 30
0.0
  0
VERTEX
  5
3A27
330
3A26
100
AcDbEntity
  8
MODEL
100
AcDbVertex
100
AcDb2dVertex
 10
262.0291605625162
 20
1141.410748512051
 30
0.0
  0
VERTEX
  5
3A28
330
3A26
100
AcDbEntity
  8
MODEL
100
AcDbVertex
100
AcDb2dVertex
 10
262.2730369374285
 20
1140.332196656813
 30
0.0
  0
VERTEX
  5
3A29
330
3A26
100
AcDbEntity
  8
MODEL
100
AcDbVertex
100
AcDb2dVertex
 10
262.9977963051197
 20
1139.356691157172
 30
0.0
  0
VERTEX
  5
3A2A
330
3A26
100
AcDbEntity
  8
MODEL
100
AcDbVertex
100
AcDb2dVertex
 10
263.9561274121615
 20
1138.752152537676
 30
0.0
  0
VERTEX
  5
3A2B
330
3A26
100
AcDbEntity
  8
MODEL
100
AcDbVertex
100
AcDb2dVertex
 10
265.0381141459175
 20
1138.518580798326
 30
0.0
  0
SEQEND
  5
3A2C
330
3A26
100
AcDbEntity
  8
MODEL
  0
POLYLINE
  5
3A2D
330
A
100
AcDbEntity
  8
MODEL
100
AcDb2dPolyline
 66
     1
 10
0.0
 20
0.0
 30
0.0
  0
VERTEX
  5
3A2E
330
3A2D
100
AcDbEntity
  8
MODEL
100
AcDbVertex
100
AcDb2dVertex
 10
265.0449839029561
 20
1138.518580798326
 30
0.0
  0
VERTEX
  5
3A2F
330
3A2D
100
AcDbEntity
  8
MODEL
100
AcDbVertex
100
AcDb2dVertex
 10
828.486082553545
 20
1138.518580798326
 30
0.0
  0
SEQEND
  5
3A30
330
3A2D
100
AcDbEntity
  8
MODEL
  0
POLYLINE
  5
3A31
330
A
100
AcDbEntity
  8
HIDDEN
 48
0.5
100
AcDb2dPolyline
 66
     1
 10
0.0
 20
0.0
 30
0.0
  0
VERTEX
  5
3A32
330
3A31
100
AcDbEntity
  8
HIDDEN
 48
0.5
100
AcDbVertex
100
AcDb2dVertex
 10
593.0346640076814
 20
997.3782392922142
 30
0.0
  0
VERTEX
  5
3A33
330
3A31
100
AcDbEntity
  8
HIDDEN
 48
0.5
100
AcDbVertex
100
AcDb2dVertex
 10
583.8704081166861
 20
997.3782392922142
 30
0.0
  0
SEQEND
  5
3A34
330
3A31
100
AcDbEntity
  8
HIDDEN
 48
0.5
  0
POLYLINE
  5
3A35
330
A
100
AcDbEntity
  8
HIDDEN
 48
0.5
100
AcDb2dPolyline
 66
     1
 10
0.0
 20
0.0
 30
0.0
  0
VERTEX
  5
3A36
330
3A35
100
AcDbEntity
  8
HIDDEN
 48
0.5
100
AcDbVertex
100
AcDb2dVertex
 10
539.8249608564756
 20
997.3782392922142
 30
0.0
  0
VERTEX
  5
3A37
330
3A35
100
AcDbEntity
  8
HIDDEN
 48
0.5
100
AcDbVertex
100
AcDb2dVertex
 10
530.5267447032047
 20
997.3782392922142
 30
0.0
  0
SEQEND
  5
3A38
330
3A35
100
AcDbEntity
  8
HIDDEN
 48
0.5
  0
POLYLINE
  5
3A52
330
A
100
AcDbEntity
  8
HIDDEN
 48
0.5
100
AcDb2dPolyline
 66
     1
 10
0.0
 20
0.0
 30
0.0
  0
VERTEX
  5
3A53
330
3A52
100
AcDbEntity
  8
HIDDEN
 48
0.5
100
AcDbVertex
100
AcDb2dVertex
 10
605.5994496333396
 20
1032.799889713967
 30
0.0
  0
VERTEX
  5
3A54
330
3A52
100
AcDbEntity
  8
HIDDEN
 48
0.5
100
AcDbVertex
100
AcDb2dVertex
 10
603.6656130266592
 20
1032.449532104941
 30
0.0
  0
VERTEX
  5
3A55
330
3A52
100
AcDbEntity
  8
HIDDEN
 48
0.5
100
AcDbVertex
100
AcDb2dVertex
 10
601.9687830378452
 20
1031.721337858731
 30
0.0
  0
VERTEX
  5
3A56
330
3A52
100
AcDbEntity
  8
HIDDEN
 48
0.5
100
AcDbVertex
100
AcDb2dVertex
 10
600.4093481898262
 20
1030.512260619739
 30
0.0
  0
VERTEX
  5
3A57
330
3A52
100
AcDbEntity
  8
HIDDEN
 48
0.5
100
AcDbVertex
100
AcDb2dVertex
 10
599.196836072314
 20
1029.055872127316
 30
0.0
  0
VERTEX
  5
3A58
330
3A52
100
AcDbEntity
  8
HIDDEN
 48
0.5
100
AcDbVertex
100
AcDb2dVertex
 10
598.3552908349475
 20
1027.255995782907
 30
0.0
  0
VERTEX
  5
3A59
330
3A52
100
AcDbEntity
  8
HIDDEN
 48
0.5
100
AcDbVertex
100
AcDb2dVertex
 10
597.9946285903634
 20
1025.44237992442
 30
0.0
  0
SEQEND
  5
3A5A
330
3A52
100
AcDbEntity
  8
HIDDEN
 48
0.5
  0
POLYLINE
  5
3A5B
330
A
100
AcDbEntity
  8
MODEL
100
AcDb2dPolyline
 66
     1
 10
0.0
 20
0.0
 30
0.0
  0
VERTEX
  5
3A5C
330
3A5B
100
AcDbEntity
  8
MODEL
100
AcDbVertex
100
AcDb2dVertex
 10
735.1974161877906
 20
992.3782392922142
 30
0.0
  0
VERTEX
  5
3A5D
330
3A5B
100
AcDbEntity
  8
MODEL
100
AcDbVertex
100
AcDb2dVertex
 10
742.3179193594651
 20
992.3782392922142
 30
0.0
  0
SEQEND
  5
3A5E
330
3A5B
100
AcDbEntity
  8
MODEL
  0
POLYLINE
  5
3A5F
330
A
100
AcDbEntity
  8
HIDDEN
100
AcDb2dPolyline
 66
     1
 10
0.0
 20
0.0
 30
0.0
  0
VERTEX
  5
3A60
330
3A5F
100
AcDbEntity
  8
HIDDEN
100
AcDbVertex
100
AcDb2dVertex
 10
604.3903723943504
 20
1043.777761463451
 30
0.0
  0
VERTEX
  5
3A61
330
3A5F
100
AcDbEntity
  8
HIDDEN
100
AcDbVertex
100
AcDb2dVertex
 10
601.9756527948839
 20
1043.427403854425
 30
0.0
  0
VERTEX
  5
3A62
330
3A5F
100
AcDbEntity
  8
HIDDEN
100
AcDbVertex
100
AcDb2dVertex
 10
599.6777190650964
 20
1042.706079365254
 30
0.0
  0
VERTEX
  5
3A63
330
3A5F
100
AcDbEntity
  8
HIDDEN
100
AcDbVertex
100
AcDb2dVertex
 10
597.503440962023
 20
1041.606918238898
 30
0.0
  0
VERTEX
  5
3A64
330
3A5F
100
AcDbEntity
  8
HIDDEN
100
AcDbVertex
100
AcDb2dVertex
 10
595.4631231212252
 20
1040.28105513023
 30
0.0
  0
SEQEND
  5
3A65
330
3A5F
100
AcDbEntity
  8
HIDDEN
  0
POLYLINE
  5
3A66
330
A
100
AcDbEntity
  8
HIDDEN
100
AcDb2dPolyline
 66
     1
 10
0.0
 20
0.0
 30
0.0
  0
VERTEX
  5
3A67
330
3A66
100
AcDbEntity
  8
HIDDEN
100
AcDbVertex
100
AcDb2dVertex
 10
528.1188948607805
 20
1040.28105513023
 30
0.0
  0
VERTEX
  5
3A68
330
3A66
100
AcDbEntity
  8
HIDDEN
100
AcDbVertex
100
AcDb2dVertex
 10
526.1919280111388
 20
1041.613787995937
 30
0.0
  0
VERTEX
  5
3A69
330
3A66
100
AcDbEntity
  8
HIDDEN
100
AcDbVertex
100
AcDb2dVertex
 10
524.0176499080617
 20
1042.706079365254
 30
0.0
  0
VERTEX
  5
3A6A
330
3A66
100
AcDbEntity
  8
HIDDEN
100
AcDbVertex
100
AcDb2dVertex
 10
521.7265859353129
 20
1043.427403854425
 30
0.0
  0
VERTEX
  5
3A6B
330
3A66
100
AcDbEntity
  8
HIDDEN
100
AcDbVertex
100
AcDb2dVertex
 10
519.3187360928887
 20
1043.777761463451
 30
0.0
  0
SEQEND
  5
3A6C
330
3A66
100
AcDbEntity
  8
HIDDEN
  0
POLYLINE
  5
3A6D
330
A
100
AcDbEntity
  8
HIDDEN
 48
0.5
100
AcDb2dPolyline
 66
     1
 10
0.0
 20
0.0
 30
0.0
  0
VERTEX
  5
3A6E
330
3A6D
100
AcDbEntity
  8
HIDDEN
 48
0.5
100
AcDbVertex
100
AcDb2dVertex
 10
538.1384355032233
 20
1031.838123728406
 30
0.0
  0
VERTEX
  5
3A6F
330
3A6D
100
AcDbEntity
  8
HIDDEN
 48
0.5
100
AcDbVertex
100
AcDb2dVertex
 10
528.1188948607805
 20
1040.28105513023
 30
0.0
  0
SEQEND
  5
3A70
330
3A6D
100
AcDbEntity
  8
HIDDEN
 48
0.5
  0
POLYLINE
  5
3A71
330
A
100
AcDbEntity
  8
HIDDEN
 48
0.5
100
AcDb2dPolyline
 66
     1
 10
0.0
 20
0.0
 30
0.0
  0
VERTEX
  5
3DCE
330
3A71
100
AcDbEntity
  8
HIDDEN
 48
0.5
100
AcDbVertex
100
AcDb2dVertex
 10
539.7902402635222
 20
997.3782392922142
 30
0.0
  0
VERTEX
  5
3DCF
330
3A71
100
AcDbEntity
  8
HIDDEN
 48
0.5
100
AcDbVertex
100
AcDb2dVertex
 10
539.2272919940178
 20
1029.660410746812
 30
0.0
  0
SEQEND
  5
3DD3
330
3A71
100
AcDbEntity
  8
HIDDEN
 48
0.5
  0
POLYLINE
  5
3A75
330
A
100
AcDbEntity
  8
HIDDEN
 48
0.5
100
AcDb2dPolyline
 66
     1
 10
0.0
 20
0.0
 30
0.0
  0
VERTEX
  5
3A76
330
3A75
100
AcDbEntity
  8
HIDDEN
 48
0.5
100
AcDbVertex
100
AcDb2dVertex
 10
585.4401476002631
 20
1031.838123728406
 30
0.0
  0
VERTEX
  5
3A77
330
3A75
100
AcDbEntity
  8
HIDDEN
 48
0.5
100
AcDbVertex
100
AcDb2dVertex
 10
595.4699928782638
 20
1040.28105513023
 30
0.0
  0
SEQEND
  5
3A78
330
3A75
100
AcDbEntity
  8
HIDDEN
 48
0.5
  0
POLYLINE
  5
3A79
330
A
100
AcDbEntity
  8
HIDDEN
 48
0.5
100
AcDb2dPolyline
 66
     1
 10
0.0
 20
0.0
 30
0.0
  0
VERTEX
  5
3DD0
330
3A79
100
AcDbEntity
  8
HIDDEN
 48
0.5
100
AcDbVertex
100
AcDb2dVertex
 10
583.911998466678
 20
997.3782392922142
 30
0.0
  0
VERTEX
  5
3DD1
330
3A79
100
AcDbEntity
  8
HIDDEN
 48
0.5
100
AcDbVertex
100
AcDb2dVertex
 10
584.4749467361789
 20
1029.660410746812
 30
0.0
  0
SEQEND
  5
3DD2
330
3A79
100
AcDbEntity
  8
HIDDEN
 48
0.5
  0
POLYLINE
  5
3A7D
330
A
100
AcDbEntity
  8
HIDDEN
 48
0.5
100
AcDb2dPolyline
 66
     1
 10
0.0
 20
0.0
 30
0.0
  0
VERTEX
  5
3A7E
330
3A7D
100
AcDbEntity
  8
HIDDEN
 48
0.5
100
AcDbVertex
100
AcDb2dVertex
 10
585.4401476002631
 20
1031.838123728406
 30
0.0
  0
VERTEX
  5
3A7F
330
3A7D
100
AcDbEntity
  8
HIDDEN
 48
0.5
100
AcDbVertex
100
AcDb2dVertex
 10
584.715388232572
 20
1030.862618228765
 30
0.0
  0
VERTEX
  5
3A80
330
3A7D
100
AcDbEntity
  8
HIDDEN
 48
0.5
100
AcDbVertex
100
AcDb2dVertex
 10
584.4680769791403
 20
1029.660410746812
 30
0.0
  0
SEQEND
  5
3A81
330
3A7D
100
AcDbEntity
  8
HIDDEN
 48
0.5
  0
POLYLINE
  5
3A82
330
A
100
AcDbEntity
  8
HIDDEN
 48
0.5
100
AcDb2dPolyline
 66
     1
 10
0.0
 20
0.0
 30
0.0
  0
VERTEX
  5
3A83
330
3A82
100
AcDbEntity
  8
HIDDEN
 48
0.5
100
AcDbVertex
100
AcDb2dVertex
 10
539.2272919940178
 20
1029.667280503852
 30
0.0
  0
VERTEX
  5
3A84
330
3A82
100
AcDbEntity
  8
HIDDEN
 48
0.5
100
AcDbVertex
100
AcDb2dVertex
 10
538.8700646279531
 20
1030.869487985804
 30
0.0
  0
VERTEX
  5
3A85
330
3A82
100
AcDbEntity
  8
HIDDEN
 48
0.5
100
AcDbVertex
100
AcDb2dVertex
 10
538.1453052602619
 20
1031.844993485445
 30
0.0
  0
SEQEND
  5
3A86
330
3A82
100
AcDbEntity
  8
HIDDEN
 48
0.5
  0
SPLINE
  5
3A87
330
A
100
AcDbEntity
  8
MODEL
100
AcDbSpline
210
0.0
220
0.0
230
1.0
 70
    11
 71
     3
 72
    29
 73
    25
 74
     0
 42
0.000000001
 43
0.0000000001
 40
0.0
 40
0.0
 40
0.0
 40
0.0
 40
1.0
 40
1.0
 40
1.0
 40
2.0
 40
2.0
 40
2.0
 40
3.0
 40
3.0
 40
3.0
 40
4.0
 40
4.0
 40
4.0
 40
5.0
 40
5.0
 40
5.0
 40
6.0
 40
6.0
 40
6.0
 40
7.0
 40
7.0
 40
7.0
 40
8.0
 40
8.0
 40
8.0
 40
8.0
 10
550.0815081167884
 20
2058.736316668975
 30
0.0
 10
550.0815081167884
 20
2058.736316668975
 30
0.0
 10
553.2278568409811
 20
2058.983627922406
 30
0.0
 10
553.2278568409811
 20
2058.983627922406
 30
0.0
 10
553.2278568409811
 20
2058.983627922406
 30
0.0
 10
556.3570311725771
 20
2059.581296784861
 30
0.0
 10
556.3570311725771
 20
2059.581296784861
 30
0.0
 10
578.9035737769618
 20
2066.986894873687
 30
0.0
 10
576.7018166457301
 20
2098.495035536394
 30
0.0
 10
553.2278568409811
 20
2102.548192189834
 30
0.0
 10
553.2278568409811
 20
2102.548192189834
 30
0.0
 10
550.0815081167884
 20
2102.781763929184
 30
0.0
 10
550.0815081167884
 20
2102.781763929184
 30
0.0
 10
550.0815081167884
 20
2102.781763929184
 30
0.0
 10
546.9454640281538
 20
2102.548192189834
 30
0.0
 10
546.9454640281538
 20
2102.548192189834
 30
0.0
 10
523.5195925226826
 20
2098.488165779355
 30
0.0
 10
521.3659236907288
 20
2066.825455583254
 30
0.0
 10
543.9399453232718
 20
2059.581296784861
 30
0.0
 10
543.9399453232718
 20
2059.581296784861
 30
0.0
 10
546.9454640281538
 20
2058.983627922406
 30
0.0
 10
546.9454640281538
 20
2058.983627922406
 30
0.0
 10
546.9454640281538
 20
2058.983627922406
 30
0.0
 10
550.0815081167884
 20
2058.736316668975
 30
0.0
 10
550.0815081167884
 20
2058.736316668975
 30
0.0
  0
SPLINE
  5
3A88
330
A
100
AcDbEntity
  8
MODEL
100
AcDbSpline
210
0.0
220
0.0
230
1.0
 70
     8
 71
     3
 72
    44
 73
    40
 74
     0
 42
0.000000001
 43
0.0000000001
 40
0.0
 40
0.0
 40
0.0
 40
0.0
 40
1.0
 40
1.0
 40
1.0
 40
2.0
 40
2.0
 40
2.0
 40
3.0
 40
3.0
 40
3.0
 40
4.0
 40
4.0
 40
4.0
 40
5.0
 40
5.0
 40
5.0
 40
6.0
 40
6.0
 40
6.0
 40
7.0
 40
7.0
 40
7.0
 40
8.0
 40
8.0
 40
8.0
 40
9.0
 40
9.0
 40
9.0
 40
10.0
 40
10.0
 40
10.0
 40
11.0
 40
11.0
 40
11.0
 40
12.0
 40
12.0
 40
12.0
 40
13.0
 40
13.0
 40
13.0
 40
13.0
 10
550.0815081167884
 20
1855.759040294683
 30
0.0
 10
550.0815081167884
 20
1855.759040294683
 30
0.0
 10
539.4677334904109
 20
1855.759040294683
 30
0.0
 10
539.4677334904109
 20
1855.759040294683
 30
0.0
 10
505.1945156192114
 20
1856.013221305153
 30
0.0
 10
471.2956995066806
 20
1857.792488378442
 30
0.0
 10
437.1289628695986
 20
1860.581609736571
 30
0.0
 10
437.1289628695986
 20
1860.581609736571
 30
0.0
 10
433.6322565363762
 20
1860.945706859676
 30
0.0
 10
433.6322565363762
 20
1860.945706859676
 30
0.0
 10
433.6322565363762
 20
1860.945706859676
 30
0.0
 10
430.1286804461151
 20
1861.316673739822
 30
0.0
 10
430.1286804461151
 20
1861.316673739822
 30
0.0
 10
397.043930542789
 20
1864.531720034414
 30
0.0
 10
360.9845758412621
 20
1868.289477135145
 30
0.0
 10
329.0058568213344
 20
1877.22703104383
 30
0.0
 10
329.0058568213344
 20
1877.22703104383
 30
0.0
 10
322.246015894244
 20
1879.418483539502
 30
0.0
 10
322.246015894244
 20
1879.418483539502
 30
0.0
 10
322.246015894244
 20
1879.418483539502
 30
0.0
 10
318.8695303092163
 20
1880.620691021455
 30
0.0
 10
318.8695303092163
 20
1880.620691021455
 30
0.0
 10
318.8695303092163
 20
1880.620691021455
 30
0.0
 10
315.6098305938676
 20
1881.939684373082
 30
0.0
 10
315.6098305938676
 20
1881.939684373082
 30
0.0
 10
280.1275354836789
 20
1896.022686304522
 30
0.0
 10
265.2373371000713
 20
1925.356548864157
 30
0.0
 10
258.0481363579956
 20
1960.98997862922
 30
0.0
 10
258.0481363579956
 20
1960.98997862922
 30
0.0
 10
257.3165072332658
 20
1964.486684962441
 30
0.0
 10
257.3165072332658
 20
1964.486684962441
 30
0.0
 10
257.3165072332658
 20
1964.486684962441
 30
0.0
 10
256.7257081278467
 20
1967.873475183027
 30
0.0
 10
256.7257081278467
 20
1967.873475183027
 30
0.0
 10
251.3226442161022
 20
2001.136838769384
 30
0.0
 10
250.6665824188085
 20
2036.385562140223
 30
0.0
 10
250.0826530704317
 20
2070.081720420084
 30
0.0
 10
250.0826530704317
 20
2070.081720420084
 30
0.0
 10
250.0826530704317
 20
2080.698929924982
 30
0.0
 10
250.0826530704317
 20
2080.698929924982
 30
0.0
  0
SPLINE
  5
3A89
330
A
100
AcDbEntity
  8
MODEL
100
AcDbSpline
210
0.0
220
0.0
230
1.0
 70
     8
 71
     3
 72
    50
 73
    46
 74
     0
 42
0.000000001
 43
0.0000000001
 40
0.0
 40
0.0
 40
0.0
 40
0.0
 40
1.0
 40
1.0
 40
1.0
 40
2.0
 40
2.0
 40
2.0
 40
3.0
 40
3.0
 40
3.0
 40
4.0
 40
4.0
 40
4.0
 40
5.0
 40
5.0
 40
5.0
 40
6.0
 40
6.0
 40
6.0
 40
7.0
 40
7.0
 40
7.0
 40
8.0
 40
8.0
 40
8.0
 40
9.0
 40
9.0
 40
9.0
 40
10.0
 40
10.0
 40
10.0
 40
11.0
 40
11.0
 40
11.0
 40
12.0
 40
12.0
 40
12.0
 40
13.0
 40
13.0
 40
13.0
 40
14.0
 40
14.0
 40
14.0
 40
15.0
 40
15.0
 40
15.0
 40
15.0
 10
550.0815081167884
 20
2305.759040303476
 30
0.0
 10
550.0815081167884
 20
2305.759040303476
 30
0.0
 10
546.584801783566
 20
2305.759040303476
 30
0.0
 10
546.584801783566
 20
2305.759040303476
 30
0.0
 10
546.584801783566
 20
2305.759040303476
 30
0.0
 10
543.0846605718243
 20
2305.631949798241
 30
0.0
 10
543.0846605718243
 20
2305.631949798241
 30
0.0
 10
543.0846605718243
 20
2305.631949798241
 30
0.0
 10
539.4677334904109
 20
2305.631949798241
 30
0.0
 10
539.4677334904109
 20
2305.631949798241
 30
0.0
 10
505.3490851526067
 20
2305.453336115209
 30
0.0
 10
471.1170858236464
 20
2303.746201490836
 30
0.0
 10
437.1289628695986
 20
2300.812815234873
 30
0.0
 10
437.1289628695986
 20
2300.812815234873
 30
0.0
 10
433.6322565363762
 20
2300.445283233247
 30
0.0
 10
433.6322565363762
 20
2300.445283233247
 30
0.0
 10
433.6322565363762
 20
2300.445283233247
 30
0.0
 10
430.1286804461151
 20
2300.215146372417
 30
0.0
 10
430.1286804461151
 20
2300.215146372417
 30
0.0
 10
396.9443190657139
 20
2296.745919067354
 30
0.0
 10
361.0910570753795
 20
2293.276691762292
 30
0.0
 10
329.0058568213344
 20
2284.160524170575
 30
0.0
 10
329.0058568213344
 20
2284.160524170575
 30
0.0
 10
322.246015894244
 20
2281.986246067501
 30
0.0
 10
322.246015894244
 20
2281.986246067501
 30
0.0
 10
322.246015894244
 20
2281.986246067501
 30
0.0
 10
318.8695303092163
 20
2280.777168828509
 30
0.0
 10
318.8695303092163
 20
2280.777168828509
 30
0.0
 10
318.8695303092163
 20
2280.777168828509
 30
0.0
 10
315.6098305938676
 20
2279.447870841323
 30
0.0
 10
315.6098305938676
 20
2279.447870841323
 30
0.0
 10
280.1275354836789
 20
2265.519438443276
 30
0.0
 10
265.2098580719094
 20
2235.938264630212
 30
0.0
 10
258.0481363579956
 20
2200.407881220744
 30
0.0
 10
258.0481363579956
 20
2200.407881220744
 30
0.0
 10
257.3165072332658
 20
2197.031395635718
 30
0.0
 10
257.3165072332658
 20
2197.031395635718
 30
0.0
 10
257.3165072332658
 20
2197.031395635718
 30
0.0
 10
256.7257081278467
 20
2193.534689302497
 30
0.0
 10
256.7257081278467
 20
2193.534689302497
 30
0.0
 10
251.3157744590635
 20
2160.274760594659
 30
0.0
 10
250.6665824188085
 20
2125.001993074181
 30
0.0
 10
250.0826530704317
 20
2091.31270455136
 30
0.0
 10
250.0826530704317
 20
2091.31270455136
 30
0.0
 10
250.0826530704317
 20
2080.692060167942
 30
0.0
 10
250.0826530704317
 20
2080.692060167942
 30
0.0
  0
SPLINE
  5
3A8A
330
A
100
AcDbEntity
  8
MODEL
100
AcDbSpline
210
0.0
220
0.0
230
1.0
 70
     8
 71
     3
 72
    56
 73
    52
 74
     0
 42
0.000000001
 43
0.0000000001
 40
0.0
 40
0.0
 40
0.0
 40
0.0
 40
1.0
 40
1.0
 40
1.0
 40
2.0
 40
2.0
 40
2.0
 40
3.0
 40
3.0
 40
3.0
 40
4.0
 40
4.0
 40
4.0
 40
5.0
 40
5.0
 40
5.0
 40
6.0
 40
6.0
 40
6.0
 40
7.0
 40
7.0
 40
7.0
 40
8.0
 40
8.0
 40
8.0
 40
9.0
 40
9.0
 40
9.0
 40
10.0
 40
10.0
 40
10.0
 40
11.0
 40
11.0
 40
11.0
 40
12.0
 40
12.0
 40
12.0
 40
13.0
 40
13.0
 40
13.0
 40
14.0
 40
14.0
 40
14.0
 40
15.0
 40
15.0
 40
15.0
 40
16.0
 40
16.0
 40
16.0
 40
17.0
 40
17.0
 40
17.0
 40
17.0
 10
550.0815081167884
 20
2305.759040303476
 30
0.0
 10
550.0815081167884
 20
2305.759040303476
 30
0.0
 10
553.5782144500072
 20
2305.759040303476
 30
0.0
 10
553.5782144500072
 20
2305.759040303476
 30
0.0
 10
553.5782144500072
 20
2305.759040303476
 30
0.0
 10
557.2020112884629
 20
2305.631949798241
 30
0.0
 10
557.2020112884629
 20
2305.631949798241
 30
0.0
 10
557.2020112884629
 20
2305.631949798241
 30
0.0
 10
560.6987176216853
 20
2305.631949798241
 30
0.0
 10
560.6987176216853
 20
2305.631949798241
 30
0.0
 10
594.8001915668892
 20
2305.453336115209
 30
0.0
 10
629.0665396810464
 20
2303.746201490836
 30
0.0
 10
663.0374882424976
 20
2300.812815234873
 30
0.0
 10
663.0374882424976
 20
2300.812815234873
 30
0.0
 10
666.6544153239147
 20
2300.445283233247
 30
0.0
 10
666.6544153239147
 20
2300.445283233247
 30
0.0
 10
666.6544153239147
 20
2300.445283233247
 30
0.0
 10
670.1579914141757
 20
2300.215146372417
 30
0.0
 10
670.1579914141757
 20
2300.215146372417
 30
0.0
 10
703.3870062153355
 20
2296.732179553275
 30
0.0
 10
739.1234823359946
 20
2293.249212734134
 30
0.0
 10
771.2808150389565
 20
2284.160524170575
 30
0.0
 10
771.2808150389565
 20
2284.160524170575
 30
0.0
 10
774.6504308669419
 20
2283.071667679778
 30
0.0
 10
774.6504308669419
 20
2283.071667679778
 30
0.0
 10
774.6504308669419
 20
2283.071667679778
 30
0.0
 10
777.9204352178522
 20
2281.986246067501
 30
0.0
 10
777.9204352178522
 20
2281.986246067501
 30
0.0
 10
777.9204352178522
 20
2281.986246067501
 30
0.0
 10
781.2969208028762
 20
2280.777168828509
 30
0.0
 10
781.2969208028762
 20
2280.777168828509
 30
0.0
 10
781.2969208028762
 20
2280.777168828509
 30
0.0
 10
784.5463158826669
 20
2279.447870841323
 30
0.0
 10
784.5463158826669
 20
2279.447870841323
 30
0.0
 10
820.3617942092851
 20
2265.351129395803
 30
0.0
 10
834.6886725156355
 20
2236.106573677685
 30
0.0
 10
842.2385355022952
 20
2200.407881220744
 30
0.0
 10
842.2385355022952
 20
2200.407881220744
 30
0.0
 10
842.8362043647494
 20
2197.031395635718
 30
0.0
 10
842.8362043647494
 20
2197.031395635718
 30
0.0
 10
842.8362043647494
 20
2197.031395635718
 30
0.0
 10
843.4544824983268
 20
2193.534689302497
 30
0.0
 10
843.4544824983268
 20
2193.534689302497
 30
0.0
 10
848.9125044663879
 20
2160.676641381483
 30
0.0
 10
849.527347721446
 20
2124.672244736274
 30
0.0
 10
850.0734934061029
 20
2091.31270455136
 30
0.0
 10
850.0734934061029
 20
2091.31270455136
 30
0.0
 10
850.2074536683785
 20
2087.81599821814
 30
0.0
 10
850.2074536683785
 20
2087.81599821814
 30
0.0
 10
850.2074536683785
 20
2087.81599821814
 30
0.0
 10
850.2074536683785
 20
2080.692060167942
 30
0.0
 10
850.2074536683785
 20
2080.692060167942
 30
0.0
  0
SPLINE
  5
3A8B
330
A
100
AcDbEntity
  8
MODEL
100
AcDbSpline
210
0.0
220
0.0
230
1.0
 70
     8
 71
     3
 72
    50
 73
    46
 74
     0
 42
0.000000001
 43
0.0000000001
 40
0.0
 40
0.0
 40
0.0
 40
0.0
 40
1.0
 40
1.0
 40
1.0
 40
2.0
 40
2.0
 40
2.0
 40
3.0
 40
3.0
 40
3.0
 40
4.0
 40
4.0
 40
4.0
 40
5.0
 40
5.0
 40
5.0
 40
6.0
 40
6.0
 40
6.0
 40
7.0
 40
7.0
 40
7.0
 40
8.0
 40
8.0
 40
8.0
 40
9.0
 40
9.0
 40
9.0
 40
10.0
 40
10.0
 40
10.0
 40
11.0
 40
11.0
 40
11.0
 40
12.0
 40
12.0
 40
12.0
 40
13.0
 40
13.0
 40
13.0
 40
14.0
 40
14.0
 40
14.0
 40
15.0
 40
15.0
 40
15.0
 40
15.0
 10
550.0815081167884
 20
1855.759040294683
 30
0.0
 10
550.0815081167884
 20
1855.759040294683
 30
0.0
 10
560.6987176216853
 20
1855.759040294683
 30
0.0
 10
560.6987176216853
 20
1855.759040294683
 30
0.0
 10
594.9856750069621
 20
1856.013221305153
 30
0.0
 10
628.8844911194965
 20
1857.778748864362
 30
0.0
 10
663.0374882424976
 20
1860.581609736571
 30
0.0
 10
663.0374882424976
 20
1860.581609736571
 30
0.0
 10
666.6544153239147
 20
1860.945706859676
 30
0.0
 10
666.6544153239147
 20
1860.945706859676
 30
0.0
 10
666.6544153239147
 20
1860.945706859676
 30
0.0
 10
670.1579914141757
 20
1861.316673739822
 30
0.0
 10
670.1579914141757
 20
1861.316673739822
 30
0.0
 10
703.3045691308571
 20
1864.552329305534
 30
0.0
 10
739.2230938130697
 20
1868.316956163304
 30
0.0
 10
771.2808150389565
 20
1877.22703104383
 30
0.0
 10
771.2808150389565
 20
1877.22703104383
 30
0.0
 10
774.6504308669419
 20
1878.326192170186
 30
0.0
 10
774.6504308669419
 20
1878.326192170186
 30
0.0
 10
774.6504308669419
 20
1878.326192170186
 30
0.0
 10
777.9204352178522
 20
1879.418483539502
 30
0.0
 10
777.9204352178522
 20
1879.418483539502
 30
0.0
 10
777.9204352178522
 20
1879.418483539502
 30
0.0
 10
781.2969208028762
 20
1880.620691021455
 30
0.0
 10
781.2969208028762
 20
1880.620691021455
 30
0.0
 10
781.2969208028762
 20
1880.620691021455
 30
0.0
 10
784.5463158826669
 20
1881.939684373082
 30
0.0
 10
784.5463158826669
 20
1881.939684373082
 30
0.0
 10
820.3892732374434
 20
1896.235648772754
 30
0.0
 10
834.6337144593153
 20
1925.171065424084
 30
0.0
 10
842.2385355022952
 20
1960.98997862922
 30
0.0
 10
842.2385355022952
 20
1960.98997862922
 30
0.0
 10
842.8362043647494
 20
1964.486684962441
 30
0.0
 10
842.8362043647494
 20
1964.486684962441
 30
0.0
 10
842.8362043647494
 20
1964.486684962441
 30
0.0
 10
843.4544824983268
 20
1967.873475183027
 30
0.0
 10
843.4544824983268
 20
1967.873475183027
 30
0.0
 10
848.9056347093492
 20
2000.74526261812
 30
0.0
 10
849.527347721446
 20
2036.70844072109
 30
0.0
 10
850.0734934061029
 20
2070.081720420084
 30
0.0
 10
850.0734934061029
 20
2070.081720420084
 30
0.0
 10
850.2074536683785
 20
2073.6986475015
 30
0.0
 10
850.2074536683785
 20
2073.6986475015
 30
0.0
 10
850.2074536683785
 20
2073.6986475015
 30
0.0
 10
850.2074536683785
 20
2080.698929924982
 30
0.0
 10
850.2074536683785
 20
2080.698929924982
 30
0.0
  0
SPLINE
  5
3A8C
330
A
100
AcDbEntity
  8
MODEL
100
AcDbSpline
210
0.0
220
0.0
230
1.0
 70
    11
 71
     3
 72
    29
 73
    25
 74
     0
 42
0.000000001
 43
0.0000000001
 40
0.0
 40
0.0
 40
0.0
 40
0.0
 40
1.0
 40
1.0
 40
1.0
 40
2.0
 40
2.0
 40
2.0
 40
3.0
 40
3.0
 40
3.0
 40
4.0
 40
4.0
 40
4.0
 40
5.0
 40
5.0
 40
5.0
 40
6.0
 40
6.0
 40
6.0
 40
7.0
 40
7.0
 40
7.0
 40
8.0
 40
8.0
 40
8.0
 40
8.0
 10
550.0815081167884
 20
2118.228412633011
 30
0.0
 10
550.0815081167884
 20
2118.228412633011
 30
0.0
 10
545.8531726588362
 20
2117.98797113662
 30
0.0
 10
545.8531726588362
 20
2117.98797113662
 30
0.0
 10
545.8531726588362
 20
2117.98797113662
 30
0.0
 10
541.7587974631597
 20
2117.256342011889
 30
0.0
 10
541.7587974631597
 20
2117.256342011889
 30
0.0
 10
500.777261842667
 20
2106.9173576671
 30
0.0
 10
503.9854383802185
 20
2049.252617075632
 30
0.0
 10
545.8531726588362
 20
2043.413323591864
 30
0.0
 10
545.8531726588362
 20
2043.413323591864
 30
0.0
 10
550.0815081167884
 20
2043.166012338433
 30
0.0
 10
550.0815081167884
 20
2043.166012338433
 30
0.0
 10
550.0815081167884
 20
2043.166012338433
 30
0.0
 10
554.3098435747406
 20
2043.413323591864
 30
0.0
 10
554.3098435747406
 20
2043.413323591864
 30
0.0
 10
596.2016220029936
 20
2049.218268290433
 30
0.0
 10
599.4166682975874
 20
2106.958576209338
 30
0.0
 10
558.4110885274558
 20
2117.256342011889
 30
0.0
 10
558.4110885274558
 20
2117.256342011889
 30
0.0
 10
554.3098435747406
 20
2117.98797113662
 30
0.0
 10
554.3098435747406
 20
2117.98797113662
 30
0.0
 10
554.3098435747406
 20
2117.98797113662
 30
0.0
 10
550.0815081167884
 20
2118.228412633011
 30
0.0
 10
550.0815081167884
 20
2118.228412633011
 30
0.0
  0
SPLINE
  5
3A8D
330
A
100
AcDbEntity
  8
MODEL
100
AcDbSpline
210
0.0
220
0.0
230
1.0
 70
     8
 71
     3
 72
    80
 73
    76
 74
     0
 42
0.000000001
 43
0.0000000001
 40
0.0
 40
0.0
 40
0.0
 40
0.0
 40
1.0
 40
1.0
 40
1.0
 40
2.0
 40
2.0
 40
2.0
 40
3.0
 40
3.0
 40
3.0
 40
4.0
 40
4.0
 40
4.0
 40
5.0
 40
5.0
 40
5.0
 40
6.0
 40
6.0
 40
6.0
 40
7.0
 40
7.0
 40
7.0
 40
8.0
 40
8.0
 40
8.0
 40
9.0
 40
9.0
 40
9.0
 40
10.0
 40
10.0
 40
10.0
 40
11.0
 40
11.0
 40
11.0
 40
12.0
 40
12.0
 40
12.0
 40
13.0
 40
13.0
 40
13.0
 40
14.0
 40
14.0
 40
14.0
 40
15.0
 40
15.0
 40
15.0
 40
16.0
 40
16.0
 40
16.0
 40
17.0
 40
17.0
 40
17.0
 40
18.0
 40
18.0
 40
18.0
 40
19.0
 40
19.0
 40
19.0
 40
20.0
 40
20.0
 40
20.0
 40
21.0
 40
21.0
 40
21.0
 40
22.0
 40
22.0
 40
22.0
 40
23.0
 40
23.0
 40
23.0
 40
24.0
 40
24.0
 40
24.0
 40
25.0
 40
25.0
 40
25.0
 40
25.0
 10
549.7174109936814
 20
2201.25973109367
 30
0.0
 10
549.7174109936814
 20
2201.25973109367
 30
0.0
 10
552.7332343341213
 20
2201.25973109367
 30
0.0
 10
552.7332343341213
 20
2201.25973109367
 30
0.0
 10
552.7332343341213
 20
2201.25973109367
 30
0.0
 10
555.7593623101229
 20
2201.132640588435
 30
0.0
 10
555.7593623101229
 20
2201.132640588435
 30
0.0
 10
555.7593623101229
 20
2201.132640588435
 30
0.0
 10
558.8885366417189
 20
2201.01928959728
 30
0.0
 10
558.8885366417189
 20
2201.01928959728
 30
0.0
 10
612.1497629707219
 20
2199.336199122547
 30
0.0
 10
668.0524108814998
 20
2195.447916638061
 30
0.0
 10
720.2419551123048
 20
2184.480349524137
 30
0.0
 10
720.2419551123048
 20
2184.480349524137
 30
0.0
 10
726.0262905397531
 20
2183.030830788754
 30
0.0
 10
726.0262905397531
 20
2183.030830788754
 30
0.0
 10
801.2398254892059
 20
2165.121374186187
 30
0.0
 10
798.9625010305344
 20
2133.754063542793
 30
0.0
 10
802.5416444482316
 20
2065.13893023
 30
0.0
 10
802.5416444482316
 20
2065.13893023
 30
0.0
 10
802.6549954393877
 20
2061.865491000571
 30
0.0
 10
802.6549954393877
 20
2061.865491000571
 30
0.0
 10
802.6549954393877
 20
2061.865491000571
 30
0.0
 10
802.7752161875824
 20
2058.489005415545
 30
0.0
 10
802.7752161875824
 20
2058.489005415545
 30
0.0
 10
802.7752161875824
 20
2058.489005415545
 30
0.0
 10
802.7752161875824
 20
2051.856254993689
 30
0.0
 10
802.7752161875824
 20
2051.856254993689
 30
0.0
 10
802.7752161875824
 20
2051.856254993689
 30
0.0
 10
802.8988718143
 20
2048.599990156858
 30
0.0
 10
802.8988718143
 20
2048.599990156858
 30
0.0
 10
802.3939446718787
 20
2022.460564620697
 30
0.0
 10
801.3875252655589
 20
1992.872521050592
 30
0.0
 10
796.3863421406377
 20
1967.255197049451
 30
0.0
 10
796.3863421406377
 20
1967.255197049451
 30
0.0
 10
795.7749337641026
 20
1964.486684962441
 30
0.0
 10
795.7749337641026
 20
1964.486684962441
 30
0.0
 10
795.7749337641026
 20
1964.486684962441
 30
0.0
 10
795.0570441534501
 20
1961.718172875431
 30
0.0
 10
795.0570441534501
 20
1961.718172875431
 30
0.0
 10
788.3659007967572
 20
1935.812319078621
 30
0.0
 10
770.9407620654883
 20
1924.7588800017
 30
0.0
 10
747.0237029316804
 20
1916.21290224428
 30
0.0
 10
747.0237029316804
 20
1916.21290224428
 30
0.0
 10
744.1315352179545
 20
1915.367922128394
 30
0.0
 10
744.1315352179545
 20
1915.367922128394
 30
0.0
 10
744.1315352179545
 20
1915.367922128394
 30
0.0
 10
741.2290628686706
 20
1914.406156142831
 30
0.0
 10
741.2290628686706
 20
1914.406156142831
 30
0.0
 10
741.2290628686706
 20
1914.406156142831
 30
0.0
 10
738.330025397906
 20
1913.568045783985
 30
0.0
 10
738.330025397906
 20
1913.568045783985
 30
0.0
 10
738.330025397906
 20
1913.568045783985
 30
0.0
 10
735.3176369359853
 20
1912.716195911059
 30
0.0
 10
735.3176369359853
 20
1912.716195911059
 30
0.0
 10
709.3671297184146
 20
1905.709043730538
 30
0.0
 10
682.585381899039
 20
1902.542085735224
 30
0.0
 10
655.9101153137808
 20
1899.677397049657
 30
0.0
 10
655.9101153137808
 20
1899.677397049657
 30
0.0
 10
652.6538504769514
 20
1899.443825310306
 30
0.0
 10
652.6538504769514
 20
1899.443825310306
 30
0.0
 10
652.6538504769514
 20
1899.443825310306
 30
0.0
 10
649.3975856401185
 20
1899.079728187201
 30
0.0
 10
649.3975856401185
 20
1899.079728187201
 30
0.0
 10
620.8297009904154
 20
1896.620355166978
 30
0.0
 10
592.0213748443193
 20
1895.170836431596
 30
0.0
 10
563.3573135960605
 20
1894.738041738093
 30
0.0
 10
563.3573135960605
 20
1894.738041738093
 30
0.0
 10
559.9739582539942
 20
1894.621255868418
 30
0.0
 10
559.9739582539942
 20
1894.621255868418
 30
0.0
 10
559.9739582539942
 20
1894.621255868418
 30
0.0
 10
553.3309031965791
 20
1894.621255868418
 30
0.0
 10
553.3309031965791
 20
1894.621255868418
 30
0.0
 10
553.3309031965791
 20
1894.621255868418
 30
0.0
 10
549.9544176115514
 20
1894.504469998743
 30
0.0
 10
549.9544176115514
 20
1894.504469998743
 30
0.0
  0
SPLINE
  5
3A8E
330
A
100
AcDbEntity
  8
MODEL
100
AcDbSpline
210
0.0
220
0.0
230
1.0
 70
     8
 71
     3
 72
    74
 73
    70
 74
     0
 42
0.000000001
 43
0.0000000001
 40
0.0
 40
0.0
 40
0.0
 40
0.0
 40
1.0
 40
1.0
 40
1.0
 40
2.0
 40
2.0
 40
2.0
 40
3.0
 40
3.0
 40
3.0
 40
4.0
 40
4.0
 40
4.0
 40
5.0
 40
5.0
 40
5.0
 40
6.0
 40
6.0
 40
6.0
 40
7.0
 40
7.0
 40
7.0
 40
8.0
 40
8.0
 40
8.0
 40
9.0
 40
9.0
 40
9.0
 40
10.0
 40
10.0
 40
10.0
 40
11.0
 40
11.0
 40
11.0
 40
12.0
 40
12.0
 40
12.0
 40
13.0
 40
13.0
 40
13.0
 40
14.0
 40
14.0
 40
14.0
 40
15.0
 40
15.0
 40
15.0
 40
16.0
 40
16.0
 40
16.0
 40
17.0
 40
17.0
 40
17.0
 40
18.0
 40
18.0
 40
18.0
 40
19.0
 40
19.0
 40
19.0
 40
20.0
 40
20.0
 40
20.0
 40
21.0
 40
21.0
 40
21.0
 40
22.0
 40
22.0
 40
22.0
 40
23.0
 40
23.0
 40
23.0
 40
23.0
 10
550.2017288649831
 20
2201.25973109367
 30
0.0
 10
550.2017288649831
 20
2201.25973109367
 30
0.0
 10
547.1927752815818
 20
2201.25973109367
 30
0.0
 10
547.1927752815818
 20
2201.25973109367
 30
0.0
 10
547.1927752815818
 20
2201.25973109367
 30
0.0
 10
541.1473890866209
 20
2201.01928959728
 30
0.0
 10
541.1473890866209
 20
2201.01928959728
 30
0.0
 10
487.9582952065384
 20
2199.349938636626
 30
0.0
 10
431.9079475194039
 20
2195.47539566622
 30
0.0
 10
379.807710130116
 20
2184.480349524137
 30
0.0
 10
379.807710130116
 20
2184.480349524137
 30
0.0
 10
374.0062003100675
 20
2183.030830788754
 30
0.0
 10
374.0062003100675
 20
2183.030830788754
 30
0.0
 10
298.8132746317342
 20
2165.330901775898
 30
0.0
 10
300.9291597999718
 20
2133.606363766439
 30
0.0
 10
297.3774954104329
 20
2065.13893023
 30
0.0
 10
297.3774954104329
 20
2065.13893023
 30
0.0
 10
297.2641444192768
 20
2061.865491000571
 30
0.0
 10
297.2641444192768
 20
2061.865491000571
 30
0.0
 10
297.2641444192768
 20
2061.865491000571
 30
0.0
 10
297.1439236710821
 20
2058.489005415545
 30
0.0
 10
297.1439236710821
 20
2058.489005415545
 30
0.0
 10
297.1439236710821
 20
2058.489005415545
 30
0.0
 10
297.1439236710821
 20
2048.599990156858
 30
0.0
 10
297.1439236710821
 20
2048.599990156858
 30
0.0
 10
297.3362768681936
 20
2022.618569032611
 30
0.0
 10
298.6655748553812
 20
1992.707646881639
 30
0.0
 10
303.5327977180268
 20
1967.255197049451
 30
0.0
 10
303.5327977180268
 20
1967.255197049451
 30
0.0
 10
304.1510758516042
 20
1964.486684962441
 30
0.0
 10
304.1510758516042
 20
1964.486684962441
 30
0.0
 10
304.1510758516042
 20
1964.486684962441
 30
0.0
 10
304.8689654622531
 20
1961.718172875431
 30
0.0
 10
304.8689654622531
 20
1961.718172875431
 30
0.0
 10
311.5669785759883
 20
1935.860407377899
 30
0.0
 10
329.0058568213344
 20
1924.738270730581
 30
0.0
 10
352.909176441065
 20
1916.21290224428
 30
0.0
 10
352.909176441065
 20
1916.21290224428
 30
0.0
 10
355.7944743977487
 20
1915.367922128394
 30
0.0
 10
355.7944743977487
 20
1915.367922128394
 30
0.0
 10
355.7944743977487
 20
1915.367922128394
 30
0.0
 10
358.6900769899939
 20
1914.406156142831
 30
0.0
 10
358.6900769899939
 20
1914.406156142831
 30
0.0
 10
358.6900769899939
 20
1914.406156142831
 30
0.0
 10
361.7093352089532
 20
1913.568045783985
 30
0.0
 10
361.7093352089532
 20
1913.568045783985
 30
0.0
 10
361.7093352089532
 20
1913.568045783985
 30
0.0
 10
364.6083726797178
 20
1912.716195911059
 30
0.0
 10
364.6083726797178
 20
1912.716195911059
 30
0.0
 10
390.5588798972885
 20
1905.722783244617
 30
0.0
 10
417.3406277166641
 20
1902.528346221143
 30
0.0
 10
444.0090245448837
 20
1899.677397049657
 30
0.0
 10
444.0090245448837
 20
1899.677397049657
 30
0.0
 10
447.265289381713
 20
1899.443825310306
 30
0.0
 10
447.265289381713
 20
1899.443825310306
 30
0.0
 10
447.265289381713
 20
1899.443825310306
 30
0.0
 10
450.6486447237794
 20
1899.079728187201
 30
0.0
 10
450.6486447237794
 20
1899.079728187201
 30
0.0
 10
479.1890503453242
 20
1896.59974589586
 30
0.0
 10
508.0351601551401
 20
1895.170836431596
 30
0.0
 10
536.688916767841
 20
1894.738041738093
 30
0.0
 10
536.688916767841
 20
1894.738041738093
 30
0.0
 10
539.9383118476317
 20
1894.621255868418
 30
0.0
 10
539.9383118476317
 20
1894.621255868418
 30
0.0
 10
539.9383118476317
 20
1894.621255868418
 30
0.0
 10
546.584801783566
 20
1894.621255868418
 30
0.0
 10
546.584801783566
 20
1894.621255868418
 30
0.0
 10
546.584801783566
 20
1894.621255868418
 30
0.0
 10
549.9612873685937
 20
1894.504469998743
 30
0.0
 10
549.9612873685937
 20
1894.504469998743
 30
0.0
  0
SPLINE
  5
3A8F
330
A
100
AcDbEntity
  8
MODEL
100
AcDbSpline
210
0.0
220
0.0
230
1.0
 70
     8
 71
     3
 72
    53
 73
    49
 74
     0
 42
0.000000001
 43
0.0000000001
 40
0.0
 40
0.0
 40
0.0
 40
0.0
 40
1.0
 40
1.0
 40
1.0
 40
2.0
 40
2.0
 40
2.0
 40
3.0
 40
3.0
 40
3.0
 40
4.0
 40
4.0
 40
4.0
 40
5.0
 40
5.0
 40
5.0
 40
6.0
 40
6.0
 40
6.0
 40
7.0
 40
7.0
 40
7.0
 40
8.0
 40
8.0
 40
8.0
 40
9.0
 40
9.0
 40
9.0
 40
10.0
 40
10.0
 40
10.0
 40
11.0
 40
11.0
 40
11.0
 40
12.0
 40
12.0
 40
12.0
 40
13.0
 40
13.0
 40
13.0
 40
14.0
 40
14.0
 40
14.0
 40
15.0
 40
15.0
 40
15.0
 40
16.0
 40
16.0
 40
16.0
 40
16.0
 10
550.0815081167884
 20
2180.983643190916
 30
0.0
 10
550.0815081167884
 20
2180.983643190916
 30
0.0
 10
548.7522101296008
 20
2180.983643190916
 30
0.0
 10
548.7522101296008
 20
2180.983643190916
 30
0.0
 10
548.7522101296008
 20
2180.983643190916
 30
0.0
 10
547.4297818994519
 20
2181.096994182071
 30
0.0
 10
547.4297818994519
 20
2181.096994182071
 30
0.0
 10
547.4297818994519
 20
2181.096994182071
 30
0.0
 10
546.1004839122643
 20
2181.096994182071
 30
0.0
 10
546.1004839122643
 20
2181.096994182071
 30
0.0
 10
546.1004839122643
 20
2181.096994182071
 30
0.0
 10
544.8982764303137
 20
2181.224084687306
 30
0.0
 10
544.8982764303137
 20
2181.224084687306
 30
0.0
 10
544.8982764303137
 20
2181.224084687306
 30
0.0
 10
543.6891991913208
 20
2181.344305435501
 30
0.0
 10
543.6891991913208
 20
2181.344305435501
 30
0.0
 10
543.6891991913208
 20
2181.344305435501
 30
0.0
 10
542.5969078220032
 20
2181.461091305177
 30
0.0
 10
542.5969078220032
 20
2181.461091305177
 30
0.0
 10
542.5969078220032
 20
2181.461091305177
 30
0.0
 10
541.6420115934843
 20
2181.581312053372
 30
0.0
 10
541.6420115934843
 20
2181.581312053372
 30
0.0
 10
541.6420115934843
 20
2181.581312053372
 30
0.0
 10
540.6699409723615
 20
2181.708402558607
 30
0.0
 10
540.6699409723615
 20
2181.708402558607
 30
0.0
 10
540.6699409723615
 20
2181.708402558607
 30
0.0
 10
539.9383118476317
 20
2181.828623306802
 30
0.0
 10
539.9383118476317
 20
2181.828623306802
 30
0.0
 10
539.9383118476317
 20
2181.828623306802
 30
0.0
 10
538.7429741227197
 20
2182.312941178103
 30
0.0
 10
538.7429741227197
 20
2182.312941178103
 30
0.0
 10
538.7429741227197
 20
2182.312941178103
 30
0.0
 10
538.382311878132
 20
2182.553382674493
 30
0.0
 10
538.382311878132
 20
2182.553382674493
 30
0.0
 10
538.382311878132
 20
2182.553382674493
 30
0.0
 10
538.1453052602619
 20
2182.783519535325
 30
0.0
 10
538.1453052602619
 20
2182.783519535325
 30
0.0
 10
538.1453052602619
 20
2182.783519535325
 30
0.0
 10
538.1453052602619
 20
2183.271272285145
 30
0.0
 10
538.1453052602619
 20
2183.271272285145
 30
0.0
 10
539.5089520326464
 20
2185.036799844354
 30
0.0
 10
545.3413757593762
 20
2185.998565829917
 30
0.0
 10
547.4297818994519
 20
2186.050089007715
 30
0.0
 10
547.4297818994519
 20
2186.050089007715
 30
0.0
 10
548.7522101296008
 20
2186.170309755909
 30
0.0
 10
548.7522101296008
 20
2186.170309755909
 30
0.0
 10
548.7522101296008
 20
2186.170309755909
 30
0.0
 10
550.0815081167884
 20
2186.170309755909
 30
0.0
 10
550.0815081167884
 20
2186.170309755909
 30
0.0
  0
SPLINE
  5
3A90
330
A
100
AcDbEntity
  8
MODEL
100
AcDbSpline
210
0.0
220
0.0
230
1.0
 70
     8
 71
     3
 72
    56
 73
    52
 74
     0
 42
0.000000001
 43
0.0000000001
 40
0.0
 40
0.0
 40
0.0
 40
0.0
 40
1.0
 40
1.0
 40
1.0
 40
2.0
 40
2.0
 40
2.0
 40
3.0
 40
3.0
 40
3.0
 40
4.0
 40
4.0
 40
4.0
 40
5.0
 40
5.0
 40
5.0
 40
6.0
 40
6.0
 40
6.0
 40
7.0
 40
7.0
 40
7.0
 40
8.0
 40
8.0
 40
8.0
 40
9.0
 40
9.0
 40
9.0
 40
10.0
 40
10.0
 40
10.0
 40
11.0
 40
11.0
 40
11.0
 40
12.0
 40
12.0
 40
12.0
 40
13.0
 40
13.0
 40
13.0
 40
14.0
 40
14.0
 40
14.0
 40
15.0
 40
15.0
 40
15.0
 40
16.0
 40
16.0
 40
16.0
 40
17.0
 40
17.0
 40
17.0
 40
17.0
 10
550.0815081167884
 20
2180.983643190916
 30
0.0
 10
550.0815081167884
 20
2180.983643190916
 30
0.0
 10
551.410806103976
 20
2180.983643190916
 30
0.0
 10
551.410806103976
 20
2180.983643190916
 30
0.0
 10
551.410806103976
 20
2180.983643190916
 30
0.0
 10
552.74010409116
 20
2181.096994182071
 30
0.0
 10
552.74010409116
 20
2181.096994182071
 30
0.0
 10
552.74010409116
 20
2181.096994182071
 30
0.0
 10
554.0625323213089
 20
2181.096994182071
 30
0.0
 10
554.0625323213089
 20
2181.096994182071
 30
0.0
 10
554.0625323213089
 20
2181.096994182071
 30
0.0
 10
555.2681746817825
 20
2181.224084687306
 30
0.0
 10
555.2681746817825
 20
2181.224084687306
 30
0.0
 10
555.2681746817825
 20
2181.224084687306
 30
0.0
 10
556.4841216778141
 20
2181.344305435501
 30
0.0
 10
556.4841216778141
 20
2181.344305435501
 30
0.0
 10
556.4841216778141
 20
2181.344305435501
 30
0.0
 10
557.56610841157
 20
2181.461091305177
 30
0.0
 10
557.56610841157
 20
2181.461091305177
 30
0.0
 10
557.56610841157
 20
2181.461091305177
 30
0.0
 10
558.6515300238452
 20
2181.581312053372
 30
0.0
 10
558.6515300238452
 20
2181.581312053372
 30
0.0
 10
558.6515300238452
 20
2181.581312053372
 30
0.0
 10
559.4965101397347
 20
2181.708402558607
 30
0.0
 10
559.4965101397347
 20
2181.708402558607
 30
0.0
 10
559.4965101397347
 20
2181.708402558607
 30
0.0
 10
560.2109648718642
 20
2181.828623306802
 30
0.0
 10
560.2109648718642
 20
2181.828623306802
 30
0.0
 10
560.2109648718642
 20
2181.828623306802
 30
0.0
 10
560.942593996594
 20
2182.069064803193
 30
0.0
 10
560.942593996594
 20
2182.069064803193
 30
0.0
 10
560.942593996594
 20
2182.069064803193
 30
0.0
 10
561.4303467464151
 20
2182.312941178103
 30
0.0
 10
561.4303467464151
 20
2182.312941178103
 30
0.0
 10
561.4303467464151
 20
2182.312941178103
 30
0.0
 10
561.7807043554412
 20
2182.553382674493
 30
0.0
 10
561.7807043554412
 20
2182.553382674493
 30
0.0
 10
561.7807043554412
 20
2182.553382674493
 30
0.0
 10
562.0280156088729
 20
2182.783519535325
 30
0.0
 10
562.0280156088729
 20
2182.783519535325
 30
0.0
 10
562.0280156088729
 20
2182.783519535325
 30
0.0
 10
562.1551061141063
 20
2183.037700545794
 30
0.0
 10
562.1551061141063
 20
2183.037700545794
 30
0.0
 10
562.1551061141063
 20
2183.037700545794
 30
0.0
 10
562.0280156088729
 20
2183.271272285145
 30
0.0
 10
562.0280156088729
 20
2183.271272285145
 30
0.0
 10
560.2040951148256
 20
2185.359678425222
 30
0.0
 10
554.1209252561484
 20
2186.029479736595
 30
0.0
 10
551.5378966092094
 20
2186.170309755909
 30
0.0
 10
551.5378966092094
 20
2186.170309755909
 30
0.0
 10
550.0815081167884
 20
2186.170309755909
 30
0.0
 10
550.0815081167884
 20
2186.170309755909
 30
0.0
  0
SPLINE
  5
3A91
330
A
100
AcDbEntity
  8
MODEL
100
AcDbSpline
210
0.0
220
0.0
230
1.0
 70
     8
 71
     3
 72
    53
 73
    49
 74
     0
 42
0.000000001
 43
0.0000000001
 40
0.0
 40
0.0
 40
0.0
 40
0.0
 40
1.0
 40
1.0
 40
1.0
 40
2.0
 40
2.0
 40
2.0
 40
3.0
 40
3.0
 40
3.0
 40
4.0
 40
4.0
 40
4.0
 40
5.0
 40
5.0
 40
5.0
 40
6.0
 40
6.0
 40
6.0
 40
7.0
 40
7.0
 40
7.0
 40
8.0
 40
8.0
 40
8.0
 40
9.0
 40
9.0
 40
9.0
 40
10.0
 40
10.0
 40
10.0
 40
11.0
 40
11.0
 40
11.0
 40
12.0
 40
12.0
 40
12.0
 40
13.0
 40
13.0
 40
13.0
 40
14.0
 40
14.0
 40
14.0
 40
15.0
 40
15.0
 40
15.0
 40
16.0
 40
16.0
 40
16.0
 40
16.0
 10
550.0815081167884
 20
2180.983643190916
 30
0.0
 10
550.0815081167884
 20
2180.983643190916
 30
0.0
 10
548.7522101296008
 20
2180.983643190916
 30
0.0
 10
548.7522101296008
 20
2180.983643190916
 30
0.0
 10
548.7522101296008
 20
2180.983643190916
 30
0.0
 10
547.4297818994519
 20
2181.096994182071
 30
0.0
 10
547.4297818994519
 20
2181.096994182071
 30
0.0
 10
547.4297818994519
 20
2181.096994182071
 30
0.0
 10
546.1004839122643
 20
2181.096994182071
 30
0.0
 10
546.1004839122643
 20
2181.096994182071
 30
0.0
 10
546.1004839122643
 20
2181.096994182071
 30
0.0
 10
544.8982764303137
 20
2181.224084687306
 30
0.0
 10
544.8982764303137
 20
2181.224084687306
 30
0.0
 10
544.8982764303137
 20
2181.224084687306
 30
0.0
 10
543.6891991913208
 20
2181.344305435501
 30
0.0
 10
543.6891991913208
 20
2181.344305435501
 30
0.0
 10
543.6891991913208
 20
2181.344305435501
 30
0.0
 10
542.5969078220032
 20
2181.461091305177
 30
0.0
 10
542.5969078220032
 20
2181.461091305177
 30
0.0
 10
542.5969078220032
 20
2181.461091305177
 30
0.0
 10
541.6420115934843
 20
2181.581312053372
 30
0.0
 10
541.6420115934843
 20
2181.581312053372
 30
0.0
 10
541.6420115934843
 20
2181.581312053372
 30
0.0
 10
540.6699409723615
 20
2181.708402558607
 30
0.0
 10
540.6699409723615
 20
2181.708402558607
 30
0.0
 10
540.6699409723615
 20
2181.708402558607
 30
0.0
 10
539.9383118476317
 20
2181.828623306802
 30
0.0
 10
539.9383118476317
 20
2181.828623306802
 30
0.0
 10
539.9383118476317
 20
2181.828623306802
 30
0.0
 10
538.7429741227197
 20
2182.312941178103
 30
0.0
 10
538.7429741227197
 20
2182.312941178103
 30
0.0
 10
538.7429741227197
 20
2182.312941178103
 30
0.0
 10
538.382311878132
 20
2182.553382674493
 30
0.0
 10
538.382311878132
 20
2182.553382674493
 30
0.0
 10
538.382311878132
 20
2182.553382674493
 30
0.0
 10
538.1453052602619
 20
2182.783519535325
 30
0.0
 10
538.1453052602619
 20
2182.783519535325
 30
0.0
 10
538.1453052602619
 20
2182.783519535325
 30
0.0
 10
538.1453052602619
 20
2183.271272285145
 30
0.0
 10
538.1453052602619
 20
2183.271272285145
 30
0.0
 10
539.5089520326464
 20
2185.036799844354
 30
0.0
 10
545.3413757593762
 20
2185.998565829917
 30
0.0
 10
547.4297818994519
 20
2186.050089007715
 30
0.0
 10
547.4297818994519
 20
2186.050089007715
 30
0.0
 10
548.7522101296008
 20
2186.170309755909
 30
0.0
 10
548.7522101296008
 20
2186.170309755909
 30
0.0
 10
548.7522101296008
 20
2186.170309755909
 30
0.0
 10
550.0815081167884
 20
2186.170309755909
 30
0.0
 10
550.0815081167884
 20
2186.170309755909
 30
0.0
  0
SPLINE
  5
3A94
330
A
100
AcDbEntity
  8
HIDDEN
100
AcDbSpline
210
0.0
220
0.0
230
1.0
 70
     8
 71
     3
 72
    14
 73
    10
 74
     0
 42
0.000000001
 43
0.0000000001
 40
0.0
 40
0.0
 40
0.0
 40
0.0
 40
1.0
 40
1.0
 40
1.0
 40
2.0
 40
2.0
 40
2.0
 40
3.0
 40
3.0
 40
3.0
 40
3.0
 10
1537.519902664498
 20
1044.159032979156
 30
0.0
 10
1537.519902664498
 20
1044.159032979156
 30
0.0
 10
1539.93805714248
 20
1044.639915971937
 30
0.0
 10
1539.93805714248
 20
1044.639915971937
 30
0.0
 10
1572.115999116561
 20
1052.38213215571
 30
0.0
 10
1590.815477778698
 20
1069.395085464593
 30
0.0
 10
1596.05023264297
 20
1103.163376193371
 30
0.0
 10
1596.05023264297
 20
1103.163376193371
 30
0.0
 10
1601.848307584499
 20
1130.068779639462
 30
0.0
 10
1601.848307584499
 20
1130.068779639462
 30
0.0
  0
SPLINE
  5
3A96
330
A
100
AcDbEntity
  8
HIDDEN
100
AcDbSpline
210
0.0
220
0.0
230
1.0
 70
     8
 71
     3
 72
    14
 73
    10
 74
     0
 42
0.000000001
 43
0.0000000001
 40
0.0
 40
0.0
 40
0.0
 40
0.0
 40
1.0
 40
1.0
 40
1.0
 40
2.0
 40
2.0
 40
2.0
 40
3.0
 40
3.0
 40
3.0
 40
3.0
 10
1601.848307584499
 20
1130.068779639462
 30
0.0
 10
1601.848307584499
 20
1130.068779639462
 30
0.0
 10
1602.693287700385
 20
1132.12283699434
 30
0.0
 10
1602.693287700385
 20
1132.12283699434
 30
0.0
 10
1608.120395761772
 20
1145.566951521086
 30
0.0
 10
1619.036439697898
 20
1153.559913836808
 30
0.0
 10
1633.703370977712
 20
1153.480911630851
 30
0.0
 10
1633.703370977712
 20
1153.480911630851
 30
0.0
 10
1635.881083959305
 20
1153.480911630851
 30
0.0
 10
1635.881083959305
 20
1153.480911630851
 30
0.0
  0
SPLINE
  5
3A97
330
A
100
AcDbEntity
  8
MODEL
100
AcDbSpline
210
0.0
220
0.0
230
1.0
 70
     8
 71
     3
 72
    59
 73
    55
 74
     0
 42
0.000000001
 43
0.0000000001
 40
0.0
 40
0.0
 40
0.0
 40
0.0
 40
1.0
 40
1.0
 40
1.0
 40
2.0
 40
2.0
 40
2.0
 40
3.0
 40
3.0
 40
3.0
 40
4.0
 40
4.0
 40
4.0
 40
5.0
 40
5.0
 40
5.0
 40
6.0
 40
6.0
 40
6.0
 40
7.0
 40
7.0
 40
7.0
 40
8.0
 40
8.0
 40
8.0
 40
9.0
 40
9.0
 40
9.0
 40
10.0
 40
10.0
 40
10.0
 40
11.0
 40
11.0
 40
11.0
 40
12.0
 40
12.0
 40
12.0
 40
13.0
 40
13.0
 40
13.0
 40
14.0
 40
14.0
 40
14.0
 40
15.0
 40
15.0
 40
15.0
 40
16.0
 40
16.0
 40
16.0
 40
17.0
 40
17.0
 40
17.0
 40
18.0
 40
18.0
 40
18.0
 40
18.0
 10
1624.655900956393
 20
993.3503099133361
 30
0.0
 10
1624.655900956393
 20
993.3503099133361
 30
0.0
 10
1625.631406456035
 20
993.4808352970906
 30
0.0
 10
1625.631406456035
 20
993.4808352970906
 30
0.0
 10
1625.631406456035
 20
993.4808352970906
 30
0.0
 10
1626.46264705784
 20
994.0785041595475
 30
0.0
 10
1626.46264705784
 20
994.0785041595475
 30
0.0
 10
1626.46264705784
 20
994.0785041595475
 30
0.0
 10
1627.183971547011
 20
994.7929588916788
 30
0.0
 10
1627.183971547011
 20
994.7929588916788
 30
0.0
 10
1633.723980248832
 20
1005.269338377262
 30
0.0
 10
1639.515185433323
 20
1015.491536852376
 30
0.0
 10
1645.038470093262
 20
1026.531236415217
 30
0.0
 10
1645.038470093262
 20
1026.531236415217
 30
0.0
 10
1648.301604687133
 20
1033.050635845918
 30
0.0
 10
1648.301604687133
 20
1033.050635845918
 30
0.0
 10
1648.301604687133
 20
1033.050635845918
 30
0.0
 10
1651.331167541654
 20
1039.570035276619
 30
0.0
 10
1651.331167541654
 20
1039.570035276619
 30
0.0
 10
1657.314725923256
 20
1052.588224866902
 30
0.0
 10
1662.796792040956
 20
1066.602529227944
 30
0.0
 10
1667.248394602701
 20
1080.235562073283
 30
0.0
 10
1667.248394602701
 20
1080.235562073283
 30
0.0
 10
1669.426107584294
 20
1087.235844496764
 30
0.0
 10
1669.426107584294
 20
1087.235844496764
 30
0.0
 10
1669.426107584294
 20
1087.235844496764
 30
0.0
 10
1671.480164939173
 20
1094.236126920246
 30
0.0
 10
1671.480164939173
 20
1094.236126920246
 30
0.0
 10
1671.480164939173
 20
1094.236126920246
 30
0.0
 10
1673.410566667334
 20
1101.236409343727
 30
0.0
 10
1673.410566667334
 20
1101.236409343727
 30
0.0
 10
1673.410566667334
 20
1101.236409343727
 30
0.0
 10
1675.210443011742
 20
1108.23325688869
 30
0.0
 10
1675.210443011742
 20
1108.23325688869
 30
0.0
 10
1677.889648257237
 20
1116.731146346832
 30
0.0
 10
1677.869038986118
 20
1126.019057864543
 30
0.0
 10
1681.125303822947
 20
1134.290245340374
 30
0.0
 10
1681.125303822947
 20
1134.290245340374
 30
0.0
 10
1681.853498069161
 20
1135.499322579366
 30
0.0
 10
1681.853498069161
 20
1135.499322579366
 30
0.0
 10
1681.853498069161
 20
1135.499322579366
 30
0.0
 10
1682.712217699124
 20
1136.704964939838
 30
0.0
 10
1682.712217699124
 20
1136.704964939838
 30
0.0
 10
1683.435409941459
 20
1137.542404866301
 30
0.0
 10
1683.712541894553
 20
1137.841741630927
 30
0.0
 10
1683.909289717095
 20
1137.995671633156
 30
0.0
 10
1683.909289717095
 20
1137.995671633156
 30
0.0
 10
1684.106866399335
 20
1138.16465533027
 30
0.0
 10
1684.106866399335
 20
1138.16465533027
 30
0.0
 10
1684.106866399335
 20
1138.16465533027
 30
0.0
 10
1684.227830415041
 20
1138.254748556124
 30
0.0
 10
1684.227830415041
 20
1138.254748556124
 30
0.0
 10
1684.227830415041
 20
1138.254748556124
 30
0.0
 10
1684.38156865978
 20
1138.398360050131
 30
0.0
 10
1684.38156865978
 20
1138.398360050131
 30
0.0
  0
LINE
  5
3A98
330
A
100
AcDbEntity
  8
MODEL
100
AcDbLine
 10
1363.632612474928
 20
994.6624335079234
 30
0.0
 11
1361.839605887561
 21
997.5683407357285
 31
0.0
  0
LINE
  5
3A99
330
A
100
AcDbEntity
  8
MODEL
100
AcDbLine
 10
1361.832736130519
 20
997.5752104927681
 30
0.0
 11
1356.639199808486
 21
1006.011272137553
 31
0.0
  0
LINE
  5
3A9A
330
A
100
AcDbEntity
  8
MODEL
100
AcDbLine
 10
1343.840842443474
 20
1029.182962632552
 30
0.0
 11
1340.089955099785
 21
1037.151880798635
 31
0.0
  0
LINE
  5
3A9B
330
A
100
AcDbEntity
  8
MODEL
100
AcDbLine
 10
1340.096824856823
 20
1037.151880798635
 30
0.0
 11
1338.173292885701
 21
1041.259995508392
 31
0.0
  0
LINE
  5
3A9C
330
A
100
AcDbEntity
  8
MODEL
100
AcDbLine
 10
1338.173292885701
 20
1041.253125751352
 30
0.0
 11
1335.631482781001
 21
1046.913805552087
 31
0.0
  0
LINE
  5
3A9D
330
A
100
AcDbEntity
  8
MODEL
100
AcDbLine
 10
1335.63835253804
 20
1046.913805552087
 30
0.0
 11
1332.862970693993
 21
1053.316419113112
 31
0.0
  0
LINE
  5
3A9E
330
A
100
AcDbEntity
  8
MODEL
100
AcDbLine
 10
1332.862970693993
 20
1053.316419113112
 30
0.0
 11
1331.653893455
 21
1056.579553706983
 31
0.0
  0
LINE
  5
3A9F
330
A
100
AcDbEntity
  8
MODEL
100
AcDbLine
 10
1331.653893455
 20
1056.586423464022
 30
0.0
 11
1328.157187121777
 21
1065.633893485343
 31
0.0
  0
LINE
  5
3AA0
330
A
100
AcDbEntity
  8
MODEL
100
AcDbLine
 10
1328.157187121777
 20
1065.633893485343
 30
0.0
 11
1328.157187121777
 21
1065.743809597979
 31
0.0
  0
LINE
  5
3AA1
330
A
100
AcDbEntity
  8
MODEL
100
AcDbLine
 10
1328.157187121777
 20
1065.754114233538
 30
0.0
 11
1327.428992875567
 21
1067.681081083181
 31
0.0
  0
LINE
  5
3AA2
330
A
100
AcDbEntity
  8
MODEL
100
AcDbLine
 10
1327.428992875567
 20
1067.681081083181
 30
0.0
 11
1326.700798629357
 21
1069.97901481297
 31
0.0
  0
LINE
  5
3AA3
330
A
100
AcDbEntity
  8
MODEL
100
AcDbLine
 10
1326.700798629357
 20
1069.97214505593
 30
0.0
 11
1325.855818513471
 21
1072.153292916044
 31
0.0
  0
LINE
  5
3AA4
330
A
100
AcDbEntity
  8
MODEL
100
AcDbLine
 10
1325.855818513471
 20
1072.146423159004
 30
0.0
 11
1325.141363781338
 21
1074.440922010273
 31
0.0
  0
LINE
  5
3AA5
330
A
100
AcDbEntity
  8
MODEL
100
AcDbLine
 10
1325.14823353838
 20
1074.440922010273
 30
0.0
 11
1324.296383665452
 21
1076.742290618581
 31
0.0
  0
LINE
  5
3AA6
330
A
100
AcDbEntity
  8
MODEL
100
AcDbLine
 10
1324.289513908413
 20
1076.735420861542
 30
0.0
 11
1323.808630915631
 21
1078.301725466599
 31
0.0
  0
LINE
  5
3AA7
330
A
100
AcDbEntity
  8
MODEL
100
AcDbLine
 10
1323.808630915631
 20
1078.29485570956
 30
0.0
 11
1323.581928933319
 21
1079.146705582486
 31
0.0
  0
LINE
  5
3AA8
330
A
100
AcDbEntity
  8
MODEL
100
AcDbLine
 10
1323.568189419241
 20
1079.146705582486
 30
0.0
 11
1322.736948817433
 21
1081.932392062095
 31
0.0
  0
LINE
  5
3AA9
330
A
100
AcDbEntity
  8
MODEL
100
AcDbLine
 10
1356.639199808486
 20
1006.018141894592
 30
0.0
 11
1355.78048017852
 21
1007.460790872935
 31
0.0
  0
LINE
  5
3AAA
330
A
100
AcDbEntity
  8
MODEL
100
AcDbLine
 10
1355.787349935562
 20
1007.460790872935
 30
0.0
 11
1350.126670134824
 21
1017.243324897506
 31
0.0
  0
LINE
  5
3AAB
330
A
100
AcDbEntity
  8
MODEL
100
AcDbLine
 10
1350.119800377785
 20
1017.243324897506
 30
0.0
 11
1350.00301450811
 21
1017.476896636857
 31
0.0
  0
LINE
  5
3AAC
330
A
100
AcDbEntity
  8
MODEL
100
AcDbLine
 10
1350.00301450811
 20
1017.490636150937
 30
0.0
 11
1344.933133812791
 21
1027.259430661428
 31
0.0
  0
LINE
  5
3AAD
330
A
100
AcDbEntity
  8
MODEL
100
AcDbLine
 10
1344.933133812791
 20
1027.252560904388
 30
0.0
 11
1343.847712200516
 21
1029.189832389591
 31
0.0
  0
LINE
  5
3AAE
330
A
100
AcDbEntity
  8
MODEL
100
AcDbLine
 10
1363.632612474928
 20
994.6693032649639
 30
0.0
 11
1364.360806721138
 21
993.9411090187525
 31
0.0
  0
LINE
  5
3AAF
330
A
100
AcDbEntity
  8
MODEL
100
AcDbLine
 10
1364.360806721138
 20
993.9411090187525
 30
0.0
 11
1365.198917079985
 21
993.473965540051
 31
0.0
  0
LINE
  5
3AB0
330
A
100
AcDbEntity
  8
MODEL
100
AcDbLine
 10
1365.198917079985
 20
993.473965540051
 30
0.0
 11
1366.181292336666
 21
993.3434401562965
 31
0.0
  0
LINE
  5
3AB1
330
A
100
AcDbEntity
  8
MODEL
100
AcDbLine
 10
1322.736948817433
 20
1081.925522305055
 30
0.0
 11
1321.754573560752
 21
1085.054696636651
 31
0.0
  0
LINE
  5
3AB2
330
A
100
AcDbEntity
  8
MODEL
100
AcDbLine
 10
1321.754573560752
 20
1085.054696636651
 30
0.0
 11
1320.676021705515
 21
1088.438051978717
 31
0.0
  0
LINE
  5
3AB3
330
A
100
AcDbEntity
  8
MODEL
100
AcDbLine
 10
1320.676021705515
 20
1088.438051978717
 30
0.0
 11
1319.947827459305
 21
1090.972992326376
 31
0.0
  0
LINE
  5
3AB4
330
A
100
AcDbEntity
  8
MODEL
100
AcDbLine
 10
1319.954697216343
 20
1090.979862083416
 30
0.0
 11
1319.597469850279
 21
1092.429380818798
 31
0.0
  0
LINE
  5
3AB5
330
A
100
AcDbEntity
  8
MODEL
100
AcDbLine
 10
1319.59060009324
 20
1092.422511061758
 30
0.0
 11
1318.257867227533
 21
1097.372171008881
 31
0.0
  0
LINE
  5
3AB6
330
A
100
AcDbEntity
  8
MODEL
100
AcDbLine
 10
1318.257867227533
 20
1097.372171008881
 30
0.0
 11
1316.925134361826
 21
1102.67905832207
 31
0.0
  0
LINE
  5
3AB7
330
A
100
AcDbEntity
  8
MODEL
100
AcDbLine
 10
1316.932004118865
 20
1102.67905832207
 30
0.0
 11
1316.588516266877
 21
1103.881265804023
 31
0.0
  0
LINE
  5
3AB8
330
A
100
AcDbEntity
  8
MODEL
100
AcDbLine
 10
1316.581646509839
 20
1103.888135561062
 30
0.0
 11
1315.358829756769
 21
1109.445769006201
 31
0.0
  0
LINE
  5
3AB9
330
A
100
AcDbEntity
  8
MODEL
100
AcDbLine
 10
1315.358829756769
 20
1109.438899249162
 30
0.0
 11
1313.682609039074
 21
1116.789539281669
 31
0.0
  0
LINE
  5
3ABA
330
A
100
AcDbEntity
  8
MODEL
100
AcDbLine
 10
1313.689478796113
 20
1116.796409038709
 30
0.0
 11
1311.381240430764
 21
1129.831773021592
 31
0.0
  0
LINE
  5
3ABB
330
A
100
AcDbEntity
  8
MODEL
100
AcDbLine
 10
1291.349028902921
 20
1153.480911630851
 30
0.0
 11
1293.519872127475
 21
1153.480911630851
 31
0.0
  0
LINE
  5
3ABC
330
A
100
AcDbEntity
  8
MODEL
100
AcDbLine
 10
1284.967024613014
 20
1153.480911630851
 30
0.0
 11
1291.355898659963
 21
1153.480911630851
 31
0.0
  0
LINE
  5
3ABD
330
A
100
AcDbEntity
  8
MODEL
100
AcDbLine
 10
1283.744207859944
 20
1153.480911630851
 30
0.0
 11
1284.960154855976
 21
1153.480911630851
 31
0.0
  0
LINE
  5
3ABE
330
A
100
AcDbEntity
  8
MODEL
100
AcDbLine
 10
1282.775572117341
 20
1153.480911630851
 30
0.0
 11
1283.751077616983
 21
1153.480911630851
 31
0.0
  0
LINE
  5
3ABF
330
A
100
AcDbEntity
  8
MODEL
100
AcDbLine
 10
1282.061117385211
 20
1153.480911630851
 30
0.0
 11
1282.782441874383
 21
1153.480911630851
 31
0.0
  0
LINE
  5
3AC0
330
A
100
AcDbEntity
  8
MODEL
100
AcDbLine
 10
1281.456578765715
 20
1153.480911630851
 30
0.0
 11
1282.054247628173
 21
1153.480911630851
 31
0.0
  0
LINE
  5
3AC1
330
A
100
AcDbEntity
  8
MODEL
100
AcDbLine
 10
1280.481073266073
 20
1153.480911630851
 30
0.0
 11
1281.456578765715
 21
1153.480911630851
 31
0.0
  0
LINE
  5
3AC2
330
A
100
AcDbEntity
  8
MODEL
100
AcDbLine
 10
1279.278865784122
 20
1153.480911630851
 30
0.0
 11
1280.487943023115
 21
1153.480911630851
 31
0.0
  0
LINE
  5
3AC3
330
A
100
AcDbEntity
  8
MODEL
100
AcDbLine
 10
1275.418062327796
 20
1153.480911630851
 30
0.0
 11
1279.285735541161
 21
1153.480911630851
 31
0.0
  0
LINE
  5
3AC4
330
A
100
AcDbEntity
  8
MODEL
100
AcDbLine
 10
1279.285735541161
 20
1138.398360050131
 30
0.0
 11
1275.418062327796
 21
1138.398360050131
 31
0.0
  0
LINE
  5
3AC5
330
A
100
AcDbEntity
  8
MODEL
100
AcDbLine
 10
1275.418062327796
 20
1138.398360050131
 30
0.0
 11
1274.696737838624
 21
1138.398360050131
 31
0.0
  0
LINE
  5
3AC6
330
A
100
AcDbEntity
  8
MODEL
100
AcDbLine
 10
1272.649550240784
 20
1152.271834391859
 30
0.0
 11
1273.006777606849
 21
1152.635931514965
 31
0.0
  0
LINE
  5
3AC7
330
A
100
AcDbEntity
  8
MODEL
100
AcDbLine
 10
1272.168667248005
 20
1151.801256034638
 30
0.0
 11
1272.649550240784
 21
1152.278704148899
 31
0.0
  0
LINE
  5
3AC8
330
A
100
AcDbEntity
  8
MODEL
100
AcDbLine
 10
1271.928225751612
 20
1140.208541030099
 30
0.0
 11
1271.680914498184
 21
1141.297397520895
 31
0.0
  0
LINE
  5
3AC9
330
A
100
AcDbEntity
  8
MODEL
100
AcDbLine
 10
1635.887953716348
 20
1153.480911630851
 30
0.0
 11
1291.355898659963
 21
1153.480911630851
 31
0.0
  0
LINE
  5
3ACA
330
A
100
AcDbEntity
  8
MODEL
100
AcDbLine
 10
1275.418062327796
 20
1153.480911630851
 30
0.0
 11
1274.215854845842
 21
1153.243905012981
 31
0.0
  0
LINE
  5
3ACB
330
A
100
AcDbEntity
  8
MODEL
100
AcDbLine
 10
1274.215854845842
 20
1153.243905012981
 30
0.0
 11
1273.006777606849
 21
1152.635931514965
 31
0.0
  0
LINE
  5
3ACC
330
A
100
AcDbEntity
  8
MODEL
100
AcDbLine
 10
1273.006777606849
 20
1152.635931514965
 30
0.0
 11
1272.168667248005
 21
1151.801256034638
 31
0.0
  0
LINE
  5
3ACD
330
A
100
AcDbEntity
  8
MODEL
100
AcDbLine
 10
1272.168667248005
 20
1151.801256034638
 30
0.0
 11
1271.564128628509
 21
1150.581874160086
 31
0.0
  0
LINE
  5
3ACE
330
A
100
AcDbEntity
  8
MODEL
100
AcDbLine
 10
1271.564128628509
 20
1150.581874160086
 30
0.0
 11
1271.440473001791
 21
1149.266315686979
 31
0.0
  0
LINE
  5
3ACF
330
A
100
AcDbEntity
  8
MODEL
100
AcDbLine
 10
1271.440473001791
 20
1149.259445929939
 30
0.0
 11
1271.680914498184
 21
1141.297397520895
 31
0.0
  0
LINE
  5
3AD0
330
A
100
AcDbEntity
  8
MODEL
100
AcDbLine
 10
1271.928225751612
 20
1140.208541030099
 30
0.0
 11
1272.642680483746
 21
1139.243340166017
 31
0.0
  0
LINE
  5
3AD1
330
A
100
AcDbEntity
  8
MODEL
100
AcDbLine
 10
1272.642680483746
 20
1139.243340166017
 30
0.0
 11
1273.611316226345
 21
1138.645671303561
 31
0.0
  0
LINE
  5
3AD2
330
A
100
AcDbEntity
  8
MODEL
100
AcDbLine
 10
1273.611316226345
 20
1138.645671303561
 30
0.0
 11
1274.696737838624
 21
1138.398360050131
 31
0.0
  0
LINE
  5
3AD3
330
A
100
AcDbEntity
  8
MODEL
100
AcDbLine
 10
1684.38156865978
 20
1138.398360050131
 30
0.0
 11
1274.703607595663
 21
1138.398360050131
 31
0.0
  0
LINE
  5
3AD4
330
A
100
AcDbEntity
  8
MODEL
100
AcDbLine
 10
1275.418062327796
 20
1153.480911630851
 30
0.0
 11
1291.355898659963
 21
1153.480911630851
 31
0.0
  0
SPLINE
  5
3AD5
330
A
100
AcDbEntity
  8
HIDDEN
100
AcDbSpline
210
0.0
220
0.0
230
1.0
 70
     8
 71
     3
 72
    11
 73
     7
 74
     0
 42
0.000000001
 43
0.0000000001
 40
0.0
 40
0.0
 40
0.0
 40
0.0
 40
1.0
 40
1.0
 40
1.0
 40
2.0
 40
2.0
 40
2.0
 40
2.0
 10
1291.355898659963
 20
1153.480911630851
 30
0.0
 10
1291.355898659963
 20
1153.480911630851
 30
0.0
 10
1293.526741884513
 20
1153.480911630851
 30
0.0
 10
1293.526741884513
 20
1153.480911630851
 30
0.0
 10
1293.526741884513
 20
1153.480911630851
 30
0.0
 10
1297.868428333622
 20
1153.243905012981
 30
0.0
 10
1297.868428333622
 20
1153.243905012981
 30
0.0
  0
SPLINE
  5
3AD6
330
A
100
AcDbEntity
  8
HIDDEN
100
AcDbSpline
210
0.0
220
0.0
230
1.0
 70
     8
 71
     3
 72
    14
 73
    10
 74
     0
 42
0.000000001
 43
0.0000000001
 40
2.0
 40
2.0
 40
2.0
 40
2.0
 40
3.0
 40
3.0
 40
3.0
 40
4.0
 40
4.0
 40
4.0
 40
5.0
 40
5.0
 40
5.0
 40
5.0
 10
1297.868428333622
 20
1153.243905012981
 30
0.0
 10
1315.613010767239
 20
1150.626527580845
 30
0.0
 10
1321.342388138371
 20
1139.961229776668
 30
0.0
 10
1326.707668386395
 20
1124.528320586922
 30
0.0
 10
1326.707668386395
 20
1124.528320586922
 30
0.0
 10
1327.435862632606
 20
1122.467393475004
 30
0.0
 10
1327.435862632606
 20
1122.467393475004
 30
0.0
 10
1327.435862632606
 20
1122.467393475004
 30
0.0
 10
1328.287712505534
 20
1120.536991746841
 30
0.0
 10
1328.287712505534
 20
1120.536991746841
 30
0.0
  0
SPLINE
  5
3AD7
330
A
100
AcDbEntity
  8
HIDDEN
100
AcDbSpline
210
0.0
220
0.0
230
1.0
 70
     8
 71
     3
 72
    14
 73
    10
 74
     0
 42
0.000000001
 43
0.0000000001
 40
5.0
 40
5.0
 40
5.0
 40
5.0
 40
6.0
 40
6.0
 40
6.0
 40
7.0
 40
7.0
 40
7.0
 40
8.0
 40
8.0
 40
8.0
 40
8.0
 10
1328.287712505534
 20
1120.536991746841
 30
0.0
 10
1333.92091327811
 20
1106.292550524967
 30
0.0
 10
1341.216595254299
 20
1092.477469118076
 30
0.0
 10
1351.583058627249
 20
1081.066802675089
 30
0.0
 10
1351.583058627249
 20
1081.066802675089
 30
0.0
 10
1353.01883784855
 20
1079.510802705591
 30
0.0
 10
1353.01883784855
 20
1079.510802705591
 30
0.0
 10
1353.01883784855
 20
1079.510802705591
 30
0.0
 10
1356.158316815704
 20
1076.367888859916
 30
0.0
 10
1356.158316815704
 20
1076.367888859916
 30
0.0
  0
SPLINE
  5
3AD8
330
A
100
AcDbEntity
  8
HIDDEN
100
AcDbSpline
210
0.0
220
0.0
230
1.0
 70
     8
 71
     3
 72
    14
 73
    10
 74
     0
 42
0.000000001
 43
0.0000000001
 40
8.0
 40
8.0
 40
8.0
 40
8.0
 40
9.0
 40
9.0
 40
9.0
 40
10.0
 40
10.0
 40
10.0
 40
11.0
 40
11.0
 40
11.0
 40
11.0
 10
1356.158316815704
 20
1076.367888859916
 30
0.0
 10
1381.006228028399
 20
1052.430220454988
 30
0.0
 10
1416.983145645448
 20
1047.696957854616
 30
0.0
 10
1449.793105267184
 20
1044.268949091792
 30
0.0
 10
1449.793105267184
 20
1044.268949091792
 30
0.0
 10
1451.977688005815
 20
1044.028507595402
 30
0.0
 10
1451.977688005815
 20
1044.028507595402
 30
0.0
 10
1451.977688005815
 20
1044.028507595402
 30
0.0
 10
1454.258447343006
 20
1043.781196341971
 30
0.0
 10
1454.258447343006
 20
1043.781196341971
 30
0.0
  0
SPLINE
  5
3AD9
330
A
100
AcDbEntity
  8
MODEL
100
AcDbSpline
210
0.0
220
0.0
230
1.0
 70
     8
 71
     3
 72
    11
 73
     7
 74
     0
 42
0.000000001
 43
0.0000000001
 40
0.0
 40
0.0
 40
0.0
 40
0.0
 40
1.0
 40
1.0
 40
1.0
 40
1.455067657310409
 40
1.455067657310409
 40
1.455067657310409
 40
1.455067657310409
 10
1311.381240430764
 20
1129.831773021592
 30
0.0
 10
1311.381240430764
 20
1129.831773021592
 30
0.0
 10
1310.653046184553
 20
1132.363278490731
 30
0.0
 10
1310.653046184553
 20
1132.363278490731
 30
0.0
 10
1309.824602060328
 20
1134.703242366137
 30
0.0
 10
1308.491122709601
 20
1136.759390670595
 30
0.0
 10
1306.776907957442
 20
1138.398360050131
 30
0.0
  0
POLYLINE
  5
3ADA
330
A
100
AcDbEntity
  8
MODEL
100
AcDb2dPolyline
 66
     1
 10
0.0
 20
0.0
 30
0.0
  0
VERTEX
  5
3ADB
330
3ADA
100
AcDbEntity
  8
MODEL
100
AcDbVertex
100
AcDb2dVertex
 10
742.3247891165074
 20
992.3782392922142
 30
0.0
  0
VERTEX
  5
3ADC
330
3ADA
100
AcDbEntity
  8
MODEL
100
AcDbVertex
100
AcDb2dVertex
 10
743.526996598458
 20
992.6186807886045
 30
0.0
  0
VERTEX
  5
3ADD
330
3ADA
100
AcDbEntity
  8
MODEL
100
AcDbVertex
100
AcDb2dVertex
 10
744.4990672195809
 20
993.3468750348159
 30
0.0
  0
VERTEX
  5
3ADE
330
3ADA
100
AcDbEntity
  8
MODEL
100
AcDbVertex
100
AcDb2dVertex
 10
744.5716412957327
 20
993.4636609044912
 30
0.0
  0
SEQEND
  5
3ADF
330
3ADA
100
AcDbEntity
  8
MODEL
  0
POLYLINE
  5
3AE0
330
A
100
AcDbEntity
  8
MODEL
100
AcDb2dPolyline
 66
     1
 10
0.0
 20
0.0
 30
0.0
  0
VERTEX
  5
3AE1
330
3AE0
100
AcDbEntity
  8
MODEL
100
AcDbVertex
100
AcDb2dVertex
 10
758.6164179362195
 20
993.4636609044912
 30
0.0
  0
VERTEX
  5
3AE2
330
3AE0
100
AcDbEntity
  8
MODEL
100
AcDbVertex
100
AcDb2dVertex
 10
746.419164312184
 20
993.4636609044912
 30
0.0
  0
VERTEX
  5
3AE3
330
3AE0
100
AcDbEntity
  8
MODEL
100
AcDbVertex
100
AcDb2dVertex
 10
744.5716412957327
 20
993.4636609044912
 30
0.0
  0
SEQEND
  5
3AE4
330
3AE0
100
AcDbEntity
  8
MODEL
  0
LINE
  5
3AE5
330
A
100
AcDbEntity
  8
MODEL
100
AcDbLine
 10
379.4436130070089
 20
993.0926940243455
 30
0.0
 11
380.0481516265054
 21
992.6186807886045
 31
0.0
  0
LINE
  5
3AE6
330
A
100
AcDbEntity
  8
MODEL
100
AcDbLine
 10
381.2640986225369
 20
992.3713695351746
 30
0.0
 11
388.3846017942151
 21
992.3713695351746
 31
0.0
  0
LINE
  5
3AE7
330
A
100
AcDbEntity
  8
MODEL
100
AcDbLine
 10
380.0481516265054
 20
992.6186807886045
 30
0.0
 11
381.2640986225369
 21
992.3713695351746
 31
0.0
  0
LINE
  5
3AE8
330
A
100
AcDbEntity
  8
HIDDEN
 48
0.5
100
AcDbLine
 10
620.6820012140624
 20
1033.644869829854
 30
0.0
 11
605.5994496333396
 21
1032.799889713967
 31
0.0
  0
LINE
  5
3AE9
330
A
100
AcDbEntity
  8
HIDDEN
 48
0.5
100
AcDbLine
 10
518.1096588538994
 20
1032.799889713967
 30
0.0
 11
503.020237516138
 21
1033.644869829854
 31
0.0
  0
SPLINE
  5
3AEC
330
A
100
AcDbEntity
  8
MODEL
100
AcDbSpline
210
0.0
220
0.0
230
1.0
 70
     8
 71
     3
 72
    11
 73
     7
 74
     0
 42
0.000000001
 43
0.0000000001
 40
0.0
 40
0.0
 40
0.0
 40
0.0
 40
1.0
 40
1.0
 40
1.0
 40
1.464496410147744
 40
1.464496410147744
 40
1.464496410147744
 40
1.464496410147744
 10
301.7260516165798
 20
1129.945124012746
 30
0.0
 10
301.7260516165798
 20
1129.945124012746
 30
0.0
 10
301.0012922488886
 20
1132.480064360405
 30
0.0
 10
301.0012922488886
 20
1132.480064360405
 30
0.0
 10
300.2434350965477
 20
1134.828623788291
 30
0.0
 10
298.8252589196554
 20
1136.886672489327
 30
0.0
 10
297.0090728676469
 20
1138.518580798326
 30
0.0
  0
SPLINE
  5
3AED
330
A
100
AcDbEntity
  8
HIDDEN
100
AcDbSpline
210
0.0
220
0.0
230
1.0
 70
     8
 71
     3
 72
    35
 73
    31
 74
     0
 42
0.000000001
 43
0.0000000001
 40
0.0
 40
0.0
 40
0.0
 40
0.0
 40
1.0
 40
1.0
 40
1.0
 40
2.0
 40
2.0
 40
2.0
 40
3.0
 40
3.0
 40
3.0
 40
4.0
 40
4.0
 40
4.0
 40
5.0
 40
5.0
 40
5.0
 40
6.0
 40
6.0
 40
6.0
 40
7.0
 40
7.0
 40
7.0
 40
8.0
 40
8.0
 40
8.0
 40
9.0
 40
9.0
 40
9.0
 40
10.0
 40
10.0
 40
10.0
 40
10.0
 10
519.31186633585
 20
1043.777761463451
 30
0.0
 10
519.31186633585
 20
1043.777761463451
 30
0.0
 10
517.1375882327766
 20
1043.908286847206
 30
0.0
 10
517.1375882327766
 20
1043.908286847206
 30
0.0
 10
517.1375882327766
 20
1043.908286847206
 30
0.0
 10
514.9667450082225
 20
1044.018202959841
 30
0.0
 10
514.9667450082225
 20
1044.018202959841
 30
0.0
 10
471.7800173779788
 20
1046.855412617249
 30
0.0
 10
427.7723537814882
 20
1048.765205074293
 30
0.0
 10
386.0901029429469
 20
1061.288772157715
 30
0.0
 10
386.0901029429469
 20
1061.288772157715
 30
0.0
 10
379.9279308783107
 20
1063.452745625229
 30
0.0
 10
379.9279308783107
 20
1063.452745625229
 30
0.0
 10
358.8240372522696
 20
1071.641496016583
 30
0.0
 10
346.1424657569323
 20
1082.955985861014
 30
0.0
 10
336.2431458626879
 20
1103.393513054202
 30
0.0
 10
336.2431458626879
 20
1103.393513054202
 30
0.0
 10
335.3981657468021
 20
1105.45444016612
 30
0.0
 10
335.3981657468021
 20
1105.45444016612
 30
0.0
 10
335.3981657468021
 20
1105.45444016612
 30
0.0
 10
334.4432695182795
 20
1107.377972137243
 30
0.0
 10
334.4432695182795
 20
1107.377972137243
 30
0.0
 10
325.2068811783674
 20
1127.458271964365
 30
0.0
 10
324.5370798669928
 20
1149.97733554059
 30
0.0
 10
297.6316764209032
 20
1153.350386247095
 30
0.0
 10
297.6316764209032
 20
1153.350386247095
 30
0.0
 10
295.4573983178298
 20
1153.480911630851
 30
0.0
 10
295.4573983178298
 20
1153.480911630851
 30
0.0
 10
295.4573983178298
 20
1153.480911630851
 30
0.0
 10
291.1157118687215
 20
1153.480911630851
 30
0.0
 10
291.1157118687215
 20
1153.480911630851
 30
0.0
  0
SPLINE
  5
3AEE
330
A
100
AcDbEntity
  8
HIDDEN
100
AcDbSpline
210
0.0
220
0.0
230
1.0
 70
     8
 71
     3
 72
    35
 73
    31
 74
     0
 42
0.000000001
 43
0.0000000001
 40
0.0
 40
0.0
 40
0.0
 40
0.0
 40
1.0
 40
1.0
 40
1.0
 40
2.0
 40
2.0
 40
2.0
 40
3.0
 40
3.0
 40
3.0
 40
4.0
 40
4.0
 40
4.0
 40
5.0
 40
5.0
 40
5.0
 40
6.0
 40
6.0
 40
6.0
 40
7.0
 40
7.0
 40
7.0
 40
8.0
 40
8.0
 40
8.0
 40
9.0
 40
9.0
 40
9.0
 40
10.0
 40
10.0
 40
10.0
 40
10.0
 10
604.3903723943504
 20
1043.777761463451
 30
0.0
 10
604.3903723943504
 20
1043.777761463451
 30
0.0
 10
606.5646504974238
 20
1043.908286847206
 30
0.0
 10
606.5646504974238
 20
1043.908286847206
 30
0.0
 10
606.5646504974238
 20
1043.908286847206
 30
0.0
 10
608.7286239649357
 20
1044.018202959841
 30
0.0
 10
608.7286239649357
 20
1044.018202959841
 30
0.0
 10
650.6066628791114
 20
1046.690538448295
 30
0.0
 10
697.4515361330114
 20
1049.046865112922
 30
0.0
 10
737.6121357872535
 20
1061.288772157715
 30
0.0
 10
737.6121357872535
 20
1061.288772157715
 30
0.0
 10
743.7674380948474
 20
1063.452745625229
 30
0.0
 10
743.7674380948474
 20
1063.452745625229
 30
0.0
 10
764.9468990483283
 20
1071.840718970735
 30
0.0
 10
777.3914639257919
 20
1082.777372177981
 30
0.0
 10
787.3251326052368
 20
1103.393513054202
 30
0.0
 10
787.3251326052368
 20
1103.393513054202
 30
0.0
 10
788.3040729833983
 20
1105.45444016612
 30
0.0
 10
788.3040729833983
 20
1105.45444016612
 30
0.0
 10
788.3040729833983
 20
1105.45444016612
 30
0.0
 10
789.1490530992842
 20
1107.377972137243
 30
0.0
 10
789.1490530992842
 20
1107.377972137243
 30
0.0
 10
798.7495385623033
 20
1127.84297835859
 30
0.0
 10
798.8628895534594
 20
1149.819331128676
 30
0.0
 10
826.0705623092972
 20
1153.350386247095
 30
0.0
 10
826.0705623092972
 20
1153.350386247095
 30
0.0
 10
828.2448404123706
 20
1153.480911630851
 30
0.0
 10
828.2448404123706
 20
1153.480911630851
 30
0.0
 10
828.2448404123706
 20
1153.480911630851
 30
0.0
 10
832.5865268614789
 20
1153.480911630851
 30
0.0
 10
832.5865268614789
 20
1153.480911630851
 30
0.0
  0
LINE
  5
3AEF
330
A
100
AcDbEntity
  8
MODEL
100
AcDbLine
 10
853.951471255029
 20
1138.518580798326
 30
0.0
 11
853.8243807497956
 21
1138.518580798326
 31
0.0
  0
SPLINE
  5
3AF0
330
A
100
AcDbEntity
  8
MODEL
100
AcDbSpline
210
0.0
220
0.0
230
1.0
 70
     8
 71
     3
 72
    14
 73
    10
 74
     0
 42
0.000000001
 43
0.0000000001
 40
0.0
 40
0.0
 40
0.0
 40
0.0
 40
1.0
 40
1.0
 40
1.0
 40
2.0
 40
2.0
 40
2.0
 40
3.0
 40
3.0
 40
3.0
 40
3.0
 10
769.5977245642234
 20
994.7963937701982
 30
0.0
 10
769.5977245642234
 20
994.7963937701982
 30
0.0
 10
776.5980069877032
 20
1006.007837259033
 30
0.0
 10
776.5980069877032
 20
1006.007837259033
 30
0.0
 10
797.1111015083288
 20
1040.164269260555
 30
0.0
 10
811.7917723022247
 20
1077.817407595298
 30
0.0
 10
819.5580326356348
 20
1116.920064665424
 30
0.0
 10
819.5580326356348
 20
1116.920064665424
 30
0.0
 10
821.969317356582
 20
1129.945124012746
 30
0.0
 10
821.969317356582
 20
1129.945124012746
 30
0.0
  0
LINE
  5
3AF1
330
A
100
AcDbEntity
  8
MODEL
100
AcDbLine
 10
858.537034079046
 20
1138.518580798326
 30
0.0
 11
853.951471255029
 21
1138.518580798326
 31
0.0
  0
LINE
  5
3AF2
330
A
100
AcDbEntity
  8
MODEL
100
AcDbLine
 10
853.951471255029
 20
1138.518580798326
 30
0.0
 11
826.565184816157
 21
1138.518580798326
 31
0.0
  0
LINE
  5
3AF3
330
A
100
AcDbEntity
  8
MODEL
100
AcDbLine
 10
861.9135196640736
 20
1149.379666678134
 30
0.0
 11
861.5562922980052
 21
1141.403878755011
 31
0.0
  0
LINE
  5
3AF4
330
A
100
AcDbEntity
  8
MODEL
100
AcDbLine
 10
858.537034079046
 20
1138.518580798326
 30
0.0
 11
859.7392415610002
 21
1138.738413023596
 31
0.0
  0
LINE
  5
3AF5
330
A
100
AcDbEntity
  8
MODEL
100
AcDbLine
 10
859.7392415610002
 20
1138.738413023596
 30
0.0
 11
860.7044424250807
 21
1139.356691157172
 31
0.0
  0
LINE
  5
3AF6
330
A
100
AcDbEntity
  8
MODEL
100
AcDbLine
 10
860.7044424250807
 20
1139.356691157172
 30
0.0
 11
861.5562922980052
 21
1141.403878755011
 31
0.0
  0
ARC
  5
3AF7
330
A
100
AcDbEntity
  8
MODEL
100
AcDbCircle
 10
836.4873114731627
 20
1127.681195034729
 30
0.0
 40
14.69345186083391
100
AcDbArc
 50
132.4755406404997
 51
171.1367071242875
  0
SPLINE
  5
3B57
330
A
100
AcDbEntity
  8
HIDDEN
100
AcDbSpline
210
0.0
220
0.0
230
1.0
 70
     8
 71
     3
 72
    44
 73
    40
 74
     0
 42
0.000000001
 43
0.0000000001
 40
0.0
 40
0.0
 40
0.0
 40
0.0
 40
1.0
 40
1.0
 40
1.0
 40
2.0
 40
2.0
 40
2.0
 40
3.0
 40
3.0
 40
3.0
 40
4.0
 40
4.0
 40
4.0
 40
5.0
 40
5.0
 40
5.0
 40
6.0
 40
6.0
 40
6.0
 40
7.0
 40
7.0
 40
7.0
 40
8.0
 40
8.0
 40
8.0
 40
9.0
 40
9.0
 40
9.0
 40
10.0
 40
10.0
 40
10.0
 40
11.0
 40
11.0
 40
11.0
 40
12.0
 40
12.0
 40
12.0
 40
13.0
 40
13.0
 40
13.0
 40
13.0
 10
1487.234026102398
 20
1855.759040294683
 30
0.0
 10
1487.234026102398
 20
1855.759040294683
 30
0.0
 10
1476.620251476021
 20
1855.759040294683
 30
0.0
 10
1476.620251476021
 20
1855.759040294683
 30
0.0
 10
1442.347033604821
 20
1856.013221305153
 30
0.0
 10
1408.44821749229
 20
1857.792488378442
 30
0.0
 10
1374.281480855208
 20
1860.581609736571
 30
0.0
 10
1374.281480855208
 20
1860.581609736571
 30
0.0
 10
1370.784774521986
 20
1860.945706859676
 30
0.0
 10
1370.784774521986
 20
1860.945706859676
 30
0.0
 10
1370.784774521986
 20
1860.945706859676
 30
0.0
 10
1367.281198431725
 20
1861.316673739822
 30
0.0
 10
1367.281198431725
 20
1861.316673739822
 30
0.0
 10
1334.196448528399
 20
1864.531720034414
 30
0.0
 10
1298.137093826872
 20
1868.289477135145
 30
0.0
 10
1266.158374806944
 20
1877.22703104383
 30
0.0
 10
1266.158374806944
 20
1877.22703104383
 30
0.0
 10
1259.398533879854
 20
1879.418483539502
 30
0.0
 10
1259.398533879854
 20
1879.418483539502
 30
0.0
 10
1259.398533879854
 20
1879.418483539502
 30
0.0
 10
1256.022048294826
 20
1880.620691021455
 30
0.0
 10
1256.022048294826
 20
1880.620691021455
 30
0.0
 10
1256.022048294826
 20
1880.620691021455
 30
0.0
 10
1252.762348579477
 20
1881.939684373082
 30
0.0
 10
1252.762348579477
 20
1881.939684373082
 30
0.0
 10
1217.280053469289
 20
1896.022686304522
 30
0.0
 10
1202.389855085681
 20
1925.356548864157
 30
0.0
 10
1195.200654343605
 20
1960.98997862922
 30
0.0
 10
1195.200654343605
 20
1960.98997862922
 30
0.0
 10
1194.469025218876
 20
1964.486684962441
 30
0.0
 10
1194.469025218876
 20
1964.486684962441
 30
0.0
 10
1194.469025218876
 20
1964.486684962441
 30
0.0
 10
1193.878226113457
 20
1967.873475183027
 30
0.0
 10
1193.878226113457
 20
1967.873475183027
 30
0.0
 10
1188.475162201712
 20
2001.136838769384
 30
0.0
 10
1187.819100404418
 20
2036.385562140223
 30
0.0
 10
1187.235171056042
 20
2070.081720420084
 30
0.0
 10
1187.235171056042
 20
2070.081720420084
 30
0.0
 10
1187.235171056042
 20
2080.698929924982
 30
0.0
 10
1187.235171056042
 20
2080.698929924982
 30
0.0
  0
SPLINE
  5
3B58
330
A
100
AcDbEntity
  8
HIDDEN
100
AcDbSpline
210
0.0
220
0.0
230
1.0
 70
     8
 71
     3
 72
    50
 73
    46
 74
     0
 42
0.000000001
 43
0.0000000001
 40
0.0
 40
0.0
 40
0.0
 40
0.0
 40
1.0
 40
1.0
 40
1.0
 40
2.0
 40
2.0
 40
2.0
 40
3.0
 40
3.0
 40
3.0
 40
4.0
 40
4.0
 40
4.0
 40
5.0
 40
5.0
 40
5.0
 40
6.0
 40
6.0
 40
6.0
 40
7.0
 40
7.0
 40
7.0
 40
8.0
 40
8.0
 40
8.0
 40
9.0
 40
9.0
 40
9.0
 40
10.0
 40
10.0
 40
10.0
 40
11.0
 40
11.0
 40
11.0
 40
12.0
 40
12.0
 40
12.0
 40
13.0
 40
13.0
 40
13.0
 40
14.0
 40
14.0
 40
14.0
 40
15.0
 40
15.0
 40
15.0
 40
15.0
 10
1487.234026102398
 20
2305.759040303476
 30
0.0
 10
1487.234026102398
 20
2305.759040303476
 30
0.0
 10
1483.737319769176
 20
2305.759040303476
 30
0.0
 10
1483.737319769176
 20
2305.759040303476
 30
0.0
 10
1483.737319769176
 20
2305.759040303476
 30
0.0
 10
1480.237178557434
 20
2305.631949798241
 30
0.0
 10
1480.237178557434
 20
2305.631949798241
 30
0.0
 10
1480.237178557434
 20
2305.631949798241
 30
0.0
 10
1476.620251476021
 20
2305.631949798241
 30
0.0
 10
1476.620251476021
 20
2305.631949798241
 30
0.0
 10
1442.501603138217
 20
2305.453336115209
 30
0.0
 10
1408.269603809256
 20
2303.746201490836
 30
0.0
 10
1374.281480855208
 20
2300.812815234873
 30
0.0
 10
1374.281480855208
 20
2300.812815234873
 30
0.0
 10
1370.784774521986
 20
2300.445283233247
 30
0.0
 10
1370.784774521986
 20
2300.445283233247
 30
0.0
 10
1370.784774521986
 20
2300.445283233247
 30
0.0
 10
1367.281198431725
 20
2300.215146372417
 30
0.0
 10
1367.281198431725
 20
2300.215146372417
 30
0.0
 10
1334.096837051324
 20
2296.745919067354
 30
0.0
 10
1298.243575060989
 20
2293.276691762292
 30
0.0
 10
1266.158374806944
 20
2284.160524170575
 30
0.0
 10
1266.158374806944
 20
2284.160524170575
 30
0.0
 10
1259.398533879854
 20
2281.986246067501
 30
0.0
 10
1259.398533879854
 20
2281.986246067501
 30
0.0
 10
1259.398533879854
 20
2281.986246067501
 30
0.0
 10
1256.022048294826
 20
2280.777168828509
 30
0.0
 10
1256.022048294826
 20
2280.777168828509
 30
0.0
 10
1256.022048294826
 20
2280.777168828509
 30
0.0
 10
1252.762348579477
 20
2279.447870841323
 30
0.0
 10
1252.762348579477
 20
2279.447870841323
 30
0.0
 10
1217.280053469289
 20
2265.519438443276
 30
0.0
 10
1202.362376057519
 20
2235.938264630212
 30
0.0
 10
1195.200654343605
 20
2200.407881220744
 30
0.0
 10
1195.200654343605
 20
2200.407881220744
 30
0.0
 10
1194.469025218876
 20
2197.031395635718
 30
0.0
 10
1194.469025218876
 20
2197.031395635718
 30
0.0
 10
1194.469025218876
 20
2197.031395635718
 30
0.0
 10
1193.878226113457
 20
2193.534689302497
 30
0.0
 10
1193.878226113457
 20
2193.534689302497
 30
0.0
 10
1188.468292444673
 20
2160.274760594659
 30
0.0
 10
1187.819100404418
 20
2125.001993074181
 30
0.0
 10
1187.235171056042
 20
2091.31270455136
 30
0.0
 10
1187.235171056042
 20
2091.31270455136
 30
0.0
 10
1187.235171056042
 20
2080.692060167942
 30
0.0
 10
1187.235171056042
 20
2080.692060167942
 30
0.0
  0
SPLINE
  5
3B59
330
A
100
AcDbEntity
  8
HIDDEN
100
AcDbSpline
210
0.0
220
0.0
230
1.0
 70
     8
 71
     3
 72
    56
 73
    52
 74
     0
 42
0.000000001
 43
0.0000000001
 40
0.0
 40
0.0
 40
0.0
 40
0.0
 40
1.0
 40
1.0
 40
1.0
 40
2.0
 40
2.0
 40
2.0
 40
3.0
 40
3.0
 40
3.0
 40
4.0
 40
4.0
 40
4.0
 40
5.0
 40
5.0
 40
5.0
 40
6.0
 40
6.0
 40
6.0
 40
7.0
 40
7.0
 40
7.0
 40
8.0
 40
8.0
 40
8.0
 40
9.0
 40
9.0
 40
9.0
 40
10.0
 40
10.0
 40
10.0
 40
11.0
 40
11.0
 40
11.0
 40
12.0
 40
12.0
 40
12.0
 40
13.0
 40
13.0
 40
13.0
 40
14.0
 40
14.0
 40
14.0
 40
15.0
 40
15.0
 40
15.0
 40
16.0
 40
16.0
 40
16.0
 40
17.0
 40
17.0
 40
17.0
 40
17.0
 10
1487.234026102398
 20
2305.759040303476
 30
0.0
 10
1487.234026102398
 20
2305.759040303476
 30
0.0
 10
1490.730732435617
 20
2305.759040303476
 30
0.0
 10
1490.730732435617
 20
2305.759040303476
 30
0.0
 10
1490.730732435617
 20
2305.759040303476
 30
0.0
 10
1494.354529274073
 20
2305.631949798241
 30
0.0
 10
1494.354529274073
 20
2305.631949798241
 30
0.0
 10
1494.354529274073
 20
2305.631949798241
 30
0.0
 10
1497.851235607295
 20
2305.631949798241
 30
0.0
 10
1497.851235607295
 20
2305.631949798241
 30
0.0
 10
1531.952709552499
 20
2305.453336115209
 30
0.0
 10
1566.219057666656
 20
2303.746201490836
 30
0.0
 10
1600.190006228107
 20
2300.812815234873
 30
0.0
 10
1600.190006228107
 20
2300.812815234873
 30
0.0
 10
1603.806933309525
 20
2300.445283233247
 30
0.0
 10
1603.806933309525
 20
2300.445283233247
 30
0.0
 10
1603.806933309525
 20
2300.445283233247
 30
0.0
 10
1607.310509399786
 20
2300.215146372417
 30
0.0
 10
1607.310509399786
 20
2300.215146372417
 30
0.0
 10
1640.539524200945
 20
2296.732179553275
 30
0.0
 10
1676.276000321604
 20
2293.249212734134
 30
0.0
 10
1708.433333024566
 20
2284.160524170575
 30
0.0
 10
1708.433333024566
 20
2284.160524170575
 30
0.0
 10
1711.802948852552
 20
2283.071667679778
 30
0.0
 10
1711.802948852552
 20
2283.071667679778
 30
0.0
 10
1711.802948852552
 20
2283.071667679778
 30
0.0
 10
1715.072953203462
 20
2281.986246067501
 30
0.0
 10
1715.072953203462
 20
2281.986246067501
 30
0.0
 10
1715.072953203462
 20
2281.986246067501
 30
0.0
 10
1718.449438788486
 20
2280.777168828509
 30
0.0
 10
1718.449438788486
 20
2280.777168828509
 30
0.0
 10
1718.449438788486
 20
2280.777168828509
 30
0.0
 10
1721.698833868277
 20
2279.447870841323
 30
0.0
 10
1721.698833868277
 20
2279.447870841323
 30
0.0
 10
1757.514312194895
 20
2265.351129395803
 30
0.0
 10
1771.841190501245
 20
2236.106573677685
 30
0.0
 10
1779.391053487905
 20
2200.407881220744
 30
0.0
 10
1779.391053487905
 20
2200.407881220744
 30
0.0
 10
1779.988722350359
 20
2197.031395635718
 30
0.0
 10
1779.988722350359
 20
2197.031395635718
 30
0.0
 10
1779.988722350359
 20
2197.031395635718
 30
0.0
 10
1780.607000483937
 20
2193.534689302497
 30
0.0
 10
1780.607000483937
 20
2193.534689302497
 30
0.0
 10
1786.065022451998
 20
2160.676641381483
 30
0.0
 10
1786.679865707056
 20
2124.672244736274
 30
0.0
 10
1787.226011391713
 20
2091.31270455136
 30
0.0
 10
1787.226011391713
 20
2091.31270455136
 30
0.0
 10
1787.359971653988
 20
2087.81599821814
 30
0.0
 10
1787.359971653988
 20
2087.81599821814
 30
0.0
 10
1787.359971653988
 20
2087.81599821814
 30
0.0
 10
1787.359971653988
 20
2080.692060167942
 30
0.0
 10
1787.359971653988
 20
2080.692060167942
 30
0.0
  0
SPLINE
  5
3B5A
330
A
100
AcDbEntity
  8
HIDDEN
100
AcDbSpline
210
0.0
220
0.0
230
1.0
 70
     8
 71
     3
 72
    50
 73
    46
 74
     0
 42
0.000000001
 43
0.0000000001
 40
0.0
 40
0.0
 40
0.0
 40
0.0
 40
1.0
 40
1.0
 40
1.0
 40
2.0
 40
2.0
 40
2.0
 40
3.0
 40
3.0
 40
3.0
 40
4.0
 40
4.0
 40
4.0
 40
5.0
 40
5.0
 40
5.0
 40
6.0
 40
6.0
 40
6.0
 40
7.0
 40
7.0
 40
7.0
 40
8.0
 40
8.0
 40
8.0
 40
9.0
 40
9.0
 40
9.0
 40
10.0
 40
10.0
 40
10.0
 40
11.0
 40
11.0
 40
11.0
 40
12.0
 40
12.0
 40
12.0
 40
13.0
 40
13.0
 40
13.0
 40
14.0
 40
14.0
 40
14.0
 40
15.0
 40
15.0
 40
15.0
 40
15.0
 10
1487.234026102398
 20
1855.759040294683
 30
0.0
 10
1487.234026102398
 20
1855.759040294683
 30
0.0
 10
1497.851235607295
 20
1855.759040294683
 30
0.0
 10
1497.851235607295
 20
1855.759040294683
 30
0.0
 10
1532.138192992572
 20
1856.013221305153
 30
0.0
 10
1566.037009105106
 20
1857.778748864362
 30
0.0
 10
1600.190006228107
 20
1860.581609736571
 30
0.0
 10
1600.190006228107
 20
1860.581609736571
 30
0.0
 10
1603.806933309525
 20
1860.945706859676
 30
0.0
 10
1603.806933309525
 20
1860.945706859676
 30
0.0
 10
1603.806933309525
 20
1860.945706859676
 30
0.0
 10
1607.310509399786
 20
1861.316673739822
 30
0.0
 10
1607.310509399786
 20
1861.316673739822
 30
0.0
 10
1640.457087116467
 20
1864.552329305534
 30
0.0
 10
1676.37561179868
 20
1868.316956163304
 30
0.0
 10
1708.433333024566
 20
1877.22703104383
 30
0.0
 10
1708.433333024566
 20
1877.22703104383
 30
0.0
 10
1711.802948852552
 20
1878.326192170186
 30
0.0
 10
1711.802948852552
 20
1878.326192170186
 30
0.0
 10
1711.802948852552
 20
1878.326192170186
 30
0.0
 10
1715.072953203462
 20
1879.418483539502
 30
0.0
 10
1715.072953203462
 20
1879.418483539502
 30
0.0
 10
1715.072953203462
 20
1879.418483539502
 30
0.0
 10
1718.449438788486
 20
1880.620691021455
 30
0.0
 10
1718.449438788486
 20
1880.620691021455
 30
0.0
 10
1718.449438788486
 20
1880.620691021455
 30
0.0
 10
1721.698833868277
 20
1881.939684373082
 30
0.0
 10
1721.698833868277
 20
1881.939684373082
 30
0.0
 10
1757.541791223053
 20
1896.235648772754
 30
0.0
 10
1771.786232444925
 20
1925.171065424084
 30
0.0
 10
1779.391053487905
 20
1960.98997862922
 30
0.0
 10
1779.391053487905
 20
1960.98997862922
 30
0.0
 10
1779.988722350359
 20
1964.486684962441
 30
0.0
 10
1779.988722350359
 20
1964.486684962441
 30
0.0
 10
1779.988722350359
 20
1964.486684962441
 30
0.0
 10
1780.607000483937
 20
1967.873475183027
 30
0.0
 10
1780.607000483937
 20
1967.873475183027
 30
0.0
 10
1786.058152694959
 20
2000.74526261812
 30
0.0
 10
1786.679865707056
 20
2036.70844072109
 30
0.0
 10
1787.226011391713
 20
2070.081720420084
 30
0.0
 10
1787.226011391713
 20
2070.081720420084
 30
0.0
 10
1787.359971653988
 20
2073.6986475015
 30
0.0
 10
1787.359971653988
 20
2073.6986475015
 30
0.0
 10
1787.359971653988
 20
2073.6986475015
 30
0.0
 10
1787.359971653988
 20
2080.698929924982
 30
0.0
 10
1787.359971653988
 20
2080.698929924982
 30
0.0
  0
SPLINE
  5
3B5C
330
A
100
AcDbEntity
  8
HIDDEN
100
AcDbSpline
210
0.0
220
0.0
230
1.0
 70
     8
 71
     3
 72
    80
 73
    76
 74
     0
 42
0.000000001
 43
0.0000000001
 40
0.0
 40
0.0
 40
0.0
 40
0.0
 40
1.0
 40
1.0
 40
1.0
 40
2.0
 40
2.0
 40
2.0
 40
3.0
 40
3.0
 40
3.0
 40
4.0
 40
4.0
 40
4.0
 40
5.0
 40
5.0
 40
5.0
 40
6.0
 40
6.0
 40
6.0
 40
7.0
 40
7.0
 40
7.0
 40
8.0
 40
8.0
 40
8.0
 40
9.0
 40
9.0
 40
9.0
 40
10.0
 40
10.0
 40
10.0
 40
11.0
 40
11.0
 40
11.0
 40
12.0
 40
12.0
 40
12.0
 40
13.0
 40
13.0
 40
13.0
 40
14.0
 40
14.0
 40
14.0
 40
15.0
 40
15.0
 40
15.0
 40
16.0
 40
16.0
 40
16.0
 40
17.0
 40
17.0
 40
17.0
 40
18.0
 40
18.0
 40
18.0
 40
19.0
 40
19.0
 40
19.0
 40
20.0
 40
20.0
 40
20.0
 40
21.0
 40
21.0
 40
21.0
 40
22.0
 40
22.0
 40
22.0
 40
23.0
 40
23.0
 40
23.0
 40
24.0
 40
24.0
 40
24.0
 40
25.0
 40
25.0
 40
25.0
 40
25.0
 10
1486.869928979291
 20
2201.25973109367
 30
0.0
 10
1486.869928979291
 20
2201.25973109367
 30
0.0
 10
1489.885752319731
 20
2201.25973109367
 30
0.0
 10
1489.885752319731
 20
2201.25973109367
 30
0.0
 10
1489.885752319731
 20
2201.25973109367
 30
0.0
 10
1492.911880295733
 20
2201.132640588435
 30
0.0
 10
1492.911880295733
 20
2201.132640588435
 30
0.0
 10
1492.911880295733
 20
2201.132640588435
 30
0.0
 10
1496.041054627329
 20
2201.01928959728
 30
0.0
 10
1496.041054627329
 20
2201.01928959728
 30
0.0
 10
1549.302280956332
 20
2199.336199122547
 30
0.0
 10
1605.20492886711
 20
2195.447916638061
 30
0.0
 10
1657.394473097915
 20
2184.480349524137
 30
0.0
 10
1657.394473097915
 20
2184.480349524137
 30
0.0
 10
1663.178808525363
 20
2183.030830788754
 30
0.0
 10
1663.178808525363
 20
2183.030830788754
 30
0.0
 10
1738.392343474816
 20
2165.121374186187
 30
0.0
 10
1736.115019016144
 20
2133.754063542793
 30
0.0
 10
1739.694162433841
 20
2065.13893023
 30
0.0
 10
1739.694162433841
 20
2065.13893023
 30
0.0
 10
1739.807513424998
 20
2061.865491000571
 30
0.0
 10
1739.807513424998
 20
2061.865491000571
 30
0.0
 10
1739.807513424998
 20
2061.865491000571
 30
0.0
 10
1739.927734173192
 20
2058.489005415545
 30
0.0
 10
1739.927734173192
 20
2058.489005415545
 30
0.0
 10
1739.927734173192
 20
2058.489005415545
 30
0.0
 10
1739.927734173192
 20
2051.856254993689
 30
0.0
 10
1739.927734173192
 20
2051.856254993689
 30
0.0
 10
1739.927734173192
 20
2051.856254993689
 30
0.0
 10
1740.05138979991
 20
2048.599990156858
 30
0.0
 10
1740.05138979991
 20
2048.599990156858
 30
0.0
 10
1739.546462657489
 20
2022.460564620697
 30
0.0
 10
1738.540043251169
 20
1992.872521050592
 30
0.0
 10
1733.538860126248
 20
1967.255197049451
 30
0.0
 10
1733.538860126248
 20
1967.255197049451
 30
0.0
 10
1732.927451749712
 20
1964.486684962441
 30
0.0
 10
1732.927451749712
 20
1964.486684962441
 30
0.0
 10
1732.927451749712
 20
1964.486684962441
 30
0.0
 10
1732.20956213906
 20
1961.718172875431
 30
0.0
 10
1732.20956213906
 20
1961.718172875431
 30
0.0
 10
1725.518418782367
 20
1935.812319078621
 30
0.0
 10
1708.093280051098
 20
1924.7588800017
 30
0.0
 10
1684.17622091729
 20
1916.21290224428
 30
0.0
 10
1684.17622091729
 20
1916.21290224428
 30
0.0
 10
1681.284053203564
 20
1915.367922128394
 30
0.0
 10
1681.284053203564
 20
1915.367922128394
 30
0.0
 10
1681.284053203564
 20
1915.367922128394
 30
0.0
 10
1678.38158085428
 20
1914.406156142831
 30
0.0
 10
1678.38158085428
 20
1914.406156142831
 30
0.0
 10
1678.38158085428
 20
1914.406156142831
 30
0.0
 10
1675.482543383516
 20
1913.568045783985
 30
0.0
 10
1675.482543383516
 20
1913.568045783985
 30
0.0
 10
1675.482543383516
 20
1913.568045783985
 30
0.0
 10
1672.470154921595
 20
1912.716195911059
 30
0.0
 10
1672.470154921595
 20
1912.716195911059
 30
0.0
 10
1646.519647704024
 20
1905.709043730538
 30
0.0
 10
1619.737899884649
 20
1902.542085735224
 30
0.0
 10
1593.062633299391
 20
1899.677397049657
 30
0.0
 10
1593.062633299391
 20
1899.677397049657
 30
0.0
 10
1589.806368462561
 20
1899.443825310306
 30
0.0
 10
1589.806368462561
 20
1899.443825310306
 30
0.0
 10
1589.806368462561
 20
1899.443825310306
 30
0.0
 10
1586.550103625728
 20
1899.079728187201
 30
0.0
 10
1586.550103625728
 20
1899.079728187201
 30
0.0
 10
1557.982218976025
 20
1896.620355166978
 30
0.0
 10
1529.173892829929
 20
1895.170836431596
 30
0.0
 10
1500.50983158167
 20
1894.738041738093
 30
0.0
 10
1500.50983158167
 20
1894.738041738093
 30
0.0
 10
1497.126476239604
 20
1894.621255868418
 30
0.0
 10
1497.126476239604
 20
1894.621255868418
 30
0.0
 10
1497.126476239604
 20
1894.621255868418
 30
0.0
 10
1490.483421182189
 20
1894.621255868418
 30
0.0
 10
1490.483421182189
 20
1894.621255868418
 30
0.0
 10
1490.483421182189
 20
1894.621255868418
 30
0.0
 10
1487.106935597161
 20
1894.504469998743
 30
0.0
 10
1487.106935597161
 20
1894.504469998743
 30
0.0
  0
SPLINE
  5
3B5D
330
A
100
AcDbEntity
  8
HIDDEN
100
AcDbSpline
210
0.0
220
0.0
230
1.0
 70
     8
 71
     3
 72
    74
 73
    70
 74
     0
 42
0.000000001
 43
0.0000000001
 40
0.0
 40
0.0
 40
0.0
 40
0.0
 40
1.0
 40
1.0
 40
1.0
 40
2.0
 40
2.0
 40
2.0
 40
3.0
 40
3.0
 40
3.0
 40
4.0
 40
4.0
 40
4.0
 40
5.0
 40
5.0
 40
5.0
 40
6.0
 40
6.0
 40
6.0
 40
7.0
 40
7.0
 40
7.0
 40
8.0
 40
8.0
 40
8.0
 40
9.0
 40
9.0
 40
9.0
 40
10.0
 40
10.0
 40
10.0
 40
11.0
 40
11.0
 40
11.0
 40
12.0
 40
12.0
 40
12.0
 40
13.0
 40
13.0
 40
13.0
 40
14.0
 40
14.0
 40
14.0
 40
15.0
 40
15.0
 40
15.0
 40
16.0
 40
16.0
 40
16.0
 40
17.0
 40
17.0
 40
17.0
 40
18.0
 40
18.0
 40
18.0
 40
19.0
 40
19.0
 40
19.0
 40
20.0
 40
20.0
 40
20.0
 40
21.0
 40
21.0
 40
21.0
 40
22.0
 40
22.0
 40
22.0
 40
23.0
 40
23.0
 40
23.0
 40
23.0
 10
1487.354246850593
 20
2201.25973109367
 30
0.0
 10
1487.354246850593
 20
2201.25973109367
 30
0.0
 10
1484.345293267192
 20
2201.25973109367
 30
0.0
 10
1484.345293267192
 20
2201.25973109367
 30
0.0
 10
1484.345293267192
 20
2201.25973109367
 30
0.0
 10
1478.299907072231
 20
2201.01928959728
 30
0.0
 10
1478.299907072231
 20
2201.01928959728
 30
0.0
 10
1425.110813192148
 20
2199.349938636626
 30
0.0
 10
1369.060465505014
 20
2195.47539566622
 30
0.0
 10
1316.960228115726
 20
2184.480349524137
 30
0.0
 10
1316.960228115726
 20
2184.480349524137
 30
0.0
 10
1311.158718295677
 20
2183.030830788754
 30
0.0
 10
1311.158718295677
 20
2183.030830788754
 30
0.0
 10
1235.965792617344
 20
2165.330901775898
 30
0.0
 10
1238.081677785582
 20
2133.606363766439
 30
0.0
 10
1234.530013396043
 20
2065.13893023
 30
0.0
 10
1234.530013396043
 20
2065.13893023
 30
0.0
 10
1234.416662404887
 20
2061.865491000571
 30
0.0
 10
1234.416662404887
 20
2061.865491000571
 30
0.0
 10
1234.416662404887
 20
2061.865491000571
 30
0.0
 10
1234.296441656692
 20
2058.489005415545
 30
0.0
 10
1234.296441656692
 20
2058.489005415545
 30
0.0
 10
1234.296441656692
 20
2058.489005415545
 30
0.0
 10
1234.296441656692
 20
2048.599990156858
 30
0.0
 10
1234.296441656692
 20
2048.599990156858
 30
0.0
 10
1234.488794853803
 20
2022.618569032611
 30
0.0
 10
1235.818092840991
 20
1992.707646881639
 30
0.0
 10
1240.685315703637
 20
1967.255197049451
 30
0.0
 10
1240.685315703637
 20
1967.255197049451
 30
0.0
 10
1241.303593837214
 20
1964.486684962441
 30
0.0
 10
1241.303593837214
 20
1964.486684962441
 30
0.0
 10
1241.303593837214
 20
1964.486684962441
 30
0.0
 10
1242.021483447863
 20
1961.718172875431
 30
0.0
 10
1242.021483447863
 20
1961.718172875431
 30
0.0
 10
1248.719496561598
 20
1935.860407377899
 30
0.0
 10
1266.158374806944
 20
1924.738270730581
 30
0.0
 10
1290.061694426675
 20
1916.21290224428
 30
0.0
 10
1290.061694426675
 20
1916.21290224428
 30
0.0
 10
1292.946992383359
 20
1915.367922128394
 30
0.0
 10
1292.946992383359
 20
1915.367922128394
 30
0.0
 10
1292.946992383359
 20
1915.367922128394
 30
0.0
 10
1295.842594975604
 20
1914.406156142831
 30
0.0
 10
1295.842594975604
 20
1914.406156142831
 30
0.0
 10
1295.842594975604
 20
1914.406156142831
 30
0.0
 10
1298.861853194563
 20
1913.568045783985
 30
0.0
 10
1298.861853194563
 20
1913.568045783985
 30
0.0
 10
1298.861853194563
 20
1913.568045783985
 30
0.0
 10
1301.760890665328
 20
1912.716195911059
 30
0.0
 10
1301.760890665328
 20
1912.716195911059
 30
0.0
 10
1327.711397882898
 20
1905.722783244617
 30
0.0
 10
1354.493145702274
 20
1902.528346221143
 30
0.0
 10
1381.161542530494
 20
1899.677397049657
 30
0.0
 10
1381.161542530494
 20
1899.677397049657
 30
0.0
 10
1384.417807367323
 20
1899.443825310306
 30
0.0
 10
1384.417807367323
 20
1899.443825310306
 30
0.0
 10
1384.417807367323
 20
1899.443825310306
 30
0.0
 10
1387.801162709389
 20
1899.079728187201
 30
0.0
 10
1387.801162709389
 20
1899.079728187201
 30
0.0
 10
1416.341568330934
 20
1896.59974589586
 30
0.0
 10
1445.18767814075
 20
1895.170836431596
 30
0.0
 10
1473.841434753451
 20
1894.738041738093
 30
0.0
 10
1473.841434753451
 20
1894.738041738093
 30
0.0
 10
1477.090829833242
 20
1894.621255868418
 30
0.0
 10
1477.090829833242
 20
1894.621255868418
 30
0.0
 10
1477.090829833242
 20
1894.621255868418
 30
0.0
 10
1483.737319769176
 20
1894.621255868418
 30
0.0
 10
1483.737319769176
 20
1894.621255868418
 30
0.0
 10
1483.737319769176
 20
1894.621255868418
 30
0.0
 10
1487.113805354204
 20
1894.504469998743
 30
0.0
 10
1487.113805354204
 20
1894.504469998743
 30
0.0
  0
SPLINE
  5
3B5E
330
A
100
AcDbEntity
  8
HIDDEN
100
AcDbSpline
210
0.0
220
0.0
230
1.0
 70
     8
 71
     3
 72
    53
 73
    49
 74
     0
 42
0.000000001
 43
0.0000000001
 40
0.0
 40
0.0
 40
0.0
 40
0.0
 40
1.0
 40
1.0
 40
1.0
 40
2.0
 40
2.0
 40
2.0
 40
3.0
 40
3.0
 40
3.0
 40
4.0
 40
4.0
 40
4.0
 40
5.0
 40
5.0
 40
5.0
 40
6.0
 40
6.0
 40
6.0
 40
7.0
 40
7.0
 40
7.0
 40
8.0
 40
8.0
 40
8.0
 40
9.0
 40
9.0
 40
9.0
 40
10.0
 40
10.0
 40
10.0
 40
11.0
 40
11.0
 40
11.0
 40
12.0
 40
12.0
 40
12.0
 40
13.0
 40
13.0
 40
13.0
 40
14.0
 40
14.0
 40
14.0
 40
15.0
 40
15.0
 40
15.0
 40
16.0
 40
16.0
 40
16.0
 40
16.0
 10
1487.234026102398
 20
2180.983643190916
 30
0.0
 10
1487.234026102398
 20
2180.983643190916
 30
0.0
 10
1485.904728115211
 20
2180.983643190916
 30
0.0
 10
1485.904728115211
 20
2180.983643190916
 30
0.0
 10
1485.904728115211
 20
2180.983643190916
 30
0.0
 10
1484.582299885062
 20
2181.096994182071
 30
0.0
 10
1484.582299885062
 20
2181.096994182071
 30
0.0
 10
1484.582299885062
 20
2181.096994182071
 30
0.0
 10
1483.253001897874
 20
2181.096994182071
 30
0.0
 10
1483.253001897874
 20
2181.096994182071
 30
0.0
 10
1483.253001897874
 20
2181.096994182071
 30
0.0
 10
1482.050794415924
 20
2181.224084687306
 30
0.0
 10
1482.050794415924
 20
2181.224084687306
 30
0.0
 10
1482.050794415924
 20
2181.224084687306
 30
0.0
 10
1480.841717176931
 20
2181.344305435501
 30
0.0
 10
1480.841717176931
 20
2181.344305435501
 30
0.0
 10
1480.841717176931
 20
2181.344305435501
 30
0.0
 10
1479.749425807613
 20
2181.461091305177
 30
0.0
 10
1479.749425807613
 20
2181.461091305177
 30
0.0
 10
1479.749425807613
 20
2181.461091305177
 30
0.0
 10
1478.794529579094
 20
2181.581312053372
 30
0.0
 10
1478.794529579094
 20
2181.581312053372
 30
0.0
 10
1478.794529579094
 20
2181.581312053372
 30
0.0
 10
1477.822458957971
 20
2181.708402558607
 30
0.0
 10
1477.822458957971
 20
2181.708402558607
 30
0.0
 10
1477.822458957971
 20
2181.708402558607
 30
0.0
 10
1477.090829833242
 20
2181.828623306802
 30
0.0
 10
1477.090829833242
 20
2181.828623306802
 30
0.0
 10
1477.090829833242
 20
2181.828623306802
 30
0.0
 10
1475.89549210833
 20
2182.312941178103
 30
0.0
 10
1475.89549210833
 20
2182.312941178103
 30
0.0
 10
1475.89549210833
 20
2182.312941178103
 30
0.0
 10
1475.534829863742
 20
2182.553382674493
 30
0.0
 10
1475.534829863742
 20
2182.553382674493
 30
0.0
 10
1475.534829863742
 20
2182.553382674493
 30
0.0
 10
1475.297823245872
 20
2182.783519535325
 30
0.0
 10
1475.297823245872
 20
2182.783519535325
 30
0.0
 10
1475.297823245872
 20
2182.783519535325
 30
0.0
 10
1475.297823245872
 20
2183.271272285145
 30
0.0
 10
1475.297823245872
 20
2183.271272285145
 30
0.0
 10
1476.661470018256
 20
2185.036799844354
 30
0.0
 10
1482.493893744986
 20
2185.998565829917
 30
0.0
 10
1484.582299885062
 20
2186.050089007715
 30
0.0
 10
1484.582299885062
 20
2186.050089007715
 30
0.0
 10
1485.904728115211
 20
2186.170309755909
 30
0.0
 10
1485.904728115211
 20
2186.170309755909
 30
0.0
 10
1485.904728115211
 20
2186.170309755909
 30
0.0
 10
1487.234026102398
 20
2186.170309755909
 30
0.0
 10
1487.234026102398
 20
2186.170309755909
 30
0.0
  0
SPLINE
  5
3B5F
330
A
100
AcDbEntity
  8
HIDDEN
100
AcDbSpline
210
0.0
220
0.0
230
1.0
 70
     8
 71
     3
 72
    56
 73
    52
 74
     0
 42
0.000000001
 43
0.0000000001
 40
0.0
 40
0.0
 40
0.0
 40
0.0
 40
1.0
 40
1.0
 40
1.0
 40
2.0
 40
2.0
 40
2.0
 40
3.0
 40
3.0
 40
3.0
 40
4.0
 40
4.0
 40
4.0
 40
5.0
 40
5.0
 40
5.0
 40
6.0
 40
6.0
 40
6.0
 40
7.0
 40
7.0
 40
7.0
 40
8.0
 40
8.0
 40
8.0
 40
9.0
 40
9.0
 40
9.0
 40
10.0
 40
10.0
 40
10.0
 40
11.0
 40
11.0
 40
11.0
 40
12.0
 40
12.0
 40
12.0
 40
13.0
 40
13.0
 40
13.0
 40
14.0
 40
14.0
 40
14.0
 40
15.0
 40
15.0
 40
15.0
 40
16.0
 40
16.0
 40
16.0
 40
17.0
 40
17.0
 40
17.0
 40
17.0
 10
1487.234026102398
 20
2180.983643190916
 30
0.0
 10
1487.234026102398
 20
2180.983643190916
 30
0.0
 10
1488.563324089586
 20
2180.983643190916
 30
0.0
 10
1488.563324089586
 20
2180.983643190916
 30
0.0
 10
1488.563324089586
 20
2180.983643190916
 30
0.0
 10
1489.89262207677
 20
2181.096994182071
 30
0.0
 10
1489.89262207677
 20
2181.096994182071
 30
0.0
 10
1489.89262207677
 20
2181.096994182071
 30
0.0
 10
1491.215050306919
 20
2181.096994182071
 30
0.0
 10
1491.215050306919
 20
2181.096994182071
 30
0.0
 10
1491.215050306919
 20
2181.096994182071
 30
0.0
 10
1492.420692667392
 20
2181.224084687306
 30
0.0
 10
1492.420692667392
 20
2181.224084687306
 30
0.0
 10
1492.420692667392
 20
2181.224084687306
 30
0.0
 10
1493.636639663424
 20
2181.344305435501
 30
0.0
 10
1493.636639663424
 20
2181.344305435501
 30
0.0
 10
1493.636639663424
 20
2181.344305435501
 30
0.0
 10
1494.71862639718
 20
2181.461091305177
 30
0.0
 10
1494.71862639718
 20
2181.461091305177
 30
0.0
 10
1494.71862639718
 20
2181.461091305177
 30
0.0
 10
1495.804048009455
 20
2181.581312053372
 30
0.0
 10
1495.804048009455
 20
2181.581312053372
 30
0.0
 10
1495.804048009455
 20
2181.581312053372
 30
0.0
 10
1496.649028125345
 20
2181.708402558607
 30
0.0
 10
1496.649028125345
 20
2181.708402558607
 30
0.0
 10
1496.649028125345
 20
2181.708402558607
 30
0.0
 10
1497.363482857474
 20
2181.828623306802
 30
0.0
 10
1497.363482857474
 20
2181.828623306802
 30
0.0
 10
1497.363482857474
 20
2181.828623306802
 30
0.0
 10
1498.095111982204
 20
2182.069064803193
 30
0.0
 10
1498.095111982204
 20
2182.069064803193
 30
0.0
 10
1498.095111982204
 20
2182.069064803193
 30
0.0
 10
1498.582864732025
 20
2182.312941178103
 30
0.0
 10
1498.582864732025
 20
2182.312941178103
 30
0.0
 10
1498.582864732025
 20
2182.312941178103
 30
0.0
 10
1498.933222341051
 20
2182.553382674493
 30
0.0
 10
1498.933222341051
 20
2182.553382674493
 30
0.0
 10
1498.933222341051
 20
2182.553382674493
 30
0.0
 10
1499.180533594483
 20
2182.783519535325
 30
0.0
 10
1499.180533594483
 20
2182.783519535325
 30
0.0
 10
1499.180533594483
 20
2182.783519535325
 30
0.0
 10
1499.307624099716
 20
2183.037700545794
 30
0.0
 10
1499.307624099716
 20
2183.037700545794
 30
0.0
 10
1499.307624099716
 20
2183.037700545794
 30
0.0
 10
1499.180533594483
 20
2183.271272285145
 30
0.0
 10
1499.180533594483
 20
2183.271272285145
 30
0.0
 10
1497.356613100435
 20
2185.359678425222
 30
0.0
 10
1491.273443241758
 20
2186.029479736595
 30
0.0
 10
1488.690414594819
 20
2186.170309755909
 30
0.0
 10
1488.690414594819
 20
2186.170309755909
 30
0.0
 10
1487.234026102398
 20
2186.170309755909
 30
0.0
 10
1487.234026102398
 20
2186.170309755909
 30
0.0
  0
SPLINE
  5
3B60
330
A
100
AcDbEntity
  8
HIDDEN
100
AcDbSpline
210
0.0
220
0.0
230
1.0
 70
     8
 71
     3
 72
    53
 73
    49
 74
     0
 42
0.000000001
 43
0.0000000001
 40
0.0
 40
0.0
 40
0.0
 40
0.0
 40
1.0
 40
1.0
 40
1.0
 40
2.0
 40
2.0
 40
2.0
 40
3.0
 40
3.0
 40
3.0
 40
4.0
 40
4.0
 40
4.0
 40
5.0
 40
5.0
 40
5.0
 40
6.0
 40
6.0
 40
6.0
 40
7.0
 40
7.0
 40
7.0
 40
8.0
 40
8.0
 40
8.0
 40
9.0
 40
9.0
 40
9.0
 40
10.0
 40
10.0
 40
10.0
 40
11.0
 40
11.0
 40
11.0
 40
12.0
 40
12.0
 40
12.0
 40
13.0
 40
13.0
 40
13.0
 40
14.0
 40
14.0
 40
14.0
 40
15.0
 40
15.0
 40
15.0
 40
16.0
 40
16.0
 40
16.0
 40
16.0
 10
1487.234026102398
 20
2180.983643190916
 30
0.0
 10
1487.234026102398
 20
2180.983643190916
 30
0.0
 10
1485.904728115211
 20
2180.983643190916
 30
0.0
 10
1485.904728115211
 20
2180.983643190916
 30
0.0
 10
1485.904728115211
 20
2180.983643190916
 30
0.0
 10
1484.582299885062
 20
2181.096994182071
 30
0.0
 10
1484.582299885062
 20
2181.096994182071
 30
0.0
 10
1484.582299885062
 20
2181.096994182071
 30
0.0
 10
1483.253001897874
 20
2181.096994182071
 30
0.0
 10
1483.253001897874
 20
2181.096994182071
 30
0.0
 10
1483.253001897874
 20
2181.096994182071
 30
0.0
 10
1482.050794415924
 20
2181.224084687306
 30
0.0
 10
1482.050794415924
 20
2181.224084687306
 30
0.0
 10
1482.050794415924
 20
2181.224084687306
 30
0.0
 10
1480.841717176931
 20
2181.344305435501
 30
0.0
 10
1480.841717176931
 20
2181.344305435501
 30
0.0
 10
1480.841717176931
 20
2181.344305435501
 30
0.0
 10
1479.749425807613
 20
2181.461091305177
 30
0.0
 10
1479.749425807613
 20
2181.461091305177
 30
0.0
 10
1479.749425807613
 20
2181.461091305177
 30
0.0
 10
1478.794529579094
 20
2181.581312053372
 30
0.0
 10
1478.794529579094
 20
2181.581312053372
 30
0.0
 10
1478.794529579094
 20
2181.581312053372
 30
0.0
 10
1477.822458957971
 20
2181.708402558607
 30
0.0
 10
1477.822458957971
 20
2181.708402558607
 30
0.0
 10
1477.822458957971
 20
2181.708402558607
 30
0.0
 10
1477.090829833242
 20
2181.828623306802
 30
0.0
 10
1477.090829833242
 20
2181.828623306802
 30
0.0
 10
1477.090829833242
 20
2181.828623306802
 30
0.0
 10
1475.89549210833
 20
2182.312941178103
 30
0.0
 10
1475.89549210833
 20
2182.312941178103
 30
0.0
 10
1475.89549210833
 20
2182.312941178103
 30
0.0
 10
1475.534829863742
 20
2182.553382674493
 30
0.0
 10
1475.534829863742
 20
2182.553382674493
 30
0.0
 10
1475.534829863742
 20
2182.553382674493
 30
0.0
 10
1475.297823245872
 20
2182.783519535325
 30
0.0
 10
1475.297823245872
 20
2182.783519535325
 30
0.0
 10
1475.297823245872
 20
2182.783519535325
 30
0.0
 10
1475.297823245872
 20
2183.271272285145
 30
0.0
 10
1475.297823245872
 20
2183.271272285145
 30
0.0
 10
1476.661470018256
 20
2185.036799844354
 30
0.0
 10
1482.493893744986
 20
2185.998565829917
 30
0.0
 10
1484.582299885062
 20
2186.050089007715
 30
0.0
 10
1484.582299885062
 20
2186.050089007715
 30
0.0
 10
1485.904728115211
 20
2186.170309755909
 30
0.0
 10
1485.904728115211
 20
2186.170309755909
 30
0.0
 10
1485.904728115211
 20
2186.170309755909
 30
0.0
 10
1487.234026102398
 20
2186.170309755909
 30
0.0
 10
1487.234026102398
 20
2186.170309755909
 30
0.0
  0
SPLINE
  5
3B61
102
{ACAD_REACTORS
330
3B69
102
}
330
A
100
AcDbEntity
  8
MODEL
100
AcDbSpline
210
0.0
220
0.0
230
1.0
 70
    11
 71
     3
 72
    44
 73
    40
 74
     0
 42
0.000000001
 43
0.0000000001
 40
0.0
 40
0.0
 40
0.0
 40
0.0
 40
1.0
 40
1.0
 40
1.0
 40
2.0
 40
2.0
 40
2.0
 40
3.0
 40
3.0
 40
3.0
 40
4.0
 40
4.0
 40
4.0
 40
5.0
 40
5.0
 40
5.0
 40
6.0
 40
6.0
 40
6.0
 40
7.0
 40
7.0
 40
7.0
 40
8.0
 40
8.0
 40
8.0
 40
9.0
 40
9.0
 40
9.0
 40
10.0
 40
10.0
 40
10.0
 40
11.0
 40
11.0
 40
11.0
 40
12.0
 40
12.0
 40
12.0
 40
13.0
 40
13.0
 40
13.0
 40
13.0
 10
1487.474467598788
 20
1890.526880672741
 30
0.0
 10
1546.51659447672
 20
1890.526880672741
 30
0.0
 10
1631.777149096773
 20
1896.668443466256
 30
0.0
 10
1695.284618050528
 20
1909.102703708163
 30
0.0
 10
1758.778347490204
 20
1921.530094193029
 30
0.0
 10
1763.147512967471
 20
1982.533536705804
 30
0.0
 10
1763.223080294907
 20
1999.364441453134
 30
0.0
 10
1763.288342986785
 20
2016.195346200466
 30
0.0
 10
1763.223080294907
 20
2070.799610030735
 30
0.0
 10
1763.223080294907
 20
2070.799610030735
 30
0.0
 10
1763.223080294907
 20
2106.529216394355
 30
0.0
 10
1763.4291730061
 20
2151.093330311064
 30
0.0
 10
1763.092554911151
 20
2166.127793592506
 30
0.0
 10
1762.752501937686
 20
2181.172561509508
 30
0.0
 10
1762.745632180648
 20
2244.851774389257
 30
0.0
 10
1671.738525796862
 20
2257.134899976289
 30
0.0
 10
1580.731419413079
 20
2269.418025563321
 30
0.0
 10
1526.917177642381
 20
2270.881283812782
 30
0.0
 10
1487.347377093554
 20
2270.881283812782
 30
0.0
 10
1447.798185815844
 20
2270.881283812782
 30
0.0
 10
1393.970204531064
 20
2269.418025563321
 30
0.0
 10
1302.963098147282
 20
2257.134899976289
 30
0.0
 10
1211.9559917635
 20
2244.851774389257
 30
0.0
 10
1211.9559917635
 20
2181.172561509508
 30
0.0
 10
1211.612503911512
 20
2166.127793592506
 30
0.0
 10
1211.279320695086
 20
2151.093330311064
 30
0.0
 10
1211.492283163318
 20
2106.529216394355
 30
0.0
 10
1211.492283163318
 20
2070.799610030735
 30
0.0
 10
1211.492283163318
 20
2070.799610030735
 30
0.0
 10
1211.420150714401
 20
2016.195346200466
 30
0.0
 10
1211.492283163318
 20
1999.364441453134
 30
0.0
 10
1211.554110976676
 20
1982.533536705804
 30
0.0
 10
1215.923276453943
 20
1921.530094193029
 30
0.0
 10
1279.430745407697
 20
1909.102703708163
 30
0.0
 10
1342.927909725893
 20
1896.668443466256
 30
0.0
 10
1428.185029467424
 20
1890.526880672741
 30
0.0
 10
1487.234026102398
 20
1890.526880672741
 30
0.0
 10
1487.234026102398
 20
1890.526880672741
 30
0.0
 10
1487.474467598788
 20
1890.526880672741
 30
0.0
 10
1487.474467598788
 20
1890.526880672741
 30
0.0
  0
SPLINE
  5
3B62
330
A
100
AcDbEntity
  8
HIDDEN
 48
0.5
100
AcDbSpline
210
0.0
220
0.0
230
1.0
 70
    11
 71
     3
 72
    17
 73
    13
 74
     0
 42
0.000000001
 43
0.0000000001
 40
0.0
 40
0.0
 40
0.0
 40
0.0
 40
1.0
 40
1.0
 40
1.0
 40
2.0
 40
2.0
 40
2.0
 40
3.0
 40
3.0
 40
3.0
 40
4.0
 40
4.0
 40
4.0
 40
4.0
 10
1502.879897760375
 20
2250.965858154615
 30
0.0
 10
1502.879897760375
 20
2259.814105221782
 30
0.0
 10
1495.711306289419
 20
2266.975826935698
 30
0.0
 10
1486.87679873633
 20
2266.975826935698
 30
0.0
 10
1478.031986547683
 20
2266.975826935698
 30
0.0
 10
1470.866829955246
 20
2259.814105221782
 30
0.0
 10
1470.866829955246
 20
2250.965858154615
 30
0.0
 10
1470.866829955246
 20
2242.121045965966
 30
0.0
 10
1478.031986547683
 20
2234.95932425205
 30
0.0
 10
1486.87679873633
 20
2234.95932425205
 30
0.0
 10
1495.711306289419
 20
2234.95932425205
 30
0.0
 10
1502.879897760375
 20
2242.121045965966
 30
0.0
 10
1502.879897760375
 20
2250.965858154615
 30
0.0
  0
CIRCLE
  5
3B63
330
A
100
AcDbEntity
  8
HIDDEN
 48
0.5
100
AcDbCircle
 10
1487.234026102398
 20
2080.827230673684
 30
0.0
 40
21.9306453580466
  0
HATCH
  5
3B69
330
A
100
AcDbEntity
  8
DIM
100
AcDbHatch
 10
0.0
 20
0.0
 30
0.0
210
0.0
220
0.0
230
1.0
  2
ANSI31
 70
     0
 71
     1
 91
        1
 92
        1
 93
        1
 72
     4
 94
        3
 73
     0
 74
     1
 95
       44
 96
       40
 40
0.0
 40
0.0
 40
0.0
 40
0.0
 40
1.0
 40
1.0
 40
1.0
 40
2.0
 40
2.0
 40
2.0
 40
3.0
 40
3.0
 40
3.0
 40
4.0
 40
4.0
 40
4.0
 40
5.0
 40
5.0
 40
5.0
 40
6.0
 40
6.0
 40
6.0
 40
7.0
 40
7.0
 40
7.0
 40
8.0
 40
8.0
 40
8.0
 40
9.0
 40
9.0
 40
9.0
 40
10.0
 40
10.0
 40
10.0
 40
11.0
 40
11.0
 40
11.0
 40
12.0
 40
12.0
 40
12.0
 40
13.0
 40
13.0
 40
13.0
 40
13.0
 10
1487.474467598788
 20
1890.526880672741
 10
1546.51659447672
 20
1890.526880672741
 10
1631.777149096773
 20
1896.668443466256
 10
1695.284618050528
 20
1909.102703708163
 10
1758.778347490204
 20
1921.530094193029
 10
1763.147512967471
 20
1982.533536705804
 10
1763.223080294907
 20
1999.364441453134
 10
1763.288342986785
 20
2016.195346200466
 10
1763.223080294907
 20
2070.799610030735
 10
1763.223080294907
 20
2070.799610030735
 10
1763.223080294907
 20
2106.529216394355
 10
1763.4291730061
 20
2151.093330311064
 10
1763.092554911151
 20
2166.127793592506
 10
1762.752501937686
 20
2181.172561509508
 10
1762.745632180648
 20
2244.851774389257
 10
1671.738525796862
 20
2257.134899976289
 10
1580.731419413079
 20
2269.418025563321
 10
1526.917177642381
 20
2270.881283812782
 10
1487.347377093554
 20
2270.881283812782
 10
1447.798185815844
 20
2270.881283812782
 10
1393.970204531064
 20
2269.418025563321
 10
1302.963098147282
 20
2257.134899976289
 10
1211.9559917635
 20
2244.851774389257
 10
1211.9559917635
 20
2181.172561509508
 10
1211.612503911512
 20
2166.127793592506
 10
1211.279320695086
 20
2151.093330311064
 10
1211.492283163318
 20
2106.529216394355
 10
1211.492283163318
 20
2070.799610030735
 10
1211.492283163318
 20
2070.799610030735
 10
1211.420150714401
 20
2016.195346200466
 10
1211.492283163318
 20
1999.364441453134
 10
1211.554110976676
 20
1982.533536705804
 10
1215.923276453943
 20
1921.530094193029
 10
1279.430745407697
 20
1909.102703708163
 10
1342.927909725893
 20
1896.668443466256
 10
1428.185029467424
 20
1890.526880672741
 10
1487.234026102398
 20
1890.526880672741
 10
1487.234026102398
 20
1890.526880672741
 10
1487.474467598788
 20
1890.526880672741
 10
1487.474467598788
 20
1890.526880672741
 97
        1
330
3B61
 75
     0
 76
     1
 52
0.0
 41
8.0
 77
     0
 78
     1
 53
45.0
 43
0.0
 44
0.0
 45
-17.9605122421383
 46
17.96051224213831
 79
     0
 98
        1
 10
0.0
 20
0.0
1001
ACAD
1010
0.0
1020
0.0
1030
0.0
  0
CIRCLE
  5
3B6D
330
A
100
AcDbEntity
  8
HIDDEN
 48
0.5
100
AcDbCircle
 10
561.7875741124835
 20
1118.427976335644
 30
0.0
 40
11.76445893053233
  0
DIMENSION
  5
3B86
330
A
100
AcDbEntity
  8
DIM
100
AcDbDimension
  2
*D169
 10
850.0826530704317
 20
2392.89522661295
 30
0.0
 11
550.0826530704317
 21
2392.89522661295
 31
0.0
 70
   160
 71
     5
 42
600.0
 73
     0
 74
     0
 75
     0
  3
tfrom線あり
100
AcDbAlignedDimension
 13
250.0826530704317
 23
2219.059360311827
 33
0.0
 14
850.0826530704317
 24
2219.059360311827
 34
0.0
100
AcDbRotatedDimension
1001
ACAD
1000
DSTYLE
1002
{
1070
   144
1040
1.0
1002
}
  0
DIMENSION
  5
3B93
330
A
100
AcDbEntity
  8
DIM
100
AcDbDimension
  2
*D170
 10
979.3786171701117
 20
1855.759040303476
 30
0.0
 11
947.3786171701117
 21
2080.759040303476
 31
0.0
 70
    32
 71
     5
 42
450.0
 73
     0
 74
     0
 75
     0
  3
tfrom線あり
100
AcDbAlignedDimension
 13
692.9122695556371
 23
2305.759040303476
 33
0.0
 14
692.9122695556371
 24
1855.759040303476
 34
0.0
 50
90.0
100
AcDbRotatedDimension
1001
ACAD
1000
DSTYLE
1002
{
1070
   144
1040
1.0
1002
}
  0
DIMENSION
  5
3BA3
330
A
100
AcDbEntity
  8
DIM
100
AcDbDimension
  2
*D171
 10
1764.734026102398
 20
2392.89522661295
 30
0.0
 11
1487.234026102398
 21
2424.89522661295
 31
0.0
 70
    32
 71
     5
 42
555.0
 73
     0
 74
     0
 75
     0
  3
tfrom線あり
100
AcDbAlignedDimension
 13
1209.734026102398
 23
2224.220298867465
 33
0.0
 14
1764.734026102398
 24
2224.220298867465
 34
0.0
100
AcDbRotatedDimension
1001
ACAD
1000
DSTYLE
1002
{
1070
   144
1040
1.0
1002
}
  0
DIMENSION
  5
3BB1
330
A
100
AcDbEntity
  8
DIM
100
AcDbDimension
  2
*D172
 10
1859.271442725834
 20
1890.526880672741
 30
0.0
 11
1859.271442725834
 21
2080.70406615618
 31
0.0
 70
   160
  1
405
 71
     5
 42
380.3543709668786
 73
     0
 74
     0
 75
     0
  3
tfrom線あり
100
AcDbAlignedDimension
 13
1567.653877096136
 23
2270.881251639619
 33
0.0
 14
1560.798000547071
 24
1890.526880672741
 34
0.0
 50
90.0
100
AcDbRotatedDimension
1001
ACAD
1000
DSTYLE
1002
{
1070
   144
1040
1.0
1002
}
  0
MTEXT
  5
3BEE
330
A
100
AcDbEntity
  8
DIM
390
1D
100
AcDbMText
 10
1351.018890452799
 20
2540.330343614436
 30
0.0
 40
24.0
 41
0.0
 46
0.0
 71
     1
 72
     1
  1
カウンター切込寸法
  7
ＭＳ ゴシック
 73
     1
 44
0.7828267384257843
  0
MTEXT
  5
3C1F
330
A
100
AcDbEntity
  8
DIM
390
1D
100
AcDbMText
 10
1182.446455033634
 20
1743.022252495014
 30
0.0
 40
24.0
 41
949.7161250932047
 46
111.8331968503937
 71
     1
 72
     1
  1
{※陶器製品には寸法公差があります。\P  洗面器の収め方をご確認の上、必ず現物を合わせて\P  カウンターに切込を行ってください。}
  7
ＭＳ ゴシック
 73
     1
 44
0.9822934569727008
1001
ACAD
1000
ACAD_MTEXT_DEFINED_HEIGHT_BEGIN
1070
    46
1040
111.8331968503937
1000
ACAD_MTEXT_DEFINED_HEIGHT_END
  0
CIRCLE
  5
3C23
330
A
100
AcDbEntity
  8
HIDDEN
 48
0.5
100
AcDbCircle
 10
549.7248852317771
 20
2251.1798254458
 30
0.0
 40
17.5
  0
MTEXT
  5
3C61
330
A
100
AcDbEntity
  8
DIM
390
1D
100
AcDbMText
 10
241.5187521803654
 20
1744.405444146721
 30
34.99521132346015
 40
24.4326171875
 41
833.929798641839
 46
0.0
 71
     1
 72
     1
  1
＝φ30もしくはφ35の水栓取付用穴あけ加工を承ります。\P  必要な場合、ご注文の際にご指示ください。
  7
ＭＳ ゴシック
 73
     1
 44
1.043768984567712
  0
CIRCLE
  5
3C62
330
A
100
AcDbEntity
  8
HIDDEN
 48
0.5
390
1D
100
AcDbCircle
 10
210.1517224822773
 20
1729.816619690438
 30
34.99521132346015
 40
17.5
  0
DIMENSION
  5
3D01
330
A
100
AcDbEntity
  8
DIM
100
AcDbDimension
  2
*D173
 10
979.3786171701117
 20
993.4740418738104
 30
0.0
 11
947.3786171701117
 21
1073.47404187381
 31
0.0
 70
    32
 71
     5
 42
160.0
 73
     0
 74
     0
 75
     0
  3
tfrom線あり
100
AcDbAlignedDimension
 13
856.4219662853992
 23
1153.47404187381
 33
0.0
 14
776.3183717998489
 24
993.4740418738104
 34
0.0
 50
90.0
100
AcDbRotatedDimension
1001
ACAD
1000
DSTYLE
1002
{
1070
   144
1040
1.0
1002
}
  0
DIMENSION
  5
3D11
330
A
100
AcDbEntity
  8
DIM
100
AcDbDimension
  2
*D174
 10
356.8545542436195
 20
826.3787154352202
 30
0.0
 11
561.8545542436195
 21
858.3787154352202
 31
0.0
 70
    32
 71
     5
 42
410.0000000000001
 73
     0
 74
     0
 75
     0
  3
tfrom線あり
100
AcDbAlignedDimension
 13
766.8545542436195
 23
987.573151659668
 33
0.0
 14
356.8545542436195
 24
987.573151659668
 34
0.0
100
AcDbRotatedDimension
1001
ACAD
1000
DSTYLE
1002
{
1070
   144
1040
1.0
1002
}
  0
DIMENSION
  5
3D22
330
A
100
AcDbEntity
  8
DIM
100
AcDbDimension
  2
*D175
 10
1181.846766211003
 20
1138.480911630851
 30
0.0
 11
1181.846766211003
 21
1145.980911630851
 31
0.0
 70
   160
 71
     5
 42
15.0
 73
     0
 74
     0
 75
     0
  3
tfrom線あり
100
AcDbAlignedDimension
 13
1275.418062327796
 23
1153.480911630851
 33
0.0
 14
1275.418062327796
 24
1138.480911630851
 34
0.0
 50
90.0
100
AcDbRotatedDimension
1001
ACAD
1000
DSTYLE
1002
{
1070
   144
1040
1.0
1002
}
  0
DIMENSION
  5
3D31
330
A
100
AcDbEntity
  8
DIM
100
AcDbDimension
  2
*D176
 10
1181.846766211003
 20
993.4809116308509
 30
0.0
 11
1149.846766211003
 21
1065.980911630851
 31
0.0
 70
    32
 71
     5
 42
145.0
 73
     0
 74
     0
 75
     0
  3
tfrom線あり
100
AcDbAlignedDimension
 13
1245.418062327796
 23
1138.480911630851
 33
0.0
 14
1359.087021986293
 24
993.4809116308509
 34
0.0
 50
90.0
100
AcDbRotatedDimension
1001
ACAD
1000
DSTYLE
1002
{
1070
   144
1040
1.0
1002
}
  0
DIMENSION
  5
3D40
330
A
100
AcDbEntity
  8
DIM
100
AcDbDimension
  2
*D177
 10
1666.443907889107
 20
1216.040705831441
 30
0.0
 11
1693.943907889107
 21
1216.040705831441
 31
0.0
 70
   160
 71
     5
 42
55.0
 73
     0
 74
     0
 75
     0
  3
tfrom線あり
100
AcDbAlignedDimension
 13
1721.443907889107
 23
1149.259445929939
 33
0.0
 14
1666.443907889107
 24
1149.259445929939
 34
0.0
100
AcDbRotatedDimension
1001
ACAD
1000
DSTYLE
1002
{
1070
   144
1040
1.0
1002
}
  0
DIMENSION
  5
3D4E
330
A
100
AcDbEntity
  8
DIM
100
AcDbDimension
  2
*D178
 10
1496.579825949579
 20
785.9973608592014
 30
0.0
 11
1608.919125199306
 21
817.9973608592014
 31
0.0
 70
    32
 71
     5
 42
224.6785984994538
 73
     0
 74
     0
 75
     0
  3
tfrom線あり
100
AcDbAlignedDimension
 13
1721.258424449033
 23
1145.281856603937
 33
0.0
 14
1496.579825949579
 24
883.4422195432419
 34
0.0
100
AcDbRotatedDimension
1001
ACAD
1000
DSTYLE
1002
{
1070
   144
1040
1.0
1002
}
  0
DIMENSION
  5
3D5B
330
A
100
AcDbEntity
  8
DIM
100
AcDbDimension
  2
*D179
 10
1367.579825949579
 20
869.4105255394893
 30
0.0
 11
1497.579825949579
 21
901.4105255394893
 31
0.0
 70
    32
 71
     5
 42
260.0
 73
     0
 74
     0
 75
     0
  3
tfrom線あり
100
AcDbAlignedDimension
 13
1627.579825949579
 23
987.7246724388827
 33
0.0
 14
1367.579825949579
 24
987.9857313631032
 34
0.0
100
AcDbRotatedDimension
1001
ACAD
1000
DSTYLE
1002
{
1070
   144
1040
1.0
1002
}
  0
LINE
  5
3D68
330
A
100
AcDbEntity
  8
DIM
100
AcDbLine
 10
1497.579825949579
 20
931.4150730492308
 30
0.0
 11
1497.579825949579
 21
984.8177807820791
 31
0.0
  0
DIMENSION
  5
3D6F
330
A
100
AcDbEntity
  8
DIM
100
AcDbDimension
  2
*D180
 10
1496.998482157141
 20
1043.480911630851
 30
0.0
 11
1496.998482157141
 21
1267.820911630851
 31
0.0
 70
   160
  1
 110(深さ)
 71
     5
 42
110.0
 73
     0
 74
     1
 75
     1
  3
tfrom線あり
100
AcDbAlignedDimension
 13
1528.413447358287
 23
1153.480911630851
 33
0.0
 14
1528.413447358287
 24
1043.480911630851
 34
0.0
 50
90.0
100
AcDbRotatedDimension
1001
ACAD
1000
DSTYLE
1002
{
1070
   172
1070
     1
1070
    76
1070
     1
1070
    75
1070
     1
1070
   281
1070
     0
1070
   144
1040
1.0
1002
}
  0
DIMENSION
  5
3D9E
330
A
100
AcDbEntity
  8
DIM
100
AcDbDimension
  2
*D181
 10
177.1430394010705
 20
1897.882100546206
 30
0.0
 11
145.1430394010705
 21
2047.882100546206
 31
0.0
 70
    32
 71
     5
 42
300.0
 73
     0
 74
     0
 75
     0
  3
tfrom線あり
100
AcDbAlignedDimension
 13
449.6034069049896
 23
2197.882100546206
 33
0.0
 14
449.6034069049896
 24
1897.882100546206
 34
0.0
 50
90.0
100
AcDbRotatedDimension
1001
ACAD
1000
DSTYLE
1002
{
1070
   144
1040
1.0
1002
}
  0
LINE
  5
3DAC
330
A
100
AcDbEntity
  8
DIM
100
AcDbLine
 10
549.9544176115514
 20
1894.504469998743
 30
0.0
 11
549.9544176115514
 21
1894.504707609872
 31
0.0
  0
DIMENSION
  5
3DB2
330
A
100
AcDbEntity
  8
DIM
100
AcDbDimension
  2
*D182
 10
799.7248852317771
 20
1785.054584287217
 30
0.0
 11
549.7248852317771
 21
1817.054584287217
 31
0.0
 70
    32
 71
     5
 42
500.0
 73
     0
 74
     0
 75
     0
  3
tfrom線あり
100
AcDbAlignedDimension
 13
299.7248852317771
 23
2052.708004762673
 33
0.0
 14
799.7248852317771
 24
2052.708004762673
 34
0.0
100
AcDbRotatedDimension
1001
ACAD
1000
DSTYLE
1002
{
1070
   144
1040
1.0
1002
}
  0
LINE
  5
3DC3
330
A
100
AcDbEntity
  8
HIDDEN
 48
0.5
100
AcDbLine
 10
525.594259148681
 20
1025.44237992442
 30
0.0
 11
525.2232922685353
 21
1027.262865539948
 31
0.0
  0
LINE
  5
3DC4
330
A
100
AcDbEntity
  8
HIDDEN
 48
0.5
100
AcDbLine
 10
525.2232922685353
 20
1027.262865539948
 30
0.0
 11
524.3783121526494
 21
1029.069611641396
 31
0.0
  0
LINE
  5
3DC5
330
A
100
AcDbEntity
  8
HIDDEN
 48
0.5
100
AcDbLine
 10
524.3783121526494
 20
1029.069611641396
 30
0.0
 11
523.1761046706952
 21
1030.512260619739
 31
0.0
  0
LINE
  5
3DC6
330
A
100
AcDbEntity
  8
HIDDEN
 48
0.5
100
AcDbLine
 10
523.1761046706952
 20
1030.512260619739
 30
0.0
 11
521.7197161782742
 21
1031.72820761577
 31
0.0
  0
LINE
  5
3DC7
330
A
100
AcDbEntity
  8
HIDDEN
 48
0.5
100
AcDbLine
 10
521.7197161782742
 20
1031.72820761577
 30
0.0
 11
519.9095351983078
 21
1032.449532104941
 31
0.0
  0
LINE
  5
3DC8
330
A
100
AcDbEntity
  8
HIDDEN
 48
0.5
100
AcDbLine
 10
519.9095351983078
 20
1032.449532104941
 30
0.0
 11
518.1096588538994
 21
1032.799889713967
 31
0.0
  0
LINE
  5
3DC9
330
A
100
AcDbEntity
  8
HIDDEN
 48
0.5
100
AcDbLine
 10
593.0346640076814
 20
997.3782392922142
 30
0.0
 11
594.1269553769953
 21
997.6186807886045
 31
0.0
  0
LINE
  5
3DCA
330
A
100
AcDbEntity
  8
HIDDEN
 48
0.5
100
AcDbLine
 10
594.1269553769953
 20
997.6186807886045
 30
0.0
 11
595.0955911195988
 21
998.2369589221801
 31
0.0
  0
LINE
  5
3DCB
330
A
100
AcDbEntity
  8
HIDDEN
 48
0.5
100
AcDbLine
 10
595.0955911195988
 20
998.2369589221801
 30
0.0
 11
595.6966948605759
 21
999.0681995239868
 31
0.0
  0
LINE
  5
3DCC
330
A
100
AcDbEntity
  8
HIDDEN
 48
0.5
100
AcDbLine
 10
595.6966948605759
 20
999.0681995239868
 30
0.0
 11
596.0539222266407
 21
1000.167360650343
 31
0.0
  0
LINE
  5
3DCD
330
A
100
AcDbEntity
  8
HIDDEN
 48
0.5
100
AcDbLine
 10
596.0539222266407
 20
1000.167360650343
 30
0.0
 11
597.9946285903634
 21
1025.43551016738
 31
0.0
  0
LINE
  5
3DD4
330
A
100
AcDbEntity
  8
HIDDEN
 48
0.5
100
AcDbLine
 10
528.6135173676403
 20
998.2369589221801
 30
0.0
 11
528.0124136266631
 21
999.0681995239868
 31
0.0
  0
LINE
  5
3DD5
330
A
100
AcDbEntity
  8
HIDDEN
 48
0.5
100
AcDbLine
 10
527.6551862605984
 20
1000.167360650343
 30
0.0
 11
525.7144798968757
 21
1025.43551016738
 31
0.0
  0
POLYLINE
  5
3DD6
330
A
100
AcDbEntity
  8
HIDDEN
 48
0.5
100
AcDb2dPolyline
 66
     1
 10
0.0
 20
0.0
 30
0.0
  0
VERTEX
  5
3DD7
330
3DD6
100
AcDbEntity
  8
HIDDEN
 48
0.5
100
AcDbVertex
100
AcDb2dVertex
 10
530.6744444795577
 20
997.3782392922142
 30
0.0
  0
VERTEX
  5
3DD8
330
3DD6
100
AcDbEntity
  8
HIDDEN
 48
0.5
100
AcDbVertex
100
AcDb2dVertex
 10
539.8387003705529
 20
997.3782392922142
 30
0.0
  0
SEQEND
  5
3DD9
330
3DD6
100
AcDbEntity
  8
HIDDEN
 48
0.5
  0
LINE
  5
3DDA
330
A
100
AcDbEntity
  8
HIDDEN
 48
0.5
100
AcDbLine
 10
530.6744444795577
 20
997.3782392922142
 30
0.0
 11
529.5821531102438
 21
997.6186807886045
 31
0.0
  0
LINE
  5
3DDB
330
A
100
AcDbEntity
  8
HIDDEN
 48
0.5
100
AcDbLine
 10
529.5821531102438
 20
997.6186807886045
 30
0.0
 11
528.6135173676403
 21
998.2369589221801
 31
0.0
  0
LINE
  5
3DDC
330
A
100
AcDbEntity
  8
HIDDEN
 48
0.5
100
AcDbLine
 10
528.0124136266631
 20
999.0681995239868
 30
0.0
 11
527.6551862605984
 21
1000.167360650343
 31
0.0
  0
DIMENSION
  5
3DDD
102
{ACAD_XDICTIONARY
360
3DDE
102
}
330
A
100
AcDbEntity
  8
DIM
100
AcDbDimension
  2
*D183
 10
564.1830058455329
 20
992.3782392922142
 30
0.0
 11
564.1830058455329
 21
946.1742392922142
 31
0.0
 70
   160
 71
     5
 42
5.240441496390306
 73
     0
 74
     1
 75
     1
  3
tfrom線あり
100
AcDbAlignedDimension
 13
529.5821531102438
 23
997.6186807886045
 33
0.0
 14
490.8658603680003
 24
992.3782392922142
 34
0.0
 50
90.0
100
AcDbRotatedDimension
1001
ACAD
1000
DSTYLE
1002
{
1070
    76
1070
     0
1070
   290
1070
     0
1070
    75
1070
     0
1070
   281
1070
     0
1070
   174
1070
     1
1070
   175
1070
     0
1070
   172
1070
     1
1070
   144
1040
1.0
1002
}
  0
VIEWPORT
  5
349
330
B
100
AcDbEntity
 67
     1
  8
0
100
AcDbViewport
 10
202.5
 20
128.5
 30
0.0
 40
486.0
 41
308.4
 68
     1
 69
     1
 12
202.5
 22
128.5
 13
0.0
 23
0.0
 14
0.5
 24
0.5
 15
0.0
 25
0.0
 16
0.0
 26
0.0
 36
1.0
 17
0.0
 27
0.0
 37
0.0
 42
50.0
 43
0.0
 44
0.0
 45
308.4
 50
0.0
 51
0.0
 72
   100
 90
   557152
  1

281
     0
 71
     1
 74
     0
110
0.0
120
0.0
130
0.0
111
1.0
121
0.0
131
0.0
112
0.0
122
1.0
132
0.0
 79
     0
146
0.0
170
     0
 61
     5
348
26C
292
     1
282
     1
141
0.0
142
0.0
 63
   256
  0
VIEWPORT
  5
34A
330
B
100
AcDbEntity
 67
     1
  8
0
100
AcDbViewport
 10
202.5
 20
128.5
 30
0.0
 40
324.0
 41
205.6
 68
     2
 69
     2
 12
986.6781359294573
 22
1427.077061889956
 13
0.0
 23
0.0
 14
0.5
 24
0.5
 15
0.0
 25
0.0
 16
0.0
 26
0.0
 36
1.0
 17
0.0
 27
0.0
 37
0.0
 42
50.0
 43
0.0
 44
0.0
 45
2890.021615685494
 50
0.0
 51
0.0
 72
   100
 90
   557152
  1

281
     0
 71
     1
 74
     0
110
0.0
120
0.0
130
0.0
111
1.0
121
0.0
131
0.0
112
0.0
122
1.0
132
0.0
 79
     0
146
0.0
170
     0
 61
     5
348
26C
292
     1
282
     1
141
0.0
142
0.0
 63
   256
  0
ENDSEC
  0
SECTION
  2
OBJECTS
  0
DICTIONARY
  5
19
330
0
100
AcDbDictionary
281
     1
  3
ACAD_COLOR
350
674
  3
ACAD_DETAILVIEWSTYLE
350
BBF
  3
ACAD_FIELDLIST
350
146A
  3
ACAD_GROUP
350
1A
  3
ACAD_IMAGE_VARS
350
27B
  3
ACAD_LAYOUT
350
1E
  3
ACAD_MATERIAL
350
263
  3
ACAD_MLEADERSTYLE
350
336
  3
ACAD_MLINESTYLE
350
1B
  3
ACAD_PLOTSETTINGS
350
22
  3
ACAD_PLOTSTYLENAME
350
1F
  3
ACAD_SCALELIST
350
241
  3
ACAD_SECTIONVIEWSTYLE
350
BC0
  3
ACAD_TABLESTYLE
350
278
  3
ACAD_VISUALSTYLE
350
267
  3
ACDB_RECOMPOSE_DATA
350
3E08
  3
AcDbVariableDictionary
350
330
  3
APPDATA
350
27A
  3
DimOffsetDictionary
350
E3E
  0
SUN
  5
904
330
15
100
AcDbSun
 90
        1
290
     0
 63
     7
421
 16777215
 40
1.0
291
     1
 91
  2455826
 92
 54000000
292
     0
 70
     2
 71
   256
280
     1
  0
DICTIONARY
  5
2E1
330
2
100
AcDbDictionary
280
     1
281
     1
  3
ACAD_LAYERSTATES
360
2E2
  3
ACLYDICTIONARY
360
DF9
  0
DICTIONARY
  5
1468
330
1466
100
AcDbDictionary
280
     1
281
     1
  3
ACAD_FIELD
360
146C
  0
DICTIONARY
  5
3DDE
330
3DDD
100
AcDbDictionary
280
     1
281
     1
  0
DICTIONARY
  5
674
102
{ACAD_REACTORS
330
19
102
}
330
19
100
AcDbDictionary
281
     1
  0
DICTIONARY
  5
BBF
102
{ACAD_REACTORS
330
19
102
}
330
19
100
AcDbDictionary
281
     1
  0
FIELDLIST
  5
146A
102
{ACAD_REACTORS
330
19
102
}
330
19
100
AcDbIdSet
 90
        2
330
146B
330
1467
100
AcDbFieldList
  0
DICTIONARY
  5
1A
102
{ACAD_REACTORS
330
19
102
}
330
19
100
AcDbDictionary
281
     1
  0
RASTERVARIABLES
  5
27B
102
{ACAD_REACTORS
330
19
102
}
330
19
100
AcDbRasterVariables
 90
        0
 70
     1
 71
     1
 72
     1
  0
DICTIONARY
  5
1E
102
{ACAD_REACTORS
330
19
102
}
330
19
100
AcDbDictionary
281
     1
  3
Layout1
350
21
  3
Model
350
20
  0
DICTIONARY
  5
263
102
{ACAD_REACTORS
330
19
102
}
330
19
100
AcDbDictionary
281
     1
  3
ByBlock
350
265
  3
ByLayer
350
264
  3
Global
350
266
  0
DICTIONARY
  5
336
102
{ACAD_REACTORS
330
19
102
}
330
19
100
AcDbDictionary
281
     1
  3
Standard
350
DAB
  0
DICTIONARY
  5
1B
102
{ACAD_REACTORS
330
19
102
}
330
19
100
AcDbDictionary
281
     1
  3
Standard
350
1C
  0
DICTIONARY
  5
22
102
{ACAD_REACTORS
330
19
102
}
330
19
100
AcDbDictionary
281
     1
  0
ACDBDICTIONARYWDFLT
  5
1F
102
{ACAD_REACTORS
330
19
102
}
330
19
100
AcDbDictionary
281
     1
  3
Normal
350
1D
100
AcDbDictionaryWithDefault
340
1D
  0
DICTIONARY
  5
241
102
{ACAD_REACTORS
330
19
102
}
330
19
100
AcDbDictionary
281
     1
  3
A0
350
242
  3
A1
350
243
  3
A2
350
244
  3
A3
350
245
  3
A4
350
246
  3
A5
350
247
  3
A6
350
248
  3
A7
350
249
  3
A8
350
24A
  3
A9
350
24B
  3
B0
350
24C
  3
B1
350
24D
  3
B2
350
24E
  3
B3
350
24F
  3
B4
350
250
  3
B5
350
251
  3
B6
350
252
  3
B7
350
253
  3
B8
350
254
  3
B9
350
255
  3
C0
350
256
  3
C1
350
257
  3
C2
350
258
  3
C3
350
259
  3
C4
350
25A
  3
C5
350
25B
  3
C6
350
25C
  3
C7
350
25D
  3
C8
350
25E
  3
C9
350
25F
  3
D0
350
260
  3
D1
350
261
  3
D2
350
262
  0
DICTIONARY
  5
BC0
102
{ACAD_REACTORS
330
19
102
}
330
19
100
AcDbDictionary
281
     1
  0
DICTIONARY
  5
278
102
{ACAD_REACTORS
330
19
102
}
330
19
100
AcDbDictionary
281
     1
  3
Standard
350
279
  0
DICTIONARY
  5
267
102
{ACAD_REACTORS
330
19
102
}
330
19
100
AcDbDictionary
281
     1
  3
2dWireframe
350
26C
  3
3D Hidden
350
26E
  3
3dWireframe
350
26D
  3
Basic
350
26F
  3
Brighten
350
273
  3
ColorChange
350
277
  3
Conceptual
350
271
  3
Dim
350
272
  3
EdgeColorOff
350
8FE
  3
Facepattern
350
276
  3
Flat
350
268
  3
FlatWithEdges
350
269
  3
Gouraud
350
26A
  3
GouraudWithEdges
350
26B
  3
Hidden
350
8FB
  3
JitterOff
350
8FC
  3
Linepattern
350
275
  3
OverhangOff
350
8FD
  3
Realistic
350
270
  3
Shaded
350
903
  3
Shaded with edges
350
902
  3
Shades of Gray
350
8FF
  3
Sketchy
350
900
  3
Thicken
350
274
  3
Wireframe
350
8FA
  3
X-Ray
350
901
  0
XRECORD
  5
3E08
102
{ACAD_REACTORS
330
19
102
}
330
19
100
AcDbXrecord
280
     1
 90
        1
330
279
  0
DICTIONARY
  5
330
102
{ACAD_REACTORS
330
19
102
}
330
19
100
AcDbDictionary
281
     1
  3
CANNOSCALE
350
331
  3
CMLEADERSTYLE
350
DB1
  3
CTABLESTYLE
350
335
  3
HPTRANSPARENCY
350
D52
  3
XCLIPFRAME
350
896
  0
DICTIONARY
  5
27A
102
{ACAD_REACTORS
330
19
102
}
330
19
100
AcDbDictionary
281
     1
  0
DICTIONARY
  5
E3E
102
{ACAD_REACTORS
330
19
102
}
330
19
100
AcDbDictionary
281
     1
  3
DIMRAILANGLE
350
ECE
  3
DIMRAILFIRSTOFFSET
350
ECC
  3
DIMRAILOFFSET
350
ECD
  3
DIMRAILSENABLED
350
ECF
  0
DICTIONARY
  5
2E2
102
{ACAD_REACTORS
330
2E1
102
}
330
2E1
100
AcDbDictionary
281
     1
  3
ARGON_LAYERP_9
350
7AA
  0
DICTIONARY
  5
DF9
102
{ACAD_REACTORS
330
2E1
102
}
330
2E1
100
AcDbDictionary
281
     1
1001
ACAD
1000
<All
  0
DICTIONARY
  5
146C
102
{ACAD_REACTORS
330
1468
102
}
330
1468
100
AcDbDictionary
280
     1
281
     1
  3
TEXT
360
1467
  0
LAYOUT
  5
21
102
{ACAD_REACTORS
330
1E
102
}
330
1E
100
AcDbPlotSettings
  1

  2
none_device
  4
ISO_A3_(420.00_x_297.00_MM)
  6

 40
7.5
 41
20.0
 42
7.5
 43
20.0
 44
420.0
 45
297.0
 46
0.0
 47
0.0
 48
0.0
 49
0.0
140
0.0
141
0.0
142
1.0
143
1.0
 70
     0
 72
     1
 73
     0
 74
     0
  7

 75
     0
 76
     0
 77
     2
 78
   300
147
1.0
148
0.0
149
0.0
100
AcDbLayout
  1
Layout1
 70
     0
 71
     0
 10
-7.5
 20
-20.0
 11
412.5
 21
277.0
 12
0.0
 22
0.0
 32
0.0
 14
0.0
 24
0.0
 34
0.0
 15
0.0
 25
0.0
 35
0.0
146
0.0
 13
0.0
 23
0.0
 33
0.0
 16
0.0
 26
0.0
 36
0.0
 17
0.0
 27
0.0
 37
0.0
 76
     0
330
B
331
349
  0
LAYOUT
  5
20
102
{ACAD_REACTORS
330
1E
102
}
330
1E
100
AcDbPlotSettings
  1

  2
none_device
  4
ISO_A3_(420.00_x_297.00_MM)
  6

 40
7.5
 41
20.0
 42
7.5
 43
20.0
 44
420.0
 45
297.0
 46
0.0
 47
0.0
 48
0.0
 49
0.0
140
0.0
141
0.0
142
1.0
143
1.0
 70
  1024
 72
     1
 73
     0
 74
     0
  7

 75
     0
 76
     0
 77
     2
 78
   300
147
1.0
148
0.0
149
0.0
100
AcDbLayout
  1
Model
 70
     0
 71
     1
 10
0.0
 20
0.0
 11
2100.0
 21
2970.0
 12
0.0
 22
0.0
 32
0.0
 14
0.0
 24
0.0
 34
-0.0000000000000071
 15
2100.0
 25
2970.0
 35
34.99521132346014
146
0.0
 13
0.0
 23
0.0
 33
0.0
 16
0.0
 26
0.0
 36
0.0
 17
0.0
 27
0.0
 37
0.0
 76
     0
330
A
331
15
  0
MATERIAL
  5
265
102
{ACAD_REACTORS
330
263
102
}
330
263
100
AcDbMaterial
  1
ByBlock
 72
     1
 94
      127
  0
MATERIAL
  5
264
102
{ACAD_REACTORS
330
263
102
}
330
263
100
AcDbMaterial
  1
ByLayer
 72
     1
 94
      127
  0
MATERIAL
  5
266
102
{ACAD_REACTORS
330
263
102
}
330
263
100
AcDbMaterial
  1
Global
 72
     1
 94
      127
  0
MLEADERSTYLE
  5
DAB
102
{ACAD_REACTORS
330
336
102
}
330
336
100
AcDbMLeaderStyle
170
     2
171
     1
172
     0
 90
        2
 40
0.0
 41
0.0
173
     1
 91
-1056964608
340
11
 92
       -2
290
     1
 42
2.0
291
     1
 43
8.0
  3
Standard
341
0
 44
4.0
300

342
17
174
     1
178
     6
175
     1
176
     0
 93
-1056964608
 45
4.0
292
     0
297
     0
 46
4.0
343
0
 94
-1056964608
 47
1.0
 49
1.0
140
1.0
293
     1
141
0.0
294
     1
177
     0
142
1.0
295
     0
296
     0
143
3.75
1001
ACAD_MLEADERVER
1070
     2
  0
MLINESTYLE
  5
1C
102
{ACAD_REACTORS
330
1B
102
}
330
1B
100
AcDbMlineStyle
  2
Standard
 70
     0
  3

 62
     0
 51
90.0
 52
90.0
 71
     2
 49
0.5
 62
   256
  6
BYLAYER
 49
-0.5
 62
   256
  6
BYLAYER
  0
ACDBPLACEHOLDER
  5
1D
102
{ACAD_REACTORS
330
1F
102
}
330
1F
  0
SCALE
  5
242
102
{ACAD_REACTORS
330
241
102
}
330
241
100
AcDbScale
 70
     0
300
1:1
140
1.0
141
1.0
290
     1
  0
SCALE
  5
243
102
{ACAD_REACTORS
330
241
102
}
330
241
100
AcDbScale
 70
     0
300
1:2
140
1.0
141
2.0
290
     0
  0
SCALE
  5
244
102
{ACAD_REACTORS
330
241
102
}
330
241
100
AcDbScale
 70
     0
300
1:4
140
1.0
141
4.0
290
     0
  0
SCALE
  5
245
102
{ACAD_REACTORS
330
241
102
}
330
241
100
AcDbScale
 70
     0
300
1:5
140
1.0
141
5.0
290
     0
  0
SCALE
  5
246
102
{ACAD_REACTORS
330
241
102
}
330
241
100
AcDbScale
 70
     0
300
1:8
140
1.0
141
8.0
290
     0
  0
SCALE
  5
247
102
{ACAD_REACTORS
330
241
102
}
330
241
100
AcDbScale
 70
     0
300
1:10
140
1.0
141
10.0
290
     0
  0
SCALE
  5
248
102
{ACAD_REACTORS
330
241
102
}
330
241
100
AcDbScale
 70
     0
300
1:16
140
1.0
141
16.0
290
     0
  0
SCALE
  5
249
102
{ACAD_REACTORS
330
241
102
}
330
241
100
AcDbScale
 70
     0
300
1:20
140
1.0
141
20.0
290
     0
  0
SCALE
  5
24A
102
{ACAD_REACTORS
330
241
102
}
330
241
100
AcDbScale
 70
     0
300
1:30
140
1.0
141
30.0
290
     0
  0
SCALE
  5
24B
102
{ACAD_REACTORS
330
241
102
}
330
241
100
AcDbScale
 70
     0
300
1:40
140
1.0
141
40.0
290
     0
  0
SCALE
  5
24C
102
{ACAD_REACTORS
330
241
102
}
330
241
100
AcDbScale
 70
     0
300
1:50
140
1.0
141
50.0
290
     0
  0
SCALE
  5
24D
102
{ACAD_REACTORS
330
241
102
}
330
241
100
AcDbScale
 70
     0
300
1:100
140
1.0
141
100.0
290
     0
  0
SCALE
  5
24E
102
{ACAD_REACTORS
330
241
102
}
330
241
100
AcDbScale
 70
     0
300
2:1
140
2.0
141
1.0
290
     0
  0
SCALE
  5
24F
102
{ACAD_REACTORS
330
241
102
}
330
241
100
AcDbScale
 70
     0
300
4:1
140
4.0
141
1.0
290
     0
  0
SCALE
  5
250
102
{ACAD_REACTORS
330
241
102
}
330
241
100
AcDbScale
 70
     0
300
8:1
140
8.0
141
1.0
290
     0
  0
SCALE
  5
251
102
{ACAD_REACTORS
330
241
102
}
330
241
100
AcDbScale
 70
     0
300
10:1
140
10.0
141
1.0
290
     0
  0
SCALE
  5
252
102
{ACAD_REACTORS
330
241
102
}
330
241
100
AcDbScale
 70
     0
300
100:1
140
100.0
141
1.0
290
     0
  0
SCALE
  5
253
102
{ACAD_REACTORS
330
241
102
}
330
241
100
AcDbScale
 70
     0
300
1/128" = 1'-0"
140
0.0078125
141
12.0
290
     0
  0
SCALE
  5
254
102
{ACAD_REACTORS
330
241
102
}
330
241
100
AcDbScale
 70
     0
300
1/64" = 1'-0"
140
0.015625
141
12.0
290
     0
  0
SCALE
  5
255
102
{ACAD_REACTORS
330
241
102
}
330
241
100
AcDbScale
 70
     0
300
1/32" = 1'-0"
140
0.03125
141
12.0
290
     0
  0
SCALE
  5
256
102
{ACAD_REACTORS
330
241
102
}
330
241
100
AcDbScale
 70
     0
300
1/16" = 1'-0"
140
0.0625
141
12.0
290
     0
  0
SCALE
  5
257
102
{ACAD_REACTORS
330
241
102
}
330
241
100
AcDbScale
 70
     0
300
3/32" = 1'-0"
140
0.09375
141
12.0
290
     0
  0
SCALE
  5
258
102
{ACAD_REACTORS
330
241
102
}
330
241
100
AcDbScale
 70
     0
300
1/8" = 1'-0"
140
0.125
141
12.0
290
     0
  0
SCALE
  5
259
102
{ACAD_REACTORS
330
241
102
}
330
241
100
AcDbScale
 70
     0
300
3/16" = 1'-0"
140
0.1875
141
12.0
290
     0
  0
SCALE
  5
25A
102
{ACAD_REACTORS
330
241
102
}
330
241
100
AcDbScale
 70
     0
300
1/4" = 1'-0"
140
0.25
141
12.0
290
     0
  0
SCALE
  5
25B
102
{ACAD_REACTORS
330
241
102
}
330
241
100
AcDbScale
 70
     0
300
3/8" = 1'-0"
140
0.375
141
12.0
290
     0
  0
SCALE
  5
25C
102
{ACAD_REACTORS
330
241
102
}
330
241
100
AcDbScale
 70
     0
300
1/2" = 1'-0"
140
0.5
141
12.0
290
     0
  0
SCALE
  5
25D
102
{ACAD_REACTORS
330
241
102
}
330
241
100
AcDbScale
 70
     0
300
3/4" = 1'-0"
140
0.75
141
12.0
290
     0
  0
SCALE
  5
25E
102
{ACAD_REACTORS
330
241
102
}
330
241
100
AcDbScale
 70
     0
300
1" = 1'-0"
140
1.0
141
12.0
290
     0
  0
SCALE
  5
25F
102
{ACAD_REACTORS
330
241
102
}
330
241
100
AcDbScale
 70
     0
300
1-1/2" = 1'-0"
140
1.5
141
12.0
290
     0
  0
SCALE
  5
260
102
{ACAD_REACTORS
330
241
102
}
330
241
100
AcDbScale
 70
     0
300
3" = 1'-0"
140
3.0
141
12.0
290
     0
  0
SCALE
  5
261
102
{ACAD_REACTORS
330
241
102
}
330
241
100
AcDbScale
 70
     0
300
6" = 1'-0"
140
6.0
141
12.0
290
     0
  0
SCALE
  5
262
102
{ACAD_REACTORS
330
241
102
}
330
241
100
AcDbScale
 70
     0
300
1'-0" = 1'-0"
140
12.0
141
12.0
290
     0
  0
TABLESTYLE
  5
279
102
{ACAD_REACTORS
330
278
102
}
102
{ACAD_XDICTIONARY
360
3E06
102
}
330
278
100
AcDbTableStyle
  3
Standard
 70
     0
 71
     0
 40
0.06
 41
0.06
280
     0
281
     0
  7
Standard
140
4.5
170
     2
 62
     0
 63
   257
283
     0
 90
        4
 91
        0
  1

274
    -2
284
     1
 64
     0
275
    -2
285
     1
 65
     0
276
    -2
286
     1
 66
     0
277
    -2
287
     1
 67
     0
278
    -2
288
     1
 68
     0
279
    -2
289
     1
 69
     0
  7
Standard
140
6.0
170
     5
 62
     0
 63
   257
283
     0
 90
        4
 91
        0
  1

274
    -2
284
     1
 64
     0
275
    -2
285
     1
 65
     0
276
    -2
286
     1
 66
     0
277
    -2
287
     1
 67
     0
278
    -2
288
     1
 68
     0
279
    -2
289
     1
 69
     0
  7
Standard
140
4.5
170
     5
 62
     0
 63
   257
283
     0
 90
        4
 91
        0
  1

274
    -2
284
     1
 64
     0
275
    -2
285
     1
 65
     0
276
    -2
286
     1
 66
     0
277
    -2
287
     1
 67
     0
278
    -2
288
     1
 68
     0
279
    -2
289
     1
 69
     0
  0
VISUALSTYLE
  5
26C
102
{ACAD_REACTORS
330
267
102
}
330
267
100
AcDbVisualStyle
  2
2dWireframe
 70
     4
 71
     0
 72
     2
 73
     0
 90
        0
 40
-0.6
 41
-30.0
 62
     5
 63
     7
421
 16777215
 74
     1
 91
        4
 64
     7
 65
   257
 75
     1
175
     1
 42
1.0
 92
        0
 66
   257
 43
1.0
 76
     1
 77
     6
 78
     2
 67
     7
 79
     5
170
     0
171
     0
290
     0
174
     0
 93
        1
 44
0.0
173
     0
291
     0
 45
0.0
  0
VISUALSTYLE
  5
26E
102
{ACAD_REACTORS
330
267
102
}
330
267
100
AcDbVisualStyle
  2
3D Hidden
 70
     6
 71
     1
 72
     2
 73
     2
 90
        0
 40
-0.6
 41
-30.0
 62
     5
 63
     7
421
 16777215
 74
     2
 91
        2
 64
     7
 65
   257
 75
     2
175
     1
 42
40.0
 92
        0
 66
   257
 43
1.0
 76
     1
 77
     6
 78
     2
 67
     7
 79
     3
170
     0
171
     0
290
     0
174
     0
 93
        1
 44
0.0
173
     0
291
     0
 45
0.0
  0
VISUALSTYLE
  5
26D
102
{ACAD_REACTORS
330
267
102
}
330
267
100
AcDbVisualStyle
  2
3dWireframe
 70
     5
 71
     0
 72
     2
 73
     0
 90
        0
 40
-0.6
 41
-30.0
 62
     5
 63
     7
421
 16777215
 74
     1
 91
        4
 64
     7
 65
   257
 75
     1
175
     1
 42
1.0
 92
        0
 66
   257
 43
1.0
 76
     1
 77
     6
 78
     2
 67
     7
 79
     5
170
     0
171
     0
290
     0
174
     0
 93
        1
 44
0.0
173
     0
291
     0
 45
0.0
  0
VISUALSTYLE
  5
26F
102
{ACAD_REACTORS
330
267
102
}
330
267
100
AcDbVisualStyle
  2
Basic
 70
     7
 71
     1
 72
     0
 73
     1
 90
        0
 40
-0.6
 41
-30.0
 62
     5
 63
     7
421
 16777215
 74
     0
 91
        4
 64
     7
 65
   257
 75
     1
175
     1
 42
1.0
 92
        8
 66
     7
 43
1.0
 76
     1
 77
     6
 78
     2
 67
     7
 79
     5
170
     0
171
     0
290
     0
174
     0
 93
        1
 44
0.0
173
     0
291
     1
 45
0.0
  0
VISUALSTYLE
  5
273
102
{ACAD_REACTORS
330
267
102
}
330
267
100
AcDbVisualStyle
  2
Brighten
 70
    12
 71
     2
 72
     2
 73
     0
 90
        0
 40
-0.6
 41
-30.0
 62
     5
 63
     7
421
 16777215
 74
     1
 91
        4
 64
     7
 65
   257
 75
     1
175
     1
 42
1.0
 92
        8
 66
     7
 43
1.0
 76
     1
 77
     6
 78
     2
 67
     7
 79
     5
170
     0
171
     0
290
     0
174
     0
 93
        1
 44
50.0
173
     0
291
     1
 45
0.0
  0
VISUALSTYLE
  5
277
102
{ACAD_REACTORS
330
267
102
}
330
267
100
AcDbVisualStyle
  2
ColorChange
 70
    16
 71
     2
 72
     2
 73
     3
 90
        0
 40
-0.6
 41
-30.0
 62
     5
 63
     8
421
  8421504
 74
     1
 91
        4
 64
     7
 65
   257
 75
     1
175
     1
 42
1.0
 92
        8
 66
     8
424
  8421504
 43
1.0
 76
     1
 77
     6
 78
     2
 67
     7
 79
     5
170
     0
171
     0
290
     0
174
     0
 93
        1
 44
0.0
173
     0
291
     1
 45
0.0
  0
VISUALSTYLE
  5
271
102
{ACAD_REACTORS
330
267
102
}
330
267
100
AcDbVisualStyle
  2
Conceptual
 70
     9
 71
     3
 72
     2
 73
     0
 90
        0
 40
-0.6
 41
-30.0
 62
     5
 63
     7
421
 16777215
 74
     2
 91
        2
 64
     7
 65
   257
 75
     1
175
     1
 42
40.0
 92
        8
 66
     7
 43
1.0
 76
     1
 77
     6
 78
     2
 67
     7
 79
     3
170
     0
171
     0
290
     0
174
     0
 93
        1
 44
0.0
173
     0
291
     0
 45
0.0
  0
VISUALSTYLE
  5
272
102
{ACAD_REACTORS
330
267
102
}
330
267
100
AcDbVisualStyle
  2
Dim
 70
    11
 71
     2
 72
     2
 73
     0
 90
        0
 40
-0.6
 41
-30.0
 62
     5
 63
     7
421
 16777215
 74
     1
 91
        4
 64
     7
 65
   257
 75
     1
175
     1
 42
1.0
 92
        8
 66
     7
 43
1.0
 76
     1
 77
     6
 78
     2
 67
     7
 79
     5
170
     0
171
     0
290
     0
174
     0
 93
        1
 44
-50.0
173
     0
291
     1
 45
0.0
  0
VISUALSTYLE
  5
8FE
102
{ACAD_REACTORS
330
267
102
}
330
267
100
AcDbVisualStyle
  2
EdgeColorOff
 70
    22
 71
     2
 72
     2
 73
     0
 90
        0
 40
0.6
 41
30.0
 62
     5
 63
     7
421
 16777215
 74
     1
 91
        4
 64
     7
 65
   257
 75
     1
175
     1
 42
1.0
 92
        8
 66
     7
 43
1.0
 76
     1
 77
     6
 78
     2
 67
     7
 79
     5
170
     0
171
     0
290
     0
174
     0
 93
        1
 44
0.0
173
     0
291
     1
 45
0.0
  0
VISUALSTYLE
  5
276
102
{ACAD_REACTORS
330
267
102
}
330
267
100
AcDbVisualStyle
  2
Facepattern
 70
    15
 71
     2
 72
     2
 73
     0
 90
        0
 40
-0.6
 41
-30.0
 62
     5
 63
     7
421
 16777215
 74
     1
 91
        4
 64
     7
 65
   257
 75
     1
175
     1
 42
1.0
 92
        8
 66
     7
 43
1.0
 76
     1
 77
     6
 78
     2
 67
     7
 79
     5
170
     0
171
     0
290
     0
174
     0
 93
        1
 44
0.0
173
     0
291
     1
 45
0.0
  0
VISUALSTYLE
  5
268
102
{ACAD_REACTORS
330
267
102
}
330
267
100
AcDbVisualStyle
  2
Flat
 70
     0
 71
     2
 72
     1
 73
     1
 90
        2
 40
-0.6
 41
30.0
 62
     5
 63
     7
421
 16777215
 74
     0
 91
        4
 64
     7
 65
   257
 75
     1
175
     1
 42
1.0
 92
        8
 66
     7
 43
1.0
 76
     1
 77
     6
 78
     2
 67
     7
 79
     5
170
     0
171
     0
290
     0
174
     0
 93
       13
 44
0.0
173
     0
291
     1
 45
0.0
  0
VISUALSTYLE
  5
269
102
{ACAD_REACTORS
330
267
102
}
330
267
100
AcDbVisualStyle
  2
FlatWithEdges
 70
     1
 71
     2
 72
     1
 73
     1
 90
        2
 40
-0.6
 41
30.0
 62
     5
 63
     7
421
 16777215
 74
     1
 91
        4
 64
     7
 65
   257
 75
     1
175
     1
 42
1.0
 92
        0
 66
   257
 43
1.0
 76
     1
 77
     6
 78
     2
 67
     7
 79
     5
170
     0
171
     0
290
     0
174
     0
 93
       13
 44
0.0
173
     0
291
     1
 45
0.0
  0
VISUALSTYLE
  5
26A
102
{ACAD_REACTORS
330
267
102
}
330
267
100
AcDbVisualStyle
  2
Gouraud
 70
     2
 71
     2
 72
     2
 73
     1
 90
        2
 40
-0.6
 41
30.0
 62
     5
 63
     7
421
 16777215
 74
     0
 91
        4
 64
     7
 65
   257
 75
     1
175
     1
 42
1.0
 92
        0
 66
     7
 43
1.0
 76
     1
 77
     6
 78
     2
 67
     7
 79
     5
170
     0
171
     0
290
     0
174
     0
 93
       13
 44
0.0
173
     0
291
     1
 45
0.0
  0
VISUALSTYLE
  5
26B
102
{ACAD_REACTORS
330
267
102
}
330
267
100
AcDbVisualStyle
  2
GouraudWithEdges
 70
     3
 71
     2
 72
     2
 73
     1
 90
        2
 40
-0.6
 41
30.0
 62
     5
 63
     7
421
 16777215
 74
     1
 91
        4
 64
     7
 65
   257
 75
     1
175
     1
 42
1.0
 92
        0
 66
   257
 43
1.0
 76
     1
 77
     6
 78
     2
 67
     7
 79
     5
170
     0
171
     0
290
     0
174
     0
 93
       13
 44
0.0
173
     0
291
     1
 45
0.0
  0
VISUALSTYLE
  5
8FB
102
{ACAD_REACTORS
330
267
102
}
330
267
100
AcDbVisualStyle
  2
Hidden
 70
     6
 71
     1
 72
     2
 73
     2
 90
        0
 40
0.6
 41
30.0
 62
     5
 63
     7
421
 16777215
 74
     2
 91
        2
 64
     7
 65
   257
 75
     2
175
     1
 42
40.0
 92
        0
 66
   257
 43
1.0
 76
     1
 77
     6
 78
     2
 67
     7
 79
     3
170
     0
171
     0
290
     0
174
     0
 93
        1
 44
0.0
173
     0
291
     0
 45
0.0
  0
VISUALSTYLE
  5
8FC
102
{ACAD_REACTORS
330
267
102
}
330
267
100
AcDbVisualStyle
  2
JitterOff
 70
    20
 71
     2
 72
     2
 73
     0
 90
        0
 40
0.6
 41
30.0
 62
     5
 63
     7
421
 16777215
 74
     1
 91
        4
 64
     7
 65
   257
 75
     1
175
     1
 42
1.0
 92
       10
 66
     7
 43
1.0
 76
     1
 77
     6
 78
     2
 67
     7
 79
     5
170
     0
171
     0
290
     0
174
     0
 93
        1
 44
0.0
173
     0
291
     1
 45
0.0
  0
VISUALSTYLE
  5
275
102
{ACAD_REACTORS
330
267
102
}
330
267
100
AcDbVisualStyle
  2
Linepattern
 70
    14
 71
     2
 72
     2
 73
     0
 90
        0
 40
-0.6
 41
-30.0
 62
     5
 63
     7
421
 16777215
 74
     1
 91
        4
 64
     7
 65
   257
 75
     7
175
     7
 42
1.0
 92
        8
 66
     7
 43
1.0
 76
     1
 77
     6
 78
     2
 67
     7
 79
     5
170
     0
171
     0
290
     0
174
     0
 93
        1
 44
0.0
173
     0
291
     1
 45
0.0
  0
VISUALSTYLE
  5
8FD
102
{ACAD_REACTORS
330
267
102
}
330
267
100
AcDbVisualStyle
  2
OverhangOff
 70
    21
 71
     2
 72
     2
 73
     0
 90
        0
 40
0.6
 41
30.0
 62
     5
 63
     7
421
 16777215
 74
     1
 91
        4
 64
     7
 65
   257
 75
     1
175
     1
 42
1.0
 92
        9
 66
     7
 43
1.0
 76
     1
 77
     6
 78
     2
 67
     7
 79
     5
170
     0
171
     0
290
     0
174
     0
 93
        1
 44
0.0
173
     0
291
     1
 45
0.0
  0
VISUALSTYLE
  5
270
102
{ACAD_REACTORS
330
267
102
}
330
267
100
AcDbVisualStyle
  2
Realistic
 70
     8
 71
     2
 72
     2
 73
     0
 90
        0
 40
-0.6
 41
-30.0
 62
     5
 63
     7
421
 16777215
 74
     1
 91
        0
 64
     7
 65
   257
 75
     1
175
     1
 42
1.0
 92
        8
 66
     8
424
  7895160
 43
1.0
 76
     1
 77
     6
 78
     2
 67
     7
 79
     5
170
     0
171
     0
290
     0
174
     0
 93
       13
 44
0.0
173
     0
291
     0
 45
0.0
  0
VISUALSTYLE
  5
903
102
{ACAD_REACTORS
330
267
102
}
330
267
100
AcDbVisualStyle
  2
Shaded
 70
    27
 71
     2
 72
     2
 73
     1
 90
        2
 40
0.6
 41
30.0
 62
     5
 63
     7
421
 16777215
 74
     0
 91
        4
 64
     7
 65
   257
 75
     1
175
     1
 42
1.0
 92
        8
 66
   257
 43
1.0
 76
     1
 77
     6
 78
     2
 67
     8
425
  7895160
 79
     3
170
     0
171
     0
290
     0
174
     0
 93
        5
 44
0.0
173
     0
291
     0
 45
0.0
  0
VISUALSTYLE
  5
902
102
{ACAD_REACTORS
330
267
102
}
330
267
100
AcDbVisualStyle
  2
Shaded with edges
 70
    26
 71
     2
 72
     2
 73
     1
 90
        2
 40
0.6
 41
30.0
 62
     5
 63
     7
421
 16777215
 74
     1
 91
       10
 64
     7
 65
   257
 75
     2
175
     1
 42
1.0
 92
        8
 66
   257
 43
1.0
 76
     1
 77
     6
 78
     2
 67
     7
 79
     3
170
     0
171
     0
290
     0
174
     0
 93
        5
 44
0.0
173
     0
291
     0
 45
0.0
  0
VISUALSTYLE
  5
8FF
102
{ACAD_REACTORS
330
267
102
}
330
267
100
AcDbVisualStyle
  2
Shades of Gray
 70
    23
 71
     2
 72
     2
 73
     3
 90
        0
 40
0.6
 41
30.0
 62
     5
 63
     7
421
 16777215
 74
     2
 91
        2
 64
     7
 65
     7
 75
     1
175
     1
 42
40.0
 92
        8
 66
     7
 43
1.0
 76
     1
 77
     6
 78
     2
 67
     7
 79
     3
170
     0
171
     0
290
     0
174
     0
 93
        1
 44
0.0
173
     0
291
     0
 45
0.0
  0
VISUALSTYLE
  5
900
102
{ACAD_REACTORS
330
267
102
}
330
267
100
AcDbVisualStyle
  2
Sketchy
 70
    24
 71
     1
 72
     2
 73
     2
 90
        0
 40
0.6
 41
30.0
 62
     5
 63
     7
421
 16777215
 74
     2
 91
        2
 64
     7
 65
     7
 75
     1
175
     1
 42
40.0
 92
       11
 66
     7
 43
1.0
 76
     1
 77
     6
 78
     2
 67
     7
 79
     6
170
     0
171
     0
290
     0
174
     0
 93
        1
 44
0.0
173
     0
291
     0
 45
0.0
  0
VISUALSTYLE
  5
274
102
{ACAD_REACTORS
330
267
102
}
330
267
100
AcDbVisualStyle
  2
Thicken
 70
    13
 71
     2
 72
     2
 73
     0
 90
        0
 40
-0.6
 41
-30.0
 62
     5
 63
     7
421
 16777215
 74
     1
 91
        4
 64
     7
 65
   257
 75
     1
175
     1
 42
1.0
 92
       12
 66
     7
 43
1.0
 76
     1
 77
     6
 78
     2
 67
     7
 79
     5
170
     0
171
     0
290
     0
174
     0
 93
        1
 44
0.0
173
     0
291
     1
 45
0.0
  0
VISUALSTYLE
  5
8FA
102
{ACAD_REACTORS
330
267
102
}
330
267
100
AcDbVisualStyle
  2
Wireframe
 70
     5
 71
     0
 72
     2
 73
     0
 90
        0
 40
0.6
 41
30.0
 62
     5
 63
     7
421
 16777215
 74
     1
 91
        4
 64
     7
 65
   257
 75
     1
175
     1
 42
1.0
 92
        0
 66
   257
 43
1.0
 76
     1
 77
     6
 78
     2
 67
     7
 79
     3
170
     0
171
     0
290
     0
174
     0
 93
        1
 44
0.0
173
     0
291
     0
 45
0.0
  0
VISUALSTYLE
  5
901
102
{ACAD_REACTORS
330
267
102
}
330
267
100
AcDbVisualStyle
  2
X-Ray
 70
    25
 71
     2
 72
     2
 73
     1
 90
        1
 40
0.5
 41
30.0
 62
     5
 63
     7
421
 16777215
 74
     1
 91
        0
 64
     7
 65
   257
 75
     1
175
     1
 42
1.0
 92
        8
 66
     7
 43
1.0
 76
     1
 77
     6
 78
     2
 67
     7
 79
     3
170
     0
171
     0
290
     0
174
     0
 93
       13
 44
0.0
173
     0
291
     0
 45
0.0
  0
DICTIONARYVAR
  5
331
102
{ACAD_REACTORS
330
330
102
}
330
330
100
DictionaryVariables
280
     0
  1
1:1
  0
DICTIONARYVAR
  5
DB1
102
{ACAD_REACTORS
330
330
102
}
330
330
100
DictionaryVariables
280
     0
  1
Standard
  0
DICTIONARYVAR
  5
335
102
{ACAD_REACTORS
330
330
102
}
330
330
100
DictionaryVariables
280
     0
  1
Standard
  0
DICTIONARYVAR
  5
D52
102
{ACAD_REACTORS
330
330
102
}
330
330
100
DictionaryVariables
280
     0
  1
ByLayer
  0
DICTIONARYVAR
  5
896
102
{ACAD_REACTORS
330
330
102
}
330
330
100
DictionaryVariables
280
     0
  1
0
  0
DICTIONARYVAR
  5
ECE
102
{ACAD_REACTORS
330
E3E
102
}
330
E3E
100
DictionaryVariables
280
     0
  1
0.261799
  0
DICTIONARYVAR
  5
ECC
102
{ACAD_REACTORS
330
E3E
102
}
330
E3E
100
DictionaryVariables
280
     0
  1
0.400000
  0
DICTIONARYVAR
  5
ECD
102
{ACAD_REACTORS
330
E3E
102
}
330
E3E
100
DictionaryVariables
280
     0
  1
0.250000
  0
DICTIONARYVAR
  5
ECF
102
{ACAD_REACTORS
330
E3E
102
}
330
E3E
100
DictionaryVariables
280
     0
  1
1
  0
XRECORD
  5
7AA
102
{ACAD_REACTORS
330
2E2
102
}
330
2E2
100
AcDbXrecord
280
     1
 91
    34815
301

290
     0
302
DIM
330
14
 90
        8
 62
     7
370
    -3
331
13
  1
Color_7
440
 33554687
330
4B
 90
        8
 62
     7
370
    20
331
13
  1
Color_7
440
 33554687
330
4C
 90
        8
 62
     3
370
    13
331
13
  1
Color_3
440
 33554687
330
4D
 90
        8
 62
     7
370
    20
331
13
  1
Color_7
440
 33554687
330
667
 90
        8
 62
     7
370
    -3
331
13
  1
Color_7
440
 33554687
330
0
 90
        8
 62
     8
370
    20
331
0
  1
Color_8
440
 33554687
330
D5D
 90
        0
 62
     7
370
    -3
331
13
  1
Color_7
440
 33554687
330
DAE
 90
        0
 62
     4
370
    20
331
DAF
  1
Color_4
440
 33554687
  0
FIELD
  5
1467
102
{ACAD_REACTORS
330
146C
102
}
330
146C
100
AcDbField
  1
_text
  2
{%<\_FldIdx 0>%N}
 90
        1
360
146B
 97
        0
 91
       63
 92
        0
 94
        8
 95
        2
 96
        0
300

 93
        1
  6
ACFD_FIELDTEXT_CHECKSUM
 93
        2
 90
        2
140
4476.0
 94
        0
300

302

304
ACVALUE_END
  7
ACFD_FIELD_VALUE
 93
        6
 90
        4
  1
{20170510N}
 94
        0
300

302

304
ACVALUE_END
301
{20170510N}
 98
       11
  0
DICTIONARY
  5
3E06
330
279
100
AcDbDictionary
280
     1
281
     1
  3
ACAD_ROUNDTRIP_2008_TABLESTYLE_CELLSTYLEMAP
360
3E07
  0
FIELD
  5
146B
330
1467
100
AcDbField
  1
AcVar
  2
\AcVar Date \f "yyyyMMdd"
 90
        0
 97
        0
 91
       63
 92
        0
 94
        8
 95
        2
 96
        0
300

 93
        1
  6
Variable
 93
        2
 90
        4
  1
Date
 94
        0
300

302

304
ACVALUE_END
  7
ACFD_FIELD_VALUE
 93
        6
 90
        8
 92
       16
310
E1070500000009000F00140018000000
 94
        0
300
yyyyMMdd
302

304
ACVALUE_END
301
20170510
 98
        8
  0
CELLSTYLEMAP
  5
3E07
102
{ACAD_REACTORS
330
3E06
102
}
330
3E06
100
AcDbCellStyleMap
 90
        3
300
CELLSTYLE
  1
TABLEFORMAT_BEGIN
 90
        5
170
     1
 91
        0
 92
    32768
 62
   257
 93
        1
300
CONTENTFORMAT
  1
CONTENTFORMAT_BEGIN
 90
        0
 91
        0
 92
        4
 93
        0
300

 40
0.0
140
1.0
 94
        5
 62
     0
340
17
144
6.0
309
CONTENTFORMAT_END
171
     1
301
MARGIN
  1
CELLMARGIN_BEGIN
 40
0.06
 40
0.06
 40
0.06
 40
0.06
 40
0.18
 40
0.18
309
CELLMARGIN_END
 94
        6
 95
        1
302
GRIDFORMAT
  1
GRIDFORMAT_BEGIN
 90
        0
 91
        1
 62
     0
 92
       -2
340
0
 93
        0
 40
0.045
309
GRIDFORMAT_END
 95
        2
302
GRIDFORMAT
  1
GRIDFORMAT_BEGIN
 90
        0
 91
        1
 62
     0
 92
       -2
340
0
 93
        0
 40
0.045
309
GRIDFORMAT_END
 95
        4
302
GRIDFORMAT
  1
GRIDFORMAT_BEGIN
 90
        0
 91
        1
 62
     0
 92
       -2
340
0
 93
        0
 40
0.045
309
GRIDFORMAT_END
 95
        8
302
GRIDFORMAT
  1
GRIDFORMAT_BEGIN
 90
        0
 91
        1
 62
     0
 92
       -2
340
0
 93
        0
 40
0.045
309
GRIDFORMAT_END
 95
       16
302
GRIDFORMAT
  1
GRIDFORMAT_BEGIN
 90
        0
 91
        1
 62
     0
 92
       -2
340
0
 93
        0
 40
0.045
309
GRIDFORMAT_END
 95
       32
302
GRIDFORMAT
  1
GRIDFORMAT_BEGIN
 90
        0
 91
        1
 62
     0
 92
       -2
340
0
 93
        0
 40
0.045
309
GRIDFORMAT_END
309
TABLEFORMAT_END
  1
CELLSTYLE_BEGIN
 90
        1
 91
        1
300
_TITLE
309
CELLSTYLE_END
300
CELLSTYLE
  1
TABLEFORMAT_BEGIN
 90
        5
170
     1
 91
        0
 92
        0
 62
   257
 93
        1
300
CONTENTFORMAT
  1
CONTENTFORMAT_BEGIN
 90
        0
 91
        0
 92
        4
 93
        0
300

 40
0.0
140
1.0
 94
        5
 62
     0
340
17
144
4.5
309
CONTENTFORMAT_END
171
     1
301
MARGIN
  1
CELLMARGIN_BEGIN
 40
0.06
 40
0.06
 40
0.06
 40
0.06
 40
0.18
 40
0.18
309
CELLMARGIN_END
 94
        6
 95
        1
302
GRIDFORMAT
  1
GRIDFORMAT_BEGIN
 90
        0
 91
        1
 62
     0
 92
       -2
340
0
 93
        0
 40
0.045
309
GRIDFORMAT_END
 95
        2
302
GRIDFORMAT
  1
GRIDFORMAT_BEGIN
 90
        0
 91
        1
 62
     0
 92
       -2
340
0
 93
        0
 40
0.045
309
GRIDFORMAT_END
 95
        4
302
GRIDFORMAT
  1
GRIDFORMAT_BEGIN
 90
        0
 91
        1
 62
     0
 92
       -2
340
0
 93
        0
 40
0.045
309
GRIDFORMAT_END
 95
        8
302
GRIDFORMAT
  1
GRIDFORMAT_BEGIN
 90
        0
 91
        1
 62
     0
 92
       -2
340
0
 93
        0
 40
0.045
309
GRIDFORMAT_END
 95
       16
302
GRIDFORMAT
  1
GRIDFORMAT_BEGIN
 90
        0
 91
        1
 62
     0
 92
       -2
340
0
 93
        0
 40
0.045
309
GRIDFORMAT_END
 95
       32
302
GRIDFORMAT
  1
GRIDFORMAT_BEGIN
 90
        0
 91
        1
 62
     0
 92
       -2
340
0
 93
        0
 40
0.045
309
GRIDFORMAT_END
309
TABLEFORMAT_END
  1
CELLSTYLE_BEGIN
 90
        2
 91
        1
300
_HEADER
309
CELLSTYLE_END
300
CELLSTYLE
  1
TABLEFORMAT_BEGIN
 90
        5
170
     1
 91
        0
 92
        0
 62
   257
 93
        1
300
CONTENTFORMAT
  1
CONTENTFORMAT_BEGIN
 90
        0
 91
        0
 92
        4
 93
        0
300

 40
0.0
140
1.0
 94
        2
 62
     0
340
17
144
4.5
309
CONTENTFORMAT_END
171
     1
301
MARGIN
  1
CELLMARGIN_BEGIN
 40
0.06
 40
0.06
 40
0.06
 40
0.06
 40
0.18
 40
0.18
309
CELLMARGIN_END
 94
        6
 95
        1
302
GRIDFORMAT
  1
GRIDFORMAT_BEGIN
 90
        0
 91
        1
 62
     0
 92
       -2
340
0
 93
        0
 40
0.045
309
GRIDFORMAT_END
 95
        2
302
GRIDFORMAT
  1
GRIDFORMAT_BEGIN
 90
        0
 91
        1
 62
     0
 92
       -2
340
0
 93
        0
 40
0.045
309
GRIDFORMAT_END
 95
        4
302
GRIDFORMAT
  1
GRIDFORMAT_BEGIN
 90
        0
 91
        1
 62
     0
 92
       -2
340
0
 93
        0
 40
0.045
309
GRIDFORMAT_END
 95
        8
302
GRIDFORMAT
  1
GRIDFORMAT_BEGIN
 90
        0
 91
        1
 62
     0
 92
       -2
340
0
 93
        0
 40
0.045
309
GRIDFORMAT_END
 95
       16
302
GRIDFORMAT
  1
GRIDFORMAT_BEGIN
 90
        0
 91
        1
 62
     0
 92
       -2
340
0
 93
        0
 40
0.045
309
GRIDFORMAT_END
 95
       32
302
GRIDFORMAT
  1
GRIDFORMAT_BEGIN
 90
        0
 91
        1
 62
     0
 92
       -2
340
0
 93
        0
 40
0.045
309
GRIDFORMAT_END
309
TABLEFORMAT_END
  1
CELLSTYLE_BEGIN
 90
        3
 91
        2
300
_DATA
309
CELLSTYLE_END
  0
ENDSEC
  0
EOF
