  0
SECTION
  2
HEADER
  9
$ACADVER
  1
AC1021
  9
$ACADMAINTVER
 70
    25
  9
$DWGCODEPAGE
  3
ANSI_932
  9
$LASTSAVEDBY
  1
Shimosaki
  9
$INSBASE
 10
0.0
 20
0.0
 30
0.0
  9
$EXTMIN
 10
-975.0000000002414
 20
-1431.525522471113
 30
-14.83430555555555
  9
$EXTMAX
 10
975.0000000002412
 20
1405.9972926413
 30
14.83430555555555
  9
$LIMMIN
 10
-1049.999999999759
 20
-1496.599316392551
  9
$LIMMAX
 10
1050.000000000241
 20
1473.40068360745
  9
$ORTHOMODE
 70
     0
  9
$REGENMODE
 70
     1
  9
$FILLMODE
 70
     1
  9
$QTEXTMODE
 70
     0
  9
$MIRRTEXT
 70
     1
  9
$LTSCALE
 40
5.08
  9
$ATTMODE
 70
     1
  9
$TEXTSIZE
 40
0.0
  9
$TRACEWID
 40
1.0
  9
$TEXTSTYLE
  7
Standard
  9
$CLAYER
  8
template
  9
$CELTYPE
  6
Continuous
  9
$CECOLOR
 62
   256
  9
$CELTSCALE
 40
1.0
  9
$DISPSILH
 70
     0
  9
$DIMSCALE
 40
1.0
  9
$DIMASZ
 40
22.4482421875
  9
$DIMEXO
 40
15.875
  9
$DIMDLI
 40
10.16
  9
$DIMRND
 40
0.0
  9
$DIMDLE
 40
1.5875
  9
$DIMEXE
 40
31.75
  9
$DIMTP
 40
0.0
  9
$DIMTM
 40
0.0
  9
$DIMTXT
 40
24.4326171875
  9
$DIMCEN
 40
0.0
  9
$DIMTSZ
 40
0.0
  9
$DIMTOL
 70
     0
  9
$DIMLIM
 70
     0
  9
$DIMTIH
 70
     0
  9
$DIMTOH
 70
     0
  9
$DIMSE1
 70
     0
  9
$DIMSE2
 70
     0
  9
$DIMTAD
 70
     1
  9
$DIMZIN
 70
    11
  9
$DIMBLK
  1
VW_SLASH
  9
$DIMASO
 70
     1
  9
$DIMSHO
 70
     1
  9
$DIMPOST
  1
<>
  9
$DIMAPOST
  1
[]
  9
$DIMALT
 70
     0
  9
$DIMALTD
 70
     1
  9
$DIMALTF
 40
1.0
  9
$DIMLFAC
 40
1.0
  9
$DIMTOFL
 70
     1
  9
$DIMTVP
 40
0.0
  9
$DIMTIX
 70
     1
  9
$DIMSOXD
 70
     0
  9
$DIMSAH
 70
     0
  9
$DIMBLK1
  1

  9
$DIMBLK2
  1

  9
$DIMSTYLE
  2
Arch
  9
$DIMCLRD
 70
     0
  9
$DIMCLRE
 70
     0
  9
$DIMCLRT
 70
     0
  9
$DIMTFAC
 40
1.0
  9
$DIMGAP
 40
1.5875
  9
$DIMJUST
 70
     0
  9
$DIMSD1
 70
     0
  9
$DIMSD2
 70
     0
  9
$DIMTOLJ
 70
     1
  9
$DIMTZIN
 70
    11
  9
$DIMALTZ
 70
    11
  9
$DIMALTTZ
 70
    11
  9
$DIMUPT
 70
     0
  9
$DIMDEC
 70
     1
  9
$DIMTDEC
 70
     1
  9
$DIMALTU
 70
     2
  9
$DIMALTTD
 70
     2
  9
$DIMTXSTY
  7
ＭＳ ゴシック
  9
$DIMAUNIT
 70
     0
  9
$DIMADEC
 70
     2
  9
$DIMALTRND
 40
0.0
  9
$DIMAZIN
 70
     0
  9
$DIMDSEP
 70
    46
  9
$DIMATFIT
 70
     0
  9
$DIMFRAC
 70
     2
  9
$DIMLDRBLK
  1

  9
$DIMLUNIT
 70
     2
  9
$DIMLWD
 70
    -2
  9
$DIMLWE
 70
    -2
  9
$DIMTMOVE
 70
     0
  9
$DIMFXL
 40
1.0
  9
$DIMFXLON
 70
     0
  9
$DIMJOGANG
 40
0.7853981633974483
  9
$DIMTFILL
 70
     0
  9
$DIMTFILLCLR
 70
     0
  9
$DIMARCSYM
 70
     0
  9
$DIMLTYPE
  6

  9
$DIMLTEX1
  6

  9
$DIMLTEX2
  6

  9
$LUNITS
 70
     2
  9
$LUPREC
 70
     4
  9
$SKETCHINC
 40
0.1
  9
$FILLETRAD
 40
0.0
  9
$AUNITS
 70
     0
  9
$AUPREC
 70
     0
  9
$MENU
  1
acad
  9
$ELEVATION
 40
0.0
  9
$PELEVATION
 40
0.0
  9
$THICKNESS
 40
0.0
  9
$LIMCHECK
 70
     0
  9
$CHAMFERA
 40
0.0
  9
$CHAMFERB
 40
0.0
  9
$CHAMFERC
 40
0.0
  9
$CHAMFERD
 40
0.0
  9
$SKPOLY
 70
     0
  9
$TDCREATE
 40
2447893.375
  9
$TDUCREATE
 40
0.0
  9
$TDUPDATE
 40
2457221.590652084
  9
$TDUUPDATE
 40
2457221.215652084
  9
$TDINDWG
 40
0.0100090856
  9
$TDUSRTIMER
 40
2457221.215205544
  9
$USRTIMER
 70
     1
  9
$ANGBASE
 50
0.0
  9
$ANGDIR
 70
     0
  9
$PDMODE
 70
     1
  9
$PDSIZE
 40
-2.0
  9
$PLINEWID
 40
0.0
  9
$SPLFRAME
 70
     0
  9
$SPLINETYPE
 70
     6
  9
$SPLINESEGS
 70
     8
  9
$HANDSEED
  5
296
  9
$SURFTAB1
 70
     6
  9
$SURFTAB2
 70
     6
  9
$SURFTYPE
 70
     6
  9
$SURFU
 70
     6
  9
$SURFV
 70
     6
  9
$UCSBASE
  2

  9
$UCSNAME
  2

  9
$UCSORG
 10
0.0
 20
0.0
 30
0.0
  9
$UCSXDIR
 10
1.0
 20
0.0
 30
0.0
  9
$UCSYDIR
 10
0.0
 20
1.0
 30
0.0
  9
$UCSORTHOREF
  2

  9
$UCSORTHOVIEW
 70
     0
  9
$UCSORGTOP
 10
0.0
 20
0.0
 30
0.0
  9
$UCSORGBOTTOM
 10
0.0
 20
0.0
 30
0.0
  9
$UCSORGLEFT
 10
0.0
 20
0.0
 30
0.0
  9
$UCSORGRIGHT
 10
0.0
 20
0.0
 30
0.0
  9
$UCSORGFRONT
 10
0.0
 20
0.0
 30
0.0
  9
$UCSORGBACK
 10
0.0
 20
0.0
 30
0.0
  9
$PUCSBASE
  2

  9
$PUCSNAME
  2

  9
$PUCSORG
 10
0.0
 20
0.0
 30
0.0
  9
$PUCSXDIR
 10
1.0
 20
0.0
 30
0.0
  9
$PUCSYDIR
 10
0.0
 20
1.0
 30
0.0
  9
$PUCSORTHOREF
  2

  9
$PUCSORTHOVIEW
 70
     0
  9
$PUCSORGTOP
 10
0.0
 20
0.0
 30
0.0
  9
$PUCSORGBOTTOM
 10
0.0
 20
0.0
 30
0.0
  9
$PUCSORGLEFT
 10
0.0
 20
0.0
 30
0.0
  9
$PUCSORGRIGHT
 10
0.0
 20
0.0
 30
0.0
  9
$PUCSORGFRONT
 10
0.0
 20
0.0
 30
0.0
  9
$PUCSORGBACK
 10
0.0
 20
0.0
 30
0.0
  9
$USERI1
 70
     0
  9
$USERI2
 70
     0
  9
$USERI3
 70
     0
  9
$USERI4
 70
     0
  9
$USERI5
 70
     0
  9
$USERR1
 40
0.0
  9
$USERR2
 40
0.0
  9
$USERR3
 40
0.0
  9
$USERR4
 40
0.0
  9
$USERR5
 40
0.0
  9
$WORLDVIEW
 70
     1
  9
$SHADEDGE
 70
     3
  9
$SHADEDIF
 70
    70
  9
$TILEMODE
 70
     1
  9
$MAXACTVP
 70
    64
  9
$PINSBASE
 10
0.0
 20
0.0
 30
0.0
  9
$PLIMCHECK
 70
     0
  9
$PEXTMIN
 10
1.000000000000000E+20
 20
1.000000000000000E+20
 30
1.000000000000000E+20
  9
$PEXTMAX
 10
-1.000000000000000E+20
 20
-1.000000000000000E+20
 30
-1.000000000000000E+20
  9
$PLIMMIN
 10
0.0
 20
0.0
  9
$PLIMMAX
 10
0.0
 20
0.0
  9
$UNITMODE
 70
     0
  9
$VISRETAIN
 70
     0
  9
$PLINEGEN
 70
     1
  9
$PSLTSCALE
 70
     0
  9
$TREEDEPTH
 70
  3020
  9
$CMLSTYLE
  2
Standard
  9
$CMLJUST
 70
     0
  9
$CMLSCALE
 40
1.0
  9
$PROXYGRAPHICS
 70
     0
  9
$MEASUREMENT
 70
     1
  9
$CELWEIGHT
370
     0
  9
$ENDCAPS
280
     0
  9
$JOINSTYLE
280
     0
  9
$LWDISPLAY
290
     1
  9
$INSUNITS
 70
     4
  9
$HYPERLINKBASE
  1

  9
$STYLESHEET
  1

  9
$XEDIT
290
     1
  9
$CEPSNTYPE
380
     0
  9
$PSTYLEMODE
290
     1
  9
$FINGERPRINTGUID
  2

  9
$VERSIONGUID
  2

  9
$EXTNAMES
290
     1
  9
$PSVPSCALE
 40
0.0
  9
$OLESTARTUP
290
     0
  9
$SORTENTS
280
   127
  9
$INDEXCTL
280
     0
  9
$HIDETEXT
280
     1
  9
$XCLIPFRAME
290
     0
  9
$HALOGAP
280
     0
  9
$OBSCOLOR
 70
   257
  9
$OBSLTYPE
280
     0
  9
$INTERSECTIONDISPLAY
280
     0
  9
$INTERSECTIONCOLOR
 70
   257
  9
$DIMASSOC
280
     2
  9
$PROJECTNAME
  1

  9
$CAMERADISPLAY
290
     0
  9
$LENSLENGTH
 40
50.0
  9
$CAMERAHEIGHT
 40
0.0
  9
$STEPSPERSEC
 40
2.0
  9
$STEPSIZE
 40
6.0
  9
$3DDWFPREC
 40
2.0
  9
$PSOLWIDTH
 40
0.25
  9
$PSOLHEIGHT
 40
4.0
  9
$LOFTANG1
 40
1.570796326794897
  9
$LOFTANG2
 40
1.570796326794897
  9
$LOFTMAG1
 40
0.0
  9
$LOFTMAG2
 40
0.0
  9
$LOFTPARAM
 70
     7
  9
$LOFTNORMALS
280
     1
  9
$LATITUDE
 40
37.795
  9
$LONGITUDE
 40
-122.394
  9
$NORTHDIRECTION
 40
0.0
  9
$TIMEZONE
 70
 -8000
  9
$LIGHTGLYPHDISPLAY
280
     1
  9
$TILEMODELIGHTSYNCH
280
     1
  9
$SOLIDHIST
280
     1
  9
$SHOWHIST
280
     1
  9
$DWFFRAME
280
     2
  9
$DGNFRAME
280
     2
  9
$REALWORLDSCALE
290
     1
  9
$INTERFERECOLOR
 62
   256
  9
$CSHADOW
280
     0
  9
$SHADOWPLANELOCATION
 40
0.0
  0
ENDSEC
  0
SECTION
  2
CLASSES
  0
CLASS
  1
LWPOLYLINE
  2
AcDbPolyline
  3
ObjectDBX Classes
 90
        0
 91
        1
280
     0
281
     1
  0
CLASS
  1
IMAGE
  2
AcDbRasterImage
  3
ISM
 90
      127
 91
        6
280
     0
281
     1
  0
CLASS
  1
OLE2FRAME
  2
AcDbOle2Frame
  3
ObjectDBX Classes
 90
        0
 91
        1
280
     0
281
     1
  0
CLASS
  1
HATCH
  2
AcDbHatch
  3
ObjectDBX Classes
 90
        0
 91
        1
280
     0
281
     1
  0
CLASS
  1
DICTIONARYVAR
  2
AcDbDictionaryVar
  3
ObjectDBX Classes
 90
        0
 91
        5
280
     0
281
     0
  0
CLASS
  1
RASTERVARIABLES
  2
AcDbRasterVariables
  3
ISM
 90
        0
 91
        7
280
     0
281
     0
  0
CLASS
  1
IMAGEDEF
  2
AcDbRasterImageDef
  3
ISM
 90
        0
 91
        5
280
     0
281
     0
  0
CLASS
  1
IMAGEDEF_REACTOR
  2
AcDbRasterImageDefReactor
  3
ISM
 90
        1
 91
        5
280
     0
281
     0
  0
CLASS
  1
IDBUFFER
  2
AcDbIdBuffer
  3
ObjectDBX Classes
 90
        0
 91
        5
280
     0
281
     0
  0
CLASS
  1
SPATIAL_FILTER
  2
AcDbSpatialFilter
  3
ObjectDBX Classes
 90
        0
 91
        5
280
     0
281
     0
  0
CLASS
  1
XRECORD
  2
AcDbXrecord
  3
ObjectDBX Classes
 90
        0
 91
        1
280
     0
281
     0
  0
CLASS
  1
SORTENTSTABLE
  2
AcDbSortentsTable
  3
ObjectDBX Classes
 90
        0
 91
        5
280
     0
281
     0
  0
CLASS
  1
LAYER_INDEX
  2
AcDbLayerIndex
  3
ObjectDBX Classes
 90
        0
 91
        5
280
     0
281
     0
  0
CLASS
  1
SPATIAL_INDEX
  2
AcDbSpatialIndex
  3
AutoCAD 2000
 90
        0
 91
        5
280
     0
281
     0
  0
CLASS
  1
OBJECT_PTR
  2
CAseDLPNTableRecord
  3
ASE-LPNTableRecord
 90
        1
 91
        5
280
     0
281
     0
  0
CLASS
  1
LAYOUT
  2
AcDbLayout
  3
ObjectDBX Classes
 90
        0
 91
        1
280
     0
281
     0
  0
CLASS
  1
PLOTSETTINGS
  2
AcDbPlotSettings
  3
ObjectDBX Classes
 90
        0
 91
        5
280
     0
281
     0
  0
CLASS
  1
ACDBDICTIONARYWDFLT
  2
AcDbDictionaryWithDefault
  3
ObjectDBX Classes
 90
        0
 91
        7
280
     0
281
     0
  0
CLASS
  1
ACDBPLACEHOLDER
  2
AcDbPlaceHolder
  3
ObjectDBX Classes
 90
        0
 91
        1
280
     0
281
     0
  0
CLASS
  1
SCALE
  2
AcDbScale
  3
ObjectDBX Classes
 90
     1153
 91
        7
280
     0
281
     0
  0
CLASS
  1
VISUALSTYLE
  2
AcDbVisualStyle
  3
ObjectDBX Classes
 90
     4095
 91
        7
280
     0
281
     0
  0
CLASS
  1
MATERIAL
  2
AcDbMaterial
  3
ObjectDBX Classes
 90
     1153
 91
        7
280
     0
281
     0
  0
CLASS
  1
TABLESTYLE
  2
AcDbTableStyle
  3
ObjectDBX Classes
 90
     4095
 91
        7
280
     0
281
     0
  0
CLASS
  1
SUN
  2
AcDbSun
  3
SCENEOE
 90
     1153
 91
        7
280
     0
281
     0
  0
CLASS
  1
CELLSTYLEMAP
  2
AcDbCellStyleMap
  3
ObjectDBX Classes
 90
     1152
 91
        4
280
     0
281
     0
  0
ENDSEC
  0
SECTION
  2
TABLES
  0
TABLE
  2
VPORT
  5
7
330
0
100
AcDbSymbolTable
 70
     1
  0
VPORT
  5
15
330
7
100
AcDbSymbolTableRecord
100
AcDbViewportTableRecord
  2
*ACTIVE
 70
     0
 10
0.0
 20
0.0
 11
1.0
 21
1.0
 12
-15.6473635941378
 22
605.5986931990412
 13
0.0
 23
0.0
 14
1.0
 24
1.0
 15
0.0
 25
0.0
 16
0.0
 26
0.0
 36
1.0
 17
0.0
 27
0.0
 37
0.0
 40
1162.249345070043
 41
2.184105960264901
 42
50.0
 43
0.0
 44
0.0
 50
0.0
 51
0.0
 71
    16
 72
  2000
 73
     1
 74
     1
 75
     0
 76
     0
 77
     0
 78
     0
281
     0
 65
     0
110
0.0
120
0.0
130
0.0
111
1.0
121
0.0
131
0.0
112
0.0
122
1.0
132
0.0
 79
     0
146
0.0
348
269
 60
     3
 61
     5
292
     1
282
     1
141
0.0
142
0.0
 63
   250
361
284
  0
ENDTAB
  0
TABLE
  2
LTYPE
  5
4
330
0
100
AcDbSymbolTable
 70
    25
  0
LTYPE
  5
11
330
4
100
AcDbSymbolTableRecord
100
AcDbLinetypeTableRecord
  2
ByBlock
 70
     0
  3

 72
    65
 73
     0
 40
0.0
  0
LTYPE
  5
12
330
4
100
AcDbSymbolTableRecord
100
AcDbLinetypeTableRecord
  2
ByLayer
 70
     0
  3

 72
    65
 73
     0
 40
0.0
  0
LTYPE
  5
13
330
4
100
AcDbSymbolTableRecord
100
AcDbLinetypeTableRecord
  2
Continuous
 70
     0
  3
Solid line
 72
    65
 73
     0
 40
0.0
  0
LTYPE
  5
3B
330
4
100
AcDbSymbolTableRecord
100
AcDbLinetypeTableRecord
  2
STYLE_01
 70
     0
  3

 72
    65
 73
     2
 40
1.875
 49
1.25
 74
     0
 49
-0.625
 74
     0
  0
LTYPE
  5
3C
330
4
100
AcDbSymbolTableRecord
100
AcDbLinetypeTableRecord
  2
STYLE_02
 70
     0
  3

 72
    65
 73
     4
 40
5.0
 49
2.5
 74
     0
 49
-1.25
 74
     0
 49
0.0050000000000001
 74
     0
 49
-1.245
 74
     0
  0
LTYPE
  5
3D
330
4
100
AcDbSymbolTableRecord
100
AcDbLinetypeTableRecord
  2
STYLE_03
 70
     0
  3

 72
    65
 73
     4
 40
1.128472933070866
 49
0.3472224409448819
 74
     0
 49
-0.3472224409448819
 74
     0
 49
0.0868056102362205
 74
     0
 49
-0.3472224409448818
 74
     0
  0
LTYPE
  5
3E
330
4
100
AcDbSymbolTableRecord
100
AcDbLinetypeTableRecord
  2
STYLE_04
 70
     0
  3

 72
    65
 73
     4
 40
0.749496062992126
 49
0.6192883858267717
 74
     0
 49
-0.0434025590551181
 74
     0
 49
0.0434025590551181
 74
     0
 49
-0.0434025590551181
 74
     0
  0
LTYPE
  5
3F
330
4
100
AcDbSymbolTableRecord
100
AcDbLinetypeTableRecord
  2
STYLE_05
 70
     0
  3

 72
    65
 73
     4
 40
0.749496062992126
 49
0.6192883858267717
 74
     0
 49
-0.0434025590551181
 74
     0
 49
0.0434025590551181
 74
     0
 49
-0.0434025590551181
 74
     0
  0
LTYPE
  5
40
330
4
100
AcDbSymbolTableRecord
100
AcDbLinetypeTableRecord
  2
STYLE_06
 70
     0
  3

 72
    65
 73
     4
 40
0.6591845472440944
 49
0.5024827755905512
 74
     0
 49
-0.0364758858267716
 74
     0
 49
0.08375
 74
     0
 49
-0.0364758858267716
 74
     0
  0
LTYPE
  5
41
330
4
100
AcDbSymbolTableRecord
100
AcDbLinetypeTableRecord
  2
STYLE_07
 70
     0
  3

 72
    65
 73
     4
 40
0.6591845472440944
 49
0.5024827755905512
 74
     0
 49
-0.0364758858267716
 74
     0
 49
0.08375
 74
     0
 49
-0.0364758858267716
 74
     0
  0
LTYPE
  5
42
330
4
100
AcDbSymbolTableRecord
100
AcDbLinetypeTableRecord
  2
STYLE_08
 70
     0
  3

 72
    65
 73
     6
 40
6.25
 49
3.125
 74
     0
 49
-1.0414
 74
     0
 49
0.3471500000000002
 74
     0
 49
-0.6946500000000001
 74
     0
 49
0.3471499999999995
 74
     0
 49
-0.6946500000000001
 74
     0
  0
LTYPE
  5
43
330
4
100
AcDbSymbolTableRecord
100
AcDbLinetypeTableRecord
  2
STYLE_09
 70
     0
  3

 72
    65
 73
     4
 40
25.0
 49
18.75
 74
     0
 49
-1.388924999999999
 74
     0
 49
3.472150000000002
 74
     0
 49
-1.388924999999999
 74
     0
  0
LTYPE
  5
44
330
4
100
AcDbSymbolTableRecord
100
AcDbLinetypeTableRecord
  2
STYLE_10
 70
     0
  3

 72
    65
 73
     6
 40
29.6875
 49
18.75
 74
     0
 49
-1.388924999999999
 74
     0
 49
3.472150000000002
 74
     0
 49
-1.388924999999999
 74
     0
 49
3.125
 74
     0
 49
-1.5625
 74
     0
  0
LTYPE
  5
45
330
4
100
AcDbSymbolTableRecord
100
AcDbLinetypeTableRecord
  2
STYLE_11
 70
     0
  3

 72
    65
 73
     8
 40
0.3149606299212597
 49
0.1771653543307086
 74
     0
 49
-0.0196850393700787
 74
     0
 49
0.0196850393700787
 74
     0
 49
-0.0196850393700787
 74
     0
 49
0.0196850393700787
 74
     0
 49
-0.0196850393700787
 74
     0
 49
0.0196850393700787
 74
     0
 49
-0.0196850393700787
 74
     0
  0
LTYPE
  5
46
330
4
100
AcDbSymbolTableRecord
100
AcDbLinetypeTableRecord
  2
STYLE_12
 70
     0
  3

 72
    65
 73
    10
 40
0.3149606299212597
 49
0.1377952755905512
 74
     0
 49
-0.0196850393700787
 74
     0
 49
0.0196850393700787
 74
     0
 49
-0.0196850393700787
 74
     0
 49
0.0196850393700787
 74
     0
 49
-0.0196850393700787
 74
     0
 49
0.0196850393700787
 74
     0
 49
-0.0196850393700787
 74
     0
 49
0.0196850393700787
 74
     0
 49
-0.0196850393700787
 74
     0
  0
LTYPE
  5
47
330
4
100
AcDbSymbolTableRecord
100
AcDbLinetypeTableRecord
  2
STYLE_13
 70
     0
  3

 72
    65
 73
    10
 40
0.3149606299212597
 49
0.1377952755905512
 74
     0
 49
-0.0196850393700787
 74
     0
 49
0.0196850393700787
 74
     0
 49
-0.0196850393700787
 74
     0
 49
0.0196850393700787
 74
     0
 49
-0.0196850393700787
 74
     0
 49
0.0196850393700787
 74
     0
 49
-0.0196850393700787
 74
     0
 49
0.0196850393700787
 74
     0
 49
-0.0196850393700787
 74
     0
  0
LTYPE
  5
48
330
4
100
AcDbSymbolTableRecord
100
AcDbLinetypeTableRecord
  2
STYLE_14
 70
     0
  3

 72
    65
 73
    10
 40
0.2755905511811023
 49
0.0984251968503937
 74
     0
 49
-0.0196850393700787
 74
     0
 49
0.0196850393700787
 74
     0
 49
-0.0196850393700787
 74
     0
 49
0.0196850393700787
 74
     0
 49
-0.0196850393700787
 74
     0
 49
0.0196850393700787
 74
     0
 49
-0.0196850393700787
 74
     0
 49
0.0196850393700787
 74
     0
 49
-0.0196850393700787
 74
     0
  0
LTYPE
  5
49
330
4
100
AcDbSymbolTableRecord
100
AcDbLinetypeTableRecord
  2
STYLE_15
 70
     0
  3

 72
    65
 73
    10
 40
0.2755905511811023
 49
0.0984251968503937
 74
     0
 49
-0.0196850393700787
 74
     0
 49
0.0196850393700787
 74
     0
 49
-0.0196850393700787
 74
     0
 49
0.0196850393700787
 74
     0
 49
-0.0196850393700787
 74
     0
 49
0.0196850393700787
 74
     0
 49
-0.0196850393700787
 74
     0
 49
0.0196850393700787
 74
     0
 49
-0.0196850393700787
 74
     0
  0
LTYPE
  5
4A
330
4
100
AcDbSymbolTableRecord
100
AcDbLinetypeTableRecord
  2
STYLE_16
 70
     0
  3

 72
    65
 73
     2
 40
0.3169606299212598
 49
0.3149606299212598
 74
     0
 49
-0.005
 74
     0
  0
LTYPE
  5
4B
330
4
100
AcDbSymbolTableRecord
100
AcDbLinetypeTableRecord
  2
STYLE_17
 70
     0
  3

 72
    65
 73
     2
 40
0.3169606299212598
 49
0.3149606299212598
 74
     0
 49
-0.005
 74
     0
  0
LTYPE
  5
4C
330
4
100
AcDbSymbolTableRecord
100
AcDbLinetypeTableRecord
  2
STYLE_18
 70
     0
  3

 72
    65
 73
     4
 40
0.2559055118110236
 49
0.1838582677165354
 74
     0
 49
-0.024015748031496
 74
     0
 49
0.0240157480314961
 74
     0
 49
-0.0240157480314961
 74
     0
  0
LTYPE
  5
4D
330
4
100
AcDbSymbolTableRecord
100
AcDbLinetypeTableRecord
  2
STYLE_19
 70
     0
  3

 72
    65
 73
     2
 40
0.3169606299212598
 49
0.3149606299212598
 74
     0
 49
-0.005
 74
     0
  0
LTYPE
  5
4E
330
4
100
AcDbSymbolTableRecord
100
AcDbLinetypeTableRecord
  2
STYLE_20
 70
     0
  3

 72
    65
 73
     4
 40
0.2559055118110236
 49
0.1838582677165354
 74
     0
 49
-0.024015748031496
 74
     0
 49
0.0240157480314961
 74
     0
 49
-0.0240157480314961
 74
     0
  0
LTYPE
  5
4F
330
4
100
AcDbSymbolTableRecord
100
AcDbLinetypeTableRecord
  2
STYLE_21
 70
     0
  3

 72
    65
 73
     2
 40
1.388889763779527
 49
0.6944448818897637
 74
     0
 49
-0.6944448818897637
 74
     0
  0
LTYPE
  5
50
330
4
100
AcDbSymbolTableRecord
100
AcDbLinetypeTableRecord
  2
STYLE_22
 70
     0
  3

 72
    65
 73
     6
 40
59.375
 49
37.5
 74
     0
 49
-2.777849999999998
 74
     0
 49
6.944300000000004
 74
     0
 49
-2.777849999999998
 74
     0
 49
6.25
 74
     0
 49
-3.125
 74
     0
  0
LTYPE
  5
51
330
4
100
AcDbSymbolTableRecord
100
AcDbLinetypeTableRecord
  2
STYLE_23
 70
     0
  3

 72
    65
 73
     2
 40
0.6944448818897638
 49
0.3472224409448819
 74
     0
 49
-0.3472224409448819
 74
     0
  0
LTYPE
  5
52
330
4
100
AcDbSymbolTableRecord
100
AcDbLinetypeTableRecord
  2
STYLE_24
 70
     0
  3

 72
    65
 73
     2
 40
3.937007874015748
 49
1.968503937007874
 74
     0
 49
-1.968503937007874
 74
     0
  0
ENDTAB
  0
TABLE
  2
LAYER
  5
2
330
0
100
AcDbSymbolTable
 70
     5
  0
LAYER
  5
14
330
2
100
AcDbSymbolTableRecord
100
AcDbLayerTableRecord
  2
0
 70
     0
 62
     7
  6
Continuous
370
    -3
390
1D
347
280
  0
LAYER
  5
53
330
2
100
AcDbSymbolTableRecord
100
AcDbLayerTableRecord
  2
Defpoints
 70
     0
 62
     7
  6
Continuous
290
     0
370
    -3
390
1D
347
280
  0
LAYER
  5
54
330
2
100
AcDbSymbolTableRecord
100
AcDbLayerTableRecord
  2
template
 70
     0
 62
     7
  6
Continuous
370
    -3
390
1D
347
280
  0
LAYER
  5
55
330
2
100
AcDbSymbolTableRecord
100
AcDbLayerTableRecord
  2
notes
 70
     0
 62
     7
  6
Continuous
370
    -3
390
1D
347
280
  0
LAYER
  5
56
330
2
100
AcDbSymbolTableRecord
100
AcDbLayerTableRecord
  2
ADF70-0606
 70
     0
 62
     7
  6
Continuous
370
    -3
390
1D
347
280
  0
ENDTAB
  0
TABLE
  2
STYLE
  5
3
330
0
100
AcDbSymbolTable
 70
     2
  0
STYLE
  5
17
330
3
100
AcDbSymbolTableRecord
100
AcDbTextStyleTableRecord
  2
Standard
 70
     0
 40
0.0
 41
1.0
 50
0.0
 71
     0
 42
0.0
  3
txt
  4
BIGFONT.SHX
  0
STYLE
  5
3A
330
3
100
AcDbSymbolTableRecord
100
AcDbTextStyleTableRecord
  2
ＭＳ ゴシック
 70
     0
 40
0.0
 41
1.0
 50
0.0
 71
     0
 42
0.0
  3
msgothic.ttc
  4
ＭＳ ゴシック
1001
ACAD
1000
ＭＳ ゴシック
1071
        0
  0
ENDTAB
  0
TABLE
  2
VIEW
  5
5
330
0
100
AcDbSymbolTable
 70
     0
  0
ENDTAB
  0
TABLE
  2
UCS
  5
6
330
0
100
AcDbSymbolTable
 70
     0
  0
ENDTAB
  0
TABLE
  2
APPID
  5
8
330
0
100
AcDbSymbolTable
 70
     1
  0
APPID
  5
16
330
8
100
AcDbSymbolTableRecord
100
AcDbRegAppTableRecord
  2
ACAD
 70
     0
  0
ENDTAB
  0
TABLE
  2
DIMSTYLE
  5
9
330
0
100
AcDbSymbolTable
 70
     3
100
AcDbDimStyleTable
  0
DIMSTYLE
105
18
330
9
100
AcDbSymbolTableRecord
100
AcDbDimStyleTableRecord
  2
Standard
 70
     0
178
     0
340
17
  0
DIMSTYLE
105
5F
330
9
100
AcDbSymbolTableRecord
100
AcDbDimStyleTableRecord
  2
TformSENN
 70
     0
  3
<>
  4
[]
 41
9.999389648437498
 42
25.0
 43
0.9999999999999999
 44
0.0
 73
     0
 74
     0
 77
     1
 78
    11
140
24.4326171875
141
0.0
143
1.0
146
0.8
147
0.4999999999999999
171
     1
172
     1
174
     1
178
     0
179
     2
271
     1
272
     1
276
     2
284
    11
285
    11
286
    11
289
     0
340
3A
341
57
342
57
  0
DIMSTYLE
105
69
330
9
100
AcDbSymbolTableRecord
100
AcDbDimStyleTableRecord
  2
Arch
 70
     0
  3
<>
  4
[]
 41
22.4482421875
 42
15.875
 43
10.16
 44
31.75
 46
1.5875
 73
     0
 74
     0
 77
     1
 78
    11
140
24.4326171875
141
0.0
143
1.0
147
1.5875
171
     1
172
     1
174
     1
178
     0
179
     2
271
     1
272
     1
276
     2
284
    11
285
    11
286
    11
289
     0
340
3A
341
65
342
60
  0
ENDTAB
  0
TABLE
  2
BLOCK_RECORD
  5
1
330
0
100
AcDbSymbolTable
 70
    26
  0
BLOCK_RECORD
  5
A
330
1
100
AcDbSymbolTableRecord
100
AcDbBlockTableRecord
  2
*MODEL_SPACE
340
20
 70
     0
280
     1
281
     0
  0
BLOCK_RECORD
  5
B
330
1
100
AcDbSymbolTableRecord
100
AcDbBlockTableRecord
  2
*PAPER_SPACE
340
21
 70
     0
280
     1
281
     0
  0
BLOCK_RECORD
  5
57
330
1
100
AcDbSymbolTableRecord
100
AcDbBlockTableRecord
  2
_DOT
340
0
 70
     0
280
     1
281
     0
  0
BLOCK_RECORD
  5
60
330
1
100
AcDbSymbolTableRecord
100
AcDbBlockTableRecord
  2
VW_SLASH
340
0
 70
     0
280
     1
281
     0
  0
BLOCK_RECORD
  5
65
330
1
100
AcDbSymbolTableRecord
100
AcDbBlockTableRecord
  2
VW_FILLEDARROW
340
0
 70
     0
280
     1
281
     0
  0
BLOCK_RECORD
  5
23
330
1
100
AcDbSymbolTableRecord
100
AcDbBlockTableRecord
  2
グループ
340
0
102
{BLKREFS
331
19C
102
}
 70
     0
280
     1
281
     0
  0
BLOCK_RECORD
  5
24
330
1
100
AcDbSymbolTableRecord
100
AcDbBlockTableRecord
  2
*D4
340
0
 70
     0
280
     1
281
     0
  0
BLOCK_RECORD
  5
25
330
1
100
AcDbSymbolTableRecord
100
AcDbBlockTableRecord
  2
*D5
340
0
 70
     0
280
     1
281
     0
  0
BLOCK_RECORD
  5
26
330
1
100
AcDbSymbolTableRecord
100
AcDbBlockTableRecord
  2
*D6
340
0
 70
     0
280
     1
281
     0
  0
BLOCK_RECORD
  5
27
330
1
100
AcDbSymbolTableRecord
100
AcDbBlockTableRecord
  2
*D7
340
0
 70
     0
280
     1
281
     0
  0
BLOCK_RECORD
  5
28
330
1
100
AcDbSymbolTableRecord
100
AcDbBlockTableRecord
  2
*D8
340
0
 70
     0
280
     1
281
     0
  0
BLOCK_RECORD
  5
29
330
1
100
AcDbSymbolTableRecord
100
AcDbBlockTableRecord
  2
*D9
340
0
 70
     0
280
     1
281
     0
  0
BLOCK_RECORD
  5
2A
330
1
100
AcDbSymbolTableRecord
100
AcDbBlockTableRecord
  2
*D10
340
0
 70
     0
280
     1
281
     0
  0
BLOCK_RECORD
  5
2B
330
1
100
AcDbSymbolTableRecord
100
AcDbBlockTableRecord
  2
*D11
340
0
 70
     0
280
     1
281
     0
  0
BLOCK_RECORD
  5
2C
330
1
100
AcDbSymbolTableRecord
100
AcDbBlockTableRecord
  2
*D12
340
0
 70
     0
280
     1
281
     0
  0
BLOCK_RECORD
  5
2D
330
1
100
AcDbSymbolTableRecord
100
AcDbBlockTableRecord
  2
*D13
340
0
 70
     0
280
     1
281
     0
  0
BLOCK_RECORD
  5
2E
330
1
100
AcDbSymbolTableRecord
100
AcDbBlockTableRecord
  2
*D14
340
0
 70
     0
280
     1
281
     0
  0
BLOCK_RECORD
  5
2F
330
1
100
AcDbSymbolTableRecord
100
AcDbBlockTableRecord
  2
*D15
340
0
 70
     0
280
     1
281
     0
  0
BLOCK_RECORD
  5
30
330
1
100
AcDbSymbolTableRecord
100
AcDbBlockTableRecord
  2
*D16
340
0
 70
     0
280
     1
281
     0
  0
BLOCK_RECORD
  5
31
330
1
100
AcDbSymbolTableRecord
100
AcDbBlockTableRecord
  2
*D17
340
0
 70
     0
280
     1
281
     0
  0
BLOCK_RECORD
  5
32
330
1
100
AcDbSymbolTableRecord
100
AcDbBlockTableRecord
  2
*D18
340
0
 70
     0
280
     1
281
     0
  0
BLOCK_RECORD
  5
33
330
1
100
AcDbSymbolTableRecord
100
AcDbBlockTableRecord
  2
*D19
340
0
 70
     0
280
     1
281
     0
  0
BLOCK_RECORD
  5
34
330
1
100
AcDbSymbolTableRecord
100
AcDbBlockTableRecord
  2
*D20
340
0
 70
     0
280
     1
281
     0
  0
BLOCK_RECORD
  5
35
330
1
100
AcDbSymbolTableRecord
100
AcDbBlockTableRecord
  2
*D21
340
0
 70
     0
280
     1
281
     0
  0
BLOCK_RECORD
  5
36
330
1
100
AcDbSymbolTableRecord
100
AcDbBlockTableRecord
  2
*D22
340
0
 70
     0
280
     1
281
     0
  0
BLOCK_RECORD
  5
37
330
1
100
AcDbSymbolTableRecord
100
AcDbBlockTableRecord
  2
*D23
340
0
 70
     0
280
     1
281
     0
  0
BLOCK_RECORD
  5
38
330
1
100
AcDbSymbolTableRecord
100
AcDbBlockTableRecord
  2
*D24
340
0
 70
     0
280
     1
281
     0
  0
BLOCK_RECORD
  5
39
330
1
100
AcDbSymbolTableRecord
100
AcDbBlockTableRecord
  2
*D25
340
0
 70
     0
280
     1
281
     0
  0
ENDTAB
  0
ENDSEC
  0
SECTION
  2
BLOCKS
  0
BLOCK
  5
D
330
A
100
AcDbEntity
  8
0
390
1D
100
AcDbBlockBegin
  2
*MODEL_SPACE
 70
     0
 10
0.0
 20
0.0
 30
0.0
  3
*MODEL_SPACE
  1
*MODEL_SPACE
  0
ENDBLK
  5
E
330
A
100
AcDbEntity
  8
0
390
1D
100
AcDbBlockEnd
  0
BLOCK
  5
F
330
B
100
AcDbEntity
 67
     1
  8
0
390
1D
100
AcDbBlockBegin
  2
*PAPER_SPACE
 70
     0
 10
0.0
 20
0.0
 30
0.0
  3
*PAPER_SPACE
  1
*PAPER_SPACE
  0
ENDBLK
  5
10
330
B
100
AcDbEntity
 67
     1
  8
0
390
1D
100
AcDbBlockEnd
  0
BLOCK
  5
58
330
57
100
AcDbEntity
  8
0
390
1D
100
AcDbBlockBegin
  2
_DOT
 70
     0
 10
0.0
 20
0.0
 30
0.0
  3
_DOT
  1
_DOT
  0
POLYLINE
  5
59
330
57
100
AcDbEntity
  8
0
  6
ByBlock
 62
     0
370
    -2
390
1D
100
AcDb2dPolyline
 66
     1
 10
0.0
 20
0.0
 30
0.0
 70
     1
 40
0.5
 41
0.5
  0
VERTEX
  5
5A
330
59
100
AcDbEntity
  8
0
  6
ByBlock
 62
     0
370
    -2
390
1D
100
AcDbVertex
100
AcDb2dVertex
 10
-0.25
 20
0.0
 30
0.0
 42
1.0
  0
VERTEX
  5
5B
330
59
100
AcDbEntity
  8
0
  6
ByBlock
 62
     0
370
    -2
390
1D
100
AcDbVertex
100
AcDb2dVertex
 10
0.25
 20
0.0
 30
0.0
 42
1.0
  0
SEQEND
  5
5C
330
59
100
AcDbEntity
  8
0
390
1D
  0
LINE
  5
5D
330
57
100
AcDbEntity
  8
0
  6
ByBlock
 62
     0
370
    -2
390
1D
100
AcDbLine
 10
-0.5
 20
0.0
 30
0.0
 11
-1.0
 21
0.0
 31
0.0
  0
ENDBLK
  5
5E
330
57
100
AcDbEntity
  8
0
390
1D
100
AcDbBlockEnd
  0
BLOCK
  5
61
330
60
100
AcDbEntity
  8
0
  6
ByBlock
 62
     0
370
    -2
390
1D
100
AcDbBlockBegin
  2
VW_SLASH
 70
     0
 10
0.0
 20
0.0
 30
0.0
  3
VW_SLASH
  1
VW_SLASH
  0
LINE
  5
62
330
60
100
AcDbEntity
  8
0
  6
ByBlock
 62
     0
370
    -2
390
1D
100
AcDbLine
 10
0.0
 20
0.0
 30
0.0
 11
-1.0
 21
0.0
 31
0.0
  0
LINE
  5
63
330
60
100
AcDbEntity
  8
0
  6
ByBlock
 62
     0
370
    20
390
1D
100
AcDbLine
 10
-0.4987813153181721
 20
-0.4987813153181719
 30
0.0
 11
0.4987813153181721
 21
0.4987813153181719
 31
0.0
  0
ENDBLK
  5
64
330
60
100
AcDbEntity
  8
0
390
1D
100
AcDbBlockEnd
  0
BLOCK
  5
66
330
65
100
AcDbEntity
  8
0
  6
ByBlock
 62
     0
370
    -2
390
1D
100
AcDbBlockBegin
  2
VW_FILLEDARROW
 70
     0
 10
0.0
 20
0.0
 30
0.0
  3
VW_FILLEDARROW
  1
VW_FILLEDARROW
  0
SOLID
  5
67
330
65
100
AcDbEntity
  8
0
 62
     0
370
    -2
390
1D
100
AcDbTrace
 10
0.0
 20
0.0
 30
0.0
 11
-1.4107666015625
 21
-0.3780137715974714
 31
0.0
 12
-1.4107666015625
 22
0.3780137715974717
 32
0.0
 13
-1.4107666015625
 23
0.3780137715974717
 33
0.0
  0
ENDBLK
  5
68
330
65
100
AcDbEntity
  8
0
390
1D
100
AcDbBlockEnd
  0
BLOCK
  5
6A
330
23
100
AcDbEntity
  8
template
390
1D
100
AcDbBlockBegin
  2
グループ
 70
     0
 10
0.0
 20
0.0
 30
0.0
  3
グループ
  1
グループ
  0
LWPOLYLINE
  5
6B
330
23
100
AcDbEntity
  8
0
  6
Continuous
 62
     7
370
    15
390
1D
100
AcDbPolyline
 90
        8
 70
   129
 43
0.0
 10
151.4477846100407
 20
-1380.507359941107
 10
151.4477846100407
 20
-1386.504748634683
 10
141.9465876920374
 20
-1386.504748634683
 10
141.9465876920374
 20
-1410.955711898192
 10
133.5912104302546
 20
-1410.955711898192
 10
133.5912104302546
 20
-1386.504748634683
 10
124.2582534839452
 20
-1386.504748634683
 10
124.2582534839452
 20
-1380.507359941107
  0
LWPOLYLINE
  5
6C
330
23
100
AcDbEntity
  8
0
  6
Continuous
 62
     7
370
    15
390
1D
100
AcDbPolyline
 90
      101
 70
   128
 43
0.0
 10
164.1760764405976
 20
-1381.235608434044
 10
164.1914264693856
 20
-1381.231247677358
 42
-0.0222221607812693
 10
164.4814310460537
 20
-1381.162623212114
 10
164.4972248100404
 20
-1381.159619789018
 42
-0.0146883565592173
 10
164.7599275152715
 20
-1381.117616602068
 42
-0.0127458844184993
 10
165.0245664824252
 20
-1381.090079633995
 10
165.0870215607373
 20
-1381.085186211407
 42
-0.0198099018564164
 10
165.4778706702139
 20
-1381.07010105401
 10
165.529682139658
 20
-1381.070154829675
 42
-0.0147617382760348
 10
166.0243056006346
 20
-1381.08527485492
 10
166.0969970555113
 20
-1381.089647461808
 42
-0.01626245490029
 10
166.4871506849717
 20
-1381.12588033708
 10
166.6086830762256
 20
-1381.141166896076
 42
-0.0080020874671254
 10
166.7542621073224
 20
-1381.161849743345
 10
166.7925815779153
 20
-1381.167921021156
 42
-0.0053821929683436
 10
166.8610656832323
 20
-1381.179528544978
 10
166.1346599840336
 20
-1383.360457000692
 42
0.0108667757397244
 10
166.0673429138983
 20
-1383.347269885471
 10
166.0298748907133
 20
-1383.340772142877
 42
0.0170663203306274
 10
165.8866581037978
 20
-1383.320942545585
 10
165.8187827711148
 20
-1383.313895374998
 42
0.0220162375274093
 10
165.5384033632607
 20
-1383.297213014228
 10
165.4605477962065
 20
-1383.296013646961
 42
0.0282606915788223
 10
165.1249114726295
 20
-1383.309816923931
 10
165.0809981988557
 20
-1383.314116913934
 42
0.0169677213688417
 10
164.8350737038982
 20
-1383.346653963486
 42
0.0190576269863154
 10
164.5921657413166
 20
-1383.396800835593
 10
164.5859065532073
 20
-1383.398343809702
 42
0.0213685642848592
 10
164.3355220687275
 20
-1383.471544094807
 10
164.3300321738134
 20
-1383.473407090866
 42
0.0237595297598698
 10
164.0765372889141
 20
-1383.573091612762
 10
164.071435214885
 20
-1383.57538338824
 42
0.0261857468816808
 10
163.8192644386558
 20
-1383.704919725614
 10
163.8088382495679
 20
-1383.710985200082
 42
0.0272553062019134
 10
163.5724084743296
 20
-1383.866357406027
 10
163.5376454608198
 20
-1383.892018554119
 42
0.0325996893176621
 10
163.3874901171686
 20
-1384.01876642709
 10
163.3637806880431
 20
-1384.041584455605
 42
0.0138050960632389
 10
163.2718975318354
 20
-1384.135034117155
 42
0.0125280103800836
 10
163.185054999002
 20
-1384.233197443755
 10
163.1613745540935
 20
-1384.261355941942
 42
0.0205218024741109
 10
163.0362744785794
 20
-1384.423149256172
 10
163.0138081380927
 20
-1384.454808985998
 42
0.0163110129584388
 10
162.858097758842
 20
-1384.690139421067
 10
162.8553738627904
 20
-1384.694563183054
 42
0.0131897341894924
 10
162.7085733418845
 20
-1384.947695275418
 10
162.7068732465181
 20
-1384.950813514554
 42
0.010789557606527
 10
162.5690965443075
 20
-1385.217028724188
 10
162.5683636547822
 20
-1385.218522956835
 42
0.0091371507217181
 10
162.4398837061323
 20
-1385.493048154596
 10
162.4101380747235
 20
-1385.559754661754
 42
0.0135418326350734
 10
162.2384241356511
 20
-1385.974692447024
 10
162.2048193272173
 20
-1386.062558589304
 42
0.0092834542411036
 10
162.0335902672967
 20
-1386.536457087609
 10
162.0079731395781
 20
-1386.611698157405
 42
0.005426104358419
 10
161.9003349912861
 20
-1386.939462130468
 10
161.8828090050893
 20
-1386.994850292759
 42
0.0008225090822498
 10
161.8141389532786
 20
-1387.213119050847
 10
160.8294498213452
 20
-1390.238010344103
 10
164.062073661419
 20
-1390.238010344103
 10
163.5578812315656
 20
-1392.142488642456
 10
160.3018249495823
 20
-1392.142488642456
 10
154.4726759172285
 20
-1410.955711708461
 10
152.6475783069181
 20
-1410.955711708461
 10
158.4822563424191
 20
-1392.142488642456
 10
156.0771399733787
 20
-1392.142488642456
 10
156.5813324032322
 20
-1390.238010344103
 10
159.0098812141822
 20
-1390.238010344103
 10
159.8700361323708
 20
-1387.601597343405
 42
-0.000586356063547
 10
159.906770810557
 20
-1387.484770923168
 10
159.9828586442347
 20
-1387.243778623727
 42
-0.0087522378928636
 10
160.1823267876915
 20
-1386.648502536581
 10
160.2745910631052
 20
-1386.388362368067
 42
-0.0077400953831083
 10
160.5325247222362
 20
-1385.69535769052
 10
160.5482896938151
 20
-1385.654926807134
 42
-0.0082369946330905
 10
160.795374164427
 20
-1385.050847740938
 42
-0.0085725238365177
 10
161.0626202604304
 20
-1384.45542170165
 10
161.1642498614377
 20
-1384.239000599665
 42
-0.0168109410596123
 10
161.4511942901673
 20
-1383.677793073561
 10
161.5770376806093
 20
-1383.450829040594
 42
-0.0007817726866281
 10
161.631322030683
 20
-1383.353284795533
 10
161.6314503367001
 20
-1383.353055086797
 42
-0.0036626142158241
 10
161.6863382007215
 20
-1383.256457206828
 42
-0.008022115067338
 10
161.7434624561291
 20
-1383.161177972074
 10
161.7741624074894
 20
-1383.111787022953
 42
-0.0202139325571471
 10
161.9018181472956
 20
-1382.923805422272
 10
161.9558856124837
 20
-1382.850726558031
 42
-0.024932379180035
 10
162.215048406203
 20
-1382.534681315876
 10
162.2391882203299
 20
-1382.508067042964
 42
-0.0242132121542819
 10
162.5788689618701
 20
-1382.168183556762
 10
162.6267805346225
 20
-1382.124674420574
 42
-0.0251017527858083
 10
162.9107622352632
 20
-1381.891681674809
 10
162.9122077120758
 20
-1381.890612417231
 42
-0.0130868069036645
 10
163.2104683620343
 20
-1381.681831948687
 10
163.2120301811781
 20
-1381.680798508412
 42
-0.0290329526386566
 10
163.5231413225703
 20
-1381.499973006783
 10
163.5529868845593
 20
-1381.484870623942
 42
-0.0160250190044823
 10
163.818891298321
 20
-1381.36085451373
 42
-0.0267600374786951
 10
164.0941673757879
 20
-1381.260106193182
 10
164.1209032953107
 20
-1381.251913634356
 42
-0.0049981587669887
 10
164.1760764405976
 20
-1381.235608434044
 42
-0.0049981587669887
  0
LWPOLYLINE
  5
6D
330
23
100
AcDbEntity
  8
0
  6
Continuous
 62
     7
370
    15
390
1D
100
AcDbPolyline
 90
      118
 70
   128
 43
0.0
 10
183.9904440050445
 20
-1390.311993671931
 10
185.865565929544
 20
-1390.311993671931
 10
185.0275270239441
 20
-1392.993560198331
 42
-0.0010587229219746
 10
185.0589828395178
 20
-1392.956655664973
 10
185.117176930148
 20
-1392.8886734088
 42
-0.0071874740407571
 10
185.2675521482478
 20
-1392.718032716769
 10
185.4092749215083
 20
-1392.561796575458
 42
-0.0148118053513507
 10
185.8594042142207
 20
-1392.094182729445
 10
185.9466265491198
 20
-1392.008785408594
 42
-0.0086273358695839
 10
186.2821753501312
 20
-1391.691409774575
 10
186.326009066356
 20
-1391.651360130243
 42
-0.0103138323117193
 10
186.5840327685906
 20
-1391.425196992903
 10
186.6298071749283
 20
-1391.386714945634
 42
-0.0060206748565807
 10
186.8026552390299
 20
-1391.244920294889
 10
186.8046863699211
 20
-1391.243294589253
 42
-0.0067069027293562
 10
186.9769791845784
 20
-1391.109143955463
 10
186.9795279505068
 20
-1391.107213785585
 42
-0.0076184352052021
 10
187.1504332163757
 20
-1390.981838910343
 42
-0.0089652861677316
 10
187.3253941791088
 20
-1390.862205650012
 10
187.3617458992545
 20
-1390.838294436528
 42
-0.0156916245937518
 10
187.5577053964153
 20
-1390.718031950054
 42
-0.002329901106457
 10
187.7579674403972
 20
-1390.604854010511
 10
187.773351572775
 20
-1390.596254015448
 42
-0.0107669341487193
 10
188.007588397877
 20
-1390.471853882098
 10
188.0298531989512
 20
-1390.460637132148
 42
-0.0078058045899491
 10
188.3134433168983
 20
-1390.323275676513
 10
188.3233504046131
 20
-1390.318666548641
 42
-0.0181829330471991
 10
188.6336598092281
 20
-1390.187802807546
 10
188.6877152517943
 20
-1390.167287687603
 42
-0.0208411536031672
 10
189.0368002192457
 20
-1390.051197225109
 10
189.0511563193753
 20
-1390.047078780155
 42
-0.0222799817139168
 10
189.3798761132904
 20
-1389.968437214015
 10
189.3887650765248
 20
-1389.966725203431
 42
-0.0215509523887032
 10
189.7052360448072
 20
-1389.919809514896
 10
189.7477180058526
 20
-1389.915371988105
 42
-0.0182545924871562
 10
189.9818267851614
 20
-1389.899528162714
 10
190.0212278015134
 20
-1389.898303617635
 42
-0.0072962856530091
 10
190.1771506811984
 20
-1389.895734289113
 10
190.206250351772
 20
-1389.895679453709
 42
-0.005922751632014
 10
190.3039998509154
 20
-1389.8966531655
 10
190.3332420684162
 20
-1389.897290932103
 42
-0.00118331119042
 10
190.3724933521197
 20
-1389.898239936413
 10
189.5771067565125
 20
-1392.436973881512
 42
0.0143932051592556
 10
189.5507053741609
 20
-1392.426774911466
 10
189.5434334017447
 20
-1392.424203692609
 42
0.0234388603513236
 10
189.5016025358134
 20
-1392.411584456894
 10
189.4929208728998
 20
-1392.409403494889
 42
0.0199162742991374
 10
189.4326320388165
 20
-1392.396786759553
 10
189.4118181010136
 20
-1392.393289560125
 42
0.0293643550664495
 10
189.308743242256
 20
-1392.382139514472
 10
189.2840580615342
 20
-1392.380927897454
 42
0.0214606686862904
 10
189.1309171455807
 20
-1392.379989337036
 10
189.1215452347637
 20
-1392.38033424858
 42
0.0167564054181111
 10
188.9500250436498
 20
-1392.392411290949
 10
188.9415652508963
 20
-1392.393292631376
 42
0.0137677553243318
 10
188.754211937631
 20
-1392.418041939919
 10
188.7468601981238
 20
-1392.419219859887
 42
0.0118497261481732
 10
188.5463624340261
 20
-1392.456237210075
 10
188.5402124267752
 20
-1392.457524072796
 42
0.0106421143895608
 10
188.3293315394792
 20
-1392.506356448374
 10
188.3244227311011
 20
-1392.507603791056
 42
0.0099746379701443
 10
188.1059642619431
 20
-1392.56777831937
 10
188.0444162217684
 20
-1392.586060198002
 42
0.0191613675860606
 10
187.7084317592496
 20
-1392.70003757829
 10
187.6203719865098
 20
-1392.733724488612
 42
0.0205274080142442
 10
187.2350652146067
 20
-1392.899552896439
 10
187.1774159326234
 20
-1392.927220861012
 42
0.018125691219501
 10
186.9191389919577
 20
-1393.06290467999
 10
186.8661836086422
 20
-1393.093222293205
 42
0.0140709242416267
 10
186.7212286740153
 20
-1393.181716966639
 10
186.6949798053999
 20
-1393.198773785352
 42
0.0086667884399359
 10
186.6060536438543
 20
-1393.258776453237
 42
0.0036408192023113
 10
186.5186204058078
 20
-1393.320957311038
 10
186.4833935313523
 20
-1393.346398256942
 42
0.0052260781278616
 10
186.3271648339624
 20
-1393.461730643575
 10
186.3109579777017
 20
-1393.473958754194
 42
0.0050024435891671
 10
186.1249546346573
 20
-1393.617241322445
 10
186.1096364781276
 20
-1393.629287344902
 42
0.0136138710278846
 10
185.8991952098021
 20
-1393.804253849816
 10
185.8655273340087
 20
-1393.83383282253
 42
0.0172815186913652
 10
185.6011237923496
 20
-1394.08282949515
 10
185.5985614465037
 20
-1394.0854153123
 42
0.018940385799147
 10
185.3479796479253
 20
-1394.358220577104
 10
185.3153481543883
 20
-1394.396564508602
 42
0.0185044199503774
 10
185.1233917154085
 20
-1394.639813089725
 42
0.008856524390055
 10
184.9449316087777
 20
-1394.893329509878
 10
184.9357536291316
 20
-1394.906870889635
 42
0.0157195347231293
 10
184.7525330227966
 20
-1395.196393098952
 10
184.7064500808683
 20
-1395.274545295968
 42
0.0095451879776201
 10
184.541364530729
 20
-1395.567139938328
 10
184.5302166117983
 20
-1395.587810610462
 42
0.0100351706252401
 10
184.39817286264
 20
-1395.844866170951
 42
0.0086935915420902
 10
184.2758417108453
 20
-1396.106699316357
 10
184.2725209694315
 20
-1396.114141639327
 42
0.007258017486664
 10
184.1521745174861
 20
-1396.394733630911
 10
184.1489128841802
 20
-1396.402653656928
 42
0.0060005122616241
 10
184.0297122158348
 20
-1396.70226332754
 10
184.0265012374959
 20
-1396.710624855438
 42
0.0049017786977652
 10
183.9076010786384
 20
-1397.029553836042
 10
183.9044352722481
 20
-1397.038306773272
 42
0.0039415167601103
 10
183.7849989941905
 20
-1397.376848835688
 10
183.7818678915392
 20
-1397.385952036562
 42
0.0031035838760828
 10
183.6610631058503
 20
-1397.744391898323
 10
183.6579530613158
 20
-1397.75381251971
 42
0.0025070747151684
 10
183.5350517100065
 20
-1398.132459736635
 10
183.497757813575
 20
-1398.249351401907
 42
0.0029081910284429
 10
183.3057395157586
 20
-1398.863515060217
 10
183.2649363472472
 20
-1398.996738302475
 42
0.000926645373234
 10
182.9965189729335
 20
-1399.878962762395
 10
182.9756315002842
 20
-1399.948074641659
 42
-0.0005809993666188
 10
182.6982948197007
 20
-1400.861882748273
 10
182.632013021426
 20
-1401.079367680438
 42
-0.0012018708170226
 10
182.4850287119985
 20
-1401.557530344953
 10
182.4327088604304
 20
-1401.726289485827
 42
-0.0002691059596079
 10
182.3891393792644
 20
-1401.866557106161
 10
179.5561834809752
 20
-1410.955711708461
 10
177.7381945889966
 20
-1410.955711708461
 10
183.9904440050445
 20
-1390.311993671931
  0
SPLINE
  5
6E
330
23
100
AcDbEntity
  8
0
  6
Continuous
 62
     7
370
    15
390
1D
100
AcDbSpline
210
0.0
220
0.0
230
1.0
 70
    15
 71
     2
 72
   782
 73
   779
 74
     0
 42
0.000000001
 43
0.000001
 40
0.0
 40
0.0
 40
0.0
 40
1.0
 40
1.0
 40
2.0
 40
2.0
 40
3.0
 40
3.0
 40
4.0
 40
4.0
 40
5.0
 40
5.0
 40
6.0
 40
6.0
 40
7.0
 40
7.0
 40
8.0
 40
8.0
 40
9.0
 40
9.0
 40
10.0
 40
10.0
 40
11.0
 40
11.0
 40
12.0
 40
12.0
 40
13.0
 40
13.0
 40
14.0
 40
14.0
 40
15.0
 40
15.0
 40
16.0
 40
16.0
 40
17.0
 40
17.0
 40
18.0
 40
18.0
 40
19.0
 40
19.0
 40
20.0
 40
20.0
 40
21.0
 40
21.0
 40
22.0
 40
22.0
 40
23.0
 40
23.0
 40
24.0
 40
24.0
 40
25.0
 40
25.0
 40
26.0
 40
26.0
 40
27.0
 40
27.0
 40
28.0
 40
28.0
 40
29.0
 40
29.0
 40
30.0
 40
30.0
 40
31.0
 40
31.0
 40
32.0
 40
32.0
 40
33.0
 40
33.0
 40
34.0
 40
34.0
 40
35.0
 40
35.0
 40
36.0
 40
36.0
 40
37.0
 40
37.0
 40
38.0
 40
38.0
 40
39.0
 40
39.0
 40
40.0
 40
40.0
 40
41.0
 40
41.0
 40
42.0
 40
42.0
 40
43.0
 40
43.0
 40
44.0
 40
44.0
 40
45.0
 40
45.0
 40
46.0
 40
46.0
 40
47.0
 40
47.0
 40
48.0
 40
48.0
 40
49.0
 40
49.0
 40
50.0
 40
50.0
 40
51.0
 40
51.0
 40
52.0
 40
52.0
 40
53.0
 40
53.0
 40
54.0
 40
54.0
 40
55.0
 40
55.0
 40
56.0
 40
56.0
 40
57.0
 40
57.0
 40
58.0
 40
58.0
 40
59.0
 40
59.0
 40
60.0
 40
60.0
 40
61.0
 40
61.0
 40
62.0
 40
62.0
 40
63.0
 40
63.0
 40
64.0
 40
64.0
 40
65.0
 40
65.0
 40
66.0
 40
66.0
 40
67.0
 40
67.0
 40
68.0
 40
68.0
 40
69.0
 40
69.0
 40
70.0
 40
70.0
 40
71.0
 40
71.0
 40
72.0
 40
72.0
 40
73.0
 40
73.0
 40
74.0
 40
74.0
 40
75.0
 40
75.0
 40
76.0
 40
76.0
 40
77.0
 40
77.0
 40
78.0
 40
78.0
 40
79.0
 40
79.0
 40
80.0
 40
80.0
 40
81.0
 40
81.0
 40
82.0
 40
82.0
 40
83.0
 40
83.0
 40
84.0
 40
84.0
 40
85.0
 40
85.0
 40
86.0
 40
86.0
 40
87.0
 40
87.0
 40
88.0
 40
88.0
 40
89.0
 40
89.0
 40
90.0
 40
90.0
 40
91.0
 40
91.0
 40
92.0
 40
92.0
 40
93.0
 40
93.0
 40
94.0
 40
94.0
 40
95.0
 40
95.0
 40
96.0
 40
96.0
 40
97.0
 40
97.0
 40
98.0
 40
98.0
 40
99.0
 40
99.0
 40
100.0
 40
100.0
 40
101.0
 40
101.0
 40
102.0
 40
102.0
 40
103.0
 40
103.0
 40
104.0
 40
104.0
 40
105.0
 40
105.0
 40
106.0
 40
106.0
 40
107.0
 40
107.0
 40
108.0
 40
108.0
 40
109.0
 40
109.0
 40
110.0
 40
110.0
 40
111.0
 40
111.0
 40
112.0
 40
112.0
 40
113.0
 40
113.0
 40
114.0
 40
114.0
 40
115.0
 40
115.0
 40
116.0
 40
116.0
 40
117.0
 40
117.0
 40
118.0
 40
118.0
 40
119.0
 40
119.0
 40
120.0
 40
120.0
 40
121.0
 40
121.0
 40
122.0
 40
122.0
 40
123.0
 40
123.0
 40
124.0
 40
124.0
 40
125.0
 40
125.0
 40
126.0
 40
126.0
 40
127.0
 40
127.0
 40
128.0
 40
128.0
 40
129.0
 40
129.0
 40
130.0
 40
130.0
 40
131.0
 40
131.0
 40
132.0
 40
132.0
 40
133.0
 40
133.0
 40
134.0
 40
134.0
 40
135.0
 40
135.0
 40
136.0
 40
136.0
 40
137.0
 40
137.0
 40
138.0
 40
138.0
 40
139.0
 40
139.0
 40
140.0
 40
140.0
 40
141.0
 40
141.0
 40
142.0
 40
142.0
 40
143.0
 40
143.0
 40
144.0
 40
144.0
 40
145.0
 40
145.0
 40
146.0
 40
146.0
 40
147.0
 40
147.0
 40
148.0
 40
148.0
 40
149.0
 40
149.0
 40
150.0
 40
150.0
 40
151.0
 40
151.0
 40
152.0
 40
152.0
 40
153.0
 40
153.0
 40
154.0
 40
154.0
 40
155.0
 40
155.0
 40
156.0
 40
156.0
 40
157.0
 40
157.0
 40
158.0
 40
158.0
 40
159.0
 40
159.0
 40
160.0
 40
160.0
 40
161.0
 40
161.0
 40
162.0
 40
162.0
 40
163.0
 40
163.0
 40
164.0
 40
164.0
 40
165.0
 40
165.0
 40
166.0
 40
166.0
 40
167.0
 40
167.0
 40
168.0
 40
168.0
 40
169.0
 40
169.0
 40
170.0
 40
170.0
 40
171.0
 40
171.0
 40
172.0
 40
172.0
 40
173.0
 40
173.0
 40
174.0
 40
174.0
 40
175.0
 40
175.0
 40
176.0
 40
176.0
 40
177.0
 40
177.0
 40
178.0
 40
178.0
 40
179.0
 40
179.0
 40
180.0
 40
180.0
 40
181.0
 40
181.0
 40
182.0
 40
182.0
 40
183.0
 40
183.0
 40
184.0
 40
184.0
 40
185.0
 40
185.0
 40
186.0
 40
186.0
 40
187.0
 40
187.0
 40
188.0
 40
188.0
 40
189.0
 40
189.0
 40
190.0
 40
190.0
 40
191.0
 40
191.0
 40
192.0
 40
192.0
 40
193.0
 40
193.0
 40
194.0
 40
194.0
 40
195.0
 40
195.0
 40
196.0
 40
196.0
 40
197.0
 40
197.0
 40
198.0
 40
198.0
 40
199.0
 40
199.0
 40
200.0
 40
200.0
 40
201.0
 40
201.0
 40
202.0
 40
202.0
 40
203.0
 40
203.0
 40
204.0
 40
204.0
 40
205.0
 40
205.0
 40
206.0
 40
206.0
 40
207.0
 40
207.0
 40
208.0
 40
208.0
 40
209.0
 40
209.0
 40
210.0
 40
210.0
 40
211.0
 40
211.0
 40
212.0
 40
212.0
 40
213.0
 40
213.0
 40
214.0
 40
214.0
 40
215.0
 40
215.0
 40
216.0
 40
216.0
 40
217.0
 40
217.0
 40
218.0
 40
218.0
 40
219.0
 40
219.0
 40
220.0
 40
220.0
 40
221.0
 40
221.0
 40
222.0
 40
222.0
 40
223.0
 40
223.0
 40
224.0
 40
224.0
 40
225.0
 40
225.0
 40
226.0
 40
226.0
 40
227.0
 40
227.0
 40
228.0
 40
228.0
 40
229.0
 40
229.0
 40
230.0
 40
230.0
 40
231.0
 40
231.0
 40
232.0
 40
232.0
 40
233.0
 40
233.0
 40
234.0
 40
234.0
 40
235.0
 40
235.0
 40
236.0
 40
236.0
 40
237.0
 40
237.0
 40
238.0
 40
238.0
 40
239.0
 40
239.0
 40
240.0
 40
240.0
 40
241.0
 40
241.0
 40
242.0
 40
242.0
 40
243.0
 40
243.0
 40
244.0
 40
244.0
 40
245.0
 40
245.0
 40
246.0
 40
246.0
 40
247.0
 40
247.0
 40
248.0
 40
248.0
 40
249.0
 40
249.0
 40
250.0
 40
250.0
 40
251.0
 40
251.0
 40
252.0
 40
252.0
 40
253.0
 40
253.0
 40
254.0
 40
254.0
 40
255.0
 40
255.0
 40
256.0
 40
256.0
 40
257.0
 40
257.0
 40
258.0
 40
258.0
 40
259.0
 40
259.0
 40
260.0
 40
260.0
 40
261.0
 40
261.0
 40
262.0
 40
262.0
 40
263.0
 40
263.0
 40
264.0
 40
264.0
 40
265.0
 40
265.0
 40
266.0
 40
266.0
 40
267.0
 40
267.0
 40
268.0
 40
268.0
 40
269.0
 40
269.0
 40
270.0
 40
270.0
 40
271.0
 40
271.0
 40
272.0
 40
272.0
 40
273.0
 40
273.0
 40
274.0
 40
274.0
 40
275.0
 40
275.0
 40
276.0
 40
276.0
 40
277.0
 40
277.0
 40
278.0
 40
278.0
 40
279.0
 40
279.0
 40
280.0
 40
280.0
 40
281.0
 40
281.0
 40
282.0
 40
282.0
 40
283.0
 40
283.0
 40
284.0
 40
284.0
 40
285.0
 40
285.0
 40
286.0
 40
286.0
 40
287.0
 40
287.0
 40
288.0
 40
288.0
 40
289.0
 40
289.0
 40
290.0
 40
290.0
 40
291.0
 40
291.0
 40
292.0
 40
292.0
 40
293.0
 40
293.0
 40
294.0
 40
294.0
 40
295.0
 40
295.0
 40
296.0
 40
296.0
 40
297.0
 40
297.0
 40
298.0
 40
298.0
 40
299.0
 40
299.0
 40
300.0
 40
300.0
 40
301.0
 40
301.0
 40
302.0
 40
302.0
 40
303.0
 40
303.0
 40
304.0
 40
304.0
 40
305.0
 40
305.0
 40
306.0
 40
306.0
 40
307.0
 40
307.0
 40
308.0
 40
308.0
 40
309.0
 40
309.0
 40
310.0
 40
310.0
 40
311.0
 40
311.0
 40
312.0
 40
312.0
 40
313.0
 40
313.0
 40
314.0
 40
314.0
 40
315.0
 40
315.0
 40
316.0
 40
316.0
 40
317.0
 40
317.0
 40
318.0
 40
318.0
 40
319.0
 40
319.0
 40
320.0
 40
320.0
 40
321.0
 40
321.0
 40
322.0
 40
322.0
 40
323.0
 40
323.0
 40
324.0
 40
324.0
 40
325.0
 40
325.0
 40
326.0
 40
326.0
 40
327.0
 40
327.0
 40
328.0
 40
328.0
 40
329.0
 40
329.0
 40
330.0
 40
330.0
 40
331.0
 40
331.0
 40
332.0
 40
332.0
 40
333.0
 40
333.0
 40
334.0
 40
334.0
 40
335.0
 40
335.0
 40
336.0
 40
336.0
 40
337.0
 40
337.0
 40
338.0
 40
338.0
 40
339.0
 40
339.0
 40
340.0
 40
340.0
 40
341.0
 40
341.0
 40
342.0
 40
342.0
 40
343.0
 40
343.0
 40
344.0
 40
344.0
 40
345.0
 40
345.0
 40
346.0
 40
346.0
 40
347.0
 40
347.0
 40
348.0
 40
348.0
 40
349.0
 40
349.0
 40
350.0
 40
350.0
 40
351.0
 40
351.0
 40
352.0
 40
352.0
 40
353.0
 40
353.0
 40
354.0
 40
354.0
 40
355.0
 40
355.0
 40
356.0
 40
356.0
 40
357.0
 40
357.0
 40
358.0
 40
358.0
 40
359.0
 40
359.0
 40
360.0
 40
360.0
 40
361.0
 40
361.0
 40
362.0
 40
362.0
 40
363.0
 40
363.0
 40
364.0
 40
364.0
 40
365.0
 40
365.0
 40
366.0
 40
366.0
 40
367.0
 40
367.0
 40
368.0
 40
368.0
 40
369.0
 40
369.0
 40
370.0
 40
370.0
 40
371.0
 40
371.0
 40
372.0
 40
372.0
 40
373.0
 40
373.0
 40
374.0
 40
374.0
 40
375.0
 40
375.0
 40
376.0
 40
376.0
 40
377.0
 40
377.0
 40
378.0
 40
378.0
 40
379.0
 40
379.0
 40
380.0
 40
380.0
 40
381.0
 40
381.0
 40
382.0
 40
382.0
 40
383.0
 40
383.0
 40
384.0
 40
384.0
 40
385.0
 40
385.0
 40
386.0
 40
386.0
 40
387.0
 40
387.0
 40
388.0
 40
388.0
 40
389.0
 40
389.0
 40
389.0
 10
194.3191484557772
 20
-1390.301067308568
 30
0.0
 41
1.0
 10
195.1375725644976
 20
-1390.301067308568
 30
0.0
 41
1.0
 10
195.9559966732181
 20
-1390.301067308568
 30
0.0
 41
1.0
 10
195.5422429377014
 20
-1391.643693572818
 30
0.0
 41
1.0
 10
195.1284892021846
 20
-1392.986319837068
 30
0.0
 41
1.0
 10
195.1468286973607
 20
-1392.957619064144
 30
0.0
 41
0.9999957264344427
 10
195.1653356941879
 20
-1392.929026013999
 30
0.0
 41
1.0
 10
195.1957650183229
 20
-1392.882013135626
 30
0.0
 41
1.0
 10
195.2261943424579
 20
-1392.835000257254
 30
0.0
 41
1.0
 10
195.3055599875642
 20
-1392.71238145035
 30
0.0
 41
0.9995394069080789
 10
195.3922183791153
 20
-1392.59480338861
 30
0.0
 41
1.0
 10
195.4279752413763
 20
-1392.546288496015
 30
0.0
 41
1.0
 10
195.4637321036373
 20
-1392.497773603419
 30
0.0
 41
1.0
 10
195.5974587714539
 20
-1392.316333328295
 30
0.0
 41
0.9994460617143305
 10
195.7429592527416
 20
-1392.144190930645
 30
0.0
 41
1.0
 10
195.7473474337168
 20
-1392.138999250263
 30
0.0
 41
1.0
 10
195.751735614692
 20
-1392.13380756988
 30
0.0
 41
1.0
 10
195.8884597340291
 20
-1391.972048532996
 30
0.0
 41
0.9994359394934244
 10
196.0357339643809
 20
-1391.819832331831
 30
0.0
 41
1.0
 10
196.038117318335
 20
-1391.817369001457
 30
0.0
 41
1.0
 10
196.0405006722891
 20
-1391.814905671083
 30
0.0
 41
1.0
 10
196.1830081947328
 20
-1391.667616130666
 30
0.0
 41
0.9995293688568134
 10
196.3342798757145
 20
-1391.529342918503
 30
0.0
 41
1.0
 10
196.3535736349773
 20
-1391.511707032852
 30
0.0
 41
1.0
 10
196.3728673942401
 20
-1391.494071147201
 30
0.0
 41
1.0
 10
196.485551556697
 20
-1391.391069706338
 30
0.0
 41
0.9997087614803931
 10
196.6030744456517
 20
-1391.293625425541
 30
0.0
 41
1.0
 10
196.6222405188243
 20
-1391.277733847035
 30
0.0
 41
1.0
 10
196.6414065919969
 20
-1391.26184226853
 30
0.0
 41
1.0
 10
196.7205973346022
 20
-1391.196181144746
 30
0.0
 41
0.999959533870003
 10
196.8009566054619
 20
-1391.131955414088
 30
0.0
 41
1.0
 10
196.8813158763198
 20
-1391.067729683431
 30
0.0
 41
0.9999749417497815
 10
196.9625764106698
 20
-1391.004648129479
 30
0.0
 41
1.0
 10
196.9835625568315
 20
-1390.988356842178
 30
0.0
 41
1.0
 10
197.0045487029932
 20
-1390.972065554877
 30
0.0
 41
1.0
 10
197.0891165882909
 20
-1390.906416545039
 30
0.0
 41
0.999979203713702
 10
197.1745241880629
 20
-1390.841863763394
 30
0.0
 41
1.0
 10
197.1953490139865
 20
-1390.826123941127
 30
0.0
 41
1.0
 10
197.21617383991
 20
-1390.81038411886
 30
0.0
 41
1.0
 10
197.2599317878539
 20
-1390.777310981734
 30
0.0
 41
0.9999993373802142
 10
197.3036134739756
 20
-1390.744137186326
 30
0.0
 41
1.0
 10
197.3472951601152
 20
-1390.710963390905
 30
0.0
 41
0.9999160953815674
 10
197.3918215710336
 20
-1390.678932325707
 30
0.0
 41
1.0
 10
197.4246434584555
 20
-1390.65532117012
 30
0.0
 41
1.0
 10
197.4574653458774
 20
-1390.631710014534
 30
0.0
 41
1.0
 10
197.5676355316367
 20
-1390.552456638166
 30
0.0
 41
0.9980964527232669
 10
197.6867245251378
 20
-1390.487369165309
 30
0.0
 41
1.0
 10
197.7237571320651
 20
-1390.467129185717
 30
0.0
 41
1.0
 10
197.7607897389923
 20
-1390.446889206124
 30
0.0
 41
1.0
 10
197.9401167522653
 20
-1390.348878955423
 30
0.0
 41
0.9984572810572906
 10
198.1292053186247
 20
-1390.271356694076
 30
0.0
 41
1.0
 10
198.1328515880215
 20
-1390.269861801738
 30
0.0
 41
1.0
 10
198.1364978574183
 20
-1390.268366909399
 30
0.0
 41
1.0
 10
198.3182938849844
 20
-1390.19383443273
 30
0.0
 41
0.9987838528034206
 10
198.5065465435428
 20
-1390.137568792564
 30
0.0
 41
1.0
 10
198.5107844927406
 20
-1390.136302138874
 30
0.0
 41
1.0
 10
198.5150224419385
 20
-1390.135035485184
 30
0.0
 41
1.0
 10
198.6947992021015
 20
-1390.081303152398
 30
0.0
 41
0.9990652816207274
 10
198.8785451338179
 20
-1390.043299472856
 30
0.0
 41
1.0
 10
198.8837335348507
 20
-1390.042226369749
 30
0.0
 41
1.0
 10
198.8889219358835
 20
-1390.041153266643
 30
0.0
 41
1.0
 10
199.0622910655353
 20
-1390.005295793314
 30
0.0
 41
0.999290993427073
 10
199.2378668319921
 20
-1389.982585360848
 30
0.0
 41
1.0
 10
199.4134425984492
 20
-1389.959874928381
 30
0.0
 41
0.9994553539448373
 10
199.5901340315412
 20
-1389.948795624175
 30
0.0
 41
1.0
 10
199.6255684393383
 20
-1389.946573736127
 30
0.0
 41
1.0
 10
199.6610028471355
 20
-1389.944351848079
 30
0.0
 41
1.0
 10
199.8272286137047
 20
-1389.933928785668
 30
0.0
 41
0.9990928098292882
 10
199.9937384056068
 20
-1389.937688426902
 30
0.0
 41
1.0
 10
200.0323002408781
 20
-1389.938559118435
 30
0.0
 41
1.0
 10
200.0708620761493
 20
-1389.939429809968
 30
0.0
 41
1.0
 10
200.1602481975091
 20
-1389.941448068137
 30
0.0
 41
0.9998382089206349
 10
200.2495038802957
 20
-1389.946680194665
 30
0.0
 41
1.0
 10
200.2499337865172
 20
-1389.946705395567
 30
0.0
 41
1.0
 10
200.2503636927387
 20
-1389.946730596469
 30
0.0
 41
1.0
 10
200.3387595630835
 20
-1389.951912321193
 30
0.0
 41
0.9997558016758722
 10
200.4268401402827
 20
-1389.960994836559
 30
0.0
 41
1.0
 10
200.4273162787106
 20
-1389.961043934042
 30
0.0
 41
1.0
 10
200.4277924171384
 20
-1389.961093031524
 30
0.0
 41
1.0
 10
200.5149207174815
 20
-1389.970077351926
 30
0.0
 41
0.9996565144181531
 10
200.6014585708256
 20
-1389.983614658615
 30
0.0
 41
1.0
 10
200.6019244962038
 20
-1389.983687544346
 30
0.0
 41
1.0
 10
200.6023904215821
 20
-1389.983760430078
 30
0.0
 41
1.0
 10
200.6879964241688
 20
-1389.997151965304
 30
0.0
 41
0.999532180686733
 10
200.7726235044956
 20
-1390.015752453733
 30
0.0
 41
1.0
 10
200.7730126990657
 20
-1390.015837996199
 30
0.0
 41
1.0
 10
200.7734018936358
 20
-1390.015923538664
 30
0.0
 41
1.0
 10
200.857250584822
 20
-1390.034352942162
 30
0.0
 41
0.9993819199219319
 10
200.9395971190198
 20
-1390.058628325423
 30
0.0
 41
1.0
 10
200.9398355525166
 20
-1390.058698614532
 30
0.0
 41
1.0
 10
200.9400739860133
 20
-1390.058768903641
 30
0.0
 41
1.0
 10
201.021943653215
 20
-1390.082903708683
 30
0.0
 41
0.9992088568505771
 10
201.1016361722043
 20
-1390.113468944478
 30
0.0
 41
1.0
 10
201.1813171630833
 20
-1390.144028545211
 30
0.0
 41
0.9990226101773354
 10
201.2579878329905
 20
-1390.181505976826
 30
0.0
 41
1.0
 10
201.3346469747893
 20
-1390.21897777338
 30
0.0
 41
0.9988424273972775
 10
201.407350602001
 20
-1390.263642548632
 30
0.0
 41
1.0
 10
201.4076183103803
 20
-1390.263807012704
 30
0.0
 41
1.0
 10
201.4078860187595
 20
-1390.263971476777
 30
0.0
 41
1.0
 10
201.4811250627305
 20
-1390.308965180174
 30
0.0
 41
0.9986928844492249
 10
201.5493879294416
 20
-1390.361200914454
 30
0.0
 41
1.0
 10
201.5499692216637
 20
-1390.361645727682
 30
0.0
 41
1.0
 10
201.5505505138858
 20
-1390.362090540909
 30
0.0
 41
1.0
 10
201.6199759650416
 20
-1390.415215901645
 30
0.0
 41
0.9986007262279052
 10
201.6834021348084
 20
-1390.475376671339
 30
0.0
 41
1.0
 10
201.6842965502653
 20
-1390.476225039174
 30
0.0
 41
1.0
 10
201.6851909657222
 20
-1390.477073407008
 30
0.0
 41
1.0
 10
201.7504059664039
 20
-1390.538930912373
 30
0.0
 41
0.998558149138229
 10
201.808613578106
 20
-1390.607423402645
 30
0.0
 41
1.0
 10
201.8178720317014
 20
-1390.618317760346
 30
0.0
 41
1.0
 10
201.8271304852967
 20
-1390.629212118047
 30
0.0
 41
1.0
 10
201.9038550041901
 20
-1390.719493323722
 30
0.0
 41
0.99704602335202
 10
201.9658469053495
 20
-1390.820460407904
 30
0.0
 41
1.0
 10
201.9803162704293
 20
-1390.844026866986
 30
0.0
 41
1.0
 10
201.9947856355091
 20
-1390.867593326068
 30
0.0
 41
1.0
 10
202.0345223355212
 20
-1390.9323130501
 30
0.0
 41
0.9988468816636766
 10
202.0678687062722
 20
-1391.000545502526
 30
0.0
 41
1.0
 10
202.0749047287636
 20
-1391.014942423663
 30
0.0
 41
1.0
 10
202.081940751255
 20
-1391.029339344801
 30
0.0
 41
1.0
 10
202.1012150770227
 20
-1391.068777954952
 30
0.0
 41
0.9998431189999746
 10
202.1190804045187
 20
-1391.108874509394
 30
0.0
 41
1.0
 10
202.1369457320055
 20
-1391.148971063817
 30
0.0
 41
0.9999989990117852
 10
202.154924455445
 20
-1391.18901690144
 30
0.0
 41
1.0
 10
202.1610967670346
 20
-1391.202765118242
 30
0.0
 41
1.0
 10
202.1672690786241
 20
-1391.216513335044
 30
0.0
 41
1.0
 10
202.1975924252354
 20
-1391.284055606255
 30
0.0
 41
0.9998790356320278
 10
202.2258003053725
 20
-1391.35250835819
 30
0.0
 41
1.0
 10
202.2326354866571
 20
-1391.369095459618
 30
0.0
 41
1.0
 10
202.2394706679417
 20
-1391.385682561046
 30
0.0
 41
1.0
 10
202.2630283303215
 20
-1391.442850515931
 30
0.0
 41
0.9998227574561646
 10
202.2844170787108
 20
-1391.500864824208
 30
0.0
 41
1.0
 10
202.3058058271002
 20
-1391.558879132486
 30
0.0
 41
0.9996797971040756
 10
202.3242321120593
 20
-1391.617901251604
 30
0.0
 41
1.0
 10
202.3281359147849
 20
-1391.630405709773
 30
0.0
 41
1.0
 10
202.3320397175104
 20
-1391.642910167942
 30
0.0
 41
1.0
 10
202.3582736079209
 20
-1391.726941203398
 30
0.0
 41
0.9979274938734157
 10
202.3734981314001
 20
-1391.813645562059
 30
0.0
 41
1.0
 10
202.3757218186611
 20
-1391.826309562879
 30
0.0
 41
1.0
 10
202.3779455059222
 20
-1391.8389735637
 30
0.0
 41
1.0
 10
202.3888754456206
 20
-1391.90122007099
 30
0.0
 41
0.9994985982136801
 10
202.3958436107975
 20
-1391.964033572132
 30
0.0
 41
1.0
 10
202.4028117759744
 20
-1392.026847073273
 30
0.0
 41
0.9996372611201004
 10
202.4063876417423
 20
-1392.089944651958
 30
0.0
 41
1.0
 10
202.4065562192316
 20
-1392.09291926904
 30
0.0
 41
1.0
 10
202.4067247967208
 20
-1392.095893886121
 30
0.0
 41
1.0
 10
202.4106378174672
 20
-1392.164940698965
 30
0.0
 41
0.999773063073643
 10
202.4116061309553
 20
-1392.234091523002
 30
0.0
 41
1.0
 10
202.4116632373734
 20
-1392.238169702144
 30
0.0
 41
1.0
 10
202.4117203437915
 20
-1392.242247881285
 30
0.0
 41
1.0
 10
202.4128028701158
 20
-1392.3195550636
 30
0.0
 41
0.9998772614069353
 10
202.4114627833841
 20
-1392.396858210167
 30
0.0
 41
1.0
 10
202.4113735201853
 20
-1392.402007374002
 30
0.0
 41
1.0
 10
202.4112842569866
 20
-1392.407156537837
 30
0.0
 41
1.0
 10
202.4097656438572
 20
-1392.494758012072
 30
0.0
 41
0.9999415567330502
 10
202.4063533336113
 20
-1392.582306173748
 30
0.0
 41
1.0
 10
202.406112012936
 20
-1392.588497633485
 30
0.0
 41
1.0
 10
202.4058706922607
 20
-1392.594689093221
 30
0.0
 41
1.0
 10
202.4019757406637
 20
-1392.694620174379
 30
0.0
 41
0.9999716810428702
 10
202.3965771575457
 20
-1392.794481312599
 30
0.0
 41
1.0
 10
202.3933643587568
 20
-1392.853910562258
 30
0.0
 41
1.0
 10
202.3901515599679
 20
-1392.913339811917
 30
0.0
 41
1.0
 10
202.3820776508152
 20
-1393.062688213199
 30
0.0
 41
0.9999819129908365
 10
202.3722078591988
 20
-1393.211928690907
 30
0.0
 41
1.0
 10
202.3623380675822
 20
-1393.361169168618
 30
0.0
 41
1.0
 10
202.3598987470183
 20
-1393.398362214467
 30
0.0
 41
1.0
 10
202.3825969808601
 20
-1393.35962121712
 30
0.0
 41
0.9999982128198001
 10
202.4054415396145
 20
-1393.320966323163
 30
0.0
 41
1.0
 10
202.4323510994944
 20
-1393.275433109116
 30
0.0
 41
1.0
 10
202.4592606593744
 20
-1393.229899895069
 30
0.0
 41
1.0
 10
202.5359243379006
 20
-1393.100178572999
 30
0.0
 41
0.9998609190058398
 10
202.6168716507636
 20
-1392.973086191068
 30
0.0
 41
1.0
 10
202.6465199722452
 20
-1392.926536458111
 30
0.0
 41
1.0
 10
202.6761682937268
 20
-1392.879986725154
 30
0.0
 41
1.0
 10
202.7584405139646
 20
-1392.750814155158
 30
0.0
 41
0.9999067609736454
 10
202.8442095234266
 20
-1392.623936465719
 30
0.0
 41
1.0
 10
202.8466142266288
 20
-1392.620379199663
 30
0.0
 41
1.0
 10
202.8490189298309
 20
-1392.616821933606
 30
0.0
 41
1.0
 10
202.9299785328921
 20
-1392.497058776276
 30
0.0
 41
0.9998784952151395
 10
203.0146321425721
 20
-1392.37987755957
 30
0.0
 41
1.0
 10
203.0992857522527
 20
-1392.262696342862
 30
0.0
 41
0.9998532968282453
 10
203.1879033730754
 20
-1392.148483434391
 30
0.0
 41
1.0
 10
203.207865162066
 20
-1392.122756113372
 30
0.0
 41
1.0
 10
203.2278269510565
 20
-1392.097028792352
 30
0.0
 41
1.0
 10
203.3463110008164
 20
-1391.944323181382
 30
0.0
 41
0.9991551975795222
 10
203.4769354504406
 20
-1391.801863619298
 30
0.0
 41
1.0
 10
203.4804450664209
 20
-1391.798036017673
 30
0.0
 41
1.0
 10
203.4839546824012
 20
-1391.794208416048
 30
0.0
 41
1.0
 10
203.607559900065
 20
-1391.659404057214
 30
0.0
 41
0.9997418144180714
 10
203.7371620397648
 20
-1391.530354646602
 30
0.0
 41
1.0
 10
203.8667641794658
 20
-1391.401305235989
 30
0.0
 41
0.9989238204633487
 10
204.0077667277173
 20
-1391.28482027395
 30
0.0
 41
1.0
 10
204.0530144058549
 20
-1391.247440282343
 30
0.0
 41
1.0
 10
204.0982620839924
 20
-1391.210060290736
 30
0.0
 41
1.0
 10
204.2385021412154
 20
-1391.094205237443
 30
0.0
 41
0.9990825084096874
 10
204.3881420738209
 20
-1390.990776239609
 30
0.0
 41
1.0
 10
204.3981874378776
 20
-1390.98383302653
 30
0.0
 41
1.0
 10
204.4082328019344
 20
-1390.97688981345
 30
0.0
 41
1.0
 10
204.5377820064237
 20
-1390.887347241777
 30
0.0
 41
0.9998164899824948
 10
204.6706662098011
 20
-1390.80283300026
 30
0.0
 41
1.0
 10
204.6825117703273
 20
-1390.795299233734
 30
0.0
 41
1.0
 10
204.6943573308536
 20
-1390.787765467208
 30
0.0
 41
1.0
 10
204.8035504131787
 20
-1390.718318758743
 30
0.0
 41
0.9997473449131565
 10
204.9157543704268
 20
-1390.653849800928
 30
0.0
 41
1.0
 10
205.0279583276682
 20
-1390.589380843116
 30
0.0
 41
0.9999327861142364
 10
205.141626938427
 20
-1390.527530851438
 30
0.0
 41
1.0
 10
205.142178940994
 20
-1390.527230492755
 30
0.0
 41
1.0
 10
205.1427309435611
 20
-1390.526930134072
 30
0.0
 41
1.0
 10
205.2575035594469
 20
-1390.464479425032
 30
0.0
 41
0.9996956420483858
 10
205.3752168852891
 20
-1390.407765958056
 30
0.0
 41
1.0
 10
205.4056572901819
 20
-1390.393099981326
 30
0.0
 41
1.0
 10
205.4360976950746
 20
-1390.378434004597
 30
0.0
 41
1.0
 10
205.539074801816
 20
-1390.328820346154
 30
0.0
 41
0.9998070570176585
 10
205.6439211907564
 20
-1390.283289759253
 30
0.0
 41
1.0
 10
205.7487675796992
 20
-1390.237759172352
 30
0.0
 41
0.9997827436147494
 10
205.8554205163102
 20
-1390.196638001039
 30
0.0
 41
1.0
 10
205.8746433659401
 20
-1390.189226427408
 30
0.0
 41
1.0
 10
205.89386621557
 20
-1390.181814853776
 30
0.0
 41
1.0
 10
206.0389648514424
 20
-1390.125870535199
 30
0.0
 41
0.998803184197675
 10
206.1888352140469
 20
-1390.084370471032
 30
0.0
 41
1.0
 10
206.2137524624112
 20
-1390.077470725224
 30
0.0
 41
1.0
 10
206.2386697107756
 20
-1390.070570979417
 30
0.0
 41
1.0
 10
206.4059397364217
 20
-1390.024252837011
 30
0.0
 41
0.9984748040549696
 10
206.57729664507
 20
-1389.996658604746
 30
0.0
 41
1.0
 10
206.5820357813177
 20
-1389.995895444233
 30
0.0
 41
1.0
 10
206.5867749175654
 20
-1389.995132283719
 30
0.0
 41
1.0
 10
206.7486535537178
 20
-1389.969064372481
 30
0.0
 41
0.9984436495480024
 10
206.9124282974437
 20
-1389.961186418662
 30
0.0
 41
1.0
 10
206.9341255055766
 20
-1389.960142731463
 30
0.0
 41
1.0
 10
206.9558227137095
 20
-1389.959099044263
 30
0.0
 41
1.0
 10
207.0762030411699
 20
-1389.953308464844
 30
0.0
 41
0.9987954789335629
 10
207.1965712860782
 20
-1389.959344992586
 30
0.0
 41
1.0
 10
207.216536078568
 20
-1389.960346236924
 30
0.0
 41
1.0
 10
207.2365008710578
 20
-1389.961347481263
 30
0.0
 41
1.0
 10
207.3169395309835
 20
-1389.965381520328
 30
0.0
 41
0.9997941595875953
 10
207.3971483090825
 20
-1389.972675586249
 30
0.0
 41
1.0
 10
207.4773570871778
 20
-1389.97996965217
 30
0.0
 41
0.9998589466235611
 10
207.5572756340329
 20
-1389.989953506621
 30
0.0
 41
1.0
 10
207.5896818358406
 20
-1389.99400186354
 30
0.0
 41
1.0
 10
207.6220880376484
 20
-1389.998050220459
 30
0.0
 41
1.0
 10
207.7668189881217
 20
-1390.016130788748
 30
0.0
 41
0.9993495063249326
 10
207.9098702318895
 20
-1390.04459649849
 30
0.0
 41
1.0
 10
207.9428039290367
 20
-1390.051149961704
 30
0.0
 41
1.0
 10
207.9757376261839
 20
-1390.057703424917
 30
0.0
 41
1.0
 10
208.0850314493914
 20
-1390.079451759053
 30
0.0
 41
0.9996788715560606
 10
208.1930830213505
 20
-1390.106709558417
 30
0.0
 41
1.0
 10
208.1951460238889
 20
-1390.10722998499
 30
0.0
 41
1.0
 10
208.1972090264273
 20
-1390.107750411563
 30
0.0
 41
1.0
 10
208.301134593306
 20
-1390.13396735778
 30
0.0
 41
0.9995480654492788
 10
208.4032968285363
 20
-1390.166382314404
 30
0.0
 41
1.0
 10
208.4049864706658
 20
-1390.166918419319
 30
0.0
 41
1.0
 10
208.4066761127954
 20
-1390.167454524233
 30
0.0
 41
1.0
 10
208.5054590637662
 20
-1390.198797271029
 30
0.0
 41
0.9993867959456463
 10
208.6018062222083
 20
-1390.236976640319
 30
0.0
 41
1.0
 10
208.6030491712938
 20
-1390.237469182215
 30
0.0
 41
1.0
 10
208.6042921203793
 20
-1390.237961724112
 30
0.0
 41
1.0
 10
208.6981533806518
 20
-1390.275156009609
 30
0.0
 41
0.9992050256521791
 10
208.7887530556842
 20
-1390.319709908847
 30
0.0
 41
1.0
 10
208.7894877383964
 20
-1390.320071201308
 30
0.0
 41
1.0
 10
208.7902224211086
 20
-1390.320432493769
 30
0.0
 41
1.0
 10
208.8793527307164
 20
-1390.364263808085
 30
0.0
 41
0.9990222350741417
 10
208.9642627921112
 20
-1390.415797075784
 30
0.0
 41
1.0
 10
208.9644466773941
 20
-1390.415908678689
 30
0.0
 41
1.0
 10
208.964630562677
 20
-1390.416020281594
 30
0.0
 41
1.0
 10
209.0491728535048
 20
-1390.467330343482
 30
0.0
 41
0.9988642743805335
 10
209.1284473881239
 20
-1390.526454531008
 30
0.0
 41
1.0
 10
209.2077219227434
 20
-1390.585578718533
 30
0.0
 41
0.9987681233310451
 10
209.2807457070194
 20
-1390.652269409934
 30
0.0
 41
1.0
 10
209.281074634985
 20
-1390.652569811148
 30
0.0
 41
1.0
 10
209.2814035629506
 20
-1390.652870212362
 30
0.0
 41
1.0
 10
209.3550852031576
 20
-1390.720161706191
 30
0.0
 41
0.9987496570897535
 10
209.4216790084849
 20
-1390.794474520277
 30
0.0
 41
1.0
 10
209.4224511782457
 20
-1390.795336193636
 30
0.0
 41
1.0
 10
209.4232233480065
 20
-1390.796197866994
 30
0.0
 41
1.0
 10
209.4913614928547
 20
-1390.872234027796
 30
0.0
 41
0.9988147669826765
 10
209.5517837470803
 20
-1390.95453503464
 30
0.0
 41
1.0
 10
209.5529030731577
 20
-1390.956059665992
 30
0.0
 41
1.0
 10
209.554022399235
 20
-1390.957584297344
 30
0.0
 41
1.0
 10
209.6166833056151
 20
-1391.042934566891
 30
0.0
 41
0.9989452636215903
 10
209.6712502185768
 20
-1391.133673256049
 30
0.0
 41
1.0
 10
209.6725989446625
 20
-1391.135916037076
 30
0.0
 41
1.0
 10
209.6739476707481
 20
-1391.138158818102
 30
0.0
 41
1.0
 10
209.7312120358809
 20
-1391.233383069311
 30
0.0
 41
0.9991046436070159
 10
209.7802212492025
 20
-1391.333107502337
 30
0.0
 41
1.0
 10
209.7816851107925
 20
-1391.33608618241
 30
0.0
 41
1.0
 10
209.7831489723825
 20
-1391.339064862482
 30
0.0
 41
1.0
 10
209.8350859088836
 20
-1391.444746655651
 30
0.0
 41
0.999276383110085
 10
209.8788390374387
 20
-1391.554070717607
 30
0.0
 41
1.0
 10
209.8803183071023
 20
-1391.557766905141
 30
0.0
 41
1.0
 10
209.8817975767659
 20
-1391.561463092676
 30
0.0
 41
1.0
 10
209.9285092446475
 20
-1391.678179529698
 30
0.0
 41
0.9994163472883079
 10
209.9671422758374
 20
-1391.797813118163
 30
0.0
 41
1.0
 10
209.9683804280843
 20
-1391.801647261946
 30
0.0
 41
1.0
 10
209.9696185803312
 20
-1391.805481405729
 30
0.0
 41
1.0
 10
210.0095021413484
 20
-1391.928987467208
 30
0.0
 41
0.9997268055890011
 10
210.0435701972602
 20
-1392.054222499158
 30
0.0
 41
1.0
 10
210.0445003775299
 20
-1392.057641865267
 30
0.0
 41
1.0
 10
210.0454305577995
 20
-1392.061061231376
 30
0.0
 41
1.0
 10
210.0776382531725
 20
-1392.179457531109
 30
0.0
 41
0.9996701319000953
 10
210.1037238699427
 20
-1392.299351484372
 30
0.0
 41
1.0
 10
210.129809486713
 20
-1392.419245437635
 30
0.0
 41
0.999578545110934
 10
210.1488930640529
 20
-1392.540451198667
 30
0.0
 41
1.0
 10
210.1531128462266
 20
-1392.567252353432
 30
0.0
 41
1.0
 10
210.1573326284003
 20
-1392.594053508196
 30
0.0
 41
1.0
 10
210.1839076043389
 20
-1392.7628394819
 30
0.0
 41
0.9979925101217076
 10
210.1889331902653
 20
-1392.933630809991
 30
0.0
 41
1.0
 10
210.18975800269
 20
-1392.961661533473
 30
0.0
 41
1.0
 10
210.1905828151146
 20
-1392.989692256956
 30
0.0
 41
1.0
 10
210.1939587761917
 20
-1393.104422138082
 30
0.0
 41
0.9995314902263116
 10
210.1903085840531
 20
-1393.219143621835
 30
0.0
 41
1.0
 10
210.1866583919148
 20
-1393.333865105586
 30
0.0
 41
0.9996245486943784
 10
210.1767292967838
 20
-1393.448214376711
 30
0.0
 41
1.0
 10
210.1765662487895
 20
-1393.450092132846
 30
0.0
 41
1.0
 10
210.1764032007953
 20
-1393.451969888981
 30
0.0
 41
1.0
 10
210.166148009676
 20
-1393.570074672376
 30
0.0
 41
0.9997286095000675
 10
210.1504026861046
 20
-1393.68757358127
 30
0.0
 41
1.0
 10
210.1500091934542
 20
-1393.690510005972
 30
0.0
 41
1.0
 10
210.1496157008038
 20
-1393.693446430674
 30
0.0
 41
1.0
 10
210.1330833919315
 20
-1393.816818188973
 30
0.0
 41
0.9998265533968647
 10
210.1119679331993
 20
-1393.93948866376
 30
0.0
 41
1.0
 10
210.111291391062
 20
-1393.943419042268
 30
0.0
 41
1.0
 10
210.1106148489247
 20
-1393.947349420776
 30
0.0
 41
1.0
 10
210.0881463059175
 20
-1394.07788065258
 30
0.0
 41
0.9999022530853771
 10
210.062036841309
 20
-1394.207732621212
 30
0.0
 41
1.0
 10
210.0610582001431
 20
-1394.212599763603
 30
0.0
 41
1.0
 10
210.0600795589771
 20
-1394.217466905993
 30
0.0
 41
1.0
 10
210.0320128120361
 20
-1394.357053159407
 30
0.0
 41
0.9999524761936962
 10
210.0012298432021
 20
-1394.496065652568
 30
0.0
 41
1.0
 10
209.9999537360264
 20
-1394.501828411872
 30
0.0
 41
1.0
 10
209.9986776288507
 20
-1394.507591171175
 30
0.0
 41
1.0
 10
209.9653424456629
 20
-1394.658129182954
 30
0.0
 41
0.9999813588720774
 10
209.9301714448677
 20
-1394.808248895607
 30
0.0
 41
1.0
 10
209.9286175194119
 20
-1394.814881486026
 30
0.0
 41
1.0
 10
209.9270635939562
 20
-1394.821514076445
 30
0.0
 41
1.0
 10
209.8887847422502
 20
-1394.984898969934
 30
0.0
 41
0.9999955237700062
 10
209.8495288642697
 20
-1395.14805187354
 30
0.0
 41
1.0
 10
209.8372472286338
 20
-1395.199096064069
 30
0.0
 41
1.0
 10
209.824965592998
 20
-1395.250140254598
 30
0.0
 41
1.0
 10
209.7611464437577
 20
-1395.515381539213
 30
0.0
 41
0.9999993604283914
 10
209.6967274965826
 20
-1395.780477789927
 30
0.0
 41
1.0
 10
209.6920086610346
 20
-1395.799896697971
 30
0.0
 41
1.0
 10
209.6872898254867
 20
-1395.819315606016
 30
0.0
 41
1.0
 10
209.6134332072268
 20
-1396.123249672773
 30
0.0
 41
0.999965991473453
 10
209.5345736113397
 20
-1396.425924219339
 30
0.0
 41
1.0
 10
209.5296209224097
 20
-1396.444933356519
 30
0.0
 41
1.0
 10
209.5246682334796
 20
-1396.463942493699
 30
0.0
 41
1.0
 10
209.4359032597335
 20
-1396.804635314621
 30
0.0
 41
0.9999441976026124
 10
209.3399602267706
 20
-1397.143376739918
 30
0.0
 41
1.0
 10
209.3232597083452
 20
-1397.202340452445
 30
0.0
 41
1.0
 10
209.3065591899197
 20
-1397.261304164972
 30
0.0
 41
1.0
 10
209.1772151201043
 20
-1397.717973015329
 30
0.0
 41
0.9999625120735494
 10
209.0399823527831
 20
-1398.172333549318
 30
0.0
 41
1.0
 10
209.0041924096964
 20
-1398.290829575957
 30
0.0
 41
1.0
 10
208.9684024666096
 20
-1398.409325602597
 30
0.0
 41
1.0
 10
208.8938822625734
 20
-1398.656052680683
 30
0.0
 41
0.9999793386305866
 10
208.8161962394371
 20
-1398.901801319915
 30
0.0
 41
1.0
 10
208.7385102162996
 20
-1399.147549959151
 30
0.0
 41
1.0
 10
208.7277306574289
 20
-1399.181567863526
 30
0.0
 41
1.0
 10
206.8773576041597
 20
-1405.068639785993
 30
0.0
 41
1.0
 10
205.0269845508906
 20
-1410.955711708461
 30
0.0
 41
1.0
 10
204.065727860867
 20
-1410.955711708461
 30
0.0
 41
1.0
 10
203.1044711708435
 20
-1410.955711708461
 30
0.0
 41
1.0
 10
204.7234159495219
 20
-1405.807683206671
 30
0.0
 41
1.0
 10
206.3423607282003
 20
-1400.659654704882
 30
0.0
 41
1.0
 10
206.3875265513726
 20
-1400.515623482618
 30
0.0
 41
1.0
 10
206.4326923745449
 20
-1400.371592260355
 30
0.0
 41
1.0
 10
206.6029967919116
 20
-1399.828501231179
 30
0.0
 41
0.9999911657879068
 10
206.7687296035919
 20
-1399.283997699816
 30
0.0
 41
1.0
 10
206.7984255470957
 20
-1399.186433759754
 30
0.0
 41
1.0
 10
206.8281214905996
 20
-1399.088869819692
 30
0.0
 41
1.0
 10
206.93446241528
 20
-1398.739494168427
 30
0.0
 41
0.9999952428156292
 10
207.0386460045971
 20
-1398.389469144103
 30
0.0
 41
1.0
 10
207.0437054749331
 20
-1398.372470869816
 30
0.0
 41
1.0
 10
207.0487649452691
 20
-1398.355472595529
 30
0.0
 41
1.0
 10
207.1428295939239
 20
-1398.039444119747
 30
0.0
 41
0.9999931687499837
 10
207.2345554317957
 20
-1397.722728906483
 30
0.0
 41
1.0
 10
207.2394906962501
 20
-1397.705688197229
 30
0.0
 41
1.0
 10
207.2444259607044
 20
-1397.688647487976
 30
0.0
 41
1.0
 10
207.3262812696622
 20
-1397.406013693237
 30
0.0
 41
0.9999893840828962
 10
207.4055284961262
 20
-1397.122637563966
 30
0.0
 41
1.0
 10
207.4847757225846
 20
-1396.839261434714
 30
0.0
 41
0.999983398006256
 10
207.5607519633261
 20
-1396.554990851685
 30
0.0
 41
1.0
 10
207.5697559000479
 20
-1396.521301973209
 30
0.0
 41
1.0
 10
207.5787598367697
 20
-1396.487613094732
 30
0.0
 41
1.0
 10
207.6477243856358
 20
-1396.229577262436
 30
0.0
 41
0.999923365806359
 10
207.7102793568565
 20
-1395.969913103713
 30
0.0
 41
1.0
 10
207.7728343280768
 20
-1395.71024894499
 30
0.0
 41
1.0
 10
207.8123177469344
 20
-1395.546442280564
 30
0.0
 41
1.0
 10
207.8172963509109
 20
-1395.525787318697
 30
0.0
 41
1.0
 10
207.8222749548873
 20
-1395.50513235683
 30
0.0
 41
1.0
 10
207.8518011657944
 20
-1395.382635616128
 30
0.0
 41
0.9999868670854568
 10
207.8800702497881
 20
-1395.259842670492
 30
0.0
 41
1.0
 10
207.8839677369476
 20
-1395.242913083068
 30
0.0
 41
1.0
 10
207.8878652241071
 20
-1395.225983495643
 30
0.0
 41
1.0
 10
207.9083393337844
 20
-1395.137049724846
 30
0.0
 41
0.9999778173354698
 10
207.9276269318997
 20
-1395.047851107616
 30
0.0
 41
1.0
 10
207.9469145300137
 20
-1394.958652490393
 30
0.0
 41
0.9999602692863655
 10
207.9646088886462
 20
-1394.869124201958
 30
0.0
 41
1.0
 10
207.9678127207237
 20
-1394.852913747073
 30
0.0
 41
1.0
 10
207.9710165528012
 20
-1394.836703292188
 30
0.0
 41
1.0
 10
207.9951185755868
 20
-1394.714754093992
 30
0.0
 41
0.9995617985320672
 10
208.0119619228058
 20
-1394.591592346286
 30
0.0
 41
1.0
 10
208.0144264127122
 20
-1394.573571528919
 30
0.0
 41
1.0
 10
208.0168909026186
 20
-1394.555550711552
 30
0.0
 41
1.0
 10
208.0371741636668
 20
-1394.407235661851
 30
0.0
 41
0.9991121410639913
 10
208.044899517255
 20
-1394.257739563046
 30
0.0
 41
1.0
 10
208.0458183072795
 20
-1394.23995972647
 30
0.0
 41
1.0
 10
208.0467370973041
 20
-1394.222179889894
 30
0.0
 41
1.0
 10
208.0526248708432
 20
-1394.108243464239
 30
0.0
 41
0.9989792494905448
 10
208.0482057787259
 20
-1393.994240628341
 30
0.0
 41
1.0
 10
208.0475578068573
 20
-1393.977524382415
 30
0.0
 41
1.0
 10
208.0469098349886
 20
-1393.960808136488
 30
0.0
 41
1.0
 10
208.0437866866085
 20
-1393.880237792442
 30
0.0
 41
0.99978202953933
 10
208.0373026892329
 20
-1393.799868070699
 30
0.0
 41
1.0
 10
208.0308186918574
 20
-1393.719498348957
 30
0.0
 41
0.9998335105974827
 10
208.0214064963455
 20
-1393.639418732505
 30
0.0
 41
1.0
 10
208.0198115716692
 20
-1393.625849002022
 30
0.0
 41
1.0
 10
208.0182166469928
 20
-1393.612279271539
 30
0.0
 41
1.0
 10
208.005614602128
 20
-1393.50506019412
 30
0.0
 41
0.9996876457878805
 10
207.9876706893299
 20
-1393.398604766406
 30
0.0
 41
1.0
 10
207.9854390261847
 20
-1393.385365031165
 30
0.0
 41
1.0
 10
207.9832073630395
 20
-1393.372125295923
 30
0.0
 41
1.0
 10
207.9694115416185
 20
-1393.290279151965
 30
0.0
 41
0.9995547496495402
 10
207.9507582197258
 20
-1393.209401654774
 30
0.0
 41
1.0
 10
207.9503842628545
 20
-1393.207780244068
 30
0.0
 41
1.0
 10
207.9500103059831
 20
-1393.206158833362
 30
0.0
 41
1.0
 10
207.9321048978332
 20
-1393.128524157583
 30
0.0
 41
0.9994899427175461
 10
207.9092799891538
 20
-1393.052190874748
 30
0.0
 41
1.0
 10
207.9088214624132
 20
-1393.050657424959
 30
0.0
 41
1.0
 10
207.9083629356725
 20
-1393.049123975171
 30
0.0
 41
1.0
 10
207.8864550804748
 20
-1392.975857591914
 30
0.0
 41
0.9993784877590963
 10
207.8594394453679
 20
-1392.904316886754
 30
0.0
 41
1.0
 10
207.8589077543912
 20
-1392.902908904034
 30
0.0
 41
1.0
 10
207.8583760634144
 20
-1392.901500921314
 30
0.0
 41
1.0
 10
207.832423810261
 20
-1392.832776181594
 30
0.0
 41
0.9992430832253886
 10
207.8012072751019
 20
-1392.766277029527
 30
0.0
 41
1.0
 10
207.8006251590452
 20
-1392.76503697441
 30
0.0
 41
1.0
 10
207.8000430429885
 20
-1392.763796919292
 30
0.0
 41
1.0
 10
207.7699907399424
 20
-1392.699777877459
 30
0.0
 41
0.999078963279899
 10
207.7345601131659
 20
-1392.638571265709
 30
0.0
 41
1.0
 10
207.7339644069838
 20
-1392.63754217985
 30
0.0
 41
1.0
 10
207.7333687008017
 20
-1392.636513093991
 30
0.0
 41
1.0
 10
207.6991294863886
 20
-1392.577364653959
 30
0.0
 41
0.9988874801120075
 10
207.6594702103571
 20
-1392.521704941542
 30
0.0
 41
1.0
 10
207.6589146842932
 20
-1392.520925289868
 30
0.0
 41
1.0
 10
207.6583591582292
 20
-1392.520145638193
 30
0.0
 41
1.0
 10
207.619810934325
 20
-1392.466045229124
 30
0.0
 41
0.9986762060692996
 10
207.575908463049
 20
-1392.416191514685
 30
0.0
 41
1.0
 10
207.5754645027165
 20
-1392.415687372868
 30
0.0
 41
1.0
 10
207.575020542384
 20
-1392.415183231051
 30
0.0
 41
1.0
 10
207.5320059917727
 20
-1392.366337800245
 30
0.0
 41
0.9984621642488195
 10
207.483848434995
 20
-1392.322554499774
 30
0.0
 41
1.0
 10
207.4836018004784
 20
-1392.322330267611
 30
0.0
 41
1.0
 10
207.4833551659618
 20
-1392.322106035447
 30
0.0
 41
1.0
 10
207.4356908782177
 20
-1392.278771199304
 30
0.0
 41
0.9982724693851821
 10
207.3832722463757
 20
-1392.241326848786
 30
0.0
 41
1.0
 10
207.3308536145336
 20
-1392.203882498268
 30
0.0
 41
0.9981399180158721
 10
207.2742675511397
 20
-1392.173095978824
 30
0.0
 41
1.0
 10
207.2742218890619
 20
-1392.173071135667
 30
0.0
 41
1.0
 10
207.274176226984
 20
-1392.17304629251
 30
0.0
 41
1.0
 10
207.217498839434
 20
-1392.142210086753
 30
0.0
 41
0.9980927086837283
 10
207.1574534883687
 20
-1392.1185932779
 30
0.0
 41
1.0
 10
207.1570133186564
 20
-1392.118420152025
 30
0.0
 41
1.0
 10
207.156573148944
 20
-1392.11824702615
 30
0.0
 41
1.0
 10
207.0956474584541
 20
-1392.094283965547
 30
0.0
 41
0.9981411356561355
 10
207.0322589370538
 20
-1392.077911324042
 30
0.0
 41
1.0
 10
207.0313768203529
 20
-1392.077683481836
 30
0.0
 41
1.0
 10
207.030494703652
 20
-1392.077455639631
 30
0.0
 41
1.0
 10
206.9653419488508
 20
-1392.060627313715
 30
0.0
 41
0.9983031812935296
 10
206.8986745198575
 20
-1392.051487952539
 30
0.0
 41
1.0
 10
206.8898034944524
 20
-1392.050271833867
 30
0.0
 41
1.0
 10
206.8809324690474
 20
-1392.049055715196
 30
0.0
 41
1.0
 10
206.8265828265432
 20
-1392.041604985204
 30
0.0
 41
0.9983887708263247
 10
206.7717389772502
 20
-1392.040360311571
 30
0.0
 41
1.0
 10
206.763675572028
 20
-1392.040177313696
 30
0.0
 41
1.0
 10
206.7556121668058
 20
-1392.039994315821
 30
0.0
 41
1.0
 10
206.7168951279526
 20
-1392.039115637938
 30
0.0
 41
0.9998869563078695
 10
206.6781691747547
 20
-1392.039401507297
 30
0.0
 41
1.0
 10
206.6394432215808
 20
-1392.039687376657
 30
0.0
 41
0.9999972320178537
 10
206.6007190423992
 20
-1392.040155476185
 30
0.0
 41
1.0
 10
206.5813660257902
 20
-1392.040389416275
 30
0.0
 41
1.0
 10
206.5620130091812
 20
-1392.040623356365
 30
0.0
 41
1.0
 10
206.4845827968097
 20
-1392.041559336073
 30
0.0
 41
0.9997304945087706
 10
206.407279490571
 20
-1392.046088429859
 30
0.0
 41
1.0
 10
206.3982298488677
 20
-1392.046618635849
 30
0.0
 41
1.0
 10
206.3891802071644
 20
-1392.047148841839
 30
0.0
 41
1.0
 10
206.2937776175178
 20
-1392.052738347605
 30
0.0
 41
0.9997888306415077
 10
206.1986852816753
 20
-1392.062243312094
 30
0.0
 41
1.0
 10
206.1899642201027
 20
-1392.063115026726
 30
0.0
 41
1.0
 10
206.1812431585302
 20
-1392.063986741358
 30
0.0
 41
1.0
 10
206.0687086995401
 20
-1392.075235135112
 30
0.0
 41
0.9984170238190414
 10
205.9581495521873
 20
-1392.099051217048
 30
0.0
 41
1.0
 10
205.9217684212029
 20
-1392.106888252853
 30
0.0
 41
1.0
 10
205.8853872902185
 20
-1392.114725288659
 30
0.0
 41
1.0
 10
205.7701962217967
 20
-1392.139539155169
 30
0.0
 41
0.9976592854199501
 10
205.6594680553914
 20
-1392.179837832316
 30
0.0
 41
1.0
 10
205.5487398889852
 20
-1392.220136509464
 30
0.0
 41
0.9993255074352271
 10
205.4412680901942
 20
-1392.268453407956
 30
0.0
 41
1.0
 10
205.4366429112716
 20
-1392.270532784156
 30
0.0
 41
1.0
 10
205.432017732349
 20
-1392.272612160355
 30
0.0
 41
1.0
 10
205.3152955757118
 20
-1392.325087811247
 30
0.0
 41
0.9976475078275545
 10
205.2068482314009
 20
-1392.393035800906
 30
0.0
 41
1.0
 10
205.1885058372657
 20
-1392.404528279721
 30
0.0
 41
1.0
 10
205.1701634431305
 20
-1392.416020758535
 30
0.0
 41
1.0
 10
205.0859612515789
 20
-1392.468777879303
 30
0.0
 41
0.9995131336406502
 10
205.005213536622
 20
-1392.526684091256
 30
0.0
 41
1.0
 10
204.924465821662
 20
-1392.584590303211
 30
0.0
 41
0.9995810107606191
 10
204.847204173931
 20
-1392.647071985679
 30
0.0
 41
1.0
 10
204.8442341427233
 20
-1392.649473857142
 30
0.0
 41
1.0
 10
204.8412641115157
 20
-1392.651875728604
 30
0.0
 41
1.0
 10
204.7580624013692
 20
-1392.719161153997
 30
0.0
 41
0.9996617837954199
 10
204.6784717142341
 20
-1392.790681609557
 30
0.0
 41
1.0
 10
204.6663409633556
 20
-1392.801582342549
 30
0.0
 41
1.0
 10
204.6542102124771
 20
-1392.812483075541
 30
0.0
 41
1.0
 10
204.5859346850785
 20
-1392.873835691015
 30
0.0
 41
0.9997267750052257
 10
204.5206011767962
 20
-1392.938312227539
 30
0.0
 41
1.0
 10
204.4552676685162
 20
-1393.002788764061
 30
0.0
 41
0.999966728895957
 10
204.3909947253744
 20
-1393.06832257095
 30
0.0
 41
1.0
 10
204.322167277595
 20
-1393.138500229713
 30
0.0
 41
1.0
 10
204.2533398298156
 20
-1393.208677888475
 30
0.0
 41
1.0
 10
204.0514119911188
 20
-1393.414567012886
 30
0.0
 41
0.9988205335175302
 10
203.8704063741391
 20
-1393.639071244947
 30
0.0
 41
1.0
 10
203.8397664092345
 20
-1393.677074495377
 30
0.0
 41
1.0
 10
203.8091264443299
 20
-1393.715077745807
 30
0.0
 41
1.0
 10
203.5668408975426
 20
-1394.015588478725
 30
0.0
 41
0.9997077826755223
 10
203.3393629464382
 20
-1394.32745827294
 30
0.0
 41
1.0
 10
203.3376395313065
 20
-1394.329821056321
 30
0.0
 41
1.0
 10
203.3359161161749
 20
-1394.332183839703
 30
0.0
 41
1.0
 10
203.1049913348083
 20
-1394.648779200679
 30
0.0
 41
0.9989147567079002
 10
202.9045278319246
 20
-1394.985488661864
 30
0.0
 41
1.0
 10
202.8797866866178
 20
-1395.027045242416
 30
0.0
 41
1.0
 10
202.8550455413111
 20
-1395.068601822968
 30
0.0
 41
1.0
 10
202.6998342426741
 20
-1395.32930320742
 30
0.0
 41
0.9997476598181981
 10
202.5564892551644
 20
-1395.596712956003
 30
0.0
 41
1.0
 10
202.4131442676544
 20
-1395.864122704586
 30
0.0
 41
0.9996258967109807
 10
202.2846360157237
 20
-1396.138970641208
 30
0.0
 41
1.0
 10
202.2714361062728
 20
-1396.167202041306
 30
0.0
 41
1.0
 10
202.2582361968219
 20
-1396.195433441404
 30
0.0
 41
1.0
 10
202.1180274758242
 20
-1396.495305839353
 30
0.0
 41
0.9998735413944956
 10
201.9874261291033
 20
-1396.799485438822
 30
0.0
 41
1.0
 10
201.9839833010433
 20
-1396.807504024285
 30
0.0
 41
1.0
 10
201.9805404729834
 20
-1396.815522609748
 30
0.0
 41
1.0
 10
201.8568247823841
 20
-1397.103665038287
 30
0.0
 41
0.9999377418858426
 10
201.7395699802082
 20
-1397.394496505965
 30
0.0
 41
1.0
 10
201.6223151780324
 20
-1397.685327973642
 30
0.0
 41
0.9999508299506954
 10
201.5108512346559
 20
-1397.978427650461
 30
0.0
 41
1.0
 10
201.5077704659933
 20
-1397.986528676425
 30
0.0
 41
1.0
 10
201.5046896973307
 20
-1397.994629702389
 30
0.0
 41
1.0
 10
201.3870642166259
 20
-1398.303931431145
 30
0.0
 41
0.9999609228430459
 10
201.2749256137517
 20
-1398.615264447161
 30
0.0
 41
1.0
 10
201.2719696034034
 20
-1398.623471287567
 30
0.0
 41
1.0
 10
201.2690135930551
 20
-1398.631678127973
 30
0.0
 41
1.0
 10
201.1509629694835
 20
-1398.959424824803
 30
0.0
 41
0.9999674607408782
 10
201.0382154434121
 20
-1399.289033444807
 30
0.0
 41
1.0
 10
200.9868170528513
 20
-1399.439292640494
 30
0.0
 41
1.0
 10
200.9354186622905
 20
-1399.589551836181
 30
0.0
 41
1.0
 10
200.8194080555315
 20
-1399.928699818687
 30
0.0
 41
0.9999287532306546
 10
200.7115266515601
 20
-1400.270520557665
 30
0.0
 41
1.0
 10
200.6650493954263
 20
-1400.417783102019
 30
0.0
 41
1.0
 10
200.6185721392925
 20
-1400.565045646373
 30
0.0
 41
1.0
 10
200.6036452475981
 20
-1400.612341296614
 30
0.0
 41
0.9999998224627686
 10
200.5887747388589
 20
-1400.659654704882
 30
0.0
 41
1.0
 10
198.9681186020634
 20
-1405.807683206671
 30
0.0
 41
1.0
 10
197.347462465268
 20
-1410.955711708461
 30
0.0
 41
1.0
 10
196.4421540213771
 20
-1410.955711708461
 30
0.0
 41
1.0
 10
195.5368455774861
 20
-1410.955711708461
 30
0.0
 41
1.0
 10
197.3889299888722
 20
-1405.068639785993
 30
0.0
 41
1.0
 10
199.2410144002582
 20
-1399.181567863526
 30
0.0
 41
1.0
 10
199.2511361585609
 20
-1399.149524650076
 30
0.0
 41
1.0
 10
199.3237438274107
 20
-1398.91922510825
 30
0.0
 41
1.0
 10
199.3963514962622
 20
-1398.688925566419
 30
0.0
 41
0.999982568196858
 10
199.4662345354714
 20
-1398.457784671361
 30
0.0
 41
1.0
 10
199.5145255976324
 20
-1398.298060087865
 30
0.0
 41
1.0
 10
199.5628166597933
 20
-1398.138335504368
 30
0.0
 41
1.0
 10
199.6599690131105
 20
-1397.817000282592
 30
0.0
 41
0.9999672528957841
 10
199.7519078187328
 20
-1397.49413473701
 30
0.0
 41
1.0
 10
199.7546967024017
 20
-1397.484340891622
 30
0.0
 41
1.0
 10
199.7574855860707
 20
-1397.474547046235
 30
0.0
 41
1.0
 10
199.8438466243553
 20
-1397.171269191425
 30
0.0
 41
0.9999899749149875
 10
199.9274882338908
 20
-1396.867230102971
 30
0.0
 41
1.0
 10
199.9375941529077
 20
-1396.830494865294
 30
0.0
 41
1.0
 10
199.9477000719246
 20
-1396.793759627618
 30
0.0
 41
1.0
 10
200.0111298434246
 20
-1396.563191014521
 30
0.0
 41
0.9999214200504044
 10
200.0687592718032
 20
-1396.331104672309
 30
0.0
 41
1.0
 10
200.0815251239829
 20
-1396.279693786917
 30
0.0
 41
1.0
 10
200.0942909761625
 20
-1396.228282901524
 30
0.0
 41
1.0
 10
200.1263887001794
 20
-1396.099018330106
 30
0.0
 41
0.9999828681652142
 10
200.1569709521764
 20
-1395.969386855632
 30
0.0
 41
1.0
 10
200.1875532041727
 20
-1395.839755381161
 30
0.0
 41
0.9999389844475238
 10
200.215264192962
 20
-1395.70947992526
 30
0.0
 41
1.0
 10
200.2224019366817
 20
-1395.675923821425
 30
0.0
 41
1.0
 10
200.2295396804014
 20
-1395.64236771759
 30
0.0
 41
1.0
 10
200.271526156632
 20
-1395.44498005401
 30
0.0
 41
0.9998933699440292
 10
200.3077304210339
 20
-1395.246450446253
 30
0.0
 41
1.0
 10
200.30910324625
 20
-1395.238922425558
 30
0.0
 41
1.0
 10
200.310476071466
 20
-1395.231394404863
 30
0.0
 41
1.0
 10
200.3494259863009
 20
-1395.017808755712
 30
0.0
 41
0.9996850305193918
 10
200.3776096625596
 20
-1394.802537750275
 30
0.0
 41
1.0
 10
200.3796046959289
 20
-1394.787299396154
 30
0.0
 41
1.0
 10
200.3815997292982
 20
-1394.772061042032
 30
0.0
 41
1.0
 10
200.4090075917571
 20
-1394.562715814877
 30
0.0
 41
0.9994697936706869
 10
200.422732150977
 20
-1394.352030619546
 30
0.0
 41
1.0
 10
200.4232092202267
 20
-1394.344707147334
 30
0.0
 41
1.0
 10
200.4236862894764
 20
-1394.337383675122
 30
0.0
 41
1.0
 10
200.4364567101968
 20
-1394.141345424213
 30
0.0
 41
0.9991804893136778
 10
200.4333283939238
 20
-1393.944916574241
 30
0.0
 41
1.0
 10
200.4332445151016
 20
-1393.939649772828
 30
0.0
 41
1.0
 10
200.4331606362796
 20
-1393.934382971416
 30
0.0
 41
1.0
 10
200.4302000776511
 20
-1393.748487724269
 30
0.0
 41
0.9988448329321387
 10
200.4094085320272
 20
-1393.563735134434
 30
0.0
 41
1.0
 10
200.4078144583242
 20
-1393.549570278663
 30
0.0
 41
1.0
 10
200.4062203846212
 20
-1393.535405422892
 30
0.0
 41
1.0
 10
200.3886169864035
 20
-1393.378982544602
 30
0.0
 41
0.9985503209458579
 10
200.3543007141039
 20
-1393.225358360512
 30
0.0
 41
1.0
 10
200.3467147220327
 20
-1393.191398033111
 30
0.0
 41
1.0
 10
200.3391287299614
 20
-1393.157437705711
 30
0.0
 41
1.0
 10
200.3199844418044
 20
-1393.071734176423
 30
0.0
 41
0.9991036781370372
 10
200.2936595801531
 20
-1392.987957089098
 30
0.0
 41
1.0
 10
200.2896773546975
 20
-1392.975283926588
 30
0.0
 41
1.0
 10
200.285695129242
 20
-1392.962610764079
 30
0.0
 41
1.0
 10
200.2673347185018
 20
-1392.904180001772
 30
0.0
 41
0.9998874504368583
 10
200.2472295108235
 20
-1392.846326399549
 30
0.0
 41
1.0
 10
200.227124303145
 20
-1392.788472797326
 30
0.0
 41
0.9994041637543466
 10
200.2030756902103
 20
-1392.732144093435
 30
0.0
 41
1.0
 10
200.1988789059866
 20
-1392.722314028954
 30
0.0
 41
1.0
 10
200.1946821217629
 20
-1392.712483964473
 30
0.0
 41
1.0
 10
200.1668032907679
 20
-1392.647183798504
 30
0.0
 41
0.9991846840701128
 10
200.1337469340751
 20
-1392.584345767225
 30
0.0
 41
1.0
 10
200.1326103276804
 20
-1392.582185150771
 30
0.0
 41
1.0
 10
200.1314737212857
 20
-1392.580024534317
 30
0.0
 41
1.0
 10
200.1006905773821
 20
-1392.521507735945
 30
0.0
 41
0.9989253167923599
 10
200.0646211533271
 20
-1392.466092807555
 30
0.0
 41
1.0
 10
200.0635670286528
 20
-1392.464473312792
 30
0.0
 41
1.0
 10
200.0625129039784
 20
-1392.46285381803
 30
0.0
 41
1.0
 10
200.0285517292722
 20
-1392.410677879164
 30
0.0
 41
0.9986467172836253
 10
199.9893545766348
 20
-1392.362311845535
 30
0.0
 41
1.0
 10
199.9884804479337
 20
-1392.361233243256
 30
0.0
 41
1.0
 10
199.9876063192326
 20
-1392.360154640977
 30
0.0
 41
1.0
 10
199.9501574239969
 20
-1392.313945811904
 30
0.0
 41
0.9984001104266821
 10
199.9077306934802
 20
-1392.272260704536
 30
0.0
 41
1.0
 10
199.9071435553713
 20
-1392.271683829655
 30
0.0
 41
1.0
 10
199.9065564172624
 20
-1392.271106954774
 30
0.0
 41
1.0
 10
199.865303962964
 20
-1392.230575597169
 30
0.0
 41
0.9982442159084217
 10
199.8195478616274
 20
-1392.195207035907
 30
0.0
 41
1.0
 10
199.8193330661653
 20
-1392.195041003264
 30
0.0
 41
1.0
 10
199.8191182707032
 20
-1392.19487497062
 30
0.0
 41
1.0
 10
199.7737917602918
 20
-1392.159838474647
 30
0.0
 41
0.9982450060835618
 10
199.72464078122
 20
-1392.130406691614
 30
0.0
 41
1.0
 10
199.6754898021481
 20
-1392.10097490858
 30
0.0
 41
0.9983922639634051
 10
199.6233234959836
 20
-1392.077295273926
 30
0.0
 41
1.0
 10
199.623096618659
 20
-1392.077192288445
 30
0.0
 41
1.0
 10
199.6228697413345
 20
-1392.077089302963
 30
0.0
 41
1.0
 10
199.5702496805219
 20
-1392.053203697347
 30
0.0
 41
0.9986517147150471
 10
199.5154367076551
 20
-1392.034902578225
 30
0.0
 41
1.0
 10
199.5147587862261
 20
-1392.034676231793
 30
0.0
 41
1.0
 10
199.5140808647971
 20
-1392.034449885361
 30
0.0
 41
1.0
 10
199.4579120490727
 20
-1392.015696073377
 30
0.0
 41
0.9989435598955958
 10
199.4002586619207
 20
-1392.002178371142
 30
0.0
 41
1.0
 10
199.3991785423397
 20
-1392.001925120889
 30
0.0
 41
1.0
 10
199.3980984227587
 20
-1392.001671870636
 30
0.0
 41
1.0
 10
199.3382847964446
 20
-1391.987647667896
 30
0.0
 41
0.9992249241239799
 10
199.2775532875482
 20
-1391.978372325181
 30
0.0
 41
1.0
 10
199.2761395992563
 20
-1391.978156416773
 30
0.0
 41
1.0
 10
199.2747259109644
 20
-1391.977940508365
 30
0.0
 41
1.0
 10
199.2111670254859
 20
-1391.968233348834
 30
0.0
 41
0.999439659783359
 10
199.14710108895
 20
-1391.962800426488
 30
0.0
 41
1.0
 10
199.1279604214712
 20
-1391.96117725877
 30
0.0
 41
1.0
 10
199.1088197539924
 20
-1391.959554091051
 30
0.0
 41
1.0
 10
199.0064724824993
 20
-1391.950874833268
 30
0.0
 41
0.9987693403121396
 10
198.9037688589117
 20
-1391.952377896721
 30
0.0
 41
1.0
 10
198.8935145246842
 20
-1391.952527968495
 30
0.0
 41
1.0
 10
198.8832601904567
 20
-1391.952678040269
 30
0.0
 41
1.0
 10
198.7737044242786
 20
-1391.954281384556
 30
0.0
 41
0.9989753644966148
 10
198.664742424263
 20
-1391.965784391482
 30
0.0
 41
1.0
 10
198.5557804242478
 20
-1391.977287398407
 30
0.0
 41
0.9983190067306384
 10
198.4488816132842
 20
-1392.001322390193
 30
0.0
 41
1.0
 10
198.4399806616761
 20
-1392.003323668756
 30
0.0
 41
1.0
 10
198.431079710068
 20
-1392.005324947319
 30
0.0
 41
1.0
 10
198.3063789958883
 20
-1392.033362496231
 30
0.0
 41
0.9985539388302622
 10
198.18540924221
 20
-1392.074626172277
 30
0.0
 41
1.0
 10
198.1830638112505
 20
-1392.075426216093
 30
0.0
 41
1.0
 10
198.180718380291
 20
-1392.076226259908
 30
0.0
 41
1.0
 10
198.0550577646924
 20
-1392.119090023586
 30
0.0
 41
0.9988468746494017
 10
197.9340874223912
 20
-1392.173808108648
 30
0.0
 41
1.0
 10
197.930904600403
 20
-1392.175247783208
 30
0.0
 41
1.0
 10
197.9277217784148
 20
-1392.176687457768
 30
0.0
 41
1.0
 10
197.8003857921384
 20
-1392.23428489195
 30
0.0
 41
0.9991322885919469
 10
197.6782852080833
 20
-1392.30228022413
 30
0.0
 41
1.0
 10
197.6606831970388
 20
-1392.31208242612
 30
0.0
 41
1.0
 10
197.6430811859944
 20
-1392.32188462811
 30
0.0
 41
1.0
 10
197.5409045049361
 20
-1392.378784743892
 30
0.0
 41
0.9993860037849691
 10
197.4429635008619
 20
-1392.442700759481
 30
0.0
 41
1.0
 10
197.4373451880065
 20
-1392.446367254178
 30
0.0
 41
1.0
 10
197.4317268751512
 20
-1392.450033748875
 30
0.0
 41
1.0
 10
197.3450224967863
 20
-1392.506616775071
 30
0.0
 41
0.9998821494954141
 10
197.2600961209757
 20
-1392.565835005146
 30
0.0
 41
1.0
 10
197.1751697451617
 20
-1392.625053235224
 30
0.0
 41
0.999797648274388
 10
197.0926941147574
 20
-1392.687639643266
 30
0.0
 41
1.0
 10
197.0780578499534
 20
-1392.698746333045
 30
0.0
 41
1.0
 10
197.0634215851494
 20
-1392.709853022824
 30
0.0
 41
1.0
 10
196.9516734251379
 20
-1392.794652810424
 30
0.0
 41
0.9998091630798871
 10
196.8433231471107
 20
-1392.883753161125
 30
0.0
 41
1.0
 10
196.8303173946322
 20
-1392.894448261572
 30
0.0
 41
1.0
 10
196.8173116421536
 20
-1392.905143362019
 30
0.0
 41
1.0
 10
196.6829498591706
 20
-1393.015633913613
 30
0.0
 41
0.9995035112316867
 10
196.5558139814056
 20
-1393.13436773063
 30
0.0
 41
1.0
 10
196.5461666710181
 20
-1393.143377476788
 30
0.0
 41
1.0
 10
196.5365193606307
 20
-1393.152387222946
 30
0.0
 41
1.0
 10
196.4130962978664
 20
-1393.267653594701
 30
0.0
 41
0.9994630424298924
 10
196.2974878920841
 20
-1393.390756337934
 30
0.0
 41
1.0
 10
196.293805053313
 20
-1393.394677917447
 30
0.0
 41
1.0
 10
196.290122214542
 20
-1393.39859949696
 30
0.0
 41
1.0
 10
196.1818794863008
 20
-1393.513859081169
 30
0.0
 41
0.9995160693749752
 10
196.0810134567682
 20
-1393.635626499042
 30
0.0
 41
1.0
 10
196.0790797366881
 20
-1393.63796092325
 30
0.0
 41
1.0
 10
196.077146016608
 20
-1393.640295347457
 30
0.0
 41
1.0
 10
195.9801474272354
 20
-1393.757393916916
 30
0.0
 41
0.9996561470515032
 10
195.8894212085704
 20
-1393.879416679364
 30
0.0
 41
1.0
 10
195.8832635426692
 20
-1393.887698468405
 30
0.0
 41
1.0
 10
195.8771058767679
 20
-1393.895980257447
 30
0.0
 41
1.0
 10
195.7986949899041
 20
-1394.001439441814
 30
0.0
 41
0.9998349055172558
 10
195.7241677079723
 20
-1394.109678025477
 30
0.0
 41
1.0
 10
195.6496404260371
 20
-1394.217916609144
 30
0.0
 41
0.9999728109555163
 10
195.5767175301239
 20
-1394.327242534704
 30
0.0
 41
1.0
 10
195.5754023147152
 20
-1394.329214304202
 30
0.0
 41
1.0
 10
195.5740870993064
 20
-1394.3311860737
 30
0.0
 41
1.0
 10
195.4985337725914
 20
-1394.444455538232
 30
0.0
 41
0.9999972147379576
 10
195.423515962226
 20
-1394.558080381055
 30
0.0
 41
1.0
 10
195.41854441959
 20
-1394.565610469548
 30
0.0
 41
1.0
 10
195.413572876954
 20
-1394.573140558041
 30
0.0
 41
1.0
 10
195.328611981335
 20
-1394.701825577822
 30
0.0
 41
0.9999371979008018
 10
195.2465566319329
 20
-1394.832382491596
 30
0.0
 41
1.0
 10
195.2430477475699
 20
-1394.837965419662
 30
0.0
 41
1.0
 10
195.239538863207
 20
-1394.843548347729
 30
0.0
 41
1.0
 10
195.1504657450771
 20
-1394.98527111764
 30
0.0
 41
0.999827202560914
 10
195.066722354195
 20
-1395.130206994383
 30
0.0
 41
1.0
 10
195.0515071821717
 20
-1395.156540108838
 30
0.0
 41
1.0
 10
195.0362920101483
 20
-1395.182873223294
 30
0.0
 41
1.0
 10
194.9221182752176
 20
-1395.38047532895
 30
0.0
 41
0.9995217214838056
 10
194.8203785856619
 20
-1395.584757656813
 30
0.0
 41
1.0
 10
194.8127350230268
 20
-1395.600105106516
 30
0.0
 41
1.0
 10
194.8050914603917
 20
-1395.615452556219
 30
0.0
 41
1.0
 10
194.718186167803
 20
-1395.789949014299
 30
0.0
 41
0.9998269762608549
 10
194.6378317015307
 20
-1395.967557301022
 30
0.0
 41
1.0
 10
194.5574772352605
 20
-1396.145165587742
 30
0.0
 41
0.9998944747388332
 10
194.4823164406953
 20
-1396.325033313372
 30
0.0
 41
1.0
 10
194.4773627711036
 20
-1396.336887968291
 30
0.0
 41
1.0
 10
194.472409101512
 20
-1396.348742623209
 30
0.0
 41
1.0
 10
194.3917620409589
 20
-1396.541739563228
 30
0.0
 41
0.9999506734409795
 10
194.3149645120549
 20
-1396.736300368085
 30
0.0
 41
1.0
 10
194.3003645467874
 20
-1396.773288289883
 30
0.0
 41
1.0
 10
194.2857645815199
 20
-1396.81027621168
 30
0.0
 41
1.0
 10
194.2381669831532
 20
-1396.930861172937
 30
0.0
 41
0.9999912393935415
 10
194.1915805391288
 20
-1397.051840375637
 30
0.0
 41
1.0
 10
194.1449940951016
 20
-1397.172819578345
 30
0.0
 41
0.9999927113977389
 10
194.0993328007088
 20
-1397.294150985844
 30
0.0
 41
1.0
 10
194.0853643693127
 20
-1397.331267967838
 30
0.0
 41
1.0
 10
194.0713959379166
 20
-1397.368384949833
 30
0.0
 41
1.0
 10
193.9977977807282
 20
-1397.563950321329
 30
0.0
 41
0.9999487550951898
 10
193.9281741557556
 20
-1397.760965686515
 30
0.0
 41
1.0
 10
193.9045805458177
 20
-1397.82772899681
 30
0.0
 41
1.0
 10
193.8809869358799
 20
-1397.894492307105
 30
0.0
 41
1.0
 10
193.7863013015136
 20
-1398.162426141919
 30
0.0
 41
0.9999808436940685
 10
193.6949397128695
 20
-1398.43151157319
 30
0.0
 41
1.0
 10
193.6035781242297
 20
-1398.70059700445
 30
0.0
 41
0.999987393290357
 10
193.5149234155085
 20
-1398.970586359473
 30
0.0
 41
1.0
 10
193.4948310586399
 20
-1399.031775692223
 30
0.0
 41
1.0
 10
193.4747387017713
 20
-1399.092965024974
 30
0.0
 41
1.0
 10
193.3458992793124
 20
-1399.485333045499
 30
0.0
 41
0.9999794883025981
 10
193.2220964943544
 20
-1399.879319251777
 30
0.0
 41
1.0
 10
193.21094423492
 20
-1399.914809862004
 30
0.0
 41
1.0
 10
193.1997919754857
 20
-1399.950300472231
 30
0.0
 41
1.0
 10
193.057233811595
 20
-1400.403973224296
 30
0.0
 41
0.9999982761760088
 10
192.9163613715688
 20
-1400.858172246454
 30
0.0
 41
1.0
 10
191.3282210389962
 20
-1405.906941977457
 30
0.0
 41
1.0
 10
189.7400807064236
 20
-1410.955711708461
 30
0.0
 41
1.0
 10
188.7913300949472
 20
-1410.955711708461
 30
0.0
 41
1.0
 10
187.8425794834708
 20
-1410.955711708461
 30
0.0
 41
1.0
 10
191.080863969624
 20
-1400.628389508515
 30
0.0
 41
1.0
 10
194.3191484557772
 20
-1390.301067308568
 30
0.0
 41
1.0
  0
LWPOLYLINE
  5
6F
330
23
100
AcDbEntity
  8
0
  6
Continuous
 62
     7
370
    15
390
1D
100
AcDbPolyline
 90
      232
 70
   128
 43
0.0
 10
168.6156026819501
 20
-1391.385410140084
 42
0.000437080069434
 10
168.5627255078981
 20
-1391.454076779314
 10
168.5234412767506
 20
-1391.505183892236
 42
0.0030481992172825
 10
168.3931025596346
 20
-1391.676905584577
 10
168.354590887881
 20
-1391.728292368369
 42
0.0042058245754579
 10
168.1506058372094
 20
-1392.005298113445
 10
168.0982007147105
 20
-1392.077730960223
 42
0.012094889874271
 10
167.802156797948
 20
-1392.508480564774
 10
167.7059642988244
 20
-1392.655961300002
 42
0.0141601263950672
 10
167.4023202519052
 20
-1393.151630636733
 10
167.3627829844809
 20
-1393.220474604161
 42
0.0071131081302228
 10
167.1575106612408
 20
-1393.589977403002
 42
0.0068458791003174
 10
166.9626311343969
 20
-1393.96506896648
 10
166.95581927194
 20
-1393.978630680202
 42
0.0064120880289808
 10
166.7576770218943
 20
-1394.386055155124
 10
166.7501423363786
 20
-1394.402067011842
 42
0.0058857236449498
 10
166.5473869445086
 20
-1394.846443122874
 10
166.539212018213
 20
-1394.864933276511
 42
0.0053189741893965
 10
166.3305077055494
 20
-1395.35089675042
 10
166.3217598998641
 20
-1395.371878628625
 42
0.0047503650418478
 10
166.1057861737154
 20
-1395.90407806183
 10
166.0965179253653
 20
-1395.927554437943
 42
0.0042071762174392
 10
165.8719705416343
 20
-1396.510648032021
 10
165.8622211392889
 20
-1396.536614206882
 42
0.0036680086485242
 10
165.6277664959748
 20
-1397.175249591419
 10
165.617558716129
 20
-1397.203698125758
 42
0.0032573142627083
 10
165.3719264301626
 20
-1397.90255078551
 10
165.3032759093187
 20
-1398.102013869573
 42
0.002613336664943
 10
164.9548307105636
 20
-1399.131877153236
 10
164.8915739230627
 20
-1399.32210798863
 42
0.0020592950739935
 10
164.6777108540958
 20
-1399.974211641242
 10
164.6746590629349
 20
-1399.983648129645
 42
0.0025609928535228
 10
164.4728385614469
 20
-1400.618793352018
 10
164.4702471943155
 20
-1400.627095692973
 42
0.0031362356243018
 10
164.2807564086433
 20
-1401.247858549138
 10
164.2786253657164
 20
-1401.254999855347
 42
0.0037229918028203
 10
164.1018249787895
 20
-1401.863985157323
 10
164.1001463895844
 20
-1401.869932047493
 42
0.004307762370899
 10
163.936405587518
 20
-1402.469750779267
 42
0.00476541618227
 10
163.7835768650025
 20
-1403.072436868167
 10
163.749112256163
 20
-1403.213998645319
 42
0.0112969368446468
 10
163.5532478980196
 20
-1404.105690805942
 10
163.5252415089227
 20
-1404.248518852041
 42
0.0130056762572017
 10
163.3244042652761
 20
-1405.435459923686
 10
163.3038645151289
 20
-1405.579538037164
 42
0.013872153214439
 10
163.2001615105911
 20
-1406.486367522989
 10
163.1808660226831
 20
-1406.709865244914
 42
0.0071254697005778
 10
163.1475193767606
 20
-1407.173052253761
 10
163.1425584025977
 20
-1407.259056248316
 42
0.0028881799198056
 10
163.1274201093075
 20
-1407.550797958163
 42
0.0060297297138162
 10
163.1174879095319
 20
-1407.842746894281
 10
163.1164256278648
 20
-1407.891139266212
 42
0.0229523164157245
 10
163.1241566556506
 20
-1408.213894112495
 10
163.128382429171
 20
-1408.274297646512
 42
0.0123673300666529
 10
163.1474610756893
 20
-1408.475418371686
 42
0.0128577674468016
 10
163.1766564660955
 20
-1408.675316221612
 10
163.1837823394826
 20
-1408.71664503621
 42
0.0285717853763953
 10
163.2482763411783
 20
-1408.994761187523
 10
163.2619448648448
 20
-1409.041415957001
 42
0.0316283099158114
 10
163.377755444759
 20
-1409.360430458826
 10
163.3808041365141
 20
-1409.367416831151
 42
0.0338984824236379
 10
163.5302358474817
 20
-1409.654982795341
 10
163.5325445768509
 20
-1409.658773824616
 42
0.0350228718352011
 10
163.7149048675251
 20
-1409.915825809294
 10
163.7157901193019
 20
-1409.91690488706
 42
0.0347476747533496
 10
163.9302148065402
 20
-1410.144089934278
 42
0.0331337701909987
 10
164.1734581322862
 20
-1410.340218596355
 10
164.1745582308027
 20
-1410.340991299528
 42
0.0305233319078933
 10
164.4431029263747
 20
-1410.506119469618
 10
164.4463329708773
 20
-1410.507843481482
 42
0.0273744481151518
 10
164.7388866824496
 20
-1410.643981625371
 10
164.7439912175892
 20
-1410.646025209842
 42
0.0240964406199284
 10
165.0594682932373
 20
-1410.755008936124
 10
165.0660516224448
 20
-1410.756933675798
 42
0.0209636179811721
 10
165.4034517751021
 20
-1410.840401823731
 10
165.4110842355461
 20
-1410.841953736732
 42
0.0181388704689687
 10
165.7694066275409
 20
-1410.901369829945
 10
165.7776874759227
 20
-1410.902436013763
 42
0.015608654758637
 10
166.1558748401118
 20
-1410.939172200339
 10
166.1990700924399
 20
-1410.942010702818
 42
0.0137148329022909
 10
166.5267432377375
 20
-1410.95453095807
 10
166.5726794276734
 20
-1410.955025391185
 42
0.0051057823884518
 10
166.8088250142557
 20
-1410.955155645594
 42
0.0052256693316758
 10
167.0449222980399
 20
-1410.95040682113
 10
167.1151490817838
 20
-1410.948259855116
 42
0.0161507179051274
 10
167.4908861598888
 20
-1410.924609484789
 10
167.5108991202581
 20
-1410.922699289502
 42
0.0101216737832027
 10
167.92492634175
 20
-1410.874706359136
 10
167.9589796311756
 20
-1410.870058662327
 42
0.024529177639797
 10
168.4357692867262
 20
-1410.78098358425
 10
168.5205926022492
 20
-1410.760787663905
 42
0.0143509212554754
 10
168.8772237061903
 20
-1410.664983030126
 42
0.0156557857037993
 10
169.2274397709199
 20
-1410.547971814306
 10
169.2349409854122
 20
-1410.545201652553
 42
0.0170137333629897
 10
169.5915369810971
 20
-1410.39954403768
 10
169.5986409035011
 20
-1410.396356202118
 42
0.0183105364411669
 10
169.9579905716641
 20
-1410.219021160295
 10
169.9649373363061
 20
-1410.215270725421
 42
0.0194899958154581
 10
170.3234180772903
 20
-1410.00329174353
 10
170.3304319566268
 20
-1409.998766401236
 42
0.0204869852952592
 10
170.684446258721
 20
-1409.749246386149
 10
170.6917118673077
 20
-1409.743666320801
 42
0.021251693855766
 10
171.0377017984158
 20
-1409.453762323907
 10
171.0842184924936
 20
-1409.411295013811
 42
0.0215248918254979
 10
171.344244661379
 20
-1409.152530734819
 10
171.3892743957649
 20
-1409.103686613463
 42
0.011457855495726
 10
171.544066549437
 20
-1408.92786368001
 10
171.5552610854188
 20
-1408.914544916471
 42
0.0061531305135464
 10
171.681735731418
 20
-1408.760255383159
 42
0.0006325587126114
 10
171.8061142155987
 20
-1408.604252007447
 10
171.8291543506213
 20
-1408.575278486824
 42
0.0041897761559341
 10
171.997609754602
 20
-1408.359759110752
 10
172.0560718744862
 20
-1408.283657763777
 42
0.0092993880040679
 10
172.3326838017135
 20
-1407.909378999888
 10
172.4150782949066
 20
-1407.793441996328
 42
0.0159321727084561
 10
172.7616847775512
 20
-1407.271267775569
 10
172.8060409129435
 20
-1407.199588211313
 42
0.008554731702363
 10
173.040552678266
 20
-1406.805713262094
 42
0.0084601156890863
 10
173.2615288557095
 20
-1406.40408641306
 10
173.2696443295384
 20
-1406.388726730789
 42
0.0081429654284805
 10
173.4928935999736
 20
-1405.949005218253
 10
173.50175376416
 20
-1405.930826376229
 42
0.0076574581326883
 10
173.7281612747269
 20
-1405.447643500975
 10
173.7376409154504
 20
-1405.426579022673
 42
0.0070682724200787
 10
173.9680858232596
 20
-1404.894541717885
 10
173.9780761072388
 20
-1404.87055252888
 42
0.0064559514447683
 10
174.2134093154202
 20
-1404.284240262362
 10
174.2238186735855
 20
-1404.257305336919
 42
0.0058311413904732
 10
174.4648654103483
 20
-1403.611273242535
 10
174.4756204877358
 20
-1403.581388901374
 42
0.0052312425818699
 10
174.7232017657777
 20
-1402.870186487537
 10
174.7342456021565
 20
-1402.83735977547
 42
0.0046680544796767
 10
174.9891740298908
 20
-1402.055533459716
 10
175.0311661799363
 20
-1401.922550222418
 42
0.0041666856443825
 10
175.2344521923295
 20
-1401.259581447418
 10
175.2721146329876
 20
-1401.133000339783
 42
0.0015170975152518
 10
175.3933012114063
 20
-1400.72113198827
 42
-0.0004887993112059
 10
175.5136409845366
 20
-1400.309013576204
 10
175.5901182420245
 20
-1400.048056190287
 42
0.0002583378929462
 10
175.863332812138
 20
-1399.11399948694
 10
175.9451056616803
 20
-1398.833900227474
 42
0.0006636169673302
 10
176.1389734216767
 20
-1398.166547303938
 10
176.144070076031
 20
-1398.148915721033
 42
0.0010589131323655
 10
176.3255187769404
 20
-1397.516184378009
 10
176.3305008474175
 20
-1397.498671471001
 42
0.0015655524460552
 10
176.4987710546037
 20
-1396.900054791788
 10
176.5036012550143
 20
-1396.882662632868
 42
0.0021640440476998
 10
176.6578912270047
 20
-1396.317635614834
 10
176.6625254464345
 20
-1396.300370884841
 42
0.0028763871854752
 10
176.8020411644875
 20
-1395.768402933993
 10
176.8064270286544
 20
-1395.75127895584
 42
0.0037310511947221
 10
176.9303837204916
 20
-1395.251831361815
 10
176.9344589407809
 20
-1395.234871090569
 42
0.0047652197768595
 10
177.0420828412891
 20
-1394.767393322265
 10
177.0457734406106
 20
-1394.750633767123
 42
0.0060276699301562
 10
177.1363035397662
 20
-1394.31455797197
 10
177.1395222300557
 20
-1394.298056757659
 42
0.0075824337756038
 10
177.2122115394708
 20
-1393.892789593235
 10
177.2148569168513
 20
-1393.876634645783
 42
0.009513062461158
 10
177.2689721524823
 20
-1393.501545292713
 10
177.2759583763647
 20
-1393.445611734597
 42
0.0121054653230252
 10
177.3025497069427
 20
-1393.180715906122
 10
177.3034161967022
 20
-1393.169312463193
 42
0.0069050827391012
 10
177.31850501474
 20
-1392.926371236349
 10
177.3196403144086
 20
-1392.902844979302
 42
0.0169063976697858
 10
177.3224675933888
 20
-1392.706652252004
 10
177.3212969418575
 20
-1392.646316490652
 42
0.0052007732904602
 10
177.3190434932645
 20
-1392.570723100502
 42
0.0054038123297264
 10
177.2990799814248
 20
-1392.450704804487
 10
177.2939941255552
 20
-1392.422046317911
 42
0.011205046046596
 10
177.2586097634967
 20
-1392.245719879572
 10
177.2407848014561
 20
-1392.166178292851
 42
0.0240764468011677
 10
177.1498874353098
 20
-1391.83594125735
 10
177.1313286724962
 20
-1391.779321092355
 42
0.0256812331836771
 10
176.9879657523069
 20
-1391.407596886099
 10
176.9825563264856
 20
-1391.395465551109
 42
0.0268360501216477
 10
176.8131290856356
 20
-1391.064472417088
 10
176.8075926780008
 20
-1391.054952746776
 42
0.0274670231729405
 10
176.6153917015873
 20
-1390.762665371858
 10
176.6100104016245
 20
-1390.755386224317
 42
0.0275035967101085
 10
176.3984375220628
 20
-1390.499870334013
 10
176.3933680210955
 20
-1390.494391246382
 42
0.0269557673528387
 10
176.1659644776567
 20
-1390.273748960421
 10
176.1612214198738
 20
-1390.26961900596
 42
0.0259124802209412
 10
175.9216665884433
 20
-1390.081928478807
 10
175.9171357432583
 20
-1390.078742976475
 42
0.0245162153009108
 10
175.6692193901666
 20
-1389.922009967367
 10
175.6646928438433
 20
-1389.919449770166
 42
0.0229282588840307
 10
175.4122732870151
 20
-1389.791581577667
 10
175.4074927931811
 20
-1389.789429277906
 42
0.0212984135695582
 10
175.1544548407166
 20
-1389.688230360663
 10
175.149150555748
 20
-1389.686366797903
 42
0.0197555462348801
 10
174.8993722180241
 20
-1389.609551379938
 42
0.0183511896790463
 10
174.6444434925617
 20
-1389.551968472972
 10
174.5580782958357
 20
-1389.535765682587
 42
0.0338057877149859
 10
174.2725709465776
 20
-1389.501957277447
 10
174.181565541528
 20
-1389.497377622185
 42
0.0091990524500715
 10
174.0757184329017
 20
-1389.494001766263
 42
0.0028333980792005
 10
173.969804516899
 20
-1389.493173658747
 10
173.9688890638594
 20
-1389.493171688923
 42
-0.0023619827806332
 10
173.8611430487496
 20
-1389.492430847844
 10
173.8247378785777
 20
-1389.492008541381
 42
0.0008824598476649
 10
173.6441818886462
 20
-1389.490232763142
 10
173.6003204563218
 20
-1389.489878801617
 42
0.0038132665768219
 10
173.3320375604458
 20
-1389.489759865551
 10
173.3155039056495
 20
-1389.489878631694
 42
0.0060665569335831
 10
173.0142234140525
 20
-1389.495698931115
 10
172.9999730820329
 20
-1389.496147239083
 42
0.0080356953338363
 10
172.6705143656824
 20
-1389.51181496115
 10
172.6584443506064
 20
-1389.51258354409
 42
0.0098996399105714
 10
172.3056812659638
 20
-1389.542068773287
 10
172.2956355565808
 20
-1389.543109069486
 42
0.0117740981368966
 10
171.9244786982294
 20
-1389.590401317017
 10
171.9162560017495
 20
-1389.591646433587
 42
0.0137435215135005
 10
171.5316671822665
 20
-1389.660743407148
 10
171.5250101431411
 20
-1389.662129303382
 42
0.0158359869388506
 10
171.1320130493359
 20
-1389.757021391864
 10
171.1265998624714
 20
-1389.758511332733
 42
0.0180554124029062
 10
170.7302848178585
 20
-1389.883149348972
 10
170.7257280297756
 20
-1389.884765385239
 42
0.0203657431283911
 10
170.3312505119629
 20
-1390.043025726755
 10
170.3271069729569
 20
-1390.044887348196
 42
0.022681968465612
 10
169.939670916754
 20
-1390.240529926867
 10
169.9354711257351
 20
-1390.242895518787
 42
0.0248634984606036
 10
169.5602891845554
 20
-1390.479522164733
 10
169.51209425577
 20
-1390.51337920656
 42
0.026704419088507
 10
169.2378015588534
 20
-1390.728819582428
 42
0.0139303002202466
 10
168.9816343929104
 20
-1390.966058423344
 10
168.9767810071937
 20
-1390.9708110862
 42
0.028346096344578
 10
168.7327084129667
 20
-1391.238541746645
 10
168.69303990781
 20
-1391.287343324118
 42
0.0070695364819148
 10
168.6156026819501
 20
-1391.385410140084
 42
0.0070695364819148
  0
LWPOLYLINE
  5
70
330
23
100
AcDbEntity
  8
0
  6
Continuous
 62
     7
370
    15
390
1D
100
AcDbPolyline
 90
      226
 70
   128
 43
0.0
 10
165.0867822447037
 20
-1407.106998946268
 42
-0.0026277636624829
 10
165.0867043609037
 20
-1407.040227020526
 10
165.0869217191357
 20
-1406.987071803082
 42
-0.0088680296730826
 10
165.0906983354288
 20
-1406.814056020677
 10
165.0930446945412
 20
-1406.754775995225
 42
-0.0077381705613665
 10
165.1090908053043
 20
-1406.463515499428
 10
165.1099587164774
 20
-1406.451227265742
 42
-0.0068872530529204
 10
165.1365907962254
 20
-1406.136005513674
 10
165.1377950204117
 20
-1406.123764534654
 42
-0.0062130021484237
 10
165.1753887372396
 20
-1405.784894843414
 10
165.1768926407746
 20
-1405.772720971499
 42
-0.0056726929665509
 10
165.2258145002766
 20
-1405.410525749387
 10
165.2275879459213
 20
-1405.39843194914
 42
-0.0052341884495948
 10
165.2881985321825
 20
-1405.013238693615
 10
165.2902165209579
 20
-1405.00123376363
 42
-0.0049768450168131
 10
165.3629552023841
 20
-1404.593389196198
 10
165.387204217106
 20
-1404.464841213191
 42
-0.008902980562394
 10
165.5242850689007
 20
-1403.803065765769
 10
165.5570304442193
 20
-1403.658034335245
 42
-0.008031825709999
 10
165.7865790585596
 20
-1402.712324703394
 10
165.7985639850083
 20
-1402.666194068202
 42
-0.0074265721319076
 10
166.0825755238592
 20
-1401.636129489818
 10
166.1024550669748
 20
-1401.567995429232
 42
-0.0069711922701638
 10
166.4297596454816
 20
-1400.501727688903
 10
166.489711592585
 20
-1400.315706330539
 42
-0.005207042289537
 10
166.7191368178464
 20
-1399.628434253502
 10
166.7364180100276
 20
-1399.578406972859
 42
-0.0009167004449377
 10
166.939509897308
 20
-1398.99395112473
 42
-0.0025162726942855
 10
167.1466075275746
 20
-1398.410909860557
 10
167.1838321393769
 20
-1398.30776031466
 42
-0.0028212681457558
 10
167.4320080583391
 20
-1397.632029682492
 10
167.4418388210924
 20
-1397.605722237808
 42
-0.003196491682402
 10
167.6781310787521
 20
-1396.985517475688
 10
167.687765532752
 20
-1396.960707485542
 42
-0.0036281836451563
 10
167.9128714938523
 20
-1396.393266804651
 10
167.9223099040119
 20
-1396.369969373143
 42
-0.0041269166830109
 10
168.136927600669
 20
-1395.85252847717
 10
168.1695605570895
 20
-1395.77565003081
 42
-0.0047472213057222
 10
168.3266053626434
 20
-1395.415228562926
 10
168.3334994438484
 20
-1395.399807965601
 42
-0.0025651659997722
 10
168.4818574777017
 20
-1395.072479909845
 42
-0.0057144634992
 10
168.635607171476
 20
-1394.747670236477
 10
168.6636378768735
 20
-1394.69016185409
 42
-0.0065388068374104
 10
168.8471049046141
 20
-1394.325929357424
 10
168.8555633603909
 20
-1394.309669778057
 42
-0.0074510843021434
 10
169.0317456062704
 20
-1393.982981496931
 10
169.0399252768026
 20
-1393.96834071966
 42
-0.0084648979859067
 10
169.2095591299015
 20
-1393.676431708701
 10
169.2174152563898
 20
-1393.66342471705
 42
-0.0095638542801276
 10
169.3812507039838
 20
-1393.403535845072
 10
169.3887256476567
 20
-1393.392166483615
 42
-0.0107191626807465
 10
169.5475272280431
 20
-1393.161555249073
 10
169.5545439617759
 20
-1393.151819156705
 42
-0.0118458573902914
 10
169.7090920602867
 20
-1392.947746961397
 42
-0.0129184518188796
 10
169.8735446838893
 20
-1392.751586445225
 10
169.9036894562533
 20
-1392.717460366325
 42
-0.0217742579633162
 10
170.0803017785867
 20
-1392.534253596077
 10
170.0910473230459
 20
-1392.524036762875
 42
-0.009726656865224
 10
170.2571049419028
 20
-1392.372189188437
 42
-0.0187720905713921
 10
170.4314525177948
 20
-1392.230120335046
 10
170.4621585084642
 20
-1392.206961252653
 42
-0.0179428207522219
 10
170.6945792284627
 20
-1392.04440907554
 10
170.6982315553775
 20
-1392.042045140653
 42
-0.0170047877695845
 10
170.9339951929088
 20
-1391.9005846265
 10
170.9377781816528
 20
-1391.898486321465
 42
-0.0160190788362813
 10
171.1746867292907
 20
-1391.776835019476
 42
-0.0151102861487645
 10
171.4187185117386
 20
-1391.670152243421
 10
171.4711050139491
 20
-1391.649112110527
 42
-0.027194544188741
 10
171.8297675730087
 20
-1391.527247299821
 10
171.8988323734957
 20
-1391.507897758554
 42
-0.0237596594023379
 10
172.3146292205179
 20
-1391.412447046573
 10
172.3826920742464
 20
-1391.400192358447
 42
-0.0213715440557035
 10
172.6685670056937
 20
-1391.361245326936
 10
172.7287141719079
 20
-1391.355655612236
 42
-0.0101465655823945
 10
172.8962067039058
 20
-1391.343512068971
 10
172.9055470901032
 20
-1391.343025153974
 42
-0.0100375910881909
 10
173.0547011906666
 20
-1391.338249336049
 10
173.0649604603447
 20
-1391.338126897034
 42
-0.0103625633383692
 10
173.1936684550018
 20
-1391.339258330561
 10
173.2159341062699
 20
-1391.339915689026
 42
-0.0115689250235746
 10
173.2999848437967
 20
-1391.344345195271
 42
-0.0072438037442442
 10
173.3838231232334
 20
-1391.35193439502
 10
173.4006236327086
 20
-1391.353700937745
 42
-0.0217917313131832
 10
173.517193396022
 20
-1391.371120830466
 10
173.5827934865917
 20
-1391.383867438881
 42
-0.0332943556753274
 10
173.7871856516173
 20
-1391.437907730187
 10
173.8173582201674
 20
-1391.448075807306
 42
-0.0184824084806934
 10
173.9558632766328
 20
-1391.500526822692
 42
-0.0198002050703593
 10
174.0899376171319
 20
-1391.563410882892
 10
174.091824254509
 20
-1391.564388669771
 42
-0.0212242342975027
 10
174.2239631969094
 20
-1391.640151408563
 10
174.2257784924545
 20
-1391.641297210773
 42
-0.0226090605778229
 10
174.3542823936773
 20
-1391.730776854338
 10
174.3561268354136
 20
-1391.732189107325
 42
-0.0238457052230452
 10
174.4793089167075
 20
-1391.836185003188
 10
174.4812616452656
 20
-1391.837999880953
 42
-0.0248160564153785
 10
174.5974631525658
 20
-1391.957274482161
 10
174.5995667859683
 20
-1391.959659815866
 42
-0.0254109591443147
 10
174.7071720038334
 20
-1392.09494820183
 10
174.7094200257483
 20
-1392.098089750231
 42
-0.0255528488285484
 10
174.8068667045456
 20
-1392.250116804466
 10
174.8091978044616
 20
-1392.254198416073
 42
-0.0252146793221356
 10
174.8949788304706
 20
-1392.42370066207
 10
174.8972810696283
 20
-1392.428882743983
 42
-0.0244265635953182
 10
174.9699357633896
 20
-1392.616629316029
 10
174.9791821648581
 20
-1392.644494734367
 42
-0.0231319612898339
 10
175.0251049438502
 20
-1392.807795781169
 42
-0.0112130424360401
 10
175.0597409663886
 20
-1392.973999381358
 10
175.060943491501
 20
-1392.980495968245
 42
-0.0210527881228266
 10
175.0866299668718
 20
-1393.161551613687
 10
175.0901405616937
 20
-1393.196957162234
 42
-0.0190029892425036
 10
175.1055820352382
 20
-1393.450493008505
 10
175.1063920116823
 20
-1393.485968622875
 42
-0.0137974553661105
 10
175.1048431588468
 20
-1393.811000029606
 10
175.1039977038912
 20
-1393.837118774201
 42
-0.0081336634214552
 10
175.0891383686686
 20
-1394.142466241801
 42
-0.0073526923577728
 10
175.0648298352944
 20
-1394.447214486082
 10
175.0635684115113
 20
-1394.460551160752
 42
-0.0066886138693655
 10
175.0278328254648
 20
-1394.791137204248
 10
175.0261757359949
 20
-1394.80475882324
 42
-0.0061359187353979
 10
174.9783251339447
 20
-1395.161522803335
 10
174.9762876328711
 20
-1395.17541760617
 42
-0.0056698610067488
 10
174.9156373021046
 20
-1395.558696175004
 10
174.913231868781
 20
-1395.572855294238
 42
-0.0052721077276576
 10
174.839099667981
 20
-1395.982982633918
 10
174.8363365191396
 20
-1395.997399269302
 42
-0.0049289272177699
 10
174.7480424010396
 20
-1396.434707780425
 10
174.7449299063571
 20
-1396.44937663324
 42
-0.0047415956711835
 10
174.6416919148265
 20
-1396.914173390644
 10
174.606923704465
 20
-1397.063980486034
 42
-0.0084404470902269
 10
174.4169072608927
 20
-1397.824204510567
 10
174.4107805729075
 20
-1397.847068634719
 42
-0.0039635940258938
 10
174.1893268886213
 20
-1398.648057498974
 10
174.1759500934439
 20
-1398.694989115558
 42
-0.0072475040837433
 10
173.908503205582
 20
-1399.584208831945
 10
173.8382908787529
 20
-1399.805949181922
 42
-0.0051345458826423
 10
173.5515315066946
 20
-1400.680274369731
 10
173.5300052399338
 20
-1400.743700636842
 42
-0.0019150016602287
 10
173.2744718330604
 20
-1401.487249757088
 10
173.2680042286657
 20
-1401.505837222004
 42
-0.0021524362752139
 10
173.0195261776003
 20
-1402.210163043717
 10
173.0103157569051
 20
-1402.235916622015
 42
-0.0024331286822809
 10
172.7740604978679
 20
-1402.886515930137
 10
172.7650125453203
 20
-1402.911059236483
 42
-0.0027449721786529
 10
172.5403979744819
 20
-1403.510189115415
 10
172.5315079670903
 20
-1403.533511705266
 42
-0.0031083229768356
 10
172.3179654804798
 20
-1404.083435742847
 10
172.3092293488029
 20
-1404.105525458708
 42
-0.0035311343282031
 10
172.1061881632124
 20
-1404.608508584435
 10
172.0976028240693
 20
-1404.629351307934
 42
-0.0040245640951774
 10
171.9044910202703
 20
-1405.087660630538
 10
171.8960549066622
 20
-1405.107239998621
 42
-0.0046015135851779
 10
171.7122986135034
 20
-1405.523145028252
 10
171.70401243568
 20
-1405.541442167694
 42
-0.0052768638268408
 10
171.5290349167196
 20
-1405.917215051975
 10
171.5209027060927
 20
-1405.934208390518
 42
-0.0060672675642546
 10
171.3541230933267
 20
-1406.272124013632
 10
171.3461536128463
 20
-1406.287789272627
 42
-0.0069904648871693
 10
171.1869852188436
 20
-1406.590125079293
 10
171.1791938192306
 20
-1406.604435628524
 42
-0.0080637022764341
 10
171.027041958887
 20
-1406.873470931673
 10
171.0194529262565
 20
-1406.886398797273
 42
-0.0093006455661647
 10
170.8737122497242
 20
-1407.124413195777
 10
170.8663615829799
 20
-1407.135931164951
 42
-0.01070607780483
 10
170.7264130395421
 20
-1407.345201482329
 10
170.7193512712641
 20
-1407.355287024893
 42
-0.0122723111409559
 10
170.5845575530644
 20
-1407.538080354384
 10
170.5842313295104
 20
-1407.538500742194
 42
-0.0141836319621166
 10
170.4406497265363
 20
-1407.713070500024
 10
170.4337019708876
 20
-1407.721045500285
 42
-0.0175957477206708
 10
170.2937958028496
 20
-1407.870666388693
 42
-0.0080466359673868
 10
170.1463320378222
 20
-1408.012988916842
 10
170.1002974933019
 20
-1408.056009354935
 42
-0.0269600260391989
 10
169.8470172473177
 20
-1408.268332613446
 10
169.7804501110253
 20
-1408.318284028066
 42
-0.0178362839756123
 10
169.5405056213662
 20
-1408.485301954321
 10
169.5332606503659
 20
-1408.489970466526
 42
-0.0174650732652046
 10
169.2969244529244
 20
-1408.630831431485
 42
-0.0169240130166427
 10
169.051458207066
 20
-1408.755123691263
 10
169.0054720515089
 20
-1408.77648564683
 42
-0.0318883036841385
 10
168.655121195889
 20
-1408.91282395634
 10
168.5867556607244
 20
-1408.934524576815
 42
-0.0284435909901641
 10
168.2107055344331
 20
-1409.03074201229
 10
168.1755473739355
 20
-1409.037635608118
 42
-0.0243909341010886
 10
167.8621039130156
 20
-1409.083356639148
 10
167.8118231862479
 20
-1409.08820218605
 42
-0.0196639292932729
 10
167.5962276087172
 20
-1409.100450471564
 10
167.5444035375516
 20
-1409.1013537323
 42
-0.0100501510681708
 10
167.4319802558895
 20
-1409.101053333947
 10
167.4003203945193
 20
-1409.100332262061
 42
-0.001975203112288
 10
167.3512280578641
 20
-1409.099020101852
 10
167.3484677546515
 20
-1409.098935410026
 42
0.006537875196339
 10
167.3048911798872
 20
-1409.098168518811
 42
-0.0167974694639629
 10
167.2613603569598
 20
-1409.096508620285
 10
167.2572810176933
 20
-1409.09621560939
 42
-0.0081283276270865
 10
167.2057212199523
 20
-1409.091668615752
 10
167.1939816460762
 20
-1409.090440698174
 42
-0.0126703440164161
 10
167.1192633502807
 20
-1409.080705907102
 10
167.096475482606
 20
-1409.077147651187
 42
-0.0117852088436517
 10
166.9769364967725
 20
-1409.05558465603
 10
166.9215560450106
 20
-1409.044241115795
 42
-0.0251774592301448
 10
166.694712006005
 20
-1408.985743106363
 10
166.6499928161458
 20
-1408.971776287025
 42
-0.0146525199890941
 10
166.4635998286132
 20
-1408.907509759829
 42
-0.0166929435857243
 10
166.2816221724848
 20
-1408.831702626774
 10
166.2769655412133
 20
-1408.82957772616
 42
-0.0191684358433701
 10
166.0917819099662
 20
-1408.736341642372
 10
166.0884493242071
 20
-1408.734500394817
 42
-0.0221181781811029
 10
165.9051390203067
 20
-1408.622366896447
 10
165.9027892162965
 20
-1408.620782598455
 42
-0.0254984685376708
 10
165.7264990659107
 20
-1408.488371448485
 10
165.7040169182092
 20
-1408.469619139549
 42
-0.0292492648805496
 10
165.5792479793662
 20
-1408.352526339906
 42
-0.0159048957510002
 10
165.4654079819175
 20
-1408.224506348309
 10
165.4640891913368
 20
-1408.222924735287
 42
-0.0343813379564395
 10
165.3614519297103
 20
-1408.081053409517
 10
165.3299603983492
 20
-1408.030550017423
 42
-0.0369117275701337
 10
165.2440678964524
 20
-1407.867072776475
 42
-0.0191751379911731
 10
165.1768745108961
 20
-1407.694668170471
 10
165.1751111871359
 20
-1407.689574825794
 42
-0.037817804222841
 10
165.1253164683516
 20
-1407.500634049713
 10
165.1193211726213
 20
-1407.468073431515
 42
-0.0184846046477378
 10
165.098603973327
 20
-1407.326320610971
 42
-0.0179866351324661
 10
165.0882709682533
 20
-1407.18342979789
 10
165.0882145258075
 20
-1407.181872111277
 42
-0.0085497186139226
 10
165.0867822447037
 20
-1407.106998946268
 42
-0.0085497186139226
  0
ENDBLK
  5
71
330
23
100
AcDbEntity
  8
template
390
1D
100
AcDbBlockEnd
  0
BLOCK
  5
72
330
24
100
AcDbEntity
  8
notes
390
1D
100
AcDbBlockBegin
  2
*D4
 70
     1
 10
0.0
 20
0.0
 30
0.0
  3
*D4
  1
*D4
  0
LINE
  5
73
330
24
100
AcDbEntity
  8
0
  6
Continuous
 62
     0
370
    -2
390
1D
100
AcDbLine
 10
-284.9999999999999
 20
274.6277347515735
 30
0.0
 11
-174.9999999999999
 21
274.6277347515735
 31
0.0
  0
LINE
  5
74
330
24
100
AcDbEntity
  8
0
  6
Continuous
 62
     0
370
    -2
390
1D
100
AcDbLine
 10
-284.9999999999999
 20
1204.627734751573
 30
0.0
 11
-174.9999999999999
 21
1204.627734751573
 31
0.0
  0
LINE
  5
75
330
24
100
AcDbEntity
  8
0
  6
Continuous
 62
     0
370
    -2
390
1D
100
AcDbLine
 10
-174.9999999999999
 20
274.6277347515735
 30
0.0
 11
-174.9999999999999
 21
1204.627734751573
 31
0.0
  0
CIRCLE
  5
76
102
{ACAD_REACTORS
330
77
102
}
330
24
100
AcDbEntity
  8
0
  6
Continuous
 62
     0
370
    -2
390
1D
100
AcDbCircle
 10
-174.9999999999999
 20
274.6277347515735
 30
0.0
 40
4.99969482421875
  0
HATCH
  5
77
330
24
100
AcDbEntity
  8
0
  6
Continuous
 62
     0
370
    -2
390
1D
100
AcDbHatch
 10
0.0
 20
0.0
 30
0.0
210
0.0
220
0.0
230
1.0
  2
SOLID
 70
     1
 71
     1
 91
        1
 92
        1
 93
        1
 72
     2
 10
-174.9999999999999
 20
274.6277347515735
 40
4.99969482421875
 50
0.0
 51
360.0
 73
     0
 97
        1
330
76
 75
     0
 76
     1
 98
        1
 10
0.0
 20
0.0
  0
CIRCLE
  5
78
102
{ACAD_REACTORS
330
79
102
}
330
24
100
AcDbEntity
  8
0
  6
Continuous
 62
     0
370
    -2
390
1D
100
AcDbCircle
 10
-174.9999999999999
 20
1204.627734751573
 30
0.0
 40
4.99969482421875
  0
HATCH
  5
79
330
24
100
AcDbEntity
  8
0
  6
Continuous
 62
     0
370
    -2
390
1D
100
AcDbHatch
 10
0.0
 20
0.0
 30
0.0
210
0.0
220
0.0
230
1.0
  2
SOLID
 70
     1
 71
     1
 91
        1
 92
        1
 93
        1
 72
     2
 10
-174.9999999999999
 20
1204.627734751573
 40
4.99969482421875
 50
0.0
 51
360.0
 73
     0
 97
        1
330
78
 75
     0
 76
     1
 98
        1
 10
0.0
 20
0.0
  0
MTEXT
  5
7A
330
24
100
AcDbEntity
  8
0
 62
     0
390
1D
100
AcDbMText
 10
-208.8776171874999
 20
715.8152330693979
 30
0.0
 40
24.4326171875
 41
0.0
 46
0.0
 71
     1
 72
     1
  1
930
  7
ＭＳ ゴシック
 11
0.0
 21
1.0
 31
0.0
 73
     1
 44
0.7828267384257843
  0
POINT
  5
7B
330
24
100
AcDbEntity
  8
Defpoints
 62
     0
370
     0
390
1D
100
AcDbPoint
 10
-309.9999999999999
 20
1204.627734751573
 30
0.0
  0
POINT
  5
7C
330
24
100
AcDbEntity
  8
Defpoints
 62
     0
370
     0
390
1D
100
AcDbPoint
 10
-309.9999999999999
 20
274.6277347515735
 30
0.0
  0
POINT
  5
7D
330
24
100
AcDbEntity
  8
Defpoints
 62
     0
370
     0
390
1D
100
AcDbPoint
 10
-174.9999999999999
 20
274.6277347515735
 30
0.0
  0
ENDBLK
  5
7E
330
24
100
AcDbEntity
  8
notes
390
1D
100
AcDbBlockEnd
  0
BLOCK
  5
7F
330
25
100
AcDbEntity
  8
notes
390
1D
100
AcDbBlockBegin
  2
*D5
 70
     1
 10
0.0
 20
0.0
 30
0.0
  3
*D5
  1
*D5
  0
LINE
  5
80
330
25
100
AcDbEntity
  8
0
  6
Continuous
 62
     0
370
    -2
390
1D
100
AcDbLine
 10
-309.9999999999999
 20
1229.627734751573
 30
0.0
 11
-309.9999999999999
 21
1304.627734751573
 31
0.0
  0
LINE
  5
81
330
25
100
AcDbEntity
  8
0
  6
Continuous
 62
     0
370
    -2
390
1D
100
AcDbLine
 10
-609.9999999999999
 20
1229.627734751573
 30
0.0
 11
-609.9999999999999
 21
1304.627734751573
 31
0.0
  0
LINE
  5
82
330
25
100
AcDbEntity
  8
0
  6
Continuous
 62
     0
370
    -2
390
1D
100
AcDbLine
 10
-309.9999999999999
 20
1304.627734751573
 30
0.0
 11
-609.9999999999999
 21
1304.627734751573
 31
0.0
  0
CIRCLE
  5
83
102
{ACAD_REACTORS
330
84
102
}
330
25
100
AcDbEntity
  8
0
  6
Continuous
 62
     0
370
    -2
390
1D
100
AcDbCircle
 10
-309.9999999999999
 20
1304.627734751573
 30
0.0
 40
4.99969482421875
  0
HATCH
  5
84
330
25
100
AcDbEntity
  8
0
  6
Continuous
 62
     0
370
    -2
390
1D
100
AcDbHatch
 10
0.0
 20
0.0
 30
0.0
210
0.0
220
0.0
230
1.0
  2
SOLID
 70
     1
 71
     1
 91
        1
 92
        1
 93
        1
 72
     2
 10
-309.9999999999999
 20
1304.627734751573
 40
4.99969482421875
 50
0.0
 51
360.0
 73
     0
 97
        1
330
83
 75
     0
 76
     1
 98
        1
 10
0.0
 20
0.0
  0
CIRCLE
  5
85
102
{ACAD_REACTORS
330
86
102
}
330
25
100
AcDbEntity
  8
0
  6
Continuous
 62
     0
370
    -2
390
1D
100
AcDbCircle
 10
-609.9999999999999
 20
1304.627734751573
 30
0.0
 40
4.99969482421875
  0
HATCH
  5
86
330
25
100
AcDbEntity
  8
0
  6
Continuous
 62
     0
370
    -2
390
1D
100
AcDbHatch
 10
0.0
 20
0.0
 30
0.0
210
0.0
220
0.0
230
1.0
  2
SOLID
 70
     1
 71
     1
 91
        1
 92
        1
 93
        1
 72
     2
 10
-609.9999999999999
 20
1304.627734751573
 40
4.99969482421875
 50
0.0
 51
360.0
 73
     0
 97
        1
330
85
 75
     0
 76
     1
 98
        1
 10
0.0
 20
0.0
  0
MTEXT
  5
87
330
25
100
AcDbEntity
  8
0
 62
     0
390
1D
100
AcDbMText
 10
-483.8125016821754
 20
1338.505351939073
 30
0.0
 40
24.4326171875
 41
0.0
 46
0.0
 71
     1
 72
     1
  1
300
  7
ＭＳ ゴシック
 73
     1
 44
0.7828267384257843
  0
POINT
  5
88
330
25
100
AcDbEntity
  8
Defpoints
 62
     0
370
     0
390
1D
100
AcDbPoint
 10
-609.9999999999999
 20
1204.627734751573
 30
0.0
  0
POINT
  5
89
330
25
100
AcDbEntity
  8
Defpoints
 62
     0
370
     0
390
1D
100
AcDbPoint
 10
-309.9999999999999
 20
1204.627734751573
 30
0.0
  0
POINT
  5
8A
330
25
100
AcDbEntity
  8
Defpoints
 62
     0
370
     0
390
1D
100
AcDbPoint
 10
-309.9999999999999
 20
1304.627734751573
 30
0.0
  0
ENDBLK
  5
8B
330
25
100
AcDbEntity
  8
notes
390
1D
100
AcDbBlockEnd
  0
BLOCK
  5
8C
330
26
100
AcDbEntity
  8
notes
390
1D
100
AcDbBlockBegin
  2
*D6
 70
     1
 10
0.0
 20
0.0
 30
0.0
  3
*D6
  1
*D6
  0
LINE
  5
8D
330
26
100
AcDbEntity
  8
0
  6
Continuous
 62
     0
370
    -2
390
1D
100
AcDbLine
 10
-609.9999999999999
 20
1229.627734751573
 30
0.0
 11
-609.9999999999999
 21
1304.627734751573
 31
0.0
  0
LINE
  5
8E
330
26
100
AcDbEntity
  8
0
  6
Continuous
 62
     0
370
    -2
390
1D
100
AcDbLine
 10
-645.0000000000006
 20
1259.627734751573
 30
0.0
 11
-645.0000000000006
 21
1304.627734751573
 31
0.0
  0
LINE
  5
8F
330
26
100
AcDbEntity
  8
0
  6
Continuous
 62
     0
370
    -2
390
1D
100
AcDbLine
 10
-609.9999999999999
 20
1304.627734751573
 30
0.0
 11
-645.0000000000006
 21
1304.627734751573
 31
0.0
  0
CIRCLE
  5
90
102
{ACAD_REACTORS
330
91
102
}
330
26
100
AcDbEntity
  8
0
  6
Continuous
 62
     0
370
    -2
390
1D
100
AcDbCircle
 10
-609.9999999999999
 20
1304.627734751573
 30
0.0
 40
4.99969482421875
  0
HATCH
  5
91
330
26
100
AcDbEntity
  8
0
  6
Continuous
 62
     0
370
    -2
390
1D
100
AcDbHatch
 10
0.0
 20
0.0
 30
0.0
210
0.0
220
0.0
230
1.0
  2
SOLID
 70
     1
 71
     1
 91
        1
 92
        1
 93
        1
 72
     2
 10
-609.9999999999999
 20
1304.627734751573
 40
4.99969482421875
 50
0.0
 51
360.0
 73
     0
 97
        1
330
90
 75
     0
 76
     1
 98
        1
 10
0.0
 20
0.0
  0
CIRCLE
  5
92
102
{ACAD_REACTORS
330
93
102
}
330
26
100
AcDbEntity
  8
0
  6
Continuous
 62
     0
370
    -2
390
1D
100
AcDbCircle
 10
-645.0000000000006
 20
1304.627734751573
 30
0.0
 40
4.99969482421875
  0
HATCH
  5
93
330
26
100
AcDbEntity
  8
0
  6
Continuous
 62
     0
370
    -2
390
1D
100
AcDbHatch
 10
0.0
 20
0.0
 30
0.0
210
0.0
220
0.0
230
1.0
  2
SOLID
 70
     1
 71
     1
 91
        1
 92
        1
 93
        1
 72
     2
 10
-645.0000000000006
 20
1304.627734751573
 40
4.99969482421875
 50
0.0
 51
360.0
 73
     0
 97
        1
330
92
 75
     0
 76
     1
 98
        1
 10
0.0
 20
0.0
  0
MTEXT
  5
94
330
26
100
AcDbEntity
  8
0
 62
     0
390
1D
100
AcDbMText
 10
-643.3750000000003
 20
1338.505351939073
 30
0.0
 40
24.4326171875
 41
0.0
 46
0.0
 71
     1
 72
     1
  1
35
  7
ＭＳ ゴシック
 73
     1
 44
0.7828267384257843
  0
POINT
  5
95
330
26
100
AcDbEntity
  8
Defpoints
 62
     0
370
     0
390
1D
100
AcDbPoint
 10
-645.0000000000006
 20
1234.627734751573
 30
0.0
  0
POINT
  5
96
330
26
100
AcDbEntity
  8
Defpoints
 62
     0
370
     0
390
1D
100
AcDbPoint
 10
-609.9999999999999
 20
1204.627734751573
 30
0.0
  0
POINT
  5
97
330
26
100
AcDbEntity
  8
Defpoints
 62
     0
370
     0
390
1D
100
AcDbPoint
 10
-609.9999999999999
 20
1304.627734751573
 30
0.0
  0
ENDBLK
  5
98
330
26
100
AcDbEntity
  8
notes
390
1D
100
AcDbBlockEnd
  0
BLOCK
  5
99
330
27
100
AcDbEntity
  8
notes
390
1D
100
AcDbBlockBegin
  2
*D7
 70
     1
 10
0.0
 20
0.0
 30
0.0
  3
*D7
  1
*D7
  0
LINE
  5
9A
330
27
100
AcDbEntity
  8
0
  6
Continuous
 62
     0
370
    -2
390
1D
100
AcDbLine
 10
-249.9999999999999
 20
53.59365359319352
 30
0.0
 11
-174.9999999999999
 21
53.59365359319352
 31
0.0
  0
LINE
  5
9B
330
27
100
AcDbEntity
  8
0
  6
Continuous
 62
     0
370
    -2
390
1D
100
AcDbLine
 10
-249.9999999999999
 20
-766.406346406807
 30
0.0
 11
-174.9999999999999
 21
-766.406346406807
 31
0.0
  0
LINE
  5
9C
330
27
100
AcDbEntity
  8
0
  6
Continuous
 62
     0
370
    -2
390
1D
100
AcDbLine
 10
-174.9999999999999
 20
53.59365359319352
 30
0.0
 11
-174.9999999999999
 21
-766.406346406807
 31
0.0
  0
CIRCLE
  5
9D
102
{ACAD_REACTORS
330
9E
102
}
330
27
100
AcDbEntity
  8
0
  6
Continuous
 62
     0
370
    -2
390
1D
100
AcDbCircle
 10
-174.9999999999999
 20
53.59365359319352
 30
0.0
 40
4.99969482421875
  0
HATCH
  5
9E
330
27
100
AcDbEntity
  8
0
  6
Continuous
 62
     0
370
    -2
390
1D
100
AcDbHatch
 10
0.0
 20
0.0
 30
0.0
210
0.0
220
0.0
230
1.0
  2
SOLID
 70
     1
 71
     1
 91
        1
 92
        1
 93
        1
 72
     2
 10
-174.9999999999999
 20
53.59365359319352
 40
4.99969482421875
 50
0.0
 51
360.0
 73
     0
 97
        1
330
9D
 75
     0
 76
     1
 98
        1
 10
0.0
 20
0.0
  0
CIRCLE
  5
9F
102
{ACAD_REACTORS
330
A0
102
}
330
27
100
AcDbEntity
  8
0
  6
Continuous
 62
     0
370
    -2
390
1D
100
AcDbCircle
 10
-174.9999999999999
 20
-766.406346406807
 30
0.0
 40
4.99969482421875
  0
HATCH
  5
A0
330
27
100
AcDbEntity
  8
0
  6
Continuous
 62
     0
370
    -2
390
1D
100
AcDbHatch
 10
0.0
 20
0.0
 30
0.0
210
0.0
220
0.0
230
1.0
  2
SOLID
 70
     1
 71
     1
 91
        1
 92
        1
 93
        1
 72
     2
 10
-174.9999999999999
 20
-766.406346406807
 40
4.99969482421875
 50
0.0
 51
360.0
 73
     0
 97
        1
330
9F
 75
     0
 76
     1
 98
        1
 10
0.0
 20
0.0
  0
MTEXT
  5
A1
330
27
100
AcDbEntity
  8
0
 62
     0
390
1D
100
AcDbMText
 10
-208.8776171874999
 20
-380.2188480889822
 30
0.0
 40
24.4326171875
 41
0.0
 46
0.0
 71
     1
 72
     1
  1
820
  7
ＭＳ ゴシック
 11
0.0
 21
1.0
 31
0.0
 73
     1
 44
0.7828267384257843
  0
POINT
  5
A2
330
27
100
AcDbEntity
  8
Defpoints
 62
     0
370
     0
390
1D
100
AcDbPoint
 10
-274.9999999999999
 20
-766.406346406807
 30
0.0
  0
POINT
  5
A3
330
27
100
AcDbEntity
  8
Defpoints
 62
     0
370
     0
390
1D
100
AcDbPoint
 10
-274.9999999999999
 20
53.59365359319352
 30
0.0
  0
POINT
  5
A4
330
27
100
AcDbEntity
  8
Defpoints
 62
     0
370
     0
390
1D
100
AcDbPoint
 10
-174.9999999999999
 20
53.59365359319352
 30
0.0
  0
ENDBLK
  5
A5
330
27
100
AcDbEntity
  8
notes
390
1D
100
AcDbBlockEnd
  0
BLOCK
  5
A6
330
28
100
AcDbEntity
  8
notes
390
1D
100
AcDbBlockBegin
  2
*D8
 70
     1
 10
0.0
 20
0.0
 30
0.0
  3
*D8
  1
*D8
  0
LINE
  5
A7
330
28
100
AcDbEntity
  8
0
  6
Continuous
 62
     0
370
    -2
390
1D
100
AcDbLine
 10
-249.9999999999999
 20
-766.406346406807
 30
0.0
 11
-174.9999999999999
 21
-766.406346406807
 31
0.0
  0
LINE
  5
A8
330
28
100
AcDbEntity
  8
0
  6
Continuous
 62
     0
370
    -2
390
1D
100
AcDbLine
 10
-255.0
 20
-921.4063464068065
 30
0.0
 11
-174.9999999999999
 21
-921.4063464068065
 31
0.0
  0
LINE
  5
A9
330
28
100
AcDbEntity
  8
0
  6
Continuous
 62
     0
370
    -2
390
1D
100
AcDbLine
 10
-174.9999999999999
 20
-766.406346406807
 30
0.0
 11
-174.9999999999999
 21
-921.4063464068065
 31
0.0
  0
CIRCLE
  5
AA
102
{ACAD_REACTORS
330
AB
102
}
330
28
100
AcDbEntity
  8
0
  6
Continuous
 62
     0
370
    -2
390
1D
100
AcDbCircle
 10
-174.9999999999999
 20
-766.406346406807
 30
0.0
 40
4.99969482421875
  0
HATCH
  5
AB
330
28
100
AcDbEntity
  8
0
  6
Continuous
 62
     0
370
    -2
390
1D
100
AcDbHatch
 10
0.0
 20
0.0
 30
0.0
210
0.0
220
0.0
230
1.0
  2
SOLID
 70
     1
 71
     1
 91
        1
 92
        1
 93
        1
 72
     2
 10
-174.9999999999999
 20
-766.406346406807
 40
4.99969482421875
 50
0.0
 51
360.0
 73
     0
 97
        1
330
AA
 75
     0
 76
     1
 98
        1
 10
0.0
 20
0.0
  0
CIRCLE
  5
AC
102
{ACAD_REACTORS
330
AD
102
}
330
28
100
AcDbEntity
  8
0
  6
Continuous
 62
     0
370
    -2
390
1D
100
AcDbCircle
 10
-174.9999999999999
 20
-921.4063464068065
 30
0.0
 40
4.99969482421875
  0
HATCH
  5
AD
330
28
100
AcDbEntity
  8
0
  6
Continuous
 62
     0
370
    -2
390
1D
100
AcDbHatch
 10
0.0
 20
0.0
 30
0.0
210
0.0
220
0.0
230
1.0
  2
SOLID
 70
     1
 71
     1
 91
        1
 92
        1
 93
        1
 72
     2
 10
-174.9999999999999
 20
-921.4063464068065
 40
4.99969482421875
 50
0.0
 51
360.0
 73
     0
 97
        1
330
AC
 75
     0
 76
     1
 98
        1
 10
0.0
 20
0.0
  0
MTEXT
  5
AE
330
28
100
AcDbEntity
  8
0
 62
     0
390
1D
100
AcDbMText
 10
-208.8776171874999
 20
-867.7188480889822
 30
0.0
 40
24.4326171875
 41
0.0
 46
0.0
 71
     1
 72
     1
  1
155
  7
ＭＳ ゴシック
 11
0.0
 21
1.0
 31
0.0
 73
     1
 44
0.7828267384257843
  0
POINT
  5
AF
330
28
100
AcDbEntity
  8
Defpoints
 62
     0
370
     0
390
1D
100
AcDbPoint
 10
-280.0
 20
-921.4063464068065
 30
0.0
  0
POINT
  5
B0
330
28
100
AcDbEntity
  8
Defpoints
 62
     0
370
     0
390
1D
100
AcDbPoint
 10
-274.9999999999999
 20
-766.406346406807
 30
0.0
  0
POINT
  5
B1
330
28
100
AcDbEntity
  8
Defpoints
 62
     0
370
     0
390
1D
100
AcDbPoint
 10
-174.9999999999999
 20
-766.406346406807
 30
0.0
  0
ENDBLK
  5
B2
330
28
100
AcDbEntity
  8
notes
390
1D
100
AcDbBlockEnd
  0
BLOCK
  5
B3
330
29
100
AcDbEntity
  8
notes
390
1D
100
AcDbBlockBegin
  2
*D9
 70
     1
 10
0.0
 20
0.0
 30
0.0
  3
*D9
  1
*D9
  0
LINE
  5
B4
330
29
100
AcDbEntity
  8
0
  6
Continuous
 62
     0
370
    -2
390
1D
100
AcDbLine
 10
-509.9999999999999
 20
874.5843452111076
 30
0.0
 11
-509.9999999999999
 21
950.0843452111076
 31
0.0
  0
LINE
  5
B5
330
29
100
AcDbEntity
  8
0
  6
Continuous
 62
     0
370
    -2
390
1D
100
AcDbLine
 10
-409.9999999999999
 20
874.5843452111076
 30
0.0
 11
-409.9999999999999
 21
950.0843452111076
 31
0.0
  0
LINE
  5
B6
330
29
100
AcDbEntity
  8
0
  6
Continuous
 62
     0
370
    -2
390
1D
100
AcDbLine
 10
-509.9999999999999
 20
950.0843452111076
 30
0.0
 11
-409.9999999999999
 21
950.0843452111076
 31
0.0
  0
CIRCLE
  5
B7
102
{ACAD_REACTORS
330
B8
102
}
330
29
100
AcDbEntity
  8
0
  6
Continuous
 62
     0
370
    -2
390
1D
100
AcDbCircle
 10
-509.9999999999999
 20
950.0843452111076
 30
0.0
 40
4.99969482421875
  0
HATCH
  5
B8
330
29
100
AcDbEntity
  8
0
  6
Continuous
 62
     0
370
    -2
390
1D
100
AcDbHatch
 10
0.0
 20
0.0
 30
0.0
210
0.0
220
0.0
230
1.0
  2
SOLID
 70
     1
 71
     1
 91
        1
 92
        1
 93
        1
 72
     2
 10
-509.9999999999999
 20
950.0843452111076
 40
4.99969482421875
 50
0.0
 51
360.0
 73
     0
 97
        1
330
B7
 75
     0
 76
     1
 98
        1
 10
0.0
 20
0.0
  0
CIRCLE
  5
B9
102
{ACAD_REACTORS
330
BA
102
}
330
29
100
AcDbEntity
  8
0
  6
Continuous
 62
     0
370
    -2
390
1D
100
AcDbCircle
 10
-409.9999999999999
 20
950.0843452111076
 30
0.0
 40
4.99969482421875
  0
HATCH
  5
BA
330
29
100
AcDbEntity
  8
0
  6
Continuous
 62
     0
370
    -2
390
1D
100
AcDbHatch
 10
0.0
 20
0.0
 30
0.0
210
0.0
220
0.0
230
1.0
  2
SOLID
 70
     1
 71
     1
 91
        1
 92
        1
 93
        1
 72
     2
 10
-409.9999999999999
 20
950.0843452111076
 40
4.99969482421875
 50
0.0
 51
360.0
 73
     0
 97
        1
330
B9
 75
     0
 76
     1
 98
        1
 10
0.0
 20
0.0
  0
MTEXT
  5
BB
330
29
100
AcDbEntity
  8
0
 62
     0
390
1D
100
AcDbMText
 10
-483.8125016821754
 20
983.9619623986077
 30
0.0
 40
24.4326171875
 41
0.0
 46
0.0
 71
     1
 72
     1
  1
100
  7
ＭＳ ゴシック
 73
     1
 44
0.7828267384257843
  0
POINT
  5
BC
330
29
100
AcDbEntity
  8
Defpoints
 62
     0
370
     0
390
1D
100
AcDbPoint
 10
-409.9999999999999
 20
849.5843452111076
 30
0.0
  0
POINT
  5
BD
330
29
100
AcDbEntity
  8
Defpoints
 62
     0
370
     0
390
1D
100
AcDbPoint
 10
-509.9999999999999
 20
849.5843452111076
 30
0.0
  0
POINT
  5
BE
330
29
100
AcDbEntity
  8
Defpoints
 62
     0
370
     0
390
1D
100
AcDbPoint
 10
-509.9999999999999
 20
950.0843452111076
 30
0.0
  0
ENDBLK
  5
BF
330
29
100
AcDbEntity
  8
notes
390
1D
100
AcDbBlockEnd
  0
BLOCK
  5
C0
330
2A
100
AcDbEntity
  8
notes
390
1D
100
AcDbBlockBegin
  2
*D10
 70
     1
 10
0.0
 20
0.0
 30
0.0
  3
*D10
  1
*D10
  0
LINE
  5
C1
330
2A
100
AcDbEntity
  8
0
  6
Continuous
 62
     0
370
    -2
390
1D
100
AcDbLine
 10
-384.9999999999999
 20
849.5843452111076
 30
0.0
 11
-329.9999999999999
 21
849.5843452111076
 31
0.0
  0
LINE
  5
C2
330
2A
100
AcDbEntity
  8
0
  6
Continuous
 62
     0
370
    -2
390
1D
100
AcDbLine
 10
-384.9999999999999
 20
299.5843452111075
 30
0.0
 11
-329.9999999999999
 21
299.5843452111075
 31
0.0
  0
LINE
  5
C3
330
2A
100
AcDbEntity
  8
0
  6
Continuous
 62
     0
370
    -2
390
1D
100
AcDbLine
 10
-329.9999999999999
 20
849.5843452111076
 30
0.0
 11
-329.9999999999999
 21
299.5843452111075
 31
0.0
  0
CIRCLE
  5
C4
102
{ACAD_REACTORS
330
C5
102
}
330
2A
100
AcDbEntity
  8
0
  6
Continuous
 62
     0
370
    -2
390
1D
100
AcDbCircle
 10
-329.9999999999999
 20
849.5843452111076
 30
0.0
 40
4.99969482421875
  0
HATCH
  5
C5
330
2A
100
AcDbEntity
  8
0
  6
Continuous
 62
     0
370
    -2
390
1D
100
AcDbHatch
 10
0.0
 20
0.0
 30
0.0
210
0.0
220
0.0
230
1.0
  2
SOLID
 70
     1
 71
     1
 91
        1
 92
        1
 93
        1
 72
     2
 10
-329.9999999999999
 20
849.5843452111076
 40
4.99969482421875
 50
0.0
 51
360.0
 73
     0
 97
        1
330
C4
 75
     0
 76
     1
 98
        1
 10
0.0
 20
0.0
  0
CIRCLE
  5
C6
102
{ACAD_REACTORS
330
C7
102
}
330
2A
100
AcDbEntity
  8
0
  6
Continuous
 62
     0
370
    -2
390
1D
100
AcDbCircle
 10
-329.9999999999999
 20
299.5843452111075
 30
0.0
 40
4.99969482421875
  0
HATCH
  5
C7
330
2A
100
AcDbEntity
  8
0
  6
Continuous
 62
     0
370
    -2
390
1D
100
AcDbHatch
 10
0.0
 20
0.0
 30
0.0
210
0.0
220
0.0
230
1.0
  2
SOLID
 70
     1
 71
     1
 91
        1
 92
        1
 93
        1
 72
     2
 10
-329.9999999999999
 20
299.5843452111075
 40
4.99969482421875
 50
0.0
 51
360.0
 73
     0
 97
        1
330
C6
 75
     0
 76
     1
 98
        1
 10
0.0
 20
0.0
  0
MTEXT
  5
C8
330
2A
100
AcDbEntity
  8
0
 62
     0
390
1D
100
AcDbMText
 10
-363.8776171874998
 20
550.7718435289321
 30
0.0
 40
24.4326171875
 41
0.0
 46
0.0
 71
     1
 72
     1
  1
550
  7
ＭＳ ゴシック
 11
0.0
 21
1.0
 31
0.0
 73
     1
 44
0.7828267384257843
  0
POINT
  5
C9
330
2A
100
AcDbEntity
  8
Defpoints
 62
     0
370
     0
390
1D
100
AcDbPoint
 10
-409.9999999999999
 20
299.5843452111075
 30
0.0
  0
POINT
  5
CA
330
2A
100
AcDbEntity
  8
Defpoints
 62
     0
370
     0
390
1D
100
AcDbPoint
 10
-409.9999999999999
 20
849.5843452111076
 30
0.0
  0
POINT
  5
CB
330
2A
100
AcDbEntity
  8
Defpoints
 62
     0
370
     0
390
1D
100
AcDbPoint
 10
-329.9999999999999
 20
849.5843452111076
 30
0.0
  0
ENDBLK
  5
CC
330
2A
100
AcDbEntity
  8
notes
390
1D
100
AcDbBlockEnd
  0
BLOCK
  5
CD
330
2B
100
AcDbEntity
  8
notes
390
1D
100
AcDbBlockBegin
  2
*D11
 70
     1
 10
0.0
 20
0.0
 30
0.0
  3
*D11
  1
*D11
  0
LINE
  5
CE
330
2B
100
AcDbEntity
  8
0
  6
Continuous
 62
     0
370
    -2
390
1D
100
AcDbLine
 10
-509.9999999999999
 20
875.0843452111076
 30
0.0
 11
-509.9999999999999
 21
950.0843452111076
 31
0.0
  0
LINE
  5
CF
330
2B
100
AcDbEntity
  8
0
  6
Continuous
 62
     0
370
    -2
390
1D
100
AcDbLine
 10
-645.0000000000006
 20
875.0843452111076
 30
0.0
 11
-645.0000000000006
 21
950.0843452111076
 31
0.0
  0
LINE
  5
D0
330
2B
100
AcDbEntity
  8
0
  6
Continuous
 62
     0
370
    -2
390
1D
100
AcDbLine
 10
-509.9999999999999
 20
950.0843452111076
 30
0.0
 11
-645.0000000000006
 21
950.0843452111076
 31
0.0
  0
CIRCLE
  5
D1
102
{ACAD_REACTORS
330
D2
102
}
330
2B
100
AcDbEntity
  8
0
  6
Continuous
 62
     0
370
    -2
390
1D
100
AcDbCircle
 10
-509.9999999999999
 20
950.0843452111076
 30
0.0
 40
4.99969482421875
  0
HATCH
  5
D2
330
2B
100
AcDbEntity
  8
0
  6
Continuous
 62
     0
370
    -2
390
1D
100
AcDbHatch
 10
0.0
 20
0.0
 30
0.0
210
0.0
220
0.0
230
1.0
  2
SOLID
 70
     1
 71
     1
 91
        1
 92
        1
 93
        1
 72
     2
 10
-509.9999999999999
 20
950.0843452111076
 40
4.99969482421875
 50
0.0
 51
360.0
 73
     0
 97
        1
330
D1
 75
     0
 76
     1
 98
        1
 10
0.0
 20
0.0
  0
CIRCLE
  5
D3
102
{ACAD_REACTORS
330
D4
102
}
330
2B
100
AcDbEntity
  8
0
  6
Continuous
 62
     0
370
    -2
390
1D
100
AcDbCircle
 10
-645.0000000000006
 20
950.0843452111076
 30
0.0
 40
4.99969482421875
  0
HATCH
  5
D4
330
2B
100
AcDbEntity
  8
0
  6
Continuous
 62
     0
370
    -2
390
1D
100
AcDbHatch
 10
0.0
 20
0.0
 30
0.0
210
0.0
220
0.0
230
1.0
  2
SOLID
 70
     1
 71
     1
 91
        1
 92
        1
 93
        1
 72
     2
 10
-645.0000000000006
 20
950.0843452111076
 40
4.99969482421875
 50
0.0
 51
360.0
 73
     0
 97
        1
330
D3
 75
     0
 76
     1
 98
        1
 10
0.0
 20
0.0
  0
MTEXT
  5
D5
330
2B
100
AcDbEntity
  8
0
 62
     0
390
1D
100
AcDbMText
 10
-601.3125016821758
 20
983.9619623986077
 30
0.0
 40
24.4326171875
 41
0.0
 46
0.0
 71
     1
 72
     1
  1
135
  7
ＭＳ ゴシック
 73
     1
 44
0.7828267384257843
  0
POINT
  5
D6
330
2B
100
AcDbEntity
  8
Defpoints
 62
     0
370
     0
390
1D
100
AcDbPoint
 10
-645.0000000000006
 20
850.0843452111076
 30
0.0
  0
POINT
  5
D7
330
2B
100
AcDbEntity
  8
Defpoints
 62
     0
370
     0
390
1D
100
AcDbPoint
 10
-509.9999999999999
 20
850.0843452111076
 30
0.0
  0
POINT
  5
D8
330
2B
100
AcDbEntity
  8
Defpoints
 62
     0
370
     0
390
1D
100
AcDbPoint
 10
-509.9999999999999
 20
950.0843452111076
 30
0.0
  0
ENDBLK
  5
D9
330
2B
100
AcDbEntity
  8
notes
390
1D
100
AcDbBlockEnd
  0
BLOCK
  5
DA
330
2C
100
AcDbEntity
  8
notes
390
1D
100
AcDbBlockBegin
  2
*D12
 70
     1
 10
0.0
 20
0.0
 30
0.0
  3
*D12
  1
*D12
  0
LINE
  5
DB
330
2C
100
AcDbEntity
  8
0
  6
Continuous
 62
     0
370
    -2
390
1D
100
AcDbLine
 10
-284.9999999999999
 20
274.6277347515735
 30
0.0
 11
-174.9731225749331
 21
274.6277347515735
 31
0.0
  0
LINE
  5
DC
330
2C
100
AcDbEntity
  8
0
  6
Continuous
 62
     0
370
    -2
390
1D
100
AcDbLine
 10
-254.9999999999999
 20
239.6277347515733
 30
0.0
 11
-174.9731225749331
 21
239.6277347515733
 31
0.0
  0
LINE
  5
DD
330
2C
100
AcDbEntity
  8
0
  6
Continuous
 62
     0
370
    -2
390
1D
100
AcDbLine
 10
-174.9731225749331
 20
239.6277347515733
 30
0.0
 11
-174.9731225749331
 21
199.5343452111076
 31
0.0
  0
LINE
  5
DE
330
2C
100
AcDbEntity
  8
0
  6
Continuous
 62
     0
370
    -2
390
1D
100
AcDbLine
 10
-174.9731225749331
 20
274.6277347515735
 30
0.0
 11
-174.9731225749331
 21
239.6277347515733
 31
0.0
  0
CIRCLE
  5
DF
102
{ACAD_REACTORS
330
E0
102
}
330
2C
100
AcDbEntity
  8
0
  6
Continuous
 62
     0
370
    -2
390
1D
100
AcDbCircle
 10
-174.9731225749331
 20
274.6277347515735
 30
0.0
 40
4.99969482421875
  0
HATCH
  5
E0
330
2C
100
AcDbEntity
  8
0
  6
Continuous
 62
     0
370
    -2
390
1D
100
AcDbHatch
 10
0.0
 20
0.0
 30
0.0
210
0.0
220
0.0
230
1.0
  2
SOLID
 70
     1
 71
     1
 91
        1
 92
        1
 93
        1
 72
     2
 10
-174.9731225749331
 20
274.6277347515735
 40
4.99969482421875
 50
0.0
 51
360.0
 73
     0
 97
        1
330
DF
 75
     0
 76
     1
 98
        1
 10
0.0
 20
0.0
  0
CIRCLE
  5
E1
102
{ACAD_REACTORS
330
E2
102
}
330
2C
100
AcDbEntity
  8
0
  6
Continuous
 62
     0
370
    -2
390
1D
100
AcDbCircle
 10
-174.9731225749331
 20
239.6277347515733
 30
0.0
 40
4.99969482421875
  0
HATCH
  5
E2
330
2C
100
AcDbEntity
  8
0
  6
Continuous
 62
     0
370
    -2
390
1D
100
AcDbHatch
 10
0.0
 20
0.0
 30
0.0
210
0.0
220
0.0
230
1.0
  2
SOLID
 70
     1
 71
     1
 91
        1
 92
        1
 93
        1
 72
     2
 10
-174.9731225749331
 20
239.6277347515733
 40
4.99969482421875
 50
0.0
 51
360.0
 73
     0
 97
        1
330
E1
 75
     0
 76
     1
 98
        1
 10
0.0
 20
0.0
  0
MTEXT
  5
E3
330
2C
100
AcDbEntity
  8
0
 62
     0
390
1D
100
AcDbMText
 10
-208.8507397624331
 20
199.5343452111076
 30
0.0
 40
24.4326171875
 41
0.0
 46
0.0
 71
     1
 72
     1
  1
35
  7
ＭＳ ゴシック
 11
0.0
 21
1.0
 31
0.0
 73
     1
 44
0.7828267384257843
  0
POINT
  5
E4
330
2C
100
AcDbEntity
  8
Defpoints
 62
     0
370
     0
390
1D
100
AcDbPoint
 10
-279.9999999999999
 20
239.6277347515733
 30
0.0
  0
POINT
  5
E5
330
2C
100
AcDbEntity
  8
Defpoints
 62
     0
370
     0
390
1D
100
AcDbPoint
 10
-309.9999999999999
 20
274.6277347515735
 30
0.0
  0
POINT
  5
E6
330
2C
100
AcDbEntity
  8
Defpoints
 62
     0
370
     0
390
1D
100
AcDbPoint
 10
-174.9731225749331
 20
274.6277347515735
 30
0.0
  0
ENDBLK
  5
E7
330
2C
100
AcDbEntity
  8
notes
390
1D
100
AcDbBlockEnd
  0
BLOCK
  5
E8
330
2D
100
AcDbEntity
  8
notes
390
1D
100
AcDbBlockBegin
  2
*D13
 70
     1
 10
0.0
 20
0.0
 30
0.0
  3
*D13
  1
*D13
  0
LINE
  5
E9
330
2D
100
AcDbEntity
  8
0
  6
Continuous
 62
     0
370
    -2
390
1D
100
AcDbLine
 10
619.5828371300187
 20
-356.4348012447021
 30
0.0
 11
699.5828371300184
 21
-356.4348012447021
 31
0.0
  0
LINE
  5
EA
330
2D
100
AcDbEntity
  8
0
  6
Continuous
 62
     0
370
    -2
390
1D
100
AcDbLine
 10
569.5828371300184
 20
-921.4063464068065
 30
0.0
 11
699.5828371300184
 21
-921.4063464068065
 31
0.0
  0
LINE
  5
EB
330
2D
100
AcDbEntity
  8
0
  6
Continuous
 62
     0
370
    -2
390
1D
100
AcDbLine
 10
699.5828371300184
 20
-356.4348012447021
 30
0.0
 11
699.5828371300184
 21
-921.4063464068065
 31
0.0
  0
CIRCLE
  5
EC
102
{ACAD_REACTORS
330
ED
102
}
330
2D
100
AcDbEntity
  8
0
  6
Continuous
 62
     0
370
    -2
390
1D
100
AcDbCircle
 10
699.5828371300184
 20
-356.4348012447021
 30
0.0
 40
4.99969482421875
  0
HATCH
  5
ED
330
2D
100
AcDbEntity
  8
0
  6
Continuous
 62
     0
370
    -2
390
1D
100
AcDbHatch
 10
0.0
 20
0.0
 30
0.0
210
0.0
220
0.0
230
1.0
  2
SOLID
 70
     1
 71
     1
 91
        1
 92
        1
 93
        1
 72
     2
 10
699.5828371300184
 20
-356.4348012447021
 40
4.99969482421875
 50
0.0
 51
360.0
 73
     0
 97
        1
330
EC
 75
     0
 76
     1
 98
        1
 10
0.0
 20
0.0
  0
CIRCLE
  5
EE
102
{ACAD_REACTORS
330
EF
102
}
330
2D
100
AcDbEntity
  8
0
  6
Continuous
 62
     0
370
    -2
390
1D
100
AcDbCircle
 10
699.5828371300184
 20
-921.4063464068065
 30
0.0
 40
4.99969482421875
  0
HATCH
  5
EF
330
2D
100
AcDbEntity
  8
0
  6
Continuous
 62
     0
370
    -2
390
1D
100
AcDbHatch
 10
0.0
 20
0.0
 30
0.0
210
0.0
220
0.0
230
1.0
  2
SOLID
 70
     1
 71
     1
 91
        1
 92
        1
 93
        1
 72
     2
 10
699.5828371300184
 20
-921.4063464068065
 40
4.99969482421875
 50
0.0
 51
360.0
 73
     0
 97
        1
330
EE
 75
     0
 76
     1
 98
        1
 10
0.0
 20
0.0
  0
MTEXT
  5
F0
330
2D
100
AcDbEntity
  8
0
 62
     0
390
1D
100
AcDbMText
 10
665.7052199425184
 20
-662.7330755079297
 30
0.0
 40
24.4326171875
 41
0.0
 46
0.0
 71
     1
 72
     1
  1
565
  7
ＭＳ ゴシック
 11
0.0
 21
1.0
 31
0.0
 73
     1
 44
0.7828267384257843
  0
POINT
  5
F1
330
2D
100
AcDbEntity
  8
Defpoints
 62
     0
370
     0
390
1D
100
AcDbPoint
 10
544.5828371300184
 20
-921.4063464068065
 30
0.0
  0
POINT
  5
F2
330
2D
100
AcDbEntity
  8
Defpoints
 62
     0
370
     0
390
1D
100
AcDbPoint
 10
594.5828371300187
 20
-356.4348012447021
 30
0.0
  0
POINT
  5
F3
330
2D
100
AcDbEntity
  8
Defpoints
 62
     0
370
     0
390
1D
100
AcDbPoint
 10
699.5828371300184
 20
-356.4348012447021
 30
0.0
  0
ENDBLK
  5
F4
330
2D
100
AcDbEntity
  8
notes
390
1D
100
AcDbBlockEnd
  0
BLOCK
  5
F5
330
2E
100
AcDbEntity
  8
notes
390
1D
100
AcDbBlockBegin
  2
*D14
 70
     1
 10
0.0
 20
0.0
 30
0.0
  3
*D14
  1
*D14
  0
LINE
  5
F6
330
2E
100
AcDbEntity
  8
0
  6
Continuous
 62
     0
370
    -2
390
1D
100
AcDbLine
 10
621.4433957281694
 20
25.57948682912908
 30
0.0
 11
749.5828371300184
 21
25.57948682912908
 31
0.0
  0
LINE
  5
F7
330
2E
100
AcDbEntity
  8
0
  6
Continuous
 62
     0
370
    -2
390
1D
100
AcDbLine
 10
621.4433957281694
 20
-869.4205131708709
 30
0.0
 11
749.5828371300184
 21
-869.4205131708709
 31
0.0
  0
LINE
  5
F8
330
2E
100
AcDbEntity
  8
0
  6
Continuous
 62
     0
370
    -2
390
1D
100
AcDbLine
 10
749.5828371300184
 20
25.57948682912908
 30
0.0
 11
749.5828371300184
 21
-869.4205131708709
 31
0.0
  0
CIRCLE
  5
F9
102
{ACAD_REACTORS
330
FA
102
}
330
2E
100
AcDbEntity
  8
0
  6
Continuous
 62
     0
370
    -2
390
1D
100
AcDbCircle
 10
749.5828371300184
 20
25.57948682912908
 30
0.0
 40
4.99969482421875
  0
HATCH
  5
FA
330
2E
100
AcDbEntity
  8
0
  6
Continuous
 62
     0
370
    -2
390
1D
100
AcDbHatch
 10
0.0
 20
0.0
 30
0.0
210
0.0
220
0.0
230
1.0
  2
SOLID
 70
     1
 71
     1
 91
        1
 92
        1
 93
        1
 72
     2
 10
749.5828371300184
 20
25.57948682912908
 40
4.99969482421875
 50
0.0
 51
360.0
 73
     0
 97
        1
330
F9
 75
     0
 76
     1
 98
        1
 10
0.0
 20
0.0
  0
CIRCLE
  5
FB
102
{ACAD_REACTORS
330
FC
102
}
330
2E
100
AcDbEntity
  8
0
  6
Continuous
 62
     0
370
    -2
390
1D
100
AcDbCircle
 10
749.5828371300184
 20
-869.4205131708709
 30
0.0
 40
4.99969482421875
  0
HATCH
  5
FC
330
2E
100
AcDbEntity
  8
0
  6
Continuous
 62
     0
370
    -2
390
1D
100
AcDbHatch
 10
0.0
 20
0.0
 30
0.0
210
0.0
220
0.0
230
1.0
  2
SOLID
 70
     1
 71
     1
 91
        1
 92
        1
 93
        1
 72
     2
 10
749.5828371300184
 20
-869.4205131708709
 40
4.99969482421875
 50
0.0
 51
360.0
 73
     0
 97
        1
330
FB
 75
     0
 76
     1
 98
        1
 10
0.0
 20
0.0
  0
MTEXT
  5
FD
330
2E
100
AcDbEntity
  8
0
 62
     0
390
1D
100
AcDbMText
 10
715.7052199425184
 20
-445.7330148530464
 30
0.0
 40
24.4326171875
 41
0.0
 46
0.0
 71
     1
 72
     1
  1
895
  7
ＭＳ ゴシック
 11
0.0
 21
1.0
 31
0.0
 73
     1
 44
0.7828267384257843
  0
POINT
  5
FE
330
2E
100
AcDbEntity
  8
Defpoints
 62
     0
370
     0
390
1D
100
AcDbPoint
 10
596.4433957281694
 20
-869.4205131708709
 30
0.0
  0
POINT
  5
FF
330
2E
100
AcDbEntity
  8
Defpoints
 62
     0
370
     0
390
1D
100
AcDbPoint
 10
596.4433957281694
 20
25.57948682912908
 30
0.0
  0
POINT
  5
100
330
2E
100
AcDbEntity
  8
Defpoints
 62
     0
370
     0
390
1D
100
AcDbPoint
 10
749.5828371300184
 20
25.57948682912908
 30
0.0
  0
ENDBLK
  5
101
330
2E
100
AcDbEntity
  8
notes
390
1D
100
AcDbBlockEnd
  0
BLOCK
  5
102
330
2F
100
AcDbEntity
  8
notes
390
1D
100
AcDbBlockBegin
  2
*D15
 70
     1
 10
0.0
 20
0.0
 30
0.0
  3
*D15
  1
*D15
  0
LINE
  5
103
330
2F
100
AcDbEntity
  8
0
  6
Continuous
 62
     0
370
    -2
390
1D
100
AcDbLine
 10
-664.9999999999999
 20
-921.4063464068065
 30
0.0
 11
-744.9999999999999
 21
-921.4063464068065
 31
0.0
  0
LINE
  5
104
330
2F
100
AcDbEntity
  8
0
  6
Continuous
 62
     0
370
    -2
390
1D
100
AcDbLine
 10
-664.9999999999999
 20
78.59365359319372
 30
0.0
 11
-744.9999999999999
 21
78.59365359319372
 31
0.0
  0
LINE
  5
105
330
2F
100
AcDbEntity
  8
0
  6
Continuous
 62
     0
370
    -2
390
1D
100
AcDbLine
 10
-744.9999999999999
 20
-921.4063464068065
 30
0.0
 11
-744.9999999999999
 21
78.59365359319372
 31
0.0
  0
CIRCLE
  5
106
102
{ACAD_REACTORS
330
107
102
}
330
2F
100
AcDbEntity
  8
0
  6
Continuous
 62
     0
370
    -2
390
1D
100
AcDbCircle
 10
-744.9999999999999
 20
-921.4063464068065
 30
0.0
 40
4.99969482421875
  0
HATCH
  5
107
330
2F
100
AcDbEntity
  8
0
  6
Continuous
 62
     0
370
    -2
390
1D
100
AcDbHatch
 10
0.0
 20
0.0
 30
0.0
210
0.0
220
0.0
230
1.0
  2
SOLID
 70
     1
 71
     1
 91
        1
 92
        1
 93
        1
 72
     2
 10
-744.9999999999999
 20
-921.4063464068065
 40
4.99969482421875
 50
0.0
 51
360.0
 73
     0
 97
        1
330
106
 75
     0
 76
     1
 98
        1
 10
0.0
 20
0.0
  0
CIRCLE
  5
108
102
{ACAD_REACTORS
330
109
102
}
330
2F
100
AcDbEntity
  8
0
  6
Continuous
 62
     0
370
    -2
390
1D
100
AcDbCircle
 10
-744.9999999999999
 20
78.59365359319372
 30
0.0
 40
4.99969482421875
  0
HATCH
  5
109
330
2F
100
AcDbEntity
  8
0
  6
Continuous
 62
     0
370
    -2
390
1D
100
AcDbHatch
 10
0.0
 20
0.0
 30
0.0
210
0.0
220
0.0
230
1.0
  2
SOLID
 70
     1
 71
     1
 91
        1
 92
        1
 93
        1
 72
     2
 10
-744.9999999999999
 20
78.59365359319372
 40
4.99969482421875
 50
0.0
 51
360.0
 73
     0
 97
        1
330
108
 75
     0
 76
     1
 98
        1
 10
0.0
 20
0.0
  0
MTEXT
  5
10A
330
2F
100
AcDbEntity
  8
0
 62
     0
390
1D
100
AcDbMText
 10
-778.8776171874998
 20
-453.1563464068063
 30
0.0
 40
24.4326171875
 41
0.0
 46
0.0
 71
     1
 72
     1
  1
1000
  7
ＭＳ ゴシック
 11
0.0
 21
1.0
 31
0.0
 73
     1
 44
0.7828267384257843
  0
POINT
  5
10B
330
2F
100
AcDbEntity
  8
Defpoints
 62
     0
370
     0
390
1D
100
AcDbPoint
 10
-639.9999999999999
 20
78.59365359319372
 30
0.0
  0
POINT
  5
10C
330
2F
100
AcDbEntity
  8
Defpoints
 62
     0
370
     0
390
1D
100
AcDbPoint
 10
-639.9999999999999
 20
-921.4063464068065
 30
0.0
  0
POINT
  5
10D
330
2F
100
AcDbEntity
  8
Defpoints
 62
     0
370
     0
390
1D
100
AcDbPoint
 10
-744.9999999999999
 20
-921.4063464068065
 30
0.0
  0
ENDBLK
  5
10E
330
2F
100
AcDbEntity
  8
notes
390
1D
100
AcDbBlockEnd
  0
BLOCK
  5
10F
330
30
100
AcDbEntity
  8
notes
390
1D
100
AcDbBlockBegin
  2
*D16
 70
     1
 10
0.0
 20
0.0
 30
0.0
  3
*D16
  1
*D16
  0
LINE
  5
110
330
30
100
AcDbEntity
  8
0
  6
Continuous
 62
     0
370
    -2
390
1D
100
AcDbLine
 10
-620.0000000000003
 20
103.5936535931935
 30
0.0
 11
-620.0000000000003
 21
177.7289281223875
 31
0.0
  0
LINE
  5
111
330
30
100
AcDbEntity
  8
0
  6
Continuous
 62
     0
370
    -2
390
1D
100
AcDbLine
 10
-300.0000000000003
 20
103.5936535931935
 30
0.0
 11
-300.0000000000003
 21
177.7289281223875
 31
0.0
  0
LINE
  5
112
330
30
100
AcDbEntity
  8
0
  6
Continuous
 62
     0
370
    -2
390
1D
100
AcDbLine
 10
-620.0000000000003
 20
177.7289281223875
 30
0.0
 11
-300.0000000000003
 21
177.7289281223875
 31
0.0
  0
CIRCLE
  5
113
102
{ACAD_REACTORS
330
114
102
}
330
30
100
AcDbEntity
  8
0
  6
Continuous
 62
     0
370
    -2
390
1D
100
AcDbCircle
 10
-620.0000000000003
 20
177.7289281223875
 30
0.0
 40
4.99969482421875
  0
HATCH
  5
114
330
30
100
AcDbEntity
  8
0
  6
Continuous
 62
     0
370
    -2
390
1D
100
AcDbHatch
 10
0.0
 20
0.0
 30
0.0
210
0.0
220
0.0
230
1.0
  2
SOLID
 70
     1
 71
     1
 91
        1
 92
        1
 93
        1
 72
     2
 10
-620.0000000000003
 20
177.7289281223875
 40
4.99969482421875
 50
0.0
 51
360.0
 73
     0
 97
        1
330
113
 75
     0
 76
     1
 98
        1
 10
0.0
 20
0.0
  0
CIRCLE
  5
115
102
{ACAD_REACTORS
330
116
102
}
330
30
100
AcDbEntity
  8
0
  6
Continuous
 62
     0
370
    -2
390
1D
100
AcDbCircle
 10
-300.0000000000003
 20
177.7289281223875
 30
0.0
 40
4.99969482421875
  0
HATCH
  5
116
330
30
100
AcDbEntity
  8
0
  6
Continuous
 62
     0
370
    -2
390
1D
100
AcDbHatch
 10
0.0
 20
0.0
 30
0.0
210
0.0
220
0.0
230
1.0
  2
SOLID
 70
     1
 71
     1
 91
        1
 92
        1
 93
        1
 72
     2
 10
-300.0000000000003
 20
177.7289281223875
 40
4.99969482421875
 50
0.0
 51
360.0
 73
     0
 97
        1
330
115
 75
     0
 76
     1
 98
        1
 10
0.0
 20
0.0
  0
MTEXT
  5
117
330
30
100
AcDbEntity
  8
0
 62
     0
390
1D
100
AcDbMText
 10
-483.8125016821758
 20
211.6065453098875
 30
0.0
 40
24.4326171875
 41
0.0
 46
0.0
 71
     1
 72
     1
  1
320
  7
ＭＳ ゴシック
 73
     1
 44
0.7828267384257843
  0
POINT
  5
118
330
30
100
AcDbEntity
  8
Defpoints
 62
     0
370
     0
390
1D
100
AcDbPoint
 10
-300.0000000000003
 20
78.59365359319352
 30
0.0
  0
POINT
  5
119
330
30
100
AcDbEntity
  8
Defpoints
 62
     0
370
     0
390
1D
100
AcDbPoint
 10
-620.0000000000003
 20
78.59365359319352
 30
0.0
  0
POINT
  5
11A
330
30
100
AcDbEntity
  8
Defpoints
 62
     0
370
     0
390
1D
100
AcDbPoint
 10
-620.0000000000003
 20
177.7289281223875
 30
0.0
  0
ENDBLK
  5
11B
330
30
100
AcDbEntity
  8
notes
390
1D
100
AcDbBlockEnd
  0
BLOCK
  5
11C
330
31
100
AcDbEntity
  8
notes
390
1D
100
AcDbBlockBegin
  2
*D17
 70
     1
 10
0.0
 20
0.0
 30
0.0
  3
*D17
  1
*D17
  0
LINE
  5
11D
330
31
100
AcDbEntity
  8
0
  6
Continuous
 62
     0
370
    -2
390
1D
100
AcDbLine
 10
-645.0000000000003
 20
-941.4063464068065
 30
0.0
 11
-645.0000000000003
 21
-1071.406346406807
 31
0.0
  0
LINE
  5
11E
330
31
100
AcDbEntity
  8
0
  6
Continuous
 62
     0
370
    -2
390
1D
100
AcDbLine
 10
-275.0
 20
-941.4063464068065
 30
0.0
 11
-275.0
 21
-1071.406346406807
 31
0.0
  0
LINE
  5
11F
330
31
100
AcDbEntity
  8
0
  6
Continuous
 62
     0
370
    -2
390
1D
100
AcDbLine
 10
-645.0000000000003
 20
-1071.406346406807
 30
0.0
 11
-275.0
 21
-1071.406346406807
 31
0.0
  0
CIRCLE
  5
120
102
{ACAD_REACTORS
330
121
102
}
330
31
100
AcDbEntity
  8
0
  6
Continuous
 62
     0
370
    -2
390
1D
100
AcDbCircle
 10
-645.0000000000003
 20
-1071.406346406807
 30
0.0
 40
4.99969482421875
  0
HATCH
  5
121
330
31
100
AcDbEntity
  8
0
  6
Continuous
 62
     0
370
    -2
390
1D
100
AcDbHatch
 10
0.0
 20
0.0
 30
0.0
210
0.0
220
0.0
230
1.0
  2
SOLID
 70
     1
 71
     1
 91
        1
 92
        1
 93
        1
 72
     2
 10
-645.0000000000003
 20
-1071.406346406807
 40
4.99969482421875
 50
0.0
 51
360.0
 73
     0
 97
        1
330
120
 75
     0
 76
     1
 98
        1
 10
0.0
 20
0.0
  0
CIRCLE
  5
122
102
{ACAD_REACTORS
330
123
102
}
330
31
100
AcDbEntity
  8
0
  6
Continuous
 62
     0
370
    -2
390
1D
100
AcDbCircle
 10
-275.0
 20
-1071.406346406807
 30
0.0
 40
4.99969482421875
  0
HATCH
  5
123
330
31
100
AcDbEntity
  8
0
  6
Continuous
 62
     0
370
    -2
390
1D
100
AcDbHatch
 10
0.0
 20
0.0
 30
0.0
210
0.0
220
0.0
230
1.0
  2
SOLID
 70
     1
 71
     1
 91
        1
 92
        1
 93
        1
 72
     2
 10
-275.0
 20
-1071.406346406807
 40
4.99969482421875
 50
0.0
 51
360.0
 73
     0
 97
        1
330
122
 75
     0
 76
     1
 98
        1
 10
0.0
 20
0.0
  0
MTEXT
  5
124
330
31
100
AcDbEntity
  8
0
 62
     0
390
1D
100
AcDbMText
 10
-483.8125016821756
 20
-1037.528729219307
 30
0.0
 40
24.4326171875
 41
0.0
 46
0.0
 71
     1
 72
     1
  1
370
  7
ＭＳ ゴシック
 73
     1
 44
0.7828267384257843
  0
POINT
  5
125
330
31
100
AcDbEntity
  8
Defpoints
 62
     0
370
     0
390
1D
100
AcDbPoint
 10
-275.0
 20
-916.4063464068065
 30
0.0
  0
POINT
  5
126
330
31
100
AcDbEntity
  8
Defpoints
 62
     0
370
     0
390
1D
100
AcDbPoint
 10
-645.0000000000003
 20
-916.4063464068065
 30
0.0
  0
POINT
  5
127
330
31
100
AcDbEntity
  8
Defpoints
 62
     0
370
     0
390
1D
100
AcDbPoint
 10
-645.0000000000003
 20
-1071.406346406807
 30
0.0
  0
ENDBLK
  5
128
330
31
100
AcDbEntity
  8
notes
390
1D
100
AcDbBlockEnd
  0
BLOCK
  5
129
330
32
100
AcDbEntity
  8
notes
390
1D
100
AcDbBlockBegin
  2
*D18
 70
     1
 10
0.0
 20
0.0
 30
0.0
  3
*D18
  1
*D18
  0
LINE
  5
12A
330
32
100
AcDbEntity
  8
0
  6
Continuous
 62
     0
370
    -2
390
1D
100
AcDbLine
 10
-644.9999999999999
 20
-941.4063464068065
 30
0.0
 11
-644.9999999999999
 21
-1021.406346406807
 31
0.0
  0
LINE
  5
12B
330
32
100
AcDbEntity
  8
0
  6
Continuous
 62
     0
370
    -2
390
1D
100
AcDbLine
 10
-460.0006478209199
 20
-845.5354382020598
 30
0.0
 11
-460.0006478209199
 21
-1021.406346406807
 31
0.0
  0
LINE
  5
12C
330
32
100
AcDbEntity
  8
0
  6
Continuous
 62
     0
370
    -2
390
1D
100
AcDbLine
 10
-644.9999999999999
 20
-1021.406346406807
 30
0.0
 11
-460.0006478209199
 21
-1021.406346406807
 31
0.0
  0
CIRCLE
  5
12D
102
{ACAD_REACTORS
330
12E
102
}
330
32
100
AcDbEntity
  8
0
  6
Continuous
 62
     0
370
    -2
390
1D
100
AcDbCircle
 10
-644.9999999999999
 20
-1021.406346406807
 30
0.0
 40
4.99969482421875
  0
HATCH
  5
12E
330
32
100
AcDbEntity
  8
0
  6
Continuous
 62
     0
370
    -2
390
1D
100
AcDbHatch
 10
0.0
 20
0.0
 30
0.0
210
0.0
220
0.0
230
1.0
  2
SOLID
 70
     1
 71
     1
 91
        1
 92
        1
 93
        1
 72
     2
 10
-644.9999999999999
 20
-1021.406346406807
 40
4.99969482421875
 50
0.0
 51
360.0
 73
     0
 97
        1
330
12D
 75
     0
 76
     1
 98
        1
 10
0.0
 20
0.0
  0
CIRCLE
  5
12F
102
{ACAD_REACTORS
330
130
102
}
330
32
100
AcDbEntity
  8
0
  6
Continuous
 62
     0
370
    -2
390
1D
100
AcDbCircle
 10
-460.0006478209199
 20
-1021.406346406807
 30
0.0
 40
4.99969482421875
  0
HATCH
  5
130
330
32
100
AcDbEntity
  8
0
  6
Continuous
 62
     0
370
    -2
390
1D
100
AcDbHatch
 10
0.0
 20
0.0
 30
0.0
210
0.0
220
0.0
230
1.0
  2
SOLID
 70
     1
 71
     1
 91
        1
 92
        1
 93
        1
 72
     2
 10
-460.0006478209199
 20
-1021.406346406807
 40
4.99969482421875
 50
0.0
 51
360.0
 73
     0
 97
        1
330
12F
 75
     0
 76
     1
 98
        1
 10
0.0
 20
0.0
  0
MTEXT
  5
131
330
32
100
AcDbEntity
  8
0
 62
     0
390
1D
100
AcDbMText
 10
-576.3128255926352
 20
-987.5287292193066
 30
0.0
 40
24.4326171875
 41
0.0
 46
0.0
 71
     1
 72
     1
  1
185
  7
ＭＳ ゴシック
 73
     1
 44
0.7828267384257843
  0
POINT
  5
132
330
32
100
AcDbEntity
  8
Defpoints
 62
     0
370
     0
390
1D
100
AcDbPoint
 10
-460.0006478209199
 20
-820.5354382020598
 30
0.0
  0
POINT
  5
133
330
32
100
AcDbEntity
  8
Defpoints
 62
     0
370
     0
390
1D
100
AcDbPoint
 10
-644.9999999999999
 20
-916.4063464068065
 30
0.0
  0
POINT
  5
134
330
32
100
AcDbEntity
  8
Defpoints
 62
     0
370
     0
390
1D
100
AcDbPoint
 10
-644.9999999999999
 20
-1021.406346406807
 30
0.0
  0
ENDBLK
  5
135
330
32
100
AcDbEntity
  8
notes
390
1D
100
AcDbBlockEnd
  0
BLOCK
  5
136
330
33
100
AcDbEntity
  8
notes
390
1D
100
AcDbBlockBegin
  2
*D19
 70
     1
 10
0.0
 20
0.0
 30
0.0
  3
*D19
  1
*D19
  0
LINE
  5
137
330
33
100
AcDbEntity
  8
0
  6
Continuous
 62
     0
370
    -2
390
1D
100
AcDbLine
 10
454.5828371300185
 20
97.72892812238723
 30
0.0
 11
454.5828371300185
 21
177.7289281223875
 31
0.0
  0
LINE
  5
138
330
33
100
AcDbEntity
  8
0
  6
Continuous
 62
     0
370
    -2
390
1D
100
AcDbLine
 10
604.5828371300184
 20
50.83099899085997
 30
0.0
 11
604.5828371300184
 21
177.7289281223875
 31
0.0
  0
LINE
  5
139
330
33
100
AcDbEntity
  8
0
  6
Continuous
 62
     0
370
    -2
390
1D
100
AcDbLine
 10
454.5828371300185
 20
177.7289281223875
 30
0.0
 11
604.5828371300184
 21
177.7289281223875
 31
0.0
  0
CIRCLE
  5
13A
102
{ACAD_REACTORS
330
13B
102
}
330
33
100
AcDbEntity
  8
0
  6
Continuous
 62
     0
370
    -2
390
1D
100
AcDbCircle
 10
454.5828371300185
 20
177.7289281223875
 30
0.0
 40
4.99969482421875
  0
HATCH
  5
13B
330
33
100
AcDbEntity
  8
0
  6
Continuous
 62
     0
370
    -2
390
1D
100
AcDbHatch
 10
0.0
 20
0.0
 30
0.0
210
0.0
220
0.0
230
1.0
  2
SOLID
 70
     1
 71
     1
 91
        1
 92
        1
 93
        1
 72
     2
 10
454.5828371300185
 20
177.7289281223875
 40
4.99969482421875
 50
0.0
 51
360.0
 73
     0
 97
        1
330
13A
 75
     0
 76
     1
 98
        1
 10
0.0
 20
0.0
  0
CIRCLE
  5
13C
102
{ACAD_REACTORS
330
13D
102
}
330
33
100
AcDbEntity
  8
0
  6
Continuous
 62
     0
370
    -2
390
1D
100
AcDbCircle
 10
604.5828371300184
 20
177.7289281223875
 30
0.0
 40
4.99969482421875
  0
HATCH
  5
13D
330
33
100
AcDbEntity
  8
0
  6
Continuous
 62
     0
370
    -2
390
1D
100
AcDbHatch
 10
0.0
 20
0.0
 30
0.0
210
0.0
220
0.0
230
1.0
  2
SOLID
 70
     1
 71
     1
 91
        1
 92
        1
 93
        1
 72
     2
 10
604.5828371300184
 20
177.7289281223875
 40
4.99969482421875
 50
0.0
 51
360.0
 73
     0
 97
        1
330
13C
 75
     0
 76
     1
 98
        1
 10
0.0
 20
0.0
  0
MTEXT
  5
13E
330
33
100
AcDbEntity
  8
0
 62
     0
390
1D
100
AcDbMText
 10
505.770335447843
 20
211.6065453098875
 30
0.0
 40
24.4326171875
 41
0.0
 46
0.0
 71
     1
 72
     1
  1
150
  7
ＭＳ ゴシック
 73
     1
 44
0.7828267384257843
  0
POINT
  5
13F
330
33
100
AcDbEntity
  8
Defpoints
 62
     0
370
     0
390
1D
100
AcDbPoint
 10
604.5828371300184
 20
25.83099899085997
 30
0.0
  0
POINT
  5
140
330
33
100
AcDbEntity
  8
Defpoints
 62
     0
370
     0
390
1D
100
AcDbPoint
 10
454.5828371300185
 20
72.72892812238723
 30
0.0
  0
POINT
  5
141
330
33
100
AcDbEntity
  8
Defpoints
 62
     0
370
     0
390
1D
100
AcDbPoint
 10
454.5828371300185
 20
177.7289281223875
 30
0.0
  0
ENDBLK
  5
142
330
33
100
AcDbEntity
  8
notes
390
1D
100
AcDbBlockEnd
  0
BLOCK
  5
143
330
34
100
AcDbEntity
  8
notes
390
1D
100
AcDbBlockBegin
  2
*D20
 70
     1
 10
0.0
 20
0.0
 30
0.0
  3
*D20
  1
*D20
  0
LINE
  5
144
330
34
100
AcDbEntity
  8
0
  6
Continuous
 62
     0
370
    -2
390
1D
100
AcDbLine
 10
429.5828371300185
 20
-816.4063464068065
 30
0.0
 11
360.5828371300185
 21
-816.4063464068065
 31
0.0
  0
LINE
  5
145
330
34
100
AcDbEntity
  8
0
  6
Continuous
 62
     0
370
    -2
390
1D
100
AcDbLine
 10
434.5828371300185
 20
-921.4063464068065
 30
0.0
 11
360.5828371300185
 21
-921.4063464068065
 31
0.0
  0
LINE
  5
146
330
34
100
AcDbEntity
  8
0
  6
Continuous
 62
     0
370
    -2
390
1D
100
AcDbLine
 10
360.5828371300185
 20
-816.4063464068065
 30
0.0
 11
360.5828371300185
 21
-921.4063464068065
 31
0.0
  0
CIRCLE
  5
147
102
{ACAD_REACTORS
330
148
102
}
330
34
100
AcDbEntity
  8
0
  6
Continuous
 62
     0
370
    -2
390
1D
100
AcDbCircle
 10
360.5828371300185
 20
-816.4063464068065
 30
0.0
 40
4.99969482421875
  0
HATCH
  5
148
330
34
100
AcDbEntity
  8
0
  6
Continuous
 62
     0
370
    -2
390
1D
100
AcDbHatch
 10
0.0
 20
0.0
 30
0.0
210
0.0
220
0.0
230
1.0
  2
SOLID
 70
     1
 71
     1
 91
        1
 92
        1
 93
        1
 72
     2
 10
360.5828371300185
 20
-816.4063464068065
 40
4.99969482421875
 50
0.0
 51
360.0
 73
     0
 97
        1
330
147
 75
     0
 76
     1
 98
        1
 10
0.0
 20
0.0
  0
CIRCLE
  5
149
102
{ACAD_REACTORS
330
14A
102
}
330
34
100
AcDbEntity
  8
0
  6
Continuous
 62
     0
370
    -2
390
1D
100
AcDbCircle
 10
360.5828371300185
 20
-921.4063464068065
 30
0.0
 40
4.99969482421875
  0
HATCH
  5
14A
330
34
100
AcDbEntity
  8
0
  6
Continuous
 62
     0
370
    -2
390
1D
100
AcDbHatch
 10
0.0
 20
0.0
 30
0.0
210
0.0
220
0.0
230
1.0
  2
SOLID
 70
     1
 71
     1
 91
        1
 92
        1
 93
        1
 72
     2
 10
360.5828371300185
 20
-921.4063464068065
 40
4.99969482421875
 50
0.0
 51
360.0
 73
     0
 97
        1
330
149
 75
     0
 76
     1
 98
        1
 10
0.0
 20
0.0
  0
MTEXT
  5
14B
330
34
100
AcDbEntity
  8
0
 62
     0
390
1D
100
AcDbMText
 10
326.7052199425185
 20
-892.718848088982
 30
0.0
 40
24.4326171875
 41
0.0
 46
0.0
 71
     1
 72
     1
  1
105
  7
ＭＳ ゴシック
 11
0.0
 21
1.0
 31
0.0
 73
     1
 44
0.7828267384257843
  0
POINT
  5
14C
330
34
100
AcDbEntity
  8
Defpoints
 62
     0
370
     0
390
1D
100
AcDbPoint
 10
459.5828371300185
 20
-921.4063464068065
 30
0.0
  0
POINT
  5
14D
330
34
100
AcDbEntity
  8
Defpoints
 62
     0
370
     0
390
1D
100
AcDbPoint
 10
454.5828371300185
 20
-816.4063464068065
 30
0.0
  0
POINT
  5
14E
330
34
100
AcDbEntity
  8
Defpoints
 62
     0
370
     0
390
1D
100
AcDbPoint
 10
360.5828371300185
 20
-816.4063464068065
 30
0.0
  0
ENDBLK
  5
14F
330
34
100
AcDbEntity
  8
notes
390
1D
100
AcDbBlockEnd
  0
BLOCK
  5
150
330
35
100
AcDbEntity
  8
notes
390
1D
100
AcDbBlockBegin
  2
*D21
 70
     1
 10
0.0
 20
0.0
 30
0.0
  3
*D21
  1
*D21
  0
LINE
  5
151
330
35
100
AcDbEntity
  8
0
  6
Continuous
 62
     0
370
    -2
390
1D
100
AcDbLine
 10
454.5828371300185
 20
829.6576039521071
 30
0.0
 11
454.5828371300185
 21
809.9106263846293
 31
0.0
  0
LINE
  5
152
330
35
100
AcDbEntity
  8
0
  6
Continuous
 62
     0
370
    -2
390
1D
100
AcDbLine
 10
569.5828371300184
 20
829.6569561311903
 30
0.0
 11
569.5828371300184
 21
809.9106263846293
 31
0.0
  0
LINE
  5
153
330
35
100
AcDbEntity
  8
0
  6
Continuous
 62
     0
370
    -2
390
1D
100
AcDbLine
 10
454.5828371300185
 20
809.9106263846293
 30
0.0
 11
306.9018774250669
 21
809.9106263846293
 31
0.0
  0
LINE
  5
154
330
35
100
AcDbEntity
  8
0
  6
Continuous
 62
     0
370
    -2
390
1D
100
AcDbLine
 10
454.5828371300185
 20
809.9106263846293
 30
0.0
 11
569.5828371300184
 21
809.9106263846293
 31
0.0
  0
CIRCLE
  5
155
102
{ACAD_REACTORS
330
156
102
}
330
35
100
AcDbEntity
  8
0
  6
Continuous
 62
     0
370
    -2
390
1D
100
AcDbCircle
 10
454.5828371300185
 20
809.9106263846293
 30
0.0
 40
4.99969482421875
  0
HATCH
  5
156
330
35
100
AcDbEntity
  8
0
  6
Continuous
 62
     0
370
    -2
390
1D
100
AcDbHatch
 10
0.0
 20
0.0
 30
0.0
210
0.0
220
0.0
230
1.0
  2
SOLID
 70
     1
 71
     1
 91
        1
 92
        1
 93
        1
 72
     2
 10
454.5828371300185
 20
809.9106263846293
 40
4.99969482421875
 50
0.0
 51
360.0
 73
     0
 97
        1
330
155
 75
     0
 76
     1
 98
        1
 10
0.0
 20
0.0
  0
CIRCLE
  5
157
102
{ACAD_REACTORS
330
158
102
}
330
35
100
AcDbEntity
  8
0
  6
Continuous
 62
     0
370
    -2
390
1D
100
AcDbCircle
 10
569.5828371300184
 20
809.9106263846293
 30
0.0
 40
4.99969482421875
  0
HATCH
  5
158
330
35
100
AcDbEntity
  8
0
  6
Continuous
 62
     0
370
    -2
390
1D
100
AcDbHatch
 10
0.0
 20
0.0
 30
0.0
210
0.0
220
0.0
230
1.0
  2
SOLID
 70
     1
 71
     1
 91
        1
 92
        1
 93
        1
 72
     2
 10
569.5828371300184
 20
809.9106263846293
 40
4.99969482421875
 50
0.0
 51
360.0
 73
     0
 97
        1
330
157
 75
     0
 76
     1
 98
        1
 10
0.0
 20
0.0
  0
MTEXT
  5
159
330
35
100
AcDbEntity
  8
0
 62
     0
390
1D
100
AcDbMText
 10
306.9018774250669
 20
843.7882435721294
 30
0.0
 40
24.4326171875
 41
0.0
 46
0.0
 71
     1
 72
     1
  1
115(深さ)
  7
ＭＳ ゴシック
 73
     1
 44
0.7828267384257843
  0
POINT
  5
15A
330
35
100
AcDbEntity
  8
Defpoints
 62
     0
370
     0
390
1D
100
AcDbPoint
 10
569.5828371300184
 20
804.6569561311903
 30
0.0
  0
POINT
  5
15B
330
35
100
AcDbEntity
  8
Defpoints
 62
     0
370
     0
390
1D
100
AcDbPoint
 10
454.5828371300185
 20
804.6576039521071
 30
0.0
  0
POINT
  5
15C
330
35
100
AcDbEntity
  8
Defpoints
 62
     0
370
     0
390
1D
100
AcDbPoint
 10
454.5828371300185
 20
809.9106263846293
 30
0.0
  0
ENDBLK
  5
15D
330
35
100
AcDbEntity
  8
notes
390
1D
100
AcDbBlockEnd
  0
BLOCK
  5
15E
330
36
100
AcDbEntity
  8
notes
390
1D
100
AcDbBlockBegin
  2
*D22
 70
     1
 10
0.0
 20
0.0
 30
0.0
  3
*D22
  1
*D22
  0
LINE
  5
15F
330
36
100
AcDbEntity
  8
0
  6
Continuous
 62
     0
370
    -2
390
1D
100
AcDbLine
 10
454.5828371300185
 20
1009.65695613119
 30
0.0
 11
454.5828371300185
 21
1089.65695613119
 31
0.0
  0
LINE
  5
160
330
36
100
AcDbEntity
  8
0
  6
Continuous
 62
     0
370
    -2
390
1D
100
AcDbLine
 10
549.5828371300187
 20
1009.65695613119
 30
0.0
 11
549.5828371300187
 21
1089.65695613119
 31
0.0
  0
LINE
  5
161
330
36
100
AcDbEntity
  8
0
  6
Continuous
 62
     0
370
    -2
390
1D
100
AcDbLine
 10
454.5828371300185
 20
1089.65695613119
 30
0.0
 11
549.5828371300187
 21
1089.65695613119
 31
0.0
  0
CIRCLE
  5
162
102
{ACAD_REACTORS
330
163
102
}
330
36
100
AcDbEntity
  8
0
  6
Continuous
 62
     0
370
    -2
390
1D
100
AcDbCircle
 10
454.5828371300185
 20
1089.65695613119
 30
0.0
 40
4.99969482421875
  0
HATCH
  5
163
330
36
100
AcDbEntity
  8
0
  6
Continuous
 62
     0
370
    -2
390
1D
100
AcDbHatch
 10
0.0
 20
0.0
 30
0.0
210
0.0
220
0.0
230
1.0
  2
SOLID
 70
     1
 71
     1
 91
        1
 92
        1
 93
        1
 72
     2
 10
454.5828371300185
 20
1089.65695613119
 40
4.99969482421875
 50
0.0
 51
360.0
 73
     0
 97
        1
330
162
 75
     0
 76
     1
 98
        1
 10
0.0
 20
0.0
  0
CIRCLE
  5
164
102
{ACAD_REACTORS
330
165
102
}
330
36
100
AcDbEntity
  8
0
  6
Continuous
 62
     0
370
    -2
390
1D
100
AcDbCircle
 10
549.5828371300187
 20
1089.65695613119
 30
0.0
 40
4.99969482421875
  0
HATCH
  5
165
330
36
100
AcDbEntity
  8
0
  6
Continuous
 62
     0
370
    -2
390
1D
100
AcDbHatch
 10
0.0
 20
0.0
 30
0.0
210
0.0
220
0.0
230
1.0
  2
SOLID
 70
     1
 71
     1
 91
        1
 92
        1
 93
        1
 72
     2
 10
549.5828371300187
 20
1089.65695613119
 40
4.99969482421875
 50
0.0
 51
360.0
 73
     0
 97
        1
330
164
 75
     0
 76
     1
 98
        1
 10
0.0
 20
0.0
  0
MTEXT
  5
166
330
36
100
AcDbEntity
  8
0
 62
     0
390
1D
100
AcDbMText
 10
486.2078371300186
 20
1123.53457331869
 30
0.0
 40
24.4326171875
 41
0.0
 46
0.0
 71
     1
 72
     1
  1
95
  7
ＭＳ ゴシック
 73
     1
 44
0.7828267384257843
  0
POINT
  5
167
330
36
100
AcDbEntity
  8
Defpoints
 62
     0
370
     0
390
1D
100
AcDbPoint
 10
549.5828371300187
 20
984.6569561311901
 30
0.0
  0
POINT
  5
168
330
36
100
AcDbEntity
  8
Defpoints
 62
     0
370
     0
390
1D
100
AcDbPoint
 10
454.5828371300185
 20
984.6569561311901
 30
0.0
  0
POINT
  5
169
330
36
100
AcDbEntity
  8
Defpoints
 62
     0
370
     0
390
1D
100
AcDbPoint
 10
454.5828371300185
 20
1089.65695613119
 30
0.0
  0
ENDBLK
  5
16A
330
36
100
AcDbEntity
  8
notes
390
1D
100
AcDbBlockEnd
  0
BLOCK
  5
16B
330
37
100
AcDbEntity
  8
notes
390
1D
100
AcDbBlockBegin
  2
*D23
 70
     1
 10
0.0
 20
0.0
 30
0.0
  3
*D23
  1
*D23
  0
LINE
  5
16C
330
37
100
AcDbEntity
  8
0
  6
Continuous
 62
     0
370
    -2
390
1D
100
AcDbLine
 10
549.5828371300187
 20
1009.65695613119
 30
0.0
 11
549.5828371300187
 21
1089.65695613119
 31
0.0
  0
LINE
  5
16D
330
37
100
AcDbEntity
  8
0
  6
Continuous
 62
     0
370
    -2
390
1D
100
AcDbLine
 10
604.5828371300186
 20
959.6513900430341
 30
0.0
 11
604.5828371300186
 21
1089.65695613119
 31
0.0
  0
LINE
  5
16E
330
37
100
AcDbEntity
  8
0
  6
Continuous
 62
     0
370
    -2
390
1D
100
AcDbLine
 10
549.5828371300187
 20
1089.65695613119
 30
0.0
 11
604.5828371300186
 21
1089.65695613119
 31
0.0
  0
CIRCLE
  5
16F
102
{ACAD_REACTORS
330
170
102
}
330
37
100
AcDbEntity
  8
0
  6
Continuous
 62
     0
370
    -2
390
1D
100
AcDbCircle
 10
549.5828371300187
 20
1089.65695613119
 30
0.0
 40
4.99969482421875
  0
HATCH
  5
170
330
37
100
AcDbEntity
  8
0
  6
Continuous
 62
     0
370
    -2
390
1D
100
AcDbHatch
 10
0.0
 20
0.0
 30
0.0
210
0.0
220
0.0
230
1.0
  2
SOLID
 70
     1
 71
     1
 91
        1
 92
        1
 93
        1
 72
     2
 10
549.5828371300187
 20
1089.65695613119
 40
4.99969482421875
 50
0.0
 51
360.0
 73
     0
 97
        1
330
16F
 75
     0
 76
     1
 98
        1
 10
0.0
 20
0.0
  0
CIRCLE
  5
171
102
{ACAD_REACTORS
330
172
102
}
330
37
100
AcDbEntity
  8
0
  6
Continuous
 62
     0
370
    -2
390
1D
100
AcDbCircle
 10
604.5828371300186
 20
1089.65695613119
 30
0.0
 40
4.99969482421875
  0
HATCH
  5
172
330
37
100
AcDbEntity
  8
0
  6
Continuous
 62
     0
370
    -2
390
1D
100
AcDbHatch
 10
0.0
 20
0.0
 30
0.0
210
0.0
220
0.0
230
1.0
  2
SOLID
 70
     1
 71
     1
 91
        1
 92
        1
 93
        1
 72
     2
 10
604.5828371300186
 20
1089.65695613119
 40
4.99969482421875
 50
0.0
 51
360.0
 73
     0
 97
        1
330
171
 75
     0
 76
     1
 98
        1
 10
0.0
 20
0.0
  0
MTEXT
  5
173
330
37
100
AcDbEntity
  8
0
 62
     0
390
1D
100
AcDbMText
 10
561.2078371300186
 20
1123.53457331869
 30
0.0
 40
24.4326171875
 41
0.0
 46
0.0
 71
     1
 72
     1
  1
55
  7
ＭＳ ゴシック
 73
     1
 44
0.7828267384257843
  0
POINT
  5
174
330
37
100
AcDbEntity
  8
Defpoints
 62
     0
370
     0
390
1D
100
AcDbPoint
 10
604.5828371300186
 20
934.6513900430341
 30
0.0
  0
POINT
  5
175
330
37
100
AcDbEntity
  8
Defpoints
 62
     0
370
     0
390
1D
100
AcDbPoint
 10
549.5828371300187
 20
984.6569561311901
 30
0.0
  0
POINT
  5
176
330
37
100
AcDbEntity
  8
Defpoints
 62
     0
370
     0
390
1D
100
AcDbPoint
 10
549.5828371300187
 20
1089.65695613119
 30
0.0
  0
ENDBLK
  5
177
330
37
100
AcDbEntity
  8
notes
390
1D
100
AcDbBlockEnd
  0
BLOCK
  5
178
330
38
100
AcDbEntity
  8
notes
390
1D
100
AcDbBlockBegin
  2
*D24
 70
     1
 10
0.0
 20
0.0
 30
0.0
  3
*D24
  1
*D24
  0
LINE
  5
179
330
38
100
AcDbEntity
  8
0
  6
Continuous
 62
     0
370
    -2
390
1D
100
AcDbLine
 10
624.844516911233
 20
669.6706701874068
 30
0.0
 11
719.7768774250669
 21
669.6706701874068
 31
0.0
  0
LINE
  5
17A
330
38
100
AcDbEntity
  8
0
  6
Continuous
 62
     0
370
    -2
390
1D
100
AcDbLine
 10
624.8445169112333
 20
939.644537716807
 30
0.0
 11
719.7768774250669
 21
939.644537716807
 31
0.0
  0
LINE
  5
17B
330
38
100
AcDbEntity
  8
0
  6
Continuous
 62
     0
370
    -2
390
1D
100
AcDbLine
 10
719.7768774250669
 20
669.6706701874068
 30
0.0
 11
719.7768774250669
 21
939.644537716807
 31
0.0
  0
CIRCLE
  5
17C
102
{ACAD_REACTORS
330
17D
102
}
330
38
100
AcDbEntity
  8
0
  6
Continuous
 62
     0
370
    -2
390
1D
100
AcDbCircle
 10
719.7768774250669
 20
669.6706701874068
 30
0.0
 40
4.99969482421875
  0
HATCH
  5
17D
330
38
100
AcDbEntity
  8
0
  6
Continuous
 62
     0
370
    -2
390
1D
100
AcDbHatch
 10
0.0
 20
0.0
 30
0.0
210
0.0
220
0.0
230
1.0
  2
SOLID
 70
     1
 71
     1
 91
        1
 92
        1
 93
        1
 72
     2
 10
719.7768774250669
 20
669.6706701874068
 40
4.99969482421875
 50
0.0
 51
360.0
 73
     0
 97
        1
330
17C
 75
     0
 76
     1
 98
        1
 10
0.0
 20
0.0
  0
CIRCLE
  5
17E
102
{ACAD_REACTORS
330
17F
102
}
330
38
100
AcDbEntity
  8
0
  6
Continuous
 62
     0
370
    -2
390
1D
100
AcDbCircle
 10
719.7768774250669
 20
939.644537716807
 30
0.0
 40
4.99969482421875
  0
HATCH
  5
17F
330
38
100
AcDbEntity
  8
0
  6
Continuous
 62
     0
370
    -2
390
1D
100
AcDbHatch
 10
0.0
 20
0.0
 30
0.0
210
0.0
220
0.0
230
1.0
  2
SOLID
 70
     1
 71
     1
 91
        1
 92
        1
 93
        1
 72
     2
 10
719.7768774250669
 20
939.644537716807
 40
4.99969482421875
 50
0.0
 51
360.0
 73
     0
 97
        1
330
17E
 75
     0
 76
     1
 98
        1
 10
0.0
 20
0.0
  0
MTEXT
  5
180
330
38
100
AcDbEntity
  8
0
 62
     0
390
1D
100
AcDbMText
 10
685.8992602375669
 20
780.8451022699314
 30
0.0
 40
24.4326171875
 41
0.0
 46
0.0
 71
     1
 72
     1
  1
270
  7
ＭＳ ゴシック
 11
0.0
 21
1.0
 31
0.0
 73
     1
 44
0.7828267384257843
  0
POINT
  5
181
330
38
100
AcDbEntity
  8
Defpoints
 62
     0
370
     0
390
1D
100
AcDbPoint
 10
599.8445169112333
 20
939.644537716807
 30
0.0
  0
POINT
  5
182
330
38
100
AcDbEntity
  8
Defpoints
 62
     0
370
     0
390
1D
100
AcDbPoint
 10
599.844516911233
 20
669.6706701874068
 30
0.0
  0
POINT
  5
183
330
38
100
AcDbEntity
  8
Defpoints
 62
     0
370
     0
390
1D
100
AcDbPoint
 10
719.7768774250669
 20
669.6706701874068
 30
0.0
  0
ENDBLK
  5
184
330
38
100
AcDbEntity
  8
notes
390
1D
100
AcDbBlockEnd
  0
BLOCK
  5
185
330
39
100
AcDbEntity
  8
notes
390
1D
100
AcDbBlockBegin
  2
*D25
 70
     1
 10
0.0
 20
0.0
 30
0.0
  3
*D25
  1
*D25
  0
LINE
  5
186
330
39
100
AcDbEntity
  8
0
  6
Continuous
 62
     0
370
    -2
390
1D
100
AcDbLine
 10
-384.9999999999999
 20
299.5843452111075
 30
0.0
 11
-329.8749999999999
 21
299.5843452111075
 31
0.0
  0
LINE
  5
187
330
39
100
AcDbEntity
  8
0
  6
Continuous
 62
     0
370
    -2
390
1D
100
AcDbLine
 10
-384.9999999999999
 20
239.6277347515733
 30
0.0
 11
-329.8749999999999
 21
239.6277347515733
 31
0.0
  0
LINE
  5
188
330
39
100
AcDbEntity
  8
0
  6
Continuous
 62
     0
370
    -2
390
1D
100
AcDbLine
 10
-329.8749999999999
 20
239.6277347515733
 30
0.0
 11
-329.8749999999999
 21
200.5343452111076
 31
0.0
  0
LINE
  5
189
330
39
100
AcDbEntity
  8
0
  6
Continuous
 62
     0
370
    -2
390
1D
100
AcDbLine
 10
-329.8749999999999
 20
299.5843452111075
 30
0.0
 11
-329.8749999999999
 21
239.6277347515733
 31
0.0
  0
CIRCLE
  5
18A
102
{ACAD_REACTORS
330
18B
102
}
330
39
100
AcDbEntity
  8
0
  6
Continuous
 62
     0
370
    -2
390
1D
100
AcDbCircle
 10
-329.8749999999999
 20
299.5843452111075
 30
0.0
 40
4.99969482421875
  0
HATCH
  5
18B
330
39
100
AcDbEntity
  8
0
  6
Continuous
 62
     0
370
    -2
390
1D
100
AcDbHatch
 10
0.0
 20
0.0
 30
0.0
210
0.0
220
0.0
230
1.0
  2
SOLID
 70
     1
 71
     1
 91
        1
 92
        1
 93
        1
 72
     2
 10
-329.8749999999999
 20
299.5843452111075
 40
4.99969482421875
 50
0.0
 51
360.0
 73
     0
 97
        1
330
18A
 75
     0
 76
     1
 98
        1
 10
0.0
 20
0.0
  0
CIRCLE
  5
18C
102
{ACAD_REACTORS
330
18D
102
}
330
39
100
AcDbEntity
  8
0
  6
Continuous
 62
     0
370
    -2
390
1D
100
AcDbCircle
 10
-329.8749999999999
 20
239.6277347515733
 30
0.0
 40
4.99969482421875
  0
HATCH
  5
18D
330
39
100
AcDbEntity
  8
0
  6
Continuous
 62
     0
370
    -2
390
1D
100
AcDbHatch
 10
0.0
 20
0.0
 30
0.0
210
0.0
220
0.0
230
1.0
  2
SOLID
 70
     1
 71
     1
 91
        1
 92
        1
 93
        1
 72
     2
 10
-329.8749999999999
 20
239.6277347515733
 40
4.99969482421875
 50
0.0
 51
360.0
 73
     0
 97
        1
330
18C
 75
     0
 76
     1
 98
        1
 10
0.0
 20
0.0
  0
MTEXT
  5
18E
330
39
100
AcDbEntity
  8
0
 62
     0
390
1D
100
AcDbMText
 10
-363.7526171874998
 20
200.5343452111076
 30
0.0
 40
24.4326171875
 41
0.0
 46
0.0
 71
     1
 72
     1
  1
60
  7
ＭＳ ゴシック
 11
0.0
 21
1.0
 31
0.0
 73
     1
 44
0.7828267384257843
  0
POINT
  5
18F
330
39
100
AcDbEntity
  8
Defpoints
 62
     0
370
     0
390
1D
100
AcDbPoint
 10
-409.9999999999999
 20
239.6277347515733
 30
0.0
  0
POINT
  5
190
330
39
100
AcDbEntity
  8
Defpoints
 62
     0
370
     0
390
1D
100
AcDbPoint
 10
-409.9999999999999
 20
299.5843452111075
 30
0.0
  0
POINT
  5
191
330
39
100
AcDbEntity
  8
Defpoints
 62
     0
370
     0
390
1D
100
AcDbPoint
 10
-329.8749999999999
 20
299.5843452111075
 30
0.0
  0
ENDBLK
  5
192
330
39
100
AcDbEntity
  8
notes
390
1D
100
AcDbBlockEnd
  0
ENDSEC
  0
SECTION
  2
ENTITIES
  0
MTEXT
  5
193
330
A
100
AcDbEntity
  8
template
 62
     7
390
1D
100
AcDbMText
 10
-967.9999999997593
 20
-1147.4176292337
 30
0.0
 40
16.28841145833333
 41
0.0
 46
0.0
 71
     1
 72
     1
  1
品名
  7
ＭＳ ゴシック
 73
     1
 44
0.7828267384257843
  0
MTEXT
  5
194
330
A
100
AcDbEntity
  8
template
 62
     7
390
1D
100
AcDbMText
 10
-967.9999999997593
 20
-1232.4176292337
 30
0.0
 40
16.28841145833333
 41
0.0
 46
0.0
 71
     1
 72
     1
  1
仕様
  7
ＭＳ ゴシック
 73
     1
 44
0.7828267384257843
  0
MTEXT
  5
195
330
A
100
AcDbEntity
  8
template
 62
     7
390
1D
100
AcDbMText
 10
-914.9999999997593
 20
-1176.000090171201
 30
0.0
 40
24.4326171875
 41
0.0
 46
24.4326171875
 71
     1
 72
     1
  1
{洗面器・手洗器 -CATALANO,Verso-}
  7
ＭＳ ゴシック
 73
     1
 44
0.7828267384257843
1001
ACAD
1000
ACAD_MTEXT_DEFINED_HEIGHT_BEGIN
1070
    46
1040
24.4326171875
1000
ACAD_MTEXT_DEFINED_HEIGHT_END
  0
LINE
  5
196
330
A
100
AcDbEntity
  8
template
  6
Continuous
 62
     7
370
     5
390
1D
100
AcDbLine
 10
974.9999999997588
 20
-1224.0027073587
 30
0.0
 11
-975.0000000002414
 21
-1224.0027073587
 31
0.0
  0
LWPOLYLINE
  5
197
330
A
100
AcDbEntity
  8
template
  6
Continuous
 62
     7
370
     5
390
1D
100
AcDbPolyline
 90
        5
 70
   128
 43
0.0
 10
975.0000000002412
 20
1405.9972926413
 10
-974.9999999997593
 20
1405.9972926413
 10
-974.9999999997593
 20
-1394.0027073587
 10
975.0000000002412
 20
-1394.0027073587
 10
975.0000000002412
 20
1405.9972926413
  0
LINE
  5
198
330
A
100
AcDbEntity
  8
template
  6
Continuous
 62
     7
370
     5
390
1D
100
AcDbLine
 10
974.9999999997588
 20
-1139.0027073587
 30
0.0
 11
-975.0000000002414
 21
-1139.0027073587
 31
0.0
  0
LINE
  5
199
330
A
100
AcDbEntity
  8
template
  6
Continuous
 62
     7
370
     5
390
1D
100
AcDbLine
 10
975.0000000002412
 20
-1309.0027073587
 30
0.0
 11
222.0000000002412
 21
-1309.0027073587
 31
0.0
  0
MTEXT
  5
19A
330
A
100
AcDbEntity
  8
template
 62
     7
390
1D
100
AcDbMText
 10
-974.999999999556
 20
-1405.856529415557
 30
0.0
 40
21.71788194444445
 41
0.0
 46
0.0
 71
     1
 72
     1
  1
100707SH
  7
ＭＳ ゴシック
 73
     1
 44
0.7828267384257843
  0
MTEXT
  5
19B
330
A
100
AcDbEntity
  8
template
 62
     7
390
1D
100
AcDbMText
 10
251.8714062525009
 20
-1338.913101832008
 30
0.0
 40
24.4326171875
 41
0.0
 46
0.0
 71
     1
 72
     1
  1
大洋金物株式会社 ティーフォルム事業部
  7
ＭＳ ゴシック
 73
     1
 44
0.7828267384257843
  0
INSERT
  5
19C
330
A
100
AcDbEntity
  8
template
 62
     7
390
1D
100
AcDbBlockReference
  2
グループ
 10
735.9807231930341
 20
46.01763891742127
 30
0.0
  0
MTEXT
  5
19D
330
A
100
AcDbEntity
  8
template
 62
     7
390
1D
100
AcDbMText
 10
784.0000000005
 20
-1261.000090171201
 30
0.0
 40
24.4326171875
 41
0.0
 46
0.0
 71
     1
 72
     1
  1
1:10
  7
ＭＳ ゴシック
 73
     1
 44
0.7828267384257843
  0
MTEXT
  5
19E
330
A
100
AcDbEntity
  8
template
 62
     7
390
1D
100
AcDbMText
 10
731.0000000005
 20
-1232.4176292337
 30
0.0
 40
16.28841145833333
 41
0.0
 46
0.0
 71
     1
 72
     1
  1
縮尺
  7
ＭＳ ゴシック
 73
     1
 44
0.7828267384257843
  0
LINE
  5
19F
330
A
100
AcDbEntity
  8
template
  6
Continuous
 62
     7
370
     5
390
1D
100
AcDbLine
 10
724.0000000005
 20
-1309.0027073587
 30
0.0
 11
724.0000000005
 21
-1224.0027073587
 31
0.0
  0
MTEXT
  5
1A0
330
A
100
AcDbEntity
  8
template
 62
     7
390
1D
100
AcDbMText
 10
480.0000000005
 20
-1232.4176292337
 30
0.0
 40
16.28841145833333
 41
0.0
 46
0.0
 71
     1
 72
     1
  1
容量
  7
ＭＳ ゴシック
 73
     1
 44
0.7828267384257843
  0
MTEXT
  5
1A1
330
A
100
AcDbEntity
  8
template
 62
     7
390
1D
100
AcDbMText
 10
533.0000000005
 20
-1261.000090171201
 30
0.0
 40
24.4326171875
 41
0.0
 46
0.0
 71
     1
 72
     1
  1
21.5L
  7
ＭＳ ゴシック
 73
     1
 44
0.7828267384257843
  0
LINE
  5
1A2
330
A
100
AcDbEntity
  8
template
  6
Continuous
 62
     7
370
     5
390
1D
100
AcDbLine
 10
473.0000000005
 20
-1309.0027073587
 30
0.0
 11
473.0000000005
 21
-1224.0027073587
 31
0.0
  0
MTEXT
  5
1A3
330
A
100
AcDbEntity
  8
template
 62
     7
390
1D
100
AcDbMText
 10
229.0000000005
 20
-1147.4176292337
 30
0.0
 40
16.28841145833333
 41
0.0
 46
0.0
 71
     1
 72
     1
  1
品番
  7
ＭＳ ゴシック
 73
     1
 44
0.7828267384257843
  0
MTEXT
  5
1A4
330
A
100
AcDbEntity
  8
template
 62
     7
390
1D
100
AcDbMText
 10
229.0000000005
 20
-1232.4176292337
 30
0.0
 40
16.28841145833333
 41
0.0
 46
0.0
 71
     1
 72
     1
  1
重量
  7
ＭＳ ゴシック
 73
     1
 44
0.7828267384257843
  0
MTEXT
  5
1A5
330
A
100
AcDbEntity
  8
template
 62
     7
390
1D
100
AcDbMText
 10
282.0000000005
 20
-1176.000090171201
 30
0.0
 40
24.4326171875
 41
0.0
 46
0.0
 71
     1
 72
     1
  1
ADF70-0606
  7
ＭＳ ゴシック
 73
     1
 44
0.7828267384257843
  0
MTEXT
  5
1A6
330
A
100
AcDbEntity
  8
template
 62
     7
390
1D
100
AcDbMText
 10
282.0000000005
 20
-1261.000090171201
 30
0.0
 40
24.4326171875
 41
0.0
 46
0.0
 71
     1
 72
     1
  1
26.5kg
  7
ＭＳ ゴシック
 73
     1
 44
0.7828267384257843
  0
LINE
  5
1A7
330
A
100
AcDbEntity
  8
template
  6
Continuous
 62
     7
370
     5
390
1D
100
AcDbLine
 10
222.0000000005
 20
-1394.0027073587
 30
0.0
 11
222.0000000005
 21
-1139.0027073587
 31
0.0
  0
MTEXT
  5
1A8
330
A
100
AcDbEntity
  8
template
 62
     7
390
1D
100
AcDbMText
 10
-914.9999999997589
 20
-1261.0000901712
 30
0.0
 40
24.4326171875
 41
0.0
 46
0.0
 71
     1
 72
     1
  1
カウンター置き,半埋め込み/オーバーフローなし/\P陶器,背面釉薬あり/ホワイト\P
  7
ＭＳ ゴシック
 73
     1
 44
1.304711230709641
  0
MTEXT
  5
1A9
330
A
100
AcDbEntity
  8
notes
 62
     7
390
1D
100
AcDbMText
 10
-19.96959304818461
 20
-844.8027286248137
 30
0.0
 40
24.4326171875
 41
832.4569820556194
 46
68.27975785302668
 71
     1
 72
     1
  1
{\fメイリオ|b0|i0|c0|p0;＝\fＭＳ ゴシック|b0|i0|c0|p0;φ30もしくはφ35の水栓取付用穴あけ加工を承ります。\P  必要な場合、ご注文の際にご指示ください。}
  7
ＭＳ ゴシック
 11
0.0
 21
1.0
 31
0.0
 73
     1
 44
1.043768984567712
1001
ACAD
1000
ACAD_MTEXT_DEFINED_HEIGHT_BEGIN
1070
    46
1040
68.27975785302668
1000
ACAD_MTEXT_DEFINED_HEIGHT_END
  0
MTEXT
  5
1AA
330
A
100
AcDbEntity
  8
notes
 62
     7
390
1D
100
AcDbMText
 10
-857.1622499313406
 20
603.6319014182402
 30
0.0
 40
24.4326171875
 41
0.0
 46
0.0
 71
     1
 72
     1
  1
カウンター切込寸法
  7
ＭＳ ゴシック
 11
0.0
 21
1.0
 31
0.0
 73
     1
 44
0.7828267384257843
  0
MTEXT
  5
1AB
330
A
100
AcDbEntity
  8
notes
 62
     7
390
1D
100
AcDbMText
 10
-779.6494002353705
 20
259.4996229888853
 30
0.0
 40
24.4326171875
 41
0.0
 46
0.0
 71
     1
 72
     1
  1
半埋め込み
  7
ＭＳ ゴシック
 11
0.0
 21
1.0
 31
0.0
 73
     1
 44
0.7828267384257843
  0
MTEXT
  5
1AC
330
A
100
AcDbEntity
  8
notes
 62
     7
390
1D
100
AcDbMText
 10
-714.6494002353705
 20
289.8523273581571
 30
0.0
 40
24.4326171875
 41
0.0
 46
0.0
 71
     1
 72
     1
  1
カウンター置き
  7
ＭＳ ゴシック
 11
0.0
 21
1.0
 31
0.0
 73
     1
 44
0.7828267384257843
  0
MTEXT
  5
1AD
330
A
100
AcDbEntity
  8
notes
 62
     7
390
1D
100
AcDbMText
 10
841.281192810274
 20
-1015.031146947264
 30
0.0
 40
24.4326171875
 41
0.0
 46
0.0
 71
     1
 72
     1
  1
半埋め込み
  7
ＭＳ ゴシック
 11
0.0
 21
1.0
 31
0.0
 73
     1
 44
0.7828267384257843
  0
LINE
  5
1AE
330
A
100
AcDbEntity
  8
notes
  6
Continuous
 62
     7
370
     5
390
1D
100
AcDbLine
 10
549.5828371300184
 20
-936.5301718985108
 30
0.0
 11
549.5828371300184
 21
-1013.230171898511
 31
0.0
  0
LINE
  5
1AF
330
A
100
AcDbEntity
  8
notes
  6
Continuous
 62
     7
370
     5
390
1D
100
AcDbLine
 10
549.5828371300184
 20
-996.9801718985113
 30
0.0
 11
830.7768774250669
 21
-996.9801718985113
 31
0.0
  0
DIMENSION
  5
1B0
330
A
100
AcDbEntity
  8
notes
  6
Continuous
 62
     7
370
     5
390
1D
100
AcDbDimension
  2
*D4
 10
-174.9999999999999
 20
274.6277347515735
 30
0.0
 11
-174.9999999999999
 21
739.6277347515734
 31
0.0
 70
    32
 71
     5
 42
0.0
 73
     0
 74
     0
 75
     0
  3
TformSENN
100
AcDbAlignedDimension
 13
-309.9999999999999
 23
1204.627734751573
 33
0.0
 14
-309.9999999999999
 24
274.6277347515735
 34
0.0
 50
90.0
100
AcDbRotatedDimension
1001
ACAD
1000
DSTYLE
1002
{
1070
   279
1070
     2
1070
   340
1005
3A
1070
   147
1040
5.0
1002
}
  0
DIMENSION
  5
1B1
330
A
100
AcDbEntity
  8
notes
  6
Continuous
 62
     7
370
     5
390
1D
100
AcDbDimension
  2
*D5
 10
-309.9999999999999
 20
1304.627734751573
 30
0.0
 11
-459.9999999999999
 21
1304.627734751573
 31
0.0
 70
    32
 71
     5
 42
0.0
 73
     0
 74
     0
 75
     0
  3
TformSENN
100
AcDbAlignedDimension
 13
-609.9999999999999
 23
1204.627734751573
 33
0.0
 14
-309.9999999999999
 24
1204.627734751573
 34
0.0
100
AcDbRotatedDimension
1001
ACAD
1000
DSTYLE
1002
{
1070
   279
1070
     2
1070
   340
1005
3A
1070
   147
1040
5.0
1002
}
  0
DIMENSION
  5
1B2
330
A
100
AcDbEntity
  8
notes
  6
Continuous
 62
     7
370
     5
390
1D
100
AcDbDimension
  2
*D6
 10
-609.9999999999999
 20
1304.627734751573
 30
0.0
 11
-627.5000000000003
 21
1304.627734751573
 31
0.0
 70
    32
 71
     5
 42
0.0
 73
     0
 74
     0
 75
     0
  3
TformSENN
100
AcDbAlignedDimension
 13
-645.0000000000006
 23
1234.627734751573
 33
0.0
 14
-609.9999999999999
 24
1204.627734751573
 34
0.0
100
AcDbRotatedDimension
1001
ACAD
1000
DSTYLE
1002
{
1070
   279
1070
     2
1070
   340
1005
3A
1070
   147
1040
5.0
1002
}
  0
DIMENSION
  5
1B3
330
A
100
AcDbEntity
  8
notes
  6
Continuous
 62
     7
370
     5
390
1D
100
AcDbDimension
  2
*D7
 10
-174.9999999999999
 20
53.59365359319352
 30
0.0
 11
-174.9999999999999
 21
-356.4063464068067
 31
0.0
 70
    32
 71
     5
 42
0.0
 73
     0
 74
     0
 75
     0
  3
TformSENN
100
AcDbAlignedDimension
 13
-274.9999999999999
 23
-766.406346406807
 33
0.0
 14
-274.9999999999999
 24
53.59365359319352
 34
0.0
 50
90.0
100
AcDbRotatedDimension
1001
ACAD
1000
DSTYLE
1002
{
1070
   279
1070
     2
1070
   340
1005
3A
1070
   147
1040
5.0
1002
}
  0
DIMENSION
  5
1B4
330
A
100
AcDbEntity
  8
notes
  6
Continuous
 62
     7
370
     5
390
1D
100
AcDbDimension
  2
*D8
 10
-174.9999999999999
 20
-766.406346406807
 30
0.0
 11
-174.9999999999999
 21
-843.9063464068067
 31
0.0
 70
    32
 71
     5
 42
0.0
 73
     0
 74
     0
 75
     0
  3
TformSENN
100
AcDbAlignedDimension
 13
-280.0
 23
-921.4063464068065
 33
0.0
 14
-274.9999999999999
 24
-766.406346406807
 34
0.0
 50
90.0
100
AcDbRotatedDimension
1001
ACAD
1000
DSTYLE
1002
{
1070
   279
1070
     2
1070
   340
1005
3A
1070
   147
1040
5.0
1002
}
  0
DIMENSION
  5
1B5
330
A
100
AcDbEntity
  8
notes
  6
Continuous
 62
     7
370
     5
390
1D
100
AcDbDimension
  2
*D9
 10
-509.9999999999999
 20
950.0843452111076
 30
0.0
 11
-459.9999999999999
 21
955.0843452111076
 31
0.0
 70
   128
 71
     5
 42
0.0
 73
     0
 74
     0
 75
     0
  3
TformSENN
100
AcDbAlignedDimension
 13
-409.9999999999999
 23
849.5843452111076
 33
0.0
 14
-509.9999999999999
 24
849.5843452111076
 34
0.0
100
AcDbRotatedDimension
1001
ACAD
1000
DSTYLE
1002
{
1070
   279
1070
     2
1070
   340
1005
3A
1070
   147
1040
5.0
1002
}
  0
DIMENSION
  5
1B6
330
A
100
AcDbEntity
  8
notes
  6
Continuous
 62
     7
370
     5
390
1D
100
AcDbDimension
  2
*D10
 10
-329.9999999999999
 20
849.5843452111076
 30
0.0
 11
-329.9999999999999
 21
574.5843452111076
 31
0.0
 70
    32
 71
     5
 42
0.0
 73
     0
 74
     0
 75
     0
  3
TformSENN
100
AcDbAlignedDimension
 13
-409.9999999999999
 23
299.5843452111075
 33
0.0
 14
-409.9999999999999
 24
849.5843452111076
 34
0.0
 50
90.0
100
AcDbRotatedDimension
1001
ACAD
1000
DSTYLE
1002
{
1070
   279
1070
     2
1070
   340
1005
3A
1070
   147
1040
5.0
1002
}
  0
DIMENSION
  5
1B7
330
A
100
AcDbEntity
  8
notes
  6
Continuous
 62
     7
370
     5
390
1D
100
AcDbDimension
  2
*D11
 10
-509.9999999999999
 20
950.0843452111076
 30
0.0
 11
-577.5000000000003
 21
950.0843452111076
 31
0.0
 70
    32
 71
     5
 42
0.0
 73
     0
 74
     0
 75
     0
  3
TformSENN
100
AcDbAlignedDimension
 13
-645.0000000000006
 23
850.0843452111076
 33
0.0
 14
-509.9999999999999
 24
850.0843452111076
 34
0.0
100
AcDbRotatedDimension
1001
ACAD
1000
DSTYLE
1002
{
1070
   279
1070
     2
1070
   340
1005
3A
1070
   147
1040
5.0
1002
}
  0
DIMENSION
  5
1B8
330
A
100
AcDbEntity
  8
notes
  6
Continuous
 62
     7
370
     5
390
1D
100
AcDbDimension
  2
*D12
 10
-174.9731225749331
 20
274.6277347515735
 30
0.0
 11
-169.9731225749331
 21
231.2843452111076
 31
0.0
 70
   128
 71
     5
 42
0.0
 73
     0
 74
     0
 75
     0
  3
TformSENN
100
AcDbAlignedDimension
 13
-279.9999999999999
 23
239.6277347515733
 33
0.0
 14
-309.9999999999999
 24
274.6277347515735
 34
0.0
 50
90.0
100
AcDbRotatedDimension
1001
ACAD
1000
DSTYLE
1002
{
1070
   279
1070
     2
1070
   340
1005
3A
1070
   174
1070
     0
1070
   147
1040
5.0
1002
}
  0
DIMENSION
  5
1B9
330
A
100
AcDbEntity
  8
notes
  6
Continuous
 62
     7
370
     5
390
1D
100
AcDbDimension
  2
*D13
 10
699.5828371300184
 20
-356.4348012447021
 30
0.0
 11
699.5828371300184
 21
-638.9205738257542
 31
0.0
 70
    32
 71
     5
 42
0.0
 73
     0
 74
     0
 75
     0
  3
TformSENN
100
AcDbAlignedDimension
 13
544.5828371300184
 23
-921.4063464068065
 33
0.0
 14
594.5828371300187
 24
-356.4348012447021
 34
0.0
 50
90.0
100
AcDbRotatedDimension
1001
ACAD
1000
DSTYLE
1002
{
1070
   279
1070
     2
1070
   340
1005
3A
1070
   147
1040
5.0
1002
}
  0
LINE
  5
1BA
330
A
100
AcDbEntity
  8
notes
  6
Continuous
 62
     7
370
     5
390
1D
100
AcDbLine
 10
599.5828371300184
 20
-947.3059902797979
 30
0.0
 11
783.7768774250669
 21
-947.3059902797979
 31
0.0
  0
DIMENSION
  5
1BB
330
A
100
AcDbEntity
  8
notes
  6
Continuous
 62
     7
370
     5
390
1D
100
AcDbDimension
  2
*D14
 10
749.5828371300184
 20
25.57948682912908
 30
0.0
 11
749.5828371300184
 21
-421.9205131708708
 31
0.0
 70
    32
 71
     5
 42
0.0
 73
     0
 74
     0
 75
     0
  3
TformSENN
100
AcDbAlignedDimension
 13
596.4433957281694
 23
-869.4205131708709
 33
0.0
 14
596.4433957281694
 24
25.57948682912908
 34
0.0
 50
90.0
100
AcDbRotatedDimension
1001
ACAD
1000
DSTYLE
1002
{
1070
   279
1070
     2
1070
   340
1005
3A
1070
   147
1040
5.0
1002
}
  0
DIMENSION
  5
1BC
330
A
100
AcDbEntity
  8
notes
  6
Continuous
 62
     7
370
     5
390
1D
100
AcDbDimension
  2
*D15
 10
-744.9999999999999
 20
-921.4063464068065
 30
0.0
 11
-744.9999999999999
 21
-421.4063464068063
 31
0.0
 70
    32
 71
     5
 42
0.0
 73
     0
 74
     0
 75
     0
  3
TformSENN
100
AcDbAlignedDimension
 13
-639.9999999999999
 23
78.59365359319372
 33
0.0
 14
-639.9999999999999
 24
-921.4063464068065
 34
0.0
 50
90.0
100
AcDbRotatedDimension
1001
ACAD
1000
DSTYLE
1002
{
1070
   279
1070
     2
1070
   340
1005
3A
1070
   147
1040
5.0
1002
}
  0
DIMENSION
  5
1BD
330
A
100
AcDbEntity
  8
notes
  6
Continuous
 62
     7
370
     5
390
1D
100
AcDbDimension
  2
*D16
 10
-620.0000000000003
 20
177.7289281223875
 30
0.0
 11
-460.0000000000003
 21
177.7289281223875
 31
0.0
 70
    32
 71
     5
 42
0.0
 73
     0
 74
     0
 75
     0
  3
TformSENN
100
AcDbAlignedDimension
 13
-300.0000000000003
 23
78.59365359319352
 33
0.0
 14
-620.0000000000003
 24
78.59365359319352
 34
0.0
100
AcDbRotatedDimension
1001
ACAD
1000
DSTYLE
1002
{
1070
   279
1070
     2
1070
   340
1005
3A
1070
   147
1040
5.0
1002
}
  0
DIMENSION
  5
1BE
330
A
100
AcDbEntity
  8
notes
  6
Continuous
 62
     7
370
     5
390
1D
100
AcDbDimension
  2
*D17
 10
-645.0000000000003
 20
-1071.406346406807
 30
0.0
 11
-460.0000000000001
 21
-1071.406346406807
 31
0.0
 70
    32
 71
     5
 42
0.0
 73
     0
 74
     0
 75
     0
  3
TformSENN
100
AcDbAlignedDimension
 13
-275.0
 23
-916.4063464068065
 33
0.0
 14
-645.0000000000003
 24
-916.4063464068065
 34
0.0
100
AcDbRotatedDimension
1001
ACAD
1000
DSTYLE
1002
{
1070
   279
1070
     2
1070
   340
1005
3A
1070
   147
1040
5.0
1002
}
  0
DIMENSION
  5
1BF
330
A
100
AcDbEntity
  8
notes
  6
Continuous
 62
     7
370
     5
390
1D
100
AcDbDimension
  2
*D18
 10
-644.9999999999999
 20
-1021.406346406807
 30
0.0
 11
-552.5003239104598
 21
-1021.406346406807
 31
0.0
 70
    32
 71
     5
 42
0.0
 73
     0
 74
     0
 75
     0
  3
TformSENN
100
AcDbAlignedDimension
 13
-460.0006478209199
 23
-820.5354382020598
 33
0.0
 14
-644.9999999999999
 24
-916.4063464068065
 34
0.0
100
AcDbRotatedDimension
1001
ACAD
1000
DSTYLE
1002
{
1070
   279
1070
     2
1070
   340
1005
3A
1070
   147
1040
5.0
1002
}
  0
DIMENSION
  5
1C0
330
A
100
AcDbEntity
  8
notes
  6
Continuous
 62
     7
370
     5
390
1D
100
AcDbDimension
  2
*D19
 10
454.5828371300185
 20
177.7289281223875
 30
0.0
 11
529.5828371300184
 21
177.7289281223875
 31
0.0
 70
    32
 71
     5
 42
0.0
 73
     0
 74
     0
 75
     0
  3
TformSENN
100
AcDbAlignedDimension
 13
604.5828371300184
 23
25.83099899085997
 33
0.0
 14
454.5828371300185
 24
72.72892812238723
 34
0.0
100
AcDbRotatedDimension
1001
ACAD
1000
DSTYLE
1002
{
1070
   279
1070
     2
1070
   340
1005
3A
1070
   147
1040
5.0
1002
}
  0
DIMENSION
  5
1C1
330
A
100
AcDbEntity
  8
notes
  6
Continuous
 62
     7
370
     5
390
1D
100
AcDbDimension
  2
*D20
 10
360.5828371300185
 20
-816.4063464068065
 30
0.0
 11
360.5828371300185
 21
-868.9063464068065
 31
0.0
 70
    32
 71
     5
 42
0.0
 73
     0
 74
     0
 75
     0
  3
TformSENN
100
AcDbAlignedDimension
 13
459.5828371300185
 23
-921.4063464068065
 33
0.0
 14
454.5828371300185
 24
-816.4063464068065
 34
0.0
 50
90.0
100
AcDbRotatedDimension
1001
ACAD
1000
DSTYLE
1002
{
1070
   279
1070
     2
1070
   340
1005
3A
1070
   147
1040
5.0
1002
}
  0
LINE
  5
1C2
330
A
100
AcDbEntity
  8
notes
  6
Continuous
 62
     7
370
     5
390
1D
100
AcDbLine
 10
599.5828371300184
 20
-886.8559902797977
 30
0.0
 11
599.5828371300184
 21
-963.5559902797979
 31
0.0
  0
CIRCLE
  5
1C3
330
A
100
AcDbEntity
  8
notes
  6
STYLE_24
 62
     7
370
     5
390
1D
100
AcDbCircle
 10
-8.294501876481831
 20
-869.3457465691943
 30
0.0
 40
17.5
  0
DIMENSION
  5
1C4
330
A
100
AcDbEntity
  8
notes
  6
Continuous
 62
     7
370
     5
390
1D
100
AcDbDimension
  2
*D21
 10
454.5828371300185
 20
809.9106263846293
 30
0.0
 11
449.7768774250669
 21
814.9106263846293
 31
0.0
 70
   128
 71
     5
 42
0.0
 73
     0
 74
     0
 75
     0
  3
TformSENN
100
AcDbAlignedDimension
 13
569.5828371300184
 23
804.6569561311903
 33
0.0
 14
454.5828371300185
 24
804.6576039521071
 34
0.0
100
AcDbRotatedDimension
1001
ACAD
1000
DSTYLE
1002
{
1070
   279
1070
     2
1070
   340
1005
3A
1070
     3
1000
<>(深さ)
1070
   174
1070
     0
1070
   147
1040
5.0
1002
}
  0
DIMENSION
  5
1C5
330
A
100
AcDbEntity
  8
notes
  6
Continuous
 62
     7
370
     5
390
1D
100
AcDbDimension
  2
*D22
 10
454.5828371300185
 20
1089.65695613119
 30
0.0
 11
502.0828371300186
 21
1089.65695613119
 31
0.0
 70
    32
 71
     5
 42
0.0
 73
     0
 74
     0
 75
     0
  3
TformSENN
100
AcDbAlignedDimension
 13
549.5828371300187
 23
984.6569561311901
 33
0.0
 14
454.5828371300185
 24
984.6569561311901
 34
0.0
100
AcDbRotatedDimension
1001
ACAD
1000
DSTYLE
1002
{
1070
   279
1070
     2
1070
   340
1005
3A
1070
   147
1040
5.0
1002
}
  0
DIMENSION
  5
1C6
330
A
100
AcDbEntity
  8
notes
  6
Continuous
 62
     7
370
     5
390
1D
100
AcDbDimension
  2
*D23
 10
549.5828371300187
 20
1089.65695613119
 30
0.0
 11
577.0828371300186
 21
1089.65695613119
 31
0.0
 70
    32
 71
     5
 42
0.0
 73
     0
 74
     0
 75
     0
  3
TformSENN
100
AcDbAlignedDimension
 13
604.5828371300186
 23
934.6513900430341
 33
0.0
 14
549.5828371300187
 24
984.6569561311901
 34
0.0
100
AcDbRotatedDimension
1001
ACAD
1000
DSTYLE
1002
{
1070
   279
1070
     2
1070
   340
1005
3A
1070
   147
1040
5.0
1002
}
  0
DIMENSION
  5
1C7
330
A
100
AcDbEntity
  8
notes
  6
Continuous
 62
     7
370
     5
390
1D
100
AcDbDimension
  2
*D24
 10
719.7768774250669
 20
669.6706701874068
 30
0.0
 11
719.7768774250669
 21
804.6576039521069
 31
0.0
 70
    32
 71
     5
 42
0.0
 73
     0
 74
     0
 75
     0
  3
TformSENN
100
AcDbAlignedDimension
 13
599.8445169112333
 23
939.644537716807
 33
0.0
 14
599.844516911233
 24
669.6706701874068
 34
0.0
 50
90.0
100
AcDbRotatedDimension
1001
ACAD
1000
DSTYLE
1002
{
1070
   279
1070
     2
1070
   340
1005
3A
1070
   147
1040
5.0
1002
}
  0
DIMENSION
  5
1C8
330
A
100
AcDbEntity
  8
notes
  6
Continuous
 62
     7
370
     5
390
1D
100
AcDbDimension
  2
*D25
 10
-329.8749999999999
 20
299.5843452111075
 30
0.0
 11
-324.8749999999999
 21
232.2843452111076
 31
0.0
 70
   128
 71
     5
 42
0.0
 73
     0
 74
     0
 75
     0
  3
TformSENN
100
AcDbAlignedDimension
 13
-409.9999999999999
 23
239.6277347515733
 33
0.0
 14
-409.9999999999999
 24
299.5843452111075
 34
0.0
 50
90.0
100
AcDbRotatedDimension
1001
ACAD
1000
DSTYLE
1002
{
1070
   279
1070
     2
1070
   340
1005
3A
1070
   174
1070
     0
1070
   147
1040
5.0
1002
}
  0
LINE
  5
1C9
330
A
100
AcDbEntity
  8
notes
  6
Continuous
 62
     7
370
     5
390
1D
100
AcDbLine
 10
-609.9999999999999
 20
274.6277347515735
 30
0.0
 11
-742.2231225749332
 21
274.6277347515735
 31
0.0
  0
MTEXT
  5
1CA
330
A
100
AcDbEntity
  8
notes
 62
     7
390
1D
100
AcDbMText
 10
-113.2718099591667
 20
355.6111831805714
 30
0.0
 40
24.4326171875
 41
776.4300397988183
 46
113.5195576982409
 71
     1
 72
     1
  1
{\fメイリオ|b0|i0|c0|p0;※\fＭＳ ゴシック|b0|i0|c0|p0;陶器製品には寸法公差があります。\P  洗面器の収め方をご確認の上、必ず現物を合わせて\P  カウンターに切込を行ってください。}
  7
ＭＳ ゴシック
 11
0.0
 21
1.0
 31
0.0
 73
     1
 44
1.043768984567712
1001
ACAD
1000
ACAD_MTEXT_DEFINED_HEIGHT_BEGIN
1070
    46
1040
113.5195576982409
1000
ACAD_MTEXT_DEFINED_HEIGHT_END
  0
LINE
  5
1CB
330
A
100
AcDbEntity
  8
notes
  6
Continuous
 62
     7
370
     5
390
1D
100
AcDbLine
 10
-509.9999999999999
 20
300.0843452111075
 30
0.0
 11
-680.2231225749332
 21
300.0843452111075
 31
0.0
  0
MTEXT
  5
1CC
330
A
100
AcDbEntity
  8
notes
 62
     7
390
1D
100
AcDbMText
 10
56.43004239959282
 20
355.6111831805714
 30
0.0
 40
24.4326171875
 41
0.0
 46
124.3897205501694
 71
     1
 72
     1
  1
{\fメイリオ|b0|i0|c0|p0;※\fＭＳ ゴシック|b0|i0|c0|p0;別売品のブラケットでアンダーカウンター\P  設置することができます。\P　アンダーカウンター用ブラケット:ADF75-0650}
  7
ＭＳ ゴシック
 11
0.0
 21
1.0
 31
0.0
 73
     1
 44
1.174240107638676
1001
ACAD
1000
ACAD_MTEXT_DEFINED_HEIGHT_BEGIN
1070
    46
1040
124.3897205501694
1000
ACAD_MTEXT_DEFINED_HEIGHT_END
  0
MTEXT
  5
1CD
330
A
100
AcDbEntity
  8
notes
 62
     7
390
1D
100
AcDbMText
 10
794.6633841597891
 20
-961.0311469472638
 30
0.0
 40
24.4326171875
 41
0.0
 46
0.0
 71
     1
 72
     1
  1
カウンター置き
  7
ＭＳ ゴシック
 11
0.0
 21
1.0
 31
0.0
 73
     1
 44
0.7828267384257843
  0
LINE
  5
1CE
330
A
100
AcDbEntity
  8
ADF70-0606
  6
Continuous
 62
     7
370
    15
390
1D
100
AcDbLine
 10
459.5828371300185
 20
989.6569561311901
 30
0.0
 11
544.5828371300184
 21
989.6569561311901
 31
0.0
  0
LINE
  5
1CF
330
A
100
AcDbEntity
  8
ADF70-0606
  6
Continuous
 62
     7
370
    15
390
1D
100
AcDbLine
 10
549.5828371300184
 20
984.6569561311901
 30
0.0
 11
549.582837130018
 21
624.6569561311903
 31
0.0
  0
LINE
  5
1D0
330
A
100
AcDbEntity
  8
ADF70-0606
  6
Continuous
 62
     7
370
    15
390
1D
100
AcDbLine
 10
544.582837130018
 20
619.6569561311903
 30
0.0
 11
459.5828371300185
 21
619.6569561311903
 31
0.0
  0
LINE
  5
1D1
330
A
100
AcDbEntity
  8
ADF70-0606
  6
STYLE_24
 62
     7
370
    15
390
1D
100
AcDbLine
 10
457.082837130018
 20
646.2689867407319
 30
0.0
 11
550.0577263748445
 21
699.9480640741076
 31
0.0
  0
LINE
  5
1D2
330
A
100
AcDbEntity
  8
ADF70-0606
  6
STYLE_24
 62
     7
370
    15
390
1D
100
AcDbLine
 10
457.0828371300182
 20
963.0462211634822
 30
0.0
 11
550.057726374845
 21
909.367143830106
 31
0.0
  0
LINE
  5
1D3
330
A
100
AcDbEntity
  8
ADF70-0606
  6
STYLE_24
 62
     7
370
    15
390
1D
100
AcDbLine
 10
583.5828371300182
 20
782.1576039521071
 30
0.0
 11
594.5828371300184
 21
782.1576039521071
 31
0.0
  0
LINE
  5
1D4
330
A
100
AcDbEntity
  8
ADF70-0606
  6
STYLE_24
 62
     7
370
    15
390
1D
100
AcDbLine
 10
583.5828371300182
 20
827.1576039521069
 30
0.0
 11
594.5828371300184
 21
827.1576039521069
 31
0.0
  0
LINE
  5
1D5
330
A
100
AcDbEntity
  8
ADF70-0606
  6
STYLE_24
 62
     7
370
    15
390
1D
100
AcDbLine
 10
583.5828371300182
 20
804.6576039521071
 30
0.0
 11
583.5828371300182
 21
782.1576039521071
 31
0.0
  0
LINE
  5
1D6
330
A
100
AcDbEntity
  8
ADF70-0606
  6
STYLE_24
 62
     7
370
    15
390
1D
100
AcDbLine
 10
569.5828371300182
 20
843.6576039521069
 30
0.0
 11
569.5828371300182
 21
765.6576039521069
 31
0.0
  0
LINE
  5
1D7
330
A
100
AcDbEntity
  8
ADF70-0606
  6
STYLE_24
 62
     7
370
    15
390
1D
100
AcDbLine
 10
583.5828371300182
 20
782.1576039521071
 30
0.0
 11
569.5828371300182
 21
765.6576039521071
 31
0.0
  0
LINE
  5
1D8
330
A
100
AcDbEntity
  8
ADF70-0606
  6
STYLE_24
 62
     7
370
    15
390
1D
100
AcDbLine
 10
583.5828371300182
 20
827.1576039521069
 30
0.0
 11
569.5828371300182
 21
843.6576039521074
 31
0.0
  0
LINE
  5
1D9
330
A
100
AcDbEntity
  8
ADF70-0606
  6
STYLE_24
 62
     7
370
    15
390
1D
100
AcDbLine
 10
583.5828371300182
 20
804.6576039521071
 30
0.0
 11
583.5828371300182
 21
827.1576039521069
 31
0.0
  0
LINE
  5
1DA
330
A
100
AcDbEntity
  8
ADF70-0606
  6
STYLE_24
 62
     7
370
    15
390
1D
100
AcDbLine
 10
569.582837130018
 20
765.6576039521071
 30
0.0
 11
562.2706795845796
 21
717.8211412732728
 31
0.0
  0
LINE
  5
1DB
330
A
100
AcDbEntity
  8
ADF70-0606
  6
STYLE_24
 62
     7
370
    15
390
1D
100
AcDbLine
 10
569.5828371300187
 20
843.6576039521069
 30
0.0
 11
562.2706795845801
 21
891.494066630941
 31
0.0
  0
LINE
  5
1DC
330
A
100
AcDbEntity
  8
ADF70-0606
  6
Continuous
 62
     7
370
    15
390
1D
100
AcDbLine
 10
549.5828371300184
 20
667.2986060634535
 30
0.0
 11
599.844516911233
 21
669.6706701874068
 31
0.0
  0
LINE
  5
1DD
330
A
100
AcDbEntity
  8
ADF70-0606
  6
Continuous
 62
     7
370
    15
390
1D
100
AcDbLine
 10
604.5828371300184
 20
804.6576039521071
 30
0.0
 11
604.5828371300182
 21
674.66381786118
 31
0.0
  0
ARC
  5
1DE
330
A
100
AcDbEntity
  8
ADF70-0606
  6
Continuous
 62
     7
370
    15
390
1D
100
AcDbCircle
 10
544.5828371300188
 20
984.6569561311901
 30
0.0
 40
5.0
100
AcDbArc
 50
0.0
 51
90.0
  0
LINE
  5
1DF
330
A
100
AcDbEntity
  8
ADF70-0606
  6
Continuous
 62
     7
370
    15
390
1D
100
AcDbLine
 10
454.5828371300185
 20
984.6569561311901
 30
0.0
 11
454.5828371300185
 21
624.6569561311903
 31
0.0
  0
ARC
  5
1E0
330
A
100
AcDbEntity
  8
ADF70-0606
  6
STYLE_24
 62
     7
370
    15
390
1D
100
AcDbCircle
 10
459.5828371300185
 20
967.3763481824044
 30
0.0
 40
5.0
100
AcDbArc
 50
180.0
 51
240.0000000000001
  0
ARC
  5
1E1
330
A
100
AcDbEntity
  8
ADF70-0606
  6
Continuous
 62
     7
370
    15
390
1D
100
AcDbCircle
 10
459.5828371300187
 20
984.6569561311901
 30
0.0
 40
5.0
100
AcDbArc
 50
90.0
 51
180.0
  0
ARC
  5
1E2
330
A
100
AcDbEntity
  8
ADF70-0606
  6
STYLE_24
 62
     7
370
    15
390
1D
100
AcDbCircle
 10
459.582837130018
 20
641.9388597218094
 30
0.0
 40
5.000000000000016
100
AcDbArc
 50
119.9999999999999
 51
180.0
  0
ARC
  5
1E3
330
A
100
AcDbEntity
  8
ADF70-0606
  6
Continuous
 62
     7
370
    15
390
1D
100
AcDbCircle
 10
459.5828371300185
 20
624.6569561311903
 30
0.0
 40
5.0
100
AcDbArc
 50
180.0
 51
270.0
  0
ARC
  5
1E4
330
A
100
AcDbEntity
  8
ADF70-0606
  6
Continuous
 62
     7
370
    15
390
1D
100
AcDbCircle
 10
599.5828371300183
 20
674.6638178611797
 30
0.0
 40
5.000000000000036
100
AcDbArc
 50
272.999999999999
 51
0.0
  0
ARC
  5
1E5
330
A
100
AcDbEntity
  8
ADF70-0606
  6
Continuous
 62
     7
370
    15
390
1D
100
AcDbCircle
 10
544.582837130018
 20
624.6569561311903
 30
0.0
 40
5.0
100
AcDbArc
 50
270.0
 51
0.0
  0
LINE
  5
1E6
330
A
100
AcDbEntity
  8
ADF70-0606
  6
Continuous
 62
     7
370
    15
390
1D
100
AcDbLine
 10
549.5828371300184
 20
942.0166018407606
 30
0.0
 11
599.8445169112333
 21
939.644537716807
 31
0.0
  0
LINE
  5
1E7
330
A
100
AcDbEntity
  8
ADF70-0606
  6
Continuous
 62
     7
370
    15
390
1D
100
AcDbLine
 10
604.5828371300184
 20
804.6576039521071
 30
0.0
 11
604.5828371300182
 21
934.6513900430341
 31
0.0
  0
ARC
  5
1E8
330
A
100
AcDbEntity
  8
ADF70-0606
  6
Continuous
 62
     7
370
    15
390
1D
100
AcDbCircle
 10
599.5828371300186
 20
934.6513900430341
 30
0.0
 40
5.0
100
AcDbArc
 50
0.0
 51
86.99999999999964
  0
ARC
  5
1E9
330
A
100
AcDbEntity
  8
ADF70-0606
  6
STYLE_24
 62
     7
370
    15
390
1D
100
AcDbCircle
 10
537.5577263748448
 20
721.5986991687187
 30
0.0
 40
25.00000000000008
100
AcDbArc
 50
300.0
 51
351.3091872328019
  0
ARC
  5
1EA
330
A
100
AcDbEntity
  8
ADF70-0606
  6
STYLE_24
 62
     7
370
    15
390
1D
100
AcDbCircle
 10
537.5577263748453
 20
887.7165087354949
 30
0.0
 40
25.0000000000001
100
AcDbArc
 50
8.690812767198038
 51
60.00000000000011
  0
LINE
  5
1EB
330
A
100
AcDbEntity
  8
ADF70-0606
  6
Continuous
 62
     7
370
    15
390
1D
100
AcDbLine
 10
-274.9999999999999
 20
-546.4063464068067
 30
0.0
 11
-274.9999999999993
 21
73.59365359319352
 31
0.0
  0
LINE
  5
1EC
330
A
100
AcDbEntity
  8
ADF70-0606
  6
Continuous
 62
     7
370
    15
390
1D
100
AcDbLine
 10
-645.0000000000006
 20
73.59365359319352
 30
0.0
 11
-644.9999999999999
 21
-546.4063464068065
 31
0.0
  0
LINE
  5
1ED
330
A
100
AcDbEntity
  8
ADF70-0606
  6
Continuous
 62
     7
370
    15
390
1D
100
AcDbLine
 10
-274.9999999999999
 20
-546.4063464068065
 30
0.0
 11
-274.9999999999999
 21
-916.4063464068065
 31
0.0
  0
ARC
  5
1EE
330
A
100
AcDbEntity
  8
ADF70-0606
  6
Continuous
 62
     7
370
    15
390
1D
100
AcDbCircle
 10
-280.0000000000001
 20
-916.4063464068065
 30
0.0
 40
5.0
100
AcDbArc
 50
270.0
 51
0.0
  0
LINE
  5
1EF
330
A
100
AcDbEntity
  8
ADF70-0606
  6
Continuous
 62
     7
370
    15
390
1D
100
AcDbLine
 10
-279.9999999999999
 20
-921.4063464068065
 30
0.0
 11
-639.9999999999999
 21
-921.4063464068065
 31
0.0
  0
ARC
  5
1F0
330
A
100
AcDbEntity
  8
ADF70-0606
  6
Continuous
 62
     7
370
    15
390
1D
100
AcDbCircle
 10
-640.0000000000003
 20
-916.4063464068065
 30
0.0
 40
5.0
100
AcDbArc
 50
180.0
 51
270.0
  0
LINE
  5
1F1
330
A
100
AcDbEntity
  8
ADF70-0606
  6
Continuous
 62
     7
370
    15
390
1D
100
AcDbLine
 10
-644.9999999999999
 20
-916.4063464068065
 30
0.0
 11
-644.9999999999999
 21
-546.4063464068065
 31
0.0
  0
LINE
  5
1F2
330
A
100
AcDbEntity
  8
ADF70-0606
  6
Continuous
 62
     7
370
    15
390
1D
100
AcDbLine
 10
-279.9999999999993
 20
78.59365359319352
 30
0.0
 11
-640.0000000000003
 21
78.59365359319352
 31
0.0
  0
ARC
  5
1F3
330
A
100
AcDbEntity
  8
ADF70-0606
  6
Continuous
 62
     7
370
    15
390
1D
100
AcDbCircle
 10
-279.9999999999992
 20
73.59365359319364
 30
0.0
 40
5.0
100
AcDbArc
 50
0.0
 51
90.0
  0
ARC
  5
1F4
330
A
100
AcDbEntity
  8
ADF70-0606
  6
Continuous
 62
     7
370
    15
390
1D
100
AcDbCircle
 10
-640.0000000000003
 20
73.59365359319375
 30
0.0
 40
5.0
100
AcDbArc
 50
90.0
 51
180.0
  0
LINE
  5
1F5
330
A
100
AcDbEntity
  8
ADF70-0606
  6
STYLE_24
 62
     7
370
    15
390
1D
100
AcDbLine
 10
583.5828371300187
 20
-334.0
 30
0.0
 11
583.5828371300187
 21
-378.9348012447019
 31
0.0
  0
LINE
  5
1F6
330
A
100
AcDbEntity
  8
ADF70-0606
  6
STYLE_24
 62
     7
370
    15
390
1D
100
AcDbLine
 10
569.5828371300187
 20
-395.4348012447019
 30
0.0
 11
569.5828371300187
 21
-317.4348012447016
 31
0.0
  0
LINE
  5
1F7
330
A
100
AcDbEntity
  8
ADF70-0606
  6
STYLE_24
 62
     7
370
    15
390
1D
100
AcDbLine
 10
583.5828371300187
 20
-378.9348012447019
 30
0.0
 11
569.5828371300187
 21
-395.4348012447023
 31
0.0
  0
LINE
  5
1F8
330
A
100
AcDbEntity
  8
ADF70-0606
  6
STYLE_24
 62
     7
370
    15
390
1D
100
AcDbLine
 10
583.5828371300187
 20
-378.9348012447019
 30
0.0
 11
594.5828371300187
 21
-378.9348012447019
 31
0.0
  0
LINE
  5
1F9
330
A
100
AcDbEntity
  8
ADF70-0606
  6
Continuous
 62
     7
370
    15
390
1D
100
AcDbLine
 10
459.5828371300185
 20
-921.4063464068065
 30
0.0
 11
544.5828371300184
 21
-921.4063464068065
 31
0.0
  0
LINE
  5
1FA
330
A
100
AcDbEntity
  8
ADF70-0606
  6
Continuous
 62
     7
370
    15
390
1D
100
AcDbLine
 10
552.8756267956988
 20
-873.8541675788367
 30
0.0
 11
602.6875090425041
 21
-871.5056763447885
 31
0.0
  0
LWPOLYLINE
  5
1FB
330
A
100
AcDbEntity
  8
ADF70-0606
  6
STYLE_24
 62
     7
370
    15
390
1D
100
AcDbPolyline
 90
        5
 70
   128
 43
0.0
 10
569.5828371300187
 20
-395.4348012447019
 10
553.8300471463862
 20
-696.0159401354824
 42
-0.2539676464749424
 10
541.3643087775218
 20
-716.3581763240202
 10
457.0828371300185
 20
-765.0181066674043
 42
0.2679491924311114
 10
454.5828371300182
 20
-769.3482336863265
 42
0.2679491924311114
  0
LINE
  5
1FC
330
A
100
AcDbEntity
  8
ADF70-0606
  6
Continuous
 62
     7
370
    15
390
1D
100
AcDbLine
 10
604.5828371300184
 20
25.83099899085997
 30
0.0
 11
604.5828371300184
 21
-869.5084172752793
 31
0.0
  0
ARC
  5
1FD
330
A
100
AcDbEntity
  8
ADF70-0606
  6
Continuous
 62
     7
370
    15
390
1D
100
AcDbCircle
 10
459.5828371300182
 20
-916.4063464068065
 30
0.0
 40
5.0
100
AcDbArc
 50
180.0
 51
270.0
  0
LINE
  5
1FE
330
A
100
AcDbEntity
  8
ADF70-0606
  6
Continuous
 62
     7
370
    15
390
1D
100
AcDbLine
 10
454.5828371300185
 20
55.75516619496378
 30
0.0
 11
454.5828371300185
 21
-769.3482336863265
 31
0.0
  0
LINE
  5
1FF
330
A
100
AcDbEntity
  8
ADF70-0606
  6
Continuous
 62
     7
370
    15
390
1D
100
AcDbLine
 10
454.5828371300185
 20
-769.3482336863265
 30
0.0
 11
454.5828371300182
 21
-916.4063464068065
 31
0.0
  0
LINE
  5
200
330
A
100
AcDbEntity
  8
ADF70-0606
  6
STYLE_24
 62
     7
370
    15
390
1D
100
AcDbLine
 10
594.5828371300187
 20
-378.9348012447019
 30
0.0
 11
594.5828371300187
 21
-333.9348012447023
 31
0.0
  0
ARC
  5
201
330
A
100
AcDbEntity
  8
ADF70-0606
  6
Continuous
 62
     7
370
    15
390
1D
100
AcDbCircle
 10
544.5828371300182
 20
-916.4063464068065
 30
0.0
 40
5.0
100
AcDbArc
 50
270.0
 51
0.0
  0
ARC
  5
202
330
A
100
AcDbEntity
  8
ADF70-0606
  6
Continuous
 62
     7
370
    15
390
1D
100
AcDbCircle
 10
553.0849706206703
 20
-877.8486857178548
 30
0.0
 40
3.999999999999768
100
AcDbArc
 50
93.00000000000253
 51
150.5311001977324
  0
ARC
  5
203
330
A
100
AcDbEntity
  8
ADF70-0606
  6
Continuous
 62
     7
370
    15
390
1D
100
AcDbCircle
 10
602.5828371300182
 20
-869.5084172752793
 30
0.0
 40
2.000000000000105
100
AcDbArc
 50
272.999999999999
 51
0.0
  0
LINE
  5
204
330
A
100
AcDbEntity
  8
ADF70-0606
  6
STYLE_24
 62
     7
370
    15
390
1D
100
AcDbLine
 10
583.5828371300187
 20
-333.9348012447023
 30
0.0
 11
569.5828371300187
 21
-317.4348012447019
 31
0.0
  0
LINE
  5
205
330
A
100
AcDbEntity
  8
ADF70-0606
  6
STYLE_24
 62
     7
370
    15
390
1D
100
AcDbLine
 10
583.5828371300187
 20
-333.9348012447023
 30
0.0
 11
594.5828371300187
 21
-333.9348012447023
 31
0.0
  0
LWPOLYLINE
  5
206
330
A
100
AcDbEntity
  8
ADF70-0606
  6
STYLE_24
 62
     7
370
    15
390
1D
100
AcDbPolyline
 90
        5
 70
   128
 43
0.0
 10
569.5828371300187
 20
-317.4348012447019
 10
553.8691453604271
 20
-17.59970072028153
 42
0.2539676464749442
 10
541.4034069915627
 20
2.742535468255866
 10
457.0828371300185
 20
51.42503917604147
 42
-0.2679491924311229
 10
454.5828371300185
 20
55.75516619496366
 42
-0.2679491924311229
  0
LINE
  5
207
330
A
100
AcDbEntity
  8
ADF70-0606
  6
Continuous
 62
     7
370
    15
390
1D
100
AcDbLine
 10
459.5828371300185
 20
77.72892812238732
 30
0.0
 11
544.5828371300184
 21
77.72892812238732
 31
0.0
  0
LINE
  5
208
330
A
100
AcDbEntity
  8
ADF70-0606
  6
Continuous
 62
     7
370
    15
390
1D
100
AcDbLine
 10
552.8756267956988
 20
30.17674929441753
 30
0.0
 11
602.6875090425045
 21
27.82825806036911
 31
0.0
  0
ARC
  5
209
330
A
100
AcDbEntity
  8
ADF70-0606
  6
Continuous
 62
     7
370
    15
390
1D
100
AcDbCircle
 10
459.5828371300185
 20
72.7289281223872
 30
0.0
 40
5.0
100
AcDbArc
 50
90.0
 51
180.0
  0
ARC
  5
20A
330
A
100
AcDbEntity
  8
ADF70-0606
  6
Continuous
 62
     7
370
    15
390
1D
100
AcDbCircle
 10
544.5828371300184
 20
72.7289281223872
 30
0.0
 40
5.0
100
AcDbArc
 50
0.0
 51
90.0
  0
ARC
  5
20B
330
A
100
AcDbEntity
  8
ADF70-0606
  6
Continuous
 62
     7
370
    15
390
1D
100
AcDbCircle
 10
553.0849706206706
 20
34.1712674334357
 30
0.0
 40
4.000000000000039
100
AcDbArc
 50
208.4975150441228
 51
267.000000000001
  0
ARC
  5
20C
330
A
100
AcDbEntity
  8
ADF70-0606
  6
Continuous
 62
     7
370
    15
390
1D
100
AcDbCircle
 10
602.5828371300184
 20
25.83099899085997
 30
0.0
 40
2.0
100
AcDbArc
 50
0.0
 51
86.99999999999437
  0
LINE
  5
20D
330
A
100
AcDbEntity
  8
ADF70-0606
  6
Continuous
 62
     7
370
    15
390
1D
100
AcDbLine
 10
454.5828371300185
 20
55.75516619496378
 30
0.0
 11
454.5828371300185
 21
72.72892812238732
 31
0.0
  0
ARC
  5
20E
330
A
100
AcDbEntity
  8
ADF70-0606
  6
STYLE_24
 62
     7
370
     5
390
1D
100
AcDbCircle
 10
-459.9999999999999
 20
804.599279913678
 30
0.0
 40
22.5
100
AcDbArc
 50
180.0
 51
0.0
  0
LINE
  5
20F
330
A
100
AcDbEntity
  8
ADF70-0606
  6
STYLE_24
 62
     7
370
     5
390
1D
100
AcDbLine
 10
-274.9999999999999
 20
614.6277347515734
 30
0.0
 11
-274.9999999999993
 21
1234.627734751573
 31
0.0
  0
LINE
  5
210
330
A
100
AcDbEntity
  8
ADF70-0606
  6
STYLE_24
 62
     7
370
     5
390
1D
100
AcDbLine
 10
-645.0000000000006
 20
1234.627734751573
 30
0.0
 11
-644.9999999999999
 21
614.6277347515736
 31
0.0
  0
LINE
  5
211
330
A
100
AcDbEntity
  8
ADF70-0606
  6
STYLE_24
 62
     7
370
     5
390
1D
100
AcDbLine
 10
-274.9999999999999
 20
614.6277347515736
 30
0.0
 11
-274.9999999999999
 21
244.6277347515733
 31
0.0
  0
ARC
  5
212
330
A
100
AcDbEntity
  8
ADF70-0606
  6
STYLE_24
 62
     7
370
     5
390
1D
100
AcDbCircle
 10
-279.9999999999999
 20
244.6277347515734
 30
0.0
 40
4.999999999999972
100
AcDbArc
 50
270.0
 51
0.0
  0
LINE
  5
213
330
A
100
AcDbEntity
  8
ADF70-0606
  6
STYLE_24
 62
     7
370
     5
390
1D
100
AcDbLine
 10
-279.9999999999999
 20
239.6277347515733
 30
0.0
 11
-639.9999999999999
 21
239.6277347515736
 31
0.0
  0
ARC
  5
214
330
A
100
AcDbEntity
  8
ADF70-0606
  6
STYLE_24
 62
     7
370
     5
390
1D
100
AcDbCircle
 10
-639.9999999999999
 20
244.6277347515737
 30
0.0
 40
5.0
100
AcDbArc
 50
180.0
 51
270.0
  0
LINE
  5
215
330
A
100
AcDbEntity
  8
ADF70-0606
  6
STYLE_24
 62
     7
370
     5
390
1D
100
AcDbLine
 10
-644.9999999999999
 20
244.6277347515735
 30
0.0
 11
-644.9999999999999
 21
614.6277347515736
 31
0.0
  0
LINE
  5
216
330
A
100
AcDbEntity
  8
ADF70-0606
  6
STYLE_24
 62
     7
370
     5
390
1D
100
AcDbLine
 10
-279.9999999999993
 20
1239.627734751573
 30
0.0
 11
-640.0000000000003
 21
1239.627734751573
 31
0.0
  0
ARC
  5
217
330
A
100
AcDbEntity
  8
ADF70-0606
  6
STYLE_24
 62
     7
370
     5
390
1D
100
AcDbCircle
 10
-279.999999999999
 20
1234.627734751573
 30
0.0
 40
5.0
100
AcDbArc
 50
0.0
 51
90.0
  0
ARC
  5
218
330
A
100
AcDbEntity
  8
ADF70-0606
  6
STYLE_24
 62
     7
370
     5
390
1D
100
AcDbCircle
 10
-639.9999999999999
 20
1234.627734751573
 30
0.0
 40
5.0
100
AcDbArc
 50
90.0
 51
180.0
  0
LINE
  5
219
330
A
100
AcDbEntity
  8
ADF70-0606
  6
Continuous
 62
     7
370
    15
390
1D
100
AcDbLine
 10
-309.9999999999999
 20
274.6277347515735
 30
0.0
 11
-309.9999999999999
 21
1204.627734751573
 31
0.0
  0
LINE
  5
21A
330
A
100
AcDbEntity
  8
ADF70-0606
  6
Continuous
 62
     7
370
    15
390
1D
100
AcDbLine
 10
-309.9999999999999
 20
1204.627734751573
 30
0.0
 11
-609.9999999999999
 21
1204.627734751573
 31
0.0
  0
LINE
  5
21B
330
A
100
AcDbEntity
  8
ADF70-0606
  6
Continuous
 62
     7
370
    15
390
1D
100
AcDbLine
 10
-609.9999999999999
 20
1204.627734751573
 30
0.0
 11
-609.9999999999999
 21
274.6277347515735
 31
0.0
  0
LINE
  5
21C
330
A
100
AcDbEntity
  8
ADF70-0606
  6
Continuous
 62
     7
370
    15
390
1D
100
AcDbLine
 10
-609.9999999999999
 20
274.6277347515735
 30
0.0
 11
-309.9999999999999
 21
274.6277347515735
 31
0.0
  0
ARC
  5
21D
330
A
100
AcDbEntity
  8
ADF70-0606
  6
Continuous
 62
     7
370
    15
390
1D
100
AcDbCircle
 10
-459.9999999999999
 20
-356.4348012447021
 30
0.0
 40
22.5
100
AcDbArc
 50
0.0
 51
180.0
  0
ARC
  5
21E
330
A
100
AcDbEntity
  8
ADF70-0606
  6
Continuous
 62
     7
370
    15
390
1D
100
AcDbCircle
 10
-459.9999999999999
 20
-356.4348012447021
 30
0.0
 40
39.0
100
AcDbArc
 50
0.0
 51
180.0
  0
LINE
  5
21F
330
A
100
AcDbEntity
  8
ADF70-0606
  6
Continuous
 62
     7
370
    15
390
1D
100
AcDbLine
 10
-385.1408852590424
 20
-26.86667923175656
 30
0.0
 11
-534.8604103827964
 21
-26.86667923175656
 31
0.0
  0
ARC
  5
220
330
A
100
AcDbEntity
  8
ADF70-0606
  6
Continuous
 62
     7
370
    15
390
1D
100
AcDbCircle
 10
-534.8604103827964
 20
-31.86667923175651
 30
0.0
 40
5.0
100
AcDbArc
 50
90.0
 51
180.0
  0
ARC
  5
221
330
A
100
AcDbEntity
  8
ADF70-0606
  6
Continuous
 62
     7
370
    15
390
1D
100
AcDbCircle
 10
-385.1408852590424
 20
-31.86667923175651
 30
0.0
 40
5.0
100
AcDbArc
 50
0.0
 51
90.0
  0
ARC
  5
222
330
A
100
AcDbEntity
  8
ADF70-0606
  6
Continuous
 62
     7
370
    15
390
1D
100
AcDbCircle
 10
-459.9999999999999
 20
-356.4348012447021
 30
0.0
 40
39.0
100
AcDbArc
 50
180.0
 51
0.0
  0
ARC
  5
223
330
A
100
AcDbEntity
  8
ADF70-0606
  6
Continuous
 62
     7
370
    15
390
1D
100
AcDbCircle
 10
-459.9999999999999
 20
-356.4348012447021
 30
0.0
 40
22.5
100
AcDbArc
 50
180.0
 51
0.0
  0
LINE
  5
224
330
A
100
AcDbEntity
  8
ADF70-0606
  6
Continuous
 62
     7
370
    15
390
1D
100
AcDbLine
 10
-380.1408852590424
 20
-681.0598324717887
 30
0.0
 11
-380.1408852590424
 21
-31.86667923175656
 31
0.0
  0
LINE
  5
225
330
A
100
AcDbEntity
  8
ADF70-0606
  6
Continuous
 62
     7
370
    15
390
1D
100
AcDbLine
 10
-539.8591147409574
 20
-680.9460135818565
 30
0.0
 11
-539.8604103827964
 21
-31.86667923175656
 31
0.0
  0
ARC
  5
226
330
A
100
AcDbEntity
  8
ADF70-0606
  6
Continuous
 62
     7
370
    15
390
1D
100
AcDbCircle
 10
-304.9999999999999
 20
48.59365359319355
 30
0.0
 40
5.0
100
AcDbArc
 50
0.0
 51
90.0
  0
LINE
  5
227
330
A
100
AcDbEntity
  8
ADF70-0606
  6
Continuous
 62
     7
370
    15
390
1D
100
AcDbLine
 10
-304.9999999999999
 20
53.59365359319352
 30
0.0
 11
-614.9999999999999
 21
53.59365359319352
 31
0.0
  0
ARC
  5
228
330
A
100
AcDbEntity
  8
ADF70-0606
  6
Continuous
 62
     7
370
    15
390
1D
100
AcDbCircle
 10
-614.9999999999999
 20
48.59365359319358
 30
0.0
 40
5.0
100
AcDbArc
 50
90.0
 51
180.0
  0
LINE
  5
229
330
A
100
AcDbEntity
  8
ADF70-0606
  6
Continuous
 62
     7
370
    15
390
1D
100
AcDbLine
 10
-299.9999999999999
 20
48.59365359319352
 30
0.0
 11
-299.9999999999999
 21
-761.406346406807
 31
0.0
  0
LINE
  5
22A
330
A
100
AcDbEntity
  8
ADF70-0606
  6
Continuous
 62
     7
370
    15
390
1D
100
AcDbLine
 10
-619.9999999999999
 20
-761.4063464068065
 30
0.0
 11
-619.9999999999999
 21
48.59365359319352
 31
0.0
  0
LINE
  5
22B
330
A
100
AcDbEntity
  8
ADF70-0606
  6
Continuous
 62
     7
370
    15
390
1D
100
AcDbLine
 10
-304.9999999999999
 20
-766.406346406807
 30
0.0
 11
-614.9999999999999
 21
-766.4063464068065
 31
0.0
  0
LINE
  5
22C
330
A
100
AcDbEntity
  8
ADF70-0606
  6
Continuous
 62
     7
370
    15
390
1D
100
AcDbLine
 10
-385.1395896172031
 20
-685.9460135818565
 30
0.0
 11
-534.8591147409574
 21
-685.9460135818565
 31
0.0
  0
ARC
  5
22D
330
A
100
AcDbEntity
  8
ADF70-0606
  6
Continuous
 62
     7
370
    15
390
1D
100
AcDbCircle
 10
-385.1395896172031
 20
-680.9460135818565
 30
0.0
 40
5.0
100
AcDbArc
 50
270.0
 51
0.0
  0
ARC
  5
22E
330
A
100
AcDbEntity
  8
ADF70-0606
  6
Continuous
 62
     7
370
    15
390
1D
100
AcDbCircle
 10
-534.8591147409574
 20
-680.9460135818565
 30
0.0
 40
5.0
100
AcDbArc
 50
180.0
 51
270.0
  0
ARC
  5
22F
330
A
100
AcDbEntity
  8
ADF70-0606
  6
Continuous
 62
     7
370
    15
390
1D
100
AcDbCircle
 10
-614.9999999999999
 20
-761.4063464068065
 30
0.0
 40
5.0
100
AcDbArc
 50
180.0
 51
270.0
  0
ARC
  5
230
330
A
100
AcDbEntity
  8
ADF70-0606
  6
Continuous
 62
     7
370
    15
390
1D
100
AcDbCircle
 10
-304.9999999999999
 20
-761.406346406807
 30
0.0
 40
5.0
100
AcDbArc
 50
270.0
 51
0.0
  0
LINE
  5
231
330
A
100
AcDbEntity
  8
ADF70-0606
  6
Continuous
 62
     7
370
    15
390
1D
100
AcDbLine
 10
-304.9999999999999
 20
-761.406346406807
 30
0.0
 11
-378.0772392524751
 21
-688.0231308203959
 31
0.0
  0
LINE
  5
232
330
A
100
AcDbEntity
  8
ADF70-0606
  6
Continuous
 62
     7
370
    15
390
1D
100
AcDbLine
 10
-614.9999999999999
 20
-761.392253504079
 30
0.0
 11
-541.9232382767228
 21
-688.0242023399453
 31
0.0
  0
LINE
  5
233
330
A
100
AcDbEntity
  8
ADF70-0606
  6
Continuous
 62
     7
370
    15
390
1D
100
AcDbLine
 10
-304.9999999999999
 20
48.59365359319352
 30
0.0
 11
-378.0772392524751
 21
-24.78956199321721
 31
0.0
  0
LINE
  5
234
330
A
100
AcDbEntity
  8
ADF70-0606
  6
Continuous
 62
     7
370
    15
390
1D
100
AcDbLine
 10
-614.9999999999999
 20
48.57956069046602
 30
0.0
 11
-541.9232382767226
 21
-24.78849047366776
 31
0.0
  0
CIRCLE
  5
235
330
A
100
AcDbEntity
  8
ADF70-0606
  6
STYLE_24
 62
     7
370
    15
390
1D
100
AcDbCircle
 10
-460.0006478209197
 20
-816.4063464068065
 30
0.0
 40
17.5
  0
POLYLINE
  5
236
330
A
100
AcDbEntity
  8
ADF70-0606
  6
Continuous
 62
     7
370
    15
390
1D
100
AcDb2dPolyline
 66
     1
 10
0.0
 20
0.0
 30
0.0
 70
     1
 75
     5
  0
VERTEX
  5
237
330
236
100
AcDbEntity
  8
ADF70-0606
  6
Continuous
 62
     7
370
    15
390
1D
100
AcDbVertex
100
AcDb2dVertex
 10
-509.9999999999999
 20
849.5843452111076
 30
0.0
  0
VERTEX
  5
238
330
236
100
AcDbEntity
  8
ADF70-0606
  6
Continuous
 62
     7
370
    15
390
1D
100
AcDbVertex
100
AcDb2dVertex
 10
-409.9999999999999
 20
849.5843452111076
 30
0.0
  0
VERTEX
  5
239
330
236
100
AcDbEntity
  8
ADF70-0606
  6
Continuous
 62
     7
370
    15
390
1D
100
AcDbVertex
100
AcDb2dVertex
 10
-409.9999999999999
 20
299.5843452111075
 30
0.0
  0
VERTEX
  5
23A
330
236
100
AcDbEntity
  8
ADF70-0606
  6
Continuous
 62
     7
370
    15
390
1D
100
AcDbVertex
100
AcDb2dVertex
 10
-509.9999999999999
 20
299.5843452111075
 30
0.0
  0
SEQEND
  5
23B
330
236
100
AcDbEntity
  8
ADF70-0606
  6
Continuous
 62
     7
370
    15
390
1D
  0
ARC
  5
23C
330
A
100
AcDbEntity
  8
ADF70-0606
  6
STYLE_24
 62
     7
370
     5
390
1D
100
AcDbCircle
 10
-459.9999999999999
 20
804.599279913678
 30
0.0
 40
22.5
100
AcDbArc
 50
0.0
 51
180.0
  0
CIRCLE
  5
23D
330
A
100
AcDbEntity
  8
ADF70-0606
  6
STYLE_24
 62
     7
370
     5
390
1D
100
AcDbCircle
 10
-460.0006478209194
 20
344.6277347515734
 30
0.0
 40
17.49999999999989
  0
LINE
  5
23E
330
A
100
AcDbEntity
  8
ADF70-0606
  6
Continuous
 62
     7
370
    15
390
1D
100
AcDbLine
 10
454.5828371300185
 20
-798.9063464068065
 30
0.0
 11
469.5828371300185
 21
-798.9063464068065
 31
0.0
  0
LINE
  5
23F
330
A
100
AcDbEntity
  8
ADF70-0606
  6
Continuous
 62
     7
370
    15
390
1D
100
AcDbLine
 10
454.5828371300185
 20
-833.9063464068065
 30
0.0
 11
469.5828371300185
 21
-833.9063464068065
 31
0.0
  0
LINE
  5
240
330
A
100
AcDbEntity
  8
ADF70-0606
  6
STYLE_24
 62
     7
370
    15
390
1D
100
AcDbLine
 10
594.5828371300187
 20
782.5000000000002
 30
0.0
 11
594.5828371300187
 21
827.4999999999998
 31
0.0
  0
LINE
  5
241
330
A
100
AcDbEntity
  8
ADF70-0606
  6
Continuous
 62
     7
370
    15
390
1D
100
AcDbLine
 10
549.5754837264809
 20
73.0
 30
0.0
 11
549.5825298143734
 21
-916.8285543253969
 31
0.0
  0
ENDSEC
  0
SECTION
  2
OBJECTS
  0
DICTIONARY
  5
19
330
0
100
AcDbDictionary
281
     1
  3
ACAD_DETAILVIEWSTYLE
350
290
  3
ACAD_GROUP
350
1A
  3
ACAD_IMAGE_VARS
350
285
  3
ACAD_LAYOUT
350
1E
  3
ACAD_MATERIAL
350
27D
  3
ACAD_MLEADERSTYLE
350
28E
  3
ACAD_MLINESTYLE
350
1B
  3
ACAD_PLOTSETTINGS
350
22
  3
ACAD_PLOTSTYLENAME
350
1F
  3
ACAD_SCALELIST
350
242
  3
ACAD_SECTIONVIEWSTYLE
350
291
  3
ACAD_TABLESTYLE
350
281
  3
ACAD_VISUALSTYLE
350
264
  3
ACDB_RECOMPOSE_DATA
350
294
  3
AcDbVariableDictionary
350
287
  3
APPDATA
350
283
  0
SUN
  5
284
330
15
100
AcDbSun
 90
        1
290
     0
 63
     7
421
 16777215
 40
1.0
291
     1
 91
  2455826
 92
 54000000
292
     0
 70
     2
 71
   256
280
     1
  0
DICTIONARY
  5
290
102
{ACAD_REACTORS
330
19
102
}
330
19
100
AcDbDictionary
281
     1
  0
DICTIONARY
  5
1A
102
{ACAD_REACTORS
330
19
102
}
330
19
100
AcDbDictionary
281
     1
  0
RASTERVARIABLES
  5
285
102
{ACAD_REACTORS
330
19
102
}
330
19
100
AcDbRasterVariables
 90
        0
 70
     1
 71
     1
 72
     1
  0
DICTIONARY
  5
1E
102
{ACAD_REACTORS
330
19
102
}
330
19
100
AcDbDictionary
281
     1
  3
Layout1
350
21
  3
Model
350
20
  0
DICTIONARY
  5
27D
102
{ACAD_REACTORS
330
19
102
}
330
19
100
AcDbDictionary
281
     1
  3
ByBlock
350
27F
  3
ByLayer
350
27E
  3
Global
350
280
  0
DICTIONARY
  5
28E
102
{ACAD_REACTORS
330
19
102
}
330
19
100
AcDbDictionary
281
     1
  0
DICTIONARY
  5
1B
102
{ACAD_REACTORS
330
19
102
}
330
19
100
AcDbDictionary
281
     1
  3
Standard
350
1C
  0
DICTIONARY
  5
22
102
{ACAD_REACTORS
330
19
102
}
330
19
100
AcDbDictionary
281
     1
  0
ACDBDICTIONARYWDFLT
  5
1F
102
{ACAD_REACTORS
330
19
102
}
330
19
100
AcDbDictionary
281
     1
  3
Normal
350
1D
100
AcDbDictionaryWithDefault
340
1D
  0
DICTIONARY
  5
242
102
{ACAD_REACTORS
330
19
102
}
330
19
100
AcDbDictionary
281
     1
  3
A0
350
243
  3
A1
350
244
  3
A2
350
245
  3
A3
350
246
  3
A4
350
247
  3
A5
350
248
  3
A6
350
249
  3
A7
350
24A
  3
A8
350
24B
  3
A9
350
24C
  3
B0
350
24D
  3
B1
350
24E
  3
B2
350
24F
  3
B3
350
250
  3
B4
350
251
  3
B5
350
252
  3
B6
350
253
  3
B7
350
254
  3
B8
350
255
  3
B9
350
256
  3
C0
350
257
  3
C1
350
258
  3
C2
350
259
  3
C3
350
25A
  3
C4
350
25B
  3
C5
350
25C
  3
C6
350
25D
  3
C7
350
25E
  3
C8
350
25F
  3
C9
350
260
  3
D0
350
261
  3
D1
350
262
  3
D2
350
263
  0
DICTIONARY
  5
291
102
{ACAD_REACTORS
330
19
102
}
330
19
100
AcDbDictionary
281
     1
  0
DICTIONARY
  5
281
102
{ACAD_REACTORS
330
19
102
}
330
19
100
AcDbDictionary
281
     1
  3
Standard
350
282
  0
DICTIONARY
  5
264
102
{ACAD_REACTORS
330
19
102
}
330
19
100
AcDbDictionary
281
     1
  3
2dWireframe
350
269
  3
Basic
350
26C
  3
Brighten
350
270
  3
ColorChange
350
274
  3
Conceptual
350
26E
  3
Dim
350
26F
  3
EdgeColorOff
350
277
  3
Facepattern
350
273
  3
Flat
350
265
  3
FlatWithEdges
350
266
  3
Gouraud
350
267
  3
GouraudWithEdges
350
268
  3
Hidden
350
26B
  3
JitterOff
350
275
  3
Linepattern
350
272
  3
OverhangOff
350
276
  3
Realistic
350
26D
  3
Shaded
350
27C
  3
Shaded with edges
350
27B
  3
Shades of Gray
350
278
  3
Sketchy
350
279
  3
Thicken
350
271
  3
Wireframe
350
26A
  3
X-Ray
350
27A
  0
XRECORD
  5
294
102
{ACAD_REACTORS
330
19
102
}
330
19
100
AcDbXrecord
280
     1
 90
        1
330
282
  0
DICTIONARY
  5
287
102
{ACAD_REACTORS
330
19
102
}
330
19
100
AcDbDictionary
281
     1
  3
CANNOSCALE
350
288
  3
CTABLESTYLE
350
28D
  3
LIGHTINGUNITS
350
289
  3
MSLTSCALE
350
28F
  3
XCLIPFRAME
350
295
  0
DICTIONARY
  5
283
102
{ACAD_REACTORS
330
19
102
}
330
19
100
AcDbDictionary
281
     1
  0
LAYOUT
  5
21
102
{ACAD_REACTORS
330
1E
102
}
330
1E
100
AcDbPlotSettings
  1

  2

  4

  6

 40
0.0
 41
0.0
 42
0.0
 43
0.0
 44
0.0
 45
0.0
 46
0.0
 47
0.0
 48
0.0
 49
0.0
140
0.0
141
0.0
142
1.0
143
1.0
 70
     0
 72
     0
 73
     0
 74
     0
  7

 75
     0
 76
     0
 77
     2
 78
   300
147
1.0
148
0.0
149
0.0
100
AcDbLayout
  1
Layout1
 70
     0
 71
     0
 10
0.0
 20
0.0
 11
0.0
 21
0.0
 12
0.0
 22
0.0
 32
0.0
 14
0.0
 24
0.0
 34
0.0
 15
0.0
 25
0.0
 35
0.0
146
0.0
 13
0.0
 23
0.0
 33
0.0
 16
0.0
 26
0.0
 36
0.0
 17
0.0
 27
0.0
 37
0.0
 76
     0
330
B
  0
LAYOUT
  5
20
102
{ACAD_REACTORS
330
1E
102
}
330
1E
100
AcDbPlotSettings
  1

  2

  4

  6

 40
0.0
 41
0.0
 42
0.0
 43
0.0
 44
0.0
 45
0.0
 46
0.0
 47
0.0
 48
0.0
 49
0.0
140
0.0
141
0.0
142
1.0
143
1.0
 70
  1024
 72
     0
 73
     0
 74
     0
  7

 75
     0
 76
     0
 77
     2
 78
   300
147
1.0
148
0.0
149
0.0
100
AcDbLayout
  1
Model
 70
     0
 71
     1
 10
-1049.999999999759
 20
-1496.599316392551
 11
1050.000000000241
 21
1473.40068360745
 12
0.0
 22
0.0
 32
0.0
 14
0.0
 24
0.0
 34
0.0
 15
0.0
 25
0.0
 35
0.0
146
0.0
 13
0.0
 23
0.0
 33
0.0
 16
0.0
 26
0.0
 36
0.0
 17
0.0
 27
0.0
 37
0.0
 76
     0
330
A
331
15
  0
MATERIAL
  5
27F
102
{ACAD_REACTORS
330
27D
102
}
330
27D
100
AcDbMaterial
  1
ByBlock
 72
     1
 94
      127
  0
MATERIAL
  5
27E
102
{ACAD_REACTORS
330
27D
102
}
330
27D
100
AcDbMaterial
  1
ByLayer
 72
     1
 94
      127
  0
MATERIAL
  5
280
102
{ACAD_REACTORS
330
27D
102
}
330
27D
100
AcDbMaterial
  1
Global
 72
     1
 94
      127
  0
MLINESTYLE
  5
1C
102
{ACAD_REACTORS
330
1B
102
}
330
1B
100
AcDbMlineStyle
  2
Standard
 70
     0
  3

 62
     0
 51
90.0
 52
90.0
 71
     2
 49
0.5
 62
   256
  6
BYLAYER
 49
-0.5
 62
   256
  6
BYLAYER
  0
ACDBPLACEHOLDER
  5
1D
102
{ACAD_REACTORS
330
1F
102
}
330
1F
  0
SCALE
  5
243
102
{ACAD_REACTORS
330
242
102
}
330
242
100
AcDbScale
 70
     0
300
1:1
140
1.0
141
1.0
290
     1
  0
SCALE
  5
244
102
{ACAD_REACTORS
330
242
102
}
330
242
100
AcDbScale
 70
     0
300
1:2
140
1.0
141
2.0
290
     0
  0
SCALE
  5
245
102
{ACAD_REACTORS
330
242
102
}
330
242
100
AcDbScale
 70
     0
300
1:4
140
1.0
141
4.0
290
     0
  0
SCALE
  5
246
102
{ACAD_REACTORS
330
242
102
}
330
242
100
AcDbScale
 70
     0
300
1:5
140
1.0
141
5.0
290
     0
  0
SCALE
  5
247
102
{ACAD_REACTORS
330
242
102
}
330
242
100
AcDbScale
 70
     0
300
1:8
140
1.0
141
8.0
290
     0
  0
SCALE
  5
248
102
{ACAD_REACTORS
330
242
102
}
330
242
100
AcDbScale
 70
     0
300
1:10
140
1.0
141
10.0
290
     0
  0
SCALE
  5
249
102
{ACAD_REACTORS
330
242
102
}
330
242
100
AcDbScale
 70
     0
300
1:16
140
1.0
141
16.0
290
     0
  0
SCALE
  5
24A
102
{ACAD_REACTORS
330
242
102
}
330
242
100
AcDbScale
 70
     0
300
1:20
140
1.0
141
20.0
290
     0
  0
SCALE
  5
24B
102
{ACAD_REACTORS
330
242
102
}
330
242
100
AcDbScale
 70
     0
300
1:30
140
1.0
141
30.0
290
     0
  0
SCALE
  5
24C
102
{ACAD_REACTORS
330
242
102
}
330
242
100
AcDbScale
 70
     0
300
1:40
140
1.0
141
40.0
290
     0
  0
SCALE
  5
24D
102
{ACAD_REACTORS
330
242
102
}
330
242
100
AcDbScale
 70
     0
300
1:50
140
1.0
141
50.0
290
     0
  0
SCALE
  5
24E
102
{ACAD_REACTORS
330
242
102
}
330
242
100
AcDbScale
 70
     0
300
1:100
140
1.0
141
100.0
290
     0
  0
SCALE
  5
24F
102
{ACAD_REACTORS
330
242
102
}
330
242
100
AcDbScale
 70
     0
300
2:1
140
2.0
141
1.0
290
     0
  0
SCALE
  5
250
102
{ACAD_REACTORS
330
242
102
}
330
242
100
AcDbScale
 70
     0
300
4:1
140
4.0
141
1.0
290
     0
  0
SCALE
  5
251
102
{ACAD_REACTORS
330
242
102
}
330
242
100
AcDbScale
 70
     0
300
8:1
140
8.0
141
1.0
290
     0
  0
SCALE
  5
252
102
{ACAD_REACTORS
330
242
102
}
330
242
100
AcDbScale
 70
     0
300
10:1
140
10.0
141
1.0
290
     0
  0
SCALE
  5
253
102
{ACAD_REACTORS
330
242
102
}
330
242
100
AcDbScale
 70
     0
300
100:1
140
100.0
141
1.0
290
     0
  0
SCALE
  5
254
102
{ACAD_REACTORS
330
242
102
}
330
242
100
AcDbScale
 70
     0
300
1/128" = 1'-0"
140
0.0078125
141
12.0
290
     0
  0
SCALE
  5
255
102
{ACAD_REACTORS
330
242
102
}
330
242
100
AcDbScale
 70
     0
300
1/64" = 1'-0"
140
0.015625
141
12.0
290
     0
  0
SCALE
  5
256
102
{ACAD_REACTORS
330
242
102
}
330
242
100
AcDbScale
 70
     0
300
1/32" = 1'-0"
140
0.03125
141
12.0
290
     0
  0
SCALE
  5
257
102
{ACAD_REACTORS
330
242
102
}
330
242
100
AcDbScale
 70
     0
300
1/16" = 1'-0"
140
0.0625
141
12.0
290
     0
  0
SCALE
  5
258
102
{ACAD_REACTORS
330
242
102
}
330
242
100
AcDbScale
 70
     0
300
3/32" = 1'-0"
140
0.09375
141
12.0
290
     0
  0
SCALE
  5
259
102
{ACAD_REACTORS
330
242
102
}
330
242
100
AcDbScale
 70
     0
300
1/8" = 1'-0"
140
0.125
141
12.0
290
     0
  0
SCALE
  5
25A
102
{ACAD_REACTORS
330
242
102
}
330
242
100
AcDbScale
 70
     0
300
3/16" = 1'-0"
140
0.1875
141
12.0
290
     0
  0
SCALE
  5
25B
102
{ACAD_REACTORS
330
242
102
}
330
242
100
AcDbScale
 70
     0
300
1/4" = 1'-0"
140
0.25
141
12.0
290
     0
  0
SCALE
  5
25C
102
{ACAD_REACTORS
330
242
102
}
330
242
100
AcDbScale
 70
     0
300
3/8" = 1'-0"
140
0.375
141
12.0
290
     0
  0
SCALE
  5
25D
102
{ACAD_REACTORS
330
242
102
}
330
242
100
AcDbScale
 70
     0
300
1/2" = 1'-0"
140
0.5
141
12.0
290
     0
  0
SCALE
  5
25E
102
{ACAD_REACTORS
330
242
102
}
330
242
100
AcDbScale
 70
     0
300
3/4" = 1'-0"
140
0.75
141
12.0
290
     0
  0
SCALE
  5
25F
102
{ACAD_REACTORS
330
242
102
}
330
242
100
AcDbScale
 70
     0
300
1" = 1'-0"
140
1.0
141
12.0
290
     0
  0
SCALE
  5
260
102
{ACAD_REACTORS
330
242
102
}
330
242
100
AcDbScale
 70
     0
300
1-1/2" = 1'-0"
140
1.5
141
12.0
290
     0
  0
SCALE
  5
261
102
{ACAD_REACTORS
330
242
102
}
330
242
100
AcDbScale
 70
     0
300
3" = 1'-0"
140
3.0
141
12.0
290
     0
  0
SCALE
  5
262
102
{ACAD_REACTORS
330
242
102
}
330
242
100
AcDbScale
 70
     0
300
6" = 1'-0"
140
6.0
141
12.0
290
     0
  0
SCALE
  5
263
102
{ACAD_REACTORS
330
242
102
}
330
242
100
AcDbScale
 70
     0
300
1'-0" = 1'-0"
140
12.0
141
12.0
290
     0
  0
TABLESTYLE
  5
282
102
{ACAD_REACTORS
330
281
102
}
102
{ACAD_XDICTIONARY
360
292
102
}
330
281
100
AcDbTableStyle
  3
Standard
 70
     0
 71
     0
 40
0.06
 41
0.06
280
     0
281
     0
  7
Standard
140
4.5
170
     2
 62
     0
 63
   257
283
     0
 90
        4
 91
        0
  1

274
    -2
284
     1
 64
     0
275
    -2
285
     1
 65
     0
276
    -2
286
     1
 66
     0
277
    -2
287
     1
 67
     0
278
    -2
288
     1
 68
     0
279
    -2
289
     1
 69
     0
  7
Standard
140
6.0
170
     5
 62
     0
 63
   257
283
     0
 90
        4
 91
        0
  1

274
    -2
284
     1
 64
     0
275
    -2
285
     1
 65
     0
276
    -2
286
     1
 66
     0
277
    -2
287
     1
 67
     0
278
    -2
288
     1
 68
     0
279
    -2
289
     1
 69
     0
  7
Standard
140
4.5
170
     5
 62
     0
 63
   257
283
     0
 90
        4
 91
        0
  1

274
    -2
284
     1
 64
     0
275
    -2
285
     1
 65
     0
276
    -2
286
     1
 66
     0
277
    -2
287
     1
 67
     0
278
    -2
288
     1
 68
     0
279
    -2
289
     1
 69
     0
  0
VISUALSTYLE
  5
269
102
{ACAD_REACTORS
330
264
102
}
330
264
100
AcDbVisualStyle
  2
2dWireframe
 70
     4
 71
     0
 72
     2
 73
     0
 90
        0
 40
0.6
 41
30.0
 62
     5
 63
     7
421
 16777215
 74
     1
 91
        4
 64
     7
 65
   257
 75
     1
175
     1
 42
1.0
 92
        0
 66
   257
 43
1.0
 76
     1
 77
     6
 78
     2
 67
     7
 79
     5
170
     0
171
     0
290
     0
174
     0
 93
        1
 44
0.0
173
     0
291
     0
 45
0.0
  0
VISUALSTYLE
  5
26C
102
{ACAD_REACTORS
330
264
102
}
330
264
100
AcDbVisualStyle
  2
Basic
 70
     7
 71
     1
 72
     0
 73
     1
 90
        0
 40
0.6
 41
30.0
 62
     5
 63
     7
421
 16777215
 74
     0
 91
        4
 64
     7
 65
   257
 75
     1
175
     1
 42
1.0
 92
        8
 66
     7
 43
1.0
 76
     1
 77
     6
 78
     2
 67
     7
 79
     5
170
     0
171
     0
290
     0
174
     0
 93
        1
 44
0.0
173
     0
291
     1
 45
0.0
  0
VISUALSTYLE
  5
270
102
{ACAD_REACTORS
330
264
102
}
330
264
100
AcDbVisualStyle
  2
Brighten
 70
    12
 71
     2
 72
     2
 73
     0
 90
        0
 40
0.6
 41
30.0
 62
     5
 63
     7
421
 16777215
 74
     1
 91
        4
 64
     7
 65
   257
 75
     1
175
     1
 42
1.0
 92
        8
 66
     7
 43
1.0
 76
     1
 77
     6
 78
     2
 67
     7
 79
     5
170
     0
171
     0
290
     0
174
     0
 93
        1
 44
50.0
173
     0
291
     1
 45
0.0
  0
VISUALSTYLE
  5
274
102
{ACAD_REACTORS
330
264
102
}
330
264
100
AcDbVisualStyle
  2
ColorChange
 70
    16
 71
     2
 72
     2
 73
     3
 90
        0
 40
0.6
 41
30.0
 62
     5
 63
     8
421
  8421504
 74
     1
 91
        4
 64
     7
 65
   257
 75
     1
175
     1
 42
1.0
 92
        8
 66
     8
424
  8421504
 43
1.0
 76
     1
 77
     6
 78
     2
 67
     7
 79
     5
170
     0
171
     0
290
     0
174
     0
 93
        1
 44
0.0
173
     0
291
     1
 45
0.0
  0
VISUALSTYLE
  5
26E
102
{ACAD_REACTORS
330
264
102
}
330
264
100
AcDbVisualStyle
  2
Conceptual
 70
     9
 71
     3
 72
     2
 73
     0
 90
        0
 40
0.6
 41
30.0
 62
     5
 63
     7
421
 16777215
 74
     2
 91
        2
 64
     7
 65
   257
 75
     1
175
     1
 42
179.0
 92
        8
 66
     7
 43
1.0
 76
     1
 77
     6
 78
     2
 67
     7
 79
     3
170
     0
171
     0
290
     0
174
     0
 93
        1
 44
0.0
173
     0
291
     0
 45
0.0
  0
VISUALSTYLE
  5
26F
102
{ACAD_REACTORS
330
264
102
}
330
264
100
AcDbVisualStyle
  2
Dim
 70
    11
 71
     2
 72
     2
 73
     0
 90
        0
 40
0.6
 41
30.0
 62
     5
 63
     7
421
 16777215
 74
     1
 91
        4
 64
     7
 65
   257
 75
     1
175
     1
 42
1.0
 92
        8
 66
     7
 43
1.0
 76
     1
 77
     6
 78
     2
 67
     7
 79
     5
170
     0
171
     0
290
     0
174
     0
 93
        1
 44
-50.0
173
     0
291
     1
 45
0.0
  0
VISUALSTYLE
  5
277
102
{ACAD_REACTORS
330
264
102
}
330
264
100
AcDbVisualStyle
  2
EdgeColorOff
 70
    22
 71
     2
 72
     2
 73
     0
 90
        0
 40
0.6
 41
30.0
 62
     5
 63
     7
421
 16777215
 74
     1
 91
        4
 64
     7
 65
   257
 75
     1
175
     1
 42
1.0
 92
        8
 66
     7
 43
1.0
 76
     1
 77
     6
 78
     2
 67
     7
 79
     5
170
     0
171
     0
290
     0
174
     0
 93
        1
 44
0.0
173
     0
291
     1
 45
0.0
  0
VISUALSTYLE
  5
273
102
{ACAD_REACTORS
330
264
102
}
330
264
100
AcDbVisualStyle
  2
Facepattern
 70
    15
 71
     2
 72
     2
 73
     0
 90
        0
 40
0.6
 41
30.0
 62
     5
 63
     7
421
 16777215
 74
     1
 91
        4
 64
     7
 65
   257
 75
     1
175
     1
 42
1.0
 92
        8
 66
     7
 43
1.0
 76
     1
 77
     6
 78
     2
 67
     7
 79
     5
170
     0
171
     0
290
     0
174
     0
 93
        1
 44
0.0
173
     0
291
     1
 45
0.0
  0
VISUALSTYLE
  5
265
102
{ACAD_REACTORS
330
264
102
}
330
264
100
AcDbVisualStyle
  2
Flat
 70
     0
 71
     2
 72
     1
 73
     1
 90
        2
 40
0.6
 41
30.0
 62
     5
 63
     7
421
 16777215
 74
     0
 91
        0
 64
     7
 65
   257
 75
     1
175
     1
 42
1.0
 92
        8
 66
     7
 43
1.0
 76
     1
 77
     6
 78
     2
 67
     7
 79
     5
170
     0
171
     0
290
     0
174
     0
 93
       13
 44
0.0
173
     0
291
     1
 45
0.0
  0
VISUALSTYLE
  5
266
102
{ACAD_REACTORS
330
264
102
}
330
264
100
AcDbVisualStyle
  2
FlatWithEdges
 70
     1
 71
     2
 72
     1
 73
     1
 90
        2
 40
0.6
 41
30.0
 62
     5
 63
     7
421
 16777215
 74
     1
 91
        0
 64
     7
 65
   257
 75
     1
175
     1
 42
1.0
 92
        0
 66
   257
 43
1.0
 76
     1
 77
     6
 78
     2
 67
     7
 79
     5
170
     0
171
     0
290
     0
174
     0
 93
       13
 44
0.0
173
     0
291
     1
 45
0.0
  0
VISUALSTYLE
  5
267
102
{ACAD_REACTORS
330
264
102
}
330
264
100
AcDbVisualStyle
  2
Gouraud
 70
     2
 71
     2
 72
     2
 73
     1
 90
        2
 40
0.6
 41
30.0
 62
     5
 63
     7
421
 16777215
 74
     0
 91
        0
 64
     7
 65
   257
 75
     1
175
     1
 42
1.0
 92
        0
 66
     7
 43
1.0
 76
     1
 77
     6
 78
     2
 67
     7
 79
     5
170
     0
171
     0
290
     0
174
     0
 93
       13
 44
0.0
173
     0
291
     1
 45
0.0
  0
VISUALSTYLE
  5
268
102
{ACAD_REACTORS
330
264
102
}
330
264
100
AcDbVisualStyle
  2
GouraudWithEdges
 70
     3
 71
     2
 72
     2
 73
     1
 90
        2
 40
0.6
 41
30.0
 62
     5
 63
     7
421
 16777215
 74
     1
 91
        0
 64
     7
 65
   257
 75
     1
175
     1
 42
1.0
 92
        0
 66
   257
 43
1.0
 76
     1
 77
     6
 78
     2
 67
     7
 79
     5
170
     0
171
     0
290
     0
174
     0
 93
       13
 44
0.0
173
     0
291
     1
 45
0.0
  0
VISUALSTYLE
  5
26B
102
{ACAD_REACTORS
330
264
102
}
330
264
100
AcDbVisualStyle
  2
Hidden
 70
     6
 71
     1
 72
     2
 73
     2
 90
        0
 40
0.6
 41
30.0
 62
     5
 63
     7
421
 16777215
 74
     2
 91
        2
 64
     7
 65
   257
 75
     2
175
     1
 42
40.0
 92
        0
 66
   257
 43
1.0
 76
     1
 77
     6
 78
     2
 67
     7
 79
     3
170
     0
171
     0
290
     0
174
     0
 93
        1
 44
0.0
173
     0
291
     0
 45
0.0
  0
VISUALSTYLE
  5
275
102
{ACAD_REACTORS
330
264
102
}
330
264
100
AcDbVisualStyle
  2
JitterOff
 70
    20
 71
     2
 72
     2
 73
     0
 90
        0
 40
0.6
 41
30.0
 62
     5
 63
     7
421
 16777215
 74
     1
 91
        4
 64
     7
 65
   257
 75
     1
175
     1
 42
1.0
 92
       10
 66
     7
 43
1.0
 76
     1
 77
     6
 78
     2
 67
     7
 79
     5
170
     0
171
     0
290
     0
174
     0
 93
        1
 44
0.0
173
     0
291
     1
 45
0.0
  0
VISUALSTYLE
  5
272
102
{ACAD_REACTORS
330
264
102
}
330
264
100
AcDbVisualStyle
  2
Linepattern
 70
    14
 71
     2
 72
     2
 73
     0
 90
        0
 40
0.6
 41
30.0
 62
     5
 63
     7
421
 16777215
 74
     1
 91
        4
 64
     7
 65
   257
 75
     7
175
     7
 42
1.0
 92
        8
 66
     7
 43
1.0
 76
     1
 77
     6
 78
     2
 67
     7
 79
     5
170
     0
171
     0
290
     0
174
     0
 93
        1
 44
0.0
173
     0
291
     1
 45
0.0
  0
VISUALSTYLE
  5
276
102
{ACAD_REACTORS
330
264
102
}
330
264
100
AcDbVisualStyle
  2
OverhangOff
 70
    21
 71
     2
 72
     2
 73
     0
 90
        0
 40
0.6
 41
30.0
 62
     5
 63
     7
421
 16777215
 74
     1
 91
        4
 64
     7
 65
   257
 75
     1
175
     1
 42
1.0
 92
        9
 66
     7
 43
1.0
 76
     1
 77
     6
 78
     2
 67
     7
 79
     5
170
     0
171
     0
290
     0
174
     0
 93
        1
 44
0.0
173
     0
291
     1
 45
0.0
  0
VISUALSTYLE
  5
26D
102
{ACAD_REACTORS
330
264
102
}
330
264
100
AcDbVisualStyle
  2
Realistic
 70
     8
 71
     2
 72
     3
 73
     0
 90
        2
 40
0.6
 41
30.0
 62
     5
 63
     7
421
 16777215
 74
     0
 91
        0
 64
     7
 65
   257
 75
     1
175
     1
 42
1.0
 92
        8
 66
   257
 43
1.0
 76
     1
 77
     6
 78
     2
 67
     7
 79
     3
170
     0
171
     0
290
     0
174
     0
 93
       13
 44
0.0
173
     0
291
     0
 45
0.0
  0
VISUALSTYLE
  5
27C
102
{ACAD_REACTORS
330
264
102
}
330
264
100
AcDbVisualStyle
  2
Shaded
 70
    27
 71
     2
 72
     2
 73
     1
 90
        2
 40
0.6
 41
30.0
 62
     5
 63
     7
421
 16777215
 74
     0
 91
        4
 64
     7
 65
   257
 75
     1
175
     1
 42
1.0
 92
        8
 66
   257
 43
1.0
 76
     1
 77
     6
 78
     2
 67
     8
425
  7895160
 79
     3
170
     0
171
     0
290
     0
174
     0
 93
        5
 44
0.0
173
     0
291
     0
 45
0.0
  0
VISUALSTYLE
  5
27B
102
{ACAD_REACTORS
330
264
102
}
330
264
100
AcDbVisualStyle
  2
Shaded with edges
 70
    26
 71
     2
 72
     2
 73
     1
 90
        2
 40
0.6
 41
30.0
 62
     5
 63
     7
421
 16777215
 74
     1
 91
       10
 64
     7
 65
   257
 75
     2
175
     1
 42
1.0
 92
        8
 66
   257
 43
1.0
 76
     1
 77
     6
 78
     2
 67
     7
 79
     3
170
     0
171
     0
290
     0
174
     0
 93
        5
 44
0.0
173
     0
291
     0
 45
0.0
  0
VISUALSTYLE
  5
278
102
{ACAD_REACTORS
330
264
102
}
330
264
100
AcDbVisualStyle
  2
Shades of Gray
 70
    23
 71
     2
 72
     2
 73
     3
 90
        0
 40
0.6
 41
30.0
 62
     5
 63
     7
421
 16777215
 74
     2
 91
        2
 64
     7
 65
     7
 75
     1
175
     1
 42
40.0
 92
        8
 66
     7
 43
1.0
 76
     1
 77
     6
 78
     2
 67
     7
 79
     3
170
     0
171
     0
290
     0
174
     0
 93
        1
 44
0.0
173
     0
291
     0
 45
0.0
  0
VISUALSTYLE
  5
279
102
{ACAD_REACTORS
330
264
102
}
330
264
100
AcDbVisualStyle
  2
Sketchy
 70
    24
 71
     1
 72
     2
 73
     2
 90
        0
 40
0.6
 41
30.0
 62
     5
 63
     7
421
 16777215
 74
     2
 91
        2
 64
     7
 65
     7
 75
     1
175
     1
 42
40.0
 92
       11
 66
     7
 43
1.0
 76
     1
 77
     6
 78
     2
 67
     7
 79
     6
170
     0
171
     0
290
     0
174
     0
 93
        1
 44
0.0
173
     0
291
     0
 45
0.0
  0
VISUALSTYLE
  5
271
102
{ACAD_REACTORS
330
264
102
}
330
264
100
AcDbVisualStyle
  2
Thicken
 70
    13
 71
     2
 72
     2
 73
     0
 90
        0
 40
0.6
 41
30.0
 62
     5
 63
     7
421
 16777215
 74
     1
 91
        4
 64
     7
 65
   257
 75
     1
175
     1
 42
1.0
 92
       12
 66
     7
 43
1.0
 76
     1
 77
     6
 78
     2
 67
     7
 79
     5
170
     0
171
     0
290
     0
174
     0
 93
        1
 44
0.0
173
     0
291
     1
 45
0.0
  0
VISUALSTYLE
  5
26A
102
{ACAD_REACTORS
330
264
102
}
330
264
100
AcDbVisualStyle
  2
Wireframe
 70
     5
 71
     0
 72
     2
 73
     0
 90
        0
 40
0.6
 41
30.0
 62
     5
 63
     7
421
 16777215
 74
     1
 91
        4
 64
     7
 65
   257
 75
     1
175
     1
 42
1.0
 92
        0
 66
   257
 43
1.0
 76
     1
 77
     6
 78
     2
 67
     7
 79
     3
170
     0
171
     0
290
     0
174
     0
 93
        1
 44
0.0
173
     0
291
     0
 45
0.0
  0
VISUALSTYLE
  5
27A
102
{ACAD_REACTORS
330
264
102
}
330
264
100
AcDbVisualStyle
  2
X-Ray
 70
    25
 71
     2
 72
     2
 73
     1
 90
        1
 40
0.5
 41
30.0
 62
     5
 63
     7
421
 16777215
 74
     1
 91
        0
 64
     7
 65
   257
 75
     1
175
     1
 42
1.0
 92
        8
 66
     7
 43
1.0
 76
     1
 77
     6
 78
     2
 67
     7
 79
     3
170
     0
171
     0
290
     0
174
     0
 93
       13
 44
0.0
173
     0
291
     0
 45
0.0
  0
DICTIONARYVAR
  5
288
102
{ACAD_REACTORS
330
287
102
}
330
287
100
DictionaryVariables
280
     0
  1
1:1
  0
DICTIONARYVAR
  5
28D
102
{ACAD_REACTORS
330
287
102
}
330
287
100
DictionaryVariables
280
     0
  1
Standard
  0
DICTIONARYVAR
  5
289
102
{ACAD_REACTORS
330
287
102
}
330
287
100
DictionaryVariables
280
     0
  1
0
  0
DICTIONARYVAR
  5
28F
102
{ACAD_REACTORS
330
287
102
}
330
287
100
DictionaryVariables
280
     0
  1
0
  0
DICTIONARYVAR
  5
295
102
{ACAD_REACTORS
330
287
102
}
330
287
100
DictionaryVariables
280
     0
  1
0
  0
DICTIONARY
  5
292
330
282
100
AcDbDictionary
280
     1
281
     1
  3
ACAD_ROUNDTRIP_2008_TABLESTYLE_CELLSTYLEMAP
360
293
  0
CELLSTYLEMAP
  5
293
102
{ACAD_REACTORS
330
292
102
}
330
292
100
AcDbCellStyleMap
 90
        3
300
CELLSTYLE
  1
TABLEFORMAT_BEGIN
 90
        5
170
     1
 91
        0
 92
        0
 62
   257
 93
        1
300
CONTENTFORMAT
  1
CONTENTFORMAT_BEGIN
 90
        0
 91
        0
 92
        4
 93
        0
300

 40
0.0
140
1.0
 94
        5
 62
     0
340
17
144
6.0
309
CONTENTFORMAT_END
171
     1
301
MARGIN
  1
CELLMARGIN_BEGIN
 40
1.5
 40
1.5
 40
1.5
 40
1.5
 40
1.5
 40
1.5
309
CELLMARGIN_END
 94
        6
 95
        1
302
GRIDFORMAT
  1
GRIDFORMAT_BEGIN
 90
        0
 91
        1
 62
     0
 92
       -2
340
11
 93
        0
 40
0.045
309
GRIDFORMAT_END
 95
        2
302
GRIDFORMAT
  1
GRIDFORMAT_BEGIN
 90
        0
 91
        1
 62
     0
 92
       -2
340
11
 93
        0
 40
0.045
309
GRIDFORMAT_END
 95
        4
302
GRIDFORMAT
  1
GRIDFORMAT_BEGIN
 90
        0
 91
        1
 62
     0
 92
       -2
340
11
 93
        0
 40
0.045
309
GRIDFORMAT_END
 95
        8
302
GRIDFORMAT
  1
GRIDFORMAT_BEGIN
 90
        0
 91
        1
 62
     0
 92
       -2
340
11
 93
        0
 40
0.045
309
GRIDFORMAT_END
 95
       16
302
GRIDFORMAT
  1
GRIDFORMAT_BEGIN
 90
        0
 91
        1
 62
     0
 92
       -2
340
11
 93
        0
 40
0.045
309
GRIDFORMAT_END
 95
       32
302
GRIDFORMAT
  1
GRIDFORMAT_BEGIN
 90
        0
 91
        1
 62
     0
 92
       -2
340
11
 93
        0
 40
0.045
309
GRIDFORMAT_END
309
TABLEFORMAT_END
  1
CELLSTYLE_BEGIN
 90
        1
 91
        1
300
_TITLE
309
CELLSTYLE_END
300
CELLSTYLE
  1
TABLEFORMAT_BEGIN
 90
        5
170
     1
 91
        0
 92
        0
 62
   257
 93
        1
300
CONTENTFORMAT
  1
CONTENTFORMAT_BEGIN
 90
        0
 91
        0
 92
        4
 93
        0
300

 40
0.0
140
1.0
 94
        5
 62
     0
340
17
144
4.5
309
CONTENTFORMAT_END
171
     1
301
MARGIN
  1
CELLMARGIN_BEGIN
 40
1.5
 40
1.5
 40
1.5
 40
1.5
 40
1.5
 40
1.5
309
CELLMARGIN_END
 94
        6
 95
        1
302
GRIDFORMAT
  1
GRIDFORMAT_BEGIN
 90
        0
 91
        1
 62
     0
 92
       -2
340
11
 93
        0
 40
0.045
309
GRIDFORMAT_END
 95
        2
302
GRIDFORMAT
  1
GRIDFORMAT_BEGIN
 90
        0
 91
        1
 62
     0
 92
       -2
340
11
 93
        0
 40
0.045
309
GRIDFORMAT_END
 95
        4
302
GRIDFORMAT
  1
GRIDFORMAT_BEGIN
 90
        0
 91
        1
 62
     0
 92
       -2
340
11
 93
        0
 40
0.045
309
GRIDFORMAT_END
 95
        8
302
GRIDFORMAT
  1
GRIDFORMAT_BEGIN
 90
        0
 91
        1
 62
     0
 92
       -2
340
11
 93
        0
 40
0.045
309
GRIDFORMAT_END
 95
       16
302
GRIDFORMAT
  1
GRIDFORMAT_BEGIN
 90
        0
 91
        1
 62
     0
 92
       -2
340
11
 93
        0
 40
0.045
309
GRIDFORMAT_END
 95
       32
302
GRIDFORMAT
  1
GRIDFORMAT_BEGIN
 90
        0
 91
        1
 62
     0
 92
       -2
340
11
 93
        0
 40
0.045
309
GRIDFORMAT_END
309
TABLEFORMAT_END
  1
CELLSTYLE_BEGIN
 90
        2
 91
        1
300
_HEADER
309
CELLSTYLE_END
300
CELLSTYLE
  1
TABLEFORMAT_BEGIN
 90
        5
170
     1
 91
        0
 92
        0
 62
   257
 93
        1
300
CONTENTFORMAT
  1
CONTENTFORMAT_BEGIN
 90
        0
 91
        0
 92
        4
 93
        0
300

 40
0.0
140
1.0
 94
        2
 62
     0
340
17
144
4.5
309
CONTENTFORMAT_END
171
     1
301
MARGIN
  1
CELLMARGIN_BEGIN
 40
1.5
 40
1.5
 40
1.5
 40
1.5
 40
1.5
 40
1.5
309
CELLMARGIN_END
 94
        6
 95
        1
302
GRIDFORMAT
  1
GRIDFORMAT_BEGIN
 90
        0
 91
        1
 62
     0
 92
       -2
340
11
 93
        0
 40
0.045
309
GRIDFORMAT_END
 95
        2
302
GRIDFORMAT
  1
GRIDFORMAT_BEGIN
 90
        0
 91
        1
 62
     0
 92
       -2
340
11
 93
        0
 40
0.045
309
GRIDFORMAT_END
 95
        4
302
GRIDFORMAT
  1
GRIDFORMAT_BEGIN
 90
        0
 91
        1
 62
     0
 92
       -2
340
11
 93
        0
 40
0.045
309
GRIDFORMAT_END
 95
        8
302
GRIDFORMAT
  1
GRIDFORMAT_BEGIN
 90
        0
 91
        1
 62
     0
 92
       -2
340
11
 93
        0
 40
0.045
309
GRIDFORMAT_END
 95
       16
302
GRIDFORMAT
  1
GRIDFORMAT_BEGIN
 90
        0
 91
        1
 62
     0
 92
       -2
340
11
 93
        0
 40
0.045
309
GRIDFORMAT_END
 95
       32
302
GRIDFORMAT
  1
GRIDFORMAT_BEGIN
 90
        0
 91
        1
 62
     0
 92
       -2
340
11
 93
        0
 40
0.045
309
GRIDFORMAT_END
309
TABLEFORMAT_END
  1
CELLSTYLE_BEGIN
 90
        3
 91
        2
300
_DATA
309
CELLSTYLE_END
  0
ENDSEC
  0
EOF
