  0
SECTION
  2
HEADER
  9
$ACADVER
  1
AC1021
  9
$ACADMAINTVER
 70
    25
  9
$DWGCODEPAGE
  3
ANSI_932
  9
$LASTSAVEDBY
  1
T-HOWE-PC
  9
$INSBASE
 10
0.0
 20
0.0
 30
0.0
  9
$EXTMIN
 10
0.0
 20
0.0
 30
-0.0000000053126276
  9
$EXTMAX
 10
2100.0
 20
2970.0
 30
34.99521132346015
  9
$LIMMIN
 10
0.0
 20
0.0
  9
$LIMMAX
 10
2100.0
 20
2970.0
  9
$ORTHOMODE
 70
     1
  9
$REGENMODE
 70
     1
  9
$FILLMODE
 70
     1
  9
$QTEXTMODE
 70
     0
  9
$MIRRTEXT
 70
     1
  9
$LTSCALE
 40
5.0
  9
$ATTMODE
 70
     1
  9
$TEXTSIZE
 40
533.0403732820173
  9
$TRACEWID
 40
1.0
  9
$TEXTSTYLE
  7
Standard
  9
$CLAYER
  8
Dim
  9
$CELTYPE
  6
ByLayer
  9
$CECOLOR
 62
   256
  9
$CELTSCALE
 40
1.0
  9
$DISPSILH
 70
     0
  9
$DIMSCALE
 40
1.0
  9
$DIMASZ
 40
9.999389648437498
  9
$DIMEXO
 40
25.0
  9
$DIMDLI
 40
0.9999999999999999
  9
$DIMRND
 40
0.0
  9
$DIMDLE
 40
0.0
  9
$DIMEXE
 40
0.0
  9
$DIMTP
 40
0.0
  9
$DIMTM
 40
0.0
  9
$DIMTXT
 40
24.4326171875
  9
$DIMCEN
 40
0.0
  9
$DIMTSZ
 40
0.0
  9
$DIMTOL
 70
     0
  9
$DIMLIM
 70
     0
  9
$DIMTIH
 70
     0
  9
$DIMTOH
 70
     0
  9
$DIMSE1
 70
     0
  9
$DIMSE2
 70
     0
  9
$DIMTAD
 70
     1
  9
$DIMZIN
 70
    11
  9
$DIMBLK
  1
DOT
  9
$DIMASO
 70
     1
  9
$DIMSHO
 70
     1
  9
$DIMPOST
  1
<>
  9
$DIMAPOST
  1
[]
  9
$DIMALT
 70
     0
  9
$DIMALTD
 70
     1
  9
$DIMALTF
 40
1.0
  9
$DIMLFAC
 40
1.0
  9
$DIMTOFL
 70
     1
  9
$DIMTVP
 40
0.0
  9
$DIMTIX
 70
     1
  9
$DIMSOXD
 70
     0
  9
$DIMSAH
 70
     0
  9
$DIMBLK1
  1

  9
$DIMBLK2
  1

  9
$DIMSTYLE
  2
tform線あり
  9
$DIMCLRD
 70
     0
  9
$DIMCLRE
 70
     0
  9
$DIMCLRT
 70
     0
  9
$DIMTFAC
 40
0.8
  9
$DIMGAP
 40
10.0
  9
$DIMJUST
 70
     0
  9
$DIMSD1
 70
     0
  9
$DIMSD2
 70
     0
  9
$DIMTOLJ
 70
     1
  9
$DIMTZIN
 70
    11
  9
$DIMALTZ
 70
    11
  9
$DIMALTTZ
 70
    11
  9
$DIMUPT
 70
     0
  9
$DIMDEC
 70
     0
  9
$DIMTDEC
 70
     1
  9
$DIMALTU
 70
     2
  9
$DIMALTTD
 70
     2
  9
$DIMTXSTY
  7
ＭＳ ゴシック
  9
$DIMAUNIT
 70
     0
  9
$DIMADEC
 70
     2
  9
$DIMALTRND
 40
0.0
  9
$DIMAZIN
 70
     0
  9
$DIMDSEP
 70
    46
  9
$DIMATFIT
 70
     0
  9
$DIMFRAC
 70
     2
  9
$DIMLDRBLK
  1
DOT
  9
$DIMLUNIT
 70
     2
  9
$DIMLWD
 70
    -2
  9
$DIMLWE
 70
    -2
  9
$DIMTMOVE
 70
     0
  9
$DIMFXL
 40
1.0
  9
$DIMFXLON
 70
     0
  9
$DIMJOGANG
 40
0.7853981633974483
  9
$DIMTFILL
 70
     0
  9
$DIMTFILLCLR
 70
     0
  9
$DIMARCSYM
 70
     0
  9
$DIMLTYPE
  6

  9
$DIMLTEX1
  6

  9
$DIMLTEX2
  6

  9
$LUNITS
 70
     2
  9
$LUPREC
 70
     0
  9
$SKETCHINC
 40
0.1
  9
$FILLETRAD
 40
0.0
  9
$AUNITS
 70
     0
  9
$AUPREC
 70
     0
  9
$MENU
  1
acad
  9
$ELEVATION
 40
0.0
  9
$PELEVATION
 40
0.0
  9
$THICKNESS
 40
0.0
  9
$LIMCHECK
 70
     0
  9
$CHAMFERA
 40
0.0
  9
$CHAMFERB
 40
0.0
  9
$CHAMFERC
 40
0.0
  9
$CHAMFERD
 40
0.0
  9
$SKPOLY
 70
     0
  9
$TDCREATE
 40
2447893.375
  9
$TDUCREATE
 40
0.0
  9
$TDUPDATE
 40
2459450.713372651
  9
$TDUUPDATE
 40
2459450.338372651
  9
$TDINDWG
 40
0.0005325579
  9
$TDUSRTIMER
 40
0.0004255787
  9
$USRTIMER
 70
     1
  9
$ANGBASE
 50
0.0
  9
$ANGDIR
 70
     0
  9
$PDMODE
 70
     1
  9
$PDSIZE
 40
-2.0
  9
$PLINEWID
 40
0.0
  9
$SPLFRAME
 70
     0
  9
$SPLINETYPE
 70
     6
  9
$SPLINESEGS
 70
     8
  9
$HANDSEED
  5
7350
  9
$SURFTAB1
 70
     6
  9
$SURFTAB2
 70
     6
  9
$SURFTYPE
 70
     6
  9
$SURFU
 70
     6
  9
$SURFV
 70
     6
  9
$UCSBASE
  2

  9
$UCSNAME
  2

  9
$UCSORG
 10
0.0
 20
0.0
 30
0.0
  9
$UCSXDIR
 10
1.0
 20
0.0
 30
0.0
  9
$UCSYDIR
 10
0.0
 20
1.0
 30
0.0
  9
$UCSORTHOREF
  2

  9
$UCSORTHOVIEW
 70
     0
  9
$UCSORGTOP
 10
0.0
 20
0.0
 30
0.0
  9
$UCSORGBOTTOM
 10
0.0
 20
0.0
 30
0.0
  9
$UCSORGLEFT
 10
0.0
 20
0.0
 30
0.0
  9
$UCSORGRIGHT
 10
0.0
 20
0.0
 30
0.0
  9
$UCSORGFRONT
 10
0.0
 20
0.0
 30
0.0
  9
$UCSORGBACK
 10
0.0
 20
0.0
 30
0.0
  9
$PUCSBASE
  2

  9
$PUCSNAME
  2

  9
$PUCSORG
 10
0.0
 20
0.0
 30
0.0
  9
$PUCSXDIR
 10
1.0
 20
0.0
 30
0.0
  9
$PUCSYDIR
 10
0.0
 20
1.0
 30
0.0
  9
$PUCSORTHOREF
  2

  9
$PUCSORTHOVIEW
 70
     0
  9
$PUCSORGTOP
 10
0.0
 20
0.0
 30
0.0
  9
$PUCSORGBOTTOM
 10
0.0
 20
0.0
 30
0.0
  9
$PUCSORGLEFT
 10
0.0
 20
0.0
 30
0.0
  9
$PUCSORGRIGHT
 10
0.0
 20
0.0
 30
0.0
  9
$PUCSORGFRONT
 10
0.0
 20
0.0
 30
0.0
  9
$PUCSORGBACK
 10
0.0
 20
0.0
 30
0.0
  9
$USERI1
 70
     0
  9
$USERI2
 70
     0
  9
$USERI3
 70
     0
  9
$USERI4
 70
     0
  9
$USERI5
 70
     0
  9
$USERR1
 40
0.0
  9
$USERR2
 40
0.0
  9
$USERR3
 40
0.0
  9
$USERR4
 40
0.0
  9
$USERR5
 40
0.0
  9
$WORLDVIEW
 70
     1
  9
$SHADEDGE
 70
     3
  9
$SHADEDIF
 70
    70
  9
$TILEMODE
 70
     1
  9
$MAXACTVP
 70
    64
  9
$PINSBASE
 10
0.0
 20
0.0
 30
0.0
  9
$PLIMCHECK
 70
     0
  9
$PEXTMIN
 10
0.0
 20
0.0
 30
0.0
  9
$PEXTMAX
 10
0.0
 20
0.0
 30
0.0
  9
$PLIMMIN
 10
-7.5
 20
-20.0
  9
$PLIMMAX
 10
412.5
 20
277.0
  9
$UNITMODE
 70
     0
  9
$VISRETAIN
 70
     0
  9
$PLINEGEN
 70
     1
  9
$PSLTSCALE
 70
     0
  9
$TREEDEPTH
 70
  3020
  9
$CMLSTYLE
  2
Standard
  9
$CMLJUST
 70
     0
  9
$CMLSCALE
 40
1.0
  9
$PROXYGRAPHICS
 70
     0
  9
$MEASUREMENT
 70
     1
  9
$CELWEIGHT
370
    -1
  9
$ENDCAPS
280
     0
  9
$JOINSTYLE
280
     0
  9
$LWDISPLAY
290
     1
  9
$INSUNITS
 70
     4
  9
$HYPERLINKBASE
  1

  9
$STYLESHEET
  1

  9
$XEDIT
290
     1
  9
$CEPSNTYPE
380
     0
  9
$PSTYLEMODE
290
     1
  9
$FINGERPRINTGUID
  2

  9
$VERSIONGUID
  2

  9
$EXTNAMES
290
     1
  9
$PSVPSCALE
 40
0.0
  9
$OLESTARTUP
290
     0
  9
$SORTENTS
280
   127
  9
$INDEXCTL
280
     0
  9
$HIDETEXT
280
     1
  9
$XCLIPFRAME
290
     0
  9
$HALOGAP
280
     0
  9
$OBSCOLOR
 70
   257
  9
$OBSLTYPE
280
     0
  9
$INTERSECTIONDISPLAY
280
     0
  9
$INTERSECTIONCOLOR
 70
   257
  9
$DIMASSOC
280
     2
  9
$PROJECTNAME
  1

  9
$CAMERADISPLAY
290
     0
  9
$LENSLENGTH
 40
50.0
  9
$CAMERAHEIGHT
 40
0.0
  9
$STEPSPERSEC
 40
2.0
  9
$STEPSIZE
 40
6.0
  9
$3DDWFPREC
 40
2.0
  9
$PSOLWIDTH
 40
0.25
  9
$PSOLHEIGHT
 40
4.0
  9
$LOFTANG1
 40
1.570796326794897
  9
$LOFTANG2
 40
1.570796326794897
  9
$LOFTMAG1
 40
0.0
  9
$LOFTMAG2
 40
0.0
  9
$LOFTPARAM
 70
     7
  9
$LOFTNORMALS
280
     1
  9
$LATITUDE
 40
37.795
  9
$LONGITUDE
 40
-122.394
  9
$NORTHDIRECTION
 40
0.0
  9
$TIMEZONE
 70
 -8000
  9
$LIGHTGLYPHDISPLAY
280
     1
  9
$TILEMODELIGHTSYNCH
280
     1
  9
$SOLIDHIST
280
     1
  9
$SHOWHIST
280
     1
  9
$DWFFRAME
280
     2
  9
$DGNFRAME
280
     2
  9
$REALWORLDSCALE
290
     1
  9
$INTERFERECOLOR
 62
   256
  9
$CSHADOW
280
     0
  9
$SHADOWPLANELOCATION
 40
0.0
  0
ENDSEC
  0
SECTION
  2
CLASSES
  0
CLASS
  1
LWPOLYLINE
  2
AcDbPolyline
  3
ObjectDBX Classes
 90
        0
 91
        1
280
     0
281
     1
  0
CLASS
  1
IMAGE
  2
AcDbRasterImage
  3
ISM
 90
      127
 91
        4
280
     0
281
     1
  0
CLASS
  1
OLE2FRAME
  2
AcDbOle2Frame
  3
ObjectDBX Classes
 90
        0
 91
        1
280
     0
281
     1
  0
CLASS
  1
HATCH
  2
AcDbHatch
  3
ObjectDBX Classes
 90
        0
 91
        1
280
     0
281
     1
  0
CLASS
  1
DICTIONARYVAR
  2
AcDbDictionaryVar
  3
ObjectDBX Classes
 90
        0
 91
        3
280
     0
281
     0
  0
CLASS
  1
RASTERVARIABLES
  2
AcDbRasterVariables
  3
ISM
 90
        0
 91
        3
280
     0
281
     0
  0
CLASS
  1
IMAGEDEF
  2
AcDbRasterImageDef
  3
ISM
 90
        0
 91
        3
280
     0
281
     0
  0
CLASS
  1
IMAGEDEF_REACTOR
  2
AcDbRasterImageDefReactor
  3
ISM
 90
        1
 91
        3
280
     0
281
     0
  0
CLASS
  1
IDBUFFER
  2
AcDbIdBuffer
  3
ObjectDBX Classes
 90
        0
 91
        3
280
     0
281
     0
  0
CLASS
  1
SPATIAL_FILTER
  2
AcDbSpatialFilter
  3
ObjectDBX Classes
 90
        0
 91
        3
280
     0
281
     0
  0
CLASS
  1
XRECORD
  2
AcDbXrecord
  3
ObjectDBX Classes
 90
        0
 91
        1
280
     0
281
     0
  0
CLASS
  1
SORTENTSTABLE
  2
AcDbSortentsTable
  3
ObjectDBX Classes
 90
        0
 91
        3
280
     0
281
     0
  0
CLASS
  1
LAYER_INDEX
  2
AcDbLayerIndex
  3
ObjectDBX Classes
 90
        0
 91
        3
280
     0
281
     0
  0
CLASS
  1
SPATIAL_INDEX
  2
AcDbSpatialIndex
  3
AutoCAD 2000
 90
        0
 91
        3
280
     0
281
     0
  0
CLASS
  1
OBJECT_PTR
  2
CAseDLPNTableRecord
  3
ASE-LPNTableRecord
 90
        1
 91
        3
280
     0
281
     0
  0
CLASS
  1
LAYOUT
  2
AcDbLayout
  3
ObjectDBX Classes
 90
        0
 91
        1
280
     0
281
     0
  0
CLASS
  1
PLOTSETTINGS
  2
AcDbPlotSettings
  3
ObjectDBX Classes
 90
        0
 91
        3
280
     0
281
     0
  0
CLASS
  1
ACDBDICTIONARYWDFLT
  2
AcDbDictionaryWithDefault
  3
ObjectDBX Classes
 90
        0
 91
        3
280
     0
281
     0
  0
CLASS
  1
ACDBPLACEHOLDER
  2
AcDbPlaceHolder
  3
ObjectDBX Classes
 90
        0
 91
        1
280
     0
281
     0
  0
CLASS
  1
SCALE
  2
AcDbScale
  3
ObjectDBX Classes
 90
     1153
 91
        3
280
     0
281
     0
  0
CLASS
  1
MATERIAL
  2
AcDbMaterial
  3
ObjectDBX Classes
 90
     1153
 91
        3
280
     0
281
     0
  0
CLASS
  1
VISUALSTYLE
  2
AcDbVisualStyle
  3
ObjectDBX Classes
 90
     4095
 91
        3
280
     0
281
     0
  0
CLASS
  1
TABLESTYLE
  2
AcDbTableStyle
  3
ObjectDBX Classes
 90
     4095
 91
        3
280
     0
281
     0
  0
CLASS
  1
DIMASSOC
  2
AcDbDimAssoc
  3
"AcDbDimAssoc|Product Desc:     AcDim ARX App For Dimension|Company:          Autodesk, Inc.|WEB Address:      www.autodesk.com"
 90
        0
 91
        3
280
     0
281
     0
  0
CLASS
  1
CELLSTYLEMAP
  2
AcDbCellStyleMap
  3
ObjectDBX Classes
 90
     1152
 91
        3
280
     0
281
     0
  0
CLASS
  1
SUN
  2
AcDbSun
  3
SCENEOE
 90
     1153
 91
        3
280
     0
281
     0
  0
CLASS
  1
MLEADERSTYLE
  2
AcDbMLeaderStyle
  3
ACDB_MLEADERSTYLE_CLASS
 90
     4095
 91
        3
280
     0
281
     0
  0
CLASS
  1
FIELD
  2
AcDbField
  3
ObjectDBX Classes
 90
     1152
 91
        3
280
     0
281
     0
  0
CLASS
  1
FIELDLIST
  2
AcDbFieldList
  3
ObjectDBX Classes
 90
     1152
 91
        3
280
     0
281
     0
  0
CLASS
  1
ACDB_ALDIMOBJECTCONTEXTDATA_CLASS
  2
AcDbAlignedDimensionObjectContextData
  3
ObjectDBX Classes
 90
     1153
 91
        3
280
     0
281
     0
  0
ENDSEC
  0
SECTION
  2
TABLES
  0
TABLE
  2
VPORT
  5
7
330
0
100
AcDbSymbolTable
 70
     1
  0
VPORT
  5
15
330
7
100
AcDbSymbolTableRecord
100
AcDbViewportTableRecord
  2
*ACTIVE
 70
     0
 10
0.0
 20
0.0
 11
1.0
 21
1.0
 12
672.9525617540362
 22
1782.612370234519
 13
0.0
 23
0.0
 14
1.0
 24
1.0
 15
0.0
 25
0.0
 16
0.0
 26
0.0
 36
1.0
 17
377.0474382459638
 27
-297.6123702345194
 37
0.0
 40
3029.4
 41
2.226173541963016
 42
50.0
 43
0.0
 44
0.0
 50
0.0
 51
0.0
 71
    16
 72
  2000
 73
     1
 74
     1
 75
     0
 76
     0
 77
     0
 78
     0
281
     0
 65
     1
110
0.0
120
0.0
130
0.0
111
1.0
121
0.0
131
0.0
112
0.0
122
1.0
132
0.0
 79
     0
146
0.0
348
26C
 60
     3
 61
     5
292
     1
282
     1
141
0.0
142
0.0
 63
   256
361
8C2
  0
ENDTAB
  0
TABLE
  2
LTYPE
  5
4
330
0
100
AcDbSymbolTable
 70
     4
  0
LTYPE
  5
11
330
4
100
AcDbSymbolTableRecord
100
AcDbLinetypeTableRecord
  2
ByBlock
 70
     0
  3

 72
    65
 73
     0
 40
0.0
  0
LTYPE
  5
12
330
4
100
AcDbSymbolTableRecord
100
AcDbLinetypeTableRecord
  2
ByLayer
 70
     0
  3

 72
    65
 73
     0
 40
0.0
  0
LTYPE
  5
13
330
4
100
AcDbSymbolTableRecord
100
AcDbLinetypeTableRecord
  2
Continuous
 70
     0
  3
Solid line
 72
    65
 73
     0
 40
0.0
  0
LTYPE
  5
8D4
330
4
100
AcDbSymbolTableRecord
100
AcDbLinetypeTableRecord
  2
HIDDEN
 70
     0
  3
Hidden _ _ _ _ _ _ _ _ _ _ _ _ _ _ _ _ _ _ _ _ 
 72
    65
 73
     2
 40
9.524999999999999
 49
6.35
 74
     0
 49
-3.175
 74
     0
  0
LTYPE
  5
BF2
330
4
100
AcDbSymbolTableRecord
100
AcDbLinetypeTableRecord
  2
BORDER
 70
     0
  3
Border __  __  . __  __  . __  __  . __  __  . 
 72
    65
 73
     6
 40
44.45
 49
12.7
 74
     0
 49
-6.35
 74
     0
 49
12.7
 74
     0
 49
-6.35
 74
     0
 49
0.0
 74
     0
 49
-6.35
 74
     0
  0
LTYPE
  5
4337
330
4
100
AcDbSymbolTableRecord
100
AcDbLinetypeTableRecord
  2
HIDDEN2
 70
     0
  3
Hidden (.5x) _ _ _ _ _ _ _ _ _ _ _ _ _ _ _ _ _ 
 72
    65
 73
     2
 40
4.762499999999999
 49
3.175
 74
     0
 49
-1.5875
 74
     0
  0
ENDTAB
  0
TABLE
  2
LAYER
  5
2
102
{ACAD_XDICTIONARY
360
2E1
102
}
330
0
100
AcDbSymbolTable
 70
    10
  0
LAYER
  5
14
330
2
100
AcDbSymbolTableRecord
100
AcDbLayerTableRecord
  2
0
 70
     0
 62
     7
  6
Continuous
370
    -3
390
1D
347
266
  0
LAYER
  5
4A
330
2
100
AcDbSymbolTableRecord
100
AcDbLayerTableRecord
  2
Defpoints
 70
     0
 62
     7
  6
Continuous
290
     0
370
    20
390
1D
347
266
  0
LAYER
  5
4B
330
2
100
AcDbSymbolTableRecord
100
AcDbLayerTableRecord
  2
template
 70
     0
 62
     7
  6
Continuous
370
    20
390
1D
347
266
  0
LAYER
  5
4D
330
2
100
AcDbSymbolTableRecord
100
AcDbLayerTableRecord
  2
MODEL
 70
     0
 62
     7
  6
Continuous
370
    20
390
1D
347
266
  0
LAYER
  5
382
330
2
100
AcDbSymbolTableRecord
100
AcDbLayerTableRecord
  2
レイヤー 1
 70
     0
 62
     7
  6
Continuous
370
    -3
390
1D
347
266
  0
LAYER
  5
5C4
330
2
100
AcDbSymbolTableRecord
100
AcDbLayerTableRecord
  2
HIDDEN
 70
     0
 62
   253
  6
HIDDEN
370
    20
390
1D
347
266
1001
AcAecLayerStandard
1000

1000

  0
LAYER
  5
5EB
330
2
100
AcDbSymbolTableRecord
100
AcDbLayerTableRecord
  2
Dim
 70
     0
 62
     3
  6
Continuous
370
    13
390
1D
347
266
1001
AcAecLayerStandard
1000

1000

  0
LAYER
  5
BF1
330
2
100
AcDbSymbolTableRecord
100
AcDbLayerTableRecord
  2
PRINT BORDER
 70
     0
 62
     4
  6
BORDER
290
     0
370
    20
390
1D
347
266
1001
AcAecLayerStandard
1000

1000

  0
LAYER
  5
1BD2
330
2
100
AcDbSymbolTableRecord
100
AcDbLayerTableRecord
  2
retino
 70
     0
 62
   253
  6
Continuous
370
     0
390
1D
347
266
  0
LAYER
  5
4336
330
2
100
AcDbSymbolTableRecord
100
AcDbLayerTableRecord
  2
tratteggio
 70
     0
 62
    74
  6
HIDDEN2
370
     0
390
1D
347
266
  0
ENDTAB
  0
TABLE
  2
STYLE
  5
3
330
0
100
AcDbSymbolTable
 70
     2
  0
STYLE
  5
17
330
3
100
AcDbSymbolTableRecord
100
AcDbTextStyleTableRecord
  2
Standard
 70
     0
 40
0.0
 41
1.0
 50
0.0
 71
     0
 42
533.0403732820173
  3
txt
  4
BIGFONT.SHX
  0
STYLE
  5
39
330
3
100
AcDbSymbolTableRecord
100
AcDbTextStyleTableRecord
  2
ＭＳ ゴシック
 70
     0
 40
0.0
 41
1.0
 50
0.0
 71
     0
 42
533.0403732820173
  3
msgothic.ttc
  4
ＭＳ ゴシック
1001
ACAD
1000
ＭＳ ゴシック
1071
        0
  0
ENDTAB
  0
TABLE
  2
VIEW
  5
5
330
0
100
AcDbSymbolTable
 70
     0
  0
ENDTAB
  0
TABLE
  2
UCS
  5
6
330
0
100
AcDbSymbolTable
 70
     0
  0
ENDTAB
  0
TABLE
  2
APPID
  5
8
330
0
100
AcDbSymbolTable
 70
    17
  0
APPID
  5
16
330
8
100
AcDbSymbolTableRecord
100
AcDbRegAppTableRecord
  2
ACAD
 70
     0
  0
APPID
  5
5C5
330
8
100
AcDbSymbolTableRecord
100
AcDbRegAppTableRecord
  2
AcAecLayerStandard
 70
     0
  0
APPID
  5
913
330
8
100
AcDbSymbolTableRecord
100
AcDbRegAppTableRecord
  2
ACAD_DSTYLE_DIMBREAK
 70
     0
  0
APPID
  5
914
330
8
100
AcDbSymbolTableRecord
100
AcDbRegAppTableRecord
  2
ACAD_DSTYLE_DIMJAG
 70
     0
  0
APPID
  5
915
330
8
100
AcDbSymbolTableRecord
100
AcDbRegAppTableRecord
  2
ACAD_DSTYLE_DIMTALN
 70
     0
  0
APPID
  5
E4F
330
8
100
AcDbSymbolTableRecord
100
AcDbRegAppTableRecord
  2
ACAD_MLEADERVER
 70
     0
  0
APPID
  5
E79
330
8
100
AcDbSymbolTableRecord
100
AcDbRegAppTableRecord
  2
ACAD_PSEXT
 70
     0
  0
APPID
  5
E7A
330
8
100
AcDbSymbolTableRecord
100
AcDbRegAppTableRecord
  2
ACAD_NAV_VCDISPLAY
 70
     0
  0
APPID
  5
166E
330
8
100
AcDbSymbolTableRecord
100
AcDbRegAppTableRecord
  2
AcadAnnotative
 70
     0
  0
APPID
  5
166F
330
8
100
AcDbSymbolTableRecord
100
AcDbRegAppTableRecord
  2
GradientColor1ACI
 70
     0
  0
APPID
  5
1670
330
8
100
AcDbSymbolTableRecord
100
AcDbRegAppTableRecord
  2
GradientColor2ACI
 70
     0
  0
APPID
  5
20FE
330
8
100
AcDbSymbolTableRecord
100
AcDbRegAppTableRecord
  2
AcLayerTools
 70
     0
  0
APPID
  5
27AB
330
8
100
AcDbSymbolTableRecord
100
AcDbRegAppTableRecord
  2
ACAD_DSTYLE_DIMRADIAL_EXTENSION
 70
     0
  0
APPID
  5
4342
330
8
100
AcDbSymbolTableRecord
100
AcDbRegAppTableRecord
  2
AcadAnnoAV
 70
     0
  0
APPID
  5
6AC5
330
8
100
AcDbSymbolTableRecord
100
AcDbRegAppTableRecord
  2
PLOTTRANSPARENCY
 70
     0
  0
APPID
  5
6AD8
330
8
100
AcDbSymbolTableRecord
100
AcDbRegAppTableRecord
  2
AcCmTransparency
 70
     0
  0
APPID
  5
7336
330
8
100
AcDbSymbolTableRecord
100
AcDbRegAppTableRecord
  2
HATCHBACKGROUNDCOLOR
 70
     0
  0
ENDTAB
  0
TABLE
  2
DIMSTYLE
  5
9
330
0
100
AcDbSymbolTable
 70
     1
100
AcDbDimStyleTable
  0
DIMSTYLE
105
56
102
{ACAD_REACTORS
330
7105
330
7118
330
7127
330
7136
330
716A
330
71A9
330
71B8
330
71D6
330
71EA
330
71F7
330
7239
330
7248
330
727A
330
72EF
330
7301
330
7317
102
}
330
9
100
AcDbSymbolTableRecord
100
AcDbDimStyleTableRecord
  2
tform線あり
 70
     0
  3
<>
  4
[]
 41
9.999389648437498
 42
25.0
 43
0.9999999999999999
 44
0.0
 73
     0
 74
     0
 77
     1
 78
    11
140
24.4326171875
141
0.0
143
1.0
146
0.8
147
10.0
171
     1
172
     1
174
     1
178
     0
179
     2
271
     0
272
     1
276
     2
284
    11
285
    11
286
    11
289
     0
340
39
341
4E
342
4E
  0
ENDTAB
  0
TABLE
  2
BLOCK_RECORD
  5
1
330
0
100
AcDbSymbolTable
 70
    26
  0
BLOCK_RECORD
  5
A
102
{ACAD_XDICTIONARY
360
6587
102
}
330
1
100
AcDbSymbolTableRecord
100
AcDbBlockTableRecord
  2
*MODEL_SPACE
340
20
 70
     0
280
     1
281
     0
  0
BLOCK_RECORD
  5
B
330
1
100
AcDbSymbolTableRecord
100
AcDbBlockTableRecord
  2
*PAPER_SPACE
340
21
 70
     0
280
     1
281
     0
  0
BLOCK_RECORD
  5
4E
330
1
100
AcDbSymbolTableRecord
100
AcDbBlockTableRecord
  2
_DOT
340
0
102
{BLKREFS
331
710F
331
7110
331
7121
331
7122
331
7130
331
7131
331
713D
331
713E
331
7173
331
7174
331
71B2
331
71B3
331
71C1
331
71C2
331
71DD
331
71DE
331
71F1
331
71F2
331
7200
331
7201
331
7242
331
7243
331
7251
331
7252
331
7283
331
7284
331
72F9
331
72FA
331
730A
331
730B
331
731E
331
731F
102
}
 70
     0
280
     1
281
     0
  0
BLOCK_RECORD
  5
3A5
330
1
100
AcDbSymbolTableRecord
100
AcDbBlockTableRecord
  2
名称未設定-1
340
0
102
{BLKREFS
331
3D0
102
}
 70
     1
280
     1
281
     0
  0
BLOCK_RECORD
  5
3A8
330
1
100
AcDbSymbolTableRecord
100
AcDbBlockTableRecord
  2
block 2
340
0
102
{BLKREFS
331
3A7
102
}
 70
     0
280
     1
281
     0
  0
BLOCK_RECORD
  5
3AB
330
1
100
AcDbSymbolTableRecord
100
AcDbBlockTableRecord
  2
block 3
340
0
102
{BLKREFS
331
3AA
102
}
 70
     0
280
     1
281
     0
  0
BLOCK_RECORD
  5
3AE
330
1
100
AcDbSymbolTableRecord
100
AcDbBlockTableRecord
  2
block 4
340
0
102
{BLKREFS
331
3AD
102
}
 70
     0
280
     1
281
     0
  0
BLOCK_RECORD
  5
3BD
330
1
100
AcDbSymbolTableRecord
100
AcDbBlockTableRecord
  2
block 5
340
0
102
{BLKREFS
331
3BC
102
}
 70
     0
280
     1
281
     0
  0
BLOCK_RECORD
  5
11F0
330
1
100
AcDbSymbolTableRecord
100
AcDbBlockTableRecord
  2
BLOCK_2
340
0
102
{BLKREFS
331
1273
331
127B
331
127C
102
}
 70
     0
280
     1
281
     0
  0
BLOCK_RECORD
  5
38B6
330
1
100
AcDbSymbolTableRecord
100
AcDbBlockTableRecord
  2
mobile_latù
340
0
310
2800000020000000200000000100080000000000000400000000000000000000000000000000000000000000000080000080000000808000800000008000800080800000C0C0C000C0DCC000F0CAA6000020400000206000002080000020A0000020C0000020E00000400000004020000040400000406000004080000040A0
310
000040C0000040E00000600000006020000060400000606000006080000060A0000060C0000060E00000800000008020000080400000806000008080000080A0000080C0000080E00000A0000000A0200000A0400000A0600000A0800000A0A00000A0C00000A0E00000C0000000C0200000C0400000C0600000C0800000C0
310
A00000C0C00000C0E00000E0000000E0200000E0400000E0600000E0800000E0A00000E0C00000E0E00040000000400020004000400040006000400080004000A0004000C0004000E00040200000402020004020400040206000402080004020A0004020C0004020E000404000004040200040404000404060004040800040
310
40A0004040C0004040E00040600000406020004060400040606000406080004060A0004060C0004060E00040800000408020004080400040806000408080004080A0004080C0004080E00040A0000040A0200040A0400040A0600040A0800040A0A00040A0C00040A0E00040C0000040C0200040C0400040C0600040C08000
310
40C0A00040C0C00040C0E00040E0000040E0200040E0400040E0600040E0800040E0A00040E0C00040E0E00080000000800020008000400080006000800080008000A0008000C0008000E00080200000802020008020400080206000802080008020A0008020C0008020E00080400000804020008040400080406000804080
310
008040A0008040C0008040E00080600000806020008060400080606000806080008060A0008060C0008060E00080800000808020008080400080806000808080008080A0008080C0008080E00080A0000080A0200080A0400080A0600080A0800080A0A00080A0C00080A0E00080C0000080C0200080C0400080C0600080C0
310
800080C0A00080C0C00080C0E00080E0000080E0200080E0400080E0600080E0800080E0A00080E0C00080E0E000C0000000C0002000C0004000C0006000C0008000C000A000C000C000C000E000C0200000C0202000C0204000C0206000C0208000C020A000C020C000C020E000C0400000C0402000C0404000C0406000C0
310
408000C040A000C040C000C040E000C0600000C0602000C0604000C0606000C0608000C060A000C060C000C060E000C0800000C0802000C0804000C0806000C0808000C080A000C080C000C080E000C0A00000C0A02000C0A04000C0A06000C0A08000C0A0A000C0A0C000C0A0E000C0C00000C0C02000C0C04000C0C06000
310
C0C08000C0C0A000F0FBFF00A4A0A000808080000000FF0000FF000000FFFF00FF000000FF00FF00FFFF0000FFFFFF0049494949494949494949494949494949494949494949494949494949494949494949494949494949494949494949494949494949494949494949494949494949494949494949494949494949494949
310
49494949494949494949494949494949494949494949494949494949494949494949494949494949494949494949494949494949494949494949494949494949494949494949494949494949494949494949FAFAFAFAFAFAFAFAFAFAFAFAFAFAFAFAFAFAFAFAFAFAFAFAFAFAFAFAFAFA4949FAFA4949494949494949494949
310
494949494949494949494949494949FAFA4949FAFA4949494949494949494949494949494949494949494949494949FAFA4949FAFA4949494949494949494949494949494949494949494949494949FAFA4949FAFA4949494949494949494949494949494949494949494949494949FAFA4949FAFA49494949494949494949
310
49494949494949494949494949494949FAFA4949FAFA4949494949494949494949494949494949494949494949494949FAFA4949FAFA4949494949494949494949494949494949494949494949494949FAFA4949FAFA4949494949494949494949494949494949494949494949494949FAFA4949FAFA494949494949494949
310
4949494949494949494949494949494949FAFA4949FAFA4949494949494949494949494949494949494949494949494949FAFA4949FAFA4949494949494949494949494949494949494949494949494949FAFA4949FAFA4949494949494949494949494949494949494949494949494949FAFA4949FAFA4949494949494949
310
494949494949494949494949494949494949FAFA4949FAFA4949494949494949494949494949494949494949494949494949FAFA4949FAFA4949494949494949494949494949494949494949494949494949FAFA4949FAFA4949494949494949494949494949494949494949494949494949FAFA4949FAFA49494949494949
310
49494949494949494949494949494949494949FAFA4949FAFAFAFAFAFAFAFAFAFAFAFAFAFAFAFAFAFAFAFAFAFAFAFAFAFAFAFAFAFA4949FAFAFAFAFAFAFAFAFAFAFAFAFAFAFAFAFAFAFAFAFAFAFAFAFAFAFAFAFAFA4949FAFA4949494949494949494949494949494949494949494949494949FAFA4949FAFAFAFAFAFAFAFA
310
FAFAFAFAFAFAFAFAFAFAFAFAFAFAFAFAFAFAFAFAFAFA494949494949494949494949494949494949494949494949494949494949494949494949494949494949494949494949494949494949494949494949494949494949494949494949494949494949494949494949494949494949494949494949494949494949494949
310
4949494949494949494949494949494949494949494949494949494949494949494949494949494949494949494949494949494949494949
102
{BLKREFS
331
3B99
331
45C2
102
}
 70
     4
280
     1
281
     0
  0
BLOCK_RECORD
  5
436B
330
1
100
AcDbSymbolTableRecord
100
AcDbBlockTableRecord
  2
.TD_SECTION_1
340
0
102
{BLKREFS
331
45C3
331
45C5
331
45C7
331
45C9
331
45CB
331
45CD
331
4611
102
}
 70
     0
280
     1
281
     0
  0
BLOCK_RECORD
  5
436F
330
1
100
AcDbSymbolTableRecord
100
AcDbBlockTableRecord
  2
.TD_SECTION_2
340
0
102
{BLKREFS
331
45C4
331
45C6
331
45C8
331
45CA
331
45CC
331
45CE
331
4612
102
}
 70
     0
280
     1
281
     0
  0
BLOCK_RECORD
  5
7106
330
1
100
AcDbSymbolTableRecord
100
AcDbBlockTableRecord
  2
*D10
340
0
 70
     0
280
     1
281
     0
  0
BLOCK_RECORD
  5
711B
330
1
100
AcDbSymbolTableRecord
100
AcDbBlockTableRecord
  2
*D11
340
0
 70
     0
280
     1
281
     0
  0
BLOCK_RECORD
  5
712A
330
1
100
AcDbSymbolTableRecord
100
AcDbBlockTableRecord
  2
*D12
340
0
 70
     0
280
     1
281
     0
  0
BLOCK_RECORD
  5
7137
330
1
100
AcDbSymbolTableRecord
100
AcDbBlockTableRecord
  2
*D13
340
0
 70
     0
280
     1
281
     0
  0
BLOCK_RECORD
  5
716D
330
1
100
AcDbSymbolTableRecord
100
AcDbBlockTableRecord
  2
*D14
340
0
 70
     0
280
     1
281
     0
  0
BLOCK_RECORD
  5
71AC
330
1
100
AcDbSymbolTableRecord
100
AcDbBlockTableRecord
  2
*D15
340
0
 70
     0
280
     1
281
     0
  0
BLOCK_RECORD
  5
71BB
330
1
100
AcDbSymbolTableRecord
100
AcDbBlockTableRecord
  2
*D16
340
0
 70
     0
280
     1
281
     0
  0
BLOCK_RECORD
  5
71D7
330
1
100
AcDbSymbolTableRecord
100
AcDbBlockTableRecord
  2
*D17
340
0
 70
     0
280
     1
281
     0
  0
BLOCK_RECORD
  5
71EB
330
1
100
AcDbSymbolTableRecord
100
AcDbBlockTableRecord
  2
*D18
340
0
 70
     0
280
     1
281
     0
  0
BLOCK_RECORD
  5
71FA
330
1
100
AcDbSymbolTableRecord
100
AcDbBlockTableRecord
  2
*D19
340
0
 70
     0
280
     1
281
     0
  0
BLOCK_RECORD
  5
723C
330
1
100
AcDbSymbolTableRecord
100
AcDbBlockTableRecord
  2
*D20
340
0
 70
     0
280
     1
281
     0
  0
BLOCK_RECORD
  5
724B
330
1
100
AcDbSymbolTableRecord
100
AcDbBlockTableRecord
  2
*D21
340
0
 70
     0
280
     1
281
     0
  0
BLOCK_RECORD
  5
727D
330
1
100
AcDbSymbolTableRecord
100
AcDbBlockTableRecord
  2
*D22
340
0
 70
     0
280
     1
281
     0
  0
BLOCK_RECORD
  5
72F0
330
1
100
AcDbSymbolTableRecord
100
AcDbBlockTableRecord
  2
*D23
340
0
 70
     0
280
     1
281
     0
  0
BLOCK_RECORD
  5
7304
330
1
100
AcDbSymbolTableRecord
100
AcDbBlockTableRecord
  2
*D24
340
0
 70
     0
280
     1
281
     0
  0
BLOCK_RECORD
  5
7318
330
1
100
AcDbSymbolTableRecord
100
AcDbBlockTableRecord
  2
*D25
340
0
 70
     0
280
     1
281
     0
  0
ENDTAB
  0
ENDSEC
  0
SECTION
  2
BLOCKS
  0
BLOCK
  5
D
330
A
100
AcDbEntity
  8
0
390
1D
100
AcDbBlockBegin
  2
*MODEL_SPACE
 70
     0
 10
0.0
 20
0.0
 30
0.0
  3
*MODEL_SPACE
  1
*MODEL_SPACE
  0
ENDBLK
  5
E
330
A
100
AcDbEntity
  8
0
390
1D
100
AcDbBlockEnd
  0
BLOCK
  5
F
330
B
100
AcDbEntity
 67
     1
  8
0
390
1D
100
AcDbBlockBegin
  2
*PAPER_SPACE
 70
     0
 10
0.0
 20
0.0
 30
0.0
  3
*PAPER_SPACE
  1
*PAPER_SPACE
  0
ENDBLK
  5
10
330
B
100
AcDbEntity
 67
     1
  8
0
390
1D
100
AcDbBlockEnd
  0
BLOCK
  5
490E
330
4E
100
AcDbEntity
  8
0
390
1D
100
AcDbBlockBegin
  2
_DOT
 70
     0
 10
0.0
 20
0.0
 30
0.0
  3
_DOT
  1
_DOT
  0
POLYLINE
  5
4910
330
4E
100
AcDbEntity
  8
0
  6
ByBlock
 62
     0
370
    -2
390
1D
100
AcDb2dPolyline
 66
     1
 10
0.0
 20
0.0
 30
0.0
 70
     1
 40
0.5
 41
0.5
  0
VERTEX
  5
4911
330
4910
100
AcDbEntity
  8
0
  6
ByBlock
 62
     0
370
    -2
390
1D
100
AcDbVertex
100
AcDb2dVertex
 10
-0.25
 20
0.0
 30
0.0
 42
1.0
  0
VERTEX
  5
4912
330
4910
100
AcDbEntity
  8
0
  6
ByBlock
 62
     0
370
    -2
390
1D
100
AcDbVertex
100
AcDb2dVertex
 10
0.25
 20
0.0
 30
0.0
 42
1.0
  0
SEQEND
  5
4913
330
4910
100
AcDbEntity
  8
0
390
1D
  0
LINE
  5
4914
330
4E
100
AcDbEntity
  8
0
  6
ByBlock
 62
     0
370
    -2
390
1D
100
AcDbLine
 10
-0.5
 20
0.0
 30
0.0
 11
-1.0
 21
0.0
 31
0.0
  0
ENDBLK
  5
4915
330
4E
100
AcDbEntity
  8
0
390
1D
100
AcDbBlockEnd
  0
BLOCK
  5
3A6
330
3A5
100
AcDbEntity
  8
0
100
AcDbBlockBegin
  2
名称未設定-1
 70
     0
 10
0.0
 20
0.0
 30
0.0
  3
名称未設定-1
  1
名称未設定-1
  0
INSERT
  5
3A7
330
3A5
100
AcDbEntity
  8
レイヤー 1
100
AcDbBlockReference
  2
block 2
 10
0.0
 20
0.0
 30
0.0
  0
ENDBLK
  5
3CC
330
3A5
100
AcDbEntity
  8
0
100
AcDbBlockEnd
  0
BLOCK
  5
3A9
330
3A8
100
AcDbEntity
  8
0
100
AcDbBlockBegin
  2
block 2
 70
     0
 10
0.0
 20
0.0
 30
0.0
  3
block 2
  1
block 2
  0
INSERT
  5
3AA
330
3A8
100
AcDbEntity
  8
レイヤー 1
100
AcDbBlockReference
  2
block 3
 10
0.0
 20
0.0
 30
0.0
  0
ENDBLK
  5
3CB
330
3A8
100
AcDbEntity
  8
0
100
AcDbBlockEnd
  0
BLOCK
  5
3AC
330
3AB
100
AcDbEntity
  8
0
100
AcDbBlockBegin
  2
block 3
 70
     0
 10
0.0
 20
0.0
 30
0.0
  3
block 3
  1
block 3
  0
INSERT
  5
3AD
330
3AB
100
AcDbEntity
  8
レイヤー 1
100
AcDbBlockReference
  2
block 4
 10
0.0
 20
0.0
 30
0.0
  0
ENDBLK
  5
3CA
330
3AB
100
AcDbEntity
  8
0
100
AcDbBlockEnd
  0
BLOCK
  5
3AF
330
3AE
100
AcDbEntity
  8
0
100
AcDbBlockBegin
  2
block 4
 70
     0
 10
0.0
 20
0.0
 30
0.0
  3
block 4
  1
block 4
  0
POLYLINE
  5
3B0
330
3AE
100
AcDbEntity
  8
レイヤー 1
370
     0
100
AcDb2dPolyline
 66
     1
 10
0.0
 20
0.0
 30
0.0
  0
VERTEX
  5
3B1
330
3B0
100
AcDbEntity
  8
レイヤー 1
370
     0
100
AcDbVertex
100
AcDb2dVertex
 10
83.79545727667795
 20
167.6444858234922
 30
0.0
  0
VERTEX
  5
3B2
330
3B0
100
AcDbEntity
  8
レイヤー 1
370
     0
100
AcDbVertex
100
AcDb2dVertex
 10
83.79545727667795
 20
159.7968976406313
 30
0.0
  0
VERTEX
  5
3B3
330
3B0
100
AcDbEntity
  8
レイヤー 1
370
     0
100
AcDbVertex
100
AcDb2dVertex
 10
71.3631329975216
 20
159.7968976406313
 30
0.0
  0
VERTEX
  5
3B4
330
3B0
100
AcDbEntity
  8
レイヤー 1
370
     0
100
AcDbVertex
100
AcDb2dVertex
 10
71.3631329975216
 20
127.8027915271048
 30
0.0
  0
VERTEX
  5
3B5
330
3B0
100
AcDbEntity
  8
レイヤー 1
370
     0
100
AcDbVertex
100
AcDb2dVertex
 10
60.43011526263018
 20
127.8027915271048
 30
0.0
  0
VERTEX
  5
3B6
330
3B0
100
AcDbEntity
  8
レイヤー 1
370
     0
100
AcDbVertex
100
AcDb2dVertex
 10
60.43011526263018
 20
159.7968976406313
 30
0.0
  0
VERTEX
  5
3B7
330
3B0
100
AcDbEntity
  8
レイヤー 1
370
     0
100
AcDbVertex
100
AcDb2dVertex
 10
48.21793273020759
 20
159.7968976406313
 30
0.0
  0
VERTEX
  5
3B8
330
3B0
100
AcDbEntity
  8
レイヤー 1
370
     0
100
AcDbVertex
100
AcDb2dVertex
 10
48.21793273020759
 20
167.6444858234922
 30
0.0
  0
VERTEX
  5
3B9
330
3B0
100
AcDbEntity
  8
レイヤー 1
370
     0
100
AcDbVertex
100
AcDb2dVertex
 10
83.79545727667795
 20
167.6444858234922
 30
0.0
  0
SEQEND
  5
3BA
330
3B0
100
AcDbEntity
  8
レイヤー 1
370
     0
  0
HATCH
  5
3BB
330
3AE
100
AcDbEntity
  8
レイヤー 1
 62
   250
420
  2234388
100
AcDbHatch
 10
0.0
 20
0.0
 30
0.0
210
0.0
220
0.0
230
1.0
  2
SOLID
 70
     1
 71
     0
 91
        1
 92
        1
 93
        8
 72
     1
 10
83.79545727667795
 20
167.6444858234922
 11
83.79545727667795
 21
159.7968976406313
 72
     1
 10
83.79545727667795
 20
159.7968976406313
 11
71.3631329975216
 21
159.7968976406313
 72
     1
 10
71.3631329975216
 20
159.7968976406313
 11
71.3631329975216
 21
127.8027915271048
 72
     1
 10
71.3631329975216
 20
127.8027915271048
 11
60.43011526263018
 21
127.8027915271048
 72
     1
 10
60.43011526263018
 20
127.8027915271048
 11
60.43011526263018
 21
159.7968976406313
 72
     1
 10
60.43011526263018
 20
159.7968976406313
 11
48.21793273020759
 21
159.7968976406313
 72
     1
 10
48.21793273020759
 20
159.7968976406313
 11
48.21793273020759
 21
167.6444858234922
 72
     1
 10
48.21793273020759
 20
167.6444858234922
 11
83.79545727667795
 21
167.6444858234922
 97
        0
 75
     2
 76
     1
 98
        0
  0
INSERT
  5
3BC
330
3AE
100
AcDbEntity
  8
レイヤー 1
100
AcDbBlockReference
  2
block 5
 10
0.0
 20
0.0
 30
0.0
  0
ENDBLK
  5
3C9
330
3AE
100
AcDbEntity
  8
0
100
AcDbBlockEnd
  0
BLOCK
  5
3BE
330
3BD
100
AcDbEntity
  8
0
100
AcDbBlockBegin
  2
block 5
 70
     0
 10
0.0
 20
0.0
 30
0.0
  3
block 5
  1
block 5
  0
SPLINE
  5
3BF
330
3BD
100
AcDbEntity
  8
レイヤー 1
370
     0
100
AcDbSpline
210
0.0
220
0.0
230
1.0
 70
    11
 71
     3
 72
    56
 73
    52
 74
     0
 42
0.000000001
 43
0.0000000001
 40
0.0
 40
0.0
 40
0.0
 40
0.0
 40
1.0
 40
1.0
 40
1.0
 40
2.0
 40
2.0
 40
2.0
 40
3.0
 40
3.0
 40
3.0
 40
4.0
 40
4.0
 40
4.0
 40
5.0
 40
5.0
 40
5.0
 40
6.0
 40
6.0
 40
6.0
 40
7.0
 40
7.0
 40
7.0
 40
8.0
 40
8.0
 40
8.0
 40
9.0
 40
9.0
 40
9.0
 40
10.0
 40
10.0
 40
10.0
 40
11.0
 40
11.0
 40
11.0
 40
12.0
 40
12.0
 40
12.0
 40
13.0
 40
13.0
 40
13.0
 40
14.0
 40
14.0
 40
14.0
 40
15.0
 40
15.0
 40
15.0
 40
16.0
 40
16.0
 40
16.0
 40
17.0
 40
17.0
 40
17.0
 40
17.0
 10
100.4504378777679
 20
166.69157178364
 30
0.0
 10
101.9848844191641
 20
167.1313385124438
 30
0.0
 10
103.9637485713373
 20
166.7649523658846
 30
0.0
 10
103.9637485713373
 20
166.7649523658846
 30
0.0
 10
103.9637485713373
 20
166.7649523658846
 30
0.0
 10
103.0132460999156
 20
163.911205638077
 30
0.0
 10
103.0132460999156
 20
163.911205638077
 30
0.0
 10
103.0132460999156
 20
163.911205638077
 30
0.0
 10
101.0674548862189
 20
164.3601018759394
 30
0.0
 10
99.57090442016032
 20
163.1805004036133
 30
0.0
 10
98.40508333886608
 20
162.258247733807
 30
0.0
 10
97.65301849830304
 20
159.804132345923
 30
0.0
 10
97.3598406791005
 20
158.8699940888517
 30
0.0
 10
97.3598406791005
 20
158.8699940888517
 30
0.0
 10
96.07137411762282
 20
154.9119212747295
 30
0.0
 10
96.07137411762282
 20
154.9119212747295
 30
0.0
 10
96.07137411762282
 20
154.9119212747295
 30
0.0
 10
100.3012651448482
 20
154.9119212747295
 30
0.0
 10
100.3012651448482
 20
154.9119212747295
 30
0.0
 10
100.3012651448482
 20
154.9119212747295
 30
0.0
 10
99.64152892419852
 20
152.4199098115079
 30
0.0
 10
99.64152892419852
 20
152.4199098115079
 30
0.0
 10
99.64152892419852
 20
152.4199098115079
 30
0.0
 10
95.38097652692731
 20
152.4199098115079
 30
0.0
 10
95.38097652692731
 20
152.4199098115079
 30
0.0
 10
95.38097652692731
 20
152.4199098115079
 30
0.0
 10
87.75353009080013
 20
127.8027915271048
 30
0.0
 10
87.75353009080013
 20
127.8027915271048
 30
0.0
 10
87.75353009080013
 20
127.8027915271048
 30
0.0
 10
85.36538832498108
 20
127.8027915271048
 30
0.0
 10
85.36538832498108
 20
127.8027915271048
 30
0.0
 10
85.36538832498108
 20
127.8027915271048
 30
0.0
 10
93.00006946639998
 20
152.4199098115079
 30
0.0
 10
93.00006946639998
 20
152.4199098115079
 30
0.0
 10
93.00006946639998
 20
152.4199098115079
 30
0.0
 10
89.85297266450198
 20
152.4199098115079
 30
0.0
 10
89.85297266450198
 20
152.4199098115079
 30
0.0
 10
89.85297266450198
 20
152.4199098115079
 30
0.0
 10
90.51270888515164
 20
154.9119212747295
 30
0.0
 10
90.51270888515164
 20
154.9119212747295
 30
0.0
 10
90.51270888515164
 20
154.9119212747295
 30
0.0
 10
93.6904670570955
 20
154.9119212747295
 30
0.0
 10
93.6904670570955
 20
154.9119212747295
 30
0.0
 10
93.6904670570955
 20
154.9119212747295
 30
0.0
 10
94.81598049462158
 20
158.3616699146644
 30
0.0
 10
94.81598049462158
 20
158.3616699146644
 30
0.0
 10
95.7237637538445
 20
161.2605474231013
 30
0.0
 10
96.4968436907311
 20
162.8139420021662
 30
0.0
 10
97.15657991138076
 20
163.9844139654337
 30
0.0
 10
97.81183750494507
 20
165.1523021053827
 30
0.0
 10
99.1047826935081
 20
166.3084769129547
 30
0.0
 10
100.4504378777679
 20
166.69157178364
 30
0.0
  0
HATCH
  5
3C0
330
3BD
100
AcDbEntity
  8
レイヤー 1
 62
   250
420
  2234388
100
AcDbHatch
 10
0.0
 20
0.0
 30
0.0
210
0.0
220
0.0
230
1.0
  2
SOLID
 70
     1
 71
     0
 91
        1
 92
        1
 93
        1
 72
     4
 94
        3
 73
     0
 74
     1
 95
       56
 96
       52
 40
0.0
 40
0.0
 40
0.0
 40
0.0
 40
1.0
 40
1.0
 40
1.0
 40
2.0
 40
2.0
 40
2.0
 40
3.0
 40
3.0
 40
3.0
 40
4.0
 40
4.0
 40
4.0
 40
5.0
 40
5.0
 40
5.0
 40
6.0
 40
6.0
 40
6.0
 40
7.0
 40
7.0
 40
7.0
 40
8.0
 40
8.0
 40
8.0
 40
9.0
 40
9.0
 40
9.0
 40
10.0
 40
10.0
 40
10.0
 40
11.0
 40
11.0
 40
11.0
 40
12.0
 40
12.0
 40
12.0
 40
13.0
 40
13.0
 40
13.0
 40
14.0
 40
14.0
 40
14.0
 40
15.0
 40
15.0
 40
15.0
 40
16.0
 40
16.0
 40
16.0
 40
17.0
 40
17.0
 40
17.0
 40
17.0
 10
100.4504378777679
 20
166.69157178364
 10
101.9848844191641
 20
167.1313385124438
 10
103.9637485713373
 20
166.7649523658846
 10
103.9637485713373
 20
166.7649523658846
 10
103.9637485713373
 20
166.7649523658846
 10
103.0132460999156
 20
163.911205638077
 10
103.0132460999156
 20
163.911205638077
 10
103.0132460999156
 20
163.911205638077
 10
101.0674548862189
 20
164.3601018759394
 10
99.57090442016032
 20
163.1805004036133
 10
98.40508333886608
 20
162.258247733807
 10
97.65301849830304
 20
159.804132345923
 10
97.3598406791005
 20
158.8699940888517
 10
97.3598406791005
 20
158.8699940888517
 10
96.07137411762282
 20
154.9119212747295
 10
96.07137411762282
 20
154.9119212747295
 10
96.07137411762282
 20
154.9119212747295
 10
100.3012651448482
 20
154.9119212747295
 10
100.3012651448482
 20
154.9119212747295
 10
100.3012651448482
 20
154.9119212747295
 10
99.64152892419852
 20
152.4199098115079
 10
99.64152892419852
 20
152.4199098115079
 10
99.64152892419852
 20
152.4199098115079
 10
95.38097652692731
 20
152.4199098115079
 10
95.38097652692731
 20
152.4199098115079
 10
95.38097652692731
 20
152.4199098115079
 10
87.75353009080013
 20
127.8027915271048
 10
87.75353009080013
 20
127.8027915271048
 10
87.75353009080013
 20
127.8027915271048
 10
85.36538832498108
 20
127.8027915271048
 10
85.36538832498108
 20
127.8027915271048
 10
85.36538832498108
 20
127.8027915271048
 10
93.00006946639998
 20
152.4199098115079
 10
93.00006946639998
 20
152.4199098115079
 10
93.00006946639998
 20
152.4199098115079
 10
89.85297266450198
 20
152.4199098115079
 10
89.85297266450198
 20
152.4199098115079
 10
89.85297266450198
 20
152.4199098115079
 10
90.51270888515164
 20
154.9119212747295
 10
90.51270888515164
 20
154.9119212747295
 10
90.51270888515164
 20
154.9119212747295
 10
93.6904670570955
 20
154.9119212747295
 10
93.6904670570955
 20
154.9119212747295
 10
93.6904670570955
 20
154.9119212747295
 10
94.81598049462158
 20
158.3616699146644
 10
94.81598049462158
 20
158.3616699146644
 10
95.7237637538445
 20
161.2605474231013
 10
96.4968436907311
 20
162.8139420021662
 10
97.15657991138076
 20
163.9844139654337
 10
97.81183750494507
 20
165.1523021053827
 10
99.1047826935081
 20
166.3084769129547
 10
100.4504378777679
 20
166.69157178364
 97
        0
 75
     2
 76
     1
 98
        0
  0
SPLINE
  5
3C1
330
3BD
100
AcDbEntity
  8
レイヤー 1
370
     0
100
AcDbSpline
210
0.0
220
0.0
230
1.0
 70
    11
 71
     3
 72
    38
 73
    34
 74
     0
 42
0.000000001
 43
0.0000000001
 40
0.0
 40
0.0
 40
0.0
 40
0.0
 40
1.0
 40
1.0
 40
1.0
 40
2.0
 40
2.0
 40
2.0
 40
3.0
 40
3.0
 40
3.0
 40
4.0
 40
4.0
 40
4.0
 40
5.0
 40
5.0
 40
5.0
 40
6.0
 40
6.0
 40
6.0
 40
7.0
 40
7.0
 40
7.0
 40
8.0
 40
8.0
 40
8.0
 40
9.0
 40
9.0
 40
9.0
 40
10.0
 40
10.0
 40
10.0
 40
11.0
 40
11.0
 40
11.0
 40
11.0
 10
126.377554584636
 20
154.8151140277308
 30
0.0
 10
126.377554584636
 20
154.8151140277308
 30
0.0
 10
128.8311532078563
 20
154.8151140277308
 30
0.0
 10
128.8311532078563
 20
154.8151140277308
 30
0.0
 10
128.8311532078563
 20
154.8151140277308
 30
0.0
 10
127.7345785914971
 20
151.3062819612468
 30
0.0
 10
127.7345785914971
 20
151.3062819612468
 30
0.0
 10
128.571392836906
 20
152.2922689395754
 30
0.0
 10
129.8860421413442
 20
153.604506675583
 30
0.0
 10
131.0163787157314
 20
154.2664822097754
 30
0.0
 10
132.7044766171327
 20
155.2500576196734
 30
0.0
 10
133.6642808525008
 20
155.3847609420097
 30
0.0
 10
134.7284715499351
 20
155.3565111403944
 30
0.0
 10
134.7284715499351
 20
155.3565111403944
 30
0.0
 10
133.6877075172549
 20
152.0345756272799
 30
0.0
 10
133.6877075172549
 20
152.0345756272799
 30
0.0
 10
133.011434827367
 20
152.3184516825359
 30
0.0
 10
130.930940291334
 20
151.7768823149844
 30
0.0
 10
129.739280976855
 20
150.9162968950455
 30
0.0
 10
128.66613302525
 20
150.1454562717016
 30
0.0
 10
127.9192358313239
 20
149.4857200510519
 30
0.0
 10
127.0393578639405
 20
147.8282835196966
 30
0.0
 10
126.164647543194
 20
146.1699857139017
 30
0.0
 10
125.4742499524985
 20
143.5262176944419
 30
0.0
 10
124.2822461282437
 20
139.6959580071401
 30
0.0
 10
124.2822461282437
 20
139.6959580071401
 30
0.0
 10
120.5753209406769
 20
127.8027915271048
 30
0.0
 10
120.5753209406769
 20
127.8027915271048
 30
0.0
 10
120.5753209406769
 20
127.8027915271048
 30
0.0
 10
118.1964809388044
 20
127.8027915271048
 30
0.0
 10
118.1964809388044
 20
127.8027915271048
 30
0.0
 10
118.1964809388044
 20
127.8027915271048
 30
0.0
 10
126.377554584636
 20
154.8151140277308
 30
0.0
 10
126.377554584636
 20
154.8151140277308
 30
0.0
  0
HATCH
  5
3C2
330
3BD
100
AcDbEntity
  8
レイヤー 1
 62
   250
420
  2234388
100
AcDbHatch
 10
0.0
 20
0.0
 30
0.0
210
0.0
220
0.0
230
1.0
  2
SOLID
 70
     1
 71
     0
 91
        1
 92
        1
 93
        1
 72
     4
 94
        3
 73
     0
 74
     1
 95
       38
 96
       34
 40
0.0
 40
0.0
 40
0.0
 40
0.0
 40
1.0
 40
1.0
 40
1.0
 40
2.0
 40
2.0
 40
2.0
 40
3.0
 40
3.0
 40
3.0
 40
4.0
 40
4.0
 40
4.0
 40
5.0
 40
5.0
 40
5.0
 40
6.0
 40
6.0
 40
6.0
 40
7.0
 40
7.0
 40
7.0
 40
8.0
 40
8.0
 40
8.0
 40
9.0
 40
9.0
 40
9.0
 40
10.0
 40
10.0
 40
10.0
 40
11.0
 40
11.0
 40
11.0
 40
11.0
 10
126.377554584636
 20
154.8151140277308
 10
126.377554584636
 20
154.8151140277308
 10
128.8311532078563
 20
154.8151140277308
 10
128.8311532078563
 20
154.8151140277308
 10
128.8311532078563
 20
154.8151140277308
 10
127.7345785914971
 20
151.3062819612468
 10
127.7345785914971
 20
151.3062819612468
 10
128.571392836906
 20
152.2922689395754
 10
129.8860421413442
 20
153.604506675583
 10
131.0163787157314
 20
154.2664822097754
 10
132.7044766171327
 20
155.2500576196734
 10
133.6642808525008
 20
155.3847609420097
 10
134.7284715499351
 20
155.3565111403944
 10
134.7284715499351
 20
155.3565111403944
 10
133.6877075172549
 20
152.0345756272799
 10
133.6877075172549
 20
152.0345756272799
 10
133.011434827367
 20
152.3184516825359
 10
130.930940291334
 20
151.7768823149844
 10
129.739280976855
 20
150.9162968950455
 10
128.66613302525
 20
150.1454562717016
 10
127.9192358313239
 20
149.4857200510519
 10
127.0393578639405
 20
147.8282835196966
 10
126.164647543194
 20
146.1699857139017
 10
125.4742499524985
 20
143.5262176944419
 10
124.2822461282437
 20
139.6959580071401
 10
124.2822461282437
 20
139.6959580071401
 10
120.5753209406769
 20
127.8027915271048
 10
120.5753209406769
 20
127.8027915271048
 10
120.5753209406769
 20
127.8027915271048
 10
118.1964809388044
 20
127.8027915271048
 10
118.1964809388044
 20
127.8027915271048
 10
118.1964809388044
 20
127.8027915271048
 10
126.377554584636
 20
154.8151140277308
 10
126.377554584636
 20
154.8151140277308
 97
        0
 75
     2
 76
     1
 98
        0
  0
SPLINE
  5
3C3
330
3BD
100
AcDbEntity
  8
レイヤー 1
370
     0
100
AcDbSpline
210
0.0
220
0.0
230
1.0
 70
    11
 71
     3
 72
   104
 73
   100
 74
     0
 42
0.000000001
 43
0.0000000001
 40
0.0
 40
0.0
 40
0.0
 40
0.0
 40
1.0
 40
1.0
 40
1.0
 40
2.0
 40
2.0
 40
2.0
 40
3.0
 40
3.0
 40
3.0
 40
4.0
 40
4.0
 40
4.0
 40
5.0
 40
5.0
 40
5.0
 40
6.0
 40
6.0
 40
6.0
 40
7.0
 40
7.0
 40
7.0
 40
8.0
 40
8.0
 40
8.0
 40
9.0
 40
9.0
 40
9.0
 40
10.0
 40
10.0
 40
10.0
 40
11.0
 40
11.0
 40
11.0
 40
12.0
 40
12.0
 40
12.0
 40
13.0
 40
13.0
 40
13.0
 40
14.0
 40
14.0
 40
14.0
 40
15.0
 40
15.0
 40
15.0
 40
16.0
 40
16.0
 40
16.0
 40
17.0
 40
17.0
 40
17.0
 40
18.0
 40
18.0
 40
18.0
 40
19.0
 40
19.0
 40
19.0
 40
20.0
 40
20.0
 40
20.0
 40
21.0
 40
21.0
 40
21.0
 40
22.0
 40
22.0
 40
22.0
 40
23.0
 40
23.0
 40
23.0
 40
24.0
 40
24.0
 40
24.0
 40
25.0
 40
25.0
 40
25.0
 40
26.0
 40
26.0
 40
26.0
 40
27.0
 40
27.0
 40
27.0
 40
28.0
 40
28.0
 40
28.0
 40
29.0
 40
29.0
 40
29.0
 40
30.0
 40
30.0
 40
30.0
 40
31.0
 40
31.0
 40
31.0
 40
32.0
 40
32.0
 40
32.0
 40
33.0
 40
33.0
 40
33.0
 40
33.0
 10
139.8926730891197
 20
154.8294111834263
 30
0.0
 10
139.8926730891197
 20
154.8294111834263
 30
0.0
 10
142.0344903652445
 20
154.8294111834263
 30
0.0
 10
142.0344903652445
 20
154.8294111834263
 30
0.0
 10
142.0344903652445
 20
154.8294111834263
 30
0.0
 10
140.9516961399171
 20
151.3157559800812
 30
0.0
 10
140.9516961399171
 20
151.3157559800812
 30
0.0
 10
141.8928968473923
 20
152.7887075264977
 30
0.0
 10
142.7341897198865
 20
153.4484437471474
 30
0.0
 10
143.8552245303272
 20
154.2926649527359
 30
0.0
 10
144.9803934580775
 20
155.1296514530327
 30
0.0
 10
146.3139908001845
 20
155.3044901642492
 30
0.0
 10
147.241066606852
 20
155.3044901642492
 30
0.0
 10
148.3855280820469
 20
155.3044901642492
 30
0.0
 10
149.4969166187653
 20
155.0752189084569
 30
0.0
 10
150.0784491203092
 20
153.8172414621372
 30
0.0
 10
150.5228667310863
 20
152.833838307127
 30
0.0
 10
150.5414702589793
 20
152.7201500811143
 30
0.0
 10
150.4140016419347
 20
150.7765981809602
 30
0.0
 10
151.5818897818837
 20
152.7699317437168
 30
0.0
 10
152.4424752018226
 20
153.6256940267945
 30
0.0
 10
153.9038856707499
 20
154.4507949398263
 30
0.0
 10
155.4455669174378
 20
155.3044901642492
 30
0.0
 10
156.339225275853
 20
155.3659851592288
 30
0.0
 10
157.3748216618963
 20
155.2147453676543
 30
0.0
 10
158.911679771723
 20
154.9877134254046
 30
0.0
 10
159.8859534176746
 20
154.4390816074493
 30
0.0
 10
160.3965169054045
 20
152.7816450760939
 30
0.0
 10
160.9070803931344
 20
151.1219692311958
 30
0.0
 10
160.6328506116007
 20
150.2303779314354
 30
0.0
 10
159.9992971339115
 20
147.597634224801
 30
0.0
 10
159.7105979417943
 20
146.4014962832367
 30
0.0
 10
159.2947746424084
 20
144.9400858143094
 30
0.0
 10
158.7463150793409
 20
143.2092687007094
 30
0.0
 10
158.7463150793409
 20
143.2092687007094
 30
0.0
 10
153.9038856707499
 20
127.8027915271048
 30
0.0
 10
153.9038856707499
 20
127.8027915271048
 30
0.0
 10
153.9038856707499
 20
127.8027915271048
 30
0.0
 10
151.3882752878863
 20
127.8027915271048
 30
0.0
 10
151.3882752878863
 20
127.8027915271048
 30
0.0
 10
151.3882752878863
 20
127.8027915271048
 30
0.0
 10
155.6250565106276
 20
141.2751908193897
 30
0.0
 10
155.6250565106276
 20
141.2751908193897
 30
0.0
 10
156.5094131050963
 20
144.0936252951782
 30
0.0
 10
157.109893644309
 20
146.1506931664571
 30
0.0
 10
157.4220195011804
 20
147.4415712963654
 30
0.0
 10
157.8095929989511
 20
149.0530157726519
 30
0.0
 10
157.9656559273867
 20
149.5826995529385
 30
0.0
 10
157.7816877071116
 20
150.7529992613181
 30
0.0
 10
157.6111553680925
 20
151.8430281919372
 30
0.0
 10
157.0582171779396
 20
152.5547853887321
 30
0.0
 10
156.1170164704645
 20
152.5547853887321
 30
0.0
 10
155.1096698860365
 20
152.5547853887321
 30
0.0
 10
154.2962823053817
 20
152.4412694176073
 30
0.0
 10
153.156643967048
 20
151.2945686288697
 30
0.0
 10
152.0170056287143
 20
150.1476955852443
 30
0.0
 10
151.076149431015
 20
148.7930831468137
 30
0.0
 10
150.3337308641742
 20
147.2290087646991
 30
0.0
 10
149.5957909244188
 20
145.6683794803425
 30
0.0
 10
148.8530278478023
 20
143.6822806228776
 30
0.0
 10
148.0964843801539
 20
141.2751908193897
 30
0.0
 10
148.0964843801539
 20
141.2751908193897
 30
0.0
 10
143.8552245303272
 20
127.8027915271048
 30
0.0
 10
143.8552245303272
 20
127.8027915271048
 30
0.0
 10
143.8552245303272
 20
127.8027915271048
 30
0.0
 10
141.486030802177
 20
127.8027915271048
 30
0.0
 10
141.486030802177
 20
127.8027915271048
 30
0.0
 10
141.486030802177
 20
127.8027915271048
 30
0.0
 10
146.3329388378533
 20
143.2092687007094
 30
0.0
 10
146.3329388378533
 20
143.2092687007094
 30
0.0
 10
146.8483254624444
 20
144.8408669988801
 30
0.0
 10
147.2314203331297
 20
146.1837661049335
 30
0.0
 10
147.4867020769946
 20
147.224185627838
 30
0.0
 10
147.9169947869641
 20
149.0197705792876
 30
0.0
 10
148.0306830129768
 20
150.2400242051577
 30
0.0
 10
147.709255392159
 20
151.3157559800812
 30
0.0
 10
147.3874832615654
 20
152.3916600098926
 30
0.0
 10
146.8245542879144
 20
152.6683013598569
 30
0.0
 10
145.8840425999909
 20
152.6683013598569
 30
0.0
 10
145.0989048209514
 20
152.6683013598569
 30
0.0
 10
144.3282364524954
 20
152.3275811915945
 30
0.0
 10
143.4531816219731
 20
151.6538923250251
 30
0.0
 10
142.34627171234
 20
150.8074318058939
 30
0.0
 10
141.901854101563
 20
150.1097995099067
 30
0.0
 10
141.3578731655808
 20
149.289521733736
 30
0.0
 10
140.6299240093235
 20
148.192602607601
 30
0.0
 10
140.2850697237515
 20
147.455696197173
 30
0.0
 10
139.6652966370942
 20
145.8385673095858
 30
0.0
 10
139.0506911970739
 20
144.2214384219986
 30
0.0
 10
138.463991048893
 20
142.3252566160164
 30
0.0
 10
138.0571250036777
 20
141.0154304484394
 30
0.0
 10
138.0571250036777
 20
141.0154304484394
 30
0.0
 10
133.9009590684727
 20
127.8027915271048
 30
0.0
 10
133.9009590684727
 20
127.8027915271048
 30
0.0
 10
133.9009590684727
 20
127.8027915271048
 30
0.0
 10
131.4180771143097
 20
127.8027915271048
 30
0.0
 10
131.4180771143097
 20
127.8027915271048
 30
0.0
 10
131.4180771143097
 20
127.8027915271048
 30
0.0
 10
139.8926730891197
 20
154.8294111834263
 30
0.0
 10
139.8926730891197
 20
154.8294111834263
 30
0.0
  0
HATCH
  5
3C4
330
3BD
100
AcDbEntity
  8
レイヤー 1
 62
   250
420
  2234388
100
AcDbHatch
 10
0.0
 20
0.0
 30
0.0
210
0.0
220
0.0
230
1.0
  2
SOLID
 70
     1
 71
     0
 91
        1
 92
        1
 93
        1
 72
     4
 94
        3
 73
     0
 74
     1
 95
      104
 96
      100
 40
0.0
 40
0.0
 40
0.0
 40
0.0
 40
1.0
 40
1.0
 40
1.0
 40
2.0
 40
2.0
 40
2.0
 40
3.0
 40
3.0
 40
3.0
 40
4.0
 40
4.0
 40
4.0
 40
5.0
 40
5.0
 40
5.0
 40
6.0
 40
6.0
 40
6.0
 40
7.0
 40
7.0
 40
7.0
 40
8.0
 40
8.0
 40
8.0
 40
9.0
 40
9.0
 40
9.0
 40
10.0
 40
10.0
 40
10.0
 40
11.0
 40
11.0
 40
11.0
 40
12.0
 40
12.0
 40
12.0
 40
13.0
 40
13.0
 40
13.0
 40
14.0
 40
14.0
 40
14.0
 40
15.0
 40
15.0
 40
15.0
 40
16.0
 40
16.0
 40
16.0
 40
17.0
 40
17.0
 40
17.0
 40
18.0
 40
18.0
 40
18.0
 40
19.0
 40
19.0
 40
19.0
 40
20.0
 40
20.0
 40
20.0
 40
21.0
 40
21.0
 40
21.0
 40
22.0
 40
22.0
 40
22.0
 40
23.0
 40
23.0
 40
23.0
 40
24.0
 40
24.0
 40
24.0
 40
25.0
 40
25.0
 40
25.0
 40
26.0
 40
26.0
 40
26.0
 40
27.0
 40
27.0
 40
27.0
 40
28.0
 40
28.0
 40
28.0
 40
29.0
 40
29.0
 40
29.0
 40
30.0
 40
30.0
 40
30.0
 40
31.0
 40
31.0
 40
31.0
 40
32.0
 40
32.0
 40
32.0
 40
33.0
 40
33.0
 40
33.0
 40
33.0
 10
139.8926730891197
 20
154.8294111834263
 10
139.8926730891197
 20
154.8294111834263
 10
142.0344903652445
 20
154.8294111834263
 10
142.0344903652445
 20
154.8294111834263
 10
142.0344903652445
 20
154.8294111834263
 10
140.9516961399171
 20
151.3157559800812
 10
140.9516961399171
 20
151.3157559800812
 10
141.8928968473923
 20
152.7887075264977
 10
142.7341897198865
 20
153.4484437471474
 10
143.8552245303272
 20
154.2926649527359
 10
144.9803934580775
 20
155.1296514530327
 10
146.3139908001845
 20
155.3044901642492
 10
147.241066606852
 20
155.3044901642492
 10
148.3855280820469
 20
155.3044901642492
 10
149.4969166187653
 20
155.0752189084569
 10
150.0784491203092
 20
153.8172414621372
 10
150.5228667310863
 20
152.833838307127
 10
150.5414702589793
 20
152.7201500811143
 10
150.4140016419347
 20
150.7765981809602
 10
151.5818897818837
 20
152.7699317437168
 10
152.4424752018226
 20
153.6256940267945
 10
153.9038856707499
 20
154.4507949398263
 10
155.4455669174378
 20
155.3044901642492
 10
156.339225275853
 20
155.3659851592288
 10
157.3748216618963
 20
155.2147453676543
 10
158.911679771723
 20
154.9877134254046
 10
159.8859534176746
 20
154.4390816074493
 10
160.3965169054045
 20
152.7816450760939
 10
160.9070803931344
 20
151.1219692311958
 10
160.6328506116007
 20
150.2303779314354
 10
159.9992971339115
 20
147.597634224801
 10
159.7105979417943
 20
146.4014962832367
 10
159.2947746424084
 20
144.9400858143094
 10
158.7463150793409
 20
143.2092687007094
 10
158.7463150793409
 20
143.2092687007094
 10
153.9038856707499
 20
127.8027915271048
 10
153.9038856707499
 20
127.8027915271048
 10
153.9038856707499
 20
127.8027915271048
 10
151.3882752878863
 20
127.8027915271048
 10
151.3882752878863
 20
127.8027915271048
 10
151.3882752878863
 20
127.8027915271048
 10
155.6250565106276
 20
141.2751908193897
 10
155.6250565106276
 20
141.2751908193897
 10
156.5094131050963
 20
144.0936252951782
 10
157.109893644309
 20
146.1506931664571
 10
157.4220195011804
 20
147.4415712963654
 10
157.8095929989511
 20
149.0530157726519
 10
157.9656559273867
 20
149.5826995529385
 10
157.7816877071116
 20
150.7529992613181
 10
157.6111553680925
 20
151.8430281919372
 10
157.0582171779396
 20
152.5547853887321
 10
156.1170164704645
 20
152.5547853887321
 10
155.1096698860365
 20
152.5547853887321
 10
154.2962823053817
 20
152.4412694176073
 10
153.156643967048
 20
151.2945686288697
 10
152.0170056287143
 20
150.1476955852443
 10
151.076149431015
 20
148.7930831468137
 10
150.3337308641742
 20
147.2290087646991
 10
149.5957909244188
 20
145.6683794803425
 10
148.8530278478023
 20
143.6822806228776
 10
148.0964843801539
 20
141.2751908193897
 10
148.0964843801539
 20
141.2751908193897
 10
143.8552245303272
 20
127.8027915271048
 10
143.8552245303272
 20
127.8027915271048
 10
143.8552245303272
 20
127.8027915271048
 10
141.486030802177
 20
127.8027915271048
 10
141.486030802177
 20
127.8027915271048
 10
141.486030802177
 20
127.8027915271048
 10
146.3329388378533
 20
143.2092687007094
 10
146.3329388378533
 20
143.2092687007094
 10
146.8483254624444
 20
144.8408669988801
 10
147.2314203331297
 20
146.1837661049335
 10
147.4867020769946
 20
147.224185627838
 10
147.9169947869641
 20
149.0197705792876
 10
148.0306830129768
 20
150.2400242051577
 10
147.709255392159
 20
151.3157559800812
 10
147.3874832615654
 20
152.3916600098926
 10
146.8245542879144
 20
152.6683013598569
 10
145.8840425999909
 20
152.6683013598569
 10
145.0989048209514
 20
152.6683013598569
 10
144.3282364524954
 20
152.3275811915945
 10
143.4531816219731
 20
151.6538923250251
 10
142.34627171234
 20
150.8074318058939
 10
141.901854101563
 20
150.1097995099067
 10
141.3578731655808
 20
149.289521733736
 10
140.6299240093235
 20
148.192602607601
 10
140.2850697237515
 20
147.455696197173
 10
139.6652966370942
 20
145.8385673095858
 10
139.0506911970739
 20
144.2214384219986
 10
138.463991048893
 20
142.3252566160164
 10
138.0571250036777
 20
141.0154304484394
 10
138.0571250036777
 20
141.0154304484394
 10
133.9009590684727
 20
127.8027915271048
 10
133.9009590684727
 20
127.8027915271048
 10
133.9009590684727
 20
127.8027915271048
 10
131.4180771143097
 20
127.8027915271048
 10
131.4180771143097
 20
127.8027915271048
 10
131.4180771143097
 20
127.8027915271048
 10
139.8926730891197
 20
154.8294111834263
 10
139.8926730891197
 20
154.8294111834263
 97
        0
 75
     2
 76
     1
 98
        0
  0
SPLINE
  5
3C5
330
3BD
100
AcDbEntity
  8
レイヤー 1
370
     0
100
AcDbSpline
210
0.0
220
0.0
230
1.0
 70
    11
 71
     3
 72
    29
 73
    25
 74
     0
 42
0.000000001
 43
0.0000000001
 40
0.0
 40
0.0
 40
0.0
 40
0.0
 40
1.0
 40
1.0
 40
1.0
 40
2.0
 40
2.0
 40
2.0
 40
3.0
 40
3.0
 40
3.0
 40
4.0
 40
4.0
 40
4.0
 40
5.0
 40
5.0
 40
5.0
 40
6.0
 40
6.0
 40
6.0
 40
7.0
 40
7.0
 40
7.0
 40
8.0
 40
8.0
 40
8.0
 40
8.0
 10
101.6420971922469
 20
132.8388354296931
 30
0.0
 10
101.630039350094
 20
134.7164137077823
 30
0.0
 10
102.2236296937908
 20
138.0598810818841
 30
0.0
 10
103.7487744712405
 20
142.5378191476827
 30
0.0
 10
105.819967243327
 20
148.5896501242061
 30
0.0
 10
107.0602024361932
 20
150.8074318058939
 30
0.0
 10
108.1522984254671
 20
151.8833358357054
 30
0.0
 10
109.741177511439
 20
153.4532668840085
 30
0.0
 10
111.8740375333931
 20
153.5290590346837
 30
0.0
 10
112.5075910110823
 20
153.4532668840085
 30
0.0
 10
113.4012493694975
 20
153.3490526768302
 30
0.0
 10
114.6683563248758
 20
152.7580461564518
 30
0.0
 10
114.7493161221879
 20
150.7838328862519
 30
0.0
 10
114.8106388622796
 20
149.0909118479895
 30
0.0
 10
114.3186789024427
 20
145.9191825971221
 30
0.0
 10
112.6164561002338
 20
140.9489400617108
 30
0.0
 10
110.6444821435766
 20
135.1746117095912
 30
0.0
 10
109.4669477299053
 20
132.8960240524753
 30
0.0
 10
108.5212683953448
 20
131.9072809959403
 30
0.0
 10
106.7346406980658
 20
130.0538184021569
 30
0.0
 10
104.8222669326213
 20
130.2336525051225
 30
0.0
 10
104.5408024457958
 20
130.2336525051225
 30
0.0
 10
104.1721769856939
 20
130.2336525051225
 30
0.0
 10
101.6465758193322
 20
130.6305277668397
 30
0.0
 10
101.6420971922469
 20
132.8388354296931
 30
0.0
  0
SPLINE
  5
3C6
330
3BD
100
AcDbEntity
  8
レイヤー 1
370
     0
100
AcDbSpline
210
0.0
220
0.0
230
1.0
 70
    11
 71
     3
 72
    32
 73
    28
 74
     0
 42
0.000000001
 43
0.0000000001
 40
0.0
 40
0.0
 40
0.0
 40
0.0
 40
1.0
 40
1.0
 40
1.0
 40
2.0
 40
2.0
 40
2.0
 40
3.0
 40
3.0
 40
3.0
 40
4.0
 40
4.0
 40
4.0
 40
5.0
 40
5.0
 40
5.0
 40
6.0
 40
6.0
 40
6.0
 40
7.0
 40
7.0
 40
7.0
 40
8.0
 40
8.0
 40
8.0
 40
9.0
 40
9.0
 40
9.0
 40
9.0
 10
106.2595617172429
 20
153.4105476718098
 30
0.0
 10
104.8222669326213
 20
151.5474388043041
 30
0.0
 10
103.7177685914188
 20
149.8758773721411
 30
0.0
 10
101.9232171692965
 20
144.6141795664062
 30
0.0
 10
100.2754269116635
 20
139.7999999594306
 30
0.0
 10
99.22777268346732
 20
136.3052927937542
 30
0.0
 10
99.06964269637689
 20
132.039572749846
 30
0.0
 10
98.94665270641765
 20
128.8673267343149
 30
0.0
 10
100.8807305877373
 20
127.8027915271048
 30
0.0
 10
103.7129454545577
 20
127.8027915271048
 30
0.0
 10
104.9352661390825
 20
127.8027915271048
 30
0.0
 10
108.0151835347002
 20
127.8827177950895
 30
0.0
 10
110.2045431598849
 20
130.5926316915021
 30
0.0
 10
111.7417457794874
 20
132.4984597712065
 30
0.0
 10
113.155269389579
 20
134.475256864725
 30
0.0
 10
115.0562743324223
 20
140.9489400617108
 30
0.0
 10
116.6361961642235
 20
146.3680788349845
 30
0.0
 10
117.7282921534974
 20
149.8639917848761
 30
0.0
 10
117.6480213757369
 20
151.8595646611754
 30
0.0
 10
117.6480213757369
 20
151.8595646611754
 30
0.0
 10
117.6480213757369
 20
151.8595646611754
 30
0.0
 10
117.6480213757369
 20
151.8595646611754
 30
0.0
 10
117.13229024137
 20
155.18150017429
 30
0.0
 10
114.7162431837115
 20
155.886194920681
 30
0.0
 10
113.3351034925446
 20
155.886194920681
 30
0.0
 10
111.9829026225447
 20
155.886194920681
 30
0.0
 10
108.3414342923792
 20
156.1251124501957
 30
0.0
 10
106.2595617172429
 20
153.4105476718098
 30
0.0
  0
HATCH
  5
3C7
330
3BD
100
AcDbEntity
  8
レイヤー 1
 62
   250
420
  2234388
100
AcDbHatch
 10
0.0
 20
0.0
 30
0.0
210
0.0
220
0.0
230
1.0
  2
SOLID
 70
     1
 71
     0
 91
        2
 92
        1
 93
        1
 72
     4
 94
        3
 73
     0
 74
     1
 95
       29
 96
       25
 40
0.0
 40
0.0
 40
0.0
 40
0.0
 40
1.0
 40
1.0
 40
1.0
 40
2.0
 40
2.0
 40
2.0
 40
3.0
 40
3.0
 40
3.0
 40
4.0
 40
4.0
 40
4.0
 40
5.0
 40
5.0
 40
5.0
 40
6.0
 40
6.0
 40
6.0
 40
7.0
 40
7.0
 40
7.0
 40
8.0
 40
8.0
 40
8.0
 40
8.0
 10
101.6420971922469
 20
132.8388354296931
 10
101.630039350094
 20
134.7164137077823
 10
102.2236296937908
 20
138.0598810818841
 10
103.7487744712405
 20
142.5378191476827
 10
105.819967243327
 20
148.5896501242061
 10
107.0602024361932
 20
150.8074318058939
 10
108.1522984254671
 20
151.8833358357054
 10
109.741177511439
 20
153.4532668840085
 10
111.8740375333931
 20
153.5290590346837
 10
112.5075910110823
 20
153.4532668840085
 10
113.4012493694975
 20
153.3490526768302
 10
114.6683563248758
 20
152.7580461564518
 10
114.7493161221879
 20
150.7838328862519
 10
114.8106388622796
 20
149.0909118479895
 10
114.3186789024427
 20
145.9191825971221
 10
112.6164561002338
 20
140.9489400617108
 10
110.6444821435766
 20
135.1746117095912
 10
109.4669477299053
 20
132.8960240524753
 10
108.5212683953448
 20
131.9072809959403
 10
106.7346406980658
 20
130.0538184021569
 10
104.8222669326213
 20
130.2336525051225
 10
104.5408024457958
 20
130.2336525051225
 10
104.1721769856939
 20
130.2336525051225
 10
101.6465758193322
 20
130.6305277668397
 10
101.6420971922469
 20
132.8388354296931
 97
        0
 92
        1
 93
        1
 72
     4
 94
        3
 73
     0
 74
     1
 95
       32
 96
       28
 40
0.0
 40
0.0
 40
0.0
 40
0.0
 40
1.0
 40
1.0
 40
1.0
 40
2.0
 40
2.0
 40
2.0
 40
3.0
 40
3.0
 40
3.0
 40
4.0
 40
4.0
 40
4.0
 40
5.0
 40
5.0
 40
5.0
 40
6.0
 40
6.0
 40
6.0
 40
7.0
 40
7.0
 40
7.0
 40
8.0
 40
8.0
 40
8.0
 40
9.0
 40
9.0
 40
9.0
 40
9.0
 10
106.2595617172429
 20
153.4105476718098
 10
104.8222669326213
 20
151.5474388043041
 10
103.7177685914188
 20
149.8758773721411
 10
101.9232171692965
 20
144.6141795664062
 10
100.2754269116635
 20
139.7999999594306
 10
99.22777268346732
 20
136.3052927937542
 10
99.06964269637689
 20
132.039572749846
 10
98.94665270641765
 20
128.8673267343149
 10
100.8807305877373
 20
127.8027915271048
 10
103.7129454545577
 20
127.8027915271048
 10
104.9352661390825
 20
127.8027915271048
 10
108.0151835347002
 20
127.8827177950895
 10
110.2045431598849
 20
130.5926316915021
 10
111.7417457794874
 20
132.4984597712065
 10
113.155269389579
 20
134.475256864725
 10
115.0562743324223
 20
140.9489400617108
 10
116.6361961642235
 20
146.3680788349845
 10
117.7282921534974
 20
149.8639917848761
 10
117.6480213757369
 20
151.8595646611754
 10
117.6480213757369
 20
151.8595646611754
 10
117.6480213757369
 20
151.8595646611754
 10
117.6480213757369
 20
151.8595646611754
 10
117.13229024137
 20
155.18150017429
 10
114.7162431837115
 20
155.886194920681
 10
113.3351034925446
 20
155.886194920681
 10
111.9829026225447
 20
155.886194920681
 10
108.3414342923792
 20
156.1251124501957
 10
106.2595617172429
 20
153.4105476718098
 97
        0
 75
     2
 76
     1
 98
        0
  0
ENDBLK
  5
3C8
330
3BD
100
AcDbEntity
  8
0
100
AcDbBlockEnd
  0
BLOCK
  5
11F1
330
11F0
100
AcDbEntity
  8
0
100
AcDbBlockBegin
  2
BLOCK_2
 70
     0
 10
0.0
 20
0.0
 30
0.0
  3
BLOCK_2
  1
BLOCK_2
  0
ENDBLK
  5
11F2
330
11F0
100
AcDbEntity
  8
0
100
AcDbBlockEnd
  0
BLOCK
  5
38B7
330
38B6
100
AcDbEntity
  8
0
100
AcDbBlockBegin
  2
mobile_latù
 70
     0
 10
0.0
 20
0.0
 30
0.0
  3
mobile_latù
  1
mobile_latù
  0
ENDBLK
  5
38B8
330
38B6
100
AcDbEntity
  8
0
100
AcDbBlockEnd
  0
BLOCK
  5
436C
330
436B
100
AcDbEntity
  8
0
100
AcDbBlockBegin
  2
.TD_SECTION_1
 70
     0
 10
225818116096.0
 20
0.0
 30
0.0
  3
.TD_SECTION_1
  1
.TD_SECTION_1
  0
ENDBLK
  5
436D
330
436B
100
AcDbEntity
  8
0
100
AcDbBlockEnd
  0
BLOCK
  5
4370
330
436F
100
AcDbEntity
  8
0
100
AcDbBlockBegin
  2
.TD_SECTION_2
 70
     0
 10
225818181632.0
 20
0.0
 30
0.0
  3
.TD_SECTION_2
  1
.TD_SECTION_2
  0
ENDBLK
  5
4371
330
436F
100
AcDbEntity
  8
0
100
AcDbBlockEnd
  0
BLOCK
  5
7107
330
7106
100
AcDbEntity
  8
0
100
AcDbBlockBegin
  2
*D10
 70
     1
 10
0.0
 20
0.0
 30
0.0
  3
*D10
  1

  0
LINE
  5
7109
330
7106
100
AcDbEntity
  8
Dim
 62
     0
370
    -2
100
AcDbLine
 10
1570.602178113116
 20
1031.881344873167
 30
0.0
 11
1547.338418481503
 21
1031.881344873167
 31
0.0
  0
LINE
  5
710A
330
7106
100
AcDbEntity
  8
Dim
 62
     0
370
    -2
100
AcDbLine
 10
1570.602178113116
 20
941.8813448731673
 30
0.0
 11
1547.338418481503
 21
941.8813448731673
 31
0.0
  0
LINE
  5
710B
330
7106
100
AcDbEntity
  8
Dim
 62
     0
370
    -2
100
AcDbLine
 10
1547.338418481503
 20
1031.881344873167
 30
0.0
 11
1547.338418481503
 21
1189.910257387724
 31
0.0
  0
LINE
  5
710C
330
7106
100
AcDbEntity
  8
Dim
 62
     0
370
    -2
100
AcDbLine
 10
1547.338418481503
 20
1031.881344873167
 30
0.0
 11
1547.338418481503
 21
941.8813448731673
 31
0.0
  0
LINE
  5
710D
330
7106
100
AcDbEntity
  8
Dim
 62
     0
370
    -2
100
AcDbLine
 10
1547.338418481503
 20
1041.880734521605
 30
0.0
 11
1547.338418481503
 21
1051.880124170042
 31
0.0
  0
LINE
  5
710E
330
7106
100
AcDbEntity
  8
Dim
 62
     0
370
    -2
100
AcDbLine
 10
1547.338418481503
 20
931.8819552247298
 30
0.0
 11
1547.338418481503
 21
921.8825655762923
 31
0.0
  0
INSERT
  5
710F
330
7106
100
AcDbEntity
  8
Dim
 62
     0
370
    -2
100
AcDbBlockReference
  2
_DOT
 10
1547.338418481503
 20
1031.881344873167
 30
0.0
 41
9.999389648437498
 42
9.999389648437498
 43
9.999389648437498
 50
270.0
  0
INSERT
  5
7110
330
7106
100
AcDbEntity
  8
Dim
 62
     0
370
    -2
100
AcDbBlockReference
  2
_DOT
 10
1547.338418481503
 20
941.8813448731673
 30
0.0
 41
9.999389648437498
 42
9.999389648437498
 43
9.999389648437498
 50
90.0
  0
MTEXT
  5
7111
330
7106
100
AcDbEntity
  8
Dim
 62
     0
100
AcDbMText
 10
1523.076638184986
 20
1120.895190778883
 30
0.0
 40
24.4326171875
 41
0.0
 46
0.0
 71
     5
 72
     1
  1
\A1;90(深さ)
  7
ＭＳ ゴシック
 11
0.0
 21
1.0
 31
0.0
 73
     1
 44
1.0
  0
POINT
  5
7112
330
7106
100
AcDbEntity
  8
Defpoints
 62
     0
100
AcDbPoint
 10
1545.602178113116
 20
1031.881344873167
 30
0.0
  0
POINT
  5
7113
330
7106
100
AcDbEntity
  8
Defpoints
 62
     0
100
AcDbPoint
 10
1545.602178113116
 20
941.8813448731673
 30
0.0
  0
POINT
  5
7114
330
7106
100
AcDbEntity
  8
Defpoints
 62
     0
100
AcDbPoint
 10
1547.338418481503
 20
941.8813448731673
 30
0.0
  0
ENDBLK
  5
7108
330
7106
100
AcDbEntity
  8
0
100
AcDbBlockEnd
  0
BLOCK
  5
711C
330
711B
100
AcDbEntity
  8
0
100
AcDbBlockBegin
  2
*D11
 70
     1
 10
0.0
 20
0.0
 30
0.0
  3
*D11
  1

  0
LINE
  5
711E
330
711B
100
AcDbEntity
  8
Dim
 62
     0
370
    -2
100
AcDbLine
 10
1001.382385975509
 20
1031.881344873164
 30
0.0
 11
1078.115220059998
 21
1031.881344873164
 31
0.0
  0
LINE
  5
711F
330
711B
100
AcDbEntity
  8
Dim
 62
     0
370
    -2
100
AcDbLine
 10
1001.382385975509
 20
911.8813448731639
 30
0.0
 11
1078.115220059998
 21
911.8813448731639
 31
0.0
  0
LINE
  5
7120
330
711B
100
AcDbEntity
  8
Dim
 62
     0
370
    -2
100
AcDbLine
 10
1078.115220059998
 20
1021.881955224726
 30
0.0
 11
1078.115220059998
 21
921.8807345216014
 31
0.0
  0
INSERT
  5
7121
330
711B
100
AcDbEntity
  8
Dim
 62
     0
370
    -2
100
AcDbBlockReference
  2
_DOT
 10
1078.115220059998
 20
1031.881344873164
 30
0.0
 41
9.999389648437498
 42
9.999389648437498
 43
9.999389648437498
 50
90.0
  0
INSERT
  5
7122
330
711B
100
AcDbEntity
  8
Dim
 62
     0
370
    -2
100
AcDbBlockReference
  2
_DOT
 10
1078.115220059998
 20
911.8813448731639
 30
0.0
 41
9.999389648437498
 42
9.999389648437498
 43
9.999389648437498
 50
270.0
  0
MTEXT
  5
7123
330
711B
100
AcDbEntity
  8
Dim
 62
     0
100
AcDbMText
 10
1055.894328631962
 20
971.8813448731639
 30
0.0
 40
24.4326171875
 41
0.0
 46
0.0
 71
     5
 72
     1
  1
\A1;120
  7
ＭＳ ゴシック
 11
0.0
 21
1.0
 31
0.0
 73
     1
 44
1.0
  0
POINT
  5
7124
330
711B
100
AcDbEntity
  8
Defpoints
 62
     0
100
AcDbPoint
 10
976.3823859755094
 20
1031.881344873164
 30
0.0
  0
POINT
  5
7125
330
711B
100
AcDbEntity
  8
Defpoints
 62
     0
100
AcDbPoint
 10
976.3823859755094
 20
911.8813448731639
 30
0.0
  0
POINT
  5
7126
330
711B
100
AcDbEntity
  8
Defpoints
 62
     0
100
AcDbPoint
 10
1078.115220059998
 20
911.8813448731639
 30
0.0
  0
ENDBLK
  5
711D
330
711B
100
AcDbEntity
  8
0
100
AcDbBlockEnd
  0
BLOCK
  5
712B
330
712A
100
AcDbEntity
  8
0
100
AcDbBlockBegin
  2
*D12
 70
     1
 10
0.0
 20
0.0
 30
0.0
  3
*D12
  1

  0
LINE
  5
712D
330
712A
100
AcDbEntity
  8
Dim
 62
     0
370
    -2
100
AcDbLine
 10
1731.693375892835
 20
894.8813448731673
 30
0.0
 11
1731.693375892835
 21
826.4896083928546
 31
0.0
  0
LINE
  5
712E
330
712A
100
AcDbEntity
  8
Dim
 62
     0
370
    -2
100
AcDbLine
 10
1551.693375892832
 20
889.8813448731673
 30
0.0
 11
1551.693375892832
 21
826.4896083928546
 31
0.0
  0
LINE
  5
712F
330
712A
100
AcDbEntity
  8
Dim
 62
     0
370
    -2
100
AcDbLine
 10
1721.693986244397
 20
826.4896083928546
 30
0.0
 11
1561.692765541269
 21
826.4896083928546
 31
0.0
  0
INSERT
  5
7130
330
712A
100
AcDbEntity
  8
Dim
 62
     0
370
    -2
100
AcDbBlockReference
  2
_DOT
 10
1731.693375892835
 20
826.4896083928546
 30
0.0
 41
9.999389648437498
 42
9.999389648437498
 43
9.999389648437498
  0
INSERT
  5
7131
330
712A
100
AcDbEntity
  8
Dim
 62
     0
370
    -2
100
AcDbBlockReference
  2
_DOT
 10
1551.693375892832
 20
826.4896083928546
 30
0.0
 41
9.999389648437498
 42
9.999389648437498
 43
9.999389648437498
 50
180.0
  0
MTEXT
  5
7132
330
712A
100
AcDbEntity
  8
Dim
 62
     0
100
AcDbMText
 10
1641.693375892833
 20
848.7104998208902
 30
0.0
 40
24.4326171875
 41
0.0
 46
0.0
 71
     5
 72
     1
  1
\A1;180
  7
ＭＳ ゴシック
 73
     1
 44
1.0
  0
POINT
  5
7133
330
712A
100
AcDbEntity
  8
Defpoints
 62
     0
100
AcDbPoint
 10
1731.693375892835
 20
919.8813448731673
 30
0.0
  0
POINT
  5
7134
330
712A
100
AcDbEntity
  8
Defpoints
 62
     0
100
AcDbPoint
 10
1551.693375892832
 20
914.8813448731673
 30
0.0
  0
POINT
  5
7135
330
712A
100
AcDbEntity
  8
Defpoints
 62
     0
100
AcDbPoint
 10
1551.693375892832
 20
826.4896083928546
 30
0.0
  0
ENDBLK
  5
712C
330
712A
100
AcDbEntity
  8
0
100
AcDbBlockEnd
  0
BLOCK
  5
7138
330
7137
100
AcDbEntity
  8
0
100
AcDbBlockBegin
  2
*D13
 70
     1
 10
0.0
 20
0.0
 30
0.0
  3
*D13
  1

  0
LINE
  5
713A
330
7137
100
AcDbEntity
  8
Dim
 62
     0
370
    -2
100
AcDbLine
 10
1731.693375892829
 20
1049.515703168306
 30
0.0
 11
1731.693375892829
 21
1090.261338450783
 31
0.0
  0
LINE
  5
713B
330
7137
100
AcDbEntity
  8
Dim
 62
     0
370
    -2
100
AcDbLine
 10
1671.693375892829
 20
1049.515703168306
 30
0.0
 11
1671.693375892829
 21
1090.261338450783
 31
0.0
  0
LINE
  5
713C
330
7137
100
AcDbEntity
  8
Dim
 62
     0
370
    -2
100
AcDbLine
 10
1721.693986244392
 20
1090.261338450783
 30
0.0
 11
1681.692765541267
 21
1090.261338450783
 31
0.0
  0
INSERT
  5
713D
330
7137
100
AcDbEntity
  8
Dim
 62
     0
370
    -2
100
AcDbBlockReference
  2
_DOT
 10
1731.693375892829
 20
1090.261338450783
 30
0.0
 41
9.999389648437498
 42
9.999389648437498
 43
9.999389648437498
  0
INSERT
  5
713E
330
7137
100
AcDbEntity
  8
Dim
 62
     0
370
    -2
100
AcDbBlockReference
  2
_DOT
 10
1671.693375892829
 20
1090.261338450783
 30
0.0
 41
9.999389648437498
 42
9.999389648437498
 43
9.999389648437498
 50
180.0
  0
MTEXT
  5
713F
330
7137
100
AcDbEntity
  8
Dim
 62
     0
100
AcDbMText
 10
1701.693375892829
 20
1112.477647044533
 30
0.0
 40
24.4326171875
 41
0.0
 46
0.0
 71
     5
 72
     1
  1
\A1;60
  7
ＭＳ ゴシック
 73
     1
 44
1.0
  0
POINT
  5
7140
330
7137
100
AcDbEntity
  8
Defpoints
 62
     0
100
AcDbPoint
 10
1731.693375892829
 20
1024.515703168306
 30
0.0
  0
POINT
  5
7141
330
7137
100
AcDbEntity
  8
Defpoints
 62
     0
100
AcDbPoint
 10
1671.693375892829
 20
1024.515703168306
 30
0.0
  0
POINT
  5
7142
330
7137
100
AcDbEntity
  8
Defpoints
 62
     0
100
AcDbPoint
 10
1671.693375892829
 20
1090.261338450783
 30
0.0
  0
ENDBLK
  5
7139
330
7137
100
AcDbEntity
  8
0
100
AcDbBlockEnd
  0
BLOCK
  5
716E
330
716D
100
AcDbEntity
  8
0
100
AcDbBlockBegin
  2
*D14
 70
     1
 10
0.0
 20
0.0
 30
0.0
  3
*D14
  1

  0
LINE
  5
7170
330
716D
100
AcDbEntity
  8
Dim
 62
     0
370
    -2
100
AcDbLine
 10
292.0238993274686
 20
986.8813448731673
 30
0.0
 11
232.0601743957308
 21
986.8813448731673
 31
0.0
  0
LINE
  5
7171
330
716D
100
AcDbEntity
  8
Dim
 62
     0
370
    -2
100
AcDbLine
 10
302.0108195412535
 20
1031.881344873168
 30
0.0
 11
232.0601743957308
 21
1031.881344873168
 31
0.0
  0
LINE
  5
7172
330
716D
100
AcDbEntity
  8
Dim
 62
     0
370
    -2
100
AcDbLine
 10
232.0601743957308
 20
996.8807345216048
 30
0.0
 11
232.0601743957308
 21
1021.881955224731
 31
0.0
  0
INSERT
  5
7173
330
716D
100
AcDbEntity
  8
Dim
 62
     0
370
    -2
100
AcDbBlockReference
  2
_DOT
 10
232.0601743957308
 20
986.8813448731673
 30
0.0
 41
9.999389648437498
 42
9.999389648437498
 43
9.999389648437498
 50
270.0
  0
INSERT
  5
7174
330
716D
100
AcDbEntity
  8
Dim
 62
     0
370
    -2
100
AcDbBlockReference
  2
_DOT
 10
232.0601743957308
 20
1031.881344873168
 30
0.0
 41
9.999389648437498
 42
9.999389648437498
 43
9.999389648437498
 50
90.0
  0
MTEXT
  5
7175
330
716D
100
AcDbEntity
  8
Dim
 62
     0
100
AcDbMText
 10
209.8392829676952
 20
1009.381344873168
 30
0.0
 40
24.4326171875
 41
0.0
 46
0.0
 71
     5
 72
     1
  1
\A1;45
  7
ＭＳ ゴシック
 11
0.0
 21
1.0
 31
0.0
 73
     1
 44
1.0
  0
POINT
  5
7176
330
716D
100
AcDbEntity
  8
Defpoints
 62
     0
100
AcDbPoint
 10
317.0238993274686
 20
986.8813448731673
 30
0.0
  0
POINT
  5
7177
330
716D
100
AcDbEntity
  8
Defpoints
 62
     0
100
AcDbPoint
 10
327.0108195412535
 20
1031.881344873168
 30
0.0
  0
POINT
  5
7178
330
716D
100
AcDbEntity
  8
Defpoints
 62
     0
100
AcDbPoint
 10
232.0601743957308
 20
1031.881344873168
 30
0.0
  0
ENDBLK
  5
716F
330
716D
100
AcDbEntity
  8
0
100
AcDbBlockEnd
  0
BLOCK
  5
71AD
330
71AC
100
AcDbEntity
  8
0
100
AcDbBlockBegin
  2
*D15
 70
     1
 10
0.0
 20
0.0
 30
0.0
  3
*D15
  1

  0
LINE
  5
71AF
330
71AC
100
AcDbEntity
  8
Dim
 62
     0
370
    -2
100
AcDbLine
 10
966.1851423122557
 20
2180.564004824672
 30
0.0
 11
966.1851423122557
 21
2276.886150377005
 31
0.0
  0
LINE
  5
71B0
330
71AC
100
AcDbEntity
  8
Dim
 62
     0
370
    -2
100
AcDbLine
 10
316.2917004991527
 20
2180.564004824672
 30
0.0
 11
316.2917004991527
 21
2276.886150377005
 31
0.0
  0
LINE
  5
71B1
330
71AC
100
AcDbEntity
  8
Dim
 62
     0
370
    -2
100
AcDbLine
 10
956.1857526638182
 20
2276.886150377005
 30
0.0
 11
326.2910901475902
 21
2276.886150377005
 31
0.0
  0
INSERT
  5
71B2
330
71AC
100
AcDbEntity
  8
Dim
 62
     0
370
    -2
100
AcDbBlockReference
  2
_DOT
 10
966.1851423122557
 20
2276.886150377005
 30
0.0
 41
9.999389648437498
 42
9.999389648437498
 43
9.999389648437498
  0
INSERT
  5
71B3
330
71AC
100
AcDbEntity
  8
Dim
 62
     0
370
    -2
100
AcDbBlockReference
  2
_DOT
 10
316.2917004991527
 20
2276.886150377005
 30
0.0
 41
9.999389648437498
 42
9.999389648437498
 43
9.999389648437498
 50
180.0
  0
MTEXT
  5
71B4
330
71AC
100
AcDbEntity
  8
Dim
 62
     0
100
AcDbMText
 10
641.2384214057042
 20
2299.107041805041
 30
0.0
 40
24.4326171875
 41
0.0
 46
0.0
 71
     5
 72
     1
  1
\A1;650
  7
ＭＳ ゴシック
 73
     1
 44
1.0
  0
POINT
  5
71B5
330
71AC
100
AcDbEntity
  8
Defpoints
 62
     0
100
AcDbPoint
 10
966.1851423122557
 20
2155.564004824672
 30
0.0
  0
POINT
  5
71B6
330
71AC
100
AcDbEntity
  8
Defpoints
 62
     0
100
AcDbPoint
 10
316.2917004991527
 20
2155.564004824672
 30
0.0
  0
POINT
  5
71B7
330
71AC
100
AcDbEntity
  8
Defpoints
 62
     0
100
AcDbPoint
 10
316.2917004991527
 20
2276.886150377005
 30
0.0
  0
ENDBLK
  5
71AE
330
71AC
100
AcDbEntity
  8
0
100
AcDbBlockEnd
  0
BLOCK
  5
71BC
330
71BB
100
AcDbEntity
  8
0
100
AcDbBlockBegin
  2
*D16
 70
     1
 10
0.0
 20
0.0
 30
0.0
  3
*D16
  1

  0
LINE
  5
71BE
330
71BB
100
AcDbEntity
  8
Dim
 62
     0
370
    -2
100
AcDbLine
 10
976.3577976264171
 20
2166.215179553531
 30
0.0
 11
1050.264719653003
 21
2166.215179553531
 31
0.0
  0
LINE
  5
71BF
330
71BB
100
AcDbEntity
  8
Dim
 62
     0
370
    -2
100
AcDbLine
 10
976.3577976264211
 20
1816.349020437751
 30
0.0
 11
1050.264719653003
 21
1816.349020437751
 31
0.0
  0
LINE
  5
71C0
330
71BB
100
AcDbEntity
  8
Dim
 62
     0
370
    -2
100
AcDbLine
 10
1050.264719653003
 20
2156.215789905093
 30
0.0
 11
1050.264719653003
 21
1826.348410086188
 31
0.0
  0
INSERT
  5
71C1
330
71BB
100
AcDbEntity
  8
Dim
 62
     0
370
    -2
100
AcDbBlockReference
  2
_DOT
 10
1050.264719653003
 20
2166.215179553531
 30
0.0
 41
9.999389648437498
 42
9.999389648437498
 43
9.999389648437498
 50
90.0
  0
INSERT
  5
71C2
330
71BB
100
AcDbEntity
  8
Dim
 62
     0
370
    -2
100
AcDbBlockReference
  2
_DOT
 10
1050.264719653003
 20
1816.349020437751
 30
0.0
 41
9.999389648437498
 42
9.999389648437498
 43
9.999389648437498
 50
270.0
  0
MTEXT
  5
71C3
330
71BB
100
AcDbEntity
  8
Dim
 62
     0
100
AcDbMText
 10
1028.043828224968
 20
1991.282099995641
 30
0.0
 40
24.4326171875
 41
0.0
 46
0.0
 71
     5
 72
     1
  1
\A1;350
  7
ＭＳ ゴシック
 11
0.0
 21
1.0
 31
0.0
 73
     1
 44
1.0
  0
POINT
  5
71C4
330
71BB
100
AcDbEntity
  8
Defpoints
 62
     0
100
AcDbPoint
 10
951.3577976264171
 20
2166.215179553531
 30
0.0
  0
POINT
  5
71C5
330
71BB
100
AcDbEntity
  8
Defpoints
 62
     0
100
AcDbPoint
 10
951.3577976264211
 20
1816.349020437751
 30
0.0
  0
POINT
  5
71C6
330
71BB
100
AcDbEntity
  8
Defpoints
 62
     0
100
AcDbPoint
 10
1050.264719653003
 20
1816.349020437751
 30
0.0
  0
ENDBLK
  5
71BD
330
71BB
100
AcDbEntity
  8
0
100
AcDbBlockEnd
  0
BLOCK
  5
71D8
330
71D7
100
AcDbEntity
  8
0
100
AcDbBlockBegin
  2
*D17
 70
     1
 10
0.0
 20
0.0
 30
0.0
  3
*D17
  1

  0
LINE
  5
71DA
330
71D7
100
AcDbEntity
  8
Dim
 62
     0
370
    -2
100
AcDbLine
 10
326.2384214057078
 20
1792.57118703434
 30
0.0
 11
326.2384214057079
 21
1709.371216081648
 31
0.0
  0
LINE
  5
71DB
330
71D7
100
AcDbEntity
  8
Dim
 62
     0
370
    -2
100
AcDbLine
 10
956.2384214057079
 20
1792.571187034341
 30
0.0
 11
956.2384214057079
 21
1709.371216081648
 31
0.0
  0
LINE
  5
71DC
330
71D7
100
AcDbEntity
  8
Dim
 62
     0
370
    -2
100
AcDbLine
 10
336.2378110541454
 20
1709.371216081648
 30
0.0
 11
946.2390317572704
 21
1709.371216081648
 31
0.0
  0
INSERT
  5
71DD
330
71D7
100
AcDbEntity
  8
Dim
 62
     0
370
    -2
100
AcDbBlockReference
  2
_DOT
 10
326.2384214057079
 20
1709.371216081648
 30
0.0
 41
9.999389648437498
 42
9.999389648437498
 43
9.999389648437498
 50
180.0
  0
INSERT
  5
71DE
330
71D7
100
AcDbEntity
  8
Dim
 62
     0
370
    -2
100
AcDbBlockReference
  2
_DOT
 10
956.2384214057079
 20
1709.371216081648
 30
0.0
 41
9.999389648437498
 42
9.999389648437498
 43
9.999389648437498
  0
MTEXT
  5
71DF
330
71D7
100
AcDbEntity
  8
Dim
 62
     0
100
AcDbMText
 10
641.2384214057079
 20
1731.592107509684
 30
0.0
 40
24.4326171875
 41
0.0
 46
0.0
 71
     5
 72
     1
  1
\A1;630
  7
ＭＳ ゴシック
 73
     1
 44
1.0
  0
POINT
  5
71E0
330
71D7
100
AcDbEntity
  8
Defpoints
 62
     0
100
AcDbPoint
 10
326.2384214057078
 20
1817.57118703434
 30
0.0
  0
POINT
  5
71E1
330
71D7
100
AcDbEntity
  8
Defpoints
 62
     0
100
AcDbPoint
 10
956.2384214057079
 20
1817.571187034341
 30
0.0
  0
POINT
  5
71E2
330
71D7
100
AcDbEntity
  8
Defpoints
 62
     0
100
AcDbPoint
 10
956.2384214057079
 20
1709.371216081648
 30
0.0
  0
ENDBLK
  5
71D9
330
71D7
100
AcDbEntity
  8
0
100
AcDbBlockEnd
  0
BLOCK
  5
71EC
330
71EB
100
AcDbEntity
  8
0
100
AcDbBlockBegin
  2
*D18
 70
     1
 10
0.0
 20
0.0
 30
0.0
  3
*D18
  1

  0
LINE
  5
71EE
330
71EB
100
AcDbEntity
  8
Dim
 62
     0
370
    -2
100
AcDbLine
 10
303.4733014452144
 20
2166.215179553531
 30
0.0
 11
246.1827423190946
 21
2166.215179553531
 31
0.0
  0
LINE
  5
71EF
330
71EB
100
AcDbEntity
  8
Dim
 62
     0
370
    -2
100
AcDbLine
 10
303.4733014452146
 20
2066.21517955353
 30
0.0
 11
246.1827423190946
 21
2066.21517955353
 31
0.0
  0
LINE
  5
71F0
330
71EB
100
AcDbEntity
  8
Dim
 62
     0
370
    -2
100
AcDbLine
 10
246.1827423190946
 20
2156.215789905093
 30
0.0
 11
246.1827423190946
 21
2076.214569201968
 31
0.0
  0
INSERT
  5
71F1
330
71EB
100
AcDbEntity
  8
Dim
 62
     0
370
    -2
100
AcDbBlockReference
  2
_DOT
 10
246.1827423190946
 20
2166.215179553531
 30
0.0
 41
9.999389648437498
 42
9.999389648437498
 43
9.999389648437498
 50
90.0
  0
INSERT
  5
71F2
330
71EB
100
AcDbEntity
  8
Dim
 62
     0
370
    -2
100
AcDbBlockReference
  2
_DOT
 10
246.1827423190946
 20
2066.21517955353
 30
0.0
 41
9.999389648437498
 42
9.999389648437498
 43
9.999389648437498
 50
270.0
  0
MTEXT
  5
71F3
330
71EB
100
AcDbEntity
  8
Dim
 62
     0
100
AcDbMText
 10
223.9618508910592
 20
2116.21517955353
 30
0.0
 40
24.4326171875
 41
0.0
 46
0.0
 71
     5
 72
     1
  1
\A1;100
  7
ＭＳ ゴシック
 11
0.0
 21
1.0
 31
0.0
 73
     1
 44
1.0
  0
POINT
  5
71F4
330
71EB
100
AcDbEntity
  8
Defpoints
 62
     0
100
AcDbPoint
 10
328.4733014452144
 20
2166.215179553531
 30
0.0
  0
POINT
  5
71F5
330
71EB
100
AcDbEntity
  8
Defpoints
 62
     0
100
AcDbPoint
 10
328.4733014452146
 20
2066.21517955353
 30
0.0
  0
POINT
  5
71F6
330
71EB
100
AcDbEntity
  8
Defpoints
 62
     0
100
AcDbPoint
 10
246.1827423190946
 20
2066.21517955353
 30
0.0
  0
ENDBLK
  5
71ED
330
71EB
100
AcDbEntity
  8
0
100
AcDbBlockEnd
  0
BLOCK
  5
71FB
330
71FA
100
AcDbEntity
  8
0
100
AcDbBlockBegin
  2
*D19
 70
     1
 10
0.0
 20
0.0
 30
0.0
  3
*D19
  1

  0
LINE
  5
71FD
330
71FA
100
AcDbEntity
  8
Dim
 62
     0
370
    -2
100
AcDbLine
 10
303.4733014452146
 20
2066.21517955353
 30
0.0
 11
246.1827423190946
 21
2066.21517955353
 31
0.0
  0
LINE
  5
71FE
330
71FA
100
AcDbEntity
  8
Dim
 62
     0
370
    -2
100
AcDbLine
 10
303.4733014452148
 20
1826.21517955353
 30
0.0
 11
246.1827423190946
 21
1826.21517955353
 31
0.0
  0
LINE
  5
71FF
330
71FA
100
AcDbEntity
  8
Dim
 62
     0
370
    -2
100
AcDbLine
 10
246.1827423190946
 20
2056.215789905093
 30
0.0
 11
246.1827423190946
 21
1836.214569201968
 31
0.0
  0
INSERT
  5
7200
330
71FA
100
AcDbEntity
  8
Dim
 62
     0
370
    -2
100
AcDbBlockReference
  2
_DOT
 10
246.1827423190946
 20
2066.21517955353
 30
0.0
 41
9.999389648437498
 42
9.999389648437498
 43
9.999389648437498
 50
90.0
  0
INSERT
  5
7201
330
71FA
100
AcDbEntity
  8
Dim
 62
     0
370
    -2
100
AcDbBlockReference
  2
_DOT
 10
246.1827423190946
 20
1826.21517955353
 30
0.0
 41
9.999389648437498
 42
9.999389648437498
 43
9.999389648437498
 50
270.0
  0
MTEXT
  5
7202
330
71FA
100
AcDbEntity
  8
Dim
 62
     0
100
AcDbMText
 10
223.9618508910592
 20
1946.21517955353
 30
0.0
 40
24.4326171875
 41
0.0
 46
0.0
 71
     5
 72
     1
  1
\A1;240
  7
ＭＳ ゴシック
 11
1.184237892933502E-16
 21
1.0
 31
0.0
 73
     1
 44
1.0
  0
POINT
  5
7203
330
71FA
100
AcDbEntity
  8
Defpoints
 62
     0
100
AcDbPoint
 10
328.4733014452146
 20
2066.21517955353
 30
0.0
  0
POINT
  5
7204
330
71FA
100
AcDbEntity
  8
Defpoints
 62
     0
100
AcDbPoint
 10
328.4733014452148
 20
1826.21517955353
 30
0.0
  0
POINT
  5
7205
330
71FA
100
AcDbEntity
  8
Defpoints
 62
     0
100
AcDbPoint
 10
246.1827423190946
 20
1826.21517955353
 30
0.0
  0
ENDBLK
  5
71FC
330
71FA
100
AcDbEntity
  8
0
100
AcDbBlockEnd
  0
BLOCK
  5
723D
330
723C
100
AcDbEntity
  8
0
100
AcDbBlockBegin
  2
*D20
 70
     1
 10
0.0
 20
0.0
 30
0.0
  3
*D20
  1

  0
LINE
  5
723F
330
723C
100
AcDbEntity
  8
Dim
 62
     0
370
    -2
100
AcDbLine
 10
541.2384214057079
 20
2144.865179553539
 30
0.0
 11
541.2384214057079
 21
2213.58572027999
 31
0.0
  0
LINE
  5
7240
330
723C
100
AcDbEntity
  8
Dim
 62
     0
370
    -2
100
AcDbLine
 10
641.2384214057079
 20
2146.365179553539
 30
0.0
 11
641.2384214057079
 21
2213.58572027999
 31
0.0
  0
LINE
  5
7241
330
723C
100
AcDbEntity
  8
Dim
 62
     0
370
    -2
100
AcDbLine
 10
551.2378110541454
 20
2213.58572027999
 30
0.0
 11
631.2390317572704
 21
2213.58572027999
 31
0.0
  0
INSERT
  5
7242
330
723C
100
AcDbEntity
  8
Dim
 62
     0
370
    -2
100
AcDbBlockReference
  2
_DOT
 10
541.2384214057079
 20
2213.58572027999
 30
0.0
 41
9.999389648437498
 42
9.999389648437498
 43
9.999389648437498
 50
180.0
  0
INSERT
  5
7243
330
723C
100
AcDbEntity
  8
Dim
 62
     0
370
    -2
100
AcDbBlockReference
  2
_DOT
 10
641.2384214057079
 20
2213.58572027999
 30
0.0
 41
9.999389648437498
 42
9.999389648437498
 43
9.999389648437498
  0
MTEXT
  5
7244
330
723C
100
AcDbEntity
  8
Dim
 62
     0
100
AcDbMText
 10
591.2384214057079
 20
2235.806611708026
 30
0.0
 40
24.4326171875
 41
0.0
 46
0.0
 71
     5
 72
     1
  1
\A1;100
  7
ＭＳ ゴシック
 73
     1
 44
1.0
  0
POINT
  5
7245
330
723C
100
AcDbEntity
  8
Defpoints
 62
     0
100
AcDbPoint
 10
541.2384214057079
 20
2119.865179553539
 30
0.0
  0
POINT
  5
7246
330
723C
100
AcDbEntity
  8
Defpoints
 62
     0
100
AcDbPoint
 10
641.2384214057079
 20
2121.365179553539
 30
0.0
  0
POINT
  5
7247
330
723C
100
AcDbEntity
  8
Defpoints
 62
     0
100
AcDbPoint
 10
641.2384214057079
 20
2213.58572027999
 30
0.0
  0
ENDBLK
  5
723E
330
723C
100
AcDbEntity
  8
0
100
AcDbBlockEnd
  0
BLOCK
  5
724C
330
724B
100
AcDbEntity
  8
0
100
AcDbBlockBegin
  2
*D21
 70
     1
 10
0.0
 20
0.0
 30
0.0
  3
*D21
  1

  0
LINE
  5
724E
330
724B
100
AcDbEntity
  8
Dim
 62
     0
370
    -2
100
AcDbLine
 10
741.2384214057079
 20
2144.865179553539
 30
0.0
 11
741.2384214057079
 21
2213.58572027999
 31
0.0
  0
LINE
  5
724F
330
724B
100
AcDbEntity
  8
Dim
 62
     0
370
    -2
100
AcDbLine
 10
641.2384214057079
 20
2146.365179553539
 30
0.0
 11
641.2384214057079
 21
2213.58572027999
 31
0.0
  0
LINE
  5
7250
330
724B
100
AcDbEntity
  8
Dim
 62
     0
370
    -2
100
AcDbLine
 10
731.2390317572704
 20
2213.58572027999
 30
0.0
 11
651.2378110541454
 21
2213.58572027999
 31
0.0
  0
INSERT
  5
7251
330
724B
100
AcDbEntity
  8
Dim
 62
     0
370
    -2
100
AcDbBlockReference
  2
_DOT
 10
741.2384214057079
 20
2213.58572027999
 30
0.0
 41
9.999389648437498
 42
9.999389648437498
 43
9.999389648437498
  0
INSERT
  5
7252
330
724B
100
AcDbEntity
  8
Dim
 62
     0
370
    -2
100
AcDbBlockReference
  2
_DOT
 10
641.2384214057079
 20
2213.58572027999
 30
0.0
 41
9.999389648437498
 42
9.999389648437498
 43
9.999389648437498
 50
180.0
  0
MTEXT
  5
7253
330
724B
100
AcDbEntity
  8
Dim
 62
     0
100
AcDbMText
 10
691.2384214057079
 20
2235.806611708026
 30
0.0
 40
24.4326171875
 41
0.0
 46
0.0
 71
     5
 72
     1
  1
\A1;100
  7
ＭＳ ゴシック
 73
     1
 44
1.0
  0
POINT
  5
7254
330
724B
100
AcDbEntity
  8
Defpoints
 62
     0
100
AcDbPoint
 10
741.2384214057079
 20
2119.865179553539
 30
0.0
  0
POINT
  5
7255
330
724B
100
AcDbEntity
  8
Defpoints
 62
     0
100
AcDbPoint
 10
641.2384214057079
 20
2121.365179553539
 30
0.0
  0
POINT
  5
7256
330
724B
100
AcDbEntity
  8
Defpoints
 62
     0
100
AcDbPoint
 10
641.2384214057079
 20
2213.58572027999
 30
0.0
  0
ENDBLK
  5
724D
330
724B
100
AcDbEntity
  8
0
100
AcDbBlockEnd
  0
BLOCK
  5
727E
330
727D
100
AcDbEntity
  8
0
100
AcDbBlockBegin
  2
*D22
 70
     1
 10
0.0
 20
0.0
 30
0.0
  3
*D22
  1

  0
LINE
  5
7280
330
727D
100
AcDbEntity
  8
Dim
 62
     0
370
    -2
100
AcDbLine
 10
501.2383538432648
 20
1041.814472169585
 30
0.0
 11
501.2383538432648
 21
1129.932894565483
 31
0.0
  0
LINE
  5
7281
330
727D
100
AcDbEntity
  8
Dim
 62
     0
370
    -2
100
AcDbLine
 10
781.2384889681236
 20
1041.814472169585
 30
0.0
 11
781.2384889681236
 21
1129.932894565483
 31
0.0
  0
LINE
  5
7282
330
727D
100
AcDbEntity
  8
Dim
 62
     0
370
    -2
100
AcDbLine
 10
511.2377434917023
 20
1129.932894565483
 30
0.0
 11
771.2390993196861
 21
1129.932894565483
 31
0.0
  0
INSERT
  5
7283
330
727D
100
AcDbEntity
  8
Dim
 62
     0
370
    -2
100
AcDbBlockReference
  2
_DOT
 10
501.2383538432648
 20
1129.932894565483
 30
0.0
 41
9.999389648437498
 42
9.999389648437498
 43
9.999389648437498
 50
180.0
  0
INSERT
  5
7284
330
727D
100
AcDbEntity
  8
Dim
 62
     0
370
    -2
100
AcDbBlockReference
  2
_DOT
 10
781.2384889681236
 20
1129.932894565483
 30
0.0
 41
9.999389648437498
 42
9.999389648437498
 43
9.999389648437498
  0
MTEXT
  5
7285
330
727D
100
AcDbEntity
  8
Dim
 62
     0
100
AcDbMText
 10
641.2384214056942
 20
1152.153785993518
 30
0.0
 40
24.4326171875
 41
0.0
 46
0.0
 71
     5
 72
     1
  1
\A1;280
  7
ＭＳ ゴシック
 73
     1
 44
1.0
  0
POINT
  5
7286
330
727D
100
AcDbEntity
  8
Defpoints
 62
     0
100
AcDbPoint
 10
501.2383538432648
 20
1016.814472169585
 30
0.0
  0
POINT
  5
7287
330
727D
100
AcDbEntity
  8
Defpoints
 62
     0
100
AcDbPoint
 10
781.2384889681236
 20
1016.814472169585
 30
0.0
  0
POINT
  5
7288
330
727D
100
AcDbEntity
  8
Defpoints
 62
     0
100
AcDbPoint
 10
781.2384889681236
 20
1129.932894565483
 30
0.0
  0
ENDBLK
  5
727F
330
727D
100
AcDbEntity
  8
0
100
AcDbBlockEnd
  0
BLOCK
  5
72F1
330
72F0
100
AcDbEntity
  8
0
100
AcDbBlockBegin
  2
*D23
 70
     1
 10
0.0
 20
0.0
 30
0.0
  3
*D23
  1

  0
LINE
  5
72F3
330
72F0
100
AcDbEntity
  8
Dim
 62
     0
370
    -2
100
AcDbLine
 10
1856.473159601707
 20
2166.215179553531
 30
0.0
 11
1919.462041819002
 21
2166.215179553531
 31
0.0
  0
LINE
  5
72F4
330
72F0
100
AcDbEntity
  8
Dim
 62
     0
370
    -2
100
AcDbLine
 10
1713.297220524042
 20
2141.215179553531
 30
0.0
 11
1919.462041819002
 21
2141.215179553531
 31
0.0
  0
LINE
  5
72F5
330
72F0
100
AcDbEntity
  8
Dim
 62
     0
370
    -2
100
AcDbLine
 10
1919.462041819002
 20
2166.215179553531
 30
0.0
 11
1919.462041819002
 21
2234.615310529161
 31
0.0
  0
LINE
  5
72F6
330
72F0
100
AcDbEntity
  8
Dim
 62
     0
370
    -2
100
AcDbLine
 10
1919.462041819002
 20
2166.215179553531
 30
0.0
 11
1919.462041819002
 21
2141.215179553531
 31
0.0
  0
LINE
  5
72F7
330
72F0
100
AcDbEntity
  8
Dim
 62
     0
370
    -2
100
AcDbLine
 10
1919.462041819002
 20
2176.214569201969
 30
0.0
 11
1919.462041819002
 21
2186.213958850406
 31
0.0
  0
LINE
  5
72F8
330
72F0
100
AcDbEntity
  8
Dim
 62
     0
370
    -2
100
AcDbLine
 10
1919.462041819002
 20
2131.215789905094
 30
0.0
 11
1919.462041819002
 21
2121.216400256656
 31
0.0
  0
INSERT
  5
72F9
330
72F0
100
AcDbEntity
  8
Dim
 62
     0
370
    -2
100
AcDbBlockReference
  2
_DOT
 10
1919.462041819002
 20
2166.215179553531
 30
0.0
 41
9.999389648437498
 42
9.999389648437498
 43
9.999389648437498
 50
270.0
  0
INSERT
  5
72FA
330
72F0
100
AcDbEntity
  8
Dim
 62
     0
370
    -2
100
AcDbBlockReference
  2
_DOT
 10
1919.462041819002
 20
2141.215179553531
 30
0.0
 41
9.999389648437498
 42
9.999389648437498
 43
9.999389648437498
 50
90.0
  0
MTEXT
  5
72FB
330
72F0
100
AcDbEntity
  8
Dim
 62
     0
100
AcDbMText
 10
1897.241150390967
 20
2210.414634689783
 30
0.0
 40
24.4326171875
 41
0.0
 46
0.0
 71
     5
 72
     1
  1
\A1;25
  7
ＭＳ ゴシック
 11
0.0
 21
1.0
 31
0.0
 73
     1
 44
1.0
  0
POINT
  5
72FE
330
72F0
100
AcDbEntity
  8
Defpoints
 62
     0
100
AcDbPoint
 10
1831.473159601707
 20
2166.215179553531
 30
0.0
  0
POINT
  5
72FF
330
72F0
100
AcDbEntity
  8
Defpoints
 62
     0
100
AcDbPoint
 10
1688.297220524042
 20
2141.215179553531
 30
0.0
  0
POINT
  5
7300
330
72F0
100
AcDbEntity
  8
Defpoints
 62
     0
100
AcDbPoint
 10
1919.462041819002
 20
2141.215179553531
 30
0.0
  0
ENDBLK
  5
72F2
330
72F0
100
AcDbEntity
  8
0
100
AcDbBlockEnd
  0
BLOCK
  5
7305
330
7304
100
AcDbEntity
  8
0
100
AcDbBlockBegin
  2
*D24
 70
     1
 10
0.0
 20
0.0
 30
0.0
  3
*D24
  1

  0
LINE
  5
7307
330
7304
100
AcDbEntity
  8
Dim
 62
     0
370
    -2
100
AcDbLine
 10
1881.473159601707
 20
2141.215179553531
 30
0.0
 11
1919.462041819002
 21
2141.215179553531
 31
0.0
  0
LINE
  5
7308
330
7304
100
AcDbEntity
  8
Dim
 62
     0
370
    -2
100
AcDbLine
 10
1713.297220524042
 20
1921.215179553531
 30
0.0
 11
1919.462041819002
 21
1921.215179553531
 31
0.0
  0
LINE
  5
7309
330
7304
100
AcDbEntity
  8
Dim
 62
     0
370
    -2
100
AcDbLine
 10
1919.462041819002
 20
2131.215789905094
 30
0.0
 11
1919.462041819002
 21
1931.214569201969
 31
0.0
  0
INSERT
  5
730A
330
7304
100
AcDbEntity
  8
Dim
 62
     0
370
    -2
100
AcDbBlockReference
  2
_DOT
 10
1919.462041819002
 20
2141.215179553531
 30
0.0
 41
9.999389648437498
 42
9.999389648437498
 43
9.999389648437498
 50
90.0
  0
INSERT
  5
730B
330
7304
100
AcDbEntity
  8
Dim
 62
     0
370
    -2
100
AcDbBlockReference
  2
_DOT
 10
1919.462041819002
 20
1921.215179553531
 30
0.0
 41
9.999389648437498
 42
9.999389648437498
 43
9.999389648437498
 50
270.0
  0
MTEXT
  5
730C
330
7304
100
AcDbEntity
  8
Dim
 62
     0
100
AcDbMText
 10
1897.241150390967
 20
2031.215179553531
 30
0.0
 40
24.4326171875
 41
0.0
 46
0.0
 71
     5
 72
     1
  1
\A1;220
  7
ＭＳ ゴシック
 11
0.0
 21
1.0
 31
0.0
 73
     1
 44
1.0
  0
POINT
  5
730D
330
7304
100
AcDbEntity
  8
Defpoints
 62
     0
100
AcDbPoint
 10
1856.473159601707
 20
2141.215179553531
 30
0.0
  0
POINT
  5
730E
330
7304
100
AcDbEntity
  8
Defpoints
 62
     0
100
AcDbPoint
 10
1688.297220524042
 20
1921.215179553531
 30
0.0
  0
POINT
  5
730F
330
7304
100
AcDbEntity
  8
Defpoints
 62
     0
100
AcDbPoint
 10
1919.462041819002
 20
1921.215179553531
 30
0.0
  0
ENDBLK
  5
7306
330
7304
100
AcDbEntity
  8
0
100
AcDbBlockEnd
  0
BLOCK
  5
7319
330
7318
100
AcDbEntity
  8
0
100
AcDbBlockBegin
  2
*D25
 70
     1
 10
0.0
 20
0.0
 30
0.0
  3
*D25
  1

  0
LINE
  5
731B
330
7318
100
AcDbEntity
  8
Dim
 62
     0
370
    -2
100
AcDbLine
 10
1338.297220524042
 20
1903.454709436122
 30
0.0
 11
1338.297220524042
 21
1764.882402088639
 31
0.0
  0
LINE
  5
731C
330
7318
100
AcDbEntity
  8
Dim
 62
     0
370
    -2
100
AcDbLine
 10
1688.297220524042
 20
1903.454709436122
 30
0.0
 11
1688.297220524042
 21
1764.882402088639
 31
0.0
  0
LINE
  5
731D
330
7318
100
AcDbEntity
  8
Dim
 62
     0
370
    -2
100
AcDbLine
 10
1348.29661017248
 20
1764.882402088639
 30
0.0
 11
1678.297830875605
 21
1764.882402088639
 31
0.0
  0
INSERT
  5
731E
330
7318
100
AcDbEntity
  8
Dim
 62
     0
370
    -2
100
AcDbBlockReference
  2
_DOT
 10
1338.297220524042
 20
1764.882402088639
 30
0.0
 41
9.999389648437498
 42
9.999389648437498
 43
9.999389648437498
 50
180.0
  0
INSERT
  5
731F
330
7318
100
AcDbEntity
  8
Dim
 62
     0
370
    -2
100
AcDbBlockReference
  2
_DOT
 10
1688.297220524042
 20
1764.882402088639
 30
0.0
 41
9.999389648437498
 42
9.999389648437498
 43
9.999389648437498
  0
MTEXT
  5
7320
330
7318
100
AcDbEntity
  8
Dim
 62
     0
100
AcDbMText
 10
1513.297220524042
 20
1787.103293516675
 30
0.0
 40
24.4326171875
 41
0.0
 46
0.0
 71
     5
 72
     1
  1
\A1;350
  7
ＭＳ ゴシック
 73
     1
 44
1.0
  0
POINT
  5
7321
330
7318
100
AcDbEntity
  8
Defpoints
 62
     0
100
AcDbPoint
 10
1338.297220524042
 20
1928.454709436122
 30
0.0
  0
POINT
  5
7322
330
7318
100
AcDbEntity
  8
Defpoints
 62
     0
100
AcDbPoint
 10
1688.297220524042
 20
1928.454709436122
 30
0.0
  0
POINT
  5
7323
330
7318
100
AcDbEntity
  8
Defpoints
 62
     0
100
AcDbPoint
 10
1688.297220524042
 20
1764.882402088639
 30
0.0
  0
ENDBLK
  5
731A
330
7318
100
AcDbEntity
  8
0
100
AcDbBlockEnd
  0
ENDSEC
  0
SECTION
  2
ENTITIES
  0
MTEXT
  5
177
330
A
100
AcDbEntity
  8
template
390
1D
100
AcDbMText
 10
82.00000000048226
 20
348.023957835319
 30
0.0
 40
16.28841145833333
 41
0.0
 46
0.0
 71
     1
 72
     1
  1
品名
  7
ＭＳ ゴシック
 73
     1
 44
0.7828267384257843
  0
MTEXT
  5
178
330
A
100
AcDbEntity
  8
template
390
1D
100
AcDbMText
 10
82.00000000048226
 20
263.0239578353188
 30
0.0
 40
16.28841145833333
 41
0.0
 46
0.0
 71
     1
 72
     1
  1
仕様
  7
ＭＳ ゴシック
 73
     1
 44
0.7828267384257843
  0
LINE
  5
179
330
A
100
AcDbEntity
  8
template
390
1D
100
AcDbLine
 10
2025.0
 20
271.4388797103189
 30
0.0
 11
75.00000000000023
 21
271.4388797103189
 31
0.0
  0
LWPOLYLINE
  5
17A
330
A
100
AcDbEntity
  8
template
390
1D
100
AcDbPolyline
 90
        5
 70
   128
 43
0.0
 10
2025.0
 20
2901.438879710319
 10
75.00000000000023
 20
2901.438879710319
 10
75.00000000000023
 20
101.4388797103188
 10
2025.0
 20
101.4388797103188
 10
2025.0
 20
2901.438879710319
  0
LINE
  5
17B
330
A
100
AcDbEntity
  8
template
390
1D
100
AcDbLine
 10
2025.0
 20
356.4388797103188
 30
0.0
 11
75.00000000000023
 21
356.4388797103188
 31
0.0
  0
LINE
  5
17C
330
A
100
AcDbEntity
  8
template
390
1D
100
AcDbLine
 10
2025.000000000482
 20
186.4388797103189
 30
0.0
 11
1272.000000000482
 21
186.4388797103189
 31
0.0
  0
MTEXT
  5
17E
330
A
100
AcDbEntity
  8
template
390
1D
100
AcDbMText
 10
1301.871406252743
 20
156.5284852370108
 30
0.0
 40
24.4326171875
 41
0.0
 46
0.0
 71
     1
 72
     1
  1
大洋金物株式会社 ティーフォルム事業部
  7
ＭＳ ゴシック
 73
     1
 44
0.7828267384257843
  0
MTEXT
  5
180
330
A
100
AcDbEntity
  8
template
390
1D
100
AcDbMText
 10
1834.000000000742
 20
234.4414968978188
 30
0.0
 40
24.4326171875
 41
0.0
 46
0.0
 71
     1
 72
     1
  1
1:10
  7
ＭＳ ゴシック
 73
     1
 44
0.7828267384257843
  0
MTEXT
  5
181
330
A
100
AcDbEntity
  8
template
390
1D
100
AcDbMText
 10
1781.000000000742
 20
263.0239578353188
 30
0.0
 40
16.28841145833333
 41
0.0
 46
0.0
 71
     1
 72
     1
  1
縮尺
  7
ＭＳ ゴシック
 73
     1
 44
0.7828267384257843
  0
LINE
  5
182
330
A
100
AcDbEntity
  8
template
390
1D
100
AcDbLine
 10
1774.000000000742
 20
186.4388797103189
 30
0.0
 11
1774.000000000742
 21
271.4388797103189
 31
0.0
  0
MTEXT
  5
183
330
A
100
AcDbEntity
  8
template
390
1D
100
AcDbMText
 10
1530.000000000742
 20
263.0239578353188
 30
0.0
 40
16.28841145833333
 41
0.0
 46
0.0
 71
     1
 72
     1
  1
容量
  7
ＭＳ ゴシック
 73
     1
 44
0.7828267384257843
  0
LINE
  5
184
330
A
100
AcDbEntity
  8
template
390
1D
100
AcDbLine
 10
1523.000000000742
 20
186.4388797103189
 30
0.0
 11
1523.000000000742
 21
271.4388797103189
 31
0.0
  0
MTEXT
  5
185
330
A
100
AcDbEntity
  8
template
390
1D
100
AcDbMText
 10
1279.000000000742
 20
348.023957835319
 30
0.0
 40
16.28841145833333
 41
0.0
 46
0.0
 71
     1
 72
     1
  1
品番
  7
ＭＳ ゴシック
 73
     1
 44
0.7828267384257843
  0
MTEXT
  5
186
330
A
100
AcDbEntity
  8
template
390
1D
100
AcDbMText
 10
1279.000000000742
 20
263.0239578353188
 30
0.0
 40
16.28841145833333
 41
0.0
 46
0.0
 71
     1
 72
     1
  1
重量
  7
ＭＳ ゴシック
 73
     1
 44
0.7828267384257843
  0
MTEXT
  5
187
330
A
100
AcDbEntity
  8
template
390
1D
100
AcDbMText
 10
1332.000000000742
 20
319.4414968978188
 30
0.0
 40
24.4326171875
 41
0.0
 46
24.4326171875
 71
     1
 72
     1
  1
{ADF70-0623-001}
  7
ＭＳ ゴシック
 73
     1
 44
0.7828267384257843
1001
ACAD
1000
ACAD_MTEXT_DEFINED_HEIGHT_BEGIN
1070
    46
1040
24.4326171875
1000
ACAD_MTEXT_DEFINED_HEIGHT_END
  0
LINE
  5
188
330
A
100
AcDbEntity
  8
template
390
1D
100
AcDbLine
 10
1272.000000000742
 20
101.4388797103188
 30
0.0
 11
1272.000000000742
 21
356.4388797103188
 31
0.0
  0
MTEXT
  5
189
330
A
100
AcDbEntity
  8
template
390
1D
100
AcDbMText
 10
135.0000000004822
 20
319.4414968978188
 30
0.0
 40
24.4326171875
 41
0.0
 46
27.53672361022102
 71
     1
 72
     1
  1
{洗面器 -CATALANO, Verso-}
  7
ＭＳ ゴシック
 73
     1
 44
0.7828267384257843
1001
ACAD
1000
ACAD_MTEXT_DEFINED_HEIGHT_BEGIN
1070
    46
1040
27.53672361022102
1000
ACAD_MTEXT_DEFINED_HEIGHT_END
  0
MTEXT
  5
18A
330
A
100
AcDbEntity
  8
template
390
1D
100
AcDbMText
 10
135.0000000004823
 20
234.4414968978188
 30
0.0
 40
24.4326171875
 41
0.0
 46
69.00885866868045
 71
     1
 72
     1
  1
{壁掛け、カウンター置き/オーバーフロー無し/\fＭＳ ゴシック|b0|i0|c1|p0;^Z^Z壁取付ボルト付属/^Z^Z\fＭＳ ゴシック|b0|i0|c0|p0;\P陶器/ホワイト}
  7
ＭＳ ゴシック
 73
     1
 44
0.9822934569727008
1001
ACAD
1000
ACAD_MTEXT_DEFINED_HEIGHT_BEGIN
1070
    46
1040
69.00885866868045
1000
ACAD_MTEXT_DEFINED_HEIGHT_END
  0
MTEXT
  5
1A6
330
A
100
AcDbEntity
  8
template
390
1D
100
AcDbMText
 10
1332.000000000742
 20
234.4414968978188
 30
0.0
 40
24.4326171875
 41
0.0
 46
28.40135167875453
 71
     1
 72
     1
  1
{15kg}
  7
ＭＳ ゴシック
 73
     1
 44
0.7828267384257843
1001
ACAD
1000
ACAD_MTEXT_DEFINED_HEIGHT_BEGIN
1070
    46
1040
28.40135167875453
1000
ACAD_MTEXT_DEFINED_HEIGHT_END
  0
MTEXT
  5
374
330
A
100
AcDbEntity
  8
template
390
1D
100
AcDbMText
 10
1581.992122669024
 20
234.4414968978188
 30
0.0
 40
24.4326171875
 41
0.0
 46
24.4326171875
 71
     1
 72
     1
  1
{8.5L}
  7
ＭＳ ゴシック
 73
     1
 44
0.7828267384257843
1001
ACAD
1000
ACAD_MTEXT_DEFINED_HEIGHT_BEGIN
1070
    46
1040
24.4326171875
1000
ACAD_MTEXT_DEFINED_HEIGHT_END
  0
INSERT
  5
3D0
330
A
100
AcDbEntity
  8
template
100
AcDbBlockReference
  2
名称未設定-1
 10
1873.559250554905
 20
30.23897196054438
 30
0.0
 41
0.7619999999999999
 42
0.7619999999999999
 43
0.7619999999999999
  0
MTEXT
  5
BDB
102
{ACAD_XDICTIONARY
360
BDC
102
}
330
A
100
AcDbEntity
  8
template
  6
Continuous
100
AcDbMText
 10
78.95663872901252
 20
86.10730750352229
 30
0.0
 40
23.0
 41
0.0
 46
23.0
 71
     1
 72
     1
  1
{20210818N}
  7
ＭＳ ゴシック
 73
     1
 44
1.0
1001
ACAD
1000
ACAD_MTEXT_DEFINED_HEIGHT_BEGIN
1070
    46
1040
23.0
1000
ACAD_MTEXT_DEFINED_HEIGHT_END
  0
LWPOLYLINE
  5
BEE
330
A
100
AcDbEntity
  8
PRINT BORDER
100
AcDbPolyline
 90
        4
 70
     1
 43
0.0
 10
0.0
 20
0.0
 10
0.0
 20
2970.0
 10
2100.0
 20
2970.0
 10
2100.0
 20
0.0
  0
INSERT
  5
1273
330
A
100
AcDbEntity
  8
0
 62
     7
100
AcDbBlockReference
  2
BLOCK_2
 10
591.2037060744204
 20
943.564364962162
 30
0.0
  0
INSERT
  5
127B
330
A
100
AcDbEntity
  8
0
 62
     7
100
AcDbBlockReference
  2
BLOCK_2
 10
1291.863324028138
 20
1038.76992320659
 30
0.0
  0
INSERT
  5
127C
330
A
100
AcDbEntity
  8
0
 62
     7
100
AcDbBlockReference
  2
BLOCK_2
 10
652.1648429406905
 20
1595.641631888467
 30
0.0
  0
INSERT
  5
3B99
330
A
100
AcDbEntity
  8
retino
100
AcDbBlockReference
  2
mobile_latù
 10
-92101.31485198285
 20
1730.415535296608
 30
0.0
  0
INSERT
  5
45C2
330
A
100
AcDbEntity
  8
retino
100
AcDbBlockReference
  2
mobile_latù
 10
-86439.67799028098
 20
684.0045377191276
 30
0.0
  0
INSERT
  5
45C3
330
A
100
AcDbEntity
  8
0
100
AcDbBlockReference
  2
.TD_SECTION_1
 10
225818108268.3253
 20
1093.456007493889
 30
0.0
  0
INSERT
  5
45C4
330
A
100
AcDbEntity
  8
0
100
AcDbBlockReference
  2
.TD_SECTION_2
 10
225818173804.3253
 20
1093.456007493889
 30
0.0
  0
INSERT
  5
45C5
330
A
100
AcDbEntity
  8
0
  6
Continuous
 62
     0
370
     0
100
AcDbBlockReference
  2
.TD_SECTION_1
 10
-5309.067341990833
 20
1307.927120367214
 30
0.0
  0
INSERT
  5
45C6
330
A
100
AcDbEntity
  8
0
  6
Continuous
 62
     0
370
     0
100
AcDbBlockReference
  2
.TD_SECTION_2
 10
-5866.445500560169
 20
1615.480640569851
 30
0.0
  0
INSERT
  5
45C7
330
A
100
AcDbEntity
  8
0
  6
Continuous
 62
     0
370
     0
100
AcDbBlockReference
  2
.TD_SECTION_1
 10
-7732.562264964368
 20
-610.0674069533197
 30
0.0
  0
INSERT
  5
45C8
330
A
100
AcDbEntity
  8
0
  6
Continuous
 62
     0
370
     0
100
AcDbBlockReference
  2
.TD_SECTION_2
 10
-7444.601476237562
 20
-908.1755612501947
 30
0.0
  0
INSERT
  5
45C9
330
A
100
AcDbEntity
  8
0
  6
Continuous
 62
     0
370
     0
100
AcDbBlockReference
  2
.TD_SECTION_1
 10
-7604.211434120536
 20
-675.956232615647
 30
0.0
  0
INSERT
  5
45CA
330
A
100
AcDbEntity
  8
0
  6
Continuous
 62
     0
370
     0
100
AcDbBlockReference
  2
.TD_SECTION_2
 10
-7316.160069221854
 20
-974.1548715316626
 30
0.0
  0
INSERT
  5
45CB
330
A
100
AcDbEntity
  8
0
  6
Continuous
 62
     0
370
     0
100
AcDbBlockReference
  2
.TD_SECTION_1
 10
1998.261972039336
 20
584.7577436013784
 30
0.0
  0
INSERT
  5
45CC
330
A
100
AcDbEntity
  8
0
  6
Continuous
 62
     0
370
     0
100
AcDbBlockReference
  2
.TD_SECTION_2
 10
2325.569123833769
 20
298.7106092019643
 30
0.0
  0
INSERT
  5
45CD
330
A
100
AcDbEntity
  8
0
  6
Continuous
 62
     0
370
     0
100
AcDbBlockReference
  2
.TD_SECTION_1
 10
4096.079043894448
 20
729.9229578437947
 30
0.0
  0
INSERT
  5
45CE
330
A
100
AcDbEntity
  8
0
  6
Continuous
 62
     0
370
     0
100
AcDbBlockReference
  2
.TD_SECTION_2
 10
4527.386195688881
 20
443.5448297920369
 30
0.0
  0
INSERT
  5
4611
330
A
100
AcDbEntity
  8
0
  6
Continuous
 62
     0
370
     0
100
AcDbBlockReference
  2
.TD_SECTION_1
 10
6135.868573041045
 20
-239.8054397977554
 30
0.0
  0
INSERT
  5
4612
330
A
100
AcDbEntity
  8
0
  6
Continuous
 62
     0
370
     0
100
AcDbBlockReference
  2
.TD_SECTION_2
 10
6878.171818585479
 20
-958.2465713895522
 30
0.0
  0
ELLIPSE
  5
543D
330
A
100
AcDbEntity
  8
tratteggio
  6
HIDDEN2
 62
     3
 60
     1
370
     0
100
AcDbEllipse
 10
-4096.49475666334
 20
1623.797447106776
 30
0.0
 11
300.0
 21
0.0
 31
0.0
210
0.0
220
0.0
230
1.0
 40
0.5
 41
5.728374274199514
 42
6.837996340159658
  0
ELLIPSE
  5
62B3
330
A
100
AcDbEntity
  8
tratteggio
  6
HIDDEN2
 62
     3
 60
     1
370
     0
100
AcDbEllipse
 10
-3728.470049359251
 20
2199.237967545522
 30
0.0
 11
300.0
 21
0.0
 31
0.0
210
0.0
220
0.0
230
1.0
 40
0.5
 41
5.728374274199514
 42
6.837996340159658
  0
MTEXT
  5
655D
330
A
100
AcDbEntity
  8
Dim
390
1D
100
AcDbMText
 10
1197.836789808154
 20
1612.424266243211
 30
34.99521132346015
 40
24.0
 41
1169.771715461011
 46
0.0
 71
     1
 72
     1
  1
※陶器製品には寸法公差があります。\P  洗面器の収め方をご確認の上、必ず現物を合わせて\P  カウンターに切込を行ってください。
  7
ＭＳ ゴシック
 73
     1
 44
1.174240107638677
  0
MTEXT
  5
69F0
330
A
100
AcDbEntity
  8
template
390
1D
100
AcDbMText
 10
109.9913836583539
 20
735.5401602155133
 30
0.0
 40
24.4326171875
 41
0.0
 46
24.4326171875
 71
     1
 72
     1
  1
{  }
  7
ＭＳ ゴシック
 73
     1
 44
0.7828267384257843
1001
ACAD
1000
ACAD_MTEXT_DEFINED_HEIGHT_BEGIN
1070
    46
1040
24.4326171875
1000
ACAD_MTEXT_DEFINED_HEIGHT_END
  0
LINE
  5
6DF0
330
A
100
AcDbEntity
  8
MODEL
100
AcDbLine
 10
961.1790281392755
 20
911.881344873168
 30
0.0
 11
962.1784190880867
 21
911.881344873168
 31
0.0
  0
LINE
  5
6DF1
330
A
100
AcDbEntity
  8
MODEL
100
AcDbLine
 10
321.2978146721275
 20
911.881344873168
 30
0.0
 11
961.1790281392755
 21
911.881344873168
 31
0.0
  0
LINE
  5
6DF2
102
{ACAD_REACTORS
330
716C
102
}
330
A
100
AcDbEntity
  8
MODEL
100
AcDbLine
 10
963.1855992267815
 20
1031.881344873168
 30
0.0
 11
319.2912435846069
 21
1031.881344873168
 31
0.0
  0
ARC
  5
6DF3
330
A
100
AcDbEntity
  8
MODEL
100
AcDbCircle
 10
320.2984237233163
 20
913.8813448731644
 30
0.0
 40
2.0
100
AcDbArc
 50
181.0000000000018
 51
270.0
  0
ARC
  5
6DF4
330
A
100
AcDbEntity
  8
MODEL
100
AcDbCircle
 10
962.1784190880867
 20
913.8813448731644
 30
0.0
 40
2.0
100
AcDbArc
 50
270.0
 51
359.0000000000503
  0
ARC
  5
6DF5
330
A
100
AcDbEntity
  8
MODEL
100
AcDbCircle
 10
319.2912435846069
 20
1028.881344873164
 30
0.0
 40
3.0
100
AcDbArc
 50
90.0
 51
181.0000000000018
  0
ARC
  5
6DF6
330
A
100
AcDbEntity
  8
MODEL
100
AcDbCircle
 10
963.1855992267815
 20
1028.881344873164
 30
0.0
 40
3.0
100
AcDbArc
 50
359.0000000000503
 51
90.0
  0
LINE
  5
6DF7
330
A
100
AcDbEntity
  8
MODEL
100
AcDbLine
 10
966.1851423122503
 20
1028.828987653856
 30
0.0
 11
964.1781144783968
 21
913.8464400602907
 31
-0.000000000000007
  0
LINE
  5
6DF8
102
{ACAD_REACTORS
330
716C
102
}
330
A
100
AcDbEntity
  8
MODEL
100
AcDbLine
 10
318.2987283330008
 20
913.8464400602911
 30
-0.000000000000007
 11
316.2917004991473
 21
1028.828987653856
 31
0.0
  0
LINE
  5
6E7A
330
A
100
AcDbEntity
  8
MODEL
100
AcDbLine
 10
320.2984237233163
 20
911.881344873168
 30
0.0
 11
321.2978146721275
 21
911.881344873168
 31
0.0
  0
LINE
  5
6E8F
330
A
100
AcDbEntity
  8
MODEL
100
AcDbLine
 10
1731.693375892835
 20
920.8905841819217
 30
-0.0000000000000068
 11
1731.693375892835
 21
919.8813448731673
 31
-0.0000000000000069
  0
LINE
  5
6E90
330
A
100
AcDbEntity
  8
MODEL
100
AcDbLine
 10
1731.693375892835
 20
944.7189325730144
 30
-0.0000000000000062
 11
1731.693375892835
 21
924.0379393236583
 31
-0.0000000000000062
  0
LINE
  5
6E91
330
A
100
AcDbEntity
  8
MODEL
100
AcDbLine
 10
1731.693375892835
 20
915.3171235869088
 30
-0.0000000000000071
 11
1731.693375892835
 21
914.8813448731673
 31
-0.0000000000000072
  0
LINE
  5
6E92
102
{ACAD_REACTORS
330
7129
102
}
330
A
100
AcDbEntity
  8
MODEL
100
AcDbLine
 10
1731.693375892835
 20
919.8813448731673
 30
-0.0000000000000069
 11
1731.693375892835
 21
915.3171235869088
 31
-0.0000000000000071
  0
ARC
  5
6E93
330
A
100
AcDbEntity
  8
MODEL
100
AcDbCircle
 10
1728.693375892831
 20
914.8813448731673
 30
0.0000000000001287
 40
2.999999999999663
100
AcDbArc
 50
270.0
 51
0.0
  0
SPLINE
  5
6E94
330
A
100
AcDbEntity
  8
MODEL
100
AcDbSpline
210
0.0
220
0.0
230
1.0
 70
    24
 71
     3
 72
    22
 73
    18
 74
     0
 42
0.000000001
 43
0.0000000001
 40
0.0
 40
0.0
 40
0.0
 40
0.0
 40
0.0625000000000032
 40
0.0625000000000032
 40
0.1250000000000065
 40
0.1250000000000065
 40
0.2500000000000033
 40
0.2500000000000033
 40
0.3750000000000002
 40
0.3750000000000002
 40
0.499999999999997
 40
0.499999999999997
 40
0.6249999999999938
 40
0.6249999999999938
 40
0.7499999999999907
 40
0.7499999999999907
 40
1.0
 40
1.0
 40
1.0
 40
1.0
 10
1731.693375892835
 20
922.478933110586
 30
-0.0000000000000067
 10
1731.693375892835
 20
922.4404003881139
 30
-0.0000000000000067
 10
1731.693375892835
 20
922.40262086405
 30
-0.0000000000000067
 10
1731.693375892835
 20
922.3282286628894
 30
-0.0000000000000067
 10
1731.693375892835
 20
922.291617985393
 30
-0.0000000000000067
 10
1731.693375892835
 20
922.1831981185826
 30
-0.0000000000000067
 10
1731.693375892835
 20
922.1127841789205
 30
-0.0000000000000067
 10
1731.693375892835
 20
921.9745481649809
 30
-0.0000000000000067
 10
1731.693375892835
 20
921.9067378135444
 30
-0.0000000000000067
 10
1731.693375892835
 20
921.7730462202237
 30
-0.0000000000000067
 10
1731.693375892835
 20
921.707169643036
 30
-0.0000000000000067
 10
1731.693375892835
 20
921.576891738405
 30
-0.0000000000000068
 10
1731.693375892835
 20
921.5124697455906
 30
-0.0000000000000068
 10
1731.693375892835
 20
921.3851332897468
 30
-0.0000000000000068
 10
1731.693375892835
 20
921.3221675296666
 30
-0.0000000000000068
 10
1731.693375892835
 20
921.1348790324557
 30
-0.0000000000000068
 10
1731.693375892835
 20
921.0121447847052
 30
-0.0000000000000068
 10
1731.693375892835
 20
920.8905841819217
 30
-0.0000000000000068
  0
SPLINE
  5
6E95
330
A
100
AcDbEntity
  8
MODEL
100
AcDbSpline
210
0.0
220
0.0
230
1.0
 70
    24
 71
     3
 72
    10
 73
     6
 74
     0
 42
0.000000001
 43
0.0000000001
 40
0.0
 40
0.0
 40
0.0
 40
0.0
 40
0.5
 40
0.5
 40
1.0
 40
1.0
 40
1.0
 40
1.0
 10
1731.693375892835
 20
924.0379393236583
 30
-0.0000000000000066
 10
1731.693375892835
 20
923.7742625491594
 30
-0.0000000000000066
 10
1731.693375892835
 20
923.5127337432862
 30
-0.0000000000000066
 10
1731.693375892835
 20
922.9933785044925
 30
-0.0000000000000067
 10
1731.693375892835
 20
922.7355437467124
 30
-0.0000000000000067
 10
1731.693375892835
 20
922.478933110586
 30
-0.0000000000000067
  0
SPLINE
  5
6E96
330
A
100
AcDbEntity
  8
MODEL
100
AcDbSpline
210
0.0
220
0.0
230
1.0
 70
    24
 71
     3
 72
    49
 73
    45
 74
     0
 42
0.000000001
 43
0.0000000001
 40
0.0
 40
0.0
 40
0.0
 40
0.0
 40
0.0625000000000046
 40
0.0625000000000046
 40
0.1250000000000091
 40
0.1875000000000137
 40
0.1875000000000137
 40
0.2187500000000152
 40
0.2187500000000152
 40
0.2343750000000166
 40
0.2343750000000166
 40
0.2421875000000166
 40
0.2421875000000166
 40
0.2500000000000165
 40
0.3125000000000148
 40
0.3125000000000148
 40
0.3750000000000131
 40
0.4375000000000114
 40
0.4375000000000114
 40
0.5000000000000097
 40
0.5000000000000097
 40
0.562500000000008
 40
0.6250000000000063
 40
0.6250000000000063
 40
0.656250000000005
 40
0.656250000000005
 40
0.6640625000000047
 40
0.6640625000000047
 40
0.6718750000000043
 40
0.6875000000000046
 40
0.6875000000000046
 40
0.7500000000000043
 40
0.7500000000000043
 40
0.8125000000000042
 40
0.8125000000000042
 40
0.875000000000004
 40
0.875000000000004
 40
0.906250000000004
 40
0.906250000000004
 40
0.9218750000000037
 40
0.9218750000000037
 40
0.9375000000000032
 40
0.9375000000000032
 40
1.0
 40
1.0
 40
1.0
 40
1.0
 10
1731.693375892835
 20
961.0288888396101
 30
-0.0000000000000043
 10
1731.693375892835
 20
961.0288388346091
 30
-0.0000000000000043
 10
1731.693375892835
 20
961.004079370294
 30
-0.0000000000000043
 10
1731.693375892835
 20
960.9063042819037
 30
-0.0000000000000043
 10
1731.693375892835
 20
960.7603169950091
 30
-0.0000000000000044
 10
1731.693375892835
 20
960.5186726496106
 30
-0.0000000000000044
 10
1731.693375892835
 20
960.3011492518856
 30
-0.0000000000000044
 10
1731.693375892835
 20
960.222585748663
 30
-0.0000000000000044
 10
1731.693375892835
 20
960.0955356773413
 30
-0.0000000000000044
 10
1731.693375892835
 20
960.051651023394
 30
-0.0000000000000044
 10
1731.693375892835
 20
959.9835023441049
 30
-0.0000000000000044
 10
1731.693375892835
 20
959.9603864612293
 30
-0.0000000000000044
 10
1731.693375892835
 20
959.9134653509684
 30
-0.0000000000000044
 10
1731.693375892835
 20
959.6991762291439
 30
-0.0000000000000044
 10
1731.693375892835
 20
959.4568182635705
 30
-0.0000000000000044
 10
1731.693375892835
 20
958.9828118338994
 30
-0.0000000000000045
 10
1731.693375892835
 20
958.4656522416919
 30
-0.0000000000000045
 10
1731.693375892835
 20
957.8628563911336
 30
-0.0000000000000045
 10
1731.693375892835
 20
957.2167377177759
 30
-0.0000000000000046
 10
1731.693375892835
 20
956.8720106748663
 30
-0.0000000000000046
 10
1731.693375892835
 20
956.1378833321726
 30
-0.0000000000000046
 10
1731.693375892835
 20
955.3672894349368
 30
-0.0000000000000047
 10
1731.693375892835
 20
954.5248772775669
 30
-0.0000000000000047
 10
1731.693375892835
 20
953.866014500469
 30
-0.0000000000000048
 10
1731.693375892835
 20
953.6418791849503
 30
-0.0000000000000048
 10
1731.693375892835
 20
953.3560119745309
 30
-0.0000000000000048
 10
1731.693375892835
 20
953.298526620347
 30
-0.0000000000000048
 10
1731.693375892835
 20
953.1831568319105
 30
-0.0000000000000048
 10
1731.693375892835
 20
953.0094893334538
 30
-0.0000000000000048
 10
1731.693375892835
 20
952.833992603679
 30
-0.0000000000000048
 10
1731.693375892835
 20
952.2449742476604
 30
-0.0000000000000049
 10
1731.693375892835
 20
951.7608864593642
 30
-0.0000000000000049
 10
1731.693375892835
 20
950.7675399907168
 30
-0.000000000000005
 10
1731.693375892835
 20
950.2582802532127
 30
-0.000000000000005
 10
1731.693375892835
 20
949.2146611905484
 30
-0.0000000000000051
 10
1731.693375892835
 20
948.6803024288531
 30
-0.0000000000000051
 10
1731.693375892835
 20
947.859624556266
 30
-0.0000000000000051
 10
1731.693375892835
 20
947.5828714126476
 30
-0.0000000000000052
 10
1731.693375892835
 20
947.1628744641205
 30
-0.0000000000000052
 10
1731.693375892835
 20
947.0220479300917
 30
-0.0000000000000052
 10
1731.693375892835
 20
946.7388214649693
 30
-0.0000000000000052
 10
1731.693375892835
 20
946.5967096476963
 30
-0.0000000000000052
 10
1731.693375892835
 20
945.8836637398128
 30
-0.0000000000000053
 10
1731.693375892835
 20
945.3052816040292
 30
-0.0000000000000053
 10
1731.693375892835
 20
944.7189325730144
 30
-0.0000000000000053
  0
SPLINE
  5
6E97
330
A
100
AcDbEntity
  8
MODEL
100
AcDbSpline
210
0.0
220
0.0
230
1.0
 70
    24
 71
     3
 72
    91
 73
    87
 74
     0
 42
0.000000001
 43
0.0000000001
 40
0.0
 40
0.0
 40
0.0
 40
0.0
 40
0.0014792269849649
 40
0.0014792269849649
 40
0.0088756771554473
 40
0.0088756771554473
 40
0.0107247896980678
 40
0.0107247896980678
 40
0.0125739022406884
 40
0.0125739022406884
 40
0.0162721273259296
 40
0.0162721273259296
 40
0.0236685774964126
 40
0.0310650276668955
 40
0.0310650276668955
 40
0.0384614778373784
 40
0.0384614778373784
 40
0.0458579280078613
 40
0.0458579280078613
 40
0.0495561530931029
 40
0.0495561530931029
 40
0.0514052656357237
 40
0.0514052656357237
 40
0.0532543781783446
 40
0.0532543781783446
 40
0.0606508283488272
 40
0.0606508283488272
 40
0.0680472785193101
 40
0.0754437286897928
 40
0.0828401788602754
 40
0.0828401788602754
 40
0.0902366290307581
 40
0.0902366290307581
 40
0.0939348541159998
 40
0.0939348541159998
 40
0.0957839666586205
 40
0.0957839666586205
 40
0.0976330792012411
 40
0.1050295293717232
 40
0.1050295293717232
 40
0.1124259795422052
 40
0.1124259795422052
 40
0.1272188798831688
 40
0.1272188798831688
 40
0.1346153300536502
 40
0.1346153300536502
 40
0.1383135551388911
 40
0.1383135551388911
 40
0.142011780224132
 40
0.1494082303946136
 40
0.1494082303946136
 40
0.156804680565095
 40
0.156804680565095
 40
0.1715975809060578
 40
0.1715975809060578
 40
0.1789940310765392
 40
0.1789940310765392
 40
0.1863904812470204
 40
0.1863904812470204
 40
0.1900887063322611
 40
0.1900887063322611
 40
0.1937869314175018
 40
0.1937869314175018
 40
0.2011833815879834
 40
0.2011833815879834
 40
0.2085798317584652
 40
0.2085798317584652
 40
0.2159762819289468
 40
0.2159762819289468
 40
0.2233727320994284
 40
0.2233727320994284
 40
0.2307691822699102
 40
0.2307691822699102
 40
0.2455620826108734
 40
0.2455620826108734
 40
0.2603549829518368
 40
0.2603549829518368
 40
0.2899407836337635
 40
0.2899407836337635
 40
0.3491123849976165
 40
0.3491123849976165
 40
0.4082839863614696
 40
0.4082839863614696
 40
0.5266271890891758
 40
0.5266271890891758
 40
1.0
 40
1.0
 40
1.0
 40
1.0
 10
1387.891795875799
 20
1031.881344873167
 30
0.0
 10
1387.906586551089
 20
1031.881344873167
 30
0.0
 10
1387.921739955462
 20
1031.881344873167
 30
0.0
 10
1388.014905074462
 20
1031.881344873167
 30
0.0
 10
1388.101842553329
 20
1031.881344873167
 30
0.0
 10
1388.223712705578
 20
1031.881344873167
 30
0.0
 10
1388.248747216854
 20
1031.881344873167
 30
0.0
 10
1388.300178989361
 20
1031.881344873167
 30
0.0
 10
1388.326572992941
 20
1031.881344873167
 30
0.0
 10
1388.407654260805
 20
1031.881344873167
 30
0.0
 10
1388.464304756562
 20
1031.881344873167
 30
0.0
 10
1388.642321561903
 20
1031.881344873167
 30
0.0
 10
1388.901102775271
 20
1031.881344873167
 30
0.0
 10
1389.204403425632
 20
1031.881344873167
 30
0.0
 10
1389.531030978098
 20
1031.881344873167
 30
0.0
 10
1389.706043818584
 20
1031.881344873167
 30
0.0
 10
1390.07999383565
 20
1031.881344873167
 30
0.0
 10
1390.278924442013
 20
1031.881344873167
 30
0.0
 10
1390.595904315316
 20
1031.881344873167
 30
0.0
 10
1390.704666874055
 20
1031.881344873167
 30
0.0
 10
1390.872563782461
 20
1031.881344873167
 30
0.0
 10
1390.929320094532
 20
1031.881344873167
 30
0.0
 10
1391.044422542527
 20
1031.881344873167
 30
0.0
 10
1391.102803198402
 20
1031.881344873167
 30
0.0
 10
1391.398319922515
 20
1031.881344873167
 30
0.0
 10
1391.644835843235
 20
1031.881344873167
 30
0.0
 10
1392.15741796865
 20
1031.881344873167
 30
0.0
 10
1392.689552135147
 20
1031.881344873167
 30
0.0
 10
1393.545374258378
 20
1031.881344873167
 30
0.0
 10
1394.15421785997
 20
1031.881344873167
 30
0.0
 10
1394.782423856312
 20
1031.881344873167
 30
0.0
 10
1395.106201677787
 20
1031.881344873167
 30
0.0
 10
1395.606673987582
 20
1031.881344873167
 30
0.0
 10
1395.775968009166
 20
1031.881344873167
 30
0.0
 10
1396.033672642086
 20
1031.881344873167
 30
0.0
 10
1396.120270305557
 20
1031.881344873167
 30
0.0
 10
1396.294150028731
 20
1031.881344873167
 30
0.0
 10
1396.730802201157
 20
1031.881344873167
 30
0.0
 10
1397.1771606576
 20
1031.881344873167
 30
0.0
 10
1397.90337997373
 20
1031.881344873167
 30
0.0
 10
1398.272511970586
 20
1031.881344873167
 30
0.0
 10
1399.397684854142
 20
1031.881344873167
 30
0.0
 10
1400.171604142542
 20
1031.881344873167
 30
0.0
 10
1401.366599778958
 20
1031.881344873167
 30
0.0
 10
1401.770646366567
 20
1031.881344873167
 30
0.0
 10
1402.385134058721
 20
1031.881344873167
 30
0.0
 10
1402.590446016242
 20
1031.881344873167
 30
0.0
 10
1403.001825280018
 20
1031.881344873167
 30
0.0
 10
1403.62011182039
 20
1031.881344873167
 30
0.0
 10
1404.241887616983
 20
1031.881344873167
 30
0.0
 10
1405.073761959378
 20
1031.881344873167
 30
0.0
 10
1405.49111291048
 20
1031.881344873167
 30
0.0
 10
1406.746848864259
 20
1031.881344873167
 30
0.0
 10
1407.588906263307
 20
1031.881344873167
 30
0.0
 10
1408.857218756937
 20
1031.881344873167
 30
0.0
 10
1409.280863885306
 20
1031.881344873167
 30
0.0
 10
1410.129545108935
 20
1031.881344873167
 30
0.0
 10
1410.554575731498
 20
1031.881344873167
 30
0.0
 10
1411.192934960687
 20
1031.881344873167
 30
0.0
 10
1411.405857094516
 20
1031.881344873167
 30
0.0
 10
1411.831935282149
 20
1031.881344873167
 30
0.0
 10
1412.045123460641
 20
1031.881344873167
 30
0.0
 10
1412.68471752595
 20
1031.881344873167
 30
0.0
 10
1413.111116543012
 20
1031.881344873167
 30
0.0
 10
1413.963918611862
 20
1031.881344873167
 30
0.0
 10
1414.39032167842
 20
1031.881344873167
 30
0.0
 10
1415.243130012357
 20
1031.881344873167
 30
0.0
 10
1415.669535195826
 20
1031.881344873167
 30
0.0
 10
1416.522346678459
 20
1031.881344873167
 30
0.0
 10
1416.948753005468
 20
1031.881344873167
 30
0.0
 10
1417.801566092163
 20
1031.881344873167
 30
0.0
 10
1418.227972808541
 20
1031.881344873167
 30
0.0
 10
1419.507193161866
 20
1031.881344873167
 30
0.0
 10
1420.360007011732
 20
1031.881344873167
 30
0.0
 10
1422.065634634957
 20
1031.881344873167
 30
0.0
 10
1422.918448478238
 20
1031.881344873167
 30
0.0
 10
1425.476890100115
 20
1031.881344873167
 30
0.0
 10
1427.182517963007
 20
1031.881344873167
 30
0.0
 10
1432.299401999764
 20
1031.881344873167
 30
0.0
 10
1435.710658722346
 20
1031.881344873167
 30
0.0
 10
1442.533171936855
 20
1031.881344873167
 30
0.0
 10
1445.944428435323
 20
1031.881344873167
 30
0.0
 10
1456.178197734385
 20
1031.881344873167
 30
0.0
 10
1463.000710405489
 20
1031.881344873167
 30
0.0
 10
1497.113274047711
 20
1031.881344873167
 30
0.0
 10
1524.403324962161
 20
1031.881344873167
 30
0.0
 10
1551.693375876574
 20
1031.881344873167
 30
0.0
  0
SPLINE
  5
6E98
330
A
100
AcDbEntity
  8
MODEL
100
AcDbSpline
210
0.0
220
0.0
230
1.0
 70
    24
 71
     3
 72
    79
 73
    75
 74
     0
 42
0.000000001
 43
0.0000000001
 40
0.0
 40
0.0
 40
0.0
 40
0.0
 40
0.3456918213597526
 40
0.3456918213597526
 40
0.518537732039629
 40
0.518537732039629
 40
0.5617492097095982
 40
0.5617492097095982
 40
0.5725520791270904
 40
0.5725520791270904
 40
0.5833549485445827
 40
0.5833549485445827
 40
0.5941578179620749
 40
0.5941578179620749
 40
0.6049606873795672
 40
0.6049606873795672
 40
0.648172165049537
 40
0.648172165049537
 40
0.669777903884522
 40
0.669777903884522
 40
0.6805807733020145
 40
0.6859822080107607
 40
0.6859822080107607
 40
0.6886829253651339
 40
0.6886829253651339
 40
0.6913836427195068
 40
0.6913836427195068
 40
0.7129893815544897
 40
0.7129893815544897
 40
0.7345951203894727
 40
0.7345951203894727
 40
0.7562008592244558
 40
0.7562008592244558
 40
0.7670037286419472
 40
0.7670037286419472
 40
0.7724051633506926
 40
0.7724051633506926
 40
0.7751058807050656
 40
0.7751058807050656
 40
0.7778065980594384
 40
0.7994123368944219
 40
0.7994123368944219
 40
0.8210180757294054
 40
0.8210180757294054
 40
0.842623814564389
 40
0.842623814564389
 40
0.8534266839818809
 40
0.8534266839818809
 40
0.8588281186906269
 40
0.8615288360450003
 40
0.8615288360450003
 40
0.8642295533993736
 40
0.8642295533993736
 40
0.8858352922343627
 40
0.8858352922343627
 40
0.9074410310693519
 40
0.9074410310693519
 40
0.9290467699043411
 40
0.9290467699043411
 40
0.9398496393218357
 40
0.9398496393218357
 40
0.942550356676209
 40
0.942550356676209
 40
0.9452510740305824
 40
0.9452510740305824
 40
0.9506525087393285
 40
0.9506525087393285
 40
0.9722582475743121
 40
0.9722582475743121
 40
0.9830611169918034
 40
0.9830611169918034
 40
0.9938639864092947
 40
0.9938639864092947
 40
1.0
 40
1.0
 40
1.0
 40
1.0
 10
1551.693375876574
 20
1031.881344873167
 30
0.0
 10
1561.793381766671
 20
1031.881344873167
 30
0.0
 10
1571.893387924316
 20
1031.881344873167
 30
0.0
 10
1587.043396330038
 20
1031.881344873167
 30
0.0
 10
1592.093399114783
 20
1031.881344873167
 30
0.0
 10
1598.405903505499
 20
1031.881344873167
 30
0.0
 10
1599.668403936477
 20
1031.881344873167
 30
0.0
 10
1601.246529635034
 20
1031.881344873167
 30
0.0
 10
1601.562154877829
 20
1031.881344873167
 30
0.0
 10
1602.193405921309
 20
1031.881344873167
 30
0.0
 10
1602.509031932109
 20
1031.881344873167
 30
0.0
 10
1603.140281961565
 20
1031.881344873167
 30
0.0
 10
1603.455905936869
 20
1031.881344873167
 30
0.0
 10
1604.087148601123
 20
1031.881344873167
 30
0.0
 10
1604.402767518593
 20
1031.881344873167
 30
0.0
 10
1605.980831854874
 20
1031.881344873167
 30
0.0
 10
1607.243186798383
 20
1031.881344873167
 30
0.0
 10
1609.136212748726
 20
1031.881344873167
 30
0.0
 10
1609.767137611859
 20
1031.881344873167
 30
0.0
 10
1610.713355218737
 20
1031.881344873167
 30
0.0
 10
1611.186421465245
 20
1031.881344873167
 30
0.0
 10
1611.659415009759
 20
1031.881344873167
 30
0.0
 10
1611.895898909784
 20
1031.881344873167
 30
0.0
 10
1611.97470580419
 20
1031.881344873167
 30
0.0
 10
1612.132082805666
 20
1031.881344873167
 30
0.0
 10
1612.210679694198
 20
1031.881344873167
 30
0.0
 10
1612.917208290906
 20
1031.881344873167
 30
0.0
 10
1613.539217479516
 20
1031.881344873167
 30
0.0
 10
1614.769210024693
 20
1031.881344873167
 30
0.0
 10
1615.377249806948
 20
1031.881344873167
 30
0.0
 10
1616.578020178803
 20
1031.881344873167
 30
0.0
 10
1617.17080594613
 20
1031.881344873167
 30
0.0
 10
1618.04797075468
 20
1031.881344873167
 30
0.0
 10
1618.338353093502
 20
1031.881344873167
 30
0.0
 10
1618.770805328033
 20
1031.881344873167
 30
0.0
 10
1618.914435597635
 20
1031.881344873167
 30
0.0
 10
1619.129083739244
 20
1031.881344873167
 30
0.0
 10
1619.200536770222
 20
1031.881344873167
 30
0.0
 10
1619.343003479392
 20
1031.881344873167
 30
0.0
 10
1619.981584807192
 20
1031.881344873167
 30
0.0
 10
1620.597428857465
 20
1031.881344873167
 30
0.0
 10
1621.65774563681
 20
1031.881344873167
 30
0.0
 10
1622.170652165146
 20
1031.881344873167
 30
0.0
 10
1623.162295469497
 20
1031.881344873167
 30
0.0
 10
1623.640989359355
 20
1031.881344873167
 30
0.0
 10
1624.33306954908
 20
1031.881344873167
 30
0.0
 10
1624.559434594517
 20
1031.881344873167
 30
0.0
 10
1624.892397595085
 20
1031.881344873167
 30
0.0
 10
1625.057232133898
 20
1031.881344873167
 30
0.0
 10
1625.219571293848
 20
1031.881344873167
 30
0.0
 10
1625.327239546091
 20
1031.881344873167
 30
0.0
 10
1625.380830206679
 20
1031.881344873167
 30
0.0
 10
1625.859714160775
 20
1031.881344873167
 30
0.0
 10
1626.260628584914
 20
1031.881344873167
 30
0.0
 10
1627.014575007568
 20
1031.881344873167
 30
0.0
 10
1627.36767132617
 20
1031.881344873167
 30
0.0
 10
1628.026870698216
 20
1031.881344873167
 30
0.0
 10
1628.332971936226
 20
1031.881344873167
 30
0.0
 10
1628.756352538872
 20
1031.881344873167
 30
0.0
 10
1628.891515967938
 20
1031.881344873167
 30
0.0
 10
1629.05312611756
 20
1031.881344873167
 30
0.0
 10
1629.085080778528
 20
1031.881344873167
 30
0.0
 10
1629.148257466804
 20
1031.881344873167
 30
0.0
 10
1629.179494162555
 20
1031.881344873167
 30
0.0
 10
1629.271901327807
 20
1031.881344873167
 30
0.0
 10
1629.331824855478
 20
1031.881344873167
 30
0.0
 10
1629.623249311611
 20
1031.881344873167
 30
0.0
 10
1629.830242270396
 20
1031.881344873167
 30
0.0
 10
1630.104692749344
 20
1031.881344873167
 30
0.0
 10
1630.190123510707
 20
1031.881344873167
 30
0.0
 10
1630.349502638247
 20
1031.881344873167
 30
0.0
 10
1630.423483939117
 20
1031.881344873167
 30
0.0
 10
1630.531214493443
 20
1031.881344873167
 30
0.0
 10
1630.568537571209
 20
1031.881344873167
 30
0.0
 10
1630.604235876242
 20
1031.881344873167
 30
0.0
  0
LINE
  5
6E99
330
A
100
AcDbEntity
  8
HIDDEN
 48
0.5
100
AcDbLine
 10
1574.150554582997
 20
922.0143725416713
 30
-0.0000000000000062
 11
1529.23619720267
 21
922.0143725416713
 31
-0.0000000000000062
  0
LINE
  5
6E9E
330
A
100
AcDbEntity
  8
MODEL
100
AcDbLine
 10
963.185599226787
 20
2166.215179553531
 30
-0.0000000046240195
 11
319.2912435846215
 21
2166.215179553531
 31
-0.0000000046240195
  0
LINE
  5
6E9F
102
{ACAD_REACTORS
330
71BA
102
}
330
A
100
AcDbEntity
  8
MODEL
 48
0.5
100
AcDbLine
 10
319.2912435846215
 20
1816.349020437744
 30
-0.0000000046240195
 11
963.1855992267942
 21
1816.349020437751
 31
-0.0000000046240195
  0
LINE
  5
6EA0
102
{ACAD_REACTORS
330
71AB
102
}
330
A
100
AcDbEntity
  8
MODEL
 48
0.5
100
AcDbLine
 10
966.1851423122557
 20
2163.215179553534
 30
-0.0000000046240195
 11
966.1851423122557
 21
1819.349020437747
 31
-0.0000000046240195
  0
LINE
  5
6EA1
102
{ACAD_REACTORS
330
71BA
102
}
330
A
100
AcDbEntity
  8
MODEL
 48
0.5
100
AcDbLine
 10
319.2912435846215
 20
2166.215179553531
 30
-0.0000000046240195
 11
963.185599226787
 21
2166.215179553531
 31
-0.0000000046240195
  0
LINE
  5
6EA2
102
{ACAD_REACTORS
330
71AB
102
}
330
A
100
AcDbEntity
  8
MODEL
 48
0.5
100
AcDbLine
 10
316.2917004991527
 20
1819.349020437747
 30
-0.0000000046240195
 11
316.2917004991527
 21
2163.215179553534
 31
-0.0000000046240195
  0
ARC
  5
6EA3
330
A
100
AcDbEntity
  8
MODEL
 48
0.5
100
AcDbCircle
 10
963.1855992267942
 20
1819.349020437747
 30
-0.0000000046240195
 40
3.0
100
AcDbArc
 50
270.0
 51
0.0
  0
ARC
  5
6EA4
330
A
100
AcDbEntity
  8
MODEL
 48
0.5
100
AcDbCircle
 10
319.2912435846215
 20
1819.349020437747
 30
-0.0000000046240195
 40
3.0
100
AcDbArc
 50
180.0
 51
270.0
  0
ELLIPSE
  5
6EA5
330
A
100
AcDbEntity
  8
MODEL
 48
0.5
100
AcDbEllipse
 10
319.2912435846215
 20
2163.215179553534
 30
-0.0000000046240195
 11
0.0
 21
3.0
 31
0.0
210
0.0
220
0.0
230
1.0
 40
0.999847695156391
 41
0.0
 42
1.570796326794897
  0
ELLIPSE
  5
6EA6
330
A
100
AcDbEntity
  8
MODEL
 48
0.5
100
AcDbEllipse
 10
963.185599226787
 20
2163.215179553534
 30
-0.0000000046240195
 11
0.0
 21
3.0
 31
0.0
210
0.0
220
0.0
230
1.0
 40
0.999847695156391
 41
4.71238898038469
 42
6.283185307179586
  0
CIRCLE
  5
6EA7
102
{ACAD_REACTORS
330
723B
102
}
330
A
100
AcDbEntity
  8
MODEL
  6
HIDDEN2
100
AcDbCircle
 10
641.2384214057079
 20
2103.865179553539
 30
-0.0000000053126276
 40
17.5
  0
LINE
  5
6EA8
330
A
100
AcDbEntity
  8
MODEL
100
AcDbLine
 10
1728.693375892829
 20
911.8813448731637
 30
-0.0000000000000062
 11
1400.081000184275
 21
911.8813448731637
 31
-0.0000000000000062
  0
LINE
  5
6EA9
330
A
100
AcDbEntity
  8
MODEL
100
AcDbLine
 10
1731.693375892829
 20
915.3171235869015
 30
-0.0000000000000062
 11
1731.693375892829
 21
914.8813448731673
 31
-0.0000000000000062
  0
LINE
  5
6EAA
330
A
100
AcDbEntity
  8
MODEL
100
AcDbLine
 10
1731.693375892829
 20
919.8813448731673
 30
-0.0000000000000062
 11
1731.693375892829
 21
915.3171235869015
 31
-0.0000000000000062
  0
LINE
  5
6EAB
330
A
100
AcDbEntity
  8
MODEL
100
AcDbLine
 10
1400.081000184275
 20
911.8813448731637
 30
-0.0000000000000062
 11
1395.100026693815
 21
911.8813448731637
 31
-0.0000000000000062
  0
LINE
  5
6EAC
330
A
100
AcDbEntity
  8
MODEL
100
AcDbLine
 10
1731.693375892829
 20
920.890584181918
 30
-0.0000000000000062
 11
1731.693375892829
 21
919.8813448731673
 31
-0.0000000000000062
  0
LINE
  5
6EAD
330
A
100
AcDbEntity
  8
MODEL
100
AcDbLine
 10
1731.693375892829
 20
946.5677910746529
 30
-0.0000000000000062
 11
1731.693375892829
 21
924.456968550716
 31
-0.0000000000000062
  0
LINE
  5
6EAE
102
{ACAD_REACTORS
330
7129
102
}
330
A
100
AcDbEntity
  8
HIDDEN
100
AcDbLine
 10
1573.69337589283
 20
914.8813448731673
 30
-0.0000000000000062
 11
1529.693375892834
 21
914.8813448731673
 31
-0.0000000000000062
  0
LINE
  5
6EB4
330
A
100
AcDbEntity
  8
MODEL
 48
0.5
100
AcDbLine
 10
1395.100026693815
 20
911.8813448731637
 30
-0.0000000000000062
 11
1388.847272526362
 21
911.8813448731637
 31
-0.0000000000000062
  0
LINE
  5
6EB5
330
A
100
AcDbEntity
  8
MODEL
 48
0.5
100
AcDbLine
 10
1386.849176083198
 20
913.7941060984381
 30
-0.0000000000000062
 11
1381.8300721123
 21
1028.75048671107
 31
-0.0000000000000062
  0
LINE
  5
6EB7
330
A
100
AcDbEntity
  8
MODEL
 48
0.5
100
AcDbLine
 10
1384.827216777046
 20
1031.881344873164
 30
-0.0000000000000062
 11
1387.192310368189
 21
1031.881344873164
 31
-0.0000000000000062
  0
LINE
  5
6EB8
330
A
100
AcDbEntity
  8
HIDDEN
 48
0.25
100
AcDbLine
 10
1512.274373661197
 20
938.0045816932764
 30
-0.0000000000000062
 11
1512.295778630245
 21
937.9246972612675
 31
-0.0000000000000062
  0
LINE
  5
6EB9
330
A
100
AcDbEntity
  8
HIDDEN
 48
0.25
100
AcDbLine
 10
1514.23460792986
 20
934.8813448731673
 30
-0.0000000000000062
 11
1528.521548734841
 21
922.8931781130561
 31
-0.0000000000000062
  0
LINE
  5
6EBA
330
A
100
AcDbEntity
  8
HIDDEN
 48
0.25
100
AcDbLine
 10
1529.592728991249
 20
920.6474020030112
 30
-0.0000000000000062
 11
1529.693375892834
 21
914.8813448731673
 31
-0.0000000000000062
  0
LINE
  5
6EBF
330
A
100
AcDbEntity
  8
HIDDEN
 48
0.25
100
AcDbLine
 10
1573.69337589283
 20
914.8813448731673
 30
-0.0000000000000062
 11
1573.794022794411
 21
920.6474020030112
 31
-0.0000000000000062
  0
LINE
  5
6EC0
330
A
100
AcDbEntity
  8
HIDDEN
 48
0.25
100
AcDbLine
 10
1574.865203050818
 20
922.8931781130561
 30
-0.0000000000000062
 11
1589.152143855802
 21
934.8813448731673
 31
-0.0000000000000062
  0
LINE
  5
6EC1
330
A
100
AcDbEntity
  8
HIDDEN
 48
0.25
100
AcDbLine
 10
1591.090973155418
 20
937.9246972612675
 30
-0.0000000000000062
 11
1591.316012313231
 21
938.7645548319126
 31
-0.0000000000000062
  0
LINE
  5
6EC2
330
A
100
AcDbEntity
  8
MODEL
 48
0.5
100
AcDbLine
 10
1631.442325453374
 20
1031.881344873164
 30
-0.0000000000000062
 11
1728.693375892829
 21
1031.881344873164
 31
-0.0000000000000062
  0
LINE
  5
6EC4
330
A
100
AcDbEntity
  8
MODEL
 48
0.5
100
AcDbLine
 10
1731.693375892829
 20
1028.881344873167
 30
-0.0000000000000062
 11
1731.693375892829
 21
961.0288638371023
 31
-0.0000000000000062
  0
ARC
  5
6ECC
330
A
100
AcDbEntity
  8
MODEL
100
AcDbCircle
 10
1728.693375892829
 20
914.8813448731673
 30
-0.0000000000000062
 40
2.999999999999736
100
AcDbArc
 50
270.0
 51
0.0
  0
ARC
  5
6ED2
330
A
100
AcDbEntity
  8
MODEL
 48
0.5
100
AcDbCircle
 10
1388.847272526362
 20
913.8813448731673
 30
-0.0000000000000062
 40
2.0
100
AcDbArc
 50
182.5000000000117
 51
270.0
  0
ARC
  5
6ED3
330
A
100
AcDbEntity
  8
MODEL
 48
0.5
100
AcDbCircle
 10
1384.827216777046
 20
1028.881344873168
 30
-0.0000000000000062
 40
3.0
100
AcDbArc
 50
90.0
 51
182.5000000000181
  0
ARC
  5
6ED4
330
A
100
AcDbEntity
  8
HIDDEN
 48
0.5
100
AcDbCircle
 10
1387.192310368189
 20
1028.881344873168
 30
-0.0000000000000062
 40
3.0
100
AcDbArc
 50
28.08482064178505
 51
90.0
  0
ARC
  5
6ED5
330
A
100
AcDbEntity
  8
HIDDEN
 48
0.25
100
AcDbCircle
 10
1507.44474452975
 20
936.7104864677642
 30
-0.0000000000000062
 40
5.0
100
AcDbArc
 50
14.99999999999445
 51
84.83992838600908
  0
ARC
  5
6ED6
330
A
100
AcDbEntity
  8
HIDDEN
 48
0.25
100
AcDbCircle
 10
1518.09133358798
 20
939.4776115318821
 30
-0.0000000000000062
 40
6.000000000000001
100
AcDbArc
 50
194.9999999999944
 51
229.9999999999807
  0
ARC
  5
6ED7
330
A
100
AcDbEntity
  8
HIDDEN
 48
0.25
100
AcDbCircle
 10
1526.59318590578
 20
920.5950447836951
 30
-0.0000000000000062
 40
3.0
100
AcDbArc
 50
0.9999999999757105
 51
49.99999999998239
  0
ARC
  5
6EDC
330
A
100
AcDbEntity
  8
HIDDEN
 48
0.25
100
AcDbCircle
 10
1576.793565879883
 20
920.5950447836951
 30
-0.0000000000000062
 40
3.0
100
AcDbArc
 50
130.0000000000176
 51
178.9999999999722
  0
ARC
  5
6EDD
330
A
100
AcDbEntity
  8
HIDDEN
 48
0.25
100
AcDbCircle
 10
1585.295418197683
 20
939.4776115318821
 30
-0.0000000000000062
 40
6.000000000000001
100
AcDbArc
 50
310.0000000000209
 51
345.0000000000056
  0
ARC
  5
6EDE
330
A
100
AcDbEntity
  8
HIDDEN
 48
0.25
100
AcDbCircle
 10
1596.145641444674
 20
937.4704596063968
 30
-0.0000000000000062
 40
5.0
100
AcDbArc
 50
108.2162586506237
 51
165.0000000000056
  0
ARC
  5
6EDF
330
A
100
AcDbEntity
  8
HIDDEN
 48
0.5
100
AcDbCircle
 10
1631.442325453374
 20
1028.881344873167
 30
-0.0000000000000062
 40
3.0
100
AcDbArc
 50
90.0
 51
175.000475390022
  0
ARC
  5
6EE0
330
A
100
AcDbEntity
  8
MODEL
 48
0.5
100
AcDbCircle
 10
1728.693375892829
 20
1028.881344873167
 30
-0.0000000000000062
 40
3.0
100
AcDbArc
 50
0.0
 51
90.0
  0
SPLINE
  5
6EE9
330
A
100
AcDbEntity
  8
MODEL
100
AcDbSpline
210
0.0
220
0.0
230
1.0
 70
    24
 71
     3
 72
    18
 73
    14
 74
     0
 42
0.000000001
 43
0.0000000001
 40
0.0
 40
0.0
 40
0.0
 40
0.0
 40
0.1249999999999988
 40
0.1249999999999988
 40
0.249999999999999
 40
0.249999999999999
 40
0.3749999999999992
 40
0.3749999999999992
 40
0.4999999999999993
 40
0.4999999999999993
 40
0.7499999999999997
 40
0.7499999999999997
 40
1.0
 40
1.0
 40
1.0
 40
1.0
 10
1731.693375892829
 20
922.2842065420448
 30
-0.0000000000000062
 10
1731.693375892829
 20
922.2184212447175
 30
-0.0000000000000062
 10
1731.693375892829
 20
922.1545119800905
 30
-0.0000000000000062
 10
1731.693375892829
 20
922.0293042927444
 30
-0.0000000000000062
 10
1731.693375892829
 20
921.9680176696204
 30
-0.0000000000000062
 10
1731.693375892829
 20
921.847397797894
 30
-0.0000000000000062
 10
1731.693375892829
 20
921.7880692869514
 30
-0.0000000000000062
 10
1731.693375892829
 20
921.6709209381954
 30
-0.0000000000000062
 10
1731.693375892829
 20
921.6131033203894
 30
-0.0000000000000062
 10
1731.693375892829
 20
921.4414293517332
 30
-0.0000000000000062
 10
1731.693375892829
 20
921.3293304202673
 30
-0.0000000000000062
 10
1731.693375892829
 20
921.1080498563244
 30
-0.0000000000000062
 10
1731.693375892829
 20
920.9988818594795
 30
-0.0000000000000062
 10
1731.693375892829
 20
920.890584181918
 30
-0.0000000000000062
  0
SPLINE
  5
6EEA
330
A
100
AcDbEntity
  8
MODEL
100
AcDbSpline
210
0.0
220
0.0
230
1.0
 70
    24
 71
     3
 72
    14
 73
    10
 74
     0
 42
0.000000001
 43
0.0000000001
 40
0.0
 40
0.0
 40
0.0
 40
0.0
 40
0.25
 40
0.25
 40
0.5
 40
0.5
 40
0.75
 40
0.75
 40
1.0
 40
1.0
 40
1.0
 40
1.0
 10
1731.693375892829
 20
924.456968550716
 30
-0.0000000000000062
 10
1731.693375892829
 20
924.2714761963582
 30
-0.0000000000000062
 10
1731.693375892829
 20
924.0872978229711
 30
-0.0000000000000062
 10
1731.693375892829
 20
923.7213676042886
 30
-0.0000000000000062
 10
1731.693375892829
 20
923.5396144228037
 30
-0.0000000000000062
 10
1731.693375892829
 20
923.1781180957844
 30
-0.0000000000000062
 10
1731.693375892829
 20
922.9983731377581
 30
-0.0000000000000062
 10
1731.693375892829
 20
922.6403114476709
 30
-0.0000000000000062
 10
1731.693375892829
 20
922.4620524746026
 30
-0.0000000000000062
 10
1731.693375892829
 20
922.2842065420448
 30
-0.0000000000000062
  0
SPLINE
  5
6EEB
330
A
100
AcDbEntity
  8
MODEL
100
AcDbSpline
210
0.0
220
0.0
230
1.0
 70
    24
 71
     3
 72
    45
 73
    41
 74
     0
 42
0.000000001
 43
0.0000000001
 40
0.0
 40
0.0
 40
0.0
 40
0.0
 40
0.0625000000000051
 40
0.0625000000000051
 40
0.1250000000000103
 40
0.1875000000000154
 40
0.1875000000000154
 40
0.2187500000000164
 40
0.2187500000000164
 40
0.234375000000017
 40
0.234375000000017
 40
0.2500000000000174
 40
0.2500000000000174
 40
0.3125000000000193
 40
0.3125000000000193
 40
0.3750000000000211
 40
0.4375000000000229
 40
0.4375000000000229
 40
0.5000000000000248
 40
0.5000000000000248
 40
0.5625000000000265
 40
0.6250000000000283
 40
0.6250000000000283
 40
0.6562500000000292
 40
0.6562500000000292
 40
0.6718750000000286
 40
0.6718750000000286
 40
0.6875000000000282
 40
0.6875000000000282
 40
0.7500000000000231
 40
0.7500000000000231
 40
0.812500000000018
 40
0.8750000000000129
 40
0.8750000000000129
 40
0.9375000000000079
 40
0.9375000000000079
 40
0.9531250000000059
 40
0.9531250000000059
 40
0.968750000000004
 40
1.0
 40
1.0
 40
1.0
 40
1.0
 10
1731.693375892829
 20
961.0288888396028
 30
-0.0000000000000062
 10
1731.693375892829
 20
961.0288388346019
 30
-0.0000000000000062
 10
1731.693375892829
 20
961.0072996372257
 30
-0.0000000000000062
 10
1731.693375892829
 20
960.9219678579941
 30
-0.0000000000000062
 10
1731.693375892829
 20
960.7944290113303
 30
-0.0000000000000062
 10
1731.693375892829
 20
960.5828474038537
 30
-0.0000000000000062
 10
1731.693375892829
 20
960.3922403061918
 30
-0.0000000000000062
 10
1731.693375892829
 20
960.3233787743304
 30
-0.0000000000000062
 10
1731.693375892829
 20
960.2119937555765
 30
-0.0000000000000062
 10
1731.693375892829
 20
960.1735887705802
 30
-0.0000000000000062
 10
1731.693375892829
 20
960.0943467931359
 30
-0.0000000000000062
 10
1731.693375892829
 20
960.0534941287917
 30
-0.0000000000000062
 10
1731.693375892829
 20
959.8431219079032
 30
-0.0000000000000062
 10
1731.693375892829
 20
959.6553027250632
 30
-0.0000000000000062
 10
1731.693375892829
 20
959.2414435988869
 30
-0.0000000000000062
 10
1731.693375892829
 20
958.78936092553
 30
-0.0000000000000062
 10
1731.693375892829
 20
958.2611494975392
 30
-0.0000000000000062
 10
1731.693375892829
 20
957.694384436327
 30
-0.0000000000000062
 10
1731.693375892829
 20
957.3917062830262
 30
-0.0000000000000062
 10
1731.693375892829
 20
956.7467024313485
 30
-0.0000000000000062
 10
1731.693375892829
 20
956.0687269617194
 30
-0.0000000000000062
 10
1731.693375892829
 20
955.3257851187811
 30
-0.0000000000000062
 10
1731.693375892829
 20
954.7441593401129
 30
-0.0000000000000062
 10
1731.693375892829
 20
954.5462098338032
 30
-0.0000000000000062
 10
1731.693375892829
 20
954.243127258833
 30
-0.0000000000000062
 10
1731.693375892829
 20
954.1410730669961
 30
-0.0000000000000062
 10
1731.693375892829
 20
953.9349000848745
 30
-0.0000000000000062
 10
1731.693375892829
 20
953.8309933550593
 30
-0.0000000000000062
 10
1731.693375892829
 20
953.307821413084
 30
-0.0000000000000062
 10
1731.693375892829
 20
952.8772152174463
 30
-0.0000000000000062
 10
1731.693375892829
 20
951.9924721140999
 30
-0.0000000000000062
 10
1731.693375892829
 20
951.0841959934626
 30
-0.0000000000000062
 10
1731.693375892829
 20
950.1292383621515
 30
-0.0000000000000062
 10
1731.693375892829
 20
949.1507344966233
 30
-0.0000000000000062
 10
1731.693375892829
 20
948.649710631322
 30
-0.0000000000000062
 10
1731.693375892829
 20
948.0083277509368
 30
-0.0000000000000062
 10
1731.693375892829
 20
947.8792587608771
 30
-0.0000000000000062
 10
1731.693375892829
 20
947.6197493437141
 30
-0.0000000000000062
 10
1731.693375892829
 20
947.2289372124872
 30
-0.0000000000000062
 10
1731.693375892829
 20
946.833487685901
 30
-0.0000000000000062
 10
1731.693375892829
 20
946.5677910746492
 30
-0.0000000000000062
  0
SPLINE
  5
6EEC
330
A
100
AcDbEntity
  8
HIDDEN
 48
0.5
100
AcDbSpline
210
0.0
220
0.0
230
1.0
 70
     8
 71
     3
 72
    41
 73
    37
 74
     0
 42
0.000000001
 43
0.0000000001
 40
0.0
 40
0.0
 40
0.0
 40
0.0
 40
0.0879388828661125
 40
0.1361824152371151
 40
0.1844259476081177
 40
0.2165883025221194
 40
0.2487506574361211
 40
0.2809130123501229
 40
0.2969941898071237
 40
0.3130753672641246
 40
0.3371971334496259
 40
0.3452377221781264
 40
0.3613188996351272
 40
0.3733797827278778
 40
0.3774000770921281
 40
0.3854406658206285
 40
0.4095624320061298
 40
0.4296639038273809
 40
0.4417247869201316
 40
0.449765375648632
 40
0.4698668474698831
 40
0.4899683192911342
 40
0.506049496748135
 40
0.5301712629336364
 40
0.5703742065761386
 40
0.5944959727616398
 40
0.6025365614901401
 40
0.618617738947141
 40
0.6668612713181437
 40
0.6990236262321454
 40
0.7151048036891463
 40
0.763348336060149
 40
0.8276730458881524
 40
0.8919977557161558
 40
0.9563224655441592
 40
1.0
 40
1.0
 40
1.0
 40
1.0
 10
1389.839065228587
 20
1030.293679362214
 30
-0.0000000000000062
 10
1392.743026359823
 20
1024.851573899163
 30
-0.0000000000000062
 10
1397.30447563479
 20
1016.459748999012
 30
-0.0000000000000062
 10
1403.690140558132
 20
1005.189346117022
 30
-0.0000000000000062
 10
1408.282157688905
 20
997.4090162504219
 30
-0.0000000000000062
 10
1412.423655190179
 20
990.6863760611379
 30
-0.0000000000000062
 10
1416.07373014503
 20
985.0185544891431
 30
-0.0000000000000062
 10
1419.213839755526
 20
980.4039393217538
 30
-0.0000000000000062
 10
1421.789017522207
 20
976.8129714978497
 30
-0.0000000000000062
 10
1424.077312158837
 20
973.7482754892883
 30
-0.0000000000000062
 10
1426.074433712916
 20
971.2244109490714
 30
-0.0000000000000062
 10
1428.090637896226
 20
968.8100772902364
 30
-0.0000000000000062
 10
1429.609207260941
 20
967.068970740351
 30
-0.0000000000000062
 10
1430.956599334766
 20
965.6100594084239
 30
-0.0000000000000062
 10
1431.962901520865
 20
964.5572036156775
 30
-0.0000000000000062
 10
1433.466385322065
 20
963.0256498713791
 30
-0.0000000000000062
 10
1435.606021032758
 20
961.006941735199
 30
-0.0000000000000062
 10
1437.827628793033
 20
959.1303589025449
 30
-0.0000000000000062
 10
1439.349827982152
 20
957.9462146258668
 30
-0.0000000000000062
 10
1440.833697111468
 20
956.8512507780508
 30
-0.0000000000000062
 10
1442.552201748762
 20
955.6775158123967
 30
-0.0000000000000062
 10
1444.46715142398
 20
954.5041117217809
 30
-0.0000000000000062
 10
1446.44523016946
 20
953.3994468966523
 30
-0.0000000000000062
 10
1448.992979050088
 20
952.1208320904009
 30
-0.0000000000000062
 10
1451.689493296048
 20
950.9732860698534
 30
-0.0000000000000062
 10
1453.900425748145
 20
950.1662338381541
 30
-0.0000000000000062
 10
1455.398493466235
 20
949.6596210570062
 30
-0.0000000000000062
 10
1457.676218802657
 20
948.9329383554652
 30
-0.0000000000000062
 10
1460.846777528439
 20
948.0668364654523
 30
-0.0000000000000062
 10
1464.267282164752
 20
947.2899542734378
 30
-0.0000000000000062
 10
1467.874043917824
 20
946.555402173108
 30
-0.0000000000000062
 10
1473.046534409625
 20
945.6415675932406
 30
-0.0000000000000062
 10
1480.932735147182
 20
944.5163729965791
 30
-0.0000000000000062
 10
1490.380990205902
 20
943.4011872227895
 30
-0.0000000000000062
 10
1499.468255120069
 20
942.4696972500899
 30
-0.0000000000000062
 10
1505.45244382983
 20
941.9107460968664
 30
-0.0000000000000062
 10
1507.894437252418
 20
941.6902230526832
 30
-0.0000000000000062
  0
SPLINE
  5
6EF2
330
A
100
AcDbEntity
  8
HIDDEN
 48
0.5
100
AcDbSpline
210
0.0
220
0.0
230
1.0
 70
     8
 71
     3
 72
    44
 73
    40
 74
     0
 42
0.000000001
 43
0.0000000001
 40
0.0
 40
0.0
 40
0.0
 40
0.0
 40
0.0260433393065378
 40
0.0591309880875077
 40
0.0922186368684776
 40
0.1418501100399324
 40
0.1914815832113872
 40
0.2162973197971146
 40
0.2245692319923571
 40
0.241113056382842
 40
0.2907445295542969
 40
0.3403760027257517
 40
0.3569198271162367
 40
0.3651917393114791
 40
0.3775996076043428
 40
0.3900074758972065
 40
0.4148232124829339
 40
0.4396389490686614
 40
0.4561827734591463
 40
0.4644546856543887
 40
0.4892704222401161
 40
0.5058142466306011
 40
0.5223580710210861
 40
0.538901895411571
 40
0.5554457198020559
 40
0.5885333685830259
 40
0.6050771929735107
 40
0.6216210173639958
 40
0.6547086661449656
 40
0.6877963149259355
 40
0.7043401393164204
 40
0.7208839637069053
 40
0.7539716124878753
 40
0.7870592612688451
 40
0.820146910049815
 40
0.8697783832212698
 40
0.8863222076117547
 40
0.9194098563927247
 40
1.0
 40
1.0
 40
1.0
 40
1.0
 10
1594.582619061484
 20
942.2198765210962
 30
-0.0000000000000062
 10
1595.13546410043
 20
942.401816575177
 30
-0.0000000000000062
 10
1596.386745466081
 20
942.8156093104883
 30
-0.0000000000000062
 10
1598.322500019332
 20
943.4639781886729
 30
-0.0000000000000062
 10
1600.741169398907
 20
944.2871440889942
 30
-0.0000000000000062
 10
1603.476172840901
 20
945.2521882458971
 30
-0.0000000000000062
 10
1605.954622670758
 20
946.1844458476119
 30
-0.0000000000000062
 10
1607.5347468872
 20
946.8271034336287
 30
-0.0000000000000062
 10
1608.459942084957
 20
947.2202284609741
 30
-0.0000000000000062
 10
1609.823096758396
 20
947.8204903156804
 30
-0.0000000000000062
 10
1611.850468953742
 20
948.8154977488523
 30
-0.0000000000000062
 10
1613.746550662663
 20
950.0004575981295
 30
-0.0000000000000062
 10
1614.887630711369
 20
950.901529089155
 30
-0.0000000000000062
 10
1615.440804780786
 20
951.380297721804
 30
-0.0000000000000062
 10
1615.918629565372
 20
951.8275638597845
 30
-0.0000000000000062
 10
1616.606875729396
 20
952.5401567966912
 30
-0.0000000000000062
 10
1617.419766270593
 20
953.5289283409586
 30
-0.0000000000000062
 10
1618.24294260853
 20
954.775125089069
 30
-0.0000000000000062
 10
1618.829687947984
 20
955.8651533374434
 30
-0.0000000000000062
 10
1619.398097105835
 20
957.0648751465271
 30
-0.0000000000000062
 10
1619.942060799532
 20
958.4218417536724
 30
-0.0000000000000062
 10
1620.527084981915
 20
960.22177040868
 30
-0.0000000000000062
 10
1620.992597577113
 20
961.9072445103268
 30
-0.0000000000000062
 10
1621.425096689296
 20
963.7271870782863
 30
-0.0000000000000062
 10
1621.96387164153
 20
966.3256250770394
 30
-0.0000000000000062
 10
1622.445629783671
 20
969.1395068432505
 30
-0.0000000000000062
 10
1622.878975392121
 20
972.0833422749604
 30
-0.0000000000000062
 10
1623.287702677838
 20
975.0859201916103
 30
-0.0000000000000062
 10
1623.757185377422
 20
978.9305310490893
 30
-0.0000000000000062
 10
1624.190712944257
 20
982.8498053204241
 30
-0.0000000000000062
 10
1624.520699020164
 20
986.0112826387888
 30
-0.0000000000000062
 10
1624.841856264303
 20
989.1869633695608
 30
-0.0000000000000062
 10
1625.230196218095
 20
993.1773634269341
 30
-0.0000000000000062
 10
1625.682747080029
 20
997.9867836558917
 30
-0.0000000000000062
 10
1626.198105048586
 20
1003.614697255565
 30
-0.0000000000000062
 10
1626.632044441828
 20
1008.450504010154
 30
-0.0000000000000062
 10
1627.062222660535
 20
1013.291792965498
 30
-0.0000000000000062
 10
1627.623411018046
 20
1019.64776617186
 30
-0.0000000000000062
 10
1628.109104202651
 20
1025.203214901591
 30
-0.0000000000000062
 10
1628.453739189777
 20
1029.142787304765
 30
-0.0000000000000062
  0
CIRCLE
  5
6F0C
102
{ACAD_REACTORS
330
723B
102
}
330
A
100
AcDbEntity
  8
MODEL
  6
HIDDEN2
100
AcDbCircle
 10
541.2384214057079
 20
2103.865179553539
 30
-0.0000000053126276
 40
16.0
  0
CIRCLE
  5
6F0D
330
A
100
AcDbEntity
  8
MODEL
  6
HIDDEN2
100
AcDbCircle
 10
741.2384214057079
 20
2103.865179553539
 30
-0.0000000053126276
 40
16.0
  0
CIRCLE
  5
6F0E
330
A
100
AcDbEntity
  8
MODEL
100
AcDbCircle
 10
641.2384214057079
 20
1986.215179553531
 30
-0.0000000046240195
 40
23.0
  0
CIRCLE
  5
6F0F
330
A
100
AcDbEntity
  8
MODEL
100
AcDbCircle
 10
641.2384214057079
 20
1986.215179553531
 30
-0.0000000046240195
 40
36.0
  0
LINE
  5
6F2F
330
A
100
AcDbEntity
  8
MODEL
100
AcDbLine
 10
320.2984237233163
 20
911.881344873168
 30
0.0
 11
321.2978146721275
 21
911.881344873168
 31
0.0
  0
SPLINE
  5
6F30
330
A
100
AcDbEntity
  8
MODEL
 48
0.5
100
AcDbSpline
210
0.0
220
0.0
230
1.0
 70
     8
 71
     3
 72
    51
 73
    47
 74
     0
 42
0.000000001
 43
0.0000000001
 40
0.0
 40
0.0
 40
0.0
 40
0.0
 40
0.0625002058043183
 40
0.0937501989441744
 40
0.1250001920840304
 40
0.1562501852238865
 40
0.1875001783637425
 40
0.2031251749336705
 40
0.2187501715035986
 40
0.2343751680735266
 40
0.2421876663584906
 40
0.2500001646434546
 40
0.2578126629284186
 40
0.2656251612133826
 40
0.2734376594983466
 40
0.2812501577833107
 40
0.2890626560682747
 40
0.2968751543532387
 40
0.3046876526382027
 40
0.3125001509231667
 40
0.3203126492081307
 40
0.3242188983506127
 40
0.3281251474930947
 40
0.3359376457780588
 40
0.3437501440630228
 40
0.3515626423479867
 40
0.3593751406329508
 40
0.3671876389179148
 40
0.3750001372028789
 40
0.3828126354878428
 40
0.3906251337728069
 40
0.4062501303427348
 40
0.421875126912663
 40
0.4375001234825909
 40
0.468750116622447
 40
0.5000001097623031
 40
0.5312501029021592
 40
0.562500096042015
 40
0.593750089181871
 40
0.6250000823217273
 40
0.6875000686014395
 40
0.7500000548811514
 40
0.8125000411608636
 40
0.8750000274405757
 40
0.9375000137202878
 40
1.0
 40
1.0
 40
1.0
 40
1.0
 10
958.9384214079023
 20
1986.215179553531
 30
-0.0000000046876926
 10
958.9384214079023
 20
1976.389333476526
 30
-0.0000000046876926
 10
958.938394456562
 20
1961.650564449332
 30
-0.0000000046876926
 10
958.9383451938543
 20
1941.998872453844
 30
-0.0000000046876926
 10
958.9383117268067
 20
1927.260103443651
 30
-0.0000000046876926
 10
958.9382918835095
 20
1912.521334385909
 30
-0.0000000046876926
 10
958.9383912851249
 20
1900.2390265163
 30
-0.0000000046876926
 10
958.9386031197632
 20
1890.413179858601
 30
-0.0000000046876926
 10
958.9387227145185
 20
1883.043794961525
 30
-0.0000000046876926
 10
958.9387017775357
 20
1876.902641191812
 30
-0.0000000046876926
 10
958.9385599494549
 20
1871.989718501356
 30
-0.0000000046876926
 10
958.9383778593897
 20
1868.305026680823
 30
-0.0000000046876926
 10
958.9381068706048
 20
1864.620335092243
 30
-0.0000000046876926
 10
958.9383011344676
 20
1860.935640090893
 30
-0.0000000046876926
 10
958.9395148023455
 20
1857.250938032025
 30
-0.0000000046876926
 10
958.932564530513
 20
1853.566259697944
 30
-0.0000000046876926
 10
958.908266975252
 20
1849.881635870958
 30
-0.0000000046876926
 10
958.8333380799436
 20
1846.197475921609
 30
-0.0000000046876926
 10
958.6409657510726
 20
1842.517091072978
 30
-0.0000000046876926
 10
958.1772548204158
 20
1838.85627514899
 30
-0.0000000046876926
 10
957.3478889836829
 20
1835.886929048861
 30
-0.0000000046876926
 10
956.3332420984939
 20
1833.645801602629
 30
-0.0000000046876926
 10
955.0868314130844
 20
1831.524816014373
 30
-0.0000000046876926
 10
953.1215938138689
 20
1829.144358442986
 30
-0.0000000046876926
 10
950.2297366516273
 20
1826.828516792988
 30
-0.0000000046876926
 10
946.9222941909452
 20
1825.160850952051
 30
-0.0000000046876926
 10
943.3585220413574
 20
1824.169201227784
 30
-0.0000000046876926
 10
939.6959239479534
 20
1823.715638471471
 30
-0.0000000046876926
 10
936.0137773616284
 20
1823.554740650545
 30
-0.0000000046876926
 10
932.3290898749242
 20
1823.517678030903
 30
-0.0000000046876926
 10
927.4161979431578
 20
1823.51422853444
 30
-0.0000000046876926
 10
921.275032754746
 20
1823.515367080332
 30
-0.0000000046876926
 10
913.9056467670366
 20
1823.515517397102
 30
-0.0000000046876926
 10
904.0798056310073
 20
1823.515035957533
 30
-0.0000000046876926
 10
891.7974992934819
 20
1823.514917021601
 30
-0.0000000046876926
 10
877.0587279891756
 20
1823.515136708813
 30
-0.0000000046876926
 10
862.3199571543214
 20
1823.515308635031
 30
-0.0000000046876926
 10
847.5811867455036
 20
1823.515437240645
 30
-0.0000000046876926
 10
832.8424167192993
 20
1823.515526966038
 30
-0.0000000046876926
 10
813.1907238033077
 20
1823.515600680107
 30
-0.0000000046876926
 10
788.6261083977865
 20
1823.515617824049
 30
-0.0000000046876926
 10
759.1485707470042
 20
1823.515553922035
 30
-0.0000000046876926
 10
729.671033584737
 20
1823.515441068338
 30
-0.0000000046876926
 10
700.1934965636669
 20
1823.515314786035
 30
-0.0000000046876926
 10
670.715959336469
 20
1823.515210598197
 30
-0.0000000046876926
 10
651.064267482709
 20
1823.515179551329
 30
-0.0000000046876926
 10
641.2384214057079
 20
1823.515179551329
 30
-0.0000000046876926
  0
SPLINE
  5
6F31
330
A
100
AcDbEntity
  8
MODEL
 48
0.5
100
AcDbSpline
210
0.0
220
0.0
230
1.0
 70
     8
 71
     3
 72
    49
 73
    45
 74
     0
 42
0.000000001
 43
0.0000000001
 40
0.0
 40
0.0
 40
0.0
 40
0.0
 40
0.1250001407193461
 40
0.1875001306679642
 40
0.2500001206165823
 40
0.3125001105652004
 40
0.3750001005138187
 40
0.4375000904624367
 40
0.5000000804110549
 40
0.5625000703596731
 40
0.593750065333982
 40
0.625000060308291
 40
0.6562500552826002
 40
0.6718750527697547
 40
0.6875000502569093
 40
0.7031250477440638
 40
0.7187500452312184
 40
0.7343750427183728
 40
0.7421875414619502
 40
0.7500000402055274
 40
0.7578125389491046
 40
0.765625037692682
 40
0.7734375364362591
 40
0.7812500351798365
 40
0.7890625339234137
 40
0.796875032666991
 40
0.8046875314105681
 40
0.8125000301541456
 40
0.8203125288977229
 40
0.8281250276413
 40
0.8359375263848773
 40
0.8437500251284545
 40
0.8515625238720319
 40
0.8593750226156092
 40
0.8671875213591864
 40
0.8710937707309752
 40
0.8750000201027637
 40
0.876953144788658
 40
0.892089861104339
 40
0.90722657742002
 40
0.9223632937357009
 40
0.9375000100513817
 40
0.9687500050256909
 40
1.0
 40
1.0
 40
1.0
 40
1.0
 10
641.2384214057079
 20
2063.215179553861
 30
-0.0000000046876926
 10
657.3209836202282
 20
2063.215179553861
 30
-0.0000000046876926
 10
681.4448269692571
 20
2063.215173810246
 30
-0.0000000046876926
 10
713.609951474295
 20
2063.215163535637
 30
-0.0000000046876926
 10
737.7337948691916
 20
2063.215156739132
 30
-0.0000000046876926
 10
761.8576382765082
 20
2063.215153069776
 30
-0.0000000046876926
 10
785.9814816925414
 20
2063.215154745258
 30
-0.0000000046876926
 10
810.1053251135731
 20
2063.215163983261
 30
-0.0000000046876926
 10
834.2291685359146
 20
2063.215183001486
 30
-0.0000000046876926
 10
854.3323713858613
 20
2063.215208848267
 30
-0.0000000046876926
 10
870.4149334860981
 20
2063.215205234379
 30
-0.0000000046876926
 10
882.476854926796
 20
2063.215182805752
 30
-0.0000000046876926
 10
892.5284559781126
 20
2063.215141372906
 30
-0.0000000046876926
 10
900.5697370626717
 20
2063.215143647138
 30
-0.0000000046876926
 10
906.6006980810912
 20
2063.215175329538
 30
-0.0000000046876926
 10
912.6316593877987
 20
2063.215249255149
 30
-0.0000000046876926
 10
918.662619926456
 20
2063.215211609391
 30
-0.0000000046876926
 10
923.6884188550307
 20
2063.214959082992
 30
-0.0000000046876926
 10
927.7090630377047
 20
2063.215495265182
 30
-0.0000000046876926
 10
930.7245432127734
 20
2063.215361244043
 30
-0.0000000046876926
 10
933.7400115787082
 20
2063.212950888812
 30
-0.0000000046876926
 10
936.7554058095034
 20
2063.172046214289
 30
-0.0000000046876926
 10
939.7680414011179
 20
2063.021285188655
 30
-0.0000000046876926
 10
942.7650066059855
 20
2062.660656763559
 30
-0.0000000046876926
 10
945.7048290307271
 20
2061.959530199894
 30
-0.0000000046876926
 10
948.5114081560591
 20
2060.831063256095
 30
-0.0000000046876926
 10
951.0952196812636
 20
2059.255710101568
 30
-0.0000000046876926
 10
953.3773046308693
 20
2057.268168980647
 30
-0.0000000046876926
 10
955.2945645694258
 20
2054.926760527191
 30
-0.0000000046876926
 10
956.7924009449621
 20
2052.297543915573
 30
-0.0000000046876926
 10
957.8465986438664
 20
2049.462786988244
 30
-0.0000000046876926
 10
958.4850829387274
 20
2046.509352621654
 30
-0.0000000046876926
 10
958.8016210247574
 20
2043.507784982098
 30
-0.0000000046876926
 10
958.9211711172306
 20
2040.493873960846
 30
-0.0000000046876926
 10
958.9371813379971
 20
2037.980917584513
 30
-0.0000000046876926
 10
958.9389335544897
 20
2035.970601287967
 30
-0.0000000046876926
 10
958.9383733495474
 20
2034.714156853958
 30
-0.0000000046876926
 10
958.9383300481263
 20
2032.012788948525
 30
-0.0000000046876926
 10
958.9382817880819
 20
2027.866503339412
 30
-0.0000000046876926
 10
958.9382520429849
 20
2022.024009994604
 30
-0.0000000046876926
 10
958.9382533776211
 20
2016.181516643903
 30
-0.0000000046876926
 10
958.9382875689175
 20
2008.265880457095
 30
-0.0000000046876926
 10
958.9383745259825
 20
1998.277101342445
 30
-0.0000000046876926
 10
958.9384214077058
 20
1990.235820107161
 30
-0.0000000046876926
 10
958.9384214077058
 20
1986.215179553531
 30
-0.0000000046876926
  0
SPLINE
  5
6F32
330
A
100
AcDbEntity
  8
MODEL
 48
0.5
100
AcDbSpline
210
0.0
220
0.0
230
1.0
 70
     8
 71
     3
 72
    51
 73
    47
 74
     0
 42
0.000000001
 43
0.0000000001
 40
0.0
 40
0.0
 40
0.0
 40
0.0
 40
0.0625002058043184
 40
0.0937501989441744
 40
0.1250001920840305
 40
0.1562501852238865
 40
0.1875001783637426
 40
0.2031251749336706
 40
0.2187501715035986
 40
0.2343751680735266
 40
0.2421876663584907
 40
0.2500001646434546
 40
0.2578126629284187
 40
0.2656251612133827
 40
0.2734376594983467
 40
0.2812501577833108
 40
0.2890626560682747
 40
0.2968751543532387
 40
0.3046876526382027
 40
0.3125001509231667
 40
0.3203126492081308
 40
0.3242188983506128
 40
0.3281251474930948
 40
0.3359376457780588
 40
0.3437501440630228
 40
0.3515626423479868
 40
0.3593751406329508
 40
0.3671876389179148
 40
0.3750001372028789
 40
0.3828126354878429
 40
0.3906251337728069
 40
0.4062501303427349
 40
0.421875126912663
 40
0.437500123482591
 40
0.468750116622447
 40
0.5000001097623031
 40
0.5312501029021592
 40
0.562500096042015
 40
0.593750089181871
 40
0.6250000823217273
 40
0.6875000686014395
 40
0.7500000548811514
 40
0.8125000411608636
 40
0.8750000274405757
 40
0.9375000137202878
 40
1.0
 40
1.0
 40
1.0
 40
1.0
 10
323.5384214035062
 20
1986.215179553531
 30
-0.0000000046876926
 10
323.5384214035062
 20
1976.389333476526
 30
-0.0000000046876926
 10
323.5384483548464
 20
1961.650564449332
 30
-0.0000000046876926
 10
323.5384976175542
 20
1941.998872453844
 30
-0.0000000046876926
 10
323.5385310846018
 20
1927.260103443651
 30
-0.0000000046876926
 10
323.538550927899
 20
1912.521334385909
 30
-0.0000000046876926
 10
323.5384515262908
 20
1900.2390265163
 30
-0.0000000046876926
 10
323.5382396916452
 20
1890.413179858601
 30
-0.0000000046876926
 10
323.5381200968973
 20
1883.043794961525
 30
-0.0000000046876926
 10
323.5381410338728
 20
1876.902641191812
 30
-0.0000000046876926
 10
323.5382828619609
 20
1871.989718501356
 30
-0.0000000046876926
 10
323.5384649520188
 20
1868.305026680823
 30
-0.0000000046876926
 10
323.5387359408037
 20
1864.620335092243
 30
-0.0000000046876926
 10
323.5385416769409
 20
1860.935640090893
 30
-0.0000000046876926
 10
323.537328009063
 20
1857.250938032025
 30
-0.0000000046876926
 10
323.5442782808955
 20
1853.566259697944
 30
-0.0000000046876926
 10
323.5685758361565
 20
1849.881635870958
 30
-0.0000000046876926
 10
323.6435047314649
 20
1846.197475921609
 30
-0.0000000046876926
 10
323.8358770603359
 20
1842.517091072978
 30
-0.0000000046876926
 10
324.2995879909927
 20
1838.85627514899
 30
-0.0000000046876926
 10
325.1289538277256
 20
1835.886929048861
 30
-0.0000000046876926
 10
326.1436007129146
 20
1833.645801602629
 30
-0.0000000046876926
 10
327.3900113983241
 20
1831.524816014373
 30
-0.0000000046876926
 10
329.3552489975468
 20
1829.144358442986
 30
-0.0000000046876926
 10
332.2471061597812
 20
1826.828516792988
 30
-0.0000000046876926
 10
335.5545486204633
 20
1825.160850952051
 30
-0.0000000046876926
 10
339.118320770051
 20
1824.169201227784
 30
-0.0000000046876926
 10
342.7809188634551
 20
1823.715638471471
 30
-0.0000000046876926
 10
346.4630654497728
 20
1823.554740650545
 30
-0.0000000046876926
 10
350.1477529364843
 20
1823.517678030903
 30
-0.0000000046876926
 10
355.0606448682506
 20
1823.51422853444
 30
-0.0000000046876926
 10
361.2018100566697
 20
1823.515367080332
 30
-0.0000000046876926
 10
368.5711960443791
 20
1823.515517397102
 30
-0.0000000046876926
 10
378.3970371804012
 20
1823.515035957533
 30
-0.0000000046876926
 10
390.6793435179266
 20
1823.514917021601
 30
-0.0000000046876926
 10
405.4181148222328
 20
1823.515136708813
 30
-0.0000000046876926
 10
420.1568856570871
 20
1823.515308635031
 30
-0.0000000046876926
 10
434.8956560659121
 20
1823.515437240645
 30
-0.0000000046876926
 10
449.6344260921092
 20
1823.515526966038
 30
-0.0000000046876926
 10
469.2861190081007
 20
1823.515600680107
 30
-0.0000000046876926
 10
493.8507344136219
 20
1823.515617824049
 30
-0.0000000046876926
 10
523.3282720644042
 20
1823.515553922035
 30
-0.0000000046876926
 10
552.8058092266715
 20
1823.515441068338
 30
-0.0000000046876926
 10
582.2833462477415
 20
1823.515314786035
 30
-0.0000000046876926
 10
611.7608834749394
 20
1823.515210598197
 30
-0.0000000046876926
 10
631.4125753286921
 20
1823.515179551329
 30
-0.0000000046876926
 10
641.2384214057079
 20
1823.515179551329
 30
-0.0000000046876926
  0
SPLINE
  5
6F33
330
A
100
AcDbEntity
  8
MODEL
 48
0.5
100
AcDbSpline
210
0.0
220
0.0
230
1.0
 70
     8
 71
     3
 72
    49
 73
    45
 74
     0
 42
0.000000001
 43
0.0000000001
 40
0.0
 40
0.0
 40
0.0
 40
0.0
 40
0.0312503115807046
 40
0.0625003015297141
 40
0.0776370154112656
 40
0.0927737292928171
 40
0.1079104431743686
 40
0.1230471570559201
 40
0.1250002814277332
 40
0.1289065301713594
 40
0.1328127789149856
 40
0.140625276402238
 40
0.1484377738894903
 40
0.1562502713767427
 40
0.1640627688639952
 40
0.1718752663512475
 40
0.1796877638384999
 40
0.1875002613257523
 40
0.1953127588130046
 40
0.203125256300257
 40
0.2109377537875094
 40
0.2187502512747618
 40
0.2265627487620142
 40
0.2343752462492666
 40
0.2421877437365189
 40
0.2500002412237713
 40
0.2578127387110237
 40
0.2656252361982761
 40
0.2812502311727808
 40
0.2968752261472856
 40
0.3125002211217904
 40
0.3281252160962952
 40
0.3437502110707999
 40
0.3750002010198094
 40
0.406250190968819
 40
0.4375001809178285
 40
0.5000001608158476
 40
0.5625001407138666
 40
0.6250001206118857
 40
0.6875001005099048
 40
0.7500000804079238
 40
0.8125000603059429
 40
0.8750000402039619
 40
1.0
 40
1.0
 40
1.0
 40
1.0
 10
323.5384214040664
 20
1986.215179553531
 30
-0.0000000046876926
 10
323.5384214040664
 20
1990.235820107157
 30
-0.0000000046876926
 10
323.5384682857898
 20
1998.27710134243
 30
-0.0000000046876926
 10
323.538555242862
 20
2008.26588045707
 30
-0.0000000046876926
 10
323.5385894341512
 20
2016.181516643874
 30
-0.0000000046876926
 10
323.5385907687873
 20
2022.024009994564
 30
-0.0000000046876926
 10
323.5385610236904
 20
2027.866503339361
 30
-0.0000000046876926
 10
323.5385127636532
 20
2032.012788948478
 30
-0.0000000046876926
 10
323.5384694622321
 20
2034.714156853907
 30
-0.0000000046876926
 10
323.5379092572825
 20
2035.970601287913
 30
-0.0000000046876926
 10
323.5396614737824
 20
2037.980917584455
 30
-0.0000000046876926
 10
323.5556716945416
 20
2040.493873960784
 30
-0.0000000046876926
 10
323.6752217870148
 20
2043.507784982032
 30
-0.0000000046876926
 10
323.9917598730522
 20
2046.509352621584
 30
-0.0000000046876926
 10
324.6302441679059
 20
2049.462786988172
 30
-0.0000000046876926
 10
325.6844418668029
 20
2052.2975439155
 30
-0.0000000046876926
 10
327.1822782423465
 20
2054.926760527118
 30
-0.0000000046876926
 10
329.0995381808884
 20
2057.26816898057
 30
-0.0000000046876926
 10
331.3816231304941
 20
2059.255710101492
 30
-0.0000000046876926
 10
333.9654346556913
 20
2060.831063256022
 30
-0.0000000046876926
 10
336.7720137810234
 20
2061.959530199825
 30
-0.0000000046876926
 10
339.7118362057649
 20
2062.660656763494
 30
-0.0000000046876926
 10
342.7088014106253
 20
2063.02128518859
 30
-0.0000000046876926
 10
345.7214370022325
 20
2063.172046214231
 30
-0.0000000046876926
 10
348.7368312330277
 20
2063.212950888754
 30
-0.0000000046876926
 10
351.7522995989552
 20
2063.215361243985
 30
-0.0000000046876926
 10
354.7677797740166
 20
2063.215495265124
 30
-0.0000000046876926
 10
358.7884239566906
 20
2063.214959082934
 30
-0.0000000046876926
 10
363.814222885258
 20
2063.215211609329
 30
-0.0000000046876926
 10
369.8451834239081
 20
2063.215249255083
 30
-0.0000000046876926
 10
375.8761447306083
 20
2063.21517532948
 30
-0.0000000046876926
 10
381.9071057490278
 20
2063.215143647079
 30
-0.0000000046876926
 10
389.9483868335724
 20
2063.215141372848
 30
-0.0000000046876926
 10
399.9999878848816
 20
2063.21518280569
 30
-0.0000000046876926
 10
412.061909325565
 20
2063.215205234321
 30
-0.0000000046876926
 10
428.1444714257873
 20
2063.215208848202
 30
-0.0000000046876926
 10
448.2476742757121
 20
2063.215183001428
 30
-0.0000000046876926
 10
472.3715176980172
 20
2063.215163983203
 30
-0.0000000046876926
 10
496.4953611190344
 20
2063.215154745192
 30
-0.0000000046876926
 10
520.6192045350385
 20
2063.215153069714
 30
-0.0000000046876926
 10
544.743047942326
 20
2063.215156739067
 30
-0.0000000046876926
 10
568.8668913372007
 20
2063.215163535571
 30
-0.0000000046876926
 10
601.032015842195
 20
2063.215173810187
 30
-0.0000000046876926
 10
625.1558591911948
 20
2063.215179553803
 30
-0.0000000046876926
 10
641.2384214057079
 20
2063.215179553803
 30
-0.0000000046876926
  0
LINE
  5
70CF
330
A
100
AcDbEntity
  8
HIDDEN
 48
0.5
100
AcDbLine
 10
1835.244398345125
 20
2166.215179553531
 30
-0.0000000046240195
 11
1191.350042702959
 21
2166.215179553531
 31
-0.0000000046240195
  0
LINE
  5
70D0
330
A
100
AcDbEntity
  8
HIDDEN
 48
0.5
100
AcDbLine
 10
1191.350042702959
 20
1816.349020437743
 30
-0.0000000046240195
 11
1835.244398345132
 21
1816.349020437751
 31
-0.0000000046240195
  0
LINE
  5
70D1
330
A
100
AcDbEntity
  8
HIDDEN
 48
0.5
100
AcDbLine
 10
1838.243941430594
 20
2163.215179553534
 30
-0.0000000046240195
 11
1838.243941430594
 21
1819.349020437747
 31
-0.0000000046240195
  0
LINE
  5
70D2
330
A
100
AcDbEntity
  8
HIDDEN
 48
0.5
100
AcDbLine
 10
1191.350042702959
 20
2166.215179553531
 30
-0.0000000046240195
 11
1835.244398345125
 21
2166.215179553531
 31
-0.0000000046240195
  0
LINE
  5
70D3
330
A
100
AcDbEntity
  8
HIDDEN
 48
0.5
100
AcDbLine
 10
1188.350499617491
 20
1819.349020437747
 30
-0.0000000046240195
 11
1188.350499617491
 21
2163.215179553534
 31
-0.0000000046240195
  0
ARC
  5
70D4
330
A
100
AcDbEntity
  8
HIDDEN
 48
0.5
100
AcDbCircle
 10
1835.244398345132
 20
1819.349020437747
 30
-0.0000000046240195
 40
3.0
100
AcDbArc
 50
270.0
 51
0.0
  0
ARC
  5
70D5
330
A
100
AcDbEntity
  8
HIDDEN
 48
0.5
100
AcDbCircle
 10
1191.350042702959
 20
1819.349020437747
 30
-0.0000000046240195
 40
3.0
100
AcDbArc
 50
180.0
 51
270.0
  0
ELLIPSE
  5
70D6
330
A
100
AcDbEntity
  8
HIDDEN
 48
0.5
100
AcDbEllipse
 10
1191.350042702959
 20
2163.215179553534
 30
-0.0000000046240195
 11
0.0
 21
3.0
 31
0.0
210
0.0
220
0.0
230
1.0
 40
0.999847695156391
 41
0.0
 42
1.570796326794897
  0
ELLIPSE
  5
70D7
330
A
100
AcDbEntity
  8
HIDDEN
 48
0.5
100
AcDbEllipse
 10
1835.244398345125
 20
2163.215179553534
 30
-0.0000000046240195
 11
0.0
 21
3.0
 31
0.0
210
0.0
220
0.0
230
1.0
 40
0.999847695156391
 41
4.71238898038469
 42
6.283185307179586
  0
CIRCLE
  5
70D8
330
A
100
AcDbEntity
  8
HIDDEN
  6
HIDDEN2
100
AcDbCircle
 10
1513.297220524046
 20
2103.865179553539
 30
-0.0000000053126276
 40
17.5
  0
CIRCLE
  5
70D9
330
A
100
AcDbEntity
  8
HIDDEN
  6
HIDDEN2
100
AcDbCircle
 10
1413.297220524046
 20
2103.865179553539
 30
-0.0000000053126276
 40
16.0
  0
CIRCLE
  5
70DA
330
A
100
AcDbEntity
  8
HIDDEN
  6
HIDDEN2
100
AcDbCircle
 10
1613.297220524046
 20
2103.865179553539
 30
-0.0000000053126276
 40
16.0
  0
CIRCLE
  5
70DB
330
A
100
AcDbEntity
  8
HIDDEN
100
AcDbCircle
 10
1513.297220524046
 20
1986.21517955353
 30
-0.0000000046240195
 40
23.0
  0
SPLINE
  5
70E1
330
A
100
AcDbEntity
  8
HIDDEN
 48
0.5
100
AcDbSpline
210
0.0
220
0.0
230
1.0
 70
     8
 71
     3
 72
    51
 73
    47
 74
     0
 42
0.000000001
 43
0.0000000001
 40
0.0
 40
0.0
 40
0.0
 40
0.0
 40
0.0625002058043183
 40
0.0937501989441744
 40
0.1250001920840304
 40
0.1562501852238865
 40
0.1875001783637425
 40
0.2031251749336705
 40
0.2187501715035986
 40
0.2343751680735266
 40
0.2421876663584906
 40
0.2500001646434546
 40
0.2578126629284186
 40
0.2656251612133826
 40
0.2734376594983466
 40
0.2812501577833107
 40
0.2890626560682747
 40
0.2968751543532387
 40
0.3046876526382027
 40
0.3125001509231667
 40
0.3203126492081307
 40
0.3242188983506127
 40
0.3281251474930947
 40
0.3359376457780588
 40
0.3437501440630228
 40
0.3515626423479867
 40
0.3593751406329508
 40
0.3671876389179148
 40
0.3750001372028789
 40
0.3828126354878428
 40
0.3906251337728069
 40
0.4062501303427348
 40
0.421875126912663
 40
0.4375001234825909
 40
0.468750116622447
 40
0.5000001097623031
 40
0.5312501029021592
 40
0.562500096042015
 40
0.593750089181871
 40
0.6250000823217273
 40
0.6875000686014395
 40
0.7500000548811514
 40
0.8125000411608636
 40
0.8750000274405757
 40
0.9375000137202878
 40
1.0
 40
1.0
 40
1.0
 40
1.0
 10
1830.99722052624
 20
1986.21517955353
 30
-0.0000000046876926
 10
1830.99722052624
 20
1976.389333476526
 30
-0.0000000046876926
 10
1830.9971935749
 20
1961.650564449332
 30
-0.0000000046876926
 10
1830.997144312192
 20
1941.998872453844
 30
-0.0000000046876926
 10
1830.997110845145
 20
1927.26010344365
 30
-0.0000000046876926
 10
1830.997091001847
 20
1912.521334385909
 30
-0.0000000046876926
 10
1830.997190403463
 20
1900.2390265163
 30
-0.0000000046876926
 10
1830.997402238101
 20
1890.413179858601
 30
-0.0000000046876926
 10
1830.997521832856
 20
1883.043794961525
 30
-0.0000000046876926
 10
1830.997500895874
 20
1876.902641191811
 30
-0.0000000046876926
 10
1830.997359067793
 20
1871.989718501356
 30
-0.0000000046876926
 10
1830.997176977728
 20
1868.305026680822
 30
-0.0000000046876926
 10
1830.996905988943
 20
1864.620335092243
 30
-0.0000000046876926
 10
1830.997100252805
 20
1860.935640090893
 30
-0.0000000046876926
 10
1830.998313920683
 20
1857.250938032025
 30
-0.0000000046876926
 10
1830.991363648851
 20
1853.566259697944
 30
-0.0000000046876926
 10
1830.96706609359
 20
1849.881635870958
 30
-0.0000000046876926
 10
1830.892137198281
 20
1846.197475921608
 30
-0.0000000046876926
 10
1830.699764869411
 20
1842.517091072978
 30
-0.0000000046876926
 10
1830.236053938754
 20
1838.85627514899
 30
-0.0000000046876926
 10
1829.406688102021
 20
1835.88692904886
 30
-0.0000000046876926
 10
1828.392041216832
 20
1833.645801602628
 30
-0.0000000046876926
 10
1827.145630531422
 20
1831.524816014373
 30
-0.0000000046876926
 10
1825.180392932207
 20
1829.144358442986
 30
-0.0000000046876926
 10
1822.288535769965
 20
1826.828516792988
 30
-0.0000000046876926
 10
1818.981093309283
 20
1825.16085095205
 30
-0.0000000046876926
 10
1815.417321159695
 20
1824.169201227784
 30
-0.0000000046876926
 10
1811.754723066291
 20
1823.715638471471
 30
-0.0000000046876926
 10
1808.072576479966
 20
1823.554740650545
 30
-0.0000000046876926
 10
1804.387888993262
 20
1823.517678030903
 30
-0.0000000046876926
 10
1799.474997061496
 20
1823.514228534439
 30
-0.0000000046876926
 10
1793.333831873084
 20
1823.515367080332
 30
-0.0000000046876926
 10
1785.964445885375
 20
1823.515517397102
 30
-0.0000000046876926
 10
1776.138604749345
 20
1823.515035957533
 30
-0.0000000046876926
 10
1763.85629841182
 20
1823.514917021601
 30
-0.0000000046876926
 10
1749.117527107514
 20
1823.515136708813
 30
-0.0000000046876926
 10
1734.378756272659
 20
1823.515308635031
 30
-0.0000000046876926
 10
1719.639985863842
 20
1823.515437240645
 30
-0.0000000046876926
 10
1704.901215837637
 20
1823.515526966037
 30
-0.0000000046876926
 10
1685.249522921646
 20
1823.515600680106
 30
-0.0000000046876926
 10
1660.684907516124
 20
1823.515617824049
 30
-0.0000000046876926
 10
1631.207369865342
 20
1823.515553922034
 30
-0.0000000046876926
 10
1601.729832703075
 20
1823.515441068337
 30
-0.0000000046876926
 10
1572.252295682005
 20
1823.515314786035
 30
-0.0000000046876926
 10
1542.774758454807
 20
1823.515210598196
 30
-0.0000000046876926
 10
1523.123066601047
 20
1823.515179551329
 30
-0.0000000046876926
 10
1513.297220524046
 20
1823.515179551329
 30
-0.0000000046876926
  0
SPLINE
  5
70E2
330
A
100
AcDbEntity
  8
HIDDEN
 48
0.5
100
AcDbSpline
210
0.0
220
0.0
230
1.0
 70
     8
 71
     3
 72
    49
 73
    45
 74
     0
 42
0.000000001
 43
0.0000000001
 40
0.0
 40
0.0
 40
0.0
 40
0.0
 40
0.1250001407193461
 40
0.1875001306679642
 40
0.2500001206165823
 40
0.3125001105652004
 40
0.3750001005138187
 40
0.4375000904624367
 40
0.5000000804110549
 40
0.5625000703596731
 40
0.593750065333982
 40
0.625000060308291
 40
0.6562500552826002
 40
0.6718750527697547
 40
0.6875000502569093
 40
0.7031250477440638
 40
0.7187500452312184
 40
0.7343750427183728
 40
0.7421875414619502
 40
0.7500000402055274
 40
0.7578125389491046
 40
0.765625037692682
 40
0.7734375364362591
 40
0.7812500351798365
 40
0.7890625339234137
 40
0.796875032666991
 40
0.8046875314105681
 40
0.8125000301541456
 40
0.8203125288977229
 40
0.8281250276413
 40
0.8359375263848773
 40
0.8437500251284545
 40
0.8515625238720319
 40
0.8593750226156092
 40
0.8671875213591864
 40
0.8710937707309752
 40
0.8750000201027637
 40
0.876953144788658
 40
0.892089861104339
 40
0.90722657742002
 40
0.9223632937357009
 40
0.9375000100513817
 40
0.9687500050256909
 40
1.0
 40
1.0
 40
1.0
 40
1.0
 10
1513.297220524046
 20
2063.215179553861
 30
-0.0000000046876926
 10
1529.379782738566
 20
2063.215179553861
 30
-0.0000000046876926
 10
1553.503626087595
 20
2063.215173810246
 30
-0.0000000046876926
 10
1585.668750592633
 20
2063.215163535637
 30
-0.0000000046876926
 10
1609.792593987529
 20
2063.215156739132
 30
-0.0000000046876926
 10
1633.916437394846
 20
2063.215153069776
 30
-0.0000000046876926
 10
1658.040280810879
 20
2063.215154745258
 30
-0.0000000046876926
 10
1682.164124231911
 20
2063.215163983261
 30
-0.0000000046876926
 10
1706.287967654252
 20
2063.215183001486
 30
-0.0000000046876926
 10
1726.391170504199
 20
2063.215208848267
 30
-0.0000000046876926
 10
1742.473732604436
 20
2063.215205234379
 30
-0.0000000046876926
 10
1754.535654045134
 20
2063.215182805752
 30
-0.0000000046876926
 10
1764.58725509645
 20
2063.215141372906
 30
-0.0000000046876926
 10
1772.62853618101
 20
2063.215143647138
 30
-0.0000000046876926
 10
1778.659497199429
 20
2063.215175329538
 30
-0.0000000046876926
 10
1784.690458506137
 20
2063.215249255149
 30
-0.0000000046876926
 10
1790.721419044794
 20
2063.215211609391
 30
-0.0000000046876926
 10
1795.747217973369
 20
2063.214959082992
 30
-0.0000000046876926
 10
1799.767862156043
 20
2063.215495265182
 30
-0.0000000046876926
 10
1802.783342331111
 20
2063.215361244043
 30
-0.0000000046876926
 10
1805.798810697046
 20
2063.212950888812
 30
-0.0000000046876926
 10
1808.814204927841
 20
2063.172046214289
 30
-0.0000000046876926
 10
1811.826840519456
 20
2063.021285188655
 30
-0.0000000046876926
 10
1814.823805724323
 20
2062.660656763559
 30
-0.0000000046876926
 10
1817.763628149065
 20
2061.959530199894
 30
-0.0000000046876926
 10
1820.570207274397
 20
2060.831063256095
 30
-0.0000000046876926
 10
1823.154018799602
 20
2059.255710101568
 30
-0.0000000046876926
 10
1825.436103749207
 20
2057.268168980647
 30
-0.0000000046876926
 10
1827.353363687764
 20
2054.926760527191
 30
-0.0000000046876926
 10
1828.8512000633
 20
2052.297543915573
 30
-0.0000000046876926
 10
1829.905397762204
 20
2049.462786988244
 30
-0.0000000046876926
 10
1830.543882057065
 20
2046.509352621654
 30
-0.0000000046876926
 10
1830.860420143095
 20
2043.507784982098
 30
-0.0000000046876926
 10
1830.979970235569
 20
2040.493873960846
 30
-0.0000000046876926
 10
1830.995980456335
 20
2037.980917584513
 30
-0.0000000046876926
 10
1830.997732672828
 20
2035.970601287967
 30
-0.0000000046876926
 10
1830.997172467885
 20
2034.714156853958
 30
-0.0000000046876926
 10
1830.997129166464
 20
2032.012788948525
 30
-0.0000000046876926
 10
1830.99708090642
 20
2027.866503339412
 30
-0.0000000046876926
 10
1830.997051161323
 20
2022.024009994604
 30
-0.0000000046876926
 10
1830.997052495959
 20
2016.181516643903
 30
-0.0000000046876926
 10
1830.997086687255
 20
2008.265880457095
 30
-0.0000000046876926
 10
1830.99717364432
 20
1998.277101342445
 30
-0.0000000046876926
 10
1830.997220526044
 20
1990.23582010716
 30
-0.0000000046876926
 10
1830.997220526044
 20
1986.21517955353
 30
-0.0000000046876926
  0
SPLINE
  5
70E3
330
A
100
AcDbEntity
  8
HIDDEN
 48
0.5
100
AcDbSpline
210
0.0
220
0.0
230
1.0
 70
     8
 71
     3
 72
    51
 73
    47
 74
     0
 42
0.000000001
 43
0.0000000001
 40
0.0
 40
0.0
 40
0.0
 40
0.0
 40
0.0625002058043184
 40
0.0937501989441744
 40
0.1250001920840305
 40
0.1562501852238865
 40
0.1875001783637426
 40
0.2031251749336706
 40
0.2187501715035986
 40
0.2343751680735266
 40
0.2421876663584907
 40
0.2500001646434546
 40
0.2578126629284187
 40
0.2656251612133827
 40
0.2734376594983467
 40
0.2812501577833108
 40
0.2890626560682747
 40
0.2968751543532387
 40
0.3046876526382027
 40
0.3125001509231667
 40
0.3203126492081308
 40
0.3242188983506128
 40
0.3281251474930948
 40
0.3359376457780588
 40
0.3437501440630228
 40
0.3515626423479868
 40
0.3593751406329508
 40
0.3671876389179148
 40
0.3750001372028789
 40
0.3828126354878429
 40
0.3906251337728069
 40
0.4062501303427349
 40
0.421875126912663
 40
0.437500123482591
 40
0.468750116622447
 40
0.5000001097623031
 40
0.5312501029021592
 40
0.562500096042015
 40
0.593750089181871
 40
0.6250000823217273
 40
0.6875000686014395
 40
0.7500000548811514
 40
0.8125000411608636
 40
0.8750000274405757
 40
0.9375000137202878
 40
1.0
 40
1.0
 40
1.0
 40
1.0
 10
1195.597220521844
 20
1986.21517955353
 30
-0.0000000046876926
 10
1195.597220521844
 20
1976.389333476526
 30
-0.0000000046876926
 10
1195.597247473184
 20
1961.650564449332
 30
-0.0000000046876926
 10
1195.597296735892
 20
1941.998872453844
 30
-0.0000000046876926
 10
1195.59733020294
 20
1927.26010344365
 30
-0.0000000046876926
 10
1195.597350046237
 20
1912.521334385909
 30
-0.0000000046876926
 10
1195.597250644629
 20
1900.2390265163
 30
-0.0000000046876926
 10
1195.597038809983
 20
1890.413179858601
 30
-0.0000000046876926
 10
1195.596919215235
 20
1883.043794961525
 30
-0.0000000046876926
 10
1195.596940152211
 20
1876.902641191811
 30
-0.0000000046876926
 10
1195.597081980299
 20
1871.989718501356
 30
-0.0000000046876926
 10
1195.597264070357
 20
1868.305026680822
 30
-0.0000000046876926
 10
1195.597535059142
 20
1864.620335092243
 30
-0.0000000046876926
 10
1195.597340795279
 20
1860.935640090893
 30
-0.0000000046876926
 10
1195.596127127401
 20
1857.250938032025
 30
-0.0000000046876926
 10
1195.603077399233
 20
1853.566259697944
 30
-0.0000000046876926
 10
1195.627374954494
 20
1849.881635870958
 30
-0.0000000046876926
 10
1195.702303849803
 20
1846.197475921608
 30
-0.0000000046876926
 10
1195.894676178674
 20
1842.517091072978
 30
-0.0000000046876926
 10
1196.358387109331
 20
1838.85627514899
 30
-0.0000000046876926
 10
1197.187752946063
 20
1835.88692904886
 30
-0.0000000046876926
 10
1198.202399831252
 20
1833.645801602628
 30
-0.0000000046876926
 10
1199.448810516662
 20
1831.524816014373
 30
-0.0000000046876926
 10
1201.414048115885
 20
1829.144358442986
 30
-0.0000000046876926
 10
1204.305905278119
 20
1826.828516792988
 30
-0.0000000046876926
 10
1207.613347738801
 20
1825.16085095205
 30
-0.0000000046876926
 10
1211.177119888389
 20
1824.169201227784
 30
-0.0000000046876926
 10
1214.839717981793
 20
1823.715638471471
 30
-0.0000000046876926
 10
1218.521864568111
 20
1823.554740650545
 30
-0.0000000046876926
 10
1222.206552054822
 20
1823.517678030903
 30
-0.0000000046876926
 10
1227.119443986589
 20
1823.514228534439
 30
-0.0000000046876926
 10
1233.260609175008
 20
1823.515367080332
 30
-0.0000000046876926
 10
1240.629995162717
 20
1823.515517397102
 30
-0.0000000046876926
 10
1250.455836298739
 20
1823.515035957533
 30
-0.0000000046876926
 10
1262.738142636264
 20
1823.514917021601
 30
-0.0000000046876926
 10
1277.476913940571
 20
1823.515136708813
 30
-0.0000000046876926
 10
1292.215684775425
 20
1823.515308635031
 30
-0.0000000046876926
 10
1306.95445518425
 20
1823.515437240645
 30
-0.0000000046876926
 10
1321.693225210447
 20
1823.515526966037
 30
-0.0000000046876926
 10
1341.344918126439
 20
1823.515600680106
 30
-0.0000000046876926
 10
1365.90953353196
 20
1823.515617824049
 30
-0.0000000046876926
 10
1395.387071182742
 20
1823.515553922034
 30
-0.0000000046876926
 10
1424.864608345009
 20
1823.515441068337
 30
-0.0000000046876926
 10
1454.342145366079
 20
1823.515314786035
 30
-0.0000000046876926
 10
1483.819682593277
 20
1823.515210598196
 30
-0.0000000046876926
 10
1503.47137444703
 20
1823.515179551329
 30
-0.0000000046876926
 10
1513.297220524046
 20
1823.515179551329
 30
-0.0000000046876926
  0
SPLINE
  5
70E4
330
A
100
AcDbEntity
  8
HIDDEN
 48
0.5
100
AcDbSpline
210
0.0
220
0.0
230
1.0
 70
     8
 71
     3
 72
    49
 73
    45
 74
     0
 42
0.000000001
 43
0.0000000001
 40
0.0
 40
0.0
 40
0.0
 40
0.0
 40
0.0312503115807046
 40
0.0625003015297141
 40
0.0776370154112656
 40
0.0927737292928171
 40
0.1079104431743686
 40
0.1230471570559201
 40
0.1250002814277332
 40
0.1289065301713594
 40
0.1328127789149856
 40
0.140625276402238
 40
0.1484377738894903
 40
0.1562502713767427
 40
0.1640627688639952
 40
0.1718752663512475
 40
0.1796877638384999
 40
0.1875002613257523
 40
0.1953127588130046
 40
0.203125256300257
 40
0.2109377537875094
 40
0.2187502512747618
 40
0.2265627487620142
 40
0.2343752462492666
 40
0.2421877437365189
 40
0.2500002412237713
 40
0.2578127387110237
 40
0.2656252361982761
 40
0.2812502311727808
 40
0.2968752261472856
 40
0.3125002211217904
 40
0.3281252160962952
 40
0.3437502110707999
 40
0.3750002010198094
 40
0.406250190968819
 40
0.4375001809178285
 40
0.5000001608158476
 40
0.5625001407138666
 40
0.6250001206118857
 40
0.6875001005099048
 40
0.7500000804079238
 40
0.8125000603059429
 40
0.8750000402039619
 40
1.0
 40
1.0
 40
1.0
 40
1.0
 10
1195.597220522404
 20
1986.21517955353
 30
-0.0000000046876926
 10
1195.597220522404
 20
1990.235820107157
 30
-0.0000000046876926
 10
1195.597267404128
 20
1998.27710134243
 30
-0.0000000046876926
 10
1195.5973543612
 20
2008.265880457069
 30
-0.0000000046876926
 10
1195.597388552489
 20
2016.181516643874
 30
-0.0000000046876926
 10
1195.597389887125
 20
2022.024009994564
 30
-0.0000000046876926
 10
1195.597360142028
 20
2027.866503339361
 30
-0.0000000046876926
 10
1195.597311881991
 20
2032.012788948478
 30
-0.0000000046876926
 10
1195.59726858057
 20
2034.714156853907
 30
-0.0000000046876926
 10
1195.59670837562
 20
2035.970601287913
 30
-0.0000000046876926
 10
1195.59846059212
 20
2037.980917584455
 30
-0.0000000046876926
 10
1195.61447081288
 20
2040.493873960784
 30
-0.0000000046876926
 10
1195.734020905353
 20
2043.507784982032
 30
-0.0000000046876926
 10
1196.05055899139
 20
2046.509352621584
 30
-0.0000000046876926
 10
1196.689043286244
 20
2049.462786988172
 30
-0.0000000046876926
 10
1197.743240985141
 20
2052.2975439155
 30
-0.0000000046876926
 10
1199.241077360684
 20
2054.926760527118
 30
-0.0000000046876926
 10
1201.158337299226
 20
2057.26816898057
 30
-0.0000000046876926
 10
1203.440422248832
 20
2059.255710101492
 30
-0.0000000046876926
 10
1206.024233774029
 20
2060.831063256022
 30
-0.0000000046876926
 10
1208.830812899361
 20
2061.959530199825
 30
-0.0000000046876926
 10
1211.770635324103
 20
2062.660656763494
 30
-0.0000000046876926
 10
1214.767600528963
 20
2063.02128518859
 30
-0.0000000046876926
 10
1217.78023612057
 20
2063.172046214231
 30
-0.0000000046876926
 10
1220.795630351366
 20
2063.212950888754
 30
-0.0000000046876926
 10
1223.811098717293
 20
2063.215361243985
 30
-0.0000000046876926
 10
1226.826578892355
 20
2063.215495265124
 30
-0.0000000046876926
 10
1230.847223075029
 20
2063.214959082934
 30
-0.0000000046876926
 10
1235.873022003596
 20
2063.215211609329
 30
-0.0000000046876926
 10
1241.903982542246
 20
2063.215249255083
 30
-0.0000000046876926
 10
1247.934943848946
 20
2063.21517532948
 30
-0.0000000046876926
 10
1253.965904867366
 20
2063.215143647079
 30
-0.0000000046876926
 10
1262.00718595191
 20
2063.215141372848
 30
-0.0000000046876926
 10
1272.05878700322
 20
2063.21518280569
 30
-0.0000000046876926
 10
1284.120708443903
 20
2063.215205234321
 30
-0.0000000046876926
 10
1300.203270544125
 20
2063.215208848202
 30
-0.0000000046876926
 10
1320.30647339405
 20
2063.215183001428
 30
-0.0000000046876926
 10
1344.430316816355
 20
2063.215163983203
 30
-0.0000000046876926
 10
1368.554160237372
 20
2063.215154745192
 30
-0.0000000046876926
 10
1392.678003653376
 20
2063.215153069714
 30
-0.0000000046876926
 10
1416.801847060664
 20
2063.215156739067
 30
-0.0000000046876926
 10
1440.925690455539
 20
2063.215163535571
 30
-0.0000000046876926
 10
1473.090814960533
 20
2063.215173810187
 30
-0.0000000046876926
 10
1497.214658309533
 20
2063.215179553803
 30
-0.0000000046876926
 10
1513.297220524046
 20
2063.215179553803
 30
-0.0000000046876926
  0
LINE
  5
70EE
330
A
100
AcDbEntity
  8
HIDDEN
 48
0.5
100
AcDbLine
 10
1594.582619061484
 20
942.2198765210962
 30
-0.0000000000000062
 11
1507.894437252418
 21
941.6902230526832
 31
-0.0000000000000062
  0
DIMENSION
  5
7105
330
A
100
AcDbEntity
  8
Dim
100
AcDbDimension
  2
*D10
 10
1547.338418481503
 20
941.8813448731673
 30
0.0
 11
1547.338418481503
 21
1120.895190778883
 31
0.0
 70
   160
 71
     5
 42
90.0
 73
     0
 74
     0
 75
     0
  3
tform線あり
100
AcDbAlignedDimension
 13
1545.602178113116
 23
1031.881344873167
 33
0.0
 14
1545.602178113116
 24
941.8813448731673
 34
0.0
 50
90.0
100
AcDbRotatedDimension
1001
ACAD
1000
DSTYLE
1002
{
1070
     3
1000
<>(深さ)
1002
}
  0
DIMENSION
  5
7118
330
A
100
AcDbEntity
  8
Dim
100
AcDbDimension
  2
*D11
 10
1078.115220059998
 20
911.8813448731639
 30
0.0
 11
1055.894328631962
 21
971.8813448731639
 31
0.0
 70
    32
 71
     5
 42
120.0
 73
     0
 74
     0
 75
     0
  3
tform線あり
100
AcDbAlignedDimension
 13
976.3823859755094
 23
1031.881344873164
 33
-0.0000000000000062
 14
976.3823859755094
 24
911.8813448731639
 34
-0.0000000000000062
 50
90.0
100
AcDbRotatedDimension
  0
DIMENSION
  5
7127
102
{ACAD_REACTORS
330
7129
102
}
102
{ACAD_XDICTIONARY
360
7128
102
}
330
A
100
AcDbEntity
  8
Dim
100
AcDbDimension
  2
*D12
 10
1551.693375892832
 20
826.4896083928546
 30
0.0
 11
1641.693375892833
 21
848.7104998208902
 31
0.0
 70
    32
 71
     5
 42
180.0000000000032
 73
     0
 74
     0
 75
     0
  3
tform線あり
100
AcDbAlignedDimension
 13
1731.693375892835
 23
919.8813448731673
 33
-0.0000000000000069
 14
1551.693375892832
 24
914.8813448731673
 34
-0.0000000000000062
100
AcDbRotatedDimension
  0
DIMENSION
  5
7136
330
A
100
AcDbEntity
  8
Dim
100
AcDbDimension
  2
*D13
 10
1671.693375892829
 20
1090.261338450783
 30
0.0
 11
1701.693375892829
 21
1112.477647044533
 31
0.0
 70
    32
 71
     5
 42
60.0
 73
     0
 74
     0
 75
     0
  3
tform線あり
100
AcDbAlignedDimension
 13
1731.693375892829
 23
1024.515703168306
 33
-0.0000000000000062
 14
1671.693375892829
 24
1024.515703168306
 34
-0.0000000000000062
100
AcDbRotatedDimension
  0
LINE
  5
7162
102
{ACAD_REACTORS
330
727C
102
}
330
A
100
AcDbEntity
  8
HIDDEN
 48
0.5
100
AcDbLine
 10
501.2383538432648
 20
1016.814472169585
 30
0.0000000009984768
 11
501.2383538432649
 21
956.0460592764503
 31
0.0000000009984768
  0
DIMENSION
  5
716A
102
{ACAD_REACTORS
330
716C
102
}
102
{ACAD_XDICTIONARY
360
716B
102
}
330
A
100
AcDbEntity
  8
Dim
100
AcDbDimension
  2
*D14
 10
232.0601743957308
 20
1031.881344873168
 30
0.0
 11
209.8392829676952
 21
1009.381344873168
 31
0.0
 70
    32
 71
     5
 42
45.00000000000068
 73
     0
 74
     1
 75
     1
  3
tform線あり
100
AcDbAlignedDimension
 13
317.0238993274686
 23
986.8813448731673
 33
-0.0000000000000021
 14
327.0108195412535
 24
1031.881344873168
 34
0.0
 50
90.0
100
AcDbRotatedDimension
  0
LINE
  5
717E
330
A
100
AcDbEntity
  8
HIDDEN
 48
0.5
100
AcDbLine
 10
470.5138836404063
 20
986.8813448731673
 30
0.0
 11
531.9628240461233
 21
986.8813448731673
 31
0.0
  0
CIRCLE
  5
717F
330
A
100
AcDbEntity
  8
HIDDEN
 48
0.5
100
AcDbCircle
 10
501.2383538432649
 20
986.8813448731673
 30
0.0
 40
15.0
  0
CIRCLE
  5
7185
330
A
100
AcDbEntity
  8
HIDDEN
 48
0.5
100
AcDbCircle
 10
781.2384889681235
 20
986.8813448731673
 30
0.0
 40
15.0
  0
LINE
  5
7186
102
{ACAD_REACTORS
330
727C
102
}
330
A
100
AcDbEntity
  8
HIDDEN
 48
0.5
100
AcDbLine
 10
781.2384889681236
 20
1016.814472169585
 30
0.0000000009984768
 11
781.2384889681236
 21
956.0460592764503
 31
0.0000000009984768
  0
LINE
  5
7187
330
A
100
AcDbEntity
  8
HIDDEN
 48
0.5
100
AcDbLine
 10
811.9629591709822
 20
986.8813448731673
 30
0.0
 11
750.5140187652652
 21
986.8813448731673
 31
0.0
  0
DIMENSION
  5
71A9
102
{ACAD_REACTORS
330
71AB
102
}
102
{ACAD_XDICTIONARY
360
71AA
102
}
330
A
100
AcDbEntity
  8
Dim
100
AcDbDimension
  2
*D15
 10
316.2917004991527
 20
2276.886150377005
 30
0.0
 11
641.2384214057042
 21
2299.107041805041
 31
0.0
 70
    32
 71
     5
 42
649.893441813103
 73
     0
 74
     0
 75
     0
  3
tform線あり
100
AcDbAlignedDimension
 13
966.1851423122557
 23
2155.564004824672
 33
-0.0000000046240195
 14
316.2917004991527
 24
2155.564004824672
 34
-0.0000000046240195
100
AcDbRotatedDimension
  0
DIMENSION
  5
71B8
102
{ACAD_REACTORS
330
71BA
102
}
102
{ACAD_XDICTIONARY
360
71B9
102
}
330
A
100
AcDbEntity
  8
Dim
100
AcDbDimension
  2
*D16
 10
1050.264719653003
 20
1816.349020437751
 30
0.0
 11
1028.043828224968
 21
1991.282099995641
 31
0.0
 70
    32
 71
     5
 42
349.86615911578
 73
     0
 74
     0
 75
     0
  3
tform線あり
100
AcDbAlignedDimension
 13
951.3577976264171
 23
2166.215179553531
 33
-0.0000000046240195
 14
951.3577976264211
 24
1816.349020437751
 34
-0.0000000046240195
 50
90.0
100
AcDbRotatedDimension
  0
DIMENSION
  5
71D6
330
A
100
AcDbEntity
  8
Dim
100
AcDbDimension
  2
*D17
 10
956.2384214057079
 20
1709.371216081648
 30
-0.0000000046876926
 11
641.2384214057079
 21
1731.592107509684
 31
-0.0000000046876926
 70
    32
 71
     5
 42
630.0
 73
     0
 74
     0
 75
     0
  3
tform線あり
100
AcDbAlignedDimension
 13
326.2384214057078
 23
1817.57118703434
 33
-0.0000000093753853
 14
956.2384214057079
 24
1817.571187034341
 34
-0.0000000093753853
100
AcDbRotatedDimension
  0
DIMENSION
  5
71EA
330
A
100
AcDbEntity
  8
Dim
100
AcDbDimension
  2
*D18
 10
246.1827423190946
 20
2066.21517955353
 30
0.0
 11
223.9618508910592
 21
2116.21517955353
 31
0.0
 70
    32
 71
     5
 42
100.0000000000005
 73
     0
 74
     0
 75
     0
  3
tform線あり
100
AcDbAlignedDimension
 13
328.4733014452144
 23
2166.215179553531
 33
-0.0000000046240195
 14
328.4733014452146
 24
2066.21517955353
 34
-0.0000000046240195
 50
90.0
100
AcDbRotatedDimension
  0
DIMENSION
  5
71F7
102
{ACAD_REACTORS
330
71F9
102
}
102
{ACAD_XDICTIONARY
360
71F8
102
}
330
A
100
AcDbEntity
  8
Dim
100
AcDbDimension
  2
*D19
 10
246.1827423190946
 20
1826.21517955353
 30
0.0
 11
223.9618508910592
 21
1946.21517955353
 31
0.0
 70
    32
 71
     5
 42
239.9999999999998
 73
     0
 74
     0
 75
     0
  3
tform線あり
100
AcDbAlignedDimension
 13
328.4733014452146
 23
2066.21517955353
 33
0.0
 14
328.4733014452148
 24
1826.21517955353
 34
0.0
 50
90.0
100
AcDbRotatedDimension
  0
MTEXT
  5
720C
330
A
100
AcDbEntity
  8
Dim
390
1D
100
AcDbMText
 10
1386.266004311625
 20
2330.143376781966
 30
34.99521132346015
 40
24.0
 41
0.0
 46
27.413396484375
 71
     1
 72
     1
  1
{カウンター切込寸法}
  7
ＭＳ ゴシック
 73
     1
 44
0.7828267384257843
1001
ACAD
1000
ACAD_MTEXT_DEFINED_HEIGHT_BEGIN
1070
    46
1040
27.413396484375
1000
ACAD_MTEXT_DEFINED_HEIGHT_END
  0
MTEXT
  5
7233
330
A
100
AcDbEntity
  8
Dim
390
1D
100
AcDbMText
 10
267.2952207957755
 20
1611.50170968432
 30
34.99521132346015
 40
24.4326171875
 41
833.929798641839
 46
0.0
 71
     1
 72
     1
  1
＝φ30もしくはφ35の水栓取付用穴あけ加工を承ります。\P  必要な場合、ご注文の際にご指示ください。
  7
ＭＳ ゴシック
 73
     1
 44
1.043768984567712
  0
CIRCLE
  5
7234
330
A
100
AcDbEntity
  8
HIDDEN
 48
0.58
390
1D
100
AcDbCircle
 10
235.9281910976874
 20
1596.912885228037
 30
34.99521132346015
 40
17.5
  0
DIMENSION
  5
7239
102
{ACAD_REACTORS
330
723B
102
}
102
{ACAD_XDICTIONARY
360
723A
102
}
330
A
100
AcDbEntity
  8
Dim
100
AcDbDimension
  2
*D20
 10
641.2384214057079
 20
2213.58572027999
 30
0.0
 11
591.2384214057079
 21
2235.806611708026
 31
0.0
 70
    32
 71
     5
 42
100.0
 73
     0
 74
     0
 75
     0
  3
tform線あり
100
AcDbAlignedDimension
 13
541.2384214057079
 23
2119.865179553539
 33
-0.0000000053126276
 14
641.2384214057079
 24
2121.365179553539
 34
-0.0000000053126276
100
AcDbRotatedDimension
  0
DIMENSION
  5
7248
102
{ACAD_XDICTIONARY
360
7249
102
}
330
A
100
AcDbEntity
  8
Dim
100
AcDbDimension
  2
*D21
 10
641.2384214057079
 20
2213.58572027999
 30
0.0
 11
691.2384214057079
 21
2235.806611708026
 31
0.0
 70
    32
 71
     5
 42
100.0
 73
     0
 74
     0
 75
     0
 52
-90.00000000000001
  3
tform線あり
100
AcDbAlignedDimension
 13
741.2384214057079
 23
2119.865179553539
 33
-0.0000000053126276
 14
641.2384214057079
 24
2121.365179553539
 34
-0.0000000053126276
 50
179.9999999999999
100
AcDbRotatedDimension
  0
LINE
  5
7278
330
A
100
AcDbEntity
  8
Dim
  6
Continuous
100
AcDbLine
 10
792.811969806267
 20
996.4235951994335
 30
0.0
 11
886.6170184343516
 21
1125.946178722745
 31
0.0
  0
MTEXT
  5
7279
330
A
100
AcDbEntity
  8
Dim
390
1D
100
AcDbMText
 10
887.6607852124748
 20
1172.539464078033
 30
34.99521132346015
 40
24.0
 41
1169.77171546101
 46
26.808
 71
     1
 72
     1
  1
{壁取付ボルト穴(2ヶ所)}
  7
ＭＳ ゴシック
 73
     1
 44
1.174240107638677
1001
ACAD
1000
ACAD_MTEXT_DEFINED_HEIGHT_BEGIN
1070
    46
1040
26.808
1000
ACAD_MTEXT_DEFINED_HEIGHT_END
  0
DIMENSION
  5
727A
102
{ACAD_REACTORS
330
727C
102
}
102
{ACAD_XDICTIONARY
360
727B
102
}
330
A
100
AcDbEntity
  8
Dim
100
AcDbDimension
  2
*D22
 10
781.2384889681236
 20
1129.932894565483
 30
0.0
 11
641.2384214056942
 21
1152.153785993518
 31
0.0
 70
    32
 71
     5
 42
280.0001351248588
 73
     0
 74
     0
 75
     0
  3
tform線あり
100
AcDbAlignedDimension
 13
501.2383538432648
 23
1016.814472169585
 33
0.0000000009984768
 14
781.2384889681236
 24
1016.814472169585
 34
0.0000000009984768
100
AcDbRotatedDimension
  0
LINE
  5
72A8
330
A
100
AcDbEntity
  8
HIDDEN
 48
0.5
100
AcDbLine
 10
663.6956000958593
 20
922.0143725416707
 30
0.0
 11
618.7812427155321
 21
922.0143725416707
 31
0.0
  0
LINE
  5
72A9
102
{ACAD_REACTORS
330
7129
102
}
330
A
100
AcDbEntity
  8
HIDDEN
100
AcDbLine
 10
663.2384214056923
 20
914.8813448731668
 30
0.0
 11
619.2384214056962
 21
914.8813448731668
 31
0.0
  0
LINE
  5
72AA
330
A
100
AcDbEntity
  8
HIDDEN
 48
0.25
100
AcDbLine
 10
601.8194191740591
 20
938.0045816932758
 30
0.0
 11
601.8408241431072
 21
937.9246972612669
 31
0.0
  0
LINE
  5
72AB
330
A
100
AcDbEntity
  8
HIDDEN
 48
0.25
100
AcDbLine
 10
603.7796534427222
 20
934.8813448731668
 30
0.0
 11
618.0665942477032
 21
922.8931781130556
 31
0.0
  0
LINE
  5
72AC
330
A
100
AcDbEntity
  8
HIDDEN
 48
0.25
100
AcDbLine
 10
619.1377745041112
 20
920.6474020030106
 30
0.0
 11
619.2384214056962
 21
914.8813448731668
 31
0.0
  0
LINE
  5
72AD
330
A
100
AcDbEntity
  8
HIDDEN
 48
0.25
100
AcDbLine
 10
663.2384214056923
 20
914.8813448731668
 30
0.0
 11
663.3390683072731
 21
920.6474020030106
 31
0.0
  0
LINE
  5
72AE
330
A
100
AcDbEntity
  8
HIDDEN
 48
0.25
100
AcDbLine
 10
664.4102485636803
 20
922.8931781130556
 30
0.0
 11
678.6971893686642
 21
934.8813448731668
 31
0.0
  0
LINE
  5
72AF
330
A
100
AcDbEntity
  8
HIDDEN
 48
0.25
100
AcDbLine
 10
680.6360186682801
 20
937.9246972612669
 30
0.0
 11
680.8610578260933
 21
938.764554831912
 31
0.0
  0
ARC
  5
72B0
330
A
100
AcDbEntity
  8
HIDDEN
 48
0.25
100
AcDbCircle
 10
596.9897900426123
 20
936.7104864677636
 30
0.0
 40
5.0
100
AcDbArc
 50
14.99999999999445
 51
84.83992838600908
  0
ARC
  5
72B1
330
A
100
AcDbEntity
  8
HIDDEN
 48
0.25
100
AcDbCircle
 10
607.6363791008422
 20
939.4776115318815
 30
0.0
 40
6.000000000000001
100
AcDbArc
 50
194.9999999999944
 51
229.9999999999814
  0
ARC
  5
72B2
330
A
100
AcDbEntity
  8
HIDDEN
 48
0.25
100
AcDbCircle
 10
616.1382314186422
 20
920.5950447836946
 30
0.0
 40
3.0
100
AcDbArc
 50
0.9999999999757105
 51
49.99999999998378
  0
ARC
  5
72B3
330
A
100
AcDbEntity
  8
HIDDEN
 48
0.25
100
AcDbCircle
 10
666.3386113927453
 20
920.5950447836946
 30
0.0
 40
3.0
100
AcDbArc
 50
130.0000000000162
 51
178.9999999999722
  0
ARC
  5
72B4
330
A
100
AcDbEntity
  8
HIDDEN
 48
0.25
100
AcDbCircle
 10
674.8404637105451
 20
939.4776115318815
 30
0.0
 40
6.000000000000001
100
AcDbArc
 50
310.0000000000209
 51
345.0000000000056
  0
ARC
  5
72B5
330
A
100
AcDbEntity
  8
HIDDEN
 48
0.25
100
AcDbCircle
 10
685.6906869575363
 20
937.4704596063963
 30
0.0
 40
5.0
100
AcDbArc
 50
108.2162586506237
 51
165.0000000000056
  0
LINE
  5
72B6
330
A
100
AcDbEntity
  8
HIDDEN
 48
0.5
100
AcDbLine
 10
684.1276645743461
 20
942.2198765210957
 30
0.0
 11
597.4394827652801
 21
941.6902230526827
 31
0.0
  0
SPLINE
  5
72B7
330
A
100
AcDbEntity
  8
HIDDEN
100
AcDbSpline
 70
  1056
 71
     3
 72
    12
 73
     8
 74
     6
 42
0.000000001
 43
0.0000000001
 44
0.0
 40
0.0
 40
0.0
 40
0.0
 40
0.0
 40
60.7241799993556
 40
91.99716762174364
 40
103.6331964345068
 40
125.3012710972816
 40
319.7725420496165
 40
319.7725420496165
 40
319.7725420496165
 40
319.7725420496165
 10
323.5381553983085
 20
1031.881344873168
 30
-0.0000000046876926
 10
329.4283138436026
 20
1012.437850081469
 30
-0.0000000025744836
 10
338.351907275677
 20
982.980944290013
 30
0.0000000006270292
 10
363.5495188237399
 20
955.8734456392597
 30
-0.000000000037653
 10
384.8452877645444
 20
950.9634314561898
 30
0.0000000000116873
 10
460.7733401039628
 20
949.2396153544338
 30
-0.0000000000396354
 10
532.7123729752818
 20
945.2657270864372
 30
-0.0000000000187719
 10
597.4394827652783
 20
941.6902230526827
 30
0.0
 11
323.5381553983085
 21
1031.881344873168
 31
-0.0000000046876926
 11
347.0663559445481
 21
975.900546239618
 31
0.0
 11
370.2986120914075
 21
954.9658375204419
 31
0.0
 11
381.5515192710852
 21
952.0045461573688
 31
0.0
 11
403.1689462215188
 21
950.5239004758323
 31
0.0
 11
597.4394827652783
 21
941.6902230526827
 31
0.0
  0
SPLINE
  5
72D2
330
A
100
AcDbEntity
  8
HIDDEN
100
AcDbSpline
 70
  1056
 71
     3
 72
    12
 73
     8
 74
     6
 42
0.000000001
 43
0.0000000001
 44
0.0
 40
0.0
 40
0.0
 40
0.0
 40
0.0
 40
60.72417999935562
 40
91.99716762174357
 40
103.6331964345068
 40
125.3012710972816
 40
319.7725420496165
 40
319.7725420496165
 40
319.7725420496165
 40
319.7725420496165
 10
958.93868741308
 20
1031.881344873168
 30
-0.0000000046876926
 10
953.0485289677856
 20
1012.437850081469
 30
-0.0000000025744836
 10
944.1249355357111
 20
982.9809442900126
 30
0.0000000006270292
 10
918.9273239876488
 20
955.8734456392601
 30
-0.000000000037653
 10
897.6315550468438
 20
950.9634314561896
 30
0.0000000000116873
 10
821.7035027074255
 20
949.2396153544332
 30
-0.0000000000396354
 10
749.7644698361066
 20
945.265727086437
 30
-0.0000000000187719
 10
685.0373600461102
 20
941.6902230526827
 30
0.0
 11
958.93868741308
 21
1031.881344873168
 31
-0.0000000046876926
 11
935.4104868668403
 21
975.900546239618
 31
0.0
 11
912.178230719981
 21
954.9658375204419
 31
0.0
 11
900.9253235403032
 21
952.0045461573688
 31
0.0
 11
879.3078965898696
 21
950.5239004758323
 31
0.0
 11
685.0373600461102
 21
941.6902230526827
 31
0.0
  0
DIMENSION
  5
72EF
330
A
100
AcDbEntity
  8
Dim
100
AcDbDimension
  2
*D23
 10
1919.462041819002
 20
2141.215179553531
 30
-0.0000000046240195
 11
1919.462041819002
 21
2210.414634689783
 31
-0.0000000046240195
 70
   160
 71
     5
 42
25.00000000000001
 73
     0
 74
     0
 75
     0
  3
tform線あり
100
AcDbAlignedDimension
 13
1831.473159601707
 23
2166.215179553531
 33
-0.0000000046240195
 14
1688.297220524042
 24
2141.215179553531
 34
-0.0000000046240195
 50
90.0
100
AcDbRotatedDimension
  0
DIMENSION
  5
7301
330
A
100
AcDbEntity
  8
Dim
100
AcDbDimension
  2
*D24
 10
1919.462041819002
 20
1921.215179553531
 30
0.0
 11
1897.241150390967
 21
2031.215179553531
 31
0.0
 70
    32
 71
     5
 42
220.0
 73
     0
 74
     0
 75
     0
  3
tform線あり
100
AcDbAlignedDimension
 13
1856.473159601707
 23
2141.215179553531
 33
-0.0000000046240195
 14
1688.297220524042
 24
1921.215179553531
 34
-0.0000000046240195
 50
90.0
100
AcDbRotatedDimension
  0
DIMENSION
  5
7317
330
A
100
AcDbEntity
  8
Dim
100
AcDbDimension
  2
*D25
 10
1688.297220524042
 20
1764.882402088639
 30
-0.0000000046240195
 11
1513.297220524042
 21
1787.103293516675
 31
-0.0000000046240195
 70
    32
 71
     5
 42
350.0
 73
     0
 74
     0
 75
     0
  3
tform線あり
100
AcDbAlignedDimension
 13
1338.297220524042
 23
1928.454709436122
 33
-0.0000000046240195
 14
1688.297220524042
 24
1928.454709436122
 34
-0.0000000046240195
100
AcDbRotatedDimension
  0
LINE
  5
7324
102
{ACAD_REACTORS
330
732E
330
7337
102
}
330
A
100
AcDbEntity
  8
MODEL
100
AcDbLine
 10
1688.297220524042
 20
1921.215179553531
 30
-0.0000000046240195
 11
1688.297220524042
 21
2141.215179553531
 31
-0.0000000046240195
  0
LINE
  5
7325
102
{ACAD_REACTORS
330
732E
330
7337
102
}
330
A
100
AcDbEntity
  8
MODEL
100
AcDbLine
 10
1688.297220524042
 20
1921.215179553531
 30
0.0
 11
1338.297220524042
 21
1921.215179553531
 31
0.0
  0
LINE
  5
7326
102
{ACAD_REACTORS
330
732E
330
7337
102
}
330
A
100
AcDbEntity
  8
MODEL
100
AcDbLine
 10
1338.297220524042
 20
1921.215179553531
 30
-0.0000000046240195
 11
1338.297220524042
 21
2141.215179553531
 31
-0.0000000046240195
  0
LINE
  5
7327
102
{ACAD_REACTORS
330
732E
330
7337
102
}
330
A
100
AcDbEntity
  8
MODEL
100
AcDbLine
 10
1688.297220524042
 20
2141.215179553531
 30
-0.0000000046240195
 11
1338.297220524042
 21
2141.215179553531
 31
-0.0000000046240195
  0
HATCH
  5
7337
330
A
100
AcDbEntity
  8
Dim
100
AcDbHatch
 10
0.0
 20
0.0
 30
0.0
210
0.0
220
0.0
230
1.0
  2
ANSI31
 70
     0
 71
     1
 91
        1
 92
        1
 93
        4
 72
     1
 10
1688.297220524042
 20
2141.215179553531
 11
1338.297220524042
 21
2141.215179553531
 72
     1
 10
1338.297220524042
 20
2141.215179553531
 11
1338.297220524042
 21
1921.215179553531
 72
     1
 10
1338.297220524042
 20
1921.215179553531
 11
1688.297220524042
 21
1921.215179553531
 72
     1
 10
1688.297220524042
 20
1921.215179553531
 11
1688.297220524042
 21
2141.215179553531
 97
        4
330
7327
330
7324
330
7326
330
7325
 75
     0
 76
     1
 52
0.0
 41
5.0
 77
     0
 78
     1
 53
45.0
 43
0.0
 44
0.0
 45
-11.22532015133644
 46
11.22532015133644
 79
     0
 98
        1
 10
0.0
 20
0.0
1001
ACAD
1010
0.0
1020
0.0
1030
0.0
1001
HATCHBACKGROUNDCOLOR
1071
-939524096
1000

1000

  0
VIEWPORT
  5
349
330
B
100
AcDbEntity
 67
     1
  8
0
100
AcDbViewport
 10
202.5
 20
128.5
 30
0.0
 40
486.0
 41
308.4
 68
     1
 69
     1
 12
202.5
 22
128.5
 13
0.0
 23
0.0
 14
0.5
 24
0.5
 15
0.0
 25
0.0
 16
0.0
 26
0.0
 36
1.0
 17
0.0
 27
0.0
 37
0.0
 42
50.0
 43
0.0
 44
0.0
 45
308.4
 50
0.0
 51
0.0
 72
   100
 90
   557152
  1

281
     0
 71
     1
 74
     0
110
0.0
120
0.0
130
0.0
111
1.0
121
0.0
131
0.0
112
0.0
122
1.0
132
0.0
 79
     0
146
0.0
170
     0
 61
     5
348
26C
292
     1
282
     1
141
0.0
142
0.0
 63
   256
  0
VIEWPORT
  5
34A
330
B
100
AcDbEntity
 67
     1
  8
0
100
AcDbViewport
 10
202.5
 20
128.5
 30
0.0
 40
324.0
 41
205.6
 68
     2
 69
     2
 12
986.6781359294573
 22
1427.077061889956
 13
0.0
 23
0.0
 14
0.5
 24
0.5
 15
0.0
 25
0.0
 16
0.0
 26
0.0
 36
1.0
 17
0.0
 27
0.0
 37
0.0
 42
50.0
 43
0.0
 44
0.0
 45
2890.021615685494
 50
0.0
 51
0.0
 72
   100
 90
   557152
  1

281
     0
 71
     1
 74
     0
110
0.0
120
0.0
130
0.0
111
1.0
121
0.0
131
0.0
112
0.0
122
1.0
132
0.0
 79
     0
146
0.0
170
     0
 61
     5
348
26C
292
     1
282
     1
141
0.0
142
0.0
 63
   256
  0
ENDSEC
  0
SECTION
  2
OBJECTS
  0
DICTIONARY
  5
19
330
0
100
AcDbDictionary
281
     1
  3
ACAD_COLOR
350
38F
  3
ACAD_DETAILVIEWSTYLE
350
8CF
  3
ACAD_FIELDLIST
350
BA6
  3
ACAD_GROUP
350
1A
  3
ACAD_IMAGE_VARS
350
27B
  3
ACAD_LAYOUT
350
1E
  3
ACAD_MATERIAL
350
263
  3
ACAD_MLEADERSTYLE
350
336
  3
ACAD_MLINESTYLE
350
1B
  3
ACAD_PLOTSETTINGS
350
22
  3
ACAD_PLOTSTYLENAME
350
1F
  3
ACAD_SCALELIST
350
241
  3
ACAD_SECTIONVIEWSTYLE
350
8D0
  3
ACAD_TABLESTYLE
350
278
  3
ACAD_VISUALSTYLE
350
267
  3
ACDB_RECOMPOSE_DATA
350
734F
  3
AcDbVariableDictionary
350
330
  3
APPDATA
350
27A
  3
DimOffsetDictionary
350
C08
  0
SUN
  5
8C2
330
15
100
AcDbSun
 90
        1
290
     0
 63
     7
421
 16777215
 40
1.0
291
     1
 91
  2455826
 92
 54000000
292
     0
 70
     2
 71
   256
280
     1
  0
DICTIONARY
  5
2E1
330
2
100
AcDbDictionary
280
     1
281
     1
  3
ACAD_LAYERSTATES
360
2E2
  3
ACLYDICTIONARY
360
BFE
  0
DICTIONARY
  5
6587
330
A
100
AcDbDictionary
280
     1
281
     1
  3
ACAD_SORTENTS
360
6588
  0
DICTIONARY
  5
BDC
330
BDB
100
AcDbDictionary
280
     1
281
     1
  3
ACAD_FIELD
360
72D9
  0
DICTIONARY
  5
7128
330
7127
100
AcDbDictionary
280
     1
281
     1
  3
ACAD_DIMASSOC
360
7129
  0
DICTIONARY
  5
716B
330
716A
100
AcDbDictionary
280
     1
281
     1
  3
ACAD_DIMASSOC
360
716C
  0
DICTIONARY
  5
71AA
330
71A9
100
AcDbDictionary
280
     1
281
     1
  3
ACAD_DIMASSOC
360
71AB
  0
DICTIONARY
  5
71B9
330
71B8
100
AcDbDictionary
280
     1
281
     1
  3
ACAD_DIMASSOC
360
71BA
  0
DICTIONARY
  5
71F8
330
71F7
100
AcDbDictionary
280
     1
281
     1
  3
ACAD_DIMASSOC
360
71F9
  0
DICTIONARY
  5
723A
330
7239
100
AcDbDictionary
280
     1
281
     1
  3
ACAD_DIMASSOC
360
723B
  0
DICTIONARY
  5
7249
330
7248
100
AcDbDictionary
280
     1
281
     1
  3
ACAD_DIMASSOC
360
724A
  0
DICTIONARY
  5
727B
330
727A
100
AcDbDictionary
280
     1
281
     1
  3
ACAD_DIMASSOC
360
727C
  0
DICTIONARY
  5
38F
102
{ACAD_REACTORS
330
19
102
}
330
19
100
AcDbDictionary
281
     1
  0
DICTIONARY
  5
8CF
102
{ACAD_REACTORS
330
19
102
}
330
19
100
AcDbDictionary
281
     1
  0
FIELDLIST
  5
BA6
102
{ACAD_REACTORS
330
19
102
}
330
19
100
AcDbIdSet
 90
        2
330
BDF
330
BDE
100
AcDbFieldList
  0
DICTIONARY
  5
1A
102
{ACAD_REACTORS
330
19
102
}
330
19
100
AcDbDictionary
281
     1
  3
*A1
350
732E
  0
RASTERVARIABLES
  5
27B
102
{ACAD_REACTORS
330
19
102
}
330
19
100
AcDbRasterVariables
 90
        0
 70
     1
 71
     1
 72
     1
  0
DICTIONARY
  5
1E
102
{ACAD_REACTORS
330
19
102
}
330
19
100
AcDbDictionary
281
     1
  3
Layout1
350
21
  3
Model
350
20
  0
DICTIONARY
  5
263
102
{ACAD_REACTORS
330
19
102
}
330
19
100
AcDbDictionary
281
     1
  3
ByBlock
350
3F68
  3
ByLayer
350
264
  3
Global
350
266
  0
DICTIONARY
  5
336
102
{ACAD_REACTORS
330
19
102
}
330
19
100
AcDbDictionary
281
     1
  3
Standard
350
8D1
  0
DICTIONARY
  5
1B
102
{ACAD_REACTORS
330
19
102
}
330
19
100
AcDbDictionary
281
     1
  3
Standard
350
1C
  0
DICTIONARY
  5
22
102
{ACAD_REACTORS
330
19
102
}
330
19
100
AcDbDictionary
281
     1
  0
ACDBDICTIONARYWDFLT
  5
1F
102
{ACAD_REACTORS
330
19
102
}
330
19
100
AcDbDictionary
281
     1
  3
Normal
350
1D
100
AcDbDictionaryWithDefault
340
1D
  0
DICTIONARY
  5
241
102
{ACAD_REACTORS
330
19
102
}
330
19
100
AcDbDictionary
281
     1
  3
A0
350
242
  3
A1
350
243
  3
A2
350
244
  3
A3
350
245
  3
A4
350
246
  3
A5
350
247
  3
A6
350
248
  3
A7
350
249
  3
A8
350
24A
  3
A9
350
24B
  3
B0
350
24C
  3
B1
350
24D
  3
B2
350
24E
  3
B3
350
24F
  3
B4
350
250
  3
B5
350
251
  3
B6
350
252
  3
B7
350
253
  3
B8
350
254
  3
B9
350
255
  3
C0
350
256
  3
C1
350
257
  3
C2
350
258
  3
C3
350
259
  3
C4
350
25A
  3
C5
350
25B
  3
C6
350
25C
  3
C7
350
25D
  3
C8
350
25E
  3
C9
350
25F
  3
D0
350
260
  3
D1
350
261
  3
D2
350
262
  0
DICTIONARY
  5
8D0
102
{ACAD_REACTORS
330
19
102
}
330
19
100
AcDbDictionary
281
     1
  0
DICTIONARY
  5
278
102
{ACAD_REACTORS
330
19
102
}
330
19
100
AcDbDictionary
281
     1
  3
Standard
350
279
  0
DICTIONARY
  5
267
102
{ACAD_REACTORS
330
19
102
}
330
19
100
AcDbDictionary
281
     1
  3
2dWireframe
350
26C
  3
3D Hidden
350
26E
  3
3dWireframe
350
26D
  3
Basic
350
26F
  3
Brighten
350
273
  3
ColorChange
350
277
  3
Conceptual
350
271
  3
Dim
350
272
  3
EdgeColorOff
350
8BC
  3
Facepattern
350
276
  3
Flat
350
268
  3
FlatWithEdges
350
269
  3
Gouraud
350
26A
  3
GouraudWithEdges
350
26B
  3
Hidden
350
8B9
  3
JitterOff
350
8BA
  3
Linepattern
350
275
  3
OverhangOff
350
8BB
  3
Realistic
350
270
  3
Shaded
350
8C1
  3
Shaded with edges
350
8C0
  3
Shades of Gray
350
8BD
  3
Sketchy
350
8BE
  3
Thicken
350
274
  3
Wireframe
350
8B8
  3
X-Ray
350
8BF
  0
XRECORD
  5
734F
102
{ACAD_REACTORS
330
19
102
}
330
19
100
AcDbXrecord
280
     1
 90
        1
330
279
  0
DICTIONARY
  5
330
102
{ACAD_REACTORS
330
19
102
}
330
19
100
AcDbDictionary
281
     1
  3
CANNOSCALE
350
331
  3
CMLEADERSTYLE
350
8DA
  3
CTABLESTYLE
350
335
  3
HPTRANSPARENCY
350
C07
  3
XCLIPFRAME
350
64A
  0
DICTIONARY
  5
27A
102
{ACAD_REACTORS
330
19
102
}
330
19
100
AcDbDictionary
281
     1
  0
DICTIONARY
  5
C08
102
{ACAD_REACTORS
330
19
102
}
330
19
100
AcDbDictionary
281
     1
  3
DIMRAILANGLE
350
4918
  3
DIMRAILFIRSTOFFSET
350
4916
  3
DIMRAILOFFSET
350
4917
  3
DIMRAILSENABLED
350
4919
  0
DICTIONARY
  5
2E2
102
{ACAD_REACTORS
330
2E1
102
}
330
2E1
100
AcDbDictionary
281
     1
  0
DICTIONARY
  5
BFE
102
{ACAD_REACTORS
330
2E1
102
}
330
2E1
100
AcDbDictionary
281
     1
1001
ACAD
1000
<All
  0
SORTENTSTABLE
  5
6588
102
{ACAD_REACTORS
330
6587
102
}
330
6587
100
AcDbSortentsTable
330
A
331
0
  5
7324
331
655D
  5
6563
331
7324
  5
7326
331
7325
  5
7327
331
7326
  5
7335
331
7327
  5
7337
331
7337
  5
7325
  0
DICTIONARY
  5
72D9
102
{ACAD_REACTORS
330
BDC
102
}
330
BDC
100
AcDbDictionary
280
     1
281
     1
  3
TEXT
360
BDE
  0
DIMASSOC
  5
7129
102
{ACAD_REACTORS
330
7128
102
}
330
7128
100
AcDbDimAssoc
330
7127
 90
        3
 70
     0
 71
     1
  1
AcDbOsnapPointRef
 72
    13
331
6E92
 73
     0
 91
        0
 40
0.0
 10
0.0
 20
0.0
 30
0.0
 75
     0
  1
AcDbOsnapPointRef
 72
     2
331
6EAE
 73
     0
 91
        0
 40
0.5
 10
0.0
 20
0.0
 30
0.0
 75
     0
  0
DIMASSOC
  5
716C
102
{ACAD_REACTORS
330
716B
102
}
330
716B
100
AcDbDimAssoc
330
716A
 90
        2
 70
     0
 71
     1
  1
AcDbOsnapPointRef
 72
    10
331
6DF2
 73
     0
 91
        0
 40
0.9880111141074569
 10
0.0
 20
0.0
 30
0.0
 75
     0
  0
DIMASSOC
  5
71AB
102
{ACAD_REACTORS
330
71AA
102
}
330
71AA
100
AcDbDimAssoc
330
71A9
 90
        3
 70
     0
 71
     1
  1
AcDbOsnapPointRef
 72
    10
331
6EA0
 73
     0
 91
        0
 40
0.0222504440347851
 10
0.0
 20
0.0
 30
0.0
 75
     0
  1
AcDbOsnapPointRef
 72
     8
331
6EA2
 73
     0
 91
        0
 40
0.977749555965215
 10
0.0
 20
0.0
 30
0.0
 75
     1
  1
AcDbOsnapPointRef
 72
    10
331
6EA0
 73
     0
 91
        0
 40
0.0222504440347851
 10
0.0
 20
0.0
 30
0.0
 75
     0
  0
DIMASSOC
  5
71BA
102
{ACAD_REACTORS
330
71B9
102
}
330
71B9
100
AcDbDimAssoc
330
71B8
 90
        3
 70
     0
 71
     1
  1
AcDbOsnapPointRef
 72
    10
331
6EA1
 73
     0
 91
        0
 40
0.9816308350947202
 10
0.0
 20
0.0
 30
0.0
 75
     0
  1
AcDbOsnapPointRef
 72
     8
331
6E9F
 73
     0
 91
        0
 40
0.9816308350947152
 10
0.0
 20
0.0
 30
0.0
 75
     1
  1
AcDbOsnapPointRef
 72
    10
331
6EA1
 73
     0
 91
        0
 40
0.9816308350947202
 10
0.0
 20
0.0
 30
0.0
 75
     0
  0
DIMASSOC
  5
71F9
102
{ACAD_REACTORS
330
71F8
102
}
330
71F8
100
AcDbDimAssoc
330
71F7
 90
        0
 70
     0
 71
     1
  0
DIMASSOC
  5
723B
102
{ACAD_REACTORS
330
723A
102
}
330
723A
100
AcDbDimAssoc
330
7239
 90
        3
 70
     0
 71
     1
  1
AcDbOsnapPointRef
 72
     5
331
6F0C
 73
     0
 91
        0
 40
1.570796326794897
 10
0.0
 20
0.0
 30
0.0
 75
     0
  1
AcDbOsnapPointRef
 72
     5
331
6EA7
 73
     0
 91
        0
 40
1.570796326794897
 10
0.0
 20
0.0
 30
0.0
 75
     0
  0
DIMASSOC
  5
724A
102
{ACAD_REACTORS
330
7249
102
}
330
7249
100
AcDbDimAssoc
330
7248
 90
        0
 70
     0
 71
     1
  0
DIMASSOC
  5
727C
102
{ACAD_REACTORS
330
727B
102
}
330
727B
100
AcDbDimAssoc
330
727A
 90
        3
 70
     0
 71
     1
  1
AcDbOsnapPointRef
 72
    13
331
7162
 73
     0
 91
        0
 40
0.0
 10
0.0
 20
0.0
 30
0.0
 75
     0
  1
AcDbOsnapPointRef
 72
    13
331
7186
 73
     0
 91
        0
 40
0.0
 10
0.0
 20
0.0
 30
0.0
 75
     0
  0
GROUP
  5
732E
102
{ACAD_REACTORS
330
1A
102
}
330
1A
100
AcDbGroup
300

 70
     1
 71
     1
340
7327
340
7324
340
7326
340
7325
  0
LAYOUT
  5
21
102
{ACAD_REACTORS
330
1E
102
}
330
1E
100
AcDbPlotSettings
  1

  2
none_device
  4
ISO_A3_(420.00_x_297.00_MM)
  6

 40
7.5
 41
20.0
 42
7.5
 43
20.0
 44
420.0
 45
297.0
 46
0.0
 47
0.0
 48
0.0
 49
0.0
140
0.0
141
0.0
142
1.0
143
1.0
 70
     0
 72
     1
 73
     0
 74
     0
  7

 75
     0
 76
     0
 77
     2
 78
   300
147
1.0
148
0.0
149
0.0
100
AcDbLayout
  1
Layout1
 70
     0
 71
     0
 10
0.0
 20
0.0
 11
0.0
 21
0.0
 12
0.0
 22
0.0
 32
0.0
 14
0.0
 24
0.0
 34
0.0
 15
0.0
 25
0.0
 35
0.0
146
0.0
 13
0.0
 23
0.0
 33
0.0
 16
0.0
 26
0.0
 36
0.0
 17
0.0
 27
0.0
 37
0.0
 76
     0
330
B
331
349
  0
LAYOUT
  5
20
102
{ACAD_REACTORS
330
1E
102
}
330
1E
100
AcDbPlotSettings
  1

  2
none_device
  4
ISO_A3_(420.00_x_297.00_MM)
  6

 40
7.5
 41
20.0
 42
7.5
 43
20.0
 44
420.0
 45
297.0
 46
0.0
 47
0.0
 48
0.0
 49
0.0
140
0.0
141
0.0
142
1.0
143
1.0
 70
  1024
 72
     1
 73
     0
 74
     0
  7

 75
     0
 76
     0
 77
     2
 78
   300
147
1.0
148
0.0
149
0.0
100
AcDbLayout
  1
Model
 70
     0
 71
     1
 10
0.0
 20
0.0
 11
2100.0
 21
2970.0
 12
0.0
 22
0.0
 32
0.0
 14
0.0
 24
0.0
 34
-0.0000000053126276
 15
2100.0
 25
2970.0
 35
34.99521132346015
146
0.0
 13
0.0
 23
0.0
 33
0.0
 16
0.0
 26
0.0
 36
0.0
 17
0.0
 27
0.0
 37
0.0
 76
     0
330
A
331
15
  0
MATERIAL
  5
3F68
102
{ACAD_REACTORS
330
263
102
}
330
263
100
AcDbMaterial
  1
ByBlock
 72
     1
 94
      127
  0
MATERIAL
  5
264
102
{ACAD_REACTORS
330
263
102
}
330
263
100
AcDbMaterial
  1
ByLayer
 72
     1
 94
      127
  0
MATERIAL
  5
266
102
{ACAD_REACTORS
330
263
102
}
330
263
100
AcDbMaterial
  1
Global
 72
     1
 94
      127
  0
MLEADERSTYLE
  5
8D1
102
{ACAD_REACTORS
330
336
102
}
330
336
100
AcDbMLeaderStyle
170
     2
171
     1
172
     0
 90
        2
 40
0.0
 41
0.0
173
     1
 91
-1056964608
340
11
 92
       -2
290
     1
 42
2.0
291
     1
 43
8.0
  3
Standard
341
0
 44
4.0
300

342
17
174
     1
178
     6
175
     1
176
     0
 93
-1056964608
 45
4.0
292
     0
297
     0
 46
4.0
343
0
 94
-1056964608
 47
1.0
 49
1.0
140
1.0
293
     1
141
0.0
294
     1
177
     0
142
1.0
295
     0
296
     0
143
3.75
1001
ACAD_MLEADERVER
1070
     2
  0
MLINESTYLE
  5
1C
102
{ACAD_REACTORS
330
1B
102
}
330
1B
100
AcDbMlineStyle
  2
Standard
 70
     0
  3

 62
     0
 51
90.0
 52
90.0
 71
     2
 49
0.5
 62
   256
  6
BYLAYER
 49
-0.5
 62
   256
  6
BYLAYER
  0
ACDBPLACEHOLDER
  5
1D
102
{ACAD_REACTORS
330
1F
102
}
330
1F
  0
SCALE
  5
242
102
{ACAD_REACTORS
330
241
102
}
330
241
100
AcDbScale
 70
     0
300
1:1
140
1.0
141
1.0
290
     1
  0
SCALE
  5
243
102
{ACAD_REACTORS
330
241
102
}
330
241
100
AcDbScale
 70
     0
300
1:2
140
1.0
141
2.0
290
     0
  0
SCALE
  5
244
102
{ACAD_REACTORS
330
241
102
}
330
241
100
AcDbScale
 70
     0
300
1:4
140
1.0
141
4.0
290
     0
  0
SCALE
  5
245
102
{ACAD_REACTORS
330
241
102
}
330
241
100
AcDbScale
 70
     0
300
1:5
140
1.0
141
5.0
290
     0
  0
SCALE
  5
246
102
{ACAD_REACTORS
330
241
102
}
330
241
100
AcDbScale
 70
     0
300
1:8
140
1.0
141
8.0
290
     0
  0
SCALE
  5
247
102
{ACAD_REACTORS
330
241
102
}
330
241
100
AcDbScale
 70
     0
300
1:10
140
1.0
141
10.0
290
     0
  0
SCALE
  5
248
102
{ACAD_REACTORS
330
241
102
}
330
241
100
AcDbScale
 70
     0
300
1:16
140
1.0
141
16.0
290
     0
  0
SCALE
  5
249
102
{ACAD_REACTORS
330
241
102
}
330
241
100
AcDbScale
 70
     0
300
1:20
140
1.0
141
20.0
290
     0
  0
SCALE
  5
24A
102
{ACAD_REACTORS
330
241
102
}
330
241
100
AcDbScale
 70
     0
300
1:30
140
1.0
141
30.0
290
     0
  0
SCALE
  5
24B
102
{ACAD_REACTORS
330
241
102
}
330
241
100
AcDbScale
 70
     0
300
1:40
140
1.0
141
40.0
290
     0
  0
SCALE
  5
24C
102
{ACAD_REACTORS
330
241
102
}
330
241
100
AcDbScale
 70
     0
300
1:50
140
1.0
141
50.0
290
     0
  0
SCALE
  5
24D
102
{ACAD_REACTORS
330
241
102
}
330
241
100
AcDbScale
 70
     0
300
1:100
140
1.0
141
100.0
290
     0
  0
SCALE
  5
24E
102
{ACAD_REACTORS
330
241
102
}
330
241
100
AcDbScale
 70
     0
300
2:1
140
2.0
141
1.0
290
     0
  0
SCALE
  5
24F
102
{ACAD_REACTORS
330
241
102
}
330
241
100
AcDbScale
 70
     0
300
4:1
140
4.0
141
1.0
290
     0
  0
SCALE
  5
250
102
{ACAD_REACTORS
330
241
102
}
330
241
100
AcDbScale
 70
     0
300
8:1
140
8.0
141
1.0
290
     0
  0
SCALE
  5
251
102
{ACAD_REACTORS
330
241
102
}
330
241
100
AcDbScale
 70
     0
300
10:1
140
10.0
141
1.0
290
     0
  0
SCALE
  5
252
102
{ACAD_REACTORS
330
241
102
}
330
241
100
AcDbScale
 70
     0
300
100:1
140
100.0
141
1.0
290
     0
  0
SCALE
  5
253
102
{ACAD_REACTORS
330
241
102
}
330
241
100
AcDbScale
 70
     0
300
1/128" = 1'-0"
140
0.0078125
141
12.0
290
     0
  0
SCALE
  5
254
102
{ACAD_REACTORS
330
241
102
}
330
241
100
AcDbScale
 70
     0
300
1/64" = 1'-0"
140
0.015625
141
12.0
290
     0
  0
SCALE
  5
255
102
{ACAD_REACTORS
330
241
102
}
330
241
100
AcDbScale
 70
     0
300
1/32" = 1'-0"
140
0.03125
141
12.0
290
     0
  0
SCALE
  5
256
102
{ACAD_REACTORS
330
241
102
}
330
241
100
AcDbScale
 70
     0
300
1/16" = 1'-0"
140
0.0625
141
12.0
290
     0
  0
SCALE
  5
257
102
{ACAD_REACTORS
330
241
102
}
330
241
100
AcDbScale
 70
     0
300
3/32" = 1'-0"
140
0.09375
141
12.0
290
     0
  0
SCALE
  5
258
102
{ACAD_REACTORS
330
241
102
}
330
241
100
AcDbScale
 70
     0
300
1/8" = 1'-0"
140
0.125
141
12.0
290
     0
  0
SCALE
  5
259
102
{ACAD_REACTORS
330
241
102
}
330
241
100
AcDbScale
 70
     0
300
3/16" = 1'-0"
140
0.1875
141
12.0
290
     0
  0
SCALE
  5
25A
102
{ACAD_REACTORS
330
241
102
}
330
241
100
AcDbScale
 70
     0
300
1/4" = 1'-0"
140
0.25
141
12.0
290
     0
  0
SCALE
  5
25B
102
{ACAD_REACTORS
330
241
102
}
330
241
100
AcDbScale
 70
     0
300
3/8" = 1'-0"
140
0.375
141
12.0
290
     0
  0
SCALE
  5
25C
102
{ACAD_REACTORS
330
241
102
}
330
241
100
AcDbScale
 70
     0
300
1/2" = 1'-0"
140
0.5
141
12.0
290
     0
  0
SCALE
  5
25D
102
{ACAD_REACTORS
330
241
102
}
330
241
100
AcDbScale
 70
     0
300
3/4" = 1'-0"
140
0.75
141
12.0
290
     0
  0
SCALE
  5
25E
102
{ACAD_REACTORS
330
241
102
}
330
241
100
AcDbScale
 70
     0
300
1" = 1'-0"
140
1.0
141
12.0
290
     0
  0
SCALE
  5
25F
102
{ACAD_REACTORS
330
241
102
}
330
241
100
AcDbScale
 70
     0
300
1-1/2" = 1'-0"
140
1.5
141
12.0
290
     0
  0
SCALE
  5
260
102
{ACAD_REACTORS
330
241
102
}
330
241
100
AcDbScale
 70
     0
300
3" = 1'-0"
140
3.0
141
12.0
290
     0
  0
SCALE
  5
261
102
{ACAD_REACTORS
330
241
102
}
330
241
100
AcDbScale
 70
     0
300
6" = 1'-0"
140
6.0
141
12.0
290
     0
  0
SCALE
  5
262
102
{ACAD_REACTORS
330
241
102
}
330
241
100
AcDbScale
 70
     0
300
1'-0" = 1'-0"
140
12.0
141
12.0
290
     0
  0
TABLESTYLE
  5
279
102
{ACAD_REACTORS
330
278
102
}
102
{ACAD_XDICTIONARY
360
734D
102
}
330
278
100
AcDbTableStyle
  3
Standard
 70
     0
 71
     0
 40
0.06
 41
0.06
280
     0
281
     0
  7
Standard
140
4.5
170
     2
 62
     0
 63
   257
283
     0
 90
        4
 91
        0
  1

274
    -2
284
     1
 64
     0
275
    -2
285
     1
 65
     0
276
    -2
286
     1
 66
     0
277
    -2
287
     1
 67
     0
278
    -2
288
     1
 68
     0
279
    -2
289
     1
 69
     0
  7
Standard
140
6.0
170
     5
 62
     0
 63
   257
283
     0
 90
        4
 91
        0
  1

274
    -2
284
     1
 64
     0
275
    -2
285
     1
 65
     0
276
    -2
286
     1
 66
     0
277
    -2
287
     1
 67
     0
278
    -2
288
     1
 68
     0
279
    -2
289
     1
 69
     0
  7
Standard
140
4.5
170
     5
 62
     0
 63
   257
283
     0
 90
        4
 91
        0
  1

274
    -2
284
     1
 64
     0
275
    -2
285
     1
 65
     0
276
    -2
286
     1
 66
     0
277
    -2
287
     1
 67
     0
278
    -2
288
     1
 68
     0
279
    -2
289
     1
 69
     0
  0
VISUALSTYLE
  5
26C
102
{ACAD_REACTORS
330
267
102
}
330
267
100
AcDbVisualStyle
  2
2dWireframe
 70
     4
 71
     0
 72
     2
 73
     0
 90
        0
 40
-0.6
 41
-30.0
 62
     5
 63
     7
421
 16777215
 74
     1
 91
        4
 64
     7
 65
   257
 75
     1
175
     1
 42
1.0
 92
        0
 66
   257
 43
1.0
 76
     1
 77
     6
 78
     2
 67
     7
 79
     5
170
     0
171
     0
290
     0
174
     0
 93
        1
 44
0.0
173
     0
291
     0
 45
0.0
  0
VISUALSTYLE
  5
26E
102
{ACAD_REACTORS
330
267
102
}
330
267
100
AcDbVisualStyle
  2
3D Hidden
 70
     6
 71
     1
 72
     2
 73
     2
 90
        0
 40
-0.6
 41
-30.0
 62
     5
 63
     7
421
 16777215
 74
     2
 91
        2
 64
     7
 65
   257
 75
     2
175
     1
 42
40.0
 92
        0
 66
   257
 43
1.0
 76
     1
 77
     6
 78
     2
 67
     7
 79
     3
170
     0
171
     0
290
     0
174
     0
 93
        1
 44
0.0
173
     0
291
     0
 45
0.0
  0
VISUALSTYLE
  5
26D
102
{ACAD_REACTORS
330
267
102
}
330
267
100
AcDbVisualStyle
  2
3dWireframe
 70
     5
 71
     0
 72
     2
 73
     0
 90
        0
 40
-0.6
 41
-30.0
 62
     5
 63
     7
421
 16777215
 74
     1
 91
        4
 64
     7
 65
   257
 75
     1
175
     1
 42
1.0
 92
        0
 66
   257
 43
1.0
 76
     1
 77
     6
 78
     2
 67
     7
 79
     5
170
     0
171
     0
290
     0
174
     0
 93
        1
 44
0.0
173
     0
291
     0
 45
0.0
  0
VISUALSTYLE
  5
26F
102
{ACAD_REACTORS
330
267
102
}
330
267
100
AcDbVisualStyle
  2
Basic
 70
     7
 71
     1
 72
     0
 73
     1
 90
        0
 40
-0.6
 41
-30.0
 62
     5
 63
     7
421
 16777215
 74
     0
 91
        4
 64
     7
 65
   257
 75
     1
175
     1
 42
1.0
 92
        8
 66
     7
 43
1.0
 76
     1
 77
     6
 78
     2
 67
     7
 79
     5
170
     0
171
     0
290
     0
174
     0
 93
        1
 44
0.0
173
     0
291
     1
 45
0.0
  0
VISUALSTYLE
  5
273
102
{ACAD_REACTORS
330
267
102
}
330
267
100
AcDbVisualStyle
  2
Brighten
 70
    12
 71
     2
 72
     2
 73
     0
 90
        0
 40
-0.6
 41
-30.0
 62
     5
 63
     7
421
 16777215
 74
     1
 91
        4
 64
     7
 65
   257
 75
     1
175
     1
 42
1.0
 92
        8
 66
     7
 43
1.0
 76
     1
 77
     6
 78
     2
 67
     7
 79
     5
170
     0
171
     0
290
     0
174
     0
 93
        1
 44
50.0
173
     0
291
     1
 45
0.0
  0
VISUALSTYLE
  5
277
102
{ACAD_REACTORS
330
267
102
}
330
267
100
AcDbVisualStyle
  2
ColorChange
 70
    16
 71
     2
 72
     2
 73
     3
 90
        0
 40
-0.6
 41
-30.0
 62
     5
 63
     8
421
  8421504
 74
     1
 91
        4
 64
     7
 65
   257
 75
     1
175
     1
 42
1.0
 92
        8
 66
     8
424
  8421504
 43
1.0
 76
     1
 77
     6
 78
     2
 67
     7
 79
     5
170
     0
171
     0
290
     0
174
     0
 93
        1
 44
0.0
173
     0
291
     1
 45
0.0
  0
VISUALSTYLE
  5
271
102
{ACAD_REACTORS
330
267
102
}
330
267
100
AcDbVisualStyle
  2
Conceptual
 70
     9
 71
     3
 72
     2
 73
     0
 90
        0
 40
-0.6
 41
-30.0
 62
     5
 63
     7
421
 16777215
 74
     2
 91
        2
 64
     7
 65
   257
 75
     1
175
     1
 42
40.0
 92
        8
 66
     7
 43
1.0
 76
     1
 77
     6
 78
     2
 67
     7
 79
     3
170
     0
171
     0
290
     0
174
     0
 93
        1
 44
0.0
173
     0
291
     0
 45
0.0
  0
VISUALSTYLE
  5
272
102
{ACAD_REACTORS
330
267
102
}
330
267
100
AcDbVisualStyle
  2
Dim
 70
    11
 71
     2
 72
     2
 73
     0
 90
        0
 40
-0.6
 41
-30.0
 62
     5
 63
     7
421
 16777215
 74
     1
 91
        4
 64
     7
 65
   257
 75
     1
175
     1
 42
1.0
 92
        8
 66
     7
 43
1.0
 76
     1
 77
     6
 78
     2
 67
     7
 79
     5
170
     0
171
     0
290
     0
174
     0
 93
        1
 44
-50.0
173
     0
291
     1
 45
0.0
  0
VISUALSTYLE
  5
8BC
102
{ACAD_REACTORS
330
267
102
}
330
267
100
AcDbVisualStyle
  2
EdgeColorOff
 70
    22
 71
     2
 72
     2
 73
     0
 90
        0
 40
0.6
 41
30.0
 62
     5
 63
     7
421
 16777215
 74
     1
 91
        4
 64
     7
 65
   257
 75
     1
175
     1
 42
1.0
 92
        8
 66
     7
 43
1.0
 76
     1
 77
     6
 78
     2
 67
     7
 79
     5
170
     0
171
     0
290
     0
174
     0
 93
        1
 44
0.0
173
     0
291
     1
 45
0.0
  0
VISUALSTYLE
  5
276
102
{ACAD_REACTORS
330
267
102
}
330
267
100
AcDbVisualStyle
  2
Facepattern
 70
    15
 71
     2
 72
     2
 73
     0
 90
        0
 40
-0.6
 41
-30.0
 62
     5
 63
     7
421
 16777215
 74
     1
 91
        4
 64
     7
 65
   257
 75
     1
175
     1
 42
1.0
 92
        8
 66
     7
 43
1.0
 76
     1
 77
     6
 78
     2
 67
     7
 79
     5
170
     0
171
     0
290
     0
174
     0
 93
        1
 44
0.0
173
     0
291
     1
 45
0.0
  0
VISUALSTYLE
  5
268
102
{ACAD_REACTORS
330
267
102
}
330
267
100
AcDbVisualStyle
  2
Flat
 70
     0
 71
     2
 72
     1
 73
     1
 90
        2
 40
-0.6
 41
30.0
 62
     5
 63
     7
421
 16777215
 74
     0
 91
        4
 64
     7
 65
   257
 75
     1
175
     1
 42
1.0
 92
        8
 66
     7
 43
1.0
 76
     1
 77
     6
 78
     2
 67
     7
 79
     5
170
     0
171
     0
290
     0
174
     0
 93
       13
 44
0.0
173
     0
291
     1
 45
0.0
  0
VISUALSTYLE
  5
269
102
{ACAD_REACTORS
330
267
102
}
330
267
100
AcDbVisualStyle
  2
FlatWithEdges
 70
     1
 71
     2
 72
     1
 73
     1
 90
        2
 40
-0.6
 41
30.0
 62
     5
 63
     7
421
 16777215
 74
     1
 91
        4
 64
     7
 65
   257
 75
     1
175
     1
 42
1.0
 92
        0
 66
   257
 43
1.0
 76
     1
 77
     6
 78
     2
 67
     7
 79
     5
170
     0
171
     0
290
     0
174
     0
 93
       13
 44
0.0
173
     0
291
     1
 45
0.0
  0
VISUALSTYLE
  5
26A
102
{ACAD_REACTORS
330
267
102
}
330
267
100
AcDbVisualStyle
  2
Gouraud
 70
     2
 71
     2
 72
     2
 73
     1
 90
        2
 40
-0.6
 41
30.0
 62
     5
 63
     7
421
 16777215
 74
     0
 91
        4
 64
     7
 65
   257
 75
     1
175
     1
 42
1.0
 92
        0
 66
     7
 43
1.0
 76
     1
 77
     6
 78
     2
 67
     7
 79
     5
170
     0
171
     0
290
     0
174
     0
 93
       13
 44
0.0
173
     0
291
     1
 45
0.0
  0
VISUALSTYLE
  5
26B
102
{ACAD_REACTORS
330
267
102
}
330
267
100
AcDbVisualStyle
  2
GouraudWithEdges
 70
     3
 71
     2
 72
     2
 73
     1
 90
        2
 40
-0.6
 41
30.0
 62
     5
 63
     7
421
 16777215
 74
     1
 91
        4
 64
     7
 65
   257
 75
     1
175
     1
 42
1.0
 92
        0
 66
   257
 43
1.0
 76
     1
 77
     6
 78
     2
 67
     7
 79
     5
170
     0
171
     0
290
     0
174
     0
 93
       13
 44
0.0
173
     0
291
     1
 45
0.0
  0
VISUALSTYLE
  5
8B9
102
{ACAD_REACTORS
330
267
102
}
330
267
100
AcDbVisualStyle
  2
Hidden
 70
     6
 71
     1
 72
     2
 73
     2
 90
        0
 40
0.6
 41
30.0
 62
     5
 63
     7
421
 16777215
 74
     2
 91
        2
 64
     7
 65
   257
 75
     2
175
     1
 42
40.0
 92
        0
 66
   257
 43
1.0
 76
     1
 77
     6
 78
     2
 67
     7
 79
     3
170
     0
171
     0
290
     0
174
     0
 93
        1
 44
0.0
173
     0
291
     0
 45
0.0
  0
VISUALSTYLE
  5
8BA
102
{ACAD_REACTORS
330
267
102
}
330
267
100
AcDbVisualStyle
  2
JitterOff
 70
    20
 71
     2
 72
     2
 73
     0
 90
        0
 40
0.6
 41
30.0
 62
     5
 63
     7
421
 16777215
 74
     1
 91
        4
 64
     7
 65
   257
 75
     1
175
     1
 42
1.0
 92
       10
 66
     7
 43
1.0
 76
     1
 77
     6
 78
     2
 67
     7
 79
     5
170
     0
171
     0
290
     0
174
     0
 93
        1
 44
0.0
173
     0
291
     1
 45
0.0
  0
VISUALSTYLE
  5
275
102
{ACAD_REACTORS
330
267
102
}
330
267
100
AcDbVisualStyle
  2
Linepattern
 70
    14
 71
     2
 72
     2
 73
     0
 90
        0
 40
-0.6
 41
-30.0
 62
     5
 63
     7
421
 16777215
 74
     1
 91
        4
 64
     7
 65
   257
 75
     7
175
     7
 42
1.0
 92
        8
 66
     7
 43
1.0
 76
     1
 77
     6
 78
     2
 67
     7
 79
     5
170
     0
171
     0
290
     0
174
     0
 93
        1
 44
0.0
173
     0
291
     1
 45
0.0
  0
VISUALSTYLE
  5
8BB
102
{ACAD_REACTORS
330
267
102
}
330
267
100
AcDbVisualStyle
  2
OverhangOff
 70
    21
 71
     2
 72
     2
 73
     0
 90
        0
 40
0.6
 41
30.0
 62
     5
 63
     7
421
 16777215
 74
     1
 91
        4
 64
     7
 65
   257
 75
     1
175
     1
 42
1.0
 92
        9
 66
     7
 43
1.0
 76
     1
 77
     6
 78
     2
 67
     7
 79
     5
170
     0
171
     0
290
     0
174
     0
 93
        1
 44
0.0
173
     0
291
     1
 45
0.0
  0
VISUALSTYLE
  5
270
102
{ACAD_REACTORS
330
267
102
}
330
267
100
AcDbVisualStyle
  2
Realistic
 70
     8
 71
     2
 72
     2
 73
     0
 90
        0
 40
-0.6
 41
-30.0
 62
     5
 63
     7
421
 16777215
 74
     1
 91
        0
 64
     7
 65
   257
 75
     1
175
     1
 42
1.0
 92
        8
 66
     8
424
  7895160
 43
1.0
 76
     1
 77
     6
 78
     2
 67
     7
 79
     5
170
     0
171
     0
290
     0
174
     0
 93
       13
 44
0.0
173
     0
291
     0
 45
0.0
  0
VISUALSTYLE
  5
8C1
102
{ACAD_REACTORS
330
267
102
}
330
267
100
AcDbVisualStyle
  2
Shaded
 70
    27
 71
     2
 72
     2
 73
     1
 90
        2
 40
0.6
 41
30.0
 62
     5
 63
     7
421
 16777215
 74
     0
 91
        4
 64
     7
 65
   257
 75
     1
175
     1
 42
1.0
 92
        8
 66
   257
 43
1.0
 76
     1
 77
     6
 78
     2
 67
     8
425
  7895160
 79
     3
170
     0
171
     0
290
     0
174
     0
 93
        5
 44
0.0
173
     0
291
     0
 45
0.0
  0
VISUALSTYLE
  5
8C0
102
{ACAD_REACTORS
330
267
102
}
330
267
100
AcDbVisualStyle
  2
Shaded with edges
 70
    26
 71
     2
 72
     2
 73
     1
 90
        2
 40
0.6
 41
30.0
 62
     5
 63
     7
421
 16777215
 74
     1
 91
       10
 64
     7
 65
   257
 75
     2
175
     1
 42
1.0
 92
        8
 66
   257
 43
1.0
 76
     1
 77
     6
 78
     2
 67
     7
 79
     3
170
     0
171
     0
290
     0
174
     0
 93
        5
 44
0.0
173
     0
291
     0
 45
0.0
  0
VISUALSTYLE
  5
8BD
102
{ACAD_REACTORS
330
267
102
}
330
267
100
AcDbVisualStyle
  2
Shades of Gray
 70
    23
 71
     2
 72
     2
 73
     3
 90
        0
 40
0.6
 41
30.0
 62
     5
 63
     7
421
 16777215
 74
     2
 91
        2
 64
     7
 65
     7
 75
     1
175
     1
 42
40.0
 92
        8
 66
     7
 43
1.0
 76
     1
 77
     6
 78
     2
 67
     7
 79
     3
170
     0
171
     0
290
     0
174
     0
 93
        1
 44
0.0
173
     0
291
     0
 45
0.0
  0
VISUALSTYLE
  5
8BE
102
{ACAD_REACTORS
330
267
102
}
330
267
100
AcDbVisualStyle
  2
Sketchy
 70
    24
 71
     1
 72
     2
 73
     2
 90
        0
 40
0.6
 41
30.0
 62
     5
 63
     7
421
 16777215
 74
     2
 91
        2
 64
     7
 65
     7
 75
     1
175
     1
 42
40.0
 92
       11
 66
     7
 43
1.0
 76
     1
 77
     6
 78
     2
 67
     7
 79
     6
170
     0
171
     0
290
     0
174
     0
 93
        1
 44
0.0
173
     0
291
     0
 45
0.0
  0
VISUALSTYLE
  5
274
102
{ACAD_REACTORS
330
267
102
}
330
267
100
AcDbVisualStyle
  2
Thicken
 70
    13
 71
     2
 72
     2
 73
     0
 90
        0
 40
-0.6
 41
-30.0
 62
     5
 63
     7
421
 16777215
 74
     1
 91
        4
 64
     7
 65
   257
 75
     1
175
     1
 42
1.0
 92
       12
 66
     7
 43
1.0
 76
     1
 77
     6
 78
     2
 67
     7
 79
     5
170
     0
171
     0
290
     0
174
     0
 93
        1
 44
0.0
173
     0
291
     1
 45
0.0
  0
VISUALSTYLE
  5
8B8
102
{ACAD_REACTORS
330
267
102
}
330
267
100
AcDbVisualStyle
  2
Wireframe
 70
     5
 71
     0
 72
     2
 73
     0
 90
        0
 40
0.6
 41
30.0
 62
     5
 63
     7
421
 16777215
 74
     1
 91
        4
 64
     7
 65
   257
 75
     1
175
     1
 42
1.0
 92
        0
 66
   257
 43
1.0
 76
     1
 77
     6
 78
     2
 67
     7
 79
     3
170
     0
171
     0
290
     0
174
     0
 93
        1
 44
0.0
173
     0
291
     0
 45
0.0
  0
VISUALSTYLE
  5
8BF
102
{ACAD_REACTORS
330
267
102
}
330
267
100
AcDbVisualStyle
  2
X-Ray
 70
    25
 71
     2
 72
     2
 73
     1
 90
        1
 40
0.5
 41
30.0
 62
     5
 63
     7
421
 16777215
 74
     1
 91
        0
 64
     7
 65
   257
 75
     1
175
     1
 42
1.0
 92
        8
 66
     7
 43
1.0
 76
     1
 77
     6
 78
     2
 67
     7
 79
     3
170
     0
171
     0
290
     0
174
     0
 93
       13
 44
0.0
173
     0
291
     0
 45
0.0
  0
DICTIONARYVAR
  5
331
102
{ACAD_REACTORS
330
330
102
}
330
330
100
DictionaryVariables
280
     0
  1
1:1
  0
DICTIONARYVAR
  5
8DA
102
{ACAD_REACTORS
330
330
102
}
330
330
100
DictionaryVariables
280
     0
  1
Standard
  0
DICTIONARYVAR
  5
335
102
{ACAD_REACTORS
330
330
102
}
330
330
100
DictionaryVariables
280
     0
  1
Standard
  0
DICTIONARYVAR
  5
C07
102
{ACAD_REACTORS
330
330
102
}
330
330
100
DictionaryVariables
280
     0
  1
ByLayer
  0
DICTIONARYVAR
  5
64A
102
{ACAD_REACTORS
330
330
102
}
330
330
100
DictionaryVariables
280
     0
  1
0
  0
DICTIONARYVAR
  5
4918
102
{ACAD_REACTORS
330
C08
102
}
330
C08
100
DictionaryVariables
280
     0
  1
0.261799
  0
DICTIONARYVAR
  5
4916
102
{ACAD_REACTORS
330
C08
102
}
330
C08
100
DictionaryVariables
280
     0
  1
0.400000
  0
DICTIONARYVAR
  5
4917
102
{ACAD_REACTORS
330
C08
102
}
330
C08
100
DictionaryVariables
280
     0
  1
0.250000
  0
DICTIONARYVAR
  5
4919
102
{ACAD_REACTORS
330
C08
102
}
330
C08
100
DictionaryVariables
280
     0
  1
1
  0
FIELD
  5
BDE
102
{ACAD_REACTORS
330
72D9
102
}
330
72D9
100
AcDbField
  1
_text
  2
{%<\_FldIdx 0>%N}
 90
        1
360
BDF
 97
        0
 91
       63
 92
        0
 94
       11
 95
        2
 96
        0
300

 93
        1
  6
ACFD_FIELDTEXT_CHECKSUM
 93
        2
 90
        2
140
4543.0
 94
        0
300

302

304
ACVALUE_END
  7
ACFD_FIELD_VALUE
 93
        6
 90
        4
  1
{20210818N}
 94
        0
300

302

304
ACVALUE_END
301
{20210818N}
 98
       11
  0
DICTIONARY
  5
734D
330
279
100
AcDbDictionary
280
     1
281
     1
  3
ACAD_ROUNDTRIP_2008_TABLESTYLE_CELLSTYLEMAP
360
734E
  0
FIELD
  5
BDF
330
BDE
100
AcDbField
  1
AcVar
  2
\AcVar Date \f "yyyyMMdd"
 90
        0
 97
        0
 91
       63
 92
        0
 94
        8
 95
       64
 96
        0
300
Variable not supported
 93
        1
  6
Variable
 93
        2
 90
        4
  1
Date
 94
        0
300

302

304
ACVALUE_END
  7
ACFD_FIELD_VALUE
 93
        6
 90
        8
 92
       16
310
E507080000001200050024000A000000
 94
        0
300
yyyyMMdd
302

304
ACVALUE_END
301
20210818
 98
        8
  0
CELLSTYLEMAP
  5
734E
102
{ACAD_REACTORS
330
734D
102
}
330
734D
100
AcDbCellStyleMap
 90
        3
300
CELLSTYLE
  1
TABLEFORMAT_BEGIN
 90
        5
170
     1
 91
        0
 92
    32768
 62
   257
 93
        1
300
CONTENTFORMAT
  1
CONTENTFORMAT_BEGIN
 90
        0
 91
        0
 92
        4
 93
        0
300

 40
0.0
140
1.0
 94
        5
 62
     0
340
17
144
6.0
309
CONTENTFORMAT_END
171
     1
301
MARGIN
  1
CELLMARGIN_BEGIN
 40
0.06
 40
0.06
 40
0.06
 40
0.06
 40
0.18
 40
0.18
309
CELLMARGIN_END
 94
        6
 95
        1
302
GRIDFORMAT
  1
GRIDFORMAT_BEGIN
 90
        0
 91
        1
 62
     0
 92
       -2
340
0
 93
        0
 40
0.045
309
GRIDFORMAT_END
 95
        2
302
GRIDFORMAT
  1
GRIDFORMAT_BEGIN
 90
        0
 91
        1
 62
     0
 92
       -2
340
0
 93
        0
 40
0.045
309
GRIDFORMAT_END
 95
        4
302
GRIDFORMAT
  1
GRIDFORMAT_BEGIN
 90
        0
 91
        1
 62
     0
 92
       -2
340
0
 93
        0
 40
0.045
309
GRIDFORMAT_END
 95
        8
302
GRIDFORMAT
  1
GRIDFORMAT_BEGIN
 90
        0
 91
        1
 62
     0
 92
       -2
340
0
 93
        0
 40
0.045
309
GRIDFORMAT_END
 95
       16
302
GRIDFORMAT
  1
GRIDFORMAT_BEGIN
 90
        0
 91
        1
 62
     0
 92
       -2
340
0
 93
        0
 40
0.045
309
GRIDFORMAT_END
 95
       32
302
GRIDFORMAT
  1
GRIDFORMAT_BEGIN
 90
        0
 91
        1
 62
     0
 92
       -2
340
0
 93
        0
 40
0.045
309
GRIDFORMAT_END
309
TABLEFORMAT_END
  1
CELLSTYLE_BEGIN
 90
        1
 91
        1
300
_TITLE
309
CELLSTYLE_END
300
CELLSTYLE
  1
TABLEFORMAT_BEGIN
 90
        5
170
     1
 91
        0
 92
        0
 62
   257
 93
        1
300
CONTENTFORMAT
  1
CONTENTFORMAT_BEGIN
 90
        0
 91
        0
 92
        4
 93
        0
300

 40
0.0
140
1.0
 94
        5
 62
     0
340
17
144
4.5
309
CONTENTFORMAT_END
171
     1
301
MARGIN
  1
CELLMARGIN_BEGIN
 40
0.06
 40
0.06
 40
0.06
 40
0.06
 40
0.18
 40
0.18
309
CELLMARGIN_END
 94
        6
 95
        1
302
GRIDFORMAT
  1
GRIDFORMAT_BEGIN
 90
        0
 91
        1
 62
     0
 92
       -2
340
0
 93
        0
 40
0.045
309
GRIDFORMAT_END
 95
        2
302
GRIDFORMAT
  1
GRIDFORMAT_BEGIN
 90
        0
 91
        1
 62
     0
 92
       -2
340
0
 93
        0
 40
0.045
309
GRIDFORMAT_END
 95
        4
302
GRIDFORMAT
  1
GRIDFORMAT_BEGIN
 90
        0
 91
        1
 62
     0
 92
       -2
340
0
 93
        0
 40
0.045
309
GRIDFORMAT_END
 95
        8
302
GRIDFORMAT
  1
GRIDFORMAT_BEGIN
 90
        0
 91
        1
 62
     0
 92
       -2
340
0
 93
        0
 40
0.045
309
GRIDFORMAT_END
 95
       16
302
GRIDFORMAT
  1
GRIDFORMAT_BEGIN
 90
        0
 91
        1
 62
     0
 92
       -2
340
0
 93
        0
 40
0.045
309
GRIDFORMAT_END
 95
       32
302
GRIDFORMAT
  1
GRIDFORMAT_BEGIN
 90
        0
 91
        1
 62
     0
 92
       -2
340
0
 93
        0
 40
0.045
309
GRIDFORMAT_END
309
TABLEFORMAT_END
  1
CELLSTYLE_BEGIN
 90
        2
 91
        1
300
_HEADER
309
CELLSTYLE_END
300
CELLSTYLE
  1
TABLEFORMAT_BEGIN
 90
        5
170
     1
 91
        0
 92
        0
 62
   257
 93
        1
300
CONTENTFORMAT
  1
CONTENTFORMAT_BEGIN
 90
        0
 91
        0
 92
        4
 93
        0
300

 40
0.0
140
1.0
 94
        2
 62
     0
340
17
144
4.5
309
CONTENTFORMAT_END
171
     1
301
MARGIN
  1
CELLMARGIN_BEGIN
 40
0.06
 40
0.06
 40
0.06
 40
0.06
 40
0.18
 40
0.18
309
CELLMARGIN_END
 94
        6
 95
        1
302
GRIDFORMAT
  1
GRIDFORMAT_BEGIN
 90
        0
 91
        1
 62
     0
 92
       -2
340
0
 93
        0
 40
0.045
309
GRIDFORMAT_END
 95
        2
302
GRIDFORMAT
  1
GRIDFORMAT_BEGIN
 90
        0
 91
        1
 62
     0
 92
       -2
340
0
 93
        0
 40
0.045
309
GRIDFORMAT_END
 95
        4
302
GRIDFORMAT
  1
GRIDFORMAT_BEGIN
 90
        0
 91
        1
 62
     0
 92
       -2
340
0
 93
        0
 40
0.045
309
GRIDFORMAT_END
 95
        8
302
GRIDFORMAT
  1
GRIDFORMAT_BEGIN
 90
        0
 91
        1
 62
     0
 92
       -2
340
0
 93
        0
 40
0.045
309
GRIDFORMAT_END
 95
       16
302
GRIDFORMAT
  1
GRIDFORMAT_BEGIN
 90
        0
 91
        1
 62
     0
 92
       -2
340
0
 93
        0
 40
0.045
309
GRIDFORMAT_END
 95
       32
302
GRIDFORMAT
  1
GRIDFORMAT_BEGIN
 90
        0
 91
        1
 62
     0
 92
       -2
340
0
 93
        0
 40
0.045
309
GRIDFORMAT_END
309
TABLEFORMAT_END
  1
CELLSTYLE_BEGIN
 90
        3
 91
        2
300
_DATA
309
CELLSTYLE_END
  0
ENDSEC
  0
EOF
