  0
SECTION
  2
HEADER
  9
$ACADVER
  1
AC1021
  9
$ACADMAINTVER
 70
    25
  9
$DWGCODEPAGE
  3
ANSI_932
  9
$LASTSAVEDBY
  1
T-HOWE-PC
  9
$INSBASE
 10
0.0
 20
0.0
 30
0.0
  9
$EXTMIN
 10
0.0
 20
0.0
 30
-0.0000000053126276
  9
$EXTMAX
 10
2100.0
 20
2970.0
 30
34.99521132346015
  9
$LIMMIN
 10
0.0
 20
0.0
  9
$LIMMAX
 10
2100.0
 20
2970.0
  9
$ORTHOMODE
 70
     1
  9
$REGENMODE
 70
     1
  9
$FILLMODE
 70
     1
  9
$QTEXTMODE
 70
     0
  9
$MIRRTEXT
 70
     1
  9
$LTSCALE
 40
5.0
  9
$ATTMODE
 70
     1
  9
$TEXTSIZE
 40
533.0403732820173
  9
$TRACEWID
 40
1.0
  9
$TEXTSTYLE
  7
Standard
  9
$CLAYER
  8
Dim
  9
$CELTYPE
  6
ByLayer
  9
$CECOLOR
 62
   256
  9
$CELTSCALE
 40
1.0
  9
$DISPSILH
 70
     0
  9
$DIMSCALE
 40
1.0
  9
$DIMASZ
 40
9.999389648437498
  9
$DIMEXO
 40
25.0
  9
$DIMDLI
 40
0.9999999999999999
  9
$DIMRND
 40
0.0
  9
$DIMDLE
 40
0.0
  9
$DIMEXE
 40
0.0
  9
$DIMTP
 40
0.0
  9
$DIMTM
 40
0.0
  9
$DIMTXT
 40
24.4326171875
  9
$DIMCEN
 40
0.0
  9
$DIMTSZ
 40
0.0
  9
$DIMTOL
 70
     0
  9
$DIMLIM
 70
     0
  9
$DIMTIH
 70
     0
  9
$DIMTOH
 70
     0
  9
$DIMSE1
 70
     0
  9
$DIMSE2
 70
     0
  9
$DIMTAD
 70
     1
  9
$DIMZIN
 70
    11
  9
$DIMBLK
  1
DOT
  9
$DIMASO
 70
     1
  9
$DIMSHO
 70
     1
  9
$DIMPOST
  1
<>
  9
$DIMAPOST
  1
[]
  9
$DIMALT
 70
     0
  9
$DIMALTD
 70
     1
  9
$DIMALTF
 40
1.0
  9
$DIMLFAC
 40
1.0
  9
$DIMTOFL
 70
     1
  9
$DIMTVP
 40
0.0
  9
$DIMTIX
 70
     1
  9
$DIMSOXD
 70
     0
  9
$DIMSAH
 70
     0
  9
$DIMBLK1
  1

  9
$DIMBLK2
  1

  9
$DIMSTYLE
  2
tform線あり
  9
$DIMCLRD
 70
     0
  9
$DIMCLRE
 70
     0
  9
$DIMCLRT
 70
     0
  9
$DIMTFAC
 40
0.8
  9
$DIMGAP
 40
10.0
  9
$DIMJUST
 70
     0
  9
$DIMSD1
 70
     0
  9
$DIMSD2
 70
     0
  9
$DIMTOLJ
 70
     1
  9
$DIMTZIN
 70
    11
  9
$DIMALTZ
 70
    11
  9
$DIMALTTZ
 70
    11
  9
$DIMUPT
 70
     0
  9
$DIMDEC
 70
     0
  9
$DIMTDEC
 70
     1
  9
$DIMALTU
 70
     2
  9
$DIMALTTD
 70
     2
  9
$DIMTXSTY
  7
ＭＳ ゴシック
  9
$DIMAUNIT
 70
     0
  9
$DIMADEC
 70
     2
  9
$DIMALTRND
 40
0.0
  9
$DIMAZIN
 70
     0
  9
$DIMDSEP
 70
    46
  9
$DIMATFIT
 70
     0
  9
$DIMFRAC
 70
     2
  9
$DIMLDRBLK
  1
DOT
  9
$DIMLUNIT
 70
     2
  9
$DIMLWD
 70
    -2
  9
$DIMLWE
 70
    -2
  9
$DIMTMOVE
 70
     0
  9
$DIMFXL
 40
1.0
  9
$DIMFXLON
 70
     0
  9
$DIMJOGANG
 40
0.7853981633974483
  9
$DIMTFILL
 70
     0
  9
$DIMTFILLCLR
 70
     0
  9
$DIMARCSYM
 70
     0
  9
$DIMLTYPE
  6

  9
$DIMLTEX1
  6

  9
$DIMLTEX2
  6

  9
$LUNITS
 70
     2
  9
$LUPREC
 70
     0
  9
$SKETCHINC
 40
0.1
  9
$FILLETRAD
 40
0.0
  9
$AUNITS
 70
     0
  9
$AUPREC
 70
     0
  9
$MENU
  1
acad
  9
$ELEVATION
 40
0.0
  9
$PELEVATION
 40
0.0
  9
$THICKNESS
 40
0.0
  9
$LIMCHECK
 70
     0
  9
$CHAMFERA
 40
0.0
  9
$CHAMFERB
 40
0.0
  9
$CHAMFERC
 40
0.0
  9
$CHAMFERD
 40
0.0
  9
$SKPOLY
 70
     0
  9
$TDCREATE
 40
2447893.375
  9
$TDUCREATE
 40
0.0
  9
$TDUPDATE
 40
2459450.714391308
  9
$TDUUPDATE
 40
2459450.339391308
  9
$TDINDWG
 40
0.0011029861
  9
$TDUSRTIMER
 40
0.0010123727
  9
$USRTIMER
 70
     1
  9
$ANGBASE
 50
0.0
  9
$ANGDIR
 70
     0
  9
$PDMODE
 70
     1
  9
$PDSIZE
 40
-2.0
  9
$PLINEWID
 40
0.0
  9
$SPLFRAME
 70
     0
  9
$SPLINETYPE
 70
     6
  9
$SPLINESEGS
 70
     8
  9
$HANDSEED
  5
7AE0
  9
$SURFTAB1
 70
     6
  9
$SURFTAB2
 70
     6
  9
$SURFTYPE
 70
     6
  9
$SURFU
 70
     6
  9
$SURFV
 70
     6
  9
$UCSBASE
  2

  9
$UCSNAME
  2

  9
$UCSORG
 10
0.0
 20
0.0
 30
0.0
  9
$UCSXDIR
 10
1.0
 20
0.0
 30
0.0
  9
$UCSYDIR
 10
0.0
 20
1.0
 30
0.0
  9
$UCSORTHOREF
  2

  9
$UCSORTHOVIEW
 70
     0
  9
$UCSORGTOP
 10
0.0
 20
0.0
 30
0.0
  9
$UCSORGBOTTOM
 10
0.0
 20
0.0
 30
0.0
  9
$UCSORGLEFT
 10
0.0
 20
0.0
 30
0.0
  9
$UCSORGRIGHT
 10
0.0
 20
0.0
 30
0.0
  9
$UCSORGFRONT
 10
0.0
 20
0.0
 30
0.0
  9
$UCSORGBACK
 10
0.0
 20
0.0
 30
0.0
  9
$PUCSBASE
  2

  9
$PUCSNAME
  2

  9
$PUCSORG
 10
0.0
 20
0.0
 30
0.0
  9
$PUCSXDIR
 10
1.0
 20
0.0
 30
0.0
  9
$PUCSYDIR
 10
0.0
 20
1.0
 30
0.0
  9
$PUCSORTHOREF
  2

  9
$PUCSORTHOVIEW
 70
     0
  9
$PUCSORGTOP
 10
0.0
 20
0.0
 30
0.0
  9
$PUCSORGBOTTOM
 10
0.0
 20
0.0
 30
0.0
  9
$PUCSORGLEFT
 10
0.0
 20
0.0
 30
0.0
  9
$PUCSORGRIGHT
 10
0.0
 20
0.0
 30
0.0
  9
$PUCSORGFRONT
 10
0.0
 20
0.0
 30
0.0
  9
$PUCSORGBACK
 10
0.0
 20
0.0
 30
0.0
  9
$USERI1
 70
     0
  9
$USERI2
 70
     0
  9
$USERI3
 70
     0
  9
$USERI4
 70
     0
  9
$USERI5
 70
     0
  9
$USERR1
 40
0.0
  9
$USERR2
 40
0.0
  9
$USERR3
 40
0.0
  9
$USERR4
 40
0.0
  9
$USERR5
 40
0.0
  9
$WORLDVIEW
 70
     1
  9
$SHADEDGE
 70
     3
  9
$SHADEDIF
 70
    70
  9
$TILEMODE
 70
     1
  9
$MAXACTVP
 70
    64
  9
$PINSBASE
 10
0.0
 20
0.0
 30
0.0
  9
$PLIMCHECK
 70
     0
  9
$PEXTMIN
 10
0.0
 20
0.0
 30
0.0
  9
$PEXTMAX
 10
0.0
 20
0.0
 30
0.0
  9
$PLIMMIN
 10
-7.5
 20
-20.0
  9
$PLIMMAX
 10
412.5
 20
277.0
  9
$UNITMODE
 70
     0
  9
$VISRETAIN
 70
     0
  9
$PLINEGEN
 70
     1
  9
$PSLTSCALE
 70
     0
  9
$TREEDEPTH
 70
  3020
  9
$CMLSTYLE
  2
Standard
  9
$CMLJUST
 70
     0
  9
$CMLSCALE
 40
1.0
  9
$PROXYGRAPHICS
 70
     0
  9
$MEASUREMENT
 70
     1
  9
$CELWEIGHT
370
    -1
  9
$ENDCAPS
280
     0
  9
$JOINSTYLE
280
     0
  9
$LWDISPLAY
290
     1
  9
$INSUNITS
 70
     4
  9
$HYPERLINKBASE
  1

  9
$STYLESHEET
  1

  9
$XEDIT
290
     1
  9
$CEPSNTYPE
380
     0
  9
$PSTYLEMODE
290
     1
  9
$FINGERPRINTGUID
  2

  9
$VERSIONGUID
  2

  9
$EXTNAMES
290
     1
  9
$PSVPSCALE
 40
0.0
  9
$OLESTARTUP
290
     0
  9
$SORTENTS
280
   127
  9
$INDEXCTL
280
     0
  9
$HIDETEXT
280
     1
  9
$XCLIPFRAME
290
     0
  9
$HALOGAP
280
     0
  9
$OBSCOLOR
 70
   257
  9
$OBSLTYPE
280
     0
  9
$INTERSECTIONDISPLAY
280
     0
  9
$INTERSECTIONCOLOR
 70
   257
  9
$DIMASSOC
280
     2
  9
$PROJECTNAME
  1

  9
$CAMERADISPLAY
290
     0
  9
$LENSLENGTH
 40
50.0
  9
$CAMERAHEIGHT
 40
0.0
  9
$STEPSPERSEC
 40
2.0
  9
$STEPSIZE
 40
6.0
  9
$3DDWFPREC
 40
2.0
  9
$PSOLWIDTH
 40
0.25
  9
$PSOLHEIGHT
 40
4.0
  9
$LOFTANG1
 40
1.570796326794897
  9
$LOFTANG2
 40
1.570796326794897
  9
$LOFTMAG1
 40
0.0
  9
$LOFTMAG2
 40
0.0
  9
$LOFTPARAM
 70
     7
  9
$LOFTNORMALS
280
     1
  9
$LATITUDE
 40
37.795
  9
$LONGITUDE
 40
-122.394
  9
$NORTHDIRECTION
 40
0.0
  9
$TIMEZONE
 70
 -8000
  9
$LIGHTGLYPHDISPLAY
280
     1
  9
$TILEMODELIGHTSYNCH
280
     1
  9
$SOLIDHIST
280
     1
  9
$SHOWHIST
280
     1
  9
$DWFFRAME
280
     2
  9
$DGNFRAME
280
     2
  9
$REALWORLDSCALE
290
     1
  9
$INTERFERECOLOR
 62
   256
  9
$CSHADOW
280
     0
  9
$SHADOWPLANELOCATION
 40
0.0
  0
ENDSEC
  0
SECTION
  2
CLASSES
  0
CLASS
  1
LWPOLYLINE
  2
AcDbPolyline
  3
ObjectDBX Classes
 90
        0
 91
        1
280
     0
281
     1
  0
CLASS
  1
IMAGE
  2
AcDbRasterImage
  3
ISM
 90
      127
 91
        4
280
     0
281
     1
  0
CLASS
  1
OLE2FRAME
  2
AcDbOle2Frame
  3
ObjectDBX Classes
 90
        0
 91
        1
280
     0
281
     1
  0
CLASS
  1
HATCH
  2
AcDbHatch
  3
ObjectDBX Classes
 90
        0
 91
        1
280
     0
281
     1
  0
CLASS
  1
DICTIONARYVAR
  2
AcDbDictionaryVar
  3
ObjectDBX Classes
 90
        0
 91
        3
280
     0
281
     0
  0
CLASS
  1
RASTERVARIABLES
  2
AcDbRasterVariables
  3
ISM
 90
        0
 91
        3
280
     0
281
     0
  0
CLASS
  1
IMAGEDEF
  2
AcDbRasterImageDef
  3
ISM
 90
        0
 91
        3
280
     0
281
     0
  0
CLASS
  1
IMAGEDEF_REACTOR
  2
AcDbRasterImageDefReactor
  3
ISM
 90
        1
 91
        3
280
     0
281
     0
  0
CLASS
  1
IDBUFFER
  2
AcDbIdBuffer
  3
ObjectDBX Classes
 90
        0
 91
        3
280
     0
281
     0
  0
CLASS
  1
SPATIAL_FILTER
  2
AcDbSpatialFilter
  3
ObjectDBX Classes
 90
        0
 91
        3
280
     0
281
     0
  0
CLASS
  1
XRECORD
  2
AcDbXrecord
  3
ObjectDBX Classes
 90
        0
 91
        1
280
     0
281
     0
  0
CLASS
  1
SORTENTSTABLE
  2
AcDbSortentsTable
  3
ObjectDBX Classes
 90
        0
 91
        3
280
     0
281
     0
  0
CLASS
  1
LAYER_INDEX
  2
AcDbLayerIndex
  3
ObjectDBX Classes
 90
        0
 91
        3
280
     0
281
     0
  0
CLASS
  1
SPATIAL_INDEX
  2
AcDbSpatialIndex
  3
AutoCAD 2000
 90
        0
 91
        3
280
     0
281
     0
  0
CLASS
  1
OBJECT_PTR
  2
CAseDLPNTableRecord
  3
ASE-LPNTableRecord
 90
        1
 91
        3
280
     0
281
     0
  0
CLASS
  1
LAYOUT
  2
AcDbLayout
  3
ObjectDBX Classes
 90
        0
 91
        1
280
     0
281
     0
  0
CLASS
  1
PLOTSETTINGS
  2
AcDbPlotSettings
  3
ObjectDBX Classes
 90
        0
 91
        3
280
     0
281
     0
  0
CLASS
  1
ACDBDICTIONARYWDFLT
  2
AcDbDictionaryWithDefault
  3
ObjectDBX Classes
 90
        0
 91
        3
280
     0
281
     0
  0
CLASS
  1
ACDBPLACEHOLDER
  2
AcDbPlaceHolder
  3
ObjectDBX Classes
 90
        0
 91
        1
280
     0
281
     0
  0
CLASS
  1
SCALE
  2
AcDbScale
  3
ObjectDBX Classes
 90
     1153
 91
        3
280
     0
281
     0
  0
CLASS
  1
MATERIAL
  2
AcDbMaterial
  3
ObjectDBX Classes
 90
     1153
 91
        3
280
     0
281
     0
  0
CLASS
  1
VISUALSTYLE
  2
AcDbVisualStyle
  3
ObjectDBX Classes
 90
     4095
 91
        3
280
     0
281
     0
  0
CLASS
  1
TABLESTYLE
  2
AcDbTableStyle
  3
ObjectDBX Classes
 90
     4095
 91
        3
280
     0
281
     0
  0
CLASS
  1
DIMASSOC
  2
AcDbDimAssoc
  3
"AcDbDimAssoc|Product Desc:     AcDim ARX App For Dimension|Company:          Autodesk, Inc.|WEB Address:      www.autodesk.com"
 90
        0
 91
        3
280
     0
281
     0
  0
CLASS
  1
CELLSTYLEMAP
  2
AcDbCellStyleMap
  3
ObjectDBX Classes
 90
     1152
 91
        3
280
     0
281
     0
  0
CLASS
  1
SUN
  2
AcDbSun
  3
SCENEOE
 90
     1153
 91
        3
280
     0
281
     0
  0
CLASS
  1
MLEADERSTYLE
  2
AcDbMLeaderStyle
  3
ACDB_MLEADERSTYLE_CLASS
 90
     4095
 91
        3
280
     0
281
     0
  0
CLASS
  1
FIELD
  2
AcDbField
  3
ObjectDBX Classes
 90
     1152
 91
        3
280
     0
281
     0
  0
CLASS
  1
FIELDLIST
  2
AcDbFieldList
  3
ObjectDBX Classes
 90
     1152
 91
        3
280
     0
281
     0
  0
CLASS
  1
ACDB_ALDIMOBJECTCONTEXTDATA_CLASS
  2
AcDbAlignedDimensionObjectContextData
  3
ObjectDBX Classes
 90
     1153
 91
        3
280
     0
281
     0
  0
ENDSEC
  0
SECTION
  2
TABLES
  0
TABLE
  2
VPORT
  5
7
330
0
100
AcDbSymbolTable
 70
     1
  0
VPORT
  5
15
330
7
100
AcDbSymbolTableRecord
100
AcDbViewportTableRecord
  2
*ACTIVE
 70
     0
 10
0.0
 20
0.0
 11
1.0
 21
1.0
 12
672.9525617540362
 22
1782.612370234522
 13
0.0
 23
0.0
 14
1.0
 24
1.0
 15
0.0
 25
0.0
 16
0.0
 26
0.0
 36
1.0
 17
377.0474382459638
 27
-297.6123702345217
 37
0.0
 40
3029.4
 41
2.226173541963016
 42
50.0
 43
0.0
 44
0.0
 50
0.0
 51
0.0
 71
    16
 72
  2000
 73
     1
 74
     1
 75
     0
 76
     0
 77
     0
 78
     0
281
     0
 65
     1
110
0.0
120
0.0
130
0.0
111
1.0
121
0.0
131
0.0
112
0.0
122
1.0
132
0.0
 79
     0
146
0.0
348
26C
 60
     3
 61
     5
292
     1
282
     1
141
0.0
142
0.0
 63
   256
361
8C2
  0
ENDTAB
  0
TABLE
  2
LTYPE
  5
4
330
0
100
AcDbSymbolTable
 70
     4
  0
LTYPE
  5
11
330
4
100
AcDbSymbolTableRecord
100
AcDbLinetypeTableRecord
  2
ByBlock
 70
     0
  3

 72
    65
 73
     0
 40
0.0
  0
LTYPE
  5
12
330
4
100
AcDbSymbolTableRecord
100
AcDbLinetypeTableRecord
  2
ByLayer
 70
     0
  3

 72
    65
 73
     0
 40
0.0
  0
LTYPE
  5
13
330
4
100
AcDbSymbolTableRecord
100
AcDbLinetypeTableRecord
  2
Continuous
 70
     0
  3
Solid line
 72
    65
 73
     0
 40
0.0
  0
LTYPE
  5
8D4
330
4
100
AcDbSymbolTableRecord
100
AcDbLinetypeTableRecord
  2
HIDDEN
 70
     0
  3
Hidden _ _ _ _ _ _ _ _ _ _ _ _ _ _ _ _ _ _ _ _ 
 72
    65
 73
     2
 40
9.524999999999999
 49
6.35
 74
     0
 49
-3.175
 74
     0
  0
LTYPE
  5
BF2
330
4
100
AcDbSymbolTableRecord
100
AcDbLinetypeTableRecord
  2
BORDER
 70
     0
  3
Border __  __  . __  __  . __  __  . __  __  . 
 72
    65
 73
     6
 40
44.45
 49
12.7
 74
     0
 49
-6.35
 74
     0
 49
12.7
 74
     0
 49
-6.35
 74
     0
 49
0.0
 74
     0
 49
-6.35
 74
     0
  0
LTYPE
  5
4337
330
4
100
AcDbSymbolTableRecord
100
AcDbLinetypeTableRecord
  2
HIDDEN2
 70
     0
  3
Hidden (.5x) _ _ _ _ _ _ _ _ _ _ _ _ _ _ _ _ _ 
 72
    65
 73
     2
 40
4.762499999999999
 49
3.175
 74
     0
 49
-1.5875
 74
     0
  0
ENDTAB
  0
TABLE
  2
LAYER
  5
2
102
{ACAD_XDICTIONARY
360
2E1
102
}
330
0
100
AcDbSymbolTable
 70
    10
  0
LAYER
  5
14
330
2
100
AcDbSymbolTableRecord
100
AcDbLayerTableRecord
  2
0
 70
     0
 62
     7
  6
Continuous
370
    -3
390
1D
347
266
  0
LAYER
  5
4A
330
2
100
AcDbSymbolTableRecord
100
AcDbLayerTableRecord
  2
Defpoints
 70
     0
 62
     7
  6
Continuous
290
     0
370
    20
390
1D
347
266
  0
LAYER
  5
4B
330
2
100
AcDbSymbolTableRecord
100
AcDbLayerTableRecord
  2
template
 70
     0
 62
     7
  6
Continuous
370
    20
390
1D
347
266
  0
LAYER
  5
4D
330
2
100
AcDbSymbolTableRecord
100
AcDbLayerTableRecord
  2
MODEL
 70
     0
 62
     7
  6
Continuous
370
    20
390
1D
347
266
  0
LAYER
  5
382
330
2
100
AcDbSymbolTableRecord
100
AcDbLayerTableRecord
  2
レイヤー 1
 70
     0
 62
     7
  6
Continuous
370
    -3
390
1D
347
266
  0
LAYER
  5
5C4
330
2
100
AcDbSymbolTableRecord
100
AcDbLayerTableRecord
  2
HIDDEN
 70
     0
 62
   253
  6
HIDDEN
370
    20
390
1D
347
266
1001
AcAecLayerStandard
1000

1000

  0
LAYER
  5
5EB
330
2
100
AcDbSymbolTableRecord
100
AcDbLayerTableRecord
  2
Dim
 70
     0
 62
     3
  6
Continuous
370
    13
390
1D
347
266
1001
AcAecLayerStandard
1000

1000

  0
LAYER
  5
BF1
330
2
100
AcDbSymbolTableRecord
100
AcDbLayerTableRecord
  2
PRINT BORDER
 70
     0
 62
     4
  6
BORDER
290
     0
370
    20
390
1D
347
266
1001
AcAecLayerStandard
1000

1000

  0
LAYER
  5
1BD2
330
2
100
AcDbSymbolTableRecord
100
AcDbLayerTableRecord
  2
retino
 70
     0
 62
   253
  6
Continuous
370
     0
390
1D
347
266
  0
LAYER
  5
4336
330
2
100
AcDbSymbolTableRecord
100
AcDbLayerTableRecord
  2
tratteggio
 70
     0
 62
    74
  6
HIDDEN2
370
     0
390
1D
347
266
  0
ENDTAB
  0
TABLE
  2
STYLE
  5
3
330
0
100
AcDbSymbolTable
 70
     2
  0
STYLE
  5
17
330
3
100
AcDbSymbolTableRecord
100
AcDbTextStyleTableRecord
  2
Standard
 70
     0
 40
0.0
 41
1.0
 50
0.0
 71
     0
 42
533.0403732820173
  3
txt
  4
BIGFONT.SHX
  0
STYLE
  5
39
330
3
100
AcDbSymbolTableRecord
100
AcDbTextStyleTableRecord
  2
ＭＳ ゴシック
 70
     0
 40
0.0
 41
1.0
 50
0.0
 71
     0
 42
533.0403732820173
  3
msgothic.ttc
  4
ＭＳ ゴシック
1001
ACAD
1000
ＭＳ ゴシック
1071
        0
  0
ENDTAB
  0
TABLE
  2
VIEW
  5
5
330
0
100
AcDbSymbolTable
 70
     0
  0
ENDTAB
  0
TABLE
  2
UCS
  5
6
330
0
100
AcDbSymbolTable
 70
     0
  0
ENDTAB
  0
TABLE
  2
APPID
  5
8
330
0
100
AcDbSymbolTable
 70
    17
  0
APPID
  5
16
330
8
100
AcDbSymbolTableRecord
100
AcDbRegAppTableRecord
  2
ACAD
 70
     0
  0
APPID
  5
5C5
330
8
100
AcDbSymbolTableRecord
100
AcDbRegAppTableRecord
  2
AcAecLayerStandard
 70
     0
  0
APPID
  5
913
330
8
100
AcDbSymbolTableRecord
100
AcDbRegAppTableRecord
  2
ACAD_DSTYLE_DIMBREAK
 70
     0
  0
APPID
  5
914
330
8
100
AcDbSymbolTableRecord
100
AcDbRegAppTableRecord
  2
ACAD_DSTYLE_DIMJAG
 70
     0
  0
APPID
  5
915
330
8
100
AcDbSymbolTableRecord
100
AcDbRegAppTableRecord
  2
ACAD_DSTYLE_DIMTALN
 70
     0
  0
APPID
  5
E4F
330
8
100
AcDbSymbolTableRecord
100
AcDbRegAppTableRecord
  2
ACAD_MLEADERVER
 70
     0
  0
APPID
  5
E79
330
8
100
AcDbSymbolTableRecord
100
AcDbRegAppTableRecord
  2
ACAD_PSEXT
 70
     0
  0
APPID
  5
E7A
330
8
100
AcDbSymbolTableRecord
100
AcDbRegAppTableRecord
  2
ACAD_NAV_VCDISPLAY
 70
     0
  0
APPID
  5
166E
330
8
100
AcDbSymbolTableRecord
100
AcDbRegAppTableRecord
  2
AcadAnnotative
 70
     0
  0
APPID
  5
166F
330
8
100
AcDbSymbolTableRecord
100
AcDbRegAppTableRecord
  2
GradientColor1ACI
 70
     0
  0
APPID
  5
1670
330
8
100
AcDbSymbolTableRecord
100
AcDbRegAppTableRecord
  2
GradientColor2ACI
 70
     0
  0
APPID
  5
20FE
330
8
100
AcDbSymbolTableRecord
100
AcDbRegAppTableRecord
  2
AcLayerTools
 70
     0
  0
APPID
  5
27AB
330
8
100
AcDbSymbolTableRecord
100
AcDbRegAppTableRecord
  2
ACAD_DSTYLE_DIMRADIAL_EXTENSION
 70
     0
  0
APPID
  5
4342
330
8
100
AcDbSymbolTableRecord
100
AcDbRegAppTableRecord
  2
AcadAnnoAV
 70
     0
  0
APPID
  5
6AC5
330
8
100
AcDbSymbolTableRecord
100
AcDbRegAppTableRecord
  2
PLOTTRANSPARENCY
 70
     0
  0
APPID
  5
6AD8
330
8
100
AcDbSymbolTableRecord
100
AcDbRegAppTableRecord
  2
AcCmTransparency
 70
     0
  0
APPID
  5
7A57
330
8
100
AcDbSymbolTableRecord
100
AcDbRegAppTableRecord
  2
HATCHBACKGROUNDCOLOR
 70
     0
  0
ENDTAB
  0
TABLE
  2
DIMSTYLE
  5
9
330
0
100
AcDbSymbolTable
 70
     1
100
AcDbDimStyleTable
  0
DIMSTYLE
105
56
102
{ACAD_REACTORS
330
78E0
330
78E3
330
7911
330
7920
330
792F
330
7940
330
794D
330
795F
330
796C
330
7988
330
79A6
330
79B9
330
79CC
330
7A93
330
7A94
330
7A96
102
}
330
9
100
AcDbSymbolTableRecord
100
AcDbDimStyleTableRecord
  2
tform線あり
 70
     0
  3
<>
  4
[]
 41
9.999389648437498
 42
25.0
 43
0.9999999999999999
 44
0.0
 73
     0
 74
     0
 77
     1
 78
    11
140
24.4326171875
141
0.0
143
1.0
146
0.8
147
10.0
171
     1
172
     1
174
     1
178
     0
179
     2
271
     0
272
     1
276
     2
284
    11
285
    11
286
    11
289
     0
340
39
341
4E
342
4E
  0
ENDTAB
  0
TABLE
  2
BLOCK_RECORD
  5
1
330
0
100
AcDbSymbolTable
 70
    29
  0
BLOCK_RECORD
  5
A
102
{ACAD_XDICTIONARY
360
6587
102
}
330
1
100
AcDbSymbolTableRecord
100
AcDbBlockTableRecord
  2
*MODEL_SPACE
340
20
 70
     0
280
     1
281
     0
  0
BLOCK_RECORD
  5
B
330
1
100
AcDbSymbolTableRecord
100
AcDbBlockTableRecord
  2
*PAPER_SPACE
340
21
 70
     0
280
     1
281
     0
  0
BLOCK_RECORD
  5
4E
330
1
100
AcDbSymbolTableRecord
100
AcDbBlockTableRecord
  2
_DOT
340
0
102
{BLKREFS
331
78EC
331
78ED
331
78F8
331
78F9
331
791A
331
791B
331
7929
331
792A
331
7936
331
7937
331
7947
331
7948
331
7956
331
7957
331
7966
331
7967
331
7973
331
7974
331
799D
331
799E
331
79AD
331
79AE
331
79C3
331
79C4
331
79D3
331
79D4
331
7A69
331
7A6A
331
7A77
331
7A78
331
7A84
331
7A85
331
7AA5
331
7AA6
331
7AB1
331
7AB2
331
7ABD
331
7ABE
102
}
 70
     0
280
     1
281
     0
  0
BLOCK_RECORD
  5
3A5
330
1
100
AcDbSymbolTableRecord
100
AcDbBlockTableRecord
  2
名称未設定-1
340
0
102
{BLKREFS
331
3D0
102
}
 70
     1
280
     1
281
     0
  0
BLOCK_RECORD
  5
3A8
330
1
100
AcDbSymbolTableRecord
100
AcDbBlockTableRecord
  2
block 2
340
0
102
{BLKREFS
331
3A7
102
}
 70
     0
280
     1
281
     0
  0
BLOCK_RECORD
  5
3AB
330
1
100
AcDbSymbolTableRecord
100
AcDbBlockTableRecord
  2
block 3
340
0
102
{BLKREFS
331
3AA
102
}
 70
     0
280
     1
281
     0
  0
BLOCK_RECORD
  5
3AE
330
1
100
AcDbSymbolTableRecord
100
AcDbBlockTableRecord
  2
block 4
340
0
102
{BLKREFS
331
3AD
102
}
 70
     0
280
     1
281
     0
  0
BLOCK_RECORD
  5
3BD
330
1
100
AcDbSymbolTableRecord
100
AcDbBlockTableRecord
  2
block 5
340
0
102
{BLKREFS
331
3BC
102
}
 70
     0
280
     1
281
     0
  0
BLOCK_RECORD
  5
11F0
330
1
100
AcDbSymbolTableRecord
100
AcDbBlockTableRecord
  2
BLOCK_2
340
0
102
{BLKREFS
331
1273
331
127B
331
127C
102
}
 70
     0
280
     1
281
     0
  0
BLOCK_RECORD
  5
38B6
330
1
100
AcDbSymbolTableRecord
100
AcDbBlockTableRecord
  2
mobile_latù
340
0
310
2800000020000000200000000100080000000000000400000000000000000000000000000000000000000000000080000080000000808000800000008000800080800000C0C0C000C0DCC000F0CAA6000020400000206000002080000020A0000020C0000020E00000400000004020000040400000406000004080000040A0
310
000040C0000040E00000600000006020000060400000606000006080000060A0000060C0000060E00000800000008020000080400000806000008080000080A0000080C0000080E00000A0000000A0200000A0400000A0600000A0800000A0A00000A0C00000A0E00000C0000000C0200000C0400000C0600000C0800000C0
310
A00000C0C00000C0E00000E0000000E0200000E0400000E0600000E0800000E0A00000E0C00000E0E00040000000400020004000400040006000400080004000A0004000C0004000E00040200000402020004020400040206000402080004020A0004020C0004020E000404000004040200040404000404060004040800040
310
40A0004040C0004040E00040600000406020004060400040606000406080004060A0004060C0004060E00040800000408020004080400040806000408080004080A0004080C0004080E00040A0000040A0200040A0400040A0600040A0800040A0A00040A0C00040A0E00040C0000040C0200040C0400040C0600040C08000
310
40C0A00040C0C00040C0E00040E0000040E0200040E0400040E0600040E0800040E0A00040E0C00040E0E00080000000800020008000400080006000800080008000A0008000C0008000E00080200000802020008020400080206000802080008020A0008020C0008020E00080400000804020008040400080406000804080
310
008040A0008040C0008040E00080600000806020008060400080606000806080008060A0008060C0008060E00080800000808020008080400080806000808080008080A0008080C0008080E00080A0000080A0200080A0400080A0600080A0800080A0A00080A0C00080A0E00080C0000080C0200080C0400080C0600080C0
310
800080C0A00080C0C00080C0E00080E0000080E0200080E0400080E0600080E0800080E0A00080E0C00080E0E000C0000000C0002000C0004000C0006000C0008000C000A000C000C000C000E000C0200000C0202000C0204000C0206000C0208000C020A000C020C000C020E000C0400000C0402000C0404000C0406000C0
310
408000C040A000C040C000C040E000C0600000C0602000C0604000C0606000C0608000C060A000C060C000C060E000C0800000C0802000C0804000C0806000C0808000C080A000C080C000C080E000C0A00000C0A02000C0A04000C0A06000C0A08000C0A0A000C0A0C000C0A0E000C0C00000C0C02000C0C04000C0C06000
310
C0C08000C0C0A000F0FBFF00A4A0A000808080000000FF0000FF000000FFFF00FF000000FF00FF00FFFF0000FFFFFF0049494949494949494949494949494949494949494949494949494949494949494949494949494949494949494949494949494949494949494949494949494949494949494949494949494949494949
310
49494949494949494949494949494949494949494949494949494949494949494949494949494949494949494949494949494949494949494949494949494949494949494949494949494949494949494949FAFAFAFAFAFAFAFAFAFAFAFAFAFAFAFAFAFAFAFAFAFAFAFAFAFAFAFAFAFA4949FAFA4949494949494949494949
310
494949494949494949494949494949FAFA4949FAFA4949494949494949494949494949494949494949494949494949FAFA4949FAFA4949494949494949494949494949494949494949494949494949FAFA4949FAFA4949494949494949494949494949494949494949494949494949FAFA4949FAFA49494949494949494949
310
49494949494949494949494949494949FAFA4949FAFA4949494949494949494949494949494949494949494949494949FAFA4949FAFA4949494949494949494949494949494949494949494949494949FAFA4949FAFA4949494949494949494949494949494949494949494949494949FAFA4949FAFA494949494949494949
310
4949494949494949494949494949494949FAFA4949FAFA4949494949494949494949494949494949494949494949494949FAFA4949FAFA4949494949494949494949494949494949494949494949494949FAFA4949FAFA4949494949494949494949494949494949494949494949494949FAFA4949FAFA4949494949494949
310
494949494949494949494949494949494949FAFA4949FAFA4949494949494949494949494949494949494949494949494949FAFA4949FAFA4949494949494949494949494949494949494949494949494949FAFA4949FAFA4949494949494949494949494949494949494949494949494949FAFA4949FAFA49494949494949
310
49494949494949494949494949494949494949FAFA4949FAFAFAFAFAFAFAFAFAFAFAFAFAFAFAFAFAFAFAFAFAFAFAFAFAFAFAFAFAFA4949FAFAFAFAFAFAFAFAFAFAFAFAFAFAFAFAFAFAFAFAFAFAFAFAFAFAFAFAFAFA4949FAFA4949494949494949494949494949494949494949494949494949FAFA4949FAFAFAFAFAFAFAFA
310
FAFAFAFAFAFAFAFAFAFAFAFAFAFAFAFAFAFAFAFAFAFA494949494949494949494949494949494949494949494949494949494949494949494949494949494949494949494949494949494949494949494949494949494949494949494949494949494949494949494949494949494949494949494949494949494949494949
310
4949494949494949494949494949494949494949494949494949494949494949494949494949494949494949494949494949494949494949
102
{BLKREFS
331
3B99
331
45C2
102
}
 70
     4
280
     1
281
     0
  0
BLOCK_RECORD
  5
436B
330
1
100
AcDbSymbolTableRecord
100
AcDbBlockTableRecord
  2
.TD_SECTION_1
340
0
102
{BLKREFS
331
45C3
331
45C5
331
45C7
331
45C9
331
45CB
331
45CD
331
4611
102
}
 70
     0
280
     1
281
     0
  0
BLOCK_RECORD
  5
436F
330
1
100
AcDbSymbolTableRecord
100
AcDbBlockTableRecord
  2
.TD_SECTION_2
340
0
102
{BLKREFS
331
45C4
331
45C6
331
45C8
331
45CA
331
45CC
331
45CE
331
4612
102
}
 70
     0
280
     1
281
     0
  0
BLOCK_RECORD
  5
78E6
330
1
100
AcDbSymbolTableRecord
100
AcDbBlockTableRecord
  2
*D10
340
0
 70
     0
280
     1
281
     0
  0
BLOCK_RECORD
  5
78F2
330
1
100
AcDbSymbolTableRecord
100
AcDbBlockTableRecord
  2
*D11
340
0
 70
     0
280
     1
281
     0
  0
BLOCK_RECORD
  5
7914
330
1
100
AcDbSymbolTableRecord
100
AcDbBlockTableRecord
  2
*D12
340
0
 70
     0
280
     1
281
     0
  0
BLOCK_RECORD
  5
7923
330
1
100
AcDbSymbolTableRecord
100
AcDbBlockTableRecord
  2
*D13
340
0
 70
     0
280
     1
281
     0
  0
BLOCK_RECORD
  5
7930
330
1
100
AcDbSymbolTableRecord
100
AcDbBlockTableRecord
  2
*D14
340
0
 70
     0
280
     1
281
     0
  0
BLOCK_RECORD
  5
7941
330
1
100
AcDbSymbolTableRecord
100
AcDbBlockTableRecord
  2
*D15
340
0
 70
     0
280
     1
281
     0
  0
BLOCK_RECORD
  5
7950
330
1
100
AcDbSymbolTableRecord
100
AcDbBlockTableRecord
  2
*D16
340
0
 70
     0
280
     1
281
     0
  0
BLOCK_RECORD
  5
7960
330
1
100
AcDbSymbolTableRecord
100
AcDbBlockTableRecord
  2
*D17
340
0
 70
     0
280
     1
281
     0
  0
BLOCK_RECORD
  5
796D
330
1
100
AcDbSymbolTableRecord
100
AcDbBlockTableRecord
  2
*D18
340
0
 70
     0
280
     1
281
     0
  0
BLOCK_RECORD
  5
7997
330
1
100
AcDbSymbolTableRecord
100
AcDbBlockTableRecord
  2
*D19
340
0
 70
     0
280
     1
281
     0
  0
BLOCK_RECORD
  5
79A7
330
1
100
AcDbSymbolTableRecord
100
AcDbBlockTableRecord
  2
*D20
340
0
 70
     0
280
     1
281
     0
  0
BLOCK_RECORD
  5
79BA
330
1
100
AcDbSymbolTableRecord
100
AcDbBlockTableRecord
  2
*D21
340
0
 70
     0
280
     1
281
     0
  0
BLOCK_RECORD
  5
79CD
330
1
100
AcDbSymbolTableRecord
100
AcDbBlockTableRecord
  2
*D22
340
0
 70
     0
280
     1
281
     0
  0
BLOCK_RECORD
  5
7A61
330
1
100
AcDbSymbolTableRecord
100
AcDbBlockTableRecord
  2
*D23
340
0
 70
     0
280
     1
281
     0
  0
BLOCK_RECORD
  5
7A72
330
1
100
AcDbSymbolTableRecord
100
AcDbBlockTableRecord
  2
*D24
340
0
 70
     0
280
     1
281
     0
  0
BLOCK_RECORD
  5
7A7F
330
1
100
AcDbSymbolTableRecord
100
AcDbBlockTableRecord
  2
*D25
340
0
 70
     0
280
     1
281
     0
  0
BLOCK_RECORD
  5
7A9C
330
1
100
AcDbSymbolTableRecord
100
AcDbBlockTableRecord
  2
*D26
340
0
 70
     0
280
     1
281
     0
  0
BLOCK_RECORD
  5
7AAB
330
1
100
AcDbSymbolTableRecord
100
AcDbBlockTableRecord
  2
*D27
340
0
 70
     0
280
     1
281
     0
  0
BLOCK_RECORD
  5
7AB7
330
1
100
AcDbSymbolTableRecord
100
AcDbBlockTableRecord
  2
*D28
340
0
 70
     0
280
     1
281
     0
  0
ENDTAB
  0
ENDSEC
  0
SECTION
  2
BLOCKS
  0
BLOCK
  5
D
330
A
100
AcDbEntity
  8
0
390
1D
100
AcDbBlockBegin
  2
*MODEL_SPACE
 70
     0
 10
0.0
 20
0.0
 30
0.0
  3
*MODEL_SPACE
  1
*MODEL_SPACE
  0
ENDBLK
  5
E
330
A
100
AcDbEntity
  8
0
390
1D
100
AcDbBlockEnd
  0
BLOCK
  5
F
330
B
100
AcDbEntity
 67
     1
  8
0
390
1D
100
AcDbBlockBegin
  2
*PAPER_SPACE
 70
     0
 10
0.0
 20
0.0
 30
0.0
  3
*PAPER_SPACE
  1
*PAPER_SPACE
  0
ENDBLK
  5
10
330
B
100
AcDbEntity
 67
     1
  8
0
390
1D
100
AcDbBlockEnd
  0
BLOCK
  5
490E
330
4E
100
AcDbEntity
  8
0
390
1D
100
AcDbBlockBegin
  2
_DOT
 70
     0
 10
0.0
 20
0.0
 30
0.0
  3
_DOT
  1
_DOT
  0
POLYLINE
  5
4910
330
4E
100
AcDbEntity
  8
0
  6
ByBlock
 62
     0
370
    -2
390
1D
100
AcDb2dPolyline
 66
     1
 10
0.0
 20
0.0
 30
0.0
 70
     1
 40
0.5
 41
0.5
  0
VERTEX
  5
4911
330
4910
100
AcDbEntity
  8
0
  6
ByBlock
 62
     0
370
    -2
390
1D
100
AcDbVertex
100
AcDb2dVertex
 10
-0.25
 20
0.0
 30
0.0
 42
1.0
  0
VERTEX
  5
4912
330
4910
100
AcDbEntity
  8
0
  6
ByBlock
 62
     0
370
    -2
390
1D
100
AcDbVertex
100
AcDb2dVertex
 10
0.25
 20
0.0
 30
0.0
 42
1.0
  0
SEQEND
  5
4913
330
4910
100
AcDbEntity
  8
0
390
1D
  0
LINE
  5
4914
330
4E
100
AcDbEntity
  8
0
  6
ByBlock
 62
     0
370
    -2
390
1D
100
AcDbLine
 10
-0.5
 20
0.0
 30
0.0
 11
-1.0
 21
0.0
 31
0.0
  0
ENDBLK
  5
4915
330
4E
100
AcDbEntity
  8
0
390
1D
100
AcDbBlockEnd
  0
BLOCK
  5
3A6
330
3A5
100
AcDbEntity
  8
0
100
AcDbBlockBegin
  2
名称未設定-1
 70
     0
 10
0.0
 20
0.0
 30
0.0
  3
名称未設定-1
  1
名称未設定-1
  0
INSERT
  5
3A7
330
3A5
100
AcDbEntity
  8
レイヤー 1
100
AcDbBlockReference
  2
block 2
 10
0.0
 20
0.0
 30
0.0
  0
ENDBLK
  5
3CC
330
3A5
100
AcDbEntity
  8
0
100
AcDbBlockEnd
  0
BLOCK
  5
3A9
330
3A8
100
AcDbEntity
  8
0
100
AcDbBlockBegin
  2
block 2
 70
     0
 10
0.0
 20
0.0
 30
0.0
  3
block 2
  1
block 2
  0
INSERT
  5
3AA
330
3A8
100
AcDbEntity
  8
レイヤー 1
100
AcDbBlockReference
  2
block 3
 10
0.0
 20
0.0
 30
0.0
  0
ENDBLK
  5
3CB
330
3A8
100
AcDbEntity
  8
0
100
AcDbBlockEnd
  0
BLOCK
  5
3AC
330
3AB
100
AcDbEntity
  8
0
100
AcDbBlockBegin
  2
block 3
 70
     0
 10
0.0
 20
0.0
 30
0.0
  3
block 3
  1
block 3
  0
INSERT
  5
3AD
330
3AB
100
AcDbEntity
  8
レイヤー 1
100
AcDbBlockReference
  2
block 4
 10
0.0
 20
0.0
 30
0.0
  0
ENDBLK
  5
3CA
330
3AB
100
AcDbEntity
  8
0
100
AcDbBlockEnd
  0
BLOCK
  5
3AF
330
3AE
100
AcDbEntity
  8
0
100
AcDbBlockBegin
  2
block 4
 70
     0
 10
0.0
 20
0.0
 30
0.0
  3
block 4
  1
block 4
  0
POLYLINE
  5
3B0
330
3AE
100
AcDbEntity
  8
レイヤー 1
370
     0
100
AcDb2dPolyline
 66
     1
 10
0.0
 20
0.0
 30
0.0
  0
VERTEX
  5
3B1
330
3B0
100
AcDbEntity
  8
レイヤー 1
370
     0
100
AcDbVertex
100
AcDb2dVertex
 10
83.79545727667795
 20
167.6444858234922
 30
0.0
  0
VERTEX
  5
3B2
330
3B0
100
AcDbEntity
  8
レイヤー 1
370
     0
100
AcDbVertex
100
AcDb2dVertex
 10
83.79545727667795
 20
159.7968976406313
 30
0.0
  0
VERTEX
  5
3B3
330
3B0
100
AcDbEntity
  8
レイヤー 1
370
     0
100
AcDbVertex
100
AcDb2dVertex
 10
71.3631329975216
 20
159.7968976406313
 30
0.0
  0
VERTEX
  5
3B4
330
3B0
100
AcDbEntity
  8
レイヤー 1
370
     0
100
AcDbVertex
100
AcDb2dVertex
 10
71.3631329975216
 20
127.8027915271048
 30
0.0
  0
VERTEX
  5
3B5
330
3B0
100
AcDbEntity
  8
レイヤー 1
370
     0
100
AcDbVertex
100
AcDb2dVertex
 10
60.43011526263018
 20
127.8027915271048
 30
0.0
  0
VERTEX
  5
3B6
330
3B0
100
AcDbEntity
  8
レイヤー 1
370
     0
100
AcDbVertex
100
AcDb2dVertex
 10
60.43011526263018
 20
159.7968976406313
 30
0.0
  0
VERTEX
  5
3B7
330
3B0
100
AcDbEntity
  8
レイヤー 1
370
     0
100
AcDbVertex
100
AcDb2dVertex
 10
48.21793273020759
 20
159.7968976406313
 30
0.0
  0
VERTEX
  5
3B8
330
3B0
100
AcDbEntity
  8
レイヤー 1
370
     0
100
AcDbVertex
100
AcDb2dVertex
 10
48.21793273020759
 20
167.6444858234922
 30
0.0
  0
VERTEX
  5
3B9
330
3B0
100
AcDbEntity
  8
レイヤー 1
370
     0
100
AcDbVertex
100
AcDb2dVertex
 10
83.79545727667795
 20
167.6444858234922
 30
0.0
  0
SEQEND
  5
3BA
330
3B0
100
AcDbEntity
  8
レイヤー 1
370
     0
  0
HATCH
  5
3BB
330
3AE
100
AcDbEntity
  8
レイヤー 1
 62
   250
420
  2234388
100
AcDbHatch
 10
0.0
 20
0.0
 30
0.0
210
0.0
220
0.0
230
1.0
  2
SOLID
 70
     1
 71
     0
 91
        1
 92
        1
 93
        8
 72
     1
 10
83.79545727667795
 20
167.6444858234922
 11
83.79545727667795
 21
159.7968976406313
 72
     1
 10
83.79545727667795
 20
159.7968976406313
 11
71.3631329975216
 21
159.7968976406313
 72
     1
 10
71.3631329975216
 20
159.7968976406313
 11
71.3631329975216
 21
127.8027915271048
 72
     1
 10
71.3631329975216
 20
127.8027915271048
 11
60.43011526263018
 21
127.8027915271048
 72
     1
 10
60.43011526263018
 20
127.8027915271048
 11
60.43011526263018
 21
159.7968976406313
 72
     1
 10
60.43011526263018
 20
159.7968976406313
 11
48.21793273020759
 21
159.7968976406313
 72
     1
 10
48.21793273020759
 20
159.7968976406313
 11
48.21793273020759
 21
167.6444858234922
 72
     1
 10
48.21793273020759
 20
167.6444858234922
 11
83.79545727667795
 21
167.6444858234922
 97
        0
 75
     2
 76
     1
 98
        0
  0
INSERT
  5
3BC
330
3AE
100
AcDbEntity
  8
レイヤー 1
100
AcDbBlockReference
  2
block 5
 10
0.0
 20
0.0
 30
0.0
  0
ENDBLK
  5
3C9
330
3AE
100
AcDbEntity
  8
0
100
AcDbBlockEnd
  0
BLOCK
  5
3BE
330
3BD
100
AcDbEntity
  8
0
100
AcDbBlockBegin
  2
block 5
 70
     0
 10
0.0
 20
0.0
 30
0.0
  3
block 5
  1
block 5
  0
SPLINE
  5
3BF
330
3BD
100
AcDbEntity
  8
レイヤー 1
370
     0
100
AcDbSpline
210
0.0
220
0.0
230
1.0
 70
    11
 71
     3
 72
    56
 73
    52
 74
     0
 42
0.000000001
 43
0.0000000001
 40
0.0
 40
0.0
 40
0.0
 40
0.0
 40
1.0
 40
1.0
 40
1.0
 40
2.0
 40
2.0
 40
2.0
 40
3.0
 40
3.0
 40
3.0
 40
4.0
 40
4.0
 40
4.0
 40
5.0
 40
5.0
 40
5.0
 40
6.0
 40
6.0
 40
6.0
 40
7.0
 40
7.0
 40
7.0
 40
8.0
 40
8.0
 40
8.0
 40
9.0
 40
9.0
 40
9.0
 40
10.0
 40
10.0
 40
10.0
 40
11.0
 40
11.0
 40
11.0
 40
12.0
 40
12.0
 40
12.0
 40
13.0
 40
13.0
 40
13.0
 40
14.0
 40
14.0
 40
14.0
 40
15.0
 40
15.0
 40
15.0
 40
16.0
 40
16.0
 40
16.0
 40
17.0
 40
17.0
 40
17.0
 40
17.0
 10
100.4504378777679
 20
166.69157178364
 30
0.0
 10
101.9848844191641
 20
167.1313385124438
 30
0.0
 10
103.9637485713373
 20
166.7649523658846
 30
0.0
 10
103.9637485713373
 20
166.7649523658846
 30
0.0
 10
103.9637485713373
 20
166.7649523658846
 30
0.0
 10
103.0132460999156
 20
163.911205638077
 30
0.0
 10
103.0132460999156
 20
163.911205638077
 30
0.0
 10
103.0132460999156
 20
163.911205638077
 30
0.0
 10
101.0674548862189
 20
164.3601018759394
 30
0.0
 10
99.57090442016032
 20
163.1805004036133
 30
0.0
 10
98.40508333886608
 20
162.258247733807
 30
0.0
 10
97.65301849830304
 20
159.804132345923
 30
0.0
 10
97.3598406791005
 20
158.8699940888517
 30
0.0
 10
97.3598406791005
 20
158.8699940888517
 30
0.0
 10
96.07137411762282
 20
154.9119212747295
 30
0.0
 10
96.07137411762282
 20
154.9119212747295
 30
0.0
 10
96.07137411762282
 20
154.9119212747295
 30
0.0
 10
100.3012651448482
 20
154.9119212747295
 30
0.0
 10
100.3012651448482
 20
154.9119212747295
 30
0.0
 10
100.3012651448482
 20
154.9119212747295
 30
0.0
 10
99.64152892419852
 20
152.4199098115079
 30
0.0
 10
99.64152892419852
 20
152.4199098115079
 30
0.0
 10
99.64152892419852
 20
152.4199098115079
 30
0.0
 10
95.38097652692731
 20
152.4199098115079
 30
0.0
 10
95.38097652692731
 20
152.4199098115079
 30
0.0
 10
95.38097652692731
 20
152.4199098115079
 30
0.0
 10
87.75353009080013
 20
127.8027915271048
 30
0.0
 10
87.75353009080013
 20
127.8027915271048
 30
0.0
 10
87.75353009080013
 20
127.8027915271048
 30
0.0
 10
85.36538832498108
 20
127.8027915271048
 30
0.0
 10
85.36538832498108
 20
127.8027915271048
 30
0.0
 10
85.36538832498108
 20
127.8027915271048
 30
0.0
 10
93.00006946639998
 20
152.4199098115079
 30
0.0
 10
93.00006946639998
 20
152.4199098115079
 30
0.0
 10
93.00006946639998
 20
152.4199098115079
 30
0.0
 10
89.85297266450198
 20
152.4199098115079
 30
0.0
 10
89.85297266450198
 20
152.4199098115079
 30
0.0
 10
89.85297266450198
 20
152.4199098115079
 30
0.0
 10
90.51270888515164
 20
154.9119212747295
 30
0.0
 10
90.51270888515164
 20
154.9119212747295
 30
0.0
 10
90.51270888515164
 20
154.9119212747295
 30
0.0
 10
93.6904670570955
 20
154.9119212747295
 30
0.0
 10
93.6904670570955
 20
154.9119212747295
 30
0.0
 10
93.6904670570955
 20
154.9119212747295
 30
0.0
 10
94.81598049462158
 20
158.3616699146644
 30
0.0
 10
94.81598049462158
 20
158.3616699146644
 30
0.0
 10
95.7237637538445
 20
161.2605474231013
 30
0.0
 10
96.4968436907311
 20
162.8139420021662
 30
0.0
 10
97.15657991138076
 20
163.9844139654337
 30
0.0
 10
97.81183750494507
 20
165.1523021053827
 30
0.0
 10
99.1047826935081
 20
166.3084769129547
 30
0.0
 10
100.4504378777679
 20
166.69157178364
 30
0.0
  0
HATCH
  5
3C0
330
3BD
100
AcDbEntity
  8
レイヤー 1
 62
   250
420
  2234388
100
AcDbHatch
 10
0.0
 20
0.0
 30
0.0
210
0.0
220
0.0
230
1.0
  2
SOLID
 70
     1
 71
     0
 91
        1
 92
        1
 93
        1
 72
     4
 94
        3
 73
     0
 74
     1
 95
       56
 96
       52
 40
0.0
 40
0.0
 40
0.0
 40
0.0
 40
1.0
 40
1.0
 40
1.0
 40
2.0
 40
2.0
 40
2.0
 40
3.0
 40
3.0
 40
3.0
 40
4.0
 40
4.0
 40
4.0
 40
5.0
 40
5.0
 40
5.0
 40
6.0
 40
6.0
 40
6.0
 40
7.0
 40
7.0
 40
7.0
 40
8.0
 40
8.0
 40
8.0
 40
9.0
 40
9.0
 40
9.0
 40
10.0
 40
10.0
 40
10.0
 40
11.0
 40
11.0
 40
11.0
 40
12.0
 40
12.0
 40
12.0
 40
13.0
 40
13.0
 40
13.0
 40
14.0
 40
14.0
 40
14.0
 40
15.0
 40
15.0
 40
15.0
 40
16.0
 40
16.0
 40
16.0
 40
17.0
 40
17.0
 40
17.0
 40
17.0
 10
100.4504378777679
 20
166.69157178364
 10
101.9848844191641
 20
167.1313385124438
 10
103.9637485713373
 20
166.7649523658846
 10
103.9637485713373
 20
166.7649523658846
 10
103.9637485713373
 20
166.7649523658846
 10
103.0132460999156
 20
163.911205638077
 10
103.0132460999156
 20
163.911205638077
 10
103.0132460999156
 20
163.911205638077
 10
101.0674548862189
 20
164.3601018759394
 10
99.57090442016032
 20
163.1805004036133
 10
98.40508333886608
 20
162.258247733807
 10
97.65301849830304
 20
159.804132345923
 10
97.3598406791005
 20
158.8699940888517
 10
97.3598406791005
 20
158.8699940888517
 10
96.07137411762282
 20
154.9119212747295
 10
96.07137411762282
 20
154.9119212747295
 10
96.07137411762282
 20
154.9119212747295
 10
100.3012651448482
 20
154.9119212747295
 10
100.3012651448482
 20
154.9119212747295
 10
100.3012651448482
 20
154.9119212747295
 10
99.64152892419852
 20
152.4199098115079
 10
99.64152892419852
 20
152.4199098115079
 10
99.64152892419852
 20
152.4199098115079
 10
95.38097652692731
 20
152.4199098115079
 10
95.38097652692731
 20
152.4199098115079
 10
95.38097652692731
 20
152.4199098115079
 10
87.75353009080013
 20
127.8027915271048
 10
87.75353009080013
 20
127.8027915271048
 10
87.75353009080013
 20
127.8027915271048
 10
85.36538832498108
 20
127.8027915271048
 10
85.36538832498108
 20
127.8027915271048
 10
85.36538832498108
 20
127.8027915271048
 10
93.00006946639998
 20
152.4199098115079
 10
93.00006946639998
 20
152.4199098115079
 10
93.00006946639998
 20
152.4199098115079
 10
89.85297266450198
 20
152.4199098115079
 10
89.85297266450198
 20
152.4199098115079
 10
89.85297266450198
 20
152.4199098115079
 10
90.51270888515164
 20
154.9119212747295
 10
90.51270888515164
 20
154.9119212747295
 10
90.51270888515164
 20
154.9119212747295
 10
93.6904670570955
 20
154.9119212747295
 10
93.6904670570955
 20
154.9119212747295
 10
93.6904670570955
 20
154.9119212747295
 10
94.81598049462158
 20
158.3616699146644
 10
94.81598049462158
 20
158.3616699146644
 10
95.7237637538445
 20
161.2605474231013
 10
96.4968436907311
 20
162.8139420021662
 10
97.15657991138076
 20
163.9844139654337
 10
97.81183750494507
 20
165.1523021053827
 10
99.1047826935081
 20
166.3084769129547
 10
100.4504378777679
 20
166.69157178364
 97
        0
 75
     2
 76
     1
 98
        0
  0
SPLINE
  5
3C1
330
3BD
100
AcDbEntity
  8
レイヤー 1
370
     0
100
AcDbSpline
210
0.0
220
0.0
230
1.0
 70
    11
 71
     3
 72
    38
 73
    34
 74
     0
 42
0.000000001
 43
0.0000000001
 40
0.0
 40
0.0
 40
0.0
 40
0.0
 40
1.0
 40
1.0
 40
1.0
 40
2.0
 40
2.0
 40
2.0
 40
3.0
 40
3.0
 40
3.0
 40
4.0
 40
4.0
 40
4.0
 40
5.0
 40
5.0
 40
5.0
 40
6.0
 40
6.0
 40
6.0
 40
7.0
 40
7.0
 40
7.0
 40
8.0
 40
8.0
 40
8.0
 40
9.0
 40
9.0
 40
9.0
 40
10.0
 40
10.0
 40
10.0
 40
11.0
 40
11.0
 40
11.0
 40
11.0
 10
126.377554584636
 20
154.8151140277308
 30
0.0
 10
126.377554584636
 20
154.8151140277308
 30
0.0
 10
128.8311532078563
 20
154.8151140277308
 30
0.0
 10
128.8311532078563
 20
154.8151140277308
 30
0.0
 10
128.8311532078563
 20
154.8151140277308
 30
0.0
 10
127.7345785914971
 20
151.3062819612468
 30
0.0
 10
127.7345785914971
 20
151.3062819612468
 30
0.0
 10
128.571392836906
 20
152.2922689395754
 30
0.0
 10
129.8860421413442
 20
153.604506675583
 30
0.0
 10
131.0163787157314
 20
154.2664822097754
 30
0.0
 10
132.7044766171327
 20
155.2500576196734
 30
0.0
 10
133.6642808525008
 20
155.3847609420097
 30
0.0
 10
134.7284715499351
 20
155.3565111403944
 30
0.0
 10
134.7284715499351
 20
155.3565111403944
 30
0.0
 10
133.6877075172549
 20
152.0345756272799
 30
0.0
 10
133.6877075172549
 20
152.0345756272799
 30
0.0
 10
133.011434827367
 20
152.3184516825359
 30
0.0
 10
130.930940291334
 20
151.7768823149844
 30
0.0
 10
129.739280976855
 20
150.9162968950455
 30
0.0
 10
128.66613302525
 20
150.1454562717016
 30
0.0
 10
127.9192358313239
 20
149.4857200510519
 30
0.0
 10
127.0393578639405
 20
147.8282835196966
 30
0.0
 10
126.164647543194
 20
146.1699857139017
 30
0.0
 10
125.4742499524985
 20
143.5262176944419
 30
0.0
 10
124.2822461282437
 20
139.6959580071401
 30
0.0
 10
124.2822461282437
 20
139.6959580071401
 30
0.0
 10
120.5753209406769
 20
127.8027915271048
 30
0.0
 10
120.5753209406769
 20
127.8027915271048
 30
0.0
 10
120.5753209406769
 20
127.8027915271048
 30
0.0
 10
118.1964809388044
 20
127.8027915271048
 30
0.0
 10
118.1964809388044
 20
127.8027915271048
 30
0.0
 10
118.1964809388044
 20
127.8027915271048
 30
0.0
 10
126.377554584636
 20
154.8151140277308
 30
0.0
 10
126.377554584636
 20
154.8151140277308
 30
0.0
  0
HATCH
  5
3C2
330
3BD
100
AcDbEntity
  8
レイヤー 1
 62
   250
420
  2234388
100
AcDbHatch
 10
0.0
 20
0.0
 30
0.0
210
0.0
220
0.0
230
1.0
  2
SOLID
 70
     1
 71
     0
 91
        1
 92
        1
 93
        1
 72
     4
 94
        3
 73
     0
 74
     1
 95
       38
 96
       34
 40
0.0
 40
0.0
 40
0.0
 40
0.0
 40
1.0
 40
1.0
 40
1.0
 40
2.0
 40
2.0
 40
2.0
 40
3.0
 40
3.0
 40
3.0
 40
4.0
 40
4.0
 40
4.0
 40
5.0
 40
5.0
 40
5.0
 40
6.0
 40
6.0
 40
6.0
 40
7.0
 40
7.0
 40
7.0
 40
8.0
 40
8.0
 40
8.0
 40
9.0
 40
9.0
 40
9.0
 40
10.0
 40
10.0
 40
10.0
 40
11.0
 40
11.0
 40
11.0
 40
11.0
 10
126.377554584636
 20
154.8151140277308
 10
126.377554584636
 20
154.8151140277308
 10
128.8311532078563
 20
154.8151140277308
 10
128.8311532078563
 20
154.8151140277308
 10
128.8311532078563
 20
154.8151140277308
 10
127.7345785914971
 20
151.3062819612468
 10
127.7345785914971
 20
151.3062819612468
 10
128.571392836906
 20
152.2922689395754
 10
129.8860421413442
 20
153.604506675583
 10
131.0163787157314
 20
154.2664822097754
 10
132.7044766171327
 20
155.2500576196734
 10
133.6642808525008
 20
155.3847609420097
 10
134.7284715499351
 20
155.3565111403944
 10
134.7284715499351
 20
155.3565111403944
 10
133.6877075172549
 20
152.0345756272799
 10
133.6877075172549
 20
152.0345756272799
 10
133.011434827367
 20
152.3184516825359
 10
130.930940291334
 20
151.7768823149844
 10
129.739280976855
 20
150.9162968950455
 10
128.66613302525
 20
150.1454562717016
 10
127.9192358313239
 20
149.4857200510519
 10
127.0393578639405
 20
147.8282835196966
 10
126.164647543194
 20
146.1699857139017
 10
125.4742499524985
 20
143.5262176944419
 10
124.2822461282437
 20
139.6959580071401
 10
124.2822461282437
 20
139.6959580071401
 10
120.5753209406769
 20
127.8027915271048
 10
120.5753209406769
 20
127.8027915271048
 10
120.5753209406769
 20
127.8027915271048
 10
118.1964809388044
 20
127.8027915271048
 10
118.1964809388044
 20
127.8027915271048
 10
118.1964809388044
 20
127.8027915271048
 10
126.377554584636
 20
154.8151140277308
 10
126.377554584636
 20
154.8151140277308
 97
        0
 75
     2
 76
     1
 98
        0
  0
SPLINE
  5
3C3
330
3BD
100
AcDbEntity
  8
レイヤー 1
370
     0
100
AcDbSpline
210
0.0
220
0.0
230
1.0
 70
    11
 71
     3
 72
   104
 73
   100
 74
     0
 42
0.000000001
 43
0.0000000001
 40
0.0
 40
0.0
 40
0.0
 40
0.0
 40
1.0
 40
1.0
 40
1.0
 40
2.0
 40
2.0
 40
2.0
 40
3.0
 40
3.0
 40
3.0
 40
4.0
 40
4.0
 40
4.0
 40
5.0
 40
5.0
 40
5.0
 40
6.0
 40
6.0
 40
6.0
 40
7.0
 40
7.0
 40
7.0
 40
8.0
 40
8.0
 40
8.0
 40
9.0
 40
9.0
 40
9.0
 40
10.0
 40
10.0
 40
10.0
 40
11.0
 40
11.0
 40
11.0
 40
12.0
 40
12.0
 40
12.0
 40
13.0
 40
13.0
 40
13.0
 40
14.0
 40
14.0
 40
14.0
 40
15.0
 40
15.0
 40
15.0
 40
16.0
 40
16.0
 40
16.0
 40
17.0
 40
17.0
 40
17.0
 40
18.0
 40
18.0
 40
18.0
 40
19.0
 40
19.0
 40
19.0
 40
20.0
 40
20.0
 40
20.0
 40
21.0
 40
21.0
 40
21.0
 40
22.0
 40
22.0
 40
22.0
 40
23.0
 40
23.0
 40
23.0
 40
24.0
 40
24.0
 40
24.0
 40
25.0
 40
25.0
 40
25.0
 40
26.0
 40
26.0
 40
26.0
 40
27.0
 40
27.0
 40
27.0
 40
28.0
 40
28.0
 40
28.0
 40
29.0
 40
29.0
 40
29.0
 40
30.0
 40
30.0
 40
30.0
 40
31.0
 40
31.0
 40
31.0
 40
32.0
 40
32.0
 40
32.0
 40
33.0
 40
33.0
 40
33.0
 40
33.0
 10
139.8926730891197
 20
154.8294111834263
 30
0.0
 10
139.8926730891197
 20
154.8294111834263
 30
0.0
 10
142.0344903652445
 20
154.8294111834263
 30
0.0
 10
142.0344903652445
 20
154.8294111834263
 30
0.0
 10
142.0344903652445
 20
154.8294111834263
 30
0.0
 10
140.9516961399171
 20
151.3157559800812
 30
0.0
 10
140.9516961399171
 20
151.3157559800812
 30
0.0
 10
141.8928968473923
 20
152.7887075264977
 30
0.0
 10
142.7341897198865
 20
153.4484437471474
 30
0.0
 10
143.8552245303272
 20
154.2926649527359
 30
0.0
 10
144.9803934580775
 20
155.1296514530327
 30
0.0
 10
146.3139908001845
 20
155.3044901642492
 30
0.0
 10
147.241066606852
 20
155.3044901642492
 30
0.0
 10
148.3855280820469
 20
155.3044901642492
 30
0.0
 10
149.4969166187653
 20
155.0752189084569
 30
0.0
 10
150.0784491203092
 20
153.8172414621372
 30
0.0
 10
150.5228667310863
 20
152.833838307127
 30
0.0
 10
150.5414702589793
 20
152.7201500811143
 30
0.0
 10
150.4140016419347
 20
150.7765981809602
 30
0.0
 10
151.5818897818837
 20
152.7699317437168
 30
0.0
 10
152.4424752018226
 20
153.6256940267945
 30
0.0
 10
153.9038856707499
 20
154.4507949398263
 30
0.0
 10
155.4455669174378
 20
155.3044901642492
 30
0.0
 10
156.339225275853
 20
155.3659851592288
 30
0.0
 10
157.3748216618963
 20
155.2147453676543
 30
0.0
 10
158.911679771723
 20
154.9877134254046
 30
0.0
 10
159.8859534176746
 20
154.4390816074493
 30
0.0
 10
160.3965169054045
 20
152.7816450760939
 30
0.0
 10
160.9070803931344
 20
151.1219692311958
 30
0.0
 10
160.6328506116007
 20
150.2303779314354
 30
0.0
 10
159.9992971339115
 20
147.597634224801
 30
0.0
 10
159.7105979417943
 20
146.4014962832367
 30
0.0
 10
159.2947746424084
 20
144.9400858143094
 30
0.0
 10
158.7463150793409
 20
143.2092687007094
 30
0.0
 10
158.7463150793409
 20
143.2092687007094
 30
0.0
 10
153.9038856707499
 20
127.8027915271048
 30
0.0
 10
153.9038856707499
 20
127.8027915271048
 30
0.0
 10
153.9038856707499
 20
127.8027915271048
 30
0.0
 10
151.3882752878863
 20
127.8027915271048
 30
0.0
 10
151.3882752878863
 20
127.8027915271048
 30
0.0
 10
151.3882752878863
 20
127.8027915271048
 30
0.0
 10
155.6250565106276
 20
141.2751908193897
 30
0.0
 10
155.6250565106276
 20
141.2751908193897
 30
0.0
 10
156.5094131050963
 20
144.0936252951782
 30
0.0
 10
157.109893644309
 20
146.1506931664571
 30
0.0
 10
157.4220195011804
 20
147.4415712963654
 30
0.0
 10
157.8095929989511
 20
149.0530157726519
 30
0.0
 10
157.9656559273867
 20
149.5826995529385
 30
0.0
 10
157.7816877071116
 20
150.7529992613181
 30
0.0
 10
157.6111553680925
 20
151.8430281919372
 30
0.0
 10
157.0582171779396
 20
152.5547853887321
 30
0.0
 10
156.1170164704645
 20
152.5547853887321
 30
0.0
 10
155.1096698860365
 20
152.5547853887321
 30
0.0
 10
154.2962823053817
 20
152.4412694176073
 30
0.0
 10
153.156643967048
 20
151.2945686288697
 30
0.0
 10
152.0170056287143
 20
150.1476955852443
 30
0.0
 10
151.076149431015
 20
148.7930831468137
 30
0.0
 10
150.3337308641742
 20
147.2290087646991
 30
0.0
 10
149.5957909244188
 20
145.6683794803425
 30
0.0
 10
148.8530278478023
 20
143.6822806228776
 30
0.0
 10
148.0964843801539
 20
141.2751908193897
 30
0.0
 10
148.0964843801539
 20
141.2751908193897
 30
0.0
 10
143.8552245303272
 20
127.8027915271048
 30
0.0
 10
143.8552245303272
 20
127.8027915271048
 30
0.0
 10
143.8552245303272
 20
127.8027915271048
 30
0.0
 10
141.486030802177
 20
127.8027915271048
 30
0.0
 10
141.486030802177
 20
127.8027915271048
 30
0.0
 10
141.486030802177
 20
127.8027915271048
 30
0.0
 10
146.3329388378533
 20
143.2092687007094
 30
0.0
 10
146.3329388378533
 20
143.2092687007094
 30
0.0
 10
146.8483254624444
 20
144.8408669988801
 30
0.0
 10
147.2314203331297
 20
146.1837661049335
 30
0.0
 10
147.4867020769946
 20
147.224185627838
 30
0.0
 10
147.9169947869641
 20
149.0197705792876
 30
0.0
 10
148.0306830129768
 20
150.2400242051577
 30
0.0
 10
147.709255392159
 20
151.3157559800812
 30
0.0
 10
147.3874832615654
 20
152.3916600098926
 30
0.0
 10
146.8245542879144
 20
152.6683013598569
 30
0.0
 10
145.8840425999909
 20
152.6683013598569
 30
0.0
 10
145.0989048209514
 20
152.6683013598569
 30
0.0
 10
144.3282364524954
 20
152.3275811915945
 30
0.0
 10
143.4531816219731
 20
151.6538923250251
 30
0.0
 10
142.34627171234
 20
150.8074318058939
 30
0.0
 10
141.901854101563
 20
150.1097995099067
 30
0.0
 10
141.3578731655808
 20
149.289521733736
 30
0.0
 10
140.6299240093235
 20
148.192602607601
 30
0.0
 10
140.2850697237515
 20
147.455696197173
 30
0.0
 10
139.6652966370942
 20
145.8385673095858
 30
0.0
 10
139.0506911970739
 20
144.2214384219986
 30
0.0
 10
138.463991048893
 20
142.3252566160164
 30
0.0
 10
138.0571250036777
 20
141.0154304484394
 30
0.0
 10
138.0571250036777
 20
141.0154304484394
 30
0.0
 10
133.9009590684727
 20
127.8027915271048
 30
0.0
 10
133.9009590684727
 20
127.8027915271048
 30
0.0
 10
133.9009590684727
 20
127.8027915271048
 30
0.0
 10
131.4180771143097
 20
127.8027915271048
 30
0.0
 10
131.4180771143097
 20
127.8027915271048
 30
0.0
 10
131.4180771143097
 20
127.8027915271048
 30
0.0
 10
139.8926730891197
 20
154.8294111834263
 30
0.0
 10
139.8926730891197
 20
154.8294111834263
 30
0.0
  0
HATCH
  5
3C4
330
3BD
100
AcDbEntity
  8
レイヤー 1
 62
   250
420
  2234388
100
AcDbHatch
 10
0.0
 20
0.0
 30
0.0
210
0.0
220
0.0
230
1.0
  2
SOLID
 70
     1
 71
     0
 91
        1
 92
        1
 93
        1
 72
     4
 94
        3
 73
     0
 74
     1
 95
      104
 96
      100
 40
0.0
 40
0.0
 40
0.0
 40
0.0
 40
1.0
 40
1.0
 40
1.0
 40
2.0
 40
2.0
 40
2.0
 40
3.0
 40
3.0
 40
3.0
 40
4.0
 40
4.0
 40
4.0
 40
5.0
 40
5.0
 40
5.0
 40
6.0
 40
6.0
 40
6.0
 40
7.0
 40
7.0
 40
7.0
 40
8.0
 40
8.0
 40
8.0
 40
9.0
 40
9.0
 40
9.0
 40
10.0
 40
10.0
 40
10.0
 40
11.0
 40
11.0
 40
11.0
 40
12.0
 40
12.0
 40
12.0
 40
13.0
 40
13.0
 40
13.0
 40
14.0
 40
14.0
 40
14.0
 40
15.0
 40
15.0
 40
15.0
 40
16.0
 40
16.0
 40
16.0
 40
17.0
 40
17.0
 40
17.0
 40
18.0
 40
18.0
 40
18.0
 40
19.0
 40
19.0
 40
19.0
 40
20.0
 40
20.0
 40
20.0
 40
21.0
 40
21.0
 40
21.0
 40
22.0
 40
22.0
 40
22.0
 40
23.0
 40
23.0
 40
23.0
 40
24.0
 40
24.0
 40
24.0
 40
25.0
 40
25.0
 40
25.0
 40
26.0
 40
26.0
 40
26.0
 40
27.0
 40
27.0
 40
27.0
 40
28.0
 40
28.0
 40
28.0
 40
29.0
 40
29.0
 40
29.0
 40
30.0
 40
30.0
 40
30.0
 40
31.0
 40
31.0
 40
31.0
 40
32.0
 40
32.0
 40
32.0
 40
33.0
 40
33.0
 40
33.0
 40
33.0
 10
139.8926730891197
 20
154.8294111834263
 10
139.8926730891197
 20
154.8294111834263
 10
142.0344903652445
 20
154.8294111834263
 10
142.0344903652445
 20
154.8294111834263
 10
142.0344903652445
 20
154.8294111834263
 10
140.9516961399171
 20
151.3157559800812
 10
140.9516961399171
 20
151.3157559800812
 10
141.8928968473923
 20
152.7887075264977
 10
142.7341897198865
 20
153.4484437471474
 10
143.8552245303272
 20
154.2926649527359
 10
144.9803934580775
 20
155.1296514530327
 10
146.3139908001845
 20
155.3044901642492
 10
147.241066606852
 20
155.3044901642492
 10
148.3855280820469
 20
155.3044901642492
 10
149.4969166187653
 20
155.0752189084569
 10
150.0784491203092
 20
153.8172414621372
 10
150.5228667310863
 20
152.833838307127
 10
150.5414702589793
 20
152.7201500811143
 10
150.4140016419347
 20
150.7765981809602
 10
151.5818897818837
 20
152.7699317437168
 10
152.4424752018226
 20
153.6256940267945
 10
153.9038856707499
 20
154.4507949398263
 10
155.4455669174378
 20
155.3044901642492
 10
156.339225275853
 20
155.3659851592288
 10
157.3748216618963
 20
155.2147453676543
 10
158.911679771723
 20
154.9877134254046
 10
159.8859534176746
 20
154.4390816074493
 10
160.3965169054045
 20
152.7816450760939
 10
160.9070803931344
 20
151.1219692311958
 10
160.6328506116007
 20
150.2303779314354
 10
159.9992971339115
 20
147.597634224801
 10
159.7105979417943
 20
146.4014962832367
 10
159.2947746424084
 20
144.9400858143094
 10
158.7463150793409
 20
143.2092687007094
 10
158.7463150793409
 20
143.2092687007094
 10
153.9038856707499
 20
127.8027915271048
 10
153.9038856707499
 20
127.8027915271048
 10
153.9038856707499
 20
127.8027915271048
 10
151.3882752878863
 20
127.8027915271048
 10
151.3882752878863
 20
127.8027915271048
 10
151.3882752878863
 20
127.8027915271048
 10
155.6250565106276
 20
141.2751908193897
 10
155.6250565106276
 20
141.2751908193897
 10
156.5094131050963
 20
144.0936252951782
 10
157.109893644309
 20
146.1506931664571
 10
157.4220195011804
 20
147.4415712963654
 10
157.8095929989511
 20
149.0530157726519
 10
157.9656559273867
 20
149.5826995529385
 10
157.7816877071116
 20
150.7529992613181
 10
157.6111553680925
 20
151.8430281919372
 10
157.0582171779396
 20
152.5547853887321
 10
156.1170164704645
 20
152.5547853887321
 10
155.1096698860365
 20
152.5547853887321
 10
154.2962823053817
 20
152.4412694176073
 10
153.156643967048
 20
151.2945686288697
 10
152.0170056287143
 20
150.1476955852443
 10
151.076149431015
 20
148.7930831468137
 10
150.3337308641742
 20
147.2290087646991
 10
149.5957909244188
 20
145.6683794803425
 10
148.8530278478023
 20
143.6822806228776
 10
148.0964843801539
 20
141.2751908193897
 10
148.0964843801539
 20
141.2751908193897
 10
143.8552245303272
 20
127.8027915271048
 10
143.8552245303272
 20
127.8027915271048
 10
143.8552245303272
 20
127.8027915271048
 10
141.486030802177
 20
127.8027915271048
 10
141.486030802177
 20
127.8027915271048
 10
141.486030802177
 20
127.8027915271048
 10
146.3329388378533
 20
143.2092687007094
 10
146.3329388378533
 20
143.2092687007094
 10
146.8483254624444
 20
144.8408669988801
 10
147.2314203331297
 20
146.1837661049335
 10
147.4867020769946
 20
147.224185627838
 10
147.9169947869641
 20
149.0197705792876
 10
148.0306830129768
 20
150.2400242051577
 10
147.709255392159
 20
151.3157559800812
 10
147.3874832615654
 20
152.3916600098926
 10
146.8245542879144
 20
152.6683013598569
 10
145.8840425999909
 20
152.6683013598569
 10
145.0989048209514
 20
152.6683013598569
 10
144.3282364524954
 20
152.3275811915945
 10
143.4531816219731
 20
151.6538923250251
 10
142.34627171234
 20
150.8074318058939
 10
141.901854101563
 20
150.1097995099067
 10
141.3578731655808
 20
149.289521733736
 10
140.6299240093235
 20
148.192602607601
 10
140.2850697237515
 20
147.455696197173
 10
139.6652966370942
 20
145.8385673095858
 10
139.0506911970739
 20
144.2214384219986
 10
138.463991048893
 20
142.3252566160164
 10
138.0571250036777
 20
141.0154304484394
 10
138.0571250036777
 20
141.0154304484394
 10
133.9009590684727
 20
127.8027915271048
 10
133.9009590684727
 20
127.8027915271048
 10
133.9009590684727
 20
127.8027915271048
 10
131.4180771143097
 20
127.8027915271048
 10
131.4180771143097
 20
127.8027915271048
 10
131.4180771143097
 20
127.8027915271048
 10
139.8926730891197
 20
154.8294111834263
 10
139.8926730891197
 20
154.8294111834263
 97
        0
 75
     2
 76
     1
 98
        0
  0
SPLINE
  5
3C5
330
3BD
100
AcDbEntity
  8
レイヤー 1
370
     0
100
AcDbSpline
210
0.0
220
0.0
230
1.0
 70
    11
 71
     3
 72
    29
 73
    25
 74
     0
 42
0.000000001
 43
0.0000000001
 40
0.0
 40
0.0
 40
0.0
 40
0.0
 40
1.0
 40
1.0
 40
1.0
 40
2.0
 40
2.0
 40
2.0
 40
3.0
 40
3.0
 40
3.0
 40
4.0
 40
4.0
 40
4.0
 40
5.0
 40
5.0
 40
5.0
 40
6.0
 40
6.0
 40
6.0
 40
7.0
 40
7.0
 40
7.0
 40
8.0
 40
8.0
 40
8.0
 40
8.0
 10
101.6420971922469
 20
132.8388354296931
 30
0.0
 10
101.630039350094
 20
134.7164137077823
 30
0.0
 10
102.2236296937908
 20
138.0598810818841
 30
0.0
 10
103.7487744712405
 20
142.5378191476827
 30
0.0
 10
105.819967243327
 20
148.5896501242061
 30
0.0
 10
107.0602024361932
 20
150.8074318058939
 30
0.0
 10
108.1522984254671
 20
151.8833358357054
 30
0.0
 10
109.741177511439
 20
153.4532668840085
 30
0.0
 10
111.8740375333931
 20
153.5290590346837
 30
0.0
 10
112.5075910110823
 20
153.4532668840085
 30
0.0
 10
113.4012493694975
 20
153.3490526768302
 30
0.0
 10
114.6683563248758
 20
152.7580461564518
 30
0.0
 10
114.7493161221879
 20
150.7838328862519
 30
0.0
 10
114.8106388622796
 20
149.0909118479895
 30
0.0
 10
114.3186789024427
 20
145.9191825971221
 30
0.0
 10
112.6164561002338
 20
140.9489400617108
 30
0.0
 10
110.6444821435766
 20
135.1746117095912
 30
0.0
 10
109.4669477299053
 20
132.8960240524753
 30
0.0
 10
108.5212683953448
 20
131.9072809959403
 30
0.0
 10
106.7346406980658
 20
130.0538184021569
 30
0.0
 10
104.8222669326213
 20
130.2336525051225
 30
0.0
 10
104.5408024457958
 20
130.2336525051225
 30
0.0
 10
104.1721769856939
 20
130.2336525051225
 30
0.0
 10
101.6465758193322
 20
130.6305277668397
 30
0.0
 10
101.6420971922469
 20
132.8388354296931
 30
0.0
  0
SPLINE
  5
3C6
330
3BD
100
AcDbEntity
  8
レイヤー 1
370
     0
100
AcDbSpline
210
0.0
220
0.0
230
1.0
 70
    11
 71
     3
 72
    32
 73
    28
 74
     0
 42
0.000000001
 43
0.0000000001
 40
0.0
 40
0.0
 40
0.0
 40
0.0
 40
1.0
 40
1.0
 40
1.0
 40
2.0
 40
2.0
 40
2.0
 40
3.0
 40
3.0
 40
3.0
 40
4.0
 40
4.0
 40
4.0
 40
5.0
 40
5.0
 40
5.0
 40
6.0
 40
6.0
 40
6.0
 40
7.0
 40
7.0
 40
7.0
 40
8.0
 40
8.0
 40
8.0
 40
9.0
 40
9.0
 40
9.0
 40
9.0
 10
106.2595617172429
 20
153.4105476718098
 30
0.0
 10
104.8222669326213
 20
151.5474388043041
 30
0.0
 10
103.7177685914188
 20
149.8758773721411
 30
0.0
 10
101.9232171692965
 20
144.6141795664062
 30
0.0
 10
100.2754269116635
 20
139.7999999594306
 30
0.0
 10
99.22777268346732
 20
136.3052927937542
 30
0.0
 10
99.06964269637689
 20
132.039572749846
 30
0.0
 10
98.94665270641765
 20
128.8673267343149
 30
0.0
 10
100.8807305877373
 20
127.8027915271048
 30
0.0
 10
103.7129454545577
 20
127.8027915271048
 30
0.0
 10
104.9352661390825
 20
127.8027915271048
 30
0.0
 10
108.0151835347002
 20
127.8827177950895
 30
0.0
 10
110.2045431598849
 20
130.5926316915021
 30
0.0
 10
111.7417457794874
 20
132.4984597712065
 30
0.0
 10
113.155269389579
 20
134.475256864725
 30
0.0
 10
115.0562743324223
 20
140.9489400617108
 30
0.0
 10
116.6361961642235
 20
146.3680788349845
 30
0.0
 10
117.7282921534974
 20
149.8639917848761
 30
0.0
 10
117.6480213757369
 20
151.8595646611754
 30
0.0
 10
117.6480213757369
 20
151.8595646611754
 30
0.0
 10
117.6480213757369
 20
151.8595646611754
 30
0.0
 10
117.6480213757369
 20
151.8595646611754
 30
0.0
 10
117.13229024137
 20
155.18150017429
 30
0.0
 10
114.7162431837115
 20
155.886194920681
 30
0.0
 10
113.3351034925446
 20
155.886194920681
 30
0.0
 10
111.9829026225447
 20
155.886194920681
 30
0.0
 10
108.3414342923792
 20
156.1251124501957
 30
0.0
 10
106.2595617172429
 20
153.4105476718098
 30
0.0
  0
HATCH
  5
3C7
330
3BD
100
AcDbEntity
  8
レイヤー 1
 62
   250
420
  2234388
100
AcDbHatch
 10
0.0
 20
0.0
 30
0.0
210
0.0
220
0.0
230
1.0
  2
SOLID
 70
     1
 71
     0
 91
        2
 92
        1
 93
        1
 72
     4
 94
        3
 73
     0
 74
     1
 95
       29
 96
       25
 40
0.0
 40
0.0
 40
0.0
 40
0.0
 40
1.0
 40
1.0
 40
1.0
 40
2.0
 40
2.0
 40
2.0
 40
3.0
 40
3.0
 40
3.0
 40
4.0
 40
4.0
 40
4.0
 40
5.0
 40
5.0
 40
5.0
 40
6.0
 40
6.0
 40
6.0
 40
7.0
 40
7.0
 40
7.0
 40
8.0
 40
8.0
 40
8.0
 40
8.0
 10
101.6420971922469
 20
132.8388354296931
 10
101.630039350094
 20
134.7164137077823
 10
102.2236296937908
 20
138.0598810818841
 10
103.7487744712405
 20
142.5378191476827
 10
105.819967243327
 20
148.5896501242061
 10
107.0602024361932
 20
150.8074318058939
 10
108.1522984254671
 20
151.8833358357054
 10
109.741177511439
 20
153.4532668840085
 10
111.8740375333931
 20
153.5290590346837
 10
112.5075910110823
 20
153.4532668840085
 10
113.4012493694975
 20
153.3490526768302
 10
114.6683563248758
 20
152.7580461564518
 10
114.7493161221879
 20
150.7838328862519
 10
114.8106388622796
 20
149.0909118479895
 10
114.3186789024427
 20
145.9191825971221
 10
112.6164561002338
 20
140.9489400617108
 10
110.6444821435766
 20
135.1746117095912
 10
109.4669477299053
 20
132.8960240524753
 10
108.5212683953448
 20
131.9072809959403
 10
106.7346406980658
 20
130.0538184021569
 10
104.8222669326213
 20
130.2336525051225
 10
104.5408024457958
 20
130.2336525051225
 10
104.1721769856939
 20
130.2336525051225
 10
101.6465758193322
 20
130.6305277668397
 10
101.6420971922469
 20
132.8388354296931
 97
        0
 92
        1
 93
        1
 72
     4
 94
        3
 73
     0
 74
     1
 95
       32
 96
       28
 40
0.0
 40
0.0
 40
0.0
 40
0.0
 40
1.0
 40
1.0
 40
1.0
 40
2.0
 40
2.0
 40
2.0
 40
3.0
 40
3.0
 40
3.0
 40
4.0
 40
4.0
 40
4.0
 40
5.0
 40
5.0
 40
5.0
 40
6.0
 40
6.0
 40
6.0
 40
7.0
 40
7.0
 40
7.0
 40
8.0
 40
8.0
 40
8.0
 40
9.0
 40
9.0
 40
9.0
 40
9.0
 10
106.2595617172429
 20
153.4105476718098
 10
104.8222669326213
 20
151.5474388043041
 10
103.7177685914188
 20
149.8758773721411
 10
101.9232171692965
 20
144.6141795664062
 10
100.2754269116635
 20
139.7999999594306
 10
99.22777268346732
 20
136.3052927937542
 10
99.06964269637689
 20
132.039572749846
 10
98.94665270641765
 20
128.8673267343149
 10
100.8807305877373
 20
127.8027915271048
 10
103.7129454545577
 20
127.8027915271048
 10
104.9352661390825
 20
127.8027915271048
 10
108.0151835347002
 20
127.8827177950895
 10
110.2045431598849
 20
130.5926316915021
 10
111.7417457794874
 20
132.4984597712065
 10
113.155269389579
 20
134.475256864725
 10
115.0562743324223
 20
140.9489400617108
 10
116.6361961642235
 20
146.3680788349845
 10
117.7282921534974
 20
149.8639917848761
 10
117.6480213757369
 20
151.8595646611754
 10
117.6480213757369
 20
151.8595646611754
 10
117.6480213757369
 20
151.8595646611754
 10
117.6480213757369
 20
151.8595646611754
 10
117.13229024137
 20
155.18150017429
 10
114.7162431837115
 20
155.886194920681
 10
113.3351034925446
 20
155.886194920681
 10
111.9829026225447
 20
155.886194920681
 10
108.3414342923792
 20
156.1251124501957
 10
106.2595617172429
 20
153.4105476718098
 97
        0
 75
     2
 76
     1
 98
        0
  0
ENDBLK
  5
3C8
330
3BD
100
AcDbEntity
  8
0
100
AcDbBlockEnd
  0
BLOCK
  5
11F1
330
11F0
100
AcDbEntity
  8
0
100
AcDbBlockBegin
  2
BLOCK_2
 70
     0
 10
0.0
 20
0.0
 30
0.0
  3
BLOCK_2
  1
BLOCK_2
  0
ENDBLK
  5
11F2
330
11F0
100
AcDbEntity
  8
0
100
AcDbBlockEnd
  0
BLOCK
  5
38B7
330
38B6
100
AcDbEntity
  8
0
100
AcDbBlockBegin
  2
mobile_latù
 70
     0
 10
0.0
 20
0.0
 30
0.0
  3
mobile_latù
  1
mobile_latù
  0
ENDBLK
  5
38B8
330
38B6
100
AcDbEntity
  8
0
100
AcDbBlockEnd
  0
BLOCK
  5
436C
330
436B
100
AcDbEntity
  8
0
100
AcDbBlockBegin
  2
.TD_SECTION_1
 70
     0
 10
225818116096.0
 20
0.0
 30
0.0
  3
.TD_SECTION_1
  1
.TD_SECTION_1
  0
ENDBLK
  5
436D
330
436B
100
AcDbEntity
  8
0
100
AcDbBlockEnd
  0
BLOCK
  5
4370
330
436F
100
AcDbEntity
  8
0
100
AcDbBlockBegin
  2
.TD_SECTION_2
 70
     0
 10
225818181632.0
 20
0.0
 30
0.0
  3
.TD_SECTION_2
  1
.TD_SECTION_2
  0
ENDBLK
  5
4371
330
436F
100
AcDbEntity
  8
0
100
AcDbBlockEnd
  0
BLOCK
  5
78E7
330
78E6
100
AcDbEntity
  8
0
100
AcDbBlockBegin
  2
*D10
 70
     1
 10
0.0
 20
0.0
 30
0.0
  3
*D10
  1

  0
LINE
  5
78E9
330
78E6
100
AcDbEntity
  8
Dim
 62
     0
370
    -2
100
AcDbLine
 10
519.9858217142385
 20
2144.86517955354
 30
0.0
 11
519.9858217142385
 21
2213.585720279992
 31
0.0
  0
LINE
  5
78EA
330
78E6
100
AcDbEntity
  8
Dim
 62
     0
370
    -2
100
AcDbLine
 10
619.9858217142385
 20
2146.36517955354
 30
0.0
 11
619.9858217142385
 21
2213.585720279992
 31
0.0
  0
LINE
  5
78EB
330
78E6
100
AcDbEntity
  8
Dim
 62
     0
370
    -2
100
AcDbLine
 10
529.985211362676
 20
2213.585720279992
 30
0.0
 11
609.986432065801
 21
2213.585720279992
 31
0.0
  0
INSERT
  5
78EC
330
78E6
100
AcDbEntity
  8
Dim
 62
     0
370
    -2
100
AcDbBlockReference
  2
_DOT
 10
519.9858217142385
 20
2213.585720279992
 30
0.0
 41
9.999389648437498
 42
9.999389648437498
 43
9.999389648437498
 50
180.0
  0
INSERT
  5
78ED
330
78E6
100
AcDbEntity
  8
Dim
 62
     0
370
    -2
100
AcDbBlockReference
  2
_DOT
 10
619.9858217142385
 20
2213.585720279992
 30
0.0
 41
9.999389648437498
 42
9.999389648437498
 43
9.999389648437498
  0
MTEXT
  5
78EE
330
78E6
100
AcDbEntity
  8
Dim
 62
     0
100
AcDbMText
 10
569.9858217142385
 20
2235.806611708028
 30
0.0
 40
24.4326171875
 41
0.0
 46
0.0
 71
     5
 72
     1
  1
\A1;100
  7
ＭＳ ゴシック
 73
     1
 44
1.0
  0
POINT
  5
78EF
330
78E6
100
AcDbEntity
  8
Defpoints
 62
     0
100
AcDbPoint
 10
519.9858217142385
 20
2119.86517955354
 30
0.0
  0
POINT
  5
78F0
330
78E6
100
AcDbEntity
  8
Defpoints
 62
     0
100
AcDbPoint
 10
619.9858217142385
 20
2121.36517955354
 30
0.0
  0
POINT
  5
78F1
330
78E6
100
AcDbEntity
  8
Defpoints
 62
     0
100
AcDbPoint
 10
619.9858217142385
 20
2213.585720279992
 30
0.0
  0
ENDBLK
  5
78E8
330
78E6
100
AcDbEntity
  8
0
100
AcDbBlockEnd
  0
BLOCK
  5
78F3
330
78F2
100
AcDbEntity
  8
0
100
AcDbBlockBegin
  2
*D11
 70
     1
 10
0.0
 20
0.0
 30
0.0
  3
*D11
  1

  0
LINE
  5
78F5
330
78F2
100
AcDbEntity
  8
Dim
 62
     0
370
    -2
100
AcDbLine
 10
719.9858217142385
 20
2144.86517955354
 30
0.0
 11
719.9858217142385
 21
2213.585720279992
 31
0.0
  0
LINE
  5
78F6
330
78F2
100
AcDbEntity
  8
Dim
 62
     0
370
    -2
100
AcDbLine
 10
619.9858217142385
 20
2146.36517955354
 30
0.0
 11
619.9858217142385
 21
2213.585720279992
 31
0.0
  0
LINE
  5
78F7
330
78F2
100
AcDbEntity
  8
Dim
 62
     0
370
    -2
100
AcDbLine
 10
709.986432065801
 20
2213.585720279992
 30
0.0
 11
629.985211362676
 21
2213.585720279992
 31
0.0
  0
INSERT
  5
78F8
330
78F2
100
AcDbEntity
  8
Dim
 62
     0
370
    -2
100
AcDbBlockReference
  2
_DOT
 10
719.9858217142385
 20
2213.585720279992
 30
0.0
 41
9.999389648437498
 42
9.999389648437498
 43
9.999389648437498
  0
INSERT
  5
78F9
330
78F2
100
AcDbEntity
  8
Dim
 62
     0
370
    -2
100
AcDbBlockReference
  2
_DOT
 10
619.9858217142385
 20
2213.585720279992
 30
0.0
 41
9.999389648437498
 42
9.999389648437498
 43
9.999389648437498
 50
180.0
  0
MTEXT
  5
78FA
330
78F2
100
AcDbEntity
  8
Dim
 62
     0
100
AcDbMText
 10
669.9858217142385
 20
2235.806611708028
 30
0.0
 40
24.4326171875
 41
0.0
 46
0.0
 71
     5
 72
     1
  1
\A1;100
  7
ＭＳ ゴシック
 73
     1
 44
1.0
  0
POINT
  5
78FB
330
78F2
100
AcDbEntity
  8
Defpoints
 62
     0
100
AcDbPoint
 10
719.9858217142385
 20
2119.86517955354
 30
0.0
  0
POINT
  5
78FC
330
78F2
100
AcDbEntity
  8
Defpoints
 62
     0
100
AcDbPoint
 10
619.9858217142385
 20
2121.36517955354
 30
0.0
  0
POINT
  5
78FD
330
78F2
100
AcDbEntity
  8
Defpoints
 62
     0
100
AcDbPoint
 10
619.9858217142385
 20
2213.585720279992
 30
0.0
  0
ENDBLK
  5
78F4
330
78F2
100
AcDbEntity
  8
0
100
AcDbBlockEnd
  0
BLOCK
  5
7915
330
7914
100
AcDbEntity
  8
0
100
AcDbBlockBegin
  2
*D12
 70
     1
 10
0.0
 20
0.0
 30
0.0
  3
*D12
  1

  0
LINE
  5
7917
330
7914
100
AcDbEntity
  8
Dim
 62
     0
370
    -2
100
AcDbLine
 10
344.9858217142385
 20
2191.215179553531
 30
0.0
 11
344.9858217142385
 21
2274.819256341575
 31
0.0
  0
LINE
  5
7918
330
7914
100
AcDbEntity
  8
Dim
 62
     0
370
    -2
100
AcDbLine
 10
894.9858217142385
 20
2191.215179553531
 30
0.0
 11
894.9858217142385
 21
2274.819256341575
 31
0.0
  0
LINE
  5
7919
330
7914
100
AcDbEntity
  8
Dim
 62
     0
370
    -2
100
AcDbLine
 10
354.985211362676
 20
2274.819256341575
 30
0.0
 11
884.986432065801
 21
2274.819256341575
 31
0.0
  0
INSERT
  5
791A
330
7914
100
AcDbEntity
  8
Dim
 62
     0
370
    -2
100
AcDbBlockReference
  2
_DOT
 10
344.9858217142385
 20
2274.819256341575
 30
0.0
 41
9.999389648437498
 42
9.999389648437498
 43
9.999389648437498
 50
180.0
  0
INSERT
  5
791B
330
7914
100
AcDbEntity
  8
Dim
 62
     0
370
    -2
100
AcDbBlockReference
  2
_DOT
 10
894.9858217142385
 20
2274.819256341575
 30
0.0
 41
9.999389648437498
 42
9.999389648437498
 43
9.999389648437498
  0
MTEXT
  5
791C
330
7914
100
AcDbEntity
  8
Dim
 62
     0
100
AcDbMText
 10
619.9858217142385
 20
2297.04014776961
 30
0.0
 40
24.4326171875
 41
0.0
 46
0.0
 71
     5
 72
     1
  1
\A1;550
  7
ＭＳ ゴシック
 73
     1
 44
1.0
  0
POINT
  5
791D
330
7914
100
AcDbEntity
  8
Defpoints
 62
     0
100
AcDbPoint
 10
344.9858217142385
 20
2166.215179553531
 30
0.0
  0
POINT
  5
791E
330
7914
100
AcDbEntity
  8
Defpoints
 62
     0
100
AcDbPoint
 10
894.9858217142385
 20
2166.215179553531
 30
0.0
  0
POINT
  5
791F
330
7914
100
AcDbEntity
  8
Defpoints
 62
     0
100
AcDbPoint
 10
894.9858217142385
 20
2274.819256341575
 30
0.0
  0
ENDBLK
  5
7916
330
7914
100
AcDbEntity
  8
0
100
AcDbBlockEnd
  0
BLOCK
  5
7924
330
7923
100
AcDbEntity
  8
0
100
AcDbBlockBegin
  2
*D13
 70
     1
 10
0.0
 20
0.0
 30
0.0
  3
*D13
  1

  0
LINE
  5
7926
330
7923
100
AcDbEntity
  8
Dim
 62
     0
370
    -2
100
AcDbLine
 10
919.9858217142385
 20
2166.215179553531
 30
0.0
 11
997.658761489074
 21
2166.215179553531
 31
0.0
  0
LINE
  5
7927
330
7923
100
AcDbEntity
  8
Dim
 62
     0
370
    -2
100
AcDbLine
 10
916.9876488678199
 20
1816.215179553531
 30
0.0
 11
997.658761489074
 21
1816.215179553531
 31
0.0
  0
LINE
  5
7928
330
7923
100
AcDbEntity
  8
Dim
 62
     0
370
    -2
100
AcDbLine
 10
997.658761489074
 20
2156.215789905094
 30
0.0
 11
997.658761489074
 21
1826.214569201968
 31
0.0
  0
INSERT
  5
7929
330
7923
100
AcDbEntity
  8
Dim
 62
     0
370
    -2
100
AcDbBlockReference
  2
_DOT
 10
997.658761489074
 20
2166.215179553531
 30
0.0
 41
9.999389648437498
 42
9.999389648437498
 43
9.999389648437498
 50
90.0
  0
INSERT
  5
792A
330
7923
100
AcDbEntity
  8
Dim
 62
     0
370
    -2
100
AcDbBlockReference
  2
_DOT
 10
997.658761489074
 20
1816.215179553531
 30
0.0
 41
9.999389648437498
 42
9.999389648437498
 43
9.999389648437498
 50
270.0
  0
MTEXT
  5
792B
330
7923
100
AcDbEntity
  8
Dim
 62
     0
100
AcDbMText
 10
975.4378700610386
 20
1991.215179553531
 30
0.0
 40
24.4326171875
 41
0.0
 46
0.0
 71
     5
 72
     1
  1
\A1;350
  7
ＭＳ ゴシック
 11
0.0
 21
1.0
 31
0.0
 73
     1
 44
1.0
  0
POINT
  5
792C
330
7923
100
AcDbEntity
  8
Defpoints
 62
     0
100
AcDbPoint
 10
894.9858217142385
 20
2166.215179553531
 30
0.0
  0
POINT
  5
792D
330
7923
100
AcDbEntity
  8
Defpoints
 62
     0
100
AcDbPoint
 10
891.9876488678199
 20
1816.215179553531
 30
0.0
  0
POINT
  5
792E
330
7923
100
AcDbEntity
  8
Defpoints
 62
     0
100
AcDbPoint
 10
997.658761489074
 20
1816.215179553531
 30
0.0
  0
ENDBLK
  5
7925
330
7923
100
AcDbEntity
  8
0
100
AcDbBlockEnd
  0
BLOCK
  5
7931
330
7930
100
AcDbEntity
  8
0
100
AcDbBlockBegin
  2
*D14
 70
     1
 10
0.0
 20
0.0
 30
0.0
  3
*D14
  1

  0
LINE
  5
7933
330
7930
100
AcDbEntity
  8
Dim
 62
     0
370
    -2
100
AcDbLine
 10
354.9858217142353
 20
1798.728214467044
 30
0.0
 11
354.9858217142354
 21
1719.839767764392
 31
0.0
  0
LINE
  5
7934
330
7930
100
AcDbEntity
  8
Dim
 62
     0
370
    -2
100
AcDbLine
 10
884.9858217142354
 20
1798.728214467044
 30
0.0
 11
884.9858217142354
 21
1719.839767764392
 31
0.0
  0
LINE
  5
7935
330
7930
100
AcDbEntity
  8
Dim
 62
     0
370
    -2
100
AcDbLine
 10
364.9852113626729
 20
1719.839767764392
 30
0.0
 11
874.9864320657979
 21
1719.839767764392
 31
0.0
  0
INSERT
  5
7936
330
7930
100
AcDbEntity
  8
Dim
 62
     0
370
    -2
100
AcDbBlockReference
  2
_DOT
 10
354.9858217142354
 20
1719.839767764392
 30
0.0
 41
9.999389648437498
 42
9.999389648437498
 43
9.999389648437498
 50
180.0
  0
INSERT
  5
7937
330
7930
100
AcDbEntity
  8
Dim
 62
     0
370
    -2
100
AcDbBlockReference
  2
_DOT
 10
884.9858217142354
 20
1719.839767764392
 30
0.0
 41
9.999389648437498
 42
9.999389648437498
 43
9.999389648437498
  0
MTEXT
  5
7938
330
7930
100
AcDbEntity
  8
Dim
 62
     0
100
AcDbMText
 10
619.9858217142354
 20
1742.060659192427
 30
0.0
 40
24.4326171875
 41
0.0
 46
0.0
 71
     5
 72
     1
  1
\A1;530
  7
ＭＳ ゴシック
 73
     1
 44
1.0
  0
POINT
  5
7939
330
7930
100
AcDbEntity
  8
Defpoints
 62
     0
100
AcDbPoint
 10
354.9858217142353
 20
1823.728214467044
 30
0.0
  0
POINT
  5
793A
330
7930
100
AcDbEntity
  8
Defpoints
 62
     0
100
AcDbPoint
 10
884.9858217142354
 20
1823.728214467044
 30
0.0
  0
POINT
  5
793B
330
7930
100
AcDbEntity
  8
Defpoints
 62
     0
100
AcDbPoint
 10
884.9858217142354
 20
1719.839767764392
 30
0.0
  0
ENDBLK
  5
7932
330
7930
100
AcDbEntity
  8
0
100
AcDbBlockEnd
  0
BLOCK
  5
7942
330
7941
100
AcDbEntity
  8
0
100
AcDbBlockBegin
  2
*D15
 70
     1
 10
0.0
 20
0.0
 30
0.0
  3
*D15
  1

  0
LINE
  5
7944
330
7941
100
AcDbEntity
  8
Dim
 62
     0
370
    -2
100
AcDbLine
 10
331.7068373505663
 20
2166.215179553531
 30
0.0
 11
273.1132548663559
 21
2166.215179553531
 31
0.0
  0
LINE
  5
7945
330
7941
100
AcDbEntity
  8
Dim
 62
     0
370
    -2
100
AcDbLine
 10
331.7068373505663
 20
2066.215179553531
 30
0.0
 11
273.1132548663559
 21
2066.215179553531
 31
0.0
  0
LINE
  5
7946
330
7941
100
AcDbEntity
  8
Dim
 62
     0
370
    -2
100
AcDbLine
 10
273.1132548663559
 20
2156.215789905094
 30
0.0
 11
273.1132548663559
 21
2076.214569201969
 31
0.0
  0
INSERT
  5
7947
330
7941
100
AcDbEntity
  8
Dim
 62
     0
370
    -2
100
AcDbBlockReference
  2
_DOT
 10
273.1132548663559
 20
2166.215179553531
 30
0.0
 41
9.999389648437498
 42
9.999389648437498
 43
9.999389648437498
 50
90.0
  0
INSERT
  5
7948
330
7941
100
AcDbEntity
  8
Dim
 62
     0
370
    -2
100
AcDbBlockReference
  2
_DOT
 10
273.1132548663559
 20
2066.215179553531
 30
0.0
 41
9.999389648437498
 42
9.999389648437498
 43
9.999389648437498
 50
270.0
  0
MTEXT
  5
7949
330
7941
100
AcDbEntity
  8
Dim
 62
     0
100
AcDbMText
 10
250.8923634383204
 20
2116.215179553531
 30
0.0
 40
24.4326171875
 41
0.0
 46
0.0
 71
     5
 72
     1
  1
\A1;100
  7
ＭＳ ゴシック
 11
0.0
 21
1.0
 31
0.0
 73
     1
 44
1.0
  0
POINT
  5
794A
330
7941
100
AcDbEntity
  8
Defpoints
 62
     0
100
AcDbPoint
 10
356.7068373505663
 20
2166.215179553531
 30
0.0
  0
POINT
  5
794B
330
7941
100
AcDbEntity
  8
Defpoints
 62
     0
100
AcDbPoint
 10
356.7068373505663
 20
2066.215179553531
 30
0.0
  0
POINT
  5
794C
330
7941
100
AcDbEntity
  8
Defpoints
 62
     0
100
AcDbPoint
 10
273.1132548663559
 20
2066.215179553531
 30
0.0
  0
ENDBLK
  5
7943
330
7941
100
AcDbEntity
  8
0
100
AcDbBlockEnd
  0
BLOCK
  5
7951
330
7950
100
AcDbEntity
  8
0
100
AcDbBlockBegin
  2
*D16
 70
     1
 10
0.0
 20
0.0
 30
0.0
  3
*D16
  1

  0
LINE
  5
7953
330
7950
100
AcDbEntity
  8
Dim
 62
     0
370
    -2
100
AcDbLine
 10
331.7068373505663
 20
2066.215179553531
 30
0.0
 11
273.1132548663559
 21
2066.215179553531
 31
0.0
  0
LINE
  5
7954
330
7950
100
AcDbEntity
  8
Dim
 62
     0
370
    -2
100
AcDbLine
 10
326.5014798638545
 20
1826.271635665733
 30
0.0
 11
273.1132548663559
 21
1826.271635665733
 31
0.0
  0
LINE
  5
7955
330
7950
100
AcDbEntity
  8
Dim
 62
     0
370
    -2
100
AcDbLine
 10
273.1132548663559
 20
2056.215789905094
 30
0.0
 11
273.1132548663559
 21
1836.271025314171
 31
0.0
  0
INSERT
  5
7956
330
7950
100
AcDbEntity
  8
Dim
 62
     0
370
    -2
100
AcDbBlockReference
  2
_DOT
 10
273.1132548663559
 20
2066.215179553531
 30
0.0
 41
9.999389648437498
 42
9.999389648437498
 43
9.999389648437498
 50
90.0
  0
INSERT
  5
7957
330
7950
100
AcDbEntity
  8
Dim
 62
     0
370
    -2
100
AcDbBlockReference
  2
_DOT
 10
273.1132548663559
 20
1826.271635665733
 30
0.0
 41
9.999389648437498
 42
9.999389648437498
 43
9.999389648437498
 50
270.0
  0
MTEXT
  5
7958
330
7950
100
AcDbEntity
  8
Dim
 62
     0
100
AcDbMText
 10
250.8923634383204
 20
1946.243407609632
 30
0.0
 40
24.4326171875
 41
0.0
 46
0.0
 71
     5
 72
     1
  1
\A1;240
  7
ＭＳ ゴシック
 11
0.0
 21
1.0
 31
0.0
 73
     1
 44
1.0
  0
POINT
  5
7959
330
7950
100
AcDbEntity
  8
Defpoints
 62
     0
100
AcDbPoint
 10
356.7068373505663
 20
2066.215179553531
 30
0.0
  0
POINT
  5
795A
330
7950
100
AcDbEntity
  8
Defpoints
 62
     0
100
AcDbPoint
 10
351.5014798638545
 20
1826.271635665733
 30
0.0
  0
POINT
  5
795B
330
7950
100
AcDbEntity
  8
Defpoints
 62
     0
100
AcDbPoint
 10
273.1132548663559
 20
1826.271635665733
 30
0.0
  0
ENDBLK
  5
7952
330
7950
100
AcDbEntity
  8
0
100
AcDbBlockEnd
  0
BLOCK
  5
7961
330
7960
100
AcDbEntity
  8
0
100
AcDbBlockBegin
  2
*D17
 70
     1
 10
0.0
 20
0.0
 30
0.0
  3
*D17
  1

  0
LINE
  5
7963
330
7960
100
AcDbEntity
  8
Dim
 62
     0
370
    -2
100
AcDbLine
 10
903.6813343975078
 20
1031.881344873168
 30
0.0
 11
982.8202990632259
 21
1031.881344873168
 31
0.0
  0
LINE
  5
7964
330
7960
100
AcDbEntity
  8
Dim
 62
     0
370
    -2
100
AcDbLine
 10
903.6813343975078
 20
911.881344873168
 30
0.0
 11
982.8202990632259
 21
911.881344873168
 31
0.0
  0
LINE
  5
7965
330
7960
100
AcDbEntity
  8
Dim
 62
     0
370
    -2
100
AcDbLine
 10
982.8202990632259
 20
1021.881955224731
 30
0.0
 11
982.8202990632259
 21
921.8807345216055
 31
0.0
  0
INSERT
  5
7966
330
7960
100
AcDbEntity
  8
Dim
 62
     0
370
    -2
100
AcDbBlockReference
  2
_DOT
 10
982.8202990632259
 20
1031.881344873168
 30
0.0
 41
9.999389648437498
 42
9.999389648437498
 43
9.999389648437498
 50
90.0
  0
INSERT
  5
7967
330
7960
100
AcDbEntity
  8
Dim
 62
     0
370
    -2
100
AcDbBlockReference
  2
_DOT
 10
982.8202990632259
 20
911.881344873168
 30
0.0
 41
9.999389648437498
 42
9.999389648437498
 43
9.999389648437498
 50
270.0
  0
MTEXT
  5
7968
330
7960
100
AcDbEntity
  8
Dim
 62
     0
100
AcDbMText
 10
960.5994076351903
 20
971.881344873168
 30
0.0
 40
24.4326171875
 41
0.0
 46
0.0
 71
     5
 72
     1
  1
\A1;120
  7
ＭＳ ゴシック
 11
0.0
 21
1.0
 31
0.0
 73
     1
 44
1.0
  0
POINT
  5
7969
330
7960
100
AcDbEntity
  8
Defpoints
 62
     0
100
AcDbPoint
 10
878.6813343975078
 20
1031.881344873168
 30
0.0
  0
POINT
  5
796A
330
7960
100
AcDbEntity
  8
Defpoints
 62
     0
100
AcDbPoint
 10
878.6813343975078
 20
911.881344873168
 30
0.0
  0
POINT
  5
796B
330
7960
100
AcDbEntity
  8
Defpoints
 62
     0
100
AcDbPoint
 10
982.8202990632259
 20
911.881344873168
 30
0.0
  0
ENDBLK
  5
7962
330
7960
100
AcDbEntity
  8
0
100
AcDbBlockEnd
  0
BLOCK
  5
796E
330
796D
100
AcDbEntity
  8
0
100
AcDbBlockBegin
  2
*D18
 70
     1
 10
0.0
 20
0.0
 30
0.0
  3
*D18
  1

  0
LINE
  5
7970
330
796D
100
AcDbEntity
  8
Dim
 62
     0
370
    -2
100
AcDbLine
 10
320.6178026808648
 20
1031.881344873168
 30
0.0
 11
261.6325811730413
 21
1031.881344873168
 31
0.0
  0
LINE
  5
7971
330
796D
100
AcDbEntity
  8
Dim
 62
     0
370
    -2
100
AcDbLine
 10
320.6178026808648
 20
986.881344873168
 30
0.0
 11
261.6325811730413
 21
986.881344873168
 31
0.0
  0
LINE
  5
7972
330
796D
100
AcDbEntity
  8
Dim
 62
     0
370
    -2
100
AcDbLine
 10
261.6325811730413
 20
1021.881955224731
 30
0.0
 11
261.6325811730413
 21
996.8807345216055
 31
0.0
  0
INSERT
  5
7973
330
796D
100
AcDbEntity
  8
Dim
 62
     0
370
    -2
100
AcDbBlockReference
  2
_DOT
 10
261.6325811730413
 20
1031.881344873168
 30
0.0
 41
9.999389648437498
 42
9.999389648437498
 43
9.999389648437498
 50
90.0
  0
INSERT
  5
7974
330
796D
100
AcDbEntity
  8
Dim
 62
     0
370
    -2
100
AcDbBlockReference
  2
_DOT
 10
261.6325811730413
 20
986.881344873168
 30
0.0
 41
9.999389648437498
 42
9.999389648437498
 43
9.999389648437498
 50
270.0
  0
MTEXT
  5
7975
330
796D
100
AcDbEntity
  8
Dim
 62
     0
100
AcDbMText
 10
239.4116897450058
 20
1009.381344873168
 30
0.0
 40
24.4326171875
 41
0.0
 46
0.0
 71
     5
 72
     1
  1
\A1;45
  7
ＭＳ ゴシック
 11
0.0
 21
1.0
 31
0.0
 73
     1
 44
1.0
  0
POINT
  5
7976
330
796D
100
AcDbEntity
  8
Defpoints
 62
     0
100
AcDbPoint
 10
345.6178026808648
 20
1031.881344873168
 30
0.0
  0
POINT
  5
7977
330
796D
100
AcDbEntity
  8
Defpoints
 62
     0
100
AcDbPoint
 10
345.6178026808648
 20
986.881344873168
 30
0.0
  0
POINT
  5
7978
330
796D
100
AcDbEntity
  8
Defpoints
 62
     0
100
AcDbPoint
 10
261.6325811730413
 20
986.881344873168
 30
0.0
  0
ENDBLK
  5
796F
330
796D
100
AcDbEntity
  8
0
100
AcDbBlockEnd
  0
BLOCK
  5
7998
330
7997
100
AcDbEntity
  8
0
100
AcDbBlockBegin
  2
*D19
 70
     1
 10
0.0
 20
0.0
 30
0.0
  3
*D19
  1

  0
LINE
  5
799A
330
7997
100
AcDbEntity
  8
Dim
 62
     0
370
    -2
100
AcDbLine
 10
479.9857541518159
 20
1041.814472169586
 30
0.0
 11
479.9857541518159
 21
1129.932894565483
 31
0.0
  0
LINE
  5
799B
330
7997
100
AcDbEntity
  8
Dim
 62
     0
370
    -2
100
AcDbLine
 10
759.9858892766749
 20
1041.814472169586
 30
0.0
 11
759.9858892766749
 21
1129.932894565483
 31
0.0
  0
LINE
  5
799C
330
7997
100
AcDbEntity
  8
Dim
 62
     0
370
    -2
100
AcDbLine
 10
489.9851438002534
 20
1129.932894565483
 30
0.0
 11
749.9864996282374
 21
1129.932894565483
 31
0.0
  0
INSERT
  5
799D
330
7997
100
AcDbEntity
  8
Dim
 62
     0
370
    -2
100
AcDbBlockReference
  2
_DOT
 10
479.9857541518159
 20
1129.932894565483
 30
0.0
 41
9.999389648437498
 42
9.999389648437498
 43
9.999389648437498
 50
180.0
  0
INSERT
  5
799E
330
7997
100
AcDbEntity
  8
Dim
 62
     0
370
    -2
100
AcDbBlockReference
  2
_DOT
 10
759.9858892766749
 20
1129.932894565483
 30
0.0
 41
9.999389648437498
 42
9.999389648437498
 43
9.999389648437498
  0
MTEXT
  5
799F
330
7997
100
AcDbEntity
  8
Dim
 62
     0
100
AcDbMText
 10
619.9858217142454
 20
1152.153785993518
 30
0.0
 40
24.4326171875
 41
0.0
 46
0.0
 71
     5
 72
     1
  1
\A1;280
  7
ＭＳ ゴシック
 73
     1
 44
1.0
  0
POINT
  5
79A0
330
7997
100
AcDbEntity
  8
Defpoints
 62
     0
100
AcDbPoint
 10
479.9857541518159
 20
1016.814472169586
 30
0.0
  0
POINT
  5
79A1
330
7997
100
AcDbEntity
  8
Defpoints
 62
     0
100
AcDbPoint
 10
759.9858892766749
 20
1016.814472169586
 30
0.0
  0
POINT
  5
79A2
330
7997
100
AcDbEntity
  8
Defpoints
 62
     0
100
AcDbPoint
 10
759.9858892766749
 20
1129.932894565483
 30
0.0
  0
ENDBLK
  5
7999
330
7997
100
AcDbEntity
  8
0
100
AcDbBlockEnd
  0
BLOCK
  5
79A8
330
79A7
100
AcDbEntity
  8
0
100
AcDbBlockBegin
  2
*D20
 70
     1
 10
0.0
 20
0.0
 30
0.0
  3
*D20
  1

  0
LINE
  5
79AA
330
79A7
100
AcDbEntity
  8
Dim
 62
     0
370
    -2
100
AcDbLine
 10
1657.641851025628
 20
897.4789331105869
 30
0.0
 11
1657.641851025628
 21
836.9527911529585
 31
0.0
  0
LINE
  5
79AB
330
79A7
100
AcDbEntity
  8
Dim
 62
     0
370
    -2
100
AcDbLine
 10
1477.641851025628
 20
897.4789331105868
 30
0.0
 11
1477.641851025628
 21
836.9527911529585
 31
0.0
  0
LINE
  5
79AC
330
79A7
100
AcDbEntity
  8
Dim
 62
     0
370
    -2
100
AcDbLine
 10
1647.64246137719
 20
836.9527911529585
 30
0.0
 11
1487.641240674065
 21
836.9527911529585
 31
0.0
  0
INSERT
  5
79AD
330
79A7
100
AcDbEntity
  8
Dim
 62
     0
370
    -2
100
AcDbBlockReference
  2
_DOT
 10
1657.641851025628
 20
836.9527911529585
 30
0.0
 41
9.999389648437498
 42
9.999389648437498
 43
9.999389648437498
  0
INSERT
  5
79AE
330
79A7
100
AcDbEntity
  8
Dim
 62
     0
370
    -2
100
AcDbBlockReference
  2
_DOT
 10
1477.641851025628
 20
836.9527911529585
 30
0.0
 41
9.999389648437498
 42
9.999389648437498
 43
9.999389648437498
 50
180.0
  0
MTEXT
  5
79AF
330
79A7
100
AcDbEntity
  8
Dim
 62
     0
100
AcDbMText
 10
1567.641851025628
 20
859.1736825809941
 30
0.0
 40
24.4326171875
 41
0.0
 46
0.0
 71
     5
 72
     1
  1
\A1;180
  7
ＭＳ ゴシック
 73
     1
 44
1.0
  0
POINT
  5
79B0
330
79A7
100
AcDbEntity
  8
Defpoints
 62
     0
100
AcDbPoint
 10
1657.641851025628
 20
922.4789331105869
 30
0.0
  0
POINT
  5
79B1
330
79A7
100
AcDbEntity
  8
Defpoints
 62
     0
100
AcDbPoint
 10
1477.641851025628
 20
922.4789331105868
 30
0.0
  0
POINT
  5
79B2
330
79A7
100
AcDbEntity
  8
Defpoints
 62
     0
100
AcDbPoint
 10
1477.641851025628
 20
836.9527911529585
 30
0.0
  0
ENDBLK
  5
79A9
330
79A7
100
AcDbEntity
  8
0
100
AcDbBlockEnd
  0
BLOCK
  5
79BB
330
79BA
100
AcDbEntity
  8
0
100
AcDbBlockBegin
  2
*D21
 70
     1
 10
0.0
 20
0.0
 30
0.0
  3
*D21
  1

  0
LINE
  5
79BD
330
79BA
100
AcDbEntity
  8
Dim
 62
     0
370
    -2
100
AcDbLine
 10
1501.17767100071
 20
1031.881344873169
 30
0.0
 11
1477.913911369097
 21
1031.881344873169
 31
0.0
  0
LINE
  5
79BE
330
79BA
100
AcDbEntity
  8
Dim
 62
     0
370
    -2
100
AcDbLine
 10
1501.17767100071
 20
941.881344873169
 30
0.0
 11
1477.913911369097
 21
941.881344873169
 31
0.0
  0
LINE
  5
79BF
330
79BA
100
AcDbEntity
  8
Dim
 62
     0
370
    -2
100
AcDbLine
 10
1477.913911369097
 20
1031.881344873169
 30
0.0
 11
1477.913911369097
 21
1189.910257387726
 31
0.0
  0
LINE
  5
79C0
330
79BA
100
AcDbEntity
  8
Dim
 62
     0
370
    -2
100
AcDbLine
 10
1477.913911369097
 20
1031.881344873169
 30
0.0
 11
1477.913911369097
 21
941.881344873169
 31
0.0
  0
LINE
  5
79C1
330
79BA
100
AcDbEntity
  8
Dim
 62
     0
370
    -2
100
AcDbLine
 10
1477.913911369097
 20
1041.880734521607
 30
0.0
 11
1477.913911369097
 21
1051.880124170044
 31
0.0
  0
LINE
  5
79C2
330
79BA
100
AcDbEntity
  8
Dim
 62
     0
370
    -2
100
AcDbLine
 10
1477.913911369097
 20
931.8819552247315
 30
0.0
 11
1477.913911369097
 21
921.882565576294
 31
0.0
  0
INSERT
  5
79C3
330
79BA
100
AcDbEntity
  8
Dim
 62
     0
370
    -2
100
AcDbBlockReference
  2
_DOT
 10
1477.913911369097
 20
1031.881344873169
 30
0.0
 41
9.999389648437498
 42
9.999389648437498
 43
9.999389648437498
 50
270.0
  0
INSERT
  5
79C4
330
79BA
100
AcDbEntity
  8
Dim
 62
     0
370
    -2
100
AcDbBlockReference
  2
_DOT
 10
1477.913911369097
 20
941.881344873169
 30
0.0
 41
9.999389648437498
 42
9.999389648437498
 43
9.999389648437498
 50
90.0
  0
MTEXT
  5
79C5
330
79BA
100
AcDbEntity
  8
Dim
 62
     0
100
AcDbMText
 10
1453.65213107258
 20
1120.895190778885
 30
0.0
 40
24.4326171875
 41
0.0
 46
0.0
 71
     5
 72
     1
  1
\A1;90(深さ)
  7
ＭＳ ゴシック
 11
0.0
 21
1.0
 31
0.0
 73
     1
 44
1.0
  0
POINT
  5
79C6
330
79BA
100
AcDbEntity
  8
Defpoints
 62
     0
100
AcDbPoint
 10
1476.17767100071
 20
1031.881344873169
 30
0.0
  0
POINT
  5
79C7
330
79BA
100
AcDbEntity
  8
Defpoints
 62
     0
100
AcDbPoint
 10
1476.17767100071
 20
941.881344873169
 30
0.0
  0
POINT
  5
79C8
330
79BA
100
AcDbEntity
  8
Defpoints
 62
     0
100
AcDbPoint
 10
1477.913911369097
 20
941.881344873169
 30
0.0
  0
ENDBLK
  5
79BC
330
79BA
100
AcDbEntity
  8
0
100
AcDbBlockEnd
  0
BLOCK
  5
79CE
330
79CD
100
AcDbEntity
  8
0
100
AcDbBlockBegin
  2
*D22
 70
     1
 10
0.0
 20
0.0
 30
0.0
  3
*D22
  1

  0
LINE
  5
79D0
330
79CD
100
AcDbEntity
  8
Dim
 62
     0
370
    -2
100
AcDbLine
 10
1657.64185102562
 20
1051.464129703937
 30
0.0
 11
1657.64185102562
 21
1097.521241364427
 31
0.0
  0
LINE
  5
79D1
330
79CD
100
AcDbEntity
  8
Dim
 62
     0
370
    -2
100
AcDbLine
 10
1597.64185102562
 20
1051.464129703937
 30
0.0
 11
1597.64185102562
 21
1097.521241364427
 31
0.0
  0
LINE
  5
79D2
330
79CD
100
AcDbEntity
  8
Dim
 62
     0
370
    -2
100
AcDbLine
 10
1647.642461377183
 20
1097.521241364427
 30
0.0
 11
1607.641240674058
 21
1097.521241364427
 31
0.0
  0
INSERT
  5
79D3
330
79CD
100
AcDbEntity
  8
Dim
 62
     0
370
    -2
100
AcDbBlockReference
  2
_DOT
 10
1657.64185102562
 20
1097.521241364427
 30
0.0
 41
9.999389648437498
 42
9.999389648437498
 43
9.999389648437498
  0
INSERT
  5
79D4
330
79CD
100
AcDbEntity
  8
Dim
 62
     0
370
    -2
100
AcDbBlockReference
  2
_DOT
 10
1597.64185102562
 20
1097.521241364427
 30
0.0
 41
9.999389648437498
 42
9.999389648437498
 43
9.999389648437498
 50
180.0
  0
MTEXT
  5
79D5
330
79CD
100
AcDbEntity
  8
Dim
 62
     0
100
AcDbMText
 10
1627.64185102562
 20
1119.737549958177
 30
0.0
 40
24.4326171875
 41
0.0
 46
0.0
 71
     5
 72
     1
  1
\A1;60
  7
ＭＳ ゴシック
 73
     1
 44
1.0
  0
POINT
  5
79D6
330
79CD
100
AcDbEntity
  8
Defpoints
 62
     0
100
AcDbPoint
 10
1657.64185102562
 20
1026.464129703937
 30
0.0
  0
POINT
  5
79D7
330
79CD
100
AcDbEntity
  8
Defpoints
 62
     0
100
AcDbPoint
 10
1597.64185102562
 20
1026.464129703937
 30
0.0
  0
POINT
  5
79D8
330
79CD
100
AcDbEntity
  8
Defpoints
 62
     0
100
AcDbPoint
 10
1597.64185102562
 20
1097.521241364427
 30
0.0
  0
ENDBLK
  5
79CF
330
79CD
100
AcDbEntity
  8
0
100
AcDbBlockEnd
  0
BLOCK
  5
7A62
330
7A61
100
AcDbEntity
  8
0
100
AcDbBlockBegin
  2
*D23
 70
     1
 10
0.0
 20
0.0
 30
0.0
  3
*D23
  1

  0
LINE
  5
7A63
330
7A61
100
AcDbEntity
  8
Dim
 62
     0
370
    -2
100
AcDbLine
 10
523.1756339018837
 20
406.3324722891107
 30
0.0
 11
586.1645161191786
 21
406.3324722891107
 31
0.0
  0
LINE
  5
7A64
330
7A61
100
AcDbEntity
  8
Dim
 62
     0
370
    -2
100
AcDbLine
 10
379.9996948242185
 20
381.3324722891107
 30
0.0
 11
586.1645161191786
 21
381.3324722891107
 31
0.0
  0
LINE
  5
7A65
330
7A61
100
AcDbEntity
  8
Dim
 62
     0
370
    -2
100
AcDbLine
 10
586.1645161191786
 20
406.3324722891107
 30
0.0
 11
586.1645161191786
 21
474.7326032647402
 31
0.0
  0
LINE
  5
7A66
330
7A61
100
AcDbEntity
  8
Dim
 62
     0
370
    -2
100
AcDbLine
 10
586.1645161191786
 20
406.3324722891107
 30
0.0
 11
586.1645161191786
 21
381.3324722891107
 31
0.0
  0
LINE
  5
7A67
330
7A61
100
AcDbEntity
  8
Dim
 62
     0
370
    -2
100
AcDbLine
 10
586.1645161191786
 20
416.3318619375482
 30
0.0
 11
586.1645161191786
 21
426.3312515859857
 31
0.0
  0
LINE
  5
7A68
330
7A61
100
AcDbEntity
  8
Dim
 62
     0
370
    -2
100
AcDbLine
 10
586.1645161191786
 20
371.3330826406732
 30
0.0
 11
586.1645161191786
 21
361.3336929922357
 31
0.0
  0
INSERT
  5
7A69
330
7A61
100
AcDbEntity
  8
Dim
 62
     0
370
    -2
100
AcDbBlockReference
  2
_DOT
 10
586.1645161191786
 20
406.3324722891107
 30
0.0
 41
9.999389648437498
 42
9.999389648437498
 43
9.999389648437498
 50
270.0
  0
INSERT
  5
7A6A
330
7A61
100
AcDbEntity
  8
Dim
 62
     0
370
    -2
100
AcDbBlockReference
  2
_DOT
 10
586.1645161191786
 20
381.3324722891107
 30
0.0
 41
9.999389648437498
 42
9.999389648437498
 43
9.999389648437498
 50
90.0
  0
MTEXT
  5
7A6B
330
7A61
100
AcDbEntity
  8
Dim
 62
     0
100
AcDbMText
 10
563.9436246911432
 20
450.5319274253629
 30
0.0
 40
24.4326171875
 41
0.0
 46
0.0
 71
     5
 72
     1
  1
\A1;25
  7
ＭＳ ゴシック
 11
0.0
 21
1.0
 31
0.0
 73
     1
 44
1.0
  0
POINT
  5
7A6C
330
7A61
100
AcDbEntity
  8
Defpoints
 62
     0
100
AcDbPoint
 10
498.1756339018837
 20
406.3324722891107
 30
0.0
  0
POINT
  5
7A6D
330
7A61
100
AcDbEntity
  8
Defpoints
 62
     0
100
AcDbPoint
 10
354.9996948242185
 20
381.3324722891107
 30
0.0
  0
POINT
  5
7A6E
330
7A61
100
AcDbEntity
  8
Defpoints
 62
     0
100
AcDbPoint
 10
586.1645161191786
 20
381.3324722891107
 30
0.0
  0
ENDBLK
  5
7A6F
330
7A61
100
AcDbEntity
  8
0
100
AcDbBlockEnd
  0
BLOCK
  5
7A73
330
7A72
100
AcDbEntity
  8
0
100
AcDbBlockBegin
  2
*D24
 70
     1
 10
0.0
 20
0.0
 30
0.0
  3
*D24
  1

  0
LINE
  5
7A74
330
7A72
100
AcDbEntity
  8
Dim
 62
     0
370
    -2
100
AcDbLine
 10
548.1756339018837
 20
381.3324722891107
 30
0.0
 11
586.1645161191786
 21
381.3324722891107
 31
0.0
  0
LINE
  5
7A75
330
7A72
100
AcDbEntity
  8
Dim
 62
     0
370
    -2
100
AcDbLine
 10
379.9996948242185
 20
161.3324722891107
 30
0.0
 11
586.1645161191786
 21
161.3324722891107
 31
0.0
  0
LINE
  5
7A76
330
7A72
100
AcDbEntity
  8
Dim
 62
     0
370
    -2
100
AcDbLine
 10
586.1645161191786
 20
371.3330826406732
 30
0.0
 11
586.1645161191786
 21
171.3318619375482
 31
0.0
  0
INSERT
  5
7A77
330
7A72
100
AcDbEntity
  8
Dim
 62
     0
370
    -2
100
AcDbBlockReference
  2
_DOT
 10
586.1645161191786
 20
381.3324722891107
 30
0.0
 41
9.999389648437498
 42
9.999389648437498
 43
9.999389648437498
 50
90.0
  0
INSERT
  5
7A78
330
7A72
100
AcDbEntity
  8
Dim
 62
     0
370
    -2
100
AcDbBlockReference
  2
_DOT
 10
586.1645161191786
 20
161.3324722891107
 30
0.0
 41
9.999389648437498
 42
9.999389648437498
 43
9.999389648437498
 50
270.0
  0
MTEXT
  5
7A79
330
7A72
100
AcDbEntity
  8
Dim
 62
     0
100
AcDbMText
 10
563.9436246911432
 20
271.3324722891107
 30
0.0
 40
24.4326171875
 41
0.0
 46
0.0
 71
     5
 72
     1
  1
\A1;220
  7
ＭＳ ゴシック
 11
0.0
 21
1.0
 31
0.0
 73
     1
 44
1.0
  0
POINT
  5
7A7A
330
7A72
100
AcDbEntity
  8
Defpoints
 62
     0
100
AcDbPoint
 10
523.1756339018837
 20
381.3324722891107
 30
0.0
  0
POINT
  5
7A7B
330
7A72
100
AcDbEntity
  8
Defpoints
 62
     0
100
AcDbPoint
 10
354.9996948242185
 20
161.3324722891107
 30
0.0
  0
POINT
  5
7A7C
330
7A72
100
AcDbEntity
  8
Defpoints
 62
     0
100
AcDbPoint
 10
586.1645161191786
 20
161.3324722891107
 30
0.0
  0
ENDBLK
  5
7A7D
330
7A72
100
AcDbEntity
  8
0
100
AcDbBlockEnd
  0
BLOCK
  5
7A80
330
7A7F
100
AcDbEntity
  8
0
100
AcDbBlockBegin
  2
*D25
 70
     1
 10
0.0
 20
0.0
 30
0.0
  3
*D25
  1

  0
LINE
  5
7A81
330
7A7F
100
AcDbEntity
  8
Dim
 62
     0
370
    -2
100
AcDbLine
 10
4.99969482421875
 20
143.5720021717013
 30
0.0
 11
4.99969482421875
 21
4.99969482421875
 31
0.0
  0
LINE
  5
7A82
330
7A7F
100
AcDbEntity
  8
Dim
 62
     0
370
    -2
100
AcDbLine
 10
354.9996948242188
 20
143.5720021717013
 30
0.0
 11
354.9996948242188
 21
4.99969482421875
 31
0.0
  0
LINE
  5
7A83
330
7A7F
100
AcDbEntity
  8
Dim
 62
     0
370
    -2
100
AcDbLine
 10
14.99908447265625
 20
4.99969482421875
 30
0.0
 11
345.0003051757812
 21
4.99969482421875
 31
0.0
  0
INSERT
  5
7A84
330
7A7F
100
AcDbEntity
  8
Dim
 62
     0
370
    -2
100
AcDbBlockReference
  2
_DOT
 10
4.99969482421875
 20
4.99969482421875
 30
0.0
 41
9.999389648437498
 42
9.999389648437498
 43
9.999389648437498
 50
180.0
  0
INSERT
  5
7A85
330
7A7F
100
AcDbEntity
  8
Dim
 62
     0
370
    -2
100
AcDbBlockReference
  2
_DOT
 10
354.9996948242188
 20
4.99969482421875
 30
0.0
 41
9.999389648437498
 42
9.999389648437498
 43
9.999389648437498
  0
MTEXT
  5
7A86
330
7A7F
100
AcDbEntity
  8
Dim
 62
     0
100
AcDbMText
 10
179.9996948242188
 20
27.22058625225426
 30
0.0
 40
24.4326171875
 41
0.0
 46
0.0
 71
     5
 72
     1
  1
\A1;350
  7
ＭＳ ゴシック
 73
     1
 44
1.0
  0
POINT
  5
7A87
330
7A7F
100
AcDbEntity
  8
Defpoints
 62
     0
100
AcDbPoint
 10
4.99969482421875
 20
168.5720021717013
 30
0.0
  0
POINT
  5
7A88
330
7A7F
100
AcDbEntity
  8
Defpoints
 62
     0
100
AcDbPoint
 10
354.9996948242188
 20
168.5720021717013
 30
0.0
  0
POINT
  5
7A89
330
7A7F
100
AcDbEntity
  8
Defpoints
 62
     0
100
AcDbPoint
 10
354.9996948242188
 20
4.99969482421875
 30
0.0
  0
ENDBLK
  5
7A8A
330
7A7F
100
AcDbEntity
  8
0
100
AcDbBlockEnd
  0
BLOCK
  5
7A9D
330
7A9C
100
AcDbEntity
  8
0
100
AcDbBlockBegin
  2
*D26
 70
     1
 10
0.0
 20
0.0
 30
0.0
  3
*D26
  1

  0
LINE
  5
7A9F
330
7A9C
100
AcDbEntity
  8
Dim
 62
     0
370
    -2
100
AcDbLine
 10
1756.186406636002
 20
2166.215179553531
 30
0.0
 11
1799.989104412404
 21
2166.215179553531
 31
0.0
  0
LINE
  5
7AA0
330
7A9C
100
AcDbEntity
  8
Dim
 62
     0
370
    -2
100
AcDbLine
 10
1656.186406636002
 20
2141.215179553531
 30
0.0
 11
1799.989104412404
 21
2141.215179553531
 31
0.0
  0
LINE
  5
7AA1
330
7A9C
100
AcDbEntity
  8
Dim
 62
     0
370
    -2
100
AcDbLine
 10
1799.989104412404
 20
2166.215179553531
 30
0.0
 11
1799.989104412404
 21
2234.615310529161
 31
0.0
  0
LINE
  5
7AA2
330
7A9C
100
AcDbEntity
  8
Dim
 62
     0
370
    -2
100
AcDbLine
 10
1799.989104412404
 20
2166.215179553531
 30
0.0
 11
1799.989104412404
 21
2141.215179553531
 31
0.0
  0
LINE
  5
7AA3
330
7A9C
100
AcDbEntity
  8
Dim
 62
     0
370
    -2
100
AcDbLine
 10
1799.989104412404
 20
2176.214569201969
 30
0.0
 11
1799.989104412404
 21
2186.213958850406
 31
0.0
  0
LINE
  5
7AA4
330
7A9C
100
AcDbEntity
  8
Dim
 62
     0
370
    -2
100
AcDbLine
 10
1799.989104412404
 20
2131.215789905094
 30
0.0
 11
1799.989104412404
 21
2121.216400256656
 31
0.0
  0
INSERT
  5
7AA5
330
7A9C
100
AcDbEntity
  8
Dim
 62
     0
370
    -2
100
AcDbBlockReference
  2
_DOT
 10
1799.989104412404
 20
2166.215179553531
 30
0.0
 41
9.999389648437498
 42
9.999389648437498
 43
9.999389648437498
 50
270.0
  0
INSERT
  5
7AA6
330
7A9C
100
AcDbEntity
  8
Dim
 62
     0
370
    -2
100
AcDbBlockReference
  2
_DOT
 10
1799.989104412404
 20
2141.215179553531
 30
0.0
 41
9.999389648437498
 42
9.999389648437498
 43
9.999389648437498
 50
90.0
  0
MTEXT
  5
7AA7
330
7A9C
100
AcDbEntity
  8
Dim
 62
     0
100
AcDbMText
 10
1777.768212984369
 20
2210.414634689783
 30
0.0
 40
24.4326171875
 41
0.0
 46
0.0
 71
     5
 72
     1
  1
\A1;25
  7
ＭＳ ゴシック
 11
0.0
 21
1.0
 31
0.0
 73
     1
 44
1.0
  0
POINT
  5
7AA8
330
7A9C
100
AcDbEntity
  8
Defpoints
 62
     0
100
AcDbPoint
 10
1731.186406636002
 20
2166.215179553531
 30
0.0
  0
POINT
  5
7AA9
330
7A9C
100
AcDbEntity
  8
Defpoints
 62
     0
100
AcDbPoint
 10
1631.186406636002
 20
2141.215179553531
 30
0.0
  0
POINT
  5
7AAA
330
7A9C
100
AcDbEntity
  8
Defpoints
 62
     0
100
AcDbPoint
 10
1799.989104412404
 20
2141.215179553531
 30
0.0
  0
ENDBLK
  5
7A9E
330
7A9C
100
AcDbEntity
  8
0
100
AcDbBlockEnd
  0
BLOCK
  5
7AAC
330
7AAB
100
AcDbEntity
  8
0
100
AcDbBlockBegin
  2
*D27
 70
     1
 10
0.0
 20
0.0
 30
0.0
  3
*D27
  1

  0
LINE
  5
7AAE
330
7AAB
100
AcDbEntity
  8
Dim
 62
     0
370
    -2
100
AcDbLine
 10
1656.186406636002
 20
2141.215179553531
 30
0.0
 11
1799.989104412404
 21
2141.215179553531
 31
0.0
  0
LINE
  5
7AAF
330
7AAB
100
AcDbEntity
  8
Dim
 62
     0
370
    -2
100
AcDbLine
 10
1656.186406636002
 20
1921.215179553531
 30
0.0
 11
1799.989104412404
 21
1921.215179553531
 31
0.0
  0
LINE
  5
7AB0
330
7AAB
100
AcDbEntity
  8
Dim
 62
     0
370
    -2
100
AcDbLine
 10
1799.989104412404
 20
2131.215789905094
 30
0.0
 11
1799.989104412404
 21
1931.214569201969
 31
0.0
  0
INSERT
  5
7AB1
330
7AAB
100
AcDbEntity
  8
Dim
 62
     0
370
    -2
100
AcDbBlockReference
  2
_DOT
 10
1799.989104412404
 20
2141.215179553531
 30
0.0
 41
9.999389648437498
 42
9.999389648437498
 43
9.999389648437498
 50
90.0
  0
INSERT
  5
7AB2
330
7AAB
100
AcDbEntity
  8
Dim
 62
     0
370
    -2
100
AcDbBlockReference
  2
_DOT
 10
1799.989104412404
 20
1921.215179553531
 30
0.0
 41
9.999389648437498
 42
9.999389648437498
 43
9.999389648437498
 50
270.0
  0
MTEXT
  5
7AB3
330
7AAB
100
AcDbEntity
  8
Dim
 62
     0
100
AcDbMText
 10
1777.768212984369
 20
2031.215179553531
 30
0.0
 40
24.4326171875
 41
0.0
 46
0.0
 71
     5
 72
     1
  1
\A1;220
  7
ＭＳ ゴシック
 11
0.0
 21
1.0
 31
0.0
 73
     1
 44
1.0
  0
POINT
  5
7AB4
330
7AAB
100
AcDbEntity
  8
Defpoints
 62
     0
100
AcDbPoint
 10
1631.186406636002
 20
2141.215179553531
 30
0.0
  0
POINT
  5
7AB5
330
7AAB
100
AcDbEntity
  8
Defpoints
 62
     0
100
AcDbPoint
 10
1631.186406636002
 20
1921.215179553531
 30
0.0
  0
POINT
  5
7AB6
330
7AAB
100
AcDbEntity
  8
Defpoints
 62
     0
100
AcDbPoint
 10
1799.989104412404
 20
1921.215179553531
 30
0.0
  0
ENDBLK
  5
7AAD
330
7AAB
100
AcDbEntity
  8
0
100
AcDbBlockEnd
  0
BLOCK
  5
7AB8
330
7AB7
100
AcDbEntity
  8
0
100
AcDbBlockBegin
  2
*D28
 70
     1
 10
0.0
 20
0.0
 30
0.0
  3
*D28
  1

  0
LINE
  5
7ABA
330
7AB7
100
AcDbEntity
  8
Dim
 62
     0
370
    -2
100
AcDbLine
 10
1281.186406636002
 20
1903.454709436122
 30
0.0
 11
1281.186406636002
 21
1764.882402088639
 31
0.0
  0
LINE
  5
7ABB
330
7AB7
100
AcDbEntity
  8
Dim
 62
     0
370
    -2
100
AcDbLine
 10
1631.186406636002
 20
1903.454709436122
 30
0.0
 11
1631.186406636002
 21
1764.882402088639
 31
0.0
  0
LINE
  5
7ABC
330
7AB7
100
AcDbEntity
  8
Dim
 62
     0
370
    -2
100
AcDbLine
 10
1291.185796284439
 20
1764.882402088639
 30
0.0
 11
1621.187016987564
 21
1764.882402088639
 31
0.0
  0
INSERT
  5
7ABD
330
7AB7
100
AcDbEntity
  8
Dim
 62
     0
370
    -2
100
AcDbBlockReference
  2
_DOT
 10
1281.186406636002
 20
1764.882402088639
 30
0.0
 41
9.999389648437498
 42
9.999389648437498
 43
9.999389648437498
 50
180.0
  0
INSERT
  5
7ABE
330
7AB7
100
AcDbEntity
  8
Dim
 62
     0
370
    -2
100
AcDbBlockReference
  2
_DOT
 10
1631.186406636002
 20
1764.882402088639
 30
0.0
 41
9.999389648437498
 42
9.999389648437498
 43
9.999389648437498
  0
MTEXT
  5
7ABF
330
7AB7
100
AcDbEntity
  8
Dim
 62
     0
100
AcDbMText
 10
1456.186406636002
 20
1787.103293516675
 30
0.0
 40
24.4326171875
 41
0.0
 46
0.0
 71
     5
 72
     1
  1
\A1;350
  7
ＭＳ ゴシック
 73
     1
 44
1.0
  0
POINT
  5
7AC0
330
7AB7
100
AcDbEntity
  8
Defpoints
 62
     0
100
AcDbPoint
 10
1281.186406636002
 20
1928.454709436122
 30
0.0
  0
POINT
  5
7AC1
330
7AB7
100
AcDbEntity
  8
Defpoints
 62
     0
100
AcDbPoint
 10
1631.186406636002
 20
1928.454709436122
 30
0.0
  0
POINT
  5
7AC2
330
7AB7
100
AcDbEntity
  8
Defpoints
 62
     0
100
AcDbPoint
 10
1631.186406636002
 20
1764.882402088639
 30
0.0
  0
ENDBLK
  5
7AB9
330
7AB7
100
AcDbEntity
  8
0
100
AcDbBlockEnd
  0
ENDSEC
  0
SECTION
  2
ENTITIES
  0
MTEXT
  5
177
330
A
100
AcDbEntity
  8
template
390
1D
100
AcDbMText
 10
82.00000000048226
 20
348.023957835319
 30
0.0
 40
16.28841145833333
 41
0.0
 46
0.0
 71
     1
 72
     1
  1
品名
  7
ＭＳ ゴシック
 73
     1
 44
0.7828267384257843
  0
MTEXT
  5
178
330
A
100
AcDbEntity
  8
template
390
1D
100
AcDbMText
 10
82.00000000048226
 20
263.0239578353188
 30
0.0
 40
16.28841145833333
 41
0.0
 46
0.0
 71
     1
 72
     1
  1
仕様
  7
ＭＳ ゴシック
 73
     1
 44
0.7828267384257843
  0
LINE
  5
179
330
A
100
AcDbEntity
  8
template
390
1D
100
AcDbLine
 10
2025.0
 20
271.4388797103189
 30
0.0
 11
75.00000000000023
 21
271.4388797103189
 31
0.0
  0
LWPOLYLINE
  5
17A
330
A
100
AcDbEntity
  8
template
390
1D
100
AcDbPolyline
 90
        5
 70
   128
 43
0.0
 10
2025.0
 20
2901.438879710319
 10
75.00000000000023
 20
2901.438879710319
 10
75.00000000000023
 20
101.4388797103188
 10
2025.0
 20
101.4388797103188
 10
2025.0
 20
2901.438879710319
  0
LINE
  5
17B
330
A
100
AcDbEntity
  8
template
390
1D
100
AcDbLine
 10
2025.0
 20
356.4388797103188
 30
0.0
 11
75.00000000000023
 21
356.4388797103188
 31
0.0
  0
LINE
  5
17C
330
A
100
AcDbEntity
  8
template
390
1D
100
AcDbLine
 10
2025.000000000482
 20
186.4388797103189
 30
0.0
 11
1272.000000000482
 21
186.4388797103189
 31
0.0
  0
MTEXT
  5
17E
330
A
100
AcDbEntity
  8
template
390
1D
100
AcDbMText
 10
1301.871406252743
 20
156.5284852370108
 30
0.0
 40
24.4326171875
 41
0.0
 46
0.0
 71
     1
 72
     1
  1
大洋金物株式会社 ティーフォルム事業部
  7
ＭＳ ゴシック
 73
     1
 44
0.7828267384257843
  0
MTEXT
  5
180
330
A
100
AcDbEntity
  8
template
390
1D
100
AcDbMText
 10
1834.000000000742
 20
234.4414968978188
 30
0.0
 40
24.4326171875
 41
0.0
 46
0.0
 71
     1
 72
     1
  1
1:10
  7
ＭＳ ゴシック
 73
     1
 44
0.7828267384257843
  0
MTEXT
  5
181
330
A
100
AcDbEntity
  8
template
390
1D
100
AcDbMText
 10
1781.000000000742
 20
263.0239578353188
 30
0.0
 40
16.28841145833333
 41
0.0
 46
0.0
 71
     1
 72
     1
  1
縮尺
  7
ＭＳ ゴシック
 73
     1
 44
0.7828267384257843
  0
LINE
  5
182
330
A
100
AcDbEntity
  8
template
390
1D
100
AcDbLine
 10
1774.000000000742
 20
186.4388797103189
 30
0.0
 11
1774.000000000742
 21
271.4388797103189
 31
0.0
  0
MTEXT
  5
183
330
A
100
AcDbEntity
  8
template
390
1D
100
AcDbMText
 10
1530.000000000742
 20
263.0239578353188
 30
0.0
 40
16.28841145833333
 41
0.0
 46
0.0
 71
     1
 72
     1
  1
容量
  7
ＭＳ ゴシック
 73
     1
 44
0.7828267384257843
  0
LINE
  5
184
330
A
100
AcDbEntity
  8
template
390
1D
100
AcDbLine
 10
1523.000000000742
 20
186.4388797103189
 30
0.0
 11
1523.000000000742
 21
271.4388797103189
 31
0.0
  0
MTEXT
  5
185
330
A
100
AcDbEntity
  8
template
390
1D
100
AcDbMText
 10
1279.000000000742
 20
348.023957835319
 30
0.0
 40
16.28841145833333
 41
0.0
 46
0.0
 71
     1
 72
     1
  1
品番
  7
ＭＳ ゴシック
 73
     1
 44
0.7828267384257843
  0
MTEXT
  5
186
330
A
100
AcDbEntity
  8
template
390
1D
100
AcDbMText
 10
1279.000000000742
 20
263.0239578353188
 30
0.0
 40
16.28841145833333
 41
0.0
 46
0.0
 71
     1
 72
     1
  1
重量
  7
ＭＳ ゴシック
 73
     1
 44
0.7828267384257843
  0
MTEXT
  5
187
330
A
100
AcDbEntity
  8
template
390
1D
100
AcDbMText
 10
1332.000000000742
 20
319.4414968978188
 30
0.0
 40
24.4326171875
 41
0.0
 46
24.4326171875
 71
     1
 72
     1
  1
{ADF70-0624-001}
  7
ＭＳ ゴシック
 73
     1
 44
0.7828267384257843
1001
ACAD
1000
ACAD_MTEXT_DEFINED_HEIGHT_BEGIN
1070
    46
1040
24.4326171875
1000
ACAD_MTEXT_DEFINED_HEIGHT_END
  0
LINE
  5
188
330
A
100
AcDbEntity
  8
template
390
1D
100
AcDbLine
 10
1272.000000000742
 20
101.4388797103188
 30
0.0
 11
1272.000000000742
 21
356.4388797103188
 31
0.0
  0
MTEXT
  5
189
330
A
100
AcDbEntity
  8
template
390
1D
100
AcDbMText
 10
135.0000000004822
 20
319.4414968978188
 30
0.0
 40
24.4326171875
 41
0.0
 46
27.53672361022102
 71
     1
 72
     1
  1
{洗面器 -CATALANO, Verso-}
  7
ＭＳ ゴシック
 73
     1
 44
0.7828267384257843
1001
ACAD
1000
ACAD_MTEXT_DEFINED_HEIGHT_BEGIN
1070
    46
1040
27.53672361022102
1000
ACAD_MTEXT_DEFINED_HEIGHT_END
  0
MTEXT
  5
18A
330
A
100
AcDbEntity
  8
template
390
1D
100
AcDbMText
 10
135.0000000004823
 20
234.4414968978188
 30
0.0
 40
24.4326171875
 41
0.0
 46
69.00885866868045
 71
     1
 72
     1
  1
{壁掛け、カウンター置き/オーバーフロー無し/\fＭＳ ゴシック|b0|i0|c1|p0;^Z^Z壁取付ボルト付属/^Z^Z\fＭＳ ゴシック|b0|i0|c0|p0;\P陶器/ホワイト}
  7
ＭＳ ゴシック
 73
     1
 44
0.9822934569727008
1001
ACAD
1000
ACAD_MTEXT_DEFINED_HEIGHT_BEGIN
1070
    46
1040
69.00885866868045
1000
ACAD_MTEXT_DEFINED_HEIGHT_END
  0
MTEXT
  5
1A6
330
A
100
AcDbEntity
  8
template
390
1D
100
AcDbMText
 10
1332.000000000742
 20
234.4414968978188
 30
0.0
 40
24.4326171875
 41
0.0
 46
28.40135167875453
 71
     1
 72
     1
  1
{13kg}
  7
ＭＳ ゴシック
 73
     1
 44
0.7828267384257843
1001
ACAD
1000
ACAD_MTEXT_DEFINED_HEIGHT_BEGIN
1070
    46
1040
28.40135167875453
1000
ACAD_MTEXT_DEFINED_HEIGHT_END
  0
MTEXT
  5
374
330
A
100
AcDbEntity
  8
template
390
1D
100
AcDbMText
 10
1581.992122669024
 20
234.4414968978188
 30
0.0
 40
24.4326171875
 41
0.0
 46
24.4326171875
 71
     1
 72
     1
  1
{8L}
  7
ＭＳ ゴシック
 73
     1
 44
0.7828267384257843
1001
ACAD
1000
ACAD_MTEXT_DEFINED_HEIGHT_BEGIN
1070
    46
1040
24.4326171875
1000
ACAD_MTEXT_DEFINED_HEIGHT_END
  0
INSERT
  5
3D0
330
A
100
AcDbEntity
  8
template
100
AcDbBlockReference
  2
名称未設定-1
 10
1873.559250554905
 20
30.23897196054438
 30
0.0
 41
0.7619999999999999
 42
0.7619999999999999
 43
0.7619999999999999
  0
MTEXT
  5
BDB
102
{ACAD_XDICTIONARY
360
BDC
102
}
330
A
100
AcDbEntity
  8
template
  6
Continuous
100
AcDbMText
 10
78.95663872901252
 20
86.10730750352229
 30
0.0
 40
23.0
 41
0.0
 46
23.0
 71
     1
 72
     1
  1
{20210818N}
  7
ＭＳ ゴシック
 73
     1
 44
1.0
1001
ACAD
1000
ACAD_MTEXT_DEFINED_HEIGHT_BEGIN
1070
    46
1040
23.0
1000
ACAD_MTEXT_DEFINED_HEIGHT_END
  0
LWPOLYLINE
  5
BEE
330
A
100
AcDbEntity
  8
PRINT BORDER
100
AcDbPolyline
 90
        4
 70
     1
 43
0.0
 10
0.0
 20
0.0
 10
0.0
 20
2970.0
 10
2100.0
 20
2970.0
 10
2100.0
 20
0.0
  0
INSERT
  5
1273
330
A
100
AcDbEntity
  8
0
 62
     7
100
AcDbBlockReference
  2
BLOCK_2
 10
591.2037060744204
 20
943.564364962162
 30
0.0
  0
INSERT
  5
127B
330
A
100
AcDbEntity
  8
0
 62
     7
100
AcDbBlockReference
  2
BLOCK_2
 10
1291.863324028138
 20
1038.76992320659
 30
0.0
  0
INSERT
  5
127C
330
A
100
AcDbEntity
  8
0
 62
     7
100
AcDbBlockReference
  2
BLOCK_2
 10
652.1648429406905
 20
1595.641631888467
 30
0.0
  0
INSERT
  5
3B99
330
A
100
AcDbEntity
  8
retino
100
AcDbBlockReference
  2
mobile_latù
 10
-92101.31485198285
 20
1730.415535296608
 30
0.0
  0
INSERT
  5
45C2
330
A
100
AcDbEntity
  8
retino
100
AcDbBlockReference
  2
mobile_latù
 10
-86439.67799028098
 20
684.0045377191276
 30
0.0
  0
INSERT
  5
45C3
330
A
100
AcDbEntity
  8
0
100
AcDbBlockReference
  2
.TD_SECTION_1
 10
225818108268.3253
 20
1093.456007493889
 30
0.0
  0
INSERT
  5
45C4
330
A
100
AcDbEntity
  8
0
100
AcDbBlockReference
  2
.TD_SECTION_2
 10
225818173804.3253
 20
1093.456007493889
 30
0.0
  0
INSERT
  5
45C5
330
A
100
AcDbEntity
  8
0
  6
Continuous
 62
     0
370
     0
100
AcDbBlockReference
  2
.TD_SECTION_1
 10
-5309.067341990833
 20
1307.927120367214
 30
0.0
  0
INSERT
  5
45C6
330
A
100
AcDbEntity
  8
0
  6
Continuous
 62
     0
370
     0
100
AcDbBlockReference
  2
.TD_SECTION_2
 10
-5866.445500560169
 20
1615.480640569851
 30
0.0
  0
INSERT
  5
45C7
330
A
100
AcDbEntity
  8
0
  6
Continuous
 62
     0
370
     0
100
AcDbBlockReference
  2
.TD_SECTION_1
 10
-7732.562264964368
 20
-610.0674069533197
 30
0.0
  0
INSERT
  5
45C8
330
A
100
AcDbEntity
  8
0
  6
Continuous
 62
     0
370
     0
100
AcDbBlockReference
  2
.TD_SECTION_2
 10
-7444.601476237562
 20
-908.1755612501947
 30
0.0
  0
INSERT
  5
45C9
330
A
100
AcDbEntity
  8
0
  6
Continuous
 62
     0
370
     0
100
AcDbBlockReference
  2
.TD_SECTION_1
 10
-7604.211434120536
 20
-675.956232615647
 30
0.0
  0
INSERT
  5
45CA
330
A
100
AcDbEntity
  8
0
  6
Continuous
 62
     0
370
     0
100
AcDbBlockReference
  2
.TD_SECTION_2
 10
-7316.160069221854
 20
-974.1548715316626
 30
0.0
  0
INSERT
  5
45CB
330
A
100
AcDbEntity
  8
0
  6
Continuous
 62
     0
370
     0
100
AcDbBlockReference
  2
.TD_SECTION_1
 10
1998.261972039336
 20
584.7577436013784
 30
0.0
  0
INSERT
  5
45CC
330
A
100
AcDbEntity
  8
0
  6
Continuous
 62
     0
370
     0
100
AcDbBlockReference
  2
.TD_SECTION_2
 10
2325.569123833769
 20
298.7106092019643
 30
0.0
  0
INSERT
  5
45CD
330
A
100
AcDbEntity
  8
0
  6
Continuous
 62
     0
370
     0
100
AcDbBlockReference
  2
.TD_SECTION_1
 10
4096.079043894448
 20
729.9229578437947
 30
0.0
  0
INSERT
  5
45CE
330
A
100
AcDbEntity
  8
0
  6
Continuous
 62
     0
370
     0
100
AcDbBlockReference
  2
.TD_SECTION_2
 10
4527.386195688881
 20
443.5448297920369
 30
0.0
  0
INSERT
  5
4611
330
A
100
AcDbEntity
  8
0
  6
Continuous
 62
     0
370
     0
100
AcDbBlockReference
  2
.TD_SECTION_1
 10
6135.868573041045
 20
-239.8054397977554
 30
0.0
  0
INSERT
  5
4612
330
A
100
AcDbEntity
  8
0
  6
Continuous
 62
     0
370
     0
100
AcDbBlockReference
  2
.TD_SECTION_2
 10
6878.171818585479
 20
-958.2465713895522
 30
0.0
  0
ELLIPSE
  5
543D
330
A
100
AcDbEntity
  8
tratteggio
  6
HIDDEN2
 62
     3
 60
     1
370
     0
100
AcDbEllipse
 10
-4096.49475666334
 20
1623.797447106776
 30
0.0
 11
300.0
 21
0.0
 31
0.0
210
0.0
220
0.0
230
1.0
 40
0.5
 41
5.728374274199514
 42
6.837996340159658
  0
ELLIPSE
  5
62B3
330
A
100
AcDbEntity
  8
tratteggio
  6
HIDDEN2
 62
     3
 60
     1
370
     0
100
AcDbEllipse
 10
-3728.470049359251
 20
2199.237967545522
 30
0.0
 11
300.0
 21
0.0
 31
0.0
210
0.0
220
0.0
230
1.0
 40
0.5
 41
5.728374274199514
 42
6.837996340159658
  0
MTEXT
  5
69F0
330
A
100
AcDbEntity
  8
template
390
1D
100
AcDbMText
 10
109.9913836583539
 20
735.5401602155133
 30
0.0
 40
24.4326171875
 41
0.0
 46
24.4326171875
 71
     1
 72
     1
  1
{  }
  7
ＭＳ ゴシック
 73
     1
 44
0.7828267384257843
1001
ACAD
1000
ACAD_MTEXT_DEFINED_HEIGHT_BEGIN
1070
    46
1040
24.4326171875
1000
ACAD_MTEXT_DEFINED_HEIGHT_END
  0
CIRCLE
  5
764C
330
A
100
AcDbEntity
  8
MODEL
100
AcDbCircle
 10
619.9858217142385
 20
1986.215179553531
 30
-0.0000000046240195
 40
22.12450746108834
  0
CIRCLE
  5
764D
330
A
100
AcDbEntity
  8
MODEL
  6
HIDDEN2
100
AcDbCircle
 10
619.9858217142385
 20
2103.86517955354
 30
-0.0000000053126276
 40
17.5
  0
LINE
  5
764E
330
A
100
AcDbEntity
  8
MODEL
100
AcDbLine
 10
1326.029475317068
 20
911.8813448731689
 30
-0.0000000000000062
 11
1321.048501826609
 21
911.8813448731689
 31
-0.0000000000000062
  0
LINE
  5
764F
330
A
100
AcDbEntity
  8
MODEL
100
AcDbLine
 10
1657.641851025628
 20
920.890584181923
 30
-0.0000000000000068
 11
1657.641851025628
 21
919.8813448731689
 31
-0.0000000000000069
  0
LINE
  5
7650
330
A
100
AcDbEntity
  8
MODEL
100
AcDbLine
 10
1657.641851025628
 20
944.718932573016
 30
-0.0000000000000062
 11
1657.641851025628
 21
924.037939323659
 31
-0.0000000000000062
  0
LINE
  5
7655
330
A
100
AcDbEntity
  8
MODEL
100
AcDbLine
 10
1654.641851025624
 20
911.8813448731689
 30
-0.0000000000000073
 11
1326.029475317068
 21
911.8813448731689
 31
-0.0000000000000073
  0
LINE
  5
7656
330
A
100
AcDbEntity
  8
MODEL
100
AcDbLine
 10
1657.641851025628
 20
915.3171235869099
 30
-0.0000000000000071
 11
1657.641851025628
 21
914.8813448731689
 31
-0.0000000000000072
  0
LINE
  5
7657
330
A
100
AcDbEntity
  8
MODEL
100
AcDbLine
 10
1657.641851025628
 20
919.8813448731689
 30
-0.0000000000000069
 11
1657.641851025628
 21
915.3171235869099
 31
-0.0000000000000071
  0
ARC
  5
7658
330
A
100
AcDbEntity
  8
MODEL
100
AcDbCircle
 10
1654.641851025624
 20
914.8813448731689
 30
0.0000000000001287
 40
2.999999999999663
100
AcDbArc
 50
270.0
 51
0.0
  0
SPLINE
  5
7659
330
A
100
AcDbEntity
  8
MODEL
100
AcDbSpline
210
0.0
220
0.0
230
1.0
 70
    24
 71
     3
 72
    22
 73
    18
 74
     0
 42
0.000000001
 43
0.0000000001
 40
0.0
 40
0.0
 40
0.0
 40
0.0
 40
0.0625000000000032
 40
0.0625000000000032
 40
0.1250000000000065
 40
0.1250000000000065
 40
0.2500000000000033
 40
0.2500000000000033
 40
0.3750000000000002
 40
0.3750000000000002
 40
0.499999999999997
 40
0.499999999999997
 40
0.6249999999999938
 40
0.6249999999999938
 40
0.7499999999999907
 40
0.7499999999999907
 40
1.0
 40
1.0
 40
1.0
 40
1.0
 10
1657.641851025628
 20
922.4789331105869
 30
-0.0000000000000067
 10
1657.641851025628
 20
922.440400388115
 30
-0.0000000000000067
 10
1657.641851025628
 20
922.402620864051
 30
-0.0000000000000067
 10
1657.641851025628
 20
922.328228662891
 30
-0.0000000000000067
 10
1657.641851025628
 20
922.2916179853939
 30
-0.0000000000000067
 10
1657.641851025628
 20
922.183198118584
 30
-0.0000000000000067
 10
1657.641851025628
 20
922.1127841789219
 30
-0.0000000000000067
 10
1657.641851025628
 20
921.974548164982
 30
-0.0000000000000067
 10
1657.641851025628
 20
921.906737813546
 30
-0.0000000000000067
 10
1657.641851025628
 20
921.7730462202248
 30
-0.0000000000000067
 10
1657.641851025628
 20
921.7071696430369
 30
-0.0000000000000067
 10
1657.641851025628
 20
921.576891738406
 30
-0.0000000000000068
 10
1657.641851025628
 20
921.5124697455919
 30
-0.0000000000000068
 10
1657.641851025628
 20
921.385133289748
 30
-0.0000000000000068
 10
1657.641851025628
 20
921.3221675296679
 30
-0.0000000000000068
 10
1657.641851025628
 20
921.1348790324569
 30
-0.0000000000000068
 10
1657.641851025628
 20
921.0121447847059
 30
-0.0000000000000068
 10
1657.641851025628
 20
920.890584181923
 30
-0.0000000000000068
  0
SPLINE
  5
765A
330
A
100
AcDbEntity
  8
MODEL
100
AcDbSpline
210
0.0
220
0.0
230
1.0
 70
    24
 71
     3
 72
    10
 73
     6
 74
     0
 42
0.000000001
 43
0.0000000001
 40
0.0
 40
0.0
 40
0.0
 40
0.0
 40
0.5
 40
0.5
 40
1.0
 40
1.0
 40
1.0
 40
1.0
 10
1657.641851025628
 20
924.037939323659
 30
-0.0000000000000066
 10
1657.641851025628
 20
923.774262549161
 30
-0.0000000000000066
 10
1657.641851025628
 20
923.5127337432868
 30
-0.0000000000000066
 10
1657.641851025628
 20
922.9933785044939
 30
-0.0000000000000067
 10
1657.641851025628
 20
922.735543746714
 30
-0.0000000000000067
 10
1657.641851025628
 20
922.4789331105869
 30
-0.0000000000000067
  0
SPLINE
  5
765B
330
A
100
AcDbEntity
  8
MODEL
100
AcDbSpline
210
0.0
220
0.0
230
1.0
 70
    24
 71
     3
 72
    49
 73
    45
 74
     0
 42
0.000000001
 43
0.0000000001
 40
0.0
 40
0.0
 40
0.0
 40
0.0
 40
0.0625000000000046
 40
0.0625000000000046
 40
0.1250000000000091
 40
0.1875000000000137
 40
0.1875000000000137
 40
0.2187500000000152
 40
0.2187500000000152
 40
0.2343750000000166
 40
0.2343750000000166
 40
0.2421875000000166
 40
0.2421875000000166
 40
0.2500000000000165
 40
0.3125000000000148
 40
0.3125000000000148
 40
0.3750000000000131
 40
0.4375000000000114
 40
0.4375000000000114
 40
0.5000000000000097
 40
0.5000000000000097
 40
0.562500000000008
 40
0.6250000000000063
 40
0.6250000000000063
 40
0.656250000000005
 40
0.656250000000005
 40
0.6640625000000047
 40
0.6640625000000047
 40
0.6718750000000043
 40
0.6875000000000046
 40
0.6875000000000046
 40
0.7500000000000043
 40
0.7500000000000043
 40
0.8125000000000042
 40
0.8125000000000042
 40
0.875000000000004
 40
0.875000000000004
 40
0.906250000000004
 40
0.906250000000004
 40
0.9218750000000037
 40
0.9218750000000037
 40
0.9375000000000032
 40
0.9375000000000032
 40
1.0
 40
1.0
 40
1.0
 40
1.0
 10
1657.641851025628
 20
961.028888839611
 30
-0.0000000000000043
 10
1657.641851025628
 20
961.02883883461
 30
-0.0000000000000043
 10
1657.641851025628
 20
961.0040793702949
 30
-0.0000000000000043
 10
1657.641851025628
 20
960.906304281905
 30
-0.0000000000000043
 10
1657.641851025628
 20
960.76031699501
 30
-0.0000000000000044
 10
1657.641851025628
 20
960.518672649612
 30
-0.0000000000000044
 10
1657.641851025628
 20
960.301149251887
 30
-0.0000000000000044
 10
1657.641851025628
 20
960.222585748664
 30
-0.0000000000000044
 10
1657.641851025628
 20
960.0955356773429
 30
-0.0000000000000044
 10
1657.641851025628
 20
960.0516510233949
 30
-0.0000000000000044
 10
1657.641851025628
 20
959.983502344106
 30
-0.0000000000000044
 10
1657.641851025628
 20
959.96038646123
 30
-0.0000000000000044
 10
1657.641851025628
 20
959.91346535097
 30
-0.0000000000000044
 10
1657.641851025628
 20
959.699176229145
 30
-0.0000000000000044
 10
1657.641851025628
 20
959.4568182635719
 30
-0.0000000000000044
 10
1657.641851025628
 20
958.982811833901
 30
-0.0000000000000045
 10
1657.641851025628
 20
958.4656522416929
 30
-0.0000000000000045
 10
1657.641851025628
 20
957.862856391135
 30
-0.0000000000000045
 10
1657.641851025628
 20
957.216737717777
 30
-0.0000000000000046
 10
1657.641851025628
 20
956.8720106748669
 30
-0.0000000000000046
 10
1657.641851025628
 20
956.1378833321739
 30
-0.0000000000000046
 10
1657.641851025628
 20
955.3672894349379
 30
-0.0000000000000047
 10
1657.641851025628
 20
954.5248772775678
 30
-0.0000000000000047
 10
1657.641851025628
 20
953.8660145004699
 30
-0.0000000000000048
 10
1657.641851025628
 20
953.6418791849519
 30
-0.0000000000000048
 10
1657.641851025628
 20
953.3560119745318
 30
-0.0000000000000048
 10
1657.641851025628
 20
953.298526620348
 30
-0.0000000000000048
 10
1657.641851025628
 20
953.1831568319119
 30
-0.0000000000000048
 10
1657.641851025628
 20
953.0094893334549
 30
-0.0000000000000048
 10
1657.641851025628
 20
952.8339926036799
 30
-0.0000000000000048
 10
1657.641851025628
 20
952.244974247662
 30
-0.0000000000000049
 10
1657.641851025628
 20
951.7608864593649
 30
-0.0000000000000049
 10
1657.641851025628
 20
950.767539990718
 30
-0.000000000000005
 10
1657.641851025628
 20
950.258280253214
 30
-0.000000000000005
 10
1657.641851025628
 20
949.21466119055
 30
-0.0000000000000051
 10
1657.641851025628
 20
948.680302428854
 30
-0.0000000000000051
 10
1657.641851025628
 20
947.8596245562669
 30
-0.0000000000000051
 10
1657.641851025628
 20
947.582871412649
 30
-0.0000000000000052
 10
1657.641851025628
 20
947.1628744641218
 30
-0.0000000000000052
 10
1657.641851025628
 20
947.0220479300929
 30
-0.0000000000000052
 10
1657.641851025628
 20
946.73882146497
 30
-0.0000000000000052
 10
1657.641851025628
 20
946.5967096476979
 30
-0.0000000000000052
 10
1657.641851025628
 20
945.883663739814
 30
-0.0000000000000053
 10
1657.641851025628
 20
945.3052816040299
 30
-0.0000000000000053
 10
1657.641851025628
 20
944.718932573016
 30
-0.0000000000000053
  0
SPLINE
  5
765C
330
A
100
AcDbEntity
  8
MODEL
100
AcDbSpline
210
0.0
220
0.0
230
1.0
 70
    24
 71
     3
 72
    91
 73
    87
 74
     0
 42
0.000000001
 43
0.0000000001
 40
0.0
 40
0.0
 40
0.0
 40
0.0
 40
0.0014792269849649
 40
0.0014792269849649
 40
0.0088756771554473
 40
0.0088756771554473
 40
0.0107247896980678
 40
0.0107247896980678
 40
0.0125739022406884
 40
0.0125739022406884
 40
0.0162721273259296
 40
0.0162721273259296
 40
0.0236685774964126
 40
0.0310650276668955
 40
0.0310650276668955
 40
0.0384614778373784
 40
0.0384614778373784
 40
0.0458579280078613
 40
0.0458579280078613
 40
0.0495561530931029
 40
0.0495561530931029
 40
0.0514052656357237
 40
0.0514052656357237
 40
0.0532543781783446
 40
0.0532543781783446
 40
0.0606508283488272
 40
0.0606508283488272
 40
0.0680472785193101
 40
0.0754437286897928
 40
0.0828401788602754
 40
0.0828401788602754
 40
0.0902366290307581
 40
0.0902366290307581
 40
0.0939348541159998
 40
0.0939348541159998
 40
0.0957839666586205
 40
0.0957839666586205
 40
0.0976330792012411
 40
0.1050295293717232
 40
0.1050295293717232
 40
0.1124259795422052
 40
0.1124259795422052
 40
0.1272188798831688
 40
0.1272188798831688
 40
0.1346153300536502
 40
0.1346153300536502
 40
0.1383135551388911
 40
0.1383135551388911
 40
0.142011780224132
 40
0.1494082303946136
 40
0.1494082303946136
 40
0.156804680565095
 40
0.156804680565095
 40
0.1715975809060578
 40
0.1715975809060578
 40
0.1789940310765392
 40
0.1789940310765392
 40
0.1863904812470204
 40
0.1863904812470204
 40
0.1900887063322611
 40
0.1900887063322611
 40
0.1937869314175018
 40
0.1937869314175018
 40
0.2011833815879834
 40
0.2011833815879834
 40
0.2085798317584652
 40
0.2085798317584652
 40
0.2159762819289468
 40
0.2159762819289468
 40
0.2233727320994284
 40
0.2233727320994284
 40
0.2307691822699102
 40
0.2307691822699102
 40
0.2455620826108734
 40
0.2455620826108734
 40
0.2603549829518368
 40
0.2603549829518368
 40
0.2899407836337635
 40
0.2899407836337635
 40
0.3491123849976165
 40
0.3491123849976165
 40
0.4082839863614696
 40
0.4082839863614696
 40
0.5266271890891758
 40
0.5266271890891758
 40
1.0
 40
1.0
 40
1.0
 40
1.0
 10
1313.840271008592
 20
1031.881344873169
 30
0.0
 10
1313.855061683882
 20
1031.881344873169
 30
0.0
 10
1313.870215088255
 20
1031.881344873169
 30
0.0
 10
1313.963380207254
 20
1031.881344873169
 30
0.0
 10
1314.050317686122
 20
1031.881344873169
 30
0.0
 10
1314.172187838371
 20
1031.881344873169
 30
0.0
 10
1314.197222349646
 20
1031.881344873169
 30
0.0
 10
1314.248654122152
 20
1031.881344873169
 30
0.0
 10
1314.275048125734
 20
1031.881344873169
 30
0.0
 10
1314.356129393597
 20
1031.881344873169
 30
0.0
 10
1314.412779889355
 20
1031.881344873169
 30
0.0
 10
1314.590796694696
 20
1031.881344873169
 30
0.0
 10
1314.849577908064
 20
1031.881344873169
 30
0.0
 10
1315.152878558425
 20
1031.881344873169
 30
0.0
 10
1315.47950611089
 20
1031.881344873169
 30
0.0
 10
1315.654518951375
 20
1031.881344873169
 30
0.0
 10
1316.028468968442
 20
1031.881344873169
 30
0.0
 10
1316.227399574806
 20
1031.881344873169
 30
0.0
 10
1316.544379448108
 20
1031.881344873169
 30
0.0
 10
1316.653142006847
 20
1031.881344873169
 30
0.0
 10
1316.821038915253
 20
1031.881344873169
 30
0.0
 10
1316.877795227324
 20
1031.881344873169
 30
0.0
 10
1316.992897675319
 20
1031.881344873169
 30
0.0
 10
1317.051278331194
 20
1031.881344873169
 30
0.0
 10
1317.346795055307
 20
1031.881344873169
 30
0.0
 10
1317.593310976028
 20
1031.881344873169
 30
0.0
 10
1318.105893101442
 20
1031.881344873169
 30
0.0
 10
1318.638027267939
 20
1031.881344873169
 30
0.0
 10
1319.49384939117
 20
1031.881344873169
 30
0.0
 10
1320.102692992763
 20
1031.881344873169
 30
0.0
 10
1320.730898989103
 20
1031.881344873169
 30
0.0
 10
1321.05467681058
 20
1031.881344873169
 30
0.0
 10
1321.555149120375
 20
1031.881344873169
 30
0.0
 10
1321.724443141959
 20
1031.881344873169
 30
0.0
 10
1321.982147774878
 20
1031.881344873169
 30
0.0
 10
1322.06874543835
 20
1031.881344873169
 30
0.0
 10
1322.242625161523
 20
1031.881344873169
 30
0.0
 10
1322.679277333948
 20
1031.881344873169
 30
0.0
 10
1323.125635790393
 20
1031.881344873169
 30
0.0
 10
1323.851855106523
 20
1031.881344873169
 30
0.0
 10
1324.220987103378
 20
1031.881344873169
 30
0.0
 10
1325.346159986934
 20
1031.881344873169
 30
0.0
 10
1326.120079275334
 20
1031.881344873169
 30
0.0
 10
1327.315074911749
 20
1031.881344873169
 30
0.0
 10
1327.71912149936
 20
1031.881344873169
 30
0.0
 10
1328.333609191513
 20
1031.881344873169
 30
0.0
 10
1328.538921149035
 20
1031.881344873169
 30
0.0
 10
1328.950300412811
 20
1031.881344873169
 30
0.0
 10
1329.568586953183
 20
1031.881344873169
 30
0.0
 10
1330.190362749775
 20
1031.881344873169
 30
0.0
 10
1331.022237092171
 20
1031.881344873169
 30
0.0
 10
1331.439588043273
 20
1031.881344873169
 30
0.0
 10
1332.695323997051
 20
1031.881344873169
 30
0.0
 10
1333.5373813961
 20
1031.881344873169
 30
0.0
 10
1334.805693889729
 20
1031.881344873169
 30
0.0
 10
1335.229339018098
 20
1031.881344873169
 30
0.0
 10
1336.078020241727
 20
1031.881344873169
 30
0.0
 10
1336.503050864289
 20
1031.881344873169
 30
0.0
 10
1337.141410093479
 20
1031.881344873169
 30
0.0
 10
1337.354332227309
 20
1031.881344873169
 30
0.0
 10
1337.780410414941
 20
1031.881344873169
 30
0.0
 10
1337.993598593433
 20
1031.881344873169
 30
0.0
 10
1338.633192658742
 20
1031.881344873169
 30
0.0
 10
1339.059591675804
 20
1031.881344873169
 30
0.0
 10
1339.912393744654
 20
1031.881344873169
 30
0.0
 10
1340.338796811212
 20
1031.881344873169
 30
0.0
 10
1341.191605145149
 20
1031.881344873169
 30
0.0
 10
1341.618010328618
 20
1031.881344873169
 30
0.0
 10
1342.470821811251
 20
1031.881344873169
 30
0.0
 10
1342.89722813826
 20
1031.881344873169
 30
0.0
 10
1343.750041224956
 20
1031.881344873169
 30
0.0
 10
1344.176447941334
 20
1031.881344873169
 30
0.0
 10
1345.455668294659
 20
1031.881344873169
 30
0.0
 10
1346.308482144525
 20
1031.881344873169
 30
0.0
 10
1348.014109767749
 20
1031.881344873169
 30
0.0
 10
1348.86692361103
 20
1031.881344873169
 30
0.0
 10
1351.425365232908
 20
1031.881344873169
 30
0.0
 10
1353.1309930958
 20
1031.881344873169
 30
0.0
 10
1358.247877132556
 20
1031.881344873169
 30
0.0
 10
1361.659133855138
 20
1031.881344873169
 30
0.0
 10
1368.481647069647
 20
1031.881344873169
 30
0.0
 10
1371.892903568115
 20
1031.881344873169
 30
0.0
 10
1382.126672867178
 20
1031.881344873169
 30
0.0
 10
1388.949185538282
 20
1031.881344873169
 30
0.0
 10
1423.061749180503
 20
1031.881344873169
 30
0.0
 10
1450.351800094953
 20
1031.881344873169
 30
0.0
 10
1477.641851009365
 20
1031.881344873169
 30
0.0
  0
SPLINE
  5
765D
330
A
100
AcDbEntity
  8
MODEL
100
AcDbSpline
210
0.0
220
0.0
230
1.0
 70
    24
 71
     3
 72
    79
 73
    75
 74
     0
 42
0.000000001
 43
0.0000000001
 40
0.0
 40
0.0
 40
0.0
 40
0.0
 40
0.3456918213597526
 40
0.3456918213597526
 40
0.518537732039629
 40
0.518537732039629
 40
0.5617492097095982
 40
0.5617492097095982
 40
0.5725520791270904
 40
0.5725520791270904
 40
0.5833549485445827
 40
0.5833549485445827
 40
0.5941578179620749
 40
0.5941578179620749
 40
0.6049606873795672
 40
0.6049606873795672
 40
0.648172165049537
 40
0.648172165049537
 40
0.669777903884522
 40
0.669777903884522
 40
0.6805807733020145
 40
0.6859822080107607
 40
0.6859822080107607
 40
0.6886829253651339
 40
0.6886829253651339
 40
0.6913836427195068
 40
0.6913836427195068
 40
0.7129893815544897
 40
0.7129893815544897
 40
0.7345951203894727
 40
0.7345951203894727
 40
0.7562008592244558
 40
0.7562008592244558
 40
0.7670037286419472
 40
0.7670037286419472
 40
0.7724051633506926
 40
0.7724051633506926
 40
0.7751058807050656
 40
0.7751058807050656
 40
0.7778065980594384
 40
0.7994123368944219
 40
0.7994123368944219
 40
0.8210180757294054
 40
0.8210180757294054
 40
0.842623814564389
 40
0.842623814564389
 40
0.8534266839818809
 40
0.8534266839818809
 40
0.8588281186906269
 40
0.8615288360450003
 40
0.8615288360450003
 40
0.8642295533993736
 40
0.8642295533993736
 40
0.8858352922343627
 40
0.8858352922343627
 40
0.9074410310693519
 40
0.9074410310693519
 40
0.9290467699043411
 40
0.9290467699043411
 40
0.9398496393218357
 40
0.9398496393218357
 40
0.942550356676209
 40
0.942550356676209
 40
0.9452510740305824
 40
0.9452510740305824
 40
0.9506525087393285
 40
0.9506525087393285
 40
0.9722582475743121
 40
0.9722582475743121
 40
0.9830611169918034
 40
0.9830611169918034
 40
0.9938639864092947
 40
0.9938639864092947
 40
1.0
 40
1.0
 40
1.0
 40
1.0
 10
1477.641851009365
 20
1031.881344873169
 30
0.0
 10
1487.741856899464
 20
1031.881344873169
 30
0.0
 10
1497.841863057109
 20
1031.881344873169
 30
0.0
 10
1512.991871462831
 20
1031.881344873169
 30
0.0
 10
1518.041874247575
 20
1031.881344873169
 30
0.0
 10
1524.354378638292
 20
1031.881344873169
 30
0.0
 10
1525.61687906927
 20
1031.881344873169
 30
0.0
 10
1527.195004767827
 20
1031.881344873169
 30
0.0
 10
1527.510630010621
 20
1031.881344873169
 30
0.0
 10
1528.141881054101
 20
1031.881344873169
 30
0.0
 10
1528.457507064903
 20
1031.881344873169
 30
0.0
 10
1529.088757094357
 20
1031.881344873169
 30
0.0
 10
1529.404381069661
 20
1031.881344873169
 30
0.0
 10
1530.035623733917
 20
1031.881344873169
 30
0.0
 10
1530.351242651385
 20
1031.881344873169
 30
0.0
 10
1531.929306987668
 20
1031.881344873169
 30
0.0
 10
1533.191661931176
 20
1031.881344873169
 30
0.0
 10
1535.084687881518
 20
1031.881344873169
 30
0.0
 10
1535.715612744651
 20
1031.881344873169
 30
0.0
 10
1536.661830351529
 20
1031.881344873169
 30
0.0
 10
1537.134896598037
 20
1031.881344873169
 30
0.0
 10
1537.607890142551
 20
1031.881344873169
 30
0.0
 10
1537.844374042576
 20
1031.881344873169
 30
0.0
 10
1537.923180936983
 20
1031.881344873169
 30
0.0
 10
1538.08055793846
 20
1031.881344873169
 30
0.0
 10
1538.159154826992
 20
1031.881344873169
 30
0.0
 10
1538.865683423699
 20
1031.881344873169
 30
0.0
 10
1539.487692612308
 20
1031.881344873169
 30
0.0
 10
1540.717685157485
 20
1031.881344873169
 30
0.0
 10
1541.32572493974
 20
1031.881344873169
 30
0.0
 10
1542.526495311597
 20
1031.881344873169
 30
0.0
 10
1543.119281078923
 20
1031.881344873169
 30
0.0
 10
1543.996445887472
 20
1031.881344873169
 30
0.0
 10
1544.286828226294
 20
1031.881344873169
 30
0.0
 10
1544.719280460825
 20
1031.881344873169
 30
0.0
 10
1544.862910730427
 20
1031.881344873169
 30
0.0
 10
1545.077558872037
 20
1031.881344873169
 30
0.0
 10
1545.149011903015
 20
1031.881344873169
 30
0.0
 10
1545.291478612186
 20
1031.881344873169
 30
0.0
 10
1545.930059939984
 20
1031.881344873169
 30
0.0
 10
1546.545903990258
 20
1031.881344873169
 30
0.0
 10
1547.606220769602
 20
1031.881344873169
 30
0.0
 10
1548.119127297939
 20
1031.881344873169
 30
0.0
 10
1549.110770602289
 20
1031.881344873169
 30
0.0
 10
1549.589464492147
 20
1031.881344873169
 30
0.0
 10
1550.281544681872
 20
1031.881344873169
 30
0.0
 10
1550.50790972731
 20
1031.881344873169
 30
0.0
 10
1550.840872727877
 20
1031.881344873169
 30
0.0
 10
1551.00570726669
 20
1031.881344873169
 30
0.0
 10
1551.168046426641
 20
1031.881344873169
 30
0.0
 10
1551.275714678884
 20
1031.881344873169
 30
0.0
 10
1551.329305339471
 20
1031.881344873169
 30
0.0
 10
1551.808189293567
 20
1031.881344873169
 30
0.0
 10
1552.209103717707
 20
1031.881344873169
 30
0.0
 10
1552.96305014036
 20
1031.881344873169
 30
0.0
 10
1553.316146458963
 20
1031.881344873169
 30
0.0
 10
1553.975345831009
 20
1031.881344873169
 30
0.0
 10
1554.281447069018
 20
1031.881344873169
 30
0.0
 10
1554.704827671665
 20
1031.881344873169
 30
0.0
 10
1554.83999110073
 20
1031.881344873169
 30
0.0
 10
1555.001601250352
 20
1031.881344873169
 30
0.0
 10
1555.03355591132
 20
1031.881344873169
 30
0.0
 10
1555.096732599597
 20
1031.881344873169
 30
0.0
 10
1555.127969295349
 20
1031.881344873169
 30
0.0
 10
1555.220376460599
 20
1031.881344873169
 30
0.0
 10
1555.280299988272
 20
1031.881344873169
 30
0.0
 10
1555.571724444404
 20
1031.881344873169
 30
0.0
 10
1555.778717403188
 20
1031.881344873169
 30
0.0
 10
1556.053167882136
 20
1031.881344873169
 30
0.0
 10
1556.138598643499
 20
1031.881344873169
 30
0.0
 10
1556.29797777104
 20
1031.881344873169
 30
0.0
 10
1556.371959071909
 20
1031.881344873169
 30
0.0
 10
1556.479689626236
 20
1031.881344873169
 30
0.0
 10
1556.517012704001
 20
1031.881344873169
 30
0.0
 10
1556.552711009034
 20
1031.881344873169
 30
0.0
  0
LINE
  5
765E
102
{ACAD_REACTORS
330
78BF
102
}
330
A
100
AcDbEntity
  8
HIDDEN
 48
0.25
100
AcDbLine
 10
1500.09902971579
 20
922.014372541672
 30
-0.0000000000000062
 11
1455.184672335462
 21
922.014372541672
 31
-0.0000000000000062
  0
LINE
  5
765F
102
{ACAD_REACTORS
330
78BF
102
}
330
A
100
AcDbEntity
  8
HIDDEN
 48
0.25
100
AcDbLine
 10
1499.641851025624
 20
914.8813448731689
 30
-0.0000000000000062
 11
1455.641851025624
 21
914.8813448731689
 31
-0.0000000000000062
  0
SPLINE
  5
7660
102
{ACAD_REACTORS
330
78BF
102
}
330
A
100
AcDbEntity
  8
HIDDEN
 48
0.25
100
AcDbSpline
210
0.0
220
0.0
230
1.0
 70
     8
 71
     3
 72
    56
 73
    52
 74
     0
 42
0.000000001
 43
0.0000000001
 40
0.0
 40
0.0
 40
0.0
 40
0.0
 40
0.0625
 40
0.0625
 40
0.125
 40
0.125
 40
0.1875
 40
0.1875
 40
0.2500000000000003
 40
0.2500000000000003
 40
0.3125000000000007
 40
0.3125000000000007
 40
0.3281250000000008
 40
0.3281250000000008
 40
0.3437500000000009
 40
0.3437500000000009
 40
0.3750000000000008
 40
0.3750000000000008
 40
0.4375000000000007
 40
0.4375000000000007
 40
0.5000000000000006
 40
0.5000000000000006
 40
0.5625000000000004
 40
0.5625000000000004
 40
0.6250000000000003
 40
0.6250000000000003
 40
0.6562500000000003
 40
0.6562500000000003
 40
0.6718750000000002
 40
0.6718750000000002
 40
0.6875000000000001
 40
0.6875000000000001
 40
0.75
 40
0.75
 40
0.8125
 40
0.8125
 40
0.875
 40
0.875
 40
0.9375
 40
0.9375
 40
0.96875
 40
0.96875
 40
0.984375
 40
0.9921875
 40
0.99609375
 40
0.998046875
 40
0.9990234375
 40
0.99951171875
 40
0.999755859375
 40
0.999755859375
 40
1.0
 40
1.0
 40
1.0
 40
1.0
 10
1441.112646173123
 20
941.618717898471
 30
-0.0000000000000055
 10
1441.612488320349
 20
941.6152045423669
 30
-0.0000000000000055
 10
1442.133224443287
 20
941.611759845285
 30
-0.0000000000000055
 10
1443.215491939741
 20
941.605080794981
 30
-0.0000000000000055
 10
1443.777030135478
 20
941.60185566835
 30
-0.0000000000000055
 10
1444.940405865692
 20
941.5956712903148
 30
-0.0000000000000055
 10
1445.542240454115
 20
941.5927134023818
 30
-0.0000000000000055
 10
1446.78616443959
 20
941.5871280284568
 30
-0.0000000000000055
 10
1447.428263313263
 20
941.584498431426
 30
-0.0000000000000055
 10
1448.753018163549
 20
941.5794171181419
 30
-0.0000000000000055
 10
1449.435647056224
 20
941.5769328079709
 30
-0.0000000000000055
 10
1450.314855055783
 20
941.5741344356588
 30
-0.0000000000000055
 10
1450.491995317582
 20
941.5735918045989
 30
-0.0000000000000055
 10
1450.848897640092
 20
941.572551963154
 30
-0.0000000000000055
 10
1451.028684871992
 20
941.5720550344859
 30
-0.0000000000000055
 10
1451.571869856748
 20
941.570647026916
 30
-0.0000000000000055
 10
1451.937323108473
 20
941.5698258648708
 30
-0.0000000000000055
 10
1453.04356178601
 20
941.5677673972909
 30
-0.0000000000000055
 10
1453.794221049217
 20
941.5669465680849
 30
-0.0000000000000055
 10
1455.32132102228
 20
941.566264030758
 30
-0.0000000000000055
 10
1456.09775616868
 20
941.566392491311
 30
-0.0000000000000055
 10
1457.67610098019
 20
941.5674262160699
 30
-0.0000000000000055
 10
1458.478011815771
 20
941.5683342896239
 30
-0.0000000000000055
 10
1460.10731481017
 20
941.570812974272
 30
-0.0000000000000055
 10
1460.934707519164
 20
941.5723878183869
 30
-0.0000000000000055
 10
1462.195128787947
 20
941.5751745286559
 30
-0.0000000000000055
 10
1462.618492983777
 20
941.5761728522209
 30
-0.0000000000000055
 10
1463.258421085419
 20
941.577757505389
 30
-0.0000000000000055
 10
1463.472544216253
 20
941.5783000070749
 30
-0.0000000000000055
 10
1463.902426354246
 20
941.5794075908939
 30
-0.0000000000000055
 10
1464.118236169929
 20
941.57997280884
 30
-0.0000000000000055
 10
1465.200870150531
 20
941.5828379150998
 30
-0.0000000000000055
 10
1466.071313777954
 20
941.585227647689
 30
-0.0000000000000055
 10
1467.820629357006
 20
941.5898643330158
 30
-0.0000000000000055
 10
1468.699501776861
 20
941.5921115928229
 30
-0.0000000000000055
 10
1470.465547825531
 20
941.596235085047
 30
-0.0000000000000055
 10
1471.352722032118
 20
941.5981122792159
 30
-0.0000000000000055
 10
1473.135343868883
 20
941.601274276037
 30
-0.0000000000000055
 10
1474.030790870963
 20
941.602556386593
 30
-0.0000000000000055
 10
1475.380216212187
 20
941.6038793388009
 30
-0.0000000000000055
 10
1475.83106794992
 20
941.6042207200089
 30
-0.0000000000000055
 10
1476.508923777104
 20
941.6045669784519
 30
-0.0000000000000055
 10
1476.848246317005
 20
941.6046986777519
 30
-0.0000000000000055
 10
1477.244816884938
 20
941.6047765288979
 30
-0.0000000000000055
 10
1477.443276255247
 20
941.6047961190789
 30
-0.0000000000000055
 10
1477.542549528535
 20
941.6048010330139
 30
-0.0000000000000055
 10
1477.592197070744
 20
941.6048022638729
 30
-0.0000000000000055
 10
1477.617023569308
 20
941.6048025720529
 30
-0.0000000000000055
 10
1477.627664081841
 20
941.6048026382209
 30
-0.0000000000000055
 10
1477.63475788678
 20
941.604802667667
 30
-0.0000000000000055
 10
1477.638354172168
 20
941.6048026749208
 30
-0.0000000000000055
 10
1477.641851025624
 20
941.6048026751389
 30
-0.0000000000000055
  0
SPLINE
  5
7661
102
{ACAD_REACTORS
330
78BF
102
}
330
A
100
AcDbEntity
  8
HIDDEN
 48
0.25
100
AcDbSpline
210
0.0
220
0.0
230
1.0
 70
     8
 71
     3
 72
    38
 73
    34
 74
     0
 42
0.000000001
 43
0.0000000001
 40
0.0
 40
0.0
 40
0.0
 40
0.0
 40
0.000244140625
 40
0.000244140625
 40
0.00048828125
 40
0.0009765625
 40
0.001953125
 40
0.00390625
 40
0.0078125
 40
0.0156250000000001
 40
0.0312500000000001
 40
0.0625000000000003
 40
0.0625000000000003
 40
0.1250000000000005
 40
0.1250000000000005
 40
0.2500000000000009
 40
0.2500000000000009
 40
0.3750000000000014
 40
0.3750000000000014
 40
0.4375000000000017
 40
0.4375000000000017
 40
0.4687500000000017
 40
0.4843750000000016
 40
0.4843750000000016
 40
0.5000000000000013
 40
0.5000000000000013
 40
0.625000000000001
 40
0.625000000000001
 40
0.7500000000000006
 40
0.7500000000000006
 40
0.8750000000000003
 40
0.8750000000000003
 40
1.0
 40
1.0
 40
1.0
 40
1.0
 10
1477.641851025624
 20
941.604772582099
 30
-0.0000000000000055
 10
1477.644243086897
 20
941.6047725821279
 30
-0.0000000000000055
 10
1477.646701622286
 20
941.60477258164
 30
-0.0000000000000055
 10
1477.651552962806
 20
941.6047725789699
 30
-0.0000000000000055
 10
1477.658829872742
 20
941.604772572771
 30
-0.0000000000000055
 10
1477.675808623479
 20
941.604772542903
 30
-0.0000000000000055
 10
1477.709763302219
 20
941.6047724217219
 30
-0.0000000000000055
 10
1477.777661372218
 20
941.604771934517
 30
-0.0000000000000055
 10
1477.913412389845
 20
941.6047699885839
 30
-0.0000000000000055
 10
1478.184734152325
 20
941.6047622736239
 30
-0.0000000000000055
 10
1478.726658268371
 20
941.6047320580919
 30
-0.0000000000000055
 10
1479.189936956192
 20
941.604682564817
 30
-0.0000000000000055
 10
1480.114870148091
 20
941.6045569116338
 30
-0.0000000000000055
 10
1480.729327422455
 20
941.604437562806
 30
-0.0000000000000055
 10
1482.566279458381
 20
941.6040123141299
 30
-0.0000000000000055
 10
1483.782365959833
 20
941.603638846872
 30
-0.0000000000000055
 10
1486.197559889073
 20
941.6029252168969
 30
-0.0000000000000055
 10
1487.39666772779
 20
941.6025893690539
 30
-0.0000000000000055
 10
1489.182416944565
 20
941.6022639466989
 30
-0.0000000000000055
 10
1489.775511893104
 20
941.6021843053838
 30
-0.0000000000000055
 10
1490.661874145257
 20
941.602122633152
 30
-0.0000000000000055
 10
1491.104234985517
 20
941.602106154767
 30
-0.0000000000000055
 10
1491.545353604936
 20
941.6021133289769
 30
-0.0000000000000055
 10
1491.839155041102
 20
941.602124072496
 30
-0.0000000000000055
 10
1491.985982457043
 20
941.6021324187041
 30
-0.0000000000000055
 10
1493.304804065931
 20
941.6022372105449
 30
-0.0000000000000055
 10
1494.451150950271
 20
941.602531541155
 30
-0.0000000000000055
 10
1496.693438857813
 20
941.603792095435
 30
-0.0000000000000055
 10
1497.789359780571
 20
941.604800267088
 30
-0.0000000000000055
 10
1499.931242302986
 20
941.6076473104929
 30
-0.0000000000000055
 10
1500.977235711595
 20
941.609400764487
 30
-0.0000000000000055
 10
1503.018597778193
 20
941.6135833390599
 30
-0.0000000000000055
 10
1504.013935461168
 20
941.6160815645869
 30
-0.0000000000000055
 10
1504.982936203205
 20
941.619352436393
 30
-0.0000000000000055
  0
SPLINE
  5
7662
102
{ACAD_REACTORS
330
78BF
102
}
330
A
100
AcDbEntity
  8
HIDDEN
 48
0.25
100
AcDbSpline
210
0.0
220
0.0
230
1.0
 70
     8
 71
     3
 72
    50
 73
    46
 74
     0
 42
0.000000001
 43
0.0000000001
 40
0.0
 40
0.0
 40
0.0
 40
0.0
 40
0.0625638916960678
 40
0.0625638916960678
 40
0.1251277833921357
 40
0.1251277833921357
 40
0.1876916750882035
 40
0.1876916750882035
 40
0.2502555667842714
 40
0.2502555667842714
 40
0.2580760532462801
 40
0.2580760532462801
 40
0.2658965397082889
 40
0.2815375126323069
 40
0.3128194584803432
 40
0.3128194584803432
 40
0.3753833501764161
 40
0.3753833501764161
 40
0.4379472418724889
 40
0.4379472418724889
 40
0.5005111335685618
 40
0.5005111335685618
 40
0.5630750252646346
 40
0.5630750252646346
 40
0.6256389169607074
 40
0.6256389169607074
 40
0.6334594034227166
 40
0.6334594034227166
 40
0.6412798898847255
 40
0.6569208628087435
 40
0.6882028086567796
 40
0.6882028086567796
 40
0.7507667003528519
 40
0.7507667003528519
 40
0.8133305920489242
 40
0.8133305920489242
 40
0.8758944837449965
 40
0.8758944837449965
 40
0.9384583754410688
 40
0.9384583754410688
 40
0.9697403212891049
 40
0.9697403212891049
 40
0.985381294213123
 40
0.985381294213123
 40
1.0
 40
1.0
 40
1.0
 40
1.0
 10
1504.982936203205
 20
941.619352436393
 30
-0.0000000000000055
 10
1505.618696456158
 20
941.621498451548
 30
-0.0000000000000055
 10
1506.238893283209
 20
941.623951854222
 30
-0.0000000000000055
 10
1507.448267536031
 20
941.629511429901
 30
-0.0000000000000055
 10
1508.037447739725
 20
941.632610547176
 30
-0.0000000000000055
 10
1509.184564408021
 20
941.639520424914
 30
-0.0000000000000055
 10
1509.742504779299
 20
941.6433313744219
 30
-0.0000000000000055
 10
1510.826602523463
 20
941.6517580354719
 30
-0.0000000000000055
 10
1511.352757715945
 20
941.6563768988069
 30
-0.0000000000000055
 10
1511.926311904336
 20
941.6620929824139
 30
-0.0000000000000055
 10
1511.989806558334
 20
941.662735508778
 30
-0.0000000000000055
 10
1512.116178244234
 20
941.6640340394749
 30
-0.0000000000000055
 10
1512.304726745997
 20
941.6660011827059
 30
-0.0000000000000055
 10
1512.737633109483
 20
941.670727640334
 30
-0.0000000000000055
 10
1513.096701973422
 20
941.675016545677
 30
-0.0000000000000055
 10
1513.799011046945
 20
941.6839234139059
 30
-0.0000000000000055
 10
1514.246124659968
 20
941.690305815604
 30
-0.0000000000000055
 10
1515.098788486945
 20
941.7039730353079
 30
-0.0000000000000055
 10
1515.504332625178
 20
941.711256842327
 30
-0.0000000000000055
 10
1516.274126222933
 20
941.726696697109
 30
-0.0000000000000055
 10
1516.63837409546
 20
941.7348542319899
 30
-0.0000000000000055
 10
1517.325571612359
 20
941.751944490753
 30
-0.0000000000000055
 10
1517.648522615532
 20
941.760878236362
 30
-0.0000000000000055
 10
1518.252921433972
 20
941.779321814699
 30
-0.0000000000000055
 10
1518.534364246957
 20
941.7888338342759
 30
-0.0000000000000055
 10
1518.827405339789
 20
941.799677119388
 30
-0.0000000000000055
 10
1518.859640942898
 20
941.800883932113
 30
-0.0000000000000055
 10
1518.923356863409
 20
941.8032966807818
 30
-0.0000000000000055
 10
1519.017835969215
 20
941.8069158761589
 30
-0.0000000000000055
 10
1519.230667139561
 20
941.8153522510779
 30
-0.0000000000000055
 10
1519.400168220968
 20
941.8225365577539
 30
-0.0000000000000055
 10
1519.722271869994
 20
941.836750433112
 30
-0.0000000000000055
 10
1519.914489660512
 20
941.846023231644
 30
-0.0000000000000055
 10
1520.255380641128
 20
941.8635855002299
 30
-0.0000000000000055
 10
1520.404063252213
 20
941.871870256583
 30
-0.0000000000000055
 10
1520.658822113959
 20
941.886816794447
 30
-0.0000000000000064
 10
1520.764899501763
 20
941.8934774683819
 30
-0.0000000000000064
 10
1520.934844191333
 20
941.9045459057609
 30
-0.0000000000000064
 10
1520.99871115522
 20
941.9089504904709
 30
-0.0000000000000064
 10
1521.062744685071
 20
941.9134514259069
 30
-0.0000000000000064
 10
1521.078790536239
 20
941.9146016692409
 30
-0.0000000000000062
 10
1521.094861031555
 20
941.915761872254
 30
-0.0000000000000062
 10
1521.098884566619
 20
941.9160545086359
 30
-0.0000000000000063
 10
1521.104078225345
 20
941.9164333748859
 30
-0.0000000000000062
 10
1521.105395788893
 20
941.916530152333
 30
-0.0000000000000064
 10
1521.105597891413
 20
941.916546386115
 30
-0.0000000000000042
  0
SPLINE
  5
7663
102
{ACAD_REACTORS
330
78BF
102
}
330
A
100
AcDbEntity
  8
HIDDEN
 48
0.25
100
AcDbSpline
210
0.0
220
0.0
230
1.0
 70
     8
 71
     3
 72
    50
 73
    46
 74
     0
 42
0.000000001
 43
0.0000000001
 40
0.0
 40
0.0
 40
0.0
 40
0.0
 40
0.0625638916960678
 40
0.0625638916960678
 40
0.1251277833921357
 40
0.1251277833921357
 40
0.1876916750882035
 40
0.1876916750882035
 40
0.2502555667842714
 40
0.2502555667842714
 40
0.2580760532462801
 40
0.2580760532462801
 40
0.2658965397082889
 40
0.2815375126323069
 40
0.3128194584803432
 40
0.3128194584803432
 40
0.3753833501764161
 40
0.3753833501764161
 40
0.4379472418724889
 40
0.4379472418724889
 40
0.5005111335685618
 40
0.5005111335685618
 40
0.5630750252646346
 40
0.5630750252646346
 40
0.6256389169607074
 40
0.6256389169607074
 40
0.6334594034227166
 40
0.6334594034227166
 40
0.6412798898847255
 40
0.6569208628087435
 40
0.6882028086567796
 40
0.6882028086567796
 40
0.7507667003528519
 40
0.7507667003528519
 40
0.8133305920489242
 40
0.8133305920489242
 40
0.8758944837449965
 40
0.8758944837449965
 40
0.9384583754410688
 40
0.9384583754410688
 40
0.9697403212891049
 40
0.9697403212891049
 40
0.985381294213123
 40
0.985381294213123
 40
1.0
 40
1.0
 40
1.0
 40
1.0
 10
1450.300765848043
 20
941.619352436393
 30
-0.0000000000000055
 10
1449.66500559509
 20
941.621498451548
 30
-0.0000000000000055
 10
1449.044808768039
 20
941.623951854222
 30
-0.0000000000000055
 10
1447.835434515217
 20
941.629511429901
 30
-0.0000000000000055
 10
1447.246254311523
 20
941.632610547176
 30
-0.0000000000000055
 10
1446.099137643227
 20
941.639520424914
 30
-0.0000000000000055
 10
1445.541197271949
 20
941.6433313744219
 30
-0.0000000000000055
 10
1444.457099527785
 20
941.6517580354719
 30
-0.0000000000000055
 10
1443.930944335302
 20
941.6563768988069
 30
-0.0000000000000055
 10
1443.357390146911
 20
941.6620929824139
 30
-0.0000000000000055
 10
1443.293895492914
 20
941.662735508778
 30
-0.0000000000000055
 10
1443.167523807014
 20
941.6640340394749
 30
-0.0000000000000055
 10
1442.978975305251
 20
941.6660011827059
 30
-0.0000000000000055
 10
1442.546068941765
 20
941.670727640334
 30
-0.0000000000000055
 10
1442.187000077826
 20
941.675016545677
 30
-0.0000000000000055
 10
1441.484691004302
 20
941.6839234139059
 30
-0.0000000000000055
 10
1441.037577391279
 20
941.690305815604
 30
-0.0000000000000055
 10
1440.184913564303
 20
941.7039730353079
 30
-0.0000000000000055
 10
1439.77936942607
 20
941.711256842327
 30
-0.0000000000000055
 10
1439.009575828315
 20
941.726696697109
 30
-0.0000000000000055
 10
1438.645327955787
 20
941.7348542319899
 30
-0.0000000000000055
 10
1437.958130438889
 20
941.751944490753
 30
-0.0000000000000055
 10
1437.635179435716
 20
941.760878236362
 30
-0.0000000000000055
 10
1437.030780617276
 20
941.779321814699
 30
-0.0000000000000055
 10
1436.74933780429
 20
941.7888338342759
 30
-0.0000000000000055
 10
1436.456296711459
 20
941.799677119388
 30
-0.0000000000000055
 10
1436.42406110835
 20
941.800883932113
 30
-0.0000000000000055
 10
1436.360345187838
 20
941.8032966807818
 30
-0.0000000000000055
 10
1436.265866082033
 20
941.8069158761589
 30
-0.0000000000000055
 10
1436.053034911687
 20
941.8153522510779
 30
-0.0000000000000055
 10
1435.883533830279
 20
941.8225365577539
 30
-0.0000000000000055
 10
1435.561430181254
 20
941.836750433112
 30
-0.0000000000000055
 10
1435.369212390736
 20
941.846023231644
 30
-0.0000000000000055
 10
1435.02832141012
 20
941.8635855002299
 30
-0.0000000000000055
 10
1434.879638799035
 20
941.871870256583
 30
-0.0000000000000055
 10
1434.624879937289
 20
941.886816794447
 30
-0.0000000000000064
 10
1434.518802549484
 20
941.8934774683819
 30
-0.0000000000000064
 10
1434.348857859914
 20
941.9045459057609
 30
-0.0000000000000064
 10
1434.284990896028
 20
941.9089504904709
 30
-0.0000000000000064
 10
1434.220957366177
 20
941.9134514259069
 30
-0.0000000000000064
 10
1434.204911515008
 20
941.9146016692409
 30
-0.0000000000000062
 10
1434.188841019693
 20
941.915761872254
 30
-0.0000000000000062
 10
1434.184817484629
 20
941.9160545086359
 30
-0.0000000000000063
 10
1434.179623825903
 20
941.9164333748859
 30
-0.0000000000000062
 10
1434.178306262355
 20
941.916530152333
 30
-0.0000000000000064
 10
1434.178104159834
 20
941.916546386115
 30
-0.0000000000000042
  0
LINE
  5
7664
102
{ACAD_REACTORS
330
7922
102
}
330
A
100
AcDbEntity
  8
MODEL
 48
0.5
100
AcDbLine
 10
347.9839945606507
 20
1816.215179553531
 30
-0.0000000046240195
 11
891.9876488678199
 21
1816.215179553531
 31
-0.0000000046240195
  0
LINE
  5
7665
330
A
100
AcDbEntity
  8
MODEL
 48
0.5
100
AcDbLine
 10
894.9858217142385
 20
1819.215751643459
 30
-0.0000000046240195
 11
894.9858217142385
 21
2166.215179553531
 31
-0.0000000046240195
  0
LINE
  5
7666
102
{ACAD_REACTORS
330
7913
330
7922
102
}
330
A
100
AcDbEntity
  8
MODEL
 48
0.5
100
AcDbLine
 10
894.9858217142385
 20
2166.215179553531
 30
-0.0000000046240195
 11
344.9858217142385
 21
2166.215179553531
 31
-0.0000000046240195
  0
LINE
  5
7667
330
A
100
AcDbEntity
  8
MODEL
 48
0.5
100
AcDbLine
 10
344.9858217142385
 20
2166.215179553531
 30
-0.0000000046240195
 11
344.9858217142385
 21
1819.215751643459
 31
-0.0000000046240195
  0
CIRCLE
  5
7668
330
A
100
AcDbEntity
  8
MODEL
100
AcDbCircle
 10
619.9858217142385
 20
1986.215179553531
 30
-0.0000000046240195
 40
38.90796527382839
  0
CIRCLE
  5
7669
330
A
100
AcDbEntity
  8
MODEL
 48
0.5
100
AcDbCircle
 10
619.9858217142385
 20
1986.215179553531
 30
-0.0000000046240195
 40
22.0
  0
ELLIPSE
  5
766A
330
A
100
AcDbEntity
  8
MODEL
 48
0.5
100
AcDbEllipse
 10
891.9853647301059
 20
1819.218037609021
 30
-0.0000000046240195
 11
1.114890272397564
 21
-2.788712659195828
 31
0.0
210
0.0
220
0.0
230
1.0
 40
0.9988963511398483
 41
5.903243289623675
 42
7.473278353068166
  0
ELLIPSE
  5
766B
330
A
100
AcDbEntity
  8
MODEL
 48
0.5
100
AcDbEllipse
 10
347.9862786983715
 20
1819.218037609021
 30
-0.0000000046240195
 11
-1.114890272397563
 21
-2.788712659195828
 31
0.0
210
0.0
220
0.0
230
1.0
 40
0.9988963511398486
 41
5.093092261291005
 42
6.663127324735497
  0
SPLINE
  5
766C
330
A
100
AcDbEntity
  8
MODEL
100
AcDbSpline
210
0.0
220
0.0
230
1.0
 70
     8
 71
     3
 72
    51
 73
    47
 74
     0
 42
0.000000001
 43
0.0000000001
 40
0.0
 40
0.0
 40
0.0
 40
0.0
 40
0.125
 40
0.1875
 40
0.25
 40
0.3125
 40
0.3437499999999999
 40
0.3749999999999999
 40
0.4062500000000003
 40
0.4375000000000002
 40
0.4687500000000001
 40
0.4843749999999998
 40
0.5
 40
0.515625
 40
0.53125
 40
0.546875
 40
0.5625
 40
0.5703125
 40
0.578125
 40
0.5859375
 40
0.59375
 40
0.6015625
 40
0.609375
 40
0.6171875
 40
0.625
 40
0.6328125
 40
0.640625
 40
0.6484375
 40
0.65625
 40
0.6640625
 40
0.671875
 40
0.6796875
 40
0.6875
 40
0.6953125
 40
0.703125
 40
0.7109375
 40
0.71875
 40
0.734375
 40
0.75
 40
0.765625
 40
0.78125
 40
0.8125
 40
0.84375
 40
0.875
 40
0.9375
 40
1.0
 40
1.0
 40
1.0
 40
1.0
 10
619.9858217142385
 20
1823.515179553534
 30
-0.0000000046240195
 10
602.4174628937396
 20
1823.515179553534
 30
-0.0000000046240195
 10
576.0649245505986
 20
1823.51517050444
 30
-0.0000000046240195
 10
540.9282064254728
 20
1823.515113654655
 30
-0.0000000046240195
 10
514.5756676371454
 20
1823.515041953607
 30
-0.0000000046240195
 10
492.6152184619925
 20
1823.514952423352
 30
-0.0000000046240195
 10
475.0468592737086
 20
1823.514900893241
 30
-0.0000000046240195
 10
461.8705900240886
 20
1823.514881783142
 30
-0.0000000046240195
 10
448.6943209817616
 20
1823.514891700956
 30
-0.0000000046240195
 10
435.5180522124208
 20
1823.514940137105
 30
-0.0000000046240195
 10
424.5378285201875
 20
1823.515020507878
 30
-0.0000000046240195
 10
415.7536497685867
 20
1823.515113554097
 30
-0.0000000046240195
 10
409.1655158141796
 20
1823.515198899869
 30
-0.0000000046240195
 10
402.5773819772946
 20
1823.515300993043
 30
-0.0000000046240195
 10
395.9892470430125
 20
1823.515214624606
 30
-0.0000000046240195
 10
389.4011066860614
 20
1823.514269840521
 30
-0.0000000046240195
 10
383.9109963869707
 20
1823.514701502157
 30
-0.0000000046240195
 10
379.5189188570796
 20
1823.516938817344
 30
-0.0000000046240195
 10
376.2248639440365
 20
1823.540167836406
 30
-0.0000000046240195
 10
372.9318328071015
 20
1823.638050882363
 30
-0.0000000046240195
 10
369.6467964958135
 20
1823.910528209496
 30
-0.0000000046240195
 10
366.4019156544375
 20
1824.516588421297
 30
-0.0000000046240195
 10
363.2828467078937
 20
1825.612470049748
 30
-0.0000000046240195
 10
360.4097180492606
 20
1827.252561050062
 30
-0.0000000046240195
 10
357.8895585334828
 20
1829.395461249168
 30
-0.0000000046240195
 10
355.8010896871485
 20
1831.961517273844
 30
-0.0000000046240195
 10
354.2363017509558
 20
1834.877450275663
 30
-0.0000000046240195
 10
353.2389112736348
 20
1838.029329260421
 30
-0.0000000046240195
 10
352.7087758755008
 20
1841.286073118786
 30
-0.0000000046240195
 10
352.4606213046138
 20
1844.572072744143
 30
-0.0000000046240195
 10
352.3501059481057
 20
1847.864630182462
 30
-0.0000000046240195
 10
352.3049758950508
 20
1851.158450615904
 30
-0.0000000046240195
 10
352.2896648430826
 20
1854.452489151407
 30
-0.0000000046240195
 10
352.2852157622176
 20
1857.746551432857
 30
-0.0000000046240195
 10
352.2858995312638
 20
1861.040623489876
 30
-0.0000000046240195
 10
352.2859870290047
 20
1864.334691352072
 30
-0.0000000046240195
 10
352.2857661922246
 20
1868.726779470823
 30
-0.0000000046240195
 10
352.2857151978167
 20
1874.216891240615
 30
-0.0000000046240195
 10
352.2858173637426
 20
1880.805026545254
 30
-0.0000000046240195
 10
352.2858861655766
 20
1887.393161617506
 30
-0.0000000046240195
 10
352.2859401236858
 20
1896.177341449088
 30
-0.0000000046240195
 10
352.2859493153298
 20
1907.157565826709
 30
-0.0000000046240195
 10
352.2859073824577
 20
1920.333834691445
 30
-0.0000000046240195
 10
352.2858345171987
 20
1937.902193020632
 30
-0.0000000046240195
 10
352.2858122623659
 20
1959.862641313913
 30
-0.0000000046240195
 10
352.2858217142418
 20
1977.431000143282
 30
-0.0000000046240195
 10
352.2858217142418
 20
1986.215179553531
 30
-0.0000000046240195
  0
SPLINE
  5
766D
330
A
100
AcDbEntity
  8
MODEL
100
AcDbSpline
210
0.0
220
0.0
230
1.0
 70
     8
 71
     3
 72
    55
 73
    51
 74
     0
 42
0.000000001
 43
0.0000000001
 40
0.0
 40
0.0
 40
0.0
 40
0.0
 40
0.125
 40
0.1875
 40
0.25
 40
0.3125
 40
0.375
 40
0.4375
 40
0.46875
 40
0.5
 40
0.53125
 40
0.5625
 40
0.58984375
 40
0.6171875
 40
0.625
 40
0.640625
 40
0.65625
 40
0.671875
 40
0.6875
 40
0.6953125
 40
0.703125
 40
0.7109375
 40
0.71875
 40
0.7265625
 40
0.734375
 40
0.7421875
 40
0.75
 40
0.7578125
 40
0.765625
 40
0.7734375
 40
0.78125
 40
0.7890625
 40
0.796875
 40
0.8046875
 40
0.8125
 40
0.8203125
 40
0.82421875
 40
0.828125
 40
0.830078125
 40
0.83203125
 40
0.8359375
 40
0.84375
 40
0.8515625
 40
0.859375
 40
0.8671875
 40
0.875
 40
0.87890625
 40
0.908203125
 40
0.9375
 40
1.0
 40
1.0
 40
1.0
 40
1.0
 10
619.9858217142385
 20
2063.215179553531
 30
-0.0000000046240195
 10
605.9871121057724
 20
2063.215179553531
 30
-0.0000000046240195
 10
584.9890467620496
 20
2063.215240477151
 30
-0.0000000046240195
 10
556.9916258536757
 20
2063.215349840251
 30
-0.0000000046240195
 10
535.9935603003685
 20
2063.215422499469
 30
-0.0000000046240195
 10
514.9954952280389
 20
2063.215462366671
 30
-0.0000000046240195
 10
493.9974309896859
 20
2063.215446012942
 30
-0.0000000046240195
 10
476.4990451135307
 20
2063.215366009968
 30
-0.0000000046240195
 10
462.5003371825949
 20
2063.215250468219
 30
-0.0000000046240195
 10
452.0013066635286
 20
2063.215135113605
 30
-0.0000000046240195
 10
441.5022766176915
 20
2063.214988132076
 30
-0.0000000046240195
 10
431.4407055369877
 20
2063.214890944381
 30
-0.0000000046240195
 10
421.8165925496216
 20
2063.214903482104
 30
-0.0000000046240195
 10
414.8172360468886
 20
2063.215023614182
 30
-0.0000000046240195
 10
409.1302577525569
 20
2063.215199786718
 30
-0.0000000046240195
 10
404.7556584383485
 20
2063.215378609343
 30
-0.0000000046240195
 10
399.5061400916527
 20
2063.215536418676
 30
-0.0000000046240195
 10
394.2566244076945
 20
2063.215511383903
 30
-0.0000000046240195
 10
389.8820317503116
 20
2063.215233096274
 30
-0.0000000046240195
 10
386.3823607881416
 20
2063.214792977836
 30
-0.0000000046240195
 10
383.7575995438235
 20
2063.215010217237
 30
-0.0000000046240195
 10
381.1328206722467
 20
2063.216430857246
 30
-0.0000000046240195
 10
378.5080873013287
 20
2063.207422242623
 30
-0.0000000046240195
 10
375.8834625589877
 20
2063.176351718105
 30
-0.0000000046240195
 10
373.2598387242026
 20
2063.090962158326
 30
-0.0000000046240195
 10
370.6409125202115
 20
2062.904010908674
 30
-0.0000000046240195
 10
368.0389127936508
 20
2062.541914695291
 30
-0.0000000046240195
 10
365.4854985578415
 20
2061.914587298138
 30
-0.0000000046240195
 10
363.0333823552935
 20
2060.960655805087
 30
-0.0000000046240195
 10
360.7442696749197
 20
2059.661773408282
 30
-0.0000000046240195
 10
358.6720551644755
 20
2058.038973340444
 30
-0.0000000046240195
 10
356.8606860576617
 20
2056.129846162129
 30
-0.0000000046240195
 10
355.3450525416695
 20
2053.978419405546
 30
-0.0000000046240195
 10
354.1600448037059
 20
2051.628720602911
 30
-0.0000000046240195
 10
353.3106415978107
 20
2049.139171903228
 30
-0.0000000046240195
 10
352.8605818702779
 20
2046.9953869372
 30
-0.0000000046240195
 10
352.6223958715266
 20
2045.261660555406
 30
-0.0000000046240195
 10
352.5154225819276
 20
2044.172949419331
 30
-0.0000000046240195
 10
352.4496500559837
 20
2043.300496535775
 30
-0.0000000046240195
 10
352.3957040740427
 20
2042.427244952046
 30
-0.0000000046240195
 10
352.3287272766468
 20
2040.897458460352
 30
-0.0000000046240195
 10
352.2907508717838
 20
2038.710347801868
 30
-0.0000000046240195
 10
352.2852015678657
 20
2036.085577960154
 30
-0.0000000046240195
 10
352.2858865661108
 20
2033.460824982954
 30
-0.0000000046240195
 10
352.2860003224266
 20
2030.836067773678
 30
-0.0000000046240195
 10
352.2858711950896
 20
2028.648768440219
 30
-0.0000000046240195
 10
352.2856444212887
 20
2024.055440168489
 30
-0.0000000046240195
 10
352.2854816051547
 20
2017.056084154486
 30
-0.0000000046240195
 10
352.2855621399356
 20
2003.494834809076
 30
-0.0000000046240195
 10
352.2858217142418
 20
1993.214534357761
 30
-0.0000000046240195
 10
352.2858217142418
 20
1986.215179553531
 30
-0.0000000046240195
  0
SPLINE
  5
766E
330
A
100
AcDbEntity
  8
MODEL
100
AcDbSpline
210
0.0
220
0.0
230
1.0
 70
     8
 71
     3
 72
    51
 73
    47
 74
     0
 42
0.000000001
 43
0.0000000001
 40
0.0
 40
0.0
 40
0.0
 40
0.0
 40
0.125
 40
0.1875
 40
0.25
 40
0.3125
 40
0.3437499999999999
 40
0.375
 40
0.4062500000000003
 40
0.4375000000000002
 40
0.4687500000000001
 40
0.4843749999999998
 40
0.5
 40
0.515625
 40
0.53125
 40
0.546875
 40
0.5625
 40
0.5703125
 40
0.578125
 40
0.5859375
 40
0.59375
 40
0.6015625
 40
0.609375
 40
0.6171875
 40
0.625
 40
0.6328125
 40
0.640625
 40
0.6484375
 40
0.65625
 40
0.6640625
 40
0.671875
 40
0.6796875
 40
0.6875
 40
0.6953125
 40
0.703125
 40
0.7109375
 40
0.71875
 40
0.734375
 40
0.75
 40
0.765625
 40
0.78125
 40
0.8125
 40
0.84375
 40
0.875
 40
0.9375
 40
1.0
 40
1.0
 40
1.0
 40
1.0
 10
619.9858217142385
 20
1823.515179553534
 30
-0.0000000046240195
 10
637.5541805347304
 20
1823.515179553534
 30
-0.0000000046240195
 10
663.9067188778715
 20
1823.51517050444
 30
-0.0000000046240195
 10
699.0434370029977
 20
1823.515113654655
 30
-0.0000000046240195
 10
725.3959757913246
 20
1823.515041953607
 30
-0.0000000046240195
 10
747.3564249664776
 20
1823.514952423352
 30
-0.0000000046240195
 10
764.9247841547697
 20
1823.514900893241
 30
-0.0000000046240195
 10
778.1010534043814
 20
1823.514881783142
 30
-0.0000000046240195
 10
791.2773224467085
 20
1823.514891700956
 30
-0.0000000046240195
 10
804.4535912160497
 20
1823.514940137105
 30
-0.0000000046240195
 10
815.4338149082826
 20
1823.515020507878
 30
-0.0000000046240195
 10
824.2179936598839
 20
1823.515113554097
 30
-0.0000000046240195
 10
830.8061276142905
 20
1823.515198899869
 30
-0.0000000046240195
 10
837.3942614511836
 20
1823.515300993043
 30
-0.0000000046240195
 10
843.9823963854649
 20
1823.515214624606
 30
-0.0000000046240195
 10
850.5705367424155
 20
1823.514269840521
 30
-0.0000000046240195
 10
856.0606470415007
 20
1823.514701502157
 30
-0.0000000046240195
 10
860.4527245713905
 20
1823.516938817344
 30
-0.0000000046240195
 10
863.7467794844335
 20
1823.540167836406
 30
-0.0000000046240195
 10
867.0398106213686
 20
1823.638050882363
 30
-0.0000000046240195
 10
870.3248469326566
 20
1823.910528209496
 30
-0.0000000046240195
 10
873.5697277740326
 20
1824.516588421297
 30
-0.0000000046240195
 10
876.6887967205769
 20
1825.612470049748
 30
-0.0000000046240195
 10
879.5619253792177
 20
1827.252561050062
 30
-0.0000000046240195
 10
882.0820848949877
 20
1829.395461249168
 30
-0.0000000046240195
 10
884.1705537413216
 20
1831.961517273844
 30
-0.0000000046240195
 10
885.7353416775147
 20
1834.877450275663
 30
-0.0000000046240195
 10
886.7327321548366
 20
1838.029329260421
 30
-0.0000000046240195
 10
887.2628675529775
 20
1841.286073118786
 30
-0.0000000046240195
 10
887.5110221238644
 20
1844.572072744143
 30
-0.0000000046240195
 10
887.6215374803717
 20
1847.864630182462
 30
-0.0000000046240195
 10
887.6666675334197
 20
1851.158450615904
 30
-0.0000000046240195
 10
887.6819785853875
 20
1854.452489151407
 30
-0.0000000046240195
 10
887.6864276662525
 20
1857.746551432857
 30
-0.0000000046240195
 10
887.6857438972145
 20
1861.040623489876
 30
-0.0000000046240195
 10
887.6856563994659
 20
1864.334691352072
 30
-0.0000000046240195
 10
887.6858772362468
 20
1868.726779470823
 30
-0.0000000046240195
 10
887.6859282306539
 20
1874.216891240615
 30
-0.0000000046240195
 10
887.6858260647275
 20
1880.805026545254
 30
-0.0000000046240195
 10
887.6857572628935
 20
1887.393161617506
 30
-0.0000000046240195
 10
887.6857033047856
 20
1896.177341449088
 30
-0.0000000046240195
 10
887.6856941131475
 20
1907.157565826709
 30
-0.0000000046240195
 10
887.6857360460197
 20
1920.333834691445
 30
-0.0000000046240195
 10
887.6858089112786
 20
1937.902193020632
 30
-0.0000000046240195
 10
887.6858311661047
 20
1959.862641313913
 30
-0.0000000046240195
 10
887.6858217142355
 20
1977.431000143282
 30
-0.0000000046240195
 10
887.6858217142355
 20
1986.215179553531
 30
-0.0000000046240195
  0
SPLINE
  5
766F
330
A
100
AcDbEntity
  8
MODEL
100
AcDbSpline
210
0.0
220
0.0
230
1.0
 70
     8
 71
     3
 72
    55
 73
    51
 74
     0
 42
0.000000001
 43
0.0000000001
 40
0.0
 40
0.0
 40
0.0
 40
0.0
 40
0.0625
 40
0.091796875
 40
0.12109375
 40
0.125
 40
0.1328125
 40
0.140625
 40
0.1484375
 40
0.15625
 40
0.1640625
 40
0.16796875
 40
0.169921875
 40
0.171875
 40
0.17578125
 40
0.1796875
 40
0.1875
 40
0.1953125
 40
0.203125
 40
0.2109375
 40
0.21875
 40
0.2265625
 40
0.234375
 40
0.2421875
 40
0.25
 40
0.2578125
 40
0.265625
 40
0.2734375
 40
0.28125
 40
0.2890625
 40
0.296875
 40
0.3046875
 40
0.3125
 40
0.328125
 40
0.34375
 40
0.359375
 40
0.375
 40
0.3828125
 40
0.41015625
 40
0.4375
 40
0.46875
 40
0.5
 40
0.53125
 40
0.5625
 40
0.625
 40
0.6875
 40
0.75
 40
0.8125
 40
0.875
 40
1.0
 40
1.0
 40
1.0
 40
1.0
 10
887.6858217142355
 20
1986.215179553531
 30
-0.0000000046240195
 10
887.6858217142355
 20
1993.214534357761
 30
-0.0000000046240195
 10
887.6860812885345
 20
2003.494834809076
 30
-0.0000000046240195
 10
887.6861618233158
 20
2017.056084154486
 30
-0.0000000046240195
 10
887.6859990071828
 20
2024.055440168489
 30
-0.0000000046240195
 10
887.6857722333805
 20
2028.648768440219
 30
-0.0000000046240195
 10
887.6856431060435
 20
2030.836067773678
 30
-0.0000000046240195
 10
887.6857568623598
 20
2033.460824982954
 30
-0.0000000046240195
 10
887.6864418606058
 20
2036.085577960154
 30
-0.0000000046240195
 10
887.6808925566945
 20
2038.710347801868
 30
-0.0000000046240195
 10
887.6429161518247
 20
2040.897458460352
 30
-0.0000000046240195
 10
887.5759393544288
 20
2042.427244952046
 30
-0.0000000046240195
 10
887.5219933724945
 20
2043.300496535775
 30
-0.0000000046240195
 10
887.4562208465425
 20
2044.172949419331
 30
-0.0000000046240195
 10
887.3492475569435
 20
2045.261660555406
 30
-0.0000000046240195
 10
887.1110615581927
 20
2046.9953869372
 30
-0.0000000046240195
 10
886.6610018306667
 20
2049.139171903228
 30
-0.0000000046240195
 10
885.8115986247647
 20
2051.628720602911
 30
-0.0000000046240195
 10
884.6265908868006
 20
2053.978419405546
 30
-0.0000000046240195
 10
883.1109573708088
 20
2056.129846162129
 30
-0.0000000046240195
 10
881.2995882640028
 20
2058.038973340444
 30
-0.0000000046240195
 10
879.2273737535509
 20
2059.661773408282
 30
-0.0000000046240195
 10
876.9382610731766
 20
2060.960655805087
 30
-0.0000000046240195
 10
874.4861448706286
 20
2061.914587298138
 30
-0.0000000046240195
 10
871.9327306348207
 20
2062.541914695291
 30
-0.0000000046240195
 10
869.3307309082668
 20
2062.904010908674
 30
-0.0000000046240195
 10
866.7118047042675
 20
2063.090962158326
 30
-0.0000000046240195
 10
864.0881808694896
 20
2063.176351718105
 30
-0.0000000046240195
 10
861.4635561271427
 20
2063.207422242623
 30
-0.0000000046240195
 10
858.8388227562248
 20
2063.216430857246
 30
-0.0000000046240195
 10
856.2140438846548
 20
2063.215010217237
 30
-0.0000000046240195
 10
853.5892826403358
 20
2063.214792977836
 30
-0.0000000046240195
 10
850.0896116781657
 20
2063.215233096274
 30
-0.0000000046240195
 10
845.7150190207828
 20
2063.215511383903
 30
-0.0000000046240195
 10
840.4655033368178
 20
2063.215536418676
 30
-0.0000000046240195
 10
835.2159849901288
 20
2063.215378609343
 30
-0.0000000046240195
 10
830.8413856759137
 20
2063.215199786718
 30
-0.0000000046240195
 10
825.1544073815814
 20
2063.215023614182
 30
-0.0000000046240195
 10
818.1550508788566
 20
2063.214903482104
 30
-0.0000000046240195
 10
808.5309378914828
 20
2063.214890944381
 30
-0.0000000046240195
 10
798.4693668107786
 20
2063.214988132076
 30
-0.0000000046240195
 10
787.9703367649488
 20
2063.215135113605
 30
-0.0000000046240195
 10
777.4713062458757
 20
2063.215250468219
 30
-0.0000000046240195
 10
763.4725983149399
 20
2063.215366009968
 30
-0.0000000046240195
 10
745.9742124387915
 20
2063.215446012942
 30
-0.0000000046240195
 10
724.9761482004317
 20
2063.215462366671
 30
-0.0000000046240195
 10
703.9780831281016
 20
2063.215422499469
 30
-0.0000000046240195
 10
682.9800175747948
 20
2063.215349840251
 30
-0.0000000046240195
 10
654.9825966664287
 20
2063.215240477151
 30
-0.0000000046240195
 10
633.9845313226976
 20
2063.215179553531
 30
-0.0000000046240195
 10
619.9858217142385
 20
2063.215179553531
 30
-0.0000000046240195
  0
LINE
  5
7670
102
{ACAD_REACTORS
330
78BF
102
}
330
A
100
AcDbEntity
  8
HIDDEN
 48
0.25
100
AcDbLine
 10
1517.039448288208
 20
937.9246972612689
 30
-0.0000000000000062
 11
1517.264614600434
 21
938.765029378653
 31
-0.0000000000000062
  0
LINE
  5
7671
330
A
100
AcDbEntity
  8
MODEL
 48
0.5
100
AcDbLine
 10
1557.390780085681
 20
1031.88134487317
 30
-0.0000000000000062
 11
1654.641851025624
 21
1031.88134487317
 31
-0.0000000000000062
  0
LINE
  5
7673
330
A
100
AcDbEntity
  8
MODEL
 48
0.5
100
AcDbLine
 10
1657.64185102562
 20
1028.88134487317
 30
-0.0000000000000062
 11
1657.64185102562
 21
961.0288638371048
 31
-0.0000000000000062
  0
LINE
  5
7687
330
A
100
AcDbEntity
  8
MODEL
 48
0.5
100
AcDbLine
 10
1310.775691909837
 20
1031.88134487317
 30
-0.0000000000000062
 11
1313.141028480132
 21
1031.88134487317
 31
-0.0000000000000062
  0
LINE
  5
7688
102
{ACAD_REACTORS
330
78BF
102
}
330
A
100
AcDbEntity
  8
HIDDEN
 48
0.25
100
AcDbLine
 10
1438.222874772569
 20
938.004484739896
 30
-0.0000000000000062
 11
1438.244253763035
 21
937.9246972612689
 31
-0.0000000000000062
  0
LINE
  5
768B
102
{ACAD_REACTORS
330
78BF
102
}
330
A
100
AcDbEntity
  8
HIDDEN
 48
0.25
100
AcDbLine
 10
1499.641851025624
 20
914.8813448731698
 30
-0.0000000000000062
 11
1499.742497927201
 21
920.6474020030139
 31
-0.0000000000000062
  0
LINE
  5
768C
102
{ACAD_REACTORS
330
78BF
102
}
330
A
100
AcDbEntity
  8
HIDDEN
 48
0.25
100
AcDbLine
 10
1500.813678183617
 20
922.8931781130589
 30
-0.0000000000000062
 11
1515.100618988593
 21
934.8813448731689
 31
-0.0000000000000062
  0
LINE
  5
7690
330
A
100
AcDbEntity
  8
MODEL
 48
0.5
100
AcDbLine
 10
1321.048501826609
 20
911.8813448731698
 30
-0.0000000000000062
 11
1315.753039401407
 21
911.8813448731698
 31
-0.0000000000000062
  0
LINE
  5
7691
330
A
100
AcDbEntity
  8
MODEL
 48
0.5
100
AcDbLine
 10
1312.755894736664
 20
914.750486711074
 30
-0.0000000000000062
 11
1307.778547245091
 21
1028.750486711072
 31
-0.0000000000000062
  0
LINE
  5
7693
102
{ACAD_REACTORS
330
78BF
102
}
330
A
100
AcDbEntity
  8
HIDDEN
 48
0.25
100
AcDbLine
 10
1440.18308306265
 20
934.8813448731689
 30
-0.0000000000000062
 11
1454.470023867632
 21
922.8931781130589
 31
-0.0000000000000062
  0
LINE
  5
7694
102
{ACAD_REACTORS
330
78BF
102
}
330
A
100
AcDbEntity
  8
HIDDEN
 48
0.25
100
AcDbLine
 10
1455.541204124039
 20
920.6474020030139
 30
-0.0000000000000062
 11
1455.641851025624
 21
914.8813448731698
 31
-0.0000000000000062
  0
ARC
  5
7697
102
{ACAD_REACTORS
330
78BF
102
}
330
A
100
AcDbEntity
  8
HIDDEN
 48
0.25
100
AcDbCircle
 10
1511.243893330474
 20
939.477611531883
 30
-0.0000000000000062
 40
6.000000000000001
100
AcDbArc
 50
310.0000000000209
 51
345.0000000000056
  0
ARC
  5
7698
102
{ACAD_REACTORS
330
78BF
102
}
330
A
100
AcDbEntity
  8
HIDDEN
 48
0.25
100
AcDbCircle
 10
1522.094243731879
 20
937.4709341531379
 30
-0.0000000000000062
 40
5.0
100
AcDbArc
 50
108.2370605069937
 51
165.0000000000056
  0
ARC
  5
7699
102
{ACAD_REACTORS
330
78BF
102
}
330
A
100
AcDbEntity
  8
HIDDEN
 48
0.25
100
AcDbCircle
 10
1557.390780085681
 20
1028.88134487317
 30
-0.0000000000000062
 40
3.0
100
AcDbArc
 50
90.0
 51
175.0003285173737
  0
ARC
  5
76A6
102
{ACAD_REACTORS
330
78BF
102
}
330
A
100
AcDbEntity
  8
HIDDEN
 48
0.25
100
AcDbCircle
 10
1313.141028480132
 20
1028.88134487317
 30
-0.0000000000000062
 40
3.0
100
AcDbArc
 50
28.09780022097235
 51
90.0
  0
ARC
  5
76A7
102
{ACAD_REACTORS
330
78BF
102
}
330
A
100
AcDbEntity
  8
HIDDEN
 48
0.25
100
AcDbCircle
 10
1433.393245641125
 20
936.7103895143839
 30
-0.0000000000000062
 40
5.0
100
AcDbArc
 50
14.99999999999445
 51
84.84369671952305
  0
ARC
  5
76A8
102
{ACAD_REACTORS
330
78BF
102
}
330
A
100
AcDbEntity
  8
HIDDEN
 48
0.25
100
AcDbCircle
 10
1444.03980872077
 20
939.477611531883
 30
-0.0000000000000062
 40
6.000000000000001
100
AcDbArc
 50
194.9999999999944
 51
229.9999999999791
  0
ARC
  5
76AB
102
{ACAD_REACTORS
330
78BF
102
}
330
A
100
AcDbEntity
  8
HIDDEN
 48
0.25
100
AcDbCircle
 10
1502.742041012673
 20
920.595044783704
 30
-0.0000000000000062
 40
3.0
100
AcDbArc
 50
130.0000000000209
 51
179.0000000000243
  0
ARC
  5
76AC
330
A
100
AcDbEntity
  8
MODEL
 48
0.5
100
AcDbCircle
 10
1654.641851025624
 20
1028.88134487317
 30
-0.0000000000000062
 40
3.0
100
AcDbArc
 50
0.0
 51
90.0
  0
ARC
  5
76B1
330
A
100
AcDbEntity
  8
MODEL
 48
0.5
100
AcDbCircle
 10
1315.753039401407
 20
914.8813448731689
 30
-0.0000000000000062
 40
3.0
100
AcDbArc
 50
182.4999999999659
 51
270.0
  0
ARC
  5
76B2
330
A
100
AcDbEntity
  8
MODEL
 48
0.5
100
AcDbCircle
 10
1310.775691909837
 20
1028.88134487317
 30
-0.0000000000000062
 40
3.0
100
AcDbArc
 50
90.0
 51
182.4999999999659
  0
ARC
  5
76B3
102
{ACAD_REACTORS
330
78BF
102
}
330
A
100
AcDbEntity
  8
HIDDEN
 48
0.25
100
AcDbCircle
 10
1452.541661038575
 20
920.595044783704
 30
-0.0000000000000062
 40
3.0
100
AcDbArc
 50
0.9999999999757105
 51
49.99999999996822
  0
SPLINE
  5
76B8
102
{ACAD_REACTORS
330
78BF
102
}
330
A
100
AcDbEntity
  8
HIDDEN
 48
0.25
100
AcDbSpline
210
0.0
220
0.0
230
1.0
 70
     8
 71
     3
 72
    43
 73
    39
 74
     0
 42
0.000000001
 43
0.0000000001
 40
0.0
 40
0.0
 40
0.0
 40
0.0
 40
0.0259443856769314
 40
0.0590683957100989
 40
0.0921924057432665
 40
0.1418784207930179
 40
0.1915644358427692
 40
0.2246884458759368
 40
0.2412504508925205
 40
0.2909364659422719
 40
0.3157794734671476
 40
0.3406224809920232
 40
0.357184486008607
 40
0.3654654885168989
 40
0.3903084960417745
 40
0.4151515035666503
 40
0.4234325060749421
 40
0.4399945110915259
 40
0.4648375186164016
 40
0.4896805261412773
 40
0.506242531157861
 40
0.5228045361744449
 40
0.5393665411910287
 40
0.5559285462076125
 40
0.5724905512241962
 40
0.58905255624078
 40
0.6221765662739476
 40
0.6470195737988231
 40
0.6718625813236989
 40
0.6884245863402826
 40
0.7215485963734501
 40
0.7546726064066177
 40
0.7712346114232015
 40
0.8209206264729528
 40
0.8706066415227043
 40
0.8871686465392881
 40
0.9202926565724556
 40
1.0
 40
1.0
 40
1.0
 40
1.0
 10
1520.529497124234
 20
942.2197832825459
 30
-0.0000000000000062
 10
1521.080840173689
 20
942.4014509124859
 30
-0.0000000000000062
 10
1522.338437642594
 20
942.818082478517
 30
-0.0000000000000062
 10
1524.313460531977
 20
943.482136015476
 30
-0.0000000000000062
 10
1526.817710051308
 20
944.3409619688368
 30
-0.0000000000000062
 10
1529.695303031237
 20
945.3700250315699
 30
-0.0000000000000062
 10
1532.542400389042
 20
946.46613053244
 30
-0.0000000000000062
 10
1534.619633546424
 20
947.3523111262709
 30
-0.0000000000000062
 10
1536.643336296803
 20
948.2930749607049
 30
-0.0000000000000062
 10
1538.421559447434
 20
949.2319820721859
 30
-0.0000000000000062
 10
1540.235363242648
 20
950.435509420684
 30
-0.0000000000000062
 10
1541.37449563322
 20
951.3387857906009
 30
-0.0000000000000062
 10
1542.168502665152
 20
952.0860622507419
 30
-0.0000000000000062
 10
1542.925684921005
 20
952.8832138771409
 30
-0.0000000000000062
 10
1543.751303651855
 20
953.89701696267
 30
-0.0000000000000062
 10
1544.499505337874
 20
955.0609642294648
 30
-0.0000000000000062
 10
1545.093503800185
 20
956.1620302522269
 30
-0.0000000000000062
 10
1545.653709715964
 20
957.344197461025
 30
-0.0000000000000062
 10
1546.333074715266
 20
959.116444088442
 30
-0.0000000000000062
 10
1546.936637616222
 20
961.1488643160619
 30
-0.0000000000000062
 10
1547.412876492077
 20
963.095412870852
 30
-0.0000000000000062
 10
1547.788932828332
 20
964.872091208824
 30
-0.0000000000000062
 10
1548.139464550366
 20
966.7485838374789
 30
-0.0000000000000062
 10
1548.463887370433
 20
968.710630078501
 30
-0.0000000000000062
 10
1548.765033953766
 20
970.743330637853
 30
-0.0000000000000062
 10
1549.144088679998
 20
973.5256895343209
 30
-0.0000000000000062
 10
1549.537141205838
 20
976.7526284680789
 30
-0.0000000000000062
 10
1549.944651475706
 20
980.423443358897
 30
-0.0000000000000062
 10
1550.254661570902
 20
983.3955084761249
 30
-0.0000000000000062
 10
1550.592855358283
 20
986.761978110545
 30
-0.0000000000000062
 10
1550.956958951539
 20
990.529836351368
 30
-0.0000000000000062
 10
1551.311919847828
 20
994.3256341006179
 30
-0.0000000000000062
 10
1551.731461135534
 20
998.896993029766
 30
-0.0000000000000062
 10
1552.212396817451
 20
1004.248955324355
 30
-0.0000000000000062
 10
1552.68794250153
 20
1009.60952032546
 30
-0.0000000000000062
 10
1553.093841902818
 20
1014.210644545026
 30
-0.0000000000000062
 10
1553.620910953433
 20
1020.207114236393
 30
-0.0000000000000062
 10
1554.078520893571
 20
1025.442944472035
 30
-0.0000000000000062
 10
1554.402194492281
 20
1029.142794965759
 30
-0.0000000000000062
  0
SPLINE
  5
76BB
102
{ACAD_REACTORS
330
78BF
102
}
330
A
100
AcDbEntity
  8
HIDDEN
 48
0.25
100
AcDbSpline
210
0.0
220
0.0
230
1.0
 70
     8
 71
     3
 72
    40
 73
    36
 74
     0
 42
0.000000001
 43
0.0000000001
 40
0.0
 40
0.0
 40
0.0
 40
0.0
 40
0.0552630699719078
 40
0.119629358509411
 40
0.1518125027781626
 40
0.1839956470469142
 40
0.2161787913156658
 40
0.2483619355844174
 40
0.280545079853169
 40
0.3127282241219206
 40
0.3449113683906722
 40
0.3610029405250479
 40
0.3770945126594238
 40
0.3931860847937996
 40
0.4092776569281754
 40
0.4414608011969269
 40
0.4575523733313028
 40
0.4736439454656786
 40
0.5058270897344301
 40
0.5380102340031817
 40
0.5701933782719333
 40
0.6023765225406849
 40
0.6184680946750606
 40
0.6345596668094365
 40
0.6828343832125638
 40
0.7069717414141276
 40
0.7311090996156913
 40
0.7632922438844428
 40
0.7793838160188187
 40
0.8276585324219461
 40
0.8759332488250734
 40
0.9242079652282008
 40
0.9483453234297645
 40
0.9724826816313282
 40
1.0
 40
1.0
 40
1.0
 40
1.0
 10
1315.787463327463
 20
1030.294278912271
 30
-0.0000000000000062
 10
1317.501308480915
 20
1027.084235547536
 30
-0.0000000000000062
 10
1321.247149763346
 20
1020.15515217297
 30
-0.0000000000000062
 10
1326.125304021863
 20
1011.419773794199
 30
-0.0000000000000062
 10
1330.375108030844
 20
1004.067676370577
 30
-0.0000000000000062
 10
1333.626810157582
 20
998.5923602284449
 30
-0.0000000000000062
 10
1336.950574827221
 20
993.166933533299
 30
-0.0000000000000062
 10
1340.356555890704
 20
987.81476221812
 30
-0.0000000000000062
 10
1343.854907198992
 20
982.559212215888
 30
-0.0000000000000062
 10
1347.457305936236
 20
977.4467445374748
 30
-0.0000000000000062
 10
1350.528044855485
 20
973.3854144555949
 30
-0.0000000000000062
 10
1353.020169625504
 20
970.3003138688559
 30
-0.0000000000000062
 10
1354.897393897548
 20
968.087866848354
 30
-0.0000000000000062
 10
1356.773112741344
 20
965.9961949275739
 30
-0.0000000000000062
 10
1359.25647319258
 20
963.387645172892
 30
-0.0000000000000062
 10
1361.690050478779
 20
961.078583637845
 30
-0.0000000000000062
 10
1364.051942185769
 20
959.067823077424
 30
-0.0000000000000062
 10
1366.352349110163
 20
957.255577843883
 30
-0.0000000000000062
 10
1369.125912988323
 20
955.327966336619
 30
-0.0000000000000062
 10
1372.351864204372
 20
953.433905562084
 30
-0.0000000000000062
 10
1375.542740069201
 20
951.8590181042919
 30
-0.0000000000000062
 10
1378.223736277917
 20
950.7503051122039
 30
-0.0000000000000062
 10
1380.425682095808
 20
949.95201977581
 30
-0.0000000000000062
 10
1383.238690905903
 20
949.0193075722088
 30
-0.0000000000000062
 10
1386.494764469656
 20
948.1173705308859
 30
-0.0000000000000062
 10
1390.290364084373
 20
947.248113632586
 30
-0.0000000000000062
 10
1393.607311820354
 20
946.5779776049928
 30
-0.0000000000000062
 10
1396.762011039305
 20
946.020912623256
 30
-0.0000000000000062
 10
1401.139071803891
 20
945.3225006944028
 30
-0.0000000000000062
 10
1406.493699428364
 20
944.570686487426
 30
-0.0000000000000062
 10
1413.770736527038
 20
943.6911694730329
 30
-0.0000000000000062
 10
1420.099323114745
 20
943.0115982871209
 30
-0.0000000000000062
 10
1425.300985211381
 20
942.490363494871
 30
-0.0000000000000062
 10
1429.446887190513
 20
942.0922163040659
 30
-0.0000000000000062
 10
1432.310722080781
 20
941.8283905715359
 30
-0.0000000000000062
 10
1433.842610846405
 20
941.690155664742
 30
-0.0000000000000062
  0
LINE
  5
76DF
330
A
100
AcDbEntity
  8
MODEL
 48
0.5
100
AcDbLine
 10
892.9254994311113
 20
913.8455603254558
 30
0.0
 11
894.9325195911292
 21
1028.827668285384
 31
0.0
  0
LINE
  5
76E0
330
A
100
AcDbEntity
  8
MODEL
 48
0.5
100
AcDbLine
 10
889.9264284478113
 20
911.881344873168
 30
0.0
 11
350.0452149806724
 21
911.881344873168
 31
0.0
  0
LINE
  5
76E1
330
A
100
AcDbEntity
  8
MODEL
 48
0.5
100
AcDbLine
 10
890.9258193966234
 20
911.881344873168
 30
0.0
 11
889.9264284478113
 21
911.881344873168
 31
0.0
  0
LINE
  5
76E2
330
A
100
AcDbEntity
  8
MODEL
 48
0.5
100
AcDbLine
 10
350.0452149806656
 20
911.881344873168
 30
0.0
 11
349.0458240318544
 21
911.881344873168
 31
0.0
  0
LINE
  5
76E3
330
A
100
AcDbEntity
  8
MODEL
 48
0.5
100
AcDbLine
 10
894.9325426207934
 20
1028.828987653856
 30
0.0
 11
892.9255147869403
 21
913.8464400602909
 31
0.0
  0
LINE
  5
76E4
330
A
100
AcDbEntity
  8
MODEL
 48
0.5
100
AcDbLine
 10
347.0461286415516
 20
913.8464400602909
 30
0.0
 11
345.0391008076904
 21
1028.828987653856
 31
0.0
  0
LINE
  5
76E5
330
A
100
AcDbEntity
  8
MODEL
 48
0.5
100
AcDbLine
 10
348.0386438931596
 20
1031.881344873168
 30
0.0
 11
891.9329995353323
 21
1031.881344873168
 31
0.0
  0
ARC
  5
76E6
330
A
100
AcDbEntity
  8
MODEL
 48
0.5
100
AcDbCircle
 10
890.9258193966234
 20
913.8813448731639
 30
0.0
 40
2.0
100
AcDbArc
 50
270.0
 51
358.9999999999982
  0
ARC
  5
76E7
330
A
100
AcDbEntity
  8
MODEL
 48
0.5
100
AcDbCircle
 10
349.0458240318544
 20
913.8813448731639
 30
0.0
 40
2.0
100
AcDbArc
 50
180.9999999999497
 51
270.0
  0
ARC
  5
76E8
330
A
100
AcDbEntity
  8
MODEL
 48
0.5
100
AcDbCircle
 10
891.9329995353323
 20
1028.881344873164
 30
0.0
 40
3.0
100
AcDbArc
 50
358.9999999999982
 51
90.0
  0
ARC
  5
76E9
330
A
100
AcDbEntity
  8
MODEL
 48
0.5
100
AcDbCircle
 10
348.0386438931596
 20
1028.881344873164
 30
0.0
 40
3.0
100
AcDbArc
 50
90.0
 51
180.9999999999497
  0
LINE
  5
76EC
330
A
100
AcDbEntity
  8
MODEL
100
AcDbLine
 10
349.0458010021975
 20
911.882664241637
 30
0.0
 11
350.0451919510083
 21
911.882664241637
 31
0.0
  0
LINE
  5
76ED
330
A
100
AcDbEntity
  8
MODEL
100
AcDbLine
 10
889.9264054181544
 20
911.882664241637
 30
0.0
 11
890.9257963669656
 21
911.882664241637
 31
0.0
  0
ARC
  5
76EE
330
A
100
AcDbEntity
  8
MODEL
100
AcDbCircle
 10
349.0458010021975
 20
913.8826642416329
 30
0.0
 40
2.0
100
AcDbArc
 50
180.9999999999757
 51
270.0
  0
ARC
  5
76EF
330
A
100
AcDbEntity
  8
MODEL
100
AcDbCircle
 10
890.9257963669656
 20
913.8826642416329
 30
0.0
 40
2.0
100
AcDbArc
 50
270.0
 51
359.0000000000243
  0
CIRCLE
  5
7701
330
A
100
AcDbEntity
  8
MODEL
  6
HIDDEN2
100
AcDbCircle
 10
519.9858217142385
 20
2103.86517955354
 30
-0.0000000053126276
 40
17.5
  0
CIRCLE
  5
7702
330
A
100
AcDbEntity
  8
MODEL
  6
HIDDEN2
100
AcDbCircle
 10
719.9858217142385
 20
2103.86517955354
 30
-0.0000000053126276
 40
17.5
  0
CIRCLE
  5
78A2
330
A
100
AcDbEntity
  8
HIDDEN
100
AcDbCircle
 10
1456.186406636002
 20
1986.215179553531
 30
-0.0000000046240195
 40
22.12450746108834
  0
CIRCLE
  5
78A3
330
A
100
AcDbEntity
  8
HIDDEN
  6
HIDDEN2
100
AcDbCircle
 10
1456.186406636002
 20
2103.86517955354
 30
-0.0000000053126276
 40
17.5
  0
LINE
  5
78A4
330
A
100
AcDbEntity
  8
HIDDEN
 48
0.5
100
AcDbLine
 10
1184.184579482415
 20
1816.215179553531
 30
-0.0000000046240195
 11
1728.188233789584
 21
1816.215179553531
 31
-0.0000000046240195
  0
LINE
  5
78A5
330
A
100
AcDbEntity
  8
HIDDEN
 48
0.5
100
AcDbLine
 10
1731.186406636002
 20
1819.215751643459
 30
-0.0000000046240195
 11
1731.186406636002
 21
2166.215179553531
 31
-0.0000000046240195
  0
LINE
  5
78A6
330
A
100
AcDbEntity
  8
HIDDEN
 48
0.5
100
AcDbLine
 10
1731.186406636002
 20
2166.215179553531
 30
-0.0000000046240195
 11
1181.186406636002
 21
2166.215179553531
 31
-0.0000000046240195
  0
LINE
  5
78A7
330
A
100
AcDbEntity
  8
HIDDEN
 48
0.5
100
AcDbLine
 10
1181.186406636002
 20
2166.215179553531
 30
-0.0000000046240195
 11
1181.186406636002
 21
1819.215751643459
 31
-0.0000000046240195
  0
CIRCLE
  5
78A9
330
A
100
AcDbEntity
  8
HIDDEN
 48
0.5
100
AcDbCircle
 10
1456.186406636002
 20
1986.215179553531
 30
-0.0000000046240195
 40
22.0
  0
ELLIPSE
  5
78AA
330
A
100
AcDbEntity
  8
HIDDEN
 48
0.5
100
AcDbEllipse
 10
1728.18594965187
 20
1819.218037609021
 30
-0.0000000046240195
 11
1.114890272397565
 21
-2.788712659195829
 31
0.0
210
0.0
220
0.0
230
1.0
 40
0.9988963511398482
 41
5.903243289623675
 42
7.473278353068166
  0
ELLIPSE
  5
78AB
330
A
100
AcDbEntity
  8
HIDDEN
 48
0.5
100
AcDbEllipse
 10
1184.186863620135
 20
1819.218037609021
 30
-0.0000000046240195
 11
-1.114890272397563
 21
-2.788712659195828
 31
0.0
210
0.0
220
0.0
230
1.0
 40
0.9988963511398486
 41
5.093092261291005
 42
6.663127324735497
  0
SPLINE
  5
78AC
330
A
100
AcDbEntity
  8
HIDDEN
100
AcDbSpline
210
0.0
220
0.0
230
1.0
 70
     8
 71
     3
 72
    51
 73
    47
 74
     0
 42
0.000000001
 43
0.0000000001
 40
0.0
 40
0.0
 40
0.0
 40
0.0
 40
0.125
 40
0.1875
 40
0.25
 40
0.3125
 40
0.3437499999999999
 40
0.3749999999999999
 40
0.4062500000000003
 40
0.4375000000000002
 40
0.4687500000000001
 40
0.4843749999999998
 40
0.5
 40
0.515625
 40
0.53125
 40
0.546875
 40
0.5625
 40
0.5703125
 40
0.578125
 40
0.5859375
 40
0.59375
 40
0.6015625
 40
0.609375
 40
0.6171875
 40
0.625
 40
0.6328125
 40
0.640625
 40
0.6484375
 40
0.65625
 40
0.6640625
 40
0.671875
 40
0.6796875
 40
0.6875
 40
0.6953125
 40
0.703125
 40
0.7109375
 40
0.71875
 40
0.734375
 40
0.75
 40
0.765625
 40
0.78125
 40
0.8125
 40
0.84375
 40
0.875
 40
0.9375
 40
1.0
 40
1.0
 40
1.0
 40
1.0
 10
1456.186406636002
 20
1823.515179553534
 30
-0.0000000046240195
 10
1438.618047815504
 20
1823.515179553534
 30
-0.0000000046240195
 10
1412.265509472363
 20
1823.51517050444
 30
-0.0000000046240195
 10
1377.128791347237
 20
1823.515113654655
 30
-0.0000000046240195
 10
1350.776252558909
 20
1823.515041953607
 30
-0.0000000046240195
 10
1328.815803383756
 20
1823.514952423352
 30
-0.0000000046240195
 10
1311.247444195473
 20
1823.514900893241
 30
-0.0000000046240195
 10
1298.071174945853
 20
1823.514881783142
 30
-0.0000000046240195
 10
1284.894905903526
 20
1823.514891700956
 30
-0.0000000046240195
 10
1271.718637134185
 20
1823.514940137105
 30
-0.0000000046240195
 10
1260.738413441951
 20
1823.515020507878
 30
-0.0000000046240195
 10
1251.954234690351
 20
1823.515113554097
 30
-0.0000000046240195
 10
1245.366100735944
 20
1823.515198899869
 30
-0.0000000046240195
 10
1238.777966899059
 20
1823.515300993043
 30
-0.0000000046240195
 10
1232.189831964776
 20
1823.515214624606
 30
-0.0000000046240195
 10
1225.601691607825
 20
1823.514269840521
 30
-0.0000000046240195
 10
1220.111581308735
 20
1823.514701502157
 30
-0.0000000046240195
 10
1215.719503778844
 20
1823.516938817344
 30
-0.0000000046240195
 10
1212.4254488658
 20
1823.540167836406
 30
-0.0000000046240195
 10
1209.132417728865
 20
1823.638050882363
 30
-0.0000000046240195
 10
1205.847381417577
 20
1823.910528209496
 30
-0.0000000046240195
 10
1202.602500576201
 20
1824.516588421297
 30
-0.0000000046240195
 10
1199.483431629658
 20
1825.612470049748
 30
-0.0000000046240195
 10
1196.610302971025
 20
1827.252561050062
 30
-0.0000000046240195
 10
1194.090143455247
 20
1829.395461249168
 30
-0.0000000046240195
 10
1192.001674608912
 20
1831.961517273844
 30
-0.0000000046240195
 10
1190.43688667272
 20
1834.877450275663
 30
-0.0000000046240195
 10
1189.439496195399
 20
1838.029329260421
 30
-0.0000000046240195
 10
1188.909360797265
 20
1841.286073118786
 30
-0.0000000046240195
 10
1188.661206226378
 20
1844.572072744143
 30
-0.0000000046240195
 10
1188.55069086987
 20
1847.864630182462
 30
-0.0000000046240195
 10
1188.505560816815
 20
1851.158450615904
 30
-0.0000000046240195
 10
1188.490249764847
 20
1854.452489151407
 30
-0.0000000046240195
 10
1188.485800683982
 20
1857.746551432857
 30
-0.0000000046240195
 10
1188.486484453028
 20
1861.040623489876
 30
-0.0000000046240195
 10
1188.486571950769
 20
1864.334691352072
 30
-0.0000000046240195
 10
1188.486351113989
 20
1868.726779470823
 30
-0.0000000046240195
 10
1188.486300119581
 20
1874.216891240615
 30
-0.0000000046240195
 10
1188.486402285507
 20
1880.805026545254
 30
-0.0000000046240195
 10
1188.486471087341
 20
1887.393161617506
 30
-0.0000000046240195
 10
1188.48652504545
 20
1896.177341449088
 30
-0.0000000046240195
 10
1188.486534237094
 20
1907.157565826709
 30
-0.0000000046240195
 10
1188.486492304222
 20
1920.333834691445
 30
-0.0000000046240195
 10
1188.486419438963
 20
1937.902193020632
 30
-0.0000000046240195
 10
1188.48639718413
 20
1959.862641313913
 30
-0.0000000046240195
 10
1188.486406636006
 20
1977.431000143282
 30
-0.0000000046240195
 10
1188.486406636006
 20
1986.215179553531
 30
-0.0000000046240195
  0
SPLINE
  5
78AD
330
A
100
AcDbEntity
  8
HIDDEN
100
AcDbSpline
210
0.0
220
0.0
230
1.0
 70
     8
 71
     3
 72
    55
 73
    51
 74
     0
 42
0.000000001
 43
0.0000000001
 40
0.0
 40
0.0
 40
0.0
 40
0.0
 40
0.125
 40
0.1875
 40
0.25
 40
0.3125
 40
0.375
 40
0.4375
 40
0.46875
 40
0.5
 40
0.53125
 40
0.5625
 40
0.58984375
 40
0.6171875
 40
0.625
 40
0.640625
 40
0.65625
 40
0.671875
 40
0.6875
 40
0.6953125
 40
0.703125
 40
0.7109375
 40
0.71875
 40
0.7265625
 40
0.734375
 40
0.7421875
 40
0.75
 40
0.7578125
 40
0.765625
 40
0.7734375
 40
0.78125
 40
0.7890625
 40
0.796875
 40
0.8046875
 40
0.8125
 40
0.8203125
 40
0.82421875
 40
0.828125
 40
0.830078125
 40
0.83203125
 40
0.8359375
 40
0.84375
 40
0.8515625
 40
0.859375
 40
0.8671875
 40
0.875
 40
0.87890625
 40
0.908203125
 40
0.9375
 40
1.0
 40
1.0
 40
1.0
 40
1.0
 10
1456.186406636002
 20
2063.215179553531
 30
-0.0000000046240195
 10
1442.187697027536
 20
2063.215179553531
 30
-0.0000000046240195
 10
1421.189631683814
 20
2063.215240477151
 30
-0.0000000046240195
 10
1393.19221077544
 20
2063.215349840251
 30
-0.0000000046240195
 10
1372.194145222132
 20
2063.215422499469
 30
-0.0000000046240195
 10
1351.196080149803
 20
2063.215462366671
 30
-0.0000000046240195
 10
1330.19801591145
 20
2063.215446012942
 30
-0.0000000046240195
 10
1312.699630035295
 20
2063.215366009968
 30
-0.0000000046240195
 10
1298.700922104359
 20
2063.215250468219
 30
-0.0000000046240195
 10
1288.201891585293
 20
2063.215135113605
 30
-0.0000000046240195
 10
1277.702861539455
 20
2063.214988132076
 30
-0.0000000046240195
 10
1267.641290458752
 20
2063.214890944381
 30
-0.0000000046240195
 10
1258.017177471386
 20
2063.214903482104
 30
-0.0000000046240195
 10
1251.017820968653
 20
2063.215023614182
 30
-0.0000000046240195
 10
1245.330842674321
 20
2063.215199786718
 30
-0.0000000046240195
 10
1240.956243360112
 20
2063.215378609343
 30
-0.0000000046240195
 10
1235.706725013417
 20
2063.215536418676
 30
-0.0000000046240195
 10
1230.457209329458
 20
2063.215511383903
 30
-0.0000000046240195
 10
1226.082616672076
 20
2063.215233096274
 30
-0.0000000046240195
 10
1222.582945709906
 20
2063.214792977836
 30
-0.0000000046240195
 10
1219.958184465587
 20
2063.215010217237
 30
-0.0000000046240195
 10
1217.333405594011
 20
2063.216430857246
 30
-0.0000000046240195
 10
1214.708672223093
 20
2063.207422242623
 30
-0.0000000046240195
 10
1212.084047480752
 20
2063.176351718105
 30
-0.0000000046240195
 10
1209.460423645967
 20
2063.090962158326
 30
-0.0000000046240195
 10
1206.841497441975
 20
2062.904010908674
 30
-0.0000000046240195
 10
1204.239497715415
 20
2062.541914695291
 30
-0.0000000046240195
 10
1201.686083479605
 20
2061.914587298138
 30
-0.0000000046240195
 10
1199.233967277057
 20
2060.960655805087
 30
-0.0000000046240195
 10
1196.944854596684
 20
2059.661773408282
 30
-0.0000000046240195
 10
1194.872640086239
 20
2058.038973340444
 30
-0.0000000046240195
 10
1193.061270979426
 20
2056.129846162129
 30
-0.0000000046240195
 10
1191.545637463433
 20
2053.978419405546
 30
-0.0000000046240195
 10
1190.36062972547
 20
2051.628720602911
 30
-0.0000000046240195
 10
1189.511226519575
 20
2049.139171903228
 30
-0.0000000046240195
 10
1189.061166792042
 20
2046.9953869372
 30
-0.0000000046240195
 10
1188.822980793291
 20
2045.261660555406
 30
-0.0000000046240195
 10
1188.716007503692
 20
2044.172949419331
 30
-0.0000000046240195
 10
1188.650234977748
 20
2043.300496535775
 30
-0.0000000046240195
 10
1188.596288995807
 20
2042.427244952046
 30
-0.0000000046240195
 10
1188.529312198411
 20
2040.897458460352
 30
-0.0000000046240195
 10
1188.491335793548
 20
2038.710347801868
 30
-0.0000000046240195
 10
1188.48578648963
 20
2036.085577960154
 30
-0.0000000046240195
 10
1188.486471487875
 20
2033.460824982954
 30
-0.0000000046240195
 10
1188.486585244191
 20
2030.836067773678
 30
-0.0000000046240195
 10
1188.486456116854
 20
2028.648768440219
 30
-0.0000000046240195
 10
1188.486229343053
 20
2024.055440168489
 30
-0.0000000046240195
 10
1188.486066526919
 20
2017.056084154486
 30
-0.0000000046240195
 10
1188.4861470617
 20
2003.494834809076
 30
-0.0000000046240195
 10
1188.486406636006
 20
1993.214534357761
 30
-0.0000000046240195
 10
1188.486406636006
 20
1986.215179553531
 30
-0.0000000046240195
  0
SPLINE
  5
78AE
330
A
100
AcDbEntity
  8
HIDDEN
100
AcDbSpline
210
0.0
220
0.0
230
1.0
 70
     8
 71
     3
 72
    51
 73
    47
 74
     0
 42
0.000000001
 43
0.0000000001
 40
0.0
 40
0.0
 40
0.0
 40
0.0
 40
0.125
 40
0.1875
 40
0.25
 40
0.3125
 40
0.3437499999999999
 40
0.375
 40
0.4062500000000003
 40
0.4375000000000002
 40
0.4687500000000001
 40
0.4843749999999998
 40
0.5
 40
0.515625
 40
0.53125
 40
0.546875
 40
0.5625
 40
0.5703125
 40
0.578125
 40
0.5859375
 40
0.59375
 40
0.6015625
 40
0.609375
 40
0.6171875
 40
0.625
 40
0.6328125
 40
0.640625
 40
0.6484375
 40
0.65625
 40
0.6640625
 40
0.671875
 40
0.6796875
 40
0.6875
 40
0.6953125
 40
0.703125
 40
0.7109375
 40
0.71875
 40
0.734375
 40
0.75
 40
0.765625
 40
0.78125
 40
0.8125
 40
0.84375
 40
0.875
 40
0.9375
 40
1.0
 40
1.0
 40
1.0
 40
1.0
 10
1456.186406636002
 20
1823.515179553534
 30
-0.0000000046240195
 10
1473.754765456494
 20
1823.515179553534
 30
-0.0000000046240195
 10
1500.107303799635
 20
1823.51517050444
 30
-0.0000000046240195
 10
1535.244021924762
 20
1823.515113654655
 30
-0.0000000046240195
 10
1561.596560713089
 20
1823.515041953607
 30
-0.0000000046240195
 10
1583.557009888242
 20
1823.514952423352
 30
-0.0000000046240195
 10
1601.125369076534
 20
1823.514900893241
 30
-0.0000000046240195
 10
1614.301638326145
 20
1823.514881783142
 30
-0.0000000046240195
 10
1627.477907368472
 20
1823.514891700956
 30
-0.0000000046240195
 10
1640.654176137814
 20
1823.514940137105
 30
-0.0000000046240195
 10
1651.634399830047
 20
1823.515020507878
 30
-0.0000000046240195
 10
1660.418578581648
 20
1823.515113554097
 30
-0.0000000046240195
 10
1667.006712536054
 20
1823.515198899869
 30
-0.0000000046240195
 10
1673.594846372948
 20
1823.515300993043
 30
-0.0000000046240195
 10
1680.182981307229
 20
1823.515214624606
 30
-0.0000000046240195
 10
1686.771121664179
 20
1823.514269840521
 30
-0.0000000046240195
 10
1692.261231963265
 20
1823.514701502157
 30
-0.0000000046240195
 10
1696.653309493154
 20
1823.516938817344
 30
-0.0000000046240195
 10
1699.947364406197
 20
1823.540167836406
 30
-0.0000000046240195
 10
1703.240395543133
 20
1823.638050882363
 30
-0.0000000046240195
 10
1706.525431854421
 20
1823.910528209496
 30
-0.0000000046240195
 10
1709.770312695797
 20
1824.516588421297
 30
-0.0000000046240195
 10
1712.889381642341
 20
1825.612470049748
 30
-0.0000000046240195
 10
1715.762510300982
 20
1827.252561050062
 30
-0.0000000046240195
 10
1718.282669816752
 20
1829.395461249168
 30
-0.0000000046240195
 10
1720.371138663086
 20
1831.961517273844
 30
-0.0000000046240195
 10
1721.935926599279
 20
1834.877450275663
 30
-0.0000000046240195
 10
1722.933317076601
 20
1838.029329260421
 30
-0.0000000046240195
 10
1723.463452474741
 20
1841.286073118786
 30
-0.0000000046240195
 10
1723.711607045628
 20
1844.572072744143
 30
-0.0000000046240195
 10
1723.822122402136
 20
1847.864630182462
 30
-0.0000000046240195
 10
1723.867252455184
 20
1851.158450615904
 30
-0.0000000046240195
 10
1723.882563507151
 20
1854.452489151407
 30
-0.0000000046240195
 10
1723.887012588016
 20
1857.746551432857
 30
-0.0000000046240195
 10
1723.886328818978
 20
1861.040623489876
 30
-0.0000000046240195
 10
1723.88624132123
 20
1864.334691352072
 30
-0.0000000046240195
 10
1723.886462158011
 20
1868.726779470823
 30
-0.0000000046240195
 10
1723.886513152418
 20
1874.216891240615
 30
-0.0000000046240195
 10
1723.886410986491
 20
1880.805026545254
 30
-0.0000000046240195
 10
1723.886342184657
 20
1887.393161617506
 30
-0.0000000046240195
 10
1723.88628822655
 20
1896.177341449088
 30
-0.0000000046240195
 10
1723.886279034911
 20
1907.157565826709
 30
-0.0000000046240195
 10
1723.886320967784
 20
1920.333834691445
 30
-0.0000000046240195
 10
1723.886393833043
 20
1937.902193020632
 30
-0.0000000046240195
 10
1723.886416087869
 20
1959.862641313913
 30
-0.0000000046240195
 10
1723.886406635999
 20
1977.431000143282
 30
-0.0000000046240195
 10
1723.886406635999
 20
1986.215179553531
 30
-0.0000000046240195
  0
SPLINE
  5
78AF
330
A
100
AcDbEntity
  8
HIDDEN
100
AcDbSpline
210
0.0
220
0.0
230
1.0
 70
     8
 71
     3
 72
    55
 73
    51
 74
     0
 42
0.000000001
 43
0.0000000001
 40
0.0
 40
0.0
 40
0.0
 40
0.0
 40
0.0625
 40
0.091796875
 40
0.12109375
 40
0.125
 40
0.1328125
 40
0.140625
 40
0.1484375
 40
0.15625
 40
0.1640625
 40
0.16796875
 40
0.169921875
 40
0.171875
 40
0.17578125
 40
0.1796875
 40
0.1875
 40
0.1953125
 40
0.203125
 40
0.2109375
 40
0.21875
 40
0.2265625
 40
0.234375
 40
0.2421875
 40
0.25
 40
0.2578125
 40
0.265625
 40
0.2734375
 40
0.28125
 40
0.2890625
 40
0.296875
 40
0.3046875
 40
0.3125
 40
0.328125
 40
0.34375
 40
0.359375
 40
0.375
 40
0.3828125
 40
0.41015625
 40
0.4375
 40
0.46875
 40
0.5
 40
0.53125
 40
0.5625
 40
0.625
 40
0.6875
 40
0.75
 40
0.8125
 40
0.875
 40
1.0
 40
1.0
 40
1.0
 40
1.0
 10
1723.886406635999
 20
1986.215179553531
 30
-0.0000000046240195
 10
1723.886406635999
 20
1993.214534357761
 30
-0.0000000046240195
 10
1723.886666210298
 20
2003.494834809076
 30
-0.0000000046240195
 10
1723.88674674508
 20
2017.056084154486
 30
-0.0000000046240195
 10
1723.886583928947
 20
2024.055440168489
 30
-0.0000000046240195
 10
1723.886357155144
 20
2028.648768440219
 30
-0.0000000046240195
 10
1723.886228027807
 20
2030.836067773678
 30
-0.0000000046240195
 10
1723.886341784124
 20
2033.460824982954
 30
-0.0000000046240195
 10
1723.88702678237
 20
2036.085577960154
 30
-0.0000000046240195
 10
1723.881477478458
 20
2038.710347801868
 30
-0.0000000046240195
 10
1723.843501073589
 20
2040.897458460352
 30
-0.0000000046240195
 10
1723.776524276193
 20
2042.427244952046
 30
-0.0000000046240195
 10
1723.722578294258
 20
2043.300496535775
 30
-0.0000000046240195
 10
1723.656805768306
 20
2044.172949419331
 30
-0.0000000046240195
 10
1723.549832478707
 20
2045.261660555406
 30
-0.0000000046240195
 10
1723.311646479957
 20
2046.9953869372
 30
-0.0000000046240195
 10
1722.861586752431
 20
2049.139171903228
 30
-0.0000000046240195
 10
1722.012183546529
 20
2051.628720602911
 30
-0.0000000046240195
 10
1720.827175808565
 20
2053.978419405546
 30
-0.0000000046240195
 10
1719.311542292573
 20
2056.129846162129
 30
-0.0000000046240195
 10
1717.500173185767
 20
2058.038973340444
 30
-0.0000000046240195
 10
1715.427958675315
 20
2059.661773408282
 30
-0.0000000046240195
 10
1713.138845994941
 20
2060.960655805087
 30
-0.0000000046240195
 10
1710.686729792392
 20
2061.914587298138
 30
-0.0000000046240195
 10
1708.133315556585
 20
2062.541914695291
 30
-0.0000000046240195
 10
1705.531315830031
 20
2062.904010908674
 30
-0.0000000046240195
 10
1702.912389626031
 20
2063.090962158326
 30
-0.0000000046240195
 10
1700.288765791254
 20
2063.176351718105
 30
-0.0000000046240195
 10
1697.664141048907
 20
2063.207422242623
 30
-0.0000000046240195
 10
1695.039407677989
 20
2063.216430857246
 30
-0.0000000046240195
 10
1692.414628806419
 20
2063.215010217237
 30
-0.0000000046240195
 10
1689.7898675621
 20
2063.214792977836
 30
-0.0000000046240195
 10
1686.29019659993
 20
2063.215233096274
 30
-0.0000000046240195
 10
1681.915603942547
 20
2063.215511383903
 30
-0.0000000046240195
 10
1676.666088258582
 20
2063.215536418676
 30
-0.0000000046240195
 10
1671.416569911893
 20
2063.215378609343
 30
-0.0000000046240195
 10
1667.041970597678
 20
2063.215199786718
 30
-0.0000000046240195
 10
1661.354992303345
 20
2063.215023614182
 30
-0.0000000046240195
 10
1654.355635800621
 20
2063.214903482104
 30
-0.0000000046240195
 10
1644.731522813247
 20
2063.214890944381
 30
-0.0000000046240195
 10
1634.669951732543
 20
2063.214988132076
 30
-0.0000000046240195
 10
1624.170921686713
 20
2063.215135113605
 30
-0.0000000046240195
 10
1613.67189116764
 20
2063.215250468219
 30
-0.0000000046240195
 10
1599.673183236704
 20
2063.215366009968
 30
-0.0000000046240195
 10
1582.174797360555
 20
2063.215446012942
 30
-0.0000000046240195
 10
1561.176733122196
 20
2063.215462366671
 30
-0.0000000046240195
 10
1540.178668049866
 20
2063.215422499469
 30
-0.0000000046240195
 10
1519.180602496559
 20
2063.215349840251
 30
-0.0000000046240195
 10
1491.183181588193
 20
2063.215240477151
 30
-0.0000000046240195
 10
1470.185116244462
 20
2063.215179553531
 30
-0.0000000046240195
 10
1456.186406636002
 20
2063.215179553531
 30
-0.0000000046240195
  0
CIRCLE
  5
78B4
330
A
100
AcDbEntity
  8
HIDDEN
  6
HIDDEN2
100
AcDbCircle
 10
1356.186406636002
 20
2103.86517955354
 30
-0.0000000053126276
 40
17.5
  0
CIRCLE
  5
78B5
330
A
100
AcDbEntity
  8
HIDDEN
  6
HIDDEN2
100
AcDbCircle
 10
1556.186406636002
 20
2103.86517955354
 30
-0.0000000053126276
 40
17.5
  0
MTEXT
  5
78D6
330
A
100
AcDbEntity
  8
Dim
390
1D
100
AcDbMText
 10
1189.183823663062
 20
1612.424266243212
 30
34.99521132346015
 40
24.0
 41
1169.771715461011
 46
0.0
 71
     1
 72
     1
  1
※陶器製品には寸法公差があります。\P  洗面器の収め方をご確認の上、必ず現物を合わせて\P  カウンターに切込を行ってください。
  7
ＭＳ ゴシック
 73
     1
 44
1.174240107638677
  0
MTEXT
  5
78D7
330
A
100
AcDbEntity
  8
Dim
390
1D
100
AcDbMText
 10
258.6422546506833
 20
1611.501709684321
 30
34.99521132346015
 40
24.4326171875
 41
833.929798641839
 46
0.0
 71
     1
 72
     1
  1
＝φ30もしくはφ35の水栓取付用穴あけ加工を承ります。\P  必要な場合、ご注文の際にご指示ください。
  7
ＭＳ ゴシック
 73
     1
 44
1.043768984567712
  0
CIRCLE
  5
78D8
330
A
100
AcDbEntity
  8
HIDDEN
 48
0.58
390
1D
100
AcDbCircle
 10
227.2752249525954
 20
1596.912885228038
 30
34.99521132346015
 40
17.5
  0
MTEXT
  5
78DC
330
A
100
AcDbEntity
  8
Dim
390
1D
100
AcDbMText
 10
1326.626038451027
 20
2362.721277208709
 30
34.99521132346015
 40
24.0
 41
0.0
 46
27.413396484375
 71
     1
 72
     1
  1
{カウンター切込寸法}
  7
ＭＳ ゴシック
 73
     1
 44
0.7828267384257843
1001
ACAD
1000
ACAD_MTEXT_DEFINED_HEIGHT_BEGIN
1070
    46
1040
27.413396484375
1000
ACAD_MTEXT_DEFINED_HEIGHT_END
  0
DIMENSION
  5
78E0
102
{ACAD_XDICTIONARY
360
78E1
102
}
330
A
100
AcDbEntity
  8
Dim
100
AcDbDimension
  2
*D10
 10
619.9858217142385
 20
2213.585720279992
 30
0.0
 11
569.9858217142385
 21
2235.806611708028
 31
0.0
 70
    32
 71
     5
 42
100.0
 73
     0
 74
     0
 75
     0
  3
tform線あり
100
AcDbAlignedDimension
 13
519.9858217142385
 23
2119.86517955354
 33
-0.0000000053126276
 14
619.9858217142385
 24
2121.36517955354
 34
-0.0000000053126276
100
AcDbRotatedDimension
  0
DIMENSION
  5
78E3
102
{ACAD_XDICTIONARY
360
78E4
102
}
330
A
100
AcDbEntity
  8
Dim
100
AcDbDimension
  2
*D11
 10
619.9858217142385
 20
2213.585720279992
 30
0.0
 11
669.9858217142385
 21
2235.806611708028
 31
0.0
 70
    32
 71
     5
 42
100.0
 73
     0
 74
     0
 75
     0
 52
-90.00000000000001
  3
tform線あり
100
AcDbAlignedDimension
 13
719.9858217142385
 23
2119.86517955354
 33
-0.0000000053126276
 14
619.9858217142385
 24
2121.36517955354
 34
-0.0000000053126276
 50
179.9999999999999
100
AcDbRotatedDimension
  0
DIMENSION
  5
7911
102
{ACAD_REACTORS
330
7913
102
}
102
{ACAD_XDICTIONARY
360
7912
102
}
330
A
100
AcDbEntity
  8
Dim
100
AcDbDimension
  2
*D12
 10
894.9858217142385
 20
2274.819256341575
 30
0.0
 11
619.9858217142385
 21
2297.04014776961
 31
0.0
 70
    32
 71
     5
 42
550.0
 73
     0
 74
     0
 75
     0
  3
tform線あり
100
AcDbAlignedDimension
 13
344.9858217142385
 23
2166.215179553531
 33
-0.0000000046240195
 14
894.9858217142385
 24
2166.215179553531
 34
-0.0000000046240195
100
AcDbRotatedDimension
  0
DIMENSION
  5
7920
102
{ACAD_REACTORS
330
7922
102
}
102
{ACAD_XDICTIONARY
360
7921
102
}
330
A
100
AcDbEntity
  8
Dim
100
AcDbDimension
  2
*D13
 10
997.658761489074
 20
1816.215179553531
 30
0.0
 11
975.4378700610386
 21
1991.215179553531
 31
0.0
 70
    32
 71
     5
 42
350.0000000000002
 73
     0
 74
     0
 75
     0
  3
tform線あり
100
AcDbAlignedDimension
 13
894.9858217142385
 23
2166.215179553531
 33
-0.0000000046240195
 14
891.9876488678199
 24
1816.215179553531
 34
-0.0000000046240195
 50
90.0
100
AcDbRotatedDimension
  0
DIMENSION
  5
792F
330
A
100
AcDbEntity
  8
Dim
100
AcDbDimension
  2
*D14
 10
884.9858217142354
 20
1719.839767764392
 30
0.0
 11
619.9858217142354
 21
1742.060659192427
 31
0.0
 70
    32
 71
     5
 42
530.0
 73
     0
 74
     0
 75
     0
  3
tform線あり
100
AcDbAlignedDimension
 13
354.9858217142353
 23
1823.728214467044
 33
-0.0000000046240195
 14
884.9858217142354
 24
1823.728214467044
 34
-0.0000000046240195
100
AcDbRotatedDimension
  0
DIMENSION
  5
7940
330
A
100
AcDbEntity
  8
Dim
100
AcDbDimension
  2
*D15
 10
273.1132548663559
 20
2066.215179553531
 30
0.0
 11
250.8923634383204
 21
2116.215179553531
 31
0.0
 70
    32
 71
     5
 42
100.0
 73
     0
 74
     0
 75
     0
  3
tform線あり
100
AcDbAlignedDimension
 13
356.7068373505663
 23
2166.215179553531
 33
-0.0000000046240195
 14
356.7068373505663
 24
2066.215179553531
 34
-0.0000000046240195
 50
90.0
100
AcDbRotatedDimension
  0
DIMENSION
  5
794D
330
A
100
AcDbEntity
  8
Dim
100
AcDbDimension
  2
*D16
 10
273.1132548663559
 20
1826.271635665733
 30
0.0
 11
250.8923634383204
 21
1946.243407609632
 31
0.0
 70
    32
 71
     5
 42
239.9435438877977
 73
     0
 74
     0
 75
     0
  3
tform線あり
100
AcDbAlignedDimension
 13
356.7068373505663
 23
2066.215179553531
 33
0.0
 14
351.5014798638545
 24
1826.271635665733
 34
-0.0000000054444905
 50
90.0
100
AcDbRotatedDimension
  0
DIMENSION
  5
795F
330
A
100
AcDbEntity
  8
Dim
100
AcDbDimension
  2
*D17
 10
982.8202990632259
 20
911.881344873168
 30
0.0
 11
960.5994076351903
 21
971.881344873168
 31
0.0
 70
    32
 71
     5
 42
120.0
 73
     0
 74
     0
 75
     0
  3
tform線あり
100
AcDbAlignedDimension
 13
878.6813343975078
 23
1031.881344873168
 33
0.0
 14
878.6813343975078
 24
911.881344873168
 34
0.0
 50
90.0
100
AcDbRotatedDimension
  0
DIMENSION
  5
796C
330
A
100
AcDbEntity
  8
Dim
100
AcDbDimension
  2
*D18
 10
261.6325811730413
 20
986.881344873168
 30
0.0
 11
239.4116897450058
 21
1009.381344873168
 31
0.0
 70
    32
 71
     5
 42
45.0
 73
     0
 74
     1
 75
     1
  3
tform線あり
100
AcDbAlignedDimension
 13
345.6178026808648
 23
1031.881344873168
 33
0.0
 14
345.6178026808648
 24
986.881344873168
 34
0.0
 50
90.0
100
AcDbRotatedDimension
  0
LINE
  5
797D
102
{ACAD_REACTORS
330
798A
102
}
330
A
100
AcDbEntity
  8
HIDDEN
 48
0.5
100
AcDbLine
 10
479.9857541518159
 20
1016.814472169586
 30
0.0000000009984768
 11
479.9857541518159
 21
956.0460592764507
 31
0.0000000009984768
  0
LINE
  5
7981
330
A
100
AcDbEntity
  8
HIDDEN
 48
0.5
100
AcDbLine
 10
449.261283948958
 20
986.8813448731678
 30
0.0
 11
510.7102243546749
 21
986.8813448731678
 31
0.0
  0
CIRCLE
  5
7982
330
A
100
AcDbEntity
  8
HIDDEN
 48
0.5
100
AcDbCircle
 10
479.9857541518159
 20
986.8813448731678
 30
0.0
 40
15.0
  0
CIRCLE
  5
7983
330
A
100
AcDbEntity
  8
HIDDEN
 48
0.5
100
AcDbCircle
 10
759.9858892766749
 20
986.8813448731678
 30
0.0
 40
15.0
  0
LINE
  5
7984
102
{ACAD_REACTORS
330
798A
102
}
330
A
100
AcDbEntity
  8
HIDDEN
 48
0.5
100
AcDbLine
 10
759.9858892766749
 20
1016.814472169586
 30
0.0000000009984768
 11
759.9858892766749
 21
956.0460592764507
 31
0.0000000009984768
  0
LINE
  5
7985
330
A
100
AcDbEntity
  8
HIDDEN
 48
0.5
100
AcDbLine
 10
790.710359479534
 20
986.8813448731678
 30
0.0
 11
729.2614190738168
 21
986.8813448731678
 31
0.0
  0
LINE
  5
7986
330
A
100
AcDbEntity
  8
Dim
  6
Continuous
100
AcDbLine
 10
771.5593701148189
 20
996.423595199434
 30
0.0
 11
865.3644187429029
 21
1125.946178722746
 31
0.0
  0
MTEXT
  5
7987
330
A
100
AcDbEntity
  8
Dim
390
1D
100
AcDbMText
 10
866.4081855210259
 20
1172.539464078033
 30
34.99521132346015
 40
24.0
 41
1169.77171546101
 46
26.808
 71
     1
 72
     1
  1
{壁取付ボルト穴(2ヶ所)}
  7
ＭＳ ゴシック
 73
     1
 44
1.174240107638677
1001
ACAD
1000
ACAD_MTEXT_DEFINED_HEIGHT_BEGIN
1070
    46
1040
26.808
1000
ACAD_MTEXT_DEFINED_HEIGHT_END
  0
DIMENSION
  5
7988
102
{ACAD_REACTORS
330
798A
102
}
102
{ACAD_XDICTIONARY
360
7989
102
}
330
A
100
AcDbEntity
  8
Dim
100
AcDbDimension
  2
*D19
 10
759.9858892766749
 20
1129.932894565483
 30
0.0
 11
619.9858217142454
 21
1152.153785993518
 31
0.0
 70
    32
 71
     5
 42
280.0001351248591
 73
     0
 74
     0
 75
     0
  3
tform線あり
100
AcDbAlignedDimension
 13
479.9857541518159
 23
1016.814472169586
 33
0.0000000009984768
 14
759.9858892766749
 24
1016.814472169586
 34
0.0000000009984768
100
AcDbRotatedDimension
  0
DIMENSION
  5
79A6
330
A
100
AcDbEntity
  8
Dim
100
AcDbDimension
  2
*D20
 10
1477.641851025628
 20
836.9527911529585
 30
0.0
 11
1567.641851025628
 21
859.1736825809941
 31
0.0
 70
    32
 71
     5
 42
180.0
 73
     0
 74
     0
 75
     0
  3
tform線あり
100
AcDbAlignedDimension
 13
1657.641851025628
 23
922.4789331105869
 33
-0.0000000000000067
 14
1477.641851025628
 24
922.4789331105868
 34
-0.0000000000000067
100
AcDbRotatedDimension
  0
DIMENSION
  5
79B9
330
A
100
AcDbEntity
  8
Dim
100
AcDbDimension
  2
*D21
 10
1477.913911369097
 20
941.881344873169
 30
0.0
 11
1477.913911369097
 21
1120.895190778885
 31
0.0
 70
   160
 71
     5
 42
90.00000000000034
 73
     0
 74
     0
 75
     0
  3
tform線あり
100
AcDbAlignedDimension
 13
1476.17767100071
 23
1031.881344873169
 33
0.0
 14
1476.17767100071
 24
941.881344873169
 34
0.0
 50
90.0
100
AcDbRotatedDimension
1001
ACAD
1000
DSTYLE
1002
{
1070
     3
1000
<>(深さ)
1002
}
  0
DIMENSION
  5
79CC
330
A
100
AcDbEntity
  8
Dim
100
AcDbDimension
  2
*D22
 10
1597.64185102562
 20
1097.521241364427
 30
0.0
 11
1627.64185102562
 21
1119.737549958177
 31
0.0
 70
    32
 71
     5
 42
60.0
 73
     0
 74
     0
 75
     0
  3
tform線あり
100
AcDbAlignedDimension
 13
1657.64185102562
 23
1026.464129703937
 33
-0.0000000000000062
 14
1597.64185102562
 24
1026.464129703937
 34
-0.0000000000000062
100
AcDbRotatedDimension
  0
LINE
  5
7A14
330
A
100
AcDbEntity
  8
HIDDEN
 48
0.5
100
AcDbLine
 10
642.4467163879768
 20
921.6786751911746
 30
-0.0000000000000055
 11
597.5323590076497
 21
921.6786751911746
 31
-0.0000000000000055
  0
LINE
  5
7A15
330
A
100
AcDbEntity
  8
HIDDEN
100
AcDbLine
 10
641.9895376978099
 20
914.5456475226707
 30
-0.0000000000000055
 11
597.9895376978137
 21
914.5456475226707
 31
-0.0000000000000055
  0
LINE
  5
7A16
330
A
100
AcDbEntity
  8
HIDDEN
 48
0.25
100
AcDbLine
 10
580.5705354661767
 20
937.6688843427797
 30
-0.0000000000000055
 11
580.5919404352247
 21
937.5889999107709
 31
-0.0000000000000055
  0
LINE
  5
7A17
330
A
100
AcDbEntity
  8
HIDDEN
 48
0.25
100
AcDbLine
 10
582.5307697348397
 20
934.5456475226707
 30
-0.0000000000000055
 11
596.8177105398207
 21
922.5574807625595
 31
-0.0000000000000055
  0
LINE
  5
7A18
330
A
100
AcDbEntity
  8
HIDDEN
 48
0.25
100
AcDbLine
 10
597.8888907962288
 20
920.3117046525145
 30
-0.0000000000000055
 11
597.9895376978137
 21
914.5456475226707
 31
-0.0000000000000055
  0
LINE
  5
7A19
330
A
100
AcDbEntity
  8
HIDDEN
 48
0.25
100
AcDbLine
 10
641.9895376978099
 20
914.5456475226707
 30
-0.0000000000000055
 11
642.0901845993907
 21
920.3117046525145
 31
-0.0000000000000055
  0
LINE
  5
7A1A
330
A
100
AcDbEntity
  8
HIDDEN
 48
0.25
100
AcDbLine
 10
643.1613648557978
 20
922.5574807625595
 30
-0.0000000000000055
 11
657.4483056607818
 21
934.5456475226707
 31
-0.0000000000000055
  0
LINE
  5
7A1B
330
A
100
AcDbEntity
  8
HIDDEN
 48
0.25
100
AcDbLine
 10
659.3871349603977
 20
937.5889999107709
 30
-0.0000000000000055
 11
659.6121741182109
 21
938.428857481416
 31
-0.0000000000000055
  0
ARC
  5
7A1C
330
A
100
AcDbEntity
  8
HIDDEN
 48
0.25
100
AcDbCircle
 10
575.7409063347299
 20
936.3747891172676
 30
-0.0000000000000055
 40
5.0
100
AcDbArc
 50
14.99999999999445
 51
84.83992838600908
  0
ARC
  5
7A1D
330
A
100
AcDbEntity
  8
HIDDEN
 48
0.25
100
AcDbCircle
 10
586.3874953929597
 20
939.1419141813855
 30
-0.0000000000000055
 40
6.000000000000001
100
AcDbArc
 50
194.9999999999944
 51
229.9999999999814
  0
ARC
  5
7A1E
330
A
100
AcDbEntity
  8
HIDDEN
 48
0.25
100
AcDbCircle
 10
594.8893477107598
 20
920.2593474331985
 30
-0.0000000000000055
 40
3.0
100
AcDbArc
 50
0.9999999999757105
 51
49.99999999998378
  0
ARC
  5
7A1F
330
A
100
AcDbEntity
  8
HIDDEN
 48
0.25
100
AcDbCircle
 10
645.0897276848629
 20
920.2593474331985
 30
-0.0000000000000055
 40
3.0
100
AcDbArc
 50
130.0000000000162
 51
178.9999999999721
  0
ARC
  5
7A20
330
A
100
AcDbEntity
  8
HIDDEN
 48
0.25
100
AcDbCircle
 10
653.5915800026627
 20
939.1419141813855
 30
-0.0000000000000055
 40
6.000000000000001
100
AcDbArc
 50
310.0000000000209
 51
345.0000000000056
  0
ARC
  5
7A21
330
A
100
AcDbEntity
  8
HIDDEN
 48
0.25
100
AcDbCircle
 10
664.4418032496538
 20
937.1347622559002
 30
-0.0000000000000055
 40
5.0
100
AcDbArc
 50
108.2162586506237
 51
165.0000000000056
  0
LINE
  5
7A22
330
A
100
AcDbEntity
  8
HIDDEN
 48
0.5
100
AcDbLine
 10
662.8787808664637
 20
941.8841791705996
 30
-0.0000000000000055
 11
576.1905990573977
 21
941.3545257021866
 31
-0.0000000000000055
  0
SPLINE
  5
7A23
330
A
100
AcDbEntity
  8
HIDDEN
100
AcDbSpline
 70
  1056
 71
     3
 72
    12
 73
     8
 74
     6
 42
0.000000001
 43
0.0000000001
 44
0.0
 40
0.0
 40
0.0
 40
0.0
 40
0.0
 40
60.22230327318655
 40
83.79792841285308
 40
95.43395722561621
 40
117.1020318883912
 40
280.5578032243399
 40
280.5578032243399
 40
280.5578032243399
 40
280.5578032243399
 10
352.2857116222238
 20
1031.881344873168
 30
0.0
 10
355.6052073666555
 20
1012.661240909134
 30
0.0000000020961344
 10
360.2242081627029
 20
985.9169151605882
 30
0.0000000050128565
 10
375.2314247695887
 20
953.6501581273284
 30
0.0000000045370869
 10
394.8490566123705
 20
950.2550699523399
 30
0.0000000045730291
 10
459.553411506872
 20
947.8471936372435
 30
0.0000000046751585
 10
521.4971502456077
 20
944.3990641449894
 30
0.00000000219227
 10
576.1905990573958
 20
941.3545257021866
 30
-0.0000000000000055
 11
352.2857116222238
 21
1031.881344873168
 31
0.0
 11
366.6643985151358
 21
973.4007568566026
 31
0.0000000045662311
 11
380.070889417951
 21
954.008075185446
 31
0.0000000045662311
 11
391.3237965976287
 21
951.046783822373
 31
0.0000000045662311
 11
412.9412235480624
 21
949.5661381408364
 31
0.0000000045662311
 11
576.1905990573958
 21
941.3545257021866
 31
-0.0000000000000055
  0
SPLINE
  5
7A2C
330
A
100
AcDbEntity
  8
HIDDEN
100
AcDbSpline
 70
  1056
 71
     3
 72
    12
 73
     8
 74
     6
 42
0.000000001
 43
0.0000000001
 44
0.0
 40
0.0
 40
0.0
 40
0.0
 40
0.0
 40
60.22230327318658
 40
83.79792841285314
 40
95.4339572256161
 40
117.1020318883912
 40
280.5578032243398
 40
280.5578032243398
 40
280.5578032243398
 40
280.5578032243398
 10
887.68593180626
 20
1031.881344873168
 30
0.0
 10
884.3664360618282
 20
1012.661240909133
 30
0.0000000020961344
 10
879.7474352657807
 20
985.916915160588
 30
0.0000000050128565
 10
864.7402186588952
 20
953.6501581273287
 30
0.0000000045370869
 10
845.1225868161132
 20
950.2550699523398
 30
0.0000000045730291
 10
780.4182319216121
 20
947.8471936372439
 30
0.0000000046751585
 10
718.4744931828761
 20
944.3990641449898
 30
0.00000000219227
 10
663.7810443710879
 20
941.3545257021866
 30
-0.0000000000000055
 11
887.68593180626
 21
1031.881344873168
 31
0.0
 11
873.3072449133479
 21
973.4007568566026
 31
0.0000000045662311
 11
859.9007540105326
 21
954.008075185446
 31
0.0000000045662311
 11
848.6478468308551
 21
951.046783822373
 31
0.0000000045662311
 11
827.0304198804213
 21
949.5661381408364
 31
0.0000000045662311
 11
663.7810443710879
 21
941.3545257021866
 31
-0.0000000000000055
  0
DIMENSION
  5
7A93
330
A
100
AcDbEntity
  8
Dim
100
AcDbDimension
  2
*D26
 10
1799.989104412404
 20
2141.215179553531
 30
-0.0000000046240195
 11
1799.989104412404
 21
2210.414634689783
 31
-0.0000000046240195
 70
   160
 71
     5
 42
25.00000000000001
 73
     0
 74
     0
 75
     0
  3
tform線あり
100
AcDbAlignedDimension
 13
1731.186406636002
 23
2166.215179553531
 33
-0.0000000046240195
 14
1631.186406636002
 24
2141.215179553531
 34
-0.0000000046240195
 50
90.0
100
AcDbRotatedDimension
  0
DIMENSION
  5
7A94
330
A
100
AcDbEntity
  8
Dim
100
AcDbDimension
  2
*D27
 10
1799.989104412404
 20
1921.215179553531
 30
0.0
 11
1777.768212984369
 21
2031.215179553531
 31
0.0
 70
    32
 71
     5
 42
219.9999999999998
 73
     0
 74
     0
 75
     0
  3
tform線あり
100
AcDbAlignedDimension
 13
1631.186406636002
 23
2141.215179553531
 33
-0.0000000046240195
 14
1631.186406636002
 24
1921.215179553531
 34
-0.0000000046240195
 50
90.0
100
AcDbRotatedDimension
  0
DIMENSION
  5
7A96
330
A
100
AcDbEntity
  8
Dim
100
AcDbDimension
  2
*D28
 10
1631.186406636002
 20
1764.882402088639
 30
-0.0000000046240195
 11
1456.186406636002
 21
1787.103293516675
 31
-0.0000000046240195
 70
    32
 71
     5
 42
350.0
 73
     0
 74
     0
 75
     0
  3
tform線あり
100
AcDbAlignedDimension
 13
1281.186406636002
 23
1928.454709436122
 33
-0.0000000046240195
 14
1631.186406636002
 24
1928.454709436122
 34
-0.0000000046240195
100
AcDbRotatedDimension
  0
HATCH
  5
7A97
330
A
100
AcDbEntity
  8
Dim
100
AcDbHatch
 10
0.0
 20
0.0
 30
0.0
210
0.0
220
0.0
230
1.0
  2
ANSI31
 70
     0
 71
     1
 91
        1
 92
        1
 93
        4
 72
     1
 10
1631.186406636002
 20
2141.215179553531
 11
1281.186406636002
 21
2141.215179553531
 72
     1
 10
1631.186406636002
 20
1921.215179553531
 11
1631.186406636002
 21
2141.215179553531
 72
     1
 10
1281.186406636002
 20
1921.215179553531
 11
1281.186406636002
 21
2141.215179553531
 72
     1
 10
1631.186406636002
 20
1921.215179553531
 11
1281.186406636002
 21
1921.215179553531
 97
        4
330
7A9B
330
7A98
330
7A9A
330
7A99
 75
     0
 76
     1
 52
0.0
 41
5.0
 77
     0
 78
     1
 53
45.0
 43
-57.11081388804041
 44
0.0000000000002274
 45
-11.22532015133644
 46
11.22532015133644
 79
     0
 98
        1
 10
-57.11081388804041
 20
0.0000000000002274
1001
ACAD
1010
0.0
1020
0.0
1030
0.0
1001
HATCHBACKGROUNDCOLOR
1071
-939524096
1000

1000

  0
LINE
  5
7A98
102
{ACAD_REACTORS
330
7A97
102
}
330
A
100
AcDbEntity
  8
MODEL
100
AcDbLine
 10
1631.186406636002
 20
1921.215179553531
 30
-0.0000000046240195
 11
1631.186406636002
 21
2141.215179553531
 31
-0.0000000046240195
  0
LINE
  5
7A99
102
{ACAD_REACTORS
330
7A97
102
}
330
A
100
AcDbEntity
  8
MODEL
100
AcDbLine
 10
1631.186406636002
 20
1921.215179553531
 30
0.0
 11
1281.186406636002
 21
1921.215179553531
 31
0.0
  0
LINE
  5
7A9A
102
{ACAD_REACTORS
330
7A97
102
}
330
A
100
AcDbEntity
  8
MODEL
100
AcDbLine
 10
1281.186406636002
 20
1921.215179553531
 30
-0.0000000046240195
 11
1281.186406636002
 21
2141.215179553531
 31
-0.0000000046240195
  0
LINE
  5
7A9B
102
{ACAD_REACTORS
330
7A97
102
}
330
A
100
AcDbEntity
  8
MODEL
100
AcDbLine
 10
1631.186406636002
 20
2141.215179553531
 30
-0.0000000046240195
 11
1281.186406636002
 21
2141.215179553531
 31
-0.0000000046240195
  0
VIEWPORT
  5
349
330
B
100
AcDbEntity
 67
     1
  8
0
100
AcDbViewport
 10
202.5
 20
128.5
 30
0.0
 40
486.0
 41
308.4
 68
     1
 69
     1
 12
202.5
 22
128.5
 13
0.0
 23
0.0
 14
0.5
 24
0.5
 15
0.0
 25
0.0
 16
0.0
 26
0.0
 36
1.0
 17
0.0
 27
0.0
 37
0.0
 42
50.0
 43
0.0
 44
0.0
 45
308.4
 50
0.0
 51
0.0
 72
   100
 90
   557152
  1

281
     0
 71
     1
 74
     0
110
0.0
120
0.0
130
0.0
111
1.0
121
0.0
131
0.0
112
0.0
122
1.0
132
0.0
 79
     0
146
0.0
170
     0
 61
     5
348
26C
292
     1
282
     1
141
0.0
142
0.0
 63
   256
  0
VIEWPORT
  5
34A
330
B
100
AcDbEntity
 67
     1
  8
0
100
AcDbViewport
 10
202.5
 20
128.5
 30
0.0
 40
324.0
 41
205.6
 68
     2
 69
     2
 12
986.6781359294573
 22
1427.077061889956
 13
0.0
 23
0.0
 14
0.5
 24
0.5
 15
0.0
 25
0.0
 16
0.0
 26
0.0
 36
1.0
 17
0.0
 27
0.0
 37
0.0
 42
50.0
 43
0.0
 44
0.0
 45
2890.021615685494
 50
0.0
 51
0.0
 72
   100
 90
   557152
  1

281
     0
 71
     1
 74
     0
110
0.0
120
0.0
130
0.0
111
1.0
121
0.0
131
0.0
112
0.0
122
1.0
132
0.0
 79
     0
146
0.0
170
     0
 61
     5
348
26C
292
     1
282
     1
141
0.0
142
0.0
 63
   256
  0
ENDSEC
  0
SECTION
  2
OBJECTS
  0
DICTIONARY
  5
19
330
0
100
AcDbDictionary
281
     1
  3
ACAD_COLOR
350
38F
  3
ACAD_DETAILVIEWSTYLE
350
8CF
  3
ACAD_FIELDLIST
350
BA6
  3
ACAD_GROUP
350
1A
  3
ACAD_IMAGE_VARS
350
27B
  3
ACAD_LAYOUT
350
1E
  3
ACAD_MATERIAL
350
263
  3
ACAD_MLEADERSTYLE
350
336
  3
ACAD_MLINESTYLE
350
1B
  3
ACAD_PLOTSETTINGS
350
22
  3
ACAD_PLOTSTYLENAME
350
1F
  3
ACAD_SCALELIST
350
241
  3
ACAD_SECTIONVIEWSTYLE
350
8D0
  3
ACAD_TABLESTYLE
350
278
  3
ACAD_VISUALSTYLE
350
267
  3
ACDB_RECOMPOSE_DATA
350
7ADF
  3
AcDbVariableDictionary
350
330
  3
APPDATA
350
27A
  3
DimOffsetDictionary
350
C08
  0
SUN
  5
8C2
330
15
100
AcDbSun
 90
        1
290
     0
 63
     7
421
 16777215
 40
1.0
291
     1
 91
  2455826
 92
 54000000
292
     0
 70
     2
 71
   256
280
     1
  0
DICTIONARY
  5
2E1
330
2
100
AcDbDictionary
280
     1
281
     1
  3
ACAD_LAYERSTATES
360
2E2
  3
ACLYDICTIONARY
360
BFE
  0
DICTIONARY
  5
6587
330
A
100
AcDbDictionary
280
     1
281
     1
  3
ACAD_SORTENTS
360
6588
  0
DICTIONARY
  5
BDC
330
BDB
100
AcDbDictionary
280
     1
281
     1
  3
ACAD_FIELD
360
7907
  0
DICTIONARY
  5
78E1
330
78E0
100
AcDbDictionary
280
     1
281
     1
  3
ACAD_DIMASSOC
360
78E2
  0
DICTIONARY
  5
78E4
330
78E3
100
AcDbDictionary
280
     1
281
     1
  3
ACAD_DIMASSOC
360
78E5
  0
DICTIONARY
  5
7912
330
7911
100
AcDbDictionary
280
     1
281
     1
  3
ACAD_DIMASSOC
360
7913
  0
DICTIONARY
  5
7921
330
7920
100
AcDbDictionary
280
     1
281
     1
  3
ACAD_DIMASSOC
360
7922
  0
DICTIONARY
  5
7989
330
7988
100
AcDbDictionary
280
     1
281
     1
  3
ACAD_DIMASSOC
360
798A
  0
DICTIONARY
  5
38F
102
{ACAD_REACTORS
330
19
102
}
330
19
100
AcDbDictionary
281
     1
  0
DICTIONARY
  5
8CF
102
{ACAD_REACTORS
330
19
102
}
330
19
100
AcDbDictionary
281
     1
  0
FIELDLIST
  5
BA6
102
{ACAD_REACTORS
330
19
102
}
330
19
100
AcDbIdSet
 90
        2
330
BDF
330
BDE
100
AcDbFieldList
  0
DICTIONARY
  5
1A
102
{ACAD_REACTORS
330
19
102
}
330
19
100
AcDbDictionary
281
     1
  3
*A1
350
78BF
  0
RASTERVARIABLES
  5
27B
102
{ACAD_REACTORS
330
19
102
}
330
19
100
AcDbRasterVariables
 90
        0
 70
     1
 71
     1
 72
     1
  0
DICTIONARY
  5
1E
102
{ACAD_REACTORS
330
19
102
}
330
19
100
AcDbDictionary
281
     1
  3
Layout1
350
21
  3
Model
350
20
  0
DICTIONARY
  5
263
102
{ACAD_REACTORS
330
19
102
}
330
19
100
AcDbDictionary
281
     1
  3
ByBlock
350
3F68
  3
ByLayer
350
264
  3
Global
350
266
  0
DICTIONARY
  5
336
102
{ACAD_REACTORS
330
19
102
}
330
19
100
AcDbDictionary
281
     1
  3
Standard
350
8D1
  0
DICTIONARY
  5
1B
102
{ACAD_REACTORS
330
19
102
}
330
19
100
AcDbDictionary
281
     1
  3
Standard
350
1C
  0
DICTIONARY
  5
22
102
{ACAD_REACTORS
330
19
102
}
330
19
100
AcDbDictionary
281
     1
  0
ACDBDICTIONARYWDFLT
  5
1F
102
{ACAD_REACTORS
330
19
102
}
330
19
100
AcDbDictionary
281
     1
  3
Normal
350
1D
100
AcDbDictionaryWithDefault
340
1D
  0
DICTIONARY
  5
241
102
{ACAD_REACTORS
330
19
102
}
330
19
100
AcDbDictionary
281
     1
  3
A0
350
242
  3
A1
350
243
  3
A2
350
244
  3
A3
350
245
  3
A4
350
246
  3
A5
350
247
  3
A6
350
248
  3
A7
350
249
  3
A8
350
24A
  3
A9
350
24B
  3
B0
350
24C
  3
B1
350
24D
  3
B2
350
24E
  3
B3
350
24F
  3
B4
350
250
  3
B5
350
251
  3
B6
350
252
  3
B7
350
253
  3
B8
350
254
  3
B9
350
255
  3
C0
350
256
  3
C1
350
257
  3
C2
350
258
  3
C3
350
259
  3
C4
350
25A
  3
C5
350
25B
  3
C6
350
25C
  3
C7
350
25D
  3
C8
350
25E
  3
C9
350
25F
  3
D0
350
260
  3
D1
350
261
  3
D2
350
262
  0
DICTIONARY
  5
8D0
102
{ACAD_REACTORS
330
19
102
}
330
19
100
AcDbDictionary
281
     1
  0
DICTIONARY
  5
278
102
{ACAD_REACTORS
330
19
102
}
330
19
100
AcDbDictionary
281
     1
  3
Standard
350
279
  0
DICTIONARY
  5
267
102
{ACAD_REACTORS
330
19
102
}
330
19
100
AcDbDictionary
281
     1
  3
2dWireframe
350
26C
  3
3D Hidden
350
26E
  3
3dWireframe
350
26D
  3
Basic
350
26F
  3
Brighten
350
273
  3
ColorChange
350
277
  3
Conceptual
350
271
  3
Dim
350
272
  3
EdgeColorOff
350
8BC
  3
Facepattern
350
276
  3
Flat
350
268
  3
FlatWithEdges
350
269
  3
Gouraud
350
26A
  3
GouraudWithEdges
350
26B
  3
Hidden
350
8B9
  3
JitterOff
350
8BA
  3
Linepattern
350
275
  3
OverhangOff
350
8BB
  3
Realistic
350
270
  3
Shaded
350
8C1
  3
Shaded with edges
350
8C0
  3
Shades of Gray
350
8BD
  3
Sketchy
350
8BE
  3
Thicken
350
274
  3
Wireframe
350
8B8
  3
X-Ray
350
8BF
  0
XRECORD
  5
7ADF
102
{ACAD_REACTORS
330
19
102
}
330
19
100
AcDbXrecord
280
     1
 90
        1
330
279
  0
DICTIONARY
  5
330
102
{ACAD_REACTORS
330
19
102
}
330
19
100
AcDbDictionary
281
     1
  3
CANNOSCALE
350
331
  3
CMLEADERSTYLE
350
8DA
  3
CTABLESTYLE
350
335
  3
HPTRANSPARENCY
350
C07
  3
XCLIPFRAME
350
64A
  0
DICTIONARY
  5
27A
102
{ACAD_REACTORS
330
19
102
}
330
19
100
AcDbDictionary
281
     1
  0
DICTIONARY
  5
C08
102
{ACAD_REACTORS
330
19
102
}
330
19
100
AcDbDictionary
281
     1
  3
DIMRAILANGLE
350
4918
  3
DIMRAILFIRSTOFFSET
350
4916
  3
DIMRAILOFFSET
350
4917
  3
DIMRAILSENABLED
350
4919
  0
DICTIONARY
  5
2E2
102
{ACAD_REACTORS
330
2E1
102
}
330
2E1
100
AcDbDictionary
281
     1
  0
DICTIONARY
  5
BFE
102
{ACAD_REACTORS
330
2E1
102
}
330
2E1
100
AcDbDictionary
281
     1
1001
ACAD
1000
<All
  0
SORTENTSTABLE
  5
6588
102
{ACAD_REACTORS
330
6587
102
}
330
6587
100
AcDbSortentsTable
330
A
331
0
  5
64FD
  0
DICTIONARY
  5
7907
102
{ACAD_REACTORS
330
BDC
102
}
330
BDC
100
AcDbDictionary
280
     1
281
     1
  3
TEXT
360
BDE
  0
DIMASSOC
  5
78E2
102
{ACAD_REACTORS
330
78E1
102
}
330
78E1
100
AcDbDimAssoc
330
78E0
 90
        0
 70
     0
 71
     1
  0
DIMASSOC
  5
78E5
102
{ACAD_REACTORS
330
78E4
102
}
330
78E4
100
AcDbDimAssoc
330
78E3
 90
        0
 70
     0
 71
     1
  0
DIMASSOC
  5
7913
102
{ACAD_REACTORS
330
7912
102
}
330
7912
100
AcDbDimAssoc
330
7911
 90
        3
 70
     0
 71
     1
  1
AcDbOsnapPointRef
 72
     1
331
7666
 73
     0
 91
        0
 40
0.0
 10
0.0
 20
0.0
 30
0.0
 75
     0
  1
AcDbOsnapPointRef
 72
    13
331
7666
 73
     0
 91
        0
 40
0.0
 10
0.0
 20
0.0
 30
0.0
 75
     0
  0
DIMASSOC
  5
7922
102
{ACAD_REACTORS
330
7921
102
}
330
7921
100
AcDbDimAssoc
330
7920
 90
        3
 70
     0
 71
     1
  1
AcDbOsnapPointRef
 72
    13
331
7666
 73
     0
 91
        0
 40
0.0
 10
0.0
 20
0.0
 30
0.0
 75
     0
  1
AcDbOsnapPointRef
 72
     1
331
7664
 73
     0
 91
        0
 40
0.0
 10
0.0
 20
0.0
 30
0.0
 75
     0
  0
DIMASSOC
  5
798A
102
{ACAD_REACTORS
330
7989
102
}
330
7989
100
AcDbDimAssoc
330
7988
 90
        3
 70
     0
 71
     1
  1
AcDbOsnapPointRef
 72
    13
331
797D
 73
     0
 91
        0
 40
0.0
 10
0.0
 20
0.0
 30
0.0
 75
     0
  1
AcDbOsnapPointRef
 72
    13
331
7984
 73
     0
 91
        0
 40
0.0
 10
0.0
 20
0.0
 30
0.0
 75
     0
  0
GROUP
  5
78BF
102
{ACAD_REACTORS
330
1A
102
}
330
1A
100
AcDbGroup
300

 70
     1
 71
     1
340
765E
340
765F
340
7660
340
7661
340
7662
340
7663
340
7670
340
7688
340
768B
340
768C
340
7693
340
7694
340
7697
340
7698
340
7699
340
76A6
340
76A7
340
76A8
340
76AB
340
76B3
340
76B8
340
76BB
  0
LAYOUT
  5
21
102
{ACAD_REACTORS
330
1E
102
}
330
1E
100
AcDbPlotSettings
  1

  2
none_device
  4
ISO_A3_(420.00_x_297.00_MM)
  6

 40
7.5
 41
20.0
 42
7.5
 43
20.0
 44
420.0
 45
297.0
 46
0.0
 47
0.0
 48
0.0
 49
0.0
140
0.0
141
0.0
142
1.0
143
1.0
 70
     0
 72
     1
 73
     0
 74
     0
  7

 75
     0
 76
     0
 77
     2
 78
   300
147
1.0
148
0.0
149
0.0
100
AcDbLayout
  1
Layout1
 70
     0
 71
     0
 10
0.0
 20
0.0
 11
0.0
 21
0.0
 12
0.0
 22
0.0
 32
0.0
 14
0.0
 24
0.0
 34
0.0
 15
0.0
 25
0.0
 35
0.0
146
0.0
 13
0.0
 23
0.0
 33
0.0
 16
0.0
 26
0.0
 36
0.0
 17
0.0
 27
0.0
 37
0.0
 76
     0
330
B
331
349
  0
LAYOUT
  5
20
102
{ACAD_REACTORS
330
1E
102
}
330
1E
100
AcDbPlotSettings
  1

  2
none_device
  4
ISO_A3_(420.00_x_297.00_MM)
  6

 40
7.5
 41
20.0
 42
7.5
 43
20.0
 44
420.0
 45
297.0
 46
0.0
 47
0.0
 48
0.0
 49
0.0
140
0.0
141
0.0
142
1.0
143
1.0
 70
  1024
 72
     1
 73
     0
 74
     0
  7

 75
     0
 76
     0
 77
     2
 78
   300
147
1.0
148
0.0
149
0.0
100
AcDbLayout
  1
Model
 70
     0
 71
     1
 10
0.0
 20
0.0
 11
2100.0
 21
2970.0
 12
0.0
 22
0.0
 32
0.0
 14
0.0
 24
0.0
 34
-0.0000000053126276
 15
2100.0
 25
2970.0
 35
34.99521132346015
146
0.0
 13
0.0
 23
0.0
 33
0.0
 16
0.0
 26
0.0
 36
0.0
 17
0.0
 27
0.0
 37
0.0
 76
     0
330
A
331
15
  0
MATERIAL
  5
3F68
102
{ACAD_REACTORS
330
263
102
}
330
263
100
AcDbMaterial
  1
ByBlock
 72
     1
 94
      127
  0
MATERIAL
  5
264
102
{ACAD_REACTORS
330
263
102
}
330
263
100
AcDbMaterial
  1
ByLayer
 72
     1
 94
      127
  0
MATERIAL
  5
266
102
{ACAD_REACTORS
330
263
102
}
330
263
100
AcDbMaterial
  1
Global
 72
     1
 94
      127
  0
MLEADERSTYLE
  5
8D1
102
{ACAD_REACTORS
330
336
102
}
330
336
100
AcDbMLeaderStyle
170
     2
171
     1
172
     0
 90
        2
 40
0.0
 41
0.0
173
     1
 91
-1056964608
340
11
 92
       -2
290
     1
 42
2.0
291
     1
 43
8.0
  3
Standard
341
0
 44
4.0
300

342
17
174
     1
178
     6
175
     1
176
     0
 93
-1056964608
 45
4.0
292
     0
297
     0
 46
4.0
343
0
 94
-1056964608
 47
1.0
 49
1.0
140
1.0
293
     1
141
0.0
294
     1
177
     0
142
1.0
295
     0
296
     0
143
3.75
1001
ACAD_MLEADERVER
1070
     2
  0
MLINESTYLE
  5
1C
102
{ACAD_REACTORS
330
1B
102
}
330
1B
100
AcDbMlineStyle
  2
Standard
 70
     0
  3

 62
     0
 51
90.0
 52
90.0
 71
     2
 49
0.5
 62
   256
  6
BYLAYER
 49
-0.5
 62
   256
  6
BYLAYER
  0
ACDBPLACEHOLDER
  5
1D
102
{ACAD_REACTORS
330
1F
102
}
330
1F
  0
SCALE
  5
242
102
{ACAD_REACTORS
330
241
102
}
330
241
100
AcDbScale
 70
     0
300
1:1
140
1.0
141
1.0
290
     1
  0
SCALE
  5
243
102
{ACAD_REACTORS
330
241
102
}
330
241
100
AcDbScale
 70
     0
300
1:2
140
1.0
141
2.0
290
     0
  0
SCALE
  5
244
102
{ACAD_REACTORS
330
241
102
}
330
241
100
AcDbScale
 70
     0
300
1:4
140
1.0
141
4.0
290
     0
  0
SCALE
  5
245
102
{ACAD_REACTORS
330
241
102
}
330
241
100
AcDbScale
 70
     0
300
1:5
140
1.0
141
5.0
290
     0
  0
SCALE
  5
246
102
{ACAD_REACTORS
330
241
102
}
330
241
100
AcDbScale
 70
     0
300
1:8
140
1.0
141
8.0
290
     0
  0
SCALE
  5
247
102
{ACAD_REACTORS
330
241
102
}
330
241
100
AcDbScale
 70
     0
300
1:10
140
1.0
141
10.0
290
     0
  0
SCALE
  5
248
102
{ACAD_REACTORS
330
241
102
}
330
241
100
AcDbScale
 70
     0
300
1:16
140
1.0
141
16.0
290
     0
  0
SCALE
  5
249
102
{ACAD_REACTORS
330
241
102
}
330
241
100
AcDbScale
 70
     0
300
1:20
140
1.0
141
20.0
290
     0
  0
SCALE
  5
24A
102
{ACAD_REACTORS
330
241
102
}
330
241
100
AcDbScale
 70
     0
300
1:30
140
1.0
141
30.0
290
     0
  0
SCALE
  5
24B
102
{ACAD_REACTORS
330
241
102
}
330
241
100
AcDbScale
 70
     0
300
1:40
140
1.0
141
40.0
290
     0
  0
SCALE
  5
24C
102
{ACAD_REACTORS
330
241
102
}
330
241
100
AcDbScale
 70
     0
300
1:50
140
1.0
141
50.0
290
     0
  0
SCALE
  5
24D
102
{ACAD_REACTORS
330
241
102
}
330
241
100
AcDbScale
 70
     0
300
1:100
140
1.0
141
100.0
290
     0
  0
SCALE
  5
24E
102
{ACAD_REACTORS
330
241
102
}
330
241
100
AcDbScale
 70
     0
300
2:1
140
2.0
141
1.0
290
     0
  0
SCALE
  5
24F
102
{ACAD_REACTORS
330
241
102
}
330
241
100
AcDbScale
 70
     0
300
4:1
140
4.0
141
1.0
290
     0
  0
SCALE
  5
250
102
{ACAD_REACTORS
330
241
102
}
330
241
100
AcDbScale
 70
     0
300
8:1
140
8.0
141
1.0
290
     0
  0
SCALE
  5
251
102
{ACAD_REACTORS
330
241
102
}
330
241
100
AcDbScale
 70
     0
300
10:1
140
10.0
141
1.0
290
     0
  0
SCALE
  5
252
102
{ACAD_REACTORS
330
241
102
}
330
241
100
AcDbScale
 70
     0
300
100:1
140
100.0
141
1.0
290
     0
  0
SCALE
  5
253
102
{ACAD_REACTORS
330
241
102
}
330
241
100
AcDbScale
 70
     0
300
1/128" = 1'-0"
140
0.0078125
141
12.0
290
     0
  0
SCALE
  5
254
102
{ACAD_REACTORS
330
241
102
}
330
241
100
AcDbScale
 70
     0
300
1/64" = 1'-0"
140
0.015625
141
12.0
290
     0
  0
SCALE
  5
255
102
{ACAD_REACTORS
330
241
102
}
330
241
100
AcDbScale
 70
     0
300
1/32" = 1'-0"
140
0.03125
141
12.0
290
     0
  0
SCALE
  5
256
102
{ACAD_REACTORS
330
241
102
}
330
241
100
AcDbScale
 70
     0
300
1/16" = 1'-0"
140
0.0625
141
12.0
290
     0
  0
SCALE
  5
257
102
{ACAD_REACTORS
330
241
102
}
330
241
100
AcDbScale
 70
     0
300
3/32" = 1'-0"
140
0.09375
141
12.0
290
     0
  0
SCALE
  5
258
102
{ACAD_REACTORS
330
241
102
}
330
241
100
AcDbScale
 70
     0
300
1/8" = 1'-0"
140
0.125
141
12.0
290
     0
  0
SCALE
  5
259
102
{ACAD_REACTORS
330
241
102
}
330
241
100
AcDbScale
 70
     0
300
3/16" = 1'-0"
140
0.1875
141
12.0
290
     0
  0
SCALE
  5
25A
102
{ACAD_REACTORS
330
241
102
}
330
241
100
AcDbScale
 70
     0
300
1/4" = 1'-0"
140
0.25
141
12.0
290
     0
  0
SCALE
  5
25B
102
{ACAD_REACTORS
330
241
102
}
330
241
100
AcDbScale
 70
     0
300
3/8" = 1'-0"
140
0.375
141
12.0
290
     0
  0
SCALE
  5
25C
102
{ACAD_REACTORS
330
241
102
}
330
241
100
AcDbScale
 70
     0
300
1/2" = 1'-0"
140
0.5
141
12.0
290
     0
  0
SCALE
  5
25D
102
{ACAD_REACTORS
330
241
102
}
330
241
100
AcDbScale
 70
     0
300
3/4" = 1'-0"
140
0.75
141
12.0
290
     0
  0
SCALE
  5
25E
102
{ACAD_REACTORS
330
241
102
}
330
241
100
AcDbScale
 70
     0
300
1" = 1'-0"
140
1.0
141
12.0
290
     0
  0
SCALE
  5
25F
102
{ACAD_REACTORS
330
241
102
}
330
241
100
AcDbScale
 70
     0
300
1-1/2" = 1'-0"
140
1.5
141
12.0
290
     0
  0
SCALE
  5
260
102
{ACAD_REACTORS
330
241
102
}
330
241
100
AcDbScale
 70
     0
300
3" = 1'-0"
140
3.0
141
12.0
290
     0
  0
SCALE
  5
261
102
{ACAD_REACTORS
330
241
102
}
330
241
100
AcDbScale
 70
     0
300
6" = 1'-0"
140
6.0
141
12.0
290
     0
  0
SCALE
  5
262
102
{ACAD_REACTORS
330
241
102
}
330
241
100
AcDbScale
 70
     0
300
1'-0" = 1'-0"
140
12.0
141
12.0
290
     0
  0
TABLESTYLE
  5
279
102
{ACAD_REACTORS
330
278
102
}
102
{ACAD_XDICTIONARY
360
7ADD
102
}
330
278
100
AcDbTableStyle
  3
Standard
 70
     0
 71
     0
 40
0.06
 41
0.06
280
     0
281
     0
  7
Standard
140
4.5
170
     2
 62
     0
 63
   257
283
     0
 90
        4
 91
        0
  1

274
    -2
284
     1
 64
     0
275
    -2
285
     1
 65
     0
276
    -2
286
     1
 66
     0
277
    -2
287
     1
 67
     0
278
    -2
288
     1
 68
     0
279
    -2
289
     1
 69
     0
  7
Standard
140
6.0
170
     5
 62
     0
 63
   257
283
     0
 90
        4
 91
        0
  1

274
    -2
284
     1
 64
     0
275
    -2
285
     1
 65
     0
276
    -2
286
     1
 66
     0
277
    -2
287
     1
 67
     0
278
    -2
288
     1
 68
     0
279
    -2
289
     1
 69
     0
  7
Standard
140
4.5
170
     5
 62
     0
 63
   257
283
     0
 90
        4
 91
        0
  1

274
    -2
284
     1
 64
     0
275
    -2
285
     1
 65
     0
276
    -2
286
     1
 66
     0
277
    -2
287
     1
 67
     0
278
    -2
288
     1
 68
     0
279
    -2
289
     1
 69
     0
  0
VISUALSTYLE
  5
26C
102
{ACAD_REACTORS
330
267
102
}
330
267
100
AcDbVisualStyle
  2
2dWireframe
 70
     4
 71
     0
 72
     2
 73
     0
 90
        0
 40
-0.6
 41
-30.0
 62
     5
 63
     7
421
 16777215
 74
     1
 91
        4
 64
     7
 65
   257
 75
     1
175
     1
 42
1.0
 92
        0
 66
   257
 43
1.0
 76
     1
 77
     6
 78
     2
 67
     7
 79
     5
170
     0
171
     0
290
     0
174
     0
 93
        1
 44
0.0
173
     0
291
     0
 45
0.0
  0
VISUALSTYLE
  5
26E
102
{ACAD_REACTORS
330
267
102
}
330
267
100
AcDbVisualStyle
  2
3D Hidden
 70
     6
 71
     1
 72
     2
 73
     2
 90
        0
 40
-0.6
 41
-30.0
 62
     5
 63
     7
421
 16777215
 74
     2
 91
        2
 64
     7
 65
   257
 75
     2
175
     1
 42
40.0
 92
        0
 66
   257
 43
1.0
 76
     1
 77
     6
 78
     2
 67
     7
 79
     3
170
     0
171
     0
290
     0
174
     0
 93
        1
 44
0.0
173
     0
291
     0
 45
0.0
  0
VISUALSTYLE
  5
26D
102
{ACAD_REACTORS
330
267
102
}
330
267
100
AcDbVisualStyle
  2
3dWireframe
 70
     5
 71
     0
 72
     2
 73
     0
 90
        0
 40
-0.6
 41
-30.0
 62
     5
 63
     7
421
 16777215
 74
     1
 91
        4
 64
     7
 65
   257
 75
     1
175
     1
 42
1.0
 92
        0
 66
   257
 43
1.0
 76
     1
 77
     6
 78
     2
 67
     7
 79
     5
170
     0
171
     0
290
     0
174
     0
 93
        1
 44
0.0
173
     0
291
     0
 45
0.0
  0
VISUALSTYLE
  5
26F
102
{ACAD_REACTORS
330
267
102
}
330
267
100
AcDbVisualStyle
  2
Basic
 70
     7
 71
     1
 72
     0
 73
     1
 90
        0
 40
-0.6
 41
-30.0
 62
     5
 63
     7
421
 16777215
 74
     0
 91
        4
 64
     7
 65
   257
 75
     1
175
     1
 42
1.0
 92
        8
 66
     7
 43
1.0
 76
     1
 77
     6
 78
     2
 67
     7
 79
     5
170
     0
171
     0
290
     0
174
     0
 93
        1
 44
0.0
173
     0
291
     1
 45
0.0
  0
VISUALSTYLE
  5
273
102
{ACAD_REACTORS
330
267
102
}
330
267
100
AcDbVisualStyle
  2
Brighten
 70
    12
 71
     2
 72
     2
 73
     0
 90
        0
 40
-0.6
 41
-30.0
 62
     5
 63
     7
421
 16777215
 74
     1
 91
        4
 64
     7
 65
   257
 75
     1
175
     1
 42
1.0
 92
        8
 66
     7
 43
1.0
 76
     1
 77
     6
 78
     2
 67
     7
 79
     5
170
     0
171
     0
290
     0
174
     0
 93
        1
 44
50.0
173
     0
291
     1
 45
0.0
  0
VISUALSTYLE
  5
277
102
{ACAD_REACTORS
330
267
102
}
330
267
100
AcDbVisualStyle
  2
ColorChange
 70
    16
 71
     2
 72
     2
 73
     3
 90
        0
 40
-0.6
 41
-30.0
 62
     5
 63
     8
421
  8421504
 74
     1
 91
        4
 64
     7
 65
   257
 75
     1
175
     1
 42
1.0
 92
        8
 66
     8
424
  8421504
 43
1.0
 76
     1
 77
     6
 78
     2
 67
     7
 79
     5
170
     0
171
     0
290
     0
174
     0
 93
        1
 44
0.0
173
     0
291
     1
 45
0.0
  0
VISUALSTYLE
  5
271
102
{ACAD_REACTORS
330
267
102
}
330
267
100
AcDbVisualStyle
  2
Conceptual
 70
     9
 71
     3
 72
     2
 73
     0
 90
        0
 40
-0.6
 41
-30.0
 62
     5
 63
     7
421
 16777215
 74
     2
 91
        2
 64
     7
 65
   257
 75
     1
175
     1
 42
40.0
 92
        8
 66
     7
 43
1.0
 76
     1
 77
     6
 78
     2
 67
     7
 79
     3
170
     0
171
     0
290
     0
174
     0
 93
        1
 44
0.0
173
     0
291
     0
 45
0.0
  0
VISUALSTYLE
  5
272
102
{ACAD_REACTORS
330
267
102
}
330
267
100
AcDbVisualStyle
  2
Dim
 70
    11
 71
     2
 72
     2
 73
     0
 90
        0
 40
-0.6
 41
-30.0
 62
     5
 63
     7
421
 16777215
 74
     1
 91
        4
 64
     7
 65
   257
 75
     1
175
     1
 42
1.0
 92
        8
 66
     7
 43
1.0
 76
     1
 77
     6
 78
     2
 67
     7
 79
     5
170
     0
171
     0
290
     0
174
     0
 93
        1
 44
-50.0
173
     0
291
     1
 45
0.0
  0
VISUALSTYLE
  5
8BC
102
{ACAD_REACTORS
330
267
102
}
330
267
100
AcDbVisualStyle
  2
EdgeColorOff
 70
    22
 71
     2
 72
     2
 73
     0
 90
        0
 40
0.6
 41
30.0
 62
     5
 63
     7
421
 16777215
 74
     1
 91
        4
 64
     7
 65
   257
 75
     1
175
     1
 42
1.0
 92
        8
 66
     7
 43
1.0
 76
     1
 77
     6
 78
     2
 67
     7
 79
     5
170
     0
171
     0
290
     0
174
     0
 93
        1
 44
0.0
173
     0
291
     1
 45
0.0
  0
VISUALSTYLE
  5
276
102
{ACAD_REACTORS
330
267
102
}
330
267
100
AcDbVisualStyle
  2
Facepattern
 70
    15
 71
     2
 72
     2
 73
     0
 90
        0
 40
-0.6
 41
-30.0
 62
     5
 63
     7
421
 16777215
 74
     1
 91
        4
 64
     7
 65
   257
 75
     1
175
     1
 42
1.0
 92
        8
 66
     7
 43
1.0
 76
     1
 77
     6
 78
     2
 67
     7
 79
     5
170
     0
171
     0
290
     0
174
     0
 93
        1
 44
0.0
173
     0
291
     1
 45
0.0
  0
VISUALSTYLE
  5
268
102
{ACAD_REACTORS
330
267
102
}
330
267
100
AcDbVisualStyle
  2
Flat
 70
     0
 71
     2
 72
     1
 73
     1
 90
        2
 40
-0.6
 41
30.0
 62
     5
 63
     7
421
 16777215
 74
     0
 91
        4
 64
     7
 65
   257
 75
     1
175
     1
 42
1.0
 92
        8
 66
     7
 43
1.0
 76
     1
 77
     6
 78
     2
 67
     7
 79
     5
170
     0
171
     0
290
     0
174
     0
 93
       13
 44
0.0
173
     0
291
     1
 45
0.0
  0
VISUALSTYLE
  5
269
102
{ACAD_REACTORS
330
267
102
}
330
267
100
AcDbVisualStyle
  2
FlatWithEdges
 70
     1
 71
     2
 72
     1
 73
     1
 90
        2
 40
-0.6
 41
30.0
 62
     5
 63
     7
421
 16777215
 74
     1
 91
        4
 64
     7
 65
   257
 75
     1
175
     1
 42
1.0
 92
        0
 66
   257
 43
1.0
 76
     1
 77
     6
 78
     2
 67
     7
 79
     5
170
     0
171
     0
290
     0
174
     0
 93
       13
 44
0.0
173
     0
291
     1
 45
0.0
  0
VISUALSTYLE
  5
26A
102
{ACAD_REACTORS
330
267
102
}
330
267
100
AcDbVisualStyle
  2
Gouraud
 70
     2
 71
     2
 72
     2
 73
     1
 90
        2
 40
-0.6
 41
30.0
 62
     5
 63
     7
421
 16777215
 74
     0
 91
        4
 64
     7
 65
   257
 75
     1
175
     1
 42
1.0
 92
        0
 66
     7
 43
1.0
 76
     1
 77
     6
 78
     2
 67
     7
 79
     5
170
     0
171
     0
290
     0
174
     0
 93
       13
 44
0.0
173
     0
291
     1
 45
0.0
  0
VISUALSTYLE
  5
26B
102
{ACAD_REACTORS
330
267
102
}
330
267
100
AcDbVisualStyle
  2
GouraudWithEdges
 70
     3
 71
     2
 72
     2
 73
     1
 90
        2
 40
-0.6
 41
30.0
 62
     5
 63
     7
421
 16777215
 74
     1
 91
        4
 64
     7
 65
   257
 75
     1
175
     1
 42
1.0
 92
        0
 66
   257
 43
1.0
 76
     1
 77
     6
 78
     2
 67
     7
 79
     5
170
     0
171
     0
290
     0
174
     0
 93
       13
 44
0.0
173
     0
291
     1
 45
0.0
  0
VISUALSTYLE
  5
8B9
102
{ACAD_REACTORS
330
267
102
}
330
267
100
AcDbVisualStyle
  2
Hidden
 70
     6
 71
     1
 72
     2
 73
     2
 90
        0
 40
0.6
 41
30.0
 62
     5
 63
     7
421
 16777215
 74
     2
 91
        2
 64
     7
 65
   257
 75
     2
175
     1
 42
40.0
 92
        0
 66
   257
 43
1.0
 76
     1
 77
     6
 78
     2
 67
     7
 79
     3
170
     0
171
     0
290
     0
174
     0
 93
        1
 44
0.0
173
     0
291
     0
 45
0.0
  0
VISUALSTYLE
  5
8BA
102
{ACAD_REACTORS
330
267
102
}
330
267
100
AcDbVisualStyle
  2
JitterOff
 70
    20
 71
     2
 72
     2
 73
     0
 90
        0
 40
0.6
 41
30.0
 62
     5
 63
     7
421
 16777215
 74
     1
 91
        4
 64
     7
 65
   257
 75
     1
175
     1
 42
1.0
 92
       10
 66
     7
 43
1.0
 76
     1
 77
     6
 78
     2
 67
     7
 79
     5
170
     0
171
     0
290
     0
174
     0
 93
        1
 44
0.0
173
     0
291
     1
 45
0.0
  0
VISUALSTYLE
  5
275
102
{ACAD_REACTORS
330
267
102
}
330
267
100
AcDbVisualStyle
  2
Linepattern
 70
    14
 71
     2
 72
     2
 73
     0
 90
        0
 40
-0.6
 41
-30.0
 62
     5
 63
     7
421
 16777215
 74
     1
 91
        4
 64
     7
 65
   257
 75
     7
175
     7
 42
1.0
 92
        8
 66
     7
 43
1.0
 76
     1
 77
     6
 78
     2
 67
     7
 79
     5
170
     0
171
     0
290
     0
174
     0
 93
        1
 44
0.0
173
     0
291
     1
 45
0.0
  0
VISUALSTYLE
  5
8BB
102
{ACAD_REACTORS
330
267
102
}
330
267
100
AcDbVisualStyle
  2
OverhangOff
 70
    21
 71
     2
 72
     2
 73
     0
 90
        0
 40
0.6
 41
30.0
 62
     5
 63
     7
421
 16777215
 74
     1
 91
        4
 64
     7
 65
   257
 75
     1
175
     1
 42
1.0
 92
        9
 66
     7
 43
1.0
 76
     1
 77
     6
 78
     2
 67
     7
 79
     5
170
     0
171
     0
290
     0
174
     0
 93
        1
 44
0.0
173
     0
291
     1
 45
0.0
  0
VISUALSTYLE
  5
270
102
{ACAD_REACTORS
330
267
102
}
330
267
100
AcDbVisualStyle
  2
Realistic
 70
     8
 71
     2
 72
     2
 73
     0
 90
        0
 40
-0.6
 41
-30.0
 62
     5
 63
     7
421
 16777215
 74
     1
 91
        0
 64
     7
 65
   257
 75
     1
175
     1
 42
1.0
 92
        8
 66
     8
424
  7895160
 43
1.0
 76
     1
 77
     6
 78
     2
 67
     7
 79
     5
170
     0
171
     0
290
     0
174
     0
 93
       13
 44
0.0
173
     0
291
     0
 45
0.0
  0
VISUALSTYLE
  5
8C1
102
{ACAD_REACTORS
330
267
102
}
330
267
100
AcDbVisualStyle
  2
Shaded
 70
    27
 71
     2
 72
     2
 73
     1
 90
        2
 40
0.6
 41
30.0
 62
     5
 63
     7
421
 16777215
 74
     0
 91
        4
 64
     7
 65
   257
 75
     1
175
     1
 42
1.0
 92
        8
 66
   257
 43
1.0
 76
     1
 77
     6
 78
     2
 67
     8
425
  7895160
 79
     3
170
     0
171
     0
290
     0
174
     0
 93
        5
 44
0.0
173
     0
291
     0
 45
0.0
  0
VISUALSTYLE
  5
8C0
102
{ACAD_REACTORS
330
267
102
}
330
267
100
AcDbVisualStyle
  2
Shaded with edges
 70
    26
 71
     2
 72
     2
 73
     1
 90
        2
 40
0.6
 41
30.0
 62
     5
 63
     7
421
 16777215
 74
     1
 91
       10
 64
     7
 65
   257
 75
     2
175
     1
 42
1.0
 92
        8
 66
   257
 43
1.0
 76
     1
 77
     6
 78
     2
 67
     7
 79
     3
170
     0
171
     0
290
     0
174
     0
 93
        5
 44
0.0
173
     0
291
     0
 45
0.0
  0
VISUALSTYLE
  5
8BD
102
{ACAD_REACTORS
330
267
102
}
330
267
100
AcDbVisualStyle
  2
Shades of Gray
 70
    23
 71
     2
 72
     2
 73
     3
 90
        0
 40
0.6
 41
30.0
 62
     5
 63
     7
421
 16777215
 74
     2
 91
        2
 64
     7
 65
     7
 75
     1
175
     1
 42
40.0
 92
        8
 66
     7
 43
1.0
 76
     1
 77
     6
 78
     2
 67
     7
 79
     3
170
     0
171
     0
290
     0
174
     0
 93
        1
 44
0.0
173
     0
291
     0
 45
0.0
  0
VISUALSTYLE
  5
8BE
102
{ACAD_REACTORS
330
267
102
}
330
267
100
AcDbVisualStyle
  2
Sketchy
 70
    24
 71
     1
 72
     2
 73
     2
 90
        0
 40
0.6
 41
30.0
 62
     5
 63
     7
421
 16777215
 74
     2
 91
        2
 64
     7
 65
     7
 75
     1
175
     1
 42
40.0
 92
       11
 66
     7
 43
1.0
 76
     1
 77
     6
 78
     2
 67
     7
 79
     6
170
     0
171
     0
290
     0
174
     0
 93
        1
 44
0.0
173
     0
291
     0
 45
0.0
  0
VISUALSTYLE
  5
274
102
{ACAD_REACTORS
330
267
102
}
330
267
100
AcDbVisualStyle
  2
Thicken
 70
    13
 71
     2
 72
     2
 73
     0
 90
        0
 40
-0.6
 41
-30.0
 62
     5
 63
     7
421
 16777215
 74
     1
 91
        4
 64
     7
 65
   257
 75
     1
175
     1
 42
1.0
 92
       12
 66
     7
 43
1.0
 76
     1
 77
     6
 78
     2
 67
     7
 79
     5
170
     0
171
     0
290
     0
174
     0
 93
        1
 44
0.0
173
     0
291
     1
 45
0.0
  0
VISUALSTYLE
  5
8B8
102
{ACAD_REACTORS
330
267
102
}
330
267
100
AcDbVisualStyle
  2
Wireframe
 70
     5
 71
     0
 72
     2
 73
     0
 90
        0
 40
0.6
 41
30.0
 62
     5
 63
     7
421
 16777215
 74
     1
 91
        4
 64
     7
 65
   257
 75
     1
175
     1
 42
1.0
 92
        0
 66
   257
 43
1.0
 76
     1
 77
     6
 78
     2
 67
     7
 79
     3
170
     0
171
     0
290
     0
174
     0
 93
        1
 44
0.0
173
     0
291
     0
 45
0.0
  0
VISUALSTYLE
  5
8BF
102
{ACAD_REACTORS
330
267
102
}
330
267
100
AcDbVisualStyle
  2
X-Ray
 70
    25
 71
     2
 72
     2
 73
     1
 90
        1
 40
0.5
 41
30.0
 62
     5
 63
     7
421
 16777215
 74
     1
 91
        0
 64
     7
 65
   257
 75
     1
175
     1
 42
1.0
 92
        8
 66
     7
 43
1.0
 76
     1
 77
     6
 78
     2
 67
     7
 79
     3
170
     0
171
     0
290
     0
174
     0
 93
       13
 44
0.0
173
     0
291
     0
 45
0.0
  0
DICTIONARYVAR
  5
331
102
{ACAD_REACTORS
330
330
102
}
330
330
100
DictionaryVariables
280
     0
  1
1:1
  0
DICTIONARYVAR
  5
8DA
102
{ACAD_REACTORS
330
330
102
}
330
330
100
DictionaryVariables
280
     0
  1
Standard
  0
DICTIONARYVAR
  5
335
102
{ACAD_REACTORS
330
330
102
}
330
330
100
DictionaryVariables
280
     0
  1
Standard
  0
DICTIONARYVAR
  5
C07
102
{ACAD_REACTORS
330
330
102
}
330
330
100
DictionaryVariables
280
     0
  1
ByLayer
  0
DICTIONARYVAR
  5
64A
102
{ACAD_REACTORS
330
330
102
}
330
330
100
DictionaryVariables
280
     0
  1
0
  0
DICTIONARYVAR
  5
4918
102
{ACAD_REACTORS
330
C08
102
}
330
C08
100
DictionaryVariables
280
     0
  1
0.261799
  0
DICTIONARYVAR
  5
4916
102
{ACAD_REACTORS
330
C08
102
}
330
C08
100
DictionaryVariables
280
     0
  1
0.400000
  0
DICTIONARYVAR
  5
4917
102
{ACAD_REACTORS
330
C08
102
}
330
C08
100
DictionaryVariables
280
     0
  1
0.250000
  0
DICTIONARYVAR
  5
4919
102
{ACAD_REACTORS
330
C08
102
}
330
C08
100
DictionaryVariables
280
     0
  1
1
  0
FIELD
  5
BDE
102
{ACAD_REACTORS
330
7907
102
}
330
7907
100
AcDbField
  1
_text
  2
{%<\_FldIdx 0>%N}
 90
        1
360
BDF
 97
        0
 91
       63
 92
        0
 94
       11
 95
        2
 96
        0
300

 93
        1
  6
ACFD_FIELDTEXT_CHECKSUM
 93
        2
 90
        2
140
4543.0
 94
        0
300

302

304
ACVALUE_END
  7
ACFD_FIELD_VALUE
 93
        6
 90
        4
  1
{20210818N}
 94
        0
300

302

304
ACVALUE_END
301
{20210818N}
 98
       11
  0
DICTIONARY
  5
7ADD
330
279
100
AcDbDictionary
280
     1
281
     1
  3
ACAD_ROUNDTRIP_2008_TABLESTYLE_CELLSTYLEMAP
360
7ADE
  0
FIELD
  5
BDF
330
BDE
100
AcDbField
  1
AcVar
  2
\AcVar Date \f "yyyyMMdd"
 90
        0
 97
        0
 91
       63
 92
        0
 94
        8
 95
       64
 96
        0
300
Variable not supported
 93
        1
  6
Variable
 93
        2
 90
        4
  1
Date
 94
        0
300

302

304
ACVALUE_END
  7
ACFD_FIELD_VALUE
 93
        6
 90
        8
 92
       16
310
E507080000001200030000001F000000
 94
        0
300
yyyyMMdd
302

304
ACVALUE_END
301
20210818
 98
        8
  0
CELLSTYLEMAP
  5
7ADE
102
{ACAD_REACTORS
330
7ADD
102
}
330
7ADD
100
AcDbCellStyleMap
 90
        3
300
CELLSTYLE
  1
TABLEFORMAT_BEGIN
 90
        5
170
     1
 91
        0
 92
    32768
 62
   257
 93
        1
300
CONTENTFORMAT
  1
CONTENTFORMAT_BEGIN
 90
        0
 91
        0
 92
        4
 93
        0
300

 40
0.0
140
1.0
 94
        5
 62
     0
340
17
144
6.0
309
CONTENTFORMAT_END
171
     1
301
MARGIN
  1
CELLMARGIN_BEGIN
 40
0.06
 40
0.06
 40
0.06
 40
0.06
 40
0.18
 40
0.18
309
CELLMARGIN_END
 94
        6
 95
        1
302
GRIDFORMAT
  1
GRIDFORMAT_BEGIN
 90
        0
 91
        1
 62
     0
 92
       -2
340
0
 93
        0
 40
0.045
309
GRIDFORMAT_END
 95
        2
302
GRIDFORMAT
  1
GRIDFORMAT_BEGIN
 90
        0
 91
        1
 62
     0
 92
       -2
340
0
 93
        0
 40
0.045
309
GRIDFORMAT_END
 95
        4
302
GRIDFORMAT
  1
GRIDFORMAT_BEGIN
 90
        0
 91
        1
 62
     0
 92
       -2
340
0
 93
        0
 40
0.045
309
GRIDFORMAT_END
 95
        8
302
GRIDFORMAT
  1
GRIDFORMAT_BEGIN
 90
        0
 91
        1
 62
     0
 92
       -2
340
0
 93
        0
 40
0.045
309
GRIDFORMAT_END
 95
       16
302
GRIDFORMAT
  1
GRIDFORMAT_BEGIN
 90
        0
 91
        1
 62
     0
 92
       -2
340
0
 93
        0
 40
0.045
309
GRIDFORMAT_END
 95
       32
302
GRIDFORMAT
  1
GRIDFORMAT_BEGIN
 90
        0
 91
        1
 62
     0
 92
       -2
340
0
 93
        0
 40
0.045
309
GRIDFORMAT_END
309
TABLEFORMAT_END
  1
CELLSTYLE_BEGIN
 90
        1
 91
        1
300
_TITLE
309
CELLSTYLE_END
300
CELLSTYLE
  1
TABLEFORMAT_BEGIN
 90
        5
170
     1
 91
        0
 92
        0
 62
   257
 93
        1
300
CONTENTFORMAT
  1
CONTENTFORMAT_BEGIN
 90
        0
 91
        0
 92
        4
 93
        0
300

 40
0.0
140
1.0
 94
        5
 62
     0
340
17
144
4.5
309
CONTENTFORMAT_END
171
     1
301
MARGIN
  1
CELLMARGIN_BEGIN
 40
0.06
 40
0.06
 40
0.06
 40
0.06
 40
0.18
 40
0.18
309
CELLMARGIN_END
 94
        6
 95
        1
302
GRIDFORMAT
  1
GRIDFORMAT_BEGIN
 90
        0
 91
        1
 62
     0
 92
       -2
340
0
 93
        0
 40
0.045
309
GRIDFORMAT_END
 95
        2
302
GRIDFORMAT
  1
GRIDFORMAT_BEGIN
 90
        0
 91
        1
 62
     0
 92
       -2
340
0
 93
        0
 40
0.045
309
GRIDFORMAT_END
 95
        4
302
GRIDFORMAT
  1
GRIDFORMAT_BEGIN
 90
        0
 91
        1
 62
     0
 92
       -2
340
0
 93
        0
 40
0.045
309
GRIDFORMAT_END
 95
        8
302
GRIDFORMAT
  1
GRIDFORMAT_BEGIN
 90
        0
 91
        1
 62
     0
 92
       -2
340
0
 93
        0
 40
0.045
309
GRIDFORMAT_END
 95
       16
302
GRIDFORMAT
  1
GRIDFORMAT_BEGIN
 90
        0
 91
        1
 62
     0
 92
       -2
340
0
 93
        0
 40
0.045
309
GRIDFORMAT_END
 95
       32
302
GRIDFORMAT
  1
GRIDFORMAT_BEGIN
 90
        0
 91
        1
 62
     0
 92
       -2
340
0
 93
        0
 40
0.045
309
GRIDFORMAT_END
309
TABLEFORMAT_END
  1
CELLSTYLE_BEGIN
 90
        2
 91
        1
300
_HEADER
309
CELLSTYLE_END
300
CELLSTYLE
  1
TABLEFORMAT_BEGIN
 90
        5
170
     1
 91
        0
 92
        0
 62
   257
 93
        1
300
CONTENTFORMAT
  1
CONTENTFORMAT_BEGIN
 90
        0
 91
        0
 92
        4
 93
        0
300

 40
0.0
140
1.0
 94
        2
 62
     0
340
17
144
4.5
309
CONTENTFORMAT_END
171
     1
301
MARGIN
  1
CELLMARGIN_BEGIN
 40
0.06
 40
0.06
 40
0.06
 40
0.06
 40
0.18
 40
0.18
309
CELLMARGIN_END
 94
        6
 95
        1
302
GRIDFORMAT
  1
GRIDFORMAT_BEGIN
 90
        0
 91
        1
 62
     0
 92
       -2
340
0
 93
        0
 40
0.045
309
GRIDFORMAT_END
 95
        2
302
GRIDFORMAT
  1
GRIDFORMAT_BEGIN
 90
        0
 91
        1
 62
     0
 92
       -2
340
0
 93
        0
 40
0.045
309
GRIDFORMAT_END
 95
        4
302
GRIDFORMAT
  1
GRIDFORMAT_BEGIN
 90
        0
 91
        1
 62
     0
 92
       -2
340
0
 93
        0
 40
0.045
309
GRIDFORMAT_END
 95
        8
302
GRIDFORMAT
  1
GRIDFORMAT_BEGIN
 90
        0
 91
        1
 62
     0
 92
       -2
340
0
 93
        0
 40
0.045
309
GRIDFORMAT_END
 95
       16
302
GRIDFORMAT
  1
GRIDFORMAT_BEGIN
 90
        0
 91
        1
 62
     0
 92
       -2
340
0
 93
        0
 40
0.045
309
GRIDFORMAT_END
 95
       32
302
GRIDFORMAT
  1
GRIDFORMAT_BEGIN
 90
        0
 91
        1
 62
     0
 92
       -2
340
0
 93
        0
 40
0.045
309
GRIDFORMAT_END
309
TABLEFORMAT_END
  1
CELLSTYLE_BEGIN
 90
        3
 91
        2
300
_DATA
309
CELLSTYLE_END
  0
ENDSEC
  0
EOF
