  0
SECTION
  2
HEADER
  9
$ACADVER
  1
AC1021
  9
$ACADMAINTVER
 70
    25
  9
$DWGCODEPAGE
  3
ANSI_932
  9
$LASTSAVEDBY
  1
T-HOWE-PC
  9
$INSBASE
 10
0.0
 20
0.0
 30
0.0
  9
$EXTMIN
 10
0.0
 20
0.0
 30
-0.0000000053126276
  9
$EXTMAX
 10
2100.0
 20
2970.0
 30
34.99521132346015
  9
$LIMMIN
 10
0.0
 20
0.0
  9
$LIMMAX
 10
2100.0
 20
2970.0
  9
$ORTHOMODE
 70
     1
  9
$REGENMODE
 70
     1
  9
$FILLMODE
 70
     1
  9
$QTEXTMODE
 70
     0
  9
$MIRRTEXT
 70
     1
  9
$LTSCALE
 40
5.0
  9
$ATTMODE
 70
     1
  9
$TEXTSIZE
 40
533.0403732820173
  9
$TRACEWID
 40
1.0
  9
$TEXTSTYLE
  7
Standard
  9
$CLAYER
  8
Dim
  9
$CELTYPE
  6
ByLayer
  9
$CECOLOR
 62
   256
  9
$CELTSCALE
 40
1.0
  9
$DISPSILH
 70
     0
  9
$DIMSCALE
 40
1.0
  9
$DIMASZ
 40
9.999389648437498
  9
$DIMEXO
 40
25.0
  9
$DIMDLI
 40
0.9999999999999999
  9
$DIMRND
 40
0.0
  9
$DIMDLE
 40
0.0
  9
$DIMEXE
 40
0.0
  9
$DIMTP
 40
0.0
  9
$DIMTM
 40
0.0
  9
$DIMTXT
 40
24.4326171875
  9
$DIMCEN
 40
0.0
  9
$DIMTSZ
 40
0.0
  9
$DIMTOL
 70
     0
  9
$DIMLIM
 70
     0
  9
$DIMTIH
 70
     0
  9
$DIMTOH
 70
     0
  9
$DIMSE1
 70
     0
  9
$DIMSE2
 70
     0
  9
$DIMTAD
 70
     1
  9
$DIMZIN
 70
    11
  9
$DIMBLK
  1
DOT
  9
$DIMASO
 70
     1
  9
$DIMSHO
 70
     1
  9
$DIMPOST
  1
<>
  9
$DIMAPOST
  1
[]
  9
$DIMALT
 70
     0
  9
$DIMALTD
 70
     1
  9
$DIMALTF
 40
1.0
  9
$DIMLFAC
 40
1.0
  9
$DIMTOFL
 70
     1
  9
$DIMTVP
 40
0.0
  9
$DIMTIX
 70
     1
  9
$DIMSOXD
 70
     0
  9
$DIMSAH
 70
     0
  9
$DIMBLK1
  1

  9
$DIMBLK2
  1

  9
$DIMSTYLE
  2
tform線あり
  9
$DIMCLRD
 70
     0
  9
$DIMCLRE
 70
     0
  9
$DIMCLRT
 70
     0
  9
$DIMTFAC
 40
0.8
  9
$DIMGAP
 40
10.0
  9
$DIMJUST
 70
     0
  9
$DIMSD1
 70
     0
  9
$DIMSD2
 70
     0
  9
$DIMTOLJ
 70
     1
  9
$DIMTZIN
 70
    11
  9
$DIMALTZ
 70
    11
  9
$DIMALTTZ
 70
    11
  9
$DIMUPT
 70
     0
  9
$DIMDEC
 70
     0
  9
$DIMTDEC
 70
     1
  9
$DIMALTU
 70
     2
  9
$DIMALTTD
 70
     2
  9
$DIMTXSTY
  7
ＭＳ ゴシック
  9
$DIMAUNIT
 70
     0
  9
$DIMADEC
 70
     2
  9
$DIMALTRND
 40
0.0
  9
$DIMAZIN
 70
     0
  9
$DIMDSEP
 70
    46
  9
$DIMATFIT
 70
     0
  9
$DIMFRAC
 70
     2
  9
$DIMLDRBLK
  1
DOT
  9
$DIMLUNIT
 70
     2
  9
$DIMLWD
 70
    -2
  9
$DIMLWE
 70
    -2
  9
$DIMTMOVE
 70
     0
  9
$DIMFXL
 40
1.0
  9
$DIMFXLON
 70
     0
  9
$DIMJOGANG
 40
0.7853981633974483
  9
$DIMTFILL
 70
     0
  9
$DIMTFILLCLR
 70
     0
  9
$DIMARCSYM
 70
     0
  9
$DIMLTYPE
  6

  9
$DIMLTEX1
  6

  9
$DIMLTEX2
  6

  9
$LUNITS
 70
     2
  9
$LUPREC
 70
     0
  9
$SKETCHINC
 40
0.1
  9
$FILLETRAD
 40
0.0
  9
$AUNITS
 70
     0
  9
$AUPREC
 70
     0
  9
$MENU
  1
acad
  9
$ELEVATION
 40
0.0
  9
$PELEVATION
 40
0.0
  9
$THICKNESS
 40
0.0
  9
$LIMCHECK
 70
     0
  9
$CHAMFERA
 40
0.0
  9
$CHAMFERB
 40
0.0
  9
$CHAMFERC
 40
0.0
  9
$CHAMFERD
 40
0.0
  9
$SKPOLY
 70
     0
  9
$TDCREATE
 40
2447893.375
  9
$TDUCREATE
 40
0.0
  9
$TDUPDATE
 40
2459450.712003739
  9
$TDUUPDATE
 40
2459450.337003739
  9
$TDINDWG
 40
0.7637332407
  9
$TDUSRTIMER
 40
0.0006074653
  9
$USRTIMER
 70
     1
  9
$ANGBASE
 50
0.0
  9
$ANGDIR
 70
     0
  9
$PDMODE
 70
     1
  9
$PDSIZE
 40
-2.0
  9
$PLINEWID
 40
0.0
  9
$SPLFRAME
 70
     0
  9
$SPLINETYPE
 70
     6
  9
$SPLINESEGS
 70
     8
  9
$HANDSEED
  5
886D
  9
$SURFTAB1
 70
     6
  9
$SURFTAB2
 70
     6
  9
$SURFTYPE
 70
     6
  9
$SURFU
 70
     6
  9
$SURFV
 70
     6
  9
$UCSBASE
  2

  9
$UCSNAME
  2

  9
$UCSORG
 10
0.0
 20
0.0
 30
0.0
  9
$UCSXDIR
 10
1.0
 20
0.0
 30
0.0
  9
$UCSYDIR
 10
0.0
 20
1.0
 30
0.0
  9
$UCSORTHOREF
  2

  9
$UCSORTHOVIEW
 70
     0
  9
$UCSORGTOP
 10
0.0
 20
0.0
 30
0.0
  9
$UCSORGBOTTOM
 10
0.0
 20
0.0
 30
0.0
  9
$UCSORGLEFT
 10
0.0
 20
0.0
 30
0.0
  9
$UCSORGRIGHT
 10
0.0
 20
0.0
 30
0.0
  9
$UCSORGFRONT
 10
0.0
 20
0.0
 30
0.0
  9
$UCSORGBACK
 10
0.0
 20
0.0
 30
0.0
  9
$PUCSBASE
  2

  9
$PUCSNAME
  2

  9
$PUCSORG
 10
0.0
 20
0.0
 30
0.0
  9
$PUCSXDIR
 10
1.0
 20
0.0
 30
0.0
  9
$PUCSYDIR
 10
0.0
 20
1.0
 30
0.0
  9
$PUCSORTHOREF
  2

  9
$PUCSORTHOVIEW
 70
     0
  9
$PUCSORGTOP
 10
0.0
 20
0.0
 30
0.0
  9
$PUCSORGBOTTOM
 10
0.0
 20
0.0
 30
0.0
  9
$PUCSORGLEFT
 10
0.0
 20
0.0
 30
0.0
  9
$PUCSORGRIGHT
 10
0.0
 20
0.0
 30
0.0
  9
$PUCSORGFRONT
 10
0.0
 20
0.0
 30
0.0
  9
$PUCSORGBACK
 10
0.0
 20
0.0
 30
0.0
  9
$USERI1
 70
     0
  9
$USERI2
 70
     0
  9
$USERI3
 70
     0
  9
$USERI4
 70
     0
  9
$USERI5
 70
     0
  9
$USERR1
 40
0.0
  9
$USERR2
 40
0.0
  9
$USERR3
 40
0.0
  9
$USERR4
 40
0.0
  9
$USERR5
 40
0.0
  9
$WORLDVIEW
 70
     1
  9
$SHADEDGE
 70
     3
  9
$SHADEDIF
 70
    70
  9
$TILEMODE
 70
     1
  9
$MAXACTVP
 70
    64
  9
$PINSBASE
 10
0.0
 20
0.0
 30
0.0
  9
$PLIMCHECK
 70
     0
  9
$PEXTMIN
 10
0.0
 20
0.0
 30
0.0
  9
$PEXTMAX
 10
0.0
 20
0.0
 30
0.0
  9
$PLIMMIN
 10
-7.5
 20
-20.0
  9
$PLIMMAX
 10
412.5
 20
277.0
  9
$UNITMODE
 70
     0
  9
$VISRETAIN
 70
     0
  9
$PLINEGEN
 70
     1
  9
$PSLTSCALE
 70
     0
  9
$TREEDEPTH
 70
  3020
  9
$CMLSTYLE
  2
Standard
  9
$CMLJUST
 70
     0
  9
$CMLSCALE
 40
1.0
  9
$PROXYGRAPHICS
 70
     0
  9
$MEASUREMENT
 70
     1
  9
$CELWEIGHT
370
    -1
  9
$ENDCAPS
280
     0
  9
$JOINSTYLE
280
     0
  9
$LWDISPLAY
290
     1
  9
$INSUNITS
 70
     4
  9
$HYPERLINKBASE
  1

  9
$STYLESHEET
  1

  9
$XEDIT
290
     1
  9
$CEPSNTYPE
380
     0
  9
$PSTYLEMODE
290
     1
  9
$FINGERPRINTGUID
  2

  9
$VERSIONGUID
  2

  9
$EXTNAMES
290
     1
  9
$PSVPSCALE
 40
0.0
  9
$OLESTARTUP
290
     0
  9
$SORTENTS
280
   127
  9
$INDEXCTL
280
     0
  9
$HIDETEXT
280
     1
  9
$XCLIPFRAME
290
     0
  9
$HALOGAP
280
     0
  9
$OBSCOLOR
 70
   257
  9
$OBSLTYPE
280
     0
  9
$INTERSECTIONDISPLAY
280
     0
  9
$INTERSECTIONCOLOR
 70
   257
  9
$DIMASSOC
280
     2
  9
$PROJECTNAME
  1

  9
$CAMERADISPLAY
290
     0
  9
$LENSLENGTH
 40
50.0
  9
$CAMERAHEIGHT
 40
0.0
  9
$STEPSPERSEC
 40
2.0
  9
$STEPSIZE
 40
6.0
  9
$3DDWFPREC
 40
2.0
  9
$PSOLWIDTH
 40
0.25
  9
$PSOLHEIGHT
 40
4.0
  9
$LOFTANG1
 40
1.570796326794897
  9
$LOFTANG2
 40
1.570796326794897
  9
$LOFTMAG1
 40
0.0
  9
$LOFTMAG2
 40
0.0
  9
$LOFTPARAM
 70
     7
  9
$LOFTNORMALS
280
     1
  9
$LATITUDE
 40
37.795
  9
$LONGITUDE
 40
-122.394
  9
$NORTHDIRECTION
 40
0.0
  9
$TIMEZONE
 70
 -8000
  9
$LIGHTGLYPHDISPLAY
280
     1
  9
$TILEMODELIGHTSYNCH
280
     1
  9
$SOLIDHIST
280
     1
  9
$SHOWHIST
280
     1
  9
$DWFFRAME
280
     2
  9
$DGNFRAME
280
     2
  9
$REALWORLDSCALE
290
     1
  9
$INTERFERECOLOR
 62
   256
  9
$CSHADOW
280
     0
  9
$SHADOWPLANELOCATION
 40
0.0
  0
ENDSEC
  0
SECTION
  2
CLASSES
  0
CLASS
  1
LWPOLYLINE
  2
AcDbPolyline
  3
ObjectDBX Classes
 90
        0
 91
        1
280
     0
281
     1
  0
CLASS
  1
IMAGE
  2
AcDbRasterImage
  3
ISM
 90
      127
 91
        4
280
     0
281
     1
  0
CLASS
  1
OLE2FRAME
  2
AcDbOle2Frame
  3
ObjectDBX Classes
 90
        0
 91
        1
280
     0
281
     1
  0
CLASS
  1
HATCH
  2
AcDbHatch
  3
ObjectDBX Classes
 90
        0
 91
        1
280
     0
281
     1
  0
CLASS
  1
DICTIONARYVAR
  2
AcDbDictionaryVar
  3
ObjectDBX Classes
 90
        0
 91
        3
280
     0
281
     0
  0
CLASS
  1
RASTERVARIABLES
  2
AcDbRasterVariables
  3
ISM
 90
        0
 91
        3
280
     0
281
     0
  0
CLASS
  1
IMAGEDEF
  2
AcDbRasterImageDef
  3
ISM
 90
        0
 91
        3
280
     0
281
     0
  0
CLASS
  1
IMAGEDEF_REACTOR
  2
AcDbRasterImageDefReactor
  3
ISM
 90
        1
 91
        3
280
     0
281
     0
  0
CLASS
  1
IDBUFFER
  2
AcDbIdBuffer
  3
ObjectDBX Classes
 90
        0
 91
        3
280
     0
281
     0
  0
CLASS
  1
SPATIAL_FILTER
  2
AcDbSpatialFilter
  3
ObjectDBX Classes
 90
        0
 91
        3
280
     0
281
     0
  0
CLASS
  1
XRECORD
  2
AcDbXrecord
  3
ObjectDBX Classes
 90
        0
 91
        1
280
     0
281
     0
  0
CLASS
  1
SORTENTSTABLE
  2
AcDbSortentsTable
  3
ObjectDBX Classes
 90
        0
 91
        3
280
     0
281
     0
  0
CLASS
  1
LAYER_INDEX
  2
AcDbLayerIndex
  3
ObjectDBX Classes
 90
        0
 91
        3
280
     0
281
     0
  0
CLASS
  1
SPATIAL_INDEX
  2
AcDbSpatialIndex
  3
AutoCAD 2000
 90
        0
 91
        3
280
     0
281
     0
  0
CLASS
  1
OBJECT_PTR
  2
CAseDLPNTableRecord
  3
ASE-LPNTableRecord
 90
        1
 91
        3
280
     0
281
     0
  0
CLASS
  1
LAYOUT
  2
AcDbLayout
  3
ObjectDBX Classes
 90
        0
 91
        1
280
     0
281
     0
  0
CLASS
  1
PLOTSETTINGS
  2
AcDbPlotSettings
  3
ObjectDBX Classes
 90
        0
 91
        3
280
     0
281
     0
  0
CLASS
  1
ACDBDICTIONARYWDFLT
  2
AcDbDictionaryWithDefault
  3
ObjectDBX Classes
 90
        0
 91
        3
280
     0
281
     0
  0
CLASS
  1
ACDBPLACEHOLDER
  2
AcDbPlaceHolder
  3
ObjectDBX Classes
 90
        0
 91
        1
280
     0
281
     0
  0
CLASS
  1
SCALE
  2
AcDbScale
  3
ObjectDBX Classes
 90
     1153
 91
        3
280
     0
281
     0
  0
CLASS
  1
MATERIAL
  2
AcDbMaterial
  3
ObjectDBX Classes
 90
     1153
 91
        3
280
     0
281
     0
  0
CLASS
  1
VISUALSTYLE
  2
AcDbVisualStyle
  3
ObjectDBX Classes
 90
     4095
 91
        3
280
     0
281
     0
  0
CLASS
  1
TABLESTYLE
  2
AcDbTableStyle
  3
ObjectDBX Classes
 90
     4095
 91
        3
280
     0
281
     0
  0
CLASS
  1
DIMASSOC
  2
AcDbDimAssoc
  3
"AcDbDimAssoc|Product Desc:     AcDim ARX App For Dimension|Company:          Autodesk, Inc.|WEB Address:      www.autodesk.com"
 90
        0
 91
        3
280
     0
281
     0
  0
CLASS
  1
CELLSTYLEMAP
  2
AcDbCellStyleMap
  3
ObjectDBX Classes
 90
     1152
 91
        3
280
     0
281
     0
  0
CLASS
  1
SUN
  2
AcDbSun
  3
SCENEOE
 90
     1153
 91
        3
280
     0
281
     0
  0
CLASS
  1
MLEADERSTYLE
  2
AcDbMLeaderStyle
  3
ACDB_MLEADERSTYLE_CLASS
 90
     4095
 91
        3
280
     0
281
     0
  0
CLASS
  1
FIELD
  2
AcDbField
  3
ObjectDBX Classes
 90
     1152
 91
        3
280
     0
281
     0
  0
CLASS
  1
FIELDLIST
  2
AcDbFieldList
  3
ObjectDBX Classes
 90
     1152
 91
        3
280
     0
281
     0
  0
CLASS
  1
ACDB_ALDIMOBJECTCONTEXTDATA_CLASS
  2
AcDbAlignedDimensionObjectContextData
  3
ObjectDBX Classes
 90
     1153
 91
        3
280
     0
281
     0
  0
ENDSEC
  0
SECTION
  2
TABLES
  0
TABLE
  2
VPORT
  5
7
330
0
100
AcDbSymbolTable
 70
     1
  0
VPORT
  5
15
330
7
100
AcDbSymbolTableRecord
100
AcDbViewportTableRecord
  2
*ACTIVE
 70
     0
 10
0.0
 20
0.0
 11
1.0
 21
1.0
 12
672.9525617540357
 22
1782.612370234515
 13
0.0
 23
0.0
 14
1.0
 24
1.0
 15
0.0
 25
0.0
 16
0.0
 26
0.0
 36
1.0
 17
377.0474382459643
 27
-297.6123702345149
 37
0.0
 40
3029.4
 41
2.226173541963016
 42
50.0
 43
0.0
 44
0.0
 50
0.0
 51
0.0
 71
    16
 72
  2000
 73
     1
 74
     1
 75
     0
 76
     0
 77
     0
 78
     0
281
     0
 65
     1
110
0.0
120
0.0
130
0.0
111
1.0
121
0.0
131
0.0
112
0.0
122
1.0
132
0.0
 79
     0
146
0.0
348
26C
 60
     3
 61
     5
292
     1
282
     1
141
0.0
142
0.0
 63
   256
361
8C2
  0
ENDTAB
  0
TABLE
  2
LTYPE
  5
4
330
0
100
AcDbSymbolTable
 70
     4
  0
LTYPE
  5
11
330
4
100
AcDbSymbolTableRecord
100
AcDbLinetypeTableRecord
  2
ByBlock
 70
     0
  3

 72
    65
 73
     0
 40
0.0
  0
LTYPE
  5
12
330
4
100
AcDbSymbolTableRecord
100
AcDbLinetypeTableRecord
  2
ByLayer
 70
     0
  3

 72
    65
 73
     0
 40
0.0
  0
LTYPE
  5
13
330
4
100
AcDbSymbolTableRecord
100
AcDbLinetypeTableRecord
  2
Continuous
 70
     0
  3
Solid line
 72
    65
 73
     0
 40
0.0
  0
LTYPE
  5
8D4
330
4
100
AcDbSymbolTableRecord
100
AcDbLinetypeTableRecord
  2
HIDDEN
 70
     0
  3
Hidden _ _ _ _ _ _ _ _ _ _ _ _ _ _ _ _ _ _ _ _ 
 72
    65
 73
     2
 40
9.524999999999999
 49
6.35
 74
     0
 49
-3.175
 74
     0
  0
LTYPE
  5
BF2
330
4
100
AcDbSymbolTableRecord
100
AcDbLinetypeTableRecord
  2
BORDER
 70
     0
  3
Border __  __  . __  __  . __  __  . __  __  . 
 72
    65
 73
     6
 40
44.45
 49
12.7
 74
     0
 49
-6.35
 74
     0
 49
12.7
 74
     0
 49
-6.35
 74
     0
 49
0.0
 74
     0
 49
-6.35
 74
     0
  0
LTYPE
  5
4337
330
4
100
AcDbSymbolTableRecord
100
AcDbLinetypeTableRecord
  2
HIDDEN2
 70
     0
  3
Hidden (.5x) _ _ _ _ _ _ _ _ _ _ _ _ _ _ _ _ _ 
 72
    65
 73
     2
 40
4.762499999999999
 49
3.175
 74
     0
 49
-1.5875
 74
     0
  0
ENDTAB
  0
TABLE
  2
LAYER
  5
2
102
{ACAD_XDICTIONARY
360
2E1
102
}
330
0
100
AcDbSymbolTable
 70
    10
  0
LAYER
  5
14
330
2
100
AcDbSymbolTableRecord
100
AcDbLayerTableRecord
  2
0
 70
     0
 62
     7
  6
Continuous
370
    -3
390
1D
347
266
  0
LAYER
  5
4A
330
2
100
AcDbSymbolTableRecord
100
AcDbLayerTableRecord
  2
Defpoints
 70
     0
 62
     7
  6
Continuous
290
     0
370
    20
390
1D
347
266
  0
LAYER
  5
4B
330
2
100
AcDbSymbolTableRecord
100
AcDbLayerTableRecord
  2
template
 70
     0
 62
     7
  6
Continuous
370
    20
390
1D
347
266
  0
LAYER
  5
4D
330
2
100
AcDbSymbolTableRecord
100
AcDbLayerTableRecord
  2
MODEL
 70
     0
 62
     7
  6
Continuous
370
    20
390
1D
347
266
  0
LAYER
  5
382
330
2
100
AcDbSymbolTableRecord
100
AcDbLayerTableRecord
  2
レイヤー 1
 70
     0
 62
     7
  6
Continuous
370
    -3
390
1D
347
266
  0
LAYER
  5
5C4
330
2
100
AcDbSymbolTableRecord
100
AcDbLayerTableRecord
  2
HIDDEN
 70
     0
 62
   253
  6
HIDDEN
370
    20
390
1D
347
266
1001
AcAecLayerStandard
1000

1000

  0
LAYER
  5
5EB
330
2
100
AcDbSymbolTableRecord
100
AcDbLayerTableRecord
  2
Dim
 70
     0
 62
     3
  6
Continuous
370
    13
390
1D
347
266
1001
AcAecLayerStandard
1000

1000

  0
LAYER
  5
BF1
330
2
100
AcDbSymbolTableRecord
100
AcDbLayerTableRecord
  2
PRINT BORDER
 70
     0
 62
     4
  6
BORDER
290
     0
370
    20
390
1D
347
266
1001
AcAecLayerStandard
1000

1000

  0
LAYER
  5
1BD2
330
2
100
AcDbSymbolTableRecord
100
AcDbLayerTableRecord
  2
retino
 70
     0
 62
   253
  6
Continuous
370
     0
390
1D
347
266
  0
LAYER
  5
4336
330
2
100
AcDbSymbolTableRecord
100
AcDbLayerTableRecord
  2
tratteggio
 70
     0
 62
    74
  6
HIDDEN2
370
     0
390
1D
347
266
  0
ENDTAB
  0
TABLE
  2
STYLE
  5
3
330
0
100
AcDbSymbolTable
 70
     2
  0
STYLE
  5
17
330
3
100
AcDbSymbolTableRecord
100
AcDbTextStyleTableRecord
  2
Standard
 70
     0
 40
0.0
 41
1.0
 50
0.0
 71
     0
 42
533.0403732820173
  3
txt
  4
BIGFONT.SHX
  0
STYLE
  5
39
330
3
100
AcDbSymbolTableRecord
100
AcDbTextStyleTableRecord
  2
ＭＳ ゴシック
 70
     0
 40
0.0
 41
1.0
 50
0.0
 71
     0
 42
533.0403732820173
  3
msgothic.ttc
  4
ＭＳ ゴシック
1001
ACAD
1000
ＭＳ ゴシック
1071
        0
  0
ENDTAB
  0
TABLE
  2
VIEW
  5
5
330
0
100
AcDbSymbolTable
 70
     0
  0
ENDTAB
  0
TABLE
  2
UCS
  5
6
330
0
100
AcDbSymbolTable
 70
     0
  0
ENDTAB
  0
TABLE
  2
APPID
  5
8
330
0
100
AcDbSymbolTable
 70
    17
  0
APPID
  5
16
330
8
100
AcDbSymbolTableRecord
100
AcDbRegAppTableRecord
  2
ACAD
 70
     0
  0
APPID
  5
5C5
330
8
100
AcDbSymbolTableRecord
100
AcDbRegAppTableRecord
  2
AcAecLayerStandard
 70
     0
  0
APPID
  5
913
330
8
100
AcDbSymbolTableRecord
100
AcDbRegAppTableRecord
  2
ACAD_DSTYLE_DIMBREAK
 70
     0
  0
APPID
  5
914
330
8
100
AcDbSymbolTableRecord
100
AcDbRegAppTableRecord
  2
ACAD_DSTYLE_DIMJAG
 70
     0
  0
APPID
  5
915
330
8
100
AcDbSymbolTableRecord
100
AcDbRegAppTableRecord
  2
ACAD_DSTYLE_DIMTALN
 70
     0
  0
APPID
  5
E4F
330
8
100
AcDbSymbolTableRecord
100
AcDbRegAppTableRecord
  2
ACAD_MLEADERVER
 70
     0
  0
APPID
  5
E79
330
8
100
AcDbSymbolTableRecord
100
AcDbRegAppTableRecord
  2
ACAD_PSEXT
 70
     0
  0
APPID
  5
E7A
330
8
100
AcDbSymbolTableRecord
100
AcDbRegAppTableRecord
  2
ACAD_NAV_VCDISPLAY
 70
     0
  0
APPID
  5
166E
330
8
100
AcDbSymbolTableRecord
100
AcDbRegAppTableRecord
  2
AcadAnnotative
 70
     0
  0
APPID
  5
166F
330
8
100
AcDbSymbolTableRecord
100
AcDbRegAppTableRecord
  2
GradientColor1ACI
 70
     0
  0
APPID
  5
1670
330
8
100
AcDbSymbolTableRecord
100
AcDbRegAppTableRecord
  2
GradientColor2ACI
 70
     0
  0
APPID
  5
20FE
330
8
100
AcDbSymbolTableRecord
100
AcDbRegAppTableRecord
  2
AcLayerTools
 70
     0
  0
APPID
  5
27AB
330
8
100
AcDbSymbolTableRecord
100
AcDbRegAppTableRecord
  2
ACAD_DSTYLE_DIMRADIAL_EXTENSION
 70
     0
  0
APPID
  5
4342
330
8
100
AcDbSymbolTableRecord
100
AcDbRegAppTableRecord
  2
AcadAnnoAV
 70
     0
  0
APPID
  5
6AC5
330
8
100
AcDbSymbolTableRecord
100
AcDbRegAppTableRecord
  2
PLOTTRANSPARENCY
 70
     0
  0
APPID
  5
6AD8
330
8
100
AcDbSymbolTableRecord
100
AcDbRegAppTableRecord
  2
AcCmTransparency
 70
     0
  0
APPID
  5
87AB
330
8
100
AcDbSymbolTableRecord
100
AcDbRegAppTableRecord
  2
HATCHBACKGROUNDCOLOR
 70
     0
  0
ENDTAB
  0
TABLE
  2
DIMSTYLE
  5
9
330
0
100
AcDbSymbolTable
 70
     1
100
AcDbDimStyleTable
  0
DIMSTYLE
105
56
102
{ACAD_REACTORS
330
862E
330
863D
330
865E
330
866B
330
867D
330
868A
330
86EA
330
86F3
330
86F5
330
871B
330
872D
330
873A
330
874A
330
87F7
330
8826
330
8829
102
}
330
9
100
AcDbSymbolTableRecord
100
AcDbDimStyleTableRecord
  2
tform線あり
 70
     0
  3
<>
  4
[]
 41
9.999389648437498
 42
25.0
 43
0.9999999999999999
 44
0.0
 73
     0
 74
     0
 77
     1
 78
    11
140
24.4326171875
141
0.0
143
1.0
146
0.8
147
10.0
171
     1
172
     1
174
     1
178
     0
179
     2
271
     0
272
     1
276
     2
284
    11
285
    11
286
    11
289
     0
340
39
341
4E
342
4E
  0
ENDTAB
  0
TABLE
  2
BLOCK_RECORD
  5
1
330
0
100
AcDbSymbolTable
 70
    47
  0
BLOCK_RECORD
  5
A
102
{ACAD_XDICTIONARY
360
6587
102
}
330
1
100
AcDbSymbolTableRecord
100
AcDbBlockTableRecord
  2
*MODEL_SPACE
340
20
 70
     0
280
     1
281
     0
  0
BLOCK_RECORD
  5
B
330
1
100
AcDbSymbolTableRecord
100
AcDbBlockTableRecord
  2
*PAPER_SPACE
340
21
 70
     0
280
     1
281
     0
  0
BLOCK_RECORD
  5
4E
330
1
100
AcDbSymbolTableRecord
100
AcDbBlockTableRecord
  2
_DOT
340
0
102
{BLKREFS
331
7FB0
331
7FB1
331
7FBD
331
7FBE
331
7FEC
331
7FED
331
7FF8
331
7FF9
331
8024
331
8025
331
8031
331
8032
331
8040
331
8041
331
8053
331
8054
331
8060
331
8061
331
8073
331
8074
331
8080
331
8081
331
8628
331
8629
331
8637
331
8638
331
8646
331
8647
331
8658
331
8659
331
8665
331
8666
331
8674
331
8675
331
8684
331
8685
331
8693
331
8694
331
86BD
331
86BE
331
86D3
331
86D4
331
86E0
331
86E1
331
86FC
331
86FD
331
8708
331
8709
331
8714
331
8715
331
8724
331
8725
331
8734
331
8735
331
8741
331
8742
331
8754
331
8755
331
87C4
331
87C5
331
87D3
331
87D4
331
87E2
331
87E3
331
8803
331
8804
331
880F
331
8810
331
881B
331
881C
331
8835
331
8836
331
8841
331
8842
102
}
 70
     0
280
     1
281
     0
  0
BLOCK_RECORD
  5
3A5
330
1
100
AcDbSymbolTableRecord
100
AcDbBlockTableRecord
  2
名称未設定-1
340
0
102
{BLKREFS
331
3D0
102
}
 70
     1
280
     1
281
     0
  0
BLOCK_RECORD
  5
3A8
330
1
100
AcDbSymbolTableRecord
100
AcDbBlockTableRecord
  2
block 2
340
0
102
{BLKREFS
331
3A7
102
}
 70
     0
280
     1
281
     0
  0
BLOCK_RECORD
  5
3AB
330
1
100
AcDbSymbolTableRecord
100
AcDbBlockTableRecord
  2
block 3
340
0
102
{BLKREFS
331
3AA
102
}
 70
     0
280
     1
281
     0
  0
BLOCK_RECORD
  5
3AE
330
1
100
AcDbSymbolTableRecord
100
AcDbBlockTableRecord
  2
block 4
340
0
102
{BLKREFS
331
3AD
102
}
 70
     0
280
     1
281
     0
  0
BLOCK_RECORD
  5
3BD
330
1
100
AcDbSymbolTableRecord
100
AcDbBlockTableRecord
  2
block 5
340
0
102
{BLKREFS
331
3BC
102
}
 70
     0
280
     1
281
     0
  0
BLOCK_RECORD
  5
11F0
330
1
100
AcDbSymbolTableRecord
100
AcDbBlockTableRecord
  2
BLOCK_2
340
0
102
{BLKREFS
331
1273
331
127B
331
127C
102
}
 70
     0
280
     1
281
     0
  0
BLOCK_RECORD
  5
38B6
330
1
100
AcDbSymbolTableRecord
100
AcDbBlockTableRecord
  2
mobile_latù
340
0
310
2800000020000000200000000100080000000000000400000000000000000000000000000000000000000000000080000080000000808000800000008000800080800000C0C0C000C0DCC000F0CAA6000020400000206000002080000020A0000020C0000020E00000400000004020000040400000406000004080000040A0
310
000040C0000040E00000600000006020000060400000606000006080000060A0000060C0000060E00000800000008020000080400000806000008080000080A0000080C0000080E00000A0000000A0200000A0400000A0600000A0800000A0A00000A0C00000A0E00000C0000000C0200000C0400000C0600000C0800000C0
310
A00000C0C00000C0E00000E0000000E0200000E0400000E0600000E0800000E0A00000E0C00000E0E00040000000400020004000400040006000400080004000A0004000C0004000E00040200000402020004020400040206000402080004020A0004020C0004020E000404000004040200040404000404060004040800040
310
40A0004040C0004040E00040600000406020004060400040606000406080004060A0004060C0004060E00040800000408020004080400040806000408080004080A0004080C0004080E00040A0000040A0200040A0400040A0600040A0800040A0A00040A0C00040A0E00040C0000040C0200040C0400040C0600040C08000
310
40C0A00040C0C00040C0E00040E0000040E0200040E0400040E0600040E0800040E0A00040E0C00040E0E00080000000800020008000400080006000800080008000A0008000C0008000E00080200000802020008020400080206000802080008020A0008020C0008020E00080400000804020008040400080406000804080
310
008040A0008040C0008040E00080600000806020008060400080606000806080008060A0008060C0008060E00080800000808020008080400080806000808080008080A0008080C0008080E00080A0000080A0200080A0400080A0600080A0800080A0A00080A0C00080A0E00080C0000080C0200080C0400080C0600080C0
310
800080C0A00080C0C00080C0E00080E0000080E0200080E0400080E0600080E0800080E0A00080E0C00080E0E000C0000000C0002000C0004000C0006000C0008000C000A000C000C000C000E000C0200000C0202000C0204000C0206000C0208000C020A000C020C000C020E000C0400000C0402000C0404000C0406000C0
310
408000C040A000C040C000C040E000C0600000C0602000C0604000C0606000C0608000C060A000C060C000C060E000C0800000C0802000C0804000C0806000C0808000C080A000C080C000C080E000C0A00000C0A02000C0A04000C0A06000C0A08000C0A0A000C0A0C000C0A0E000C0C00000C0C02000C0C04000C0C06000
310
C0C08000C0C0A000F0FBFF00A4A0A000808080000000FF0000FF000000FFFF00FF000000FF00FF00FFFF0000FFFFFF0049494949494949494949494949494949494949494949494949494949494949494949494949494949494949494949494949494949494949494949494949494949494949494949494949494949494949
310
49494949494949494949494949494949494949494949494949494949494949494949494949494949494949494949494949494949494949494949494949494949494949494949494949494949494949494949FAFAFAFAFAFAFAFAFAFAFAFAFAFAFAFAFAFAFAFAFAFAFAFAFAFAFAFAFAFA4949FAFA4949494949494949494949
310
494949494949494949494949494949FAFA4949FAFA4949494949494949494949494949494949494949494949494949FAFA4949FAFA4949494949494949494949494949494949494949494949494949FAFA4949FAFA4949494949494949494949494949494949494949494949494949FAFA4949FAFA49494949494949494949
310
49494949494949494949494949494949FAFA4949FAFA4949494949494949494949494949494949494949494949494949FAFA4949FAFA4949494949494949494949494949494949494949494949494949FAFA4949FAFA4949494949494949494949494949494949494949494949494949FAFA4949FAFA494949494949494949
310
4949494949494949494949494949494949FAFA4949FAFA4949494949494949494949494949494949494949494949494949FAFA4949FAFA4949494949494949494949494949494949494949494949494949FAFA4949FAFA4949494949494949494949494949494949494949494949494949FAFA4949FAFA4949494949494949
310
494949494949494949494949494949494949FAFA4949FAFA4949494949494949494949494949494949494949494949494949FAFA4949FAFA4949494949494949494949494949494949494949494949494949FAFA4949FAFA4949494949494949494949494949494949494949494949494949FAFA4949FAFA49494949494949
310
49494949494949494949494949494949494949FAFA4949FAFAFAFAFAFAFAFAFAFAFAFAFAFAFAFAFAFAFAFAFAFAFAFAFAFAFAFAFAFA4949FAFAFAFAFAFAFAFAFAFAFAFAFAFAFAFAFAFAFAFAFAFAFAFAFAFAFAFAFAFA4949FAFA4949494949494949494949494949494949494949494949494949FAFA4949FAFAFAFAFAFAFAFA
310
FAFAFAFAFAFAFAFAFAFAFAFAFAFAFAFAFAFAFAFAFAFA494949494949494949494949494949494949494949494949494949494949494949494949494949494949494949494949494949494949494949494949494949494949494949494949494949494949494949494949494949494949494949494949494949494949494949
310
4949494949494949494949494949494949494949494949494949494949494949494949494949494949494949494949494949494949494949
102
{BLKREFS
331
3B99
331
45C2
102
}
 70
     4
280
     1
281
     0
  0
BLOCK_RECORD
  5
436B
330
1
100
AcDbSymbolTableRecord
100
AcDbBlockTableRecord
  2
.TD_SECTION_1
340
0
102
{BLKREFS
331
45C3
331
45C5
331
45C7
331
45C9
331
45CB
331
45CD
331
4611
102
}
 70
     0
280
     1
281
     0
  0
BLOCK_RECORD
  5
436F
330
1
100
AcDbSymbolTableRecord
100
AcDbBlockTableRecord
  2
.TD_SECTION_2
340
0
102
{BLKREFS
331
45C4
331
45C6
331
45C8
331
45CA
331
45CC
331
45CE
331
4612
102
}
 70
     0
280
     1
281
     0
  0
BLOCK_RECORD
  5
7FAA
330
1
100
AcDbSymbolTableRecord
100
AcDbBlockTableRecord
  2
*D10
340
0
 70
     0
280
     1
281
     0
  0
BLOCK_RECORD
  5
7FB7
330
1
100
AcDbSymbolTableRecord
100
AcDbBlockTableRecord
  2
*D11
340
0
 70
     0
280
     1
281
     0
  0
BLOCK_RECORD
  5
7FE6
330
1
100
AcDbSymbolTableRecord
100
AcDbBlockTableRecord
  2
*D12
340
0
 70
     0
280
     1
281
     0
  0
BLOCK_RECORD
  5
7FF2
330
1
100
AcDbSymbolTableRecord
100
AcDbBlockTableRecord
  2
*D13
340
0
 70
     0
280
     1
281
     0
  0
BLOCK_RECORD
  5
801E
330
1
100
AcDbSymbolTableRecord
100
AcDbBlockTableRecord
  2
*D14
340
0
 70
     0
280
     1
281
     0
  0
BLOCK_RECORD
  5
802B
330
1
100
AcDbSymbolTableRecord
100
AcDbBlockTableRecord
  2
*D15
340
0
 70
     0
280
     1
281
     0
  0
BLOCK_RECORD
  5
803A
330
1
100
AcDbSymbolTableRecord
100
AcDbBlockTableRecord
  2
*D16
340
0
 70
     0
280
     1
281
     0
  0
BLOCK_RECORD
  5
804A
330
1
100
AcDbSymbolTableRecord
100
AcDbBlockTableRecord
  2
*D17
340
0
 70
     0
280
     1
281
     0
  0
BLOCK_RECORD
  5
805A
330
1
100
AcDbSymbolTableRecord
100
AcDbBlockTableRecord
  2
*D18
340
0
 70
     0
280
     1
281
     0
  0
BLOCK_RECORD
  5
806D
330
1
100
AcDbSymbolTableRecord
100
AcDbBlockTableRecord
  2
*D19
340
0
 70
     0
280
     1
281
     0
  0
BLOCK_RECORD
  5
807A
330
1
100
AcDbSymbolTableRecord
100
AcDbBlockTableRecord
  2
*D20
340
0
 70
     0
280
     1
281
     0
  0
BLOCK_RECORD
  5
8622
330
1
100
AcDbSymbolTableRecord
100
AcDbBlockTableRecord
  2
*D21
340
0
 70
     0
280
     1
281
     0
  0
BLOCK_RECORD
  5
8631
330
1
100
AcDbSymbolTableRecord
100
AcDbBlockTableRecord
  2
*D22
340
0
 70
     0
280
     1
281
     0
  0
BLOCK_RECORD
  5
8640
330
1
100
AcDbSymbolTableRecord
100
AcDbBlockTableRecord
  2
*D23
340
0
 70
     0
280
     1
281
     0
  0
BLOCK_RECORD
  5
8652
330
1
100
AcDbSymbolTableRecord
100
AcDbBlockTableRecord
  2
*D24
340
0
 70
     0
280
     1
281
     0
  0
BLOCK_RECORD
  5
865F
330
1
100
AcDbSymbolTableRecord
100
AcDbBlockTableRecord
  2
*D25
340
0
 70
     0
280
     1
281
     0
  0
BLOCK_RECORD
  5
866E
330
1
100
AcDbSymbolTableRecord
100
AcDbBlockTableRecord
  2
*D26
340
0
 70
     0
280
     1
281
     0
  0
BLOCK_RECORD
  5
867E
330
1
100
AcDbSymbolTableRecord
100
AcDbBlockTableRecord
  2
*D27
340
0
 70
     0
280
     1
281
     0
  0
BLOCK_RECORD
  5
868D
330
1
100
AcDbSymbolTableRecord
100
AcDbBlockTableRecord
  2
*D28
340
0
 70
     0
280
     1
281
     0
  0
BLOCK_RECORD
  5
86B8
330
1
100
AcDbSymbolTableRecord
100
AcDbBlockTableRecord
  2
*D29
340
0
 70
     0
280
     1
281
     0
  0
BLOCK_RECORD
  5
86CE
330
1
100
AcDbSymbolTableRecord
100
AcDbBlockTableRecord
  2
*D30
340
0
 70
     0
280
     1
281
     0
  0
BLOCK_RECORD
  5
86DB
330
1
100
AcDbSymbolTableRecord
100
AcDbBlockTableRecord
  2
*D31
340
0
 70
     0
280
     1
281
     0
  0
BLOCK_RECORD
  5
86F6
330
1
100
AcDbSymbolTableRecord
100
AcDbBlockTableRecord
  2
*D32
340
0
 70
     0
280
     1
281
     0
  0
BLOCK_RECORD
  5
8702
330
1
100
AcDbSymbolTableRecord
100
AcDbBlockTableRecord
  2
*D33
340
0
 70
     0
280
     1
281
     0
  0
BLOCK_RECORD
  5
870E
330
1
100
AcDbSymbolTableRecord
100
AcDbBlockTableRecord
  2
*D34
340
0
 70
     0
280
     1
281
     0
  0
BLOCK_RECORD
  5
871E
330
1
100
AcDbSymbolTableRecord
100
AcDbBlockTableRecord
  2
*D35
340
0
 70
     0
280
     1
281
     0
  0
BLOCK_RECORD
  5
872E
330
1
100
AcDbSymbolTableRecord
100
AcDbBlockTableRecord
  2
*D36
340
0
 70
     0
280
     1
281
     0
  0
BLOCK_RECORD
  5
873B
330
1
100
AcDbSymbolTableRecord
100
AcDbBlockTableRecord
  2
*D37
340
0
 70
     0
280
     1
281
     0
  0
BLOCK_RECORD
  5
874B
330
1
100
AcDbSymbolTableRecord
100
AcDbBlockTableRecord
  2
*D38
340
0
 70
     0
280
     1
281
     0
  0
BLOCK_RECORD
  5
87BC
330
1
100
AcDbSymbolTableRecord
100
AcDbBlockTableRecord
  2
*D39
340
0
 70
     0
280
     1
281
     0
  0
BLOCK_RECORD
  5
87CE
330
1
100
AcDbSymbolTableRecord
100
AcDbBlockTableRecord
  2
*D40
340
0
 70
     0
280
     1
281
     0
  0
BLOCK_RECORD
  5
87DD
330
1
100
AcDbSymbolTableRecord
100
AcDbBlockTableRecord
  2
*D41
340
0
 70
     0
280
     1
281
     0
  0
BLOCK_RECORD
  5
87FA
330
1
100
AcDbSymbolTableRecord
100
AcDbBlockTableRecord
  2
*D42
340
0
 70
     0
280
     1
281
     0
  0
BLOCK_RECORD
  5
8809
330
1
100
AcDbSymbolTableRecord
100
AcDbBlockTableRecord
  2
*D43
340
0
 70
     0
280
     1
281
     0
  0
BLOCK_RECORD
  5
8815
330
1
100
AcDbSymbolTableRecord
100
AcDbBlockTableRecord
  2
*D44
340
0
 70
     0
280
     1
281
     0
  0
BLOCK_RECORD
  5
882C
330
1
100
AcDbSymbolTableRecord
100
AcDbBlockTableRecord
  2
*D45
340
0
 70
     0
280
     1
281
     0
  0
BLOCK_RECORD
  5
883B
330
1
100
AcDbSymbolTableRecord
100
AcDbBlockTableRecord
  2
*D46
340
0
 70
     0
280
     1
281
     0
  0
ENDTAB
  0
ENDSEC
  0
SECTION
  2
BLOCKS
  0
BLOCK
  5
D
330
A
100
AcDbEntity
  8
0
390
1D
100
AcDbBlockBegin
  2
*MODEL_SPACE
 70
     0
 10
0.0
 20
0.0
 30
0.0
  3
*MODEL_SPACE
  1
*MODEL_SPACE
  0
ENDBLK
  5
E
330
A
100
AcDbEntity
  8
0
390
1D
100
AcDbBlockEnd
  0
BLOCK
  5
F
330
B
100
AcDbEntity
 67
     1
  8
0
390
1D
100
AcDbBlockBegin
  2
*PAPER_SPACE
 70
     0
 10
0.0
 20
0.0
 30
0.0
  3
*PAPER_SPACE
  1
*PAPER_SPACE
  0
ENDBLK
  5
10
330
B
100
AcDbEntity
 67
     1
  8
0
390
1D
100
AcDbBlockEnd
  0
BLOCK
  5
490E
330
4E
100
AcDbEntity
  8
0
390
1D
100
AcDbBlockBegin
  2
_DOT
 70
     0
 10
0.0
 20
0.0
 30
0.0
  3
_DOT
  1
_DOT
  0
POLYLINE
  5
4910
330
4E
100
AcDbEntity
  8
0
  6
ByBlock
 62
     0
370
    -2
390
1D
100
AcDb2dPolyline
 66
     1
 10
0.0
 20
0.0
 30
0.0
 70
     1
 40
0.5
 41
0.5
  0
VERTEX
  5
4911
330
4910
100
AcDbEntity
  8
0
  6
ByBlock
 62
     0
370
    -2
390
1D
100
AcDbVertex
100
AcDb2dVertex
 10
-0.25
 20
0.0
 30
0.0
 42
1.0
  0
VERTEX
  5
4912
330
4910
100
AcDbEntity
  8
0
  6
ByBlock
 62
     0
370
    -2
390
1D
100
AcDbVertex
100
AcDb2dVertex
 10
0.25
 20
0.0
 30
0.0
 42
1.0
  0
SEQEND
  5
4913
330
4910
100
AcDbEntity
  8
0
390
1D
  0
LINE
  5
4914
330
4E
100
AcDbEntity
  8
0
  6
ByBlock
 62
     0
370
    -2
390
1D
100
AcDbLine
 10
-0.5
 20
0.0
 30
0.0
 11
-1.0
 21
0.0
 31
0.0
  0
ENDBLK
  5
4915
330
4E
100
AcDbEntity
  8
0
390
1D
100
AcDbBlockEnd
  0
BLOCK
  5
3A6
330
3A5
100
AcDbEntity
  8
0
100
AcDbBlockBegin
  2
名称未設定-1
 70
     0
 10
0.0
 20
0.0
 30
0.0
  3
名称未設定-1
  1
名称未設定-1
  0
INSERT
  5
3A7
330
3A5
100
AcDbEntity
  8
レイヤー 1
100
AcDbBlockReference
  2
block 2
 10
0.0
 20
0.0
 30
0.0
  0
ENDBLK
  5
3CC
330
3A5
100
AcDbEntity
  8
0
100
AcDbBlockEnd
  0
BLOCK
  5
3A9
330
3A8
100
AcDbEntity
  8
0
100
AcDbBlockBegin
  2
block 2
 70
     0
 10
0.0
 20
0.0
 30
0.0
  3
block 2
  1
block 2
  0
INSERT
  5
3AA
330
3A8
100
AcDbEntity
  8
レイヤー 1
100
AcDbBlockReference
  2
block 3
 10
0.0
 20
0.0
 30
0.0
  0
ENDBLK
  5
3CB
330
3A8
100
AcDbEntity
  8
0
100
AcDbBlockEnd
  0
BLOCK
  5
3AC
330
3AB
100
AcDbEntity
  8
0
100
AcDbBlockBegin
  2
block 3
 70
     0
 10
0.0
 20
0.0
 30
0.0
  3
block 3
  1
block 3
  0
INSERT
  5
3AD
330
3AB
100
AcDbEntity
  8
レイヤー 1
100
AcDbBlockReference
  2
block 4
 10
0.0
 20
0.0
 30
0.0
  0
ENDBLK
  5
3CA
330
3AB
100
AcDbEntity
  8
0
100
AcDbBlockEnd
  0
BLOCK
  5
3AF
330
3AE
100
AcDbEntity
  8
0
100
AcDbBlockBegin
  2
block 4
 70
     0
 10
0.0
 20
0.0
 30
0.0
  3
block 4
  1
block 4
  0
POLYLINE
  5
3B0
330
3AE
100
AcDbEntity
  8
レイヤー 1
370
     0
100
AcDb2dPolyline
 66
     1
 10
0.0
 20
0.0
 30
0.0
  0
VERTEX
  5
3B1
330
3B0
100
AcDbEntity
  8
レイヤー 1
370
     0
100
AcDbVertex
100
AcDb2dVertex
 10
83.79545727667795
 20
167.6444858234922
 30
0.0
  0
VERTEX
  5
3B2
330
3B0
100
AcDbEntity
  8
レイヤー 1
370
     0
100
AcDbVertex
100
AcDb2dVertex
 10
83.79545727667795
 20
159.7968976406313
 30
0.0
  0
VERTEX
  5
3B3
330
3B0
100
AcDbEntity
  8
レイヤー 1
370
     0
100
AcDbVertex
100
AcDb2dVertex
 10
71.3631329975216
 20
159.7968976406313
 30
0.0
  0
VERTEX
  5
3B4
330
3B0
100
AcDbEntity
  8
レイヤー 1
370
     0
100
AcDbVertex
100
AcDb2dVertex
 10
71.3631329975216
 20
127.8027915271048
 30
0.0
  0
VERTEX
  5
3B5
330
3B0
100
AcDbEntity
  8
レイヤー 1
370
     0
100
AcDbVertex
100
AcDb2dVertex
 10
60.43011526263018
 20
127.8027915271048
 30
0.0
  0
VERTEX
  5
3B6
330
3B0
100
AcDbEntity
  8
レイヤー 1
370
     0
100
AcDbVertex
100
AcDb2dVertex
 10
60.43011526263018
 20
159.7968976406313
 30
0.0
  0
VERTEX
  5
3B7
330
3B0
100
AcDbEntity
  8
レイヤー 1
370
     0
100
AcDbVertex
100
AcDb2dVertex
 10
48.21793273020759
 20
159.7968976406313
 30
0.0
  0
VERTEX
  5
3B8
330
3B0
100
AcDbEntity
  8
レイヤー 1
370
     0
100
AcDbVertex
100
AcDb2dVertex
 10
48.21793273020759
 20
167.6444858234922
 30
0.0
  0
VERTEX
  5
3B9
330
3B0
100
AcDbEntity
  8
レイヤー 1
370
     0
100
AcDbVertex
100
AcDb2dVertex
 10
83.79545727667795
 20
167.6444858234922
 30
0.0
  0
SEQEND
  5
3BA
330
3B0
100
AcDbEntity
  8
レイヤー 1
370
     0
  0
HATCH
  5
3BB
330
3AE
100
AcDbEntity
  8
レイヤー 1
 62
   250
420
  2234388
100
AcDbHatch
 10
0.0
 20
0.0
 30
0.0
210
0.0
220
0.0
230
1.0
  2
SOLID
 70
     1
 71
     0
 91
        1
 92
        1
 93
        8
 72
     1
 10
83.79545727667795
 20
167.6444858234922
 11
83.79545727667795
 21
159.7968976406313
 72
     1
 10
83.79545727667795
 20
159.7968976406313
 11
71.3631329975216
 21
159.7968976406313
 72
     1
 10
71.3631329975216
 20
159.7968976406313
 11
71.3631329975216
 21
127.8027915271048
 72
     1
 10
71.3631329975216
 20
127.8027915271048
 11
60.43011526263018
 21
127.8027915271048
 72
     1
 10
60.43011526263018
 20
127.8027915271048
 11
60.43011526263018
 21
159.7968976406313
 72
     1
 10
60.43011526263018
 20
159.7968976406313
 11
48.21793273020759
 21
159.7968976406313
 72
     1
 10
48.21793273020759
 20
159.7968976406313
 11
48.21793273020759
 21
167.6444858234922
 72
     1
 10
48.21793273020759
 20
167.6444858234922
 11
83.79545727667795
 21
167.6444858234922
 97
        0
 75
     2
 76
     1
 98
        0
  0
INSERT
  5
3BC
330
3AE
100
AcDbEntity
  8
レイヤー 1
100
AcDbBlockReference
  2
block 5
 10
0.0
 20
0.0
 30
0.0
  0
ENDBLK
  5
3C9
330
3AE
100
AcDbEntity
  8
0
100
AcDbBlockEnd
  0
BLOCK
  5
3BE
330
3BD
100
AcDbEntity
  8
0
100
AcDbBlockBegin
  2
block 5
 70
     0
 10
0.0
 20
0.0
 30
0.0
  3
block 5
  1
block 5
  0
SPLINE
  5
3BF
330
3BD
100
AcDbEntity
  8
レイヤー 1
370
     0
100
AcDbSpline
210
0.0
220
0.0
230
1.0
 70
    11
 71
     3
 72
    56
 73
    52
 74
     0
 42
0.000000001
 43
0.0000000001
 40
0.0
 40
0.0
 40
0.0
 40
0.0
 40
1.0
 40
1.0
 40
1.0
 40
2.0
 40
2.0
 40
2.0
 40
3.0
 40
3.0
 40
3.0
 40
4.0
 40
4.0
 40
4.0
 40
5.0
 40
5.0
 40
5.0
 40
6.0
 40
6.0
 40
6.0
 40
7.0
 40
7.0
 40
7.0
 40
8.0
 40
8.0
 40
8.0
 40
9.0
 40
9.0
 40
9.0
 40
10.0
 40
10.0
 40
10.0
 40
11.0
 40
11.0
 40
11.0
 40
12.0
 40
12.0
 40
12.0
 40
13.0
 40
13.0
 40
13.0
 40
14.0
 40
14.0
 40
14.0
 40
15.0
 40
15.0
 40
15.0
 40
16.0
 40
16.0
 40
16.0
 40
17.0
 40
17.0
 40
17.0
 40
17.0
 10
100.4504378777679
 20
166.69157178364
 30
0.0
 10
101.9848844191641
 20
167.1313385124438
 30
0.0
 10
103.9637485713373
 20
166.7649523658846
 30
0.0
 10
103.9637485713373
 20
166.7649523658846
 30
0.0
 10
103.9637485713373
 20
166.7649523658846
 30
0.0
 10
103.0132460999156
 20
163.911205638077
 30
0.0
 10
103.0132460999156
 20
163.911205638077
 30
0.0
 10
103.0132460999156
 20
163.911205638077
 30
0.0
 10
101.0674548862189
 20
164.3601018759394
 30
0.0
 10
99.57090442016032
 20
163.1805004036133
 30
0.0
 10
98.40508333886608
 20
162.258247733807
 30
0.0
 10
97.65301849830304
 20
159.804132345923
 30
0.0
 10
97.3598406791005
 20
158.8699940888517
 30
0.0
 10
97.3598406791005
 20
158.8699940888517
 30
0.0
 10
96.07137411762282
 20
154.9119212747295
 30
0.0
 10
96.07137411762282
 20
154.9119212747295
 30
0.0
 10
96.07137411762282
 20
154.9119212747295
 30
0.0
 10
100.3012651448482
 20
154.9119212747295
 30
0.0
 10
100.3012651448482
 20
154.9119212747295
 30
0.0
 10
100.3012651448482
 20
154.9119212747295
 30
0.0
 10
99.64152892419852
 20
152.4199098115079
 30
0.0
 10
99.64152892419852
 20
152.4199098115079
 30
0.0
 10
99.64152892419852
 20
152.4199098115079
 30
0.0
 10
95.38097652692731
 20
152.4199098115079
 30
0.0
 10
95.38097652692731
 20
152.4199098115079
 30
0.0
 10
95.38097652692731
 20
152.4199098115079
 30
0.0
 10
87.75353009080013
 20
127.8027915271048
 30
0.0
 10
87.75353009080013
 20
127.8027915271048
 30
0.0
 10
87.75353009080013
 20
127.8027915271048
 30
0.0
 10
85.36538832498108
 20
127.8027915271048
 30
0.0
 10
85.36538832498108
 20
127.8027915271048
 30
0.0
 10
85.36538832498108
 20
127.8027915271048
 30
0.0
 10
93.00006946639998
 20
152.4199098115079
 30
0.0
 10
93.00006946639998
 20
152.4199098115079
 30
0.0
 10
93.00006946639998
 20
152.4199098115079
 30
0.0
 10
89.85297266450198
 20
152.4199098115079
 30
0.0
 10
89.85297266450198
 20
152.4199098115079
 30
0.0
 10
89.85297266450198
 20
152.4199098115079
 30
0.0
 10
90.51270888515164
 20
154.9119212747295
 30
0.0
 10
90.51270888515164
 20
154.9119212747295
 30
0.0
 10
90.51270888515164
 20
154.9119212747295
 30
0.0
 10
93.6904670570955
 20
154.9119212747295
 30
0.0
 10
93.6904670570955
 20
154.9119212747295
 30
0.0
 10
93.6904670570955
 20
154.9119212747295
 30
0.0
 10
94.81598049462158
 20
158.3616699146644
 30
0.0
 10
94.81598049462158
 20
158.3616699146644
 30
0.0
 10
95.7237637538445
 20
161.2605474231013
 30
0.0
 10
96.4968436907311
 20
162.8139420021662
 30
0.0
 10
97.15657991138076
 20
163.9844139654337
 30
0.0
 10
97.81183750494507
 20
165.1523021053827
 30
0.0
 10
99.1047826935081
 20
166.3084769129547
 30
0.0
 10
100.4504378777679
 20
166.69157178364
 30
0.0
  0
HATCH
  5
3C0
330
3BD
100
AcDbEntity
  8
レイヤー 1
 62
   250
420
  2234388
100
AcDbHatch
 10
0.0
 20
0.0
 30
0.0
210
0.0
220
0.0
230
1.0
  2
SOLID
 70
     1
 71
     0
 91
        1
 92
        1
 93
        1
 72
     4
 94
        3
 73
     0
 74
     1
 95
       56
 96
       52
 40
0.0
 40
0.0
 40
0.0
 40
0.0
 40
1.0
 40
1.0
 40
1.0
 40
2.0
 40
2.0
 40
2.0
 40
3.0
 40
3.0
 40
3.0
 40
4.0
 40
4.0
 40
4.0
 40
5.0
 40
5.0
 40
5.0
 40
6.0
 40
6.0
 40
6.0
 40
7.0
 40
7.0
 40
7.0
 40
8.0
 40
8.0
 40
8.0
 40
9.0
 40
9.0
 40
9.0
 40
10.0
 40
10.0
 40
10.0
 40
11.0
 40
11.0
 40
11.0
 40
12.0
 40
12.0
 40
12.0
 40
13.0
 40
13.0
 40
13.0
 40
14.0
 40
14.0
 40
14.0
 40
15.0
 40
15.0
 40
15.0
 40
16.0
 40
16.0
 40
16.0
 40
17.0
 40
17.0
 40
17.0
 40
17.0
 10
100.4504378777679
 20
166.69157178364
 10
101.9848844191641
 20
167.1313385124438
 10
103.9637485713373
 20
166.7649523658846
 10
103.9637485713373
 20
166.7649523658846
 10
103.9637485713373
 20
166.7649523658846
 10
103.0132460999156
 20
163.911205638077
 10
103.0132460999156
 20
163.911205638077
 10
103.0132460999156
 20
163.911205638077
 10
101.0674548862189
 20
164.3601018759394
 10
99.57090442016032
 20
163.1805004036133
 10
98.40508333886608
 20
162.258247733807
 10
97.65301849830304
 20
159.804132345923
 10
97.3598406791005
 20
158.8699940888517
 10
97.3598406791005
 20
158.8699940888517
 10
96.07137411762282
 20
154.9119212747295
 10
96.07137411762282
 20
154.9119212747295
 10
96.07137411762282
 20
154.9119212747295
 10
100.3012651448482
 20
154.9119212747295
 10
100.3012651448482
 20
154.9119212747295
 10
100.3012651448482
 20
154.9119212747295
 10
99.64152892419852
 20
152.4199098115079
 10
99.64152892419852
 20
152.4199098115079
 10
99.64152892419852
 20
152.4199098115079
 10
95.38097652692731
 20
152.4199098115079
 10
95.38097652692731
 20
152.4199098115079
 10
95.38097652692731
 20
152.4199098115079
 10
87.75353009080013
 20
127.8027915271048
 10
87.75353009080013
 20
127.8027915271048
 10
87.75353009080013
 20
127.8027915271048
 10
85.36538832498108
 20
127.8027915271048
 10
85.36538832498108
 20
127.8027915271048
 10
85.36538832498108
 20
127.8027915271048
 10
93.00006946639998
 20
152.4199098115079
 10
93.00006946639998
 20
152.4199098115079
 10
93.00006946639998
 20
152.4199098115079
 10
89.85297266450198
 20
152.4199098115079
 10
89.85297266450198
 20
152.4199098115079
 10
89.85297266450198
 20
152.4199098115079
 10
90.51270888515164
 20
154.9119212747295
 10
90.51270888515164
 20
154.9119212747295
 10
90.51270888515164
 20
154.9119212747295
 10
93.6904670570955
 20
154.9119212747295
 10
93.6904670570955
 20
154.9119212747295
 10
93.6904670570955
 20
154.9119212747295
 10
94.81598049462158
 20
158.3616699146644
 10
94.81598049462158
 20
158.3616699146644
 10
95.7237637538445
 20
161.2605474231013
 10
96.4968436907311
 20
162.8139420021662
 10
97.15657991138076
 20
163.9844139654337
 10
97.81183750494507
 20
165.1523021053827
 10
99.1047826935081
 20
166.3084769129547
 10
100.4504378777679
 20
166.69157178364
 97
        0
 75
     2
 76
     1
 98
        0
  0
SPLINE
  5
3C1
330
3BD
100
AcDbEntity
  8
レイヤー 1
370
     0
100
AcDbSpline
210
0.0
220
0.0
230
1.0
 70
    11
 71
     3
 72
    38
 73
    34
 74
     0
 42
0.000000001
 43
0.0000000001
 40
0.0
 40
0.0
 40
0.0
 40
0.0
 40
1.0
 40
1.0
 40
1.0
 40
2.0
 40
2.0
 40
2.0
 40
3.0
 40
3.0
 40
3.0
 40
4.0
 40
4.0
 40
4.0
 40
5.0
 40
5.0
 40
5.0
 40
6.0
 40
6.0
 40
6.0
 40
7.0
 40
7.0
 40
7.0
 40
8.0
 40
8.0
 40
8.0
 40
9.0
 40
9.0
 40
9.0
 40
10.0
 40
10.0
 40
10.0
 40
11.0
 40
11.0
 40
11.0
 40
11.0
 10
126.377554584636
 20
154.8151140277308
 30
0.0
 10
126.377554584636
 20
154.8151140277308
 30
0.0
 10
128.8311532078563
 20
154.8151140277308
 30
0.0
 10
128.8311532078563
 20
154.8151140277308
 30
0.0
 10
128.8311532078563
 20
154.8151140277308
 30
0.0
 10
127.7345785914971
 20
151.3062819612468
 30
0.0
 10
127.7345785914971
 20
151.3062819612468
 30
0.0
 10
128.571392836906
 20
152.2922689395754
 30
0.0
 10
129.8860421413442
 20
153.604506675583
 30
0.0
 10
131.0163787157314
 20
154.2664822097754
 30
0.0
 10
132.7044766171327
 20
155.2500576196734
 30
0.0
 10
133.6642808525008
 20
155.3847609420097
 30
0.0
 10
134.7284715499351
 20
155.3565111403944
 30
0.0
 10
134.7284715499351
 20
155.3565111403944
 30
0.0
 10
133.6877075172549
 20
152.0345756272799
 30
0.0
 10
133.6877075172549
 20
152.0345756272799
 30
0.0
 10
133.011434827367
 20
152.3184516825359
 30
0.0
 10
130.930940291334
 20
151.7768823149844
 30
0.0
 10
129.739280976855
 20
150.9162968950455
 30
0.0
 10
128.66613302525
 20
150.1454562717016
 30
0.0
 10
127.9192358313239
 20
149.4857200510519
 30
0.0
 10
127.0393578639405
 20
147.8282835196966
 30
0.0
 10
126.164647543194
 20
146.1699857139017
 30
0.0
 10
125.4742499524985
 20
143.5262176944419
 30
0.0
 10
124.2822461282437
 20
139.6959580071401
 30
0.0
 10
124.2822461282437
 20
139.6959580071401
 30
0.0
 10
120.5753209406769
 20
127.8027915271048
 30
0.0
 10
120.5753209406769
 20
127.8027915271048
 30
0.0
 10
120.5753209406769
 20
127.8027915271048
 30
0.0
 10
118.1964809388044
 20
127.8027915271048
 30
0.0
 10
118.1964809388044
 20
127.8027915271048
 30
0.0
 10
118.1964809388044
 20
127.8027915271048
 30
0.0
 10
126.377554584636
 20
154.8151140277308
 30
0.0
 10
126.377554584636
 20
154.8151140277308
 30
0.0
  0
HATCH
  5
3C2
330
3BD
100
AcDbEntity
  8
レイヤー 1
 62
   250
420
  2234388
100
AcDbHatch
 10
0.0
 20
0.0
 30
0.0
210
0.0
220
0.0
230
1.0
  2
SOLID
 70
     1
 71
     0
 91
        1
 92
        1
 93
        1
 72
     4
 94
        3
 73
     0
 74
     1
 95
       38
 96
       34
 40
0.0
 40
0.0
 40
0.0
 40
0.0
 40
1.0
 40
1.0
 40
1.0
 40
2.0
 40
2.0
 40
2.0
 40
3.0
 40
3.0
 40
3.0
 40
4.0
 40
4.0
 40
4.0
 40
5.0
 40
5.0
 40
5.0
 40
6.0
 40
6.0
 40
6.0
 40
7.0
 40
7.0
 40
7.0
 40
8.0
 40
8.0
 40
8.0
 40
9.0
 40
9.0
 40
9.0
 40
10.0
 40
10.0
 40
10.0
 40
11.0
 40
11.0
 40
11.0
 40
11.0
 10
126.377554584636
 20
154.8151140277308
 10
126.377554584636
 20
154.8151140277308
 10
128.8311532078563
 20
154.8151140277308
 10
128.8311532078563
 20
154.8151140277308
 10
128.8311532078563
 20
154.8151140277308
 10
127.7345785914971
 20
151.3062819612468
 10
127.7345785914971
 20
151.3062819612468
 10
128.571392836906
 20
152.2922689395754
 10
129.8860421413442
 20
153.604506675583
 10
131.0163787157314
 20
154.2664822097754
 10
132.7044766171327
 20
155.2500576196734
 10
133.6642808525008
 20
155.3847609420097
 10
134.7284715499351
 20
155.3565111403944
 10
134.7284715499351
 20
155.3565111403944
 10
133.6877075172549
 20
152.0345756272799
 10
133.6877075172549
 20
152.0345756272799
 10
133.011434827367
 20
152.3184516825359
 10
130.930940291334
 20
151.7768823149844
 10
129.739280976855
 20
150.9162968950455
 10
128.66613302525
 20
150.1454562717016
 10
127.9192358313239
 20
149.4857200510519
 10
127.0393578639405
 20
147.8282835196966
 10
126.164647543194
 20
146.1699857139017
 10
125.4742499524985
 20
143.5262176944419
 10
124.2822461282437
 20
139.6959580071401
 10
124.2822461282437
 20
139.6959580071401
 10
120.5753209406769
 20
127.8027915271048
 10
120.5753209406769
 20
127.8027915271048
 10
120.5753209406769
 20
127.8027915271048
 10
118.1964809388044
 20
127.8027915271048
 10
118.1964809388044
 20
127.8027915271048
 10
118.1964809388044
 20
127.8027915271048
 10
126.377554584636
 20
154.8151140277308
 10
126.377554584636
 20
154.8151140277308
 97
        0
 75
     2
 76
     1
 98
        0
  0
SPLINE
  5
3C3
330
3BD
100
AcDbEntity
  8
レイヤー 1
370
     0
100
AcDbSpline
210
0.0
220
0.0
230
1.0
 70
    11
 71
     3
 72
   104
 73
   100
 74
     0
 42
0.000000001
 43
0.0000000001
 40
0.0
 40
0.0
 40
0.0
 40
0.0
 40
1.0
 40
1.0
 40
1.0
 40
2.0
 40
2.0
 40
2.0
 40
3.0
 40
3.0
 40
3.0
 40
4.0
 40
4.0
 40
4.0
 40
5.0
 40
5.0
 40
5.0
 40
6.0
 40
6.0
 40
6.0
 40
7.0
 40
7.0
 40
7.0
 40
8.0
 40
8.0
 40
8.0
 40
9.0
 40
9.0
 40
9.0
 40
10.0
 40
10.0
 40
10.0
 40
11.0
 40
11.0
 40
11.0
 40
12.0
 40
12.0
 40
12.0
 40
13.0
 40
13.0
 40
13.0
 40
14.0
 40
14.0
 40
14.0
 40
15.0
 40
15.0
 40
15.0
 40
16.0
 40
16.0
 40
16.0
 40
17.0
 40
17.0
 40
17.0
 40
18.0
 40
18.0
 40
18.0
 40
19.0
 40
19.0
 40
19.0
 40
20.0
 40
20.0
 40
20.0
 40
21.0
 40
21.0
 40
21.0
 40
22.0
 40
22.0
 40
22.0
 40
23.0
 40
23.0
 40
23.0
 40
24.0
 40
24.0
 40
24.0
 40
25.0
 40
25.0
 40
25.0
 40
26.0
 40
26.0
 40
26.0
 40
27.0
 40
27.0
 40
27.0
 40
28.0
 40
28.0
 40
28.0
 40
29.0
 40
29.0
 40
29.0
 40
30.0
 40
30.0
 40
30.0
 40
31.0
 40
31.0
 40
31.0
 40
32.0
 40
32.0
 40
32.0
 40
33.0
 40
33.0
 40
33.0
 40
33.0
 10
139.8926730891197
 20
154.8294111834263
 30
0.0
 10
139.8926730891197
 20
154.8294111834263
 30
0.0
 10
142.0344903652445
 20
154.8294111834263
 30
0.0
 10
142.0344903652445
 20
154.8294111834263
 30
0.0
 10
142.0344903652445
 20
154.8294111834263
 30
0.0
 10
140.9516961399171
 20
151.3157559800812
 30
0.0
 10
140.9516961399171
 20
151.3157559800812
 30
0.0
 10
141.8928968473923
 20
152.7887075264977
 30
0.0
 10
142.7341897198865
 20
153.4484437471474
 30
0.0
 10
143.8552245303272
 20
154.2926649527359
 30
0.0
 10
144.9803934580775
 20
155.1296514530327
 30
0.0
 10
146.3139908001845
 20
155.3044901642492
 30
0.0
 10
147.241066606852
 20
155.3044901642492
 30
0.0
 10
148.3855280820469
 20
155.3044901642492
 30
0.0
 10
149.4969166187653
 20
155.0752189084569
 30
0.0
 10
150.0784491203092
 20
153.8172414621372
 30
0.0
 10
150.5228667310863
 20
152.833838307127
 30
0.0
 10
150.5414702589793
 20
152.7201500811143
 30
0.0
 10
150.4140016419347
 20
150.7765981809602
 30
0.0
 10
151.5818897818837
 20
152.7699317437168
 30
0.0
 10
152.4424752018226
 20
153.6256940267945
 30
0.0
 10
153.9038856707499
 20
154.4507949398263
 30
0.0
 10
155.4455669174378
 20
155.3044901642492
 30
0.0
 10
156.339225275853
 20
155.3659851592288
 30
0.0
 10
157.3748216618963
 20
155.2147453676543
 30
0.0
 10
158.911679771723
 20
154.9877134254046
 30
0.0
 10
159.8859534176746
 20
154.4390816074493
 30
0.0
 10
160.3965169054045
 20
152.7816450760939
 30
0.0
 10
160.9070803931344
 20
151.1219692311958
 30
0.0
 10
160.6328506116007
 20
150.2303779314354
 30
0.0
 10
159.9992971339115
 20
147.597634224801
 30
0.0
 10
159.7105979417943
 20
146.4014962832367
 30
0.0
 10
159.2947746424084
 20
144.9400858143094
 30
0.0
 10
158.7463150793409
 20
143.2092687007094
 30
0.0
 10
158.7463150793409
 20
143.2092687007094
 30
0.0
 10
153.9038856707499
 20
127.8027915271048
 30
0.0
 10
153.9038856707499
 20
127.8027915271048
 30
0.0
 10
153.9038856707499
 20
127.8027915271048
 30
0.0
 10
151.3882752878863
 20
127.8027915271048
 30
0.0
 10
151.3882752878863
 20
127.8027915271048
 30
0.0
 10
151.3882752878863
 20
127.8027915271048
 30
0.0
 10
155.6250565106276
 20
141.2751908193897
 30
0.0
 10
155.6250565106276
 20
141.2751908193897
 30
0.0
 10
156.5094131050963
 20
144.0936252951782
 30
0.0
 10
157.109893644309
 20
146.1506931664571
 30
0.0
 10
157.4220195011804
 20
147.4415712963654
 30
0.0
 10
157.8095929989511
 20
149.0530157726519
 30
0.0
 10
157.9656559273867
 20
149.5826995529385
 30
0.0
 10
157.7816877071116
 20
150.7529992613181
 30
0.0
 10
157.6111553680925
 20
151.8430281919372
 30
0.0
 10
157.0582171779396
 20
152.5547853887321
 30
0.0
 10
156.1170164704645
 20
152.5547853887321
 30
0.0
 10
155.1096698860365
 20
152.5547853887321
 30
0.0
 10
154.2962823053817
 20
152.4412694176073
 30
0.0
 10
153.156643967048
 20
151.2945686288697
 30
0.0
 10
152.0170056287143
 20
150.1476955852443
 30
0.0
 10
151.076149431015
 20
148.7930831468137
 30
0.0
 10
150.3337308641742
 20
147.2290087646991
 30
0.0
 10
149.5957909244188
 20
145.6683794803425
 30
0.0
 10
148.8530278478023
 20
143.6822806228776
 30
0.0
 10
148.0964843801539
 20
141.2751908193897
 30
0.0
 10
148.0964843801539
 20
141.2751908193897
 30
0.0
 10
143.8552245303272
 20
127.8027915271048
 30
0.0
 10
143.8552245303272
 20
127.8027915271048
 30
0.0
 10
143.8552245303272
 20
127.8027915271048
 30
0.0
 10
141.486030802177
 20
127.8027915271048
 30
0.0
 10
141.486030802177
 20
127.8027915271048
 30
0.0
 10
141.486030802177
 20
127.8027915271048
 30
0.0
 10
146.3329388378533
 20
143.2092687007094
 30
0.0
 10
146.3329388378533
 20
143.2092687007094
 30
0.0
 10
146.8483254624444
 20
144.8408669988801
 30
0.0
 10
147.2314203331297
 20
146.1837661049335
 30
0.0
 10
147.4867020769946
 20
147.224185627838
 30
0.0
 10
147.9169947869641
 20
149.0197705792876
 30
0.0
 10
148.0306830129768
 20
150.2400242051577
 30
0.0
 10
147.709255392159
 20
151.3157559800812
 30
0.0
 10
147.3874832615654
 20
152.3916600098926
 30
0.0
 10
146.8245542879144
 20
152.6683013598569
 30
0.0
 10
145.8840425999909
 20
152.6683013598569
 30
0.0
 10
145.0989048209514
 20
152.6683013598569
 30
0.0
 10
144.3282364524954
 20
152.3275811915945
 30
0.0
 10
143.4531816219731
 20
151.6538923250251
 30
0.0
 10
142.34627171234
 20
150.8074318058939
 30
0.0
 10
141.901854101563
 20
150.1097995099067
 30
0.0
 10
141.3578731655808
 20
149.289521733736
 30
0.0
 10
140.6299240093235
 20
148.192602607601
 30
0.0
 10
140.2850697237515
 20
147.455696197173
 30
0.0
 10
139.6652966370942
 20
145.8385673095858
 30
0.0
 10
139.0506911970739
 20
144.2214384219986
 30
0.0
 10
138.463991048893
 20
142.3252566160164
 30
0.0
 10
138.0571250036777
 20
141.0154304484394
 30
0.0
 10
138.0571250036777
 20
141.0154304484394
 30
0.0
 10
133.9009590684727
 20
127.8027915271048
 30
0.0
 10
133.9009590684727
 20
127.8027915271048
 30
0.0
 10
133.9009590684727
 20
127.8027915271048
 30
0.0
 10
131.4180771143097
 20
127.8027915271048
 30
0.0
 10
131.4180771143097
 20
127.8027915271048
 30
0.0
 10
131.4180771143097
 20
127.8027915271048
 30
0.0
 10
139.8926730891197
 20
154.8294111834263
 30
0.0
 10
139.8926730891197
 20
154.8294111834263
 30
0.0
  0
HATCH
  5
3C4
330
3BD
100
AcDbEntity
  8
レイヤー 1
 62
   250
420
  2234388
100
AcDbHatch
 10
0.0
 20
0.0
 30
0.0
210
0.0
220
0.0
230
1.0
  2
SOLID
 70
     1
 71
     0
 91
        1
 92
        1
 93
        1
 72
     4
 94
        3
 73
     0
 74
     1
 95
      104
 96
      100
 40
0.0
 40
0.0
 40
0.0
 40
0.0
 40
1.0
 40
1.0
 40
1.0
 40
2.0
 40
2.0
 40
2.0
 40
3.0
 40
3.0
 40
3.0
 40
4.0
 40
4.0
 40
4.0
 40
5.0
 40
5.0
 40
5.0
 40
6.0
 40
6.0
 40
6.0
 40
7.0
 40
7.0
 40
7.0
 40
8.0
 40
8.0
 40
8.0
 40
9.0
 40
9.0
 40
9.0
 40
10.0
 40
10.0
 40
10.0
 40
11.0
 40
11.0
 40
11.0
 40
12.0
 40
12.0
 40
12.0
 40
13.0
 40
13.0
 40
13.0
 40
14.0
 40
14.0
 40
14.0
 40
15.0
 40
15.0
 40
15.0
 40
16.0
 40
16.0
 40
16.0
 40
17.0
 40
17.0
 40
17.0
 40
18.0
 40
18.0
 40
18.0
 40
19.0
 40
19.0
 40
19.0
 40
20.0
 40
20.0
 40
20.0
 40
21.0
 40
21.0
 40
21.0
 40
22.0
 40
22.0
 40
22.0
 40
23.0
 40
23.0
 40
23.0
 40
24.0
 40
24.0
 40
24.0
 40
25.0
 40
25.0
 40
25.0
 40
26.0
 40
26.0
 40
26.0
 40
27.0
 40
27.0
 40
27.0
 40
28.0
 40
28.0
 40
28.0
 40
29.0
 40
29.0
 40
29.0
 40
30.0
 40
30.0
 40
30.0
 40
31.0
 40
31.0
 40
31.0
 40
32.0
 40
32.0
 40
32.0
 40
33.0
 40
33.0
 40
33.0
 40
33.0
 10
139.8926730891197
 20
154.8294111834263
 10
139.8926730891197
 20
154.8294111834263
 10
142.0344903652445
 20
154.8294111834263
 10
142.0344903652445
 20
154.8294111834263
 10
142.0344903652445
 20
154.8294111834263
 10
140.9516961399171
 20
151.3157559800812
 10
140.9516961399171
 20
151.3157559800812
 10
141.8928968473923
 20
152.7887075264977
 10
142.7341897198865
 20
153.4484437471474
 10
143.8552245303272
 20
154.2926649527359
 10
144.9803934580775
 20
155.1296514530327
 10
146.3139908001845
 20
155.3044901642492
 10
147.241066606852
 20
155.3044901642492
 10
148.3855280820469
 20
155.3044901642492
 10
149.4969166187653
 20
155.0752189084569
 10
150.0784491203092
 20
153.8172414621372
 10
150.5228667310863
 20
152.833838307127
 10
150.5414702589793
 20
152.7201500811143
 10
150.4140016419347
 20
150.7765981809602
 10
151.5818897818837
 20
152.7699317437168
 10
152.4424752018226
 20
153.6256940267945
 10
153.9038856707499
 20
154.4507949398263
 10
155.4455669174378
 20
155.3044901642492
 10
156.339225275853
 20
155.3659851592288
 10
157.3748216618963
 20
155.2147453676543
 10
158.911679771723
 20
154.9877134254046
 10
159.8859534176746
 20
154.4390816074493
 10
160.3965169054045
 20
152.7816450760939
 10
160.9070803931344
 20
151.1219692311958
 10
160.6328506116007
 20
150.2303779314354
 10
159.9992971339115
 20
147.597634224801
 10
159.7105979417943
 20
146.4014962832367
 10
159.2947746424084
 20
144.9400858143094
 10
158.7463150793409
 20
143.2092687007094
 10
158.7463150793409
 20
143.2092687007094
 10
153.9038856707499
 20
127.8027915271048
 10
153.9038856707499
 20
127.8027915271048
 10
153.9038856707499
 20
127.8027915271048
 10
151.3882752878863
 20
127.8027915271048
 10
151.3882752878863
 20
127.8027915271048
 10
151.3882752878863
 20
127.8027915271048
 10
155.6250565106276
 20
141.2751908193897
 10
155.6250565106276
 20
141.2751908193897
 10
156.5094131050963
 20
144.0936252951782
 10
157.109893644309
 20
146.1506931664571
 10
157.4220195011804
 20
147.4415712963654
 10
157.8095929989511
 20
149.0530157726519
 10
157.9656559273867
 20
149.5826995529385
 10
157.7816877071116
 20
150.7529992613181
 10
157.6111553680925
 20
151.8430281919372
 10
157.0582171779396
 20
152.5547853887321
 10
156.1170164704645
 20
152.5547853887321
 10
155.1096698860365
 20
152.5547853887321
 10
154.2962823053817
 20
152.4412694176073
 10
153.156643967048
 20
151.2945686288697
 10
152.0170056287143
 20
150.1476955852443
 10
151.076149431015
 20
148.7930831468137
 10
150.3337308641742
 20
147.2290087646991
 10
149.5957909244188
 20
145.6683794803425
 10
148.8530278478023
 20
143.6822806228776
 10
148.0964843801539
 20
141.2751908193897
 10
148.0964843801539
 20
141.2751908193897
 10
143.8552245303272
 20
127.8027915271048
 10
143.8552245303272
 20
127.8027915271048
 10
143.8552245303272
 20
127.8027915271048
 10
141.486030802177
 20
127.8027915271048
 10
141.486030802177
 20
127.8027915271048
 10
141.486030802177
 20
127.8027915271048
 10
146.3329388378533
 20
143.2092687007094
 10
146.3329388378533
 20
143.2092687007094
 10
146.8483254624444
 20
144.8408669988801
 10
147.2314203331297
 20
146.1837661049335
 10
147.4867020769946
 20
147.224185627838
 10
147.9169947869641
 20
149.0197705792876
 10
148.0306830129768
 20
150.2400242051577
 10
147.709255392159
 20
151.3157559800812
 10
147.3874832615654
 20
152.3916600098926
 10
146.8245542879144
 20
152.6683013598569
 10
145.8840425999909
 20
152.6683013598569
 10
145.0989048209514
 20
152.6683013598569
 10
144.3282364524954
 20
152.3275811915945
 10
143.4531816219731
 20
151.6538923250251
 10
142.34627171234
 20
150.8074318058939
 10
141.901854101563
 20
150.1097995099067
 10
141.3578731655808
 20
149.289521733736
 10
140.6299240093235
 20
148.192602607601
 10
140.2850697237515
 20
147.455696197173
 10
139.6652966370942
 20
145.8385673095858
 10
139.0506911970739
 20
144.2214384219986
 10
138.463991048893
 20
142.3252566160164
 10
138.0571250036777
 20
141.0154304484394
 10
138.0571250036777
 20
141.0154304484394
 10
133.9009590684727
 20
127.8027915271048
 10
133.9009590684727
 20
127.8027915271048
 10
133.9009590684727
 20
127.8027915271048
 10
131.4180771143097
 20
127.8027915271048
 10
131.4180771143097
 20
127.8027915271048
 10
131.4180771143097
 20
127.8027915271048
 10
139.8926730891197
 20
154.8294111834263
 10
139.8926730891197
 20
154.8294111834263
 97
        0
 75
     2
 76
     1
 98
        0
  0
SPLINE
  5
3C5
330
3BD
100
AcDbEntity
  8
レイヤー 1
370
     0
100
AcDbSpline
210
0.0
220
0.0
230
1.0
 70
    11
 71
     3
 72
    29
 73
    25
 74
     0
 42
0.000000001
 43
0.0000000001
 40
0.0
 40
0.0
 40
0.0
 40
0.0
 40
1.0
 40
1.0
 40
1.0
 40
2.0
 40
2.0
 40
2.0
 40
3.0
 40
3.0
 40
3.0
 40
4.0
 40
4.0
 40
4.0
 40
5.0
 40
5.0
 40
5.0
 40
6.0
 40
6.0
 40
6.0
 40
7.0
 40
7.0
 40
7.0
 40
8.0
 40
8.0
 40
8.0
 40
8.0
 10
101.6420971922469
 20
132.8388354296931
 30
0.0
 10
101.630039350094
 20
134.7164137077823
 30
0.0
 10
102.2236296937908
 20
138.0598810818841
 30
0.0
 10
103.7487744712405
 20
142.5378191476827
 30
0.0
 10
105.819967243327
 20
148.5896501242061
 30
0.0
 10
107.0602024361932
 20
150.8074318058939
 30
0.0
 10
108.1522984254671
 20
151.8833358357054
 30
0.0
 10
109.741177511439
 20
153.4532668840085
 30
0.0
 10
111.8740375333931
 20
153.5290590346837
 30
0.0
 10
112.5075910110823
 20
153.4532668840085
 30
0.0
 10
113.4012493694975
 20
153.3490526768302
 30
0.0
 10
114.6683563248758
 20
152.7580461564518
 30
0.0
 10
114.7493161221879
 20
150.7838328862519
 30
0.0
 10
114.8106388622796
 20
149.0909118479895
 30
0.0
 10
114.3186789024427
 20
145.9191825971221
 30
0.0
 10
112.6164561002338
 20
140.9489400617108
 30
0.0
 10
110.6444821435766
 20
135.1746117095912
 30
0.0
 10
109.4669477299053
 20
132.8960240524753
 30
0.0
 10
108.5212683953448
 20
131.9072809959403
 30
0.0
 10
106.7346406980658
 20
130.0538184021569
 30
0.0
 10
104.8222669326213
 20
130.2336525051225
 30
0.0
 10
104.5408024457958
 20
130.2336525051225
 30
0.0
 10
104.1721769856939
 20
130.2336525051225
 30
0.0
 10
101.6465758193322
 20
130.6305277668397
 30
0.0
 10
101.6420971922469
 20
132.8388354296931
 30
0.0
  0
SPLINE
  5
3C6
330
3BD
100
AcDbEntity
  8
レイヤー 1
370
     0
100
AcDbSpline
210
0.0
220
0.0
230
1.0
 70
    11
 71
     3
 72
    32
 73
    28
 74
     0
 42
0.000000001
 43
0.0000000001
 40
0.0
 40
0.0
 40
0.0
 40
0.0
 40
1.0
 40
1.0
 40
1.0
 40
2.0
 40
2.0
 40
2.0
 40
3.0
 40
3.0
 40
3.0
 40
4.0
 40
4.0
 40
4.0
 40
5.0
 40
5.0
 40
5.0
 40
6.0
 40
6.0
 40
6.0
 40
7.0
 40
7.0
 40
7.0
 40
8.0
 40
8.0
 40
8.0
 40
9.0
 40
9.0
 40
9.0
 40
9.0
 10
106.2595617172429
 20
153.4105476718098
 30
0.0
 10
104.8222669326213
 20
151.5474388043041
 30
0.0
 10
103.7177685914188
 20
149.8758773721411
 30
0.0
 10
101.9232171692965
 20
144.6141795664062
 30
0.0
 10
100.2754269116635
 20
139.7999999594306
 30
0.0
 10
99.22777268346732
 20
136.3052927937542
 30
0.0
 10
99.06964269637689
 20
132.039572749846
 30
0.0
 10
98.94665270641765
 20
128.8673267343149
 30
0.0
 10
100.8807305877373
 20
127.8027915271048
 30
0.0
 10
103.7129454545577
 20
127.8027915271048
 30
0.0
 10
104.9352661390825
 20
127.8027915271048
 30
0.0
 10
108.0151835347002
 20
127.8827177950895
 30
0.0
 10
110.2045431598849
 20
130.5926316915021
 30
0.0
 10
111.7417457794874
 20
132.4984597712065
 30
0.0
 10
113.155269389579
 20
134.475256864725
 30
0.0
 10
115.0562743324223
 20
140.9489400617108
 30
0.0
 10
116.6361961642235
 20
146.3680788349845
 30
0.0
 10
117.7282921534974
 20
149.8639917848761
 30
0.0
 10
117.6480213757369
 20
151.8595646611754
 30
0.0
 10
117.6480213757369
 20
151.8595646611754
 30
0.0
 10
117.6480213757369
 20
151.8595646611754
 30
0.0
 10
117.6480213757369
 20
151.8595646611754
 30
0.0
 10
117.13229024137
 20
155.18150017429
 30
0.0
 10
114.7162431837115
 20
155.886194920681
 30
0.0
 10
113.3351034925446
 20
155.886194920681
 30
0.0
 10
111.9829026225447
 20
155.886194920681
 30
0.0
 10
108.3414342923792
 20
156.1251124501957
 30
0.0
 10
106.2595617172429
 20
153.4105476718098
 30
0.0
  0
HATCH
  5
3C7
330
3BD
100
AcDbEntity
  8
レイヤー 1
 62
   250
420
  2234388
100
AcDbHatch
 10
0.0
 20
0.0
 30
0.0
210
0.0
220
0.0
230
1.0
  2
SOLID
 70
     1
 71
     0
 91
        2
 92
        1
 93
        1
 72
     4
 94
        3
 73
     0
 74
     1
 95
       29
 96
       25
 40
0.0
 40
0.0
 40
0.0
 40
0.0
 40
1.0
 40
1.0
 40
1.0
 40
2.0
 40
2.0
 40
2.0
 40
3.0
 40
3.0
 40
3.0
 40
4.0
 40
4.0
 40
4.0
 40
5.0
 40
5.0
 40
5.0
 40
6.0
 40
6.0
 40
6.0
 40
7.0
 40
7.0
 40
7.0
 40
8.0
 40
8.0
 40
8.0
 40
8.0
 10
101.6420971922469
 20
132.8388354296931
 10
101.630039350094
 20
134.7164137077823
 10
102.2236296937908
 20
138.0598810818841
 10
103.7487744712405
 20
142.5378191476827
 10
105.819967243327
 20
148.5896501242061
 10
107.0602024361932
 20
150.8074318058939
 10
108.1522984254671
 20
151.8833358357054
 10
109.741177511439
 20
153.4532668840085
 10
111.8740375333931
 20
153.5290590346837
 10
112.5075910110823
 20
153.4532668840085
 10
113.4012493694975
 20
153.3490526768302
 10
114.6683563248758
 20
152.7580461564518
 10
114.7493161221879
 20
150.7838328862519
 10
114.8106388622796
 20
149.0909118479895
 10
114.3186789024427
 20
145.9191825971221
 10
112.6164561002338
 20
140.9489400617108
 10
110.6444821435766
 20
135.1746117095912
 10
109.4669477299053
 20
132.8960240524753
 10
108.5212683953448
 20
131.9072809959403
 10
106.7346406980658
 20
130.0538184021569
 10
104.8222669326213
 20
130.2336525051225
 10
104.5408024457958
 20
130.2336525051225
 10
104.1721769856939
 20
130.2336525051225
 10
101.6465758193322
 20
130.6305277668397
 10
101.6420971922469
 20
132.8388354296931
 97
        0
 92
        1
 93
        1
 72
     4
 94
        3
 73
     0
 74
     1
 95
       32
 96
       28
 40
0.0
 40
0.0
 40
0.0
 40
0.0
 40
1.0
 40
1.0
 40
1.0
 40
2.0
 40
2.0
 40
2.0
 40
3.0
 40
3.0
 40
3.0
 40
4.0
 40
4.0
 40
4.0
 40
5.0
 40
5.0
 40
5.0
 40
6.0
 40
6.0
 40
6.0
 40
7.0
 40
7.0
 40
7.0
 40
8.0
 40
8.0
 40
8.0
 40
9.0
 40
9.0
 40
9.0
 40
9.0
 10
106.2595617172429
 20
153.4105476718098
 10
104.8222669326213
 20
151.5474388043041
 10
103.7177685914188
 20
149.8758773721411
 10
101.9232171692965
 20
144.6141795664062
 10
100.2754269116635
 20
139.7999999594306
 10
99.22777268346732
 20
136.3052927937542
 10
99.06964269637689
 20
132.039572749846
 10
98.94665270641765
 20
128.8673267343149
 10
100.8807305877373
 20
127.8027915271048
 10
103.7129454545577
 20
127.8027915271048
 10
104.9352661390825
 20
127.8027915271048
 10
108.0151835347002
 20
127.8827177950895
 10
110.2045431598849
 20
130.5926316915021
 10
111.7417457794874
 20
132.4984597712065
 10
113.155269389579
 20
134.475256864725
 10
115.0562743324223
 20
140.9489400617108
 10
116.6361961642235
 20
146.3680788349845
 10
117.7282921534974
 20
149.8639917848761
 10
117.6480213757369
 20
151.8595646611754
 10
117.6480213757369
 20
151.8595646611754
 10
117.6480213757369
 20
151.8595646611754
 10
117.6480213757369
 20
151.8595646611754
 10
117.13229024137
 20
155.18150017429
 10
114.7162431837115
 20
155.886194920681
 10
113.3351034925446
 20
155.886194920681
 10
111.9829026225447
 20
155.886194920681
 10
108.3414342923792
 20
156.1251124501957
 10
106.2595617172429
 20
153.4105476718098
 97
        0
 75
     2
 76
     1
 98
        0
  0
ENDBLK
  5
3C8
330
3BD
100
AcDbEntity
  8
0
100
AcDbBlockEnd
  0
BLOCK
  5
11F1
330
11F0
100
AcDbEntity
  8
0
100
AcDbBlockBegin
  2
BLOCK_2
 70
     0
 10
0.0
 20
0.0
 30
0.0
  3
BLOCK_2
  1
BLOCK_2
  0
ENDBLK
  5
11F2
330
11F0
100
AcDbEntity
  8
0
100
AcDbBlockEnd
  0
BLOCK
  5
38B7
330
38B6
100
AcDbEntity
  8
0
100
AcDbBlockBegin
  2
mobile_latù
 70
     0
 10
0.0
 20
0.0
 30
0.0
  3
mobile_latù
  1
mobile_latù
  0
ENDBLK
  5
38B8
330
38B6
100
AcDbEntity
  8
0
100
AcDbBlockEnd
  0
BLOCK
  5
436C
330
436B
100
AcDbEntity
  8
0
100
AcDbBlockBegin
  2
.TD_SECTION_1
 70
     0
 10
225818116096.0
 20
0.0
 30
0.0
  3
.TD_SECTION_1
  1
.TD_SECTION_1
  0
ENDBLK
  5
436D
330
436B
100
AcDbEntity
  8
0
100
AcDbBlockEnd
  0
BLOCK
  5
4370
330
436F
100
AcDbEntity
  8
0
100
AcDbBlockBegin
  2
.TD_SECTION_2
 70
     0
 10
225818181632.0
 20
0.0
 30
0.0
  3
.TD_SECTION_2
  1
.TD_SECTION_2
  0
ENDBLK
  5
4371
330
436F
100
AcDbEntity
  8
0
100
AcDbBlockEnd
  0
BLOCK
  5
7FAB
330
7FAA
100
AcDbEntity
  8
0
100
AcDbBlockBegin
  2
*D10
 70
     1
 10
0.0
 20
0.0
 30
0.0
  3
*D10
  1

  0
LINE
  5
7FAD
330
7FAA
100
AcDbEntity
  8
Dim
 62
     0
370
    -2
100
AcDbLine
 10
-1198.634188624533
 20
2180.171157766293
 30
0.0
 11
-1198.634188624533
 21
2248.253741505468
 31
0.0
  0
LINE
  5
7FAE
330
7FAA
100
AcDbEntity
  8
Dim
 62
     0
370
    -2
100
AcDbLine
 10
-1648.634188624533
 20
2180.171157766293
 30
0.0
 11
-1648.634188624533
 21
2248.253741505468
 31
0.0
  0
LINE
  5
7FAF
330
7FAA
100
AcDbEntity
  8
Dim
 62
     0
370
    -2
100
AcDbLine
 10
-1208.633578272971
 20
2248.253741505468
 30
0.0
 11
-1638.634798976096
 21
2248.253741505468
 31
0.0
  0
INSERT
  5
7FB0
330
7FAA
100
AcDbEntity
  8
Dim
 62
     0
370
    -2
100
AcDbBlockReference
  2
_DOT
 10
-1198.634188624533
 20
2248.253741505468
 30
0.0
 41
9.999389648437498
 42
9.999389648437498
 43
9.999389648437498
  0
INSERT
  5
7FB1
330
7FAA
100
AcDbEntity
  8
Dim
 62
     0
370
    -2
100
AcDbBlockReference
  2
_DOT
 10
-1648.634188624533
 20
2248.253741505468
 30
0.0
 41
9.999389648437498
 42
9.999389648437498
 43
9.999389648437498
 50
180.0
  0
MTEXT
  5
7FB2
330
7FAA
100
AcDbEntity
  8
Dim
 62
     0
100
AcDbMText
 10
-1423.634188624533
 20
2270.474632933503
 30
0.0
 40
24.4326171875
 41
0.0
 46
0.0
 71
     5
 72
     1
  1
\A1;450
  7
ＭＳ ゴシック
 73
     1
 44
1.0
  0
POINT
  5
7FB3
330
7FAA
100
AcDbEntity
  8
Defpoints
 62
     0
100
AcDbPoint
 10
-1198.634188624533
 20
2155.171157766293
 30
0.0
  0
POINT
  5
7FB4
330
7FAA
100
AcDbEntity
  8
Defpoints
 62
     0
100
AcDbPoint
 10
-1648.634188624533
 20
2155.171157766293
 30
0.0
  0
POINT
  5
7FB5
330
7FAA
100
AcDbEntity
  8
Defpoints
 62
     0
100
AcDbPoint
 10
-1648.634188624533
 20
2248.253741505468
 30
0.0
  0
ENDBLK
  5
7FAC
330
7FAA
100
AcDbEntity
  8
0
100
AcDbBlockEnd
  0
BLOCK
  5
7FB8
330
7FB7
100
AcDbEntity
  8
0
100
AcDbBlockBegin
  2
*D11
 70
     1
 10
0.0
 20
0.0
 30
0.0
  3
*D11
  1

  0
LINE
  5
7FBA
330
7FB7
100
AcDbEntity
  8
Dim
 62
     0
370
    -2
100
AcDbLine
 10
-1638.634188624533
 20
1824.463010201853
 30
0.0
 11
-1638.634188624533
 21
1732.289298266777
 31
0.0
  0
LINE
  5
7FBB
330
7FB7
100
AcDbEntity
  8
Dim
 62
     0
370
    -2
100
AcDbLine
 10
-1208.634188624533
 20
1824.463010201853
 30
0.0
 11
-1208.634188624533
 21
1732.289298266777
 31
0.0
  0
LINE
  5
7FBC
330
7FB7
100
AcDbEntity
  8
Dim
 62
     0
370
    -2
100
AcDbLine
 10
-1628.634798976096
 20
1732.289298266777
 30
0.0
 11
-1218.633578272971
 21
1732.289298266777
 31
0.0
  0
INSERT
  5
7FBD
330
7FB7
100
AcDbEntity
  8
Dim
 62
     0
370
    -2
100
AcDbBlockReference
  2
_DOT
 10
-1638.634188624533
 20
1732.289298266777
 30
0.0
 41
9.999389648437498
 42
9.999389648437498
 43
9.999389648437498
 50
180.0
  0
INSERT
  5
7FBE
330
7FB7
100
AcDbEntity
  8
Dim
 62
     0
370
    -2
100
AcDbBlockReference
  2
_DOT
 10
-1208.634188624533
 20
1732.289298266777
 30
0.0
 41
9.999389648437498
 42
9.999389648437498
 43
9.999389648437498
  0
MTEXT
  5
7FBF
330
7FB7
100
AcDbEntity
  8
Dim
 62
     0
100
AcDbMText
 10
-1423.634188624533
 20
1754.510189694812
 30
0.0
 40
24.4326171875
 41
0.0
 46
0.0
 71
     5
 72
     1
  1
\A1;430
  7
ＭＳ ゴシック
 73
     1
 44
1.0
  0
POINT
  5
7FC0
330
7FB7
100
AcDbEntity
  8
Defpoints
 62
     0
100
AcDbPoint
 10
-1638.634188624533
 20
1849.463010201853
 30
0.0
  0
POINT
  5
7FC1
330
7FB7
100
AcDbEntity
  8
Defpoints
 62
     0
100
AcDbPoint
 10
-1208.634188624533
 20
1849.463010201853
 30
0.0
  0
POINT
  5
7FC2
330
7FB7
100
AcDbEntity
  8
Defpoints
 62
     0
100
AcDbPoint
 10
-1208.634188624533
 20
1732.289298266777
 30
0.0
  0
ENDBLK
  5
7FB9
330
7FB7
100
AcDbEntity
  8
0
100
AcDbBlockEnd
  0
BLOCK
  5
7FE7
330
7FE6
100
AcDbEntity
  8
0
100
AcDbBlockBegin
  2
*D12
 70
     1
 10
0.0
 20
0.0
 30
0.0
  3
*D12
  1

  0
LINE
  5
7FE9
330
7FE6
100
AcDbEntity
  8
Dim
 62
     0
370
    -2
100
AcDbLine
 10
-1669.908986350369
 20
1031.881344873168
 30
0.0
 11
-1728.894207858192
 21
1031.881344873168
 31
0.0
  0
LINE
  5
7FEA
330
7FE6
100
AcDbEntity
  8
Dim
 62
     0
370
    -2
100
AcDbLine
 10
-1669.908986350369
 20
986.8813448731678
 30
0.0
 11
-1728.894207858192
 21
986.8813448731678
 31
0.0
  0
LINE
  5
7FEB
330
7FE6
100
AcDbEntity
  8
Dim
 62
     0
370
    -2
100
AcDbLine
 10
-1728.894207858192
 20
1021.881955224731
 30
0.0
 11
-1728.894207858192
 21
996.8807345216053
 31
0.0
  0
INSERT
  5
7FEC
330
7FE6
100
AcDbEntity
  8
Dim
 62
     0
370
    -2
100
AcDbBlockReference
  2
_DOT
 10
-1728.894207858192
 20
1031.881344873168
 30
0.0
 41
9.999389648437498
 42
9.999389648437498
 43
9.999389648437498
 50
90.0
  0
INSERT
  5
7FED
330
7FE6
100
AcDbEntity
  8
Dim
 62
     0
370
    -2
100
AcDbBlockReference
  2
_DOT
 10
-1728.894207858192
 20
986.8813448731678
 30
0.0
 41
9.999389648437498
 42
9.999389648437498
 43
9.999389648437498
 50
270.0
  0
MTEXT
  5
7FEE
330
7FE6
100
AcDbEntity
  8
Dim
 62
     0
100
AcDbMText
 10
-1751.115099286228
 20
1009.381344873168
 30
0.0
 40
24.4326171875
 41
0.0
 46
0.0
 71
     5
 72
     1
  1
\A1;45
  7
ＭＳ ゴシック
 11
0.0
 21
1.0
 31
0.0
 73
     1
 44
1.0
  0
POINT
  5
7FEF
330
7FE6
100
AcDbEntity
  8
Defpoints
 62
     0
100
AcDbPoint
 10
-1644.908986350369
 20
1031.881344873168
 30
0.0
  0
POINT
  5
7FF0
330
7FE6
100
AcDbEntity
  8
Defpoints
 62
     0
100
AcDbPoint
 10
-1644.908986350369
 20
986.8813448731678
 30
0.0
  0
POINT
  5
7FF1
330
7FE6
100
AcDbEntity
  8
Defpoints
 62
     0
100
AcDbPoint
 10
-1728.894207858192
 20
986.8813448731678
 30
0.0
  0
ENDBLK
  5
7FE8
330
7FE6
100
AcDbEntity
  8
0
100
AcDbBlockEnd
  0
BLOCK
  5
7FF3
330
7FF2
100
AcDbEntity
  8
0
100
AcDbBlockBegin
  2
*D13
 70
     1
 10
0.0
 20
0.0
 30
0.0
  3
*D13
  1

  0
LINE
  5
7FF5
330
7FF2
100
AcDbEntity
  8
Dim
 62
     0
370
    -2
100
AcDbLine
 10
-1523.634256186957
 20
1041.814472169586
 30
0.0
 11
-1523.634256186957
 21
1129.932894565483
 31
0.0
  0
LINE
  5
7FF6
330
7FF2
100
AcDbEntity
  8
Dim
 62
     0
370
    -2
100
AcDbLine
 10
-1323.634121062098
 20
1041.814472169586
 30
0.0
 11
-1323.634121062098
 21
1129.932894565483
 31
0.0
  0
LINE
  5
7FF7
330
7FF2
100
AcDbEntity
  8
Dim
 62
     0
370
    -2
100
AcDbLine
 10
-1513.634866538519
 20
1129.932894565483
 30
0.0
 11
-1333.633510710535
 21
1129.932894565483
 31
0.0
  0
INSERT
  5
7FF8
330
7FF2
100
AcDbEntity
  8
Dim
 62
     0
370
    -2
100
AcDbBlockReference
  2
_DOT
 10
-1523.634256186957
 20
1129.932894565483
 30
0.0
 41
9.999389648437498
 42
9.999389648437498
 43
9.999389648437498
 50
180.0
  0
INSERT
  5
7FF9
330
7FF2
100
AcDbEntity
  8
Dim
 62
     0
370
    -2
100
AcDbBlockReference
  2
_DOT
 10
-1323.634121062098
 20
1129.932894565483
 30
0.0
 41
9.999389648437498
 42
9.999389648437498
 43
9.999389648437498
  0
MTEXT
  5
7FFA
330
7FF2
100
AcDbEntity
  8
Dim
 62
     0
100
AcDbMText
 10
-1423.634188624527
 20
1152.153785993518
 30
0.0
 40
24.4326171875
 41
0.0
 46
0.0
 71
     5
 72
     1
  1
\A1;200
  7
ＭＳ ゴシック
 73
     1
 44
1.0
  0
POINT
  5
7FFB
330
7FF2
100
AcDbEntity
  8
Defpoints
 62
     0
100
AcDbPoint
 10
-1523.634256186957
 20
1016.814472169586
 30
0.0
  0
POINT
  5
7FFC
330
7FF2
100
AcDbEntity
  8
Defpoints
 62
     0
100
AcDbPoint
 10
-1323.634121062098
 20
1016.814472169586
 30
0.0
  0
POINT
  5
7FFD
330
7FF2
100
AcDbEntity
  8
Defpoints
 62
     0
100
AcDbPoint
 10
-1323.634121062098
 20
1129.932894565483
 30
0.0
  0
ENDBLK
  5
7FF4
330
7FF2
100
AcDbEntity
  8
0
100
AcDbBlockEnd
  0
BLOCK
  5
801F
330
801E
100
AcDbEntity
  8
0
100
AcDbBlockBegin
  2
*D14
 70
     1
 10
0.0
 20
0.0
 30
0.0
  3
*D14
  1

  0
LINE
  5
8021
330
801E
100
AcDbEntity
  8
Dim
 62
     0
370
    -2
100
AcDbLine
 10
-1182.743020115546
 20
2166.215179553531
 30
0.0
 11
-1083.030432193156
 21
2166.215179553531
 31
0.0
  0
LINE
  5
8022
330
801E
100
AcDbEntity
  8
Dim
 62
     0
370
    -2
100
AcDbLine
 10
-1182.743020115546
 20
1816.215179553531
 30
0.0
 11
-1083.030432193156
 21
1816.215179553531
 31
0.0
  0
LINE
  5
8023
330
801E
100
AcDbEntity
  8
Dim
 62
     0
370
    -2
100
AcDbLine
 10
-1083.030432193156
 20
2156.215789905094
 30
0.0
 11
-1083.030432193156
 21
1826.214569201969
 31
0.0
  0
INSERT
  5
8024
330
801E
100
AcDbEntity
  8
Dim
 62
     0
370
    -2
100
AcDbBlockReference
  2
_DOT
 10
-1083.030432193156
 20
2166.215179553531
 30
0.0
 41
9.999389648437498
 42
9.999389648437498
 43
9.999389648437498
 50
90.0
  0
INSERT
  5
8025
330
801E
100
AcDbEntity
  8
Dim
 62
     0
370
    -2
100
AcDbBlockReference
  2
_DOT
 10
-1083.030432193156
 20
1816.215179553531
 30
0.0
 41
9.999389648437498
 42
9.999389648437498
 43
9.999389648437498
 50
270.0
  0
MTEXT
  5
8026
330
801E
100
AcDbEntity
  8
Dim
 62
     0
100
AcDbMText
 10
-1105.251323621192
 20
1991.215179553531
 30
0.0
 40
24.4326171875
 41
0.0
 46
0.0
 71
     5
 72
     1
  1
\A1;350
  7
ＭＳ ゴシック
 11
0.0
 21
1.0
 31
0.0
 73
     1
 44
1.0
  0
POINT
  5
8027
330
801E
100
AcDbEntity
  8
Defpoints
 62
     0
100
AcDbPoint
 10
-1207.743020115546
 20
2166.215179553531
 30
0.0
  0
POINT
  5
8028
330
801E
100
AcDbEntity
  8
Defpoints
 62
     0
100
AcDbPoint
 10
-1207.743020115546
 20
1816.215179553531
 30
0.0
  0
POINT
  5
8029
330
801E
100
AcDbEntity
  8
Defpoints
 62
     0
100
AcDbPoint
 10
-1083.030432193156
 20
1816.215179553531
 30
0.0
  0
ENDBLK
  5
8020
330
801E
100
AcDbEntity
  8
0
100
AcDbBlockEnd
  0
BLOCK
  5
802C
330
802B
100
AcDbEntity
  8
0
100
AcDbBlockBegin
  2
*D15
 70
     1
 10
0.0
 20
0.0
 30
0.0
  3
*D15
  1

  0
LINE
  5
802E
330
802B
100
AcDbEntity
  8
Dim
 62
     0
370
    -2
100
AcDbLine
 10
-1664.718505817736
 20
2166.215179553531
 30
0.0
 11
-1738.223375988319
 21
2166.215179553531
 31
0.0
  0
LINE
  5
802F
330
802B
100
AcDbEntity
  8
Dim
 62
     0
370
    -2
100
AcDbLine
 10
-1664.718505817736
 20
2066.215179553531
 30
0.0
 11
-1738.223375988319
 21
2066.215179553531
 31
0.0
  0
LINE
  5
8030
330
802B
100
AcDbEntity
  8
Dim
 62
     0
370
    -2
100
AcDbLine
 10
-1738.223375988319
 20
2156.215789905094
 30
0.0
 11
-1738.223375988319
 21
2076.214569201969
 31
0.0
  0
INSERT
  5
8031
330
802B
100
AcDbEntity
  8
Dim
 62
     0
370
    -2
100
AcDbBlockReference
  2
_DOT
 10
-1738.223375988319
 20
2166.215179553531
 30
0.0
 41
9.999389648437498
 42
9.999389648437498
 43
9.999389648437498
 50
90.0
  0
INSERT
  5
8032
330
802B
100
AcDbEntity
  8
Dim
 62
     0
370
    -2
100
AcDbBlockReference
  2
_DOT
 10
-1738.223375988319
 20
2066.215179553531
 30
0.0
 41
9.999389648437498
 42
9.999389648437498
 43
9.999389648437498
 50
270.0
  0
MTEXT
  5
8033
330
802B
100
AcDbEntity
  8
Dim
 62
     0
100
AcDbMText
 10
-1760.444267416354
 20
2116.215179553531
 30
0.0
 40
24.4326171875
 41
0.0
 46
0.0
 71
     5
 72
     1
  1
\A1;100
  7
ＭＳ ゴシック
 11
0.0
 21
1.0
 31
0.0
 73
     1
 44
1.0
  0
POINT
  5
8034
330
802B
100
AcDbEntity
  8
Defpoints
 62
     0
100
AcDbPoint
 10
-1639.718505817736
 20
2166.215179553531
 30
0.0
  0
POINT
  5
8035
330
802B
100
AcDbEntity
  8
Defpoints
 62
     0
100
AcDbPoint
 10
-1639.718505817736
 20
2066.215179553531
 30
0.0
  0
POINT
  5
8036
330
802B
100
AcDbEntity
  8
Defpoints
 62
     0
100
AcDbPoint
 10
-1738.223375988319
 20
2066.215179553531
 30
0.0
  0
ENDBLK
  5
802D
330
802B
100
AcDbEntity
  8
0
100
AcDbBlockEnd
  0
BLOCK
  5
803B
330
803A
100
AcDbEntity
  8
0
100
AcDbBlockBegin
  2
*D16
 70
     1
 10
0.0
 20
0.0
 30
0.0
  3
*D16
  1

  0
LINE
  5
803D
330
803A
100
AcDbEntity
  8
Dim
 62
     0
370
    -2
100
AcDbLine
 10
-1664.718505817736
 20
2066.215179553531
 30
0.0
 11
-1738.223375988319
 21
2066.215179553531
 31
0.0
  0
LINE
  5
803E
330
803A
100
AcDbEntity
  8
Dim
 62
     0
370
    -2
100
AcDbLine
 10
-1667.512027459613
 20
1826.231437944154
 30
0.0
 11
-1738.223375988319
 21
1826.231437944154
 31
0.0
  0
LINE
  5
803F
330
803A
100
AcDbEntity
  8
Dim
 62
     0
370
    -2
100
AcDbLine
 10
-1738.223375988319
 20
2056.215789905094
 30
0.0
 11
-1738.223375988319
 21
1836.230827592592
 31
0.0
  0
INSERT
  5
8040
330
803A
100
AcDbEntity
  8
Dim
 62
     0
370
    -2
100
AcDbBlockReference
  2
_DOT
 10
-1738.223375988319
 20
2066.215179553531
 30
0.0
 41
9.999389648437498
 42
9.999389648437498
 43
9.999389648437498
 50
90.0
  0
INSERT
  5
8041
330
803A
100
AcDbEntity
  8
Dim
 62
     0
370
    -2
100
AcDbBlockReference
  2
_DOT
 10
-1738.223375988319
 20
1826.231437944154
 30
0.0
 41
9.999389648437498
 42
9.999389648437498
 43
9.999389648437498
 50
270.0
  0
MTEXT
  5
8042
330
803A
100
AcDbEntity
  8
Dim
 62
     0
100
AcDbMText
 10
-1760.444267416354
 20
1946.223308748843
 30
0.0
 40
24.4326171875
 41
0.0
 46
0.0
 71
     5
 72
     1
  1
\A1;240
  7
ＭＳ ゴシック
 11
0.0
 21
1.0
 31
0.0
 73
     1
 44
1.0
  0
POINT
  5
8043
330
803A
100
AcDbEntity
  8
Defpoints
 62
     0
100
AcDbPoint
 10
-1639.718505817736
 20
2066.215179553531
 30
0.0
  0
POINT
  5
8044
330
803A
100
AcDbEntity
  8
Defpoints
 62
     0
100
AcDbPoint
 10
-1642.512027459613
 20
1826.231437944154
 30
0.0
  0
POINT
  5
8045
330
803A
100
AcDbEntity
  8
Defpoints
 62
     0
100
AcDbPoint
 10
-1738.223375988319
 20
1826.231437944154
 30
0.0
  0
ENDBLK
  5
803C
330
803A
100
AcDbEntity
  8
0
100
AcDbBlockEnd
  0
BLOCK
  5
804B
330
804A
100
AcDbEntity
  8
0
100
AcDbBlockBegin
  2
*D17
 70
     1
 10
0.0
 20
0.0
 30
0.0
  3
*D17
  1

  0
LINE
  5
804D
330
804A
100
AcDbEntity
  8
Dim
 62
     0
370
    -2
100
AcDbLine
 10
-450.9076207105534
 20
1032.013151838547
 30
0.0
 11
-474.1713803421665
 21
1032.013151838547
 31
0.0
  0
LINE
  5
804E
330
804A
100
AcDbEntity
  8
Dim
 62
     0
370
    -2
100
AcDbLine
 10
-450.9076207105534
 20
942.0131518385472
 30
0.0
 11
-474.1713803421665
 21
942.0131518385472
 31
0.0
  0
LINE
  5
804F
330
804A
100
AcDbEntity
  8
Dim
 62
     0
370
    -2
100
AcDbLine
 10
-474.1713803421665
 20
1032.013151838547
 30
0.0
 11
-474.1713803421665
 21
1190.042064353104
 31
0.0
  0
LINE
  5
8050
330
804A
100
AcDbEntity
  8
Dim
 62
     0
370
    -2
100
AcDbLine
 10
-474.1713803421665
 20
1032.013151838547
 30
0.0
 11
-474.1713803421665
 21
942.0131518385472
 31
0.0
  0
LINE
  5
8051
330
804A
100
AcDbEntity
  8
Dim
 62
     0
370
    -2
100
AcDbLine
 10
-474.1713803421665
 20
1042.012541486984
 30
0.0
 11
-474.1713803421665
 21
1052.011931135422
 31
0.0
  0
LINE
  5
8052
330
804A
100
AcDbEntity
  8
Dim
 62
     0
370
    -2
100
AcDbLine
 10
-474.1713803421665
 20
932.0137621901097
 30
0.0
 11
-474.1713803421665
 21
922.0143725416722
 31
0.0
  0
INSERT
  5
8053
330
804A
100
AcDbEntity
  8
Dim
 62
     0
370
    -2
100
AcDbBlockReference
  2
_DOT
 10
-474.1713803421665
 20
1032.013151838547
 30
0.0
 41
9.999389648437498
 42
9.999389648437498
 43
9.999389648437498
 50
270.0
  0
INSERT
  5
8054
330
804A
100
AcDbEntity
  8
Dim
 62
     0
370
    -2
100
AcDbBlockReference
  2
_DOT
 10
-474.1713803421665
 20
942.0131518385472
 30
0.0
 41
9.999389648437498
 42
9.999389648437498
 43
9.999389648437498
 50
90.0
  0
MTEXT
  5
8055
330
804A
100
AcDbEntity
  8
Dim
 62
     0
100
AcDbMText
 10
-498.4331606386838
 20
1121.026997744263
 30
0.0
 40
24.4326171875
 41
0.0
 46
0.0
 71
     5
 72
     1
  1
\A1;90(深さ)
  7
ＭＳ ゴシック
 11
0.0
 21
1.0
 31
0.0
 73
     1
 44
1.0
  0
POINT
  5
8056
330
804A
100
AcDbEntity
  8
Defpoints
 62
     0
100
AcDbPoint
 10
-475.9076207105534
 20
1032.013151838547
 30
0.0
  0
POINT
  5
8057
330
804A
100
AcDbEntity
  8
Defpoints
 62
     0
100
AcDbPoint
 10
-475.9076207105534
 20
942.0131518385472
 30
0.0
  0
POINT
  5
8058
330
804A
100
AcDbEntity
  8
Defpoints
 62
     0
100
AcDbPoint
 10
-474.1713803421665
 20
942.0131518385472
 30
0.0
  0
ENDBLK
  5
804C
330
804A
100
AcDbEntity
  8
0
100
AcDbBlockEnd
  0
BLOCK
  5
805B
330
805A
100
AcDbEntity
  8
0
100
AcDbBlockBegin
  2
*D18
 70
     1
 10
0.0
 20
0.0
 30
0.0
  3
*D18
  1

  0
LINE
  5
805D
330
805A
100
AcDbEntity
  8
Dim
 62
     0
370
    -2
100
AcDbLine
 10
-1179.319614108945
 20
1031.881344873168
 30
0.0
 11
-1083.030432193156
 21
1031.881344873168
 31
0.0
  0
LINE
  5
805E
330
805A
100
AcDbEntity
  8
Dim
 62
     0
370
    -2
100
AcDbLine
 10
-1179.319614108945
 20
911.8813448731678
 30
0.0
 11
-1083.030432193156
 21
911.8813448731678
 31
0.0
  0
LINE
  5
805F
330
805A
100
AcDbEntity
  8
Dim
 62
     0
370
    -2
100
AcDbLine
 10
-1083.030432193156
 20
1021.881955224731
 30
0.0
 11
-1083.030432193156
 21
921.8807345216053
 31
0.0
  0
INSERT
  5
8060
330
805A
100
AcDbEntity
  8
Dim
 62
     0
370
    -2
100
AcDbBlockReference
  2
_DOT
 10
-1083.030432193156
 20
1031.881344873168
 30
0.0
 41
9.999389648437498
 42
9.999389648437498
 43
9.999389648437498
 50
90.0
  0
INSERT
  5
8061
330
805A
100
AcDbEntity
  8
Dim
 62
     0
370
    -2
100
AcDbBlockReference
  2
_DOT
 10
-1083.030432193156
 20
911.8813448731678
 30
0.0
 41
9.999389648437498
 42
9.999389648437498
 43
9.999389648437498
 50
270.0
  0
MTEXT
  5
8062
330
805A
100
AcDbEntity
  8
Dim
 62
     0
100
AcDbMText
 10
-1105.251323621192
 20
971.8813448731679
 30
0.0
 40
24.4326171875
 41
0.0
 46
0.0
 71
     5
 72
     1
  1
\A1;120
  7
ＭＳ ゴシック
 11
0.0
 21
1.0
 31
0.0
 73
     1
 44
1.0
  0
POINT
  5
8063
330
805A
100
AcDbEntity
  8
Defpoints
 62
     0
100
AcDbPoint
 10
-1204.319614108945
 20
1031.881344873168
 30
0.0
  0
POINT
  5
8064
330
805A
100
AcDbEntity
  8
Defpoints
 62
     0
100
AcDbPoint
 10
-1204.319614108945
 20
911.8813448731678
 30
0.0
  0
POINT
  5
8065
330
805A
100
AcDbEntity
  8
Defpoints
 62
     0
100
AcDbPoint
 10
-1083.030432193156
 20
911.8813448731678
 30
0.0
  0
ENDBLK
  5
805C
330
805A
100
AcDbEntity
  8
0
100
AcDbBlockEnd
  0
BLOCK
  5
806E
330
806D
100
AcDbEntity
  8
0
100
AcDbBlockBegin
  2
*D19
 70
     1
 10
0.0
 20
0.0
 30
0.0
  3
*D19
  1

  0
LINE
  5
8070
330
806D
100
AcDbEntity
  8
Dim
 62
     0
370
    -2
100
AcDbLine
 10
-294.1713803421703
 20
1046.217154006887
 30
0.0
 11
-294.1713803421703
 21
1112.311566054545
 31
0.0
  0
LINE
  5
8071
330
806D
100
AcDbEntity
  8
Dim
 62
     0
370
    -2
100
AcDbLine
 10
-354.1713803421703
 20
1046.217154006887
 30
0.0
 11
-354.1713803421703
 21
1112.311566054545
 31
0.0
  0
LINE
  5
8072
330
806D
100
AcDbEntity
  8
Dim
 62
     0
370
    -2
100
AcDbLine
 10
-304.1707699906078
 20
1112.311566054545
 30
0.0
 11
-344.1719906937328
 21
1112.311566054545
 31
0.0
  0
INSERT
  5
8073
330
806D
100
AcDbEntity
  8
Dim
 62
     0
370
    -2
100
AcDbBlockReference
  2
_DOT
 10
-294.1713803421703
 20
1112.311566054545
 30
0.0
 41
9.999389648437498
 42
9.999389648437498
 43
9.999389648437498
  0
INSERT
  5
8074
330
806D
100
AcDbEntity
  8
Dim
 62
     0
370
    -2
100
AcDbBlockReference
  2
_DOT
 10
-354.1713803421703
 20
1112.311566054545
 30
0.0
 41
9.999389648437498
 42
9.999389648437498
 43
9.999389648437498
 50
180.0
  0
MTEXT
  5
8075
330
806D
100
AcDbEntity
  8
Dim
 62
     0
100
AcDbMText
 10
-324.1713803421703
 20
1134.527874648295
 30
0.0
 40
24.4326171875
 41
0.0
 46
0.0
 71
     5
 72
     1
  1
\A1;60
  7
ＭＳ ゴシック
 73
     1
 44
1.0
  0
POINT
  5
8076
330
806D
100
AcDbEntity
  8
Defpoints
 62
     0
100
AcDbPoint
 10
-294.1713803421703
 20
1021.217154006887
 30
0.0
  0
POINT
  5
8077
330
806D
100
AcDbEntity
  8
Defpoints
 62
     0
100
AcDbPoint
 10
-354.1713803421703
 20
1021.217154006887
 30
0.0
  0
POINT
  5
8078
330
806D
100
AcDbEntity
  8
Defpoints
 62
     0
100
AcDbPoint
 10
-354.1713803421703
 20
1112.311566054545
 30
0.0
  0
ENDBLK
  5
806F
330
806D
100
AcDbEntity
  8
0
100
AcDbBlockEnd
  0
BLOCK
  5
807B
330
807A
100
AcDbEntity
  8
0
100
AcDbBlockBegin
  2
*D20
 70
     1
 10
0.0
 20
0.0
 30
0.0
  3
*D20
  1

  0
LINE
  5
807D
330
807A
100
AcDbEntity
  8
Dim
 62
     0
370
    -2
100
AcDbLine
 10
-294.1713803421644
 20
890.3171235869097
 30
0.0
 11
-294.1713803421644
 21
833.2445577180679
 31
0.0
  0
LINE
  5
807E
330
807A
100
AcDbEntity
  8
Dim
 62
     0
370
    -2
100
AcDbLine
 10
-474.1713803421644
 20
890.3171235869098
 30
0.0
 11
-474.1713803421644
 21
833.2445577180679
 31
0.0
  0
LINE
  5
807F
330
807A
100
AcDbEntity
  8
Dim
 62
     0
370
    -2
100
AcDbLine
 10
-304.1707699906019
 20
833.2445577180679
 30
0.0
 11
-464.1719906937269
 21
833.2445577180679
 31
0.0
  0
INSERT
  5
8080
330
807A
100
AcDbEntity
  8
Dim
 62
     0
370
    -2
100
AcDbBlockReference
  2
_DOT
 10
-294.1713803421644
 20
833.2445577180679
 30
0.0
 41
9.999389648437498
 42
9.999389648437498
 43
9.999389648437498
  0
INSERT
  5
8081
330
807A
100
AcDbEntity
  8
Dim
 62
     0
370
    -2
100
AcDbBlockReference
  2
_DOT
 10
-474.1713803421644
 20
833.2445577180679
 30
0.0
 41
9.999389648437498
 42
9.999389648437498
 43
9.999389648437498
 50
180.0
  0
MTEXT
  5
8082
330
807A
100
AcDbEntity
  8
Dim
 62
     0
100
AcDbMText
 10
-384.1713803421644
 20
855.4654491461034
 30
0.0
 40
24.4326171875
 41
0.0
 46
0.0
 71
     5
 72
     1
  1
\A1;180
  7
ＭＳ ゴシック
 73
     1
 44
1.0
  0
POINT
  5
8083
330
807A
100
AcDbEntity
  8
Defpoints
 62
     0
100
AcDbPoint
 10
-294.1713803421644
 20
915.3171235869097
 30
0.0
  0
POINT
  5
8084
330
807A
100
AcDbEntity
  8
Defpoints
 62
     0
100
AcDbPoint
 10
-474.1713803421644
 20
915.3171235869098
 30
0.0
  0
POINT
  5
8085
330
807A
100
AcDbEntity
  8
Defpoints
 62
     0
100
AcDbPoint
 10
-474.1713803421644
 20
833.2445577180679
 30
0.0
  0
ENDBLK
  5
807C
330
807A
100
AcDbEntity
  8
0
100
AcDbBlockEnd
  0
BLOCK
  5
8623
330
8622
100
AcDbEntity
  8
0
100
AcDbBlockBegin
  2
*D21
 70
     1
 10
0.0
 20
0.0
 30
0.0
  3
*D21
  1

  0
LINE
  5
8625
330
8622
100
AcDbEntity
  8
Dim
 62
     0
370
    -2
100
AcDbLine
 10
909.0861834202941
 20
2166.215179553531
 30
0.0
 11
1033.433561928031
 21
2166.215179553531
 31
0.0
  0
LINE
  5
8626
330
8622
100
AcDbEntity
  8
Dim
 62
     0
370
    -2
100
AcDbLine
 10
909.0861834202941
 20
1816.349020437748
 30
0.0
 11
1033.433561928031
 21
1816.349020437748
 31
0.0
  0
LINE
  5
8627
330
8622
100
AcDbEntity
  8
Dim
 62
     0
370
    -2
100
AcDbLine
 10
1033.433561928031
 20
2156.215789905094
 30
0.0
 11
1033.433561928031
 21
1826.348410086185
 31
0.0
  0
INSERT
  5
8628
330
8622
100
AcDbEntity
  8
Dim
 62
     0
370
    -2
100
AcDbBlockReference
  2
_DOT
 10
1033.433561928031
 20
2166.215179553531
 30
0.0
 41
9.999389648437498
 42
9.999389648437498
 43
9.999389648437498
 50
90.0
  0
INSERT
  5
8629
330
8622
100
AcDbEntity
  8
Dim
 62
     0
370
    -2
100
AcDbBlockReference
  2
_DOT
 10
1033.433561928031
 20
1816.349020437748
 30
0.0
 41
9.999389648437498
 42
9.999389648437498
 43
9.999389648437498
 50
270.0
  0
MTEXT
  5
862A
330
8622
100
AcDbEntity
  8
Dim
 62
     0
100
AcDbMText
 10
1011.212670499996
 20
1991.282099995639
 30
0.0
 40
24.4326171875
 41
0.0
 46
0.0
 71
     5
 72
     1
  1
\A1;350
  7
ＭＳ ゴシック
 11
0.0
 21
1.0
 31
0.0
 73
     1
 44
1.0
  0
POINT
  5
862B
330
8622
100
AcDbEntity
  8
Defpoints
 62
     0
100
AcDbPoint
 10
884.0861834202941
 20
2166.215179553531
 30
0.0
  0
POINT
  5
862C
330
8622
100
AcDbEntity
  8
Defpoints
 62
     0
100
AcDbPoint
 10
884.0861834202941
 20
1816.349020437748
 30
0.0
  0
POINT
  5
862D
330
8622
100
AcDbEntity
  8
Defpoints
 62
     0
100
AcDbPoint
 10
1033.433561928031
 20
1816.349020437748
 30
0.0
  0
ENDBLK
  5
8624
330
8622
100
AcDbEntity
  8
0
100
AcDbBlockEnd
  0
BLOCK
  5
8632
330
8631
100
AcDbEntity
  8
0
100
AcDbBlockBegin
  2
*D22
 70
     1
 10
0.0
 20
0.0
 30
0.0
  3
*D22
  1

  0
LINE
  5
8634
330
8631
100
AcDbEntity
  8
Dim
 62
     0
370
    -2
100
AcDbLine
 10
342.3389479451943
 20
2181.563419287978
 30
0.0
 11
342.3389479451943
 21
2297.615801212632
 31
0.0
  0
LINE
  5
8635
330
8631
100
AcDbEntity
  8
Dim
 62
     0
370
    -2
100
AcDbLine
 10
892.2323897582971
 20
2181.563419287979
 30
0.0
 11
892.2323897582971
 21
2297.615801212633
 31
0.0
  0
LINE
  5
8636
330
8631
100
AcDbEntity
  8
Dim
 62
     0
370
    -2
100
AcDbLine
 10
352.3383375936318
 20
2297.615801212632
 30
0.0
 11
882.2330001098596
 21
2297.615801212633
 31
0.0
  0
INSERT
  5
8637
330
8631
100
AcDbEntity
  8
Dim
 62
     0
370
    -2
100
AcDbBlockReference
  2
_DOT
 10
342.3389479451943
 20
2297.615801212632
 30
0.0
 41
9.999389648437498
 42
9.999389648437498
 43
9.999389648437498
 50
180.0000000000001
  0
INSERT
  5
8638
330
8631
100
AcDbEntity
  8
Dim
 62
     0
370
    -2
100
AcDbBlockReference
  2
_DOT
 10
892.2323897582971
 20
2297.615801212633
 30
0.0
 41
9.999389648437498
 42
9.999389648437498
 43
9.999389648437498
 50
0.0000000000000948
  0
MTEXT
  5
8639
330
8631
100
AcDbEntity
  8
Dim
 62
     0
100
AcDbMText
 10
617.2856688517456
 20
2319.836692640667
 30
0.0
 40
24.4326171875
 41
0.0
 46
0.0
 71
     5
 72
     1
  1
\A1;550
  7
ＭＳ ゴシック
 73
     1
 44
1.0
  0
POINT
  5
863A
330
8631
100
AcDbEntity
  8
Defpoints
 62
     0
100
AcDbPoint
 10
342.3389479451943
 20
2156.563419287978
 30
0.0
  0
POINT
  5
863B
330
8631
100
AcDbEntity
  8
Defpoints
 62
     0
100
AcDbPoint
 10
892.2323897582971
 20
2156.563419287979
 30
0.0
  0
POINT
  5
863C
330
8631
100
AcDbEntity
  8
Defpoints
 62
     0
100
AcDbPoint
 10
892.2323897582971
 20
2297.615801212633
 30
0.0
  0
ENDBLK
  5
8633
330
8631
100
AcDbEntity
  8
0
100
AcDbBlockEnd
  0
BLOCK
  5
8641
330
8640
100
AcDbEntity
  8
0
100
AcDbBlockBegin
  2
*D23
 70
     1
 10
0.0
 20
0.0
 30
0.0
  3
*D23
  1

  0
LINE
  5
8643
330
8640
100
AcDbEntity
  8
Dim
 62
     0
370
    -2
100
AcDbLine
 10
909.086183420294
 20
2166.215179553531
 30
0.0
 11
984.0324546897084
 21
2166.215179553531
 31
0.0
  0
LINE
  5
8644
330
8640
100
AcDbEntity
  8
Dim
 62
     0
370
    -2
100
AcDbLine
 10
909.0861834202944
 20
1816.349020437749
 30
0.0
 11
984.0324546897087
 21
1816.349020437749
 31
0.0
  0
LINE
  5
8645
330
8640
100
AcDbEntity
  8
Dim
 62
     0
370
    -2
100
AcDbLine
 10
984.0324546897084
 20
2156.215789905094
 30
0.0
 11
984.0324546897087
 21
1826.348410086186
 31
0.0
  0
INSERT
  5
8646
330
8640
100
AcDbEntity
  8
Dim
 62
     0
370
    -2
100
AcDbBlockReference
  2
_DOT
 10
984.0324546897084
 20
2166.215179553531
 30
0.0
 41
9.999389648437498
 42
9.999389648437498
 43
9.999389648437498
 50
90.00000000000006
  0
INSERT
  5
8647
330
8640
100
AcDbEntity
  8
Dim
 62
     0
370
    -2
100
AcDbBlockReference
  2
_DOT
 10
984.0324546897087
 20
1816.349020437749
 30
0.0
 41
9.999389648437498
 42
9.999389648437498
 43
9.999389648437498
 50
270.0000000000001
  0
MTEXT
  5
8648
330
8640
100
AcDbEntity
  8
Dim
 62
     0
100
AcDbMText
 10
961.8115632616732
 20
1991.28209999564
 30
0.0
 40
24.4326171875
 41
0.0
 46
0.0
 71
     5
 72
     1
  1
\A1;350
  7
ＭＳ ゴシック
 11
-9.748313870275726E-16
 21
1.0
 31
0.0
 73
     1
 44
1.0
  0
POINT
  5
8649
330
8640
100
AcDbEntity
  8
Defpoints
 62
     0
100
AcDbPoint
 10
884.086183420294
 20
2166.215179553531
 30
0.0
  0
POINT
  5
864A
330
8640
100
AcDbEntity
  8
Defpoints
 62
     0
100
AcDbPoint
 10
884.0861834202944
 20
1816.349020437749
 30
0.0
  0
POINT
  5
864B
330
8640
100
AcDbEntity
  8
Defpoints
 62
     0
100
AcDbPoint
 10
984.0324546897089
 20
1816.349020437749
 30
0.0
  0
ENDBLK
  5
8642
330
8640
100
AcDbEntity
  8
0
100
AcDbBlockEnd
  0
BLOCK
  5
8653
330
8652
100
AcDbEntity
  8
0
100
AcDbBlockBegin
  2
*D24
 70
     1
 10
0.0
 20
0.0
 30
0.0
  3
*D24
  1

  0
LINE
  5
8655
330
8652
100
AcDbEntity
  8
Dim
 62
     0
370
    -2
100
AcDbLine
 10
904.3699504147869
 20
2166.215179553531
 30
0.0
 11
965.0481833481724
 21
2166.215179553531
 31
0.0
  0
LINE
  5
8656
330
8652
100
AcDbEntity
  8
Dim
 62
     0
370
    -2
100
AcDbLine
 10
880.7872824070155
 20
2063.214333102657
 30
0.0
 11
965.0481833481724
 21
2063.214333102657
 31
0.0
  0
LINE
  5
8657
330
8652
100
AcDbEntity
  8
Dim
 62
     0
370
    -2
100
AcDbLine
 10
965.0481833481724
 20
2156.215789905094
 30
0.0
 11
965.0481833481724
 21
2073.213722751095
 31
0.0
  0
INSERT
  5
8658
330
8652
100
AcDbEntity
  8
Dim
 62
     0
370
    -2
100
AcDbBlockReference
  2
_DOT
 10
965.0481833481724
 20
2166.215179553531
 30
0.0
 41
9.999389648437498
 42
9.999389648437498
 43
9.999389648437498
 50
90.0
  0
INSERT
  5
8659
330
8652
100
AcDbEntity
  8
Dim
 62
     0
370
    -2
100
AcDbBlockReference
  2
_DOT
 10
965.0481833481724
 20
2063.214333102657
 30
0.0
 41
9.999389648437498
 42
9.999389648437498
 43
9.999389648437498
 50
270.0
  0
MTEXT
  5
865A
330
8652
100
AcDbEntity
  8
Dim
 62
     0
100
AcDbMText
 10
942.827291920137
 20
2114.714756328094
 30
0.0
 40
24.4326171875
 41
0.0
 46
0.0
 71
     5
 72
     1
  1
\A1;103
  7
ＭＳ ゴシック
 11
0.0
 21
1.0
 31
0.0
 73
     1
 44
1.0
  0
POINT
  5
865B
330
8652
100
AcDbEntity
  8
Defpoints
 62
     0
100
AcDbPoint
 10
879.3699504147869
 20
2166.215179553531
 30
0.0
  0
POINT
  5
865C
330
8652
100
AcDbEntity
  8
Defpoints
 62
     0
100
AcDbPoint
 10
855.7872824070155
 20
2063.214333102657
 30
0.0
  0
POINT
  5
865D
330
8652
100
AcDbEntity
  8
Defpoints
 62
     0
100
AcDbPoint
 10
965.0481833481724
 20
2063.214333102657
 30
0.0
  0
ENDBLK
  5
8654
330
8652
100
AcDbEntity
  8
0
100
AcDbBlockEnd
  0
BLOCK
  5
8660
330
865F
100
AcDbEntity
  8
0
100
AcDbBlockBegin
  2
*D25
 70
     1
 10
0.0
 20
0.0
 30
0.0
  3
*D25
  1

  0
LINE
  5
8662
330
865F
100
AcDbEntity
  8
Dim
 62
     0
370
    -2
100
AcDbLine
 10
327.0572319517072
 20
2166.215179553531
 30
0.0
 11
260.8767271785627
 21
2166.215179553531
 31
0.0
  0
LINE
  5
8663
330
865F
100
AcDbEntity
  8
Dim
 62
     0
370
    -2
100
AcDbLine
 10
327.0572319517073
 20
2066.215179553531
 30
0.0
 11
260.8767271785629
 21
2066.215179553531
 31
0.0
  0
LINE
  5
8664
330
865F
100
AcDbEntity
  8
Dim
 62
     0
370
    -2
100
AcDbLine
 10
260.8767271785627
 20
2156.215789905093
 30
0.0
 11
260.8767271785629
 21
2076.214569201968
 31
0.0
  0
INSERT
  5
8665
330
865F
100
AcDbEntity
  8
Dim
 62
     0
370
    -2
100
AcDbBlockReference
  2
_DOT
 10
260.8767271785627
 20
2166.215179553531
 30
0.0
 41
9.999389648437498
 42
9.999389648437498
 43
9.999389648437498
 50
90.00000000000009
  0
INSERT
  5
8666
330
865F
100
AcDbEntity
  8
Dim
 62
     0
370
    -2
100
AcDbBlockReference
  2
_DOT
 10
260.8767271785629
 20
2066.215179553531
 30
0.0
 41
9.999389648437498
 42
9.999389648437498
 43
9.999389648437498
 50
270.0000000000001
  0
MTEXT
  5
8667
330
865F
100
AcDbEntity
  8
Dim
 62
     0
100
AcDbMText
 10
238.6558357505273
 20
2116.215179553531
 30
0.0
 40
24.4326171875
 41
0.0
 46
0.0
 71
     5
 72
     1
  1
\A1;100
  7
ＭＳ ゴシック
 11
-1.705302565824240E-15
 21
1.0
 31
0.0
 73
     1
 44
1.0
  0
POINT
  5
8668
330
865F
100
AcDbEntity
  8
Defpoints
 62
     0
100
AcDbPoint
 10
352.0572319517072
 20
2166.215179553531
 30
0.0
  0
POINT
  5
8669
330
865F
100
AcDbEntity
  8
Defpoints
 62
     0
100
AcDbPoint
 10
352.0572319517073
 20
2066.215179553531
 30
0.0
  0
POINT
  5
866A
330
865F
100
AcDbEntity
  8
Defpoints
 62
     0
100
AcDbPoint
 10
260.8767271785629
 20
2066.215179553531
 30
0.0
  0
ENDBLK
  5
8661
330
865F
100
AcDbEntity
  8
0
100
AcDbBlockEnd
  0
BLOCK
  5
866F
330
866E
100
AcDbEntity
  8
0
100
AcDbBlockBegin
  2
*D26
 70
     1
 10
0.0
 20
0.0
 30
0.0
  3
*D26
  1

  0
LINE
  5
8671
330
866E
100
AcDbEntity
  8
Dim
 62
     0
370
    -2
100
AcDbLine
 10
302.0572319517073
 20
2066.215179553531
 30
0.0
 11
260.876727178563
 21
2066.215179553531
 31
0.0
  0
LINE
  5
8672
330
866E
100
AcDbEntity
  8
Dim
 62
     0
370
    -2
100
AcDbLine
 10
313.2304944416944
 20
1826.215179553531
 30
0.0
 11
260.8767271785633
 21
1826.21517955353
 31
0.0
  0
LINE
  5
8673
330
866E
100
AcDbEntity
  8
Dim
 62
     0
370
    -2
100
AcDbLine
 10
260.876727178563
 20
2056.215789905093
 30
0.0
 11
260.8767271785633
 21
1836.214569201968
 31
0.0
  0
INSERT
  5
8674
330
866E
100
AcDbEntity
  8
Dim
 62
     0
370
    -2
100
AcDbBlockReference
  2
_DOT
 10
260.876727178563
 20
2066.215179553531
 30
0.0
 41
9.999389648437498
 42
9.999389648437498
 43
9.999389648437498
 50
90.00000000000009
  0
INSERT
  5
8675
330
866E
100
AcDbEntity
  8
Dim
 62
     0
370
    -2
100
AcDbBlockReference
  2
_DOT
 10
260.8767271785633
 20
1826.21517955353
 30
0.0
 41
9.999389648437498
 42
9.999389648437498
 43
9.999389648437498
 50
270.0000000000001
  0
MTEXT
  5
8676
330
866E
100
AcDbEntity
  8
Dim
 62
     0
100
AcDbMText
 10
238.6558357505277
 20
1946.215179553531
 30
0.0
 40
24.4326171875
 41
0.0
 46
0.0
 71
     5
 72
     1
  1
\A1;240
  7
ＭＳ ゴシック
 11
-1.421085471520199E-15
 21
1.0
 31
0.0
 73
     1
 44
1.0
  0
POINT
  5
8677
330
866E
100
AcDbEntity
  8
Defpoints
 62
     0
100
AcDbPoint
 10
327.0572319517073
 20
2066.215179553531
 30
0.0
  0
POINT
  5
8678
330
866E
100
AcDbEntity
  8
Defpoints
 62
     0
100
AcDbPoint
 10
338.2304944416944
 20
1826.215179553531
 30
0.0
  0
POINT
  5
8679
330
866E
100
AcDbEntity
  8
Defpoints
 62
     0
100
AcDbPoint
 10
260.8767271785633
 20
1826.21517955353
 30
0.0
  0
ENDBLK
  5
8670
330
866E
100
AcDbEntity
  8
0
100
AcDbBlockEnd
  0
BLOCK
  5
867F
330
867E
100
AcDbEntity
  8
0
100
AcDbBlockBegin
  2
*D27
 70
     1
 10
0.0
 20
0.0
 30
0.0
  3
*D27
  1

  0
LINE
  5
8681
330
867E
100
AcDbEntity
  8
Dim
 62
     0
370
    -2
100
AcDbLine
 10
692.2194473902528
 20
1821.062555753697
 30
0.0
 11
692.2194473902528
 21
1745.993091259544
 31
0.0
  0
LINE
  5
8682
330
867E
100
AcDbEntity
  8
Dim
 62
     0
370
    -2
100
AcDbLine
 10
352.2194473902528
 20
1821.062555753697
 30
0.0
 11
352.2194473902528
 21
1745.993091259544
 31
0.0
  0
LINE
  5
8683
330
867E
100
AcDbEntity
  8
Dim
 62
     0
370
    -2
100
AcDbLine
 10
682.2200577418153
 20
1745.993091259544
 30
0.0
 11
362.2188370386903
 21
1745.993091259544
 31
0.0
  0
INSERT
  5
8684
330
867E
100
AcDbEntity
  8
Dim
 62
     0
370
    -2
100
AcDbBlockReference
  2
_DOT
 10
692.2194473902528
 20
1745.993091259544
 30
0.0
 41
9.999389648437498
 42
9.999389648437498
 43
9.999389648437498
 50
0.0000000000000766
  0
INSERT
  5
8685
330
867E
100
AcDbEntity
  8
Dim
 62
     0
370
    -2
100
AcDbBlockReference
  2
_DOT
 10
352.2194473902528
 20
1745.993091259544
 30
0.0
 41
9.999389648437498
 42
9.999389648437498
 43
9.999389648437498
 50
180.0000000000001
  0
MTEXT
  5
8686
330
867E
100
AcDbEntity
  8
Dim
 62
     0
100
AcDbMText
 10
522.2194473902528
 20
1768.213982687579
 30
0.0
 40
24.4326171875
 41
0.0
 46
0.0
 71
     5
 72
     1
  1
\A1;340
  7
ＭＳ ゴシック
 73
     1
 44
1.0
  0
POINT
  5
8687
330
867E
100
AcDbEntity
  8
Defpoints
 62
     0
100
AcDbPoint
 10
692.2194473902528
 20
1846.062555753697
 30
0.0
  0
POINT
  5
8688
330
867E
100
AcDbEntity
  8
Defpoints
 62
     0
100
AcDbPoint
 10
352.2194473902528
 20
1846.062555753697
 30
0.0
  0
POINT
  5
8689
330
867E
100
AcDbEntity
  8
Defpoints
 62
     0
100
AcDbPoint
 10
352.2194473902528
 20
1745.993091259544
 30
0.0
  0
ENDBLK
  5
8680
330
867E
100
AcDbEntity
  8
0
100
AcDbBlockEnd
  0
BLOCK
  5
868E
330
868D
100
AcDbEntity
  8
0
100
AcDbBlockBegin
  2
*D28
 70
     1
 10
0.0
 20
0.0
 30
0.0
  3
*D28
  1

  0
LINE
  5
8690
330
868D
100
AcDbEntity
  8
Dim
 62
     0
370
    -2
100
AcDbLine
 10
692.2194473902528
 20
1796.062555753697
 30
0.0
 11
692.2194473902528
 21
1745.993091259544
 31
0.0
  0
LINE
  5
8691
330
868D
100
AcDbEntity
  8
Dim
 62
     0
370
    -2
100
AcDbLine
 10
892.2194473902528
 20
1796.062555753698
 30
0.0
 11
892.2194473902528
 21
1745.993091259544
 31
0.0
  0
LINE
  5
8692
330
868D
100
AcDbEntity
  8
Dim
 62
     0
370
    -2
100
AcDbLine
 10
702.2188370386903
 20
1745.993091259544
 30
0.0
 11
882.2200577418153
 21
1745.993091259544
 31
0.0
  0
INSERT
  5
8693
330
868D
100
AcDbEntity
  8
Dim
 62
     0
370
    -2
100
AcDbBlockReference
  2
_DOT
 10
692.2194473902528
 20
1745.993091259544
 30
0.0
 41
9.999389648437498
 42
9.999389648437498
 43
9.999389648437498
 50
180.0
  0
INSERT
  5
8694
330
868D
100
AcDbEntity
  8
Dim
 62
     0
370
    -2
100
AcDbBlockReference
  2
_DOT
 10
892.2194473902528
 20
1745.993091259544
 30
0.0
 41
9.999389648437498
 42
9.999389648437498
 43
9.999389648437498
 50
0.0000000000000651
  0
MTEXT
  5
8695
330
868D
100
AcDbEntity
  8
Dim
 62
     0
100
AcDbMText
 10
792.2194473902528
 20
1768.21398268758
 30
0.0
 40
24.4326171875
 41
0.0
 46
0.0
 71
     5
 72
     1
  1
\A1;200
  7
ＭＳ ゴシック
 73
     1
 44
1.0
  0
POINT
  5
8696
330
868D
100
AcDbEntity
  8
Defpoints
 62
     0
100
AcDbPoint
 10
692.2194473902528
 20
1821.062555753697
 30
0.0
  0
POINT
  5
8697
330
868D
100
AcDbEntity
  8
Defpoints
 62
     0
100
AcDbPoint
 10
892.2194473902528
 20
1821.062555753698
 30
0.0
  0
POINT
  5
8698
330
868D
100
AcDbEntity
  8
Defpoints
 62
     0
100
AcDbPoint
 10
892.2194473902528
 20
1745.993091259544
 30
0.0
  0
ENDBLK
  5
868F
330
868D
100
AcDbEntity
  8
0
100
AcDbBlockEnd
  0
BLOCK
  5
86B9
330
86B8
100
AcDbEntity
  8
0
100
AcDbBlockBegin
  2
*D29
 70
     1
 10
0.0
 20
0.0
 30
0.0
  3
*D29
  1

  0
LINE
  5
86BA
330
86B8
100
AcDbEntity
  8
Dim
 62
     0
370
    -2
100
AcDbLine
 10
93.43158719818007
 20
124.9996948242188
 30
0.0
 11
34.44636569035652
 21
124.9996948242188
 31
0.0
  0
LINE
  5
86BB
330
86B8
100
AcDbEntity
  8
Dim
 62
     0
370
    -2
100
AcDbLine
 10
93.43158719818007
 20
79.99969482421875
 30
0.0
 11
34.44636569035652
 21
79.99969482421875
 31
0.0
  0
LINE
  5
86BC
330
86B8
100
AcDbEntity
  8
Dim
 62
     0
370
    -2
100
AcDbLine
 10
34.44636569035652
 20
115.0003051757812
 30
0.0
 11
34.44636569035652
 21
89.99908447265625
 31
0.0
  0
INSERT
  5
86BD
330
86B8
100
AcDbEntity
  8
Dim
 62
     0
370
    -2
100
AcDbBlockReference
  2
_DOT
 10
34.44636569035652
 20
124.9996948242188
 30
0.0
 41
9.999389648437498
 42
9.999389648437498
 43
9.999389648437498
 50
90.0
  0
INSERT
  5
86BE
330
86B8
100
AcDbEntity
  8
Dim
 62
     0
370
    -2
100
AcDbBlockReference
  2
_DOT
 10
34.44636569035652
 20
79.99969482421875
 30
0.0
 41
9.999389648437498
 42
9.999389648437498
 43
9.999389648437498
 50
270.0
  0
MTEXT
  5
86BF
330
86B8
100
AcDbEntity
  8
Dim
 62
     0
100
AcDbMText
 10
12.225474262321
 20
102.4996948242188
 30
0.0
 40
24.4326171875
 41
0.0
 46
0.0
 71
     5
 72
     1
  1
\A1;45
  7
ＭＳ ゴシック
 11
0.0
 21
1.0
 31
0.0
 73
     1
 44
1.0
  0
POINT
  5
86C0
330
86B8
100
AcDbEntity
  8
Defpoints
 62
     0
100
AcDbPoint
 10
118.4315871981801
 20
124.9996948242188
 30
0.0
  0
POINT
  5
86C1
330
86B8
100
AcDbEntity
  8
Defpoints
 62
     0
100
AcDbPoint
 10
118.4315871981801
 20
79.99969482421875
 30
0.0
  0
POINT
  5
86C2
330
86B8
100
AcDbEntity
  8
Defpoints
 62
     0
100
AcDbPoint
 10
34.44636569035652
 20
79.99969482421875
 30
0.0
  0
ENDBLK
  5
86C3
330
86B8
100
AcDbEntity
  8
0
100
AcDbBlockEnd
  0
BLOCK
  5
86CF
330
86CE
100
AcDbEntity
  8
0
100
AcDbBlockBegin
  2
*D30
 70
     1
 10
0.0
 20
0.0
 30
0.0
  3
*D30
  1

  0
LINE
  5
86D0
330
86CE
100
AcDbEntity
  8
Dim
 62
     0
370
    -2
100
AcDbLine
 10
239.706317361592
 20
134.9328221206367
 30
0.0
 11
239.706317361592
 21
223.0512445165336
 31
0.0
  0
LINE
  5
86D1
330
86CE
100
AcDbEntity
  8
Dim
 62
     0
370
    -2
100
AcDbLine
 10
439.7064524864511
 20
134.9328221206367
 30
0.0
 11
439.7064524864511
 21
223.0512445165336
 31
0.0
  0
LINE
  5
86D2
330
86CE
100
AcDbEntity
  8
Dim
 62
     0
370
    -2
100
AcDbLine
 10
249.7057070100295
 20
223.0512445165336
 30
0.0
 11
429.7070628380136
 21
223.0512445165336
 31
0.0
  0
INSERT
  5
86D3
330
86CE
100
AcDbEntity
  8
Dim
 62
     0
370
    -2
100
AcDbBlockReference
  2
_DOT
 10
239.706317361592
 20
223.0512445165336
 30
0.0
 41
9.999389648437498
 42
9.999389648437498
 43
9.999389648437498
 50
180.0
  0
INSERT
  5
86D4
330
86CE
100
AcDbEntity
  8
Dim
 62
     0
370
    -2
100
AcDbBlockReference
  2
_DOT
 10
439.7064524864511
 20
223.0512445165336
 30
0.0
 41
9.999389648437498
 42
9.999389648437498
 43
9.999389648437498
  0
MTEXT
  5
86D5
330
86CE
100
AcDbEntity
  8
Dim
 62
     0
100
AcDbMText
 10
339.7063849240216
 20
245.2721359445692
 30
0.0
 40
24.4326171875
 41
0.0
 46
0.0
 71
     5
 72
     1
  1
\A1;200
  7
ＭＳ ゴシック
 73
     1
 44
1.0
  0
POINT
  5
86D6
330
86CE
100
AcDbEntity
  8
Defpoints
 62
     0
100
AcDbPoint
 10
239.706317361592
 20
109.9328221206367
 30
0.0
  0
POINT
  5
86D7
330
86CE
100
AcDbEntity
  8
Defpoints
 62
     0
100
AcDbPoint
 10
439.7064524864511
 20
109.9328221206367
 30
0.0
  0
POINT
  5
86D8
330
86CE
100
AcDbEntity
  8
Defpoints
 62
     0
100
AcDbPoint
 10
439.7064524864511
 20
223.0512445165336
 30
0.0
  0
ENDBLK
  5
86D9
330
86CE
100
AcDbEntity
  8
0
100
AcDbBlockEnd
  0
BLOCK
  5
86DC
330
86DB
100
AcDbEntity
  8
0
100
AcDbBlockBegin
  2
*D31
 70
     1
 10
0.0
 20
0.0
 30
0.0
  3
*D31
  1

  0
LINE
  5
86DD
330
86DB
100
AcDbEntity
  8
Dim
 62
     0
370
    -2
100
AcDbLine
 10
584.0209594396038
 20
124.9996948242188
 30
0.0
 11
680.3101413553925
 21
124.9996948242187
 31
0.0
  0
LINE
  5
86DE
330
86DB
100
AcDbEntity
  8
Dim
 62
     0
370
    -2
100
AcDbLine
 10
584.0209594396039
 20
4.999694824218748
 30
0.0
 11
680.3101413553925
 21
4.999694824218743
 31
0.0
  0
LINE
  5
86DF
330
86DB
100
AcDbEntity
  8
Dim
 62
     0
370
    -2
100
AcDbLine
 10
680.3101413553925
 20
115.0003051757812
 30
0.0
 11
680.3101413553925
 21
14.99908447265624
 31
0.0
  0
INSERT
  5
86E0
330
86DB
100
AcDbEntity
  8
Dim
 62
     0
370
    -2
100
AcDbBlockReference
  2
_DOT
 10
680.3101413553925
 20
124.9996948242187
 30
0.0
 41
9.999389648437498
 42
9.999389648437498
 43
9.999389648437498
 50
90.0
  0
INSERT
  5
86E1
330
86DB
100
AcDbEntity
  8
Dim
 62
     0
370
    -2
100
AcDbBlockReference
  2
_DOT
 10
680.3101413553925
 20
4.999694824218743
 30
0.0
 41
9.999389648437498
 42
9.999389648437498
 43
9.999389648437498
 50
270.0
  0
MTEXT
  5
86E2
330
86DB
100
AcDbEntity
  8
Dim
 62
     0
100
AcDbMText
 10
658.089249927357
 20
64.99969482421874
 30
0.0
 40
24.4326171875
 41
0.0
 46
0.0
 71
     5
 72
     1
  1
\A1;120
  7
ＭＳ ゴシック
 11
0.0
 21
1.0
 31
0.0
 73
     1
 44
1.0
  0
POINT
  5
86E3
330
86DB
100
AcDbEntity
  8
Defpoints
 62
     0
100
AcDbPoint
 10
559.0209594396038
 20
124.9996948242188
 30
0.0
  0
POINT
  5
86E4
330
86DB
100
AcDbEntity
  8
Defpoints
 62
     0
100
AcDbPoint
 10
559.0209594396039
 20
4.99969482421875
 30
0.0
  0
POINT
  5
86E5
330
86DB
100
AcDbEntity
  8
Defpoints
 62
     0
100
AcDbPoint
 10
680.3101413553925
 20
4.999694824218743
 30
0.0
  0
ENDBLK
  5
86E6
330
86DB
100
AcDbEntity
  8
0
100
AcDbBlockEnd
  0
BLOCK
  5
86F7
330
86F6
100
AcDbEntity
  8
0
100
AcDbBlockBegin
  2
*D32
 70
     1
 10
0.0
 20
0.0
 30
0.0
  3
*D32
  1

  0
LINE
  5
86F9
330
86F6
100
AcDbEntity
  8
Dim
 62
     0
370
    -2
100
AcDbLine
 10
319.9183468995771
 20
1031.881344873168
 30
0.0
 11
260.9331253917535
 21
1031.881344873168
 31
0.0
  0
LINE
  5
86FA
330
86F6
100
AcDbEntity
  8
Dim
 62
     0
370
    -2
100
AcDbLine
 10
319.9183468995771
 20
986.881344873168
 30
0.0
 11
260.9331253917535
 21
986.881344873168
 31
0.0
  0
LINE
  5
86FB
330
86F6
100
AcDbEntity
  8
Dim
 62
     0
370
    -2
100
AcDbLine
 10
260.9331253917535
 20
1021.881955224731
 30
0.0
 11
260.9331253917535
 21
996.8807345216055
 31
0.0
  0
INSERT
  5
86FC
330
86F6
100
AcDbEntity
  8
Dim
 62
     0
370
    -2
100
AcDbBlockReference
  2
_DOT
 10
260.9331253917535
 20
1031.881344873168
 30
0.0
 41
9.999389648437498
 42
9.999389648437498
 43
9.999389648437498
 50
90.0
  0
INSERT
  5
86FD
330
86F6
100
AcDbEntity
  8
Dim
 62
     0
370
    -2
100
AcDbBlockReference
  2
_DOT
 10
260.9331253917535
 20
986.881344873168
 30
0.0
 41
9.999389648437498
 42
9.999389648437498
 43
9.999389648437498
 50
270.0
  0
MTEXT
  5
86FE
330
86F6
100
AcDbEntity
  8
Dim
 62
     0
100
AcDbMText
 10
238.712233963718
 20
1009.381344873168
 30
0.0
 40
24.4326171875
 41
0.0
 46
0.0
 71
     5
 72
     1
  1
\A1;45
  7
ＭＳ ゴシック
 11
0.0
 21
1.0
 31
0.0
 73
     1
 44
1.0
  0
POINT
  5
86FF
330
86F6
100
AcDbEntity
  8
Defpoints
 62
     0
100
AcDbPoint
 10
344.9183468995771
 20
1031.881344873168
 30
0.0
  0
POINT
  5
8700
330
86F6
100
AcDbEntity
  8
Defpoints
 62
     0
100
AcDbPoint
 10
344.9183468995771
 20
986.881344873168
 30
0.0
  0
POINT
  5
8701
330
86F6
100
AcDbEntity
  8
Defpoints
 62
     0
100
AcDbPoint
 10
260.9331253917535
 20
986.881344873168
 30
0.0
  0
ENDBLK
  5
86F8
330
86F6
100
AcDbEntity
  8
0
100
AcDbBlockEnd
  0
BLOCK
  5
8703
330
8702
100
AcDbEntity
  8
0
100
AcDbBlockBegin
  2
*D33
 70
     1
 10
0.0
 20
0.0
 30
0.0
  3
*D33
  1

  0
LINE
  5
8705
330
8702
100
AcDbEntity
  8
Dim
 62
     0
370
    -2
100
AcDbLine
 10
477.28560128932
 20
1041.814472169586
 30
0.0
 11
477.28560128932
 21
1129.932894565483
 31
0.0
  0
LINE
  5
8706
330
8702
100
AcDbEntity
  8
Dim
 62
     0
370
    -2
100
AcDbLine
 10
757.285736414179
 20
1041.814472169586
 30
0.0
 11
757.285736414179
 21
1129.932894565483
 31
0.0
  0
LINE
  5
8707
330
8702
100
AcDbEntity
  8
Dim
 62
     0
370
    -2
100
AcDbLine
 10
487.2849909377575
 20
1129.932894565483
 30
0.0
 11
747.2863467657415
 21
1129.932894565483
 31
0.0
  0
INSERT
  5
8708
330
8702
100
AcDbEntity
  8
Dim
 62
     0
370
    -2
100
AcDbBlockReference
  2
_DOT
 10
477.28560128932
 20
1129.932894565483
 30
0.0
 41
9.999389648437498
 42
9.999389648437498
 43
9.999389648437498
 50
180.0
  0
INSERT
  5
8709
330
8702
100
AcDbEntity
  8
Dim
 62
     0
370
    -2
100
AcDbBlockReference
  2
_DOT
 10
757.285736414179
 20
1129.932894565483
 30
0.0
 41
9.999389648437498
 42
9.999389648437498
 43
9.999389648437498
  0
MTEXT
  5
870A
330
8702
100
AcDbEntity
  8
Dim
 62
     0
100
AcDbMText
 10
617.2856688517495
 20
1152.153785993518
 30
0.0
 40
24.4326171875
 41
0.0
 46
0.0
 71
     5
 72
     1
  1
\A1;280
  7
ＭＳ ゴシック
 73
     1
 44
1.0
  0
POINT
  5
870B
330
8702
100
AcDbEntity
  8
Defpoints
 62
     0
100
AcDbPoint
 10
477.28560128932
 20
1016.814472169586
 30
0.0
  0
POINT
  5
870C
330
8702
100
AcDbEntity
  8
Defpoints
 62
     0
100
AcDbPoint
 10
757.285736414179
 20
1016.814472169586
 30
0.0
  0
POINT
  5
870D
330
8702
100
AcDbEntity
  8
Defpoints
 62
     0
100
AcDbPoint
 10
757.285736414179
 20
1129.932894565483
 30
0.0
  0
ENDBLK
  5
8704
330
8702
100
AcDbEntity
  8
0
100
AcDbBlockEnd
  0
BLOCK
  5
870F
330
870E
100
AcDbEntity
  8
0
100
AcDbBlockBegin
  2
*D34
 70
     1
 10
0.0
 20
0.0
 30
0.0
  3
*D34
  1

  0
LINE
  5
8711
330
870E
100
AcDbEntity
  8
Dim
 62
     0
370
    -2
100
AcDbLine
 10
923.5008015646172
 20
1031.881344873168
 30
0.0
 11
1019.789983480406
 21
1031.881344873168
 31
0.0
  0
LINE
  5
8712
330
870E
100
AcDbEntity
  8
Dim
 62
     0
370
    -2
100
AcDbLine
 10
923.5008015646172
 20
911.881344873168
 30
0.0
 11
1019.789983480406
 21
911.881344873168
 31
0.0
  0
LINE
  5
8713
330
870E
100
AcDbEntity
  8
Dim
 62
     0
370
    -2
100
AcDbLine
 10
1019.789983480406
 20
1021.881955224731
 30
0.0
 11
1019.789983480406
 21
921.8807345216055
 31
0.0
  0
INSERT
  5
8714
330
870E
100
AcDbEntity
  8
Dim
 62
     0
370
    -2
100
AcDbBlockReference
  2
_DOT
 10
1019.789983480406
 20
1031.881344873168
 30
0.0
 41
9.999389648437498
 42
9.999389648437498
 43
9.999389648437498
 50
90.0
  0
INSERT
  5
8715
330
870E
100
AcDbEntity
  8
Dim
 62
     0
370
    -2
100
AcDbBlockReference
  2
_DOT
 10
1019.789983480406
 20
911.881344873168
 30
0.0
 41
9.999389648437498
 42
9.999389648437498
 43
9.999389648437498
 50
270.0
  0
MTEXT
  5
8716
330
870E
100
AcDbEntity
  8
Dim
 62
     0
100
AcDbMText
 10
997.5690920523704
 20
971.881344873168
 30
0.0
 40
24.4326171875
 41
0.0
 46
0.0
 71
     5
 72
     1
  1
\A1;120
  7
ＭＳ ゴシック
 11
0.0
 21
1.0
 31
0.0
 73
     1
 44
1.0
  0
POINT
  5
8717
330
870E
100
AcDbEntity
  8
Defpoints
 62
     0
100
AcDbPoint
 10
898.5008015646172
 20
1031.881344873168
 30
0.0
  0
POINT
  5
8718
330
870E
100
AcDbEntity
  8
Defpoints
 62
     0
100
AcDbPoint
 10
898.5008015646172
 20
911.881344873168
 30
0.0
  0
POINT
  5
8719
330
870E
100
AcDbEntity
  8
Defpoints
 62
     0
100
AcDbPoint
 10
1019.789983480406
 20
911.881344873168
 30
0.0
  0
ENDBLK
  5
8710
330
870E
100
AcDbEntity
  8
0
100
AcDbBlockEnd
  0
BLOCK
  5
871F
330
871E
100
AcDbEntity
  8
0
100
AcDbBlockBegin
  2
*D35
 70
     1
 10
0.0
 20
0.0
 30
0.0
  3
*D35
  1

  0
LINE
  5
8721
330
871E
100
AcDbEntity
  8
Dim
 62
     0
370
    -2
100
AcDbLine
 10
342.3389479451943
 20
2181.563419287978
 30
0.0
 11
342.3389479451943
 21
2231.785048844089
 31
0.0
  0
LINE
  5
8722
330
871E
100
AcDbEntity
  8
Dim
 62
     0
370
    -2
100
AcDbLine
 10
522.3389479451943
 20
2181.563419287979
 30
0.0
 11
522.3389479451943
 21
2231.78504884409
 31
0.0
  0
LINE
  5
8723
330
871E
100
AcDbEntity
  8
Dim
 62
     0
370
    -2
100
AcDbLine
 10
352.3383375936318
 20
2231.785048844089
 30
0.0
 11
512.3395582967568
 21
2231.78504884409
 31
0.0
  0
INSERT
  5
8724
330
871E
100
AcDbEntity
  8
Dim
 62
     0
370
    -2
100
AcDbBlockReference
  2
_DOT
 10
342.3389479451943
 20
2231.785048844089
 30
0.0
 41
9.999389648437498
 42
9.999389648437498
 43
9.999389648437498
 50
180.0000000000001
  0
INSERT
  5
8725
330
871E
100
AcDbEntity
  8
Dim
 62
     0
370
    -2
100
AcDbBlockReference
  2
_DOT
 10
522.3389479451943
 20
2231.78504884409
 30
0.0
 41
9.999389648437498
 42
9.999389648437498
 43
9.999389648437498
 50
0.0000000000001448
  0
MTEXT
  5
8726
330
871E
100
AcDbEntity
  8
Dim
 62
     0
100
AcDbMText
 10
432.3389479451942
 20
2254.005940272125
 30
0.0
 40
24.4326171875
 41
0.0
 46
0.0
 71
     5
 72
     1
  1
\A1;180
  7
ＭＳ ゴシック
 73
     1
 44
1.0
  0
POINT
  5
8727
330
871E
100
AcDbEntity
  8
Defpoints
 62
     0
100
AcDbPoint
 10
342.3389479451943
 20
2156.563419287978
 30
0.0
  0
POINT
  5
8728
330
871E
100
AcDbEntity
  8
Defpoints
 62
     0
100
AcDbPoint
 10
522.3389479451943
 20
2156.563419287979
 30
0.0
  0
POINT
  5
8729
330
871E
100
AcDbEntity
  8
Defpoints
 62
     0
100
AcDbPoint
 10
522.3389479451943
 20
2231.78504884409
 30
0.0
  0
ENDBLK
  5
8720
330
871E
100
AcDbEntity
  8
0
100
AcDbBlockEnd
  0
BLOCK
  5
872F
330
872E
100
AcDbEntity
  8
0
100
AcDbBlockBegin
  2
*D36
 70
     1
 10
0.0
 20
0.0
 30
0.0
  3
*D36
  1

  0
LINE
  5
8731
330
872E
100
AcDbEntity
  8
Dim
 62
     0
370
    -2
100
AcDbLine
 10
1806.44592516151
 20
1053.881344873168
 30
0.0
 11
1806.44592516151
 21
1090.403696003896
 31
0.0
  0
LINE
  5
8732
330
872E
100
AcDbEntity
  8
Dim
 62
     0
370
    -2
100
AcDbLine
 10
1746.44592516151
 20
1053.881344873168
 30
0.0
 11
1746.44592516151
 21
1090.403696003896
 31
0.0
  0
LINE
  5
8733
330
872E
100
AcDbEntity
  8
Dim
 62
     0
370
    -2
100
AcDbLine
 10
1796.446535513072
 20
1090.403696003896
 30
0.0
 11
1756.445314809947
 21
1090.403696003896
 31
0.0
  0
INSERT
  5
8734
330
872E
100
AcDbEntity
  8
Dim
 62
     0
370
    -2
100
AcDbBlockReference
  2
_DOT
 10
1806.44592516151
 20
1090.403696003896
 30
0.0
 41
9.999389648437498
 42
9.999389648437498
 43
9.999389648437498
  0
INSERT
  5
8735
330
872E
100
AcDbEntity
  8
Dim
 62
     0
370
    -2
100
AcDbBlockReference
  2
_DOT
 10
1746.44592516151
 20
1090.403696003896
 30
0.0
 41
9.999389648437498
 42
9.999389648437498
 43
9.999389648437498
 50
180.0
  0
MTEXT
  5
8736
330
872E
100
AcDbEntity
  8
Dim
 62
     0
100
AcDbMText
 10
1776.44592516151
 20
1112.620004597646
 30
0.0
 40
24.4326171875
 41
0.0
 46
0.0
 71
     5
 72
     1
  1
\A1;60
  7
ＭＳ ゴシック
 73
     1
 44
1.0
  0
POINT
  5
8737
330
872E
100
AcDbEntity
  8
Defpoints
 62
     0
100
AcDbPoint
 10
1806.44592516151
 20
1028.881344873168
 30
0.0
  0
POINT
  5
8738
330
872E
100
AcDbEntity
  8
Defpoints
 62
     0
100
AcDbPoint
 10
1746.44592516151
 20
1028.881344873168
 30
0.0
  0
POINT
  5
8739
330
872E
100
AcDbEntity
  8
Defpoints
 62
     0
100
AcDbPoint
 10
1746.44592516151
 20
1090.403696003896
 30
0.0
  0
ENDBLK
  5
8730
330
872E
100
AcDbEntity
  8
0
100
AcDbBlockEnd
  0
BLOCK
  5
873C
330
873B
100
AcDbEntity
  8
0
100
AcDbBlockBegin
  2
*D37
 70
     1
 10
0.0
 20
0.0
 30
0.0
  3
*D37
  1

  0
LINE
  5
873E
330
873B
100
AcDbEntity
  8
Dim
 62
     0
370
    -2
100
AcDbLine
 10
1806.44592516151
 20
899.037939323659
 30
0.0
 11
1806.44592516151
 21
841.2293855462517
 31
0.0
  0
LINE
  5
873F
330
873B
100
AcDbEntity
  8
Dim
 62
     0
370
    -2
100
AcDbLine
 10
1626.44592516151
 20
899.037939323659
 30
0.0
 11
1626.44592516151
 21
841.2293855462517
 31
0.0
  0
LINE
  5
8740
330
873B
100
AcDbEntity
  8
Dim
 62
     0
370
    -2
100
AcDbLine
 10
1796.446535513072
 20
841.2293855462517
 30
0.0
 11
1636.445314809947
 21
841.2293855462517
 31
0.0
  0
INSERT
  5
8741
330
873B
100
AcDbEntity
  8
Dim
 62
     0
370
    -2
100
AcDbBlockReference
  2
_DOT
 10
1806.44592516151
 20
841.2293855462517
 30
0.0
 41
9.999389648437498
 42
9.999389648437498
 43
9.999389648437498
  0
INSERT
  5
8742
330
873B
100
AcDbEntity
  8
Dim
 62
     0
370
    -2
100
AcDbBlockReference
  2
_DOT
 10
1626.44592516151
 20
841.2293855462517
 30
0.0
 41
9.999389648437498
 42
9.999389648437498
 43
9.999389648437498
 50
180.0
  0
MTEXT
  5
8743
330
873B
100
AcDbEntity
  8
Dim
 62
     0
100
AcDbMText
 10
1716.44592516151
 20
863.4502769742872
 30
0.0
 40
24.4326171875
 41
0.0
 46
0.0
 71
     5
 72
     1
  1
\A1;180
  7
ＭＳ ゴシック
 73
     1
 44
1.0
  0
POINT
  5
8744
330
873B
100
AcDbEntity
  8
Defpoints
 62
     0
100
AcDbPoint
 10
1806.44592516151
 20
924.037939323659
 30
0.0
  0
POINT
  5
8745
330
873B
100
AcDbEntity
  8
Defpoints
 62
     0
100
AcDbPoint
 10
1626.44592516151
 20
924.037939323659
 30
0.0
  0
POINT
  5
8746
330
873B
100
AcDbEntity
  8
Defpoints
 62
     0
100
AcDbPoint
 10
1626.44592516151
 20
841.2293855462517
 30
0.0
  0
ENDBLK
  5
873D
330
873B
100
AcDbEntity
  8
0
100
AcDbBlockEnd
  0
BLOCK
  5
874C
330
874B
100
AcDbEntity
  8
0
100
AcDbBlockBegin
  2
*D38
 70
     1
 10
0.0
 20
0.0
 30
0.0
  3
*D38
  1

  0
LINE
  5
874E
330
874B
100
AcDbEntity
  8
Dim
 62
     0
370
    -2
100
AcDbLine
 10
1649.709684793121
 20
1032.013151838547
 30
0.0
 11
1626.445925161508
 21
1032.013151838547
 31
0.0
  0
LINE
  5
874F
330
874B
100
AcDbEntity
  8
Dim
 62
     0
370
    -2
100
AcDbLine
 10
1649.709684793121
 20
942.013151838547
 30
0.0
 11
1626.445925161508
 21
942.013151838547
 31
0.0
  0
LINE
  5
8750
330
874B
100
AcDbEntity
  8
Dim
 62
     0
370
    -2
100
AcDbLine
 10
1626.445925161508
 20
1032.013151838547
 30
0.0
 11
1626.445925161508
 21
1190.042064353104
 31
0.0
  0
LINE
  5
8751
330
874B
100
AcDbEntity
  8
Dim
 62
     0
370
    -2
100
AcDbLine
 10
1626.445925161508
 20
1032.013151838547
 30
0.0
 11
1626.445925161508
 21
942.013151838547
 31
0.0
  0
LINE
  5
8752
330
874B
100
AcDbEntity
  8
Dim
 62
     0
370
    -2
100
AcDbLine
 10
1626.445925161508
 20
1042.012541486984
 30
0.0
 11
1626.445925161508
 21
1052.011931135422
 31
0.0
  0
LINE
  5
8753
330
874B
100
AcDbEntity
  8
Dim
 62
     0
370
    -2
100
AcDbLine
 10
1626.445925161508
 20
932.0137621901094
 30
0.0
 11
1626.445925161508
 21
922.014372541672
 31
0.0
  0
INSERT
  5
8754
330
874B
100
AcDbEntity
  8
Dim
 62
     0
370
    -2
100
AcDbBlockReference
  2
_DOT
 10
1626.445925161508
 20
1032.013151838547
 30
0.0
 41
9.999389648437498
 42
9.999389648437498
 43
9.999389648437498
 50
270.0
  0
INSERT
  5
8755
330
874B
100
AcDbEntity
  8
Dim
 62
     0
370
    -2
100
AcDbBlockReference
  2
_DOT
 10
1626.445925161508
 20
942.013151838547
 30
0.0
 41
9.999389648437498
 42
9.999389648437498
 43
9.999389648437498
 50
90.0
  0
MTEXT
  5
8756
330
874B
100
AcDbEntity
  8
Dim
 62
     0
100
AcDbMText
 10
1602.18414486499
 20
1121.026997744263
 30
0.0
 40
24.4326171875
 41
0.0
 46
0.0
 71
     5
 72
     1
  1
\A1;90(深さ)
  7
ＭＳ ゴシック
 11
0.0
 21
1.0
 31
0.0
 73
     1
 44
1.0
  0
POINT
  5
8757
330
874B
100
AcDbEntity
  8
Defpoints
 62
     0
100
AcDbPoint
 10
1624.709684793121
 20
1032.013151838547
 30
0.0
  0
POINT
  5
8758
330
874B
100
AcDbEntity
  8
Defpoints
 62
     0
100
AcDbPoint
 10
1624.709684793121
 20
942.013151838547
 30
0.0
  0
POINT
  5
8759
330
874B
100
AcDbEntity
  8
Defpoints
 62
     0
100
AcDbPoint
 10
1626.445925161508
 20
942.013151838547
 30
0.0
  0
ENDBLK
  5
874D
330
874B
100
AcDbEntity
  8
0
100
AcDbBlockEnd
  0
BLOCK
  5
87BD
330
87BC
100
AcDbEntity
  8
0
100
AcDbBlockBegin
  2
*D39
 70
     1
 10
0.0
 20
0.0
 30
0.0
  3
*D39
  1

  0
LINE
  5
87BE
330
87BC
100
AcDbEntity
  8
Dim
 62
     0
370
    -2
100
AcDbLine
 10
250.6255760706483
 20
418.3500139391722
 30
0.0
 11
339.6472225791117
 21
418.3500139391722
 31
0.0
  0
LINE
  5
87BF
330
87BC
100
AcDbEntity
  8
Dim
 62
     0
370
    -2
100
AcDbLine
 10
149.9996948242188
 20
393.3500139391722
 30
0.0
 11
339.6472225791117
 21
393.3500139391722
 31
0.0
  0
LINE
  5
87C0
330
87BC
100
AcDbEntity
  8
Dim
 62
     0
370
    -2
100
AcDbLine
 10
339.6472225791117
 20
418.3500139391722
 30
0.0
 11
339.6472225791117
 21
486.7501449148017
 31
0.0
  0
LINE
  5
87C1
330
87BC
100
AcDbEntity
  8
Dim
 62
     0
370
    -2
100
AcDbLine
 10
339.6472225791117
 20
418.3500139391722
 30
0.0
 11
339.6472225791117
 21
393.3500139391722
 31
0.0
  0
LINE
  5
87C2
330
87BC
100
AcDbEntity
  8
Dim
 62
     0
370
    -2
100
AcDbLine
 10
339.6472225791117
 20
428.3494035876097
 30
0.0
 11
339.6472225791117
 21
438.3487932360472
 31
0.0
  0
LINE
  5
87C3
330
87BC
100
AcDbEntity
  8
Dim
 62
     0
370
    -2
100
AcDbLine
 10
339.6472225791117
 20
383.3506242907347
 30
0.0
 11
339.6472225791117
 21
373.3512346422972
 31
0.0
  0
INSERT
  5
87C4
330
87BC
100
AcDbEntity
  8
Dim
 62
     0
370
    -2
100
AcDbBlockReference
  2
_DOT
 10
339.6472225791117
 20
418.3500139391722
 30
0.0
 41
9.999389648437498
 42
9.999389648437498
 43
9.999389648437498
 50
270.0
  0
INSERT
  5
87C5
330
87BC
100
AcDbEntity
  8
Dim
 62
     0
370
    -2
100
AcDbBlockReference
  2
_DOT
 10
339.6472225791117
 20
393.3500139391722
 30
0.0
 41
9.999389648437498
 42
9.999389648437498
 43
9.999389648437498
 50
90.0
  0
MTEXT
  5
87C6
330
87BC
100
AcDbEntity
  8
Dim
 62
     0
100
AcDbMText
 10
317.4263311510762
 20
462.5494690754244
 30
0.0
 40
24.4326171875
 41
0.0
 46
0.0
 71
     5
 72
     1
  1
\A1;25
  7
ＭＳ ゴシック
 11
0.0
 21
1.0
 31
0.0
 73
     1
 44
1.0
  0
POINT
  5
87C7
330
87BC
100
AcDbEntity
  8
Defpoints
 62
     0
100
AcDbPoint
 10
225.6255760706483
 20
418.3500139391722
 30
0.0
  0
POINT
  5
87C8
330
87BC
100
AcDbEntity
  8
Defpoints
 62
     0
100
AcDbPoint
 10
124.9996948242188
 20
393.3500139391722
 30
0.0
  0
POINT
  5
87C9
330
87BC
100
AcDbEntity
  8
Defpoints
 62
     0
100
AcDbPoint
 10
339.6472225791117
 20
393.3500139391722
 30
0.0
  0
ENDBLK
  5
87CA
330
87BC
100
AcDbEntity
  8
0
100
AcDbBlockEnd
  0
BLOCK
  5
87CF
330
87CE
100
AcDbEntity
  8
0
100
AcDbBlockBegin
  2
*D40
 70
     1
 10
0.0
 20
0.0
 30
0.0
  3
*D40
  1

  0
LINE
  5
87D0
330
87CE
100
AcDbEntity
  8
Dim
 62
     0
370
    -2
100
AcDbLine
 10
149.9996948242188
 20
393.3500139391722
 30
0.0
 11
339.6472225791117
 21
393.3500139391722
 31
0.0
  0
LINE
  5
87D1
330
87CE
100
AcDbEntity
  8
Dim
 62
     0
370
    -2
100
AcDbLine
 10
149.9996948242188
 20
173.3500139391722
 30
0.0
 11
339.6472225791117
 21
173.3500139391722
 31
0.0
  0
LINE
  5
87D2
330
87CE
100
AcDbEntity
  8
Dim
 62
     0
370
    -2
100
AcDbLine
 10
339.6472225791117
 20
383.3506242907347
 30
0.0
 11
339.6472225791117
 21
183.3494035876097
 31
0.0
  0
INSERT
  5
87D3
330
87CE
100
AcDbEntity
  8
Dim
 62
     0
370
    -2
100
AcDbBlockReference
  2
_DOT
 10
339.6472225791117
 20
393.3500139391722
 30
0.0
 41
9.999389648437498
 42
9.999389648437498
 43
9.999389648437498
 50
90.0
  0
INSERT
  5
87D4
330
87CE
100
AcDbEntity
  8
Dim
 62
     0
370
    -2
100
AcDbBlockReference
  2
_DOT
 10
339.6472225791117
 20
173.3500139391722
 30
0.0
 41
9.999389648437498
 42
9.999389648437498
 43
9.999389648437498
 50
270.0
  0
MTEXT
  5
87D5
330
87CE
100
AcDbEntity
  8
Dim
 62
     0
100
AcDbMText
 10
317.4263311510762
 20
283.3500139391722
 30
0.0
 40
24.4326171875
 41
0.0
 46
0.0
 71
     5
 72
     1
  1
\A1;220
  7
ＭＳ ゴシック
 11
0.0
 21
1.0
 31
0.0
 73
     1
 44
1.0
  0
POINT
  5
87D6
330
87CE
100
AcDbEntity
  8
Defpoints
 62
     0
100
AcDbPoint
 10
124.9996948242188
 20
393.3500139391722
 30
0.0
  0
POINT
  5
87D7
330
87CE
100
AcDbEntity
  8
Defpoints
 62
     0
100
AcDbPoint
 10
124.9996948242188
 20
173.3500139391722
 30
0.0
  0
POINT
  5
87D8
330
87CE
100
AcDbEntity
  8
Defpoints
 62
     0
100
AcDbPoint
 10
339.6472225791117
 20
173.3500139391722
 30
0.0
  0
ENDBLK
  5
87D9
330
87CE
100
AcDbEntity
  8
0
100
AcDbBlockEnd
  0
BLOCK
  5
87DE
330
87DD
100
AcDbEntity
  8
0
100
AcDbBlockBegin
  2
*D41
 70
     1
 10
0.0
 20
0.0
 30
0.0
  3
*D41
  1

  0
LINE
  5
87DF
330
87DD
100
AcDbEntity
  8
Dim
 62
     0
370
    -2
100
AcDbLine
 10
124.9996948242188
 20
148.3500139391722
 30
0.0
 11
124.9996948242188
 21
4.99969482421875
 31
0.0
  0
LINE
  5
87E0
330
87DD
100
AcDbEntity
  8
Dim
 62
     0
370
    -2
100
AcDbLine
 10
4.99969482421875
 20
148.3500139391724
 30
0.0
 11
4.99969482421875
 21
4.99969482421875
 31
0.0
  0
LINE
  5
87E1
330
87DD
100
AcDbEntity
  8
Dim
 62
     0
370
    -2
100
AcDbLine
 10
115.0003051757812
 20
4.99969482421875
 30
0.0
 11
14.99908447265625
 21
4.99969482421875
 31
0.0
  0
INSERT
  5
87E2
330
87DD
100
AcDbEntity
  8
Dim
 62
     0
370
    -2
100
AcDbBlockReference
  2
_DOT
 10
124.9996948242188
 20
4.99969482421875
 30
0.0
 41
9.999389648437498
 42
9.999389648437498
 43
9.999389648437498
  0
INSERT
  5
87E3
330
87DD
100
AcDbEntity
  8
Dim
 62
     0
370
    -2
100
AcDbBlockReference
  2
_DOT
 10
4.99969482421875
 20
4.99969482421875
 30
0.0
 41
9.999389648437498
 42
9.999389648437498
 43
9.999389648437498
 50
180.0
  0
MTEXT
  5
87E4
330
87DD
100
AcDbEntity
  8
Dim
 62
     0
100
AcDbMText
 10
64.99969482421875
 20
27.22058625225426
 30
0.0
 40
24.4326171875
 41
0.0
 46
0.0
 71
     5
 72
     1
  1
\A1;120
  7
ＭＳ ゴシック
 73
     1
 44
1.0
  0
POINT
  5
87E5
330
87DD
100
AcDbEntity
  8
Defpoints
 62
     0
100
AcDbPoint
 10
124.9996948242188
 20
173.3500139391722
 30
0.0
  0
POINT
  5
87E6
330
87DD
100
AcDbEntity
  8
Defpoints
 62
     0
100
AcDbPoint
 10
4.99969482421875
 20
173.3500139391724
 30
0.0
  0
POINT
  5
87E7
330
87DD
100
AcDbEntity
  8
Defpoints
 62
     0
100
AcDbPoint
 10
4.99969482421875
 20
4.99969482421875
 30
0.0
  0
ENDBLK
  5
87E8
330
87DD
100
AcDbEntity
  8
0
100
AcDbBlockEnd
  0
BLOCK
  5
87FB
330
87FA
100
AcDbEntity
  8
0
100
AcDbBlockBegin
  2
*D42
 70
     1
 10
0.0
 20
0.0
 30
0.0
  3
*D42
  1

  0
LINE
  5
87FD
330
87FA
100
AcDbEntity
  8
Dim
 62
     0
370
    -2
100
AcDbLine
 10
1594.446218136567
 20
2166.215179553531
 30
0.0
 11
1683.467864645031
 21
2166.215179553531
 31
0.0
  0
LINE
  5
87FE
330
87FA
100
AcDbEntity
  8
Dim
 62
     0
370
    -2
100
AcDbLine
 10
1493.820336890138
 20
2141.215179553531
 30
0.0
 11
1683.467864645031
 21
2141.215179553531
 31
0.0
  0
LINE
  5
87FF
330
87FA
100
AcDbEntity
  8
Dim
 62
     0
370
    -2
100
AcDbLine
 10
1683.467864645031
 20
2166.215179553531
 30
0.0
 11
1683.467864645031
 21
2234.615310529161
 31
0.0
  0
LINE
  5
8800
330
87FA
100
AcDbEntity
  8
Dim
 62
     0
370
    -2
100
AcDbLine
 10
1683.467864645031
 20
2166.215179553531
 30
0.0
 11
1683.467864645031
 21
2141.215179553531
 31
0.0
  0
LINE
  5
8801
330
87FA
100
AcDbEntity
  8
Dim
 62
     0
370
    -2
100
AcDbLine
 10
1683.467864645031
 20
2176.214569201969
 30
0.0
 11
1683.467864645031
 21
2186.213958850406
 31
0.0
  0
LINE
  5
8802
330
87FA
100
AcDbEntity
  8
Dim
 62
     0
370
    -2
100
AcDbLine
 10
1683.467864645031
 20
2131.215789905094
 30
0.0
 11
1683.467864645031
 21
2121.216400256656
 31
0.0
  0
INSERT
  5
8803
330
87FA
100
AcDbEntity
  8
Dim
 62
     0
370
    -2
100
AcDbBlockReference
  2
_DOT
 10
1683.467864645031
 20
2166.215179553531
 30
0.0
 41
9.999389648437498
 42
9.999389648437498
 43
9.999389648437498
 50
270.0
  0
INSERT
  5
8804
330
87FA
100
AcDbEntity
  8
Dim
 62
     0
370
    -2
100
AcDbBlockReference
  2
_DOT
 10
1683.467864645031
 20
2141.215179553531
 30
0.0
 41
9.999389648437498
 42
9.999389648437498
 43
9.999389648437498
 50
90.0
  0
MTEXT
  5
8805
330
87FA
100
AcDbEntity
  8
Dim
 62
     0
100
AcDbMText
 10
1661.246973216995
 20
2210.414634689784
 30
0.0
 40
24.4326171875
 41
0.0
 46
0.0
 71
     5
 72
     1
  1
\A1;25
  7
ＭＳ ゴシック
 11
0.0
 21
1.0
 31
0.0
 73
     1
 44
1.0
  0
POINT
  5
8806
330
87FA
100
AcDbEntity
  8
Defpoints
 62
     0
100
AcDbPoint
 10
1569.446218136567
 20
2166.215179553531
 30
0.0
  0
POINT
  5
8807
330
87FA
100
AcDbEntity
  8
Defpoints
 62
     0
100
AcDbPoint
 10
1468.820336890138
 20
2141.215179553531
 30
0.0
  0
POINT
  5
8808
330
87FA
100
AcDbEntity
  8
Defpoints
 62
     0
100
AcDbPoint
 10
1683.467864645031
 20
2141.215179553531
 30
0.0
  0
ENDBLK
  5
87FC
330
87FA
100
AcDbEntity
  8
0
100
AcDbBlockEnd
  0
BLOCK
  5
880A
330
8809
100
AcDbEntity
  8
0
100
AcDbBlockBegin
  2
*D43
 70
     1
 10
0.0
 20
0.0
 30
0.0
  3
*D43
  1

  0
LINE
  5
880C
330
8809
100
AcDbEntity
  8
Dim
 62
     0
370
    -2
100
AcDbLine
 10
1493.820336890138
 20
2141.215179553531
 30
0.0
 11
1683.467864645031
 21
2141.215179553531
 31
0.0
  0
LINE
  5
880D
330
8809
100
AcDbEntity
  8
Dim
 62
     0
370
    -2
100
AcDbLine
 10
1493.820336890138
 20
1921.215179553532
 30
0.0
 11
1683.467864645031
 21
1921.215179553532
 31
0.0
  0
LINE
  5
880E
330
8809
100
AcDbEntity
  8
Dim
 62
     0
370
    -2
100
AcDbLine
 10
1683.467864645031
 20
2131.215789905094
 30
0.0
 11
1683.467864645031
 21
1931.214569201969
 31
0.0
  0
INSERT
  5
880F
330
8809
100
AcDbEntity
  8
Dim
 62
     0
370
    -2
100
AcDbBlockReference
  2
_DOT
 10
1683.467864645031
 20
2141.215179553531
 30
0.0
 41
9.999389648437498
 42
9.999389648437498
 43
9.999389648437498
 50
90.0
  0
INSERT
  5
8810
330
8809
100
AcDbEntity
  8
Dim
 62
     0
370
    -2
100
AcDbBlockReference
  2
_DOT
 10
1683.467864645031
 20
1921.215179553532
 30
0.0
 41
9.999389648437498
 42
9.999389648437498
 43
9.999389648437498
 50
270.0
  0
MTEXT
  5
8811
330
8809
100
AcDbEntity
  8
Dim
 62
     0
100
AcDbMText
 10
1661.246973216995
 20
2031.215179553531
 30
0.0
 40
24.4326171875
 41
0.0
 46
0.0
 71
     5
 72
     1
  1
\A1;220
  7
ＭＳ ゴシック
 11
0.0
 21
1.0
 31
0.0
 73
     1
 44
1.0
  0
POINT
  5
8812
330
8809
100
AcDbEntity
  8
Defpoints
 62
     0
100
AcDbPoint
 10
1468.820336890138
 20
2141.215179553531
 30
0.0
  0
POINT
  5
8813
330
8809
100
AcDbEntity
  8
Defpoints
 62
     0
100
AcDbPoint
 10
1468.820336890138
 20
1921.215179553532
 30
0.0
  0
POINT
  5
8814
330
8809
100
AcDbEntity
  8
Defpoints
 62
     0
100
AcDbPoint
 10
1683.467864645031
 20
1921.215179553532
 30
0.0
  0
ENDBLK
  5
880B
330
8809
100
AcDbEntity
  8
0
100
AcDbBlockEnd
  0
BLOCK
  5
8816
330
8815
100
AcDbEntity
  8
0
100
AcDbBlockBegin
  2
*D44
 70
     1
 10
0.0
 20
0.0
 30
0.0
  3
*D44
  1

  0
LINE
  5
8818
330
8815
100
AcDbEntity
  8
Dim
 62
     0
370
    -2
100
AcDbLine
 10
1468.820336890138
 20
1896.215179553532
 30
0.0
 11
1468.820336890138
 21
1752.864860438578
 31
0.0
  0
LINE
  5
8819
330
8815
100
AcDbEntity
  8
Dim
 62
     0
370
    -2
100
AcDbLine
 10
1348.820336890138
 20
1896.215179553532
 30
0.0
 11
1348.820336890138
 21
1752.864860438578
 31
0.0
  0
LINE
  5
881A
330
8815
100
AcDbEntity
  8
Dim
 62
     0
370
    -2
100
AcDbLine
 10
1458.8209472417
 20
1752.864860438578
 30
0.0
 11
1358.819726538575
 21
1752.864860438578
 31
0.0
  0
INSERT
  5
881B
330
8815
100
AcDbEntity
  8
Dim
 62
     0
370
    -2
100
AcDbBlockReference
  2
_DOT
 10
1468.820336890138
 20
1752.864860438578
 30
0.0
 41
9.999389648437498
 42
9.999389648437498
 43
9.999389648437498
  0
INSERT
  5
881C
330
8815
100
AcDbEntity
  8
Dim
 62
     0
370
    -2
100
AcDbBlockReference
  2
_DOT
 10
1348.820336890138
 20
1752.864860438578
 30
0.0
 41
9.999389648437498
 42
9.999389648437498
 43
9.999389648437498
 50
180.0
  0
MTEXT
  5
881D
330
8815
100
AcDbEntity
  8
Dim
 62
     0
100
AcDbMText
 10
1408.820336890138
 20
1775.085751866614
 30
0.0
 40
24.4326171875
 41
0.0
 46
0.0
 71
     5
 72
     1
  1
\A1;120
  7
ＭＳ ゴシック
 73
     1
 44
1.0
  0
POINT
  5
881E
330
8815
100
AcDbEntity
  8
Defpoints
 62
     0
100
AcDbPoint
 10
1468.820336890138
 20
1921.215179553532
 30
0.0
  0
POINT
  5
881F
330
8815
100
AcDbEntity
  8
Defpoints
 62
     0
100
AcDbPoint
 10
1348.820336890138
 20
1921.215179553532
 30
0.0
  0
POINT
  5
8820
330
8815
100
AcDbEntity
  8
Defpoints
 62
     0
100
AcDbPoint
 10
1348.820336890138
 20
1752.864860438578
 30
0.0
  0
ENDBLK
  5
8817
330
8815
100
AcDbEntity
  8
0
100
AcDbBlockEnd
  0
BLOCK
  5
882D
330
882C
100
AcDbEntity
  8
0
100
AcDbBlockBegin
  2
*D45
 70
     1
 10
0.0
 20
0.0
 30
0.0
  3
*D45
  1

  0
LINE
  5
882F
330
882C
100
AcDbEntity
  8
Dim
 62
     0
370
    -2
100
AcDbLine
 10
1203.884348025264
 20
2166.215179553532
 30
0.0
 11
1134.172809135245
 21
2166.215179553533
 31
0.0
  0
LINE
  5
8830
330
882C
100
AcDbEntity
  8
Dim
 62
     0
370
    -2
100
AcDbLine
 10
1323.820336890138
 20
2141.215179553532
 30
0.0
 11
1134.172809135245
 21
2141.215179553533
 31
0.0
  0
LINE
  5
8831
330
882C
100
AcDbEntity
  8
Dim
 62
     0
370
    -2
100
AcDbLine
 10
1134.172809135245
 20
2166.215179553533
 30
0.0
 11
1134.172809135245
 21
2234.615310529162
 31
0.0
  0
LINE
  5
8832
330
882C
100
AcDbEntity
  8
Dim
 62
     0
370
    -2
100
AcDbLine
 10
1134.172809135245
 20
2166.215179553533
 30
0.0
 11
1134.172809135245
 21
2141.215179553533
 31
0.0
  0
LINE
  5
8833
330
882C
100
AcDbEntity
  8
Dim
 62
     0
370
    -2
100
AcDbLine
 10
1134.172809135245
 20
2176.21456920197
 30
0.0
 11
1134.172809135245
 21
2186.213958850408
 31
0.0
  0
LINE
  5
8834
330
882C
100
AcDbEntity
  8
Dim
 62
     0
370
    -2
100
AcDbLine
 10
1134.172809135245
 20
2131.215789905095
 30
0.0
 11
1134.172809135245
 21
2121.216400256658
 31
0.0
  0
INSERT
  5
8835
330
882C
100
AcDbEntity
  8
Dim
 62
     0
370
    -2
100
AcDbBlockReference
  2
_DOT
 10
1134.172809135245
 20
2166.215179553533
 30
0.0
 41
9.999389648437498
 42
9.999389648437498
 43
9.999389648437498
 50
270.0
  0
INSERT
  5
8836
330
882C
100
AcDbEntity
  8
Dim
 62
     0
370
    -2
100
AcDbBlockReference
  2
_DOT
 10
1134.172809135245
 20
2141.215179553533
 30
0.0
 41
9.999389648437498
 42
9.999389648437498
 43
9.999389648437498
 50
90.0
  0
MTEXT
  5
8837
330
882C
100
AcDbEntity
  8
Dim
 62
     0
100
AcDbMText
 10
1111.95191770721
 20
2210.414634689785
 30
0.0
 40
24.4326171875
 41
0.0
 46
0.0
 71
     5
 72
     1
  1
\A1;25
  7
ＭＳ ゴシック
 11
0.0
 21
1.0
 31
0.0
 73
     1
 44
1.0
  0
POINT
  5
8838
330
882C
100
AcDbEntity
  8
Defpoints
 62
     0
100
AcDbPoint
 10
1228.884348025264
 20
2166.215179553532
 30
0.0
  0
POINT
  5
8839
330
882C
100
AcDbEntity
  8
Defpoints
 62
     0
100
AcDbPoint
 10
1348.820336890138
 20
2141.215179553532
 30
0.0
  0
POINT
  5
883A
330
882C
100
AcDbEntity
  8
Defpoints
 62
     0
100
AcDbPoint
 10
1134.172809135245
 20
2141.215179553533
 30
0.0
  0
ENDBLK
  5
882E
330
882C
100
AcDbEntity
  8
0
100
AcDbBlockEnd
  0
BLOCK
  5
883C
330
883B
100
AcDbEntity
  8
0
100
AcDbBlockBegin
  2
*D46
 70
     1
 10
0.0
 20
0.0
 30
0.0
  3
*D46
  1

  0
LINE
  5
883E
330
883B
100
AcDbEntity
  8
Dim
 62
     0
370
    -2
100
AcDbLine
 10
1323.820336890138
 20
2141.215179553532
 30
0.0
 11
1134.172809135245
 21
2141.215179553533
 31
0.0
  0
LINE
  5
883F
330
883B
100
AcDbEntity
  8
Dim
 62
     0
370
    -2
100
AcDbLine
 10
1323.820336890137
 20
1921.215179553532
 30
0.0
 11
1134.172809135244
 21
1921.215179553533
 31
0.0
  0
LINE
  5
8840
330
883B
100
AcDbEntity
  8
Dim
 62
     0
370
    -2
100
AcDbLine
 10
1134.172809135245
 20
2131.215789905095
 30
0.0
 11
1134.172809135244
 21
1931.214569201971
 31
0.0
  0
INSERT
  5
8841
330
883B
100
AcDbEntity
  8
Dim
 62
     0
370
    -2
100
AcDbBlockReference
  2
_DOT
 10
1134.172809135245
 20
2141.215179553533
 30
0.0
 41
9.999389648437498
 42
9.999389648437498
 43
9.999389648437498
 50
89.99999999999977
  0
INSERT
  5
8842
330
883B
100
AcDbEntity
  8
Dim
 62
     0
370
    -2
100
AcDbBlockReference
  2
_DOT
 10
1134.172809135244
 20
1921.215179553533
 30
0.0
 41
9.999389648437498
 42
9.999389648437498
 43
9.999389648437498
 50
269.9999999999998
  0
MTEXT
  5
8843
330
883B
100
AcDbEntity
  8
Dim
 62
     0
100
AcDbMText
 10
1111.951917707209
 20
2031.215179553533
 30
0.0
 40
24.4326171875
 41
0.0
 46
0.0
 71
     5
 72
     1
  1
\A1;220
  7
ＭＳ ゴシック
 11
4.134066826240587E-15
 21
1.0
 31
0.0
 73
     1
 44
1.0
  0
POINT
  5
8844
330
883B
100
AcDbEntity
  8
Defpoints
 62
     0
100
AcDbPoint
 10
1348.820336890138
 20
2141.215179553532
 30
0.0
  0
POINT
  5
8845
330
883B
100
AcDbEntity
  8
Defpoints
 62
     0
100
AcDbPoint
 10
1348.820336890137
 20
1921.215179553532
 30
0.0
  0
POINT
  5
8846
330
883B
100
AcDbEntity
  8
Defpoints
 62
     0
100
AcDbPoint
 10
1134.172809135244
 20
1921.215179553533
 30
0.0
  0
ENDBLK
  5
883D
330
883B
100
AcDbEntity
  8
0
100
AcDbBlockEnd
  0
ENDSEC
  0
SECTION
  2
ENTITIES
  0
MTEXT
  5
177
330
A
100
AcDbEntity
  8
template
390
1D
100
AcDbMText
 10
82.00000000048226
 20
348.023957835319
 30
0.0
 40
16.28841145833333
 41
0.0
 46
0.0
 71
     1
 72
     1
  1
品名
  7
ＭＳ ゴシック
 73
     1
 44
0.7828267384257843
  0
MTEXT
  5
178
330
A
100
AcDbEntity
  8
template
390
1D
100
AcDbMText
 10
82.00000000048226
 20
263.0239578353188
 30
0.0
 40
16.28841145833333
 41
0.0
 46
0.0
 71
     1
 72
     1
  1
仕様
  7
ＭＳ ゴシック
 73
     1
 44
0.7828267384257843
  0
LINE
  5
179
330
A
100
AcDbEntity
  8
template
390
1D
100
AcDbLine
 10
2025.0
 20
271.4388797103189
 30
0.0
 11
75.00000000000023
 21
271.4388797103189
 31
0.0
  0
LWPOLYLINE
  5
17A
330
A
100
AcDbEntity
  8
template
390
1D
100
AcDbPolyline
 90
        5
 70
   128
 43
0.0
 10
2025.0
 20
2901.438879710319
 10
75.00000000000023
 20
2901.438879710319
 10
75.00000000000023
 20
101.4388797103188
 10
2025.0
 20
101.4388797103188
 10
2025.0
 20
2901.438879710319
  0
LINE
  5
17B
330
A
100
AcDbEntity
  8
template
390
1D
100
AcDbLine
 10
2025.0
 20
356.4388797103188
 30
0.0
 11
75.00000000000023
 21
356.4388797103188
 31
0.0
  0
LINE
  5
17C
330
A
100
AcDbEntity
  8
template
390
1D
100
AcDbLine
 10
2025.000000000482
 20
186.4388797103189
 30
0.0
 11
1272.000000000482
 21
186.4388797103189
 31
0.0
  0
MTEXT
  5
17E
330
A
100
AcDbEntity
  8
template
390
1D
100
AcDbMText
 10
1301.871406252743
 20
156.5284852370108
 30
0.0
 40
24.4326171875
 41
0.0
 46
0.0
 71
     1
 72
     1
  1
大洋金物株式会社 ティーフォルム事業部
  7
ＭＳ ゴシック
 73
     1
 44
0.7828267384257843
  0
MTEXT
  5
180
330
A
100
AcDbEntity
  8
template
390
1D
100
AcDbMText
 10
1834.000000000742
 20
234.4414968978188
 30
0.0
 40
24.4326171875
 41
0.0
 46
0.0
 71
     1
 72
     1
  1
1:10
  7
ＭＳ ゴシック
 73
     1
 44
0.7828267384257843
  0
MTEXT
  5
181
330
A
100
AcDbEntity
  8
template
390
1D
100
AcDbMText
 10
1781.000000000742
 20
263.0239578353188
 30
0.0
 40
16.28841145833333
 41
0.0
 46
0.0
 71
     1
 72
     1
  1
縮尺
  7
ＭＳ ゴシック
 73
     1
 44
0.7828267384257843
  0
LINE
  5
182
330
A
100
AcDbEntity
  8
template
390
1D
100
AcDbLine
 10
1774.000000000742
 20
186.4388797103189
 30
0.0
 11
1774.000000000742
 21
271.4388797103189
 31
0.0
  0
MTEXT
  5
183
330
A
100
AcDbEntity
  8
template
390
1D
100
AcDbMText
 10
1530.000000000742
 20
263.0239578353188
 30
0.0
 40
16.28841145833333
 41
0.0
 46
0.0
 71
     1
 72
     1
  1
容量
  7
ＭＳ ゴシック
 73
     1
 44
0.7828267384257843
  0
LINE
  5
184
330
A
100
AcDbEntity
  8
template
390
1D
100
AcDbLine
 10
1523.000000000742
 20
186.4388797103189
 30
0.0
 11
1523.000000000742
 21
271.4388797103189
 31
0.0
  0
MTEXT
  5
185
330
A
100
AcDbEntity
  8
template
390
1D
100
AcDbMText
 10
1279.000000000742
 20
348.023957835319
 30
0.0
 40
16.28841145833333
 41
0.0
 46
0.0
 71
     1
 72
     1
  1
品番
  7
ＭＳ ゴシック
 73
     1
 44
0.7828267384257843
  0
MTEXT
  5
186
330
A
100
AcDbEntity
  8
template
390
1D
100
AcDbMText
 10
1279.000000000742
 20
263.0239578353188
 30
0.0
 40
16.28841145833333
 41
0.0
 46
0.0
 71
     1
 72
     1
  1
重量
  7
ＭＳ ゴシック
 73
     1
 44
0.7828267384257843
  0
MTEXT
  5
187
330
A
100
AcDbEntity
  8
template
390
1D
100
AcDbMText
 10
1332.000000000742
 20
319.4414968978188
 30
0.0
 40
24.4326171875
 41
0.0
 46
24.4326171875
 71
     1
 72
     1
  1
{ADF70-0627-001}
  7
ＭＳ ゴシック
 73
     1
 44
0.7828267384257843
1001
ACAD
1000
ACAD_MTEXT_DEFINED_HEIGHT_BEGIN
1070
    46
1040
24.4326171875
1000
ACAD_MTEXT_DEFINED_HEIGHT_END
  0
LINE
  5
188
330
A
100
AcDbEntity
  8
template
390
1D
100
AcDbLine
 10
1272.000000000742
 20
101.4388797103188
 30
0.0
 11
1272.000000000742
 21
356.4388797103188
 31
0.0
  0
MTEXT
  5
189
330
A
100
AcDbEntity
  8
template
390
1D
100
AcDbMText
 10
135.0000000004822
 20
319.4414968978188
 30
0.0
 40
24.4326171875
 41
0.0
 46
27.53672361022102
 71
     1
 72
     1
  1
{手洗器 -CATALANO, Verso-}
  7
ＭＳ ゴシック
 73
     1
 44
0.7828267384257843
1001
ACAD
1000
ACAD_MTEXT_DEFINED_HEIGHT_BEGIN
1070
    46
1040
27.53672361022102
1000
ACAD_MTEXT_DEFINED_HEIGHT_END
  0
MTEXT
  5
18A
330
A
100
AcDbEntity
  8
template
390
1D
100
AcDbMText
 10
135.0000000004823
 20
234.4414968978188
 30
0.0
 40
24.4326171875
 41
0.0
 46
69.00885866868045
 71
     1
 72
     1
  1
{壁掛け、カウンター置き/オーバーフロー無し/\fＭＳ ゴシック|b0|i0|c1|p0;^Z^Z壁取付ボルト付属/^Z^Z\fＭＳ ゴシック|b0|i0|c0|p0;\P陶器/ホワイト}
  7
ＭＳ ゴシック
 73
     1
 44
0.9822934569727008
1001
ACAD
1000
ACAD_MTEXT_DEFINED_HEIGHT_BEGIN
1070
    46
1040
69.00885866868045
1000
ACAD_MTEXT_DEFINED_HEIGHT_END
  0
MTEXT
  5
1A6
330
A
100
AcDbEntity
  8
template
390
1D
100
AcDbMText
 10
1332.000000000742
 20
234.4414968978188
 30
0.0
 40
24.4326171875
 41
0.0
 46
28.40135167875453
 71
     1
 72
     1
  1
{14kg}
  7
ＭＳ ゴシック
 73
     1
 44
0.7828267384257843
1001
ACAD
1000
ACAD_MTEXT_DEFINED_HEIGHT_BEGIN
1070
    46
1040
28.40135167875453
1000
ACAD_MTEXT_DEFINED_HEIGHT_END
  0
MTEXT
  5
374
330
A
100
AcDbEntity
  8
template
390
1D
100
AcDbMText
 10
1581.992122669024
 20
234.4414968978188
 30
0.0
 40
24.4326171875
 41
0.0
 46
24.4326171875
 71
     1
 72
     1
  1
{4.5L}
  7
ＭＳ ゴシック
 73
     1
 44
0.7828267384257843
1001
ACAD
1000
ACAD_MTEXT_DEFINED_HEIGHT_BEGIN
1070
    46
1040
24.4326171875
1000
ACAD_MTEXT_DEFINED_HEIGHT_END
  0
INSERT
  5
3D0
330
A
100
AcDbEntity
  8
template
100
AcDbBlockReference
  2
名称未設定-1
 10
1873.559250554905
 20
30.23897196054438
 30
0.0
 41
0.7619999999999999
 42
0.7619999999999999
 43
0.7619999999999999
  0
MTEXT
  5
BDB
102
{ACAD_XDICTIONARY
360
BDC
102
}
330
A
100
AcDbEntity
  8
template
  6
Continuous
100
AcDbMText
 10
78.95663872901252
 20
86.10730750352229
 30
0.0
 40
23.0
 41
0.0
 46
23.0
 71
     1
 72
     1
  1
{20210823N}
  7
ＭＳ ゴシック
 73
     1
 44
1.0
1001
ACAD
1000
ACAD_MTEXT_DEFINED_HEIGHT_BEGIN
1070
    46
1040
23.0
1000
ACAD_MTEXT_DEFINED_HEIGHT_END
  0
LWPOLYLINE
  5
BEE
330
A
100
AcDbEntity
  8
PRINT BORDER
100
AcDbPolyline
 90
        4
 70
     1
 43
0.0
 10
0.0
 20
0.0
 10
0.0
 20
2970.0
 10
2100.0
 20
2970.0
 10
2100.0
 20
0.0
  0
INSERT
  5
1273
330
A
100
AcDbEntity
  8
0
 62
     7
100
AcDbBlockReference
  2
BLOCK_2
 10
591.2037060744204
 20
943.564364962162
 30
0.0
  0
INSERT
  5
127B
330
A
100
AcDbEntity
  8
0
 62
     7
100
AcDbBlockReference
  2
BLOCK_2
 10
1291.863324028138
 20
1038.76992320659
 30
0.0
  0
INSERT
  5
127C
330
A
100
AcDbEntity
  8
0
 62
     7
100
AcDbBlockReference
  2
BLOCK_2
 10
652.1648429406905
 20
1595.641631888467
 30
0.0
  0
INSERT
  5
3B99
330
A
100
AcDbEntity
  8
retino
100
AcDbBlockReference
  2
mobile_latù
 10
-92101.31485198285
 20
1730.415535296608
 30
0.0
  0
INSERT
  5
45C2
330
A
100
AcDbEntity
  8
retino
100
AcDbBlockReference
  2
mobile_latù
 10
-86439.67799028098
 20
684.0045377191276
 30
0.0
  0
INSERT
  5
45C3
330
A
100
AcDbEntity
  8
0
100
AcDbBlockReference
  2
.TD_SECTION_1
 10
225818108268.3253
 20
1093.456007493889
 30
0.0
  0
INSERT
  5
45C4
330
A
100
AcDbEntity
  8
0
100
AcDbBlockReference
  2
.TD_SECTION_2
 10
225818173804.3253
 20
1093.456007493889
 30
0.0
  0
INSERT
  5
45C5
330
A
100
AcDbEntity
  8
0
  6
Continuous
 62
     0
370
     0
100
AcDbBlockReference
  2
.TD_SECTION_1
 10
-5309.067341990833
 20
1307.927120367214
 30
0.0
  0
INSERT
  5
45C6
330
A
100
AcDbEntity
  8
0
  6
Continuous
 62
     0
370
     0
100
AcDbBlockReference
  2
.TD_SECTION_2
 10
-5866.445500560169
 20
1615.480640569851
 30
0.0
  0
INSERT
  5
45C7
330
A
100
AcDbEntity
  8
0
  6
Continuous
 62
     0
370
     0
100
AcDbBlockReference
  2
.TD_SECTION_1
 10
-7732.562264964368
 20
-610.0674069533197
 30
0.0
  0
INSERT
  5
45C8
330
A
100
AcDbEntity
  8
0
  6
Continuous
 62
     0
370
     0
100
AcDbBlockReference
  2
.TD_SECTION_2
 10
-7444.601476237562
 20
-908.1755612501947
 30
0.0
  0
INSERT
  5
45C9
330
A
100
AcDbEntity
  8
0
  6
Continuous
 62
     0
370
     0
100
AcDbBlockReference
  2
.TD_SECTION_1
 10
-7604.211434120536
 20
-675.956232615647
 30
0.0
  0
INSERT
  5
45CA
330
A
100
AcDbEntity
  8
0
  6
Continuous
 62
     0
370
     0
100
AcDbBlockReference
  2
.TD_SECTION_2
 10
-7316.160069221854
 20
-974.1548715316626
 30
0.0
  0
INSERT
  5
45CB
330
A
100
AcDbEntity
  8
0
  6
Continuous
 62
     0
370
     0
100
AcDbBlockReference
  2
.TD_SECTION_1
 10
1998.261972039336
 20
584.7577436013784
 30
0.0
  0
INSERT
  5
45CC
330
A
100
AcDbEntity
  8
0
  6
Continuous
 62
     0
370
     0
100
AcDbBlockReference
  2
.TD_SECTION_2
 10
2325.569123833769
 20
298.7106092019643
 30
0.0
  0
INSERT
  5
45CD
330
A
100
AcDbEntity
  8
0
  6
Continuous
 62
     0
370
     0
100
AcDbBlockReference
  2
.TD_SECTION_1
 10
4096.079043894448
 20
729.9229578437947
 30
0.0
  0
INSERT
  5
45CE
330
A
100
AcDbEntity
  8
0
  6
Continuous
 62
     0
370
     0
100
AcDbBlockReference
  2
.TD_SECTION_2
 10
4527.386195688881
 20
443.5448297920369
 30
0.0
  0
INSERT
  5
4611
330
A
100
AcDbEntity
  8
0
  6
Continuous
 62
     0
370
     0
100
AcDbBlockReference
  2
.TD_SECTION_1
 10
6135.868573041045
 20
-239.8054397977554
 30
0.0
  0
INSERT
  5
4612
330
A
100
AcDbEntity
  8
0
  6
Continuous
 62
     0
370
     0
100
AcDbBlockReference
  2
.TD_SECTION_2
 10
6878.171818585479
 20
-958.2465713895522
 30
0.0
  0
ELLIPSE
  5
543D
330
A
100
AcDbEntity
  8
tratteggio
  6
HIDDEN2
 62
     3
 60
     1
370
     0
100
AcDbEllipse
 10
-4096.49475666334
 20
1623.797447106776
 30
0.0
 11
300.0
 21
0.0
 31
0.0
210
0.0
220
0.0
230
1.0
 40
0.5
 41
5.728374274199514
 42
6.837996340159658
  0
ELLIPSE
  5
62B3
330
A
100
AcDbEntity
  8
tratteggio
  6
HIDDEN2
 62
     3
 60
     1
370
     0
100
AcDbEllipse
 10
-3728.470049359251
 20
2199.237967545522
 30
0.0
 11
300.0
 21
0.0
 31
0.0
210
0.0
220
0.0
230
1.0
 40
0.5
 41
5.728374274199514
 42
6.837996340159658
  0
MTEXT
  5
69F0
330
A
100
AcDbEntity
  8
template
390
1D
100
AcDbMText
 10
109.9913836583539
 20
735.5401602155133
 30
0.0
 40
24.4326171875
 41
0.0
 46
24.4326171875
 71
     1
 72
     1
  1
{  }
  7
ＭＳ ゴシック
 73
     1
 44
0.7828267384257843
1001
ACAD
1000
ACAD_MTEXT_DEFINED_HEIGHT_BEGIN
1070
    46
1040
24.4326171875
1000
ACAD_MTEXT_DEFINED_HEIGHT_END
  0
MTEXT
  5
78D6
330
A
100
AcDbEntity
  8
Dim
390
1D
100
AcDbMText
 10
1189.183823663062
 20
1612.424266243212
 30
34.99521132346015
 40
24.0
 41
1169.771715461011
 46
0.0
 71
     1
 72
     1
  1
※陶器製品には寸法公差があります。\P  洗面器の収め方をご確認の上、必ず現物を合わせて\P  カウンターに切込を行ってください。
  7
ＭＳ ゴシック
 73
     1
 44
1.174240107638677
  0
MTEXT
  5
78D7
330
A
100
AcDbEntity
  8
Dim
390
1D
100
AcDbMText
 10
258.6422546506833
 20
1611.501709684321
 30
34.99521132346015
 40
24.4326171875
 41
833.929798641839
 46
0.0
 71
     1
 72
     1
  1
＝φ30もしくはφ35の水栓取付用穴あけ加工を承ります。\P  必要な場合、ご注文の際にご指示ください。
  7
ＭＳ ゴシック
 73
     1
 44
1.043768984567712
  0
CIRCLE
  5
78D8
330
A
100
AcDbEntity
  8
HIDDEN
 48
0.58
390
1D
100
AcDbCircle
 10
227.2752249525954
 20
1596.912885228038
 30
34.99521132346015
 40
17.5
  0
MTEXT
  5
78DC
330
A
100
AcDbEntity
  8
Dim
390
1D
100
AcDbMText
 10
1372.683260641638
 20
2325.765182756362
 30
34.99521132346015
 40
24.0
 41
0.0
 46
27.413396484375
 71
     1
 72
     1
  1
{カウンター切込寸法}
  7
ＭＳ ゴシック
 73
     1
 44
0.7828267384257843
1001
ACAD
1000
ACAD_MTEXT_DEFINED_HEIGHT_BEGIN
1070
    46
1040
27.413396484375
1000
ACAD_MTEXT_DEFINED_HEIGHT_END
  0
LINE
  5
83F6
330
A
100
AcDbEntity
  8
MODEL
100
AcDbLine
 10
345.338491030663
 20
2166.215179553531
 30
-0.0000000046240195
 11
889.2328466728359
 21
2166.215179553531
 31
-0.0000000046240195
  0
LINE
  5
83F7
102
{ACAD_REACTORS
330
8630
102
}
330
A
100
AcDbEntity
  8
MODEL
100
AcDbLine
 10
892.2323897582971
 20
2163.215179553531
 30
-0.0000000046240195
 11
892.2323897582977
 21
1819.349020437749
 31
-0.0000000046240195
  0
LINE
  5
83F8
102
{ACAD_REACTORS
330
8630
102
}
330
A
100
AcDbEntity
  8
MODEL
100
AcDbLine
 10
342.3389479451947
 20
1819.349020437748
 30
-0.0000000046240195
 11
342.3389479451943
 21
2163.215179553531
 31
-0.0000000046240195
  0
LINE
  5
83FB
330
A
100
AcDbEntity
  8
MODEL
100
AcDbLine
 10
345.3384910306635
 20
1816.349020437748
 30
-0.0000000046240195
 11
889.2328466728363
 21
1816.349020437749
 31
-0.0000000046240195
  0
ARC
  5
83FC
330
A
100
AcDbEntity
  8
MODEL
100
AcDbCircle
 10
345.3384910306635
 20
1819.349020437748
 30
-0.0000000046240195
 40
3.0
100
AcDbArc
 50
180.0
 51
270.0
  0
ARC
  5
83FD
330
A
100
AcDbEntity
  8
MODEL
100
AcDbCircle
 10
889.2328466728363
 20
1819.349020437749
 30
-0.0000000046240195
 40
3.0
100
AcDbArc
 50
270.0
 51
0.0
  0
ELLIPSE
  5
83FE
330
A
100
AcDbEntity
  8
MODEL
100
AcDbEllipse
 10
345.338491030663
 20
2163.215179553531
 30
-0.0000000046240195
 11
-4.241843942831061E-15
 21
3.0
 31
0.0
210
0.0
220
0.0
230
1.0
 40
0.999847695156391
 41
0.0
 42
1.570796326794895
  0
ELLIPSE
  5
83FF
330
A
100
AcDbEntity
  8
MODEL
100
AcDbEllipse
 10
889.2328466728359
 20
2163.215179553531
 30
-0.0000000046240195
 11
-4.241843942831061E-15
 21
3.0
 31
0.0
210
0.0
220
0.0
230
1.0
 40
0.999847695156391
 41
4.712388980384688
 42
6.283185307179586
  0
CIRCLE
  5
8400
330
A
100
AcDbEntity
  8
MODEL
  6
HIDDEN2
100
AcDbCircle
 10
520.9356688517437
 20
2103.865179553536
 30
-0.0000000053126276
 40
17.5
  0
LINE
  5
8401
330
A
100
AcDbEntity
  8
MODEL
100
AcDbLine
 10
890.2253465686217
 20
913.8455603254556
 30
0.0
 11
892.2323667286394
 21
1028.827668285384
 31
0.0
  0
LINE
  5
8402
330
A
100
AcDbEntity
  8
MODEL
100
AcDbLine
 10
887.2262755853217
 20
911.8813448731677
 30
0.0
 11
346.3456711693643
 21
911.8813448731689
 31
0.0
  0
LINE
  5
8403
330
A
100
AcDbEntity
  8
MODEL
100
AcDbLine
 10
888.2256665341329
 20
911.8813448731677
 30
0.0
 11
887.2262755853217
 21
911.8813448731677
 31
0.0
  0
LINE
  5
8404
330
A
100
AcDbEntity
  8
MODEL
100
AcDbLine
 10
892.232389758304
 20
1028.828987653856
 30
0.0
 11
890.2253619244502
 21
913.8464400602902
 31
0.0
  0
LINE
  5
8405
330
A
100
AcDbEntity
  8
MODEL
100
AcDbLine
 10
344.3459757790615
 20
913.8464400602911
 30
0.0
 11
342.3389479452009
 21
1028.828987653857
 31
0.0
  0
LINE
  5
8406
330
A
100
AcDbEntity
  8
MODEL
100
AcDbLine
 10
345.3384910306696
 20
1031.881344873168
 30
0.0
 11
889.2328466728424
 21
1031.881344873168
 31
0.0
  0
ARC
  5
8407
330
A
100
AcDbEntity
  8
MODEL
100
AcDbCircle
 10
888.2256665341329
 20
913.881344873164
 30
0.0
 40
2.0
100
AcDbArc
 50
270.0
 51
359.000000000021
  0
ARC
  5
8408
330
A
100
AcDbEntity
  8
MODEL
100
AcDbCircle
 10
346.3456711693643
 20
913.8813448731648
 30
0.0
 40
2.0
100
AcDbArc
 50
180.9999999999757
 51
270.0
  0
ARC
  5
8409
330
A
100
AcDbEntity
  8
MODEL
100
AcDbCircle
 10
889.2328466728424
 20
1028.881344873163
 30
0.0
 40
3.0
100
AcDbArc
 50
359.0000000000243
 51
90.0
  0
ARC
  5
840A
330
A
100
AcDbEntity
  8
MODEL
100
AcDbCircle
 10
345.3384910306696
 20
1028.881344873164
 30
0.0
 40
3.0
100
AcDbArc
 50
90.0
 51
180.9999999999757
  0
LINE
  5
840B
330
A
100
AcDbEntity
  8
MODEL
100
AcDbLine
 10
1459.579766045723
 20
1031.881344873168
 30
-0.0000000000000062
 11
1461.94482757175
 21
1031.881344873168
 31
-0.0000000000000062
  0
LINE
  5
840C
102
{ACAD_REACTORS
330
8618
102
}
330
A
100
AcDbEntity
  8
HIDDEN
 48
0.5
100
AcDbLine
 10
1587.045355991429
 20
937.9357885710206
 30
-0.0000000000000062
 11
1587.048327898921
 21
937.9246972612682
 31
-0.0000000000000062
  0
LINE
  5
840E
330
A
100
AcDbEntity
  8
MODEL
100
AcDbLine
 10
1706.19493770155
 20
1031.881344873168
 30
-0.0000000000000062
 11
1803.445925161506
 21
1031.881344873168
 31
-0.0000000000000062
  0
LINE
  5
841D
102
{ACAD_REACTORS
330
8618
102
}
330
A
100
AcDbEntity
  8
HIDDEN
 48
0.5
100
AcDbLine
 10
1665.843522424095
 20
937.9246972612682
 30
-0.0000000000000062
 11
1665.950917595464
 21
938.3255014973265
 31
-0.0000000000000062
  0
LINE
  5
8421
330
A
100
AcDbEntity
  8
MODEL
100
AcDbLine
 10
1474.833549452951
 20
911.881344873168
 30
-0.0000000000000062
 11
1469.852575962492
 21
911.881344873168
 31
-0.0000000000000062
  0
LINE
  5
8422
330
A
100
AcDbEntity
  8
MODEL
100
AcDbLine
 10
1806.44592516151
 20
920.8905841819223
 30
-0.0000000000000068
 11
1806.44592516151
 21
919.881344873168
 31
-0.0000000000000069
  0
LINE
  5
8423
330
A
100
AcDbEntity
  8
MODEL
100
AcDbLine
 10
1806.44592516151
 20
944.7189325730151
 30
-0.0000000000000062
 11
1806.44592516151
 21
924.037939323659
 31
-0.0000000000000062
  0
LINE
  5
8427
330
A
100
AcDbEntity
  8
MODEL
100
AcDbLine
 10
1469.852575962492
 20
911.881344873168
 30
-0.0000000000000062
 11
1463.599821795038
 21
911.881344873168
 31
-0.0000000000000062
  0
LINE
  5
8428
330
A
100
AcDbEntity
  8
MODEL
100
AcDbLine
 10
1461.601725351878
 20
913.7941060984385
 30
-0.0000000000000062
 11
1456.582621380976
 21
1028.75048671107
 31
-0.0000000000000062
  0
LINE
  5
842A
102
{ACAD_REACTORS
330
8618
102
}
330
A
100
AcDbEntity
  8
HIDDEN
 48
0.5
100
AcDbLine
 10
1588.987157198537
 20
934.881344873168
 30
-0.0000000000000062
 11
1603.274098003514
 21
922.8931781130605
 31
-0.0000000000000062
  0
LINE
  5
842B
102
{ACAD_REACTORS
330
8618
102
}
330
A
100
AcDbEntity
  8
HIDDEN
 48
0.5
100
AcDbLine
 10
1604.345278259925
 20
920.6474020030155
 30
-0.0000000000000062
 11
1604.445925161506
 21
914.881344873168
 31
-0.0000000000000062
  0
LINE
  5
842E
102
{ACAD_REACTORS
330
8618
102
}
330
A
100
AcDbEntity
  8
HIDDEN
 48
0.5
100
AcDbLine
 10
1648.445925161506
 20
914.881344873168
 30
-0.0000000000000062
 11
1648.546572063087
 21
920.6474020030155
 31
-0.0000000000000062
  0
LINE
  5
842F
102
{ACAD_REACTORS
330
8618
102
}
330
A
100
AcDbEntity
  8
HIDDEN
 48
0.5
100
AcDbLine
 10
1649.617752319498
 20
922.8931781130605
 30
-0.0000000000000062
 11
1663.904693124479
 21
934.881344873168
 31
-0.0000000000000062
  0
LINE
  5
8430
330
A
100
AcDbEntity
  8
MODEL
100
AcDbLine
 10
1806.44592516151
 20
1028.881344873168
 30
-0.0000000000000062
 11
1806.44592516151
 21
961.0288638371067
 31
-0.0000000000000062
  0
LINE
  5
8438
330
A
100
AcDbEntity
  8
MODEL
100
AcDbLine
 10
1803.445925161506
 20
911.881344873168
 30
-0.0000000000000073
 11
1474.833549452951
 21
911.881344873168
 31
-0.0000000000000073
  0
LINE
  5
8439
330
A
100
AcDbEntity
  8
MODEL
100
AcDbLine
 10
1806.44592516151
 20
915.3171235869095
 30
-0.0000000000000071
 11
1806.44592516151
 21
914.881344873168
 31
-0.0000000000000072
  0
LINE
  5
843A
330
A
100
AcDbEntity
  8
MODEL
100
AcDbLine
 10
1806.44592516151
 20
919.881344873168
 30
-0.0000000000000069
 11
1806.44592516151
 21
915.3171235869095
 31
-0.0000000000000071
  0
ARC
  5
843B
102
{ACAD_REACTORS
330
8618
102
}
330
A
100
AcDbEntity
  8
HIDDEN
 48
0.5
100
AcDbCircle
 10
1461.94482757175
 20
1028.881344873168
 30
-0.0000000000001412
 40
3.0
100
AcDbArc
 50
28.08453015262347
 51
90.0
  0
ARC
  5
843C
102
{ACAD_REACTORS
330
8618
102
}
330
A
100
AcDbEntity
  8
HIDDEN
 48
0.5
100
AcDbCircle
 10
1582.215726859982
 20
936.6416933455121
 30
-0.0000000000001412
 40
5.0
100
AcDbArc
 50
14.99999999999445
 51
85.90908552104938
  0
ARC
  5
843D
102
{ACAD_REACTORS
330
8618
102
}
330
A
100
AcDbEntity
  8
HIDDEN
 48
0.5
100
AcDbCircle
 10
1706.19493770155
 20
1028.881344873168
 30
-0.0000000000001412
 40
3.0
100
AcDbArc
 50
90.0
 51
175.0009474523905
  0
ARC
  5
8441
102
{ACAD_REACTORS
330
8618
102
}
330
A
100
AcDbEntity
  8
HIDDEN
 48
0.5
100
AcDbCircle
 10
1670.780546726912
 20
937.0314062718107
 30
-0.0000000000001412
 40
5.0
100
AcDbArc
 50
100.5948420503131
 51
165.0000000000056
  0
ARC
  5
8447
330
A
100
AcDbEntity
  8
MODEL
100
AcDbCircle
 10
1463.599821795038
 20
913.881344873168
 30
-0.0000000000001412
 40
2.0
100
AcDbArc
 50
182.4999999999664
 51
270.0
  0
ARC
  5
8448
330
A
100
AcDbEntity
  8
MODEL
100
AcDbCircle
 10
1459.579766045723
 20
1028.881344873168
 30
-0.0000000000001412
 40
3.0
100
AcDbArc
 50
90.0
 51
182.4999999999657
  0
ARC
  5
8449
102
{ACAD_REACTORS
330
8618
102
}
330
A
100
AcDbEntity
  8
HIDDEN
 48
0.5
100
AcDbCircle
 10
1592.843882856656
 20
939.4776115318828
 30
0.0000000000001287
 40
6.000000000000001
100
AcDbArc
 50
194.9999999999944
 51
230.0000000000001
  0
ARC
  5
844A
102
{ACAD_REACTORS
330
8618
102
}
330
A
100
AcDbEntity
  8
HIDDEN
 48
0.5
100
AcDbCircle
 10
1601.345735174456
 20
920.5950447837031
 30
-0.0000000000001412
 40
3.0
100
AcDbArc
 50
1.000000000001913
 51
49.99999999998046
  0
ARC
  5
844F
102
{ACAD_REACTORS
330
8618
102
}
330
A
100
AcDbEntity
  8
HIDDEN
 48
0.5
100
AcDbCircle
 10
1651.54611514856
 20
920.5950447837031
 30
-0.0000000000001412
 40
3.0
100
AcDbArc
 50
129.9999999999993
 51
178.9999999999981
  0
ARC
  5
8450
102
{ACAD_REACTORS
330
8618
102
}
330
A
100
AcDbEntity
  8
HIDDEN
 48
0.5
100
AcDbCircle
 10
1660.04796746636
 20
939.4776115318828
 30
0.0000000000001287
 40
6.000000000000001
100
AcDbArc
 50
310.0000000000202
 51
345.0000000000056
  0
ARC
  5
8451
330
A
100
AcDbEntity
  8
MODEL
100
AcDbCircle
 10
1803.445925161506
 20
1028.881344873168
 30
-0.0000000000001412
 40
3.0
100
AcDbArc
 50
0.0
 51
90.0
  0
ARC
  5
845A
330
A
100
AcDbEntity
  8
MODEL
100
AcDbCircle
 10
1803.445925161506
 20
914.881344873168
 30
0.0000000000001287
 40
2.999999999999663
100
AcDbArc
 50
270.0
 51
0.0
  0
SPLINE
  5
845C
102
{ACAD_REACTORS
330
8618
102
}
330
A
100
AcDbEntity
  8
HIDDEN
 48
0.5
100
AcDbSpline
210
0.0
220
0.0
230
1.0
 70
     8
 71
     3
 72
    30
 73
    26
 74
     0
 42
0.000000001
 43
0.0000000001
 40
0.0
 40
0.0
 40
0.0
 40
0.0
 40
0.1182662735085382
 40
0.1828902975858063
 40
0.2475143216630743
 40
0.2717483306920498
 40
0.2959823397210253
 40
0.3444503577789764
 40
0.3767623698176104
 40
0.3929183758369275
 40
0.4413863938948784
 40
0.4736984059335124
 40
0.5060104179721464
 40
0.5383224300107806
 40
0.5706344420494145
 40
0.6029464540880486
 40
0.6352584661266826
 40
0.6675704781653167
 40
0.6998824902039507
 40
0.7321945022425846
 40
0.7645065142812187
 40
0.8291305383584867
 40
0.8775985564164377
 40
0.9260665744743887
 40
1.0
 40
1.0
 40
1.0
 40
1.0
 10
1464.591589592639
 20
1030.293665943173
 30
-0.0000000000000062
 10
1467.63171742817
 20
1024.596310671333
 30
-0.0000000000000062
 10
1472.407106352772
 20
1015.820430875924
 30
-0.0000000000000062
 10
1479.095643606523
 20
1004.048000551536
 30
-0.0000000000000062
 10
1483.381040736704
 20
996.8197160833743
 30
-0.0000000000000062
 10
1486.629346631313
 20
991.5435547306924
 30
-0.0000000000000062
 10
1489.463789190509
 20
987.0503463024806
 30
-0.0000000000000062
 10
1492.626127538026
 20
982.2386205376615
 30
-0.0000000000000062
 10
1495.670559487955
 20
977.8833989187924
 30
-0.0000000000000062
 10
1498.810364050461
 20
973.5988953892602
 30
-0.0000000000000062
 10
1502.090734505657
 20
969.4212286094635
 30
-0.0000000000000062
 10
1506.196651166158
 20
964.7974951688893
 30
-0.0000000000000062
 10
1509.947279099784
 20
961.0787365729348
 30
-0.0000000000000062
 10
1513.958405069699
 20
957.6871706935062
 30
-0.0000000000000062
 10
1518.234848691491
 20
954.7143332211426
 30
-0.0000000000000062
 10
1522.739508222605
 20
952.2165452432973
 30
-0.0000000000000062
 10
1527.406536090801
 20
950.1902282487508
 30
-0.0000000000000062
 10
1532.172541483791
 20
948.573416580818
 30
-0.0000000000000062
 10
1536.992657048262
 20
947.2780662043451
 30
-0.0000000000000062
 10
1541.841089776592
 20
946.2279285718987
 30
-0.0000000000000062
 10
1548.329832529749
 20
945.0778207409321
 30
-0.0000000000000062
 10
1555.647917300486
 20
944.0777381611997
 30
-0.0000000000000062
 10
1563.812111112789
 20
943.188859956922
 30
-0.0000000000000062
 10
1572.490584614743
 20
942.3876192938123
 30
-0.0000000000000062
 10
1578.771205106283
 20
941.9008227312306
 30
-0.0000000000000062
 10
1582.572423244977
 20
941.628953885026
 30
-0.0000000000000062
  0
SPLINE
  5
8461
102
{ACAD_REACTORS
330
8618
102
}
330
A
100
AcDbEntity
  8
HIDDEN
 48
0.5
100
AcDbSpline
210
0.0
220
0.0
230
1.0
 70
     8
 71
     3
 72
    40
 73
    36
 74
     0
 42
0.000000001
 43
0.0000000001
 40
0.0
 40
0.0
 40
0.0
 40
0.0
 40
0.0077970444883563
 40
0.0327589319372235
 40
0.0577208193860907
 40
0.1076445942838252
 40
0.1326064817326924
 40
0.1575683691815597
 40
0.1825302566304269
 40
0.2074921440792941
 40
0.2324540315281614
 40
0.2574159189770286
 40
0.2823778064258958
 40
0.2906984355755182
 40
0.3073396938747631
 40
0.3323015813236303
 40
0.3572634687724975
 40
0.3822253562213648
 40
0.407187243670232
 40
0.4238285019694768
 40
0.4321491311190992
 40
0.4571110185679664
 40
0.4820729060168337
 40
0.4903935351664561
 40
0.5070347934657009
 40
0.5319966809145682
 40
0.5569585683634354
 40
0.590241084961925
 40
0.6235236015604146
 40
0.690088634757394
 40
0.7566536679543733
 40
0.8232187011513525
 40
0.8897837343483318
 40
0.9230662509468215
 40
1.0
 40
1.0
 40
1.0
 40
1.0
 10
1669.861232412526
 20
941.9461657970905
 30
-0.0000000000000062
 10
1670.053404328622
 20
941.9821118881237
 30
-0.0000000000000062
 10
1670.862780329588
 20
942.1343207329128
 30
-0.0000000000000062
 10
1672.307015372413
 20
942.412616563467
 30
-0.0000000000000062
 10
1674.876529137209
 20
942.9325156758359
 30
-0.0000000000000062
 10
1677.486091491979
 20
943.5133370420599
 30
-0.0000000000000062
 10
1679.990411718141
 20
944.1761802508199
 30
-0.0000000000000062
 10
1681.81091418295
 20
944.7278158559502
 30
-0.0000000000000062
 10
1683.587088148399
 20
945.3642350907621
 30
-0.0000000000000062
 10
1685.324856421086
 20
946.1188587377264
 30
-0.0000000000000062
 10
1687.011776817801
 20
947.0412397498158
 30
-0.0000000000000062
 10
1688.627532677345
 20
948.17812484775
 30
-0.0000000000000062
 10
1689.791393160207
 20
949.2634528687277
 30
-0.0000000000000062
 10
1690.721980521632
 20
950.3148311636405
 30
-0.0000000000000062
 10
1691.599484270208
 20
951.4560986564184
 30
-0.0000000000000062
 10
1692.638951689563
 20
953.1734021427774
 30
-0.0000000000000062
 10
1693.639083010328
 20
955.3298580102137
 30
-0.0000000000000062
 10
1694.48802409764
 20
957.6633020768213
 30
-0.0000000000000062
 10
1695.135552491536
 20
959.8638450304434
 30
-0.0000000000000062
 10
1695.5678307209
 20
961.5802567932633
 30
-0.0000000000000062
 10
1695.9730236261
 20
963.3313301601602
 30
-0.0000000000000062
 10
1696.40744548946
 20
965.42432255525
 30
-0.0000000000000062
 10
1696.795124060516
 20
967.573876695461
 30
-0.0000000000000062
 10
1697.105001318598
 20
969.4398038914087
 30
-0.0000000000000062
 10
1697.399508575638
 20
971.3207645237135
 30
-0.0000000000000062
 10
1697.764500999097
 20
973.8507586132628
 30
-0.0000000000000062
 10
1698.185859393341
 20
977.0380089188993
 30
-0.0000000000000062
 10
1698.61658315575
 20
980.5712267001663
 30
-0.0000000000000062
 10
1699.200069749184
 20
985.7456712499343
 30
-0.0000000000000062
 10
1699.868140400466
 20
992.2672585761766
 30
-0.0000000000000062
 10
1700.622623461486
 20
1000.148063215996
 30
-0.0000000000000062
 10
1701.345350847272
 20
1008.055187968247
 30
-0.0000000000000062
 10
1701.934305818742
 20
1014.661010463061
 30
-0.0000000000000062
 10
1702.554316288557
 20
1021.689378662414
 30
-0.0000000000000062
 10
1702.938277608502
 20
1026.078105728376
 30
-0.0000000000000062
 10
1703.206349284015
 20
1029.142762681659
 30
-0.0000000000000062
  0
SPLINE
  5
8463
330
A
100
AcDbEntity
  8
MODEL
100
AcDbSpline
210
0.0
220
0.0
230
1.0
 70
    24
 71
     3
 72
    22
 73
    18
 74
     0
 42
0.000000001
 43
0.0000000001
 40
0.0
 40
0.0
 40
0.0
 40
0.0
 40
0.0625000000000032
 40
0.0625000000000032
 40
0.1250000000000065
 40
0.1250000000000065
 40
0.2500000000000033
 40
0.2500000000000033
 40
0.3750000000000002
 40
0.3750000000000002
 40
0.499999999999997
 40
0.499999999999997
 40
0.6249999999999938
 40
0.6249999999999938
 40
0.7499999999999907
 40
0.7499999999999907
 40
1.0
 40
1.0
 40
1.0
 40
1.0
 10
1806.44592516151
 20
922.4789331105867
 30
-0.0000000000000067
 10
1806.44592516151
 20
922.4404003881145
 30
-0.0000000000000067
 10
1806.44592516151
 20
922.4026208640507
 30
-0.0000000000000067
 10
1806.44592516151
 20
922.3282286628901
 30
-0.0000000000000067
 10
1806.44592516151
 20
922.2916179853937
 30
-0.0000000000000067
 10
1806.44592516151
 20
922.1831981185833
 30
-0.0000000000000067
 10
1806.44592516151
 20
922.1127841789212
 30
-0.0000000000000067
 10
1806.44592516151
 20
921.9745481649816
 30
-0.0000000000000067
 10
1806.44592516151
 20
921.9067378135451
 30
-0.0000000000000067
 10
1806.44592516151
 20
921.7730462202244
 30
-0.0000000000000067
 10
1806.44592516151
 20
921.7071696430367
 30
-0.0000000000000067
 10
1806.44592516151
 20
921.5768917384057
 30
-0.0000000000000068
 10
1806.44592516151
 20
921.5124697455913
 30
-0.0000000000000068
 10
1806.44592516151
 20
921.3851332897475
 30
-0.0000000000000068
 10
1806.44592516151
 20
921.3221675296672
 30
-0.0000000000000068
 10
1806.44592516151
 20
921.1348790324564
 30
-0.0000000000000068
 10
1806.44592516151
 20
921.0121447847059
 30
-0.0000000000000068
 10
1806.44592516151
 20
920.8905841819223
 30
-0.0000000000000068
  0
SPLINE
  5
8464
330
A
100
AcDbEntity
  8
MODEL
100
AcDbSpline
210
0.0
220
0.0
230
1.0
 70
    24
 71
     3
 72
    10
 73
     6
 74
     0
 42
0.000000001
 43
0.0000000001
 40
0.0
 40
0.0
 40
0.0
 40
0.0
 40
0.5
 40
0.5
 40
1.0
 40
1.0
 40
1.0
 40
1.0
 10
1806.44592516151
 20
924.037939323659
 30
-0.0000000000000066
 10
1806.44592516151
 20
923.7742625491601
 30
-0.0000000000000066
 10
1806.44592516151
 20
923.5127337432868
 30
-0.0000000000000066
 10
1806.44592516151
 20
922.9933785044932
 30
-0.0000000000000067
 10
1806.44592516151
 20
922.7355437467131
 30
-0.0000000000000067
 10
1806.44592516151
 20
922.4789331105867
 30
-0.0000000000000067
  0
SPLINE
  5
8465
330
A
100
AcDbEntity
  8
MODEL
100
AcDbSpline
210
0.0
220
0.0
230
1.0
 70
    24
 71
     3
 72
    49
 73
    45
 74
     0
 42
0.000000001
 43
0.0000000001
 40
0.0
 40
0.0
 40
0.0
 40
0.0
 40
0.0625000000000046
 40
0.0625000000000046
 40
0.1250000000000091
 40
0.1875000000000137
 40
0.1875000000000137
 40
0.2187500000000152
 40
0.2187500000000152
 40
0.2343750000000166
 40
0.2343750000000166
 40
0.2421875000000166
 40
0.2421875000000166
 40
0.2500000000000165
 40
0.3125000000000148
 40
0.3125000000000148
 40
0.3750000000000131
 40
0.4375000000000114
 40
0.4375000000000114
 40
0.5000000000000097
 40
0.5000000000000097
 40
0.562500000000008
 40
0.6250000000000063
 40
0.6250000000000063
 40
0.656250000000005
 40
0.656250000000005
 40
0.6640625000000047
 40
0.6640625000000047
 40
0.6718750000000043
 40
0.6875000000000046
 40
0.6875000000000046
 40
0.7500000000000043
 40
0.7500000000000043
 40
0.8125000000000042
 40
0.8125000000000042
 40
0.875000000000004
 40
0.875000000000004
 40
0.906250000000004
 40
0.906250000000004
 40
0.9218750000000037
 40
0.9218750000000037
 40
0.9375000000000032
 40
0.9375000000000032
 40
1.0
 40
1.0
 40
1.0
 40
1.0
 10
1806.44592516151
 20
961.0288888396108
 30
-0.0000000000000043
 10
1806.44592516151
 20
961.0288388346098
 30
-0.0000000000000043
 10
1806.44592516151
 20
961.0040793702947
 30
-0.0000000000000043
 10
1806.44592516151
 20
960.9063042819043
 30
-0.0000000000000043
 10
1806.44592516151
 20
960.7603169950098
 30
-0.0000000000000044
 10
1806.44592516151
 20
960.5186726496113
 30
-0.0000000000000044
 10
1806.44592516151
 20
960.3011492518863
 30
-0.0000000000000044
 10
1806.44592516151
 20
960.2225857486637
 30
-0.0000000000000044
 10
1806.44592516151
 20
960.095535677342
 30
-0.0000000000000044
 10
1806.44592516151
 20
960.0516510233947
 30
-0.0000000000000044
 10
1806.44592516151
 20
959.9835023441055
 30
-0.0000000000000044
 10
1806.44592516151
 20
959.96038646123
 30
-0.0000000000000044
 10
1806.44592516151
 20
959.9134653509691
 30
-0.0000000000000044
 10
1806.44592516151
 20
959.6991762291445
 30
-0.0000000000000044
 10
1806.44592516151
 20
959.4568182635712
 30
-0.0000000000000044
 10
1806.44592516151
 20
958.9828118339001
 30
-0.0000000000000045
 10
1806.44592516151
 20
958.4656522416926
 30
-0.0000000000000045
 10
1806.44592516151
 20
957.8628563911343
 30
-0.0000000000000045
 10
1806.44592516151
 20
957.2167377177766
 30
-0.0000000000000046
 10
1806.44592516151
 20
956.8720106748669
 30
-0.0000000000000046
 10
1806.44592516151
 20
956.1378833321733
 30
-0.0000000000000046
 10
1806.44592516151
 20
955.3672894349374
 30
-0.0000000000000047
 10
1806.44592516151
 20
954.5248772775676
 30
-0.0000000000000047
 10
1806.44592516151
 20
953.8660145004696
 30
-0.0000000000000048
 10
1806.44592516151
 20
953.641879184951
 30
-0.0000000000000048
 10
1806.44592516151
 20
953.3560119745316
 30
-0.0000000000000048
 10
1806.44592516151
 20
953.2985266203477
 30
-0.0000000000000048
 10
1806.44592516151
 20
953.1831568319112
 30
-0.0000000000000048
 10
1806.44592516151
 20
953.0094893334544
 30
-0.0000000000000048
 10
1806.44592516151
 20
952.8339926036797
 30
-0.0000000000000048
 10
1806.44592516151
 20
952.244974247661
 30
-0.0000000000000049
 10
1806.44592516151
 20
951.7608864593649
 30
-0.0000000000000049
 10
1806.44592516151
 20
950.7675399907175
 30
-0.000000000000005
 10
1806.44592516151
 20
950.2582802532133
 30
-0.000000000000005
 10
1806.44592516151
 20
949.2146611905491
 30
-0.0000000000000051
 10
1806.44592516151
 20
948.6803024288538
 30
-0.0000000000000051
 10
1806.44592516151
 20
947.8596245562667
 30
-0.0000000000000051
 10
1806.44592516151
 20
947.5828714126483
 30
-0.0000000000000052
 10
1806.44592516151
 20
947.1628744641212
 30
-0.0000000000000052
 10
1806.44592516151
 20
947.0220479300924
 30
-0.0000000000000052
 10
1806.44592516151
 20
946.73882146497
 30
-0.0000000000000052
 10
1806.44592516151
 20
946.596709647697
 30
-0.0000000000000052
 10
1806.44592516151
 20
945.8836637398135
 30
-0.0000000000000053
 10
1806.44592516151
 20
945.3052816040299
 30
-0.0000000000000053
 10
1806.44592516151
 20
944.7189325730151
 30
-0.0000000000000053
  0
SPLINE
  5
8469
330
A
100
AcDbEntity
  8
MODEL
100
AcDbSpline
210
0.0
220
0.0
230
1.0
 70
    24
 71
     3
 72
    91
 73
    87
 74
     0
 42
0.000000001
 43
0.0000000001
 40
0.0
 40
0.0
 40
0.0
 40
0.0
 40
0.0014792269849649
 40
0.0014792269849649
 40
0.0088756771554473
 40
0.0088756771554473
 40
0.0107247896980678
 40
0.0107247896980678
 40
0.0125739022406884
 40
0.0125739022406884
 40
0.0162721273259296
 40
0.0162721273259296
 40
0.0236685774964126
 40
0.0310650276668955
 40
0.0310650276668955
 40
0.0384614778373784
 40
0.0384614778373784
 40
0.0458579280078613
 40
0.0458579280078613
 40
0.0495561530931029
 40
0.0495561530931029
 40
0.0514052656357237
 40
0.0514052656357237
 40
0.0532543781783446
 40
0.0532543781783446
 40
0.0606508283488272
 40
0.0606508283488272
 40
0.0680472785193101
 40
0.0754437286897928
 40
0.0828401788602754
 40
0.0828401788602754
 40
0.0902366290307581
 40
0.0902366290307581
 40
0.0939348541159998
 40
0.0939348541159998
 40
0.0957839666586205
 40
0.0957839666586205
 40
0.0976330792012411
 40
0.1050295293717232
 40
0.1050295293717232
 40
0.1124259795422052
 40
0.1124259795422052
 40
0.1272188798831688
 40
0.1272188798831688
 40
0.1346153300536502
 40
0.1346153300536502
 40
0.1383135551388911
 40
0.1383135551388911
 40
0.142011780224132
 40
0.1494082303946136
 40
0.1494082303946136
 40
0.156804680565095
 40
0.156804680565095
 40
0.1715975809060578
 40
0.1715975809060578
 40
0.1789940310765392
 40
0.1789940310765392
 40
0.1863904812470204
 40
0.1863904812470204
 40
0.1900887063322611
 40
0.1900887063322611
 40
0.1937869314175018
 40
0.1937869314175018
 40
0.2011833815879834
 40
0.2011833815879834
 40
0.2085798317584652
 40
0.2085798317584652
 40
0.2159762819289468
 40
0.2159762819289468
 40
0.2233727320994284
 40
0.2233727320994284
 40
0.2307691822699102
 40
0.2307691822699102
 40
0.2455620826108734
 40
0.2455620826108734
 40
0.2603549829518368
 40
0.2603549829518368
 40
0.2899407836337635
 40
0.2899407836337635
 40
0.3491123849976165
 40
0.3491123849976165
 40
0.4082839863614696
 40
0.4082839863614696
 40
0.5266271890891758
 40
0.5266271890891758
 40
1.0
 40
1.0
 40
1.0
 40
1.0
 10
1462.644345144474
 20
1031.881344873168
 30
0.0
 10
1462.659135819764
 20
1031.881344873168
 30
0.0
 10
1462.674289224136
 20
1031.881344873168
 30
0.0
 10
1462.767454343137
 20
1031.881344873168
 30
0.0
 10
1462.854391822004
 20
1031.881344873168
 30
0.0
 10
1462.976261974252
 20
1031.881344873168
 30
0.0
 10
1463.001296485529
 20
1031.881344873168
 30
0.0
 10
1463.052728258035
 20
1031.881344873168
 30
0.0
 10
1463.079122261615
 20
1031.881344873168
 30
0.0
 10
1463.16020352948
 20
1031.881344873168
 30
0.0
 10
1463.216854025237
 20
1031.881344873168
 30
0.0
 10
1463.394870830578
 20
1031.881344873168
 30
0.0
 10
1463.653652043946
 20
1031.881344873168
 30
0.0
 10
1463.956952694307
 20
1031.881344873168
 30
0.0
 10
1464.283580246773
 20
1031.881344873168
 30
0.0
 10
1464.458593087258
 20
1031.881344873168
 30
0.0
 10
1464.832543104325
 20
1031.881344873168
 30
0.0
 10
1465.031473710687
 20
1031.881344873168
 30
0.0
 10
1465.348453583991
 20
1031.881344873168
 30
0.0
 10
1465.45721614273
 20
1031.881344873168
 30
0.0
 10
1465.625113051135
 20
1031.881344873168
 30
0.0
 10
1465.681869363207
 20
1031.881344873168
 30
0.0
 10
1465.796971811202
 20
1031.881344873168
 30
0.0
 10
1465.855352467077
 20
1031.881344873168
 30
0.0
 10
1466.150869191189
 20
1031.881344873168
 30
0.0
 10
1466.39738511191
 20
1031.881344873168
 30
0.0
 10
1466.909967237325
 20
1031.881344873168
 30
0.0
 10
1467.442101403822
 20
1031.881344873168
 30
0.0
 10
1468.297923527052
 20
1031.881344873168
 30
0.0
 10
1468.906767128645
 20
1031.881344873168
 30
0.0
 10
1469.534973124986
 20
1031.881344873168
 30
0.0
 10
1469.858750946461
 20
1031.881344873168
 30
0.0
 10
1470.359223256257
 20
1031.881344873168
 30
0.0
 10
1470.52851727784
 20
1031.881344873168
 30
0.0
 10
1470.786221910761
 20
1031.881344873168
 30
0.0
 10
1470.872819574231
 20
1031.881344873168
 30
0.0
 10
1471.046699297405
 20
1031.881344873168
 30
0.0
 10
1471.483351469831
 20
1031.881344873168
 30
0.0
 10
1471.929709926275
 20
1031.881344873168
 30
0.0
 10
1472.655929242404
 20
1031.881344873168
 30
0.0
 10
1473.025061239261
 20
1031.881344873168
 30
0.0
 10
1474.150234122817
 20
1031.881344873168
 30
0.0
 10
1474.924153411217
 20
1031.881344873168
 30
0.0
 10
1476.119149047632
 20
1031.881344873168
 30
0.0
 10
1476.523195635242
 20
1031.881344873168
 30
0.0
 10
1477.137683327395
 20
1031.881344873168
 30
0.0
 10
1477.342995284916
 20
1031.881344873168
 30
0.0
 10
1477.754374548693
 20
1031.881344873168
 30
0.0
 10
1478.372661089064
 20
1031.881344873168
 30
0.0
 10
1478.994436885658
 20
1031.881344873168
 30
0.0
 10
1479.826311228053
 20
1031.881344873168
 30
0.0
 10
1480.243662179155
 20
1031.881344873168
 30
0.0
 10
1481.499398132933
 20
1031.881344873168
 30
0.0
 10
1482.341455531981
 20
1031.881344873168
 30
0.0
 10
1483.609768025612
 20
1031.881344873168
 30
0.0
 10
1484.03341315398
 20
1031.881344873168
 30
0.0
 10
1484.88209437761
 20
1031.881344873168
 30
0.0
 10
1485.307125000172
 20
1031.881344873168
 30
0.0
 10
1485.945484229362
 20
1031.881344873168
 30
0.0
 10
1486.158406363191
 20
1031.881344873168
 30
0.0
 10
1486.584484550824
 20
1031.881344873168
 30
0.0
 10
1486.797672729315
 20
1031.881344873168
 30
0.0
 10
1487.437266794625
 20
1031.881344873168
 30
0.0
 10
1487.863665811687
 20
1031.881344873168
 30
0.0
 10
1488.716467880537
 20
1031.881344873168
 30
0.0
 10
1489.142870947095
 20
1031.881344873168
 30
0.0
 10
1489.995679281032
 20
1031.881344873168
 30
0.0
 10
1490.422084464501
 20
1031.881344873168
 30
0.0
 10
1491.274895947134
 20
1031.881344873168
 30
0.0
 10
1491.701302274143
 20
1031.881344873168
 30
0.0
 10
1492.554115360837
 20
1031.881344873168
 30
0.0
 10
1492.980522077216
 20
1031.881344873168
 30
0.0
 10
1494.25974243054
 20
1031.881344873168
 30
0.0
 10
1495.112556280406
 20
1031.881344873168
 30
0.0
 10
1496.818183903632
 20
1031.881344873168
 30
0.0
 10
1497.670997746913
 20
1031.881344873168
 30
0.0
 10
1500.22943936879
 20
1031.881344873168
 30
0.0
 10
1501.935067231681
 20
1031.881344873168
 30
0.0
 10
1507.051951268439
 20
1031.881344873168
 30
0.0
 10
1510.463207991021
 20
1031.881344873168
 30
0.0
 10
1517.28572120553
 20
1031.881344873168
 30
0.0
 10
1520.696977703998
 20
1031.881344873168
 30
0.0
 10
1530.93074700306
 20
1031.881344873168
 30
0.0
 10
1537.753259674164
 20
1031.881344873168
 30
0.0
 10
1571.865823316386
 20
1031.881344873168
 30
0.0
 10
1599.155874230835
 20
1031.881344873168
 30
0.0
 10
1626.445925145248
 20
1031.881344873168
 30
0.0
  0
SPLINE
  5
846A
330
A
100
AcDbEntity
  8
MODEL
100
AcDbSpline
210
0.0
220
0.0
230
1.0
 70
    24
 71
     3
 72
    79
 73
    75
 74
     0
 42
0.000000001
 43
0.0000000001
 40
0.0
 40
0.0
 40
0.0
 40
0.0
 40
0.3456918213597526
 40
0.3456918213597526
 40
0.518537732039629
 40
0.518537732039629
 40
0.5617492097095982
 40
0.5617492097095982
 40
0.5725520791270904
 40
0.5725520791270904
 40
0.5833549485445827
 40
0.5833549485445827
 40
0.5941578179620749
 40
0.5941578179620749
 40
0.6049606873795672
 40
0.6049606873795672
 40
0.648172165049537
 40
0.648172165049537
 40
0.669777903884522
 40
0.669777903884522
 40
0.6805807733020145
 40
0.6859822080107607
 40
0.6859822080107607
 40
0.6886829253651339
 40
0.6886829253651339
 40
0.6913836427195068
 40
0.6913836427195068
 40
0.7129893815544897
 40
0.7129893815544897
 40
0.7345951203894727
 40
0.7345951203894727
 40
0.7562008592244558
 40
0.7562008592244558
 40
0.7670037286419472
 40
0.7670037286419472
 40
0.7724051633506926
 40
0.7724051633506926
 40
0.7751058807050656
 40
0.7751058807050656
 40
0.7778065980594384
 40
0.7994123368944219
 40
0.7994123368944219
 40
0.8210180757294054
 40
0.8210180757294054
 40
0.842623814564389
 40
0.842623814564389
 40
0.8534266839818809
 40
0.8534266839818809
 40
0.8588281186906269
 40
0.8615288360450003
 40
0.8615288360450003
 40
0.8642295533993736
 40
0.8642295533993736
 40
0.8858352922343627
 40
0.8858352922343627
 40
0.9074410310693519
 40
0.9074410310693519
 40
0.9290467699043411
 40
0.9290467699043411
 40
0.9398496393218357
 40
0.9398496393218357
 40
0.942550356676209
 40
0.942550356676209
 40
0.9452510740305824
 40
0.9452510740305824
 40
0.9506525087393285
 40
0.9506525087393285
 40
0.9722582475743121
 40
0.9722582475743121
 40
0.9830611169918034
 40
0.9830611169918034
 40
0.9938639864092947
 40
0.9938639864092947
 40
1.0
 40
1.0
 40
1.0
 40
1.0
 10
1626.445925145248
 20
1031.881344873168
 30
0.0
 10
1636.545931035345
 20
1031.881344873168
 30
0.0
 10
1646.64593719299
 20
1031.881344873168
 30
0.0
 10
1661.795945598713
 20
1031.881344873168
 30
0.0
 10
1666.845948383458
 20
1031.881344873168
 30
0.0
 10
1673.158452774174
 20
1031.881344873168
 30
0.0
 10
1674.420953205152
 20
1031.881344873168
 30
0.0
 10
1675.999078903709
 20
1031.881344873168
 30
0.0
 10
1676.314704146504
 20
1031.881344873168
 30
0.0
 10
1676.945955189984
 20
1031.881344873168
 30
0.0
 10
1677.261581200784
 20
1031.881344873168
 30
0.0
 10
1677.89283123024
 20
1031.881344873168
 30
0.0
 10
1678.208455205544
 20
1031.881344873168
 30
0.0
 10
1678.839697869798
 20
1031.881344873168
 30
0.0
 10
1679.155316787268
 20
1031.881344873168
 30
0.0
 10
1680.733381123549
 20
1031.881344873168
 30
0.0
 10
1681.995736067058
 20
1031.881344873168
 30
0.0
 10
1683.888762017401
 20
1031.881344873168
 30
0.0
 10
1684.519686880534
 20
1031.881344873168
 30
0.0
 10
1685.465904487412
 20
1031.881344873168
 30
0.0
 10
1685.93897073392
 20
1031.881344873168
 30
0.0
 10
1686.411964278434
 20
1031.881344873168
 30
0.0
 10
1686.648448178459
 20
1031.881344873168
 30
0.0
 10
1686.727255072865
 20
1031.881344873168
 30
0.0
 10
1686.884632074341
 20
1031.881344873168
 30
0.0
 10
1686.963228962873
 20
1031.881344873168
 30
0.0
 10
1687.669757559581
 20
1031.881344873168
 30
0.0
 10
1688.291766748191
 20
1031.881344873168
 30
0.0
 10
1689.521759293368
 20
1031.881344873168
 30
0.0
 10
1690.129799075623
 20
1031.881344873168
 30
0.0
 10
1691.330569447478
 20
1031.881344873168
 30
0.0
 10
1691.923355214805
 20
1031.881344873168
 30
0.0
 10
1692.800520023355
 20
1031.881344873168
 30
0.0
 10
1693.090902362177
 20
1031.881344873168
 30
0.0
 10
1693.523354596708
 20
1031.881344873168
 30
0.0
 10
1693.66698486631
 20
1031.881344873168
 30
0.0
 10
1693.881633007919
 20
1031.881344873168
 30
0.0
 10
1693.953086038897
 20
1031.881344873168
 30
0.0
 10
1694.095552748067
 20
1031.881344873168
 30
0.0
 10
1694.734134075867
 20
1031.881344873168
 30
0.0
 10
1695.34997812614
 20
1031.881344873168
 30
0.0
 10
1696.410294905485
 20
1031.881344873168
 30
0.0
 10
1696.923201433821
 20
1031.881344873168
 30
0.0
 10
1697.914844738172
 20
1031.881344873168
 30
0.0
 10
1698.39353862803
 20
1031.881344873168
 30
0.0
 10
1699.085618817755
 20
1031.881344873168
 30
0.0
 10
1699.311983863192
 20
1031.881344873168
 30
0.0
 10
1699.64494686376
 20
1031.881344873168
 30
0.0
 10
1699.809781402573
 20
1031.881344873168
 30
0.0
 10
1699.972120562523
 20
1031.881344873168
 30
0.0
 10
1700.079788814766
 20
1031.881344873168
 30
0.0
 10
1700.133379475354
 20
1031.881344873168
 30
0.0
 10
1700.61226342945
 20
1031.881344873168
 30
0.0
 10
1701.013177853589
 20
1031.881344873168
 30
0.0
 10
1701.767124276243
 20
1031.881344873168
 30
0.0
 10
1702.120220594845
 20
1031.881344873168
 30
0.0
 10
1702.779419966892
 20
1031.881344873168
 30
0.0
 10
1703.085521204901
 20
1031.881344873168
 30
0.0
 10
1703.508901807547
 20
1031.881344873168
 30
0.0
 10
1703.644065236613
 20
1031.881344873168
 30
0.0
 10
1703.805675386235
 20
1031.881344873168
 30
0.0
 10
1703.837630047203
 20
1031.881344873168
 30
0.0
 10
1703.900806735479
 20
1031.881344873168
 30
0.0
 10
1703.93204343123
 20
1031.881344873168
 30
0.0
 10
1704.024450596482
 20
1031.881344873168
 30
0.0
 10
1704.084374124153
 20
1031.881344873168
 30
0.0
 10
1704.375798580286
 20
1031.881344873168
 30
0.0
 10
1704.582791539071
 20
1031.881344873168
 30
0.0
 10
1704.857242018019
 20
1031.881344873168
 30
0.0
 10
1704.942672779382
 20
1031.881344873168
 30
0.0
 10
1705.102051906922
 20
1031.881344873168
 30
0.0
 10
1705.176033207792
 20
1031.881344873168
 30
0.0
 10
1705.283763762118
 20
1031.881344873168
 30
0.0
 10
1705.321086839884
 20
1031.881344873168
 30
0.0
 10
1705.356785144917
 20
1031.881344873168
 30
0.0
  0
LINE
  5
846D
102
{ACAD_REACTORS
330
8618
102
}
330
A
100
AcDbEntity
  8
HIDDEN
 48
0.5
100
AcDbLine
 10
1648.903103851671
 20
922.014372541672
 30
-0.0000000000000062
 11
1603.988746471345
 21
922.014372541672
 31
-0.0000000000000062
  0
LINE
  5
846E
102
{ACAD_REACTORS
330
8618
102
}
330
A
100
AcDbEntity
  8
HIDDEN
 48
0.5
100
AcDbLine
 10
1648.445925161506
 20
914.881344873168
 30
-0.0000000000000062
 11
1604.445925161506
 21
914.881344873168
 31
-0.0000000000000062
  0
SPLINE
  5
8471
102
{ACAD_REACTORS
330
8618
102
}
330
A
100
AcDbEntity
  8
HIDDEN
 48
0.5
100
AcDbSpline
210
0.0
220
0.0
230
1.0
 70
     8
 71
     3
 72
    50
 73
    46
 74
     0
 42
0.000000001
 43
0.0000000001
 40
0.0
 40
0.0
 40
0.0
 40
0.0
 40
0.0625638916960678
 40
0.0625638916960678
 40
0.1251277833921357
 40
0.1251277833921357
 40
0.1876916750882035
 40
0.1876916750882035
 40
0.2502555667842714
 40
0.2502555667842714
 40
0.2580760532462801
 40
0.2580760532462801
 40
0.2658965397082889
 40
0.2815375126323069
 40
0.3128194584803432
 40
0.3128194584803432
 40
0.3753833501764161
 40
0.3753833501764161
 40
0.4379472418724889
 40
0.4379472418724889
 40
0.5005111335685618
 40
0.5005111335685618
 40
0.5630750252646346
 40
0.5630750252646346
 40
0.6256389169607074
 40
0.6256389169607074
 40
0.6334594034227166
 40
0.6334594034227166
 40
0.6412798898847255
 40
0.6569208628087435
 40
0.6882028086567796
 40
0.6882028086567796
 40
0.7507667003528519
 40
0.7507667003528519
 40
0.8133305920489242
 40
0.8133305920489242
 40
0.8758944837449965
 40
0.8758944837449965
 40
0.9384583754410688
 40
0.9384583754410688
 40
0.9697403212891049
 40
0.9697403212891049
 40
0.985381294213123
 40
0.985381294213123
 40
1.0
 40
1.0
 40
1.0
 40
1.0
 10
1582.572423244977
 20
941.628953885026
 30
-0.0000000000000062
 10
1654.42277059204
 20
941.6214984515473
 30
-0.0000000000000055
 10
1655.042967419091
 20
941.6239518542216
 30
-0.0000000000000055
 10
1656.252341671914
 20
941.6295114299
 30
-0.0000000000000055
 10
1656.841521875607
 20
941.6326105471753
 30
-0.0000000000000055
 10
1657.988638543904
 20
941.6395204249138
 30
-0.0000000000000055
 10
1658.54657891518
 20
941.643331374421
 30
-0.0000000000000055
 10
1659.630676659346
 20
941.6517580354712
 30
-0.0000000000000055
 10
1660.156831851828
 20
941.6563768988062
 30
-0.0000000000000055
 10
1660.730386040219
 20
941.6620929824139
 30
-0.0000000000000055
 10
1660.793880694217
 20
941.6627355087776
 30
-0.0000000000000055
 10
1660.920252380116
 20
941.6640340394742
 30
-0.0000000000000055
 10
1661.108800881879
 20
941.6660011827053
 30
-0.0000000000000055
 10
1661.541707245366
 20
941.6707276403331
 30
-0.0000000000000055
 10
1661.900776109303
 20
941.675016545677
 30
-0.0000000000000055
 10
1662.603085182827
 20
941.6839234139052
 30
-0.0000000000000055
 10
1663.050198795851
 20
941.6903058156031
 30
-0.0000000000000055
 10
1663.902862622826
 20
941.7039730353072
 30
-0.0000000000000055
 10
1664.30840676106
 20
941.7112568423263
 30
-0.0000000000000055
 10
1665.078200358816
 20
941.7266966971083
 30
-0.0000000000000055
 10
1665.442448231342
 20
941.7348542319896
 30
-0.0000000000000055
 10
1666.12964574824
 20
941.751944490753
 30
-0.0000000000000055
 10
1666.452596751415
 20
941.7608782363613
 30
-0.0000000000000055
 10
1667.056995569854
 20
941.779321814699
 30
-0.0000000000000055
 10
1667.33843838284
 20
941.7888338342755
 30
-0.0000000000000055
 10
1667.631479475671
 20
941.7996771193875
 30
-0.0000000000000055
 10
1667.663715078781
 20
941.8008839321128
 30
-0.0000000000000055
 10
1667.727430999292
 20
941.8032966807814
 30
-0.0000000000000055
 10
1667.821910105098
 20
941.8069158761582
 30
-0.0000000000000055
 10
1668.034741275444
 20
941.8153522510775
 30
-0.0000000000000055
 10
1668.204242356851
 20
941.8225365577537
 30
-0.0000000000000055
 10
1668.526346005876
 20
941.8367504331118
 30
-0.0000000000000055
 10
1668.718563796394
 20
941.8460232316438
 30
-0.0000000000000055
 10
1669.059454777011
 20
941.8635855002294
 30
-0.0000000000000055
 10
1669.208137388096
 20
941.871870256583
 30
-0.0000000000000055
 10
1669.462896249841
 20
941.8868167944465
 30
-0.0000000000000064
 10
1669.568973637646
 20
941.8934774683812
 30
-0.0000000000000064
 10
1669.738918327215
 20
941.9045459057606
 30
-0.0000000000000064
 10
1669.802785291102
 20
941.9089504904705
 30
-0.0000000000000064
 10
1669.866818820954
 20
941.9134514259067
 30
-0.0000000000000064
 10
1669.882864672121
 20
941.9146016692403
 30
-0.0000000000000062
 10
1669.898935167437
 20
941.9157618722538
 30
-0.0000000000000062
 10
1669.902958702502
 20
941.9160545086352
 30
-0.0000000000000063
 10
1669.908152361228
 20
941.9164333748859
 30
-0.0000000000000062
 10
1669.909469924774
 20
941.9165301523326
 30
-0.0000000000000064
 10
1669.909672027296
 20
941.9165463861145
 30
-0.0000000000000042
  0
CIRCLE
  5
8493
330
A
100
AcDbEntity
  8
MODEL
100
AcDbCircle
 10
520.9356688517438
 20
1989.065179553461
 30
-0.0000000025835149
 40
23.0
  0
CIRCLE
  5
8494
330
A
100
AcDbEntity
  8
MODEL
100
AcDbCircle
 10
520.9356688517438
 20
1989.065179553461
 30
-0.0000000025835149
 40
36.0
  0
SPLINE
  5
84AA
330
A
100
AcDbEntity
  8
MODEL
100
AcDbSpline
210
0.0
220
0.0
230
1.0
 70
     8
 71
     3
 72
    51
 73
    47
 74
     0
 42
0.000000001
 43
0.0000000001
 40
0.0
 40
0.0
 40
0.0
 40
0.0
 40
0.0625004115907574
 40
0.1250003841513736
 40
0.1562503704316817
 40
0.1875003567119898
 40
0.2187503429922979
 40
0.2500003292726059
 40
0.281250315552914
 40
0.3125003018332221
 40
0.3281252949733761
 40
0.3437502881135302
 40
0.3593752812536842
 40
0.3750002743938383
 40
0.3828127709639152
 40
0.3906252675339923
 40
0.4062502606741463
 40
0.4140627572442234
 40
0.4218752538143004
 40
0.4296877503843773
 40
0.4375002469544544
 40
0.4453127435245315
 40
0.4531252400946085
 40
0.4687502332347625
 40
0.4843752263749165
 40
0.4921877229449935
 40
0.5000002195150707
 40
0.5078127160851477
 40
0.5156252126552245
 40
0.5234377092253016
 40
0.5312502057953787
 40
0.5390627023654556
 40
0.5468751989355327
 40
0.5546876955056098
 40
0.5625001920756868
 40
0.5781251852158407
 40
0.5937501783559948
 40
0.6250001646363029
 40
0.656250150916611
 40
0.6875001371969193
 40
0.7187501234772272
 40
0.7500001097575353
 40
0.8125000823181516
 40
0.8750000548787676
 40
0.9375000274393838
 40
1.0
 40
1.0
 40
1.0
 40
1.0
 10
692.2856688536305
 20
1986.215179553531
 30
-0.0000000046240195
 10
692.2856688517497
 20
1968.3242765557
 30
-0.0000000046240195
 10
692.2856611227983
 20
1955.242470616859
 30
-0.0000000046240195
 10
692.2856458569588
 20
1938.890213233389
 30
-0.0000000046240195
 10
692.2856385121343
 20
1925.80840728947
 30
-0.0000000046240195
 10
692.2856380989108
 20
1915.997052793055
 30
-0.0000000046240195
 10
692.2856454425712
 20
1906.185698238259
 30
-0.0000000046240195
 10
692.2856632046025
 20
1896.37434360518
 30
-0.0000000046240195
 10
692.2856940464848
 20
1886.562988873919
 30
-0.0000000046240195
 10
692.2856336106564
 20
1878.386856518721
 30
-0.0000000046240195
 10
692.2854753572032
 20
1871.845946588684
 30
-0.0000000046240195
 10
692.2853883318243
 20
1866.940265915334
 30
-0.0000000046240195
 10
692.2854195882686
 20
1862.034590813279
 30
-0.0000000046240195
 10
692.2856163844266
 20
1857.946536035247
 30
-0.0000000046240195
 10
692.2859195793866
 20
1854.676098795589
 30
-0.0000000046240195
 10
692.2853377572322
 20
1851.405641406206
 30
-0.0000000046240195
 10
692.2797837708207
 20
1848.135025131617
 30
-0.0000000046240195
 10
692.1889128106926
 20
1844.865582594611
 30
-0.0000000046240195
 10
692.0355514807019
 20
1842.416949698595
 30
-0.0000000046240195
 10
691.7415892259963
 20
1839.980165075477
 30
-0.0000000046240195
 10
691.2342391322094
 20
1837.577141588407
 30
-0.0000000046240195
 10
690.4563430779675
 20
1835.245965573899
 30
-0.0000000046240195
 10
689.0235904085642
 20
1832.297606015046
 30
-0.0000000046240195
 10
686.4977029712321
 20
1829.034170855178
 30
-0.0000000046240195
 10
683.1816661124616
 20
1826.577757089187
 30
-0.0000000046240195
 10
680.2036822423546
 20
1825.207797977941
 30
-0.0000000046240195
 10
677.8578900919023
 20
1824.47580031957
 30
-0.0000000046240195
 10
675.4472507943723
 20
1824.007402173235
 30
-0.0000000046240195
 10
673.0076223324289
 20
1823.740113945
 30
-0.0000000046240195
 10
670.5581534224042
 20
1823.602482117213
 30
-0.0000000046240195
 10
668.1059067872269
 20
1823.542237193559
 30
-0.0000000046240195
 10
665.6532043423653
 20
1823.519077834334
 30
-0.0000000046240195
 10
663.2003013067009
 20
1823.515705407713
 30
-0.0000000046240195
 10
660.747452899101
 20
1823.514821281859
 30
-0.0000000046240195
 10
657.4770214683234
 20
1823.515233292487
 30
-0.0000000046240195
 10
653.3889697822673
 20
1823.51549322293
 30
-0.0000000046240195
 10
646.8480683696401
 20
1823.515524071538
 30
-0.0000000046240195
 10
638.6719210132436
 20
1823.51513906327
 30
-0.0000000046240195
 10
628.8605576402045
 20
1823.514954162582
 30
-0.0000000046240195
 10
619.0492035019273
 20
1823.514959915118
 30
-0.0000000046240195
 10
609.2378543785529
 20
1823.515069864839
 30
-0.0000000046240195
 10
596.1560566074189
 20
1823.515240119355
 30
-0.0000000046240195
 10
579.8038008313746
 20
1823.515281150335
 30
-0.0000000046240195
 10
560.1810882076101
 20
1823.51521249262
 30
-0.0000000046240195
 10
540.5583778982185
 20
1823.515182904593
 30
-0.0000000046240195
 10
527.4765718496132
 20
1823.515179553534
 30
-0.0000000046240195
 10
520.935668851744
 20
1823.515179553534
 30
-0.0000000046240195
  0
SPLINE
  5
84AB
330
A
100
AcDbEntity
  8
MODEL
100
AcDbSpline
 70
     0
 71
     3
 72
    51
 73
    47
 74
     0
 42
0.000000001
 43
0.0000000001
 40
0.0
 40
0.0
 40
0.0
 40
0.0
 40
0.0625004115907574
 40
0.1250003841513736
 40
0.1562503704316817
 40
0.1875003567119898
 40
0.2187503429922979
 40
0.2500003292726059
 40
0.281250315552914
 40
0.3125003018332221
 40
0.3281252949733761
 40
0.3437502881135302
 40
0.3593752812536842
 40
0.3750002743938383
 40
0.3828127709639152
 40
0.3906252675339923
 40
0.4062502606741463
 40
0.4140627572442234
 40
0.4218752538143004
 40
0.4296877503843773
 40
0.4375002469544544
 40
0.4453127435245315
 40
0.4531252400946085
 40
0.4687502332347625
 40
0.4843752263749165
 40
0.4921877229449935
 40
0.5000002195150707
 40
0.5078127160851477
 40
0.5156252126552245
 40
0.5234377092253016
 40
0.5312502057953787
 40
0.5390627023654556
 40
0.5468751989355327
 40
0.5546876955056098
 40
0.5625001920756868
 40
0.5781251852158407
 40
0.5937501783559948
 40
0.6250001646363029
 40
0.656250150916611
 40
0.6875001371969193
 40
0.7187501234772272
 40
0.7500001097575353
 40
0.8125000823181516
 40
0.8750000548787676
 40
0.9375000274393838
 40
1.0
 40
1.0
 40
1.0
 40
1.0
 10
349.5856688517453
 20
1986.215179553526
 30
-0.0000000028391412
 10
349.5856688517454
 20
1968.324276555699
 30
-0.0000000046240195
 10
349.5856765806968
 20
1955.242470616859
 30
-0.0000000046240195
 10
349.5856918465363
 20
1938.890213233389
 30
-0.0000000046240195
 10
349.5856991913608
 20
1925.80840728947
 30
-0.0000000046240195
 10
349.585699604577
 20
1915.997052793055
 30
-0.0000000046240195
 10
349.5856922609094
 20
1906.185698238259
 30
-0.0000000046240195
 10
349.585674498878
 20
1896.37434360518
 30
-0.0000000046240195
 10
349.5856436570033
 20
1886.562988873919
 30
-0.0000000046240195
 10
349.5857040928389
 20
1878.386856518721
 30
-0.0000000046240195
 10
349.5858623462849
 20
1871.845946588684
 30
-0.0000000046240195
 10
349.5859493716711
 20
1866.940265915334
 30
-0.0000000046240195
 10
349.5859181152194
 20
1862.034590813279
 30
-0.0000000046240195
 10
349.5857213190615
 20
1857.946536035246
 30
-0.0000000046240195
 10
349.5854181241087
 20
1854.676098795589
 30
-0.0000000046240195
 10
349.5859999462558
 20
1851.405641406206
 30
-0.0000000046240195
 10
349.5915539326601
 20
1848.135025131617
 30
-0.0000000046240195
 10
349.6824248928027
 20
1844.86558259461
 30
-0.0000000046240195
 10
349.8357862227862
 20
1842.416949698595
 30
-0.0000000046240195
 10
350.129748477499
 20
1839.980165075477
 30
-0.0000000046240195
 10
350.6370985712787
 20
1837.577141588407
 30
-0.0000000046240195
 10
351.4149946255205
 20
1835.245965573899
 30
-0.0000000046240195
 10
352.8477472949311
 20
1832.297606015046
 30
-0.0000000046240195
 10
355.3736347322632
 20
1829.034170855178
 30
-0.0000000046240195
 10
358.6896715910265
 20
1826.577757089187
 30
-0.0000000046240195
 10
361.6676554611262
 20
1825.207797977941
 30
-0.0000000046240195
 10
364.0134476115931
 20
1824.47580031957
 30
-0.0000000046240195
 10
366.424086909123
 20
1824.007402173235
 30
-0.0000000046240195
 10
368.8637153710664
 20
1823.740113945
 30
-0.0000000046240195
 10
371.3131842810911
 20
1823.602482117213
 30
-0.0000000046240195
 10
373.7654309162684
 20
1823.542237193559
 30
-0.0000000046240195
 10
376.2181333611228
 20
1823.519077834334
 30
-0.0000000046240195
 10
378.6710363967944
 20
1823.515705407713
 30
-0.0000000046240195
 10
381.1238848043871
 20
1823.514821281859
 30
-0.0000000046240195
 10
384.3943162351646
 20
1823.515233292487
 30
-0.0000000046240195
 10
388.482367921228
 20
1823.51549322293
 30
-0.0000000046240195
 10
395.0232693338552
 20
1823.515524071538
 30
-0.0000000046240195
 10
403.1994166902517
 20
1823.51513906327
 30
-0.0000000046240195
 10
413.0107800632908
 20
1823.514954162582
 30
-0.0000000046240195
 10
422.8221342015607
 20
1823.514959915118
 30
-0.0000000046240195
 10
432.6334833249351
 20
1823.515069864839
 30
-0.0000000046240195
 10
445.7152810960764
 20
1823.515240119355
 30
-0.0000000046240195
 10
462.0675368721135
 20
1823.515281150335
 30
-0.0000000046240195
 10
481.690249495878
 20
1823.51521249262
 30
-0.0000000046240195
 10
501.3129598052768
 20
1823.515182904593
 30
-0.0000000046240195
 10
514.3947658538822
 20
1823.515179553534
 30
-0.0000000046240195
 10
520.935668851744
 20
1823.515179553534
 30
-0.0000000046240195
  0
SPLINE
  5
84AC
330
A
100
AcDbEntity
  8
MODEL
100
AcDbSpline
210
0.0
220
0.0
230
1.0
 70
     8
 71
     3
 72
    41
 73
    37
 74
     0
 42
0.000000001
 43
0.0000000001
 40
0.0
 40
0.0
 40
0.0
 40
0.0
 40
0.125
 40
0.1875
 40
0.25
 40
0.3124999999999999
 40
0.3750000000000001
 40
0.4374999999999999
 40
0.46875
 40
0.5
 40
0.53125
 40
0.546875
 40
0.5625000000000001
 40
0.578125
 40
0.5937499999999999
 40
0.609375
 40
0.625
 40
0.640625
 40
0.65625
 40
0.6718749999999999
 40
0.6875
 40
0.7031249999999999
 40
0.7187500000000001
 40
0.7343750000000001
 40
0.7421875
 40
0.7499999999999999
 40
0.7578125
 40
0.7656250000000001
 40
0.7734374999999999
 40
0.7812499999999999
 40
0.7890625
 40
0.7968750000000001
 40
0.8125
 40
0.8750000000000001
 40
0.9375
 40
1.0
 40
1.0
 40
1.0
 40
1.0
 10
520.9356688517473
 20
2063.21517955384
 30
-0.0000000046240195
 10
530.9219367251899
 20
2063.21517955384
 30
-0.0000000046240195
 10
545.9013385004255
 20
2063.215119559022
 30
-0.0000000046240195
 10
565.8738741862362
 20
2063.215010276449
 30
-0.0000000046240195
 10
580.8532759571863
 20
2063.214936344811
 30
-0.0000000046240195
 10
595.8326777485818
 20
2063.21489311851
 30
-0.0000000046240195
 10
610.812079574247
 20
2063.214903272575
 30
-0.0000000046240195
 10
623.2949144690756
 20
2063.214975113801
 30
-0.0000000046240195
 10
633.281182415918
 20
2063.215081952006
 30
-0.0000000046240195
 10
640.7708833932738
 20
2063.215189597649
 30
-0.0000000046240195
 10
647.0123008901974
 20
2063.215304595159
 30
-0.0000000046240195
 10
652.0054347747391
 20
2063.215282359145
 30
-0.0000000046240195
 10
655.7502851010249
 20
2063.215176212699
 30
-0.0000000046240195
 10
659.4951353095712
 20
2063.214948244388
 30
-0.0000000046240195
 10
663.2399921896904
 20
2063.216021274165
 30
-0.0000000046240195
 10
666.9848079548574
 20
2063.205915171619
 30
-0.0000000046240195
 10
670.7292202475983
 20
2063.131144147358
 30
-0.0000000046240195
 10
674.4680878741165
 20
2062.880695696923
 30
-0.0000000046240195
 10
678.1664353205888
 20
2062.236069356814
 30
-0.0000000046240195
 10
681.7050439217819
 20
2060.956406182521
 30
-0.0000000046240195
 10
684.9076077860118
 20
2058.975770327869
 30
-0.0000000046240195
 10
687.633770034201
 20
2056.379239207122
 30
-0.0000000046240195
 10
689.771043045741
 20
2053.279329744738
 30
-0.0000000046240195
 10
690.9796014188869
 20
2050.385248962578
 30
-0.0000000046240195
 10
691.6072985200263
 20
2047.966381069781
 30
-0.0000000046240195
 10
691.9263370268492
 20
2046.119905784809
 30
-0.0000000046240195
 10
692.1240341371196
 20
2044.257730172302
 30
-0.0000000046240195
 10
692.2307989284346
 20
2042.387415247939
 30
-0.0000000046240195
 10
692.2763715649018
 20
2040.515586989418
 30
-0.0000000046240195
 10
692.2861518354149
 20
2038.64306281619
 30
-0.0000000046240195
 10
692.2855395288753
 20
2036.770660147718
 30
-0.0000000046240195
 10
692.2857335159971
 20
2034.274093993335
 30
-0.0000000046240195
 10
692.285582637127
 20
2027.408534188969
 30
-0.0000000046240195
 10
692.2856900761509
 20
2016.1739832661
 30
-0.0000000046240195
 10
692.2856918446888
 20
2001.194581458944
 30
-0.0000000046240195
 10
692.2856688536305
 20
1991.208313490325
 30
-0.0000000046240195
 10
692.2856688536305
 20
1986.215179553531
 30
-0.0000000046240195
  0
SPLINE
  5
84AD
330
A
100
AcDbEntity
  8
MODEL
100
AcDbSpline
210
0.0
220
0.0
230
1.0
 70
     8
 71
     3
 72
    41
 73
    37
 74
     0
 42
0.000000001
 43
0.0000000001
 40
0.0
 40
0.0
 40
0.0
 40
0.0
 40
0.0624997588392009
 40
0.1249997749165875
 40
0.1874997909939742
 40
0.2031247950133208
 40
0.2109372970229941
 40
0.2187497990326674
 40
0.2265623010423409
 40
0.2343748030520141
 40
0.2421873050616874
 40
0.2499998070713607
 40
0.2578123090810341
 40
0.2656248110907075
 40
0.281249815110054
 40
0.2968748191294007
 40
0.3124998231487474
 40
0.328124827168094
 40
0.3437498311874407
 40
0.3593748352067873
 40
0.3749998392261339
 40
0.3906248432454806
 40
0.4062498472648273
 40
0.421874851284174
 40
0.4374998553035205
 40
0.4531248593228672
 40
0.4687498633422139
 40
0.4999998713809072
 40
0.5312498794196006
 40
0.5624998874582937
 40
0.6249999035356804
 40
0.6874999196130671
 40
0.7499999356904536
 40
0.8124999517678403
 40
0.8749999678452267
 40
1.0
 40
1.0
 40
1.0
 40
1.0
 10
349.5856688509558
 20
1986.215241205899
 30
-0.0000000046240195
 10
349.5856688508612
 20
1991.208354591882
 30
-0.0000000046240195
 10
349.5856458598902
 20
2001.194602009654
 30
-0.0000000046240195
 10
349.5856476284354
 20
2016.173983265943
 30
-0.0000000046240195
 10
349.5857550674519
 20
2027.40853418875
 30
-0.0000000046240195
 10
349.5856041885819
 20
2034.27409399308
 30
-0.0000000046240195
 10
349.5857981757036
 20
2036.770660147448
 30
-0.0000000046240195
 10
349.5851858691641
 20
2038.643062815916
 30
-0.0000000046240195
 10
349.5949661396772
 20
2040.51558698913
 30
-0.0000000046240195
 10
349.6405387761444
 20
2042.387415247645
 30
-0.0000000046240195
 10
349.7473035674594
 20
2044.257730171993
 30
-0.0000000046240195
 10
349.9450006777225
 20
2046.119905784489
 30
-0.0000000046240195
 10
350.2640391845454
 20
2047.966381069454
 30
-0.0000000046240195
 10
350.8917362856628
 20
2050.385248962243
 30
-0.0000000046240195
 10
352.1002946587869
 20
2053.279329744395
 30
-0.0000000046240195
 10
354.2375676702613
 20
2056.379239206793
 30
-0.0000000046240195
 10
356.9637299184069
 20
2058.97577032756
 30
-0.0000000046240195
 10
360.1662937826004
 20
2060.956406182248
 30
-0.0000000046240195
 10
363.7049023837571
 20
2062.236069356582
 30
-0.0000000046240195
 10
367.4032498302004
 20
2062.880695696726
 30
-0.0000000046240195
 10
371.1421174566894
 20
2063.131144147173
 30
-0.0000000046240195
 10
374.8865297494158
 20
2063.205915171437
 30
-0.0000000046240195
 10
378.6313455145682
 20
2063.216021273994
 30
-0.0000000046240195
 10
382.3762023946583
 20
2063.214948244214
 30
-0.0000000046240195
 10
386.12105260319
 20
2063.215176212524
 30
-0.0000000046240195
 10
389.865902929454
 20
2063.215282358967
 30
-0.0000000046240195
 10
394.8590368139739
 20
2063.21530459498
 30
-0.0000000046240195
 10
401.1004543108611
 20
2063.215189597469
 30
-0.0000000046240195
 10
408.5901552881805
 20
2063.215081951831
 30
-0.0000000046240195
 10
418.576423234972
 20
2063.214975113623
 30
-0.0000000046240195
 10
431.0592581297278
 20
2063.214903272396
 30
-0.0000000046240195
 10
446.0386599553203
 20
2063.214893118332
 30
-0.0000000046240195
 10
461.0180617466285
 20
2063.214936344632
 30
-0.0000000046240195
 10
475.9974635175058
 20
2063.215010276271
 30
-0.0000000046240195
 10
495.9699992032074
 20
2063.215119558844
 30
-0.0000000046240195
 10
510.9494009783557
 20
2063.215179553662
 30
-0.0000000046240195
 10
520.9356688517473
 20
2063.215179553662
 30
-0.0000000046240195
  0
LINE
  5
85F7
330
A
100
AcDbEntity
  8
HIDDEN
100
AcDbLine
 10
1233.223159069058
 20
2166.215179553529
 30
-0.0000000046240195
 11
1777.11751471123
 21
2166.215179553533
 31
-0.0000000046240195
  0
LINE
  5
85F8
330
A
100
AcDbEntity
  8
HIDDEN
100
AcDbLine
 10
1780.117057796692
 20
2163.215179553533
 30
-0.0000000046240195
 11
1780.117057796694
 21
1819.34902043775
 31
-0.0000000046240195
  0
LINE
  5
85F9
330
A
100
AcDbEntity
  8
HIDDEN
100
AcDbLine
 10
1230.223615983591
 20
1819.349020437746
 30
-0.0000000046240195
 11
1230.223615983589
 21
2163.215179553529
 31
-0.0000000046240195
  0
LINE
  5
85FA
330
A
100
AcDbEntity
  8
HIDDEN
100
AcDbLine
 10
1233.22315906906
 20
1816.349020437746
 30
-0.0000000046240195
 11
1777.117514711232
 21
1816.34902043775
 31
-0.0000000046240195
  0
ARC
  5
85FB
330
A
100
AcDbEntity
  8
HIDDEN
100
AcDbCircle
 10
1233.22315906906
 20
1819.349020437746
 30
-0.0000000046240195
 40
3.0
100
AcDbArc
 50
180.0
 51
270.0
  0
ARC
  5
85FC
330
A
100
AcDbEntity
  8
HIDDEN
100
AcDbCircle
 10
1777.117514711232
 20
1819.34902043775
 30
-0.0000000046240195
 40
3.0
100
AcDbArc
 50
270.0
 51
0.0
  0
ELLIPSE
  5
85FD
330
A
100
AcDbEntity
  8
HIDDEN
100
AcDbEllipse
 10
1233.223159069058
 20
2163.215179553529
 30
-0.0000000046240195
 11
-2.026971511024352E-14
 21
3.0
 31
0.0
210
0.0
220
0.0
230
1.0
 40
0.999847695156391
 41
0.0
 42
1.57079632679489
  0
ELLIPSE
  5
85FE
330
A
100
AcDbEntity
  8
HIDDEN
100
AcDbEllipse
 10
1777.11751471123
 20
2163.215179553533
 30
-0.0000000046240195
 11
-2.026971511024352E-14
 21
3.0
 31
0.0
210
0.0
220
0.0
230
1.0
 40
0.999847695156391
 41
4.712388980384683
 42
6.283185307179586
  0
CIRCLE
  5
85FF
330
A
100
AcDbEntity
  8
HIDDEN
  6
HIDDEN2
100
AcDbCircle
 10
1408.820336890138
 20
2103.865179553535
 30
-0.0000000053126276
 40
17.5
  0
CIRCLE
  5
8600
330
A
100
AcDbEntity
  8
HIDDEN
100
AcDbCircle
 10
1408.820336890139
 20
1989.06517955346
 30
-0.0000000025835149
 40
23.0
  0
SPLINE
  5
8602
330
A
100
AcDbEntity
  8
HIDDEN
100
AcDbSpline
210
0.0
220
0.0
230
1.0
 70
     8
 71
     3
 72
    51
 73
    47
 74
     0
 42
0.000000001
 43
0.0000000001
 40
0.0
 40
0.0
 40
0.0
 40
0.0
 40
0.0625004115907574
 40
0.1250003841513736
 40
0.1562503704316817
 40
0.1875003567119898
 40
0.2187503429922979
 40
0.2500003292726059
 40
0.281250315552914
 40
0.3125003018332221
 40
0.3281252949733761
 40
0.3437502881135302
 40
0.3593752812536842
 40
0.3750002743938383
 40
0.3828127709639152
 40
0.3906252675339923
 40
0.4062502606741463
 40
0.4140627572442234
 40
0.4218752538143004
 40
0.4296877503843773
 40
0.4375002469544544
 40
0.4453127435245315
 40
0.4531252400946085
 40
0.4687502332347625
 40
0.4843752263749165
 40
0.4921877229449935
 40
0.5000002195150707
 40
0.5078127160851477
 40
0.5156252126552245
 40
0.5234377092253016
 40
0.5312502057953787
 40
0.5390627023654556
 40
0.5468751989355327
 40
0.5546876955056098
 40
0.5625001920756868
 40
0.5781251852158407
 40
0.5937501783559948
 40
0.6250001646363029
 40
0.656250150916611
 40
0.6875001371969193
 40
0.7187501234772272
 40
0.7500001097575353
 40
0.8125000823181516
 40
0.8750000548787676
 40
0.9375000274393838
 40
1.0
 40
1.0
 40
1.0
 40
1.0
 10
1580.170336892026
 20
1986.215179553532
 30
-0.0000000046240195
 10
1580.170336890145
 20
1968.3242765557
 30
-0.0000000046240195
 10
1580.170329161194
 20
1955.24247061686
 30
-0.0000000046240195
 10
1580.170313895354
 20
1938.890213233389
 30
-0.0000000046240195
 10
1580.170306550531
 20
1925.808407289471
 30
-0.0000000046240195
 10
1580.170306137307
 20
1915.997052793056
 30
-0.0000000046240195
 10
1580.170313480967
 20
1906.185698238259
 30
-0.0000000046240195
 10
1580.170331242999
 20
1896.37434360518
 30
-0.0000000046240195
 10
1580.170362084881
 20
1886.56298887392
 30
-0.0000000046240195
 10
1580.170301649053
 20
1878.386856518722
 30
-0.0000000046240195
 10
1580.170143395599
 20
1871.845946588684
 30
-0.0000000046240195
 10
1580.17005637022
 20
1866.940265915335
 30
-0.0000000046240195
 10
1580.170087626665
 20
1862.03459081328
 30
-0.0000000046240195
 10
1580.170284422823
 20
1857.946536035247
 30
-0.0000000046240195
 10
1580.170587617783
 20
1854.676098795589
 30
-0.0000000046240195
 10
1580.170005795628
 20
1851.405641406207
 30
-0.0000000046240195
 10
1580.164451809217
 20
1848.135025131618
 30
-0.0000000046240195
 10
1580.073580849089
 20
1844.865582594611
 30
-0.0000000046240195
 10
1579.920219519098
 20
1842.416949698595
 30
-0.0000000046240195
 10
1579.626257264393
 20
1839.980165075477
 30
-0.0000000046240195
 10
1579.118907170606
 20
1837.577141588408
 30
-0.0000000046240195
 10
1578.341011116364
 20
1835.2459655739
 30
-0.0000000046240195
 10
1576.90825844696
 20
1832.297606015046
 30
-0.0000000046240195
 10
1574.382371009628
 20
1829.034170855178
 30
-0.0000000046240195
 10
1571.066334150858
 20
1826.577757089187
 30
-0.0000000046240195
 10
1568.088350280751
 20
1825.207797977942
 30
-0.0000000046240195
 10
1565.742558130298
 20
1824.47580031957
 30
-0.0000000046240195
 10
1563.331918832768
 20
1824.007402173236
 30
-0.0000000046240195
 10
1560.892290370825
 20
1823.740113945001
 30
-0.0000000046240195
 10
1558.4428214608
 20
1823.602482117213
 30
-0.0000000046240195
 10
1555.990574825623
 20
1823.542237193559
 30
-0.0000000046240195
 10
1553.537872380761
 20
1823.519077834334
 30
-0.0000000046240195
 10
1551.084969345097
 20
1823.515705407713
 30
-0.0000000046240195
 10
1548.632120937497
 20
1823.51482128186
 30
-0.0000000046240195
 10
1545.36168950672
 20
1823.515233292487
 30
-0.0000000046240195
 10
1541.273637820663
 20
1823.51549322293
 30
-0.0000000046240195
 10
1534.732736408036
 20
1823.515524071539
 30
-0.0000000046240195
 10
1526.55658905164
 20
1823.51513906327
 30
-0.0000000046240195
 10
1516.745225678601
 20
1823.514954162583
 30
-0.0000000046240195
 10
1506.933871540323
 20
1823.514959915118
 30
-0.0000000046240195
 10
1497.122522416949
 20
1823.515069864839
 30
-0.0000000046240195
 10
1484.040724645815
 20
1823.515240119355
 30
-0.0000000046240195
 10
1467.688468869771
 20
1823.515281150335
 30
-0.0000000046240195
 10
1448.065756246006
 20
1823.51521249262
 30
-0.0000000046240195
 10
1428.443045936615
 20
1823.515182904592
 30
-0.0000000046240195
 10
1415.361239888009
 20
1823.515179553533
 30
-0.0000000046240195
 10
1408.82033689014
 20
1823.515179553533
 30
-0.0000000046240195
  0
SPLINE
  5
8603
330
A
100
AcDbEntity
  8
HIDDEN
100
AcDbSpline
 70
     0
 71
     3
 72
    51
 73
    47
 74
     0
 42
0.000000001
 43
0.0000000001
 40
0.0
 40
0.0
 40
0.0
 40
0.0
 40
0.0625004115907574
 40
0.1250003841513736
 40
0.1562503704316817
 40
0.1875003567119898
 40
0.2187503429922979
 40
0.2500003292726059
 40
0.281250315552914
 40
0.3125003018332221
 40
0.3281252949733761
 40
0.3437502881135302
 40
0.3593752812536842
 40
0.3750002743938383
 40
0.3828127709639152
 40
0.3906252675339923
 40
0.4062502606741463
 40
0.4140627572442234
 40
0.4218752538143004
 40
0.4296877503843773
 40
0.4375002469544544
 40
0.4453127435245315
 40
0.4531252400946085
 40
0.4687502332347625
 40
0.4843752263749165
 40
0.4921877229449935
 40
0.5000002195150707
 40
0.5078127160851477
 40
0.5156252126552245
 40
0.5234377092253016
 40
0.5312502057953787
 40
0.5390627023654556
 40
0.5468751989355327
 40
0.5546876955056098
 40
0.5625001920756868
 40
0.5781251852158407
 40
0.5937501783559948
 40
0.6250001646363029
 40
0.656250150916611
 40
0.6875001371969193
 40
0.7187501234772272
 40
0.7500001097575353
 40
0.8125000823181516
 40
0.8750000548787676
 40
0.9375000274393838
 40
1.0
 40
1.0
 40
1.0
 40
1.0
 10
1237.470336890141
 20
1986.215179553526
 30
-0.0000000028391412
 10
1237.470336890141
 20
1968.324276555698
 30
-0.0000000046240195
 10
1237.470344619092
 20
1955.242470616858
 30
-0.0000000046240195
 10
1237.470359884932
 20
1938.890213233387
 30
-0.0000000046240195
 10
1237.470367229756
 20
1925.808407289468
 30
-0.0000000046240195
 10
1237.470367642973
 20
1915.997052793054
 30
-0.0000000046240195
 10
1237.470360299306
 20
1906.185698238257
 30
-0.0000000046240195
 10
1237.470342537274
 20
1896.374343605178
 30
-0.0000000046240195
 10
1237.470311695399
 20
1886.562988873918
 30
-0.0000000046240195
 10
1237.470372131235
 20
1878.38685651872
 30
-0.0000000046240195
 10
1237.470530384681
 20
1871.845946588682
 30
-0.0000000046240195
 10
1237.470617410067
 20
1866.940265915332
 30
-0.0000000046240195
 10
1237.470586153616
 20
1862.034590813278
 30
-0.0000000046240195
 10
1237.470389357458
 20
1857.946536035245
 30
-0.0000000046240195
 10
1237.470086162505
 20
1854.676098795587
 30
-0.0000000046240195
 10
1237.470667984652
 20
1851.405641406204
 30
-0.0000000046240195
 10
1237.476221971056
 20
1848.135025131615
 30
-0.0000000046240195
 10
1237.567092931199
 20
1844.865582594609
 30
-0.0000000046240195
 10
1237.720454261182
 20
1842.416949698593
 30
-0.0000000046240195
 10
1238.014416515895
 20
1839.980165075475
 30
-0.0000000046240195
 10
1238.521766609675
 20
1837.577141588406
 30
-0.0000000046240195
 10
1239.299662663917
 20
1835.245965573898
 30
-0.0000000046240195
 10
1240.732415333327
 20
1832.297606015044
 30
-0.0000000046240195
 10
1243.258302770659
 20
1829.034170855176
 30
-0.0000000046240195
 10
1246.574339629423
 20
1826.577757089185
 30
-0.0000000046240195
 10
1249.552323499522
 20
1825.20779797794
 30
-0.0000000046240195
 10
1251.898115649989
 20
1824.475800319568
 30
-0.0000000046240195
 10
1254.308754947519
 20
1824.007402173234
 30
-0.0000000046240195
 10
1256.748383409463
 20
1823.740113944999
 30
-0.0000000046240195
 10
1259.197852319487
 20
1823.602482117211
 30
-0.0000000046240195
 10
1261.650098954665
 20
1823.542237193557
 30
-0.0000000046240195
 10
1264.102801399519
 20
1823.519077834332
 30
-0.0000000046240195
 10
1266.555704435191
 20
1823.515705407711
 30
-0.0000000046240195
 10
1269.008552842783
 20
1823.514821281858
 30
-0.0000000046240195
 10
1272.278984273561
 20
1823.515233292485
 30
-0.0000000046240195
 10
1276.367035959624
 20
1823.515493222928
 30
-0.0000000046240195
 10
1282.907937372251
 20
1823.515524071537
 30
-0.0000000046240195
 10
1291.084084728648
 20
1823.515139063268
 30
-0.0000000046240195
 10
1300.895448101687
 20
1823.514954162581
 30
-0.0000000046240195
 10
1310.706802239957
 20
1823.514959915116
 30
-0.0000000046240195
 10
1320.518151363331
 20
1823.515069864838
 30
-0.0000000046240195
 10
1333.599949134473
 20
1823.515240119354
 30
-0.0000000046240195
 10
1349.95220491051
 20
1823.515281150334
 30
-0.0000000046240195
 10
1369.574917534274
 20
1823.515212492619
 30
-0.0000000046240195
 10
1389.197627843673
 20
1823.515182904592
 30
-0.0000000046240195
 10
1402.279433892278
 20
1823.515179553533
 30
-0.0000000046240195
 10
1408.82033689014
 20
1823.515179553533
 30
-0.0000000046240195
  0
SPLINE
  5
8604
330
A
100
AcDbEntity
  8
HIDDEN
100
AcDbSpline
210
0.0
220
0.0
230
1.0
 70
     8
 71
     3
 72
    41
 73
    37
 74
     0
 42
0.000000001
 43
0.0000000001
 40
0.0
 40
0.0
 40
0.0
 40
0.0
 40
0.125
 40
0.1875
 40
0.25
 40
0.3124999999999999
 40
0.3750000000000001
 40
0.4374999999999999
 40
0.46875
 40
0.5
 40
0.53125
 40
0.546875
 40
0.5625000000000001
 40
0.578125
 40
0.5937499999999999
 40
0.609375
 40
0.625
 40
0.640625
 40
0.65625
 40
0.6718749999999999
 40
0.6875
 40
0.7031249999999999
 40
0.7187500000000001
 40
0.7343750000000001
 40
0.7421875
 40
0.7499999999999999
 40
0.7578125
 40
0.7656250000000001
 40
0.7734374999999999
 40
0.7812499999999999
 40
0.7890625
 40
0.7968750000000001
 40
0.8125
 40
0.8750000000000001
 40
0.9375
 40
1.0
 40
1.0
 40
1.0
 40
1.0
 10
1408.820336890143
 20
2063.215179553839
 30
-0.0000000046240195
 10
1418.806604763585
 20
2063.215179553839
 30
-0.0000000046240195
 10
1433.786006538821
 20
2063.215119559021
 30
-0.0000000046240195
 10
1453.758542224632
 20
2063.215010276449
 30
-0.0000000046240195
 10
1468.737943995582
 20
2063.214936344811
 30
-0.0000000046240195
 10
1483.717345786977
 20
2063.21489311851
 30
-0.0000000046240195
 10
1498.696747612643
 20
2063.214903272575
 30
-0.0000000046240195
 10
1511.179582507471
 20
2063.214975113801
 30
-0.0000000046240195
 10
1521.165850454314
 20
2063.215081952006
 30
-0.0000000046240195
 10
1528.655551431669
 20
2063.215189597649
 30
-0.0000000046240195
 10
1534.896968928593
 20
2063.215304595159
 30
-0.0000000046240195
 10
1539.890102813135
 20
2063.215282359145
 30
-0.0000000046240195
 10
1543.63495313942
 20
2063.215176212699
 30
-0.0000000046240195
 10
1547.379803347967
 20
2063.214948244388
 30
-0.0000000046240195
 10
1551.124660228086
 20
2063.216021274165
 30
-0.0000000046240195
 10
1554.869475993253
 20
2063.205915171619
 30
-0.0000000046240195
 10
1558.613888285994
 20
2063.131144147358
 30
-0.0000000046240195
 10
1562.352755912512
 20
2062.880695696923
 30
-0.0000000046240195
 10
1566.051103358984
 20
2062.236069356814
 30
-0.0000000046240195
 10
1569.589711960177
 20
2060.956406182521
 30
-0.0000000046240195
 10
1572.792275824407
 20
2058.97577032787
 30
-0.0000000046240195
 10
1575.518438072597
 20
2056.379239207122
 30
-0.0000000046240195
 10
1577.655711084136
 20
2053.279329744738
 30
-0.0000000046240195
 10
1578.864269457282
 20
2050.385248962578
 30
-0.0000000046240195
 10
1579.491966558422
 20
2047.966381069781
 30
-0.0000000046240195
 10
1579.811005065245
 20
2046.119905784809
 30
-0.0000000046240195
 10
1580.008702175515
 20
2044.257730172302
 30
-0.0000000046240195
 10
1580.11546696683
 20
2042.38741524794
 30
-0.0000000046240195
 10
1580.161039603297
 20
2040.515586989418
 30
-0.0000000046240195
 10
1580.17081987381
 20
2038.64306281619
 30
-0.0000000046240195
 10
1580.170207567271
 20
2036.770660147718
 30
-0.0000000046240195
 10
1580.170401554393
 20
2034.274093993336
 30
-0.0000000046240195
 10
1580.170250675522
 20
2027.408534188969
 30
-0.0000000046240195
 10
1580.170358114546
 20
2016.173983266101
 30
-0.0000000046240195
 10
1580.170359883084
 20
2001.194581458946
 30
-0.0000000046240195
 10
1580.170336892026
 20
1991.208313490326
 30
-0.0000000046240195
 10
1580.170336892026
 20
1986.215179553531
 30
-0.0000000046240195
  0
SPLINE
  5
8605
330
A
100
AcDbEntity
  8
HIDDEN
100
AcDbSpline
210
0.0
220
0.0
230
1.0
 70
     8
 71
     3
 72
    41
 73
    37
 74
     0
 42
0.000000001
 43
0.0000000001
 40
0.0
 40
0.0
 40
0.0
 40
0.0
 40
0.0624997588392009
 40
0.1249997749165875
 40
0.1874997909939742
 40
0.2031247950133208
 40
0.2109372970229941
 40
0.2187497990326674
 40
0.2265623010423409
 40
0.2343748030520141
 40
0.2421873050616874
 40
0.2499998070713607
 40
0.2578123090810341
 40
0.2656248110907075
 40
0.281249815110054
 40
0.2968748191294007
 40
0.3124998231487474
 40
0.328124827168094
 40
0.3437498311874407
 40
0.3593748352067873
 40
0.3749998392261339
 40
0.3906248432454806
 40
0.4062498472648273
 40
0.421874851284174
 40
0.4374998553035205
 40
0.4531248593228672
 40
0.4687498633422139
 40
0.4999998713809072
 40
0.5312498794196006
 40
0.5624998874582937
 40
0.6249999035356804
 40
0.6874999196130671
 40
0.7499999356904536
 40
0.8124999517678403
 40
0.8749999678452267
 40
1.0
 40
1.0
 40
1.0
 40
1.0
 10
1237.470336889351
 20
1986.215241205898
 30
-0.0000000046240195
 10
1237.470336889257
 20
1991.20835459188
 30
-0.0000000046240195
 10
1237.470313898286
 20
2001.194602009652
 30
-0.0000000046240195
 10
1237.470315666831
 20
2016.173983265941
 30
-0.0000000046240195
 10
1237.470423105847
 20
2027.408534188749
 30
-0.0000000046240195
 10
1237.470272226977
 20
2034.274093993078
 30
-0.0000000046240195
 10
1237.470466214099
 20
2036.770660147447
 30
-0.0000000046240195
 10
1237.46985390756
 20
2038.643062815915
 30
-0.0000000046240195
 10
1237.479634178073
 20
2040.515586989129
 30
-0.0000000046240195
 10
1237.52520681454
 20
2042.387415247643
 30
-0.0000000046240195
 10
1237.631971605855
 20
2044.257730171991
 30
-0.0000000046240195
 10
1237.829668716118
 20
2046.119905784487
 30
-0.0000000046240195
 10
1238.148707222941
 20
2047.966381069452
 30
-0.0000000046240195
 10
1238.776404324058
 20
2050.385248962241
 30
-0.0000000046240195
 10
1239.984962697182
 20
2053.279329744394
 30
-0.0000000046240195
 10
1242.122235708657
 20
2056.379239206792
 30
-0.0000000046240195
 10
1244.848397956802
 20
2058.975770327558
 30
-0.0000000046240195
 10
1248.050961820996
 20
2060.956406182246
 30
-0.0000000046240195
 10
1251.589570422153
 20
2062.23606935658
 30
-0.0000000046240195
 10
1255.287917868596
 20
2062.880695696724
 30
-0.0000000046240195
 10
1259.026785495085
 20
2063.131144147171
 30
-0.0000000046240195
 10
1262.771197787811
 20
2063.205915171435
 30
-0.0000000046240195
 10
1266.516013552964
 20
2063.216021273992
 30
-0.0000000046240195
 10
1270.260870433054
 20
2063.214948244212
 30
-0.0000000046240195
 10
1274.005720641586
 20
2063.215176212522
 30
-0.0000000046240195
 10
1277.75057096785
 20
2063.215282358965
 30
-0.0000000046240195
 10
1282.743704852369
 20
2063.215304594979
 30
-0.0000000046240195
 10
1288.985122349257
 20
2063.215189597468
 30
-0.0000000046240195
 10
1296.474823326576
 20
2063.21508195183
 30
-0.0000000046240195
 10
1306.461091273368
 20
2063.214975113622
 30
-0.0000000046240195
 10
1318.943926168123
 20
2063.214903272395
 30
-0.0000000046240195
 10
1333.923327993716
 20
2063.214893118331
 30
-0.0000000046240195
 10
1348.902729785024
 20
2063.214936344631
 30
-0.0000000046240195
 10
1363.882131555901
 20
2063.21501027627
 30
-0.0000000046240195
 10
1383.854667241603
 20
2063.215119558843
 30
-0.0000000046240195
 10
1398.834069016751
 20
2063.215179553661
 30
-0.0000000046240195
 10
1408.820336890143
 20
2063.215179553661
 30
-0.0000000046240195
  0
DIMENSION
  5
862E
102
{ACAD_REACTORS
330
8630
102
}
102
{ACAD_XDICTIONARY
360
862F
102
}
330
A
100
AcDbEntity
  8
Dim
100
AcDbDimension
  2
*D22
 10
892.2323897582971
 20
2297.615801212633
 30
0.0
 11
617.2856688517456
 21
2319.836692640667
 31
0.0
 70
    32
 71
     5
 42
549.8934418131029
 73
     0
 74
     0
 75
     0
 52
270.0
  3
tform線あり
100
AcDbAlignedDimension
 13
342.3389479451943
 23
2156.563419287978
 33
-0.0000000046240195
 14
892.2323897582971
 24
2156.563419287979
 34
-0.0000000046240195
 50
-179.9999999999999
100
AcDbRotatedDimension
  0
DIMENSION
  5
863D
102
{ACAD_XDICTIONARY
360
863E
102
}
330
A
100
AcDbEntity
  8
Dim
100
AcDbDimension
  2
*D23
 10
984.0324546897087
 20
1816.349020437749
 30
0.0
 11
984.0324546897086
 21
1991.28209999564
 31
0.0
 70
   160
 71
     5
 42
349.8661591157829
 73
     0
 74
     0
 75
     0
 52
-270.0
  3
tform線あり
100
AcDbAlignedDimension
 13
884.086183420294
 23
2166.215179553531
 33
-0.0000000046240195
 14
884.0861834202944
 24
1816.349020437749
 34
-0.0000000046240195
 50
90.00000000000006
100
AcDbRotatedDimension
  0
DIMENSION
  5
865E
330
A
100
AcDbEntity
  8
Dim
100
AcDbDimension
  2
*D25
 10
260.8767271785629
 20
2066.215179553531
 30
0.0
 11
238.6558357505273
 21
2116.215179553531
 31
0.0
 70
    32
 71
     5
 42
100.0
 73
     0
 74
     0
 75
     0
 52
-90.0
  3
tform線あり
100
AcDbAlignedDimension
 13
352.0572319517072
 23
2166.215179553531
 33
-0.0000000046240195
 14
352.0572319517073
 24
2066.215179553531
 34
-0.0000000046240195
 50
90.00000000000009
100
AcDbRotatedDimension
  0
DIMENSION
  5
866B
330
A
100
AcDbEntity
  8
Dim
100
AcDbDimension
  2
*D26
 10
260.8767271785633
 20
1826.21517955353
 30
0.0
 11
238.6558357505277
 21
1946.215179553531
 31
0.0
 70
    32
 71
     5
 42
240.0
 73
     0
 74
     0
 75
     0
 52
-90.0
  3
tform線あり
100
AcDbAlignedDimension
 13
327.0572319517073
 23
2066.215179553531
 33
0.0
 14
338.2304944416944
 24
1826.215179553531
 34
0.0
 50
90.00000000000009
100
AcDbRotatedDimension
  0
DIMENSION
  5
867D
330
A
100
AcDbEntity
  8
Dim
100
AcDbDimension
  2
*D27
 10
352.2194473902528
 20
1745.993091259544
 30
0.0
 11
522.2194473902528
 21
1768.213982687579
 31
0.0
 70
    32
 71
     5
 42
340.0
 73
     0
 74
     0
 75
     0
 52
270.0
  3
tform線あり
100
AcDbAlignedDimension
 13
692.2194473902528
 23
1846.062555753697
 33
-0.0000000046240195
 14
352.2194473902528
 24
1846.062555753697
 34
-0.0000000046240195
 50
-179.9999999999999
100
AcDbRotatedDimension
  0
DIMENSION
  5
868A
330
A
100
AcDbEntity
  8
Dim
100
AcDbDimension
  2
*D28
 10
892.2194473902528
 20
1745.993091259544
 30
0.0
 11
792.2194473902528
 21
1768.21398268758
 31
0.0
 70
    32
 71
     5
 42
200.0
 73
     0
 74
     0
 75
     0
 52
270.0
  3
tform線あり
100
AcDbAlignedDimension
 13
692.2194473902528
 23
1821.062555753697
 33
0.0
 14
892.2194473902528
 24
1821.062555753698
 34
0.0
 50
-179.9999999999999
100
AcDbRotatedDimension
  0
DIMENSION
  5
86EA
330
A
100
AcDbEntity
  8
Dim
100
AcDbDimension
  2
*D32
 10
260.9331253917535
 20
986.881344873168
 30
0.0
 11
238.712233963718
 21
1009.381344873168
 31
0.0
 70
    32
 71
     5
 42
45.0
 73
     0
 74
     1
 75
     1
  3
tform線あり
100
AcDbAlignedDimension
 13
344.9183468995771
 23
1031.881344873168
 33
0.0
 14
344.9183468995771
 24
986.881344873168
 34
0.0
 50
90.0
100
AcDbRotatedDimension
  0
LINE
  5
86EB
330
A
100
AcDbEntity
  8
HIDDEN
 48
0.5
100
AcDbLine
 10
757.285736414179
 20
1016.814472169586
 30
0.0000000009984768
 11
757.2857364141789
 21
956.0460592764506
 31
0.0000000009984768
  0
LINE
  5
86EC
330
A
100
AcDbEntity
  8
HIDDEN
 48
0.5
100
AcDbLine
 10
788.010206617037
 20
986.8813448731676
 30
0.0
 11
726.56126621132
 21
986.8813448731677
 31
0.0
  0
CIRCLE
  5
86ED
330
A
100
AcDbEntity
  8
HIDDEN
 48
0.5
100
AcDbCircle
 10
757.285736414179
 20
986.8813448731677
 30
0.0
 40
15.0
  0
CIRCLE
  5
86EE
330
A
100
AcDbEntity
  8
HIDDEN
 48
0.5
100
AcDbCircle
 10
477.28560128932
 20
986.8813448731679
 30
0.0
 40
15.0
  0
LINE
  5
86EF
330
A
100
AcDbEntity
  8
HIDDEN
 48
0.5
100
AcDbLine
 10
477.28560128932
 20
1016.814472169586
 30
0.0000000009984768
 11
477.2856012893199
 21
956.0460592764508
 31
0.0000000009984768
  0
LINE
  5
86F0
330
A
100
AcDbEntity
  8
HIDDEN
 48
0.5
100
AcDbLine
 10
446.5611310864609
 20
986.881344873168
 30
0.0
 11
508.0100714921781
 21
986.8813448731679
 31
0.0
  0
LINE
  5
86F1
330
A
100
AcDbEntity
  8
Dim
  6
Continuous
100
AcDbLine
 10
768.8592172523231
 20
996.423595199434
 30
0.0
 11
862.6642658804071
 21
1125.946178722746
 31
0.0
  0
MTEXT
  5
86F2
330
A
100
AcDbEntity
  8
Dim
390
1D
100
AcDbMText
 10
823.7080326585301
 20
1172.539464078033
 30
34.99521132346015
 40
24.0
 41
1169.77171546101
 46
26.808
 71
     1
 72
     1
  1
{壁取付ボルト穴(2ヶ所)}
  7
ＭＳ ゴシック
 73
     1
 44
1.174240107638677
1001
ACAD
1000
ACAD_MTEXT_DEFINED_HEIGHT_BEGIN
1070
    46
1040
26.808
1000
ACAD_MTEXT_DEFINED_HEIGHT_END
  0
DIMENSION
  5
86F3
330
A
100
AcDbEntity
  8
Dim
100
AcDbDimension
  2
*D33
 10
757.285736414179
 20
1129.932894565483
 30
0.0
 11
617.2856688517495
 21
1152.153785993518
 31
0.0
 70
    32
 71
     5
 42
280.0001351248591
 73
     0
 74
     0
 75
     0
  3
tform線あり
100
AcDbAlignedDimension
 13
477.28560128932
 23
1016.814472169586
 33
0.0000000009984768
 14
757.285736414179
 24
1016.814472169586
 34
0.0000000009984768
100
AcDbRotatedDimension
  0
DIMENSION
  5
86F5
330
A
100
AcDbEntity
  8
Dim
100
AcDbDimension
  2
*D34
 10
1019.789983480406
 20
911.881344873168
 30
0.0
 11
997.5690920523704
 21
971.881344873168
 31
0.0
 70
    32
 71
     5
 42
120.0
 73
     0
 74
     0
 75
     0
  3
tform線あり
100
AcDbAlignedDimension
 13
898.5008015646172
 23
1031.881344873168
 33
0.0
 14
898.5008015646172
 24
911.881344873168
 34
0.0
 50
90.0
100
AcDbRotatedDimension
  0
DIMENSION
  5
871B
102
{ACAD_REACTORS
330
871D
102
}
102
{ACAD_XDICTIONARY
360
871C
102
}
330
A
100
AcDbEntity
  8
Dim
100
AcDbDimension
  2
*D35
 10
522.3389479451943
 20
2231.78504884409
 30
0.0
 11
432.3389479451942
 21
2254.005940272125
 31
0.0
 70
    32
 71
     5
 42
180.0
 73
     0
 74
     0
 75
     0
 52
270.0
  3
tform線あり
100
AcDbAlignedDimension
 13
342.3389479451943
 23
2156.563419287978
 33
0.0
 14
522.3389479451943
 24
2156.563419287979
 34
0.0
 50
-179.9999999999999
100
AcDbRotatedDimension
  0
DIMENSION
  5
872D
330
A
100
AcDbEntity
  8
Dim
100
AcDbDimension
  2
*D36
 10
1746.44592516151
 20
1090.403696003896
 30
0.0
 11
1776.44592516151
 21
1112.620004597646
 31
0.0
 70
    32
 71
     5
 42
60.0
 73
     0
 74
     0
 75
     0
  3
tform線あり
100
AcDbAlignedDimension
 13
1806.44592516151
 23
1028.881344873168
 33
-0.0000000000000062
 14
1746.44592516151
 24
1028.881344873168
 34
-0.0000000000000062
100
AcDbRotatedDimension
  0
DIMENSION
  5
873A
330
A
100
AcDbEntity
  8
Dim
100
AcDbDimension
  2
*D37
 10
1626.44592516151
 20
841.2293855462517
 30
0.0
 11
1716.44592516151
 21
863.4502769742872
 31
0.0
 70
    32
 71
     5
 42
180.0
 73
     0
 74
     0
 75
     0
  3
tform線あり
100
AcDbAlignedDimension
 13
1806.44592516151
 23
924.037939323659
 33
-0.0000000000000062
 14
1626.44592516151
 24
924.037939323659
 34
-0.0000000000000062
100
AcDbRotatedDimension
  0
DIMENSION
  5
874A
330
A
100
AcDbEntity
  8
Dim
100
AcDbDimension
  2
*D38
 10
1626.445925161508
 20
942.013151838547
 30
-0.0000000000000062
 11
1626.445925161508
 21
1121.026997744263
 31
-0.0000000000000062
 70
   160
 71
     5
 42
89.99999999999977
 73
     0
 74
     0
 75
     0
  3
tform線あり
100
AcDbAlignedDimension
 13
1624.709684793121
 23
1032.013151838547
 33
-0.0000000000000062
 14
1624.709684793121
 24
942.013151838547
 34
-0.0000000000000062
 50
90.0
100
AcDbRotatedDimension
1001
ACAD
1000
DSTYLE
1002
{
1070
     3
1000
<>(深さ)
1002
}
  0
LINE
  5
875D
330
A
100
AcDbEntity
  8
HIDDEN
 48
0.5
100
AcDbLine
 10
498.4784901615787
 20
921.678675191175
 30
-0.0000000025835149
 11
543.3928475419059
 21
921.6786751911749
 31
-0.0000000025835149
  0
LINE
  5
875E
330
A
100
AcDbEntity
  8
HIDDEN
100
AcDbLine
 10
498.9356688517457
 20
914.5456475226711
 30
-0.0000000025835149
 11
542.9356688517416
 21
914.545647522671
 31
-0.0000000025835149
  0
LINE
  5
875F
330
A
100
AcDbEntity
  8
HIDDEN
 48
0.25
100
AcDbLine
 10
560.3546710833787
 20
937.66888434278
 30
-0.0000000025835149
 11
560.3332661143306
 21
937.5889999107711
 31
-0.0000000025835149
  0
LINE
  5
8760
330
A
100
AcDbEntity
  8
HIDDEN
 48
0.25
100
AcDbLine
 10
558.3944368147156
 20
934.545647522671
 30
-0.0000000025835149
 11
544.1074960097346
 21
922.5574807625597
 31
-0.0000000025835149
  0
LINE
  5
8761
330
A
100
AcDbEntity
  8
HIDDEN
 48
0.25
100
AcDbLine
 10
543.0363157533268
 20
920.3117046525148
 30
-0.0000000025835149
 11
542.9356688517416
 21
914.545647522671
 31
-0.0000000025835149
  0
LINE
  5
8762
330
A
100
AcDbEntity
  8
HIDDEN
 48
0.25
100
AcDbLine
 10
498.9356688517457
 20
914.5456475226711
 30
-0.0000000025835149
 11
498.8350219501647
 21
920.3117046525149
 31
-0.0000000025835149
  0
LINE
  5
8763
330
A
100
AcDbEntity
  8
HIDDEN
 48
0.25
100
AcDbLine
 10
497.7638416937577
 20
922.5574807625599
 30
-0.0000000025835149
 11
483.4769008887736
 21
934.5456475226711
 31
-0.0000000025835149
  0
LINE
  5
8764
330
A
100
AcDbEntity
  8
HIDDEN
 48
0.25
100
AcDbLine
 10
481.5380715891577
 20
937.5889999107712
 30
-0.0000000025835149
 11
481.3130324313445
 21
938.4288574814163
 31
-0.0000000025835149
  0
ARC
  5
8765
330
A
100
AcDbEntity
  8
HIDDEN
 48
0.25
100
AcDbCircle
 10
565.1843002148255
 20
936.3747891172678
 30
-0.0000000025835149
 40
5.0
100
AcDbArc
 50
95.16007161399092
 51
165.0000000000056
  0
ARC
  5
8766
330
A
100
AcDbEntity
  8
HIDDEN
 48
0.25
100
AcDbCircle
 10
554.5377111565956
 20
939.1419141813857
 30
-0.0000000025835149
 40
6.000000000000001
100
AcDbArc
 50
310.0000000000209
 51
345.0000000000056
  0
ARC
  5
8767
330
A
100
AcDbEntity
  8
HIDDEN
 48
0.25
100
AcDbCircle
 10
546.0358588387955
 20
920.2593474331987
 30
-0.0000000025835149
 40
3.0
100
AcDbArc
 50
130.0000000000148
 51
179.0000000000243
  0
ARC
  5
8768
330
A
100
AcDbEntity
  8
HIDDEN
 48
0.25
100
AcDbCircle
 10
495.8354788646927
 20
920.2593474331989
 30
-0.0000000025835149
 40
3.0
100
AcDbArc
 50
1.000000000027851
 51
49.99999999998519
  0
ARC
  5
8769
330
A
100
AcDbEntity
  8
HIDDEN
 48
0.25
100
AcDbCircle
 10
487.3336265468927
 20
939.1419141813858
 30
-0.0000000025835149
 40
6.000000000000001
100
AcDbArc
 50
194.9999999999944
 51
229.9999999999791
  0
ARC
  5
876A
330
A
100
AcDbEntity
  8
HIDDEN
 48
0.25
100
AcDbCircle
 10
476.4834032999017
 20
937.1347622559006
 30
-0.0000000025835149
 40
5.0
100
AcDbArc
 50
14.99999999999445
 51
71.78374134937631
  0
LINE
  5
876B
330
A
100
AcDbEntity
  8
HIDDEN
 48
0.5
100
AcDbLine
 10
478.0464256830917
 20
941.8841791706
 30
-0.0000000025835149
 11
564.7346074921577
 21
941.3545257021868
 31
-0.0000000025835149
  0
SPLINE
  5
876C
330
A
100
AcDbEntity
  8
HIDDEN
 48
0.5
100
AcDbSpline
 70
  1056
 71
     3
 72
    12
 73
     8
 74
     6
 42
0.000000001
 43
0.0000000001
 44
0.0
 40
0.0
 40
0.0
 40
0.0
 40
0.0
 40
60.22230327318702
 40
83.79792841285365
 40
95.43395722561658
 40
117.1902741491511
 40
184.4762372709519
 40
184.4762372709519
 40
184.4762372709519
 40
184.4762372709519
 10
692.2856688536305
 20
1031.881344873168
 30
0.0
 10
688.9639705653291
 20
1012.68133953394
 30
0.0000000020907494
 10
684.3419049809312
 20
985.9649805523771
 30
0.0000000049999784
 10
669.3457682751343
 20
953.5971173491324
 30
0.0000000045512981
 10
649.6783354089117
 20
950.3734855474436
 30
0.0000000045399467
 10
616.7915119504898
 20
947.1749060661434
 30
0.0000000051224507
 10
587.1406608236324
 20
943.8597025697175
 30
0.0000000007332454
 10
564.7346074921595
 20
941.3545257021868
 30
-0.0000000025835149
 11
692.2856688536305
 21
1031.881344873168
 31
0.0
 11
677.9069819607183
 21
973.4007568566021
 31
0.0000000045662311
 11
664.500491057903
 21
954.0080751854456
 31
0.0000000045662311
 11
653.2475838782254
 21
951.0467838223726
 31
0.0000000045662311
 11
631.6301569277914
 21
948.5923637035006
 31
0.0000000045662311
 11
564.7346074921595
 21
941.3545257021868
 31
-0.0000000025835149
  0
SPLINE
  5
8773
330
A
100
AcDbEntity
  8
HIDDEN
 48
0.5
100
AcDbSpline
 70
  1056
 71
     3
 72
    12
 73
     8
 74
     6
 42
0.000000001
 43
0.0000000001
 44
0.0
 40
0.0
 40
0.0
 40
0.0
 40
0.0
 40
60.22230327318661
 40
83.79792841285308
 40
95.43395722561598
 40
117.1902741491506
 40
184.4762372709514
 40
184.4762372709514
 40
184.4762372709514
 40
184.4762372709514
 10
349.5856688498571
 20
1031.881344873168
 30
0.0
 10
352.9073671381586
 20
1012.68133953394
 30
0.0000000020907494
 10
357.5294327225569
 20
985.964980552377
 30
0.0000000049999784
 10
372.5255694283532
 20
953.597117349133
 30
0.0000000045512981
 10
392.1930022945757
 20
950.3734855474436
 30
0.0000000045399467
 10
425.0798257529977
 20
947.1749060661436
 30
0.0000000051224507
 10
454.7306768798552
 20
943.8597025697181
 30
0.0000000007332454
 10
477.1367302113279
 20
941.354525702187
 30
-0.0000000025835149
 11
349.5856688498571
 21
1031.881344873168
 31
0.0
 11
363.9643557427693
 21
973.4007568566026
 31
0.0000000045662311
 11
377.3708466455844
 21
954.008075185446
 31
0.0000000045662311
 11
388.6237538252619
 21
951.046783822373
 31
0.0000000045662311
 11
410.241180775696
 21
948.592363703501
 31
0.0000000045662311
 11
477.1367302113279
 21
941.354525702187
 31
-0.0000000025835149
  0
HATCH
  5
87EC
102
{ACAD_REACTORS
330
8821
102
}
330
A
100
AcDbEntity
  8
Dim
100
AcDbHatch
 10
0.0
 20
0.0
 30
-0.0000000046240195
210
0.0
220
0.0
230
1.0
  2
ANSI31
 70
     0
 71
     1
 91
        1
 92
        1
 93
        4
 72
     1
 10
1348.820336890138
 20
2141.215179553531
 11
1468.820336890138
 21
2141.215179553531
 72
     1
 10
1468.820336890138
 20
2141.215179553531
 11
1468.820336890138
 21
1921.215179553532
 72
     1
 10
1468.820336890138
 20
1921.215179553532
 11
1348.820336890138
 21
1921.215179553532
 72
     1
 10
1348.820336890138
 20
1921.215179553532
 11
1348.820336890138
 21
2141.215179553531
 97
        4
330
87ED
330
87EE
330
87EF
330
87F0
 75
     0
 76
     1
 52
0.0
 41
5.0
 77
     0
 78
     1
 53
45.0
 43
-277.4673462688947
 44
174.1700050743284
 45
-11.22532015133644
 46
11.22532015133644
 79
     0
 98
        1
 10
-277.4673462688947
 20
174.1700050743284
1001
ACAD
1010
0.0
1020
0.0
1030
0.0
1001
HATCHBACKGROUNDCOLOR
1071
-939524096
1000

1000

  0
LINE
  5
87ED
102
{ACAD_REACTORS
330
87EC
330
8821
102
}
330
A
100
AcDbEntity
  8
MODEL
100
AcDbLine
 10
1348.820336890138
 20
2141.215179553531
 30
-0.0000000046240195
 11
1468.820336890138
 21
2141.215179553531
 31
-0.0000000046240195
  0
LINE
  5
87EE
102
{ACAD_REACTORS
330
87F9
330
87EC
330
8821
102
}
330
A
100
AcDbEntity
  8
MODEL
100
AcDbLine
 10
1468.820336890138
 20
2141.215179553531
 30
-0.0000000046240195
 11
1468.820336890138
 21
1921.215179553532
 31
-0.0000000046240195
  0
LINE
  5
87EF
102
{ACAD_REACTORS
330
87EC
330
8821
102
}
330
A
100
AcDbEntity
  8
MODEL
100
AcDbLine
 10
1468.820336890138
 20
1921.215179553532
 30
-0.0000000046240195
 11
1348.820336890138
 21
1921.215179553532
 31
-0.0000000046240195
  0
LINE
  5
87F0
102
{ACAD_REACTORS
330
87F9
330
87EC
330
8821
102
}
330
A
100
AcDbEntity
  8
MODEL
100
AcDbLine
 10
1348.820336890138
 20
1921.215179553532
 30
-0.0000000046240195
 11
1348.820336890138
 21
2141.215179553531
 31
-0.0000000046240195
  0
DIMENSION
  5
87F7
102
{ACAD_REACTORS
330
87F9
102
}
102
{ACAD_XDICTIONARY
360
87F8
102
}
330
A
100
AcDbEntity
  8
Dim
100
AcDbDimension
  2
*D44
 10
1348.820336890138
 20
1752.864860438578
 30
0.0
 11
1408.820336890138
 21
1775.085751866614
 31
0.0
 70
    32
 71
     5
 42
120.0
 73
     0
 74
     0
 75
     0
  3
tform線あり
100
AcDbAlignedDimension
 13
1468.820336890138
 23
1921.215179553532
 33
-0.0000000046240195
 14
1348.820336890138
 24
1921.215179553532
 34
-0.0000000046240195
100
AcDbRotatedDimension
  0
DIMENSION
  5
8826
102
{ACAD_XDICTIONARY
360
8827
102
}
330
A
100
AcDbEntity
  8
Dim
100
AcDbDimension
  2
*D45
 10
1134.172809135245
 20
2141.215179553533
 30
-0.0000000046240195
 11
1134.172809135245
 21
2210.414634689785
 31
-0.0000000046240195
 70
   160
 71
     5
 42
24.99999999999997
 73
     0
 74
     0
 75
     0
 52
-90.0
  3
tform線あり
100
AcDbAlignedDimension
 13
1228.884348025264
 23
2166.215179553532
 33
-0.0000000046240195
 14
1348.820336890138
 24
2141.215179553532
 34
-0.0000000046240195
 50
89.99999999999977
100
AcDbRotatedDimension
  0
DIMENSION
  5
8829
102
{ACAD_XDICTIONARY
360
882A
102
}
330
A
100
AcDbEntity
  8
Dim
100
AcDbDimension
  2
*D46
 10
1134.172809135244
 20
1921.215179553533
 30
0.0
 11
1111.951917707209
 21
2031.215179553533
 31
0.0
 70
    32
 71
     5
 42
219.9999999999998
 73
     0
 74
     0
 75
     0
 52
-90.0
  3
tform線あり
100
AcDbAlignedDimension
 13
1348.820336890138
 23
2141.215179553532
 33
-0.0000000046240195
 14
1348.820336890137
 24
1921.215179553532
 34
-0.0000000046240195
 50
89.99999999999977
100
AcDbRotatedDimension
  0
VIEWPORT
  5
349
330
B
100
AcDbEntity
 67
     1
  8
0
100
AcDbViewport
 10
202.5
 20
128.5
 30
0.0
 40
486.0
 41
308.4
 68
     1
 69
     1
 12
202.5
 22
128.5
 13
0.0
 23
0.0
 14
0.5
 24
0.5
 15
0.0
 25
0.0
 16
0.0
 26
0.0
 36
1.0
 17
0.0
 27
0.0
 37
0.0
 42
50.0
 43
0.0
 44
0.0
 45
308.4
 50
0.0
 51
0.0
 72
   100
 90
   557152
  1

281
     0
 71
     1
 74
     0
110
0.0
120
0.0
130
0.0
111
1.0
121
0.0
131
0.0
112
0.0
122
1.0
132
0.0
 79
     0
146
0.0
170
     0
 61
     5
348
26C
292
     1
282
     1
141
0.0
142
0.0
 63
   256
  0
VIEWPORT
  5
34A
330
B
100
AcDbEntity
 67
     1
  8
0
100
AcDbViewport
 10
202.5
 20
128.5
 30
0.0
 40
324.0
 41
205.6
 68
     2
 69
     2
 12
986.6781359294573
 22
1427.077061889956
 13
0.0
 23
0.0
 14
0.5
 24
0.5
 15
0.0
 25
0.0
 16
0.0
 26
0.0
 36
1.0
 17
0.0
 27
0.0
 37
0.0
 42
50.0
 43
0.0
 44
0.0
 45
2890.021615685494
 50
0.0
 51
0.0
 72
   100
 90
   557152
  1

281
     0
 71
     1
 74
     0
110
0.0
120
0.0
130
0.0
111
1.0
121
0.0
131
0.0
112
0.0
122
1.0
132
0.0
 79
     0
146
0.0
170
     0
 61
     5
348
26C
292
     1
282
     1
141
0.0
142
0.0
 63
   256
  0
ENDSEC
  0
SECTION
  2
OBJECTS
  0
DICTIONARY
  5
19
330
0
100
AcDbDictionary
281
     1
  3
ACAD_COLOR
350
38F
  3
ACAD_DETAILVIEWSTYLE
350
8CF
  3
ACAD_FIELDLIST
350
BA6
  3
ACAD_GROUP
350
1A
  3
ACAD_IMAGE_VARS
350
27B
  3
ACAD_LAYOUT
350
1E
  3
ACAD_MATERIAL
350
263
  3
ACAD_MLEADERSTYLE
350
336
  3
ACAD_MLINESTYLE
350
1B
  3
ACAD_PLOTSETTINGS
350
22
  3
ACAD_PLOTSTYLENAME
350
1F
  3
ACAD_SCALELIST
350
241
  3
ACAD_SECTIONVIEWSTYLE
350
8D0
  3
ACAD_TABLESTYLE
350
278
  3
ACAD_VISUALSTYLE
350
267
  3
ACDB_RECOMPOSE_DATA
350
886C
  3
AcDbVariableDictionary
350
330
  3
APPDATA
350
27A
  3
DimOffsetDictionary
350
C08
  0
SUN
  5
8C2
330
15
100
AcDbSun
 90
        1
290
     0
 63
     7
421
 16777215
 40
1.0
291
     1
 91
  2455826
 92
 54000000
292
     0
 70
     2
 71
   256
280
     1
  0
DICTIONARY
  5
2E1
330
2
100
AcDbDictionary
280
     1
281
     1
  3
ACAD_LAYERSTATES
360
2E2
  3
ACLYDICTIONARY
360
BFE
  0
DICTIONARY
  5
6587
330
A
100
AcDbDictionary
280
     1
281
     1
  3
ACAD_SORTENTS
360
6588
  0
DICTIONARY
  5
BDC
330
BDB
100
AcDbDictionary
280
     1
281
     1
  3
ACAD_FIELD
360
885D
  0
DICTIONARY
  5
862F
330
862E
100
AcDbDictionary
280
     1
281
     1
  3
ACAD_DIMASSOC
360
8630
  0
DICTIONARY
  5
863E
330
863D
100
AcDbDictionary
280
     1
281
     1
  3
ACAD_DIMASSOC
360
863F
  0
DICTIONARY
  5
871C
330
871B
100
AcDbDictionary
280
     1
281
     1
  3
ACAD_DIMASSOC
360
871D
  0
DICTIONARY
  5
87F8
330
87F7
100
AcDbDictionary
280
     1
281
     1
  3
ACAD_DIMASSOC
360
87F9
  0
DICTIONARY
  5
8827
330
8826
100
AcDbDictionary
280
     1
281
     1
  3
ACAD_DIMASSOC
360
8828
  0
DICTIONARY
  5
882A
330
8829
100
AcDbDictionary
280
     1
281
     1
  3
ACAD_DIMASSOC
360
882B
  0
DICTIONARY
  5
38F
102
{ACAD_REACTORS
330
19
102
}
330
19
100
AcDbDictionary
281
     1
  0
DICTIONARY
  5
8CF
102
{ACAD_REACTORS
330
19
102
}
330
19
100
AcDbDictionary
281
     1
  0
FIELDLIST
  5
BA6
102
{ACAD_REACTORS
330
19
102
}
330
19
100
AcDbIdSet
 90
        2
330
BDF
330
BDE
100
AcDbFieldList
  0
DICTIONARY
  5
1A
102
{ACAD_REACTORS
330
19
102
}
330
19
100
AcDbDictionary
281
     1
  3
*A1
350
8618
  3
*A2
350
8821
  0
RASTERVARIABLES
  5
27B
102
{ACAD_REACTORS
330
19
102
}
330
19
100
AcDbRasterVariables
 90
        0
 70
     1
 71
     1
 72
     1
  0
DICTIONARY
  5
1E
102
{ACAD_REACTORS
330
19
102
}
330
19
100
AcDbDictionary
281
     1
  3
Layout1
350
21
  3
Model
350
20
  0
DICTIONARY
  5
263
102
{ACAD_REACTORS
330
19
102
}
330
19
100
AcDbDictionary
281
     1
  3
ByBlock
350
3F68
  3
ByLayer
350
264
  3
Global
350
266
  0
DICTIONARY
  5
336
102
{ACAD_REACTORS
330
19
102
}
330
19
100
AcDbDictionary
281
     1
  3
Standard
350
8D1
  0
DICTIONARY
  5
1B
102
{ACAD_REACTORS
330
19
102
}
330
19
100
AcDbDictionary
281
     1
  3
Standard
350
1C
  0
DICTIONARY
  5
22
102
{ACAD_REACTORS
330
19
102
}
330
19
100
AcDbDictionary
281
     1
  0
ACDBDICTIONARYWDFLT
  5
1F
102
{ACAD_REACTORS
330
19
102
}
330
19
100
AcDbDictionary
281
     1
  3
Normal
350
1D
100
AcDbDictionaryWithDefault
340
1D
  0
DICTIONARY
  5
241
102
{ACAD_REACTORS
330
19
102
}
330
19
100
AcDbDictionary
281
     1
  3
A0
350
242
  3
A1
350
243
  3
A2
350
244
  3
A3
350
245
  3
A4
350
246
  3
A5
350
247
  3
A6
350
248
  3
A7
350
249
  3
A8
350
24A
  3
A9
350
24B
  3
B0
350
24C
  3
B1
350
24D
  3
B2
350
24E
  3
B3
350
24F
  3
B4
350
250
  3
B5
350
251
  3
B6
350
252
  3
B7
350
253
  3
B8
350
254
  3
B9
350
255
  3
C0
350
256
  3
C1
350
257
  3
C2
350
258
  3
C3
350
259
  3
C4
350
25A
  3
C5
350
25B
  3
C6
350
25C
  3
C7
350
25D
  3
C8
350
25E
  3
C9
350
25F
  3
D0
350
260
  3
D1
350
261
  3
D2
350
262
  0
DICTIONARY
  5
8D0
102
{ACAD_REACTORS
330
19
102
}
330
19
100
AcDbDictionary
281
     1
  0
DICTIONARY
  5
278
102
{ACAD_REACTORS
330
19
102
}
330
19
100
AcDbDictionary
281
     1
  3
Standard
350
279
  0
DICTIONARY
  5
267
102
{ACAD_REACTORS
330
19
102
}
330
19
100
AcDbDictionary
281
     1
  3
2dWireframe
350
26C
  3
3D Hidden
350
26E
  3
3dWireframe
350
26D
  3
Basic
350
26F
  3
Brighten
350
273
  3
ColorChange
350
277
  3
Conceptual
350
271
  3
Dim
350
272
  3
EdgeColorOff
350
8BC
  3
Facepattern
350
276
  3
Flat
350
268
  3
FlatWithEdges
350
269
  3
Gouraud
350
26A
  3
GouraudWithEdges
350
26B
  3
Hidden
350
8B9
  3
JitterOff
350
8BA
  3
Linepattern
350
275
  3
OverhangOff
350
8BB
  3
Realistic
350
270
  3
Shaded
350
8C1
  3
Shaded with edges
350
8C0
  3
Shades of Gray
350
8BD
  3
Sketchy
350
8BE
  3
Thicken
350
274
  3
Wireframe
350
8B8
  3
X-Ray
350
8BF
  0
XRECORD
  5
886C
102
{ACAD_REACTORS
330
19
102
}
330
19
100
AcDbXrecord
280
     1
 90
        1
330
279
  0
DICTIONARY
  5
330
102
{ACAD_REACTORS
330
19
102
}
330
19
100
AcDbDictionary
281
     1
  3
CANNOSCALE
350
331
  3
CMLEADERSTYLE
350
8DA
  3
CTABLESTYLE
350
335
  3
HPTRANSPARENCY
350
C07
  3
XCLIPFRAME
350
64A
  0
DICTIONARY
  5
27A
102
{ACAD_REACTORS
330
19
102
}
330
19
100
AcDbDictionary
281
     1
  0
DICTIONARY
  5
C08
102
{ACAD_REACTORS
330
19
102
}
330
19
100
AcDbDictionary
281
     1
  3
DIMRAILANGLE
350
4918
  3
DIMRAILFIRSTOFFSET
350
4916
  3
DIMRAILOFFSET
350
4917
  3
DIMRAILSENABLED
350
4919
  0
DICTIONARY
  5
2E2
102
{ACAD_REACTORS
330
2E1
102
}
330
2E1
100
AcDbDictionary
281
     1
  0
DICTIONARY
  5
BFE
102
{ACAD_REACTORS
330
2E1
102
}
330
2E1
100
AcDbDictionary
281
     1
1001
ACAD
1000
<All
  0
SORTENTSTABLE
  5
6588
102
{ACAD_REACTORS
330
6587
102
}
330
6587
100
AcDbSortentsTable
330
A
331
0
  5
64FD
  0
DICTIONARY
  5
885D
102
{ACAD_REACTORS
330
BDC
102
}
330
BDC
100
AcDbDictionary
280
     1
281
     1
  3
TEXT
360
BDE
  0
DIMASSOC
  5
8630
102
{ACAD_REACTORS
330
862F
102
}
330
862F
100
AcDbDimAssoc
330
862E
 90
        3
 70
     0
 71
     1
  1
AcDbOsnapPointRef
 72
    10
331
83F8
 73
     0
 91
        0
 40
0.9806559613698059
 10
0.0
 20
0.0
 30
0.0
 75
     0
  1
AcDbOsnapPointRef
 72
     8
331
83F7
 73
     0
 91
        0
 40
0.0193440386301941
 10
0.0
 20
0.0
 30
0.0
 75
     1
  1
AcDbOsnapPointRef
 72
    10
331
83F8
 73
     0
 91
        0
 40
0.9806559613698059
 10
0.0
 20
0.0
 30
0.0
 75
     0
  0
DIMASSOC
  5
863F
102
{ACAD_REACTORS
330
863E
102
}
330
863E
100
AcDbDimAssoc
330
863D
 90
        0
 70
     0
 71
     1
  0
DIMASSOC
  5
871D
102
{ACAD_REACTORS
330
871C
102
}
330
871C
100
AcDbDimAssoc
330
871B
 90
        0
 70
     0
 71
     1
  0
DIMASSOC
  5
87F9
102
{ACAD_REACTORS
330
87F8
102
}
330
87F8
100
AcDbDimAssoc
330
87F7
 90
        3
 70
     0
 71
     1
  1
AcDbOsnapPointRef
 72
     1
331
87EE
 73
     0
 91
        0
 40
0.0
 10
0.0
 20
0.0
 30
0.0
 75
     0
  1
AcDbOsnapPointRef
 72
    13
331
87F0
 73
     0
 91
        0
 40
0.0
 10
0.0
 20
0.0
 30
0.0
 75
     0
  0
DIMASSOC
  5
8828
102
{ACAD_REACTORS
330
8827
102
}
330
8827
100
AcDbDimAssoc
330
8826
 90
        0
 70
     0
 71
     1
  0
DIMASSOC
  5
882B
102
{ACAD_REACTORS
330
882A
102
}
330
882A
100
AcDbDimAssoc
330
8829
 90
        0
 70
     0
 71
     1
  0
GROUP
  5
8618
102
{ACAD_REACTORS
330
1A
102
}
330
1A
100
AcDbGroup
300

 70
     1
 71
     1
340
840C
340
841D
340
842A
340
842B
340
842E
340
842F
340
843B
340
843C
340
843D
340
8441
340
8449
340
844A
340
844F
340
8450
340
845C
340
8461
340
846D
340
846E
340
8471
  0
GROUP
  5
8821
102
{ACAD_REACTORS
330
1A
102
}
330
1A
100
AcDbGroup
300

 70
     1
 71
     1
340
87EC
340
87ED
340
87EE
340
87EF
340
87F0
  0
LAYOUT
  5
21
102
{ACAD_REACTORS
330
1E
102
}
330
1E
100
AcDbPlotSettings
  1

  2
none_device
  4
ISO_A3_(420.00_x_297.00_MM)
  6

 40
7.5
 41
20.0
 42
7.5
 43
20.0
 44
420.0
 45
297.0
 46
0.0
 47
0.0
 48
0.0
 49
0.0
140
0.0
141
0.0
142
1.0
143
1.0
 70
     0
 72
     1
 73
     0
 74
     0
  7

 75
     0
 76
     0
 77
     2
 78
   300
147
1.0
148
0.0
149
0.0
100
AcDbLayout
  1
Layout1
 70
     0
 71
     0
 10
0.0
 20
0.0
 11
0.0
 21
0.0
 12
0.0
 22
0.0
 32
0.0
 14
0.0
 24
0.0
 34
0.0
 15
0.0
 25
0.0
 35
0.0
146
0.0
 13
0.0
 23
0.0
 33
0.0
 16
0.0
 26
0.0
 36
0.0
 17
0.0
 27
0.0
 37
0.0
 76
     0
330
B
331
349
  0
LAYOUT
  5
20
102
{ACAD_REACTORS
330
1E
102
}
330
1E
100
AcDbPlotSettings
  1

  2
none_device
  4
ISO_A3_(420.00_x_297.00_MM)
  6

 40
7.5
 41
20.0
 42
7.5
 43
20.0
 44
420.0
 45
297.0
 46
0.0
 47
0.0
 48
0.0
 49
0.0
140
0.0
141
0.0
142
1.0
143
1.0
 70
  1024
 72
     1
 73
     0
 74
     0
  7

 75
     0
 76
     0
 77
     2
 78
   300
147
1.0
148
0.0
149
0.0
100
AcDbLayout
  1
Model
 70
     0
 71
     1
 10
0.0
 20
0.0
 11
2100.0
 21
2970.0
 12
0.0
 22
0.0
 32
0.0
 14
0.0
 24
0.0
 34
-0.0000000053126276
 15
2100.0
 25
2970.0
 35
34.99521132346015
146
0.0
 13
0.0
 23
0.0
 33
0.0
 16
0.0
 26
0.0
 36
0.0
 17
0.0
 27
0.0
 37
0.0
 76
     0
330
A
331
15
  0
MATERIAL
  5
3F68
102
{ACAD_REACTORS
330
263
102
}
330
263
100
AcDbMaterial
  1
ByBlock
 72
     1
 94
      127
  0
MATERIAL
  5
264
102
{ACAD_REACTORS
330
263
102
}
330
263
100
AcDbMaterial
  1
ByLayer
 72
     1
 94
      127
  0
MATERIAL
  5
266
102
{ACAD_REACTORS
330
263
102
}
330
263
100
AcDbMaterial
  1
Global
 72
     1
 94
      127
  0
MLEADERSTYLE
  5
8D1
102
{ACAD_REACTORS
330
336
102
}
330
336
100
AcDbMLeaderStyle
170
     2
171
     1
172
     0
 90
        2
 40
0.0
 41
0.0
173
     1
 91
-1056964608
340
11
 92
       -2
290
     1
 42
2.0
291
     1
 43
8.0
  3
Standard
341
0
 44
4.0
300

342
17
174
     1
178
     6
175
     1
176
     0
 93
-1056964608
 45
4.0
292
     0
297
     0
 46
4.0
343
0
 94
-1056964608
 47
1.0
 49
1.0
140
1.0
293
     1
141
0.0
294
     1
177
     0
142
1.0
295
     0
296
     0
143
3.75
1001
ACAD_MLEADERVER
1070
     2
  0
MLINESTYLE
  5
1C
102
{ACAD_REACTORS
330
1B
102
}
330
1B
100
AcDbMlineStyle
  2
Standard
 70
     0
  3

 62
     0
 51
90.0
 52
90.0
 71
     2
 49
0.5
 62
   256
  6
BYLAYER
 49
-0.5
 62
   256
  6
BYLAYER
  0
ACDBPLACEHOLDER
  5
1D
102
{ACAD_REACTORS
330
1F
102
}
330
1F
  0
SCALE
  5
242
102
{ACAD_REACTORS
330
241
102
}
330
241
100
AcDbScale
 70
     0
300
1:1
140
1.0
141
1.0
290
     1
  0
SCALE
  5
243
102
{ACAD_REACTORS
330
241
102
}
330
241
100
AcDbScale
 70
     0
300
1:2
140
1.0
141
2.0
290
     0
  0
SCALE
  5
244
102
{ACAD_REACTORS
330
241
102
}
330
241
100
AcDbScale
 70
     0
300
1:4
140
1.0
141
4.0
290
     0
  0
SCALE
  5
245
102
{ACAD_REACTORS
330
241
102
}
330
241
100
AcDbScale
 70
     0
300
1:5
140
1.0
141
5.0
290
     0
  0
SCALE
  5
246
102
{ACAD_REACTORS
330
241
102
}
330
241
100
AcDbScale
 70
     0
300
1:8
140
1.0
141
8.0
290
     0
  0
SCALE
  5
247
102
{ACAD_REACTORS
330
241
102
}
330
241
100
AcDbScale
 70
     0
300
1:10
140
1.0
141
10.0
290
     0
  0
SCALE
  5
248
102
{ACAD_REACTORS
330
241
102
}
330
241
100
AcDbScale
 70
     0
300
1:16
140
1.0
141
16.0
290
     0
  0
SCALE
  5
249
102
{ACAD_REACTORS
330
241
102
}
330
241
100
AcDbScale
 70
     0
300
1:20
140
1.0
141
20.0
290
     0
  0
SCALE
  5
24A
102
{ACAD_REACTORS
330
241
102
}
330
241
100
AcDbScale
 70
     0
300
1:30
140
1.0
141
30.0
290
     0
  0
SCALE
  5
24B
102
{ACAD_REACTORS
330
241
102
}
330
241
100
AcDbScale
 70
     0
300
1:40
140
1.0
141
40.0
290
     0
  0
SCALE
  5
24C
102
{ACAD_REACTORS
330
241
102
}
330
241
100
AcDbScale
 70
     0
300
1:50
140
1.0
141
50.0
290
     0
  0
SCALE
  5
24D
102
{ACAD_REACTORS
330
241
102
}
330
241
100
AcDbScale
 70
     0
300
1:100
140
1.0
141
100.0
290
     0
  0
SCALE
  5
24E
102
{ACAD_REACTORS
330
241
102
}
330
241
100
AcDbScale
 70
     0
300
2:1
140
2.0
141
1.0
290
     0
  0
SCALE
  5
24F
102
{ACAD_REACTORS
330
241
102
}
330
241
100
AcDbScale
 70
     0
300
4:1
140
4.0
141
1.0
290
     0
  0
SCALE
  5
250
102
{ACAD_REACTORS
330
241
102
}
330
241
100
AcDbScale
 70
     0
300
8:1
140
8.0
141
1.0
290
     0
  0
SCALE
  5
251
102
{ACAD_REACTORS
330
241
102
}
330
241
100
AcDbScale
 70
     0
300
10:1
140
10.0
141
1.0
290
     0
  0
SCALE
  5
252
102
{ACAD_REACTORS
330
241
102
}
330
241
100
AcDbScale
 70
     0
300
100:1
140
100.0
141
1.0
290
     0
  0
SCALE
  5
253
102
{ACAD_REACTORS
330
241
102
}
330
241
100
AcDbScale
 70
     0
300
1/128" = 1'-0"
140
0.0078125
141
12.0
290
     0
  0
SCALE
  5
254
102
{ACAD_REACTORS
330
241
102
}
330
241
100
AcDbScale
 70
     0
300
1/64" = 1'-0"
140
0.015625
141
12.0
290
     0
  0
SCALE
  5
255
102
{ACAD_REACTORS
330
241
102
}
330
241
100
AcDbScale
 70
     0
300
1/32" = 1'-0"
140
0.03125
141
12.0
290
     0
  0
SCALE
  5
256
102
{ACAD_REACTORS
330
241
102
}
330
241
100
AcDbScale
 70
     0
300
1/16" = 1'-0"
140
0.0625
141
12.0
290
     0
  0
SCALE
  5
257
102
{ACAD_REACTORS
330
241
102
}
330
241
100
AcDbScale
 70
     0
300
3/32" = 1'-0"
140
0.09375
141
12.0
290
     0
  0
SCALE
  5
258
102
{ACAD_REACTORS
330
241
102
}
330
241
100
AcDbScale
 70
     0
300
1/8" = 1'-0"
140
0.125
141
12.0
290
     0
  0
SCALE
  5
259
102
{ACAD_REACTORS
330
241
102
}
330
241
100
AcDbScale
 70
     0
300
3/16" = 1'-0"
140
0.1875
141
12.0
290
     0
  0
SCALE
  5
25A
102
{ACAD_REACTORS
330
241
102
}
330
241
100
AcDbScale
 70
     0
300
1/4" = 1'-0"
140
0.25
141
12.0
290
     0
  0
SCALE
  5
25B
102
{ACAD_REACTORS
330
241
102
}
330
241
100
AcDbScale
 70
     0
300
3/8" = 1'-0"
140
0.375
141
12.0
290
     0
  0
SCALE
  5
25C
102
{ACAD_REACTORS
330
241
102
}
330
241
100
AcDbScale
 70
     0
300
1/2" = 1'-0"
140
0.5
141
12.0
290
     0
  0
SCALE
  5
25D
102
{ACAD_REACTORS
330
241
102
}
330
241
100
AcDbScale
 70
     0
300
3/4" = 1'-0"
140
0.75
141
12.0
290
     0
  0
SCALE
  5
25E
102
{ACAD_REACTORS
330
241
102
}
330
241
100
AcDbScale
 70
     0
300
1" = 1'-0"
140
1.0
141
12.0
290
     0
  0
SCALE
  5
25F
102
{ACAD_REACTORS
330
241
102
}
330
241
100
AcDbScale
 70
     0
300
1-1/2" = 1'-0"
140
1.5
141
12.0
290
     0
  0
SCALE
  5
260
102
{ACAD_REACTORS
330
241
102
}
330
241
100
AcDbScale
 70
     0
300
3" = 1'-0"
140
3.0
141
12.0
290
     0
  0
SCALE
  5
261
102
{ACAD_REACTORS
330
241
102
}
330
241
100
AcDbScale
 70
     0
300
6" = 1'-0"
140
6.0
141
12.0
290
     0
  0
SCALE
  5
262
102
{ACAD_REACTORS
330
241
102
}
330
241
100
AcDbScale
 70
     0
300
1'-0" = 1'-0"
140
12.0
141
12.0
290
     0
  0
TABLESTYLE
  5
279
102
{ACAD_REACTORS
330
278
102
}
102
{ACAD_XDICTIONARY
360
886A
102
}
330
278
100
AcDbTableStyle
  3
Standard
 70
     0
 71
     0
 40
0.06
 41
0.06
280
     0
281
     0
  7
Standard
140
4.5
170
     2
 62
     0
 63
   257
283
     0
 90
        4
 91
        0
  1

274
    -2
284
     1
 64
     0
275
    -2
285
     1
 65
     0
276
    -2
286
     1
 66
     0
277
    -2
287
     1
 67
     0
278
    -2
288
     1
 68
     0
279
    -2
289
     1
 69
     0
  7
Standard
140
6.0
170
     5
 62
     0
 63
   257
283
     0
 90
        4
 91
        0
  1

274
    -2
284
     1
 64
     0
275
    -2
285
     1
 65
     0
276
    -2
286
     1
 66
     0
277
    -2
287
     1
 67
     0
278
    -2
288
     1
 68
     0
279
    -2
289
     1
 69
     0
  7
Standard
140
4.5
170
     5
 62
     0
 63
   257
283
     0
 90
        4
 91
        0
  1

274
    -2
284
     1
 64
     0
275
    -2
285
     1
 65
     0
276
    -2
286
     1
 66
     0
277
    -2
287
     1
 67
     0
278
    -2
288
     1
 68
     0
279
    -2
289
     1
 69
     0
  0
VISUALSTYLE
  5
26C
102
{ACAD_REACTORS
330
267
102
}
330
267
100
AcDbVisualStyle
  2
2dWireframe
 70
     4
 71
     0
 72
     2
 73
     0
 90
        0
 40
-0.6
 41
-30.0
 62
     5
 63
     7
421
 16777215
 74
     1
 91
        4
 64
     7
 65
   257
 75
     1
175
     1
 42
1.0
 92
        0
 66
   257
 43
1.0
 76
     1
 77
     6
 78
     2
 67
     7
 79
     5
170
     0
171
     0
290
     0
174
     0
 93
        1
 44
0.0
173
     0
291
     0
 45
0.0
  0
VISUALSTYLE
  5
26E
102
{ACAD_REACTORS
330
267
102
}
330
267
100
AcDbVisualStyle
  2
3D Hidden
 70
     6
 71
     1
 72
     2
 73
     2
 90
        0
 40
-0.6
 41
-30.0
 62
     5
 63
     7
421
 16777215
 74
     2
 91
        2
 64
     7
 65
   257
 75
     2
175
     1
 42
40.0
 92
        0
 66
   257
 43
1.0
 76
     1
 77
     6
 78
     2
 67
     7
 79
     3
170
     0
171
     0
290
     0
174
     0
 93
        1
 44
0.0
173
     0
291
     0
 45
0.0
  0
VISUALSTYLE
  5
26D
102
{ACAD_REACTORS
330
267
102
}
330
267
100
AcDbVisualStyle
  2
3dWireframe
 70
     5
 71
     0
 72
     2
 73
     0
 90
        0
 40
-0.6
 41
-30.0
 62
     5
 63
     7
421
 16777215
 74
     1
 91
        4
 64
     7
 65
   257
 75
     1
175
     1
 42
1.0
 92
        0
 66
   257
 43
1.0
 76
     1
 77
     6
 78
     2
 67
     7
 79
     5
170
     0
171
     0
290
     0
174
     0
 93
        1
 44
0.0
173
     0
291
     0
 45
0.0
  0
VISUALSTYLE
  5
26F
102
{ACAD_REACTORS
330
267
102
}
330
267
100
AcDbVisualStyle
  2
Basic
 70
     7
 71
     1
 72
     0
 73
     1
 90
        0
 40
-0.6
 41
-30.0
 62
     5
 63
     7
421
 16777215
 74
     0
 91
        4
 64
     7
 65
   257
 75
     1
175
     1
 42
1.0
 92
        8
 66
     7
 43
1.0
 76
     1
 77
     6
 78
     2
 67
     7
 79
     5
170
     0
171
     0
290
     0
174
     0
 93
        1
 44
0.0
173
     0
291
     1
 45
0.0
  0
VISUALSTYLE
  5
273
102
{ACAD_REACTORS
330
267
102
}
330
267
100
AcDbVisualStyle
  2
Brighten
 70
    12
 71
     2
 72
     2
 73
     0
 90
        0
 40
-0.6
 41
-30.0
 62
     5
 63
     7
421
 16777215
 74
     1
 91
        4
 64
     7
 65
   257
 75
     1
175
     1
 42
1.0
 92
        8
 66
     7
 43
1.0
 76
     1
 77
     6
 78
     2
 67
     7
 79
     5
170
     0
171
     0
290
     0
174
     0
 93
        1
 44
50.0
173
     0
291
     1
 45
0.0
  0
VISUALSTYLE
  5
277
102
{ACAD_REACTORS
330
267
102
}
330
267
100
AcDbVisualStyle
  2
ColorChange
 70
    16
 71
     2
 72
     2
 73
     3
 90
        0
 40
-0.6
 41
-30.0
 62
     5
 63
     8
421
  8421504
 74
     1
 91
        4
 64
     7
 65
   257
 75
     1
175
     1
 42
1.0
 92
        8
 66
     8
424
  8421504
 43
1.0
 76
     1
 77
     6
 78
     2
 67
     7
 79
     5
170
     0
171
     0
290
     0
174
     0
 93
        1
 44
0.0
173
     0
291
     1
 45
0.0
  0
VISUALSTYLE
  5
271
102
{ACAD_REACTORS
330
267
102
}
330
267
100
AcDbVisualStyle
  2
Conceptual
 70
     9
 71
     3
 72
     2
 73
     0
 90
        0
 40
-0.6
 41
-30.0
 62
     5
 63
     7
421
 16777215
 74
     2
 91
        2
 64
     7
 65
   257
 75
     1
175
     1
 42
40.0
 92
        8
 66
     7
 43
1.0
 76
     1
 77
     6
 78
     2
 67
     7
 79
     3
170
     0
171
     0
290
     0
174
     0
 93
        1
 44
0.0
173
     0
291
     0
 45
0.0
  0
VISUALSTYLE
  5
272
102
{ACAD_REACTORS
330
267
102
}
330
267
100
AcDbVisualStyle
  2
Dim
 70
    11
 71
     2
 72
     2
 73
     0
 90
        0
 40
-0.6
 41
-30.0
 62
     5
 63
     7
421
 16777215
 74
     1
 91
        4
 64
     7
 65
   257
 75
     1
175
     1
 42
1.0
 92
        8
 66
     7
 43
1.0
 76
     1
 77
     6
 78
     2
 67
     7
 79
     5
170
     0
171
     0
290
     0
174
     0
 93
        1
 44
-50.0
173
     0
291
     1
 45
0.0
  0
VISUALSTYLE
  5
8BC
102
{ACAD_REACTORS
330
267
102
}
330
267
100
AcDbVisualStyle
  2
EdgeColorOff
 70
    22
 71
     2
 72
     2
 73
     0
 90
        0
 40
0.6
 41
30.0
 62
     5
 63
     7
421
 16777215
 74
     1
 91
        4
 64
     7
 65
   257
 75
     1
175
     1
 42
1.0
 92
        8
 66
     7
 43
1.0
 76
     1
 77
     6
 78
     2
 67
     7
 79
     5
170
     0
171
     0
290
     0
174
     0
 93
        1
 44
0.0
173
     0
291
     1
 45
0.0
  0
VISUALSTYLE
  5
276
102
{ACAD_REACTORS
330
267
102
}
330
267
100
AcDbVisualStyle
  2
Facepattern
 70
    15
 71
     2
 72
     2
 73
     0
 90
        0
 40
-0.6
 41
-30.0
 62
     5
 63
     7
421
 16777215
 74
     1
 91
        4
 64
     7
 65
   257
 75
     1
175
     1
 42
1.0
 92
        8
 66
     7
 43
1.0
 76
     1
 77
     6
 78
     2
 67
     7
 79
     5
170
     0
171
     0
290
     0
174
     0
 93
        1
 44
0.0
173
     0
291
     1
 45
0.0
  0
VISUALSTYLE
  5
268
102
{ACAD_REACTORS
330
267
102
}
330
267
100
AcDbVisualStyle
  2
Flat
 70
     0
 71
     2
 72
     1
 73
     1
 90
        2
 40
-0.6
 41
30.0
 62
     5
 63
     7
421
 16777215
 74
     0
 91
        4
 64
     7
 65
   257
 75
     1
175
     1
 42
1.0
 92
        8
 66
     7
 43
1.0
 76
     1
 77
     6
 78
     2
 67
     7
 79
     5
170
     0
171
     0
290
     0
174
     0
 93
       13
 44
0.0
173
     0
291
     1
 45
0.0
  0
VISUALSTYLE
  5
269
102
{ACAD_REACTORS
330
267
102
}
330
267
100
AcDbVisualStyle
  2
FlatWithEdges
 70
     1
 71
     2
 72
     1
 73
     1
 90
        2
 40
-0.6
 41
30.0
 62
     5
 63
     7
421
 16777215
 74
     1
 91
        4
 64
     7
 65
   257
 75
     1
175
     1
 42
1.0
 92
        0
 66
   257
 43
1.0
 76
     1
 77
     6
 78
     2
 67
     7
 79
     5
170
     0
171
     0
290
     0
174
     0
 93
       13
 44
0.0
173
     0
291
     1
 45
0.0
  0
VISUALSTYLE
  5
26A
102
{ACAD_REACTORS
330
267
102
}
330
267
100
AcDbVisualStyle
  2
Gouraud
 70
     2
 71
     2
 72
     2
 73
     1
 90
        2
 40
-0.6
 41
30.0
 62
     5
 63
     7
421
 16777215
 74
     0
 91
        4
 64
     7
 65
   257
 75
     1
175
     1
 42
1.0
 92
        0
 66
     7
 43
1.0
 76
     1
 77
     6
 78
     2
 67
     7
 79
     5
170
     0
171
     0
290
     0
174
     0
 93
       13
 44
0.0
173
     0
291
     1
 45
0.0
  0
VISUALSTYLE
  5
26B
102
{ACAD_REACTORS
330
267
102
}
330
267
100
AcDbVisualStyle
  2
GouraudWithEdges
 70
     3
 71
     2
 72
     2
 73
     1
 90
        2
 40
-0.6
 41
30.0
 62
     5
 63
     7
421
 16777215
 74
     1
 91
        4
 64
     7
 65
   257
 75
     1
175
     1
 42
1.0
 92
        0
 66
   257
 43
1.0
 76
     1
 77
     6
 78
     2
 67
     7
 79
     5
170
     0
171
     0
290
     0
174
     0
 93
       13
 44
0.0
173
     0
291
     1
 45
0.0
  0
VISUALSTYLE
  5
8B9
102
{ACAD_REACTORS
330
267
102
}
330
267
100
AcDbVisualStyle
  2
Hidden
 70
     6
 71
     1
 72
     2
 73
     2
 90
        0
 40
0.6
 41
30.0
 62
     5
 63
     7
421
 16777215
 74
     2
 91
        2
 64
     7
 65
   257
 75
     2
175
     1
 42
40.0
 92
        0
 66
   257
 43
1.0
 76
     1
 77
     6
 78
     2
 67
     7
 79
     3
170
     0
171
     0
290
     0
174
     0
 93
        1
 44
0.0
173
     0
291
     0
 45
0.0
  0
VISUALSTYLE
  5
8BA
102
{ACAD_REACTORS
330
267
102
}
330
267
100
AcDbVisualStyle
  2
JitterOff
 70
    20
 71
     2
 72
     2
 73
     0
 90
        0
 40
0.6
 41
30.0
 62
     5
 63
     7
421
 16777215
 74
     1
 91
        4
 64
     7
 65
   257
 75
     1
175
     1
 42
1.0
 92
       10
 66
     7
 43
1.0
 76
     1
 77
     6
 78
     2
 67
     7
 79
     5
170
     0
171
     0
290
     0
174
     0
 93
        1
 44
0.0
173
     0
291
     1
 45
0.0
  0
VISUALSTYLE
  5
275
102
{ACAD_REACTORS
330
267
102
}
330
267
100
AcDbVisualStyle
  2
Linepattern
 70
    14
 71
     2
 72
     2
 73
     0
 90
        0
 40
-0.6
 41
-30.0
 62
     5
 63
     7
421
 16777215
 74
     1
 91
        4
 64
     7
 65
   257
 75
     7
175
     7
 42
1.0
 92
        8
 66
     7
 43
1.0
 76
     1
 77
     6
 78
     2
 67
     7
 79
     5
170
     0
171
     0
290
     0
174
     0
 93
        1
 44
0.0
173
     0
291
     1
 45
0.0
  0
VISUALSTYLE
  5
8BB
102
{ACAD_REACTORS
330
267
102
}
330
267
100
AcDbVisualStyle
  2
OverhangOff
 70
    21
 71
     2
 72
     2
 73
     0
 90
        0
 40
0.6
 41
30.0
 62
     5
 63
     7
421
 16777215
 74
     1
 91
        4
 64
     7
 65
   257
 75
     1
175
     1
 42
1.0
 92
        9
 66
     7
 43
1.0
 76
     1
 77
     6
 78
     2
 67
     7
 79
     5
170
     0
171
     0
290
     0
174
     0
 93
        1
 44
0.0
173
     0
291
     1
 45
0.0
  0
VISUALSTYLE
  5
270
102
{ACAD_REACTORS
330
267
102
}
330
267
100
AcDbVisualStyle
  2
Realistic
 70
     8
 71
     2
 72
     2
 73
     0
 90
        0
 40
-0.6
 41
-30.0
 62
     5
 63
     7
421
 16777215
 74
     1
 91
        0
 64
     7
 65
   257
 75
     1
175
     1
 42
1.0
 92
        8
 66
     8
424
  7895160
 43
1.0
 76
     1
 77
     6
 78
     2
 67
     7
 79
     5
170
     0
171
     0
290
     0
174
     0
 93
       13
 44
0.0
173
     0
291
     0
 45
0.0
  0
VISUALSTYLE
  5
8C1
102
{ACAD_REACTORS
330
267
102
}
330
267
100
AcDbVisualStyle
  2
Shaded
 70
    27
 71
     2
 72
     2
 73
     1
 90
        2
 40
0.6
 41
30.0
 62
     5
 63
     7
421
 16777215
 74
     0
 91
        4
 64
     7
 65
   257
 75
     1
175
     1
 42
1.0
 92
        8
 66
   257
 43
1.0
 76
     1
 77
     6
 78
     2
 67
     8
425
  7895160
 79
     3
170
     0
171
     0
290
     0
174
     0
 93
        5
 44
0.0
173
     0
291
     0
 45
0.0
  0
VISUALSTYLE
  5
8C0
102
{ACAD_REACTORS
330
267
102
}
330
267
100
AcDbVisualStyle
  2
Shaded with edges
 70
    26
 71
     2
 72
     2
 73
     1
 90
        2
 40
0.6
 41
30.0
 62
     5
 63
     7
421
 16777215
 74
     1
 91
       10
 64
     7
 65
   257
 75
     2
175
     1
 42
1.0
 92
        8
 66
   257
 43
1.0
 76
     1
 77
     6
 78
     2
 67
     7
 79
     3
170
     0
171
     0
290
     0
174
     0
 93
        5
 44
0.0
173
     0
291
     0
 45
0.0
  0
VISUALSTYLE
  5
8BD
102
{ACAD_REACTORS
330
267
102
}
330
267
100
AcDbVisualStyle
  2
Shades of Gray
 70
    23
 71
     2
 72
     2
 73
     3
 90
        0
 40
0.6
 41
30.0
 62
     5
 63
     7
421
 16777215
 74
     2
 91
        2
 64
     7
 65
     7
 75
     1
175
     1
 42
40.0
 92
        8
 66
     7
 43
1.0
 76
     1
 77
     6
 78
     2
 67
     7
 79
     3
170
     0
171
     0
290
     0
174
     0
 93
        1
 44
0.0
173
     0
291
     0
 45
0.0
  0
VISUALSTYLE
  5
8BE
102
{ACAD_REACTORS
330
267
102
}
330
267
100
AcDbVisualStyle
  2
Sketchy
 70
    24
 71
     1
 72
     2
 73
     2
 90
        0
 40
0.6
 41
30.0
 62
     5
 63
     7
421
 16777215
 74
     2
 91
        2
 64
     7
 65
     7
 75
     1
175
     1
 42
40.0
 92
       11
 66
     7
 43
1.0
 76
     1
 77
     6
 78
     2
 67
     7
 79
     6
170
     0
171
     0
290
     0
174
     0
 93
        1
 44
0.0
173
     0
291
     0
 45
0.0
  0
VISUALSTYLE
  5
274
102
{ACAD_REACTORS
330
267
102
}
330
267
100
AcDbVisualStyle
  2
Thicken
 70
    13
 71
     2
 72
     2
 73
     0
 90
        0
 40
-0.6
 41
-30.0
 62
     5
 63
     7
421
 16777215
 74
     1
 91
        4
 64
     7
 65
   257
 75
     1
175
     1
 42
1.0
 92
       12
 66
     7
 43
1.0
 76
     1
 77
     6
 78
     2
 67
     7
 79
     5
170
     0
171
     0
290
     0
174
     0
 93
        1
 44
0.0
173
     0
291
     1
 45
0.0
  0
VISUALSTYLE
  5
8B8
102
{ACAD_REACTORS
330
267
102
}
330
267
100
AcDbVisualStyle
  2
Wireframe
 70
     5
 71
     0
 72
     2
 73
     0
 90
        0
 40
0.6
 41
30.0
 62
     5
 63
     7
421
 16777215
 74
     1
 91
        4
 64
     7
 65
   257
 75
     1
175
     1
 42
1.0
 92
        0
 66
   257
 43
1.0
 76
     1
 77
     6
 78
     2
 67
     7
 79
     3
170
     0
171
     0
290
     0
174
     0
 93
        1
 44
0.0
173
     0
291
     0
 45
0.0
  0
VISUALSTYLE
  5
8BF
102
{ACAD_REACTORS
330
267
102
}
330
267
100
AcDbVisualStyle
  2
X-Ray
 70
    25
 71
     2
 72
     2
 73
     1
 90
        1
 40
0.5
 41
30.0
 62
     5
 63
     7
421
 16777215
 74
     1
 91
        0
 64
     7
 65
   257
 75
     1
175
     1
 42
1.0
 92
        8
 66
     7
 43
1.0
 76
     1
 77
     6
 78
     2
 67
     7
 79
     3
170
     0
171
     0
290
     0
174
     0
 93
       13
 44
0.0
173
     0
291
     0
 45
0.0
  0
DICTIONARYVAR
  5
331
102
{ACAD_REACTORS
330
330
102
}
330
330
100
DictionaryVariables
280
     0
  1
1:1
  0
DICTIONARYVAR
  5
8DA
102
{ACAD_REACTORS
330
330
102
}
330
330
100
DictionaryVariables
280
     0
  1
Standard
  0
DICTIONARYVAR
  5
335
102
{ACAD_REACTORS
330
330
102
}
330
330
100
DictionaryVariables
280
     0
  1
Standard
  0
DICTIONARYVAR
  5
C07
102
{ACAD_REACTORS
330
330
102
}
330
330
100
DictionaryVariables
280
     0
  1
ByLayer
  0
DICTIONARYVAR
  5
64A
102
{ACAD_REACTORS
330
330
102
}
330
330
100
DictionaryVariables
280
     0
  1
0
  0
DICTIONARYVAR
  5
4918
102
{ACAD_REACTORS
330
C08
102
}
330
C08
100
DictionaryVariables
280
     0
  1
0.261799
  0
DICTIONARYVAR
  5
4916
102
{ACAD_REACTORS
330
C08
102
}
330
C08
100
DictionaryVariables
280
     0
  1
0.400000
  0
DICTIONARYVAR
  5
4917
102
{ACAD_REACTORS
330
C08
102
}
330
C08
100
DictionaryVariables
280
     0
  1
0.250000
  0
DICTIONARYVAR
  5
4919
102
{ACAD_REACTORS
330
C08
102
}
330
C08
100
DictionaryVariables
280
     0
  1
1
  0
FIELD
  5
BDE
102
{ACAD_REACTORS
330
8774
330
885C
330
885D
102
}
330
885D
100
AcDbField
  1
_text
  2
{%<\_FldIdx 0>%N}
 90
        1
360
BDF
 97
        0
 91
       63
 92
        0
 94
       11
 95
        2
 96
        0
300

 93
        1
  6
ACFD_FIELDTEXT_CHECKSUM
 93
        2
 90
        2
140
4506.0
 94
        0
300

302

304
ACVALUE_END
  7
ACFD_FIELD_VALUE
 93
        6
 90
        4
  1
{20210823N}
 94
        0
300

302

304
ACVALUE_END
301
{20210823N}
 98
       11
  0
DICTIONARY
  5
886A
330
279
100
AcDbDictionary
280
     1
281
     1
  3
ACAD_ROUNDTRIP_2008_TABLESTYLE_CELLSTYLEMAP
360
886B
  0
FIELD
  5
BDF
330
BDE
100
AcDbField
  1
AcVar
  2
\AcVar Date \f "yyyyMMdd"
 90
        0
 97
        0
 91
       63
 92
        0
 94
        8
 95
       64
 96
        0
300
Variable not supported
 93
        1
  6
Variable
 93
        2
 90
        4
  1
Date
 94
        0
300

302

304
ACVALUE_END
  7
ACFD_FIELD_VALUE
 93
        6
 90
        8
 92
       16
310
E5070800000017000700360035000000
 94
        0
300
yyyyMMdd
302

304
ACVALUE_END
301
20210823
 98
        8
  0
CELLSTYLEMAP
  5
886B
102
{ACAD_REACTORS
330
886A
102
}
330
886A
100
AcDbCellStyleMap
 90
        3
300
CELLSTYLE
  1
TABLEFORMAT_BEGIN
 90
        5
170
     1
 91
        0
 92
    32768
 62
   257
 93
        1
300
CONTENTFORMAT
  1
CONTENTFORMAT_BEGIN
 90
        0
 91
        0
 92
        4
 93
        0
300

 40
0.0
140
1.0
 94
        5
 62
     0
340
17
144
6.0
309
CONTENTFORMAT_END
171
     1
301
MARGIN
  1
CELLMARGIN_BEGIN
 40
0.06
 40
0.06
 40
0.06
 40
0.06
 40
0.18
 40
0.18
309
CELLMARGIN_END
 94
        6
 95
        1
302
GRIDFORMAT
  1
GRIDFORMAT_BEGIN
 90
        0
 91
        1
 62
     0
 92
       -2
340
0
 93
        0
 40
0.045
309
GRIDFORMAT_END
 95
        2
302
GRIDFORMAT
  1
GRIDFORMAT_BEGIN
 90
        0
 91
        1
 62
     0
 92
       -2
340
0
 93
        0
 40
0.045
309
GRIDFORMAT_END
 95
        4
302
GRIDFORMAT
  1
GRIDFORMAT_BEGIN
 90
        0
 91
        1
 62
     0
 92
       -2
340
0
 93
        0
 40
0.045
309
GRIDFORMAT_END
 95
        8
302
GRIDFORMAT
  1
GRIDFORMAT_BEGIN
 90
        0
 91
        1
 62
     0
 92
       -2
340
0
 93
        0
 40
0.045
309
GRIDFORMAT_END
 95
       16
302
GRIDFORMAT
  1
GRIDFORMAT_BEGIN
 90
        0
 91
        1
 62
     0
 92
       -2
340
0
 93
        0
 40
0.045
309
GRIDFORMAT_END
 95
       32
302
GRIDFORMAT
  1
GRIDFORMAT_BEGIN
 90
        0
 91
        1
 62
     0
 92
       -2
340
0
 93
        0
 40
0.045
309
GRIDFORMAT_END
309
TABLEFORMAT_END
  1
CELLSTYLE_BEGIN
 90
        1
 91
        1
300
_TITLE
309
CELLSTYLE_END
300
CELLSTYLE
  1
TABLEFORMAT_BEGIN
 90
        5
170
     1
 91
        0
 92
        0
 62
   257
 93
        1
300
CONTENTFORMAT
  1
CONTENTFORMAT_BEGIN
 90
        0
 91
        0
 92
        4
 93
        0
300

 40
0.0
140
1.0
 94
        5
 62
     0
340
17
144
4.5
309
CONTENTFORMAT_END
171
     1
301
MARGIN
  1
CELLMARGIN_BEGIN
 40
0.06
 40
0.06
 40
0.06
 40
0.06
 40
0.18
 40
0.18
309
CELLMARGIN_END
 94
        6
 95
        1
302
GRIDFORMAT
  1
GRIDFORMAT_BEGIN
 90
        0
 91
        1
 62
     0
 92
       -2
340
0
 93
        0
 40
0.045
309
GRIDFORMAT_END
 95
        2
302
GRIDFORMAT
  1
GRIDFORMAT_BEGIN
 90
        0
 91
        1
 62
     0
 92
       -2
340
0
 93
        0
 40
0.045
309
GRIDFORMAT_END
 95
        4
302
GRIDFORMAT
  1
GRIDFORMAT_BEGIN
 90
        0
 91
        1
 62
     0
 92
       -2
340
0
 93
        0
 40
0.045
309
GRIDFORMAT_END
 95
        8
302
GRIDFORMAT
  1
GRIDFORMAT_BEGIN
 90
        0
 91
        1
 62
     0
 92
       -2
340
0
 93
        0
 40
0.045
309
GRIDFORMAT_END
 95
       16
302
GRIDFORMAT
  1
GRIDFORMAT_BEGIN
 90
        0
 91
        1
 62
     0
 92
       -2
340
0
 93
        0
 40
0.045
309
GRIDFORMAT_END
 95
       32
302
GRIDFORMAT
  1
GRIDFORMAT_BEGIN
 90
        0
 91
        1
 62
     0
 92
       -2
340
0
 93
        0
 40
0.045
309
GRIDFORMAT_END
309
TABLEFORMAT_END
  1
CELLSTYLE_BEGIN
 90
        2
 91
        1
300
_HEADER
309
CELLSTYLE_END
300
CELLSTYLE
  1
TABLEFORMAT_BEGIN
 90
        5
170
     1
 91
        0
 92
        0
 62
   257
 93
        1
300
CONTENTFORMAT
  1
CONTENTFORMAT_BEGIN
 90
        0
 91
        0
 92
        4
 93
        0
300

 40
0.0
140
1.0
 94
        2
 62
     0
340
17
144
4.5
309
CONTENTFORMAT_END
171
     1
301
MARGIN
  1
CELLMARGIN_BEGIN
 40
0.06
 40
0.06
 40
0.06
 40
0.06
 40
0.18
 40
0.18
309
CELLMARGIN_END
 94
        6
 95
        1
302
GRIDFORMAT
  1
GRIDFORMAT_BEGIN
 90
        0
 91
        1
 62
     0
 92
       -2
340
0
 93
        0
 40
0.045
309
GRIDFORMAT_END
 95
        2
302
GRIDFORMAT
  1
GRIDFORMAT_BEGIN
 90
        0
 91
        1
 62
     0
 92
       -2
340
0
 93
        0
 40
0.045
309
GRIDFORMAT_END
 95
        4
302
GRIDFORMAT
  1
GRIDFORMAT_BEGIN
 90
        0
 91
        1
 62
     0
 92
       -2
340
0
 93
        0
 40
0.045
309
GRIDFORMAT_END
 95
        8
302
GRIDFORMAT
  1
GRIDFORMAT_BEGIN
 90
        0
 91
        1
 62
     0
 92
       -2
340
0
 93
        0
 40
0.045
309
GRIDFORMAT_END
 95
       16
302
GRIDFORMAT
  1
GRIDFORMAT_BEGIN
 90
        0
 91
        1
 62
     0
 92
       -2
340
0
 93
        0
 40
0.045
309
GRIDFORMAT_END
 95
       32
302
GRIDFORMAT
  1
GRIDFORMAT_BEGIN
 90
        0
 91
        1
 62
     0
 92
       -2
340
0
 93
        0
 40
0.045
309
GRIDFORMAT_END
309
TABLEFORMAT_END
  1
CELLSTYLE_BEGIN
 90
        3
 91
        2
300
_DATA
309
CELLSTYLE_END
  0
ENDSEC
  0
EOF
