  0
SECTION
  2
HEADER
  9
$ACADVER
  1
AC1021
  9
$ACADMAINTVER
 70
    25
  9
$DWGCODEPAGE
  3
ANSI_932
  9
$LASTSAVEDBY
  1
tform
  9
$INSBASE
 10
0.0
 20
0.0
 30
0.0
  9
$EXTMIN
 10
0.0
 20
0.0
 30
-0.0000000000000071
  9
$EXTMAX
 10
1680.0
 20
2376.0
 30
34.99521132346014
  9
$LIMMIN
 10
0.0
 20
0.0
  9
$LIMMAX
 10
1680.0
 20
2376.0
  9
$ORTHOMODE
 70
     1
  9
$REGENMODE
 70
     1
  9
$FILLMODE
 70
     1
  9
$QTEXTMODE
 70
     0
  9
$MIRRTEXT
 70
     1
  9
$LTSCALE
 40
4.0
  9
$ATTMODE
 70
     1
  9
$TEXTSIZE
 40
2.5
  9
$TRACEWID
 40
1.0
  9
$TEXTSTYLE
  7
ＭＳ ゴシック
  9
$CLAYER
  8
DIM
  9
$CELTYPE
  6
ByLayer
  9
$CECOLOR
 62
   256
  9
$CELTSCALE
 40
1.0
  9
$DISPSILH
 70
     0
  9
$DIMSCALE
 40
1.0
  9
$DIMASZ
 40
8.0
  9
$DIMEXO
 40
20.0
  9
$DIMDLI
 40
0.9999999999999999
  9
$DIMRND
 40
0.0
  9
$DIMDLE
 40
0.0
  9
$DIMEXE
 40
0.0
  9
$DIMTP
 40
0.0
  9
$DIMTM
 40
0.0
  9
$DIMTXT
 40
20.0
  9
$DIMCEN
 40
0.0
  9
$DIMTSZ
 40
0.0
  9
$DIMTOL
 70
     0
  9
$DIMLIM
 70
     0
  9
$DIMTIH
 70
     0
  9
$DIMTOH
 70
     0
  9
$DIMSE1
 70
     0
  9
$DIMSE2
 70
     0
  9
$DIMTAD
 70
     1
  9
$DIMZIN
 70
    11
  9
$DIMBLK
  1
DOT
  9
$DIMASO
 70
     1
  9
$DIMSHO
 70
     1
  9
$DIMPOST
  1
<>
  9
$DIMAPOST
  1
[]
  9
$DIMALT
 70
     0
  9
$DIMALTD
 70
     1
  9
$DIMALTF
 40
1.0
  9
$DIMLFAC
 40
1.0
  9
$DIMTOFL
 70
     0
  9
$DIMTVP
 40
0.0
  9
$DIMTIX
 70
     1
  9
$DIMSOXD
 70
     0
  9
$DIMSAH
 70
     0
  9
$DIMBLK1
  1

  9
$DIMBLK2
  1

  9
$DIMSTYLE
  2
tfrom線あり
  9
$DIMCLRD
 70
     0
  9
$DIMCLRE
 70
     0
  9
$DIMCLRT
 70
     0
  9
$DIMTFAC
 40
1.0
  9
$DIMGAP
 40
16.0
  9
$DIMJUST
 70
     0
  9
$DIMSD1
 70
     0
  9
$DIMSD2
 70
     0
  9
$DIMTOLJ
 70
     1
  9
$DIMTZIN
 70
    11
  9
$DIMALTZ
 70
    11
  9
$DIMALTTZ
 70
    11
  9
$DIMUPT
 70
     0
  9
$DIMDEC
 70
     0
  9
$DIMTDEC
 70
     1
  9
$DIMALTU
 70
     2
  9
$DIMALTTD
 70
     2
  9
$DIMTXSTY
  7
ＭＳ ゴシック
  9
$DIMAUNIT
 70
     0
  9
$DIMADEC
 70
     2
  9
$DIMALTRND
 40
0.0
  9
$DIMAZIN
 70
     0
  9
$DIMDSEP
 70
    46
  9
$DIMATFIT
 70
     0
  9
$DIMFRAC
 70
     2
  9
$DIMLDRBLK
  1
DOT
  9
$DIMLUNIT
 70
     2
  9
$DIMLWD
 70
    -2
  9
$DIMLWE
 70
    -2
  9
$DIMTMOVE
 70
     0
  9
$DIMFXL
 40
1.0
  9
$DIMFXLON
 70
     0
  9
$DIMJOGANG
 40
0.7853981633974483
  9
$DIMTFILL
 70
     0
  9
$DIMTFILLCLR
 70
     0
  9
$DIMARCSYM
 70
     0
  9
$DIMLTYPE
  6

  9
$DIMLTEX1
  6

  9
$DIMLTEX2
  6

  9
$LUNITS
 70
     2
  9
$LUPREC
 70
     0
  9
$SKETCHINC
 40
0.1
  9
$FILLETRAD
 40
0.0
  9
$AUNITS
 70
     0
  9
$AUPREC
 70
     0
  9
$MENU
  1
acad
  9
$ELEVATION
 40
0.0
  9
$PELEVATION
 40
0.0
  9
$THICKNESS
 40
0.0
  9
$LIMCHECK
 70
     0
  9
$CHAMFERA
 40
0.0
  9
$CHAMFERB
 40
0.0
  9
$CHAMFERC
 40
0.0
  9
$CHAMFERD
 40
0.0
  9
$SKPOLY
 70
     0
  9
$TDCREATE
 40
2447893.375
  9
$TDUCREATE
 40
0.0
  9
$TDUPDATE
 40
2459706.564815046
  9
$TDUUPDATE
 40
2459706.189815046
  9
$TDINDWG
 40
0.1797922685
  9
$TDUSRTIMER
 40
0.001874537
  9
$USRTIMER
 70
     1
  9
$ANGBASE
 50
0.0
  9
$ANGDIR
 70
     0
  9
$PDMODE
 70
     1
  9
$PDSIZE
 40
-2.0
  9
$PLINEWID
 40
0.0
  9
$SPLFRAME
 70
     0
  9
$SPLINETYPE
 70
     6
  9
$SPLINESEGS
 70
     8
  9
$HANDSEED
  5
7DE4
  9
$SURFTAB1
 70
     6
  9
$SURFTAB2
 70
     6
  9
$SURFTYPE
 70
     6
  9
$SURFU
 70
     6
  9
$SURFV
 70
     6
  9
$UCSBASE
  2

  9
$UCSNAME
  2

  9
$UCSORG
 10
0.0
 20
0.0
 30
0.0
  9
$UCSXDIR
 10
1.0
 20
0.0
 30
0.0
  9
$UCSYDIR
 10
0.0
 20
1.0
 30
0.0
  9
$UCSORTHOREF
  2

  9
$UCSORTHOVIEW
 70
     0
  9
$UCSORGTOP
 10
0.0
 20
0.0
 30
0.0
  9
$UCSORGBOTTOM
 10
0.0
 20
0.0
 30
0.0
  9
$UCSORGLEFT
 10
0.0
 20
0.0
 30
0.0
  9
$UCSORGRIGHT
 10
0.0
 20
0.0
 30
0.0
  9
$UCSORGFRONT
 10
0.0
 20
0.0
 30
0.0
  9
$UCSORGBACK
 10
0.0
 20
0.0
 30
0.0
  9
$PUCSBASE
  2

  9
$PUCSNAME
  2

  9
$PUCSORG
 10
0.0
 20
0.0
 30
0.0
  9
$PUCSXDIR
 10
1.0
 20
0.0
 30
0.0
  9
$PUCSYDIR
 10
0.0
 20
1.0
 30
0.0
  9
$PUCSORTHOREF
  2

  9
$PUCSORTHOVIEW
 70
     0
  9
$PUCSORGTOP
 10
0.0
 20
0.0
 30
0.0
  9
$PUCSORGBOTTOM
 10
0.0
 20
0.0
 30
0.0
  9
$PUCSORGLEFT
 10
0.0
 20
0.0
 30
0.0
  9
$PUCSORGRIGHT
 10
0.0
 20
0.0
 30
0.0
  9
$PUCSORGFRONT
 10
0.0
 20
0.0
 30
0.0
  9
$PUCSORGBACK
 10
0.0
 20
0.0
 30
0.0
  9
$USERI1
 70
     0
  9
$USERI2
 70
     0
  9
$USERI3
 70
     0
  9
$USERI4
 70
     0
  9
$USERI5
 70
     0
  9
$USERR1
 40
0.0
  9
$USERR2
 40
0.0
  9
$USERR3
 40
0.0
  9
$USERR4
 40
0.0
  9
$USERR5
 40
0.0
  9
$WORLDVIEW
 70
     1
  9
$SHADEDGE
 70
     3
  9
$SHADEDIF
 70
    70
  9
$TILEMODE
 70
     1
  9
$MAXACTVP
 70
    64
  9
$PINSBASE
 10
0.0
 20
0.0
 30
0.0
  9
$PLIMCHECK
 70
     0
  9
$PEXTMIN
 10
0.0
 20
0.0
 30
0.0
  9
$PEXTMAX
 10
0.0
 20
0.0
 30
0.0
  9
$PLIMMIN
 10
-7.5
 20
-20.0
  9
$PLIMMAX
 10
412.5
 20
277.0
  9
$UNITMODE
 70
     0
  9
$VISRETAIN
 70
     0
  9
$PLINEGEN
 70
     1
  9
$PSLTSCALE
 70
     0
  9
$TREEDEPTH
 70
  3020
  9
$CMLSTYLE
  2
Standard
  9
$CMLJUST
 70
     0
  9
$CMLSCALE
 40
1.0
  9
$PROXYGRAPHICS
 70
     0
  9
$MEASUREMENT
 70
     1
  9
$CELWEIGHT
370
    -1
  9
$ENDCAPS
280
     0
  9
$JOINSTYLE
280
     0
  9
$LWDISPLAY
290
     1
  9
$INSUNITS
 70
     4
  9
$HYPERLINKBASE
  1

  9
$STYLESHEET
  1

  9
$XEDIT
290
     1
  9
$CEPSNTYPE
380
     0
  9
$PSTYLEMODE
290
     1
  9
$FINGERPRINTGUID
  2

  9
$VERSIONGUID
  2

  9
$EXTNAMES
290
     1
  9
$PSVPSCALE
 40
0.0
  9
$OLESTARTUP
290
     0
  9
$SORTENTS
280
   127
  9
$INDEXCTL
280
     0
  9
$HIDETEXT
280
     1
  9
$XCLIPFRAME
290
     0
  9
$HALOGAP
280
     0
  9
$OBSCOLOR
 70
   257
  9
$OBSLTYPE
280
     0
  9
$INTERSECTIONDISPLAY
280
     0
  9
$INTERSECTIONCOLOR
 70
   257
  9
$DIMASSOC
280
     2
  9
$PROJECTNAME
  1

  9
$CAMERADISPLAY
290
     0
  9
$LENSLENGTH
 40
50.0
  9
$CAMERAHEIGHT
 40
0.0
  9
$STEPSPERSEC
 40
2.0
  9
$STEPSIZE
 40
6.0
  9
$3DDWFPREC
 40
2.0
  9
$PSOLWIDTH
 40
0.25
  9
$PSOLHEIGHT
 40
4.0
  9
$LOFTANG1
 40
1.570796326794897
  9
$LOFTANG2
 40
1.570796326794897
  9
$LOFTMAG1
 40
0.0
  9
$LOFTMAG2
 40
0.0
  9
$LOFTPARAM
 70
     7
  9
$LOFTNORMALS
280
     1
  9
$LATITUDE
 40
37.795
  9
$LONGITUDE
 40
-122.394
  9
$NORTHDIRECTION
 40
0.0
  9
$TIMEZONE
 70
 -8000
  9
$LIGHTGLYPHDISPLAY
280
     1
  9
$TILEMODELIGHTSYNCH
280
     1
  9
$SOLIDHIST
280
     1
  9
$SHOWHIST
280
     1
  9
$DWFFRAME
280
     2
  9
$DGNFRAME
280
     2
  9
$REALWORLDSCALE
290
     1
  9
$INTERFERECOLOR
 62
   256
  9
$CSHADOW
280
     0
  9
$SHADOWPLANELOCATION
 40
0.0
  0
ENDSEC
  0
SECTION
  2
CLASSES
  0
CLASS
  1
LWPOLYLINE
  2
AcDbPolyline
  3
ObjectDBX Classes
 90
        0
 91
        1
280
     0
281
     1
  0
CLASS
  1
IMAGE
  2
AcDbRasterImage
  3
ISM
 90
      127
 91
        4
280
     0
281
     1
  0
CLASS
  1
OLE2FRAME
  2
AcDbOle2Frame
  3
ObjectDBX Classes
 90
        0
 91
        1
280
     0
281
     1
  0
CLASS
  1
HATCH
  2
AcDbHatch
  3
ObjectDBX Classes
 90
        0
 91
        1
280
     0
281
     1
  0
CLASS
  1
DICTIONARYVAR
  2
AcDbDictionaryVar
  3
ObjectDBX Classes
 90
        0
 91
        3
280
     0
281
     0
  0
CLASS
  1
RASTERVARIABLES
  2
AcDbRasterVariables
  3
ISM
 90
        0
 91
        3
280
     0
281
     0
  0
CLASS
  1
IMAGEDEF
  2
AcDbRasterImageDef
  3
ISM
 90
        0
 91
        3
280
     0
281
     0
  0
CLASS
  1
IMAGEDEF_REACTOR
  2
AcDbRasterImageDefReactor
  3
ISM
 90
        1
 91
        3
280
     0
281
     0
  0
CLASS
  1
IDBUFFER
  2
AcDbIdBuffer
  3
ObjectDBX Classes
 90
        0
 91
        3
280
     0
281
     0
  0
CLASS
  1
SPATIAL_FILTER
  2
AcDbSpatialFilter
  3
ObjectDBX Classes
 90
        0
 91
        3
280
     0
281
     0
  0
CLASS
  1
XRECORD
  2
AcDbXrecord
  3
ObjectDBX Classes
 90
        0
 91
        1
280
     0
281
     0
  0
CLASS
  1
SORTENTSTABLE
  2
AcDbSortentsTable
  3
ObjectDBX Classes
 90
        0
 91
        3
280
     0
281
     0
  0
CLASS
  1
LAYER_INDEX
  2
AcDbLayerIndex
  3
ObjectDBX Classes
 90
        0
 91
        3
280
     0
281
     0
  0
CLASS
  1
SPATIAL_INDEX
  2
AcDbSpatialIndex
  3
AutoCAD 2000
 90
        0
 91
        3
280
     0
281
     0
  0
CLASS
  1
OBJECT_PTR
  2
CAseDLPNTableRecord
  3
ASE-LPNTableRecord
 90
        1
 91
        3
280
     0
281
     0
  0
CLASS
  1
LAYOUT
  2
AcDbLayout
  3
ObjectDBX Classes
 90
        0
 91
        1
280
     0
281
     0
  0
CLASS
  1
PLOTSETTINGS
  2
AcDbPlotSettings
  3
ObjectDBX Classes
 90
        0
 91
        3
280
     0
281
     0
  0
CLASS
  1
ACDBDICTIONARYWDFLT
  2
AcDbDictionaryWithDefault
  3
ObjectDBX Classes
 90
        0
 91
        3
280
     0
281
     0
  0
CLASS
  1
ACDBPLACEHOLDER
  2
AcDbPlaceHolder
  3
ObjectDBX Classes
 90
        0
 91
        1
280
     0
281
     0
  0
CLASS
  1
SCALE
  2
AcDbScale
  3
ObjectDBX Classes
 90
     1153
 91
        3
280
     0
281
     0
  0
CLASS
  1
MATERIAL
  2
AcDbMaterial
  3
ObjectDBX Classes
 90
     1153
 91
        3
280
     0
281
     0
  0
CLASS
  1
VISUALSTYLE
  2
AcDbVisualStyle
  3
ObjectDBX Classes
 90
     4095
 91
        3
280
     0
281
     0
  0
CLASS
  1
TABLESTYLE
  2
AcDbTableStyle
  3
ObjectDBX Classes
 90
     4095
 91
        3
280
     0
281
     0
  0
CLASS
  1
DIMASSOC
  2
AcDbDimAssoc
  3
"AcDbDimAssoc|Product Desc:     AcDim ARX App For Dimension|Company:          Autodesk, Inc.|WEB Address:      www.autodesk.com"
 90
        0
 91
        3
280
     0
281
     0
  0
CLASS
  1
CELLSTYLEMAP
  2
AcDbCellStyleMap
  3
ObjectDBX Classes
 90
     1152
 91
        3
280
     0
281
     0
  0
CLASS
  1
SUN
  2
AcDbSun
  3
SCENEOE
 90
     1153
 91
        3
280
     0
281
     0
  0
CLASS
  1
MLEADERSTYLE
  2
AcDbMLeaderStyle
  3
ACDB_MLEADERSTYLE_CLASS
 90
     4095
 91
        3
280
     0
281
     0
  0
CLASS
  1
FIELD
  2
AcDbField
  3
ObjectDBX Classes
 90
     1152
 91
        3
280
     0
281
     0
  0
CLASS
  1
FIELDLIST
  2
AcDbFieldList
  3
ObjectDBX Classes
 90
     1152
 91
        3
280
     0
281
     0
  0
ENDSEC
  0
SECTION
  2
TABLES
  0
TABLE
  2
VPORT
  5
7
330
0
100
AcDbSymbolTable
 70
     1
  0
VPORT
  5
15
330
7
100
AcDbSymbolTableRecord
100
AcDbViewportTableRecord
  2
*ACTIVE
 70
     0
 10
0.0
 20
0.0
 11
1.0
 21
1.0
 12
931.020135670901
 22
1114.401285469834
 13
0.0
 23
0.0
 14
1.0
 24
1.0
 15
0.0
 25
0.0
 16
0.0
 26
0.0
 36
1.0
 17
-91.02013567090103
 27
73.59871453016603
 37
-46.86809886248109
 40
2423.52
 41
2.338709677419355
 42
50.0
 43
0.0
 44
0.0
 50
0.0
 51
0.0
 71
    16
 72
  2000
 73
     1
 74
     1
 75
     0
 76
     0
 77
     0
 78
     0
281
     0
 65
     1
110
0.0
120
0.0
130
0.0
111
1.0
121
0.0
131
0.0
112
0.0
122
1.0
132
0.0
 79
     0
146
0.0
348
26C
 60
     3
 61
     5
292
     1
282
     1
141
0.0
142
0.0
 63
   256
361
904
  0
ENDTAB
  0
TABLE
  2
LTYPE
  5
4
330
0
100
AcDbSymbolTable
 70
     4
  0
LTYPE
  5
11
330
4
100
AcDbSymbolTableRecord
100
AcDbLinetypeTableRecord
  2
ByBlock
 70
     0
  3

 72
    65
 73
     0
 40
0.0
  0
LTYPE
  5
12
330
4
100
AcDbSymbolTableRecord
100
AcDbLinetypeTableRecord
  2
ByLayer
 70
     0
  3

 72
    65
 73
     0
 40
0.0
  0
LTYPE
  5
13
330
4
100
AcDbSymbolTableRecord
100
AcDbLinetypeTableRecord
  2
Continuous
 70
     0
  3
Solid line
 72
    65
 73
     0
 40
0.0
  0
LTYPE
  5
D6C
330
4
100
AcDbSymbolTableRecord
100
AcDbLinetypeTableRecord
  2
BORDER
 70
     0
  3
Border __  __  . __  __  . __  __  . __  __  . 
 72
    65
 73
     6
 40
44.45
 49
12.7
 74
     0
 49
-6.35
 74
     0
 49
12.7
 74
     0
 49
-6.35
 74
     0
 49
0.0
 74
     0
 49
-6.35
 74
     0
  0
LTYPE
  5
D6D
330
4
100
AcDbSymbolTableRecord
100
AcDbLinetypeTableRecord
  2
HIDDEN
 70
     0
  3
Hidden _ _ _ _ _ _ _ _ _ _ _ _ _ _ _ _ _ _ _ _ 
 72
    65
 73
     2
 40
9.524999999999999
 49
6.35
 74
     0
 49
-3.175
 74
     0
  0
LTYPE
  5
7B12
330
4
100
AcDbSymbolTableRecord
100
AcDbLinetypeTableRecord
  2
CENTER
 70
     0
  3
 Center _____  _  _____  _  _____  _  _____  _ 
 72
    65
 73
     4
 40
50.8
 49
31.75
 74
     0
 49
-6.35
 74
     0
 49
6.35
 74
     0
 49
-6.35
 74
     0
  0
ENDTAB
  0
TABLE
  2
LAYER
  5
2
102
{ACAD_XDICTIONARY
360
2E1
102
}
330
0
100
AcDbSymbolTable
 70
     8
  0
LAYER
  5
14
330
2
100
AcDbSymbolTableRecord
100
AcDbLayerTableRecord
  2
0
 70
     0
 62
     7
  6
Continuous
370
    -3
390
1D
347
266
  0
LAYER
  5
4B
330
2
100
AcDbSymbolTableRecord
100
AcDbLayerTableRecord
  2
TEMPLATE
 70
     0
 62
     7
  6
Continuous
370
    20
390
1D
347
266
  0
LAYER
  5
4C
330
2
100
AcDbSymbolTableRecord
100
AcDbLayerTableRecord
  2
DIM
 70
     0
 62
     3
  6
Continuous
370
    13
390
1D
347
266
  0
LAYER
  5
4D
330
2
100
AcDbSymbolTableRecord
100
AcDbLayerTableRecord
  2
MODEL
 70
     0
 62
     7
  6
Continuous
370
    20
390
1D
347
266
  0
LAYER
  5
88C
330
2
100
AcDbSymbolTableRecord
100
AcDbLayerTableRecord
  2
HIDDEN
 70
     0
 62
     8
  6
HIDDEN
370
    20
390
1D
347
266
1001
AcAecLayerStandard
1000

1000

  0
LAYER
  5
D6B
330
2
100
AcDbSymbolTableRecord
100
AcDbLayerTableRecord
  2
BORDER
 70
     0
 62
     4
  6
BORDER
290
     0
370
    20
390
1D
347
266
1001
AcAecLayerStandard
1000

1000

  0
LAYER
  5
D8C
330
2
100
AcDbSymbolTableRecord
100
AcDbLayerTableRecord
  2
Defpoints
 70
     0
 62
     7
  6
Continuous
290
     0
370
    -3
390
1D
347
266
  0
LAYER
  5
3653
330
2
100
AcDbSymbolTableRecord
100
AcDbLayerTableRecord
  2
Standard
 70
     0
 62
     7
  6
Continuous
370
    -3
390
1D
347
266
  0
ENDTAB
  0
TABLE
  2
STYLE
  5
3
330
0
100
AcDbSymbolTable
 70
     2
  0
STYLE
  5
17
330
3
100
AcDbSymbolTableRecord
100
AcDbTextStyleTableRecord
  2
Standard
 70
     0
 40
0.0
 41
1.0
 50
0.0
 71
     0
 42
2.5
  3
txt
  4
BIGFONT.SHX
  0
STYLE
  5
39
330
3
100
AcDbSymbolTableRecord
100
AcDbTextStyleTableRecord
  2
ＭＳ ゴシック
 70
     0
 40
0.0
 41
1.0
 50
0.0
 71
     0
 42
2.5
  3
msgothic.ttc
  4
ＭＳ ゴシック
1001
ACAD
1000
ＭＳ ゴシック
1071
        0
  0
ENDTAB
  0
TABLE
  2
VIEW
  5
5
330
0
100
AcDbSymbolTable
 70
     0
  0
ENDTAB
  0
TABLE
  2
UCS
  5
6
330
0
100
AcDbSymbolTable
 70
     0
  0
ENDTAB
  0
TABLE
  2
APPID
  5
8
330
0
100
AcDbSymbolTable
 70
    10
  0
APPID
  5
16
330
8
100
AcDbSymbolTableRecord
100
AcDbRegAppTableRecord
  2
ACAD
 70
     0
  0
APPID
  5
7AC
330
8
100
AcDbSymbolTableRecord
100
AcDbRegAppTableRecord
  2
AcAecLayerStandard
 70
     0
  0
APPID
  5
E29
330
8
100
AcDbSymbolTableRecord
100
AcDbRegAppTableRecord
  2
ACAD_MLEADERVER
 70
     0
  0
APPID
  5
3E5E
330
8
100
AcDbSymbolTableRecord
100
AcDbRegAppTableRecord
  2
ACAD_DSTYLE_DIMJAG
 70
     0
  0
APPID
  5
3E5F
330
8
100
AcDbSymbolTableRecord
100
AcDbRegAppTableRecord
  2
ACAD_DSTYLE_DIMBREAK
 70
     0
  0
APPID
  5
3E60
330
8
100
AcDbSymbolTableRecord
100
AcDbRegAppTableRecord
  2
ACAD_PSEXT
 70
     0
  0
APPID
  5
3E61
330
8
100
AcDbSymbolTableRecord
100
AcDbRegAppTableRecord
  2
ACAD_NAV_VCDISPLAY
 70
     0
  0
APPID
  5
7B6B
330
8
100
AcDbSymbolTableRecord
100
AcDbRegAppTableRecord
  2
ACAD_DSTYLE_DIMTALN
 70
     0
  0
APPID
  5
7B97
330
8
100
AcDbSymbolTableRecord
100
AcDbRegAppTableRecord
  2
PLOTTRANSPARENCY
 70
     0
  0
APPID
  5
7D2F
330
8
100
AcDbSymbolTableRecord
100
AcDbRegAppTableRecord
  2
HATCHBACKGROUNDCOLOR
 70
     0
  0
ENDTAB
  0
TABLE
  2
DIMSTYLE
  5
9
330
0
100
AcDbSymbolTable
 70
     6
100
AcDbDimStyleTable
  0
DIMSTYLE
105
18
330
9
100
AcDbSymbolTableRecord
100
AcDbDimStyleTableRecord
  2
Standard
 70
     0
178
     0
340
17
  0
DIMSTYLE
105
57
102
{ACAD_REACTORS
330
7A2C
330
7A3E
330
7A6E
330
7A8C
330
7AAA
330
7AB7
330
7AC9
330
7AD6
330
7B32
330
7CD8
330
7CF9
330
7D08
102
}
330
9
100
AcDbSymbolTableRecord
100
AcDbDimStyleTableRecord
  2
tfrom線あり
 70
     0
  3
<>
  4
[]
 41
8.0
 42
20.0
 43
0.9999999999999999
 44
0.0
 73
     0
 74
     0
 77
     1
 78
    11
140
20.0
141
0.0
143
1.0
147
16.0
171
     1
174
     1
178
     0
179
     2
271
     0
272
     1
276
     2
284
    11
285
    11
286
    11
289
     0
340
39
341
4E
342
4E
  0
DIMSTYLE
105
3E5C
330
9
100
AcDbSymbolTableRecord
100
AcDbDimStyleTableRecord
  2
AM_DIN
 70
     0
  4
"
 41
3.5
 42
1.0
 43
10.0
 44
1.0
 47
0.1
 48
0.1
 50
89.99999999999996
 73
     0
 74
     0
 77
     1
 78
     8
 79
     2
140
3.5
141
0.0
143
0.0393701
146
0.71
147
1.5
172
     1
176
   256
177
   256
271
     2
178
     2
271
     2
272
     3
274
     4
283
     0
284
     8
340
17
371
    -1
372
    -1
345
11
346
11
347
11
1001
ACAD_DSTYLE_DIMJAG
1070
   388
1040
1.5
1001
ACAD_DSTYLE_DIMBREAK
1070
   391
1040
3.75
  0
DIMSTYLE
105
7B5A
330
9
100
AcDbSymbolTableRecord
100
AcDbDimStyleTableRecord
  2
tform線あり
 70
     0
  3
<>
  4
[]
 41
9.999389648437498
 42
25.0
 43
0.9999999999999999
 44
0.0
 73
     0
 74
     0
 77
     1
 78
    11
140
24.4326171875
141
0.0
143
1.0
146
0.8
147
10.0
171
     1
172
     1
174
     1
178
     0
179
     2
271
     0
272
     1
276
     2
284
    11
285
    11
286
    11
289
     0
340
39
341
4E
342
4E
  0
DIMSTYLE
105
7B64
330
9
100
AcDbSymbolTableRecord
100
AcDbDimStyleTableRecord
  2
JIS
 70
     0
  3
<>
  4
[]
 41
31.75
 42
0.0
 43
6.99999999999994
 44
19.9999999999962
 73
     0
 74
     0
 77
     1
 78
    11
140
24.4326171875
141
0.0
143
1.0
147
1.00000000000108
171
     1
174
     1
178
     0
179
     2
271
     1
272
     1
276
     2
284
    11
285
    11
286
    11
289
     0
340
39
341
7B65
342
7B65
  0
DIMSTYLE
105
7B69
330
9
100
AcDbSymbolTableRecord
100
AcDbDimStyleTableRecord
  2
scala  A3
 70
     0
 41
5.0
 42
0.625
 43
0.0
 44
1.25
 49
10.0
290
     1
 73
     0
 74
     0
 77
     1
 78
     8
140
6.0
141
2.5
143
0.03937007874016
147
2.0
171
     3
176
   256
177
   256
178
     0
271
     0
272
     0
274
     3
278
    44
283
     0
284
     8
340
17
371
    -1
372
     0
345
12
346
12
347
12
1001
ACAD_DSTYLE_DIMJAG
1070
   388
1040
1.5
1001
ACAD_DSTYLE_DIMTALN
1070
   392
1070
     0
  0
ENDTAB
  0
TABLE
  2
BLOCK_RECORD
  5
1
330
0
100
AcDbSymbolTable
 70
    43
  0
BLOCK_RECORD
  5
A
102
{ACAD_XDICTIONARY
360
3E3E
102
}
330
1
100
AcDbSymbolTableRecord
100
AcDbBlockTableRecord
  2
*MODEL_SPACE
340
20
 70
     0
280
     1
281
     0
  0
BLOCK_RECORD
  5
B
330
1
100
AcDbSymbolTableRecord
100
AcDbBlockTableRecord
  2
*PAPER_SPACE
340
21
 70
     0
280
     1
281
     0
  0
BLOCK_RECORD
  5
4E
330
1
100
AcDbSymbolTableRecord
100
AcDbBlockTableRecord
  2
_DOT
340
0
102
{BLKREFS
331
3E2C
331
3E2D
331
3E38
331
3E39
331
4275
331
4276
331
4284
331
4285
331
4293
331
4294
331
42A0
331
42A1
331
42AF
331
42B0
331
5E2A
331
5E2B
331
798C
331
798D
331
79A1
331
79A2
331
79B0
331
79B1
331
79BD
331
79BE
331
79CC
331
79CD
331
79DB
331
79DC
331
79EA
331
79EB
331
7A0A
331
7A0B
331
7A17
331
7A18
331
7A26
331
7A27
331
7A35
331
7A36
331
7A47
331
7A48
331
7A56
331
7A57
331
7A65
331
7A66
331
7A77
331
7A78
331
7A86
331
7A87
331
7A95
331
7A96
331
7AB1
331
7AB2
331
7ABE
331
7ABF
331
7AD0
331
7AD1
331
7AE1
331
7AE2
331
7B29
331
7B2A
331
7B3B
331
7B3C
331
7C46
331
7C47
331
7C53
331
7C54
331
7C88
331
7C89
331
7C94
331
7C95
331
7CE1
331
7CE2
331
7D02
331
7D03
331
7D11
331
7D12
102
}
 70
     0
280
     1
281
     0
  0
BLOCK_RECORD
  5
68D
330
1
100
AcDbSymbolTableRecord
100
AcDbBlockTableRecord
  2
block 2
340
0
102
{BLKREFS
331
68C
331
1343
102
}
 70
     0
280
     1
281
     0
  0
BLOCK_RECORD
  5
3E26
330
1
100
AcDbSymbolTableRecord
100
AcDbBlockTableRecord
  2
*D2
340
0
 70
     0
280
     1
281
     0
  0
BLOCK_RECORD
  5
3E32
330
1
100
AcDbSymbolTableRecord
100
AcDbBlockTableRecord
  2
*D3
340
0
 70
     0
280
     1
281
     0
  0
BLOCK_RECORD
  5
3E88
330
1
100
AcDbSymbolTableRecord
100
AcDbBlockTableRecord
  2
812343s
340
0
 70
     4
280
     1
281
     0
1001
ACAD
1000
DesignCenter Data
1002
{
1070
     1
1070
     4
1002
}
  0
BLOCK_RECORD
  5
3EFC
330
1
100
AcDbSymbolTableRecord
100
AcDbBlockTableRecord
  2
812343d
340
0
 70
     4
280
     1
281
     0
1001
ACAD
1000
DesignCenter Data
1002
{
1070
     1
1070
     4
1002
}
  0
BLOCK_RECORD
  5
426F
330
1
100
AcDbSymbolTableRecord
100
AcDbBlockTableRecord
  2
*D6
340
0
 70
     0
280
     1
281
     0
  0
BLOCK_RECORD
  5
427E
330
1
100
AcDbSymbolTableRecord
100
AcDbBlockTableRecord
  2
*D7
340
0
 70
     0
280
     1
281
     0
  0
BLOCK_RECORD
  5
428D
330
1
100
AcDbSymbolTableRecord
100
AcDbBlockTableRecord
  2
*D8
340
0
 70
     0
280
     1
281
     0
  0
BLOCK_RECORD
  5
429A
330
1
100
AcDbSymbolTableRecord
100
AcDbBlockTableRecord
  2
*D9
340
0
 70
     0
280
     1
281
     0
  0
BLOCK_RECORD
  5
42A9
330
1
100
AcDbSymbolTableRecord
100
AcDbBlockTableRecord
  2
*D10
340
0
 70
     0
280
     1
281
     0
  0
BLOCK_RECORD
  5
5E25
330
1
100
AcDbSymbolTableRecord
100
AcDbBlockTableRecord
  2
*D11
340
0
 70
     0
280
     1
281
     0
  0
BLOCK_RECORD
  5
7986
330
1
100
AcDbSymbolTableRecord
100
AcDbBlockTableRecord
  2
*D12
340
0
 70
     0
280
     1
281
     0
  0
BLOCK_RECORD
  5
799B
330
1
100
AcDbSymbolTableRecord
100
AcDbBlockTableRecord
  2
*D13
340
0
 70
     0
280
     1
281
     0
  0
BLOCK_RECORD
  5
79AA
330
1
100
AcDbSymbolTableRecord
100
AcDbBlockTableRecord
  2
*D14
340
0
 70
     0
280
     1
281
     0
  0
BLOCK_RECORD
  5
79B7
330
1
100
AcDbSymbolTableRecord
100
AcDbBlockTableRecord
  2
*D15
340
0
 70
     0
280
     1
281
     0
  0
BLOCK_RECORD
  5
79C6
330
1
100
AcDbSymbolTableRecord
100
AcDbBlockTableRecord
  2
*D16
340
0
 70
     0
280
     1
281
     0
  0
BLOCK_RECORD
  5
79D5
330
1
100
AcDbSymbolTableRecord
100
AcDbBlockTableRecord
  2
*D17
340
0
 70
     0
280
     1
281
     0
  0
BLOCK_RECORD
  5
79E4
330
1
100
AcDbSymbolTableRecord
100
AcDbBlockTableRecord
  2
*D18
340
0
 70
     0
280
     1
281
     0
  0
BLOCK_RECORD
  5
7A04
330
1
100
AcDbSymbolTableRecord
100
AcDbBlockTableRecord
  2
*D19
340
0
 70
     0
280
     1
281
     0
  0
BLOCK_RECORD
  5
7A11
330
1
100
AcDbSymbolTableRecord
100
AcDbBlockTableRecord
  2
*D20
340
0
 70
     0
280
     1
281
     0
  0
BLOCK_RECORD
  5
7A20
330
1
100
AcDbSymbolTableRecord
100
AcDbBlockTableRecord
  2
*D21
340
0
 70
     0
280
     1
281
     0
  0
BLOCK_RECORD
  5
7A2F
330
1
100
AcDbSymbolTableRecord
100
AcDbBlockTableRecord
  2
*D22
340
0
 70
     0
280
     1
281
     0
  0
BLOCK_RECORD
  5
7A41
330
1
100
AcDbSymbolTableRecord
100
AcDbBlockTableRecord
  2
*D23
340
0
 70
     0
280
     1
281
     0
  0
BLOCK_RECORD
  5
7A50
330
1
100
AcDbSymbolTableRecord
100
AcDbBlockTableRecord
  2
*D24
340
0
 70
     0
280
     1
281
     0
  0
BLOCK_RECORD
  5
7A5F
330
1
100
AcDbSymbolTableRecord
100
AcDbBlockTableRecord
  2
*D25
340
0
 70
     0
280
     1
281
     0
  0
BLOCK_RECORD
  5
7A71
330
1
100
AcDbSymbolTableRecord
100
AcDbBlockTableRecord
  2
*D26
340
0
 70
     0
280
     1
281
     0
  0
BLOCK_RECORD
  5
7A80
330
1
100
AcDbSymbolTableRecord
100
AcDbBlockTableRecord
  2
*D27
340
0
 70
     0
280
     1
281
     0
  0
BLOCK_RECORD
  5
7A8F
330
1
100
AcDbSymbolTableRecord
100
AcDbBlockTableRecord
  2
*D28
340
0
 70
     0
280
     1
281
     0
  0
BLOCK_RECORD
  5
7AAB
330
1
100
AcDbSymbolTableRecord
100
AcDbBlockTableRecord
  2
*D29
340
0
 70
     0
280
     1
281
     0
  0
BLOCK_RECORD
  5
7AB8
330
1
100
AcDbSymbolTableRecord
100
AcDbBlockTableRecord
  2
*D30
340
0
 70
     0
280
     1
281
     0
  0
BLOCK_RECORD
  5
7ACA
330
1
100
AcDbSymbolTableRecord
100
AcDbBlockTableRecord
  2
*D31
340
0
 70
     0
280
     1
281
     0
  0
BLOCK_RECORD
  5
7AD9
330
1
100
AcDbSymbolTableRecord
100
AcDbBlockTableRecord
  2
*D32
340
0
 70
     0
280
     1
281
     0
  0
BLOCK_RECORD
  5
7B23
330
1
100
AcDbSymbolTableRecord
100
AcDbBlockTableRecord
  2
*D33
340
0
 70
     0
280
     1
281
     0
  0
BLOCK_RECORD
  5
7B35
330
1
100
AcDbSymbolTableRecord
100
AcDbBlockTableRecord
  2
*D34
340
0
 70
     0
280
     1
281
     0
  0
BLOCK_RECORD
  5
7B65
330
1
100
AcDbSymbolTableRecord
100
AcDbBlockTableRecord
  2
VW_FILLEDARROW
340
0
 70
     0
280
     1
281
     0
  0
BLOCK_RECORD
  5
7C41
330
1
100
AcDbSymbolTableRecord
100
AcDbBlockTableRecord
  2
*D36
340
0
 70
     0
280
     1
281
     0
  0
BLOCK_RECORD
  5
7C4E
330
1
100
AcDbSymbolTableRecord
100
AcDbBlockTableRecord
  2
*D37
340
0
 70
     0
280
     1
281
     0
  0
BLOCK_RECORD
  5
7C82
330
1
100
AcDbSymbolTableRecord
100
AcDbBlockTableRecord
  2
*D38
340
0
 70
     0
280
     1
281
     0
  0
BLOCK_RECORD
  5
7C8E
330
1
100
AcDbSymbolTableRecord
100
AcDbBlockTableRecord
  2
*D39
340
0
 70
     0
280
     1
281
     0
  0
BLOCK_RECORD
  5
7CD9
330
1
100
AcDbSymbolTableRecord
100
AcDbBlockTableRecord
  2
*D40
340
0
 70
     0
280
     1
281
     0
  0
BLOCK_RECORD
  5
7CFC
330
1
100
AcDbSymbolTableRecord
100
AcDbBlockTableRecord
  2
*D41
340
0
 70
     0
280
     1
281
     0
  0
BLOCK_RECORD
  5
7D0B
330
1
100
AcDbSymbolTableRecord
100
AcDbBlockTableRecord
  2
*D42
340
0
 70
     0
280
     1
281
     0
  0
ENDTAB
  0
ENDSEC
  0
SECTION
  2
BLOCKS
  0
BLOCK
  5
D
330
A
100
AcDbEntity
  8
0
390
1D
100
AcDbBlockBegin
  2
*MODEL_SPACE
 70
     0
 10
0.0
 20
0.0
 30
0.0
  3
*MODEL_SPACE
  1
*MODEL_SPACE
  0
ENDBLK
  5
E
330
A
100
AcDbEntity
  8
0
390
1D
100
AcDbBlockEnd
  0
BLOCK
  5
F
330
B
100
AcDbEntity
 67
     1
  8
0
390
1D
100
AcDbBlockBegin
  2
*PAPER_SPACE
 70
     0
 10
0.0
 20
0.0
 30
0.0
  3
*PAPER_SPACE
  1
*PAPER_SPACE
  0
ENDBLK
  5
10
330
B
100
AcDbEntity
 67
     1
  8
0
390
1D
100
AcDbBlockEnd
  0
BLOCK
  5
7A9F
330
4E
100
AcDbEntity
  8
0
390
1D
100
AcDbBlockBegin
  2
_DOT
 70
     0
 10
0.0
 20
0.0
 30
0.0
  3
_DOT
  1
_DOT
  0
POLYLINE
  5
7AA1
330
4E
100
AcDbEntity
  8
0
  6
ByBlock
 62
     0
370
    -2
390
1D
100
AcDb2dPolyline
 66
     1
 10
0.0
 20
0.0
 30
0.0
 70
     1
 40
0.5
 41
0.5
  0
VERTEX
  5
7AA2
330
7AA1
100
AcDbEntity
  8
0
  6
ByBlock
 62
     0
370
    -2
390
1D
100
AcDbVertex
100
AcDb2dVertex
 10
-0.25
 20
0.0
 30
0.0
 42
1.0
  0
VERTEX
  5
7AA3
330
7AA1
100
AcDbEntity
  8
0
  6
ByBlock
 62
     0
370
    -2
390
1D
100
AcDbVertex
100
AcDb2dVertex
 10
0.25
 20
0.0
 30
0.0
 42
1.0
  0
SEQEND
  5
7AA4
330
7AA1
100
AcDbEntity
  8
0
390
1D
  0
LINE
  5
7AA5
330
4E
100
AcDbEntity
  8
0
  6
ByBlock
 62
     0
370
    -2
390
1D
100
AcDbLine
 10
-0.5
 20
0.0
 30
0.0
 11
-1.0
 21
0.0
 31
0.0
  0
ENDBLK
  5
7AA6
330
4E
100
AcDbEntity
  8
0
390
1D
100
AcDbBlockEnd
  0
BLOCK
  5
68E
330
68D
100
AcDbEntity
  8
0
100
AcDbBlockBegin
  2
block 2
 70
     0
 10
0.0
 20
0.0
 30
0.0
  3
block 2
  1
block 2
  0
ENDBLK
  5
6B0
330
68D
100
AcDbEntity
  8
0
100
AcDbBlockEnd
  0
BLOCK
  5
3E27
330
3E26
100
AcDbEntity
  8
0
100
AcDbBlockBegin
  2
*D2
 70
     1
 10
0.0
 20
0.0
 30
0.0
  3
*D2
  1

  0
LINE
  5
3E29
330
3E26
100
AcDbEntity
  8
DIM
 62
     0
370
    -2
100
AcDbLine
 10
607.9608510638315
 20
1310.861155015197
 30
0.0
 11
607.9608510638315
 21
1586.446135090576
 31
0.0
  0
LINE
  5
3E2A
330
3E26
100
AcDbEntity
  8
DIM
 62
     0
370
    -2
100
AcDbLine
 10
1064.672826747721
 20
1310.861155015197
 30
0.0
 11
1064.672826747721
 21
1586.446135090576
 31
0.0
  0
LINE
  5
3E2B
330
3E26
100
AcDbEntity
  8
DIM
 62
     0
370
    -2
100
AcDbLine
 10
615.9608510638315
 20
1586.446135090576
 30
0.0
 11
1056.672826747721
 21
1586.446135090576
 31
0.0
  0
INSERT
  5
3E2C
330
3E26
100
AcDbEntity
  8
DIM
 62
     0
370
    -2
100
AcDbBlockReference
  2
_DOT
 10
607.9608510638315
 20
1586.446135090576
 30
0.0
 41
8.0
 42
8.0
 43
8.0
 50
180.0
  0
INSERT
  5
3E2D
330
3E26
100
AcDbEntity
  8
DIM
 62
     0
370
    -2
100
AcDbBlockReference
  2
_DOT
 10
1064.672826747721
 20
1586.446135090576
 30
0.0
 41
8.0
 42
8.0
 43
8.0
  0
MTEXT
  5
3E2E
330
3E26
100
AcDbEntity
  8
DIM
 62
     0
100
AcDbMText
 10
836.316838905775
 20
1612.446135090576
 30
0.0
 40
20.0
 41
0.0
 46
0.0
 71
     5
 72
     1
  1
\A1;457
  7
ＭＳ ゴシック
 73
     1
 44
1.0
  0
POINT
  5
3E2F
330
3E26
100
AcDbEntity
  8
Defpoints
 62
     0
100
AcDbPoint
 10
607.9608510638315
 20
1305.861155015197
 30
0.0
  0
POINT
  5
3E30
330
3E26
100
AcDbEntity
  8
Defpoints
 62
     0
100
AcDbPoint
 10
1064.672826747721
 20
1305.861155015197
 30
0.0
  0
POINT
  5
3E31
330
3E26
100
AcDbEntity
  8
Defpoints
 62
     0
100
AcDbPoint
 10
1064.672826747721
 20
1586.446135090576
 30
0.0
  0
ENDBLK
  5
3E28
330
3E26
100
AcDbEntity
  8
0
100
AcDbBlockEnd
  0
BLOCK
  5
3E33
330
3E32
100
AcDbEntity
  8
0
100
AcDbBlockBegin
  2
*D3
 70
     1
 10
0.0
 20
0.0
 30
0.0
  3
*D3
  1

  0
LINE
  5
3E35
330
3E32
100
AcDbEntity
  8
DIM
 62
     0
370
    -2
100
AcDbLine
 10
684.7691933658384
 20
1300.861155015197
 30
0.0
 11
684.7691933658384
 21
959.0664924984802
 31
0.0
  0
LINE
  5
3E36
330
3E32
100
AcDbEntity
  8
DIM
 62
     0
370
    -2
100
AcDbLine
 10
987.8644844457136
 20
1300.861155015197
 30
0.0
 11
987.8644844457136
 21
959.0664924984802
 31
0.0
  0
LINE
  5
3E37
330
3E32
100
AcDbEntity
  8
DIM
 62
     0
370
    -2
100
AcDbLine
 10
692.7691933658384
 20
959.0664924984802
 30
0.0
 11
979.8644844457136
 21
959.0664924984802
 31
0.0
  0
INSERT
  5
3E38
330
3E32
100
AcDbEntity
  8
DIM
 62
     0
370
    -2
100
AcDbBlockReference
  2
_DOT
 10
684.7691933658384
 20
959.0664924984802
 30
0.0
 41
8.0
 42
8.0
 43
8.0
 50
180.0
  0
INSERT
  5
3E39
330
3E32
100
AcDbEntity
  8
DIM
 62
     0
370
    -2
100
AcDbBlockReference
  2
_DOT
 10
987.8644844457136
 20
959.0664924984802
 30
0.0
 41
8.0
 42
8.0
 43
8.0
  0
MTEXT
  5
3E3A
330
3E32
100
AcDbEntity
  8
DIM
 62
     0
100
AcDbMText
 10
836.316838905776
 20
985.0664924984802
 30
0.0
 40
20.0
 41
0.0
 46
0.0
 71
     5
 72
     1
  1
\A1;303
  7
ＭＳ ゴシック
 73
     1
 44
1.0
  0
POINT
  5
3E3B
330
3E32
100
AcDbEntity
  8
Defpoints
 62
     0
100
AcDbPoint
 10
684.7691933658384
 20
1305.861155015197
 30
0.0
  0
POINT
  5
3E3C
330
3E32
100
AcDbEntity
  8
Defpoints
 62
     0
100
AcDbPoint
 10
987.8644844457136
 20
1305.861155015197
 30
0.0
  0
POINT
  5
3E3D
330
3E32
100
AcDbEntity
  8
Defpoints
 62
     0
100
AcDbPoint
 10
987.8644844457136
 20
959.0664924984802
 30
0.0
  0
ENDBLK
  5
3E34
330
3E32
100
AcDbEntity
  8
0
100
AcDbBlockEnd
  0
BLOCK
  5
3E89
330
3E88
100
AcDbEntity
  8
0
100
AcDbBlockBegin
  2
812343s
 70
     0
 10
0.0
 20
0.0
 30
0.0
  3
812343s
  1

  0
SPLINE
  5
3E8A
330
3E88
100
AcDbEntity
  8
0
 62
     7
100
AcDbSpline
210
0.0
220
0.0
230
1.0
 70
     8
 71
     3
 72
    32
 73
    28
 74
     0
 42
0.000000001
 43
0.0000000001
 40
0.0
 40
0.0
 40
0.0
 40
0.0
 40
1.0
 40
1.0
 40
1.0
 40
2.0
 40
2.0
 40
2.0
 40
3.0
 40
3.0
 40
3.0
 40
4.0
 40
4.0
 40
4.0
 40
5.0
 40
5.0
 40
5.0
 40
6.0
 40
6.0
 40
6.0
 40
7.0
 40
7.0
 40
7.0
 40
8.0
 40
8.0
 40
8.0
 40
9.0
 40
9.0
 40
9.0
 40
9.0
 10
57.47538925429434
 20
758.0014323271663
 30
0.0
 10
57.47538925429434
 20
758.0014323271663
 30
0.0
 10
57.47538925429434
 20
767.5043837136795
 30
0.0
 10
57.47538925429434
 20
767.5043837136795
 30
0.0
 10
55.32564967149845
 20
770.2935330185377
 30
0.0
 10
52.91683890821176
 20
772.8677083651164
 30
0.0
 10
50.27100557553988
 20
775.1993489895335
 30
0.0
 10
50.27100557553988
 20
775.1993489895335
 30
0.0
 10
47.735415298396
 20
777.4427951695282
 30
0.0
 10
47.735415298396
 20
777.4427951695282
 30
0.0
 10
47.25585800684924
 20
777.8727430860874
 30
0.0
 10
46.64952120144526
 20
778.1263021138017
 30
0.0
 10
46.01011147938289
 20
778.186935794342
 30
0.0
 10
42.48233370248705
 20
778.5011285025969
 30
0.0
 10
38.97109238392042
 20
778.8208333636281
 30
0.0
 10
35.44331460702459
 20
779.2011719051997
 30
0.0
 10
29.0271687752953
 20
779.8957031550259
 30
0.0
 10
22.60551079078959
 20
780.6233073215109
 30
0.0
 10
16.18919270428603
 20
781.3674479463249
 30
0.0
 10
13.27877603834697
 20
781.7036892656852
 30
0.0
 10
11.04635416390508
 20
784.0849392650897
 30
0.0
 10
10.89201388616588
 20
787.0174045421346
 30
0.0
 10
10.89201388616588
 20
787.0174045421346
 30
0.0
 10
5.05464409595856
 20
898.1038194449185
 30
0.0
 10
5.05464409595856
 20
898.1038194449185
 30
0.0
 10
4.999522568194564
 20
899.1676649307636
 30
0.0
 10
4.128602429523406
 20
900.0
 30
0.0
 10
3.059244790901855
 20
900.0
 30
0.0
  0
POLYLINE
  5
3E8B
330
3E88
100
AcDbEntity
  8
0
 62
     7
100
AcDb2dPolyline
 66
     1
 10
0.0
 20
0.0
 30
0.0
  0
VERTEX
  5
3E8C
330
3E8B
100
AcDbEntity
  8
0
 62
     7
100
AcDbVertex
100
AcDb2dVertex
 10
119.3939181559154
 20
800.0095486361088
 30
0.0
  0
VERTEX
  5
3E8D
330
3E8B
100
AcDbEntity
  8
0
 62
     7
100
AcDbVertex
100
AcDb2dVertex
 10
117.9442219757223
 20
799.8386719000404
 30
0.0
  0
VERTEX
  5
3E8E
330
3E8B
100
AcDbEntity
  8
0
 62
     7
100
AcDbVertex
100
AcDb2dVertex
 10
117.8450032257471
 20
800.0867187749785
 30
0.0
  0
VERTEX
  5
3E8F
330
3E8B
100
AcDbEntity
  8
0
 62
     7
100
AcDbVertex
100
AcDb2dVertex
 10
116.251646563819
 20
803.267230926961
 30
0.0
  0
SEQEND
  5
3E90
330
3E8B
100
AcDbEntity
  8
0
  0
POLYLINE
  5
3E91
330
3E88
100
AcDbEntity
  8
0
 62
     7
100
AcDb2dPolyline
 66
     1
 10
0.0
 20
0.0
 30
0.0
  0
VERTEX
  5
3E92
330
3E91
100
AcDbEntity
  8
0
 62
     7
100
AcDbVertex
100
AcDb2dVertex
 10
127.6952202371734
 20
801.1119791913886
 30
0.0
  0
VERTEX
  5
3E93
330
3E91
100
AcDbEntity
  8
0
 62
     7
100
AcDbVertex
100
AcDb2dVertex
 10
128.9685275285217
 20
801.2938802330099
 30
0.0
  0
SEQEND
  5
3E94
330
3E91
100
AcDbEntity
  8
0
  0
SPLINE
  5
3E95
330
3E88
100
AcDbEntity
  8
0
 62
     7
100
AcDbSpline
210
0.0
220
0.0
230
1.0
 70
     8
 71
     3
 72
     8
 73
     4
 74
     0
 42
0.000000001
 43
0.0000000001
 40
0.0
 40
0.0
 40
0.0
 40
0.0
 40
1.0
 40
1.0
 40
1.0
 40
1.0
 10
129.5197428061617
 20
804.8492187737876
 30
0.0
 10
129.8449598199693
 20
804.8822916904461
 30
0.0
 10
130.1260796115657
 20
805.0752170376201
 30
0.0
 10
130.2859320420813
 20
805.3618489819928
 30
0.0
  0
SPLINE
  5
3E96
330
3E88
100
AcDbEntity
  8
0
 62
     7
100
AcDbSpline
210
0.0
220
0.0
230
1.0
 70
     8
 71
     3
 72
     8
 73
     4
 74
     0
 42
0.000000001
 43
0.0000000001
 40
0.0
 40
0.0
 40
0.0
 40
0.0
 40
1.0
 40
1.0
 40
1.0
 40
1.0
 10
131.2229980140692
 20
806.2382812734405
 30
0.0
 10
130.8261230141685
 20
806.0618923845957
 30
0.0
 10
130.4953938475845
 20
805.7476996763409
 30
0.0
 10
130.2859320420813
 20
805.3618489819928
 30
0.0
  0
SPLINE
  5
3E97
330
3E88
100
AcDbEntity
  8
0
 62
     7
100
AcDbSpline
210
0.0
220
0.0
230
1.0
 70
     8
 71
     3
 72
    26
 73
    22
 74
     0
 42
0.000000001
 43
0.0000000001
 40
0.0
 40
0.0
 40
0.0
 40
0.0
 40
1.0
 40
1.0
 40
1.0
 40
2.0
 40
2.0
 40
2.0
 40
3.0
 40
3.0
 40
3.0
 40
4.0
 40
4.0
 40
4.0
 40
5.0
 40
5.0
 40
5.0
 40
6.0
 40
6.0
 40
6.0
 40
7.0
 40
7.0
 40
7.0
 40
7.0
 10
129.6134494033605
 20
804.8547309265641
 30
0.0
 10
129.6134494033605
 20
804.8547309265641
 30
0.0
 10
129.6520344727953
 20
804.4909288433217
 30
0.0
 10
129.6520344727953
 20
804.4909288433217
 30
0.0
 10
129.6520344727953
 20
804.4909288433217
 30
0.0
 10
129.6520344727953
 20
804.2263455100544
 30
0.0
 10
129.6520344727953
 20
804.2263455100544
 30
0.0
 10
129.6520344727953
 20
804.2263455100544
 30
0.0
 10
129.2551594728945
 20
801.4427083579727
 30
0.0
 10
129.2551594728945
 20
801.4427083579727
 30
0.0
 10
129.2551594728945
 20
801.4427083579727
 30
0.0
 10
128.9685275285217
 20
801.2938802330099
 30
0.0
 10
128.9685275285217
 20
801.2938802330099
 30
0.0
 10
127.2983452372726
 20
802.054557316153
 30
0.0
 10
125.4407497516259
 20
802.3467014133023
 30
0.0
 10
123.6107150298612
 20
802.1317274550225
 30
0.0
 10
123.6107150298612
 20
802.1317274550225
 30
0.0
 10
123.1587185021964
 20
802.0766059272586
 30
0.0
 10
123.1587185021964
 20
802.0766059272586
 30
0.0
 10
121.3231716276553
 20
801.8561198162027
 30
0.0
 10
119.5978678086422
 20
801.1395399552707
 30
0.0
 10
118.1536837812255
 20
800.0040364833322
 30
0.0
  0
SPLINE
  5
3E98
330
3E88
100
AcDbEntity
  8
0
 62
     7
100
AcDbSpline
210
0.0
220
0.0
230
1.0
 70
     8
 71
     3
 72
    56
 73
    52
 74
     0
 42
0.000000001
 43
0.0000000001
 40
0.0
 40
0.0
 40
0.0
 40
0.0
 40
1.0
 40
1.0
 40
1.0
 40
2.0
 40
2.0
 40
2.0
 40
3.0
 40
3.0
 40
3.0
 40
4.0
 40
4.0
 40
4.0
 40
5.0
 40
5.0
 40
5.0
 40
6.0
 40
6.0
 40
6.0
 40
7.0
 40
7.0
 40
7.0
 40
8.0
 40
8.0
 40
8.0
 40
9.0
 40
9.0
 40
9.0
 40
10.0
 40
10.0
 40
10.0
 40
11.0
 40
11.0
 40
11.0
 40
12.0
 40
12.0
 40
12.0
 40
13.0
 40
13.0
 40
13.0
 40
14.0
 40
14.0
 40
14.0
 40
15.0
 40
15.0
 40
15.0
 40
16.0
 40
16.0
 40
16.0
 40
17.0
 40
17.0
 40
17.0
 40
17.0
 10
131.2229980140692
 20
806.2382812734405
 30
0.0
 10
132.5734754442872
 20
806.8391059260681
 30
0.0
 10
133.4829806523931
 20
808.1344618285219
 30
0.0
 10
133.5877115551447
 20
809.6062066198207
 30
0.0
 10
133.5877115551447
 20
809.6062066198207
 30
0.0
 10
133.8302462773063
 20
813.0402777995175
 30
0.0
 10
133.8302462773063
 20
813.0402777995175
 30
0.0
 10
133.9074164161759
 20
814.1427083547975
 30
0.0
 10
133.0695691941632
 20
815.0907986323383
 30
0.0
 10
131.9671386388832
 20
815.1734809239844
 30
0.0
 10
131.8458712778024
 20
815.1845052295373
 30
0.0
 10
131.7190917639452
 20
815.1734809239844
 30
0.0
 10
131.5978244028644
 20
815.1624566184317
 30
0.0
 10
131.5978244028644
 20
815.1624566184317
 30
0.0
 10
38.56319307846685
 20
804.1050781489738
 30
0.0
 10
38.56319307846685
 20
804.1050781489738
 30
0.0
 10
37.46627467596329
 20
803.9727864823401
 30
0.0
 10
36.68354898171454
 20
802.980598982588
 30
0.0
 10
36.81584064834813
 20
801.8836805800846
 30
0.0
 10
36.82135280112453
 20
801.8506076634261
 30
0.0
 10
36.82135280112453
 20
801.8175347467678
 30
0.0
 10
36.83788925945372
 20
801.778949677333
 30
0.0
 10
36.83788925945372
 20
801.778949677333
 30
0.0
 10
37.3560316204353
 20
798.7141927336547
 30
0.0
 10
37.3560316204353
 20
798.7141927336547
 30
0.0
 10
37.71983370367768
 20
796.6195746786229
 30
0.0
 10
39.6601114809704
 20
795.175390651206
 30
0.0
 10
41.76575384155509
 20
795.4234375261441
 30
0.0
 10
41.76575384155509
 20
795.4234375261441
 30
0.0
 10
81.17230629481111
 20
800.1087673860839
 30
0.0
 10
81.17230629481111
 20
800.1087673860839
 30
0.0
 10
81.17230629481111
 20
800.1087673860839
 30
0.0
 10
114.3611504162882
 20
804.0554687739861
 30
0.0
 10
114.3611504162882
 20
804.0554687739861
 30
0.0
 10
114.3611504162882
 20
804.0554687739861
 30
0.0
 10
114.3611504162882
 20
804.0499566212098
 30
0.0
 10
114.3611504162882
 20
804.0499566212098
 30
0.0
 10
114.9289021522574
 20
804.1161024545266
 30
0.0
 10
115.4964816334523
 20
803.9452257184581
 30
0.0
 10
115.920917397235
 20
803.5648871768866
 30
0.0
 10
115.920917397235
 20
803.5648871768866
 30
0.0
 10
116.251646563819
 20
803.267230926961
 30
0.0
 10
116.251646563819
 20
803.267230926961
 30
0.0
 10
116.251646563819
 20
803.267230926961
 30
0.0
 10
116.6984754482559
 20
803.3223524547249
 30
0.0
 10
116.6984754482559
 20
803.3223524547249
 30
0.0
 10
116.6984754482559
 20
803.3223524547249
 30
0.0
 10
116.6929632954795
 20
803.3223524547249
 30
0.0
 10
116.6929632954795
 20
803.3223524547249
 30
0.0
 10
116.6929632954795
 20
803.3223524547249
 30
0.0
 10
129.6134494033605
 20
804.8547309265641
 30
0.0
 10
129.6134494033605
 20
804.8547309265641
 30
0.0
  0
SPLINE
  5
3E99
330
3E88
100
AcDbEntity
  8
0
 62
     7
100
AcDbSpline
210
0.0
220
0.0
230
1.0
 70
     8
 71
     3
 72
     8
 73
     4
 74
     0
 42
0.000000001
 43
0.0000000001
 40
0.0
 40
0.0
 40
0.0
 40
0.0
 40
1.0
 40
1.0
 40
1.0
 40
1.0
 10
42.82959932740023
 20
790.5617187773596
 30
0.0
 10
42.59257675801504
 20
790.0490885691545
 30
0.0
 10
42.23979898032546
 20
789.6081163470425
 30
0.0
 10
41.78229029988429
 20
789.2828993332349
 30
0.0
  0
SPLINE
  5
3E9A
330
3E88
100
AcDbEntity
  8
0
 62
     7
100
AcDbSpline
210
0.0
220
0.0
230
1.0
 70
     8
 71
     3
 72
     8
 73
     4
 74
     0
 42
0.000000001
 43
0.0000000001
 40
0.0
 40
0.0
 40
0.0
 40
0.0
 40
1.0
 40
1.0
 40
1.0
 40
1.0
 10
52.95542397764656
 20
790.6113281523471
 30
0.0
 10
52.43728161666499
 20
790.8207899578504
 30
0.0
 10
51.97977293622381
 20
791.1625434299872
 30
0.0
 10
51.63250731131062
 20
791.6200521104283
 30
0.0
  0
SPLINE
  5
3E9B
330
3E88
100
AcDbEntity
  8
0
 62
     7
100
AcDbSpline
210
0.0
220
0.0
230
1.0
 70
     8
 71
     3
 72
     8
 73
     4
 74
     0
 42
0.000000001
 43
0.0000000001
 40
0.0
 40
0.0
 40
0.0
 40
0.0
 40
1.0
 40
1.0
 40
1.0
 40
1.0
 10
43.07764620233824
 20
791.0523003744592
 30
0.0
 10
42.97842745236303
 20
790.8924479439435
 30
0.0
 10
42.90125731349343
 20
790.7381076662044
 30
0.0
 10
42.82959932740023
 20
790.5617187773596
 30
0.0
  0
SPLINE
  5
3E9C
330
3E88
100
AcDbEntity
  8
0
 62
     7
100
AcDbSpline
210
0.0
220
0.0
230
1.0
 70
     8
 71
     3
 72
     8
 73
     4
 74
     0
 42
0.000000001
 43
0.0000000001
 40
0.0
 40
0.0
 40
0.0
 40
0.0
 40
1.0
 40
1.0
 40
1.0
 40
1.0
 10
51.63250731131062
 20
791.6200521104283
 30
0.0
 10
51.52226425578263
 20
791.7633680826146
 30
0.0
 10
51.40099689470184
 20
791.9011719020248
 30
0.0
 10
51.27972953362105
 20
792.0224392631055
 30
0.0
  0
POLYLINE
  5
3E9D
330
3E88
100
AcDbEntity
  8
0
 62
     7
100
AcDb2dPolyline
 66
     1
 10
0.0
 20
0.0
 30
0.0
  0
VERTEX
  5
3E9E
330
3E9D
100
AcDbEntity
  8
0
 62
     7
100
AcDbVertex
100
AcDb2dVertex
 10
47.18420002075602
 20
791.5428819715587
 30
0.0
  0
VERTEX
  5
3E9F
330
3E9D
100
AcDbEntity
  8
0
 62
     7
100
AcDbVertex
100
AcDb2dVertex
 10
41.99726425816388
 20
790.9089844022727
 30
0.0
  0
VERTEX
  5
3EA0
330
3E9D
100
AcDbEntity
  8
0
 62
     7
100
AcDbVertex
100
AcDb2dVertex
 10
41.4680975916295
 20
791.0137153050243
 30
0.0
  0
VERTEX
  5
3EA1
330
3E9D
100
AcDbEntity
  8
0
 62
     7
100
AcDbVertex
100
AcDb2dVertex
 10
39.94123127256677
 20
794.6241753735662
 30
0.0
  0
SEQEND
  5
3EA2
330
3E9D
100
AcDbEntity
  8
0
  0
POLYLINE
  5
3EA3
330
3E88
100
AcDbEntity
  8
0
 62
     7
100
AcDb2dPolyline
 66
     1
 10
0.0
 20
0.0
 30
0.0
  0
VERTEX
  5
3EA4
330
3EA3
100
AcDbEntity
  8
0
 62
     7
100
AcDbVertex
100
AcDb2dVertex
 10
47.18420002075602
 20
791.5428819715587
 30
0.0
  0
VERTEX
  5
3EA5
330
3EA3
100
AcDbEntity
  8
0
 62
     7
100
AcDbVertex
100
AcDb2dVertex
 10
52.67981633882657
 20
792.1988281519502
 30
0.0
  0
VERTEX
  5
3EA6
330
3EA3
100
AcDbEntity
  8
0
 62
     7
100
AcDbVertex
100
AcDb2dVertex
 10
52.86171738044776
 20
792.3641927352423
 30
0.0
  0
VERTEX
  5
3EA7
330
3EA3
100
AcDbEntity
  8
0
 62
     7
100
AcDbVertex
100
AcDb2dVertex
 10
53.19795869980815
 20
795.7707031510574
 30
0.0
  0
SEQEND
  5
3EA8
330
3EA3
100
AcDbEntity
  8
0
  0
SPLINE
  5
3EA9
330
3E88
100
AcDbEntity
  8
0
 62
     7
100
AcDbSpline
210
0.0
220
0.0
230
1.0
 70
     8
 71
     3
 72
    23
 73
    19
 74
     0
 42
0.000000001
 43
0.0000000001
 40
0.0
 40
0.0
 40
0.0
 40
0.0
 40
1.0
 40
1.0
 40
1.0
 40
2.0
 40
2.0
 40
2.0
 40
3.0
 40
3.0
 40
3.0
 40
4.0
 40
4.0
 40
4.0
 40
5.0
 40
5.0
 40
5.0
 40
6.0
 40
6.0
 40
6.0
 40
6.0
 10
38.98762884224963
 20
796.1400173870761
 30
0.0
 10
39.3293823143864
 20
795.8533854427034
 30
0.0
 10
39.57742918932439
 20
795.4785590539082
 30
0.0
 10
39.70420870318159
 20
795.0430989845726
 30
0.0
 10
39.81996391148598
 20
794.5580295402494
 30
0.0
 10
40.27747259192716
 20
794.2383246792183
 30
0.0
 10
40.78459064735593
 20
794.2989583597586
 30
0.0
 10
40.78459064735593
 20
794.2989583597586
 30
0.0
 10
46.77078856252605
 20
795.0100260679142
 30
0.0
 10
46.77078856252605
 20
795.0100260679142
 30
0.0
 10
46.77078856252605
 20
795.0100260679142
 30
0.0
 10
53.19795869980815
 20
795.7707031510574
 30
0.0
 10
53.19795869980815
 20
795.7707031510574
 30
0.0
 10
53.49561494973374
 20
795.8148003732686
 30
0.0
 10
53.74366182467174
 20
795.958116345455
 30
0.0
 10
53.92556286629291
 20
796.19513891484
 30
0.0
 10
54.25629203287691
 20
796.6526475952812
 30
0.0
 10
54.73584932442367
 20
796.9447916924305
 30
0.0
 10
55.29257675484005
 20
797.0329861368529
 30
0.0
  0
SPLINE
  5
3EAA
330
3E88
100
AcDbEntity
  8
0
 62
     7
100
AcDbSpline
210
0.0
220
0.0
230
1.0
 70
     8
 71
     3
 72
    17
 73
    13
 74
     0
 42
0.000000001
 43
0.0000000001
 40
0.0
 40
0.0
 40
0.0
 40
0.0
 40
1.0
 40
1.0
 40
1.0
 40
2.0
 40
2.0
 40
2.0
 40
3.0
 40
3.0
 40
3.0
 40
4.0
 40
4.0
 40
4.0
 40
4.0
 10
36.83788925945372
 20
802.3136284966438
 30
0.0
 10
36.83788925945372
 20
802.3136284966438
 30
0.0
 10
35.93940835690057
 20
787.2985243337309
 30
0.0
 10
35.93940835690057
 20
787.2985243337309
 30
0.0
 10
35.92287189857136
 20
786.3835069728486
 30
0.0
 10
35.79058023193777
 20
785.4629774591898
 30
0.0
 10
35.49843613478858
 20
784.5920573205187
 30
0.0
 10
35.31102294039099
 20
784.0022569734438
 30
0.0
 10
35.05195175990022
 20
783.4455295430275
 30
0.0
 10
34.69366182943422
 20
782.9384114875988
 30
0.0
 10
33.79518092688106
 20
781.6540798906976
 30
0.0
 10
32.40611842722834
 20
780.7611111409209
 30
0.0
 10
30.87373995538921
 20
780.4414062798896
 30
0.0
  0
SPLINE
  5
3EAB
330
3E88
100
AcDbEntity
  8
0
 62
     7
100
AcDbSpline
210
0.0
220
0.0
230
1.0
 70
    11
 71
     3
 72
    35
 73
    31
 74
     0
 42
0.000000001
 43
0.0000000001
 40
0.0
 40
0.0
 40
0.0
 40
0.0
 40
1.0
 40
1.0
 40
1.0
 40
2.0
 40
2.0
 40
2.0
 40
3.0
 40
3.0
 40
3.0
 40
4.0
 40
4.0
 40
4.0
 40
5.0
 40
5.0
 40
5.0
 40
6.0
 40
6.0
 40
6.0
 40
7.0
 40
7.0
 40
7.0
 40
8.0
 40
8.0
 40
8.0
 40
9.0
 40
9.0
 40
9.0
 40
10.0
 40
10.0
 40
10.0
 40
10.0
 10
364.9999429426042
 20
897.9605034727322
 30
0.0
 10
364.9999429426042
 20
897.9605034727322
 30
0.0
 10
362.7950818320443
 20
771.9967882264452
 30
0.0
 10
362.7950818320443
 20
771.9967882264452
 30
0.0
 10
362.7950818320443
 20
771.9967882264452
 30
0.0
 10
357.7679984999677
 20
769.9958767686121
 30
0.0
 10
357.7679984999677
 20
769.9958767686121
 30
0.0
 10
357.7679984999677
 20
769.9958767686121
 30
0.0
 10
7.237456595412858
 20
769.9958767686121
 30
0.0
 10
7.237456595412858
 20
769.9958767686121
 30
0.0
 10
7.237456595412858
 20
769.9958767686121
 30
0.0
 10
2.204861110559894
 20
771.9967882264452
 30
0.0
 10
2.204861110559894
 20
771.9967882264452
 30
0.0
 10
2.204861110559894
 20
771.9967882264452
 30
0.0
 10
0.0000000000000036
 20
897.9605034727322
 30
0.0
 10
0.0000000000000036
 20
897.9605034727322
 30
0.0
 10
0.0000000000000036
 20
897.9770399310615
 30
0.0
 10
0.0000000000000036
 20
897.988064236614
 30
0.0
 10
0.0000000000000036
 20
897.9935763893905
 30
0.0
 10
0.0000000000000036
 20
899.1070312502231
 30
0.0
 10
0.8984809025531586
 20
900.0
 30
0.0
 10
2.000911457833103
 20
900.0
 30
0.0
 10
2.000911457833103
 20
900.0
 30
0.0
 10
363.0045436375476
 20
900.0
 30
0.0
 10
363.0045436375476
 20
900.0
 30
0.0
 10
363.0100557903239
 20
900.0
 30
0.0
 10
363.0265922486531
 20
900.0
 30
0.0
 10
363.0321044014295
 20
899.9944878472236
 30
0.0
 10
364.1400471094858
 20
899.9779513888946
 30
0.0
 10
365.0164794009334
 20
899.062934028012
 30
0.0
 10
364.9999429426042
 20
897.9605034727322
 30
0.0
  0
SPLINE
  5
3EAC
330
3E88
100
AcDbEntity
  8
0
 62
     7
100
AcDbSpline
210
0.0
220
0.0
230
1.0
 70
     8
 71
     3
 72
    26
 73
    22
 74
     0
 42
0.000000001
 43
0.0000000001
 40
0.0
 40
0.0
 40
0.0
 40
0.0
 40
1.0
 40
1.0
 40
1.0
 40
2.0
 40
2.0
 40
2.0
 40
3.0
 40
3.0
 40
3.0
 40
4.0
 40
4.0
 40
4.0
 40
5.0
 40
5.0
 40
5.0
 40
6.0
 40
6.0
 40
6.0
 40
7.0
 40
7.0
 40
7.0
 40
7.0
 10
119.085237600437
 20
770.0013889213885
 30
0.0
 10
118.4954372533622
 20
769.1855903104813
 30
0.0
 10
118.0654893368031
 20
768.2650607968227
 30
0.0
 10
117.8229546146415
 20
767.2728732970706
 30
0.0
 10
117.8229546146415
 20
767.2728732970706
 30
0.0
 10
115.8713080222474
 20
759.5172743406763
 30
0.0
 10
115.8713080222474
 20
759.5172743406763
 30
0.0
 10
115.6508219111915
 20
758.6187934381229
 30
0.0
 10
114.8517320133877
 20
758.0014323271663
 30
0.0
 10
113.931202499729
 20
758.0014323271663
 30
0.0
 10
113.931202499729
 20
758.0014323271663
 30
0.0
 10
47.03537189579324
 20
758.0014323271663
 30
0.0
 10
47.03537189579324
 20
758.0014323271663
 30
0.0
 10
46.12035453491087
 20
758.0014323271663
 30
0.0
 10
45.31558022955652
 20
758.6187934381229
 30
0.0
 10
45.08406981294774
 20
759.5172743406763
 30
0.0
 10
45.08406981294774
 20
759.5172743406763
 30
0.0
 10
43.96510279933858
 20
764.0151910062185
 30
0.0
 10
43.96510279933858
 20
764.0151910062185
 30
0.0
 10
43.13827988287862
 20
767.3445312831637
 30
0.0
 10
40.28849689747995
 20
769.7698785047799
 30
0.0
 10
36.87096217611213
 20
770.0565104491525
 30
0.0
  0
SPLINE
  5
3EAD
330
3E88
100
AcDbEntity
  8
0
 62
     7
100
AcDbSpline
210
0.0
220
0.0
230
1.0
 70
     8
 71
     3
 72
    80
 73
    76
 74
     0
 42
0.000000001
 43
0.0000000001
 40
0.0
 40
0.0
 40
0.0
 40
0.0
 40
1.0
 40
1.0
 40
1.0
 40
2.0
 40
2.0
 40
2.0
 40
3.0
 40
3.0
 40
3.0
 40
4.0
 40
4.0
 40
4.0
 40
5.0
 40
5.0
 40
5.0
 40
6.0
 40
6.0
 40
6.0
 40
7.0
 40
7.0
 40
7.0
 40
8.0
 40
8.0
 40
8.0
 40
9.0
 40
9.0
 40
9.0
 40
10.0
 40
10.0
 40
10.0
 40
11.0
 40
11.0
 40
11.0
 40
12.0
 40
12.0
 40
12.0
 40
13.0
 40
13.0
 40
13.0
 40
14.0
 40
14.0
 40
14.0
 40
15.0
 40
15.0
 40
15.0
 40
16.0
 40
16.0
 40
16.0
 40
17.0
 40
17.0
 40
17.0
 40
18.0
 40
18.0
 40
18.0
 40
19.0
 40
19.0
 40
19.0
 40
20.0
 40
20.0
 40
20.0
 40
21.0
 40
21.0
 40
21.0
 40
22.0
 40
22.0
 40
22.0
 40
23.0
 40
23.0
 40
23.0
 40
24.0
 40
24.0
 40
24.0
 40
25.0
 40
25.0
 40
25.0
 40
25.0
 10
361.8580158600564
 20
900.0
 30
0.0
 10
360.7996825269875
 20
900.0
 30
0.0
 10
359.92325023554
 20
899.1676649307636
 30
0.0
 10
359.8626165549996
 20
898.098307292142
 30
0.0
 10
359.8626165549996
 20
898.098307292142
 30
0.0
 10
357.040394333483
 20
847.0833333465625
 30
0.0
 10
357.040394333483
 20
847.0833333465625
 30
0.0
 10
356.9191269724023
 20
844.8839843887791
 30
0.0
 10
355.5962103060662
 20
842.9216580003807
 30
0.0
 10
353.6114907970138
 20
841.9790798756164
 30
0.0
 10
353.0051539916098
 20
841.69796008402
 30
0.0
 10
352.3712564223239
 20
841.5105468896224
 30
0.0
 10
351.7097980891559
 20
841.4333767507528
 30
0.0
 10
351.2302407976091
 20
841.3782552229887
 30
0.0
 10
350.7341470477331
 20
841.3231336952247
 30
0.0
 10
350.2490776034099
 20
841.2680121674608
 30
0.0
 10
318.245518583633
 20
837.6355034878134
 30
0.0
 10
261.3321966577572
 20
830.9327257117113
 30
0.0
 10
229.3451740963095
 20
827.1513889071011
 30
0.0
 10
199.2653563954962
 20
823.5905382135468
 30
0.0
 10
167.6032063383074
 20
819.6328125200916
 30
0.0
 10
137.5454372485997
 20
815.8790364793635
 30
0.0
 10
136.6304198877174
 20
815.7632812710591
 30
0.0
 10
135.9138400267854
 20
815.0467014101273
 30
0.0
 10
135.8035969712574
 20
814.1371962020212
 30
0.0
 10
135.8035969712574
 20
814.1371962020212
 30
0.0
 10
134.5688747493439
 20
804.066493079539
 30
0.0
 10
134.5688747493439
 20
804.066493079539
 30
0.0
 10
134.3814615549463
 20
802.5175781493706
 30
0.0
 10
133.3121039163247
 20
801.2222222469165
 30
0.0
 10
131.8238226666968
 20
800.7481771081463
 30
0.0
 10
131.8238226666968
 20
800.7481771081463
 30
0.0
 10
131.2285101668456
 20
800.5607639137487
 30
0.0
 10
131.2285101668456
 20
800.5607639137487
 30
0.0
 10
130.8040744030629
 20
800.4229600943387
 30
0.0
 10
130.3631021809509
 20
800.3568142610218
 30
0.0
 10
129.9055935005097
 20
800.3678385665747
 30
0.0
 10
129.0016004451801
 20
800.3953993304566
 30
0.0
 10
128.130680306509
 20
800.7261284970407
 30
0.0
 10
127.441661209459
 20
801.3049045385626
 30
0.0
 10
126.5927896818935
 20
802.0214843994947
 30
0.0
 10
125.4848469738371
 20
802.3467014133023
 30
0.0
 10
124.39344072411
 20
802.2199218994451
 30
0.0
 10
124.39344072411
 20
802.2199218994451
 30
0.0
 10
122.3980414190533
 20
801.9828993300599
 30
0.0
 10
122.3980414190533
 20
801.9828993300599
 30
0.0
 10
120.3861056556674
 20
801.7403646078983
 30
0.0
 10
118.8702636421574
 20
800.0371093999908
 30
0.0
 10
118.8702636421574
 20
798.0141493310521
 30
0.0
 10
118.8702636421574
 20
798.0141493310521
 30
0.0
 10
118.8702636421574
 20
795.6053385677653
 30
0.0
 10
118.8702636421574
 20
795.6053385677653
 30
0.0
 10
118.8702636421574
 20
795.6053385677653
 30
0.0
 10
118.6222167672194
 20
793.9406684292926
 30
0.0
 10
118.6222167672194
 20
793.9406684292926
 30
0.0
 10
118.6222167672194
 20
793.9406684292926
 30
0.0
 10
117.6300292674675
 20
782.6187066265675
 30
0.0
 10
117.6300292674675
 20
782.6187066265675
 30
0.0
 10
117.6300292674675
 20
782.6187066265675
 30
0.0
 10
117.6300292674675
 20
782.6187066265675
 30
0.0
 10
117.6300292674675
 20
782.6187066265675
 30
0.0
 10
117.4646646841755
 20
780.77764759925
 30
0.0
 10
116.3012559388066
 20
779.1791232940941
 30
0.0
 10
114.6036851384498
 20
778.4570312803856
 30
0.0
 10
114.6036851384498
 20
778.4570312803856
 30
0.0
 10
113.7989108330954
 20
777.9388889194042
 30
0.0
 10
113.7989108330954
 20
777.9388889194042
 30
0.0
 10
113.7989108330954
 20
777.9388889194042
 30
0.0
 10
110.690056667206
 20
775.1993489895335
 30
0.0
 10
110.690056667206
 20
775.1993489895335
 30
0.0
 10
108.044223334534
 20
772.8677083651164
 30
0.0
 10
105.6354125712474
 20
770.2880208657614
 30
0.0
 10
103.4856729884515
 20
767.4933594081267
 30
0.0
 10
103.4856729884515
 20
767.4933594081267
 30
0.0
 10
103.4856729884515
 20
758.0014323271663
 30
0.0
 10
103.4856729884515
 20
758.0014323271663
 30
0.0
  0
POLYLINE
  5
3EAE
330
3E88
100
AcDbEntity
  8
0
 62
     7
100
AcDb2dPolyline
 66
     1
 10
0.0
 20
0.0
 30
0.0
  0
VERTEX
  5
3EAF
330
3EAE
100
AcDbEntity
  8
0
 62
     7
100
AcDbVertex
100
AcDb2dVertex
 10
80.48328719776111
 20
748.0023871907771
 30
0.0
  0
VERTEX
  5
3EB0
330
3EAE
100
AcDbEntity
  8
0
 62
     7
100
AcDbVertex
100
AcDb2dVertex
 10
80.48328719776111
 20
819.1642795340978
 30
0.0
  0
SEQEND
  5
3EB1
330
3EAE
100
AcDbEntity
  8
0
  0
POLYLINE
  5
3EB2
330
3E88
100
AcDbEntity
  8
0
 62
     7
100
AcDb2dPolyline
 66
     1
 10
0.0
 20
0.0
 30
0.0
  0
VERTEX
  5
3EB3
330
3EB2
100
AcDbEntity
  8
0
 62
     7
100
AcDbVertex
100
AcDb2dVertex
 10
12.49053819132181
 20
768.9981771160838
 30
0.0
  0
VERTEX
  5
3EB4
330
3EB2
100
AcDbEntity
  8
0
 62
     7
100
AcDbVertex
100
AcDb2dVertex
 10
12.49053819132181
 20
883.9982204901117
 30
0.0
  0
SEQEND
  5
3EB5
330
3EB2
100
AcDbEntity
  8
0
  0
POLYLINE
  5
3EB6
330
3E88
100
AcDbEntity
  8
0
 62
     7
100
AcDb2dPolyline
 66
     1
 10
0.0
 20
0.0
 30
0.0
  0
VERTEX
  5
3EB7
330
3EB6
100
AcDbEntity
  8
0
 62
     7
100
AcDbVertex
100
AcDb2dVertex
 10
32.49431287165072
 20
768.9981771160838
 30
0.0
  0
VERTEX
  5
3EB8
330
3EB6
100
AcDbEntity
  8
0
 62
     7
100
AcDbVertex
100
AcDb2dVertex
 10
32.49431287165072
 20
883.9982204901117
 30
0.0
  0
SEQEND
  5
3EB9
330
3EB6
100
AcDbEntity
  8
0
  0
POLYLINE
  5
3EBA
330
3E88
100
AcDbEntity
  8
0
 62
     7
100
AcDb2dPolyline
 66
     1
 10
0.0
 20
0.0
 30
0.0
  0
VERTEX
  5
3EBB
330
3EBA
100
AcDbEntity
  8
0
 62
     7
100
AcDbVertex
100
AcDb2dVertex
 10
52.49791529720538
 20
768.9981771160838
 30
0.0
  0
VERTEX
  5
3EBC
330
3EBA
100
AcDbEntity
  8
0
 62
     7
100
AcDbVertex
100
AcDb2dVertex
 10
52.49791529720538
 20
883.9982204901117
 30
0.0
  0
SEQEND
  5
3EBD
330
3EBA
100
AcDbEntity
  8
0
  0
POLYLINE
  5
3EBE
330
3E88
100
AcDbEntity
  8
0
 62
     7
100
AcDb2dPolyline
 66
     1
 10
0.0
 20
0.0
 30
0.0
  0
VERTEX
  5
3EBF
330
3EBE
100
AcDbEntity
  8
0
 62
     7
100
AcDbVertex
100
AcDb2dVertex
 10
72.50168997753431
 20
768.9981771160838
 30
0.0
  0
VERTEX
  5
3EC0
330
3EBE
100
AcDbEntity
  8
0
 62
     7
100
AcDbVertex
100
AcDb2dVertex
 10
72.50168997753431
 20
883.9982204901117
 30
0.0
  0
SEQEND
  5
3EC1
330
3EBE
100
AcDbEntity
  8
0
  0
POLYLINE
  5
3EC2
330
3E88
100
AcDbEntity
  8
0
 62
     7
100
AcDb2dPolyline
 66
     1
 10
0.0
 20
0.0
 30
0.0
  0
VERTEX
  5
3EC3
330
3EC2
100
AcDbEntity
  8
0
 62
     7
100
AcDbVertex
100
AcDb2dVertex
 10
92.49978025031255
 20
768.9981771160838
 30
0.0
  0
VERTEX
  5
3EC4
330
3EC2
100
AcDbEntity
  8
0
 62
     7
100
AcDbVertex
100
AcDb2dVertex
 10
92.49978025031255
 20
883.9982204901117
 30
0.0
  0
SEQEND
  5
3EC5
330
3EC2
100
AcDbEntity
  8
0
  0
POLYLINE
  5
3EC6
330
3E88
100
AcDbEntity
  8
0
 62
     7
100
AcDb2dPolyline
 66
     1
 10
0.0
 20
0.0
 30
0.0
  0
VERTEX
  5
3EC7
330
3EC6
100
AcDbEntity
  8
0
 62
     7
100
AcDbVertex
100
AcDb2dVertex
 10
112.5035549306415
 20
768.9981771160838
 30
0.0
  0
VERTEX
  5
3EC8
330
3EC6
100
AcDbEntity
  8
0
 62
     7
100
AcDbVertex
100
AcDb2dVertex
 10
112.5035549306415
 20
883.9982204901117
 30
0.0
  0
SEQEND
  5
3EC9
330
3EC6
100
AcDbEntity
  8
0
  0
POLYLINE
  5
3ECA
330
3E88
100
AcDbEntity
  8
0
 62
     7
100
AcDb2dPolyline
 66
     1
 10
0.0
 20
0.0
 30
0.0
  0
VERTEX
  5
3ECB
330
3ECA
100
AcDbEntity
  8
0
 62
     7
100
AcDbVertex
100
AcDb2dVertex
 10
132.5073296109704
 20
768.9981771160838
 30
0.0
  0
VERTEX
  5
3ECC
330
3ECA
100
AcDbEntity
  8
0
 62
     7
100
AcDbVertex
100
AcDb2dVertex
 10
132.5073296109704
 20
883.9982204901117
 30
0.0
  0
SEQEND
  5
3ECD
330
3ECA
100
AcDbEntity
  8
0
  0
POLYLINE
  5
3ECE
330
3E88
100
AcDbEntity
  8
0
 62
     7
100
AcDb2dPolyline
 66
     1
 10
0.0
 20
0.0
 30
0.0
  0
VERTEX
  5
3ECF
330
3ECE
100
AcDbEntity
  8
0
 62
     7
100
AcDbVertex
100
AcDb2dVertex
 10
152.5054198837485
 20
768.9981771160838
 30
0.0
  0
VERTEX
  5
3ED0
330
3ECE
100
AcDbEntity
  8
0
 62
     7
100
AcDbVertex
100
AcDb2dVertex
 10
152.5054198837485
 20
883.9982204901117
 30
0.0
  0
SEQEND
  5
3ED1
330
3ECE
100
AcDbEntity
  8
0
  0
POLYLINE
  5
3ED2
330
3E88
100
AcDbEntity
  8
0
 62
     7
100
AcDb2dPolyline
 66
     1
 10
0.0
 20
0.0
 30
0.0
  0
VERTEX
  5
3ED3
330
3ED2
100
AcDbEntity
  8
0
 62
     7
100
AcDbVertex
100
AcDb2dVertex
 10
172.5090223093033
 20
768.9981771160838
 30
0.0
  0
VERTEX
  5
3ED4
330
3ED2
100
AcDbEntity
  8
0
 62
     7
100
AcDbVertex
100
AcDb2dVertex
 10
172.5090223093033
 20
883.9982204901117
 30
0.0
  0
SEQEND
  5
3ED5
330
3ED2
100
AcDbEntity
  8
0
  0
POLYLINE
  5
3ED6
330
3E88
100
AcDbEntity
  8
0
 62
     7
100
AcDb2dPolyline
 66
     1
 10
0.0
 20
0.0
 30
0.0
  0
VERTEX
  5
3ED7
330
3ED6
100
AcDbEntity
  8
0
 62
     7
100
AcDbVertex
100
AcDb2dVertex
 10
192.512624734858
 20
768.9981771160838
 30
0.0
  0
VERTEX
  5
3ED8
330
3ED6
100
AcDbEntity
  8
0
 62
     7
100
AcDbVertex
100
AcDb2dVertex
 10
192.512624734858
 20
883.9982204901117
 30
0.0
  0
SEQEND
  5
3ED9
330
3ED6
100
AcDbEntity
  8
0
  0
POLYLINE
  5
3EDA
330
3E88
100
AcDbEntity
  8
0
 62
     7
100
AcDb2dPolyline
 66
     1
 10
0.0
 20
0.0
 30
0.0
  0
VERTEX
  5
3EDB
330
3EDA
100
AcDbEntity
  8
0
 62
     7
100
AcDbVertex
100
AcDb2dVertex
 10
212.5165716699611
 20
768.9981771160838
 30
0.0
  0
VERTEX
  5
3EDC
330
3EDA
100
AcDbEntity
  8
0
 62
     7
100
AcDbVertex
100
AcDb2dVertex
 10
212.5165716699611
 20
883.9982204901117
 30
0.0
  0
SEQEND
  5
3EDD
330
3EDA
100
AcDbEntity
  8
0
  0
POLYLINE
  5
3EDE
330
3E88
100
AcDbEntity
  8
0
 62
     7
100
AcDb2dPolyline
 66
     1
 10
0.0
 20
0.0
 30
0.0
  0
VERTEX
  5
3EDF
330
3EDE
100
AcDbEntity
  8
0
 62
     7
100
AcDbVertex
100
AcDb2dVertex
 10
232.5587591649506
 20
768.9981771160838
 30
0.0
  0
VERTEX
  5
3EE0
330
3EDE
100
AcDbEntity
  8
0
 62
     7
100
AcDbVertex
100
AcDb2dVertex
 10
232.5587591649506
 20
883.9982204901117
 30
0.0
  0
SEQEND
  5
3EE1
330
3EDE
100
AcDbEntity
  8
0
  0
POLYLINE
  5
3EE2
330
3E88
100
AcDbEntity
  8
0
 62
     7
100
AcDb2dPolyline
 66
     1
 10
0.0
 20
0.0
 30
0.0
  0
VERTEX
  5
3EE3
330
3EE2
100
AcDbEntity
  8
0
 62
     7
100
AcDbVertex
100
AcDb2dVertex
 10
252.518264368294
 20
768.9981771160838
 30
0.0
  0
VERTEX
  5
3EE4
330
3EE2
100
AcDbEntity
  8
0
 62
     7
100
AcDbVertex
100
AcDb2dVertex
 10
252.518264368294
 20
883.9982204901117
 30
0.0
  0
SEQEND
  5
3EE5
330
3EE2
100
AcDbEntity
  8
0
  0
POLYLINE
  5
3EE6
330
3E88
100
AcDbEntity
  8
0
 62
     7
100
AcDb2dPolyline
 66
     1
 10
0.0
 20
0.0
 30
0.0
  0
VERTEX
  5
3EE7
330
3EE6
100
AcDbEntity
  8
0
 62
     7
100
AcDbVertex
100
AcDb2dVertex
 10
272.5222113033972
 20
768.9981771160838
 30
0.0
  0
VERTEX
  5
3EE8
330
3EE6
100
AcDbEntity
  8
0
 62
     7
100
AcDbVertex
100
AcDb2dVertex
 10
272.5222113033972
 20
883.9982204901117
 30
0.0
  0
SEQEND
  5
3EE9
330
3EE6
100
AcDbEntity
  8
0
  0
POLYLINE
  5
3EEA
330
3E88
100
AcDbEntity
  8
0
 62
     7
100
AcDb2dPolyline
 66
     1
 10
0.0
 20
0.0
 30
0.0
  0
VERTEX
  5
3EEB
330
3EEA
100
AcDbEntity
  8
0
 62
     7
100
AcDbVertex
100
AcDb2dVertex
 10
292.5258137289519
 20
768.9981771160838
 30
0.0
  0
VERTEX
  5
3EEC
330
3EEA
100
AcDbEntity
  8
0
 62
     7
100
AcDbVertex
100
AcDb2dVertex
 10
292.5258137289519
 20
883.9982204901117
 30
0.0
  0
SEQEND
  5
3EED
330
3EEA
100
AcDbEntity
  8
0
  0
POLYLINE
  5
3EEE
330
3E88
100
AcDbEntity
  8
0
 62
     7
100
AcDb2dPolyline
 66
     1
 10
0.0
 20
0.0
 30
0.0
  0
VERTEX
  5
3EEF
330
3EEE
100
AcDbEntity
  8
0
 62
     7
100
AcDbVertex
100
AcDb2dVertex
 10
312.5239040017302
 20
768.9981771160838
 30
0.0
  0
VERTEX
  5
3EF0
330
3EEE
100
AcDbEntity
  8
0
 62
     7
100
AcDbVertex
100
AcDb2dVertex
 10
312.5239040017302
 20
883.9982204901117
 30
0.0
  0
SEQEND
  5
3EF1
330
3EEE
100
AcDbEntity
  8
0
  0
POLYLINE
  5
3EF2
330
3E88
100
AcDbEntity
  8
0
 62
     7
100
AcDb2dPolyline
 66
     1
 10
0.0
 20
0.0
 30
0.0
  0
VERTEX
  5
3EF3
330
3EF2
100
AcDbEntity
  8
0
 62
     7
100
AcDbVertex
100
AcDb2dVertex
 10
332.5219942745084
 20
768.9981771160838
 30
0.0
  0
VERTEX
  5
3EF4
330
3EF2
100
AcDbEntity
  8
0
 62
     7
100
AcDbVertex
100
AcDb2dVertex
 10
332.5219942745084
 20
883.9982204901117
 30
0.0
  0
SEQEND
  5
3EF5
330
3EF2
100
AcDbEntity
  8
0
  0
POLYLINE
  5
3EF6
330
3E88
100
AcDbEntity
  8
0
 62
     7
100
AcDb2dPolyline
 66
     1
 10
0.0
 20
0.0
 30
0.0
  0
VERTEX
  5
3EF7
330
3EF6
100
AcDbEntity
  8
0
 62
     7
100
AcDbVertex
100
AcDb2dVertex
 10
352.5200845472867
 20
768.9981771160838
 30
0.0
  0
VERTEX
  5
3EF8
330
3EF6
100
AcDbEntity
  8
0
 62
     7
100
AcDbVertex
100
AcDb2dVertex
 10
352.5200845472867
 20
883.9982204901117
 30
0.0
  0
SEQEND
  5
3EF9
330
3EF6
100
AcDbEntity
  8
0
  0
ENDBLK
  5
3EFA
330
3E88
100
AcDbEntity
  8
0
100
AcDbBlockEnd
  0
BLOCK
  5
3EFD
330
3EFC
100
AcDbEntity
  8
0
100
AcDbBlockBegin
  2
812343d
 70
     0
 10
0.0
 20
0.0
 30
0.0
  3
812343d
  1

  0
SPLINE
  5
3EFE
330
3EFC
100
AcDbEntity
  8
0
 62
     7
100
AcDbSpline
210
0.0
220
0.0
230
1.0
 70
     8
 71
     3
 72
     8
 73
     4
 74
     0
 42
0.000000001
 43
0.0000000001
 40
0.0
 40
0.0
 40
0.0
 40
0.0
 40
1.0
 40
1.0
 40
1.0
 40
1.0
 10
165.548206881356
 20
-37.35241427017576
 30
0.0
 10
132.9600151577322
 20
-37.18687743210955
 30
0.0
 10
83.71134166744022
 20
-36.79551458498508
 30
0.0
 10
51.12314994381643
 20
-36.79000243220873
 30
0.0
  0
SPLINE
  5
3EFF
330
3EFC
100
AcDbEntity
  8
0
 62
     7
100
AcDbSpline
210
0.0
220
0.0
230
1.0
 70
    11
 71
     3
 72
    29
 73
    25
 74
     0
 42
0.000000001
 43
0.0000000001
 40
0.0
 40
0.0
 40
0.0
 40
0.0
 40
1.0
 40
1.0
 40
1.0
 40
2.0
 40
2.0
 40
2.0
 40
3.0
 40
3.0
 40
3.0
 40
4.0
 40
4.0
 40
4.0
 40
5.0
 40
5.0
 40
5.0
 40
6.0
 40
6.0
 40
6.0
 40
7.0
 40
7.0
 40
7.0
 40
8.0
 40
8.0
 40
8.0
 40
8.0
 10
-205.0000623402431
 20
-178.9990654391912
 30
0.0
 10
-205.0000623402431
 20
-178.9990654391912
 30
0.0
 10
-205.0000623402431
 20
-20.0020521325863
 30
0.0
 10
-205.0000623402431
 20
-19.99653997980988
 30
0.0
 10
-205.0000623402431
 20
-8.953458656615794
 30
0.0
 10
-196.0412637856251
 20
0.0
 30
0.0
 10
-184.9985269719796
 20
0.0
 30
0.0
 10
-184.9985269719796
 20
0.0
 30
0.0
 10
185.0036946152074
 20
0.0
 30
0.0
 10
185.0036946152074
 20
0.0
 30
0.0
 10
196.0521158364036
 20
0.0
 30
0.0
 10
205.0055744930194
 20
-8.953458656615794
 30
0.0
 10
205.000062340243
 20
-20.0020521325863
 30
0.0
 10
205.000062340243
 20
-20.0020521325863
 30
0.0
 10
205.000062340243
 20
-178.9990654391912
 30
0.0
 10
205.000062340243
 20
-178.9990654391912
 30
0.0
 10
205.000062340243
 20
-178.9990654391912
 30
0.0
 10
205.000062340243
 20
-179.0045775919676
 30
0.0
 10
205.000062340243
 20
-179.0045775919676
 30
0.0
 10
205.000062340243
 20
-281.7278509495333
 30
0.0
 10
113.2175509699595
 20
-364.9999429426042
 30
0.0
 10
-0.0000000000000142
 20
-364.9999429426042
 30
0.0
 10
-113.2175509699595
 20
-364.9999429426042
 30
0.0
 10
-205.0000623402431
 20
-281.7223387967569
 30
0.0
 10
-205.0000623402431
 20
-178.9990654391912
 30
0.0
  0
SPLINE
  5
3F00
330
3EFC
100
AcDbEntity
  8
0
 62
     7
100
AcDbSpline
210
0.0
220
0.0
230
1.0
 70
    11
 71
     3
 72
    56
 73
    52
 74
     0
 42
0.000000001
 43
0.0000000001
 40
0.0
 40
0.0
 40
0.0
 40
0.0
 40
1.0
 40
1.0
 40
1.0
 40
2.0
 40
2.0
 40
2.0
 40
3.0
 40
3.0
 40
3.0
 40
4.0
 40
4.0
 40
4.0
 40
5.0
 40
5.0
 40
5.0
 40
6.0
 40
6.0
 40
6.0
 40
7.0
 40
7.0
 40
7.0
 40
8.0
 40
8.0
 40
8.0
 40
9.0
 40
9.0
 40
9.0
 40
10.0
 40
10.0
 40
10.0
 40
11.0
 40
11.0
 40
11.0
 40
12.0
 40
12.0
 40
12.0
 40
13.0
 40
13.0
 40
13.0
 40
14.0
 40
14.0
 40
14.0
 40
15.0
 40
15.0
 40
15.0
 40
16.0
 40
16.0
 40
16.0
 40
17.0
 40
17.0
 40
17.0
 40
17.0
 10
-185.9245686384147
 20
-4.465705022755059
 30
0.0
 10
-193.9628376793739
 20
-4.43814425887308
 30
0.0
 10
-200.5067965536059
 20
-10.93835042044253
 30
0.0
 10
-200.5288451647116
 20
-18.97661946140175
 30
0.0
 10
-200.5288451647116
 20
-19.00969237806009
 30
0.0
 10
-200.5288451647116
 20
-19.04276529471855
 30
0.0
 10
-200.5288451647116
 20
-19.07032605860053
 30
0.0
 10
-200.5288451647116
 20
-19.07032605860053
 30
0.0
 10
-200.5178208591588
 20
-19.0482774474948
 30
0.0
 10
-200.5178208591588
 20
-19.0482774474948
 30
0.0
 10
-200.5178208591588
 20
-19.0482774474948
 30
0.0
 10
-200.5178208591588
 20
-178.9990654391912
 30
0.0
 10
-200.5178208591588
 20
-178.9990654391912
 30
0.0
 10
-200.5178208591588
 20
-178.9990654391912
 30
0.0
 10
-200.5508937758172
 20
-178.9659925225328
 30
0.0
 10
-200.5508937758172
 20
-178.9659925225328
 30
0.0
 10
-200.0988972481524
 20
-208.3903808072774
 30
0.0
 10
-192.6340643507129
 20
-236.4858235085869
 30
0.0
 10
-178.2228854263644
 20
-262.1776230898376
 30
0.0
 10
-150.4862494198438
 20
-311.6316242710504
 30
0.0
 10
-97.95715600849684
 20
-346.1611273006125
 30
0.0
 10
-42.61100801886115
 20
-356.371701299796
 30
0.0
 10
14.36708170213737
 20
-366.879931548905
 30
0.0
 10
73.06530759892112
 20
-356.0354599804356
 30
0.0
 10
121.305257131132
 20
-323.5292615293607
 30
0.0
 10
169.4955972883553
 20
-291.0561359949443
 30
0.0
 10
199.6081433962785
 20
-237.0976724667672
 30
0.0
 10
200.5617458265956
 20
-178.9659925225328
 30
0.0
 10
200.5617458265956
 20
-178.9659925225328
 30
0.0
 10
200.5286729099372
 20
-178.9990654391912
 30
0.0
 10
200.5286729099372
 20
-178.9990654391912
 30
0.0
 10
200.5286729099372
 20
-178.9990654391912
 30
0.0
 10
200.5286729099372
 20
-19.0482774474948
 30
0.0
 10
200.5286729099372
 20
-19.0482774474948
 30
0.0
 10
200.5286729099372
 20
-19.0482774474948
 30
0.0
 10
200.5341850627137
 20
-19.07032605860053
 30
0.0
 10
200.5341850627137
 20
-19.07032605860053
 30
0.0
 10
200.5617458265956
 20
-11.03756917041761
 30
0.0
 10
194.0673963273512
 20
-4.493265786637152
 30
0.0
 10
186.0292995411663
 20
-4.465705022755059
 30
0.0
 10
185.9962266245079
 20
-4.465705022755059
 30
0.0
 10
185.9631537078495
 20
-4.465705022755059
 30
0.0
 10
185.9300807911911
 20
-4.465705022755059
 30
0.0
 10
185.9300807911911
 20
-4.465705022755059
 30
0.0
 10
185.9576415550731
 20
-4.476729328307897
 30
0.0
 10
185.9576415550731
 20
-4.476729328307897
 30
0.0
 10
185.9576415550731
 20
-4.476729328307897
 30
0.0
 10
-185.9521294022967
 20
-4.476729328307897
 30
0.0
 10
-185.9521294022967
 20
-4.476729328307897
 30
0.0
 10
-185.9521294022967
 20
-4.476729328307897
 30
0.0
 10
-185.9245686384147
 20
-4.465705022755059
 30
0.0
 10
-185.9245686384147
 20
-4.465705022755059
 30
0.0
  0
SPLINE
  5
3F01
330
3EFC
100
AcDbEntity
  8
0
 62
     7
100
AcDbSpline
210
0.0
220
0.0
230
1.0
 70
    11
 71
     3
 72
    17
 73
    13
 74
     0
 42
0.000000001
 43
0.0000000001
 40
0.0
 40
0.0
 40
0.0
 40
0.0
 40
1.0
 40
1.0
 40
1.0
 40
2.0
 40
2.0
 40
2.0
 40
3.0
 40
3.0
 40
3.0
 40
4.0
 40
4.0
 40
4.0
 40
4.0
 10
-23.00083549772203
 20
-80.4881103314404
 30
0.0
 10
-23.00083549772203
 20
-67.76899005467232
 30
0.0
 10
-12.70775146166683
 20
-57.47022161106645
 30
0.0
 10
-0.0000000000000142
 20
-57.47022161106645
 30
0.0
 10
12.70775146166679
 20
-57.47022161106645
 30
0.0
 10
23.00617539572414
 20
-67.76899005467232
 30
0.0
 10
23.00617539572414
 20
-80.4881103314404
 30
0.0
 10
23.00617539572414
 20
-93.18518199710302
 30
0.0
 10
12.70775146166679
 20
-103.4949747462617
 30
0.0
 10
-0.0000000000000142
 20
-103.4949747462617
 30
0.0
 10
-12.70775146166683
 20
-103.4949747462617
 30
0.0
 10
-23.00083549772203
 20
-93.18518199710302
 30
0.0
 10
-23.00083549772203
 20
-80.4881103314404
 30
0.0
  0
SPLINE
  5
3F02
330
3EFC
100
AcDbEntity
  8
0
 62
     7
100
AcDbSpline
210
0.0
220
0.0
230
1.0
 70
    11
 71
     3
 72
    17
 73
    13
 74
     0
 42
0.000000001
 43
0.0000000001
 40
0.0
 40
0.0
 40
0.0
 40
0.0
 40
1.0
 40
1.0
 40
1.0
 40
2.0
 40
2.0
 40
2.0
 40
3.0
 40
3.0
 40
3.0
 40
4.0
 40
4.0
 40
4.0
 40
4.0
 10
-37.46179605183249
 20
-80.4881103314404
 30
0.0
 10
-37.46179605183249
 20
-59.78584254147711
 30
0.0
 10
-20.68521456731136
 20
-43.01442870018393
 30
0.0
 10
-0.0000000000000142
 20
-43.01442870018393
 30
0.0
 10
20.69072672008771
 20
-43.01442870018393
 30
0.0
 10
37.46162379705821
 20
-59.78584254147711
 30
0.0
 10
37.46162379705821
 20
-80.4881103314404
 30
0.0
 10
37.46162379705821
 20
-101.179353815851
 30
0.0
 10
20.69072672008771
 20
-117.9507676571442
 30
0.0
 10
-0.0000000000000142
 20
-117.9507676571442
 30
0.0
 10
-20.68521456731136
 20
-117.9507676571442
 30
0.0
 10
-37.46179605183249
 20
-101.179353815851
 30
0.0
 10
-37.46179605183249
 20
-80.4881103314404
 30
0.0
  0
POLYLINE
  5
3F03
330
3EFC
100
AcDbEntity
  8
0
 62
     7
100
AcDb2dPolyline
 66
     1
 10
0.0
 20
0.0
 30
0.0
  0
VERTEX
  5
3F04
330
3F03
100
AcDbEntity
  8
0
 62
     7
100
AcDbVertex
100
AcDb2dVertex
 10
-0.0000000000000142
 20
-24.28034396094381
 30
0.0
  0
VERTEX
  5
3F05
330
3F03
100
AcDbEntity
  8
0
 62
     7
100
AcDbVertex
100
AcDb2dVertex
 10
-0.0000000000000142
 20
-136.6848523963843
 30
0.0
  0
SEQEND
  5
3F06
330
3F03
100
AcDbEntity
  8
0
  0
POLYLINE
  5
3F07
330
3EFC
100
AcDbEntity
  8
0
 62
     7
100
AcDb2dPolyline
 66
     1
 10
0.0
 20
0.0
 30
0.0
  0
VERTEX
  5
3F08
330
3F07
100
AcDbEntity
  8
0
 62
     7
100
AcDbVertex
100
AcDb2dVertex
 10
-56.20087617952619
 20
-80.4881103314404
 30
0.0
  0
VERTEX
  5
3F09
330
3F07
100
AcDbEntity
  8
0
 62
     7
100
AcDbVertex
100
AcDb2dVertex
 10
56.19519177197547
 20
-80.4881103314404
 30
0.0
  0
SEQEND
  5
3F0A
330
3F07
100
AcDbEntity
  8
0
  0
SPLINE
  5
3F0B
330
3EFC
100
AcDbEntity
  8
0
 62
     7
100
AcDbSpline
210
0.0
220
0.0
230
1.0
 70
    11
 71
     3
 72
    26
 73
    22
 74
     0
 42
0.000000001
 43
0.0000000001
 40
0.0
 40
0.0
 40
0.0
 40
0.0
 40
1.0
 40
1.0
 40
1.0
 40
2.0
 40
2.0
 40
2.0
 40
3.0
 40
3.0
 40
3.0
 40
4.0
 40
4.0
 40
4.0
 40
5.0
 40
5.0
 40
5.0
 40
6.0
 40
6.0
 40
6.0
 40
7.0
 40
7.0
 40
7.0
 40
7.0
 10
-51.12332219859071
 20
-36.79000243220873
 30
0.0
 10
-52.23143716142132
 20
-36.79000243220873
 30
0.0
 10
-53.12457816597235
 20
-37.68314343675979
 30
0.0
 10
-53.12457816597235
 20
-38.79125839959039
 30
0.0
 10
-53.12457816597235
 20
-38.79125839959039
 30
0.0
 10
-53.12457816597235
 20
-80.71410859527293
 30
0.0
 10
-53.12457816597235
 20
-80.71410859527293
 30
0.0
 10
-53.12457816597235
 20
-110.0558145883714
 30
0.0
 10
-29.34084471922731
 20
-133.8454046974414
 30
0.0
 10
-0.0000000000000142
 20
-133.8454046974414
 30
0.0
 10
29.34084471922728
 20
-133.8454046974414
 30
0.0
 10
53.11889375842167
 20
-110.0558145883714
 30
0.0
 10
53.11889375842167
 20
-80.71410859527293
 30
0.0
 10
53.11889375842167
 20
-80.71410859527293
 30
0.0
 10
53.11889375842167
 20
-38.79125839959039
 30
0.0
 10
53.11889375842167
 20
-38.79125839959039
 30
0.0
 10
53.11889375842167
 20
-37.68314343675979
 30
0.0
 10
52.23126490664703
 20
-36.79000243220873
 30
0.0
 10
51.12314994381643
 20
-36.79000243220873
 30
0.0
 10
51.12314994381643
 20
-36.79000243220873
 30
0.0
 10
-51.12332219859071
 20
-36.79000243220873
 30
0.0
 10
-51.12332219859071
 20
-36.79000243220873
 30
0.0
  0
SPLINE
  5
3F0C
330
3EFC
100
AcDbEntity
  8
0
 62
     7
100
AcDbSpline
210
0.0
220
0.0
230
1.0
 70
     8
 71
     3
 72
     8
 73
     4
 74
     0
 42
0.000000001
 43
0.0000000001
 40
0.0
 40
0.0
 40
0.0
 40
0.0
 40
1.0
 40
1.0
 40
1.0
 40
1.0
 10
-51.12332219859071
 20
-36.79000243220873
 30
0.0
 10
-83.71134166744027
 20
-36.79000243220873
 30
0.0
 10
-167.9298013903093
 20
-37.18687743210955
 30
0.0
 10
-200.5178208591588
 20
-37.35241427017576
 30
0.0
  0
SPLINE
  5
3F0D
330
3EFC
100
AcDbEntity
  8
0
 62
     7
100
AcDbSpline
210
0.0
220
0.0
230
1.0
 70
     8
 71
     3
 72
     8
 73
     4
 74
     0
 42
0.000000001
 43
0.0000000001
 40
0.0
 40
0.0
 40
0.0
 40
0.0
 40
1.0
 40
1.0
 40
1.0
 40
1.0
 10
200.5286729099372
 20
-37.35241427017576
 30
0.0
 10
167.9353135430856
 20
-37.18687743210955
 30
0.0
 10
83.71134166744022
 20
-36.79551458498508
 30
0.0
 10
51.12314994381643
 20
-36.79000243220873
 30
0.0
  0
ENDBLK
  5
3F0E
330
3EFC
100
AcDbEntity
  8
0
100
AcDbBlockEnd
  0
BLOCK
  5
4270
330
426F
100
AcDbEntity
  8
0
100
AcDbBlockBegin
  2
*D6
 70
     1
 10
0.0
 20
0.0
 30
0.0
  3
*D6
  1

  0
LINE
  5
4272
330
426F
100
AcDbEntity
  8
0
 62
     0
370
    -2
100
AcDbLine
 10
2545.456436710963
 20
4096.916658052858
 30
0.0
 11
2545.456436710963
 21
4913.757445361376
 31
0.0
  0
LINE
  5
4273
330
426F
100
AcDbEntity
  8
0
 62
     0
370
    -2
100
AcDbLine
 10
13367.27787953767
 20
4359.224987268912
 30
0.0
 11
13367.27787953767
 21
4913.757445361376
 31
0.0
  0
LINE
  5
4274
330
426F
100
AcDbEntity
  8
0
 62
     0
370
    -2
100
AcDbLine
 10
2553.456436710963
 20
4913.757445361376
 30
0.0
 11
13359.27787953767
 21
4913.757445361376
 31
0.0
  0
INSERT
  5
4275
330
426F
100
AcDbEntity
  8
0
 62
     0
370
    -2
100
AcDbBlockReference
  2
_DOT
 10
2545.456436710963
 20
4913.757445361376
 30
0.0
 41
8.0
 42
8.0
 43
8.0
 50
180.0
  0
INSERT
  5
4276
330
426F
100
AcDbEntity
  8
0
 62
     0
370
    -2
100
AcDbBlockReference
  2
_DOT
 10
13367.27787953767
 20
4913.757445361376
 30
0.0
 41
8.0
 42
8.0
 43
8.0
  0
MTEXT
  5
4277
330
426F
100
AcDbEntity
  8
0
 62
     0
100
AcDbMText
 10
7956.367158124315
 20
4939.761196768153
 30
0.0
 40
20.0
 41
0.0
 46
0.0
 71
     5
 72
     1
  1
\A1;10822
  7
ＭＳ ゴシック
 73
     1
 44
1.0
  0
POINT
  5
4278
330
426F
100
AcDbEntity
  8
Defpoints
 62
     0
100
AcDbPoint
 10
2545.456436710963
 20
4091.916658052858
 30
0.0
  0
POINT
  5
4279
330
426F
100
AcDbEntity
  8
Defpoints
 62
     0
100
AcDbPoint
 10
13367.27787953767
 20
4354.224987268912
 30
0.0
  0
POINT
  5
427A
330
426F
100
AcDbEntity
  8
Defpoints
 62
     0
100
AcDbPoint
 10
13367.27787953767
 20
4913.757445361376
 30
0.0
  0
ENDBLK
  5
4271
330
426F
100
AcDbEntity
  8
0
100
AcDbBlockEnd
  0
BLOCK
  5
427F
330
427E
100
AcDbEntity
  8
0
100
AcDbBlockBegin
  2
*D7
 70
     1
 10
0.0
 20
0.0
 30
0.0
  3
*D7
  1

  0
LINE
  5
4281
330
427E
100
AcDbEntity
  8
0
 62
     0
370
    -2
100
AcDbLine
 10
4329.737011085022
 20
3286.916658051182
 30
0.0
 11
4329.737011085022
 21
3327.596645024688
 31
0.0
  0
LINE
  5
4282
330
427E
100
AcDbEntity
  8
0
 62
     0
370
    -2
100
AcDbLine
 10
4411.737011085022
 20
3286.916658051182
 30
0.0
 11
4411.737011085022
 21
3327.596645024688
 31
0.0
  0
LINE
  5
4283
330
427E
100
AcDbEntity
  8
0
 62
     0
370
    -2
100
AcDbLine
 10
4337.737011085022
 20
3327.596645024688
 30
0.0
 11
4403.737011085022
 21
3327.596645024688
 31
0.0
  0
INSERT
  5
4284
330
427E
100
AcDbEntity
  8
0
 62
     0
370
    -2
100
AcDbBlockReference
  2
_DOT
 10
4329.737011085022
 20
3327.596645024688
 30
0.0
 41
8.0
 42
8.0
 43
8.0
 50
180.0
  0
INSERT
  5
4285
330
427E
100
AcDbEntity
  8
0
 62
     0
370
    -2
100
AcDbBlockReference
  2
_DOT
 10
4411.737011085022
 20
3327.596645024688
 30
0.0
 41
8.0
 42
8.0
 43
8.0
  0
MTEXT
  5
4286
330
427E
100
AcDbEntity
  8
0
 62
     0
100
AcDbMText
 10
4370.737011085022
 20
3353.600396431466
 30
0.0
 40
20.0
 41
0.0
 46
0.0
 71
     5
 72
     1
  1
\A1;82
  7
ＭＳ ゴシック
 73
     1
 44
1.0
  0
POINT
  5
4287
330
427E
100
AcDbEntity
  8
Defpoints
 62
     0
100
AcDbPoint
 10
4329.737011085022
 20
3281.916658051182
 30
0.0
  0
POINT
  5
4288
330
427E
100
AcDbEntity
  8
Defpoints
 62
     0
100
AcDbPoint
 10
4411.737011085022
 20
3281.916658051182
 30
0.0
  0
POINT
  5
4289
330
427E
100
AcDbEntity
  8
Defpoints
 62
     0
100
AcDbPoint
 10
4411.737011085022
 20
3327.596645024688
 30
0.0
  0
ENDBLK
  5
4280
330
427E
100
AcDbEntity
  8
0
100
AcDbBlockEnd
  0
BLOCK
  5
428E
330
428D
100
AcDbEntity
  8
0
100
AcDbBlockBegin
  2
*D8
 70
     1
 10
0.0
 20
0.0
 30
0.0
  3
*D8
  1

  0
LINE
  5
4290
330
428D
100
AcDbEntity
  8
0
 62
     0
370
    -2
100
AcDbLine
 10
4329.737011085022
 20
3286.916658051182
 30
0.0
 11
4329.737011085022
 21
3307.515447657025
 31
0.0
  0
LINE
  5
4291
330
428D
100
AcDbEntity
  8
0
 62
     0
370
    -2
100
AcDbLine
 10
4411.737011085022
 20
3286.916658051182
 30
0.0
 11
4411.737011085022
 21
3307.515447657025
 31
0.0
  0
LINE
  5
4292
330
428D
100
AcDbEntity
  8
0
 62
     0
370
    -2
100
AcDbLine
 10
4337.737011085022
 20
3307.515447657025
 30
0.0
 11
4403.737011085022
 21
3307.515447657025
 31
0.0
  0
INSERT
  5
4293
330
428D
100
AcDbEntity
  8
0
 62
     0
370
    -2
100
AcDbBlockReference
  2
_DOT
 10
4329.737011085022
 20
3307.515447657025
 30
0.0
 41
8.0
 42
8.0
 43
8.0
 50
180.0
  0
INSERT
  5
4294
330
428D
100
AcDbEntity
  8
0
 62
     0
370
    -2
100
AcDbBlockReference
  2
_DOT
 10
4411.737011085022
 20
3307.515447657025
 30
0.0
 41
8.0
 42
8.0
 43
8.0
  0
MTEXT
  5
4295
330
428D
100
AcDbEntity
  8
0
 62
     0
100
AcDbMText
 10
4370.737011085022
 20
3333.519199063803
 30
0.0
 40
20.0
 41
0.0
 46
0.0
 71
     5
 72
     1
  1
\A1;82
  7
ＭＳ ゴシック
 73
     1
 44
1.0
  0
POINT
  5
4296
330
428D
100
AcDbEntity
  8
Defpoints
 62
     0
100
AcDbPoint
 10
4329.737011085022
 20
3281.916658051182
 30
0.0
  0
POINT
  5
4297
330
428D
100
AcDbEntity
  8
Defpoints
 62
     0
100
AcDbPoint
 10
4411.737011085022
 20
3281.916658051182
 30
0.0
  0
POINT
  5
4298
330
428D
100
AcDbEntity
  8
Defpoints
 62
     0
100
AcDbPoint
 10
4411.737011085022
 20
3307.515447657025
 30
0.0
  0
ENDBLK
  5
428F
330
428D
100
AcDbEntity
  8
0
100
AcDbBlockEnd
  0
BLOCK
  5
429B
330
429A
100
AcDbEntity
  8
0
100
AcDbBlockBegin
  2
*D9
 70
     1
 10
0.0
 20
0.0
 30
0.0
  3
*D9
  1

  0
LINE
  5
429D
330
429A
100
AcDbEntity
  8
0
 62
     0
370
    -2
100
AcDbLine
 10
144.3165100943875
 20
1530.735009672066
 30
0.0
 11
144.3165100943875
 21
1641.377875037652
 31
0.0
  0
LINE
  5
429E
330
429A
100
AcDbEntity
  8
0
 62
     0
370
    -2
100
AcDbLine
 10
1226.316510094387
 20
1530.735009672066
 30
0.0
 11
1226.316510094387
 21
1641.377875037652
 31
0.0
  0
LINE
  5
429F
330
429A
100
AcDbEntity
  8
0
 62
     0
370
    -2
100
AcDbLine
 10
152.3165100943875
 20
1641.377875037652
 30
0.0
 11
1218.316510094387
 21
1641.377875037652
 31
0.0
  0
INSERT
  5
42A0
330
429A
100
AcDbEntity
  8
0
 62
     0
370
    -2
100
AcDbBlockReference
  2
_DOT
 10
144.3165100943875
 20
1641.377875037652
 30
0.0
 41
8.0
 42
8.0
 43
8.0
 50
180.0
  0
INSERT
  5
42A1
330
429A
100
AcDbEntity
  8
0
 62
     0
370
    -2
100
AcDbBlockReference
  2
_DOT
 10
1226.316510094387
 20
1641.377875037652
 30
0.0
 41
8.0
 42
8.0
 43
8.0
  0
MTEXT
  5
42A2
330
429A
100
AcDbEntity
  8
0
 62
     0
100
AcDbMText
 10
685.3165100943875
 20
1667.38162644443
 30
0.0
 40
20.0
 41
0.0
 46
0.0
 71
     5
 72
     1
  1
\A1;1082
  7
ＭＳ ゴシック
 73
     1
 44
1.0
  0
POINT
  5
42A3
330
429A
100
AcDbEntity
  8
Defpoints
 62
     0
100
AcDbPoint
 10
144.3165100943875
 20
1525.735009672066
 30
0.0
  0
POINT
  5
42A4
330
429A
100
AcDbEntity
  8
Defpoints
 62
     0
100
AcDbPoint
 10
1226.316510094387
 20
1525.735009672066
 30
0.0
  0
POINT
  5
42A5
330
429A
100
AcDbEntity
  8
Defpoints
 62
     0
100
AcDbPoint
 10
1226.316510094387
 20
1641.377875037652
 30
0.0
  0
ENDBLK
  5
429C
330
429A
100
AcDbEntity
  8
0
100
AcDbBlockEnd
  0
BLOCK
  5
42AA
330
42A9
100
AcDbEntity
  8
0
100
AcDbBlockBegin
  2
*D10
 70
     1
 10
0.0
 20
0.0
 30
0.0
  3
*D10
  1

  0
LINE
  5
42AC
330
42A9
100
AcDbEntity
  8
0
 62
     0
370
    -2
100
AcDbLine
 10
185.3165100944811
 20
1530.735009672066
 30
0.0
 11
185.3165100944811
 21
1581.184204049239
 31
0.0
  0
LINE
  5
42AD
330
42A9
100
AcDbEntity
  8
0
 62
     0
370
    -2
100
AcDbLine
 10
1185.316510094294
 20
1530.735009672066
 30
0.0
 11
1185.316510094294
 21
1581.184204049239
 31
0.0
  0
LINE
  5
42AE
330
42A9
100
AcDbEntity
  8
0
 62
     0
370
    -2
100
AcDbLine
 10
193.3165100944811
 20
1581.184204049239
 30
0.0
 11
1177.316510094294
 21
1581.184204049239
 31
0.0
  0
INSERT
  5
42AF
330
42A9
100
AcDbEntity
  8
0
 62
     0
370
    -2
100
AcDbBlockReference
  2
_DOT
 10
185.3165100944811
 20
1581.184204049239
 30
0.0
 41
8.0
 42
8.0
 43
8.0
 50
180.0
  0
INSERT
  5
42B0
330
42A9
100
AcDbEntity
  8
0
 62
     0
370
    -2
100
AcDbBlockReference
  2
_DOT
 10
1185.316510094294
 20
1581.184204049239
 30
0.0
 41
8.0
 42
8.0
 43
8.0
  0
MTEXT
  5
42B1
330
42A9
100
AcDbEntity
  8
0
 62
     0
100
AcDbMText
 10
685.3165100943875
 20
1607.187955456016
 30
0.0
 40
20.0
 41
0.0
 46
0.0
 71
     5
 72
     1
  1
\A1;1000
  7
ＭＳ ゴシック
 73
     1
 44
1.0
  0
POINT
  5
42B2
330
42A9
100
AcDbEntity
  8
Defpoints
 62
     0
100
AcDbPoint
 10
185.3165100944811
 20
1525.735009672066
 30
0.0
  0
POINT
  5
42B3
330
42A9
100
AcDbEntity
  8
Defpoints
 62
     0
100
AcDbPoint
 10
1185.316510094294
 20
1525.735009672066
 30
0.0
  0
POINT
  5
42B4
330
42A9
100
AcDbEntity
  8
Defpoints
 62
     0
100
AcDbPoint
 10
1185.316510094294
 20
1581.184204049239
 30
0.0
  0
ENDBLK
  5
42AB
330
42A9
100
AcDbEntity
  8
0
100
AcDbBlockEnd
  0
BLOCK
  5
5E26
330
5E25
100
AcDbEntity
  8
0
100
AcDbBlockBegin
  2
*D11
 70
     1
 10
0.0
 20
0.0
 30
0.0
  3
*D11
  1

  0
LINE
  5
5E27
330
5E25
100
AcDbEntity
  8
DIM
 62
     0
370
    -2
100
AcDbLine
 10
463.4745653240893
 20
1874.299388781362
 30
0.0
 11
44.01350506439987
 21
1874.299388781362
 31
0.0
  0
LINE
  5
5E28
330
5E25
100
AcDbEntity
  8
DIM
 62
     0
370
    -2
100
AcDbLine
 10
457.8752486534581
 20
1554.299388791359
 30
0.0
 11
44.01350506439985
 21
1554.299388791359
 31
0.0
  0
LINE
  5
5E29
330
5E25
100
AcDbEntity
  8
DIM
 62
     0
370
    -2
100
AcDbLine
 10
44.01350506439987
 20
1866.299388781362
 30
0.0
 11
44.01350506439985
 21
1562.299388791359
 31
0.0
  0
INSERT
  5
5E2A
330
5E25
100
AcDbEntity
  8
DIM
 62
     0
370
    -2
100
AcDbBlockReference
  2
_DOT
 10
44.01350506439987
 20
1874.299388781362
 30
0.0
 41
8.0
 42
8.0
 43
8.0
 50
90.0
  0
INSERT
  5
5E2B
330
5E25
100
AcDbEntity
  8
DIM
 62
     0
370
    -2
100
AcDbBlockReference
  2
_DOT
 10
44.01350506439985
 20
1554.299388791359
 30
0.0
 41
8.0
 42
8.0
 43
8.0
 50
270.0
  0
MTEXT
  5
5E2C
330
5E25
100
AcDbEntity
  8
DIM
 62
     0
100
AcDbMText
 10
18.00975365762226
 20
1714.299388786361
 30
0.0
 40
20.0
 41
0.0
 46
0.0
 71
     5
 72
     1
  1
\A1;319.99999999
  7
ＭＳ ゴシック
 11
6.661338147959038E-17
 21
1.0
 31
0.0
 73
     1
 44
1.0
  0
POINT
  5
5E2D
330
5E25
100
AcDbEntity
  8
Defpoints
 62
     0
100
AcDbPoint
 10
468.4745653240893
 20
1874.299388781362
 30
0.0
  0
POINT
  5
5E2E
330
5E25
100
AcDbEntity
  8
Defpoints
 62
     0
100
AcDbPoint
 10
462.8752486534581
 20
1554.299388791359
 30
0.0
  0
POINT
  5
5E2F
330
5E25
100
AcDbEntity
  8
Defpoints
 62
     0
100
AcDbPoint
 10
44.01350506439985
 20
1554.299388791359
 30
0.0
  0
ENDBLK
  5
5E30
330
5E25
100
AcDbEntity
  8
0
100
AcDbBlockEnd
  0
BLOCK
  5
7987
330
7986
100
AcDbEntity
  8
0
100
AcDbBlockBegin
  2
*D12
 70
     1
 10
0.0
 20
0.0
 30
0.0
  3
*D12
  1

  0
LINE
  5
7989
330
7986
100
AcDbEntity
  8
MODEL
 62
     0
370
    -2
100
AcDbLine
 10
2315.655047762756
 20
2051.89638592802
 30
0.0
 11
1896.193987503066
 21
2051.89638592802
 31
0.0
  0
LINE
  5
798A
330
7986
100
AcDbEntity
  8
MODEL
 62
     0
370
    -2
100
AcDbLine
 10
2310.055731092125
 20
1731.896385938017
 30
0.0
 11
1896.193987503066
 21
1731.896385938017
 31
0.0
  0
LINE
  5
798B
330
7986
100
AcDbEntity
  8
MODEL
 62
     0
370
    -2
100
AcDbLine
 10
1896.193987503066
 20
2043.89638592802
 30
0.0
 11
1896.193987503066
 21
1739.896385938017
 31
0.0
  0
INSERT
  5
798C
330
7986
100
AcDbEntity
  8
MODEL
 62
     0
370
    -2
100
AcDbBlockReference
  2
_DOT
 10
1896.193987503066
 20
2051.89638592802
 30
0.0
 41
8.0
 42
8.0
 43
8.0
 50
90.0
  0
INSERT
  5
798D
330
7986
100
AcDbEntity
  8
MODEL
 62
     0
370
    -2
100
AcDbBlockReference
  2
_DOT
 10
1896.193987503066
 20
1731.896385938017
 30
0.0
 41
8.0
 42
8.0
 43
8.0
 50
270.0
  0
MTEXT
  5
798E
330
7986
100
AcDbEntity
  8
MODEL
 62
     0
100
AcDbMText
 10
1870.190236096289
 20
1891.896385933019
 30
0.0
 40
20.0
 41
0.0
 46
0.0
 71
     5
 72
     1
  1
\A1;319.99999999
  7
ＭＳ ゴシック
 11
0.0
 21
1.0
 31
0.0
 73
     1
 44
1.0
  0
POINT
  5
798F
330
7986
100
AcDbEntity
  8
Defpoints
 62
     0
100
AcDbPoint
 10
2320.655047762756
 20
2051.89638592802
 30
0.0
  0
POINT
  5
7990
330
7986
100
AcDbEntity
  8
Defpoints
 62
     0
100
AcDbPoint
 10
2315.055731092125
 20
1731.896385938017
 30
0.0
  0
POINT
  5
7991
330
7986
100
AcDbEntity
  8
Defpoints
 62
     0
100
AcDbPoint
 10
1896.193987503066
 20
1731.896385938017
 30
0.0
  0
ENDBLK
  5
7988
330
7986
100
AcDbEntity
  8
0
100
AcDbBlockEnd
  0
BLOCK
  5
799C
330
799B
100
AcDbEntity
  8
0
100
AcDbBlockBegin
  2
*D13
 70
     1
 10
0.0
 20
0.0
 30
0.0
  3
*D13
  1

  0
LINE
  5
799E
330
799B
100
AcDbEntity
  8
0
 62
     0
370
    -2
100
AcDbLine
 10
2080.411599532938
 20
2049.667057033124
 30
0.0
 11
1943.812164716188
 21
2049.667057033124
 31
0.0
  0
LINE
  5
799F
330
799B
100
AcDbEntity
  8
0
 62
     0
370
    -2
100
AcDbLine
 10
2080.411599532938
 20
1731.896385938017
 30
0.0
 11
1943.812164716188
 21
1731.896385938017
 31
0.0
  0
LINE
  5
79A0
330
799B
100
AcDbEntity
  8
0
 62
     0
370
    -2
100
AcDbLine
 10
1943.812164716188
 20
2041.667057033124
 30
0.0
 11
1943.812164716188
 21
1739.896385938017
 31
0.0
  0
INSERT
  5
79A1
330
799B
100
AcDbEntity
  8
0
 62
     0
370
    -2
100
AcDbBlockReference
  2
_DOT
 10
1943.812164716188
 20
2049.667057033124
 30
0.0
 41
8.0
 42
8.0
 43
8.0
 50
90.0
  0
INSERT
  5
79A2
330
799B
100
AcDbEntity
  8
0
 62
     0
370
    -2
100
AcDbBlockReference
  2
_DOT
 10
1943.812164716188
 20
1731.896385938017
 30
0.0
 41
8.0
 42
8.0
 43
8.0
 50
270.0
  0
MTEXT
  5
79A3
330
799B
100
AcDbEntity
  8
0
 62
     0
100
AcDbMText
 10
1917.80841330941
 20
1890.781721485571
 30
0.0
 40
20.0
 41
0.0
 46
0.0
 71
     5
 72
     1
  1
\A1;318
  7
ＭＳ ゴシック
 11
0.0
 21
1.0
 31
0.0
 73
     1
 44
1.0
  0
POINT
  5
79A4
330
799B
100
AcDbEntity
  8
Defpoints
 62
     0
100
AcDbPoint
 10
2085.411599532938
 20
2049.667057033124
 30
0.0
  0
POINT
  5
79A5
330
799B
100
AcDbEntity
  8
Defpoints
 62
     0
100
AcDbPoint
 10
2085.411599532938
 20
1731.896385938017
 30
0.0
  0
POINT
  5
79A6
330
799B
100
AcDbEntity
  8
Defpoints
 62
     0
100
AcDbPoint
 10
1943.812164716188
 20
1731.896385938017
 30
0.0
  0
ENDBLK
  5
799D
330
799B
100
AcDbEntity
  8
0
100
AcDbBlockEnd
  0
BLOCK
  5
79AB
330
79AA
100
AcDbEntity
  8
0
100
AcDbBlockBegin
  2
*D14
 70
     1
 10
0.0
 20
0.0
 30
0.0
  3
*D14
  1

  0
LINE
  5
79AD
330
79AA
100
AcDbEntity
  8
0
 62
     0
370
    -2
100
AcDbLine
 10
2318.17795835123
 20
1731.896385938017
 30
0.0
 11
2193.623300067368
 21
1731.896385938017
 31
0.0
  0
LINE
  5
79AE
330
79AA
100
AcDbEntity
  8
0
 62
     0
370
    -2
100
AcDbLine
 10
2318.17795835123
 20
2051.89638592802
 30
0.0
 11
2193.623300067368
 21
2051.89638592802
 31
0.0
  0
LINE
  5
79AF
330
79AA
100
AcDbEntity
  8
0
 62
     0
370
    -2
100
AcDbLine
 10
2193.623300067368
 20
1739.896385938017
 30
0.0
 11
2193.623300067368
 21
2043.89638592802
 31
0.0
  0
INSERT
  5
79B0
330
79AA
100
AcDbEntity
  8
0
 62
     0
370
    -2
100
AcDbBlockReference
  2
_DOT
 10
2193.623300067368
 20
1731.896385938017
 30
0.0
 41
8.0
 42
8.0
 43
8.0
 50
270.0
  0
INSERT
  5
79B1
330
79AA
100
AcDbEntity
  8
0
 62
     0
370
    -2
100
AcDbBlockReference
  2
_DOT
 10
2193.623300067368
 20
2051.89638592802
 30
0.0
 41
8.0
 42
8.0
 43
8.0
 50
90.0
  0
MTEXT
  5
79B2
330
79AA
100
AcDbEntity
  8
0
 62
     0
100
AcDbMText
 10
2167.61954866059
 20
1891.896385933019
 30
0.0
 40
20.0
 41
0.0
 46
0.0
 71
     5
 72
     1
  1
\A1;320
  7
ＭＳ ゴシック
 11
0.0
 21
1.0
 31
0.0
 73
     1
 44
1.0
  0
POINT
  5
79B3
330
79AA
100
AcDbEntity
  8
Defpoints
 62
     0
100
AcDbPoint
 10
2323.17795835123
 20
1731.896385938017
 30
0.0
  0
POINT
  5
79B4
330
79AA
100
AcDbEntity
  8
Defpoints
 62
     0
100
AcDbPoint
 10
2323.17795835123
 20
2051.89638592802
 30
0.0
  0
POINT
  5
79B5
330
79AA
100
AcDbEntity
  8
Defpoints
 62
     0
100
AcDbPoint
 10
2193.623300067368
 20
2051.89638592802
 30
0.0
  0
ENDBLK
  5
79AC
330
79AA
100
AcDbEntity
  8
0
100
AcDbBlockEnd
  0
BLOCK
  5
79B8
330
79B7
100
AcDbEntity
  8
0
100
AcDbBlockBegin
  2
*D15
 70
     1
 10
0.0
 20
0.0
 30
0.0
  3
*D15
  1

  0
LINE
  5
79BA
330
79B7
100
AcDbEntity
  8
0
 62
     0
370
    -2
100
AcDbLine
 10
2660.432967155777
 20
1731.896385938017
 30
0.0
 11
2719.280478176054
 21
1731.896385938017
 31
0.0
  0
LINE
  5
79BB
330
79B7
100
AcDbEntity
  8
0
 62
     0
370
    -2
100
AcDbLine
 10
2646.175755957075
 20
1966.039169929163
 30
0.0
 11
2719.280478176054
 21
1966.039169929163
 31
0.0
  0
LINE
  5
79BC
330
79B7
100
AcDbEntity
  8
0
 62
     0
370
    -2
100
AcDbLine
 10
2719.280478176054
 20
1739.896385938017
 30
0.0
 11
2719.280478176054
 21
1958.039169929163
 31
0.0
  0
INSERT
  5
79BD
330
79B7
100
AcDbEntity
  8
0
 62
     0
370
    -2
100
AcDbBlockReference
  2
_DOT
 10
2719.280478176054
 20
1731.896385938017
 30
0.0
 41
8.0
 42
8.0
 43
8.0
 50
270.0
  0
INSERT
  5
79BE
330
79B7
100
AcDbEntity
  8
0
 62
     0
370
    -2
100
AcDbBlockReference
  2
_DOT
 10
2719.280478176054
 20
1966.039169929163
 30
0.0
 41
8.0
 42
8.0
 43
8.0
 50
90.0
  0
MTEXT
  5
79BF
330
79B7
100
AcDbEntity
  8
0
 62
     0
100
AcDbMText
 10
2693.276726769277
 20
1848.96777793359
 30
0.0
 40
20.0
 41
0.0
 46
0.0
 71
     5
 72
     1
  1
\A1;234
  7
ＭＳ ゴシック
 11
0.0
 21
1.0
 31
0.0
 73
     1
 44
1.0
  0
POINT
  5
79C0
330
79B7
100
AcDbEntity
  8
Defpoints
 62
     0
100
AcDbPoint
 10
2655.432967155777
 20
1731.896385938017
 30
0.0
  0
POINT
  5
79C1
330
79B7
100
AcDbEntity
  8
Defpoints
 62
     0
100
AcDbPoint
 10
2641.175755957075
 20
1966.039169929163
 30
0.0
  0
POINT
  5
79C2
330
79B7
100
AcDbEntity
  8
Defpoints
 62
     0
100
AcDbPoint
 10
2719.280478176054
 20
1966.039169929163
 30
0.0
  0
ENDBLK
  5
79B9
330
79B7
100
AcDbEntity
  8
0
100
AcDbBlockEnd
  0
BLOCK
  5
79C7
330
79C6
100
AcDbEntity
  8
0
100
AcDbBlockBegin
  2
*D16
 70
     1
 10
0.0
 20
0.0
 30
0.0
  3
*D16
  1

  0
LINE
  5
79C9
330
79C6
100
AcDbEntity
  8
0
 62
     0
370
    -2
100
AcDbLine
 10
2642.851656172274
 20
1969.635671432581
 30
0.0
 11
2732.569128831367
 21
1969.635671432581
 31
0.0
  0
LINE
  5
79CA
330
79C6
100
AcDbEntity
  8
0
 62
     0
370
    -2
100
AcDbLine
 10
2649.298395148965
 20
1731.896385938017
 30
0.0
 11
2732.569128831367
 21
1731.896385938017
 31
0.0
  0
LINE
  5
79CB
330
79C6
100
AcDbEntity
  8
0
 62
     0
370
    -2
100
AcDbLine
 10
2732.569128831367
 20
1961.635671432581
 30
0.0
 11
2732.569128831367
 21
1739.896385938017
 31
0.0
  0
INSERT
  5
79CC
330
79C6
100
AcDbEntity
  8
0
 62
     0
370
    -2
100
AcDbBlockReference
  2
_DOT
 10
2732.569128831367
 20
1969.635671432581
 30
0.0
 41
8.0
 42
8.0
 43
8.0
 50
90.0
  0
INSERT
  5
79CD
330
79C6
100
AcDbEntity
  8
0
 62
     0
370
    -2
100
AcDbBlockReference
  2
_DOT
 10
2732.569128831367
 20
1731.896385938017
 30
0.0
 41
8.0
 42
8.0
 43
8.0
 50
270.0
  0
MTEXT
  5
79CE
330
79C6
100
AcDbEntity
  8
0
 62
     0
100
AcDbMText
 10
2706.565377424589
 20
1850.766028685299
 30
0.0
 40
20.0
 41
0.0
 46
0.0
 71
     5
 72
     1
  1
\A1;238
  7
ＭＳ ゴシック
 11
0.0
 21
1.0
 31
0.0
 73
     1
 44
1.0
  0
POINT
  5
79CF
330
79C6
100
AcDbEntity
  8
Defpoints
 62
     0
100
AcDbPoint
 10
2637.851656172274
 20
1969.635671432581
 30
0.0
  0
POINT
  5
79D0
330
79C6
100
AcDbEntity
  8
Defpoints
 62
     0
100
AcDbPoint
 10
2644.298395148965
 20
1731.896385938017
 30
0.0
  0
POINT
  5
79D1
330
79C6
100
AcDbEntity
  8
Defpoints
 62
     0
100
AcDbPoint
 10
2732.569128831367
 20
1731.896385938017
 30
0.0
  0
ENDBLK
  5
79C8
330
79C6
100
AcDbEntity
  8
0
100
AcDbBlockEnd
  0
BLOCK
  5
79D6
330
79D5
100
AcDbEntity
  8
0
100
AcDbBlockBegin
  2
*D17
 70
     1
 10
0.0
 20
0.0
 30
0.0
  3
*D17
  1

  0
LINE
  5
79D8
330
79D5
100
AcDbEntity
  8
0
 62
     0
370
    -2
100
AcDbLine
 10
2350.292894986307
 20
1795.743401196421
 30
0.0
 11
2350.292894986307
 21
1668.36223359803
 31
0.0
  0
LINE
  5
79D9
330
79D5
100
AcDbEntity
  8
0
 62
     0
370
    -2
100
AcDbLine
 10
2620.292894989755
 20
1795.743401196421
 30
0.0
 11
2620.292894989755
 21
1668.36223359803
 31
0.0
  0
LINE
  5
79DA
330
79D5
100
AcDbEntity
  8
0
 62
     0
370
    -2
100
AcDbLine
 10
2358.292894986307
 20
1668.36223359803
 30
0.0
 11
2612.292894989755
 21
1668.36223359803
 31
0.0
  0
INSERT
  5
79DB
330
79D5
100
AcDbEntity
  8
0
 62
     0
370
    -2
100
AcDbBlockReference
  2
_DOT
 10
2350.292894986307
 20
1668.36223359803
 30
0.0
 41
8.0
 42
8.0
 43
8.0
 50
180.0
  0
INSERT
  5
79DC
330
79D5
100
AcDbEntity
  8
0
 62
     0
370
    -2
100
AcDbBlockReference
  2
_DOT
 10
2620.292894989755
 20
1668.36223359803
 30
0.0
 41
8.0
 42
8.0
 43
8.0
  0
MTEXT
  5
79DD
330
79D5
100
AcDbEntity
  8
0
 62
     0
100
AcDbMText
 10
2485.292894988031
 20
1694.365985004807
 30
0.0
 40
20.0
 41
0.0
 46
0.0
 71
     5
 72
     1
  1
\A1;270
  7
ＭＳ ゴシック
 73
     1
 44
1.0
  0
POINT
  5
79DE
330
79D5
100
AcDbEntity
  8
Defpoints
 62
     0
100
AcDbPoint
 10
2350.292894986307
 20
1800.743401196421
 30
0.0
  0
POINT
  5
79DF
330
79D5
100
AcDbEntity
  8
Defpoints
 62
     0
100
AcDbPoint
 10
2620.292894989755
 20
1800.743401196421
 30
0.0
  0
POINT
  5
79E0
330
79D5
100
AcDbEntity
  8
Defpoints
 62
     0
100
AcDbPoint
 10
2620.292894989755
 20
1668.36223359803
 30
0.0
  0
ENDBLK
  5
79D7
330
79D5
100
AcDbEntity
  8
0
100
AcDbBlockEnd
  0
BLOCK
  5
79E5
330
79E4
100
AcDbEntity
  8
0
100
AcDbBlockBegin
  2
*D18
 70
     1
 10
0.0
 20
0.0
 30
0.0
  3
*D18
  1

  0
LINE
  5
79E7
330
79E4
100
AcDbEntity
  8
0
 62
     0
370
    -2
100
AcDbLine
 10
2288.231364283206
 20
1728.813324321293
 30
0.0
 11
2288.231364283206
 21
1650.904541807099
 31
0.0
  0
LINE
  5
79E8
330
79E4
100
AcDbEntity
  8
0
 62
     0
370
    -2
100
AcDbLine
 10
2685.906310701096
 20
1733.462414929566
 30
0.0
 11
2685.906310701096
 21
1650.904541807099
 31
0.0
  0
LINE
  5
79E9
330
79E4
100
AcDbEntity
  8
0
 62
     0
370
    -2
100
AcDbLine
 10
2296.231364283206
 20
1650.904541807099
 30
0.0
 11
2677.906310701096
 21
1650.904541807099
 31
0.0
  0
INSERT
  5
79EA
330
79E4
100
AcDbEntity
  8
0
 62
     0
370
    -2
100
AcDbBlockReference
  2
_DOT
 10
2288.231364283206
 20
1650.904541807099
 30
0.0
 41
8.0
 42
8.0
 43
8.0
 50
180.0
  0
INSERT
  5
79EB
330
79E4
100
AcDbEntity
  8
0
 62
     0
370
    -2
100
AcDbBlockReference
  2
_DOT
 10
2685.906310701096
 20
1650.904541807099
 30
0.0
 41
8.0
 42
8.0
 43
8.0
  0
MTEXT
  5
79EC
330
79E4
100
AcDbEntity
  8
0
 62
     0
100
AcDbMText
 10
2487.068837492151
 20
1676.908293213877
 30
0.0
 40
20.0
 41
0.0
 46
0.0
 71
     5
 72
     1
  1
\A1;398
  7
ＭＳ ゴシック
 73
     1
 44
1.0
  0
POINT
  5
79ED
330
79E4
100
AcDbEntity
  8
Defpoints
 62
     0
100
AcDbPoint
 10
2288.231364283206
 20
1733.813324321293
 30
0.0
  0
POINT
  5
79EE
330
79E4
100
AcDbEntity
  8
Defpoints
 62
     0
100
AcDbPoint
 10
2685.906310701096
 20
1738.462414929566
 30
0.0
  0
POINT
  5
79EF
330
79E4
100
AcDbEntity
  8
Defpoints
 62
     0
100
AcDbPoint
 10
2685.906310701096
 20
1650.904541807099
 30
0.0
  0
ENDBLK
  5
79E6
330
79E4
100
AcDbEntity
  8
0
100
AcDbBlockEnd
  0
BLOCK
  5
7A05
330
7A04
100
AcDbEntity
  8
0
100
AcDbBlockBegin
  2
*D19
 70
     1
 10
0.0
 20
0.0
 30
0.0
  3
*D19
  1

  0
LINE
  5
7A07
330
7A04
100
AcDbEntity
  8
DIM
 62
     0
370
    -2
100
AcDbLine
 10
348.4796046403658
 20
1399.827840363322
 30
0.0
 11
348.4796046403658
 21
1302.632150491022
 31
0.0
  0
LINE
  5
7A08
330
7A04
100
AcDbEntity
  8
DIM
 62
     0
370
    -2
100
AcDbLine
 10
748.4523826112093
 20
1395.161269643156
 30
0.0
 11
748.4523826112093
 21
1302.632150491022
 31
0.0
  0
LINE
  5
7A09
330
7A04
100
AcDbEntity
  8
DIM
 62
     0
370
    -2
100
AcDbLine
 10
356.4796046403658
 20
1302.632150491022
 30
0.0
 11
740.4523826112093
 21
1302.632150491022
 31
0.0
  0
INSERT
  5
7A0A
330
7A04
100
AcDbEntity
  8
DIM
 62
     0
370
    -2
100
AcDbBlockReference
  2
_DOT
 10
348.4796046403658
 20
1302.632150491022
 30
0.0
 41
8.0
 42
8.0
 43
8.0
 50
180.0
  0
INSERT
  5
7A0B
330
7A04
100
AcDbEntity
  8
DIM
 62
     0
370
    -2
100
AcDbBlockReference
  2
_DOT
 10
748.4523826112093
 20
1302.632150491022
 30
0.0
 41
8.0
 42
8.0
 43
8.0
  0
MTEXT
  5
7A0C
330
7A04
100
AcDbEntity
  8
DIM
 62
     0
100
AcDbMText
 10
548.4659936257875
 20
1328.632150491022
 30
0.0
 40
20.0
 41
0.0
 46
0.0
 71
     5
 72
     1
  1
\A1;400
  7
ＭＳ ゴシック
 73
     1
 44
1.0
  0
POINT
  5
7A0D
330
7A04
100
AcDbEntity
  8
Defpoints
 62
     0
100
AcDbPoint
 10
348.4796046403658
 20
1404.827840363322
 30
0.0
  0
POINT
  5
7A0E
330
7A04
100
AcDbEntity
  8
Defpoints
 62
     0
100
AcDbPoint
 10
748.4523826112093
 20
1400.161269643156
 30
0.0
  0
POINT
  5
7A0F
330
7A04
100
AcDbEntity
  8
Defpoints
 62
     0
100
AcDbPoint
 10
748.4523826112093
 20
1302.632150491022
 30
0.0
  0
ENDBLK
  5
7A06
330
7A04
100
AcDbEntity
  8
0
100
AcDbBlockEnd
  0
BLOCK
  5
7A12
330
7A11
100
AcDbEntity
  8
0
100
AcDbBlockBegin
  2
*D20
 70
     1
 10
0.0
 20
0.0
 30
0.0
  3
*D20
  1

  0
LINE
  5
7A14
330
7A11
100
AcDbEntity
  8
DIM
 62
     0
370
    -2
100
AcDbLine
 10
354.413601142174
 20
1712.21079711631
 30
0.0
 11
321.2929866659986
 21
1712.21079711631
 31
0.0
  0
LINE
  5
7A15
330
7A11
100
AcDbEntity
  8
DIM
 62
     0
370
    -2
100
AcDbLine
 10
354.413601142174
 20
1392.21079711631
 30
0.0
 11
321.2929866659986
 21
1392.21079711631
 31
0.0
  0
LINE
  5
7A16
330
7A11
100
AcDbEntity
  8
DIM
 62
     0
370
    -2
100
AcDbLine
 10
321.2929866659986
 20
1704.21079711631
 30
0.0
 11
321.2929866659986
 21
1400.21079711631
 31
0.0
  0
INSERT
  5
7A17
330
7A11
100
AcDbEntity
  8
DIM
 62
     0
370
    -2
100
AcDbBlockReference
  2
_DOT
 10
321.2929866659986
 20
1712.21079711631
 30
0.0
 41
8.0
 42
8.0
 43
8.0
 50
90.0
  0
INSERT
  5
7A18
330
7A11
100
AcDbEntity
  8
DIM
 62
     0
370
    -2
100
AcDbBlockReference
  2
_DOT
 10
321.2929866659986
 20
1392.21079711631
 30
0.0
 41
8.0
 42
8.0
 43
8.0
 50
270.0
  0
MTEXT
  5
7A19
330
7A11
100
AcDbEntity
  8
DIM
 62
     0
100
AcDbMText
 10
295.289235259221
 20
1552.21079711631
 30
0.0
 40
20.0
 41
0.0
 46
0.0
 71
     5
 72
     1
  1
\A1;320
  7
ＭＳ ゴシック
 11
0.0
 21
1.0
 31
0.0
 73
     1
 44
1.0
  0
POINT
  5
7A1A
330
7A11
100
AcDbEntity
  8
Defpoints
 62
     0
100
AcDbPoint
 10
359.413601142174
 20
1712.21079711631
 30
0.0
  0
POINT
  5
7A1B
330
7A11
100
AcDbEntity
  8
Defpoints
 62
     0
100
AcDbPoint
 10
359.413601142174
 20
1392.21079711631
 30
0.0
  0
POINT
  5
7A1C
330
7A11
100
AcDbEntity
  8
Defpoints
 62
     0
100
AcDbPoint
 10
321.2929866659986
 20
1392.21079711631
 30
0.0
  0
ENDBLK
  5
7A13
330
7A11
100
AcDbEntity
  8
0
100
AcDbBlockEnd
  0
BLOCK
  5
7A21
330
7A20
100
AcDbEntity
  8
0
100
AcDbBlockBegin
  2
*D21
 70
     1
 10
0.0
 20
0.0
 30
0.0
  3
*D21
  1

  0
LINE
  5
7A23
330
7A20
100
AcDbEntity
  8
DIM
 62
     0
370
    -2
100
AcDbLine
 10
359.8378468378184
 20
1716.859363901024
 30
0.0
 11
294.6852567661471
 21
1716.859363901024
 31
0.0
  0
LINE
  5
7A24
330
7A20
100
AcDbEntity
  8
DIM
 62
     0
370
    -2
100
AcDbLine
 10
359.8378468378184
 20
1396.859363900377
 30
0.0
 11
294.6852567661471
 21
1396.859363900377
 31
0.0
  0
LINE
  5
7A25
330
7A20
100
AcDbEntity
  8
DIM
 62
     0
370
    -2
100
AcDbLine
 10
294.6852567661471
 20
1708.859363901024
 30
0.0
 11
294.6852567661471
 21
1404.859363900377
 31
0.0
  0
INSERT
  5
7A26
330
7A20
100
AcDbEntity
  8
DIM
 62
     0
370
    -2
100
AcDbBlockReference
  2
_DOT
 10
294.6852567661471
 20
1716.859363901024
 30
0.0
 41
8.0
 42
8.0
 43
8.0
 50
90.0
  0
INSERT
  5
7A27
330
7A20
100
AcDbEntity
  8
DIM
 62
     0
370
    -2
100
AcDbBlockReference
  2
_DOT
 10
294.6852567661471
 20
1396.859363900377
 30
0.0
 41
8.0
 42
8.0
 43
8.0
 50
270.0
  0
MTEXT
  5
7A28
330
7A20
100
AcDbEntity
  8
DIM
 62
     0
100
AcDbMText
 10
268.6815053593695
 20
1556.859363900701
 30
0.0
 40
20.0
 41
0.0
 46
0.0
 71
     5
 72
     1
  1
\A1;320
  7
ＭＳ ゴシック
 11
0.0
 21
1.0
 31
0.0
 73
     1
 44
1.0
  0
POINT
  5
7A29
330
7A20
100
AcDbEntity
  8
Defpoints
 62
     0
100
AcDbPoint
 10
364.8378468378184
 20
1716.859363901024
 30
0.0
  0
POINT
  5
7A2A
330
7A20
100
AcDbEntity
  8
Defpoints
 62
     0
100
AcDbPoint
 10
364.8378468378184
 20
1396.859363900377
 30
0.0
  0
POINT
  5
7A2B
330
7A20
100
AcDbEntity
  8
Defpoints
 62
     0
100
AcDbPoint
 10
294.6852567661471
 20
1396.859363900377
 30
0.0
  0
ENDBLK
  5
7A22
330
7A20
100
AcDbEntity
  8
0
100
AcDbBlockEnd
  0
BLOCK
  5
7A30
330
7A2F
100
AcDbEntity
  8
0
100
AcDbBlockBegin
  2
*D22
 70
     1
 10
0.0
 20
0.0
 30
0.0
  3
*D22
  1

  0
LINE
  5
7A32
330
7A2F
100
AcDbEntity
  8
DIM
 62
     0
370
    -2
100
AcDbLine
 10
262.7618639573024
 20
1806.579229007163
 30
0.0
 11
262.7618639573024
 21
1873.315793094019
 31
0.0
  0
LINE
  5
7A33
330
7A2F
100
AcDbEntity
  8
DIM
 62
     0
370
    -2
100
AcDbLine
 10
662.717163250749
 20
1806.579229007163
 30
0.0
 11
662.717163250749
 21
1873.315793094019
 31
0.0
  0
LINE
  5
7A34
330
7A2F
100
AcDbEntity
  8
DIM
 62
     0
370
    -2
100
AcDbLine
 10
270.7618639573024
 20
1873.315793094019
 30
0.0
 11
654.717163250749
 21
1873.315793094019
 31
0.0
  0
INSERT
  5
7A35
330
7A2F
100
AcDbEntity
  8
DIM
 62
     0
370
    -2
100
AcDbBlockReference
  2
_DOT
 10
262.7618639573024
 20
1873.315793094019
 30
0.0
 41
8.0
 42
8.0
 43
8.0
 50
180.0
  0
INSERT
  5
7A36
330
7A2F
100
AcDbEntity
  8
DIM
 62
     0
370
    -2
100
AcDbBlockReference
  2
_DOT
 10
662.717163250749
 20
1873.315793094019
 30
0.0
 41
8.0
 42
8.0
 43
8.0
  0
MTEXT
  5
7A37
330
7A2F
100
AcDbEntity
  8
DIM
 62
     0
100
AcDbMText
 10
462.7395136040257
 20
1899.315793094019
 30
0.0
 40
20.0
 41
0.0
 46
0.0
 71
     5
 72
     1
  1
\A1;400
  7
ＭＳ ゴシック
 73
     1
 44
1.0
  0
POINT
  5
7A38
330
7A2F
100
AcDbEntity
  8
Defpoints
 62
     0
100
AcDbPoint
 10
262.7618639573024
 20
1786.579229007163
 30
0.0
  0
POINT
  5
7A39
330
7A2F
100
AcDbEntity
  8
Defpoints
 62
     0
100
AcDbPoint
 10
662.717163250749
 20
1786.579229007163
 30
0.0
  0
POINT
  5
7A3A
330
7A2F
100
AcDbEntity
  8
Defpoints
 62
     0
100
AcDbPoint
 10
662.717163250749
 20
1873.315793094019
 30
0.0
  0
ENDBLK
  5
7A31
330
7A2F
100
AcDbEntity
  8
0
100
AcDbBlockEnd
  0
BLOCK
  5
7A42
330
7A41
100
AcDbEntity
  8
0
100
AcDbBlockBegin
  2
*D23
 70
     1
 10
0.0
 20
0.0
 30
0.0
  3
*D23
  1

  0
LINE
  5
7A44
330
7A41
100
AcDbEntity
  8
DIM
 62
     0
370
    -2
100
AcDbLine
 10
682.1259261702173
 20
1789.254698182675
 30
0.0
 11
731.0674629888324
 21
1789.254698182675
 31
0.0
  0
LINE
  5
7A45
330
7A41
100
AcDbEntity
  8
DIM
 62
     0
370
    -2
100
AcDbLine
 10
682.1259261702173
 20
1469.254698182027
 30
0.0
 11
731.0674629888324
 21
1469.254698182027
 31
0.0
  0
LINE
  5
7A46
330
7A41
100
AcDbEntity
  8
DIM
 62
     0
370
    -2
100
AcDbLine
 10
731.0674629888324
 20
1781.254698182675
 30
0.0
 11
731.0674629888324
 21
1477.254698182027
 31
0.0
  0
INSERT
  5
7A47
330
7A41
100
AcDbEntity
  8
DIM
 62
     0
370
    -2
100
AcDbBlockReference
  2
_DOT
 10
731.0674629888324
 20
1789.254698182675
 30
0.0
 41
8.0
 42
8.0
 43
8.0
 50
90.0
  0
INSERT
  5
7A48
330
7A41
100
AcDbEntity
  8
DIM
 62
     0
370
    -2
100
AcDbBlockReference
  2
_DOT
 10
731.0674629888324
 20
1469.254698182027
 30
0.0
 41
8.0
 42
8.0
 43
8.0
 50
270.0
  0
MTEXT
  5
7A49
330
7A41
100
AcDbEntity
  8
DIM
 62
     0
100
AcDbMText
 10
705.0637115820548
 20
1629.254698182351
 30
0.0
 40
20.0
 41
0.0
 46
0.0
 71
     5
 72
     1
  1
\A1;320
  7
ＭＳ ゴシック
 11
0.0
 21
1.0
 31
0.0
 73
     1
 44
1.0
  0
POINT
  5
7A4A
330
7A41
100
AcDbEntity
  8
Defpoints
 62
     0
100
AcDbPoint
 10
662.1259261702173
 20
1789.254698182675
 30
0.0
  0
POINT
  5
7A4B
330
7A41
100
AcDbEntity
  8
Defpoints
 62
     0
100
AcDbPoint
 10
662.1259261702173
 20
1469.254698182027
 30
0.0
  0
POINT
  5
7A4C
330
7A41
100
AcDbEntity
  8
Defpoints
 62
     0
100
AcDbPoint
 10
731.0674629888324
 20
1469.254698182027
 30
0.0
  0
ENDBLK
  5
7A43
330
7A41
100
AcDbEntity
  8
0
100
AcDbBlockEnd
  0
BLOCK
  5
7A51
330
7A50
100
AcDbEntity
  8
0
100
AcDbBlockBegin
  2
*D24
 70
     1
 10
0.0
 20
0.0
 30
0.0
  3
*D24
  1

  0
LINE
  5
7A53
330
7A50
100
AcDbEntity
  8
DIM
 62
     0
370
    -2
100
AcDbLine
 10
339.8355266530409
 20
1716.859363901025
 30
0.0
 11
284.0047588719099
 21
1716.859363901025
 31
0.0
  0
LINE
  5
7A54
330
7A50
100
AcDbEntity
  8
DIM
 62
     0
370
    -2
100
AcDbLine
 10
343.9467857211705
 20
1634.606258033891
 30
0.0
 11
284.0047588719099
 21
1634.606258033891
 31
0.0
  0
LINE
  5
7A55
330
7A50
100
AcDbEntity
  8
DIM
 62
     0
370
    -2
100
AcDbLine
 10
284.0047588719099
 20
1708.859363901025
 30
0.0
 11
284.0047588719099
 21
1642.606258033891
 31
0.0
  0
INSERT
  5
7A56
330
7A50
100
AcDbEntity
  8
DIM
 62
     0
370
    -2
100
AcDbBlockReference
  2
_DOT
 10
284.0047588719099
 20
1716.859363901025
 30
0.0
 41
8.0
 42
8.0
 43
8.0
 50
90.0
  0
INSERT
  5
7A57
330
7A50
100
AcDbEntity
  8
DIM
 62
     0
370
    -2
100
AcDbBlockReference
  2
_DOT
 10
284.0047588719099
 20
1634.606258033891
 30
0.0
 41
8.0
 42
8.0
 43
8.0
 50
270.0
  0
MTEXT
  5
7A58
330
7A50
100
AcDbEntity
  8
DIM
 62
     0
100
AcDbMText
 10
258.0010074651323
 20
1675.732810967458
 30
0.0
 40
20.0
 41
0.0
 46
0.0
 71
     5
 72
     1
  1
\A1;82
  7
ＭＳ ゴシック
 11
0.0
 21
1.0
 31
0.0
 73
     1
 44
1.0
  0
POINT
  5
7A59
330
7A50
100
AcDbEntity
  8
Defpoints
 62
     0
100
AcDbPoint
 10
344.8355266530409
 20
1716.859363901025
 30
0.0
  0
POINT
  5
7A5A
330
7A50
100
AcDbEntity
  8
Defpoints
 62
     0
100
AcDbPoint
 10
348.9467857211705
 20
1634.606258033891
 30
0.0
  0
POINT
  5
7A5B
330
7A50
100
AcDbEntity
  8
Defpoints
 62
     0
100
AcDbPoint
 10
284.0047588719099
 20
1634.606258033891
 30
0.0
  0
ENDBLK
  5
7A52
330
7A50
100
AcDbEntity
  8
0
100
AcDbBlockEnd
  0
BLOCK
  5
7A60
330
7A5F
100
AcDbEntity
  8
0
100
AcDbBlockBegin
  2
*D25
 70
     1
 10
0.0
 20
0.0
 30
0.0
  3
*D25
  1

  0
LINE
  5
7A62
330
7A5F
100
AcDbEntity
  8
DIM
 62
     0
370
    -2
100
AcDbLine
 10
338.9467857211705
 20
1634.606258033891
 30
0.0
 11
284.0047588719099
 21
1634.606258033891
 31
0.0
  0
LINE
  5
7A63
330
7A5F
100
AcDbEntity
  8
DIM
 62
     0
370
    -2
100
AcDbLine
 10
338.9467857211705
 20
1399.606258033891
 30
0.0
 11
284.0047588719099
 21
1399.606258033891
 31
0.0
  0
LINE
  5
7A64
330
7A5F
100
AcDbEntity
  8
DIM
 62
     0
370
    -2
100
AcDbLine
 10
284.0047588719099
 20
1626.606258033891
 30
0.0
 11
284.0047588719099
 21
1407.606258033891
 31
0.0
  0
INSERT
  5
7A65
330
7A5F
100
AcDbEntity
  8
DIM
 62
     0
370
    -2
100
AcDbBlockReference
  2
_DOT
 10
284.0047588719099
 20
1634.606258033891
 30
0.0
 41
8.0
 42
8.0
 43
8.0
 50
90.0
  0
INSERT
  5
7A66
330
7A5F
100
AcDbEntity
  8
DIM
 62
     0
370
    -2
100
AcDbBlockReference
  2
_DOT
 10
284.0047588719099
 20
1399.606258033891
 30
0.0
 41
8.0
 42
8.0
 43
8.0
 50
270.0
  0
MTEXT
  5
7A67
330
7A5F
100
AcDbEntity
  8
DIM
 62
     0
100
AcDbMText
 10
258.0010074651323
 20
1517.106258033891
 30
0.0
 40
20.0
 41
0.0
 46
0.0
 71
     5
 72
     1
  1
\A1;235
  7
ＭＳ ゴシック
 11
0.0
 21
1.0
 31
0.0
 73
     1
 44
1.0
  0
POINT
  5
7A68
330
7A5F
100
AcDbEntity
  8
Defpoints
 62
     0
100
AcDbPoint
 10
343.9467857211705
 20
1634.606258033891
 30
0.0
  0
POINT
  5
7A69
330
7A5F
100
AcDbEntity
  8
Defpoints
 62
     0
100
AcDbPoint
 10
343.9467857211705
 20
1399.606258033891
 30
0.0
  0
POINT
  5
7A6A
330
7A5F
100
AcDbEntity
  8
Defpoints
 62
     0
100
AcDbPoint
 10
284.0047588719099
 20
1399.606258033891
 30
0.0
  0
ENDBLK
  5
7A61
330
7A5F
100
AcDbEntity
  8
0
100
AcDbBlockEnd
  0
BLOCK
  5
7A72
330
7A71
100
AcDbEntity
  8
0
100
AcDbBlockBegin
  2
*D26
 70
     1
 10
0.0
 20
0.0
 30
0.0
  3
*D26
  1

  0
LINE
  5
7A74
330
7A71
100
AcDbEntity
  8
DIM
 62
     0
370
    -2
100
AcDbLine
 10
249.2334193511359
 20
1789.254698182675
 30
0.0
 11
190.1849182477173
 21
1789.254698182675
 31
0.0
  0
LINE
  5
7A75
330
7A71
100
AcDbEntity
  8
DIM
 62
     0
370
    -2
100
AcDbLine
 10
241.3044479574999
 20
1704.625321411728
 30
0.0
 11
190.1849182477173
 21
1704.625321411728
 31
0.0
  0
LINE
  5
7A76
330
7A71
100
AcDbEntity
  8
DIM
 62
     0
370
    -2
100
AcDbLine
 10
190.1849182477173
 20
1781.254698182675
 30
0.0
 11
190.1849182477173
 21
1712.625321411728
 31
0.0
  0
INSERT
  5
7A77
330
7A71
100
AcDbEntity
  8
DIM
 62
     0
370
    -2
100
AcDbBlockReference
  2
_DOT
 10
190.1849182477173
 20
1789.254698182675
 30
0.0
 41
8.0
 42
8.0
 43
8.0
 50
90.0
  0
INSERT
  5
7A78
330
7A71
100
AcDbEntity
  8
DIM
 62
     0
370
    -2
100
AcDbBlockReference
  2
_DOT
 10
190.1849182477173
 20
1704.625321411728
 30
0.0
 41
8.0
 42
8.0
 43
8.0
 50
270.0
  0
MTEXT
  5
7A79
330
7A71
100
AcDbEntity
  8
DIM
 62
     0
100
AcDbMText
 10
164.1811668409397
 20
1746.940009797202
 30
0.0
 40
20.0
 41
0.0
 46
0.0
 71
     5
 72
     1
  1
\A1;85
  7
ＭＳ ゴシック
 11
0.0
 21
1.0
 31
0.0
 73
     1
 44
1.0
  0
POINT
  5
7A7A
330
7A71
100
AcDbEntity
  8
Defpoints
 62
     0
100
AcDbPoint
 10
269.2334193511359
 20
1789.254698182675
 30
0.0
  0
POINT
  5
7A7B
330
7A71
100
AcDbEntity
  8
Defpoints
 62
     0
100
AcDbPoint
 10
261.3044479574999
 20
1704.625321411728
 30
0.0
  0
POINT
  5
7A7C
330
7A71
100
AcDbEntity
  8
Defpoints
 62
     0
100
AcDbPoint
 10
190.1849182477173
 20
1704.625321411728
 30
0.0
  0
ENDBLK
  5
7A73
330
7A71
100
AcDbEntity
  8
0
100
AcDbBlockEnd
  0
BLOCK
  5
7A81
330
7A80
100
AcDbEntity
  8
0
100
AcDbBlockBegin
  2
*D27
 70
     1
 10
0.0
 20
0.0
 30
0.0
  3
*D27
  1

  0
LINE
  5
7A83
330
7A80
100
AcDbEntity
  8
DIM
 62
     0
370
    -2
100
AcDbLine
 10
318.4522256690209
 20
1632.229987130078
 30
0.0
 11
267.3326959592384
 21
1632.229987130078
 31
0.0
  0
LINE
  5
7A84
330
7A80
100
AcDbEntity
  8
DIM
 62
     0
370
    -2
100
AcDbLine
 10
318.4522256690209
 20
1397.229987130078
 30
0.0
 11
267.3326959592384
 21
1397.229987130078
 31
0.0
  0
LINE
  5
7A85
330
7A80
100
AcDbEntity
  8
DIM
 62
     0
370
    -2
100
AcDbLine
 10
267.3326959592384
 20
1624.229987130078
 30
0.0
 11
267.3326959592384
 21
1405.229987130078
 31
0.0
  0
INSERT
  5
7A86
330
7A80
100
AcDbEntity
  8
DIM
 62
     0
370
    -2
100
AcDbBlockReference
  2
_DOT
 10
267.3326959592384
 20
1632.229987130078
 30
0.0
 41
8.0
 42
8.0
 43
8.0
 50
90.0
  0
INSERT
  5
7A87
330
7A80
100
AcDbEntity
  8
DIM
 62
     0
370
    -2
100
AcDbBlockReference
  2
_DOT
 10
267.3326959592384
 20
1397.229987130078
 30
0.0
 41
8.0
 42
8.0
 43
8.0
 50
270.0
  0
MTEXT
  5
7A88
330
7A80
100
AcDbEntity
  8
DIM
 62
     0
100
AcDbMText
 10
241.3289445524608
 20
1514.729987130078
 30
0.0
 40
20.0
 41
0.0
 46
0.0
 71
     5
 72
     1
  1
\A1;235
  7
ＭＳ ゴシック
 11
0.0
 21
1.0
 31
0.0
 73
     1
 44
1.0
  0
POINT
  5
7A89
330
7A80
100
AcDbEntity
  8
Defpoints
 62
     0
100
AcDbPoint
 10
338.4522256690209
 20
1632.229987130078
 30
0.0
  0
POINT
  5
7A8A
330
7A80
100
AcDbEntity
  8
Defpoints
 62
     0
100
AcDbPoint
 10
338.4522256690209
 20
1397.229987130078
 30
0.0
  0
POINT
  5
7A8B
330
7A80
100
AcDbEntity
  8
Defpoints
 62
     0
100
AcDbPoint
 10
267.3326959592384
 20
1397.229987130078
 30
0.0
  0
ENDBLK
  5
7A82
330
7A80
100
AcDbEntity
  8
0
100
AcDbBlockEnd
  0
BLOCK
  5
7A90
330
7A8F
100
AcDbEntity
  8
0
100
AcDbBlockBegin
  2
*D28
 70
     1
 10
0.0
 20
0.0
 30
0.0
  3
*D28
  1

  0
LINE
  5
7A92
330
7A8F
100
AcDbEntity
  8
DIM
 62
     0
370
    -2
100
AcDbLine
 10
1401.06743600232
 20
951.0182170945816
 30
0.0
 11
1401.06743600232
 21
982.2786821473903
 31
0.0
  0
LINE
  5
7A93
330
7A8F
100
AcDbEntity
  8
DIM
 62
     0
370
    -2
100
AcDbLine
 10
1361.08736125664
 20
952.2806050420438
 30
0.0
 11
1361.08736125664
 21
982.2786821473903
 31
0.0
  0
LINE
  5
7A94
330
7A8F
100
AcDbEntity
  8
DIM
 62
     0
370
    -2
100
AcDbLine
 10
1393.06743600232
 20
982.2786821473903
 30
0.0
 11
1369.08736125664
 21
982.2786821473903
 31
0.0
  0
INSERT
  5
7A95
330
7A8F
100
AcDbEntity
  8
DIM
 62
     0
370
    -2
100
AcDbBlockReference
  2
_DOT
 10
1401.06743600232
 20
982.2786821473903
 30
0.0
 41
8.0
 42
8.0
 43
8.0
  0
INSERT
  5
7A96
330
7A8F
100
AcDbEntity
  8
DIM
 62
     0
370
    -2
100
AcDbBlockReference
  2
_DOT
 10
1361.08736125664
 20
982.2786821473903
 30
0.0
 41
8.0
 42
8.0
 43
8.0
 50
180.0
  0
MTEXT
  5
7A97
330
7A8F
100
AcDbEntity
  8
DIM
 62
     0
100
AcDbMText
 10
1381.07739862948
 20
1008.27868214739
 30
0.0
 40
20.0
 41
0.0
 46
0.0
 71
     5
 72
     1
  1
\A1;40
  7
ＭＳ ゴシック
 73
     1
 44
1.0
  0
POINT
  5
7A98
330
7A8F
100
AcDbEntity
  8
Defpoints
 62
     0
100
AcDbPoint
 10
1401.06743600232
 20
931.0182170945816
 30
0.0
  0
POINT
  5
7A99
330
7A8F
100
AcDbEntity
  8
Defpoints
 62
     0
100
AcDbPoint
 10
1361.08736125664
 20
932.2806050420438
 30
0.0
  0
POINT
  5
7A9A
330
7A8F
100
AcDbEntity
  8
Defpoints
 62
     0
100
AcDbPoint
 10
1361.08736125664
 20
982.2786821473903
 30
0.0
  0
ENDBLK
  5
7A91
330
7A8F
100
AcDbEntity
  8
0
100
AcDbBlockEnd
  0
BLOCK
  5
7AAC
330
7AAB
100
AcDbEntity
  8
0
100
AcDbBlockBegin
  2
*D29
 70
     1
 10
0.0
 20
0.0
 30
0.0
  3
*D29
  1

  0
LINE
  5
7AAE
330
7AAB
100
AcDbEntity
  8
DIM
 62
     0
370
    -2
100
AcDbLine
 10
1068.084429244306
 20
934.0162612831132
 30
0.0
 11
1008.711944125044
 21
934.0162612831132
 31
0.0
  0
LINE
  5
7AAF
330
7AAB
100
AcDbEntity
  8
DIM
 62
     0
370
    -2
100
AcDbLine
 10
1068.084429244306
 20
814.0162612831132
 30
0.0
 11
1008.711944125044
 21
814.0162612831132
 31
0.0
  0
LINE
  5
7AB0
330
7AAB
100
AcDbEntity
  8
DIM
 62
     0
370
    -2
100
AcDbLine
 10
1008.711944125044
 20
926.0162612831132
 30
0.0
 11
1008.711944125044
 21
822.0162612831132
 31
0.0
  0
INSERT
  5
7AB1
330
7AAB
100
AcDbEntity
  8
DIM
 62
     0
370
    -2
100
AcDbBlockReference
  2
_DOT
 10
1008.711944125044
 20
934.0162612831132
 30
0.0
 41
8.0
 42
8.0
 43
8.0
 50
90.0
  0
INSERT
  5
7AB2
330
7AAB
100
AcDbEntity
  8
DIM
 62
     0
370
    -2
100
AcDbBlockReference
  2
_DOT
 10
1008.711944125044
 20
814.0162612831132
 30
0.0
 41
8.0
 42
8.0
 43
8.0
 50
270.0
  0
MTEXT
  5
7AB3
330
7AAB
100
AcDbEntity
  8
DIM
 62
     0
100
AcDbMText
 10
982.7081927182668
 20
874.0162612831132
 30
0.0
 40
20.0
 41
0.0
 46
0.0
 71
     5
 72
     1
  1
\A1;120
  7
ＭＳ ゴシック
 11
0.0
 21
1.0
 31
0.0
 73
     1
 44
1.0
  0
POINT
  5
7AB4
330
7AAB
100
AcDbEntity
  8
Defpoints
 62
     0
100
AcDbPoint
 10
1088.084429244306
 20
934.0162612831132
 30
0.0
  0
POINT
  5
7AB5
330
7AAB
100
AcDbEntity
  8
Defpoints
 62
     0
100
AcDbPoint
 10
1088.084429244306
 20
814.0162612831132
 30
0.0
  0
POINT
  5
7AB6
330
7AAB
100
AcDbEntity
  8
Defpoints
 62
     0
100
AcDbPoint
 10
1008.711944125044
 20
814.0162612831132
 30
0.0
  0
ENDBLK
  5
7AAD
330
7AAB
100
AcDbEntity
  8
0
100
AcDbBlockEnd
  0
BLOCK
  5
7AB9
330
7AB8
100
AcDbEntity
  8
0
100
AcDbBlockBegin
  2
*D30
 70
     1
 10
0.0
 20
0.0
 30
0.0
  3
*D30
  1

  0
LINE
  5
7ABB
330
7AB8
100
AcDbEntity
  8
DIM
 62
     0
370
    -2
100
AcDbLine
 10
248.4036638740952
 20
934.0206420259917
 30
0.0
 11
199.9221728589172
 21
934.0206420259917
 31
0.0
  0
LINE
  5
7ABC
330
7AB8
100
AcDbEntity
  8
DIM
 62
     0
370
    -2
100
AcDbLine
 10
326.707069869947
 20
889.0206420259915
 30
0.0
 11
199.9221728589172
 21
889.0206420259915
 31
0.0
  0
LINE
  5
7ABD
330
7AB8
100
AcDbEntity
  8
DIM
 62
     0
370
    -2
100
AcDbLine
 10
199.9221728589172
 20
926.0206420259917
 30
0.0
 11
199.9221728589172
 21
897.0206420259915
 31
0.0
  0
INSERT
  5
7ABE
330
7AB8
100
AcDbEntity
  8
DIM
 62
     0
370
    -2
100
AcDbBlockReference
  2
_DOT
 10
199.9221728589172
 20
934.0206420259917
 30
0.0
 41
8.0
 42
8.0
 43
8.0
 50
90.0
  0
INSERT
  5
7ABF
330
7AB8
100
AcDbEntity
  8
DIM
 62
     0
370
    -2
100
AcDbBlockReference
  2
_DOT
 10
199.9221728589172
 20
889.0206420259915
 30
0.0
 41
8.0
 42
8.0
 43
8.0
 50
270.0
  0
MTEXT
  5
7AC0
330
7AB8
100
AcDbEntity
  8
DIM
 62
     0
100
AcDbMText
 10
173.9184214521397
 20
911.5206420259915
 30
0.0
 40
20.0
 41
0.0
 46
0.0
 71
     5
 72
     1
  1
\A1;45
  7
ＭＳ ゴシック
 11
0.0
 21
1.0
 31
0.0
 73
     1
 44
1.0
  0
POINT
  5
7AC1
330
7AB8
100
AcDbEntity
  8
Defpoints
 62
     0
100
AcDbPoint
 10
268.4036638740952
 20
934.0206420259917
 30
0.0
  0
POINT
  5
7AC2
330
7AB8
100
AcDbEntity
  8
Defpoints
 62
     0
100
AcDbPoint
 10
346.707069869947
 20
889.0206420259915
 30
0.0
  0
POINT
  5
7AC3
330
7AB8
100
AcDbEntity
  8
Defpoints
 62
     0
100
AcDbPoint
 10
199.9221728589172
 20
889.0206420259915
 30
0.0
  0
ENDBLK
  5
7ABA
330
7AB8
100
AcDbEntity
  8
0
100
AcDbBlockEnd
  0
BLOCK
  5
7ACB
330
7ACA
100
AcDbEntity
  8
0
100
AcDbBlockBegin
  2
*D31
 70
     1
 10
0.0
 20
0.0
 30
0.0
  3
*D31
  1

  0
LINE
  5
7ACD
330
7ACA
100
AcDbEntity
  8
DIM
 62
     0
370
    -2
100
AcDbLine
 10
1401.06743600232
 20
799.5593809771362
 30
0.0
 11
1401.06743600232
 21
739.2460498166897
 31
0.0
  0
LINE
  5
7ACE
330
7ACA
100
AcDbEntity
  8
DIM
 62
     0
370
    -2
100
AcDbLine
 10
1241.06743600232
 20
799.5593809771365
 30
0.0
 11
1241.06743600232
 21
739.2460498166897
 31
0.0
  0
LINE
  5
7ACF
330
7ACA
100
AcDbEntity
  8
DIM
 62
     0
370
    -2
100
AcDbLine
 10
1393.06743600232
 20
739.2460498166897
 30
0.0
 11
1249.06743600232
 21
739.2460498166897
 31
0.0
  0
INSERT
  5
7AD0
330
7ACA
100
AcDbEntity
  8
DIM
 62
     0
370
    -2
100
AcDbBlockReference
  2
_DOT
 10
1401.06743600232
 20
739.2460498166897
 30
0.0
 41
8.0
 42
8.0
 43
8.0
  0
INSERT
  5
7AD1
330
7ACA
100
AcDbEntity
  8
DIM
 62
     0
370
    -2
100
AcDbBlockReference
  2
_DOT
 10
1241.06743600232
 20
739.2460498166897
 30
0.0
 41
8.0
 42
8.0
 43
8.0
 50
180.0
  0
MTEXT
  5
7AD2
330
7ACA
100
AcDbEntity
  8
DIM
 62
     0
100
AcDbMText
 10
1321.06743600232
 20
765.2498012234672
 30
0.0
 40
20.0
 41
0.0
 46
0.0
 71
     5
 72
     1
  1
\A1;160
  7
ＭＳ ゴシック
 73
     1
 44
1.0
  0
POINT
  5
7AD3
330
7ACA
100
AcDbEntity
  8
Defpoints
 62
     0
100
AcDbPoint
 10
1401.06743600232
 20
819.5593809771362
 30
0.0
  0
POINT
  5
7AD4
330
7ACA
100
AcDbEntity
  8
Defpoints
 62
     0
100
AcDbPoint
 10
1241.06743600232
 20
819.5593809771365
 30
0.0
  0
POINT
  5
7AD5
330
7ACA
100
AcDbEntity
  8
Defpoints
 62
     0
100
AcDbPoint
 10
1241.06743600232
 20
739.2460498166897
 30
0.0
  0
ENDBLK
  5
7ACC
330
7ACA
100
AcDbEntity
  8
0
100
AcDbBlockEnd
  0
BLOCK
  5
7ADA
330
7AD9
100
AcDbEntity
  8
0
100
AcDbBlockBegin
  2
*D32
 70
     1
 10
0.0
 20
0.0
 30
0.0
  3
*D32
  1

  0
LINE
  5
7ADC
330
7AD9
100
AcDbEntity
  8
DIM
 62
     0
370
    -2
100
AcDbLine
 10
1222.031829986425
 20
843.823305366415
 30
0.0
 11
1242.029040774947
 21
843.823305366415
 31
0.0
  0
LINE
  5
7ADD
330
7AD9
100
AcDbEntity
  8
DIM
 62
     0
370
    -2
100
AcDbLine
 10
1222.029040774947
 20
934.0208261483081
 30
0.0
 11
1242.029040774947
 21
934.0208261483081
 31
0.0
  0
LINE
  5
7ADE
330
7AD9
100
AcDbEntity
  8
DIM
 62
     0
370
    -2
100
AcDbLine
 10
1242.029040774947
 20
934.0208261483081
 30
0.0
 11
1242.029040774947
 21
1078.637682469428
 31
0.0
  0
LINE
  5
7ADF
330
7AD9
100
AcDbEntity
  8
DIM
 62
     0
370
    -2
100
AcDbLine
 10
1242.029040774947
 20
851.823305366415
 30
0.0
 11
1242.029040774947
 21
926.0208261483081
 31
0.0
  0
LINE
  5
7AE0
330
7AD9
100
AcDbEntity
  8
DIM
 62
     0
370
    -2
100
AcDbLine
 10
1242.029040774947
 20
926.0208261483081
 30
0.0
 11
1242.029040774947
 21
918.0208261483081
 31
0.0
  0
INSERT
  5
7AE1
330
7AD9
100
AcDbEntity
  8
DIM
 62
     0
370
    -2
100
AcDbBlockReference
  2
_DOT
 10
1242.029040774947
 20
843.823305366415
 30
0.0
 41
8.0
 42
8.0
 43
8.0
 50
270.0
  0
INSERT
  5
7AE2
330
7AD9
100
AcDbEntity
  8
DIM
 62
     0
370
    -2
100
AcDbBlockReference
  2
_DOT
 10
1242.029040774947
 20
934.0208261483081
 30
0.0
 41
8.0
 42
8.0
 43
8.0
 50
90.0
  0
MTEXT
  5
7AE3
330
7AD9
100
AcDbEntity
  8
DIM
 62
     0
100
AcDbMText
 10
1214.354662883238
 20
1014.329254308868
 30
0.0
 40
20.0
 41
0.0
 46
0.0
 71
     5
 72
     1
  1
\A1;90(深さ)
  7
ＭＳ ゴシック
 11
0.0
 21
1.0
 31
0.0
 73
     1
 44
1.0
  0
POINT
  5
7AE4
330
7AD9
100
AcDbEntity
  8
Defpoints
 62
     0
100
AcDbPoint
 10
1242.031829986425
 20
843.823305366415
 30
0.0
  0
POINT
  5
7AE5
330
7AD9
100
AcDbEntity
  8
Defpoints
 62
     0
100
AcDbPoint
 10
1242.029040774947
 20
934.0208261483081
 30
0.0
  0
POINT
  5
7AE6
330
7AD9
100
AcDbEntity
  8
Defpoints
 62
     0
100
AcDbPoint
 10
1242.029040774947
 20
934.0208261483081
 30
0.0
  0
ENDBLK
  5
7ADB
330
7AD9
100
AcDbEntity
  8
0
100
AcDbBlockEnd
  0
BLOCK
  5
7B24
330
7B23
100
AcDbEntity
  8
0
100
AcDbBlockBegin
  2
*D33
 70
     1
 10
0.0
 20
0.0
 30
0.0
  3
*D33
  1

  0
LINE
  5
7B26
330
7B23
100
AcDbEntity
  8
DIM
 62
     0
370
    -2
100
AcDbLine
 10
448.924435367894
 20
1060.309884722636
 30
0.0
 11
448.924435367894
 21
1115.28623762596
 31
0.0
  0
LINE
  5
7B27
330
7B23
100
AcDbEntity
  8
DIM
 62
     0
370
    -2
100
AcDbLine
 10
647.5760449282991
 20
1060.309884722636
 30
0.0
 11
647.5760449282991
 21
1115.28623762596
 31
0.0
  0
LINE
  5
7B28
330
7B23
100
AcDbEntity
  8
DIM
 62
     0
370
    -2
100
AcDbLine
 10
456.924435367894
 20
1115.28623762596
 30
0.0
 11
639.5760449282991
 21
1115.28623762596
 31
0.0
  0
INSERT
  5
7B29
330
7B23
100
AcDbEntity
  8
DIM
 62
     0
370
    -2
100
AcDbBlockReference
  2
_DOT
 10
448.924435367894
 20
1115.28623762596
 30
0.0
 41
8.0
 42
8.0
 43
8.0
 50
180.0
  0
INSERT
  5
7B2A
330
7B23
100
AcDbEntity
  8
DIM
 62
     0
370
    -2
100
AcDbBlockReference
  2
_DOT
 10
647.5760449282991
 20
1115.28623762596
 30
0.0
 41
8.0
 42
8.0
 43
8.0
  0
MTEXT
  5
7B2B
330
7B23
100
AcDbEntity
  8
DIM
 62
     0
100
AcDbMText
 10
548.2502401480965
 20
1141.289989032738
 30
0.0
 40
20.0
 41
0.0
 46
0.0
 71
     5
 72
     1
  1
\A1;199
  7
ＭＳ ゴシック
 73
     1
 44
1.0
  0
POINT
  5
7B2C
330
7B23
100
AcDbEntity
  8
Defpoints
 62
     0
100
AcDbPoint
 10
448.924435367894
 20
1040.309884722636
 30
0.0
  0
POINT
  5
7B2D
330
7B23
100
AcDbEntity
  8
Defpoints
 62
     0
100
AcDbPoint
 10
647.5760449282991
 20
1040.309884722636
 30
0.0
  0
POINT
  5
7B2E
330
7B23
100
AcDbEntity
  8
Defpoints
 62
     0
100
AcDbPoint
 10
647.5760449282991
 20
1115.28623762596
 30
0.0
  0
ENDBLK
  5
7B25
330
7B23
100
AcDbEntity
  8
0
100
AcDbBlockEnd
  0
BLOCK
  5
7B36
330
7B35
100
AcDbEntity
  8
0
100
AcDbBlockBegin
  2
*D34
 70
     1
 10
0.0
 20
0.0
 30
0.0
  3
*D34
  1

  0
LINE
  5
7B38
330
7B35
100
AcDbEntity
  8
DIM
 62
     0
370
    -2
100
AcDbLine
 10
362.7395136040257
 20
925.0530857600702
 30
0.0
 11
362.7395136040257
 21
984.8573360548435
 31
0.0
  0
LINE
  5
7B39
330
7B35
100
AcDbEntity
  8
DIM
 62
     0
370
    -2
100
AcDbLine
 10
562.7395136040257
 20
925.0530857600702
 30
0.0
 11
562.7395136040257
 21
984.8573360548435
 31
0.0
  0
LINE
  5
7B3A
330
7B35
100
AcDbEntity
  8
DIM
 62
     0
370
    -2
100
AcDbLine
 10
370.7395136040257
 20
984.8573360548435
 30
0.0
 11
554.7395136040257
 21
984.8573360548435
 31
0.0
  0
INSERT
  5
7B3B
330
7B35
100
AcDbEntity
  8
DIM
 62
     0
370
    -2
100
AcDbBlockReference
  2
_DOT
 10
362.7395136040257
 20
984.8573360548435
 30
0.0
 41
8.0
 42
8.0
 43
8.0
 50
180.0
  0
INSERT
  5
7B3C
330
7B35
100
AcDbEntity
  8
DIM
 62
     0
370
    -2
100
AcDbBlockReference
  2
_DOT
 10
562.7395136040257
 20
984.8573360548435
 30
0.0
 41
8.0
 42
8.0
 43
8.0
  0
MTEXT
  5
7B3D
330
7B35
100
AcDbEntity
  8
DIM
 62
     0
100
AcDbMText
 10
462.7395136040257
 20
1010.861087461621
 30
0.0
 40
20.0
 41
0.0
 46
0.0
 71
     5
 72
     1
  1
\A1;200
  7
ＭＳ ゴシック
 73
     1
 44
1.0
  0
POINT
  5
7B3E
330
7B35
100
AcDbEntity
  8
Defpoints
 62
     0
100
AcDbPoint
 10
362.7395136040257
 20
905.0530857600702
 30
0.0
  0
POINT
  5
7B3F
330
7B35
100
AcDbEntity
  8
Defpoints
 62
     0
100
AcDbPoint
 10
562.7395136040257
 20
905.0530857600702
 30
0.0
  0
POINT
  5
7B40
330
7B35
100
AcDbEntity
  8
Defpoints
 62
     0
100
AcDbPoint
 10
562.7395136040257
 20
984.8573360548435
 30
0.0
  0
ENDBLK
  5
7B37
330
7B35
100
AcDbEntity
  8
0
100
AcDbBlockEnd
  0
BLOCK
  5
7B66
330
7B65
100
AcDbEntity
  8
0
  6
ByBlock
 62
     0
370
    -2
390
1D
100
AcDbBlockBegin
  2
VW_FILLEDARROW
 70
     0
 10
0.0
 20
0.0
 30
0.0
  3
VW_FILLEDARROW
  1
VW_FILLEDARROW
  0
SOLID
  5
7B67
330
7B65
100
AcDbEntity
  8
0
 62
     0
370
    -2
390
1D
100
AcDbTrace
 10
0.0
 20
0.0
 30
0.0
 11
-0.9921874999999999
 21
-0.2658558393652545
 31
0.0
 12
-0.9921874999999999
 22
0.2658558393652548
 32
0.0
 13
-0.9921874999999999
 23
0.2658558393652548
 33
0.0
  0
ENDBLK
  5
7B68
330
7B65
100
AcDbEntity
  8
0
390
1D
100
AcDbBlockEnd
  0
BLOCK
  5
7C42
330
7C41
100
AcDbEntity
  8
0
100
AcDbBlockBegin
  2
*D36
 70
     1
 10
0.0
 20
0.0
 30
0.0
  3
*D36
  1
*D142
  0
LINE
  5
7C43
330
7C41
100
AcDbEntity
  8
DIM
 62
     0
370
    -2
100
AcDbLine
 10
76.72166190346206
 20
527.1653768886069
 30
0.0
 11
76.72166190346206
 21
610.791814206844
 31
0.0
  0
LINE
  5
7C44
330
7C41
100
AcDbEntity
  8
DIM
 62
     0
370
    -2
100
AcDbLine
 10
606.7216619034621
 20
527.1653768886069
 30
0.0
 11
606.7216619034621
 21
610.791814206844
 31
0.0
  0
LINE
  5
7C45
330
7C41
100
AcDbEntity
  8
DIM
 62
     0
370
    -2
100
AcDbLine
 10
86.72105155189956
 20
610.791814206844
 30
0.0
 11
596.7222722550246
 21
610.791814206844
 31
0.0
  0
INSERT
  5
7C46
330
7C41
100
AcDbEntity
  8
DIM
 62
     0
370
    -2
100
AcDbBlockReference
  2
_DOT
 10
76.72166190346206
 20
610.791814206844
 30
0.0
 41
9.999389648437498
 42
9.999389648437498
 43
9.999389648437498
 50
180.0
  0
INSERT
  5
7C47
330
7C41
100
AcDbEntity
  8
DIM
 62
     0
370
    -2
100
AcDbBlockReference
  2
_DOT
 10
606.7216619034621
 20
610.791814206844
 30
0.0
 41
9.999389648437498
 42
9.999389648437498
 43
9.999389648437498
  0
MTEXT
  5
7C48
330
7C41
100
AcDbEntity
  8
DIM
 62
     0
100
AcDbMText
 10
341.7216619034621
 20
633.0127056348796
 30
0.0
 40
24.4326171875
 41
0.0
 46
0.0
 71
     5
 72
     1
  1
\A1;530
  7
ＭＳ ゴシック
 73
     1
 44
1.0
  0
POINT
  5
7C49
330
7C41
100
AcDbEntity
  8
Defpoints
 62
     0
100
AcDbPoint
 10
76.72166190346206
 20
502.1653768886069
 30
0.0
  0
POINT
  5
7C4A
330
7C41
100
AcDbEntity
  8
Defpoints
 62
     0
100
AcDbPoint
 10
606.7216619034621
 20
502.1653768886069
 30
0.0
  0
POINT
  5
7C4B
330
7C41
100
AcDbEntity
  8
Defpoints
 62
     0
100
AcDbPoint
 10
606.7216619034621
 20
610.791814206844
 30
0.0
  0
ENDBLK
  5
7C4C
330
7C41
100
AcDbEntity
  8
0
100
AcDbBlockEnd
  0
BLOCK
  5
7C4F
330
7C4E
100
AcDbEntity
  8
0
100
AcDbBlockBegin
  2
*D37
 70
     1
 10
0.0
 20
0.0
 30
0.0
  3
*D37
  1
*D143
  0
LINE
  5
7C50
330
7C4E
100
AcDbEntity
  8
DIM
 62
     0
370
    -2
100
AcDbLine
 10
737.566727506801
 20
499.799099504781
 30
0.0
 11
779.9853316102071
 21
499.799099504781
 31
0.0
  0
LINE
  5
7C51
330
7C4E
100
AcDbEntity
  8
DIM
 62
     0
370
    -2
100
AcDbLine
 10
631.4776273667851
 20
59.799099504781
 30
0.0
 11
779.9853316102071
 21
59.79909950478099
 31
0.0
  0
LINE
  5
7C52
330
7C4E
100
AcDbEntity
  8
DIM
 62
     0
370
    -2
100
AcDbLine
 10
779.9853316102071
 20
489.7997098563435
 30
0.0
 11
779.9853316102071
 21
69.79848915321848
 31
0.0
  0
INSERT
  5
7C53
330
7C4E
100
AcDbEntity
  8
DIM
 62
     0
370
    -2
100
AcDbBlockReference
  2
_DOT
 10
779.9853316102071
 20
499.799099504781
 30
0.0
 41
9.999389648437498
 42
9.999389648437498
 43
9.999389648437498
 50
90.0
  0
INSERT
  5
7C54
330
7C4E
100
AcDbEntity
  8
DIM
 62
     0
370
    -2
100
AcDbBlockReference
  2
_DOT
 10
779.9853316102071
 20
59.79909950478099
 30
0.0
 41
9.999389648437498
 42
9.999389648437498
 43
9.999389648437498
 50
270.0
  0
MTEXT
  5
7C55
330
7C4E
100
AcDbEntity
  8
DIM
 62
     0
100
AcDbMText
 10
757.7690230164571
 20
279.799099504781
 30
0.0
 40
24.4326171875
 41
0.0
 46
0.0
 71
     5
 72
     1
  1
\A1;440
  7
ＭＳ ゴシック
 11
0.0
 21
1.0
 31
0.0
 73
     1
 44
1.0
  0
POINT
  5
7C56
330
7C4E
100
AcDbEntity
  8
Defpoints
 62
     0
100
AcDbPoint
 10
712.566727506801
 20
499.799099504781
 30
0.0
  0
POINT
  5
7C57
330
7C4E
100
AcDbEntity
  8
Defpoints
 62
     0
100
AcDbPoint
 10
606.4776273667851
 20
59.799099504781
 30
0.0
  0
POINT
  5
7C58
330
7C4E
100
AcDbEntity
  8
Defpoints
 62
     0
100
AcDbPoint
 10
779.9853316102071
 20
59.79909950478099
 30
0.0
  0
ENDBLK
  5
7C59
330
7C4E
100
AcDbEntity
  8
0
100
AcDbBlockEnd
  0
BLOCK
  5
7C83
330
7C82
100
AcDbEntity
  8
0
100
AcDbBlockBegin
  2
*D38
 70
     1
 10
0.0
 20
0.0
 30
0.0
  3
*D38
  1

  0
LINE
  5
7C85
330
7C82
100
AcDbEntity
  8
DIM
 62
     0
370
    -2
100
AcDbLine
 10
1973.348802728498
 20
1806.521393958308
 30
0.0
 11
1973.348802728498
 21
1890.147831276545
 31
0.0
  0
LINE
  5
7C86
330
7C82
100
AcDbEntity
  8
DIM
 62
     0
370
    -2
100
AcDbLine
 10
2503.348802728498
 20
1806.521393958308
 30
0.0
 11
2503.348802728498
 21
1890.147831276545
 31
0.0
  0
LINE
  5
7C87
330
7C82
100
AcDbEntity
  8
DIM
 62
     0
370
    -2
100
AcDbLine
 10
1983.348192376935
 20
1890.147831276545
 30
0.0
 11
2493.34941308006
 21
1890.147831276545
 31
0.0
  0
INSERT
  5
7C88
330
7C82
100
AcDbEntity
  8
DIM
 62
     0
370
    -2
100
AcDbBlockReference
  2
_DOT
 10
1973.348802728498
 20
1890.147831276545
 30
0.0
 41
9.999389648437498
 42
9.999389648437498
 43
9.999389648437498
 50
180.0
  0
INSERT
  5
7C89
330
7C82
100
AcDbEntity
  8
DIM
 62
     0
370
    -2
100
AcDbBlockReference
  2
_DOT
 10
2503.348802728498
 20
1890.147831276545
 30
0.0
 41
9.999389648437498
 42
9.999389648437498
 43
9.999389648437498
  0
MTEXT
  5
7C8A
330
7C82
100
AcDbEntity
  8
DIM
 62
     0
100
AcDbMText
 10
2238.348802728498
 20
1912.368722704581
 30
0.0
 40
24.4326171875
 41
0.0
 46
0.0
 71
     5
 72
     1
  1
\A1;530
  7
ＭＳ ゴシック
 73
     1
 44
1.0
  0
POINT
  5
7C8B
330
7C82
100
AcDbEntity
  8
Defpoints
 62
     0
100
AcDbPoint
 10
1973.348802728498
 20
1781.521393958308
 30
0.0
  0
POINT
  5
7C8C
330
7C82
100
AcDbEntity
  8
Defpoints
 62
     0
100
AcDbPoint
 10
2503.348802728498
 20
1781.521393958308
 30
0.0
  0
POINT
  5
7C8D
330
7C82
100
AcDbEntity
  8
Defpoints
 62
     0
100
AcDbPoint
 10
2503.348802728498
 20
1890.147831276545
 30
0.0
  0
ENDBLK
  5
7C84
330
7C82
100
AcDbEntity
  8
0
100
AcDbBlockEnd
  0
BLOCK
  5
7C8F
330
7C8E
100
AcDbEntity
  8
0
100
AcDbBlockBegin
  2
*D39
 70
     1
 10
0.0
 20
0.0
 30
0.0
  3
*D39
  1

  0
LINE
  5
7C91
330
7C8E
100
AcDbEntity
  8
DIM
 62
     0
370
    -2
100
AcDbLine
 10
2634.193868331837
 20
1779.155116574482
 30
0.0
 11
2676.612472435243
 21
1779.155116574482
 31
0.0
  0
LINE
  5
7C92
330
7C8E
100
AcDbEntity
  8
DIM
 62
     0
370
    -2
100
AcDbLine
 10
2528.104768191821
 20
1339.155116574482
 30
0.0
 11
2676.612472435243
 21
1339.155116574482
 31
0.0
  0
LINE
  5
7C93
330
7C8E
100
AcDbEntity
  8
DIM
 62
     0
370
    -2
100
AcDbLine
 10
2676.612472435243
 20
1769.155726926045
 30
0.0
 11
2676.612472435243
 21
1349.15450622292
 31
0.0
  0
INSERT
  5
7C94
330
7C8E
100
AcDbEntity
  8
DIM
 62
     0
370
    -2
100
AcDbBlockReference
  2
_DOT
 10
2676.612472435243
 20
1779.155116574482
 30
0.0
 41
9.999389648437498
 42
9.999389648437498
 43
9.999389648437498
 50
90.0
  0
INSERT
  5
7C95
330
7C8E
100
AcDbEntity
  8
DIM
 62
     0
370
    -2
100
AcDbBlockReference
  2
_DOT
 10
2676.612472435243
 20
1339.155116574482
 30
0.0
 41
9.999389648437498
 42
9.999389648437498
 43
9.999389648437498
 50
270.0
  0
MTEXT
  5
7C96
330
7C8E
100
AcDbEntity
  8
DIM
 62
     0
100
AcDbMText
 10
2654.396163841493
 20
1559.155116574482
 30
0.0
 40
24.4326171875
 41
0.0
 46
0.0
 71
     5
 72
     1
  1
\A1;440
  7
ＭＳ ゴシック
 11
0.0
 21
1.0
 31
0.0
 73
     1
 44
1.0
  0
POINT
  5
7C97
330
7C8E
100
AcDbEntity
  8
Defpoints
 62
     0
100
AcDbPoint
 10
2609.193868331837
 20
1779.155116574482
 30
0.0
  0
POINT
  5
7C98
330
7C8E
100
AcDbEntity
  8
Defpoints
 62
     0
100
AcDbPoint
 10
2503.104768191821
 20
1339.155116574482
 30
0.0
  0
POINT
  5
7C99
330
7C8E
100
AcDbEntity
  8
Defpoints
 62
     0
100
AcDbPoint
 10
2676.612472435243
 20
1339.155116574482
 30
0.0
  0
ENDBLK
  5
7C90
330
7C8E
100
AcDbEntity
  8
0
100
AcDbBlockEnd
  0
BLOCK
  5
7CDA
330
7CD9
100
AcDbEntity
  8
0
100
AcDbBlockBegin
  2
*D40
 70
     1
 10
0.0
 20
0.0
 30
0.0
  3
*D40
  1

  0
LINE
  5
7CDC
330
7CD9
100
AcDbEntity
  8
DIM
 62
     0
370
    -2
100
AcDbLine
 10
1445.580348267427
 20
1789.254698182674
 30
0.0
 11
1490.017369223647
 21
1789.254698182674
 31
0.0
  0
LINE
  5
7CDD
330
7CD9
100
AcDbEntity
  8
DIM
 62
     0
370
    -2
100
AcDbLine
 10
1343.611103647386
 20
1769.254698182674
 30
0.0
 11
1490.017369223647
 21
1769.254698182674
 31
0.0
  0
LINE
  5
7CDE
330
7CD9
100
AcDbEntity
  8
DIM
 62
     0
370
    -2
100
AcDbLine
 10
1490.017369223647
 20
1789.254698182674
 30
0.0
 11
1490.017369223647
 21
1861.018922266706
 31
0.0
  0
LINE
  5
7CDF
330
7CD9
100
AcDbEntity
  8
DIM
 62
     0
370
    -2
100
AcDbLine
 10
1490.017369223647
 20
1781.254698182674
 30
0.0
 11
1490.017369223647
 21
1777.254698182674
 31
0.0
  0
LINE
  5
7CE0
330
7CD9
100
AcDbEntity
  8
DIM
 62
     0
370
    -2
100
AcDbLine
 10
1490.017369223647
 20
1781.254698182674
 30
0.0
 11
1490.017369223647
 21
1773.254698182674
 31
0.0
  0
INSERT
  5
7CE1
330
7CD9
100
AcDbEntity
  8
DIM
 62
     0
370
    -2
100
AcDbBlockReference
  2
_DOT
 10
1490.017369223647
 20
1789.254698182674
 30
0.0
 41
8.0
 42
8.0
 43
8.0
 50
90.0
  0
INSERT
  5
7CE2
330
7CD9
100
AcDbEntity
  8
DIM
 62
     0
370
    -2
100
AcDbBlockReference
  2
_DOT
 10
1490.017369223647
 20
1769.254698182674
 30
0.0
 41
8.0
 42
8.0
 43
8.0
 50
270.0
  0
MTEXT
  5
7CE3
330
7CD9
100
AcDbEntity
  8
DIM
 62
     0
100
AcDbMText
 10
1464.01361781687
 20
1833.13681022469
 30
0.0
 40
20.0
 41
0.0
 46
0.0
 71
     5
 72
     1
  1
\A1;20
  7
ＭＳ ゴシック
 11
0.0
 21
1.0
 31
0.0
 73
     1
 44
1.0
  0
POINT
  5
7CE4
330
7CD9
100
AcDbEntity
  8
Defpoints
 62
     0
100
AcDbPoint
 10
1425.580348267427
 20
1789.254698182674
 30
0.0
  0
POINT
  5
7CE5
330
7CD9
100
AcDbEntity
  8
Defpoints
 62
     0
100
AcDbPoint
 10
1323.611103647386
 20
1769.254698182674
 30
0.0
  0
POINT
  5
7CE6
330
7CD9
100
AcDbEntity
  8
Defpoints
 62
     0
100
AcDbPoint
 10
1490.017369223647
 20
1769.254698182674
 30
0.0
  0
ENDBLK
  5
7CDB
330
7CD9
100
AcDbEntity
  8
0
100
AcDbBlockEnd
  0
BLOCK
  5
7CFD
330
7CFC
100
AcDbEntity
  8
0
100
AcDbBlockBegin
  2
*D41
 70
     1
 10
0.0
 20
0.0
 30
0.0
  3
*D41
  1

  0
LINE
  5
7CFF
330
7CFC
100
AcDbEntity
  8
DIM
 62
     0
370
    -2
100
AcDbLine
 10
1343.611103647386
 20
1769.254698182674
 30
0.0
 11
1490.017369223647
 21
1769.254698182674
 31
0.0
  0
LINE
  5
7D00
330
7CFC
100
AcDbEntity
  8
DIM
 62
     0
370
    -2
100
AcDbLine
 10
1343.611103647386
 20
1539.254698182674
 30
0.0
 11
1490.017369223647
 21
1539.254698182674
 31
0.0
  0
LINE
  5
7D01
330
7CFC
100
AcDbEntity
  8
DIM
 62
     0
370
    -2
100
AcDbLine
 10
1490.017369223647
 20
1761.254698182674
 30
0.0
 11
1490.017369223647
 21
1547.254698182674
 31
0.0
  0
INSERT
  5
7D02
330
7CFC
100
AcDbEntity
  8
DIM
 62
     0
370
    -2
100
AcDbBlockReference
  2
_DOT
 10
1490.017369223647
 20
1769.254698182674
 30
0.0
 41
8.0
 42
8.0
 43
8.0
 50
90.0
  0
INSERT
  5
7D03
330
7CFC
100
AcDbEntity
  8
DIM
 62
     0
370
    -2
100
AcDbBlockReference
  2
_DOT
 10
1490.017369223647
 20
1539.254698182674
 30
0.0
 41
8.0
 42
8.0
 43
8.0
 50
270.0
  0
MTEXT
  5
7D04
330
7CFC
100
AcDbEntity
  8
DIM
 62
     0
100
AcDbMText
 10
1464.01361781687
 20
1654.254698182674
 30
0.0
 40
20.0
 41
0.0
 46
0.0
 71
     5
 72
     1
  1
\A1;230
  7
ＭＳ ゴシック
 11
0.0
 21
1.0
 31
0.0
 73
     1
 44
1.0
  0
POINT
  5
7D05
330
7CFC
100
AcDbEntity
  8
Defpoints
 62
     0
100
AcDbPoint
 10
1323.611103647386
 20
1769.254698182674
 30
0.0
  0
POINT
  5
7D06
330
7CFC
100
AcDbEntity
  8
Defpoints
 62
     0
100
AcDbPoint
 10
1323.611103647386
 20
1539.254698182674
 30
0.0
  0
POINT
  5
7D07
330
7CFC
100
AcDbEntity
  8
Defpoints
 62
     0
100
AcDbPoint
 10
1490.017369223647
 20
1539.254698182674
 30
0.0
  0
ENDBLK
  5
7CFE
330
7CFC
100
AcDbEntity
  8
0
100
AcDbBlockEnd
  0
BLOCK
  5
7D0C
330
7D0B
100
AcDbEntity
  8
0
100
AcDbBlockBegin
  2
*D42
 70
     1
 10
0.0
 20
0.0
 30
0.0
  3
*D42
  1

  0
LINE
  5
7D0E
330
7D0B
100
AcDbEntity
  8
DIM
 62
     0
370
    -2
100
AcDbLine
 10
1053.611103647386
 20
1519.254698182674
 30
0.0
 11
1053.611103647386
 21
1395.506661156051
 31
0.0
  0
LINE
  5
7D0F
330
7D0B
100
AcDbEntity
  8
DIM
 62
     0
370
    -2
100
AcDbLine
 10
1323.611103647386
 20
1519.254698182674
 30
0.0
 11
1323.611103647386
 21
1395.506661156051
 31
0.0
  0
LINE
  5
7D10
330
7D0B
100
AcDbEntity
  8
DIM
 62
     0
370
    -2
100
AcDbLine
 10
1061.611103647386
 20
1395.506661156051
 30
0.0
 11
1315.611103647386
 21
1395.506661156051
 31
0.0
  0
INSERT
  5
7D11
330
7D0B
100
AcDbEntity
  8
DIM
 62
     0
370
    -2
100
AcDbBlockReference
  2
_DOT
 10
1053.611103647386
 20
1395.506661156051
 30
0.0
 41
8.0
 42
8.0
 43
8.0
 50
180.0
  0
INSERT
  5
7D12
330
7D0B
100
AcDbEntity
  8
DIM
 62
     0
370
    -2
100
AcDbBlockReference
  2
_DOT
 10
1323.611103647386
 20
1395.506661156051
 30
0.0
 41
8.0
 42
8.0
 43
8.0
  0
MTEXT
  5
7D13
330
7D0B
100
AcDbEntity
  8
DIM
 62
     0
100
AcDbMText
 10
1188.611103647386
 20
1421.510412562828
 30
0.0
 40
20.0
 41
0.0
 46
0.0
 71
     5
 72
     1
  1
\A1;270
  7
ＭＳ ゴシック
 73
     1
 44
1.0
  0
POINT
  5
7D14
330
7D0B
100
AcDbEntity
  8
Defpoints
 62
     0
100
AcDbPoint
 10
1053.611103647386
 20
1539.254698182674
 30
0.0
  0
POINT
  5
7D15
330
7D0B
100
AcDbEntity
  8
Defpoints
 62
     0
100
AcDbPoint
 10
1323.611103647386
 20
1539.254698182674
 30
0.0
  0
POINT
  5
7D16
330
7D0B
100
AcDbEntity
  8
Defpoints
 62
     0
100
AcDbPoint
 10
1323.611103647386
 20
1395.506661156051
 30
0.0
  0
ENDBLK
  5
7D0D
330
7D0B
100
AcDbEntity
  8
0
100
AcDbBlockEnd
  0
ENDSEC
  0
SECTION
  2
ENTITIES
  0
MTEXT
  5
177
330
A
100
AcDbEntity
  8
TEMPLATE
390
1D
100
AcDbMText
 10
63.3617156381846
 20
274.9854013051426
 30
0.0
 40
13.03072916666666
 41
0.0
 46
0.0
 71
     1
 72
     1
  1
品名
  7
ＭＳ ゴシック
 73
     1
 44
0.7828267384257843
  0
MTEXT
  5
178
330
A
100
AcDbEntity
  8
TEMPLATE
390
1D
100
AcDbMText
 10
63.3617156381846
 20
206.9854013051424
 30
0.0
 40
13.03072916666666
 41
0.0
 46
0.0
 71
     1
 72
     1
  1
仕様
  7
ＭＳ ゴシック
 73
     1
 44
0.7828267384257843
  0
LINE
  5
179
330
A
100
AcDbEntity
  8
TEMPLATE
390
1D
100
AcDbLine
 10
1617.761715637798
 20
213.7173388051428
 30
0.0
 11
57.761715637799
 21
213.7173388051428
 31
0.0
  0
LWPOLYLINE
  5
17A
330
A
100
AcDbEntity
  8
TEMPLATE
390
1D
100
AcDbPolyline
 90
        5
 70
   128
 43
0.0
 10
1617.761715637798
 20
2317.717338805142
 10
57.761715637799
 20
2317.717338805142
 10
57.761715637799
 20
77.7173388051426
 10
1617.761715637798
 20
77.7173388051426
 10
1617.761715637798
 20
2317.717338805142
  0
LINE
  5
17B
330
A
100
AcDbEntity
  8
TEMPLATE
390
1D
100
AcDbLine
 10
1617.761715637798
 20
281.7173388051426
 30
0.0
 11
57.761715637799
 21
281.7173388051426
 31
0.0
  0
LINE
  5
17C
330
A
100
AcDbEntity
  8
TEMPLATE
390
1D
100
AcDbLine
 10
1617.761715638186
 20
145.7173388051426
 30
0.0
 11
1015.361715638184
 21
145.7173388051426
 31
0.0
  0
MTEXT
  5
17E
330
A
100
AcDbEntity
  8
TEMPLATE
390
1D
100
AcDbMText
 10
1039.258840639993
 20
121.7890232264961
 30
0.0
 40
19.54609375
 41
0.0
 46
0.0
 71
     1
 72
     1
  1
大洋金物株式会社 ティーフォルム事業部
  7
ＭＳ ゴシック
 73
     1
 44
0.7828267384257843
  0
MTEXT
  5
180
330
A
100
AcDbEntity
  8
TEMPLATE
390
1D
100
AcDbMText
 10
1464.961715638392
 20
184.1194325551426
 30
0.0
 40
19.54609375
 41
0.0
 46
19.54609375
 71
     1
 72
     1
  1
{1:8}
  7
ＭＳ ゴシック
 73
     1
 44
0.7828267384257843
1001
ACAD
1000
ACAD_MTEXT_DEFINED_HEIGHT_BEGIN
1070
    46
1040
19.54609375
1000
ACAD_MTEXT_DEFINED_HEIGHT_END
  0
MTEXT
  5
181
330
A
100
AcDbEntity
  8
TEMPLATE
390
1D
100
AcDbMText
 10
1422.561715638392
 20
206.9854013051424
 30
0.0
 40
13.03072916666666
 41
0.0
 46
0.0
 71
     1
 72
     1
  1
縮尺
  7
ＭＳ ゴシック
 73
     1
 44
0.7828267384257843
  0
LINE
  5
182
330
A
100
AcDbEntity
  8
TEMPLATE
390
1D
100
AcDbLine
 10
1416.961715638392
 20
145.7173388051426
 30
0.0
 11
1416.961715638392
 21
213.7173388051428
 31
0.0
  0
MTEXT
  5
183
330
A
100
AcDbEntity
  8
TEMPLATE
390
1D
100
AcDbMText
 10
1221.761715638392
 20
206.9854013051424
 30
0.0
 40
13.03072916666666
 41
0.0
 46
0.0
 71
     1
 72
     1
  1
容量
  7
ＭＳ ゴシック
 73
     1
 44
0.7828267384257843
  0
LINE
  5
184
330
A
100
AcDbEntity
  8
TEMPLATE
390
1D
100
AcDbLine
 10
1216.161715638392
 20
145.7173388051426
 30
0.0
 11
1216.161715638392
 21
213.7173388051428
 31
0.0
  0
MTEXT
  5
185
330
A
100
AcDbEntity
  8
TEMPLATE
390
1D
100
AcDbMText
 10
1020.961715638392
 20
274.9854013051426
 30
0.0
 40
13.03072916666666
 41
0.0
 46
0.0
 71
     1
 72
     1
  1
品番
  7
ＭＳ ゴシック
 73
     1
 44
0.7828267384257843
  0
MTEXT
  5
186
330
A
100
AcDbEntity
  8
TEMPLATE
390
1D
100
AcDbMText
 10
1020.961715638392
 20
206.9854013051424
 30
0.0
 40
13.03072916666666
 41
0.0
 46
0.0
 71
     1
 72
     1
  1
重量
  7
ＭＳ ゴシック
 73
     1
 44
0.7828267384257843
  0
MTEXT
  5
187
330
A
100
AcDbEntity
  8
TEMPLATE
390
1D
100
AcDbMText
 10
1063.361715638392
 20
252.1194325551426
 30
0.0
 40
19.54609375
 41
0.0
 46
19.54609375
 71
     1
 72
     1
  1
{ADF70-0629}
  7
ＭＳ ゴシック
 73
     1
 44
0.7828267384257843
1001
ACAD
1000
ACAD_MTEXT_DEFINED_HEIGHT_BEGIN
1070
    46
1040
19.54609375
1000
ACAD_MTEXT_DEFINED_HEIGHT_END
  0
LINE
  5
188
330
A
100
AcDbEntity
  8
TEMPLATE
390
1D
100
AcDbLine
 10
1015.361715638392
 20
77.7173388051426
 30
0.0
 11
1015.361715638392
 21
281.7173388051426
 31
0.0
  0
MTEXT
  5
189
330
A
100
AcDbEntity
  8
TEMPLATE
390
1D
100
AcDbMText
 10
105.7617156381846
 20
252.1194325551426
 30
0.0
 40
19.54609375
 41
0.0
 46
22.02937888817682
 71
     1
 72
     1
  1
{手洗器　-CATALANO, Verso-}
  7
ＭＳ ゴシック
 73
     1
 44
0.7828267384257843
1001
ACAD
1000
ACAD_MTEXT_DEFINED_HEIGHT_BEGIN
1070
    46
1040
22.02937888817682
1000
ACAD_MTEXT_DEFINED_HEIGHT_END
  0
INSERT
  5
68C
330
A
100
AcDbEntity
  8
TEMPLATE
100
AcDbBlockReference
  2
block 2
 10
735.4194414162062
 20
6.698461211469094
 30
0.0
 41
0.3048
 42
0.3048
 43
0.3048
  0
LWPOLYLINE
  5
D69
330
A
100
AcDbEntity
  8
BORDER
100
AcDbPolyline
 90
        4
 70
     1
 43
0.0
 10
0.0
 20
0.0
 10
0.0
 20
2376.0
 10
1680.0
 20
2376.0
 10
1680.0
 20
0.0
  0
INSERT
  5
1343
330
A
100
AcDbEntity
  8
TEMPLATE
100
AcDbBlockReference
  2
block 2
 10
1677.394776693175
 20
19.54825712983655
 30
0.0
 41
0.3048
 42
0.3048
 43
0.3048
  0
HATCH
  5
3CE3
102
{ACAD_REACTORS
330
3CF4
102
}
330
A
100
AcDbEntity
  8
TEMPLATE
100
AcDbHatch
 10
0.0
 20
0.0
 30
0.0
210
0.0
220
0.0
230
1.0
  2
SOLID
 70
     1
 71
     1
 91
        6
 92
        1
 93
        8
 72
     1
 10
1547.654180558225
 20
122.686885999047
 11
1547.654180558225
 21
117.9593598945186
 72
     1
 10
1547.654180558225
 20
117.9593598945186
 11
1540.165707317976
 21
117.9593598945186
 72
     1
 10
1540.165707317976
 20
117.9593598945186
 11
1540.165707317976
 21
98.68688600020374
 72
     1
 10
1540.165707317976
 20
98.68688600020374
 11
1533.579616795355
 21
98.68688600020374
 72
     1
 10
1533.579616795355
 20
98.68688600020374
 11
1533.579616795355
 21
117.9593598945186
 72
     1
 10
1533.579616795355
 20
117.9593598945186
 11
1526.22385564772
 21
117.9593598945186
 72
     1
 10
1526.22385564772
 20
117.9593598945186
 11
1526.22385564772
 21
122.686885999047
 72
     1
 10
1526.22385564772
 20
122.686885999047
 11
1547.654180558225
 21
122.686885999047
 97
        1
330
3CE4
 92
        1
 93
        1
 72
     4
 94
        3
 73
     0
 74
     1
 95
       56
 96
       52
 40
0.0
 40
0.0
 40
0.0
 40
0.0
 40
1.0
 40
1.0
 40
1.0
 40
2.0
 40
2.0
 40
2.0
 40
3.0
 40
3.0
 40
3.0
 40
4.0
 40
4.0
 40
4.0
 40
5.0
 40
5.0
 40
5.0
 40
6.0
 40
6.0
 40
6.0
 40
7.0
 40
7.0
 40
7.0
 40
8.0
 40
8.0
 40
8.0
 40
9.0
 40
9.0
 40
9.0
 40
10.0
 40
10.0
 40
10.0
 40
11.0
 40
11.0
 40
11.0
 40
12.0
 40
12.0
 40
12.0
 40
13.0
 40
13.0
 40
13.0
 40
14.0
 40
14.0
 40
14.0
 40
15.0
 40
15.0
 40
15.0
 40
16.0
 40
16.0
 40
16.0
 40
17.0
 40
17.0
 40
17.0
 40
17.0
 10
1557.687928905659
 20
122.1153908307171
 10
1558.611021851194
 20
122.3752208739253
 10
1559.802693125861
 20
122.1578825052133
 10
1559.802693125861
 20
122.1578825052133
 10
1559.802693125861
 20
122.1578825052133
 10
1559.230186250996
 20
120.4398262712745
 10
1559.230186250996
 20
120.4398262712745
 10
1559.230186250996
 20
120.4398262712745
 10
1558.060296422918
 20
120.710547037778
 10
1557.157973217439
 20
119.9990197824878
 10
1556.456801076102
 20
119.442581187894
 10
1556.002544841606
 20
117.9640613543017
 10
1555.828293268882
 20
117.4019095933891
 10
1555.828293268882
 20
117.4019095933891
 10
1555.051421673821
 20
115.0173768010701
 10
1555.051421673821
 20
115.0173768010701
 10
1555.051421673821
 20
115.0173768010701
 10
1557.598720194077
 20
115.0173768010701
 10
1557.598720194077
 20
115.0173768010701
 10
1557.598720194077
 20
115.0173768010701
 10
1557.202547817156
 20
113.516599423694
 10
1557.202547817156
 20
113.516599423694
 10
1557.202547817156
 20
113.516599423694
 10
1554.634479556845
 20
113.516599423694
 10
1554.634479556845
 20
113.516599423694
 10
1554.634479556845
 20
113.516599423694
 10
1550.03972505708
 20
98.68688600020374
 10
1550.03972505708
 20
98.68688600020374
 10
1550.03972505708
 20
98.68688600020374
 10
1548.60113787557
 20
98.68688600020374
 10
1548.60113787557
 20
98.68688600020374
 10
1548.60113787557
 20
98.68688600020374
 10
1553.200058225776
 20
113.516599423694
 10
1553.200058225776
 20
113.516599423694
 10
1553.200058225776
 20
113.516599423694
 10
1551.305072372401
 20
113.516599423694
 10
1551.305072372401
 20
113.516599423694
 10
1551.305072372401
 20
113.516599423694
 10
1551.702315968007
 20
115.0173768010701
 10
1551.702315968007
 20
115.0173768010701
 10
1551.702315968007
 20
115.0173768010701
 10
1553.617000342751
 20
115.0173768010701
 10
1553.617000342751
 20
115.0173768010701
 10
1553.617000342751
 20
115.0173768010701
 10
1554.294248600129
 20
117.0969693411219
 10
1554.294248600129
 20
117.0969693411219
 10
1554.841879396648
 20
118.8404967748988
 10
1555.306550257245
 20
119.7765633689486
 10
1555.704865071536
 20
120.4823179457708
 10
1556.098954523236
 20
121.1886676440845
 10
1556.878920750054
 20
121.8825197910759
 10
1557.687928905659
 20
122.1153908307171
 97
        1
330
3CEF
 92
        1
 93
        1
 72
     4
 94
        3
 73
     0
 74
     1
 95
       32
 96
       28
 40
0.0
 40
0.0
 40
0.0
 40
0.0
 40
1.0
 40
1.0
 40
1.0
 40
2.0
 40
2.0
 40
2.0
 40
3.0
 40
3.0
 40
3.0
 40
4.0
 40
4.0
 40
4.0
 40
5.0
 40
5.0
 40
5.0
 40
6.0
 40
6.0
 40
6.0
 40
7.0
 40
7.0
 40
7.0
 40
8.0
 40
8.0
 40
8.0
 40
9.0
 40
9.0
 40
9.0
 40
9.0
 10
1561.188374006773
 20
114.1104116479568
 10
1560.322353212278
 20
112.9902144644232
 10
1559.655460068853
 20
111.9820786577475
 10
1558.575790658894
 20
108.813473300319
 10
1557.583187523147
 20
105.9151126122006
 10
1556.951525572023
 20
103.8064781433614
 10
1556.856127596928
 20
101.2384098830501
 10
1556.78352277496
 20
99.32735574940358
 10
1557.947223339525
 20
98.68688600020374
 10
1559.653436655782
 20
98.68688600020374
 10
1560.388768770734
 20
98.68688600020374
 10
1562.244357581369
 20
98.73366254943912
 10
1563.565765341194
 20
100.3671520194295
 10
1564.490822187649
 20
101.5147843037232
 10
1565.343393236436
 20
102.70443216532
 10
1566.486383573095
 20
106.6068818339716
 10
1567.437506740881
 20
109.8693378506166
 10
1568.096068183424
 20
111.9779128073066
 10
1568.047387245416
 20
113.1784513921987
 10
1568.047387245416
 20
113.1784513921987
 10
1568.047387245416
 20
113.1784513921987
 10
1568.047387245416
 20
113.1784513921987
 10
1567.737209924023
 20
115.1812732598413
 10
1566.283090071584
 20
115.6044641524784
 10
1565.452300469388
 20
115.6044641524784
 10
1564.634008418515
 20
115.6044641524784
 10
1562.44134279507
 20
115.7460435553167
 10
1561.188374006773
 20
114.1104116479568
 97
        1
330
3CF2
 92
        1
 93
        1
 72
     4
 94
        3
 73
     0
 74
     1
 95
       38
 96
       34
 40
0.0
 40
0.0
 40
0.0
 40
0.0
 40
1.0
 40
1.0
 40
1.0
 40
2.0
 40
2.0
 40
2.0
 40
3.0
 40
3.0
 40
3.0
 40
4.0
 40
4.0
 40
4.0
 40
5.0
 40
5.0
 40
5.0
 40
6.0
 40
6.0
 40
6.0
 40
7.0
 40
7.0
 40
7.0
 40
8.0
 40
8.0
 40
8.0
 40
9.0
 40
9.0
 40
9.0
 40
10.0
 40
10.0
 40
10.0
 40
11.0
 40
11.0
 40
11.0
 40
11.0
 10
1573.306951963385
 20
114.9598285528377
 10
1573.306951963385
 20
114.9598285528377
 10
1574.78594789417
 20
114.9598285528377
 10
1574.78594789417
 20
114.9598285528377
 10
1574.78594789417
 20
114.9598285528377
 10
1574.125244014258
 20
112.8444692111441
 10
1574.125244014258
 20
112.8444692111441
 10
1574.627288504525
 20
113.4382814354068
 10
1575.419633258367
 20
114.2291383855198
 10
1576.100095171798
 20
114.6279292970036
 10
1577.116562679355
 20
115.2217415212663
 10
1577.697401255102
 20
115.3000595095535
 10
1578.336204664126
 20
115.2844673264751
 10
1578.336204664126
 20
115.2844673264751
 10
1577.711922219496
 20
113.2842639933952
 10
1577.711922219496
 20
113.2842639933952
 10
1577.305335216473
 20
113.4564326408989
 10
1576.052366428176
 20
113.1286992355056
 10
1575.333578690689
 20
112.611657683652
 10
1574.685372362099
 20
112.1454395071763
 10
1574.237245878966
 20
111.748731520913
 10
1573.706278484211
 20
110.7514269253833
 10
1573.179357915597
 20
109.7526345261248
 10
1572.763487017306
 20
108.1600299026035
 10
1572.047793911575
 20
105.8496492481308
 10
1572.047793911575
 20
105.8496492481308
 10
1569.812636613634
 20
98.68688600020374
 10
1569.812636613634
 20
98.68688600020374
 10
1569.812636613634
 20
98.68688600020374
 10
1568.377203576029
 20
98.68688600020374
 10
1568.377203576029
 20
98.68688600020374
 10
1568.377203576029
 20
98.68688600020374
 10
1573.306951963385
 20
114.9598285528377
 10
1573.306951963385
 20
114.9598285528377
 97
        1
330
3CF0
 92
        1
 93
        1
 72
     4
 94
        3
 73
     0
 74
     1
 95
      104
 96
      100
 40
0.0
 40
0.0
 40
0.0
 40
0.0
 40
1.0
 40
1.0
 40
1.0
 40
2.0
 40
2.0
 40
2.0
 40
3.0
 40
3.0
 40
3.0
 40
4.0
 40
4.0
 40
4.0
 40
5.0
 40
5.0
 40
5.0
 40
6.0
 40
6.0
 40
6.0
 40
7.0
 40
7.0
 40
7.0
 40
8.0
 40
8.0
 40
8.0
 40
9.0
 40
9.0
 40
9.0
 40
10.0
 40
10.0
 40
10.0
 40
11.0
 40
11.0
 40
11.0
 40
12.0
 40
12.0
 40
12.0
 40
13.0
 40
13.0
 40
13.0
 40
14.0
 40
14.0
 40
14.0
 40
15.0
 40
15.0
 40
15.0
 40
16.0
 40
16.0
 40
16.0
 40
17.0
 40
17.0
 40
17.0
 40
18.0
 40
18.0
 40
18.0
 40
19.0
 40
19.0
 40
19.0
 40
20.0
 40
20.0
 40
20.0
 40
21.0
 40
21.0
 40
21.0
 40
22.0
 40
22.0
 40
22.0
 40
23.0
 40
23.0
 40
23.0
 40
24.0
 40
24.0
 40
24.0
 40
25.0
 40
25.0
 40
25.0
 40
26.0
 40
26.0
 40
26.0
 40
27.0
 40
27.0
 40
27.0
 40
28.0
 40
28.0
 40
28.0
 40
29.0
 40
29.0
 40
29.0
 40
30.0
 40
30.0
 40
30.0
 40
31.0
 40
31.0
 40
31.0
 40
32.0
 40
32.0
 40
32.0
 40
33.0
 40
33.0
 40
33.0
 40
33.0
 10
1581.447856894813
 20
114.9686363509126
 10
1581.447856894813
 20
114.9686363509126
 10
1582.739151507166
 20
114.9686363509126
 10
1582.739151507166
 20
114.9686363509126
 10
1582.739151507166
 20
114.9686363509126
 10
1582.086779328135
 20
112.8512535961477
 10
1582.086779328135
 20
112.8512535961477
 10
1582.652977915191
 20
113.7390558372332
 10
1583.161211668969
 20
114.134752116961
 10
1583.836436513275
 20
114.6460805024957
 10
1584.513684770653
 20
115.1501484058336
 10
1585.31757488143
 20
115.2528663752741
 10
1585.875560791902
 20
115.2528663752741
 10
1586.566377819287
 20
115.2528663752741
 10
1587.233270962711
 20
115.1164645294122
 10
1587.58379752123
 20
114.3592914557206
 10
1587.852435362513
 20
113.7655387436069
 10
1587.864932913836
 20
113.6954929440522
 10
1587.788162241427
 20
112.5234606786051
 10
1588.490286577151
 20
113.725070482182
 10
1589.008875444882
 20
114.2426476433779
 10
1589.890488422455
 20
114.7399311617122
 10
1590.81566429321
 20
115.2528663752741
 10
1591.354963388847
 20
115.2912517114787
 10
1591.981507295145
 20
115.198888855991
 10
1592.90454072853
 20
115.0625465222783
 10
1593.493711005159
 20
114.7332062888577
 10
1593.801745889182
 20
113.7323309643788
 10
1594.11085199189
 20
112.7345502716558
 10
1593.943860901363
 20
112.1993575143102
 10
1593.562149976686
 20
110.6109187412297
 10
1593.387898403962
 20
109.8874890561087
 10
1593.135804940144
 20
109.0115297327048
 10
1592.80598860953
 20
107.9692339524144
 10
1592.80598860953
 20
107.9692339524144
 10
1589.890488422455
 20
98.68688600020374
 10
1589.890488422455
 20
98.68688600020374
 10
1589.890488422455
 20
98.68688600020374
 10
1588.374118862001
 20
98.68688600020374
 10
1588.374118862001
 20
98.68688600020374
 10
1588.374118862001
 20
98.68688600020374
 10
1590.926713963532
 20
106.8018436346014
 10
1590.926713963532
 20
106.8018436346014
 10
1591.459823795657
 20
108.4997252499769
 10
1591.82070546813
 20
109.7396608776091
 10
1592.007454592176
 20
110.5170680820132
 10
1592.241813435546
 20
111.4868185524844
 10
1592.335128485421
 20
111.8068153784877
 10
1592.224197839397
 20
112.5126294674591
 10
1592.122551088641
 20
113.1696435941238
 10
1591.790592320658
 20
113.5974764343949
 10
1591.222251296233
 20
113.5974764343949
 10
1590.616536642139
 20
113.5974764343949
 10
1590.12591848451
 20
113.5300491694029
 10
1589.439386331865
 20
112.8403628728524
 10
1588.752735154922
 20
112.1454395071763
 10
1588.185346324883
 20
111.3297064787168
 10
1587.740433497805
 20
110.3915569594466
 10
1587.296472865113
 20
109.4476942738576
 10
1586.846322968909
 20
108.2513215394063
 10
1586.389983809193
 20
106.8018436346014
 10
1586.389983809193
 20
106.8018436346014
 10
1583.836436513275
 20
98.68688600020374
 10
1583.836436513275
 20
98.68688600020374
 10
1583.836436513275
 20
98.68688600020374
 10
1582.410287370939
 20
98.68688600020374
 10
1582.410287370939
 20
98.68688600020374
 10
1582.410287370939
 20
98.68688600020374
 10
1585.329953408454
 20
107.9650681019736
 10
1585.329953408454
 20
107.9650681019736
 10
1585.637988292478
 20
108.9524936807437
 10
1585.86937152839
 20
109.757335985908
 10
1586.021841654524
 20
110.3863794024701
 10
1586.28107657624
 20
111.4692029563347
 10
1586.353681398209
 20
112.2014404395306
 10
1586.157648378894
 20
112.8512535961477
 10
1585.964709991335
 20
113.4989838275443
 10
1585.625609765454
 20
113.6644276021936
 10
1585.0592921541
 20
113.6644276021936
 10
1584.58426617955
 20
113.6644276021936
 10
1584.120666537637
 20
113.4605984913397
 10
1583.591722555952
 20
113.0550231948524
 10
1582.925781606914
 20
112.5447660280024
 10
1582.659286203001
 20
112.1257409858062
 10
1582.332564504143
 20
111.6278623459804
 10
1581.891698503207
 20
110.9692413912885
 10
1581.68531036994
 20
110.5258758800881
 10
1581.31300236483
 20
109.5529712657117
 10
1580.940575335421
 20
108.5743534850165
 10
1580.588025363831
 20
107.4355289987976
 10
1580.342121163525
 20
106.6478261925898
 10
1580.342121163525
 20
106.6478261925898
 10
1577.837373829914
 20
98.68688600020374
 10
1577.837373829914
 20
98.68688600020374
 10
1577.837373829914
 20
98.68688600020374
 10
1576.343856934735
 20
98.68688600020374
 10
1576.343856934735
 20
98.68688600020374
 10
1576.343856934735
 20
98.68688600020374
 10
1581.447856894813
 20
114.9686363509126
 10
1581.447856894813
 20
114.9686363509126
 97
        1
330
3CF1
 92
       16
 93
        1
 72
     4
 94
        3
 73
     0
 74
     1
 95
       29
 96
       25
 40
0.0
 40
0.0
 40
0.0
 40
0.0
 40
1.0
 40
1.0
 40
1.0
 40
2.0
 40
2.0
 40
2.0
 40
3.0
 40
3.0
 40
3.0
 40
4.0
 40
4.0
 40
4.0
 40
5.0
 40
5.0
 40
5.0
 40
6.0
 40
6.0
 40
6.0
 40
7.0
 40
7.0
 40
7.0
 40
8.0
 40
8.0
 40
8.0
 40
8.0
 10
1558.405704936611
 20
101.7185539024279
 10
1558.399396648801
 20
102.8522603438195
 10
1558.757302713815
 20
104.8665085440999
 10
1559.674146883688
 20
107.5615757307067
 10
1560.922949821544
 20
111.2109202290046
 10
1561.671850706503
 20
112.5447660280024
 10
1562.327198492992
 20
113.1940435752771
 10
1563.284629948588
 20
114.1394535767441
 10
1564.5717587105
 20
114.1865871988744
 10
1564.951446222105
 20
114.1394535767441
 10
1565.491816536427
 20
114.0745853341658
 10
1566.255119361481
 20
113.7209046317411
 10
1566.300705667734
 20
112.5302450636088
 10
1566.337127103016
 20
111.5112185336377
 10
1566.043494159088
 20
109.6027829345539
 10
1565.015719343191
 20
106.6068818339716
 10
1563.831189526422
 20
103.1255401327366
 10
1563.119662271132
 20
101.7569987507817
 10
1562.549297833636
 20
101.1605679919562
 10
1561.474746468504
 20
100.042453733643
 10
1560.322353212278
 20
100.1498136507176
 10
1560.152267489994
 20
100.1498136507176
 10
1559.931358392333
 20
100.1498136507176
 10
1558.408799568367
 20
100.3895285875116
 10
1558.405704936611
 20
101.7185539024279
 97
        1
330
3CF3
 75
     0
 76
     1
 98
        1
 10
1487.540661136605
 20
58.0166403409717
1001
ACAD
1010
0.0
1020
0.0
1030
0.0
  0
POLYLINE
  5
3CE4
102
{ACAD_REACTORS
330
3CE3
330
3CF4
102
}
330
A
100
AcDbEntity
  8
TEMPLATE
100
AcDb2dPolyline
 66
     1
 10
0.0
 20
0.0
 30
0.0
  0
VERTEX
  5
3CE5
330
3CE4
100
AcDbEntity
  8
TEMPLATE
100
AcDbVertex
100
AcDb2dVertex
 10
1547.654180558225
 20
122.686885999047
 30
0.0
  0
VERTEX
  5
3CE6
330
3CE4
100
AcDbEntity
  8
TEMPLATE
100
AcDbVertex
100
AcDb2dVertex
 10
1547.654180558225
 20
117.9593598945186
 30
0.0
  0
VERTEX
  5
3CE7
330
3CE4
100
AcDbEntity
  8
TEMPLATE
100
AcDbVertex
100
AcDb2dVertex
 10
1540.165707317976
 20
117.9593598945186
 30
0.0
  0
VERTEX
  5
3CE8
330
3CE4
100
AcDbEntity
  8
TEMPLATE
100
AcDbVertex
100
AcDb2dVertex
 10
1540.165707317976
 20
98.68688600020374
 30
0.0
  0
VERTEX
  5
3CE9
330
3CE4
100
AcDbEntity
  8
TEMPLATE
100
AcDbVertex
100
AcDb2dVertex
 10
1533.579616795355
 20
98.68688600020374
 30
0.0
  0
VERTEX
  5
3CEA
330
3CE4
100
AcDbEntity
  8
TEMPLATE
100
AcDbVertex
100
AcDb2dVertex
 10
1533.579616795355
 20
117.9593598945186
 30
0.0
  0
VERTEX
  5
3CEB
330
3CE4
100
AcDbEntity
  8
TEMPLATE
100
AcDbVertex
100
AcDb2dVertex
 10
1526.22385564772
 20
117.9593598945186
 30
0.0
  0
VERTEX
  5
3CEC
330
3CE4
100
AcDbEntity
  8
TEMPLATE
100
AcDbVertex
100
AcDb2dVertex
 10
1526.22385564772
 20
122.686885999047
 30
0.0
  0
VERTEX
  5
3CED
330
3CE4
100
AcDbEntity
  8
TEMPLATE
100
AcDbVertex
100
AcDb2dVertex
 10
1547.654180558225
 20
122.686885999047
 30
0.0
  0
SEQEND
  5
3CEE
330
3CE4
100
AcDbEntity
  8
TEMPLATE
  0
SPLINE
  5
3CEF
102
{ACAD_REACTORS
330
3CE3
330
3CF4
102
}
330
A
100
AcDbEntity
  8
TEMPLATE
100
AcDbSpline
210
0.0
220
0.0
230
1.0
 70
    11
 71
     3
 72
    56
 73
    52
 74
     0
 42
0.000000001
 43
0.0000000001
 40
0.0
 40
0.0
 40
0.0
 40
0.0
 40
1.0
 40
1.0
 40
1.0
 40
2.0
 40
2.0
 40
2.0
 40
3.0
 40
3.0
 40
3.0
 40
4.0
 40
4.0
 40
4.0
 40
5.0
 40
5.0
 40
5.0
 40
6.0
 40
6.0
 40
6.0
 40
7.0
 40
7.0
 40
7.0
 40
8.0
 40
8.0
 40
8.0
 40
9.0
 40
9.0
 40
9.0
 40
10.0
 40
10.0
 40
10.0
 40
11.0
 40
11.0
 40
11.0
 40
12.0
 40
12.0
 40
12.0
 40
13.0
 40
13.0
 40
13.0
 40
14.0
 40
14.0
 40
14.0
 40
15.0
 40
15.0
 40
15.0
 40
16.0
 40
16.0
 40
16.0
 40
17.0
 40
17.0
 40
17.0
 40
17.0
 10
1557.687928905659
 20
122.1153908307171
 30
0.0
 10
1558.611021851194
 20
122.3752208739253
 30
0.0
 10
1559.802693125861
 20
122.1578825052133
 30
0.0
 10
1559.802693125861
 20
122.1578825052133
 30
0.0
 10
1559.802693125861
 20
122.1578825052133
 30
0.0
 10
1559.230186250996
 20
120.4398262712745
 30
0.0
 10
1559.230186250996
 20
120.4398262712745
 30
0.0
 10
1559.230186250996
 20
120.4398262712745
 30
0.0
 10
1558.060296422918
 20
120.710547037778
 30
0.0
 10
1557.157973217439
 20
119.9990197824878
 30
0.0
 10
1556.456801076102
 20
119.442581187894
 30
0.0
 10
1556.002544841606
 20
117.9640613543017
 30
0.0
 10
1555.828293268882
 20
117.4019095933891
 30
0.0
 10
1555.828293268882
 20
117.4019095933891
 30
0.0
 10
1555.051421673821
 20
115.0173768010701
 30
0.0
 10
1555.051421673821
 20
115.0173768010701
 30
0.0
 10
1555.051421673821
 20
115.0173768010701
 30
0.0
 10
1557.598720194077
 20
115.0173768010701
 30
0.0
 10
1557.598720194077
 20
115.0173768010701
 30
0.0
 10
1557.598720194077
 20
115.0173768010701
 30
0.0
 10
1557.202547817156
 20
113.516599423694
 30
0.0
 10
1557.202547817156
 20
113.516599423694
 30
0.0
 10
1557.202547817156
 20
113.516599423694
 30
0.0
 10
1554.634479556845
 20
113.516599423694
 30
0.0
 10
1554.634479556845
 20
113.516599423694
 30
0.0
 10
1554.634479556845
 20
113.516599423694
 30
0.0
 10
1550.03972505708
 20
98.68688600020374
 30
0.0
 10
1550.03972505708
 20
98.68688600020374
 30
0.0
 10
1550.03972505708
 20
98.68688600020374
 30
0.0
 10
1548.60113787557
 20
98.68688600020374
 30
0.0
 10
1548.60113787557
 20
98.68688600020374
 30
0.0
 10
1548.60113787557
 20
98.68688600020374
 30
0.0
 10
1553.200058225776
 20
113.516599423694
 30
0.0
 10
1553.200058225776
 20
113.516599423694
 30
0.0
 10
1553.200058225776
 20
113.516599423694
 30
0.0
 10
1551.305072372401
 20
113.516599423694
 30
0.0
 10
1551.305072372401
 20
113.516599423694
 30
0.0
 10
1551.305072372401
 20
113.516599423694
 30
0.0
 10
1551.702315968007
 20
115.0173768010701
 30
0.0
 10
1551.702315968007
 20
115.0173768010701
 30
0.0
 10
1551.702315968007
 20
115.0173768010701
 30
0.0
 10
1553.617000342751
 20
115.0173768010701
 30
0.0
 10
1553.617000342751
 20
115.0173768010701
 30
0.0
 10
1553.617000342751
 20
115.0173768010701
 30
0.0
 10
1554.294248600129
 20
117.0969693411219
 30
0.0
 10
1554.294248600129
 20
117.0969693411219
 30
0.0
 10
1554.841879396648
 20
118.8404967748988
 30
0.0
 10
1555.306550257245
 20
119.7765633689486
 30
0.0
 10
1555.704865071536
 20
120.4823179457708
 30
0.0
 10
1556.098954523236
 20
121.1886676440845
 30
0.0
 10
1556.878920750054
 20
121.8825197910759
 30
0.0
 10
1557.687928905659
 20
122.1153908307171
 30
0.0
  0
SPLINE
  5
3CF0
102
{ACAD_REACTORS
330
3CE3
330
3CF4
102
}
330
A
100
AcDbEntity
  8
TEMPLATE
100
AcDbSpline
210
0.0
220
0.0
230
1.0
 70
    11
 71
     3
 72
    38
 73
    34
 74
     0
 42
0.000000001
 43
0.0000000001
 40
0.0
 40
0.0
 40
0.0
 40
0.0
 40
1.0
 40
1.0
 40
1.0
 40
2.0
 40
2.0
 40
2.0
 40
3.0
 40
3.0
 40
3.0
 40
4.0
 40
4.0
 40
4.0
 40
5.0
 40
5.0
 40
5.0
 40
6.0
 40
6.0
 40
6.0
 40
7.0
 40
7.0
 40
7.0
 40
8.0
 40
8.0
 40
8.0
 40
9.0
 40
9.0
 40
9.0
 40
10.0
 40
10.0
 40
10.0
 40
11.0
 40
11.0
 40
11.0
 40
11.0
 10
1573.306951963385
 20
114.9598285528377
 30
0.0
 10
1573.306951963385
 20
114.9598285528377
 30
0.0
 10
1574.78594789417
 20
114.9598285528377
 30
0.0
 10
1574.78594789417
 20
114.9598285528377
 30
0.0
 10
1574.78594789417
 20
114.9598285528377
 30
0.0
 10
1574.125244014258
 20
112.8444692111441
 30
0.0
 10
1574.125244014258
 20
112.8444692111441
 30
0.0
 10
1574.627288504525
 20
113.4382814354068
 30
0.0
 10
1575.419633258367
 20
114.2291383855198
 30
0.0
 10
1576.100095171798
 20
114.6279292970036
 30
0.0
 10
1577.116562679355
 20
115.2217415212663
 30
0.0
 10
1577.697401255102
 20
115.3000595095535
 30
0.0
 10
1578.336204664126
 20
115.2844673264751
 30
0.0
 10
1578.336204664126
 20
115.2844673264751
 30
0.0
 10
1577.711922219496
 20
113.2842639933952
 30
0.0
 10
1577.711922219496
 20
113.2842639933952
 30
0.0
 10
1577.305335216473
 20
113.4564326408989
 30
0.0
 10
1576.052366428176
 20
113.1286992355056
 30
0.0
 10
1575.333578690689
 20
112.611657683652
 30
0.0
 10
1574.685372362099
 20
112.1454395071763
 30
0.0
 10
1574.237245878966
 20
111.748731520913
 30
0.0
 10
1573.706278484211
 20
110.7514269253833
 30
0.0
 10
1573.179357915597
 20
109.7526345261248
 30
0.0
 10
1572.763487017306
 20
108.1600299026035
 30
0.0
 10
1572.047793911575
 20
105.8496492481308
 30
0.0
 10
1572.047793911575
 20
105.8496492481308
 30
0.0
 10
1569.812636613634
 20
98.68688600020374
 30
0.0
 10
1569.812636613634
 20
98.68688600020374
 30
0.0
 10
1569.812636613634
 20
98.68688600020374
 30
0.0
 10
1568.377203576029
 20
98.68688600020374
 30
0.0
 10
1568.377203576029
 20
98.68688600020374
 30
0.0
 10
1568.377203576029
 20
98.68688600020374
 30
0.0
 10
1573.306951963385
 20
114.9598285528377
 30
0.0
 10
1573.306951963385
 20
114.9598285528377
 30
0.0
  0
SPLINE
  5
3CF1
102
{ACAD_REACTORS
330
3CE3
330
3CF4
102
}
330
A
100
AcDbEntity
  8
TEMPLATE
100
AcDbSpline
210
0.0
220
0.0
230
1.0
 70
    11
 71
     3
 72
   104
 73
   100
 74
     0
 42
0.000000001
 43
0.0000000001
 40
0.0
 40
0.0
 40
0.0
 40
0.0
 40
1.0
 40
1.0
 40
1.0
 40
2.0
 40
2.0
 40
2.0
 40
3.0
 40
3.0
 40
3.0
 40
4.0
 40
4.0
 40
4.0
 40
5.0
 40
5.0
 40
5.0
 40
6.0
 40
6.0
 40
6.0
 40
7.0
 40
7.0
 40
7.0
 40
8.0
 40
8.0
 40
8.0
 40
9.0
 40
9.0
 40
9.0
 40
10.0
 40
10.0
 40
10.0
 40
11.0
 40
11.0
 40
11.0
 40
12.0
 40
12.0
 40
12.0
 40
13.0
 40
13.0
 40
13.0
 40
14.0
 40
14.0
 40
14.0
 40
15.0
 40
15.0
 40
15.0
 40
16.0
 40
16.0
 40
16.0
 40
17.0
 40
17.0
 40
17.0
 40
18.0
 40
18.0
 40
18.0
 40
19.0
 40
19.0
 40
19.0
 40
20.0
 40
20.0
 40
20.0
 40
21.0
 40
21.0
 40
21.0
 40
22.0
 40
22.0
 40
22.0
 40
23.0
 40
23.0
 40
23.0
 40
24.0
 40
24.0
 40
24.0
 40
25.0
 40
25.0
 40
25.0
 40
26.0
 40
26.0
 40
26.0
 40
27.0
 40
27.0
 40
27.0
 40
28.0
 40
28.0
 40
28.0
 40
29.0
 40
29.0
 40
29.0
 40
30.0
 40
30.0
 40
30.0
 40
31.0
 40
31.0
 40
31.0
 40
32.0
 40
32.0
 40
32.0
 40
33.0
 40
33.0
 40
33.0
 40
33.0
 10
1581.447856894813
 20
114.9686363509126
 30
0.0
 10
1581.447856894813
 20
114.9686363509126
 30
0.0
 10
1582.739151507166
 20
114.9686363509126
 30
0.0
 10
1582.739151507166
 20
114.9686363509126
 30
0.0
 10
1582.739151507166
 20
114.9686363509126
 30
0.0
 10
1582.086779328135
 20
112.8512535961477
 30
0.0
 10
1582.086779328135
 20
112.8512535961477
 30
0.0
 10
1582.652977915191
 20
113.7390558372332
 30
0.0
 10
1583.161211668969
 20
114.134752116961
 30
0.0
 10
1583.836436513275
 20
114.6460805024957
 30
0.0
 10
1584.513684770653
 20
115.1501484058336
 30
0.0
 10
1585.31757488143
 20
115.2528663752741
 30
0.0
 10
1585.875560791902
 20
115.2528663752741
 30
0.0
 10
1586.566377819287
 20
115.2528663752741
 30
0.0
 10
1587.233270962711
 20
115.1164645294122
 30
0.0
 10
1587.58379752123
 20
114.3592914557206
 30
0.0
 10
1587.852435362513
 20
113.7655387436069
 30
0.0
 10
1587.864932913836
 20
113.6954929440522
 30
0.0
 10
1587.788162241427
 20
112.5234606786051
 30
0.0
 10
1588.490286577151
 20
113.725070482182
 30
0.0
 10
1589.008875444882
 20
114.2426476433779
 30
0.0
 10
1589.890488422455
 20
114.7399311617122
 30
0.0
 10
1590.81566429321
 20
115.2528663752741
 30
0.0
 10
1591.354963388847
 20
115.2912517114787
 30
0.0
 10
1591.981507295145
 20
115.198888855991
 30
0.0
 10
1592.90454072853
 20
115.0625465222783
 30
0.0
 10
1593.493711005159
 20
114.7332062888577
 30
0.0
 10
1593.801745889182
 20
113.7323309643788
 30
0.0
 10
1594.11085199189
 20
112.7345502716558
 30
0.0
 10
1593.943860901363
 20
112.1993575143102
 30
0.0
 10
1593.562149976686
 20
110.6109187412297
 30
0.0
 10
1593.387898403962
 20
109.8874890561087
 30
0.0
 10
1593.135804940144
 20
109.0115297327048
 30
0.0
 10
1592.80598860953
 20
107.9692339524144
 30
0.0
 10
1592.80598860953
 20
107.9692339524144
 30
0.0
 10
1589.890488422455
 20
98.68688600020374
 30
0.0
 10
1589.890488422455
 20
98.68688600020374
 30
0.0
 10
1589.890488422455
 20
98.68688600020374
 30
0.0
 10
1588.374118862001
 20
98.68688600020374
 30
0.0
 10
1588.374118862001
 20
98.68688600020374
 30
0.0
 10
1588.374118862001
 20
98.68688600020374
 30
0.0
 10
1590.926713963532
 20
106.8018436346014
 30
0.0
 10
1590.926713963532
 20
106.8018436346014
 30
0.0
 10
1591.459823795657
 20
108.4997252499769
 30
0.0
 10
1591.82070546813
 20
109.7396608776091
 30
0.0
 10
1592.007454592176
 20
110.5170680820132
 30
0.0
 10
1592.241813435546
 20
111.4868185524844
 30
0.0
 10
1592.335128485421
 20
111.8068153784877
 30
0.0
 10
1592.224197839397
 20
112.5126294674591
 30
0.0
 10
1592.122551088641
 20
113.1696435941238
 30
0.0
 10
1591.790592320658
 20
113.5974764343949
 30
0.0
 10
1591.222251296233
 20
113.5974764343949
 30
0.0
 10
1590.616536642139
 20
113.5974764343949
 30
0.0
 10
1590.12591848451
 20
113.5300491694029
 30
0.0
 10
1589.439386331865
 20
112.8403628728524
 30
0.0
 10
1588.752735154922
 20
112.1454395071763
 30
0.0
 10
1588.185346324883
 20
111.3297064787168
 30
0.0
 10
1587.740433497805
 20
110.3915569594466
 30
0.0
 10
1587.296472865113
 20
109.4476942738576
 30
0.0
 10
1586.846322968909
 20
108.2513215394063
 30
0.0
 10
1586.389983809193
 20
106.8018436346014
 30
0.0
 10
1586.389983809193
 20
106.8018436346014
 30
0.0
 10
1583.836436513275
 20
98.68688600020374
 30
0.0
 10
1583.836436513275
 20
98.68688600020374
 30
0.0
 10
1583.836436513275
 20
98.68688600020374
 30
0.0
 10
1582.410287370939
 20
98.68688600020374
 30
0.0
 10
1582.410287370939
 20
98.68688600020374
 30
0.0
 10
1582.410287370939
 20
98.68688600020374
 30
0.0
 10
1585.329953408454
 20
107.9650681019736
 30
0.0
 10
1585.329953408454
 20
107.9650681019736
 30
0.0
 10
1585.637988292478
 20
108.9524936807437
 30
0.0
 10
1585.86937152839
 20
109.757335985908
 30
0.0
 10
1586.021841654524
 20
110.3863794024701
 30
0.0
 10
1586.28107657624
 20
111.4692029563347
 30
0.0
 10
1586.353681398209
 20
112.2014404395306
 30
0.0
 10
1586.157648378894
 20
112.8512535961477
 30
0.0
 10
1585.964709991335
 20
113.4989838275443
 30
0.0
 10
1585.625609765454
 20
113.6644276021936
 30
0.0
 10
1585.0592921541
 20
113.6644276021936
 30
0.0
 10
1584.58426617955
 20
113.6644276021936
 30
0.0
 10
1584.120666537637
 20
113.4605984913397
 30
0.0
 10
1583.591722555952
 20
113.0550231948524
 30
0.0
 10
1582.925781606914
 20
112.5447660280024
 30
0.0
 10
1582.659286203001
 20
112.1257409858062
 30
0.0
 10
1582.332564504143
 20
111.6278623459804
 30
0.0
 10
1581.891698503207
 20
110.9692413912885
 30
0.0
 10
1581.68531036994
 20
110.5258758800881
 30
0.0
 10
1581.31300236483
 20
109.5529712657117
 30
0.0
 10
1580.940575335421
 20
108.5743534850165
 30
0.0
 10
1580.588025363831
 20
107.4355289987976
 30
0.0
 10
1580.342121163525
 20
106.6478261925898
 30
0.0
 10
1580.342121163525
 20
106.6478261925898
 30
0.0
 10
1577.837373829914
 20
98.68688600020374
 30
0.0
 10
1577.837373829914
 20
98.68688600020374
 30
0.0
 10
1577.837373829914
 20
98.68688600020374
 30
0.0
 10
1576.343856934735
 20
98.68688600020374
 30
0.0
 10
1576.343856934735
 20
98.68688600020374
 30
0.0
 10
1576.343856934735
 20
98.68688600020374
 30
0.0
 10
1581.447856894813
 20
114.9686363509126
 30
0.0
 10
1581.447856894813
 20
114.9686363509126
 30
0.0
  0
SPLINE
  5
3CF2
102
{ACAD_REACTORS
330
3CE3
330
3CF4
102
}
330
A
100
AcDbEntity
  8
TEMPLATE
100
AcDbSpline
210
0.0
220
0.0
230
1.0
 70
    11
 71
     3
 72
    32
 73
    28
 74
     0
 42
0.000000001
 43
0.0000000001
 40
0.0
 40
0.0
 40
0.0
 40
0.0
 40
1.0
 40
1.0
 40
1.0
 40
2.0
 40
2.0
 40
2.0
 40
3.0
 40
3.0
 40
3.0
 40
4.0
 40
4.0
 40
4.0
 40
5.0
 40
5.0
 40
5.0
 40
6.0
 40
6.0
 40
6.0
 40
7.0
 40
7.0
 40
7.0
 40
8.0
 40
8.0
 40
8.0
 40
9.0
 40
9.0
 40
9.0
 40
9.0
 10
1561.188374006773
 20
114.1104116479568
 30
0.0
 10
1560.322353212278
 20
112.9902144644232
 30
0.0
 10
1559.655460068853
 20
111.9820786577475
 30
0.0
 10
1558.575790658894
 20
108.813473300319
 30
0.0
 10
1557.583187523147
 20
105.9151126122006
 30
0.0
 10
1556.951525572023
 20
103.8064781433614
 30
0.0
 10
1556.856127596928
 20
101.2384098830501
 30
0.0
 10
1556.78352277496
 20
99.32735574940358
 30
0.0
 10
1557.947223339525
 20
98.68688600020374
 30
0.0
 10
1559.653436655782
 20
98.68688600020374
 30
0.0
 10
1560.388768770734
 20
98.68688600020374
 30
0.0
 10
1562.244357581369
 20
98.73366254943912
 30
0.0
 10
1563.565765341194
 20
100.3671520194295
 30
0.0
 10
1564.490822187649
 20
101.5147843037232
 30
0.0
 10
1565.343393236436
 20
102.70443216532
 30
0.0
 10
1566.486383573095
 20
106.6068818339716
 30
0.0
 10
1567.437506740881
 20
109.8693378506166
 30
0.0
 10
1568.096068183424
 20
111.9779128073066
 30
0.0
 10
1568.047387245416
 20
113.1784513921987
 30
0.0
 10
1568.047387245416
 20
113.1784513921987
 30
0.0
 10
1568.047387245416
 20
113.1784513921987
 30
0.0
 10
1568.047387245416
 20
113.1784513921987
 30
0.0
 10
1567.737209924023
 20
115.1812732598413
 30
0.0
 10
1566.283090071584
 20
115.6044641524784
 30
0.0
 10
1565.452300469388
 20
115.6044641524784
 30
0.0
 10
1564.634008418515
 20
115.6044641524784
 30
0.0
 10
1562.44134279507
 20
115.7460435553167
 30
0.0
 10
1561.188374006773
 20
114.1104116479568
 30
0.0
  0
SPLINE
  5
3CF3
102
{ACAD_REACTORS
330
3CE3
330
3CF4
102
}
330
A
100
AcDbEntity
  8
TEMPLATE
100
AcDbSpline
210
0.0
220
0.0
230
1.0
 70
    11
 71
     3
 72
    29
 73
    25
 74
     0
 42
0.000000001
 43
0.0000000001
 40
0.0
 40
0.0
 40
0.0
 40
0.0
 40
1.0
 40
1.0
 40
1.0
 40
2.0
 40
2.0
 40
2.0
 40
3.0
 40
3.0
 40
3.0
 40
4.0
 40
4.0
 40
4.0
 40
5.0
 40
5.0
 40
5.0
 40
6.0
 40
6.0
 40
6.0
 40
7.0
 40
7.0
 40
7.0
 40
8.0
 40
8.0
 40
8.0
 40
8.0
 10
1558.405704936611
 20
101.7185539024279
 30
0.0
 10
1558.399396648801
 20
102.8522603438195
 30
0.0
 10
1558.757302713815
 20
104.8665085440999
 30
0.0
 10
1559.674146883688
 20
107.5615757307067
 30
0.0
 10
1560.922949821544
 20
111.2109202290046
 30
0.0
 10
1561.671850706503
 20
112.5447660280024
 30
0.0
 10
1562.327198492992
 20
113.1940435752771
 30
0.0
 10
1563.284629948588
 20
114.1394535767441
 30
0.0
 10
1564.5717587105
 20
114.1865871988744
 30
0.0
 10
1564.951446222105
 20
114.1394535767441
 30
0.0
 10
1565.491816536427
 20
114.0745853341658
 30
0.0
 10
1566.255119361481
 20
113.7209046317411
 30
0.0
 10
1566.300705667734
 20
112.5302450636088
 30
0.0
 10
1566.337127103016
 20
111.5112185336377
 30
0.0
 10
1566.043494159088
 20
109.6027829345539
 30
0.0
 10
1565.015719343191
 20
106.6068818339716
 30
0.0
 10
1563.831189526422
 20
103.1255401327366
 30
0.0
 10
1563.119662271132
 20
101.7569987507817
 30
0.0
 10
1562.549297833636
 20
101.1605679919562
 30
0.0
 10
1561.474746468504
 20
100.042453733643
 30
0.0
 10
1560.322353212278
 20
100.1498136507176
 30
0.0
 10
1560.152267489994
 20
100.1498136507176
 30
0.0
 10
1559.931358392333
 20
100.1498136507176
 30
0.0
 10
1558.408799568367
 20
100.3895285875116
 30
0.0
 10
1558.405704936611
 20
101.7185539024279
 30
0.0
  0
MTEXT
  5
3D12
330
A
100
AcDbEntity
  8
TEMPLATE
390
1D
100
AcDbMText
 10
105.7617156381846
 20
184.1194325551428
 30
0.0
 40
19.54609375
 41
0.0
 46
48.14833134236019
 71
     1
 72
     1
  1
{壁掛け,カウンター置き/壁取付ボルト付属\P\fＭＳ ゴシック|b0|i0|c1|p0;陶器/ホワイト}
  7
ＭＳ ゴシック
 73
     1
 44
0.7828267384257843
1001
ACAD
1000
ACAD_MTEXT_DEFINED_HEIGHT_BEGIN
1070
    46
1040
48.14833134236019
1000
ACAD_MTEXT_DEFINED_HEIGHT_END
  0
MTEXT
  5
3DB7
102
{ACAD_XDICTIONARY
360
3DB8
102
}
330
A
100
AcDbEntity
  8
TEMPLATE
100
AcDbMText
 10
58.76275698768336
 20
71.9342530318656
 30
0.0
 40
16.0
 41
0.0
 46
16.0
 71
     1
 72
     1
  1
{20220506N}
  7
ＭＳ ゴシック
 73
     1
 44
1.0
1001
ACAD
1000
ACAD_MTEXT_DEFINED_HEIGHT_BEGIN
1070
    46
1040
16.0
1000
ACAD_MTEXT_DEFINED_HEIGHT_END
  0
POLYLINE
  5
5E34
330
A
100
AcDbEntity
  8
MODEL
100
AcDb2dPolyline
 66
     1
 10
0.0
 20
0.0
 30
0.0
  0
VERTEX
  5
5E35
330
5E34
100
AcDbEntity
  8
MODEL
100
AcDbVertex
100
AcDb2dVertex
 10
262.7618639573022
 20
1472.252498812122
 30
0.0
  0
VERTEX
  5
5E36
330
5E34
100
AcDbEntity
  8
MODEL
100
AcDbVertex
100
AcDb2dVertex
 10
262.7618639573022
 20
1786.25309323706
 30
0.0
  0
SEQEND
  5
5E37
330
5E34
100
AcDbEntity
  8
MODEL
  0
POLYLINE
  5
5E38
330
A
100
AcDbEntity
  8
MODEL
100
AcDb2dPolyline
 66
     1
 10
0.0
 20
0.0
 30
0.0
  0
VERTEX
  5
5E39
330
5E38
100
AcDbEntity
  8
MODEL
100
AcDbVertex
100
AcDb2dVertex
 10
265.7634689029192
 20
1789.254698182675
 30
0.0
  0
VERTEX
  5
5E3A
330
5E38
100
AcDbEntity
  8
MODEL
100
AcDbVertex
100
AcDb2dVertex
 10
659.7193626206536
 20
1789.254698182675
 30
0.0
  0
SEQEND
  5
5E3B
330
5E38
100
AcDbEntity
  8
MODEL
  0
POLYLINE
  5
5E3C
330
A
100
AcDbEntity
  8
MODEL
100
AcDb2dPolyline
 66
     1
 10
0.0
 20
0.0
 30
0.0
  0
VERTEX
  5
5E3D
330
5E3C
100
AcDbEntity
  8
MODEL
100
AcDbVertex
100
AcDb2dVertex
 10
265.7634689029192
 20
1469.254698182027
 30
0.0
  0
VERTEX
  5
5E3E
330
5E3C
100
AcDbEntity
  8
MODEL
100
AcDbVertex
100
AcDb2dVertex
 10
659.7193626206536
 20
1469.254698182027
 30
0.0
  0
SEQEND
  5
5E3F
330
5E3C
100
AcDbEntity
  8
MODEL
  0
POLYLINE
  5
5E40
330
A
100
AcDbEntity
  8
MODEL
100
AcDb2dPolyline
 66
     1
 10
0.0
 20
0.0
 30
0.0
  0
VERTEX
  5
5E41
330
5E40
100
AcDbEntity
  8
MODEL
100
AcDbVertex
100
AcDb2dVertex
 10
662.7171632507489
 20
1786.245484606018
 30
0.0
  0
VERTEX
  5
5E42
330
5E40
100
AcDbEntity
  8
MODEL
100
AcDbVertex
100
AcDb2dVertex
 10
662.7171632507489
 20
1472.244890181082
 30
0.0
  0
SEQEND
  5
5E43
330
5E40
100
AcDbEntity
  8
MODEL
  0
POLYLINE
  5
5E44
330
A
100
AcDbEntity
  8
MODEL
100
AcDb2dPolyline
 66
     1
 10
0.0
 20
0.0
 30
0.0
  0
VERTEX
  5
5E45
330
5E44
100
AcDbEntity
  8
MODEL
100
AcDbVertex
100
AcDb2dVertex
 10
659.7193626206536
 20
1469.254698182027
 30
0.0
  0
VERTEX
  5
5E46
330
5E44
100
AcDbEntity
  8
MODEL
100
AcDbVertex
100
AcDb2dVertex
 10
660.4193566764116
 20
1469.422088064925
 30
0.0
  0
VERTEX
  5
5E47
330
5E44
100
AcDbEntity
  8
MODEL
100
AcDbVertex
100
AcDb2dVertex
 10
661.30576219267
 20
1469.604695209906
 30
0.0
  0
VERTEX
  5
5E48
330
5E44
100
AcDbEntity
  8
MODEL
100
AcDbVertex
100
AcDb2dVertex
 10
661.8383663655311
 20
1470.129690751726
 30
0.0
  0
VERTEX
  5
5E49
330
5E44
100
AcDbEntity
  8
MODEL
100
AcDbVertex
100
AcDb2dVertex
 10
662.3671662228687
 20
1470.844902069565
 30
0.0
  0
VERTEX
  5
5E4A
330
5E44
100
AcDbEntity
  8
MODEL
100
AcDbVertex
100
AcDb2dVertex
 10
662.5459690523287
 20
1471.544896125323
 30
0.0
  0
VERTEX
  5
5E4B
330
5E44
100
AcDbEntity
  8
MODEL
100
AcDbVertex
100
AcDb2dVertex
 10
662.7171632507489
 20
1472.252498812122
 30
0.0
  0
SEQEND
  5
5E4C
330
5E44
100
AcDbEntity
  8
MODEL
  0
POLYLINE
  5
5E4D
330
A
100
AcDbEntity
  8
MODEL
100
AcDb2dPolyline
 66
     1
 10
0.0
 20
0.0
 30
0.0
  0
VERTEX
  5
5E4E
330
5E4D
100
AcDbEntity
  8
MODEL
100
AcDbVertex
100
AcDb2dVertex
 10
265.7634689029192
 20
1789.254698182675
 30
0.0
  0
VERTEX
  5
5E4F
330
5E4D
100
AcDbEntity
  8
MODEL
100
AcDbVertex
100
AcDb2dVertex
 10
265.0596705316395
 20
1789.083503984255
 30
0.0
  0
VERTEX
  5
5E50
330
5E4D
100
AcDbEntity
  8
MODEL
100
AcDbVertex
100
AcDb2dVertex
 10
264.3520678448419
 20
1788.904701154797
 30
0.0
  0
VERTEX
  5
5E51
330
5E4D
100
AcDbEntity
  8
MODEL
100
AcDbVertex
100
AcDb2dVertex
 10
263.6406608425219
 20
1788.375901297456
 30
0.0
  0
VERTEX
  5
5E52
330
5E4D
100
AcDbEntity
  8
MODEL
100
AcDbVertex
100
AcDb2dVertex
 10
263.1118609851823
 20
1787.843297124597
 30
0.0
  0
VERTEX
  5
5E53
330
5E4D
100
AcDbEntity
  8
MODEL
100
AcDbVertex
100
AcDb2dVertex
 10
262.9330581557219
 20
1786.964500239378
 30
0.0
  0
VERTEX
  5
5E54
330
5E4D
100
AcDbEntity
  8
MODEL
100
AcDbVertex
100
AcDb2dVertex
 10
262.7618639573022
 20
1786.25309323706
 30
0.0
  0
SEQEND
  5
5E55
330
5E4D
100
AcDbEntity
  8
MODEL
  0
POLYLINE
  5
5E56
330
A
100
AcDbEntity
  8
MODEL
100
AcDb2dPolyline
 66
     1
 10
0.0
 20
0.0
 30
0.0
  0
VERTEX
  5
5E57
330
5E56
100
AcDbEntity
  8
MODEL
100
AcDbVertex
100
AcDb2dVertex
 10
262.7618639573022
 20
1472.252498812122
 30
0.0
  0
VERTEX
  5
5E58
330
5E56
100
AcDbEntity
  8
MODEL
100
AcDbVertex
100
AcDb2dVertex
 10
263.1118609851823
 20
1470.844902069565
 30
0.0
  0
VERTEX
  5
5E59
330
5E56
100
AcDbEntity
  8
MODEL
100
AcDbVertex
100
AcDb2dVertex
 10
263.6406608425219
 20
1470.129690751726
 30
0.0
  0
VERTEX
  5
5E5A
330
5E56
100
AcDbEntity
  8
MODEL
100
AcDbVertex
100
AcDb2dVertex
 10
264.3520678448419
 20
1469.604695209906
 30
0.0
  0
VERTEX
  5
5E5B
330
5E56
100
AcDbEntity
  8
MODEL
100
AcDbVertex
100
AcDb2dVertex
 10
265.0520619005992
 20
1469.422088064925
 30
0.0
  0
VERTEX
  5
5E5C
330
5E56
100
AcDbEntity
  8
MODEL
100
AcDbVertex
100
AcDb2dVertex
 10
265.7634689029192
 20
1469.254698182027
 30
0.0
  0
SEQEND
  5
5E5D
330
5E56
100
AcDbEntity
  8
MODEL
  0
POLYLINE
  5
5E5E
330
A
100
AcDbEntity
  8
MODEL
100
AcDb2dPolyline
 66
     1
 10
0.0
 20
0.0
 30
0.0
  0
VERTEX
  5
5E5F
330
5E5E
100
AcDbEntity
  8
MODEL
100
AcDbVertex
100
AcDb2dVertex
 10
662.7171632507489
 20
1786.245484606018
 30
0.0
  0
VERTEX
  5
5E60
330
5E5E
100
AcDbEntity
  8
MODEL
100
AcDbVertex
100
AcDb2dVertex
 10
662.5459690523287
 20
1786.956891608337
 30
0.0
  0
VERTEX
  5
5E61
330
5E5E
100
AcDbEntity
  8
MODEL
100
AcDbVertex
100
AcDb2dVertex
 10
662.3671662228687
 20
1787.835688493556
 30
0.0
  0
VERTEX
  5
5E62
330
5E5E
100
AcDbEntity
  8
MODEL
100
AcDbVertex
100
AcDb2dVertex
 10
661.8383663655311
 20
1788.364488350895
 30
0.0
  0
VERTEX
  5
5E63
330
5E5E
100
AcDbEntity
  8
MODEL
100
AcDbVertex
100
AcDb2dVertex
 10
661.30576219267
 20
1788.897092523757
 30
0.0
  0
VERTEX
  5
5E64
330
5E5E
100
AcDbEntity
  8
MODEL
100
AcDbVertex
100
AcDb2dVertex
 10
660.4269653074523
 20
1789.075895353216
 30
0.0
  0
VERTEX
  5
5E65
330
5E5E
100
AcDbEntity
  8
MODEL
100
AcDbVertex
100
AcDb2dVertex
 10
659.7193626206536
 20
1789.247089551635
 30
0.0
  0
SEQEND
  5
5E66
330
5E5E
100
AcDbEntity
  8
MODEL
  0
POLYLINE
  5
5ED9
330
A
100
AcDbEntity
  8
MODEL
100
AcDb2dPolyline
 66
     1
 10
0.0
 20
0.0
 30
0.0
  0
VERTEX
  5
5EDA
330
5ED9
100
AcDbEntity
  8
MODEL
100
AcDbVertex
100
AcDb2dVertex
 10
662.7171632507489
 20
931.0228413958955
 30
0.0
  0
VERTEX
  5
5EDB
330
5ED9
100
AcDbEntity
  8
MODEL
100
AcDbVertex
100
AcDb2dVertex
 10
660.7769623353315
 20
817.0075052487242
 30
0.0
  0
SEQEND
  5
5EDC
330
5ED9
100
AcDbEntity
  8
MODEL
  0
POLYLINE
  5
5EDD
330
A
100
AcDbEntity
  8
MODEL
100
AcDb2dPolyline
 66
     1
 10
0.0
 20
0.0
 30
0.0
  0
VERTEX
  5
5EDE
330
5EDD
100
AcDbEntity
  8
MODEL
100
AcDbVertex
100
AcDb2dVertex
 10
264.7020648727204
 20
816.9998966176829
 30
0.0
  0
VERTEX
  5
5EDF
330
5EDD
100
AcDbEntity
  8
MODEL
100
AcDbVertex
100
AcDb2dVertex
 10
262.7618639573022
 20
931.0152327648555
 30
0.0
  0
SEQEND
  5
5EE0
330
5EDD
100
AcDbEntity
  8
MODEL
  0
POLYLINE
  5
5EE1
330
A
100
AcDbEntity
  8
MODEL
100
AcDb2dPolyline
 66
     1
 10
0.0
 20
0.0
 30
0.0
  0
VERTEX
  5
5EE2
330
5EE1
100
AcDbEntity
  8
MODEL
100
AcDbVertex
100
AcDb2dVertex
 10
265.7634689029183
 20
934.0206420259917
 30
0.0
  0
VERTEX
  5
5EE3
330
5EE1
100
AcDbEntity
  8
MODEL
100
AcDbVertex
100
AcDb2dVertex
 10
659.7193626206517
 20
934.0206420259917
 30
0.0
  0
SEQEND
  5
5EE4
330
5EE1
100
AcDbEntity
  8
MODEL
  0
POLYLINE
  5
5EE5
330
A
100
AcDbEntity
  8
MODEL
100
AcDb2dPolyline
 66
     1
 10
0.0
 20
0.0
 30
0.0
  0
VERTEX
  5
5EE6
330
5EE5
100
AcDbEntity
  8
MODEL
100
AcDbVertex
100
AcDb2dVertex
 10
268.2324696756756
 20
934.0206420259917
 30
0.0
  0
VERTEX
  5
5EE7
330
5EE5
100
AcDbEntity
  8
MODEL
100
AcDbVertex
100
AcDb2dVertex
 10
268.4036638740952
 20
934.0206420259917
 30
0.0
  0
SEQEND
  5
5EE8
330
5EE5
100
AcDbEntity
  8
MODEL
  0
POLYLINE
  5
5EE9
330
A
100
AcDbEntity
  8
MODEL
100
AcDb2dPolyline
 66
     1
 10
0.0
 20
0.0
 30
0.0
  0
VERTEX
  5
5EEA
330
5EE9
100
AcDbEntity
  8
MODEL
100
AcDbVertex
100
AcDb2dVertex
 10
657.4177517307942
 20
934.0206420259917
 30
0.0
  0
VERTEX
  5
5EEB
330
5EE9
100
AcDbEntity
  8
MODEL
100
AcDbVertex
100
AcDb2dVertex
 10
657.2465575323754
 20
934.0206420259917
 30
0.0
  0
SEQEND
  5
5EEC
330
5EE9
100
AcDbEntity
  8
MODEL
  0
POLYLINE
  5
5EED
330
A
100
AcDbEntity
  8
MODEL
100
AcDb2dPolyline
 66
     1
 10
0.0
 20
0.0
 30
0.0
  0
VERTEX
  5
5EEE
330
5EED
100
AcDbEntity
  8
MODEL
100
AcDbVertex
100
AcDb2dVertex
 10
657.7715530741941
 20
814.0097046186277
 30
0.0
  0
VERTEX
  5
5EEF
330
5EED
100
AcDbEntity
  8
MODEL
100
AcDbVertex
100
AcDb2dVertex
 10
267.6998655028166
 20
814.0097046186277
 30
0.0
  0
SEQEND
  5
5EF0
330
5EED
100
AcDbEntity
  8
MODEL
  0
POLYLINE
  5
5EF1
330
A
100
AcDbEntity
  8
MODEL
100
AcDb2dPolyline
 66
     1
 10
0.0
 20
0.0
 30
0.0
  0
VERTEX
  5
5EF2
330
5EF1
100
AcDbEntity
  8
MODEL
100
AcDbVertex
100
AcDb2dVertex
 10
657.7715530741941
 20
814.0097046186277
 30
0.0
  0
VERTEX
  5
5EF3
330
5EF1
100
AcDbEntity
  8
MODEL
100
AcDbVertex
100
AcDb2dVertex
 10
659.1791498167515
 20
814.359701646507
 30
0.0
  0
VERTEX
  5
5EF4
330
5EF1
100
AcDbEntity
  8
MODEL
100
AcDbVertex
100
AcDb2dVertex
 10
659.8905568190714
 20
814.877088557285
 30
0.0
  0
VERTEX
  5
5EF5
330
5EF1
100
AcDbEntity
  8
MODEL
100
AcDbVertex
100
AcDb2dVertex
 10
660.4193566764116
 20
815.4173013611855
 30
0.0
  0
VERTEX
  5
5EF6
330
5EF1
100
AcDbEntity
  8
MODEL
100
AcDbVertex
100
AcDb2dVertex
 10
660.5981595058715
 20
816.109686785903
 30
0.0
  0
VERTEX
  5
5EF7
330
5EF1
100
AcDbEntity
  8
MODEL
100
AcDbVertex
100
AcDb2dVertex
 10
660.7693537042892
 20
816.9998966176829
 30
0.0
  0
SEQEND
  5
5EF8
330
5EF1
100
AcDbEntity
  8
MODEL
  0
POLYLINE
  5
5EF9
330
A
100
AcDbEntity
  8
MODEL
100
AcDb2dPolyline
 66
     1
 10
0.0
 20
0.0
 30
0.0
  0
VERTEX
  5
5EFA
330
5EF9
100
AcDbEntity
  8
MODEL
100
AcDbVertex
100
AcDb2dVertex
 10
264.7020648727204
 20
816.9998966176829
 30
0.0
  0
VERTEX
  5
5EFB
330
5EF9
100
AcDbEntity
  8
MODEL
100
AcDbVertex
100
AcDb2dVertex
 10
264.8732590711383
 20
816.1172954169439
 30
0.0
  0
VERTEX
  5
5EFC
330
5EF9
100
AcDbEntity
  8
MODEL
100
AcDbVertex
100
AcDb2dVertex
 10
265.0596705316395
 20
815.4096927301442
 30
0.0
  0
VERTEX
  5
5EFD
330
5EF9
100
AcDbEntity
  8
MODEL
100
AcDbVertex
100
AcDb2dVertex
 10
265.5808617579384
 20
814.877088557285
 30
0.0
  0
VERTEX
  5
5EFE
330
5EF9
100
AcDbEntity
  8
MODEL
100
AcDbVertex
100
AcDb2dVertex
 10
266.2922687602583
 20
814.359701646507
 30
0.0
  0
VERTEX
  5
5EFF
330
5EF9
100
AcDbEntity
  8
MODEL
100
AcDbVertex
100
AcDb2dVertex
 10
267.6998655028166
 20
814.0097046186277
 30
0.0
  0
SEQEND
  5
5F00
330
5EF9
100
AcDbEntity
  8
MODEL
  0
POLYLINE
  5
5F01
330
A
100
AcDbEntity
  8
MODEL
100
AcDb2dPolyline
 66
     1
 10
0.0
 20
0.0
 30
0.0
  0
VERTEX
  5
5F02
330
5F01
100
AcDbEntity
  8
MODEL
100
AcDbVertex
100
AcDb2dVertex
 10
662.7171632507489
 20
931.0228413958955
 30
0.0
  0
VERTEX
  5
5F03
330
5F01
100
AcDbEntity
  8
MODEL
100
AcDbVertex
100
AcDb2dVertex
 10
662.5459690523287
 20
931.7304440826961
 30
0.0
  0
VERTEX
  5
5F04
330
5F01
100
AcDbEntity
  8
MODEL
100
AcDbVertex
100
AcDb2dVertex
 10
662.3671662228687
 20
932.4380467694955
 30
0.0
  0
VERTEX
  5
5F05
330
5F01
100
AcDbEntity
  8
MODEL
100
AcDbVertex
100
AcDb2dVertex
 10
661.838366365529
 20
933.145649456294
 30
0.0
  0
VERTEX
  5
5F06
330
5F01
100
AcDbEntity
  8
MODEL
100
AcDbVertex
100
AcDb2dVertex
 10
661.30576219267
 20
933.670644998113
 30
0.0
  0
VERTEX
  5
5F07
330
5F01
100
AcDbEntity
  8
MODEL
100
AcDbVertex
100
AcDb2dVertex
 10
660.4269653074518
 20
933.8608607741344
 30
0.0
  0
VERTEX
  5
5F08
330
5F01
100
AcDbEntity
  8
MODEL
100
AcDbVertex
100
AcDb2dVertex
 10
659.7193626206517
 20
934.0206420259917
 30
0.0
  0
SEQEND
  5
5F09
330
5F01
100
AcDbEntity
  8
MODEL
  0
POLYLINE
  5
5F0A
330
A
100
AcDbEntity
  8
MODEL
100
AcDb2dPolyline
 66
     1
 10
0.0
 20
0.0
 30
0.0
  0
VERTEX
  5
5F0B
330
5F0A
100
AcDbEntity
  8
MODEL
100
AcDbVertex
100
AcDb2dVertex
 10
265.7634689029183
 20
934.0206420259917
 30
0.0
  0
VERTEX
  5
5F0C
330
5F0A
100
AcDbEntity
  8
MODEL
100
AcDbVertex
100
AcDb2dVertex
 10
265.0596705316395
 20
933.8380348810113
 30
0.0
  0
VERTEX
  5
5F0D
330
5F0A
100
AcDbEntity
  8
MODEL
100
AcDbVertex
100
AcDb2dVertex
 10
264.173265015381
 20
933.670644998113
 30
0.0
  0
VERTEX
  5
5F0E
330
5F0A
100
AcDbEntity
  8
MODEL
100
AcDbVertex
100
AcDb2dVertex
 10
263.640660842521
 20
933.145649456294
 30
0.0
  0
VERTEX
  5
5F0F
330
5F0A
100
AcDbEntity
  8
MODEL
100
AcDbVertex
100
AcDb2dVertex
 10
263.1118609851823
 20
932.4304381384543
 30
0.0
  0
VERTEX
  5
5F10
330
5F0A
100
AcDbEntity
  8
MODEL
100
AcDbVertex
100
AcDb2dVertex
 10
262.7618639573022
 20
931.0228413958955
 30
0.0
  0
SEQEND
  5
5F11
330
5F0A
100
AcDbEntity
  8
MODEL
  0
SPLINE
  5
5F5A
330
A
100
AcDbEntity
  8
MODEL
100
AcDbSpline
210
0.0
220
0.0
230
1.0
 70
    27
 71
     3
 72
    11
 73
     7
 74
     0
 42
0.000000001
 43
0.0000000001
 40
0.0
 40
0.0
 40
0.0
 40
0.0
 40
1.0
 40
1.0
 40
1.0
 40
2.0
 40
2.0
 40
2.0
 40
2.0
 10
1401.06743600232
 20
909.1319899055718
 30
0.0
 10
1401.06743600232
 20
909.1319899055718
 30
0.0
 10
1401.06743600232
 20
931.0068041480222
 30
0.0
 10
1401.06743600232
 20
931.0068041480222
 30
0.0
 10
1401.06743600232
 20
931.0068041480222
 30
0.0
 10
1401.06743600232
 20
909.1319899055718
 30
0.0
 10
1401.06743600232
 20
909.1319899055718
 30
0.0
  0
POLYLINE
  5
5F5D
102
{ACAD_REACTORS
330
7A8E
102
}
330
A
100
AcDbEntity
  8
MODEL
100
AcDb2dPolyline
 66
     1
 10
0.0
 20
0.0
 30
0.0
  0
VERTEX
  5
5F5E
330
5F5D
100
AcDbEntity
  8
MODEL
100
AcDbVertex
100
AcDb2dVertex
 10
1401.067436002321
 20
930.4377085092069
 30
0.0
  0
VERTEX
  5
5F5F
330
5F5D
100
AcDbEntity
  8
MODEL
100
AcDbVertex
100
AcDb2dVertex
 10
1401.06743600232
 20
908.7819928776901
 30
0.0
  0
VERTEX
  5
5F60
330
5F5D
100
AcDbEntity
  8
MODEL
100
AcDbVertex
100
AcDb2dVertex
 10
1401.06743600232
 20
931.0182170945816
 30
0.0
  0
VERTEX
  5
5F61
330
5F5D
100
AcDbEntity
  8
MODEL
100
AcDbVertex
100
AcDb2dVertex
 10
1401.067436002321
 20
930.4377085092069
 30
0.0
  0
SEQEND
  5
5F62
330
5F5D
100
AcDbEntity
  8
MODEL
  0
POLYLINE
  5
7790
330
A
100
AcDbEntity
  8
MODEL
100
AcDb2dPolyline
 66
     1
 10
0.0
 20
0.0
 30
0.0
  0
VERTEX
  5
7791
330
7790
100
AcDbEntity
  8
MODEL
100
AcDbVertex
100
AcDb2dVertex
 10
1094.485256842218
 20
813.9974716862736
 30
0.0
  0
VERTEX
  5
7792
330
7790
100
AcDbEntity
  8
MODEL
100
AcDbVertex
100
AcDb2dVertex
 10
1089.189649637783
 20
813.9974716862736
 30
0.0
  0
SEQEND
  5
7793
330
7790
100
AcDbEntity
  8
MODEL
  0
POLYLINE
  5
7794
330
A
100
AcDbEntity
  8
MODEL
100
AcDb2dPolyline
 66
     1
 10
0.0
 20
0.0
 30
0.0
  0
VERTEX
  5
7795
330
7794
100
AcDbEntity
  8
MODEL
100
AcDbVertex
100
AcDb2dVertex
 10
1084.069040947288
 20
934.0236263557179
 30
0.0
  0
VERTEX
  5
7796
330
7794
100
AcDbEntity
  8
MODEL
100
AcDbVertex
100
AcDb2dVertex
 10
1086.541846035567
 20
934.0236263557179
 30
0.0
  0
SEQEND
  5
7797
330
7794
100
AcDbEntity
  8
MODEL
  0
POLYLINE
  5
77B0
330
A
100
AcDbEntity
  8
MODEL
100
AcDb2dPolyline
 66
     1
 10
0.0
 20
0.0
 30
0.0
  0
VERTEX
  5
77B1
330
77B0
100
AcDbEntity
  8
MODEL
100
AcDbVertex
100
AcDb2dVertex
 10
1398.069635372226
 20
813.9974716862736
 30
0.0
  0
VERTEX
  5
77B2
330
77B0
100
AcDbEntity
  8
MODEL
100
AcDbVertex
100
AcDb2dVertex
 10
1099.423258387729
 20
813.9974716862736
 30
0.0
  0
SEQEND
  5
77B3
330
77B0
100
AcDbEntity
  8
MODEL
  0
POLYLINE
  5
77B4
330
A
100
AcDbEntity
  8
MODEL
100
AcDb2dPolyline
 66
     1
 10
0.0
 20
0.0
 30
0.0
  0
VERTEX
  5
77B5
330
77B4
100
AcDbEntity
  8
MODEL
100
AcDbVertex
100
AcDb2dVertex
 10
1401.06743600232
 20
817.0028809474103
 30
0.0
  0
VERTEX
  5
77B6
330
77B4
100
AcDbEntity
  8
MODEL
100
AcDbVertex
100
AcDb2dVertex
 10
1401.06743600232
 20
822.1158810068623
 30
0.0
  0
SEQEND
  5
77B7
330
77B4
100
AcDbEntity
  8
MODEL
  0
POLYLINE
  5
77B8
330
A
100
AcDbEntity
  8
MODEL
100
AcDb2dPolyline
 66
     1
 10
0.0
 20
0.0
 30
0.0
  0
VERTEX
  5
77B9
330
77B8
100
AcDbEntity
  8
MODEL
100
AcDbVertex
100
AcDb2dVertex
 10
1099.423258387729
 20
813.9974716862736
 30
0.0
  0
VERTEX
  5
77BA
330
77B8
100
AcDbEntity
  8
MODEL
100
AcDbVertex
100
AcDb2dVertex
 10
1094.485256842218
 20
813.9974716862736
 30
0.0
  0
SEQEND
  5
77BB
330
77B8
100
AcDbEntity
  8
MODEL
  0
POLYLINE
  5
77C4
330
A
100
AcDbEntity
  8
MODEL
100
AcDb2dPolyline
 66
     1
 10
0.0
 20
0.0
 30
0.0
  0
VERTEX
  5
77C5
330
77C4
100
AcDbEntity
  8
MODEL
100
AcDbVertex
100
AcDb2dVertex
 10
1401.06743600232
 20
830.5842873553308
 30
0.0
  0
VERTEX
  5
77C6
330
77C4
100
AcDbEntity
  8
MODEL
100
AcDbVertex
100
AcDb2dVertex
 10
1401.06743600232
 20
822.1082723758218
 30
0.0
  0
SEQEND
  5
77C7
330
77C4
100
AcDbEntity
  8
MODEL
  0
POLYLINE
  5
77CC
330
A
100
AcDbEntity
  8
MODEL
100
AcDb2dPolyline
 66
     1
 10
0.0
 20
0.0
 30
0.0
  0
VERTEX
  5
77CD
330
77CC
100
AcDbEntity
  8
MODEL
100
AcDbVertex
100
AcDb2dVertex
 10
1401.06743600232
 20
837.4777070783448
 30
0.0
  0
VERTEX
  5
77CE
330
77CC
100
AcDbEntity
  8
MODEL
100
AcDbVertex
100
AcDb2dVertex
 10
1401.06743600232
 20
830.5918959863717
 30
0.0
  0
SEQEND
  5
77CF
330
77CC
100
AcDbEntity
  8
MODEL
  0
POLYLINE
  5
77D0
330
A
100
AcDbEntity
  8
MODEL
100
AcDb2dPolyline
 66
     1
 10
0.0
 20
0.0
 30
0.0
  0
VERTEX
  5
77D1
330
77D0
100
AcDbEntity
  8
MODEL
100
AcDbVertex
100
AcDb2dVertex
 10
1086.191849007686
 20
816.8202738024282
 30
0.0
  0
VERTEX
  5
77D2
330
77D0
100
AcDbEntity
  8
MODEL
100
AcDbVertex
100
AcDb2dVertex
 10
1081.063631686153
 20
930.8356099496013
 30
0.0
  0
SEQEND
  5
77D3
330
77D0
100
AcDbEntity
  8
MODEL
  0
POLYLINE
  5
77D8
330
A
100
AcDbEntity
  8
MODEL
100
AcDb2dPolyline
 66
     1
 10
0.0
 20
0.0
 30
0.0
  0
VERTEX
  5
77D9
330
77D8
100
AcDbEntity
  8
MODEL
100
AcDbVertex
100
AcDb2dVertex
 10
1401.06743600232
 20
837.4777070783448
 30
0.0
  0
VERTEX
  5
77DA
330
77D8
100
AcDbEntity
  8
MODEL
100
AcDbVertex
100
AcDb2dVertex
 10
1401.06743600232
 20
898.0119756393653
 30
0.0
  0
SEQEND
  5
77DB
330
77D8
100
AcDbEntity
  8
MODEL
  0
POLYLINE
  5
77E0
330
A
100
AcDbEntity
  8
MODEL
100
AcDb2dPolyline
 66
     1
 10
0.0
 20
0.0
 30
0.0
  0
VERTEX
  5
77E1
330
77E0
100
AcDbEntity
  8
MODEL
100
AcDbVertex
100
AcDb2dVertex
 10
1401.06743600232
 20
909.4819869334506
 30
0.0
  0
VERTEX
  5
77E2
330
77E0
100
AcDbEntity
  8
MODEL
100
AcDbVertex
100
AcDb2dVertex
 10
1401.06743600232
 20
898.0043670083251
 30
0.0
  0
SEQEND
  5
77E3
330
77E0
100
AcDbEntity
  8
MODEL
  0
POLYLINE
  5
77FC
330
A
100
AcDbEntity
  8
MODEL
100
AcDb2dPolyline
 66
     1
 10
0.0
 20
0.0
 30
0.0
  0
VERTEX
  5
77FD
330
77FC
100
AcDbEntity
  8
MODEL
100
AcDbVertex
100
AcDb2dVertex
 10
1401.06743600232
 20
931.0182170945816
 30
0.0
  0
VERTEX
  5
77FE
330
77FC
100
AcDbEntity
  8
MODEL
100
AcDbVertex
100
AcDb2dVertex
 10
1401.06743600232
 20
909.4819869334506
 30
0.0
  0
SEQEND
  5
77FF
330
77FC
100
AcDbEntity
  8
MODEL
  0
POLYLINE
  5
7800
330
A
100
AcDbEntity
  8
MODEL
100
AcDb2dPolyline
 66
     1
 10
0.0
 20
0.0
 30
0.0
  0
VERTEX
  5
7801
330
7800
100
AcDbEntity
  8
MODEL
100
AcDbVertex
100
AcDb2dVertex
 10
1321.815935080802
 20
934.0236263557179
 30
0.0
  0
VERTEX
  5
7802
330
7800
100
AcDbEntity
  8
MODEL
100
AcDbVertex
100
AcDb2dVertex
 10
1398.062026741183
 20
934.0236263557179
 30
0.0
  0
SEQEND
  5
7803
330
7800
100
AcDbEntity
  8
MODEL
  0
POLYLINE
  5
7815
330
A
100
AcDbEntity
  8
MODEL
100
AcDb2dPolyline
 66
     1
 10
0.0
 20
0.0
 30
0.0
  0
VERTEX
  5
7816
330
7815
100
AcDbEntity
  8
MODEL
100
AcDbVertex
100
AcDb2dVertex
 10
1401.06743600232
 20
931.0182170945816
 30
0.0
  0
VERTEX
  5
7817
330
7815
100
AcDbEntity
  8
MODEL
100
AcDbVertex
100
AcDb2dVertex
 10
1400.88482885734
 20
931.7258197813821
 30
0.0
  0
VERTEX
  5
7818
330
7815
100
AcDbEntity
  8
MODEL
100
AcDbVertex
100
AcDb2dVertex
 10
1400.709830343401
 20
932.4258138371395
 30
0.0
  0
VERTEX
  5
7819
330
7815
100
AcDbEntity
  8
MODEL
100
AcDbVertex
100
AcDb2dVertex
 10
1400.184834801583
 20
933.1372208394605
 30
0.0
  0
VERTEX
  5
781A
330
7815
100
AcDbEntity
  8
MODEL
100
AcDbVertex
100
AcDb2dVertex
 10
1399.652230628721
 20
933.6660206967993
 30
0.0
  0
VERTEX
  5
781B
330
7815
100
AcDbEntity
  8
MODEL
100
AcDbVertex
100
AcDb2dVertex
 10
1398.777238059026
 20
933.844823526259
 30
0.0
  0
VERTEX
  5
781C
330
7815
100
AcDbEntity
  8
MODEL
100
AcDbVertex
100
AcDb2dVertex
 10
1398.069635372226
 20
934.016017724678
 30
0.0
  0
SEQEND
  5
781D
330
7815
100
AcDbEntity
  8
MODEL
  0
POLYLINE
  5
7855
330
A
100
AcDbEntity
  8
MODEL
100
AcDb2dPolyline
 66
     1
 10
0.0
 20
0.0
 30
0.0
  0
VERTEX
  5
7856
330
7855
100
AcDbEntity
  8
MODEL
100
AcDbVertex
100
AcDb2dVertex
 10
1086.191849007686
 20
816.8202738024282
 30
0.0
  0
VERTEX
  5
7857
330
7855
100
AcDbEntity
  8
MODEL
100
AcDbVertex
100
AcDb2dVertex
 10
1086.366847521626
 20
816.1126711156298
 30
0.0
  0
VERTEX
  5
7858
330
7855
100
AcDbEntity
  8
MODEL
100
AcDbVertex
100
AcDb2dVertex
 10
1086.716844549506
 20
815.4126770598723
 30
0.0
  0
VERTEX
  5
7859
330
7855
100
AcDbEntity
  8
MODEL
100
AcDbVertex
100
AcDb2dVertex
 10
1087.074450208425
 20
814.8800728870114
 30
0.0
  0
VERTEX
  5
785A
330
7855
100
AcDbEntity
  8
MODEL
100
AcDbVertex
100
AcDb2dVertex
 10
1087.782052895228
 20
814.3398600831113
 30
0.0
  0
VERTEX
  5
785B
330
7855
100
AcDbEntity
  8
MODEL
100
AcDbVertex
100
AcDb2dVertex
 10
1088.482046950984
 20
814.172470200213
 30
0.0
  0
VERTEX
  5
785C
330
7855
100
AcDbEntity
  8
MODEL
100
AcDbVertex
100
AcDb2dVertex
 10
1089.189649637783
 20
813.9898630552328
 30
0.0
  0
SEQEND
  5
785D
330
7855
100
AcDbEntity
  8
MODEL
  0
POLYLINE
  5
785E
330
A
100
AcDbEntity
  8
MODEL
100
AcDb2dPolyline
 66
     1
 10
0.0
 20
0.0
 30
0.0
  0
VERTEX
  5
785F
330
785E
100
AcDbEntity
  8
MODEL
100
AcDbVertex
100
AcDb2dVertex
 10
1084.069040947288
 20
934.0236263557179
 30
0.0
  0
VERTEX
  5
7860
330
785E
100
AcDbEntity
  8
MODEL
100
AcDbVertex
100
AcDb2dVertex
 10
1083.186439746552
 20
933.8524321572991
 30
0.0
  0
VERTEX
  5
7861
330
785E
100
AcDbEntity
  8
MODEL
100
AcDbVertex
100
AcDb2dVertex
 10
1082.478837059749
 20
933.6660206967993
 30
0.0
  0
VERTEX
  5
7862
330
785E
100
AcDbEntity
  8
MODEL
100
AcDbVertex
100
AcDb2dVertex
 10
1081.946232886892
 20
933.1448294705017
 30
0.0
  0
VERTEX
  5
7863
330
785E
100
AcDbEntity
  8
MODEL
100
AcDbVertex
100
AcDb2dVertex
 10
1081.413628714032
 20
932.4334224681804
 30
0.0
  0
VERTEX
  5
7864
330
785E
100
AcDbEntity
  8
MODEL
100
AcDbVertex
100
AcDb2dVertex
 10
1081.063631686153
 20
931.7334284124231
 30
0.0
  0
VERTEX
  5
7865
330
785E
100
AcDbEntity
  8
MODEL
100
AcDbVertex
100
AcDb2dVertex
 10
1081.063631686153
 20
930.8356099496013
 30
0.0
  0
SEQEND
  5
7866
330
785E
100
AcDbEntity
  8
MODEL
  0
POLYLINE
  5
78A4
330
A
100
AcDbEntity
  8
MODEL
100
AcDb2dPolyline
 66
     1
 10
0.0
 20
0.0
 30
0.0
  0
VERTEX
  5
78A5
330
78A4
100
AcDbEntity
  8
MODEL
100
AcDbVertex
100
AcDb2dVertex
 10
1398.069635372226
 20
813.9974716862736
 30
0.0
  0
VERTEX
  5
78A6
330
78A4
100
AcDbEntity
  8
MODEL
100
AcDbVertex
100
AcDb2dVertex
 10
1398.777238059026
 20
814.172470200213
 30
0.0
  0
VERTEX
  5
78A7
330
78A4
100
AcDbEntity
  8
MODEL
100
AcDbVertex
100
AcDb2dVertex
 10
1399.659839259764
 20
814.3474687141526
 30
0.0
  0
VERTEX
  5
78A8
330
78A4
100
AcDbEntity
  8
MODEL
100
AcDbVertex
100
AcDb2dVertex
 10
1400.184834801583
 20
814.8800728870114
 30
0.0
  0
VERTEX
  5
78A9
330
78A4
100
AcDbEntity
  8
MODEL
100
AcDbVertex
100
AcDb2dVertex
 10
1400.717438974442
 20
815.4126770598723
 30
0.0
  0
VERTEX
  5
78AA
330
78A4
100
AcDbEntity
  8
MODEL
100
AcDbVertex
100
AcDb2dVertex
 10
1400.900046119422
 20
816.2876696295692
 30
0.0
  0
VERTEX
  5
78AB
330
78A4
100
AcDbEntity
  8
MODEL
100
AcDbVertex
100
AcDb2dVertex
 10
1401.06743600232
 20
817.0028809474103
 30
0.0
  0
SEQEND
  5
78AC
330
78A4
100
AcDbEntity
  8
MODEL
  0
POLYLINE
  5
78FB
330
A
100
AcDbEntity
  8
MODEL
100
AcDb2dPolyline
 66
     1
 10
0.0
 20
0.0
 30
0.0
  0
VERTEX
  5
78FC
330
78FB
100
AcDbEntity
  8
MODEL
100
AcDbVertex
100
AcDb2dVertex
 10
1321.115941025045
 20
934.0236263557179
 30
0.0
  0
VERTEX
  5
78FD
330
78FB
100
AcDbEntity
  8
MODEL
100
AcDbVertex
100
AcDb2dVertex
 10
1321.473546683965
 20
934.0236263557179
 30
0.0
  0
SEQEND
  5
78FE
330
78FB
100
AcDbEntity
  8
MODEL
  0
POLYLINE
  5
78FF
330
A
100
AcDbEntity
  8
MODEL
100
AcDb2dPolyline
 66
     1
 10
0.0
 20
0.0
 30
0.0
  0
VERTEX
  5
7900
330
78FF
100
AcDbEntity
  8
MODEL
100
AcDbVertex
100
AcDb2dVertex
 10
1086.534237404527
 20
934.016017724678
 30
0.0
  0
VERTEX
  5
7901
330
78FF
100
AcDbEntity
  8
MODEL
100
AcDbVertex
100
AcDb2dVertex
 10
1332.582148003609
 20
934.0236263557179
 30
0.0
  0
SEQEND
  5
7902
330
78FF
100
AcDbEntity
  8
MODEL
  0
SPLINE
  5
7977
330
A
100
AcDbEntity
  8
MODEL
100
AcDbSpline
210
0.0
220
0.0
230
1.0
 70
     8
 71
     3
 72
    23
 73
    19
 74
     0
 42
0.000000001
 43
0.0000000001
 40
0.0
 40
0.0
 40
0.0
 40
0.0
 40
1.0
 40
1.0
 40
1.0
 40
2.0
 40
2.0
 40
2.0
 40
3.0
 40
3.0
 40
3.0
 40
4.0
 40
4.0
 40
4.0
 40
5.0
 40
5.0
 40
5.0
 40
6.0
 40
6.0
 40
6.0
 40
6.0
 10
654.5987539301593
 20
1630.219092166777
 30
0.0
 10
654.5987539301593
 20
1630.219092166777
 30
0.0
 10
654.5987539301593
 20
1679.108350919776
 30
0.0
 10
654.5987539301593
 20
1679.108350919776
 30
0.0
 10
654.8079912837825
 20
1686.587635232935
 30
0.0
 10
655.0819020012539
 20
1692.45388976543
 30
0.0
 10
650.8895462977434
 20
1698.696771534451
 30
0.0
 10
650.8895462977434
 20
1698.696771534451
 30
0.0
 10
649.6607523846451
 20
1700.294584053031
 30
0.0
 10
649.6607523846451
 20
1700.294584053031
 30
0.0
 10
649.6607523846451
 20
1700.294584053031
 30
0.0
 10
648.2417426955274
 20
1701.713593742147
 30
0.0
 10
648.2417426955274
 20
1701.713593742147
 30
0.0
 10
642.1015774455598
 20
1707.492349017675
 30
0.0
 10
632.9217640947709
 20
1707.111917465632
 30
0.0
 10
625.1153086468562
 20
1706.9939836845
 30
0.0
 10
625.1153086468562
 20
1706.9939836845
 30
0.0
 10
462.7395136040261
 20
1706.9939836845
 30
0.0
 10
462.7395136040261
 20
1706.9939836845
 30
0.0
  0
SPLINE
  5
7978
330
A
100
AcDbEntity
  8
MODEL
100
AcDbSpline
210
0.0
220
0.0
230
1.0
 70
     8
 71
     3
 72
    26
 73
    22
 74
     0
 42
0.000000001
 43
0.0000000001
 40
0.0
 40
0.0
 40
0.0
 40
0.0
 40
1.0
 40
1.0
 40
1.0
 40
2.0
 40
2.0
 40
2.0
 40
3.0
 40
3.0
 40
3.0
 40
4.0
 40
4.0
 40
4.0
 40
5.0
 40
5.0
 40
5.0
 40
6.0
 40
6.0
 40
6.0
 40
7.0
 40
7.0
 40
7.0
 40
7.0
 10
270.8726646468513
 20
1630.219092166777
 30
0.0
 10
270.8726646468513
 20
1630.219092166777
 30
0.0
 10
270.8726646468513
 20
1505.608737295219
 30
0.0
 10
270.8726646468513
 20
1505.608737295219
 30
0.0
 10
271.3101609317009
 20
1499.597918772946
 30
0.0
 10
270.632992769065
 20
1493.252320484875
 30
0.0
 10
273.1628625901483
 20
1487.599107621523
 30
0.0
 10
273.1628625901483
 20
1487.599107621523
 30
0.0
 10
274.4106780808481
 20
1485.308909678226
 30
0.0
 10
274.4106780808481
 20
1485.308909678226
 30
0.0
 10
274.4106780808481
 20
1485.308909678226
 30
0.0
 10
276.1644675357642
 20
1483.193710248869
 30
0.0
 10
276.1644675357642
 20
1483.193710248869
 30
0.0
 10
279.4970479316584
 20
1479.693739970076
 30
0.0
 10
283.3698411314518
 20
1478.461141741459
 30
0.0
 10
287.9996931198104
 20
1477.730713161536
 30
0.0
 10
287.9996931198104
 20
1477.730713161536
 30
0.0
 10
293.2876916932035
 20
1477.373107502616
 30
0.0
 10
293.2876916932035
 20
1477.373107502616
 30
0.0
 10
293.2876916932035
 20
1477.373107502616
 30
0.0
 10
462.7319049729845
 20
1477.373107502616
 30
0.0
 10
462.7319049729845
 20
1477.373107502616
 30
0.0
  0
SPLINE
  5
7979
330
A
100
AcDbEntity
  8
MODEL
100
AcDbSpline
210
0.0
220
0.0
230
1.0
 70
     8
 71
     3
 72
    35
 73
    31
 74
     0
 42
0.000000001
 43
0.0000000001
 40
0.0
 40
0.0
 40
0.0
 40
0.0
 40
1.0
 40
1.0
 40
1.0
 40
2.0
 40
2.0
 40
2.0
 40
3.0
 40
3.0
 40
3.0
 40
4.0
 40
4.0
 40
4.0
 40
5.0
 40
5.0
 40
5.0
 40
6.0
 40
6.0
 40
6.0
 40
7.0
 40
7.0
 40
7.0
 40
8.0
 40
8.0
 40
8.0
 40
9.0
 40
9.0
 40
9.0
 40
10.0
 40
10.0
 40
10.0
 40
10.0
 10
462.7395136040261
 20
1707.001592315541
 30
0.0
 10
462.7395136040261
 20
1707.001592315541
 30
0.0
 10
295.7643010970007
 20
1707.001592315541
 30
0.0
 10
295.7643010970007
 20
1707.001592315541
 30
0.0
 10
295.7643010970007
 20
1707.001592315541
 30
0.0
 10
291.1686879483262
 20
1706.830398117122
 30
0.0
 10
291.1686879483262
 20
1706.830398117122
 30
0.0
 10
291.1686879483262
 20
1706.830398117122
 30
0.0
 10
286.5882920617322
 20
1706.293989628741
 30
0.0
 10
286.5882920617322
 20
1706.293989628741
 30
0.0
 10
286.5882920617322
 20
1706.293989628741
 30
0.0
 10
284.2980941184361
 20
1705.772798402443
 30
0.0
 10
284.2980941184361
 20
1705.772798402443
 30
0.0
 10
284.2980941184361
 20
1705.772798402443
 30
0.0
 10
282.1714817425176
 20
1704.882588570664
 30
0.0
 10
282.1714817425176
 20
1704.882588570664
 30
0.0
 10
282.1714817425176
 20
1704.882588570664
 30
0.0
 10
280.0600866286815
 20
1703.813575909424
 30
0.0
 10
280.0600866286815
 20
1703.813575909424
 30
0.0
 10
280.0600866286815
 20
1703.813575909424
 30
0.0
 10
278.1198857132632
 20
1702.584781996325
 30
0.0
 10
278.1198857132632
 20
1702.584781996325
 30
0.0
 10
278.1198857132632
 20
1702.584781996325
 30
0.0
 10
276.3584876273057
 20
1701.002186739829
 30
0.0
 10
276.3584876273057
 20
1701.002186739829
 30
0.0
 10
272.3525433842981
 20
1696.429399484276
 30
0.0
 10
271.275922092017
 20
1692.168566101399
 30
0.0
 10
270.8802732778935
 20
1686.169160525687
 30
0.0
 10
270.8802732778935
 20
1686.169160525687
 30
0.0
 10
270.8802732778935
 20
1630.219092166777
 30
0.0
 10
270.8802732778935
 20
1630.219092166777
 30
0.0
  0
SPLINE
  5
797A
330
A
100
AcDbEntity
  8
MODEL
100
AcDbSpline
210
0.0
220
0.0
230
1.0
 70
     8
 71
     3
 72
    26
 73
    22
 74
     0
 42
0.000000001
 43
0.0000000001
 40
0.0
 40
0.0
 40
0.0
 40
0.0
 40
1.0
 40
1.0
 40
1.0
 40
2.0
 40
2.0
 40
2.0
 40
3.0
 40
3.0
 40
3.0
 40
4.0
 40
4.0
 40
4.0
 40
5.0
 40
5.0
 40
5.0
 40
6.0
 40
6.0
 40
6.0
 40
7.0
 40
7.0
 40
7.0
 40
7.0
 10
462.7395136040261
 20
1477.373107502616
 30
0.0
 10
462.7395136040261
 20
1477.373107502616
 30
0.0
 10
631.8337298559295
 20
1477.373107502616
 30
0.0
 10
631.8337298559295
 20
1477.373107502616
 30
0.0
 10
631.8337298559295
 20
1477.373107502616
 30
0.0
 10
637.1217284293211
 20
1477.730713161536
 30
0.0
 10
637.1217284293211
 20
1477.730713161536
 30
0.0
 10
642.2347284887733
 20
1478.187231023988
 30
0.0
 10
645.3656801620846
 20
1479.54156734926
 30
0.0
 10
649.1205395807463
 20
1483.01871173493
 30
0.0
 10
649.1205395807463
 20
1483.01871173493
 30
0.0
 10
650.8971549287837
 20
1484.958912650347
 30
0.0
 10
650.8971549287837
 20
1484.958912650347
 30
0.0
 10
650.8971549287837
 20
1484.958912650347
 30
0.0
 10
652.1297531574025
 20
1487.249110593642
 30
0.0
 10
652.1297531574025
 20
1487.249110593642
 30
0.0
 10
654.6291884543225
 20
1492.019722256258
 30
0.0
 10
654.3020173195653
 20
1500.122914314764
 30
0.0
 10
654.5987539301593
 20
1505.266348898382
 30
0.0
 10
654.5987539301593
 20
1505.266348898382
 30
0.0
 10
654.5987539301593
 20
1630.219092166777
 30
0.0
 10
654.5987539301593
 20
1630.219092166777
 30
0.0
  0
SPLINE
  5
797B
330
A
100
AcDbEntity
  8
MODEL
100
AcDbSpline
210
0.0
220
0.0
230
1.0
 70
    11
 71
     3
 72
    29
 73
    25
 74
     0
 42
0.000000001
 43
0.0000000001
 40
0.0
 40
0.0
 40
0.0
 40
0.0
 40
1.0
 40
1.0
 40
1.0
 40
2.0
 40
2.0
 40
2.0
 40
3.0
 40
3.0
 40
3.0
 40
4.0
 40
4.0
 40
4.0
 40
5.0
 40
5.0
 40
5.0
 40
6.0
 40
6.0
 40
6.0
 40
7.0
 40
7.0
 40
7.0
 40
8.0
 40
8.0
 40
8.0
 40
8.0
 10
487.0110466243452
 20
1630.219092166777
 30
0.0
 10
487.0110466243452
 20
1630.219092166777
 30
0.0
 10
486.7980049552011
 20
1633.741888338694
 30
0.0
 10
486.7980049552011
 20
1633.741888338694
 30
0.0
 10
486.7980049552011
 20
1633.741888338694
 30
0.0
 10
485.9724684872695
 20
1637.066860103546
 30
0.0
 10
485.9724684872695
 20
1637.066860103546
 30
0.0
 10
477.7931901183524
 20
1661.882410243286
 30
0.0
 10
443.6038065362825
 20
1659.607429562072
 30
0.0
 10
438.6658049907692
 20
1633.741888338694
 30
0.0
 10
438.6658049907692
 20
1633.741888338694
 30
0.0
 10
438.4603719526665
 20
1630.219092166777
 30
0.0
 10
438.4603719526665
 20
1630.219092166777
 30
0.0
 10
438.4603719526665
 20
1630.219092166777
 30
0.0
 10
438.6658049907692
 20
1626.700100310384
 30
0.0
 10
438.6658049907692
 20
1626.700100310384
 30
0.0
 10
443.6038065362825
 20
1600.830754771486
 30
0.0
 10
477.7931901183524
 20
1598.555774090272
 30
0.0
 10
485.9724684872695
 20
1623.367519914492
 30
0.0
 10
485.9724684872695
 20
1623.367519914492
 30
0.0
 10
486.7980049552011
 20
1626.700100310384
 30
0.0
 10
486.7980049552011
 20
1626.700100310384
 30
0.0
 10
486.7980049552011
 20
1626.700100310384
 30
0.0
 10
487.0110466243452
 20
1630.219092166777
 30
0.0
 10
487.0110466243452
 20
1630.219092166777
 30
0.0
  0
SPLINE
  5
797C
330
A
100
AcDbEntity
  8
MODEL
100
AcDbSpline
210
0.0
220
0.0
230
1.0
 70
    11
 71
     3
 72
    29
 73
    25
 74
     0
 42
0.000000001
 43
0.0000000001
 40
0.0
 40
0.0
 40
0.0
 40
0.0
 40
1.0
 40
1.0
 40
1.0
 40
2.0
 40
2.0
 40
2.0
 40
3.0
 40
3.0
 40
3.0
 40
4.0
 40
4.0
 40
4.0
 40
5.0
 40
5.0
 40
5.0
 40
6.0
 40
6.0
 40
6.0
 40
7.0
 40
7.0
 40
7.0
 40
8.0
 40
8.0
 40
8.0
 40
8.0
 10
500.706582497879
 20
1630.219092166777
 30
0.0
 10
500.706582497879
 20
1630.219092166777
 30
0.0
 10
500.4973451442559
 20
1634.365796084044
 30
0.0
 10
500.4973451442559
 20
1634.365796084044
 30
0.0
 10
500.4973451442559
 20
1634.365796084044
 30
0.0
 10
499.6718086763233
 20
1638.729345985974
 30
0.0
 10
499.6718086763233
 20
1638.729345985974
 30
0.0
 10
488.8941828069558
 20
1680.253449891423
 30
0.0
 10
431.0077178481513
 20
1676.818152976479
 30
0.0
 10
424.9588561706731
 20
1634.365796084044
 30
0.0
 10
424.9588561706731
 20
1634.365796084044
 30
0.0
 10
424.7572274480913
 20
1630.219092166777
 30
0.0
 10
424.7572274480913
 20
1630.219092166777
 30
0.0
 10
424.7572274480913
 20
1630.219092166777
 30
0.0
 10
424.9588561706731
 20
1626.076192565035
 30
0.0
 10
424.9588561706731
 20
1626.076192565035
 30
0.0
 10
431.0153264791916
 20
1583.620031357078
 30
0.0
 10
488.8941828069558
 20
1580.180930126614
 30
0.0
 10
499.6718086763233
 20
1621.708838347585
 30
0.0
 10
499.6718086763233
 20
1621.708838347585
 30
0.0
 10
500.4973451442559
 20
1626.076192565035
 30
0.0
 10
500.4973451442559
 20
1626.076192565035
 30
0.0
 10
500.4973451442559
 20
1626.076192565035
 30
0.0
 10
500.706582497879
 20
1630.219092166777
 30
0.0
 10
500.706582497879
 20
1630.219092166777
 30
0.0
  0
DIMENSION
  5
7A2C
330
A
100
AcDbEntity
  8
DIM
100
AcDbDimension
  2
*D22
 10
662.717163250749
 20
1873.315793094019
 30
0.0
 11
462.7395136040257
 21
1899.315793094019
 31
0.0
 70
    32
 71
     5
 42
399.9552992934466
 73
     0
 74
     0
 75
     0
  3
tfrom線あり
100
AcDbAlignedDimension
 13
262.7618639573024
 23
1786.579229007163
 33
0.0
 14
662.717163250749
 24
1786.579229007163
 34
0.0
100
AcDbRotatedDimension
  0
DIMENSION
  5
7A3E
330
A
100
AcDbEntity
  8
DIM
100
AcDbDimension
  2
*D23
 10
731.0674629888324
 20
1469.254698182027
 30
0.0
 11
705.0637115820548
 21
1629.254698182351
 31
0.0
 70
    32
 71
     5
 42
320.0000000006476
 73
     0
 74
     0
 75
     0
  3
tfrom線あり
100
AcDbAlignedDimension
 13
662.1259261702173
 23
1789.254698182675
 33
0.0
 14
662.1259261702173
 24
1469.254698182027
 34
0.0
 50
90.0
100
AcDbRotatedDimension
  0
DIMENSION
  5
7A6E
330
A
100
AcDbEntity
  8
DIM
100
AcDbDimension
  2
*D26
 10
190.1849182477173
 20
1704.625321411728
 30
0.0
 11
164.1811668409397
 21
1746.940009797202
 31
0.0
 70
    32
 71
     5
 42
84.62937677094692
 73
     0
 74
     0
 75
     0
  3
tfrom線あり
100
AcDbAlignedDimension
 13
269.2334193511359
 23
1789.254698182675
 33
0.0
 14
261.3044479574999
 24
1704.625321411728
 34
0.0
 50
90.0
100
AcDbRotatedDimension
  0
DIMENSION
  5
7A8C
102
{ACAD_REACTORS
330
7A8E
102
}
102
{ACAD_XDICTIONARY
360
7A8D
102
}
330
A
100
AcDbEntity
  8
DIM
100
AcDbDimension
  2
*D28
 10
1361.08736125664
 20
982.2786821473903
 30
0.0
 11
1381.07739862948
 21
982.2786821473903
 31
0.0
 70
   160
 71
     5
 42
39.9800747456793
 73
     0
 74
     0
 75
     0
  3
tfrom線あり
100
AcDbAlignedDimension
 13
1401.06743600232
 23
931.0182170945816
 33
0.0
 14
1361.08736125664
 24
932.2806050420438
 34
0.0
100
AcDbRotatedDimension
  0
DIMENSION
  5
7AAA
330
A
100
AcDbEntity
  8
DIM
100
AcDbDimension
  2
*D29
 10
1008.711944125044
 20
814.0162612831132
 30
0.0
 11
982.7081927182668
 21
874.0162612831132
 31
0.0
 70
    32
 71
     5
 42
120.0
 73
     0
 74
     0
 75
     0
  3
tfrom線あり
100
AcDbAlignedDimension
 13
1088.084429244306
 23
934.0162612831132
 33
0.0
 14
1088.084429244306
 24
814.0162612831132
 34
0.0
 50
90.0
100
AcDbRotatedDimension
  0
DIMENSION
  5
7AB7
330
A
100
AcDbEntity
  8
DIM
100
AcDbDimension
  2
*D30
 10
199.9221728589172
 20
889.0206420259915
 30
0.0
 11
199.9221728589172
 21
911.5206420259915
 31
0.0
 70
   160
 71
     5
 42
45.00000000000022
 73
     0
 74
     0
 75
     0
  3
tfrom線あり
100
AcDbAlignedDimension
 13
268.4036638740952
 23
934.0206420259917
 33
0.0
 14
346.707069869947
 24
889.0206420259915
 34
0.0
 50
90.0
100
AcDbRotatedDimension
  0
DIMENSION
  5
7AC9
330
A
100
AcDbEntity
  8
DIM
100
AcDbDimension
  2
*D31
 10
1241.06743600232
 20
739.2460498166897
 30
0.0
 11
1321.06743600232
 21
765.2498012234672
 31
0.0
 70
    32
 71
     5
 42
160.0
 73
     0
 74
     0
 75
     0
  3
tfrom線あり
100
AcDbAlignedDimension
 13
1401.06743600232
 23
819.5593809771362
 33
0.0
 14
1241.06743600232
 24
819.5593809771365
 34
0.0
100
AcDbRotatedDimension
  0
DIMENSION
  5
7AD6
330
A
100
AcDbEntity
  8
DIM
100
AcDbDimension
  2
*D32
 10
1242.029040774947
 20
934.0208261483081
 30
0.0
 11
1242.029040774947
 21
1014.329254308868
 31
0.0
 70
   160
 71
     5
 42
90.1975207818931
 73
     0
 74
     1
 75
     1
  3
tfrom線あり
100
AcDbAlignedDimension
 13
1242.031829986425
 23
843.823305366415
 33
0.0
 14
1242.029040774947
 24
934.0208261483081
 34
0.0
 50
90.0
100
AcDbRotatedDimension
1001
ACAD
1000
DSTYLE
1002
{
1070
     3
1000
<>(深さ)
1070
   172
1070
     1
1002
}
  0
LINE
  5
7AF0
102
{ACAD_REACTORS
330
7B34
102
}
330
A
100
AcDbEntity
  8
HIDDEN
  6
CENTER
 48
0.1
100
AcDbLine
 10
362.7395136040257
 20
905.0530857600702
 30
0.0
 11
362.7395136040257
 21
872.988198291913
 31
0.0
  0
LINE
  5
7B11
330
A
100
AcDbEntity
  8
HIDDEN
  6
CENTER
 48
0.1
100
AcDbLine
 10
346.707069869947
 20
889.0206420259915
 30
0.0
 11
378.7719573381041
 21
889.0206420259915
 31
0.0
  0
CIRCLE
  5
7B19
330
A
100
AcDbEntity
  8
HIDDEN
 48
0.3
100
AcDbCircle
 10
362.7395136040257
 20
889.0206420259915
 30
0.0
 40
9.049358339361618
  0
LINE
  5
7B2F
102
{ACAD_REACTORS
330
7B34
102
}
330
A
100
AcDbEntity
  8
HIDDEN
  6
CENTER
 48
0.1
100
AcDbLine
 10
562.7395136040257
 20
905.0530857600702
 30
0.0
 11
562.7395136040257
 21
872.988198291913
 31
0.0
  0
LINE
  5
7B30
330
A
100
AcDbEntity
  8
HIDDEN
  6
CENTER
 48
0.1
100
AcDbLine
 10
546.707069869947
 20
889.0206420259915
 30
0.0
 11
578.7719573381041
 21
889.0206420259915
 31
0.0
  0
CIRCLE
  5
7B31
330
A
100
AcDbEntity
  8
HIDDEN
 48
0.3
100
AcDbCircle
 10
562.7395136040257
 20
889.0206420259915
 30
0.0
 40
9.049358339361618
  0
DIMENSION
  5
7B32
102
{ACAD_REACTORS
330
7B34
102
}
102
{ACAD_XDICTIONARY
360
7B33
102
}
330
A
100
AcDbEntity
  8
DIM
100
AcDbDimension
  2
*D34
 10
562.7395136040257
 20
984.8573360548435
 30
0.0
 11
462.7395136040257
 21
1010.861087461621
 31
0.0
 70
    32
 71
     5
 42
199.9999999999999
 73
     0
 74
     0
 75
     0
  3
tfrom線あり
100
AcDbAlignedDimension
 13
362.7395136040257
 23
905.0530857600702
 33
0.0
 14
562.7395136040257
 24
905.0530857600702
 34
0.0
100
AcDbRotatedDimension
  0
LINE
  5
7B41
330
A
100
AcDbEntity
  8
DIM
100
AcDbLine
 10
568.5100040018416
 20
895.9914616996659
 30
0.0
 11
617.9988932581512
 21
995.7201051856027
 31
0.0
  0
LINE
  5
7B42
330
A
100
AcDbEntity
  8
DIM
100
AcDbLine
 10
617.9988932581512
 20
995.7201051856027
 30
0.0
 11
873.4550139831739
 21
995.7201051856027
 31
0.0
  0
MTEXT
  5
7B43
330
A
100
AcDbEntity
  8
DIM
390
1D
100
AcDbMText
 10
612.5029422615942
 20
1034.163137967806
 30
0.0
 40
19.54609375
 41
0.0
 46
21.83384462532825
 71
     1
 72
     1
  1
{壁取付ボルト穴(2ヶ所)}
  7
ＭＳ ゴシック
 73
     1
 44
0.7828267384257843
1001
ACAD
1000
ACAD_MTEXT_DEFINED_HEIGHT_BEGIN
1070
    46
1040
21.83384462532825
1000
ACAD_MTEXT_DEFINED_HEIGHT_END
  0
MTEXT
  5
7B76
330
A
100
AcDbEntity
  8
DIM
390
1D
100
AcDbMText
 10
199.0591333324903
 20
1351.588577351443
 30
34.99521132346015
 40
20.0
 41
833.9297986418389
 46
58.96852328455454
 71
     1
 72
     1
  1
{＝φ30もしくはφ35の水栓取付用穴あけ加工を承ります。\P  必要な場合、ご注文の際にご指示ください。}
  7
ＭＳ ゴシック
 73
     1
 44
1.043768984567712
1001
ACAD
1000
ACAD_MTEXT_DEFINED_HEIGHT_BEGIN
1070
    46
1040
58.96852328455454
1000
ACAD_MTEXT_DEFINED_HEIGHT_END
  0
CIRCLE
  5
7B77
330
A
100
AcDbEntity
  8
HIDDEN
 48
0.58
390
1D
100
AcDbCircle
 10
462.0653183842282
 20
1746.492575387259
 30
0.0
 40
17.5
  0
CIRCLE
  5
7B78
330
A
100
AcDbEntity
  8
HIDDEN
 48
0.58
390
1D
100
AcDbCircle
 10
172.391474897314
 20
1335.505620064668
 30
0.0
 40
17.5
  0
LINE
  5
7B8C
330
A
100
AcDbEntity
  8
DIM
100
AcDbLine
 10
1343.58736125664
 20
947.6635937755
 30
0.0
 11
1343.58736125664
 21
920.3836589359357
 31
0.0
  0
LINE
  5
7B8D
330
A
100
AcDbEntity
  8
DIM
100
AcDbLine
 10
1378.58736125664
 20
947.6635937755
 30
0.0
 11
1378.58736125664
 21
920.3836589359357
 31
0.0
  0
SPLINE
  5
7B9C
102
{ACAD_REACTORS
330
7BAB
102
}
330
A
100
AcDbEntity
  8
HIDDEN
 48
0.5
100
AcDbSpline
210
0.0
220
0.0
230
1.0
 70
  1064
 71
     3
 72
    33
 73
    29
 74
    27
 42
0.000000001
 43
0.0000000001
 44
0.0
 40
0.0
 40
0.0
 40
0.0
 40
0.0
 40
2.480157702511848
 40
3.564936442987471
 40
5.418471192340766
 40
11.83277585066635
 40
55.33335478468149
 40
67.49244595523493
 40
76.85783435458302
 40
86.01129007434596
 40
91.64536360881134
 40
102.9173390240198
 40
111.1148135623698
 40
124.1113982295319
 40
128.422885508855
 40
141.9104975943303
 40
151.7301799988743
 40
156.6098648896775
 40
159.6586861661714
 40
162.1824244670519
 40
164.5257536755233
 40
166.7576423785665
 40
179.267452780438
 40
183.8352706720698
 40
186.2069433345136
 40
187.9629056880801
 40
190.1226577153501
 40
192.2048808003504
 40
192.2048808003504
 40
192.2048808003504
 40
192.2048808003504
 10
1085.305443491427
 20
934.0236263557179
 30
0.0
 10
1086.161184821701
 20
934.0524909612808
 30
0.0
 10
1087.39121283604
 20
934.0939804537352
 30
0.0
 10
1088.940379101388
 20
933.0309257766828
 30
0.0
 10
1090.308089136256
 20
930.1561530239755
 30
0.0
 10
1098.791031251975
 20
915.2771704196977
 30
0.0
 10
1108.500094729811
 20
896.8583748581814
 30
0.0
 10
1120.367231141446
 20
878.712280268401
 30
0.0
 10
1126.663205192463
 20
870.637691855505
 30
0.0
 10
1132.232131131789
 20
864.7971791502379
 30
0.0
 10
1138.835498079505
 20
859.1430188176749
 30
0.0
 10
1145.878549227712
 20
854.5317485473721
 30
0.0
 10
1155.762254143331
 20
850.0627381253853
 30
0.0
 10
1164.010430191634
 20
847.8047801907676
 30
0.0
 10
1174.128947039228
 20
846.0700552856338
 30
0.0
 10
1183.366285691701
 20
845.5796937538548
 30
0.0
 10
1192.585987195232
 20
844.06548157797
 30
0.0
 10
1198.667108660477
 20
844.274795850816
 30
0.0
 10
1201.744315206647
 20
842.1690240991219
 30
0.0
 10
1202.798694837071
 20
839.719402513119
 30
0.0
 10
1203.919281266594
 20
837.5932566180809
 30
0.0
 10
1208.488429572929
 20
834.070853320412
 30
0.0
 10
1212.959480094841
 20
829.4786330946902
 30
0.0
 10
1218.444374852783
 20
825.8912869562859
 30
0.0
 10
1219.965637696123
 20
823.2320684213878
 30
0.0
 10
1219.801671391089
 20
821.1003104652006
 30
0.0
 10
1219.921092044001
 20
819.1122956748113
 30
0.0
 10
1219.951750772553
 20
817.697399351835
 30
0.0
 10
1219.966799967953
 20
817.0028809474103
 30
0.0
 11
1085.305443491427
 21
934.0236263557179
 31
0.0
 11
1087.770639948664
 21
933.7516177960085
 31
0.0
 11
1088.664654095964
 21
933.1372208394605
 31
0.0
 11
1089.648454221249
 21
931.5663203395723
 31
0.0
 11
1092.707810690052
 21
925.928622028505
 31
0.0
 11
1114.289246571219
 21
888.1590311794959
 31
0.0
 11
1121.033188573709
 21
878.0415836574731
 31
0.0
 11
1126.826723800367
 21
870.6832245028711
 31
0.0
 11
1133.172926102667
 21
864.0869021978328
 31
0.0
 11
1137.457881998284
 21
860.4287691269373
 31
0.0
 11
1146.896919730408
 21
854.2674383897828
 31
0.0
 11
1154.36135128508
 21
850.8790980331315
 31
0.0
 11
1166.869651941316
 21
847.3501282537314
 31
0.0
 11
1171.120104585732
 21
846.627234847106
 31
0.0
 11
1184.535549956809
 21
845.2338557659137
 31
0.0
 11
1194.303772344435
 21
844.2298667659761
 31
0.0
 11
1199.14958544018
 21
843.6559154835153
 31
0.0
 11
1201.629999159498
 21
841.8831044509963
 31
0.0
 11
1202.854988757076
 21
839.6766014491499
 31
0.0
 11
1204.06839491576
 21
837.6718976622171
 31
0.0
 11
1205.727618039504
 21
836.1791465749941
 31
0.0
 11
1215.260855078902
 21
828.0789769569292
 31
0.0
 11
1218.741810370376
 21
825.1212902679996
 31
0.0
 11
1219.799410085054
 21
822.9984822076003
 31
0.0
 11
1219.848415319672
 21
821.2432038040065
 31
0.0
 11
1219.90868947908
 21
819.0842930033932
 31
0.0
 11
1219.966799967953
 21
817.0028809474103
 31
0.0
  0
SPLINE
  5
7B9D
102
{ACAD_REACTORS
330
7BAB
102
}
330
A
100
AcDbEntity
  8
HIDDEN
 48
0.5
100
AcDbSpline
210
0.0
220
0.0
230
1.0
 70
  1064
 71
     3
 72
    35
 73
    31
 74
    29
 42
0.000000001
 43
0.0000000001
 44
0.0
 40
0.0
 40
0.0
 40
0.0
 40
0.0
 40
1.145317032524286
 40
2.26894981376744
 40
3.528451919933193
 40
4.834473568799416
 40
7.497612162392823
 40
56.01096913643276
 40
70.27111153584022
 40
74.54504821024331
 40
80.18433418098236
 40
83.26190522383926
 40
86.11791619150087
 40
90.11409162611697
 40
93.70571354614887
 40
96.93247470530949
 40
103.998609239016
 40
109.7188626618122
 40
111.8454069809087
 40
114.2170796433496
 40
116.9470040820487
 40
121.7922454182919
 40
127.0762783032408
 40
133.0480671757504
 40
136.3416924630507
 40
137.9169042070329
 40
138.8012500610283
 40
139.8249049069926
 40
143.7351051789741
 40
144.7974666578449
 40
144.7974666578449
 40
144.7974666578449
 40
144.7974666578449
 10
1322.618863675049
 20
934.0233182573714
 30
0.0
 10
1322.235824146365
 20
934.0480458698762
 30
0.0
 10
1321.476997164321
 20
934.0970329277774
 30
0.0
 10
1320.320144524702
 20
933.7223405122058
 30
0.0
 10
1319.414539018687
 20
932.8379295633906
 30
0.0
 10
1318.638934038487
 20
931.2396131453722
 30
0.0
 10
1318.374966635876
 20
913.4576124444845
 30
0.0
 10
1314.902528084079
 20
892.180555905348
 30
0.0
 10
1313.226701038677
 20
869.7424970479004
 30
0.0
 10
1311.158765926065
 20
861.9680472914766
 30
0.0
 10
1310.03929288751
 20
857.7239256685144
 30
0.0
 10
1307.90314438567
 20
854.4871023072567
 30
0.0
 10
1305.751953370085
 20
851.9246045142472
 30
0.0
 10
1302.616204043011
 20
850.2728638641927
 30
0.0
 10
1299.345214009414
 20
848.7898176412906
 30
0.0
 10
1294.989339989823
 20
847.1958005105258
 30
0.0
 10
1289.930982240541
 20
845.5799355455902
 30
0.0
 10
1284.976269661362
 20
844.5163477848507
 30
0.0
 10
1282.238492877466
 20
842.2885275361633
 30
0.0
 10
1281.397037221152
 20
839.984613897951
 30
0.0
 10
1279.879527033077
 20
836.9864323613442
 30
0.0
 10
1276.204589061058
 20
834.5294307939035
 30
0.0
 10
1272.260674352396
 20
830.9588279644952
 30
0.0
 10
1268.513462193622
 20
827.7871541009453
 30
0.0
 10
1265.787107460288
 20
825.5664815693061
 30
0.0
 10
1264.29407305479
 20
824.1473536937172
 30
0.0
 10
1264.273977029121
 20
822.9440597206251
 30
0.0
 10
1264.198929542657
 20
821.0235217131319
 30
0.0
 10
1264.286201988958
 20
819.0136639776911
 30
0.0
 10
1264.28065272148
 20
817.3568503936522
 30
0.0
 10
1264.279467149878
 20
817.0028809474103
 30
0.0
 11
1322.618863675049
 21
934.0233182573714
 31
0.0
 11
1321.473546683965
 21
934.0236263557179
 31
0.0
 11
1320.408338338244
 21
933.6660206967993
 31
0.0
 11
1319.48602360326
 21
932.8083021619246
 31
0.0
 11
1318.901829392156
 21
931.6402226821717
 31
0.0
 11
1318.598918973705
 21
928.9943669704821
 31
0.0
 11
1314.137315722951
 21
880.6866046405678
 31
0.0
 11
1312.312743612802
 21
866.5436700841808
 31
0.0
 11
1311.274408351754
 21
862.3977812069348
 31
0.0
 11
1309.459518270459
 21
857.0585190619759
 31
0.0
 11
1307.811075295204
 21
854.4596579111708
 31
0.0
 11
1305.899432226202
 21
852.3377673805026
 31
0.0
 11
1302.490081340113
 21
850.2531224131872
 31
0.0
 11
1299.213554829292
 21
848.7820268893204
 31
0.0
 11
1296.191643456275
 21
847.6506387013416
 31
0.0
 11
1289.441969653243
 21
845.5596674435039
 31
0.0
 11
1284.050494909532
 21
843.6483068524747
 31
0.0
 11
1282.456486706473
 21
842.240710109916
 31
0.0
 11
1281.398886991797
 21
840.1179020495189
 31
0.0
 11
1280.071180875166
 21
837.7325962182119
 31
0.0
 11
1276.424631185203
 21
834.542135598635
 31
0.0
 11
1272.397876470467
 21
831.1206958437112
 31
0.0
 11
1267.847009827248
 21
827.2539303823125
 31
0.0
 11
1265.337066864556
 21
825.1212902679996
 31
0.0
 11
1264.370770722368
 21
823.8772790928199
 31
0.0
 11
1264.271858518837
 21
822.9984822076003
 31
0.0
 11
1264.2419929872
 21
821.9752631236861
 31
0.0
 11
1264.279467149878
 21
818.0652424262811
 31
0.0
 11
1264.279467149878
 21
817.0028809474103
 31
0.0
  0
LINE
  5
7BA4
102
{ACAD_REACTORS
330
7BAB
102
}
330
A
100
AcDbEntity
  8
HIDDEN
 48
0.5
100
AcDbLine
 10
1196.729991817551
 20
843.9804971707949
 30
0.0
 11
1284.630698697315
 21
843.9804971707949
 31
0.0
  0
LINE
  5
7BA5
102
{ACAD_REACTORS
330
7BAB
102
}
330
A
100
AcDbEntity
  8
HIDDEN
 48
0.5
100
AcDbLine
 10
1279.548326291449
 20
837.1201014194228
 30
0.0
 11
1204.60209613716
 21
837.1201014194228
 31
0.0
  0
LINE
  5
7BA6
102
{ACAD_REACTORS
330
7BAB
102
}
330
A
100
AcDbEntity
  8
HIDDEN
 48
0.5
100
AcDbLine
 10
1218.620888819521
 20
825.2685571573408
 30
0.0
 11
1265.500386630844
 21
825.2685571573408
 31
0.0
  0
LINE
  5
7BA7
102
{ACAD_REACTORS
330
7BAB
102
}
330
A
100
AcDbEntity
  8
HIDDEN
 48
0.5
100
AcDbLine
 10
1219.974408598994
 20
817.0028809474103
 30
0.0
 11
1264.279467149878
 21
817.0028809474103
 31
0.0
  0
SPLINE
  5
7BE5
102
{ACAD_REACTORS
330
7BEC
102
}
330
A
100
AcDbEntity
  8
HIDDEN
 48
0.5
100
AcDbSpline
210
0.0
220
0.0
230
1.0
 70
     8
 71
     3
 72
    18
 73
    14
 74
     0
 42
0.000000001
 43
0.0000000001
 40
155.4118209790804
 40
155.4118209790804
 40
155.4118209790804
 40
155.4118209790804
 40
156.6098648896773
 40
159.6586861661714
 40
162.1824244670519
 40
164.525753675523
 40
166.7576423785668
 40
179.267452780438
 40
183.8352706720694
 40
186.2069433345134
 40
187.9629056880799
 40
190.12265771535
 40
192.2048808003503
 40
192.2048808003503
 40
192.2048808003503
 40
192.2048808003503
 10
419.5583101497566
 20
843.9804971707954
 30
0.0
 10
419.9481848918806
 20
843.9035438540014
 30
0.0
 10
421.3081962544647
 20
843.5330704157097
 30
0.0
 10
423.3015045279303
 20
842.1690240991222
 30
0.0
 10
424.3558841583551
 20
839.7194025131196
 30
0.0
 10
425.4764705878777
 20
837.593256618081
 30
0.0
 10
430.0456188942138
 20
834.0708533204133
 30
0.0
 10
434.5166694161255
 20
829.4786330946912
 30
0.0
 10
440.0015641740652
 20
825.8912869562855
 30
0.0
 10
441.5228270174068
 20
823.2320684213886
 30
0.0
 10
441.3588607123725
 20
821.1003104652006
 30
0.0
 10
441.4782813652851
 20
819.112295674812
 30
0.0
 10
441.5089400938366
 20
817.6973993518354
 30
0.0
 10
441.5239892892369
 20
817.0028809474106
 30
0.0
  0
SPLINE
  5
7BE6
102
{ACAD_REACTORS
330
7BEC
102
}
330
A
100
AcDbEntity
  8
HIDDEN
 48
0.5
100
AcDbSpline
210
0.0
220
0.0
230
1.0
 70
     8
 71
     3
 72
    20
 73
    16
 74
     0
 42
0.000000001
 43
0.0000000001
 40
109.0532614113156
 40
109.0532614113156
 40
109.0532614113156
 40
109.0532614113156
 40
109.7188626618128
 40
111.845406980909
 40
114.21707964335
 40
116.947004082049
 40
121.7922454182923
 40
127.0762783032411
 40
133.0480671757507
 40
136.3416924630507
 40
137.916904207033
 40
138.8012500610285
 40
139.8249049069928
 40
143.7351051789743
 40
144.7974666578451
 40
144.7974666578451
 40
144.7974666578451
 40
144.7974666578451
 10
506.1878880185984
 20
843.9804971707954
 30
0.0
 10
505.9911810364497
 20
843.8773275768099
 30
0.0
 10
505.1791947121224
 20
843.4143377956905
 30
0.0
 10
503.7956821987495
 20
842.2885275361635
 30
0.0
 10
502.9542265424348
 20
839.9846138979515
 30
0.0
 10
501.4367163543614
 20
836.9864323613444
 30
0.0
 10
497.7617783823409
 20
834.5294307939038
 30
0.0
 10
493.8178636736791
 20
830.9588279644954
 30
0.0
 10
490.0706515149054
 20
827.7871541009462
 30
0.0
 10
487.3442967815727
 20
825.5664815693062
 30
0.0
 10
485.8512623760728
 20
824.1473536937176
 30
0.0
 10
485.8311663504053
 20
822.9440597206253
 30
0.0
 10
485.756118863939
 20
821.0235217131323
 30
0.0
 10
485.8433913102424
 20
819.0136639776917
 30
0.0
 10
485.8378420427644
 20
817.3568503936525
 30
0.0
 10
485.8366564711619
 20
817.0028809474106
 30
0.0
  0
LINE
  5
7BE7
102
{ACAD_REACTORS
330
7BEC
102
}
330
A
100
AcDbEntity
  8
HIDDEN
 48
0.5
100
AcDbLine
 10
501.1055156127327
 20
837.1201014194231
 30
0.0
 11
426.1592854584435
 21
837.1201014194231
 31
0.0
  0
LINE
  5
7BE8
102
{ACAD_REACTORS
330
7BEC
102
}
330
A
100
AcDbEntity
  8
HIDDEN
 48
0.5
100
AcDbLine
 10
441.531597920278
 20
817.0028809474106
 30
0.0
 11
485.8366564711619
 21
817.0028809474106
 31
0.0
  0
LINE
  5
7BE9
102
{ACAD_REACTORS
330
7BEC
102
}
330
A
100
AcDbEntity
  8
HIDDEN
 48
0.5
100
AcDbLine
 10
418.2871811388345
 20
843.9804971707953
 30
0.0
 11
506.1878880185984
 21
843.9804971707953
 31
0.0
  0
LINE
  5
7BEA
102
{ACAD_REACTORS
330
7BEC
102
}
330
A
100
AcDbEntity
  8
HIDDEN
 48
0.5
100
AcDbLine
 10
440.1780781408045
 20
825.2685571573411
 30
0.0
 11
487.0575759521273
 21
825.2685571573411
 31
0.0
  0
SPLINE
  5
7BED
330
A
100
AcDbEntity
  8
HIDDEN
 48
0.5
100
AcDbSpline
210
0.0
220
0.0
230
1.0
 70
  1064
 71
     3
 72
    12
 73
     8
 74
     6
 42
0.000000001
 43
0.0000000001
 44
0.0
 40
0.0
 40
0.0
 40
0.0
 40
0.0
 40
35.24473435630668
 40
77.89047881093964
 40
104.2830977596912
 40
136.394859750277
 40
195.4450369024684
 40
195.4450369024684
 40
195.4450369024684
 40
195.4450369024684
 10
270.8802732778934
 20
934.0206420259917
 30
0.0
 10
272.8338106524157
 20
922.4321833722473
 30
0.0
 10
277.1511069593852
 20
896.8218160448678
 30
0.0
 10
297.920681865588
 20
865.6499514195337
 30
0.0
 10
329.7639002112427
 20
852.7519421873308
 30
0.0
 10
367.9093516564365
 20
843.4389821139362
 30
0.0
 10
398.4830546219237
 20
843.7676211337165
 30
0.0
 10
418.2871811388345
 20
843.9804971707953
 30
0.0
 11
270.8802732778934
 21
934.0206420259917
 31
0.0
 11
279.0332002675159
 21
899.7318525847106
 31
0.0
 11
304.2041768536372
 21
865.3068404889859
 31
0.0
 11
328.0787015435827
 21
854.0561780283492
 31
0.0
 11
359.2912063960829
 21
846.5100002559476
 31
0.0
 11
418.2871811388345
 21
843.9804971707953
 31
0.0
  0
SPLINE
  5
7BF2
330
A
100
AcDbEntity
  8
HIDDEN
 48
0.5
100
AcDbSpline
210
0.0
220
0.0
230
1.0
 70
  1064
 71
     3
 72
    12
 73
     8
 74
     6
 42
0.000000001
 43
0.0000000001
 44
0.0
 40
0.0
 40
0.0
 40
0.0
 40
0.0
 40
35.24473435630669
 40
77.89047881093963
 40
104.2830977596912
 40
136.3948597502772
 40
195.4450369024684
 40
195.4450369024684
 40
195.4450369024684
 40
195.4450369024684
 10
654.598753930158
 20
934.0206420259917
 30
0.0
 10
652.6452165556357
 20
922.4321833722474
 30
0.0
 10
648.3279202486661
 20
896.821816044868
 30
0.0
 10
627.5583453424634
 20
865.6499514195336
 30
0.0
 10
595.7151269968086
 20
852.7519421873309
 30
0.0
 10
557.5696755516148
 20
843.4389821139362
 30
0.0
 10
526.9959725861277
 20
843.7676211337164
 30
0.0
 10
507.1918460692168
 20
843.9804971707953
 30
0.0
 11
654.598753930158
 21
934.0206420259917
 31
0.0
 11
646.4458269405354
 21
899.7318525847106
 31
0.0
 11
621.2748503544142
 21
865.3068404889859
 31
0.0
 11
597.4003256644686
 21
854.0561780283492
 31
0.0
 11
566.1878208119683
 21
846.5100002559476
 31
0.0
 11
507.1918460692168
 21
843.9804971707953
 31
0.0
  0
MTEXT
  5
7C61
330
A
100
AcDbEntity
  8
DIM
390
1D
100
AcDbMText
 10
1078.638167050409
 20
1978.353301553495
 30
34.99521132346015
 40
20.0
 41
0.0
 46
27.413396484375
 71
     1
 72
     1
  1
{カウンター切込寸法}
  7
ＭＳ ゴシック
 73
     1
 44
0.7828267384257843
1001
ACAD
1000
ACAD_MTEXT_DEFINED_HEIGHT_BEGIN
1070
    46
1040
27.413396484375
1000
ACAD_MTEXT_DEFINED_HEIGHT_END
  0
POLYLINE
  5
7C9A
102
{ACAD_REACTORS
330
7D17
102
}
330
A
100
AcDbEntity
  8
HIDDEN
 48
0.5
100
AcDb2dPolyline
 66
     1
 10
0.0
 20
0.0
 30
0.0
  0
VERTEX
  5
7C9B
330
7C9A
100
AcDbEntity
  8
HIDDEN
 48
0.5
100
AcDbVertex
100
AcDb2dVertex
 10
989.3076492204602
 20
1472.252498812122
 30
0.0
  0
VERTEX
  5
7C9C
330
7C9A
100
AcDbEntity
  8
HIDDEN
 48
0.5
100
AcDbVertex
100
AcDb2dVertex
 10
989.3076492204602
 20
1786.25309323706
 30
0.0
  0
SEQEND
  5
7C9D
330
7C9A
100
AcDbEntity
  8
HIDDEN
 48
0.5
  0
POLYLINE
  5
7C9E
102
{ACAD_REACTORS
330
7D17
102
}
330
A
100
AcDbEntity
  8
HIDDEN
 48
0.5
100
AcDb2dPolyline
 66
     1
 10
0.0
 20
0.0
 30
0.0
  0
VERTEX
  5
7C9F
330
7C9E
100
AcDbEntity
  8
HIDDEN
 48
0.5
100
AcDbVertex
100
AcDb2dVertex
 10
992.3092541660772
 20
1789.254698182674
 30
0.0
  0
VERTEX
  5
7CA0
330
7C9E
100
AcDbEntity
  8
HIDDEN
 48
0.5
100
AcDbVertex
100
AcDb2dVertex
 10
1386.265147883812
 20
1789.254698182674
 30
0.0
  0
SEQEND
  5
7CA1
330
7C9E
100
AcDbEntity
  8
HIDDEN
 48
0.5
  0
POLYLINE
  5
7CA2
102
{ACAD_REACTORS
330
7D17
102
}
330
A
100
AcDbEntity
  8
HIDDEN
 48
0.5
100
AcDb2dPolyline
 66
     1
 10
0.0
 20
0.0
 30
0.0
  0
VERTEX
  5
7CA3
330
7CA2
100
AcDbEntity
  8
HIDDEN
 48
0.5
100
AcDbVertex
100
AcDb2dVertex
 10
992.3092541660772
 20
1469.254698182027
 30
0.0
  0
VERTEX
  5
7CA4
330
7CA2
100
AcDbEntity
  8
HIDDEN
 48
0.5
100
AcDbVertex
100
AcDb2dVertex
 10
1386.265147883812
 20
1469.254698182027
 30
0.0
  0
SEQEND
  5
7CA5
330
7CA2
100
AcDbEntity
  8
HIDDEN
 48
0.5
  0
POLYLINE
  5
7CA6
102
{ACAD_REACTORS
330
7D17
102
}
330
A
100
AcDbEntity
  8
HIDDEN
 48
0.5
100
AcDb2dPolyline
 66
     1
 10
0.0
 20
0.0
 30
0.0
  0
VERTEX
  5
7CA7
330
7CA6
100
AcDbEntity
  8
HIDDEN
 48
0.5
100
AcDbVertex
100
AcDb2dVertex
 10
1389.262948513907
 20
1786.245484606018
 30
0.0
  0
VERTEX
  5
7CA8
330
7CA6
100
AcDbEntity
  8
HIDDEN
 48
0.5
100
AcDbVertex
100
AcDb2dVertex
 10
1389.262948513907
 20
1472.244890181082
 30
0.0
  0
SEQEND
  5
7CA9
330
7CA6
100
AcDbEntity
  8
HIDDEN
 48
0.5
  0
POLYLINE
  5
7CAA
102
{ACAD_REACTORS
330
7D17
102
}
330
A
100
AcDbEntity
  8
HIDDEN
 48
0.5
100
AcDb2dPolyline
 66
     1
 10
0.0
 20
0.0
 30
0.0
  0
VERTEX
  5
7CAB
330
7CAA
100
AcDbEntity
  8
HIDDEN
 48
0.5
100
AcDbVertex
100
AcDb2dVertex
 10
1386.265147883812
 20
1469.254698182027
 30
0.0
  0
VERTEX
  5
7CAC
330
7CAA
100
AcDbEntity
  8
HIDDEN
 48
0.5
100
AcDbVertex
100
AcDb2dVertex
 10
1386.96514193957
 20
1469.422088064925
 30
0.0
  0
VERTEX
  5
7CAD
330
7CAA
100
AcDbEntity
  8
HIDDEN
 48
0.5
100
AcDbVertex
100
AcDb2dVertex
 10
1387.851547455828
 20
1469.604695209905
 30
0.0
  0
VERTEX
  5
7CAE
330
7CAA
100
AcDbEntity
  8
HIDDEN
 48
0.5
100
AcDbVertex
100
AcDb2dVertex
 10
1388.384151628689
 20
1470.129690751726
 30
0.0
  0
VERTEX
  5
7CAF
330
7CAA
100
AcDbEntity
  8
HIDDEN
 48
0.5
100
AcDbVertex
100
AcDb2dVertex
 10
1388.912951486027
 20
1470.844902069565
 30
0.0
  0
VERTEX
  5
7CB0
330
7CAA
100
AcDbEntity
  8
HIDDEN
 48
0.5
100
AcDbVertex
100
AcDb2dVertex
 10
1389.091754315487
 20
1471.544896125322
 30
0.0
  0
VERTEX
  5
7CB1
330
7CAA
100
AcDbEntity
  8
HIDDEN
 48
0.5
100
AcDbVertex
100
AcDb2dVertex
 10
1389.262948513907
 20
1472.252498812122
 30
0.0
  0
SEQEND
  5
7CB2
330
7CAA
100
AcDbEntity
  8
HIDDEN
 48
0.5
  0
POLYLINE
  5
7CB3
102
{ACAD_REACTORS
330
7D17
102
}
330
A
100
AcDbEntity
  8
HIDDEN
 48
0.5
100
AcDb2dPolyline
 66
     1
 10
0.0
 20
0.0
 30
0.0
  0
VERTEX
  5
7CB4
330
7CB3
100
AcDbEntity
  8
HIDDEN
 48
0.5
100
AcDbVertex
100
AcDb2dVertex
 10
992.3092541660772
 20
1789.254698182674
 30
0.0
  0
VERTEX
  5
7CB5
330
7CB3
100
AcDbEntity
  8
HIDDEN
 48
0.5
100
AcDbVertex
100
AcDb2dVertex
 10
991.6054557947975
 20
1789.083503984255
 30
0.0
  0
VERTEX
  5
7CB6
330
7CB3
100
AcDbEntity
  8
HIDDEN
 48
0.5
100
AcDbVertex
100
AcDb2dVertex
 10
990.8978531079999
 20
1788.904701154797
 30
0.0
  0
VERTEX
  5
7CB7
330
7CB3
100
AcDbEntity
  8
HIDDEN
 48
0.5
100
AcDbVertex
100
AcDb2dVertex
 10
990.1864461056798
 20
1788.375901297456
 30
0.0
  0
VERTEX
  5
7CB8
330
7CB3
100
AcDbEntity
  8
HIDDEN
 48
0.5
100
AcDbVertex
100
AcDb2dVertex
 10
989.6576462483404
 20
1787.843297124597
 30
0.0
  0
VERTEX
  5
7CB9
330
7CB3
100
AcDbEntity
  8
HIDDEN
 48
0.5
100
AcDbVertex
100
AcDb2dVertex
 10
989.4788434188799
 20
1786.964500239378
 30
0.0
  0
VERTEX
  5
7CBA
330
7CB3
100
AcDbEntity
  8
HIDDEN
 48
0.5
100
AcDbVertex
100
AcDb2dVertex
 10
989.3076492204602
 20
1786.25309323706
 30
0.0
  0
SEQEND
  5
7CBB
330
7CB3
100
AcDbEntity
  8
HIDDEN
 48
0.5
  0
POLYLINE
  5
7CBC
102
{ACAD_REACTORS
330
7D17
102
}
330
A
100
AcDbEntity
  8
HIDDEN
 48
0.5
100
AcDb2dPolyline
 66
     1
 10
0.0
 20
0.0
 30
0.0
  0
VERTEX
  5
7CBD
330
7CBC
100
AcDbEntity
  8
HIDDEN
 48
0.5
100
AcDbVertex
100
AcDb2dVertex
 10
989.3076492204602
 20
1472.252498812122
 30
0.0
  0
VERTEX
  5
7CBE
330
7CBC
100
AcDbEntity
  8
HIDDEN
 48
0.5
100
AcDbVertex
100
AcDb2dVertex
 10
989.6576462483404
 20
1470.844902069565
 30
0.0
  0
VERTEX
  5
7CBF
330
7CBC
100
AcDbEntity
  8
HIDDEN
 48
0.5
100
AcDbVertex
100
AcDb2dVertex
 10
990.1864461056798
 20
1470.129690751726
 30
0.0
  0
VERTEX
  5
7CC0
330
7CBC
100
AcDbEntity
  8
HIDDEN
 48
0.5
100
AcDbVertex
100
AcDb2dVertex
 10
990.8978531079999
 20
1469.604695209905
 30
0.0
  0
VERTEX
  5
7CC1
330
7CBC
100
AcDbEntity
  8
HIDDEN
 48
0.5
100
AcDbVertex
100
AcDb2dVertex
 10
991.5978471637573
 20
1469.422088064925
 30
0.0
  0
VERTEX
  5
7CC2
330
7CBC
100
AcDbEntity
  8
HIDDEN
 48
0.5
100
AcDbVertex
100
AcDb2dVertex
 10
992.3092541660772
 20
1469.254698182027
 30
0.0
  0
SEQEND
  5
7CC3
330
7CBC
100
AcDbEntity
  8
HIDDEN
 48
0.5
  0
POLYLINE
  5
7CC4
102
{ACAD_REACTORS
330
7D17
102
}
330
A
100
AcDbEntity
  8
HIDDEN
 48
0.5
100
AcDb2dPolyline
 66
     1
 10
0.0
 20
0.0
 30
0.0
  0
VERTEX
  5
7CC5
330
7CC4
100
AcDbEntity
  8
HIDDEN
 48
0.5
100
AcDbVertex
100
AcDb2dVertex
 10
1389.262948513907
 20
1786.245484606018
 30
0.0
  0
VERTEX
  5
7CC6
330
7CC4
100
AcDbEntity
  8
HIDDEN
 48
0.5
100
AcDbVertex
100
AcDb2dVertex
 10
1389.091754315487
 20
1786.956891608337
 30
0.0
  0
VERTEX
  5
7CC7
330
7CC4
100
AcDbEntity
  8
HIDDEN
 48
0.5
100
AcDbVertex
100
AcDb2dVertex
 10
1388.912951486027
 20
1787.835688493556
 30
0.0
  0
VERTEX
  5
7CC8
330
7CC4
100
AcDbEntity
  8
HIDDEN
 48
0.5
100
AcDbVertex
100
AcDb2dVertex
 10
1388.384151628689
 20
1788.364488350895
 30
0.0
  0
VERTEX
  5
7CC9
330
7CC4
100
AcDbEntity
  8
HIDDEN
 48
0.5
100
AcDbVertex
100
AcDb2dVertex
 10
1387.851547455828
 20
1788.897092523757
 30
0.0
  0
VERTEX
  5
7CCA
330
7CC4
100
AcDbEntity
  8
HIDDEN
 48
0.5
100
AcDbVertex
100
AcDb2dVertex
 10
1386.97275057061
 20
1789.075895353216
 30
0.0
  0
VERTEX
  5
7CCB
330
7CC4
100
AcDbEntity
  8
HIDDEN
 48
0.5
100
AcDbVertex
100
AcDb2dVertex
 10
1386.265147883812
 20
1789.247089551634
 30
0.0
  0
SEQEND
  5
7CCC
330
7CC4
100
AcDbEntity
  8
HIDDEN
 48
0.5
  0
CIRCLE
  5
7CD3
330
A
100
AcDbEntity
  8
HIDDEN
 48
0.5
390
1D
100
AcDbCircle
 10
1188.611103647386
 20
1746.492575387258
 30
0.0
 40
17.5
  0
LINE
  5
7CD4
330
A
100
AcDbEntity
  8
DIM
100
AcDbLine
 10
1422.869205051722
 20
1789.254698182674
 30
0.0
 11
935.2716509664693
 21
1789.254698182674
 31
0.0
  0
LINE
  5
7CD5
330
A
100
AcDbEntity
  8
DIM
100
AcDbLine
 10
1427.387777077896
 20
1820.362218796062
 30
0.0
 11
1403.665273940485
 21
1789.254698182674
 31
0.0
  0
LINE
  5
7CD6
330
A
100
AcDbEntity
  8
DIM
100
AcDbLine
 10
1413.506723813491
 20
1820.362218796062
 30
0.0
 11
1389.78422067608
 21
1789.254698182674
 31
0.0
  0
LINE
  5
7CD7
330
A
100
AcDbEntity
  8
DIM
100
AcDbLine
 10
1397.774863447165
 20
1820.362218796062
 30
0.0
 11
1374.052360309754
 21
1789.254698182674
 31
0.0
  0
DIMENSION
  5
7CD8
330
A
100
AcDbEntity
  8
DIM
100
AcDbDimension
  2
*D40
 10
1490.017369223647
 20
1769.254698182674
 30
0.0
 11
1490.017369223647
 21
1833.13681022469
 31
0.0
 70
   160
 71
     5
 42
20.00000000000001
 73
     0
 74
     1
 75
     1
  3
tfrom線あり
100
AcDbAlignedDimension
 13
1425.580348267427
 23
1789.254698182674
 33
0.0
 14
1323.611103647386
 24
1769.254698182674
 34
0.0
 50
90.0
100
AcDbRotatedDimension
1001
ACAD
1000
DSTYLE
1002
{
1070
   172
1070
     1
1002
}
  0
LINE
  5
7CEE
102
{ACAD_REACTORS
330
7D0A
330
7D33
102
}
330
A
100
AcDbEntity
  8
DIM
100
AcDbLine
 10
1323.611103647386
 20
1539.254698182674
 30
0.0
 11
1053.611103647386
 21
1539.254698182674
 31
0.0
  0
LINE
  5
7CF0
102
{ACAD_REACTORS
330
7CFB
330
7D0A
330
7D33
102
}
330
A
100
AcDbEntity
  8
DIM
100
AcDbLine
 10
1323.611103647386
 20
1539.254698182674
 30
0.0
 11
1323.611103647386
 21
1769.254698182674
 31
0.0
  0
LINE
  5
7CF1
102
{ACAD_REACTORS
330
7D33
102
}
330
A
100
AcDbEntity
  8
DIM
100
AcDbLine
 10
1053.611103647386
 20
1539.254698182674
 30
0.0
 11
1053.611103647386
 21
1769.254698182674
 31
0.0
  0
LINE
  5
7CF2
102
{ACAD_REACTORS
330
7D33
102
}
330
A
100
AcDbEntity
  8
DIM
100
AcDbLine
 10
1053.611103647386
 20
1769.254698182674
 30
0.0
 11
1323.611103647386
 21
1769.254698182674
 31
0.0
  0
DIMENSION
  5
7CF9
102
{ACAD_REACTORS
330
7CFB
102
}
102
{ACAD_XDICTIONARY
360
7CFA
102
}
330
A
100
AcDbEntity
  8
DIM
100
AcDbDimension
  2
*D41
 10
1490.017369223647
 20
1539.254698182674
 30
0.0
 11
1464.01361781687
 21
1654.254698182674
 31
0.0
 70
    32
 71
     5
 42
230.0000000000002
 73
     0
 74
     0
 75
     0
  3
tfrom線あり
100
AcDbAlignedDimension
 13
1323.611103647386
 23
1769.254698182674
 33
0.0
 14
1323.611103647386
 24
1539.254698182674
 34
0.0
 50
90.0
100
AcDbRotatedDimension
  0
DIMENSION
  5
7D08
102
{ACAD_REACTORS
330
7D0A
102
}
102
{ACAD_XDICTIONARY
360
7D09
102
}
330
A
100
AcDbEntity
  8
DIM
100
AcDbDimension
  2
*D42
 10
1323.611103647386
 20
1395.506661156051
 30
0.0
 11
1188.611103647386
 21
1421.510412562828
 31
0.0
 70
    32
 71
     5
 42
270.0
 73
     0
 74
     0
 75
     0
  3
tfrom線あり
100
AcDbAlignedDimension
 13
1053.611103647386
 23
1539.254698182674
 33
0.0
 14
1323.611103647386
 24
1539.254698182674
 34
0.0
100
AcDbRotatedDimension
  0
CIRCLE
  5
7D24
330
A
100
AcDbEntity
  8
HIDDEN
 48
0.5
100
AcDbCircle
 10
1190.229912458878
 20
1630.21900475838
 30
0.0
 40
25.2237552432048
  0
HATCH
  5
7D33
330
A
100
AcDbEntity
  8
DIM
100
AcDbHatch
 10
0.0
 20
0.0
 30
0.0
210
0.0
220
0.0
230
1.0
  2
ANSI31
 70
     0
 71
     1
 91
        1
 92
        1
 93
        4
 72
     1
 10
1323.611103647386
 20
1539.254698182674
 11
1323.611103647386
 21
1769.254698182674
 72
     1
 10
1053.611103647386
 20
1769.254698182674
 11
1323.611103647386
 21
1769.254698182674
 72
     1
 10
1323.611103647386
 20
1539.254698182674
 11
1053.611103647386
 21
1539.254698182674
 72
     1
 10
1053.611103647386
 20
1539.254698182674
 11
1053.611103647386
 21
1769.254698182674
 97
        4
330
7CF0
330
7CF2
330
7CEE
330
7CF1
 75
     0
 76
     1
 52
0.0
 41
5.0
 77
     0
 78
     1
 53
45.0
 43
-58.60574679943102
 44
0.0
 45
-11.22532015133644
 46
11.22532015133644
 79
     0
 98
        1
 10
-58.60574679943102
 20
0.0
1001
ACAD
1010
0.0
1020
0.0
1030
0.0
1001
HATCHBACKGROUNDCOLOR
1071
-939524096
1000

1000

  0
LINE
  5
7D37
330
A
100
AcDbEntity
  8
DIM
100
AcDbLine
 10
1066.397031752084
 20
1769.254698182675
 30
0.0
 11
1066.397031752084
 21
1811.47842986837
 31
0.0
  0
MTEXT
  5
7D38
330
A
100
AcDbEntity
  8
DIM
390
1D
100
AcDbMText
 10
1028.030160357265
 20
1841.426448622855
 30
34.99521132346015
 40
20.0
 41
0.0
 46
21.52057021383019
 71
     1
 72
     1
  1
{カウンター置き}
  7
ＭＳ ゴシック
 73
     1
 44
0.7828267384257843
1001
ACAD
1000
ACAD_MTEXT_DEFINED_HEIGHT_BEGIN
1070
    46
1040
21.52057021383019
1000
ACAD_MTEXT_DEFINED_HEIGHT_END
  0
MTEXT
  5
7D7F
330
A
100
AcDbEntity
  8
DIM
390
1D
100
AcDbMText
 10
964.3027613824183
 20
1353.469605958104
 30
34.99521132346015
 40
20.0
 41
1169.771715461011
 46
128.4870121583344
 71
     1
 72
     1
  1
{※陶器製品には寸法公差があります。\P\fＭＳ ゴシック|b0|i0|c1|p0; 洗面器の収め方をご確認の上、必ず現物を合わせて\P カウンターに切込を行ってください。}
  7
ＭＳ ゴシック
 73
     1
 44
1.174240107638677
1001
ACAD
1000
ACAD_MTEXT_DEFINED_HEIGHT_BEGIN
1070
    46
1040
128.4870121583344
1000
ACAD_MTEXT_DEFINED_HEIGHT_END
  0
MTEXT
  5
7DB9
330
A
100
AcDbEntity
  8
TEMPLATE
390
1D
100
AcDbMText
 10
1061.624171589368
 20
183.851717541492
 30
0.0
 40
19.54609375
 41
0.0
 46
22.72108134300363
 71
     1
 72
     1
  1
{8.5kg}
  7
ＭＳ ゴシック
 73
     1
 44
0.7828267384257843
1001
ACAD
1000
ACAD_MTEXT_DEFINED_HEIGHT_BEGIN
1070
    46
1040
22.72108134300363
1000
ACAD_MTEXT_DEFINED_HEIGHT_END
  0
MTEXT
  5
7DE0
330
A
100
AcDbEntity
  8
TEMPLATE
390
1D
100
AcDbMText
 10
1256.577153351019
 20
183.851717541492
 30
0.0
 40
19.54609375
 41
0.0
 46
19.54609375
 71
     1
 72
     1
  1
{4.5L}
  7
ＭＳ ゴシック
 73
     1
 44
0.7828267384257843
1001
ACAD
1000
ACAD_MTEXT_DEFINED_HEIGHT_BEGIN
1070
    46
1040
19.54609375
1000
ACAD_MTEXT_DEFINED_HEIGHT_END
  0
VIEWPORT
  5
349
330
B
100
AcDbEntity
 67
     1
  8
0
100
AcDbViewport
 10
202.5
 20
128.5
 30
0.0
 40
486.0
 41
308.4
 68
     1
 69
     1
 12
202.5
 22
128.5
 13
0.0
 23
0.0
 14
0.5
 24
0.5
 15
0.0
 25
0.0
 16
0.0
 26
0.0
 36
1.0
 17
0.0
 27
0.0
 37
0.0
 42
50.0
 43
0.0
 44
0.0
 45
308.4
 50
0.0
 51
0.0
 72
   100
 90
   557152
  1

281
     0
 71
     1
 74
     0
110
0.0
120
0.0
130
0.0
111
1.0
121
0.0
131
0.0
112
0.0
122
1.0
132
0.0
 79
     0
146
0.0
170
     0
 61
     5
348
26C
292
     1
282
     1
141
0.0
142
0.0
 63
   256
  0
VIEWPORT
  5
34A
330
B
100
AcDbEntity
 67
     1
  8
0
100
AcDbViewport
 10
202.5
 20
128.5
 30
0.0
 40
324.0
 41
205.6
 68
     2
 69
     2
 12
986.6781359294573
 22
1427.077061889956
 13
0.0
 23
0.0
 14
0.5
 24
0.5
 15
0.0
 25
0.0
 16
0.0
 26
0.0
 36
1.0
 17
0.0
 27
0.0
 37
0.0
 42
50.0
 43
0.0
 44
0.0
 45
2890.021615685494
 50
0.0
 51
0.0
 72
   100
 90
   557152
  1

281
     0
 71
     1
 74
     0
110
0.0
120
0.0
130
0.0
111
1.0
121
0.0
131
0.0
112
0.0
122
1.0
132
0.0
 79
     0
146
0.0
170
     0
 61
     5
348
26C
292
     1
282
     1
141
0.0
142
0.0
 63
   256
  0
ENDSEC
  0
SECTION
  2
OBJECTS
  0
DICTIONARY
  5
19
330
0
100
AcDbDictionary
281
     1
  3
ACAD_COLOR
350
674
  3
ACAD_DETAILVIEWSTYLE
350
BBF
  3
ACAD_FIELDLIST
350
3BE4
  3
ACAD_GROUP
350
1A
  3
ACAD_IMAGE_VARS
350
27B
  3
ACAD_LAYOUT
350
1E
  3
ACAD_MATERIAL
350
263
  3
ACAD_MLEADERSTYLE
350
336
  3
ACAD_MLINESTYLE
350
1B
  3
ACAD_PLOTSETTINGS
350
22
  3
ACAD_PLOTSTYLENAME
350
1F
  3
ACAD_SCALELIST
350
241
  3
ACAD_SECTIONVIEWSTYLE
350
BC0
  3
ACAD_TABLESTYLE
350
278
  3
ACAD_VISUALSTYLE
350
267
  3
ACDB_RECOMPOSE_DATA
350
7DE3
  3
AcDbVariableDictionary
350
330
  3
APPDATA
350
27A
  3
DimOffsetDictionary
350
E38
  0
SUN
  5
904
330
15
100
AcDbSun
 90
        1
290
     0
 63
     7
421
 16777215
 40
1.0
291
     1
 91
  2455826
 92
 54000000
292
     0
 70
     2
 71
   256
280
     1
  0
DICTIONARY
  5
2E1
330
2
100
AcDbDictionary
280
     1
281
     1
  3
ACAD_LAYERSTATES
360
2E2
  3
ACLYDICTIONARY
360
DDE
  0
DICTIONARY
  5
3E3E
330
A
100
AcDbDictionary
280
     1
281
     1
  3
ACAD_SORTENTS
360
3E3F
  0
DICTIONARY
  5
3DB8
330
3DB7
100
AcDbDictionary
280
     1
281
     1
  3
ACAD_FIELD
360
7D8D
  0
DICTIONARY
  5
7A8D
330
7A8C
100
AcDbDictionary
280
     1
281
     1
  3
ACAD_DIMASSOC
360
7A8E
  0
DICTIONARY
  5
7B33
330
7B32
100
AcDbDictionary
280
     1
281
     1
  3
ACAD_DIMASSOC
360
7B34
  0
DICTIONARY
  5
7CFA
330
7CF9
100
AcDbDictionary
280
     1
281
     1
  3
ACAD_DIMASSOC
360
7CFB
  0
DICTIONARY
  5
7D09
330
7D08
100
AcDbDictionary
280
     1
281
     1
  3
ACAD_DIMASSOC
360
7D0A
  0
DICTIONARY
  5
674
102
{ACAD_REACTORS
330
19
102
}
330
19
100
AcDbDictionary
281
     1
  0
DICTIONARY
  5
BBF
102
{ACAD_REACTORS
330
19
102
}
330
19
100
AcDbDictionary
281
     1
  0
FIELDLIST
  5
3BE4
102
{ACAD_REACTORS
330
19
102
}
330
19
100
AcDbIdSet
 90
        2
330
3DBB
330
3DBA
100
AcDbFieldList
  0
DICTIONARY
  5
1A
102
{ACAD_REACTORS
330
19
102
}
330
19
100
AcDbDictionary
281
     1
  3
*A1
350
3CF4
  3
*A2
350
7BAB
  3
*A3
350
7BEC
  3
*A4
350
7D17
  0
RASTERVARIABLES
  5
27B
102
{ACAD_REACTORS
330
19
102
}
330
19
100
AcDbRasterVariables
 90
        0
 70
     1
 71
     1
 72
     1
  0
DICTIONARY
  5
1E
102
{ACAD_REACTORS
330
19
102
}
330
19
100
AcDbDictionary
281
     1
  3
Layout1
350
21
  3
Model
350
20
  0
DICTIONARY
  5
263
102
{ACAD_REACTORS
330
19
102
}
330
19
100
AcDbDictionary
281
     1
  3
ByBlock
350
265
  3
ByLayer
350
264
  3
Global
350
266
  0
DICTIONARY
  5
336
102
{ACAD_REACTORS
330
19
102
}
330
19
100
AcDbDictionary
281
     1
  3
Standard
350
D59
  0
DICTIONARY
  5
1B
102
{ACAD_REACTORS
330
19
102
}
330
19
100
AcDbDictionary
281
     1
  3
Standard
350
1C
  0
DICTIONARY
  5
22
102
{ACAD_REACTORS
330
19
102
}
330
19
100
AcDbDictionary
281
     1
  0
ACDBDICTIONARYWDFLT
  5
1F
102
{ACAD_REACTORS
330
19
102
}
330
19
100
AcDbDictionary
281
     1
  3
Normal
350
1D
100
AcDbDictionaryWithDefault
340
1D
  0
DICTIONARY
  5
241
102
{ACAD_REACTORS
330
19
102
}
330
19
100
AcDbDictionary
281
     1
  3
A0
350
242
  3
A1
350
243
  3
A2
350
244
  3
A3
350
245
  3
A4
350
246
  3
A5
350
247
  3
A6
350
248
  3
A7
350
249
  3
A8
350
24A
  3
A9
350
24B
  3
B0
350
24C
  3
B1
350
24D
  3
B2
350
24E
  3
B3
350
24F
  3
B4
350
250
  3
B5
350
251
  3
B6
350
252
  3
B7
350
253
  3
B8
350
254
  3
B9
350
255
  3
C0
350
256
  3
C1
350
257
  3
C2
350
258
  3
C3
350
259
  3
C4
350
25A
  3
C5
350
25B
  3
C6
350
25C
  3
C7
350
25D
  3
C8
350
25E
  3
C9
350
25F
  3
D0
350
260
  3
D1
350
261
  3
D2
350
262
  0
DICTIONARY
  5
BC0
102
{ACAD_REACTORS
330
19
102
}
330
19
100
AcDbDictionary
281
     1
  0
DICTIONARY
  5
278
102
{ACAD_REACTORS
330
19
102
}
330
19
100
AcDbDictionary
281
     1
  3
Standard
350
279
  0
DICTIONARY
  5
267
102
{ACAD_REACTORS
330
19
102
}
330
19
100
AcDbDictionary
281
     1
  3
2dWireframe
350
26C
  3
3D Hidden
350
26E
  3
3dWireframe
350
26D
  3
Basic
350
26F
  3
Brighten
350
273
  3
ColorChange
350
277
  3
Conceptual
350
271
  3
Dim
350
272
  3
EdgeColorOff
350
8FE
  3
Facepattern
350
276
  3
Flat
350
268
  3
FlatWithEdges
350
269
  3
Gouraud
350
26A
  3
GouraudWithEdges
350
26B
  3
Hidden
350
8FB
  3
JitterOff
350
8FC
  3
Linepattern
350
275
  3
OverhangOff
350
8FD
  3
Realistic
350
270
  3
Shaded
350
903
  3
Shaded with edges
350
902
  3
Shades of Gray
350
8FF
  3
Sketchy
350
900
  3
Thicken
350
274
  3
Wireframe
350
8FA
  3
X-Ray
350
901
  0
XRECORD
  5
7DE3
102
{ACAD_REACTORS
330
19
102
}
330
19
100
AcDbXrecord
280
     1
 90
        1
330
279
  0
DICTIONARY
  5
330
102
{ACAD_REACTORS
330
19
102
}
330
19
100
AcDbDictionary
281
     1
  3
CANNOSCALE
350
331
  3
CMLEADERSTYLE
350
D5E
  3
CTABLESTYLE
350
335
  3
HPTRANSPARENCY
350
D52
  3
XCLIPFRAME
350
896
  0
DICTIONARY
  5
27A
102
{ACAD_REACTORS
330
19
102
}
330
19
100
AcDbDictionary
281
     1
  0
DICTIONARY
  5
E38
102
{ACAD_REACTORS
330
19
102
}
330
19
100
AcDbDictionary
281
     1
  3
DIMRAILANGLE
350
246C
  3
DIMRAILFIRSTOFFSET
350
246A
  3
DIMRAILOFFSET
350
246B
  3
DIMRAILSENABLED
350
246D
  0
DICTIONARY
  5
2E2
102
{ACAD_REACTORS
330
2E1
102
}
330
2E1
100
AcDbDictionary
281
     1
  0
DICTIONARY
  5
DDE
102
{ACAD_REACTORS
330
2E1
102
}
330
2E1
100
AcDbDictionary
281
     1
1001
ACAD
1000
<All
  0
SORTENTSTABLE
  5
3E3F
102
{ACAD_REACTORS
330
3E3E
102
}
330
3E3E
100
AcDbSortentsTable
330
A
331
3CE3
  5
3C4B
331
3CE4
  5
3CE2
331
3CEF
  5
3CE3
331
3CF0
  5
3CE4
331
3CF1
  5
3CEF
331
3CF2
  5
3CF0
331
3CF3
  5
3CF1
331
3D12
  5
3CF3
331
3DB7
  5
3D2F
331
7CEE
  5
7CF2
331
7CF0
  5
7D08
331
7CF1
  5
7D24
331
7CF2
  5
7D2E
331
7CF9
  5
7D30
331
7D08
  5
7D31
331
7D24
  5
7D32
331
7D33
  5
7CF1
  0
DICTIONARY
  5
7D8D
102
{ACAD_REACTORS
330
3DB8
102
}
330
3DB8
100
AcDbDictionary
280
     1
281
     1
  3
TEXT
360
3DBA
  0
DIMASSOC
  5
7A8E
102
{ACAD_REACTORS
330
7A8D
102
}
330
7A8D
100
AcDbDimAssoc
330
7A8C
 90
        1
 70
     0
 71
     1
  1
AcDbOsnapPointRef
 72
     1
331
5F5D
 73
     2
 91
        2
 40
1.0
 10
0.0
 20
0.0
 30
0.0
 75
     0
  0
DIMASSOC
  5
7B34
102
{ACAD_REACTORS
330
7B33
102
}
330
7B33
100
AcDbDimAssoc
330
7B32
 90
        3
 70
     0
 71
     1
  1
AcDbOsnapPointRef
 72
    13
331
7AF0
 73
     0
 91
        0
 40
0.0
 10
0.0
 20
0.0
 30
0.0
 75
     0
  1
AcDbOsnapPointRef
 72
    13
331
7B2F
 73
     0
 91
        0
 40
0.0
 10
0.0
 20
0.0
 30
0.0
 75
     0
  0
DIMASSOC
  5
7CFB
102
{ACAD_REACTORS
330
7CFA
102
}
330
7CFA
100
AcDbDimAssoc
330
7CF9
 90
        3
 70
     0
 71
     1
  1
AcDbOsnapPointRef
 72
     1
331
7CF0
 73
     0
 91
        0
 40
0.0
 10
0.0
 20
0.0
 30
0.0
 75
     0
  1
AcDbOsnapPointRef
 72
    13
331
7CF0
 73
     0
 91
        0
 40
0.0
 10
0.0
 20
0.0
 30
0.0
 75
     0
  0
DIMASSOC
  5
7D0A
102
{ACAD_REACTORS
330
7D09
102
}
330
7D09
100
AcDbDimAssoc
330
7D08
 90
        3
 70
     0
 71
     1
  1
AcDbOsnapPointRef
 72
     1
331
7CEE
 73
     0
 91
        0
 40
0.0
 10
0.0
 20
0.0
 30
0.0
 75
     0
  1
AcDbOsnapPointRef
 72
    13
331
7CF0
 73
     0
 91
        0
 40
0.0
 10
0.0
 20
0.0
 30
0.0
 75
     0
  0
GROUP
  5
3CF4
102
{ACAD_REACTORS
330
1A
102
}
330
1A
100
AcDbGroup
300

 70
     1
 71
     1
340
3CE3
340
3CE4
340
3CEF
340
3CF0
340
3CF1
340
3CF2
340
3CF3
  0
GROUP
  5
7BAB
102
{ACAD_REACTORS
330
1A
102
}
330
1A
100
AcDbGroup
300

 70
     1
 71
     1
340
7B9C
340
7B9D
340
7BA5
340
7BA7
340
7BA4
340
7BA6
  0
GROUP
  5
7BEC
102
{ACAD_REACTORS
330
1A
102
}
330
1A
100
AcDbGroup
300

 70
     1
 71
     1
340
7BE7
340
7BE8
340
7BE9
340
7BEA
340
7BE5
340
7BE6
  0
GROUP
  5
7D17
102
{ACAD_REACTORS
330
1A
102
}
330
1A
100
AcDbGroup
300

 70
     1
 71
     1
340
7C9A
340
7C9E
340
7CA2
340
7CA6
340
7CAA
340
7CB3
340
7CBC
340
7CC4
  0
LAYOUT
  5
21
102
{ACAD_REACTORS
330
1E
102
}
330
1E
100
AcDbPlotSettings
  1

  2
none_device
  4
ISO_A3_(420.00_x_297.00_MM)
  6

 40
7.5
 41
20.0
 42
7.5
 43
20.0
 44
420.0
 45
297.0
 46
0.0
 47
0.0
 48
0.0
 49
0.0
140
0.0
141
0.0
142
1.0
143
1.0
 70
     0
 72
     1
 73
     0
 74
     0
  7

 75
     0
 76
     0
 77
     2
 78
   300
147
1.0
148
0.0
149
0.0
100
AcDbLayout
  1
Layout1
 70
     0
 71
     0
 10
-7.5
 20
-20.0
 11
412.5
 21
277.0
 12
0.0
 22
0.0
 32
0.0
 14
0.0
 24
0.0
 34
0.0
 15
0.0
 25
0.0
 35
0.0
146
0.0
 13
0.0
 23
0.0
 33
0.0
 16
0.0
 26
0.0
 36
0.0
 17
0.0
 27
0.0
 37
0.0
 76
     0
330
B
331
349
  0
LAYOUT
  5
20
102
{ACAD_REACTORS
330
1E
102
}
330
1E
100
AcDbPlotSettings
  1

  2
none_device
  4
ISO_A3_(420.00_x_297.00_MM)
  6

 40
7.5
 41
20.0
 42
7.5
 43
20.0
 44
420.0
 45
297.0
 46
0.0
 47
0.0
 48
0.0
 49
0.0
140
0.0
141
0.0
142
1.0
143
1.0
 70
  1024
 72
     1
 73
     0
 74
     0
  7

 75
     0
 76
     0
 77
     2
 78
   300
147
1.0
148
0.0
149
0.0
100
AcDbLayout
  1
Model
 70
     0
 71
     1
 10
0.0
 20
0.0
 11
1680.0
 21
2376.0
 12
0.0
 22
0.0
 32
0.0
 14
0.0
 24
0.0
 34
-0.0000000000000071
 15
1680.0
 25
2376.0
 35
34.99521132346014
146
0.0
 13
0.0
 23
0.0
 33
0.0
 16
0.0
 26
0.0
 36
0.0
 17
0.0
 27
0.0
 37
0.0
 76
     0
330
A
331
15
  0
MATERIAL
  5
265
102
{ACAD_REACTORS
330
263
102
}
330
263
100
AcDbMaterial
  1
ByBlock
 72
     1
 94
      127
  0
MATERIAL
  5
264
102
{ACAD_REACTORS
330
263
102
}
330
263
100
AcDbMaterial
  1
ByLayer
 72
     1
 94
      127
  0
MATERIAL
  5
266
102
{ACAD_REACTORS
330
263
102
}
330
263
100
AcDbMaterial
  1
Global
 72
     1
 94
      127
  0
MLEADERSTYLE
  5
D59
102
{ACAD_REACTORS
330
336
102
}
330
336
100
AcDbMLeaderStyle
170
     2
171
     1
172
     0
 90
        2
 40
0.0
 41
0.0
173
     1
 91
-1056964608
340
11
 92
       -2
290
     1
 42
2.0
291
     1
 43
8.0
  3
Standard
341
0
 44
4.0
300

342
17
174
     1
178
     6
175
     1
176
     0
 93
-1056964608
 45
4.0
292
     0
297
     0
 46
4.0
343
0
 94
-1056964608
 47
1.0
 49
1.0
140
1.0
293
     1
141
0.0
294
     1
177
     0
142
1.0
295
     0
296
     0
143
3.75
1001
ACAD_MLEADERVER
1070
     2
  0
MLINESTYLE
  5
1C
102
{ACAD_REACTORS
330
1B
102
}
330
1B
100
AcDbMlineStyle
  2
Standard
 70
     0
  3

 62
     0
 51
90.0
 52
90.0
 71
     2
 49
0.5
 62
   256
  6
BYLAYER
 49
-0.5
 62
   256
  6
BYLAYER
  0
ACDBPLACEHOLDER
  5
1D
102
{ACAD_REACTORS
330
1F
102
}
330
1F
  0
SCALE
  5
242
102
{ACAD_REACTORS
330
241
102
}
330
241
100
AcDbScale
 70
     0
300
1:1
140
1.0
141
1.0
290
     1
  0
SCALE
  5
243
102
{ACAD_REACTORS
330
241
102
}
330
241
100
AcDbScale
 70
     0
300
1:2
140
1.0
141
2.0
290
     0
  0
SCALE
  5
244
102
{ACAD_REACTORS
330
241
102
}
330
241
100
AcDbScale
 70
     0
300
1:4
140
1.0
141
4.0
290
     0
  0
SCALE
  5
245
102
{ACAD_REACTORS
330
241
102
}
330
241
100
AcDbScale
 70
     0
300
1:5
140
1.0
141
5.0
290
     0
  0
SCALE
  5
246
102
{ACAD_REACTORS
330
241
102
}
330
241
100
AcDbScale
 70
     0
300
1:8
140
1.0
141
8.0
290
     0
  0
SCALE
  5
247
102
{ACAD_REACTORS
330
241
102
}
330
241
100
AcDbScale
 70
     0
300
1:10
140
1.0
141
10.0
290
     0
  0
SCALE
  5
248
102
{ACAD_REACTORS
330
241
102
}
330
241
100
AcDbScale
 70
     0
300
1:16
140
1.0
141
16.0
290
     0
  0
SCALE
  5
249
102
{ACAD_REACTORS
330
241
102
}
330
241
100
AcDbScale
 70
     0
300
1:20
140
1.0
141
20.0
290
     0
  0
SCALE
  5
24A
102
{ACAD_REACTORS
330
241
102
}
330
241
100
AcDbScale
 70
     0
300
1:30
140
1.0
141
30.0
290
     0
  0
SCALE
  5
24B
102
{ACAD_REACTORS
330
241
102
}
330
241
100
AcDbScale
 70
     0
300
1:40
140
1.0
141
40.0
290
     0
  0
SCALE
  5
24C
102
{ACAD_REACTORS
330
241
102
}
330
241
100
AcDbScale
 70
     0
300
1:50
140
1.0
141
50.0
290
     0
  0
SCALE
  5
24D
102
{ACAD_REACTORS
330
241
102
}
330
241
100
AcDbScale
 70
     0
300
1:100
140
1.0
141
100.0
290
     0
  0
SCALE
  5
24E
102
{ACAD_REACTORS
330
241
102
}
330
241
100
AcDbScale
 70
     0
300
2:1
140
2.0
141
1.0
290
     0
  0
SCALE
  5
24F
102
{ACAD_REACTORS
330
241
102
}
330
241
100
AcDbScale
 70
     0
300
4:1
140
4.0
141
1.0
290
     0
  0
SCALE
  5
250
102
{ACAD_REACTORS
330
241
102
}
330
241
100
AcDbScale
 70
     0
300
8:1
140
8.0
141
1.0
290
     0
  0
SCALE
  5
251
102
{ACAD_REACTORS
330
241
102
}
330
241
100
AcDbScale
 70
     0
300
10:1
140
10.0
141
1.0
290
     0
  0
SCALE
  5
252
102
{ACAD_REACTORS
330
241
102
}
330
241
100
AcDbScale
 70
     0
300
100:1
140
100.0
141
1.0
290
     0
  0
SCALE
  5
253
102
{ACAD_REACTORS
330
241
102
}
330
241
100
AcDbScale
 70
     0
300
1/128" = 1'-0"
140
0.0078125
141
12.0
290
     0
  0
SCALE
  5
254
102
{ACAD_REACTORS
330
241
102
}
330
241
100
AcDbScale
 70
     0
300
1/64" = 1'-0"
140
0.015625
141
12.0
290
     0
  0
SCALE
  5
255
102
{ACAD_REACTORS
330
241
102
}
330
241
100
AcDbScale
 70
     0
300
1/32" = 1'-0"
140
0.03125
141
12.0
290
     0
  0
SCALE
  5
256
102
{ACAD_REACTORS
330
241
102
}
330
241
100
AcDbScale
 70
     0
300
1/16" = 1'-0"
140
0.0625
141
12.0
290
     0
  0
SCALE
  5
257
102
{ACAD_REACTORS
330
241
102
}
330
241
100
AcDbScale
 70
     0
300
3/32" = 1'-0"
140
0.09375
141
12.0
290
     0
  0
SCALE
  5
258
102
{ACAD_REACTORS
330
241
102
}
330
241
100
AcDbScale
 70
     0
300
1/8" = 1'-0"
140
0.125
141
12.0
290
     0
  0
SCALE
  5
259
102
{ACAD_REACTORS
330
241
102
}
330
241
100
AcDbScale
 70
     0
300
3/16" = 1'-0"
140
0.1875
141
12.0
290
     0
  0
SCALE
  5
25A
102
{ACAD_REACTORS
330
241
102
}
330
241
100
AcDbScale
 70
     0
300
1/4" = 1'-0"
140
0.25
141
12.0
290
     0
  0
SCALE
  5
25B
102
{ACAD_REACTORS
330
241
102
}
330
241
100
AcDbScale
 70
     0
300
3/8" = 1'-0"
140
0.375
141
12.0
290
     0
  0
SCALE
  5
25C
102
{ACAD_REACTORS
330
241
102
}
330
241
100
AcDbScale
 70
     0
300
1/2" = 1'-0"
140
0.5
141
12.0
290
     0
  0
SCALE
  5
25D
102
{ACAD_REACTORS
330
241
102
}
330
241
100
AcDbScale
 70
     0
300
3/4" = 1'-0"
140
0.75
141
12.0
290
     0
  0
SCALE
  5
25E
102
{ACAD_REACTORS
330
241
102
}
330
241
100
AcDbScale
 70
     0
300
1" = 1'-0"
140
1.0
141
12.0
290
     0
  0
SCALE
  5
25F
102
{ACAD_REACTORS
330
241
102
}
330
241
100
AcDbScale
 70
     0
300
1-1/2" = 1'-0"
140
1.5
141
12.0
290
     0
  0
SCALE
  5
260
102
{ACAD_REACTORS
330
241
102
}
330
241
100
AcDbScale
 70
     0
300
3" = 1'-0"
140
3.0
141
12.0
290
     0
  0
SCALE
  5
261
102
{ACAD_REACTORS
330
241
102
}
330
241
100
AcDbScale
 70
     0
300
6" = 1'-0"
140
6.0
141
12.0
290
     0
  0
SCALE
  5
262
102
{ACAD_REACTORS
330
241
102
}
330
241
100
AcDbScale
 70
     0
300
1'-0" = 1'-0"
140
12.0
141
12.0
290
     0
  0
TABLESTYLE
  5
279
102
{ACAD_REACTORS
330
278
102
}
102
{ACAD_XDICTIONARY
360
7DE1
102
}
330
278
100
AcDbTableStyle
  3
Standard
 70
     0
 71
     0
 40
0.06
 41
0.06
280
     0
281
     0
  7
Standard
140
4.5
170
     2
 62
     0
 63
   257
283
     0
 90
        4
 91
        0
  1

274
    -2
284
     1
 64
     0
275
    -2
285
     1
 65
     0
276
    -2
286
     1
 66
     0
277
    -2
287
     1
 67
     0
278
    -2
288
     1
 68
     0
279
    -2
289
     1
 69
     0
  7
Standard
140
6.0
170
     5
 62
     0
 63
   257
283
     0
 90
        4
 91
        0
  1

274
    -2
284
     1
 64
     0
275
    -2
285
     1
 65
     0
276
    -2
286
     1
 66
     0
277
    -2
287
     1
 67
     0
278
    -2
288
     1
 68
     0
279
    -2
289
     1
 69
     0
  7
Standard
140
4.5
170
     5
 62
     0
 63
   257
283
     0
 90
        4
 91
        0
  1

274
    -2
284
     1
 64
     0
275
    -2
285
     1
 65
     0
276
    -2
286
     1
 66
     0
277
    -2
287
     1
 67
     0
278
    -2
288
     1
 68
     0
279
    -2
289
     1
 69
     0
  0
VISUALSTYLE
  5
26C
102
{ACAD_REACTORS
330
267
102
}
330
267
100
AcDbVisualStyle
  2
2dWireframe
 70
     4
 71
     0
 72
     2
 73
     0
 90
        0
 40
-0.6
 41
-30.0
 62
     5
 63
     7
421
 16777215
 74
     1
 91
        4
 64
     7
 65
   257
 75
     1
175
     1
 42
1.0
 92
        0
 66
   257
 43
1.0
 76
     1
 77
     6
 78
     2
 67
     7
 79
     5
170
     0
171
     0
290
     0
174
     0
 93
        1
 44
0.0
173
     0
291
     0
 45
0.0
  0
VISUALSTYLE
  5
26E
102
{ACAD_REACTORS
330
267
102
}
330
267
100
AcDbVisualStyle
  2
3D Hidden
 70
     6
 71
     1
 72
     2
 73
     2
 90
        0
 40
-0.6
 41
-30.0
 62
     5
 63
     7
421
 16777215
 74
     2
 91
        2
 64
     7
 65
   257
 75
     2
175
     1
 42
40.0
 92
        0
 66
   257
 43
1.0
 76
     1
 77
     6
 78
     2
 67
     7
 79
     3
170
     0
171
     0
290
     0
174
     0
 93
        1
 44
0.0
173
     0
291
     0
 45
0.0
  0
VISUALSTYLE
  5
26D
102
{ACAD_REACTORS
330
267
102
}
330
267
100
AcDbVisualStyle
  2
3dWireframe
 70
     5
 71
     0
 72
     2
 73
     0
 90
        0
 40
-0.6
 41
-30.0
 62
     5
 63
     7
421
 16777215
 74
     1
 91
        4
 64
     7
 65
   257
 75
     1
175
     1
 42
1.0
 92
        0
 66
   257
 43
1.0
 76
     1
 77
     6
 78
     2
 67
     7
 79
     5
170
     0
171
     0
290
     0
174
     0
 93
        1
 44
0.0
173
     0
291
     0
 45
0.0
  0
VISUALSTYLE
  5
26F
102
{ACAD_REACTORS
330
267
102
}
330
267
100
AcDbVisualStyle
  2
Basic
 70
     7
 71
     1
 72
     0
 73
     1
 90
        0
 40
-0.6
 41
-30.0
 62
     5
 63
     7
421
 16777215
 74
     0
 91
        4
 64
     7
 65
   257
 75
     1
175
     1
 42
1.0
 92
        8
 66
     7
 43
1.0
 76
     1
 77
     6
 78
     2
 67
     7
 79
     5
170
     0
171
     0
290
     0
174
     0
 93
        1
 44
0.0
173
     0
291
     1
 45
0.0
  0
VISUALSTYLE
  5
273
102
{ACAD_REACTORS
330
267
102
}
330
267
100
AcDbVisualStyle
  2
Brighten
 70
    12
 71
     2
 72
     2
 73
     0
 90
        0
 40
-0.6
 41
-30.0
 62
     5
 63
     7
421
 16777215
 74
     1
 91
        4
 64
     7
 65
   257
 75
     1
175
     1
 42
1.0
 92
        8
 66
     7
 43
1.0
 76
     1
 77
     6
 78
     2
 67
     7
 79
     5
170
     0
171
     0
290
     0
174
     0
 93
        1
 44
50.0
173
     0
291
     1
 45
0.0
  0
VISUALSTYLE
  5
277
102
{ACAD_REACTORS
330
267
102
}
330
267
100
AcDbVisualStyle
  2
ColorChange
 70
    16
 71
     2
 72
     2
 73
     3
 90
        0
 40
-0.6
 41
-30.0
 62
     5
 63
     8
421
  8421504
 74
     1
 91
        4
 64
     7
 65
   257
 75
     1
175
     1
 42
1.0
 92
        8
 66
     8
424
  8421504
 43
1.0
 76
     1
 77
     6
 78
     2
 67
     7
 79
     5
170
     0
171
     0
290
     0
174
     0
 93
        1
 44
0.0
173
     0
291
     1
 45
0.0
  0
VISUALSTYLE
  5
271
102
{ACAD_REACTORS
330
267
102
}
330
267
100
AcDbVisualStyle
  2
Conceptual
 70
     9
 71
     3
 72
     2
 73
     0
 90
        0
 40
-0.6
 41
-30.0
 62
     5
 63
     7
421
 16777215
 74
     2
 91
        2
 64
     7
 65
   257
 75
     1
175
     1
 42
40.0
 92
        8
 66
     7
 43
1.0
 76
     1
 77
     6
 78
     2
 67
     7
 79
     3
170
     0
171
     0
290
     0
174
     0
 93
        1
 44
0.0
173
     0
291
     0
 45
0.0
  0
VISUALSTYLE
  5
272
102
{ACAD_REACTORS
330
267
102
}
330
267
100
AcDbVisualStyle
  2
Dim
 70
    11
 71
     2
 72
     2
 73
     0
 90
        0
 40
-0.6
 41
-30.0
 62
     5
 63
     7
421
 16777215
 74
     1
 91
        4
 64
     7
 65
   257
 75
     1
175
     1
 42
1.0
 92
        8
 66
     7
 43
1.0
 76
     1
 77
     6
 78
     2
 67
     7
 79
     5
170
     0
171
     0
290
     0
174
     0
 93
        1
 44
-50.0
173
     0
291
     1
 45
0.0
  0
VISUALSTYLE
  5
8FE
102
{ACAD_REACTORS
330
267
102
}
330
267
100
AcDbVisualStyle
  2
EdgeColorOff
 70
    22
 71
     2
 72
     2
 73
     0
 90
        0
 40
0.6
 41
30.0
 62
     5
 63
     7
421
 16777215
 74
     1
 91
        4
 64
     7
 65
   257
 75
     1
175
     1
 42
1.0
 92
        8
 66
     7
 43
1.0
 76
     1
 77
     6
 78
     2
 67
     7
 79
     5
170
     0
171
     0
290
     0
174
     0
 93
        1
 44
0.0
173
     0
291
     1
 45
0.0
  0
VISUALSTYLE
  5
276
102
{ACAD_REACTORS
330
267
102
}
330
267
100
AcDbVisualStyle
  2
Facepattern
 70
    15
 71
     2
 72
     2
 73
     0
 90
        0
 40
-0.6
 41
-30.0
 62
     5
 63
     7
421
 16777215
 74
     1
 91
        4
 64
     7
 65
   257
 75
     1
175
     1
 42
1.0
 92
        8
 66
     7
 43
1.0
 76
     1
 77
     6
 78
     2
 67
     7
 79
     5
170
     0
171
     0
290
     0
174
     0
 93
        1
 44
0.0
173
     0
291
     1
 45
0.0
  0
VISUALSTYLE
  5
268
102
{ACAD_REACTORS
330
267
102
}
330
267
100
AcDbVisualStyle
  2
Flat
 70
     0
 71
     2
 72
     1
 73
     1
 90
        2
 40
-0.6
 41
30.0
 62
     5
 63
     7
421
 16777215
 74
     0
 91
        4
 64
     7
 65
   257
 75
     1
175
     1
 42
1.0
 92
        8
 66
     7
 43
1.0
 76
     1
 77
     6
 78
     2
 67
     7
 79
     5
170
     0
171
     0
290
     0
174
     0
 93
       13
 44
0.0
173
     0
291
     1
 45
0.0
  0
VISUALSTYLE
  5
269
102
{ACAD_REACTORS
330
267
102
}
330
267
100
AcDbVisualStyle
  2
FlatWithEdges
 70
     1
 71
     2
 72
     1
 73
     1
 90
        2
 40
-0.6
 41
30.0
 62
     5
 63
     7
421
 16777215
 74
     1
 91
        4
 64
     7
 65
   257
 75
     1
175
     1
 42
1.0
 92
        0
 66
   257
 43
1.0
 76
     1
 77
     6
 78
     2
 67
     7
 79
     5
170
     0
171
     0
290
     0
174
     0
 93
       13
 44
0.0
173
     0
291
     1
 45
0.0
  0
VISUALSTYLE
  5
26A
102
{ACAD_REACTORS
330
267
102
}
330
267
100
AcDbVisualStyle
  2
Gouraud
 70
     2
 71
     2
 72
     2
 73
     1
 90
        2
 40
-0.6
 41
30.0
 62
     5
 63
     7
421
 16777215
 74
     0
 91
        4
 64
     7
 65
   257
 75
     1
175
     1
 42
1.0
 92
        0
 66
     7
 43
1.0
 76
     1
 77
     6
 78
     2
 67
     7
 79
     5
170
     0
171
     0
290
     0
174
     0
 93
       13
 44
0.0
173
     0
291
     1
 45
0.0
  0
VISUALSTYLE
  5
26B
102
{ACAD_REACTORS
330
267
102
}
330
267
100
AcDbVisualStyle
  2
GouraudWithEdges
 70
     3
 71
     2
 72
     2
 73
     1
 90
        2
 40
-0.6
 41
30.0
 62
     5
 63
     7
421
 16777215
 74
     1
 91
        4
 64
     7
 65
   257
 75
     1
175
     1
 42
1.0
 92
        0
 66
   257
 43
1.0
 76
     1
 77
     6
 78
     2
 67
     7
 79
     5
170
     0
171
     0
290
     0
174
     0
 93
       13
 44
0.0
173
     0
291
     1
 45
0.0
  0
VISUALSTYLE
  5
8FB
102
{ACAD_REACTORS
330
267
102
}
330
267
100
AcDbVisualStyle
  2
Hidden
 70
     6
 71
     1
 72
     2
 73
     2
 90
        0
 40
0.6
 41
30.0
 62
     5
 63
     7
421
 16777215
 74
     2
 91
        2
 64
     7
 65
   257
 75
     2
175
     1
 42
40.0
 92
        0
 66
   257
 43
1.0
 76
     1
 77
     6
 78
     2
 67
     7
 79
     3
170
     0
171
     0
290
     0
174
     0
 93
        1
 44
0.0
173
     0
291
     0
 45
0.0
  0
VISUALSTYLE
  5
8FC
102
{ACAD_REACTORS
330
267
102
}
330
267
100
AcDbVisualStyle
  2
JitterOff
 70
    20
 71
     2
 72
     2
 73
     0
 90
        0
 40
0.6
 41
30.0
 62
     5
 63
     7
421
 16777215
 74
     1
 91
        4
 64
     7
 65
   257
 75
     1
175
     1
 42
1.0
 92
       10
 66
     7
 43
1.0
 76
     1
 77
     6
 78
     2
 67
     7
 79
     5
170
     0
171
     0
290
     0
174
     0
 93
        1
 44
0.0
173
     0
291
     1
 45
0.0
  0
VISUALSTYLE
  5
275
102
{ACAD_REACTORS
330
267
102
}
330
267
100
AcDbVisualStyle
  2
Linepattern
 70
    14
 71
     2
 72
     2
 73
     0
 90
        0
 40
-0.6
 41
-30.0
 62
     5
 63
     7
421
 16777215
 74
     1
 91
        4
 64
     7
 65
   257
 75
     7
175
     7
 42
1.0
 92
        8
 66
     7
 43
1.0
 76
     1
 77
     6
 78
     2
 67
     7
 79
     5
170
     0
171
     0
290
     0
174
     0
 93
        1
 44
0.0
173
     0
291
     1
 45
0.0
  0
VISUALSTYLE
  5
8FD
102
{ACAD_REACTORS
330
267
102
}
330
267
100
AcDbVisualStyle
  2
OverhangOff
 70
    21
 71
     2
 72
     2
 73
     0
 90
        0
 40
0.6
 41
30.0
 62
     5
 63
     7
421
 16777215
 74
     1
 91
        4
 64
     7
 65
   257
 75
     1
175
     1
 42
1.0
 92
        9
 66
     7
 43
1.0
 76
     1
 77
     6
 78
     2
 67
     7
 79
     5
170
     0
171
     0
290
     0
174
     0
 93
        1
 44
0.0
173
     0
291
     1
 45
0.0
  0
VISUALSTYLE
  5
270
102
{ACAD_REACTORS
330
267
102
}
330
267
100
AcDbVisualStyle
  2
Realistic
 70
     8
 71
     2
 72
     2
 73
     0
 90
        0
 40
-0.6
 41
-30.0
 62
     5
 63
     7
421
 16777215
 74
     1
 91
        0
 64
     7
 65
   257
 75
     1
175
     1
 42
1.0
 92
        8
 66
     8
424
  7895160
 43
1.0
 76
     1
 77
     6
 78
     2
 67
     7
 79
     5
170
     0
171
     0
290
     0
174
     0
 93
       13
 44
0.0
173
     0
291
     0
 45
0.0
  0
VISUALSTYLE
  5
903
102
{ACAD_REACTORS
330
267
102
}
330
267
100
AcDbVisualStyle
  2
Shaded
 70
    27
 71
     2
 72
     2
 73
     1
 90
        2
 40
0.6
 41
30.0
 62
     5
 63
     7
421
 16777215
 74
     0
 91
        4
 64
     7
 65
   257
 75
     1
175
     1
 42
1.0
 92
        8
 66
   257
 43
1.0
 76
     1
 77
     6
 78
     2
 67
     8
425
  7895160
 79
     3
170
     0
171
     0
290
     0
174
     0
 93
        5
 44
0.0
173
     0
291
     0
 45
0.0
  0
VISUALSTYLE
  5
902
102
{ACAD_REACTORS
330
267
102
}
330
267
100
AcDbVisualStyle
  2
Shaded with edges
 70
    26
 71
     2
 72
     2
 73
     1
 90
        2
 40
0.6
 41
30.0
 62
     5
 63
     7
421
 16777215
 74
     1
 91
       10
 64
     7
 65
   257
 75
     2
175
     1
 42
1.0
 92
        8
 66
   257
 43
1.0
 76
     1
 77
     6
 78
     2
 67
     7
 79
     3
170
     0
171
     0
290
     0
174
     0
 93
        5
 44
0.0
173
     0
291
     0
 45
0.0
  0
VISUALSTYLE
  5
8FF
102
{ACAD_REACTORS
330
267
102
}
330
267
100
AcDbVisualStyle
  2
Shades of Gray
 70
    23
 71
     2
 72
     2
 73
     3
 90
        0
 40
0.6
 41
30.0
 62
     5
 63
     7
421
 16777215
 74
     2
 91
        2
 64
     7
 65
     7
 75
     1
175
     1
 42
40.0
 92
        8
 66
     7
 43
1.0
 76
     1
 77
     6
 78
     2
 67
     7
 79
     3
170
     0
171
     0
290
     0
174
     0
 93
        1
 44
0.0
173
     0
291
     0
 45
0.0
  0
VISUALSTYLE
  5
900
102
{ACAD_REACTORS
330
267
102
}
330
267
100
AcDbVisualStyle
  2
Sketchy
 70
    24
 71
     1
 72
     2
 73
     2
 90
        0
 40
0.6
 41
30.0
 62
     5
 63
     7
421
 16777215
 74
     2
 91
        2
 64
     7
 65
     7
 75
     1
175
     1
 42
40.0
 92
       11
 66
     7
 43
1.0
 76
     1
 77
     6
 78
     2
 67
     7
 79
     6
170
     0
171
     0
290
     0
174
     0
 93
        1
 44
0.0
173
     0
291
     0
 45
0.0
  0
VISUALSTYLE
  5
274
102
{ACAD_REACTORS
330
267
102
}
330
267
100
AcDbVisualStyle
  2
Thicken
 70
    13
 71
     2
 72
     2
 73
     0
 90
        0
 40
-0.6
 41
-30.0
 62
     5
 63
     7
421
 16777215
 74
     1
 91
        4
 64
     7
 65
   257
 75
     1
175
     1
 42
1.0
 92
       12
 66
     7
 43
1.0
 76
     1
 77
     6
 78
     2
 67
     7
 79
     5
170
     0
171
     0
290
     0
174
     0
 93
        1
 44
0.0
173
     0
291
     1
 45
0.0
  0
VISUALSTYLE
  5
8FA
102
{ACAD_REACTORS
330
267
102
}
330
267
100
AcDbVisualStyle
  2
Wireframe
 70
     5
 71
     0
 72
     2
 73
     0
 90
        0
 40
0.6
 41
30.0
 62
     5
 63
     7
421
 16777215
 74
     1
 91
        4
 64
     7
 65
   257
 75
     1
175
     1
 42
1.0
 92
        0
 66
   257
 43
1.0
 76
     1
 77
     6
 78
     2
 67
     7
 79
     3
170
     0
171
     0
290
     0
174
     0
 93
        1
 44
0.0
173
     0
291
     0
 45
0.0
  0
VISUALSTYLE
  5
901
102
{ACAD_REACTORS
330
267
102
}
330
267
100
AcDbVisualStyle
  2
X-Ray
 70
    25
 71
     2
 72
     2
 73
     1
 90
        1
 40
0.5
 41
30.0
 62
     5
 63
     7
421
 16777215
 74
     1
 91
        0
 64
     7
 65
   257
 75
     1
175
     1
 42
1.0
 92
        8
 66
     7
 43
1.0
 76
     1
 77
     6
 78
     2
 67
     7
 79
     3
170
     0
171
     0
290
     0
174
     0
 93
       13
 44
0.0
173
     0
291
     0
 45
0.0
  0
DICTIONARYVAR
  5
331
102
{ACAD_REACTORS
330
330
102
}
330
330
100
DictionaryVariables
280
     0
  1
1:1
  0
DICTIONARYVAR
  5
D5E
102
{ACAD_REACTORS
330
330
102
}
330
330
100
DictionaryVariables
280
     0
  1
Standard
  0
DICTIONARYVAR
  5
335
102
{ACAD_REACTORS
330
330
102
}
330
330
100
DictionaryVariables
280
     0
  1
Standard
  0
DICTIONARYVAR
  5
D52
102
{ACAD_REACTORS
330
330
102
}
330
330
100
DictionaryVariables
280
     0
  1
ByLayer
  0
DICTIONARYVAR
  5
896
102
{ACAD_REACTORS
330
330
102
}
330
330
100
DictionaryVariables
280
     0
  1
0
  0
DICTIONARYVAR
  5
246C
102
{ACAD_REACTORS
330
E38
102
}
330
E38
100
DictionaryVariables
280
     0
  1
0.261799
  0
DICTIONARYVAR
  5
246A
102
{ACAD_REACTORS
330
E38
102
}
330
E38
100
DictionaryVariables
280
     0
  1
0.400000
  0
DICTIONARYVAR
  5
246B
102
{ACAD_REACTORS
330
E38
102
}
330
E38
100
DictionaryVariables
280
     0
  1
0.250000
  0
DICTIONARYVAR
  5
246D
102
{ACAD_REACTORS
330
E38
102
}
330
E38
100
DictionaryVariables
280
     0
  1
1
  0
FIELD
  5
3DBA
102
{ACAD_REACTORS
330
7D8D
102
}
330
7D8D
100
AcDbField
  1
_text
  2
{%<\_FldIdx 0>%N}
 90
        1
360
3DBB
 97
        0
 91
       63
 92
        0
 94
       11
 95
        2
 96
        0
300

 93
        1
  6
ACFD_FIELDTEXT_CHECKSUM
 93
        2
 90
        2
140
4501.0
 94
        0
300

302

304
ACVALUE_END
  7
ACFD_FIELD_VALUE
 93
        6
 90
        4
  1
{20220506N}
 94
        0
300

302

304
ACVALUE_END
301
{20220506N}
 98
       11
  0
DICTIONARY
  5
7DE1
330
279
100
AcDbDictionary
280
     1
281
     1
  3
ACAD_ROUNDTRIP_2008_TABLESTYLE_CELLSTYLEMAP
360
7DE2
  0
FIELD
  5
3DBB
330
3DBA
100
AcDbField
  1
AcVar
  2
\AcVar CreateDate \f "yyyyMMdd"
 90
        0
 97
        0
 91
       63
 92
        0
 94
       11
 95
        2
 96
        0
300

 93
        1
  6
Variable
 93
        2
 90
        4
  1
CreateDate
 94
        0
300

302

304
ACVALUE_END
  7
ACFD_FIELD_VALUE
 93
        6
 90
        8
 92
       16
310
E60705000000060004001E0011000000
 94
        0
300
yyyyMMdd
302

304
ACVALUE_END
301
20220506
 98
        8
  0
CELLSTYLEMAP
  5
7DE2
102
{ACAD_REACTORS
330
7DE1
102
}
330
7DE1
100
AcDbCellStyleMap
 90
        3
300
CELLSTYLE
  1
TABLEFORMAT_BEGIN
 90
        5
170
     1
 91
        0
 92
    32768
 62
   257
 93
        1
300
CONTENTFORMAT
  1
CONTENTFORMAT_BEGIN
 90
        0
 91
        0
 92
        4
 93
        0
300

 40
0.0
140
1.0
 94
        5
 62
     0
340
17
144
6.0
309
CONTENTFORMAT_END
171
     1
301
MARGIN
  1
CELLMARGIN_BEGIN
 40
0.06
 40
0.06
 40
0.06
 40
0.06
 40
0.18
 40
0.18
309
CELLMARGIN_END
 94
        6
 95
        1
302
GRIDFORMAT
  1
GRIDFORMAT_BEGIN
 90
        0
 91
        1
 62
     0
 92
       -2
340
0
 93
        0
 40
0.045
309
GRIDFORMAT_END
 95
        2
302
GRIDFORMAT
  1
GRIDFORMAT_BEGIN
 90
        0
 91
        1
 62
     0
 92
       -2
340
0
 93
        0
 40
0.045
309
GRIDFORMAT_END
 95
        4
302
GRIDFORMAT
  1
GRIDFORMAT_BEGIN
 90
        0
 91
        1
 62
     0
 92
       -2
340
0
 93
        0
 40
0.045
309
GRIDFORMAT_END
 95
        8
302
GRIDFORMAT
  1
GRIDFORMAT_BEGIN
 90
        0
 91
        1
 62
     0
 92
       -2
340
0
 93
        0
 40
0.045
309
GRIDFORMAT_END
 95
       16
302
GRIDFORMAT
  1
GRIDFORMAT_BEGIN
 90
        0
 91
        1
 62
     0
 92
       -2
340
0
 93
        0
 40
0.045
309
GRIDFORMAT_END
 95
       32
302
GRIDFORMAT
  1
GRIDFORMAT_BEGIN
 90
        0
 91
        1
 62
     0
 92
       -2
340
0
 93
        0
 40
0.045
309
GRIDFORMAT_END
309
TABLEFORMAT_END
  1
CELLSTYLE_BEGIN
 90
        1
 91
        1
300
_TITLE
309
CELLSTYLE_END
300
CELLSTYLE
  1
TABLEFORMAT_BEGIN
 90
        5
170
     1
 91
        0
 92
        0
 62
   257
 93
        1
300
CONTENTFORMAT
  1
CONTENTFORMAT_BEGIN
 90
        0
 91
        0
 92
        4
 93
        0
300

 40
0.0
140
1.0
 94
        5
 62
     0
340
17
144
4.5
309
CONTENTFORMAT_END
171
     1
301
MARGIN
  1
CELLMARGIN_BEGIN
 40
0.06
 40
0.06
 40
0.06
 40
0.06
 40
0.18
 40
0.18
309
CELLMARGIN_END
 94
        6
 95
        1
302
GRIDFORMAT
  1
GRIDFORMAT_BEGIN
 90
        0
 91
        1
 62
     0
 92
       -2
340
0
 93
        0
 40
0.045
309
GRIDFORMAT_END
 95
        2
302
GRIDFORMAT
  1
GRIDFORMAT_BEGIN
 90
        0
 91
        1
 62
     0
 92
       -2
340
0
 93
        0
 40
0.045
309
GRIDFORMAT_END
 95
        4
302
GRIDFORMAT
  1
GRIDFORMAT_BEGIN
 90
        0
 91
        1
 62
     0
 92
       -2
340
0
 93
        0
 40
0.045
309
GRIDFORMAT_END
 95
        8
302
GRIDFORMAT
  1
GRIDFORMAT_BEGIN
 90
        0
 91
        1
 62
     0
 92
       -2
340
0
 93
        0
 40
0.045
309
GRIDFORMAT_END
 95
       16
302
GRIDFORMAT
  1
GRIDFORMAT_BEGIN
 90
        0
 91
        1
 62
     0
 92
       -2
340
0
 93
        0
 40
0.045
309
GRIDFORMAT_END
 95
       32
302
GRIDFORMAT
  1
GRIDFORMAT_BEGIN
 90
        0
 91
        1
 62
     0
 92
       -2
340
0
 93
        0
 40
0.045
309
GRIDFORMAT_END
309
TABLEFORMAT_END
  1
CELLSTYLE_BEGIN
 90
        2
 91
        1
300
_HEADER
309
CELLSTYLE_END
300
CELLSTYLE
  1
TABLEFORMAT_BEGIN
 90
        5
170
     1
 91
        0
 92
        0
 62
   257
 93
        1
300
CONTENTFORMAT
  1
CONTENTFORMAT_BEGIN
 90
        0
 91
        0
 92
        4
 93
        0
300

 40
0.0
140
1.0
 94
        2
 62
     0
340
17
144
4.5
309
CONTENTFORMAT_END
171
     1
301
MARGIN
  1
CELLMARGIN_BEGIN
 40
0.06
 40
0.06
 40
0.06
 40
0.06
 40
0.18
 40
0.18
309
CELLMARGIN_END
 94
        6
 95
        1
302
GRIDFORMAT
  1
GRIDFORMAT_BEGIN
 90
        0
 91
        1
 62
     0
 92
       -2
340
0
 93
        0
 40
0.045
309
GRIDFORMAT_END
 95
        2
302
GRIDFORMAT
  1
GRIDFORMAT_BEGIN
 90
        0
 91
        1
 62
     0
 92
       -2
340
0
 93
        0
 40
0.045
309
GRIDFORMAT_END
 95
        4
302
GRIDFORMAT
  1
GRIDFORMAT_BEGIN
 90
        0
 91
        1
 62
     0
 92
       -2
340
0
 93
        0
 40
0.045
309
GRIDFORMAT_END
 95
        8
302
GRIDFORMAT
  1
GRIDFORMAT_BEGIN
 90
        0
 91
        1
 62
     0
 92
       -2
340
0
 93
        0
 40
0.045
309
GRIDFORMAT_END
 95
       16
302
GRIDFORMAT
  1
GRIDFORMAT_BEGIN
 90
        0
 91
        1
 62
     0
 92
       -2
340
0
 93
        0
 40
0.045
309
GRIDFORMAT_END
 95
       32
302
GRIDFORMAT
  1
GRIDFORMAT_BEGIN
 90
        0
 91
        1
 62
     0
 92
       -2
340
0
 93
        0
 40
0.045
309
GRIDFORMAT_END
309
TABLEFORMAT_END
  1
CELLSTYLE_BEGIN
 90
        3
 91
        2
300
_DATA
309
CELLSTYLE_END
  0
ENDSEC
  0
EOF
