  0
SECTION
  2
HEADER
  9
$ACADVER
  1
AC1021
  9
$ACADMAINTVER
 70
    25
  9
$DWGCODEPAGE
  3
ANSI_932
  9
$LASTSAVEDBY
  1
tform
  9
$INSBASE
 10
0.0
 20
0.0
 30
0.0
  9
$EXTMIN
 10
0.0
 20
0.0
 30
-0.0000000000000142
  9
$EXTMAX
 10
2100.0
 20
2970.0
 30
34.99521132346014
  9
$LIMMIN
 10
0.0
 20
0.0
  9
$LIMMAX
 10
2100.0
 20
2970.0
  9
$ORTHOMODE
 70
     1
  9
$REGENMODE
 70
     1
  9
$FILLMODE
 70
     1
  9
$QTEXTMODE
 70
     0
  9
$MIRRTEXT
 70
     1
  9
$LTSCALE
 40
5.0
  9
$ATTMODE
 70
     1
  9
$TEXTSIZE
 40
2.5
  9
$TRACEWID
 40
1.0
  9
$TEXTSTYLE
  7
ＭＳ ゴシック
  9
$CLAYER
  8
MODEL
  9
$CELTYPE
  6
ByLayer
  9
$CECOLOR
 62
   256
  9
$CELTSCALE
 40
1.0
  9
$DISPSILH
 70
     0
  9
$DIMSCALE
 40
1.0
  9
$DIMASZ
 40
10.0
  9
$DIMEXO
 40
30.0
  9
$DIMDLI
 40
0.9999999999999999
  9
$DIMRND
 40
0.0
  9
$DIMDLE
 40
0.0
  9
$DIMEXE
 40
0.0
  9
$DIMTP
 40
0.0
  9
$DIMTM
 40
0.0
  9
$DIMTXT
 40
24.0
  9
$DIMCEN
 40
0.0
  9
$DIMTSZ
 40
0.0
  9
$DIMTOL
 70
     0
  9
$DIMLIM
 70
     0
  9
$DIMTIH
 70
     0
  9
$DIMTOH
 70
     0
  9
$DIMSE1
 70
     0
  9
$DIMSE2
 70
     0
  9
$DIMTAD
 70
     1
  9
$DIMZIN
 70
    11
  9
$DIMBLK
  1
DOT
  9
$DIMASO
 70
     1
  9
$DIMSHO
 70
     1
  9
$DIMPOST
  1
<>
  9
$DIMAPOST
  1
[]
  9
$DIMALT
 70
     0
  9
$DIMALTD
 70
     1
  9
$DIMALTF
 40
1.0
  9
$DIMLFAC
 40
1.0
  9
$DIMTOFL
 70
     0
  9
$DIMTVP
 40
0.0
  9
$DIMTIX
 70
     1
  9
$DIMSOXD
 70
     0
  9
$DIMSAH
 70
     0
  9
$DIMBLK1
  1

  9
$DIMBLK2
  1

  9
$DIMSTYLE
  2
tfrom線あり
  9
$DIMCLRD
 70
     0
  9
$DIMCLRE
 70
     0
  9
$DIMCLRT
 70
     0
  9
$DIMTFAC
 40
1.0
  9
$DIMGAP
 40
20.0
  9
$DIMJUST
 70
     0
  9
$DIMSD1
 70
     0
  9
$DIMSD2
 70
     0
  9
$DIMTOLJ
 70
     1
  9
$DIMTZIN
 70
    11
  9
$DIMALTZ
 70
    11
  9
$DIMALTTZ
 70
    11
  9
$DIMUPT
 70
     0
  9
$DIMDEC
 70
     0
  9
$DIMTDEC
 70
     1
  9
$DIMALTU
 70
     2
  9
$DIMALTTD
 70
     2
  9
$DIMTXSTY
  7
ＭＳ ゴシック
  9
$DIMAUNIT
 70
     0
  9
$DIMADEC
 70
     2
  9
$DIMALTRND
 40
0.0
  9
$DIMAZIN
 70
     0
  9
$DIMDSEP
 70
    46
  9
$DIMATFIT
 70
     0
  9
$DIMFRAC
 70
     2
  9
$DIMLDRBLK
  1
DOT
  9
$DIMLUNIT
 70
     2
  9
$DIMLWD
 70
    -2
  9
$DIMLWE
 70
    -2
  9
$DIMTMOVE
 70
     0
  9
$DIMFXL
 40
1.0
  9
$DIMFXLON
 70
     0
  9
$DIMJOGANG
 40
0.7853981633974483
  9
$DIMTFILL
 70
     0
  9
$DIMTFILLCLR
 70
     0
  9
$DIMARCSYM
 70
     0
  9
$DIMLTYPE
  6

  9
$DIMLTEX1
  6

  9
$DIMLTEX2
  6

  9
$LUNITS
 70
     2
  9
$LUPREC
 70
     0
  9
$SKETCHINC
 40
0.1
  9
$FILLETRAD
 40
0.0
  9
$AUNITS
 70
     0
  9
$AUPREC
 70
     0
  9
$MENU
  1
acad
  9
$ELEVATION
 40
0.0
  9
$PELEVATION
 40
0.0
  9
$THICKNESS
 40
0.0
  9
$LIMCHECK
 70
     0
  9
$CHAMFERA
 40
0.0
  9
$CHAMFERB
 40
0.0
  9
$CHAMFERC
 40
0.0
  9
$CHAMFERD
 40
0.0
  9
$SKPOLY
 70
     0
  9
$TDCREATE
 40
2447893.375
  9
$TDUCREATE
 40
0.0
  9
$TDUPDATE
 40
2459499.676405822
  9
$TDUUPDATE
 40
2459499.301405822
  9
$TDINDWG
 40
0.0082137616
  9
$TDUSRTIMER
 40
0.0011878588
  9
$USRTIMER
 70
     1
  9
$ANGBASE
 50
0.0
  9
$ANGDIR
 70
     0
  9
$PDMODE
 70
     1
  9
$PDSIZE
 40
-2.0
  9
$PLINEWID
 40
0.0
  9
$SPLFRAME
 70
     0
  9
$SPLINETYPE
 70
     6
  9
$SPLINESEGS
 70
     8
  9
$HANDSEED
  5
4BAE
  9
$SURFTAB1
 70
     6
  9
$SURFTAB2
 70
     6
  9
$SURFTYPE
 70
     6
  9
$SURFU
 70
     6
  9
$SURFV
 70
     6
  9
$UCSBASE
  2

  9
$UCSNAME
  2

  9
$UCSORG
 10
0.0
 20
0.0
 30
0.0
  9
$UCSXDIR
 10
1.0
 20
0.0
 30
0.0
  9
$UCSYDIR
 10
0.0
 20
1.0
 30
0.0
  9
$UCSORTHOREF
  2

  9
$UCSORTHOVIEW
 70
     0
  9
$UCSORGTOP
 10
0.0
 20
0.0
 30
0.0
  9
$UCSORGBOTTOM
 10
0.0
 20
0.0
 30
0.0
  9
$UCSORGLEFT
 10
0.0
 20
0.0
 30
0.0
  9
$UCSORGRIGHT
 10
0.0
 20
0.0
 30
0.0
  9
$UCSORGFRONT
 10
0.0
 20
0.0
 30
0.0
  9
$UCSORGBACK
 10
0.0
 20
0.0
 30
0.0
  9
$PUCSBASE
  2

  9
$PUCSNAME
  2

  9
$PUCSORG
 10
0.0
 20
0.0
 30
0.0
  9
$PUCSXDIR
 10
1.0
 20
0.0
 30
0.0
  9
$PUCSYDIR
 10
0.0
 20
1.0
 30
0.0
  9
$PUCSORTHOREF
  2

  9
$PUCSORTHOVIEW
 70
     0
  9
$PUCSORGTOP
 10
0.0
 20
0.0
 30
0.0
  9
$PUCSORGBOTTOM
 10
0.0
 20
0.0
 30
0.0
  9
$PUCSORGLEFT
 10
0.0
 20
0.0
 30
0.0
  9
$PUCSORGRIGHT
 10
0.0
 20
0.0
 30
0.0
  9
$PUCSORGFRONT
 10
0.0
 20
0.0
 30
0.0
  9
$PUCSORGBACK
 10
0.0
 20
0.0
 30
0.0
  9
$USERI1
 70
     0
  9
$USERI2
 70
     0
  9
$USERI3
 70
     0
  9
$USERI4
 70
     0
  9
$USERI5
 70
     0
  9
$USERR1
 40
0.0
  9
$USERR2
 40
0.0
  9
$USERR3
 40
0.0
  9
$USERR4
 40
0.0
  9
$USERR5
 40
0.0
  9
$WORLDVIEW
 70
     1
  9
$SHADEDGE
 70
     3
  9
$SHADEDIF
 70
    70
  9
$TILEMODE
 70
     1
  9
$MAXACTVP
 70
    64
  9
$PINSBASE
 10
0.0
 20
0.0
 30
0.0
  9
$PLIMCHECK
 70
     0
  9
$PEXTMIN
 10
0.0
 20
0.0
 30
0.0
  9
$PEXTMAX
 10
0.0
 20
0.0
 30
0.0
  9
$PLIMMIN
 10
-7.5
 20
-20.0
  9
$PLIMMAX
 10
412.5
 20
277.0
  9
$UNITMODE
 70
     0
  9
$VISRETAIN
 70
     0
  9
$PLINEGEN
 70
     1
  9
$PSLTSCALE
 70
     0
  9
$TREEDEPTH
 70
  3020
  9
$CMLSTYLE
  2
Standard
  9
$CMLJUST
 70
     0
  9
$CMLSCALE
 40
1.0
  9
$PROXYGRAPHICS
 70
     0
  9
$MEASUREMENT
 70
     1
  9
$CELWEIGHT
370
    -1
  9
$ENDCAPS
280
     0
  9
$JOINSTYLE
280
     0
  9
$LWDISPLAY
290
     1
  9
$INSUNITS
 70
     4
  9
$HYPERLINKBASE
  1

  9
$STYLESHEET
  1

  9
$XEDIT
290
     1
  9
$CEPSNTYPE
380
     0
  9
$PSTYLEMODE
290
     1
  9
$FINGERPRINTGUID
  2

  9
$VERSIONGUID
  2

  9
$EXTNAMES
290
     1
  9
$PSVPSCALE
 40
0.0
  9
$OLESTARTUP
290
     0
  9
$SORTENTS
280
   127
  9
$INDEXCTL
280
     0
  9
$HIDETEXT
280
     1
  9
$XCLIPFRAME
290
     0
  9
$HALOGAP
280
     0
  9
$OBSCOLOR
 70
   257
  9
$OBSLTYPE
280
     0
  9
$INTERSECTIONDISPLAY
280
     0
  9
$INTERSECTIONCOLOR
 70
   257
  9
$DIMASSOC
280
     2
  9
$PROJECTNAME
  1

  9
$CAMERADISPLAY
290
     0
  9
$LENSLENGTH
 40
50.0
  9
$CAMERAHEIGHT
 40
0.0
  9
$STEPSPERSEC
 40
2.0
  9
$STEPSIZE
 40
6.0
  9
$3DDWFPREC
 40
2.0
  9
$PSOLWIDTH
 40
0.25
  9
$PSOLHEIGHT
 40
4.0
  9
$LOFTANG1
 40
1.570796326794897
  9
$LOFTANG2
 40
1.570796326794897
  9
$LOFTMAG1
 40
0.0
  9
$LOFTMAG2
 40
0.0
  9
$LOFTPARAM
 70
     7
  9
$LOFTNORMALS
280
     1
  9
$LATITUDE
 40
37.795
  9
$LONGITUDE
 40
-122.394
  9
$NORTHDIRECTION
 40
0.0
  9
$TIMEZONE
 70
 -8000
  9
$LIGHTGLYPHDISPLAY
280
     1
  9
$TILEMODELIGHTSYNCH
280
     1
  9
$SOLIDHIST
280
     1
  9
$SHOWHIST
280
     1
  9
$DWFFRAME
280
     2
  9
$DGNFRAME
280
     2
  9
$REALWORLDSCALE
290
     1
  9
$INTERFERECOLOR
 62
   256
  9
$CSHADOW
280
     0
  9
$SHADOWPLANELOCATION
 40
0.0
  0
ENDSEC
  0
SECTION
  2
CLASSES
  0
CLASS
  1
LWPOLYLINE
  2
AcDbPolyline
  3
ObjectDBX Classes
 90
        0
 91
        1
280
     0
281
     1
  0
CLASS
  1
IMAGE
  2
AcDbRasterImage
  3
ISM
 90
      127
 91
        4
280
     0
281
     1
  0
CLASS
  1
OLE2FRAME
  2
AcDbOle2Frame
  3
ObjectDBX Classes
 90
        0
 91
        1
280
     0
281
     1
  0
CLASS
  1
HATCH
  2
AcDbHatch
  3
ObjectDBX Classes
 90
        0
 91
        1
280
     0
281
     1
  0
CLASS
  1
DICTIONARYVAR
  2
AcDbDictionaryVar
  3
ObjectDBX Classes
 90
        0
 91
        3
280
     0
281
     0
  0
CLASS
  1
RASTERVARIABLES
  2
AcDbRasterVariables
  3
ISM
 90
        0
 91
        3
280
     0
281
     0
  0
CLASS
  1
IMAGEDEF
  2
AcDbRasterImageDef
  3
ISM
 90
        0
 91
        3
280
     0
281
     0
  0
CLASS
  1
IMAGEDEF_REACTOR
  2
AcDbRasterImageDefReactor
  3
ISM
 90
        1
 91
        3
280
     0
281
     0
  0
CLASS
  1
IDBUFFER
  2
AcDbIdBuffer
  3
ObjectDBX Classes
 90
        0
 91
        3
280
     0
281
     0
  0
CLASS
  1
SPATIAL_FILTER
  2
AcDbSpatialFilter
  3
ObjectDBX Classes
 90
        0
 91
        3
280
     0
281
     0
  0
CLASS
  1
XRECORD
  2
AcDbXrecord
  3
ObjectDBX Classes
 90
        0
 91
        1
280
     0
281
     0
  0
CLASS
  1
SORTENTSTABLE
  2
AcDbSortentsTable
  3
ObjectDBX Classes
 90
        0
 91
        3
280
     0
281
     0
  0
CLASS
  1
LAYER_INDEX
  2
AcDbLayerIndex
  3
ObjectDBX Classes
 90
        0
 91
        3
280
     0
281
     0
  0
CLASS
  1
SPATIAL_INDEX
  2
AcDbSpatialIndex
  3
AutoCAD 2000
 90
        0
 91
        3
280
     0
281
     0
  0
CLASS
  1
OBJECT_PTR
  2
CAseDLPNTableRecord
  3
ASE-LPNTableRecord
 90
        1
 91
        3
280
     0
281
     0
  0
CLASS
  1
LAYOUT
  2
AcDbLayout
  3
ObjectDBX Classes
 90
        0
 91
        1
280
     0
281
     0
  0
CLASS
  1
PLOTSETTINGS
  2
AcDbPlotSettings
  3
ObjectDBX Classes
 90
        0
 91
        3
280
     0
281
     0
  0
CLASS
  1
ACDBDICTIONARYWDFLT
  2
AcDbDictionaryWithDefault
  3
ObjectDBX Classes
 90
        0
 91
        3
280
     0
281
     0
  0
CLASS
  1
ACDBPLACEHOLDER
  2
AcDbPlaceHolder
  3
ObjectDBX Classes
 90
        0
 91
        1
280
     0
281
     0
  0
CLASS
  1
SCALE
  2
AcDbScale
  3
ObjectDBX Classes
 90
     1153
 91
        3
280
     0
281
     0
  0
CLASS
  1
MATERIAL
  2
AcDbMaterial
  3
ObjectDBX Classes
 90
     1153
 91
        3
280
     0
281
     0
  0
CLASS
  1
VISUALSTYLE
  2
AcDbVisualStyle
  3
ObjectDBX Classes
 90
     4095
 91
        3
280
     0
281
     0
  0
CLASS
  1
TABLESTYLE
  2
AcDbTableStyle
  3
ObjectDBX Classes
 90
     4095
 91
        3
280
     0
281
     0
  0
CLASS
  1
DIMASSOC
  2
AcDbDimAssoc
  3
"AcDbDimAssoc|Product Desc:     AcDim ARX App For Dimension|Company:          Autodesk, Inc.|WEB Address:      www.autodesk.com"
 90
        0
 91
        3
280
     0
281
     0
  0
CLASS
  1
CELLSTYLEMAP
  2
AcDbCellStyleMap
  3
ObjectDBX Classes
 90
     1152
 91
        3
280
     0
281
     0
  0
CLASS
  1
SUN
  2
AcDbSun
  3
SCENEOE
 90
     1153
 91
        3
280
     0
281
     0
  0
CLASS
  1
MLEADERSTYLE
  2
AcDbMLeaderStyle
  3
ACDB_MLEADERSTYLE_CLASS
 90
     4095
 91
        3
280
     0
281
     0
  0
CLASS
  1
FIELD
  2
AcDbField
  3
ObjectDBX Classes
 90
     1152
 91
        3
280
     0
281
     0
  0
CLASS
  1
FIELDLIST
  2
AcDbFieldList
  3
ObjectDBX Classes
 90
     1152
 91
        3
280
     0
281
     0
  0
CLASS
  1
MULTILEADER
  2
AcDbMLeader
  3
ACDB_MLEADER_CLASS
 90
     1025
 91
        3
280
     0
281
     1
  0
ENDSEC
  0
SECTION
  2
TABLES
  0
TABLE
  2
VPORT
  5
7
330
0
100
AcDbSymbolTable
 70
     1
  0
VPORT
  5
15
330
7
100
AcDbSymbolTableRecord
100
AcDbViewportTableRecord
  2
*ACTIVE
 70
     0
 10
0.0
 20
0.0
 11
1.0
 21
1.0
 12
1141.020135670897
 22
1411.401285469834
 13
0.0
 23
0.0
 14
1.0
 24
1.0
 15
0.0
 25
0.0
 16
0.0
 26
0.0
 36
1.0
 17
-91.02013567089716
 27
73.59871453016603
 37
-46.86809886248108
 40
3029.4
 41
2.333333333333333
 42
50.0
 43
0.0
 44
0.0
 50
0.0
 51
0.0
 71
    16
 72
  2000
 73
     1
 74
     1
 75
     0
 76
     0
 77
     0
 78
     0
281
     0
 65
     1
110
0.0
120
0.0
130
0.0
111
1.0
121
0.0
131
0.0
112
0.0
122
1.0
132
0.0
 79
     0
146
0.0
348
26C
 60
     3
 61
     5
292
     1
282
     1
141
0.0
142
0.0
 63
   256
361
904
  0
ENDTAB
  0
TABLE
  2
LTYPE
  5
4
330
0
100
AcDbSymbolTable
 70
     3
  0
LTYPE
  5
11
330
4
100
AcDbSymbolTableRecord
100
AcDbLinetypeTableRecord
  2
ByBlock
 70
     0
  3

 72
    65
 73
     0
 40
0.0
  0
LTYPE
  5
12
330
4
100
AcDbSymbolTableRecord
100
AcDbLinetypeTableRecord
  2
ByLayer
 70
     0
  3

 72
    65
 73
     0
 40
0.0
  0
LTYPE
  5
13
330
4
100
AcDbSymbolTableRecord
100
AcDbLinetypeTableRecord
  2
Continuous
 70
     0
  3
Solid line
 72
    65
 73
     0
 40
0.0
  0
LTYPE
  5
DAF
330
4
100
AcDbSymbolTableRecord
100
AcDbLinetypeTableRecord
  2
BORDER
 70
     0
  3
Border __  __  . __  __  . __  __  . __  __  . 
 72
    65
 73
     6
 40
44.45
 49
12.7
 74
     0
 49
-6.35
 74
     0
 49
12.7
 74
     0
 49
-6.35
 74
     0
 49
0.0
 74
     0
 49
-6.35
 74
     0
  0
LTYPE
  5
33DD
330
4
100
AcDbSymbolTableRecord
100
AcDbLinetypeTableRecord
  2
HIDDEN
 70
     0
  3
Hidden _ _ _ _ _ _ _ _ _ _ _ _ _ _ _ _ _ _ _ _ 
 72
    65
 73
     2
 40
9.524999999999999
 49
6.35
 74
     0
 49
-3.175
 74
     0
  0
ENDTAB
  0
TABLE
  2
LAYER
  5
2
102
{ACAD_XDICTIONARY
360
2E1
102
}
330
0
100
AcDbSymbolTable
 70
    10
  0
LAYER
  5
14
330
2
100
AcDbSymbolTableRecord
100
AcDbLayerTableRecord
  2
0
 70
     0
 62
     7
  6
Continuous
370
    -3
390
1D
347
266
  0
LAYER
  5
4B
330
2
100
AcDbSymbolTableRecord
100
AcDbLayerTableRecord
  2
TEMPLATE
 70
     0
 62
     7
  6
Continuous
370
    20
390
1D
347
266
  0
LAYER
  5
4C
330
2
100
AcDbSymbolTableRecord
100
AcDbLayerTableRecord
  2
DIM
 70
     0
 62
     3
  6
Continuous
370
    13
390
1D
347
266
  0
LAYER
  5
4D
330
2
100
AcDbSymbolTableRecord
100
AcDbLayerTableRecord
  2
MODEL
 70
     0
 62
     7
  6
Continuous
370
    20
390
1D
347
266
  0
LAYER
  5
D5D
330
2
100
AcDbSymbolTableRecord
100
AcDbLayerTableRecord
  2
Defpoints
 70
     0
 62
     7
  6
Continuous
290
     0
370
    -3
390
1D
347
266
  0
LAYER
  5
DAE
330
2
100
AcDbSymbolTableRecord
100
AcDbLayerTableRecord
  2
BORDER
 70
     0
 62
     4
  6
BORDER
290
     0
370
    20
390
1D
347
266
1001
AcAecLayerStandard
1000

1000

  0
LAYER
  5
157B
330
2
100
AcDbSymbolTableRecord
100
AcDbLayerTableRecord
  2
Layer3
 70
     0
 62
     7
  6
Continuous
370
    -3
390
1D
347
266
  0
LAYER
  5
157F
330
2
100
AcDbSymbolTableRecord
100
AcDbLayerTableRecord
  2
Layer9
 70
     0
 62
     7
  6
Continuous
370
    -3
390
1D
347
266
  0
LAYER
  5
1582
330
2
100
AcDbSymbolTableRecord
100
AcDbLayerTableRecord
  2
Standard
 70
     0
 62
     7
  6
Continuous
370
    -3
390
1D
347
266
  0
LAYER
  5
33DC
330
2
100
AcDbSymbolTableRecord
100
AcDbLayerTableRecord
  2
HIDDEN
 70
     0
 62
     8
  6
HIDDEN
370
    20
390
1D
347
266
1001
AcAecLayerStandard
1000

1000

  0
ENDTAB
  0
TABLE
  2
STYLE
  5
3
330
0
100
AcDbSymbolTable
 70
     2
  0
STYLE
  5
17
330
3
100
AcDbSymbolTableRecord
100
AcDbTextStyleTableRecord
  2
Standard
 70
     0
 40
0.0
 41
1.0
 50
0.0
 71
     0
 42
2.5
  3
txt
  4
BIGFONT.SHX
  0
STYLE
  5
39
330
3
100
AcDbSymbolTableRecord
100
AcDbTextStyleTableRecord
  2
ＭＳ ゴシック
 70
     0
 40
0.0
 41
1.0
 50
0.0
 71
     0
 42
2.5
  3
msgothic.ttc
  4
ＭＳ ゴシック
1001
ACAD
1000
ＭＳ ゴシック
1071
        0
  0
ENDTAB
  0
TABLE
  2
VIEW
  5
5
330
0
100
AcDbSymbolTable
 70
     0
  0
ENDTAB
  0
TABLE
  2
UCS
  5
6
330
0
100
AcDbSymbolTable
 70
     0
  0
ENDTAB
  0
TABLE
  2
APPID
  5
8
330
0
100
AcDbSymbolTable
 70
    13
  0
APPID
  5
16
330
8
100
AcDbSymbolTableRecord
100
AcDbRegAppTableRecord
  2
ACAD
 70
     0
  0
APPID
  5
7AC
330
8
100
AcDbSymbolTableRecord
100
AcDbRegAppTableRecord
  2
AcAecLayerStandard
 70
     0
  0
APPID
  5
F3A
330
8
100
AcDbSymbolTableRecord
100
AcDbRegAppTableRecord
  2
ACAD_MLEADERVER
 70
     0
  0
APPID
  5
377C
330
8
100
AcDbSymbolTableRecord
100
AcDbRegAppTableRecord
  2
AcCmTransparency
 70
     0
  0
APPID
  5
3780
330
8
100
AcDbSymbolTableRecord
100
AcDbRegAppTableRecord
  2
ACAD_DSTYLE_DIMJAG
 70
     0
  0
APPID
  5
3781
330
8
100
AcDbSymbolTableRecord
100
AcDbRegAppTableRecord
  2
ACAD_DSTYLE_DIMTALN
 70
     0
  0
APPID
  5
3782
330
8
100
AcDbSymbolTableRecord
100
AcDbRegAppTableRecord
  2
ACAD_PSEXT
 70
     0
  0
APPID
  5
3783
330
8
100
AcDbSymbolTableRecord
100
AcDbRegAppTableRecord
  2
ACAD_NAV_VCDISPLAY
 70
     0
  0
APPID
  5
3784
330
8
100
AcDbSymbolTableRecord
100
AcDbRegAppTableRecord
  2
GradientColor1ACI
 70
     0
  0
APPID
  5
3785
330
8
100
AcDbSymbolTableRecord
100
AcDbRegAppTableRecord
  2
GradientColor2ACI
 70
     0
  0
APPID
  5
4846
330
8
100
AcDbSymbolTableRecord
100
AcDbRegAppTableRecord
  2
ACAD_DSTYLE_DIMBREAK
 70
     0
  0
APPID
  5
48B8
330
8
100
AcDbSymbolTableRecord
100
AcDbRegAppTableRecord
  2
ACAD_DSTYLE_DIMRADIAL_EXTENSION
 70
     0
  0
APPID
  5
4AB0
330
8
100
AcDbSymbolTableRecord
100
AcDbRegAppTableRecord
  2
PLOTTRANSPARENCY
 70
     0
  0
ENDTAB
  0
TABLE
  2
DIMSTYLE
  5
9
330
0
100
AcDbSymbolTable
 70
     7
100
AcDbDimStyleTable
  0
DIMSTYLE
105
57
102
{ACAD_REACTORS
330
4B5B
330
4B6A
102
}
330
9
100
AcDbSymbolTableRecord
100
AcDbDimStyleTableRecord
  2
tfrom線あり
 70
     0
  3
<>
  4
[]
 41
10.0
 42
30.0
 43
0.9999999999999999
 44
0.0
 73
     0
 74
     0
 77
     1
 78
    11
140
24.0
141
0.0
143
1.0
147
20.0
171
     1
174
     1
178
     0
179
     2
271
     0
272
     1
276
     2
284
    11
285
    11
286
    11
289
     0
340
39
341
4E
342
4E
  0
DIMSTYLE
105
4836
330
9
100
AcDbSymbolTableRecord
100
AcDbDimStyleTableRecord
  2
JIS
 70
     0
  3
<>
  4
[]
 41
9.0
 42
0.0
 43
6.99999999999994
 44
19.9999999999962
 73
     0
 74
     0
 77
     1
 78
    11
140
24.4326171875
141
0.0
143
1.0
147
10.0
171
     1
174
     1
178
     0
179
     2
271
     1
272
     1
276
     2
284
    11
285
    11
286
    11
289
     0
340
39
341
4E
342
4E
  0
DIMSTYLE
105
4AEB
330
9
100
AcDbSymbolTableRecord
100
AcDbDimStyleTableRecord
  2
AM_DIN
 70
     0
  4
"
 41
3.5
 42
1.0
 43
10.0
 44
1.0
 47
0.1
 48
0.1
 50
89.99999999999996
 73
     0
 74
     0
 77
     1
 78
     8
 79
     2
140
3.5
141
0.0
143
0.0393701
146
0.71
147
1.5
172
     1
176
   256
177
   256
271
     2
178
     2
271
     2
272
     3
274
     4
283
     0
284
     8
340
17
371
    -1
372
    -1
345
11
346
11
347
11
1001
ACAD_DSTYLE_DIMJAG
1070
   388
1040
1.5
1001
ACAD_DSTYLE_DIMBREAK
1070
   391
1040
3.75
  0
DIMSTYLE
105
4AEF
330
9
100
AcDbSymbolTableRecord
100
AcDbDimStyleTableRecord
  2
ISO-25
 70
     0
 41
2.5
 42
0.625
 43
3.75
 44
1.25
 73
     0
 74
     0
 77
     1
 78
     8
140
2.5
141
2.5
143
0.03937007874016
147
0.625
171
     3
172
     1
178
     0
271
     2
272
     2
274
     3
283
     0
284
     8
340
17
  0
DIMSTYLE
105
4AF0
330
9
100
AcDbSymbolTableRecord
100
AcDbDimStyleTableRecord
  2
TFORM
 70
     0
 41
9.0
 42
5.0
 43
3.75
 44
0.0
 73
     0
 74
     0
 77
     1
 78
     8
140
12.0
141
0.0
143
0.03937007874016
147
6.0
171
     3
172
     1
178
     0
271
     0
272
     0
274
     3
278
    44
283
     0
284
     8
340
17
341
4AF1
342
4E
1001
ACAD_DSTYLE_DIMJAG
1070
   388
1040
1.5
1001
ACAD_DSTYLE_DIMTALN
1070
   392
1070
     0
  0
DIMSTYLE
105
4AF5
330
9
100
AcDbSymbolTableRecord
100
AcDbDimStyleTableRecord
  2
scala 1a 1
 70
     0
 41
7.0
 42
0.625
 43
0.0
 44
1.25
 49
15.0
290
     1
 73
     0
 74
     0
 77
     1
 78
     8
140
7.0
141
0.0
143
0.03937007874016
147
3.0
171
     3
172
     1
176
   256
177
   256
178
     0
271
     0
272
     0
274
     3
278
    44
283
     0
284
     8
340
17
371
    -1
372
     0
345
12
346
12
347
12
1001
ACAD_DSTYLE_DIMJAG
1070
   388
1040
1.5
1001
ACAD_DSTYLE_DIMTALN
1070
   392
1070
     0
  0
DIMSTYLE
105
4B3C
330
9
100
AcDbSymbolTableRecord
100
AcDbDimStyleTableRecord
  2
Piccolo Standard
 70
     0
 41
9.0
 42
0.0
 43
3.75
 44
0.0
 90
        2
 73
     0
 77
     1
 78
     8
140
9.0
141
0.0
143
0.03937007874016
147
3.0
171
     3
178
     0
271
     0
272
     0
274
     3
278
    44
283
     0
284
     8
340
17
341
4AF1
342
4E
1001
ACAD_DSTYLE_DIMBREAK
1070
   391
1040
3.75
1001
ACAD_DSTYLE_DIMJAG
1070
   388
1040
1.5
1001
ACAD_DSTYLE_DIMTALN
1070
   392
1070
     0
  0
ENDTAB
  0
TABLE
  2
BLOCK_RECORD
  5
1
330
0
100
AcDbSymbolTable
 70
    22
  0
BLOCK_RECORD
  5
A
102
{ACAD_XDICTIONARY
360
374D
102
}
330
1
100
AcDbSymbolTableRecord
100
AcDbBlockTableRecord
  2
*MODEL_SPACE
340
20
 70
     0
280
     1
281
     0
  0
BLOCK_RECORD
  5
B
330
1
100
AcDbSymbolTableRecord
100
AcDbBlockTableRecord
  2
*PAPER_SPACE
340
21
 70
     0
280
     1
281
     0
  0
BLOCK_RECORD
  5
4E
330
1
100
AcDbSymbolTableRecord
100
AcDbBlockTableRecord
  2
_DOT
340
0
102
{BLKREFS
331
47F8
331
47F9
331
4807
331
4808
331
4816
331
4817
331
4825
331
4826
331
48A5
331
48A6
331
48B1
331
48B2
331
48D2
331
48D3
331
48E1
331
48E2
331
48FF
331
4900
331
490E
331
490F
331
491D
331
491E
331
492C
331
492D
331
494D
331
494E
331
49E1
331
49E2
331
4B24
331
4B25
331
4B64
331
4B65
331
4B73
331
4B74
331
4A1A
331
4A1B
331
4A20
331
4A21
331
4A36
331
4A37
331
4A3C
331
4A3D
331
4A7E
331
4A7F
331
4A84
331
4A85
331
4A8A
331
4A8B
331
4A90
331
4A91
331
4A96
331
4A97
331
4A9C
331
4A9D
331
4AA2
331
4AA3
331
4AAD
331
4AAE
102
}
 70
     0
280
     1
281
     0
  0
BLOCK_RECORD
  5
68D
330
1
100
AcDbSymbolTableRecord
100
AcDbBlockTableRecord
  2
block 2
340
0
102
{BLKREFS
331
68C
102
}
 70
     0
280
     1
281
     0
  0
BLOCK_RECORD
  5
199A
330
1
100
AcDbSymbolTableRecord
100
AcDbBlockTableRecord
  2
SEANNOT_GROUP
340
0
102
{BLKREFS
331
28CA
102
}
 70
     0
280
     1
281
     0
  0
BLOCK_RECORD
  5
1F2F
330
1
100
AcDbSymbolTableRecord
100
AcDbBlockTableRecord
  2
SEANNOT_GROUP1
340
0
102
{BLKREFS
331
2B9B
102
}
 70
     0
280
     1
281
     0
  0
BLOCK_RECORD
  5
47F2
330
1
100
AcDbSymbolTableRecord
100
AcDbBlockTableRecord
  2
*D4
340
0
 70
     0
280
     1
281
     0
  0
BLOCK_RECORD
  5
4801
330
1
100
AcDbSymbolTableRecord
100
AcDbBlockTableRecord
  2
*D5
340
0
 70
     0
280
     1
281
     0
  0
BLOCK_RECORD
  5
4810
330
1
100
AcDbSymbolTableRecord
100
AcDbBlockTableRecord
  2
*D6
340
0
 70
     0
280
     1
281
     0
  0
BLOCK_RECORD
  5
481F
330
1
100
AcDbSymbolTableRecord
100
AcDbBlockTableRecord
  2
*D7
340
0
 70
     0
280
     1
281
     0
  0
BLOCK_RECORD
  5
489F
330
1
100
AcDbSymbolTableRecord
100
AcDbBlockTableRecord
  2
*D8
340
0
 70
     0
280
     1
281
     0
  0
BLOCK_RECORD
  5
48AB
330
1
100
AcDbSymbolTableRecord
100
AcDbBlockTableRecord
  2
*D9
340
0
 70
     0
280
     1
281
     0
  0
BLOCK_RECORD
  5
48CC
330
1
100
AcDbSymbolTableRecord
100
AcDbBlockTableRecord
  2
*D10
340
0
 70
     0
280
     1
281
     0
  0
BLOCK_RECORD
  5
48DB
330
1
100
AcDbSymbolTableRecord
100
AcDbBlockTableRecord
  2
*D11
340
0
 70
     0
280
     1
281
     0
  0
BLOCK_RECORD
  5
48F9
330
1
100
AcDbSymbolTableRecord
100
AcDbBlockTableRecord
  2
*D12
340
0
 70
     0
280
     1
281
     0
  0
BLOCK_RECORD
  5
4908
330
1
100
AcDbSymbolTableRecord
100
AcDbBlockTableRecord
  2
*D13
340
0
 70
     0
280
     1
281
     0
  0
BLOCK_RECORD
  5
4917
330
1
100
AcDbSymbolTableRecord
100
AcDbBlockTableRecord
  2
*D14
340
0
 70
     0
280
     1
281
     0
  0
BLOCK_RECORD
  5
4926
330
1
100
AcDbSymbolTableRecord
100
AcDbBlockTableRecord
  2
*D15
340
0
 70
     0
280
     1
281
     0
  0
BLOCK_RECORD
  5
4947
330
1
100
AcDbSymbolTableRecord
100
AcDbBlockTableRecord
  2
*D16
340
0
 70
     0
280
     1
281
     0
  0
BLOCK_RECORD
  5
49D8
330
1
100
AcDbSymbolTableRecord
100
AcDbBlockTableRecord
  2
*D17
340
0
 70
     0
280
     1
281
     0
  0
BLOCK_RECORD
  5
4AF1
330
1
100
AcDbSymbolTableRecord
100
AcDbBlockTableRecord
  2
_None
340
0
 70
     0
280
     1
281
     0
  0
BLOCK_RECORD
  5
4B1E
330
1
100
AcDbSymbolTableRecord
100
AcDbBlockTableRecord
  2
*D19
340
0
 70
     0
280
     1
281
     0
  0
BLOCK_RECORD
  5
4B5E
330
1
100
AcDbSymbolTableRecord
100
AcDbBlockTableRecord
  2
*D20
340
0
 70
     0
280
     1
281
     0
  0
BLOCK_RECORD
  5
4B6D
330
1
100
AcDbSymbolTableRecord
100
AcDbBlockTableRecord
  2
*D21
340
0
 70
     0
280
     1
281
     0
  0
ENDTAB
  0
ENDSEC
  0
SECTION
  2
BLOCKS
  0
BLOCK
  5
D
330
A
100
AcDbEntity
  8
0
390
1D
100
AcDbBlockBegin
  2
*MODEL_SPACE
 70
     0
 10
0.0
 20
0.0
 30
0.0
  3
*MODEL_SPACE
  1
*MODEL_SPACE
  0
ENDBLK
  5
E
330
A
100
AcDbEntity
  8
0
390
1D
100
AcDbBlockEnd
  0
BLOCK
  5
F
330
B
100
AcDbEntity
 67
     1
  8
0
390
1D
100
AcDbBlockBegin
  2
*PAPER_SPACE
 70
     0
 10
0.0
 20
0.0
 30
0.0
  3
*PAPER_SPACE
  1
*PAPER_SPACE
  0
ENDBLK
  5
10
330
B
100
AcDbEntity
 67
     1
  8
0
390
1D
100
AcDbBlockEnd
  0
BLOCK
  5
EC4
330
4E
100
AcDbEntity
  8
0
390
1D
100
AcDbBlockBegin
  2
_DOT
 70
     0
 10
0.0
 20
0.0
 30
0.0
  3
_DOT
  1
_DOT
  0
POLYLINE
  5
EC6
330
4E
100
AcDbEntity
  8
0
  6
ByBlock
 62
     0
370
    -2
390
1D
100
AcDb2dPolyline
 66
     1
 10
0.0
 20
0.0
 30
0.0
 70
     1
 40
0.5
 41
0.5
  0
VERTEX
  5
EC7
330
EC6
100
AcDbEntity
  8
0
  6
ByBlock
 62
     0
370
    -2
390
1D
100
AcDbVertex
100
AcDb2dVertex
 10
-0.25
 20
0.0
 30
0.0
 42
1.0
  0
VERTEX
  5
EC8
330
EC6
100
AcDbEntity
  8
0
  6
ByBlock
 62
     0
370
    -2
390
1D
100
AcDbVertex
100
AcDb2dVertex
 10
0.25
 20
0.0
 30
0.0
 42
1.0
  0
SEQEND
  5
EC9
330
EC6
100
AcDbEntity
  8
0
390
1D
  0
LINE
  5
ECA
330
4E
100
AcDbEntity
  8
0
  6
ByBlock
 62
     0
370
    -2
390
1D
100
AcDbLine
 10
-0.5
 20
0.0
 30
0.0
 11
-1.0
 21
0.0
 31
0.0
  0
ENDBLK
  5
ECB
330
4E
100
AcDbEntity
  8
0
390
1D
100
AcDbBlockEnd
  0
BLOCK
  5
68E
330
68D
100
AcDbEntity
  8
0
100
AcDbBlockBegin
  2
block 2
 70
     0
 10
0.0
 20
0.0
 30
0.0
  3
block 2
  1
block 2
  0
ENDBLK
  5
6B0
330
68D
100
AcDbEntity
  8
0
100
AcDbBlockEnd
  0
BLOCK
  5
199B
330
199A
100
AcDbEntity
  8
0
100
AcDbBlockBegin
  2
SEANNOT_GROUP
 70
     0
 10
0.0
 20
0.0
 30
0.0
  3
SEANNOT_GROUP
  1
SEANNOT_GROUP
  0
ENDBLK
  5
199C
330
199A
100
AcDbEntity
  8
0
100
AcDbBlockEnd
  0
BLOCK
  5
1F30
330
1F2F
100
AcDbEntity
  8
0
100
AcDbBlockBegin
  2
SEANNOT_GROUP1
 70
     0
 10
0.0
 20
0.0
 30
0.0
  3
SEANNOT_GROUP1
  1
SEANNOT_GROUP1
  0
ENDBLK
  5
1F31
330
1F2F
100
AcDbEntity
  8
0
100
AcDbBlockEnd
  0
BLOCK
  5
47F3
330
47F2
100
AcDbEntity
  8
0
100
AcDbBlockBegin
  2
*D4
 70
     1
 10
0.0
 20
0.0
 30
0.0
  3
*D4
  1

  0
LINE
  5
47F5
330
47F2
100
AcDbEntity
  8
DIM
 62
     0
370
    -2
100
AcDbLine
 10
787.5082309259531
 20
2265.075154483758
 30
0.0
 11
1071.183882009421
 21
2265.075154483758
 31
0.0
  0
LINE
  5
47F6
330
47F2
100
AcDbEntity
  8
DIM
 62
     0
370
    -2
100
AcDbLine
 10
786.6862163321595
 20
1894.90859770421
 30
0.0
 11
1071.183882009421
 21
1894.90859770421
 31
0.0
  0
LINE
  5
47F7
330
47F2
100
AcDbEntity
  8
DIM
 62
     0
370
    -2
100
AcDbLine
 10
1071.183882009421
 20
2255.075154483758
 30
0.0
 11
1071.183882009421
 21
1904.90859770421
 31
0.0
  0
INSERT
  5
47F8
330
47F2
100
AcDbEntity
  8
DIM
 62
     0
370
    -2
100
AcDbBlockReference
  2
_DOT
 10
1071.183882009421
 20
2265.075154483758
 30
0.0
 41
10.0
 42
10.0
 43
10.0
 50
90.0
  0
INSERT
  5
47F9
330
47F2
100
AcDbEntity
  8
DIM
 62
     0
370
    -2
100
AcDbBlockReference
  2
_DOT
 10
1071.183882009421
 20
1894.90859770421
 30
0.0
 41
10.0
 42
10.0
 43
10.0
 50
270.0
  0
MTEXT
  5
47FA
330
47F2
100
AcDbEntity
  8
DIM
 62
     0
100
AcDbMText
 10
1039.179380321288
 20
2079.991876093984
 30
0.0
 40
24.0
 41
0.0
 46
0.0
 71
     5
 72
     1
  1
\A1;370
  7
ＭＳ ゴシック
 11
0.0
 21
1.0
 31
0.0
 73
     1
 44
1.0
  0
POINT
  5
47FB
330
47F2
100
AcDbEntity
  8
Defpoints
 62
     0
100
AcDbPoint
 10
757.5082309259531
 20
2265.075154483758
 30
0.0
  0
POINT
  5
47FC
330
47F2
100
AcDbEntity
  8
Defpoints
 62
     0
100
AcDbPoint
 10
756.6862163321595
 20
1894.90859770421
 30
0.0
  0
POINT
  5
47FD
330
47F2
100
AcDbEntity
  8
Defpoints
 62
     0
100
AcDbPoint
 10
1071.183882009421
 20
1894.90859770421
 30
0.0
  0
ENDBLK
  5
47F4
330
47F2
100
AcDbEntity
  8
0
100
AcDbBlockEnd
  0
BLOCK
  5
4802
330
4801
100
AcDbEntity
  8
0
100
AcDbBlockBegin
  2
*D5
 70
     1
 10
0.0
 20
0.0
 30
0.0
  3
*D5
  1

  0
LINE
  5
4804
330
4801
100
AcDbEntity
  8
DIM
 62
     0
370
    -2
100
AcDbLine
 10
257.1429889266678
 20
2062.478965927744
 30
0.0
 11
257.1429889266678
 21
2370.919335379444
 31
0.0
  0
LINE
  5
4805
330
4801
100
AcDbEntity
  8
DIM
 62
     0
370
    -2
100
AcDbLine
 10
957.0708476863317
 20
2062.478965927744
 30
0.0
 11
957.0708476863317
 21
2370.919335379444
 31
0.0
  0
LINE
  5
4806
330
4801
100
AcDbEntity
  8
DIM
 62
     0
370
    -2
100
AcDbLine
 10
267.1429889266678
 20
2370.919335379444
 30
0.0
 11
947.0708476863317
 21
2370.919335379444
 31
0.0
  0
INSERT
  5
4807
330
4801
100
AcDbEntity
  8
DIM
 62
     0
370
    -2
100
AcDbBlockReference
  2
_DOT
 10
257.1429889266678
 20
2370.919335379444
 30
0.0
 41
10.0
 42
10.0
 43
10.0
 50
180.0
  0
INSERT
  5
4808
330
4801
100
AcDbEntity
  8
DIM
 62
     0
370
    -2
100
AcDbBlockReference
  2
_DOT
 10
957.0708476863317
 20
2370.919335379444
 30
0.0
 41
10.0
 42
10.0
 43
10.0
  0
MTEXT
  5
4809
330
4801
100
AcDbEntity
  8
DIM
 62
     0
100
AcDbMText
 10
607.1069183064999
 20
2402.923837067578
 30
0.0
 40
24.0
 41
0.0
 46
0.0
 71
     5
 72
     1
  1
\A1;700
  7
ＭＳ ゴシック
 73
     1
 44
1.0
  0
POINT
  5
480A
330
4801
100
AcDbEntity
  8
Defpoints
 62
     0
100
AcDbPoint
 10
257.1429889266678
 20
2032.478965927744
 30
0.0
  0
POINT
  5
480B
330
4801
100
AcDbEntity
  8
Defpoints
 62
     0
100
AcDbPoint
 10
957.0708476863317
 20
2032.478965927744
 30
0.0
  0
POINT
  5
480C
330
4801
100
AcDbEntity
  8
Defpoints
 62
     0
100
AcDbPoint
 10
957.0708476863317
 20
2370.919335379444
 30
0.0
  0
ENDBLK
  5
4803
330
4801
100
AcDbEntity
  8
0
100
AcDbBlockEnd
  0
BLOCK
  5
4811
330
4810
100
AcDbEntity
  8
0
100
AcDbBlockBegin
  2
*D6
 70
     1
 10
0.0
 20
0.0
 30
0.0
  3
*D6
  1

  0
LINE
  5
4813
330
4810
100
AcDbEntity
  8
DIM
 62
     0
370
    -2
100
AcDbLine
 10
263.4031703181918
 20
2066.227358246653
 30
0.0
 11
263.4031703181919
 21
1756.788229500296
 31
0.0
  0
LINE
  5
4814
330
4810
100
AcDbEntity
  8
DIM
 62
     0
370
    -2
100
AcDbLine
 10
950.8106662948068
 20
2066.227358246653
 30
0.0
 11
950.8106662948069
 21
1756.788229500296
 31
0.0
  0
LINE
  5
4815
330
4810
100
AcDbEntity
  8
DIM
 62
     0
370
    -2
100
AcDbLine
 10
273.4031703181919
 20
1756.788229500296
 30
0.0
 11
940.8106662948069
 21
1756.788229500296
 31
0.0
  0
INSERT
  5
4816
330
4810
100
AcDbEntity
  8
DIM
 62
     0
370
    -2
100
AcDbBlockReference
  2
_DOT
 10
263.4031703181919
 20
1756.788229500296
 30
0.0
 41
10.0
 42
10.0
 43
10.0
 50
180.0
  0
INSERT
  5
4817
330
4810
100
AcDbEntity
  8
DIM
 62
     0
370
    -2
100
AcDbBlockReference
  2
_DOT
 10
950.8106662948069
 20
1756.788229500296
 30
0.0
 41
10.0
 42
10.0
 43
10.0
  0
MTEXT
  5
4818
330
4810
100
AcDbEntity
  8
DIM
 62
     0
100
AcDbMText
 10
607.1069183064993
 20
1788.79273118843
 30
0.0
 40
24.0
 41
0.0
 46
0.0
 71
     5
 72
     1
  1
\A1;687
  7
ＭＳ ゴシック
 73
     1
 44
1.0
  0
POINT
  5
4819
330
4810
100
AcDbEntity
  8
Defpoints
 62
     0
100
AcDbPoint
 10
263.4031703181918
 20
2096.227358246653
 30
0.0
  0
POINT
  5
481A
330
4810
100
AcDbEntity
  8
Defpoints
 62
     0
100
AcDbPoint
 10
950.8106662948068
 20
2096.227358246653
 30
0.0
  0
POINT
  5
481B
330
4810
100
AcDbEntity
  8
Defpoints
 62
     0
100
AcDbPoint
 10
950.8106662948068
 20
1756.788229500296
 30
0.0
  0
ENDBLK
  5
4812
330
4810
100
AcDbEntity
  8
0
100
AcDbBlockEnd
  0
BLOCK
  5
4820
330
481F
100
AcDbEntity
  8
0
100
AcDbBlockBegin
  2
*D7
 70
     1
 10
0.0
 20
0.0
 30
0.0
  3
*D7
  1

  0
LINE
  5
4822
330
481F
100
AcDbEntity
  8
DIM
 62
     0
370
    -2
100
AcDbLine
 10
414.9825698745274
 20
2258.804804035623
 30
0.0
 11
149.3044811814537
 21
2258.804804035623
 31
0.0
  0
LINE
  5
4823
330
481F
100
AcDbEntity
  8
DIM
 62
     0
370
    -2
100
AcDbLine
 10
416.5966805701589
 20
1901.161821895148
 30
0.0
 11
149.3044811814536
 21
1901.161821895148
 31
0.0
  0
LINE
  5
4824
330
481F
100
AcDbEntity
  8
DIM
 62
     0
370
    -2
100
AcDbLine
 10
149.3044811814537
 20
2248.804804035623
 30
0.0
 11
149.3044811814536
 21
1911.161821895148
 31
0.0
  0
INSERT
  5
4825
330
481F
100
AcDbEntity
  8
DIM
 62
     0
370
    -2
100
AcDbBlockReference
  2
_DOT
 10
149.3044811814537
 20
2258.804804035623
 30
0.0
 41
10.0
 42
10.0
 43
10.0
 50
90.0
  0
INSERT
  5
4826
330
481F
100
AcDbEntity
  8
DIM
 62
     0
370
    -2
100
AcDbBlockReference
  2
_DOT
 10
149.3044811814536
 20
1901.161821895148
 30
0.0
 41
10.0
 42
10.0
 43
10.0
 50
270.0
  0
MTEXT
  5
4827
330
481F
100
AcDbEntity
  8
DIM
 62
     0
100
AcDbMText
 10
117.2999794933205
 20
2079.983312965385
 30
0.0
 40
24.0
 41
0.0
 46
0.0
 71
     5
 72
     1
  1
\A1;358
  7
ＭＳ ゴシック
 11
7.946950128953070E-17
 21
1.0
 31
0.0
 73
     1
 44
1.0
  0
POINT
  5
4828
330
481F
100
AcDbEntity
  8
Defpoints
 62
     0
100
AcDbPoint
 10
444.9825698745274
 20
2258.804804035623
 30
0.0
  0
POINT
  5
4829
330
481F
100
AcDbEntity
  8
Defpoints
 62
     0
100
AcDbPoint
 10
446.5966805701589
 20
1901.161821895148
 30
0.0
  0
POINT
  5
482A
330
481F
100
AcDbEntity
  8
Defpoints
 62
     0
100
AcDbPoint
 10
149.3044811814536
 20
1901.161821895148
 30
0.0
  0
ENDBLK
  5
4821
330
481F
100
AcDbEntity
  8
0
100
AcDbBlockEnd
  0
BLOCK
  5
48A0
330
489F
100
AcDbEntity
  8
0
100
AcDbBlockBegin
  2
*D8
 70
     1
 10
0.0
 20
0.0
 30
0.0
  3
*D8
  1

  0
LINE
  5
48A2
330
489F
100
AcDbEntity
  8
DIM
  6
Continuous
 62
     0
370
    -2
100
AcDbLine
 10
1389.371090447935
 20
2237.500586074973
 30
0.0
 11
1191.641373955888
 21
2237.500586074973
 31
0.0
  0
LINE
  5
48A3
330
489F
100
AcDbEntity
  8
DIM
  6
Continuous
 62
     0
370
    -2
100
AcDbLine
 10
1389.371090447935
 20
1922.500586074974
 30
0.0
 11
1191.641373955888
 21
1922.500586074974
 31
0.0
  0
LINE
  5
48A4
330
489F
100
AcDbEntity
  8
DIM
  6
Continuous
 62
     0
370
    -2
100
AcDbLine
 10
1191.641373955888
 20
2228.500586074973
 30
0.0
 11
1191.641373955888
 21
1931.500586074974
 31
0.0
  0
INSERT
  5
48A5
330
489F
100
AcDbEntity
  8
DIM
 62
     0
370
    -2
100
AcDbBlockReference
  2
_DOT
 10
1191.641373955888
 20
2237.500586074973
 30
0.0
 41
9.0
 42
9.0
 43
9.0
 50
90.0
  0
INSERT
  5
48A6
330
489F
100
AcDbEntity
  8
DIM
 62
     0
370
    -2
100
AcDbBlockReference
  2
_DOT
 10
1191.641373955888
 20
1922.500586074974
 30
0.0
 41
9.0
 42
9.0
 43
9.0
 50
270.0
  0
MTEXT
  5
48A7
330
489F
100
AcDbEntity
  8
DIM
 62
     0
100
AcDbMText
 10
1169.420482527853
 20
2080.000586074973
 30
0.0
 40
24.4326171875
 41
0.0
 46
0.0
 71
     5
 72
     1
  1
\A1;315
  7
ＭＳ ゴシック
 11
0.0
 21
1.0
 31
0.0
 73
     1
 44
1.0
  0
POINT
  5
48A8
330
489F
100
AcDbEntity
  8
Defpoints
 62
     0
100
AcDbPoint
 10
1414.371090447935
 20
2237.500586074973
 30
0.0
  0
POINT
  5
48A9
330
489F
100
AcDbEntity
  8
Defpoints
 62
     0
100
AcDbPoint
 10
1414.371090447935
 20
1922.500586074974
 30
0.0
  0
POINT
  5
48AA
330
489F
100
AcDbEntity
  8
Defpoints
 62
     0
100
AcDbPoint
 10
1191.641373955888
 20
1922.500586074974
 30
0.0
  0
ENDBLK
  5
48A1
330
489F
100
AcDbEntity
  8
0
100
AcDbBlockEnd
  0
BLOCK
  5
48AC
330
48AB
100
AcDbEntity
  8
0
100
AcDbBlockBegin
  2
*D9
 70
     1
 10
0.0
 20
0.0
 30
0.0
  3
*D9
  1

  0
LINE
  5
48AE
330
48AB
100
AcDbEntity
  8
DIM
  6
Continuous
 62
     0
370
    -2
100
AcDbLine
 10
1276.182530193551
 20
2055.000586074973
 30
0.0
 11
1276.182530193551
 21
1762.100843022132
 31
0.0
  0
LINE
  5
48AF
330
48AB
100
AcDbEntity
  8
DIM
  6
Continuous
 62
     0
370
    -2
100
AcDbLine
 10
1916.179753724465
 20
2054.995468510274
 30
0.0
 11
1916.179753724465
 21
1762.100843022132
 31
0.0
  0
LINE
  5
48B0
330
48AB
100
AcDbEntity
  8
DIM
  6
Continuous
 62
     0
370
    -2
100
AcDbLine
 10
1285.182530193551
 20
1762.100843022132
 30
0.0
 11
1907.179753724465
 21
1762.100843022132
 31
0.0
  0
INSERT
  5
48B1
330
48AB
100
AcDbEntity
  8
DIM
 62
     0
370
    -2
100
AcDbBlockReference
  2
_DOT
 10
1276.182530193551
 20
1762.100843022132
 30
0.0
 41
9.0
 42
9.0
 43
9.0
 50
180.0
  0
INSERT
  5
48B2
330
48AB
100
AcDbEntity
  8
DIM
 62
     0
370
    -2
100
AcDbBlockReference
  2
_DOT
 10
1916.179753724465
 20
1762.100843022132
 30
0.0
 41
9.0
 42
9.0
 43
9.0
  0
MTEXT
  5
48B3
330
48AB
100
AcDbEntity
  8
DIM
 62
     0
100
AcDbMText
 10
1596.181141959008
 20
1784.317151615882
 30
0.0
 40
24.4326171875
 41
0.0
 46
0.0
 71
     5
 72
     1
  1
\A1;640
  7
ＭＳ ゴシック
 73
     1
 44
1.0
  0
POINT
  5
48B4
330
48AB
100
AcDbEntity
  8
Defpoints
 62
     0
100
AcDbPoint
 10
1276.182530193551
 20
2080.000586074973
 30
0.0
  0
POINT
  5
48B5
330
48AB
100
AcDbEntity
  8
Defpoints
 62
     0
100
AcDbPoint
 10
1916.179753724465
 20
2079.995468510274
 30
0.0
  0
POINT
  5
48B6
330
48AB
100
AcDbEntity
  8
Defpoints
 62
     0
100
AcDbPoint
 10
1916.179753724465
 20
1762.100843022132
 30
0.0
  0
ENDBLK
  5
48AD
330
48AB
100
AcDbEntity
  8
0
100
AcDbBlockEnd
  0
BLOCK
  5
48CD
330
48CC
100
AcDbEntity
  8
0
100
AcDbBlockBegin
  2
*D10
 70
     1
 10
0.0
 20
0.0
 30
0.0
  3
*D10
  1

  0
LINE
  5
48CF
330
48CC
100
AcDbEntity
  8
DIM
 62
     0
370
    -2
100
AcDbLine
 10
257.5629580748636
 20
1117.959794576287
 30
0.0
 11
257.5629580748636
 21
1259.405277547166
 31
0.0
  0
LINE
  5
48D0
330
48CC
100
AcDbEntity
  8
DIM
 62
     0
370
    -2
100
AcDbLine
 10
607.1069520951811
 20
1119.254055440249
 30
0.0
 11
607.1069520951811
 21
1259.405277547166
 31
0.0
  0
LINE
  5
48D1
330
48CC
100
AcDbEntity
  8
DIM
 62
     0
370
    -2
100
AcDbLine
 10
267.5629580748636
 20
1259.405277547166
 30
0.0
 11
597.1069520951811
 21
1259.405277547166
 31
0.0
  0
INSERT
  5
48D2
330
48CC
100
AcDbEntity
  8
DIM
 62
     0
370
    -2
100
AcDbBlockReference
  2
_DOT
 10
257.5629580748636
 20
1259.405277547166
 30
0.0
 41
10.0
 42
10.0
 43
10.0
 50
180.0
  0
INSERT
  5
48D3
330
48CC
100
AcDbEntity
  8
DIM
 62
     0
370
    -2
100
AcDbBlockReference
  2
_DOT
 10
607.1069520951811
 20
1259.405277547166
 30
0.0
 41
10.0
 42
10.0
 43
10.0
  0
MTEXT
  5
48D4
330
48CC
100
AcDbEntity
  8
DIM
 62
     0
100
AcDbMText
 10
432.3349550850223
 20
1291.409779235299
 30
0.0
 40
24.0
 41
0.0
 46
0.0
 71
     5
 72
     1
  1
\A1;350
  7
ＭＳ ゴシック
 73
     1
 44
1.0
  0
POINT
  5
48D5
330
48CC
100
AcDbEntity
  8
Defpoints
 62
     0
100
AcDbPoint
 10
257.5629580748636
 20
1087.959794576287
 30
0.0
  0
POINT
  5
48D6
330
48CC
100
AcDbEntity
  8
Defpoints
 62
     0
100
AcDbPoint
 10
607.1069520951811
 20
1089.254055440249
 30
0.0
  0
POINT
  5
48D7
330
48CC
100
AcDbEntity
  8
Defpoints
 62
     0
100
AcDbPoint
 10
607.1069520951811
 20
1259.405277547166
 30
0.0
  0
ENDBLK
  5
48CE
330
48CC
100
AcDbEntity
  8
0
100
AcDbBlockEnd
  0
BLOCK
  5
48DC
330
48DB
100
AcDbEntity
  8
0
100
AcDbBlockBegin
  2
*D11
 70
     1
 10
0.0
 20
0.0
 30
0.0
  3
*D11
  1

  0
LINE
  5
48DE
330
48DB
100
AcDbEntity
  8
DIM
 62
     0
370
    -2
100
AcDbLine
 10
984.3351384829467
 20
1089.248245588708
 30
0.0
 11
1051.630320470089
 21
1089.248245588708
 31
0.0
  0
LINE
  5
48DF
330
48DB
100
AcDbEntity
  8
DIM
 62
     0
370
    -2
100
AcDbLine
 10
917.319744431919
 20
939.2766693610349
 30
0.0
 11
1051.630320470089
 21
939.2766693610349
 31
0.0
  0
LINE
  5
48E0
330
48DB
100
AcDbEntity
  8
DIM
 62
     0
370
    -2
100
AcDbLine
 10
1051.630320470089
 20
1079.248245588708
 30
0.0
 11
1051.630320470089
 21
949.2766693610349
 31
0.0
  0
INSERT
  5
48E1
330
48DB
100
AcDbEntity
  8
DIM
 62
     0
370
    -2
100
AcDbBlockReference
  2
_DOT
 10
1051.630320470089
 20
1089.248245588708
 30
0.0
 41
10.0
 42
10.0
 43
10.0
 50
90.0
  0
INSERT
  5
48E2
330
48DB
100
AcDbEntity
  8
DIM
 62
     0
370
    -2
100
AcDbBlockReference
  2
_DOT
 10
1051.630320470089
 20
939.2766693610349
 30
0.0
 41
10.0
 42
10.0
 43
10.0
 50
270.0
  0
MTEXT
  5
48E3
330
48DB
100
AcDbEntity
  8
DIM
 62
     0
100
AcDbMText
 10
1019.625818781956
 20
1014.262457474872
 30
0.0
 40
24.0
 41
0.0
 46
0.0
 71
     5
 72
     1
  1
\A1;150
  7
ＭＳ ゴシック
 11
0.0
 21
1.0
 31
0.0
 73
     1
 44
1.0
  0
POINT
  5
48E4
330
48DB
100
AcDbEntity
  8
Defpoints
 62
     0
100
AcDbPoint
 10
954.3351384829467
 20
1089.248245588708
 30
0.0
  0
POINT
  5
48E5
330
48DB
100
AcDbEntity
  8
Defpoints
 62
     0
100
AcDbPoint
 10
887.319744431919
 20
939.2766693610349
 30
0.0
  0
POINT
  5
48E6
330
48DB
100
AcDbEntity
  8
Defpoints
 62
     0
100
AcDbPoint
 10
1051.630320470089
 20
939.2766693610349
 30
0.0
  0
ENDBLK
  5
48DD
330
48DB
100
AcDbEntity
  8
0
100
AcDbBlockEnd
  0
BLOCK
  5
48FA
330
48F9
100
AcDbEntity
  8
0
100
AcDbBlockBegin
  2
*D12
 70
     1
 10
0.0
 20
0.0
 30
0.0
  3
*D12
  1

  0
LINE
  5
48FC
330
48F9
100
AcDbEntity
  8
DIM
 62
     0
370
    -2
100
AcDbLine
 10
889.2440912732119
 20
909.7699775527484
 30
0.0
 11
889.2440912732119
 21
804.5217581073026
 31
0.0
  0
LINE
  5
48FD
330
48F9
100
AcDbEntity
  8
DIM
 62
     0
370
    -2
100
AcDbLine
 10
324.9698129171512
 20
909.7699775527484
 30
0.0
 11
324.9698129171512
 21
804.5217581073026
 31
0.0
  0
LINE
  5
48FE
330
48F9
100
AcDbEntity
  8
DIM
 62
     0
370
    -2
100
AcDbLine
 10
879.2440912732119
 20
804.5217581073026
 30
0.0
 11
334.9698129171512
 21
804.5217581073026
 31
0.0
  0
INSERT
  5
48FF
330
48F9
100
AcDbEntity
  8
DIM
 62
     0
370
    -2
100
AcDbBlockReference
  2
_DOT
 10
889.2440912732119
 20
804.5217581073026
 30
0.0
 41
10.0
 42
10.0
 43
10.0
  0
INSERT
  5
4900
330
48F9
100
AcDbEntity
  8
DIM
 62
     0
370
    -2
100
AcDbBlockReference
  2
_DOT
 10
324.9698129171512
 20
804.5217581073026
 30
0.0
 41
10.0
 42
10.0
 43
10.0
 50
180.0
  0
MTEXT
  5
4901
330
48F9
100
AcDbEntity
  8
DIM
 62
     0
100
AcDbMText
 10
607.1069520951816
 20
836.5262597954356
 30
0.0
 40
24.0
 41
0.0
 46
0.0
 71
     5
 72
     1
  1
\A1;564
  7
ＭＳ ゴシック
 73
     1
 44
1.0
  0
POINT
  5
4902
330
48F9
100
AcDbEntity
  8
Defpoints
 62
     0
100
AcDbPoint
 10
889.2440912732119
 20
939.7699775527484
 30
0.0
  0
POINT
  5
4903
330
48F9
100
AcDbEntity
  8
Defpoints
 62
     0
100
AcDbPoint
 10
324.9698129171512
 20
939.7699775527484
 30
0.0
  0
POINT
  5
4904
330
48F9
100
AcDbEntity
  8
Defpoints
 62
     0
100
AcDbPoint
 10
324.9698129171512
 20
804.5217581073026
 30
0.0
  0
ENDBLK
  5
48FB
330
48F9
100
AcDbEntity
  8
0
100
AcDbBlockEnd
  0
BLOCK
  5
4909
330
4908
100
AcDbEntity
  8
0
100
AcDbBlockBegin
  2
*D13
 70
     1
 10
0.0
 20
0.0
 30
0.0
  3
*D13
  1

  0
LINE
  5
490B
330
4908
100
AcDbEntity
  8
DIM
 62
     0
370
    -2
100
AcDbLine
 10
1411.512317898281
 20
1089.138635542676
 30
0.0
 11
1351.606163300206
 21
1089.138635542676
 31
0.0
  0
LINE
  5
490C
330
4908
100
AcDbEntity
  8
DIM
 62
     0
370
    -2
100
AcDbLine
 10
1426.067793140045
 20
1014.352499423066
 30
0.0
 11
1351.606163300206
 21
1014.352499423066
 31
0.0
  0
LINE
  5
490D
330
4908
100
AcDbEntity
  8
DIM
 62
     0
370
    -2
100
AcDbLine
 10
1351.606163300206
 20
1079.138635542676
 30
0.0
 11
1351.606163300206
 21
1024.352499423066
 31
0.0
  0
INSERT
  5
490E
330
4908
100
AcDbEntity
  8
DIM
 62
     0
370
    -2
100
AcDbBlockReference
  2
_DOT
 10
1351.606163300206
 20
1089.138635542676
 30
0.0
 41
10.0
 42
10.0
 43
10.0
 50
90.0
  0
INSERT
  5
490F
330
4908
100
AcDbEntity
  8
DIM
 62
     0
370
    -2
100
AcDbBlockReference
  2
_DOT
 10
1351.606163300206
 20
1014.352499423066
 30
0.0
 41
10.0
 42
10.0
 43
10.0
 50
270.0
  0
MTEXT
  5
4910
330
4908
100
AcDbEntity
  8
DIM
 62
     0
100
AcDbMText
 10
1319.601661612073
 20
1051.745567482871
 30
0.0
 40
24.0
 41
0.0
 46
0.0
 71
     5
 72
     1
  1
\A1;75
  7
ＭＳ ゴシック
 11
0.0
 21
1.0
 31
0.0
 73
     1
 44
1.0
  0
POINT
  5
4911
330
4908
100
AcDbEntity
  8
Defpoints
 62
     0
100
AcDbPoint
 10
1441.512317898281
 20
1089.138635542676
 30
0.0
  0
POINT
  5
4912
330
4908
100
AcDbEntity
  8
Defpoints
 62
     0
100
AcDbPoint
 10
1456.067793140045
 20
1014.352499423066
 30
0.0
  0
POINT
  5
4913
330
4908
100
AcDbEntity
  8
Defpoints
 62
     0
100
AcDbPoint
 10
1351.606163300206
 20
1014.352499423066
 30
0.0
  0
ENDBLK
  5
490A
330
4908
100
AcDbEntity
  8
0
100
AcDbBlockEnd
  0
BLOCK
  5
4918
330
4917
100
AcDbEntity
  8
0
100
AcDbBlockBegin
  2
*D14
 70
     1
 10
0.0
 20
0.0
 30
0.0
  3
*D14
  1

  0
LINE
  5
491A
330
4917
100
AcDbEntity
  8
DIM
 62
     0
370
    -2
100
AcDbLine
 10
1507.605401751796
 20
909.7617051048413
 30
0.0
 11
1507.605401751796
 21
843.4171454601317
 31
0.0
  0
LINE
  5
491B
330
4917
100
AcDbEntity
  8
DIM
 62
     0
370
    -2
100
AcDbLine
 10
1744.881378550085
 20
909.7617051048416
 30
0.0
 11
1744.881378550085
 21
843.4171454601317
 31
0.0
  0
LINE
  5
491C
330
4917
100
AcDbEntity
  8
DIM
 62
     0
370
    -2
100
AcDbLine
 10
1517.605401751796
 20
843.4171454601317
 30
0.0
 11
1734.881378550085
 21
843.4171454601317
 31
0.0
  0
INSERT
  5
491D
330
4917
100
AcDbEntity
  8
DIM
 62
     0
370
    -2
100
AcDbBlockReference
  2
_DOT
 10
1507.605401751796
 20
843.4171454601317
 30
0.0
 41
10.0
 42
10.0
 43
10.0
 50
180.0
  0
INSERT
  5
491E
330
4917
100
AcDbEntity
  8
DIM
 62
     0
370
    -2
100
AcDbBlockReference
  2
_DOT
 10
1744.881378550085
 20
843.4171454601317
 30
0.0
 41
10.0
 42
10.0
 43
10.0
  0
MTEXT
  5
491F
330
4917
100
AcDbEntity
  8
DIM
 62
     0
100
AcDbMText
 10
1626.243390150941
 20
875.4216471482647
 30
0.0
 40
24.0
 41
0.0
 46
0.0
 71
     5
 72
     1
  1
\A1;237
  7
ＭＳ ゴシック
 73
     1
 44
1.0
  0
POINT
  5
4920
330
4917
100
AcDbEntity
  8
Defpoints
 62
     0
100
AcDbPoint
 10
1507.605401751796
 20
939.7617051048413
 30
0.0
  0
POINT
  5
4921
330
4917
100
AcDbEntity
  8
Defpoints
 62
     0
100
AcDbPoint
 10
1744.881378550085
 20
939.7617051048416
 30
0.0
  0
POINT
  5
4922
330
4917
100
AcDbEntity
  8
Defpoints
 62
     0
100
AcDbPoint
 10
1744.881378550085
 20
843.4171454601317
 30
0.0
  0
ENDBLK
  5
4919
330
4917
100
AcDbEntity
  8
0
100
AcDbBlockEnd
  0
BLOCK
  5
4927
330
4926
100
AcDbEntity
  8
0
100
AcDbBlockBegin
  2
*D15
 70
     1
 10
0.0
 20
0.0
 30
0.0
  3
*D15
  1

  0
LINE
  5
4929
330
4926
100
AcDbEntity
  8
DIM
 62
     0
370
    -2
100
AcDbLine
 10
1840.974462403599
 20
1089.138635542678
 30
0.0
 11
1906.384114011205
 21
1089.138635542678
 31
0.0
  0
LINE
  5
492A
330
4926
100
AcDbEntity
  8
DIM
 62
     0
370
    -2
100
AcDbLine
 10
1678.14340461182
 20
942.3363443767506
 30
0.0
 11
1906.384114011205
 21
942.3363443767506
 31
0.0
  0
LINE
  5
492B
330
4926
100
AcDbEntity
  8
DIM
 62
     0
370
    -2
100
AcDbLine
 10
1906.384114011205
 20
1079.138635542678
 30
0.0
 11
1906.384114011205
 21
952.3363443767506
 31
0.0
  0
INSERT
  5
492C
330
4926
100
AcDbEntity
  8
DIM
 62
     0
370
    -2
100
AcDbBlockReference
  2
_DOT
 10
1906.384114011205
 20
1089.138635542678
 30
0.0
 41
10.0
 42
10.0
 43
10.0
 50
90.0
  0
INSERT
  5
492D
330
4926
100
AcDbEntity
  8
DIM
 62
     0
370
    -2
100
AcDbBlockReference
  2
_DOT
 10
1906.384114011205
 20
942.3363443767506
 30
0.0
 41
10.0
 42
10.0
 43
10.0
 50
270.0
  0
MTEXT
  5
492E
330
4926
100
AcDbEntity
  8
DIM
 62
     0
100
AcDbMText
 10
1874.379612323072
 20
1015.737489959714
 30
0.0
 40
24.0
 41
0.0
 46
0.0
 71
     5
 72
     1
  1
\A1;147
  7
ＭＳ ゴシック
 11
0.0
 21
1.0
 31
0.0
 73
     1
 44
1.0
  0
POINT
  5
492F
330
4926
100
AcDbEntity
  8
Defpoints
 62
     0
100
AcDbPoint
 10
1810.974462403599
 20
1089.138635542678
 30
0.0
  0
POINT
  5
4930
330
4926
100
AcDbEntity
  8
Defpoints
 62
     0
100
AcDbPoint
 10
1648.14340461182
 20
942.3363443767506
 30
0.0
  0
POINT
  5
4931
330
4926
100
AcDbEntity
  8
Defpoints
 62
     0
100
AcDbPoint
 10
1906.384114011205
 20
942.3363443767506
 30
0.0
  0
ENDBLK
  5
4928
330
4926
100
AcDbEntity
  8
0
100
AcDbBlockEnd
  0
BLOCK
  5
4948
330
4947
100
AcDbEntity
  8
0
100
AcDbBlockBegin
  2
*D16
 70
     1
 10
0.0
 20
0.0
 30
0.0
  3
*D16
  1

  0
LINE
  5
494A
330
4947
100
AcDbEntity
  8
DIM
 62
     0
370
    -2
100
AcDbLine
 10
1626.243390150941
 20
815.4216471482647
 30
0.0
 11
1626.243390150941
 21
773.7441167499778
 31
0.0
  0
LINE
  5
494B
330
4947
100
AcDbEntity
  8
DIM
 62
     0
370
    -2
100
AcDbLine
 10
1812.679192829739
 20
1025.63564318615
 30
0.0
 11
1812.679192829739
 21
773.7441167499778
 31
0.0
  0
LINE
  5
494C
330
4947
100
AcDbEntity
  8
DIM
 62
     0
370
    -2
100
AcDbLine
 10
1636.243390150941
 20
773.7441167499778
 30
0.0
 11
1802.679192829739
 21
773.7441167499778
 31
0.0
  0
INSERT
  5
494D
330
4947
100
AcDbEntity
  8
DIM
 62
     0
370
    -2
100
AcDbBlockReference
  2
_DOT
 10
1626.243390150941
 20
773.7441167499778
 30
0.0
 41
10.0
 42
10.0
 43
10.0
 50
180.0
  0
INSERT
  5
494E
330
4947
100
AcDbEntity
  8
DIM
 62
     0
370
    -2
100
AcDbBlockReference
  2
_DOT
 10
1812.679192829739
 20
773.7441167499778
 30
0.0
 41
10.0
 42
10.0
 43
10.0
  0
MTEXT
  5
494F
330
4947
100
AcDbEntity
  8
DIM
 62
     0
100
AcDbMText
 10
1719.46129149034
 20
805.7486184381108
 30
0.0
 40
24.0
 41
0.0
 46
0.0
 71
     5
 72
     1
  1
\A1;186
  7
ＭＳ ゴシック
 73
     1
 44
1.0
  0
POINT
  5
4950
330
4947
100
AcDbEntity
  8
Defpoints
 62
     0
100
AcDbPoint
 10
1626.243390150941
 20
845.4216471482647
 30
0.0
  0
POINT
  5
4951
330
4947
100
AcDbEntity
  8
Defpoints
 62
     0
100
AcDbPoint
 10
1812.679192829739
 20
1055.63564318615
 30
0.0
  0
POINT
  5
4952
330
4947
100
AcDbEntity
  8
Defpoints
 62
     0
100
AcDbPoint
 10
1812.679192829739
 20
773.7441167499778
 30
0.0
  0
ENDBLK
  5
4949
330
4947
100
AcDbEntity
  8
0
100
AcDbBlockEnd
  0
BLOCK
  5
49D9
330
49D8
100
AcDbEntity
  8
0
100
AcDbBlockBegin
  2
*D17
 70
     1
 10
0.0
 20
0.0
 30
0.0
  3
*D17
  1

  0
LINE
  5
49DB
330
49D8
100
AcDbEntity
  8
DIM
 62
     0
370
    -2
100
AcDbLine
 10
1656.243376396365
 20
967.9437902800036
 30
0.0
 11
1626.5234929771
 21
967.9437902800036
 31
0.0
  0
LINE
  5
49DC
330
49D8
100
AcDbEntity
  8
DIM
 62
     0
370
    -2
100
AcDbLine
 10
1656.24339015094
 20
1089.244615052759
 30
0.0
 11
1626.5234929771
 21
1089.244615052759
 31
0.0
  0
LINE
  5
49DD
330
49D8
100
AcDbEntity
  8
DIM
 62
     0
370
    -2
100
AcDbLine
 10
1626.5234929771
 20
1089.244615052759
 30
0.0
 11
1626.5234929771
 21
1296.515841762776
 31
0.0
  0
LINE
  5
49DE
330
49D8
100
AcDbEntity
  8
DIM
 62
     0
370
    -2
100
AcDbLine
 10
1626.5234929771
 20
967.9437902800036
 30
0.0
 11
1626.5234929771
 21
1089.244615052759
 31
0.0
  0
LINE
  5
49DF
330
49D8
100
AcDbEntity
  8
DIM
 62
     0
370
    -2
100
AcDbLine
 10
1626.5234929771
 20
957.9437902800036
 30
0.0
 11
1626.5234929771
 21
947.9437902800036
 31
0.0
  0
LINE
  5
49E0
330
49D8
100
AcDbEntity
  8
DIM
 62
     0
370
    -2
100
AcDbLine
 10
1626.5234929771
 20
1099.244615052759
 30
0.0
 11
1626.5234929771
 21
1109.244615052759
 31
0.0
  0
INSERT
  5
49E1
330
49D8
100
AcDbEntity
  8
DIM
 62
     0
370
    -2
100
AcDbBlockReference
  2
_DOT
 10
1626.5234929771
 20
967.9437902800036
 30
0.0
 41
10.0
 42
10.0
 43
10.0
 50
90.0
  0
INSERT
  5
49E2
330
49D8
100
AcDbEntity
  8
DIM
 62
     0
370
    -2
100
AcDbBlockReference
  2
_DOT
 10
1626.5234929771
 20
1089.244615052759
 30
0.0
 41
10.0
 42
10.0
 43
10.0
 50
270.0
  0
MTEXT
  5
49E3
330
49D8
100
AcDbEntity
  8
DIM
 62
     0
100
AcDbMText
 10
1592.814352049252
 20
1202.880228407768
 30
0.0
 40
24.0
 41
0.0
 46
0.0
 71
     5
 72
     1
  1
\A1;121（深さ）
  7
ＭＳ ゴシック
 11
0.0
 21
1.0
 31
0.0
 73
     1
 44
1.0
  0
POINT
  5
49E6
330
49D8
100
AcDbEntity
  8
Defpoints
 62
     0
100
AcDbPoint
 10
1626.243376396365
 20
967.9437902800036
 30
0.0
  0
POINT
  5
49E7
330
49D8
100
AcDbEntity
  8
Defpoints
 62
     0
100
AcDbPoint
 10
1626.24339015094
 20
1089.244615052759
 30
0.0
  0
POINT
  5
49E8
330
49D8
100
AcDbEntity
  8
Defpoints
 62
     0
100
AcDbPoint
 10
1626.5234929771
 20
1089.244615052759
 30
0.0
  0
ENDBLK
  5
49DA
330
49D8
100
AcDbEntity
  8
0
100
AcDbBlockEnd
  0
BLOCK
  5
4AF2
330
4AF1
100
AcDbEntity
  8
0
 48
0.5
100
AcDbBlockBegin
  2
_None
 70
     0
 10
0.0
 20
0.0
 30
0.0
  3
_None
  1
_None
  0
ENDBLK
  5
4AF3
330
4AF1
100
AcDbEntity
  8
0
 48
0.5
100
AcDbBlockEnd
  0
BLOCK
  5
4B1F
330
4B1E
100
AcDbEntity
  8
0
100
AcDbBlockBegin
  2
*D19
 70
     1
 10
0.0
 20
0.0
 30
0.0
  3
*D19
  1

  0
LINE
  5
4B21
330
4B1E
100
AcDbEntity
  8
MODEL
 62
     0
370
    -2
100
AcDbLine
 10
522.1520339447154
 20
2249.84119082259
 30
0.0
 11
161.8892581894408
 21
2249.84119082259
 31
0.0
  0
LINE
  5
4B22
330
4B1E
100
AcDbEntity
  8
MODEL
 62
     0
370
    -2
100
AcDbLine
 10
519.7512856889899
 20
1910.174182883485
 30
0.0
 11
161.8892581894407
 21
1910.174182883485
 31
0.0
  0
LINE
  5
4B23
330
4B1E
100
AcDbEntity
  8
MODEL
 62
     0
370
    -2
100
AcDbLine
 10
161.8892581894408
 20
2239.84119082259
 30
0.0
 11
161.8892581894407
 21
1920.174182883485
 31
0.0
  0
INSERT
  5
4B24
330
4B1E
100
AcDbEntity
  8
MODEL
 62
     0
370
    -2
100
AcDbBlockReference
  2
_DOT
 10
161.8892581894408
 20
2249.84119082259
 30
0.0
 41
10.0
 42
10.0
 43
10.0
 50
90.0
  0
INSERT
  5
4B25
330
4B1E
100
AcDbEntity
  8
MODEL
 62
     0
370
    -2
100
AcDbBlockReference
  2
_DOT
 10
161.8892581894407
 20
1910.174182883485
 30
0.0
 41
10.0
 42
10.0
 43
10.0
 50
270.0
  0
MTEXT
  5
4B26
330
4B1E
100
AcDbEntity
  8
MODEL
 62
     0
100
AcDbMText
 10
129.8847565013076
 20
2080.007686853038
 30
0.0
 40
24.0
 41
0.0
 46
0.0
 71
     5
 72
     1
  1
\A1;340
  7
ＭＳ ゴシック
 11
8.367521356533796E-17
 21
1.0
 31
0.0
 73
     1
 44
1.0
  0
POINT
  5
4B27
330
4B1E
100
AcDbEntity
  8
Defpoints
 62
     0
100
AcDbPoint
 10
552.1520339447154
 20
2249.84119082259
 30
0.0
  0
POINT
  5
4B28
330
4B1E
100
AcDbEntity
  8
Defpoints
 62
     0
100
AcDbPoint
 10
549.7512856889899
 20
1910.174182883485
 30
0.0
  0
POINT
  5
4B29
330
4B1E
100
AcDbEntity
  8
Defpoints
 62
     0
100
AcDbPoint
 10
161.8892581894407
 20
1910.174182883485
 30
0.0
  0
ENDBLK
  5
4B20
330
4B1E
100
AcDbEntity
  8
0
100
AcDbBlockEnd
  0
BLOCK
  5
4B5F
330
4B5E
100
AcDbEntity
  8
0
100
AcDbBlockBegin
  2
*D20
 70
     1
 10
0.0
 20
0.0
 30
0.0
  3
*D20
  1

  0
LINE
  5
4B61
330
4B5E
100
AcDbEntity
  8
DIM
 62
     0
370
    -2
100
AcDbLine
 10
406.4065829342713
 20
2250.823644346357
 30
0.0
 11
180.6968366969059
 21
2250.823644346357
 31
0.0
  0
LINE
  5
4B62
330
4B5E
100
AcDbEntity
  8
DIM
 62
     0
370
    -2
100
AcDbLine
 10
410.9548645083056
 20
1909.731768036054
 30
0.0
 11
180.6968366969058
 21
1909.731768036054
 31
0.0
  0
LINE
  5
4B63
330
4B5E
100
AcDbEntity
  8
DIM
 62
     0
370
    -2
100
AcDbLine
 10
180.6968366969059
 20
2240.823644346357
 30
0.0
 11
180.6968366969058
 21
1919.731768036054
 31
0.0
  0
INSERT
  5
4B64
330
4B5E
100
AcDbEntity
  8
DIM
 62
     0
370
    -2
100
AcDbBlockReference
  2
_DOT
 10
180.6968366969059
 20
2250.823644346357
 30
0.0
 41
10.0
 42
10.0
 43
10.0
 50
90.0
  0
INSERT
  5
4B65
330
4B5E
100
AcDbEntity
  8
DIM
 62
     0
370
    -2
100
AcDbBlockReference
  2
_DOT
 10
180.6968366969058
 20
1909.731768036054
 30
0.0
 41
10.0
 42
10.0
 43
10.0
 50
270.0
  0
MTEXT
  5
4B66
330
4B5E
100
AcDbEntity
  8
DIM
 62
     0
100
AcDbMText
 10
148.6923350087727
 20
2080.277706191206
 30
0.0
 40
24.0
 41
0.0
 46
0.0
 71
     5
 72
     1
  1
\A1;340
  7
ＭＳ ゴシック
 11
8.332567089504010E-17
 21
1.0
 31
0.0
 73
     1
 44
1.0
  0
POINT
  5
4B67
330
4B5E
100
AcDbEntity
  8
Defpoints
 62
     0
100
AcDbPoint
 10
436.4065829342713
 20
2250.823644346357
 30
0.0
  0
POINT
  5
4B68
330
4B5E
100
AcDbEntity
  8
Defpoints
 62
     0
100
AcDbPoint
 10
440.9548645083056
 20
1909.731768036054
 30
0.0
  0
POINT
  5
4B69
330
4B5E
100
AcDbEntity
  8
Defpoints
 62
     0
100
AcDbPoint
 10
180.6968366969058
 20
1909.731768036054
 30
0.0
  0
ENDBLK
  5
4B60
330
4B5E
100
AcDbEntity
  8
0
100
AcDbBlockEnd
  0
BLOCK
  5
4B6E
330
4B6D
100
AcDbEntity
  8
0
100
AcDbBlockBegin
  2
*D21
 70
     1
 10
0.0
 20
0.0
 30
0.0
  3
*D21
  1

  0
LINE
  5
4B70
330
4B6D
100
AcDbEntity
  8
DIM
 62
     0
370
    -2
100
AcDbLine
 10
272.1567454804451
 20
1961.658415367584
 30
0.0
 11
272.1567454804451
 21
1762.895085441206
 31
0.0
  0
LINE
  5
4B71
330
4B6D
100
AcDbEntity
  8
DIM
 62
     0
370
    -2
100
AcDbLine
 10
942.0515507145635
 20
1961.658415367584
 30
0.0
 11
942.0515507145635
 21
1762.895085441206
 31
0.0
  0
LINE
  5
4B72
330
4B6D
100
AcDbEntity
  8
DIM
 62
     0
370
    -2
100
AcDbLine
 10
282.1567454804451
 20
1762.895085441206
 30
0.0
 11
932.0515507145635
 21
1762.895085441206
 31
0.0
  0
INSERT
  5
4B73
330
4B6D
100
AcDbEntity
  8
DIM
 62
     0
370
    -2
100
AcDbBlockReference
  2
_DOT
 10
272.1567454804451
 20
1762.895085441206
 30
0.0
 41
10.0
 42
10.0
 43
10.0
 50
180.0
  0
INSERT
  5
4B74
330
4B6D
100
AcDbEntity
  8
DIM
 62
     0
370
    -2
100
AcDbBlockReference
  2
_DOT
 10
942.0515507145635
 20
1762.895085441206
 30
0.0
 41
10.0
 42
10.0
 43
10.0
  0
MTEXT
  5
4B75
330
4B6D
100
AcDbEntity
  8
DIM
 62
     0
100
AcDbMText
 10
607.1041480975042
 20
1794.899587129339
 30
0.0
 40
24.0
 41
0.0
 46
0.0
 71
     5
 72
     1
  1
\A1;670
  7
ＭＳ ゴシック
 73
     1
 44
1.0
  0
POINT
  5
4B76
330
4B6D
100
AcDbEntity
  8
Defpoints
 62
     0
100
AcDbPoint
 10
272.1567454804451
 20
1991.658415367584
 30
0.0
  0
POINT
  5
4B77
330
4B6D
100
AcDbEntity
  8
Defpoints
 62
     0
100
AcDbPoint
 10
942.0515507145635
 20
1991.658415367584
 30
0.0
  0
POINT
  5
4B78
330
4B6D
100
AcDbEntity
  8
Defpoints
 62
     0
100
AcDbPoint
 10
942.0515507145635
 20
1762.895085441206
 30
0.0
  0
ENDBLK
  5
4B6F
330
4B6D
100
AcDbEntity
  8
0
100
AcDbBlockEnd
  0
ENDSEC
  0
SECTION
  2
ENTITIES
  0
MTEXT
  5
177
330
A
100
AcDbEntity
  8
TEMPLATE
390
1D
100
AcDbMText
 10
79.20214454773075
 20
343.7317516314282
 30
0.0
 40
16.28841145833333
 41
0.0
 46
0.0
 71
     1
 72
     1
  1
品名
  7
ＭＳ ゴシック
 73
     1
 44
0.7828267384257843
  0
MTEXT
  5
178
330
A
100
AcDbEntity
  8
TEMPLATE
390
1D
100
AcDbMText
 10
79.20214454773075
 20
258.731751631428
 30
0.0
 40
16.28841145833333
 41
0.0
 46
0.0
 71
     1
 72
     1
  1
仕様
  7
ＭＳ ゴシック
 73
     1
 44
0.7828267384257843
  0
LINE
  5
179
330
A
100
AcDbEntity
  8
TEMPLATE
390
1D
100
AcDbLine
 10
2022.202144547248
 20
267.1466735064284
 30
0.0
 11
72.20214454724874
 21
267.1466735064284
 31
0.0
  0
LWPOLYLINE
  5
17A
330
A
100
AcDbEntity
  8
TEMPLATE
390
1D
100
AcDbPolyline
 90
        5
 70
   128
 43
0.0
 10
2022.202144547248
 20
2897.146673506426
 10
72.20214454724874
 20
2897.146673506426
 10
72.20214454724874
 20
97.14667350642826
 10
2022.202144547248
 20
97.14667350642826
 10
2022.202144547248
 20
2897.146673506426
  0
LINE
  5
17B
330
A
100
AcDbEntity
  8
TEMPLATE
390
1D
100
AcDbLine
 10
2022.202144547248
 20
352.1466735064282
 30
0.0
 11
72.20214454724874
 21
352.1466735064282
 31
0.0
  0
LINE
  5
17C
330
A
100
AcDbEntity
  8
TEMPLATE
390
1D
100
AcDbLine
 10
2022.202144547732
 20
182.1466735064282
 30
0.0
 11
1269.20214454773
 21
182.1466735064282
 31
0.0
  0
MTEXT
  5
17E
330
A
100
AcDbEntity
  8
TEMPLATE
390
1D
100
AcDbMText
 10
1299.073550799991
 20
152.2362790331201
 30
0.0
 40
24.4326171875
 41
0.0
 46
0.0
 71
     1
 72
     1
  1
大洋金物株式会社 ティーフォルム事業部
  7
ＭＳ ゴシック
 73
     1
 44
0.7828267384257843
  0
MTEXT
  5
180
330
A
100
AcDbEntity
  8
TEMPLATE
390
1D
100
AcDbMText
 10
1831.20214454799
 20
230.1492906939282
 30
0.0
 40
24.4326171875
 41
0.0
 46
24.4326171875
 71
     1
 72
     1
  1
{1:10}
  7
ＭＳ ゴシック
 73
     1
 44
0.7828267384257843
1001
ACAD
1000
ACAD_MTEXT_DEFINED_HEIGHT_BEGIN
1070
    46
1040
24.4326171875
1000
ACAD_MTEXT_DEFINED_HEIGHT_END
  0
MTEXT
  5
181
330
A
100
AcDbEntity
  8
TEMPLATE
390
1D
100
AcDbMText
 10
1778.20214454799
 20
258.731751631428
 30
0.0
 40
16.28841145833333
 41
0.0
 46
0.0
 71
     1
 72
     1
  1
縮尺
  7
ＭＳ ゴシック
 73
     1
 44
0.7828267384257843
  0
LINE
  5
182
330
A
100
AcDbEntity
  8
TEMPLATE
390
1D
100
AcDbLine
 10
1771.20214454799
 20
182.1466735064282
 30
0.0
 11
1771.20214454799
 21
267.1466735064284
 31
0.0
  0
MTEXT
  5
183
330
A
100
AcDbEntity
  8
TEMPLATE
390
1D
100
AcDbMText
 10
1527.20214454799
 20
258.731751631428
 30
0.0
 40
16.28841145833333
 41
0.0
 46
0.0
 71
     1
 72
     1
  1
容量
  7
ＭＳ ゴシック
 73
     1
 44
0.7828267384257843
  0
LINE
  5
184
330
A
100
AcDbEntity
  8
TEMPLATE
390
1D
100
AcDbLine
 10
1520.20214454799
 20
182.1466735064282
 30
0.0
 11
1520.20214454799
 21
267.1466735064284
 31
0.0
  0
MTEXT
  5
185
330
A
100
AcDbEntity
  8
TEMPLATE
390
1D
100
AcDbMText
 10
1276.20214454799
 20
343.7317516314282
 30
0.0
 40
16.28841145833333
 41
0.0
 46
0.0
 71
     1
 72
     1
  1
品番
  7
ＭＳ ゴシック
 73
     1
 44
0.7828267384257843
  0
MTEXT
  5
186
330
A
100
AcDbEntity
  8
TEMPLATE
390
1D
100
AcDbMText
 10
1276.20214454799
 20
258.731751631428
 30
0.0
 40
16.28841145833333
 41
0.0
 46
0.0
 71
     1
 72
     1
  1
重量
  7
ＭＳ ゴシック
 73
     1
 44
0.7828267384257843
  0
LINE
  5
188
330
A
100
AcDbEntity
  8
TEMPLATE
390
1D
100
AcDbLine
 10
1269.20214454799
 20
97.14667350642826
 30
0.0
 11
1269.20214454799
 21
352.1466735064282
 31
0.0
  0
INSERT
  5
68C
330
A
100
AcDbEntity
  8
TEMPLATE
100
AcDbBlockReference
  2
block 2
 10
919.2743017702577
 20
8.373076514336368
 30
0.0
 41
0.3809999999999999
 42
0.3809999999999999
 43
0.3809999999999999
  0
LWPOLYLINE
  5
DAC
330
A
100
AcDbEntity
  8
BORDER
100
AcDbPolyline
 90
        4
 70
     1
 43
0.0
 10
0.0
 20
0.0
 10
0.0
 20
2970.0
 10
2100.0
 20
2970.0
 10
2100.0
 20
0.0
  0
MTEXT
  5
1466
102
{ACAD_XDICTIONARY
360
1468
102
}
330
A
100
AcDbEntity
  8
TEMPLATE
 48
0.05
100
AcDbMText
 10
74.728656548571
 20
83.86172105142839
 30
0.0
 40
22.0
 41
0.0
 46
22.0
 71
     1
 72
     1
  1
{20181114N}
  7
ＭＳ ゴシック
 73
     1
 44
1.0
1001
ACAD
1000
ACAD_MTEXT_DEFINED_HEIGHT_BEGIN
1070
    46
1040
22.0
1000
ACAD_MTEXT_DEFINED_HEIGHT_END
  0
POINT
  5
262A
330
A
100
AcDbEntity
  8
Layer9
  6
Continuous
 62
     7
100
AcDbPoint
 10
1037.460145007193
 20
1010.220672371878
 30
0.0
  0
POINT
  5
262B
330
A
100
AcDbEntity
  8
Layer9
  6
Continuous
 62
     7
100
AcDbPoint
 10
1037.460146257193
 20
1010.220672788578
 30
0.0
  0
POINT
  5
262C
330
A
100
AcDbEntity
  8
Layer9
  6
Continuous
 62
     7
100
AcDbPoint
 10
1037.853693340493
 20
1015.267975288578
 30
0.0
  0
POINT
  5
2812
330
A
100
AcDbEntity
  8
Layer9
  6
Continuous
 62
     7
100
AcDbPoint
 10
925.7934783404928
 20
1010.220672371878
 30
0.0
  0
POINT
  5
2813
330
A
100
AcDbEntity
  8
Layer9
  6
Continuous
 62
     7
100
AcDbPoint
 10
925.7934795904928
 20
1010.220672788578
 30
0.0
  0
POINT
  5
2814
330
A
100
AcDbEntity
  8
Layer9
  6
Continuous
 62
     7
100
AcDbPoint
 10
926.1870266737928
 20
1015.267975288578
 30
0.0
  0
INSERT
  5
28CA
330
A
100
AcDbEntity
  8
Layer3
100
AcDbBlockReference
  2
SEANNOT_GROUP
 10
859.7083018867928
 20
826.1905269541776
 30
0.0
  0
POINT
  5
2A52
330
A
100
AcDbEntity
  8
Standard
  6
Continuous
 62
     7
100
AcDbPoint
 10
1036.111241014893
 20
1018.794321538578
 30
0.0
  0
INSERT
  5
2B9B
330
A
100
AcDbEntity
  8
Layer3
100
AcDbBlockReference
  2
SEANNOT_GROUP1
 10
859.7083018867928
 20
826.1905269541776
 30
0.0
  0
HATCH
  5
369B
102
{ACAD_REACTORS
330
36AC
102
}
330
A
100
AcDbEntity
  8
TEMPLATE
100
AcDbHatch
 10
0.0
 20
0.0
 30
0.0
210
0.0
220
0.0
230
1.0
  2
SOLID
 70
     1
 71
     1
 91
        6
 92
        1
 93
        8
 72
     1
 10
1934.476782902687
 20
153.1053194253001
 11
1934.476782902687
 21
147.1959117946397
 72
     1
 10
1934.476782902687
 20
147.1959117946397
 11
1925.116191352377
 21
147.1959117946397
 72
     1
 10
1925.116191352377
 20
147.1959117946397
 11
1925.116191352377
 21
123.105319426746
 72
     1
 10
1925.116191352377
 20
123.105319426746
 11
1916.883578199102
 21
123.105319426746
 72
     1
 10
1916.883578199102
 20
123.105319426746
 11
1916.883578199102
 21
147.1959117946397
 72
     1
 10
1916.883578199102
 20
147.1959117946397
 11
1907.688876764557
 21
147.1959117946397
 72
     1
 10
1907.688876764557
 20
147.1959117946397
 11
1907.688876764557
 21
153.1053194253001
 72
     1
 10
1907.688876764557
 20
153.1053194253001
 11
1934.476782902687
 21
153.1053194253001
 97
        1
330
369C
 92
        1
 93
        1
 72
     4
 94
        3
 73
     0
 74
     1
 95
       56
 96
       52
 40
0.0
 40
0.0
 40
0.0
 40
0.0
 40
1.0
 40
1.0
 40
1.0
 40
2.0
 40
2.0
 40
2.0
 40
3.0
 40
3.0
 40
3.0
 40
4.0
 40
4.0
 40
4.0
 40
5.0
 40
5.0
 40
5.0
 40
6.0
 40
6.0
 40
6.0
 40
7.0
 40
7.0
 40
7.0
 40
8.0
 40
8.0
 40
8.0
 40
9.0
 40
9.0
 40
9.0
 40
10.0
 40
10.0
 40
10.0
 40
11.0
 40
11.0
 40
11.0
 40
12.0
 40
12.0
 40
12.0
 40
13.0
 40
13.0
 40
13.0
 40
14.0
 40
14.0
 40
14.0
 40
15.0
 40
15.0
 40
15.0
 40
16.0
 40
16.0
 40
16.0
 40
17.0
 40
17.0
 40
17.0
 40
17.0
 10
1947.01896833698
 20
152.3909504648878
 10
1948.1728345189
 20
152.715738018898
 10
1949.662423612235
 20
152.4440650580081
 10
1949.662423612235
 20
152.4440650580081
 10
1949.662423612235
 20
152.4440650580081
 10
1948.946790018651
 20
150.2964947655846
 10
1948.946790018651
 20
150.2964947655846
 10
1948.946790018651
 20
150.2964947655846
 10
1947.484427733556
 20
150.6348957237139
 10
1946.356523726704
 20
149.7454866546012
 10
1945.480058550036
 20
149.0499384113589
 10
1944.912238256914
 20
147.2017886193686
 10
1944.69442379101
 20
146.4990989182278
 10
1944.69442379101
 20
146.4990989182278
 10
1943.723334297183
 20
143.518432927829
 10
1943.723334297183
 20
143.518432927829
 10
1943.723334297183
 20
143.518432927829
 10
1946.907457447503
 20
143.518432927829
 10
1946.907457447503
 20
143.518432927829
 10
1946.907457447503
 20
143.518432927829
 10
1946.412241976351
 20
141.642461206109
 10
1946.412241976351
 20
141.642461206109
 10
1946.412241976351
 20
141.642461206109
 10
1943.202156650962
 20
141.642461206109
 10
1943.202156650962
 20
141.642461206109
 10
1943.202156650962
 20
141.642461206109
 10
1937.458713526257
 20
123.105319426746
 10
1937.458713526257
 20
123.105319426746
 10
1937.458713526257
 20
123.105319426746
 10
1935.660479549369
 20
123.105319426746
 10
1935.660479549369
 20
123.105319426746
 10
1935.660479549369
 20
123.105319426746
 10
1941.409129987127
 20
141.642461206109
 10
1941.409129987127
 20
141.642461206109
 10
1941.409129987127
 20
141.642461206109
 10
1939.040397670409
 20
141.642461206109
 10
1939.040397670409
 20
141.642461206109
 10
1939.040397670409
 20
141.642461206109
 10
1939.536952164915
 20
143.518432927829
 10
1939.536952164915
 20
143.518432927829
 10
1939.536952164915
 20
143.518432927829
 10
1941.930307633347
 20
143.518432927829
 10
1941.930307633347
 20
143.518432927829
 10
1941.930307633347
 20
143.518432927829
 10
1942.77686795507
 20
146.1179236028939
 10
1942.77686795507
 20
146.1179236028939
 10
1943.461406450716
 20
148.2973328951149
 10
1944.042245026465
 20
149.4674161376772
 10
1944.540138544327
 20
150.3496093587049
 10
1945.032750358952
 20
151.232546481597
 10
1946.007708142475
 20
152.0998616653363
 10
1947.01896833698
 20
152.3909504648878
 97
        1
330
36A7
 92
        1
 93
        1
 72
     4
 94
        3
 73
     0
 74
     1
 95
       32
 96
       28
 40
0.0
 40
0.0
 40
0.0
 40
0.0
 40
1.0
 40
1.0
 40
1.0
 40
2.0
 40
2.0
 40
2.0
 40
3.0
 40
3.0
 40
3.0
 40
4.0
 40
4.0
 40
4.0
 40
5.0
 40
5.0
 40
5.0
 40
6.0
 40
6.0
 40
6.0
 40
7.0
 40
7.0
 40
7.0
 40
8.0
 40
8.0
 40
8.0
 40
9.0
 40
9.0
 40
9.0
 40
9.0
 10
1951.394524713372
 20
142.3847264864374
 10
1950.311998720255
 20
140.9844800070205
 10
1949.478382290974
 20
139.7243102486757
 10
1948.128795528524
 20
135.7635535518901
 10
1946.888041608841
 20
132.1406026917421
 10
1946.098464169936
 20
129.5048096056932
 10
1945.979216701069
 20
126.2947242803041
 10
1945.888460673606
 20
123.9059066132458
 10
1947.343086379314
 20
123.105319426746
 10
1949.475853024634
 20
123.105319426746
 10
1950.395018168326
 20
123.105319426746
 10
1952.714504181618
 20
123.1637901132903
 10
1954.3662638814
 20
125.2056519507783
 10
1955.522584939468
 20
126.6401923061455
 10
1956.588298750451
 20
128.1272521331414
 10
1958.017036671275
 20
133.0053142189559
 10
1959.205940631009
 20
137.0833842397621
 10
1960.029142434186
 20
139.7191029356247
 10
1959.968291261677
 20
141.2197761667398
 10
1959.968291261677
 20
141.2197761667398
 10
1959.968291261677
 20
141.2197761667398
 10
1959.968291261677
 20
141.2197761667398
 10
1959.580569609936
 20
143.7233035012931
 10
1957.762919794387
 20
144.2522921170894
 10
1956.724432791643
 20
144.2522921170894
 10
1955.70156772805
 20
144.2522921170894
 10
1952.960735698745
 20
144.4292663706373
 10
1951.394524713372
 20
142.3847264864374
 97
        1
330
36AA
 92
        1
 93
        1
 72
     4
 94
        3
 73
     0
 74
     1
 95
       38
 96
       34
 40
0.0
 40
0.0
 40
0.0
 40
0.0
 40
1.0
 40
1.0
 40
1.0
 40
2.0
 40
2.0
 40
2.0
 40
3.0
 40
3.0
 40
3.0
 40
4.0
 40
4.0
 40
4.0
 40
5.0
 40
5.0
 40
5.0
 40
6.0
 40
6.0
 40
6.0
 40
7.0
 40
7.0
 40
7.0
 40
8.0
 40
8.0
 40
8.0
 40
9.0
 40
9.0
 40
9.0
 40
10.0
 40
10.0
 40
10.0
 40
11.0
 40
11.0
 40
11.0
 40
11.0
 10
1966.542747159137
 20
143.4464976175386
 10
1966.542747159137
 20
143.4464976175386
 10
1968.39149207262
 20
143.4464976175386
 10
1968.39149207262
 20
143.4464976175386
 10
1968.39149207262
 20
143.4464976175386
 10
1967.56561222273
 20
140.8022984404216
 10
1967.56561222273
 20
140.8022984404216
 10
1968.193167835563
 20
141.54456372075
 10
1969.183598777865
 20
142.5331349083912
 10
1970.034176169654
 20
143.0316235477459
 10
1971.304760554101
 20
143.7738888280742
 10
1972.030808773784
 20
143.8717863134333
 10
1972.829313035064
 20
143.8522960845852
 10
1972.829313035064
 20
143.8522960845852
 10
1972.048959979278
 20
141.3520419182353
 10
1972.048959979278
 20
141.3520419182353
 10
1971.540726225497
 20
141.5672527276151
 10
1969.974515240128
 20
141.1575859708734
 10
1969.076030568268
 20
140.5112840310564
 10
1968.265772657532
 20
139.9285113104618
 10
1967.705614553615
 20
139.4326263276327
 10
1967.04190531017
 20
138.1859955832205
 10
1966.383254599404
 20
136.9375050841474
 10
1965.86341597654
 20
134.9467493047458
 10
1964.968799594376
 20
132.058773486655
 10
1964.968799594376
 20
132.058773486655
 10
1962.174852971949
 20
123.105319426746
 10
1962.174852971949
 20
123.105319426746
 10
1962.174852971949
 20
123.105319426746
 10
1960.380561674943
 20
123.105319426746
 10
1960.380561674943
 20
123.105319426746
 10
1960.380561674943
 20
123.105319426746
 10
1966.542747159137
 20
143.4464976175386
 10
1966.542747159137
 20
143.4464976175386
 97
        1
330
36A8
 92
        1
 93
        1
 72
     4
 94
        3
 73
     0
 74
     1
 95
      104
 96
      100
 40
0.0
 40
0.0
 40
0.0
 40
0.0
 40
1.0
 40
1.0
 40
1.0
 40
2.0
 40
2.0
 40
2.0
 40
3.0
 40
3.0
 40
3.0
 40
4.0
 40
4.0
 40
4.0
 40
5.0
 40
5.0
 40
5.0
 40
6.0
 40
6.0
 40
6.0
 40
7.0
 40
7.0
 40
7.0
 40
8.0
 40
8.0
 40
8.0
 40
9.0
 40
9.0
 40
9.0
 40
10.0
 40
10.0
 40
10.0
 40
11.0
 40
11.0
 40
11.0
 40
12.0
 40
12.0
 40
12.0
 40
13.0
 40
13.0
 40
13.0
 40
14.0
 40
14.0
 40
14.0
 40
15.0
 40
15.0
 40
15.0
 40
16.0
 40
16.0
 40
16.0
 40
17.0
 40
17.0
 40
17.0
 40
18.0
 40
18.0
 40
18.0
 40
19.0
 40
19.0
 40
19.0
 40
20.0
 40
20.0
 40
20.0
 40
21.0
 40
21.0
 40
21.0
 40
22.0
 40
22.0
 40
22.0
 40
23.0
 40
23.0
 40
23.0
 40
24.0
 40
24.0
 40
24.0
 40
25.0
 40
25.0
 40
25.0
 40
26.0
 40
26.0
 40
26.0
 40
27.0
 40
27.0
 40
27.0
 40
28.0
 40
28.0
 40
28.0
 40
29.0
 40
29.0
 40
29.0
 40
30.0
 40
30.0
 40
30.0
 40
31.0
 40
31.0
 40
31.0
 40
32.0
 40
32.0
 40
32.0
 40
33.0
 40
33.0
 40
33.0
 40
33.0
 10
1976.718878323425
 20
143.4575073651321
 10
1976.718878323425
 20
143.4575073651321
 10
1978.332996588864
 20
143.4575073651321
 10
1978.332996588864
 20
143.4575073651321
 10
1978.332996588864
 20
143.4575073651321
 10
1977.517531365076
 20
140.810778921676
 10
1977.517531365076
 20
140.810778921676
 10
1978.225279598895
 20
141.920531723033
 10
1978.860571791119
 20
142.4151520726926
 10
1979.704602846502
 20
143.054312554611
 10
1980.551163168223
 20
143.6843974337833
 10
1981.556025806694
 20
143.812794895584
 10
1982.253508194784
 20
143.812794895584
 10
1983.117029479015
 20
143.812794895584
 10
1983.950645908296
 20
143.6422925882567
 10
1984.388804106443
 20
142.6958262461422
 10
1984.72460140805
 20
141.9536353560001
 10
1984.740223347202
 20
141.8660781065566
 10
1984.644260006691
 20
140.4010377747479
 10
1985.521915426345
 20
141.9030500292188
 10
1986.170151511008
 20
142.5500214807137
 10
1987.272167732975
 20
143.1716258786317
 10
1988.42863757142
 20
143.812794895584
 10
1989.102761440966
 20
143.8607765658398
 10
1989.885941323838
 20
143.7453229964802
 10
1991.039733115569
 20
143.5748950793392
 10
1991.776195961356
 20
143.1632197875635
 10
1992.161239566385
 20
141.9121256319649
 10
1992.54762219477
 20
140.6648997660613
 10
1992.338883331611
 20
139.9959088193793
 10
1991.861744675765
 20
138.0103603530286
 10
1991.64393020986
 20
137.1060732466272
 10
1991.328813380087
 20
136.0111240923725
 10
1990.916542966819
 20
134.7082543670094
 10
1990.916542966819
 20
134.7082543670094
 10
1987.272167732975
 20
123.105319426746
 10
1987.272167732975
 20
123.105319426746
 10
1987.272167732975
 20
123.105319426746
 10
1985.376705782409
 20
123.105319426746
 10
1985.376705782409
 20
123.105319426746
 10
1985.376705782409
 20
123.105319426746
 10
1988.567449659321
 20
133.2490164697431
 10
1988.567449659321
 20
133.2490164697431
 10
1989.233836949479
 20
135.3713684889626
 10
1989.684939040069
 20
136.9212880235028
 10
1989.918375445127
 20
137.893047029008
 10
1990.211323999339
 20
139.1052351170969
 10
1990.327967811683
 20
139.505231149601
 10
1990.189304504152
 20
140.3874987608153
 10
1990.062246065708
 20
141.2087664191461
 10
1989.647297605728
 20
141.7435574694851
 10
1988.936871325198
 20
141.7435574694851
 10
1988.17972800758
 20
141.7435574694851
 10
1987.566455310545
 20
141.659273388245
 10
1986.708290119737
 20
140.7971655175569
 10
1985.84997614856
 20
139.9285113104618
 10
1985.140740111011
 20
138.9088450248874
 10
1984.584599077163
 20
137.7361581257997
 10
1984.029648286297
 20
136.5563297688134
 10
1983.466960916042
 20
135.0608638507494
 10
1982.896536966398
 20
133.2490164697431
 10
1982.896536966398
 20
133.2490164697431
 10
1979.704602846502
 20
123.105319426746
 10
1979.704602846502
 20
123.105319426746
 10
1979.704602846502
 20
123.105319426746
 10
1977.921916418581
 20
123.105319426746
 10
1977.921916418581
 20
123.105319426746
 10
1977.921916418581
 20
123.105319426746
 10
1981.571498965475
 20
134.7030470539584
 10
1981.571498965475
 20
134.7030470539584
 10
1981.956542570504
 20
135.9373290274211
 10
1982.245771615394
 20
136.9433819088763
 10
1982.436359273062
 20
137.729686179579
 10
1982.760402925207
 20
139.0832156219098
 10
1982.851158952669
 20
139.9985124759046
 10
1982.606117678524
 20
140.810778921676
 10
1982.364944694076
 20
141.6204417109219
 10
1981.941069411725
 20
141.8272464292334
 10
1981.233172397533
 20
141.8272464292334
 10
1980.639389929345
 20
141.8272464292334
 10
1980.059890376953
 20
141.5724600406662
 10
1979.398710399847
 20
141.0654909200569
 10
1978.566284213549
 20
140.4276694614944
 10
1978.233164958657
 20
139.9038881587491
 10
1977.824762835085
 20
139.2815398589669
 10
1977.273680333915
 20
138.458263665602
 10
1977.015695167332
 20
137.9040567766015
 10
1976.550310160944
 20
136.687926008631
 10
1976.084776374184
 20
135.4646537827621
 10
1975.644088909695
 20
134.0411231749885
 10
1975.336708659311
 20
133.0564946672286
 10
1975.336708659311
 20
133.0564946672286
 10
1972.205774492298
 20
123.105319426746
 10
1972.205774492298
 20
123.105319426746
 10
1972.205774492298
 20
123.105319426746
 10
1970.338878373326
 20
123.105319426746
 10
1970.338878373326
 20
123.105319426746
 10
1970.338878373326
 20
123.105319426746
 10
1976.718878323425
 20
143.4575073651321
 10
1976.718878323425
 20
143.4575073651321
 97
        1
330
36A9
 92
       16
 93
        1
 72
     4
 94
        3
 73
     0
 74
     1
 95
       29
 96
       25
 40
0.0
 40
0.0
 40
0.0
 40
0.0
 40
1.0
 40
1.0
 40
1.0
 40
2.0
 40
2.0
 40
2.0
 40
3.0
 40
3.0
 40
3.0
 40
4.0
 40
4.0
 40
4.0
 40
5.0
 40
5.0
 40
5.0
 40
6.0
 40
6.0
 40
6.0
 40
7.0
 40
7.0
 40
7.0
 40
8.0
 40
8.0
 40
8.0
 40
8.0
 10
1947.916188375669
 20
126.8949043045264
 10
1947.908303015907
 20
128.3120373562658
 10
1948.355685597176
 20
130.8298476066162
 10
1949.501740809517
 20
134.1986815898748
 10
1951.062744481836
 20
138.7603622127471
 10
1951.998870588036
 20
140.4276694614944
 10
1952.818055321147
 20
141.2392663955878
 10
1954.014844640642
 20
142.4210288974216
 10
1955.623755593032
 20
142.4799459250845
 10
1956.098364982539
 20
142.4210288974216
 10
1956.77382787544
 20
142.3399435941987
 10
1957.727956406759
 20
141.8978427161679
 10
1957.784939289575
 20
140.4095182560024
 10
1957.830466083678
 20
139.1357350935386
 10
1957.463424903768
 20
136.7501905946838
 10
1956.178706383896
 20
133.0053142189559
 10
1954.698044112936
 20
128.6536370924121
 10
1953.808635043822
 20
126.9429603649685
 10
1953.095679496951
 20
126.1974219164366
 10
1951.752490290537
 20
124.7997790935452
 10
1950.311998720255
 20
124.9339789898883
 10
1950.0993915674
 20
124.9339789898883
 10
1949.823255195324
 20
124.9339789898883
 10
1947.920056665365
 20
125.2336226608809
 10
1947.916188375669
 20
126.8949043045264
 97
        1
330
36AB
 75
     0
 76
     1
 98
        1
 10
1859.334883625664
 20
72.26751235270598
1001
ACAD
1010
0.0
1020
0.0
1030
0.0
  0
POLYLINE
  5
369C
102
{ACAD_REACTORS
330
369B
330
36AC
102
}
330
A
100
AcDbEntity
  8
TEMPLATE
100
AcDb2dPolyline
 66
     1
 10
0.0
 20
0.0
 30
0.0
  0
VERTEX
  5
369D
330
369C
100
AcDbEntity
  8
TEMPLATE
100
AcDbVertex
100
AcDb2dVertex
 10
1934.476782902687
 20
153.1053194253001
 30
0.0
  0
VERTEX
  5
369E
330
369C
100
AcDbEntity
  8
TEMPLATE
100
AcDbVertex
100
AcDb2dVertex
 10
1934.476782902687
 20
147.1959117946397
 30
0.0
  0
VERTEX
  5
369F
330
369C
100
AcDbEntity
  8
TEMPLATE
100
AcDbVertex
100
AcDb2dVertex
 10
1925.116191352377
 20
147.1959117946397
 30
0.0
  0
VERTEX
  5
36A0
330
369C
100
AcDbEntity
  8
TEMPLATE
100
AcDbVertex
100
AcDb2dVertex
 10
1925.116191352377
 20
123.105319426746
 30
0.0
  0
VERTEX
  5
36A1
330
369C
100
AcDbEntity
  8
TEMPLATE
100
AcDbVertex
100
AcDb2dVertex
 10
1916.883578199102
 20
123.105319426746
 30
0.0
  0
VERTEX
  5
36A2
330
369C
100
AcDbEntity
  8
TEMPLATE
100
AcDbVertex
100
AcDb2dVertex
 10
1916.883578199102
 20
147.1959117946397
 30
0.0
  0
VERTEX
  5
36A3
330
369C
100
AcDbEntity
  8
TEMPLATE
100
AcDbVertex
100
AcDb2dVertex
 10
1907.688876764557
 20
147.1959117946397
 30
0.0
  0
VERTEX
  5
36A4
330
369C
100
AcDbEntity
  8
TEMPLATE
100
AcDbVertex
100
AcDb2dVertex
 10
1907.688876764557
 20
153.1053194253001
 30
0.0
  0
VERTEX
  5
36A5
330
369C
100
AcDbEntity
  8
TEMPLATE
100
AcDbVertex
100
AcDb2dVertex
 10
1934.476782902687
 20
153.1053194253001
 30
0.0
  0
SEQEND
  5
36A6
330
369C
100
AcDbEntity
  8
TEMPLATE
  0
SPLINE
  5
36A7
102
{ACAD_REACTORS
330
369B
330
36AC
102
}
330
A
100
AcDbEntity
  8
TEMPLATE
100
AcDbSpline
210
0.0
220
0.0
230
1.0
 70
    11
 71
     3
 72
    56
 73
    52
 74
     0
 42
0.000000001
 43
0.0000000001
 40
0.0
 40
0.0
 40
0.0
 40
0.0
 40
1.0
 40
1.0
 40
1.0
 40
2.0
 40
2.0
 40
2.0
 40
3.0
 40
3.0
 40
3.0
 40
4.0
 40
4.0
 40
4.0
 40
5.0
 40
5.0
 40
5.0
 40
6.0
 40
6.0
 40
6.0
 40
7.0
 40
7.0
 40
7.0
 40
8.0
 40
8.0
 40
8.0
 40
9.0
 40
9.0
 40
9.0
 40
10.0
 40
10.0
 40
10.0
 40
11.0
 40
11.0
 40
11.0
 40
12.0
 40
12.0
 40
12.0
 40
13.0
 40
13.0
 40
13.0
 40
14.0
 40
14.0
 40
14.0
 40
15.0
 40
15.0
 40
15.0
 40
16.0
 40
16.0
 40
16.0
 40
17.0
 40
17.0
 40
17.0
 40
17.0
 10
1947.01896833698
 20
152.3909504648878
 30
0.0
 10
1948.1728345189
 20
152.715738018898
 30
0.0
 10
1949.662423612235
 20
152.4440650580081
 30
0.0
 10
1949.662423612235
 20
152.4440650580081
 30
0.0
 10
1949.662423612235
 20
152.4440650580081
 30
0.0
 10
1948.946790018651
 20
150.2964947655846
 30
0.0
 10
1948.946790018651
 20
150.2964947655846
 30
0.0
 10
1948.946790018651
 20
150.2964947655846
 30
0.0
 10
1947.484427733556
 20
150.6348957237139
 30
0.0
 10
1946.356523726704
 20
149.7454866546012
 30
0.0
 10
1945.480058550036
 20
149.0499384113589
 30
0.0
 10
1944.912238256914
 20
147.2017886193686
 30
0.0
 10
1944.69442379101
 20
146.4990989182278
 30
0.0
 10
1944.69442379101
 20
146.4990989182278
 30
0.0
 10
1943.723334297183
 20
143.518432927829
 30
0.0
 10
1943.723334297183
 20
143.518432927829
 30
0.0
 10
1943.723334297183
 20
143.518432927829
 30
0.0
 10
1946.907457447503
 20
143.518432927829
 30
0.0
 10
1946.907457447503
 20
143.518432927829
 30
0.0
 10
1946.907457447503
 20
143.518432927829
 30
0.0
 10
1946.412241976351
 20
141.642461206109
 30
0.0
 10
1946.412241976351
 20
141.642461206109
 30
0.0
 10
1946.412241976351
 20
141.642461206109
 30
0.0
 10
1943.202156650962
 20
141.642461206109
 30
0.0
 10
1943.202156650962
 20
141.642461206109
 30
0.0
 10
1943.202156650962
 20
141.642461206109
 30
0.0
 10
1937.458713526257
 20
123.105319426746
 30
0.0
 10
1937.458713526257
 20
123.105319426746
 30
0.0
 10
1937.458713526257
 20
123.105319426746
 30
0.0
 10
1935.660479549369
 20
123.105319426746
 30
0.0
 10
1935.660479549369
 20
123.105319426746
 30
0.0
 10
1935.660479549369
 20
123.105319426746
 30
0.0
 10
1941.409129987127
 20
141.642461206109
 30
0.0
 10
1941.409129987127
 20
141.642461206109
 30
0.0
 10
1941.409129987127
 20
141.642461206109
 30
0.0
 10
1939.040397670409
 20
141.642461206109
 30
0.0
 10
1939.040397670409
 20
141.642461206109
 30
0.0
 10
1939.040397670409
 20
141.642461206109
 30
0.0
 10
1939.536952164915
 20
143.518432927829
 30
0.0
 10
1939.536952164915
 20
143.518432927829
 30
0.0
 10
1939.536952164915
 20
143.518432927829
 30
0.0
 10
1941.930307633347
 20
143.518432927829
 30
0.0
 10
1941.930307633347
 20
143.518432927829
 30
0.0
 10
1941.930307633347
 20
143.518432927829
 30
0.0
 10
1942.77686795507
 20
146.1179236028939
 30
0.0
 10
1942.77686795507
 20
146.1179236028939
 30
0.0
 10
1943.461406450716
 20
148.2973328951149
 30
0.0
 10
1944.042245026465
 20
149.4674161376772
 30
0.0
 10
1944.540138544327
 20
150.3496093587049
 30
0.0
 10
1945.032750358952
 20
151.232546481597
 30
0.0
 10
1946.007708142475
 20
152.0998616653363
 30
0.0
 10
1947.01896833698
 20
152.3909504648878
 30
0.0
  0
SPLINE
  5
36A8
102
{ACAD_REACTORS
330
369B
330
36AC
102
}
330
A
100
AcDbEntity
  8
TEMPLATE
100
AcDbSpline
210
0.0
220
0.0
230
1.0
 70
    11
 71
     3
 72
    38
 73
    34
 74
     0
 42
0.000000001
 43
0.0000000001
 40
0.0
 40
0.0
 40
0.0
 40
0.0
 40
1.0
 40
1.0
 40
1.0
 40
2.0
 40
2.0
 40
2.0
 40
3.0
 40
3.0
 40
3.0
 40
4.0
 40
4.0
 40
4.0
 40
5.0
 40
5.0
 40
5.0
 40
6.0
 40
6.0
 40
6.0
 40
7.0
 40
7.0
 40
7.0
 40
8.0
 40
8.0
 40
8.0
 40
9.0
 40
9.0
 40
9.0
 40
10.0
 40
10.0
 40
10.0
 40
11.0
 40
11.0
 40
11.0
 40
11.0
 10
1966.542747159137
 20
143.4464976175386
 30
0.0
 10
1966.542747159137
 20
143.4464976175386
 30
0.0
 10
1968.39149207262
 20
143.4464976175386
 30
0.0
 10
1968.39149207262
 20
143.4464976175386
 30
0.0
 10
1968.39149207262
 20
143.4464976175386
 30
0.0
 10
1967.56561222273
 20
140.8022984404216
 30
0.0
 10
1967.56561222273
 20
140.8022984404216
 30
0.0
 10
1968.193167835563
 20
141.54456372075
 30
0.0
 10
1969.183598777865
 20
142.5331349083912
 30
0.0
 10
1970.034176169654
 20
143.0316235477459
 30
0.0
 10
1971.304760554101
 20
143.7738888280742
 30
0.0
 10
1972.030808773784
 20
143.8717863134333
 30
0.0
 10
1972.829313035064
 20
143.8522960845852
 30
0.0
 10
1972.829313035064
 20
143.8522960845852
 30
0.0
 10
1972.048959979278
 20
141.3520419182353
 30
0.0
 10
1972.048959979278
 20
141.3520419182353
 30
0.0
 10
1971.540726225497
 20
141.5672527276151
 30
0.0
 10
1969.974515240128
 20
141.1575859708734
 30
0.0
 10
1969.076030568268
 20
140.5112840310564
 30
0.0
 10
1968.265772657532
 20
139.9285113104618
 30
0.0
 10
1967.705614553615
 20
139.4326263276327
 30
0.0
 10
1967.04190531017
 20
138.1859955832205
 30
0.0
 10
1966.383254599404
 20
136.9375050841474
 30
0.0
 10
1965.86341597654
 20
134.9467493047458
 30
0.0
 10
1964.968799594376
 20
132.058773486655
 30
0.0
 10
1964.968799594376
 20
132.058773486655
 30
0.0
 10
1962.174852971949
 20
123.105319426746
 30
0.0
 10
1962.174852971949
 20
123.105319426746
 30
0.0
 10
1962.174852971949
 20
123.105319426746
 30
0.0
 10
1960.380561674943
 20
123.105319426746
 30
0.0
 10
1960.380561674943
 20
123.105319426746
 30
0.0
 10
1960.380561674943
 20
123.105319426746
 30
0.0
 10
1966.542747159137
 20
143.4464976175386
 30
0.0
 10
1966.542747159137
 20
143.4464976175386
 30
0.0
  0
SPLINE
  5
36A9
102
{ACAD_REACTORS
330
369B
330
36AC
102
}
330
A
100
AcDbEntity
  8
TEMPLATE
100
AcDbSpline
210
0.0
220
0.0
230
1.0
 70
    11
 71
     3
 72
   104
 73
   100
 74
     0
 42
0.000000001
 43
0.0000000001
 40
0.0
 40
0.0
 40
0.0
 40
0.0
 40
1.0
 40
1.0
 40
1.0
 40
2.0
 40
2.0
 40
2.0
 40
3.0
 40
3.0
 40
3.0
 40
4.0
 40
4.0
 40
4.0
 40
5.0
 40
5.0
 40
5.0
 40
6.0
 40
6.0
 40
6.0
 40
7.0
 40
7.0
 40
7.0
 40
8.0
 40
8.0
 40
8.0
 40
9.0
 40
9.0
 40
9.0
 40
10.0
 40
10.0
 40
10.0
 40
11.0
 40
11.0
 40
11.0
 40
12.0
 40
12.0
 40
12.0
 40
13.0
 40
13.0
 40
13.0
 40
14.0
 40
14.0
 40
14.0
 40
15.0
 40
15.0
 40
15.0
 40
16.0
 40
16.0
 40
16.0
 40
17.0
 40
17.0
 40
17.0
 40
18.0
 40
18.0
 40
18.0
 40
19.0
 40
19.0
 40
19.0
 40
20.0
 40
20.0
 40
20.0
 40
21.0
 40
21.0
 40
21.0
 40
22.0
 40
22.0
 40
22.0
 40
23.0
 40
23.0
 40
23.0
 40
24.0
 40
24.0
 40
24.0
 40
25.0
 40
25.0
 40
25.0
 40
26.0
 40
26.0
 40
26.0
 40
27.0
 40
27.0
 40
27.0
 40
28.0
 40
28.0
 40
28.0
 40
29.0
 40
29.0
 40
29.0
 40
30.0
 40
30.0
 40
30.0
 40
31.0
 40
31.0
 40
31.0
 40
32.0
 40
32.0
 40
32.0
 40
33.0
 40
33.0
 40
33.0
 40
33.0
 10
1976.718878323425
 20
143.4575073651321
 30
0.0
 10
1976.718878323425
 20
143.4575073651321
 30
0.0
 10
1978.332996588864
 20
143.4575073651321
 30
0.0
 10
1978.332996588864
 20
143.4575073651321
 30
0.0
 10
1978.332996588864
 20
143.4575073651321
 30
0.0
 10
1977.517531365076
 20
140.810778921676
 30
0.0
 10
1977.517531365076
 20
140.810778921676
 30
0.0
 10
1978.225279598895
 20
141.920531723033
 30
0.0
 10
1978.860571791119
 20
142.4151520726926
 30
0.0
 10
1979.704602846502
 20
143.054312554611
 30
0.0
 10
1980.551163168223
 20
143.6843974337833
 30
0.0
 10
1981.556025806694
 20
143.812794895584
 30
0.0
 10
1982.253508194784
 20
143.812794895584
 30
0.0
 10
1983.117029479015
 20
143.812794895584
 30
0.0
 10
1983.950645908296
 20
143.6422925882567
 30
0.0
 10
1984.388804106443
 20
142.6958262461422
 30
0.0
 10
1984.72460140805
 20
141.9536353560001
 30
0.0
 10
1984.740223347202
 20
141.8660781065566
 30
0.0
 10
1984.644260006691
 20
140.4010377747479
 30
0.0
 10
1985.521915426345
 20
141.9030500292188
 30
0.0
 10
1986.170151511008
 20
142.5500214807137
 30
0.0
 10
1987.272167732975
 20
143.1716258786317
 30
0.0
 10
1988.42863757142
 20
143.812794895584
 30
0.0
 10
1989.102761440966
 20
143.8607765658398
 30
0.0
 10
1989.885941323838
 20
143.7453229964802
 30
0.0
 10
1991.039733115569
 20
143.5748950793392
 30
0.0
 10
1991.776195961356
 20
143.1632197875635
 30
0.0
 10
1992.161239566385
 20
141.9121256319649
 30
0.0
 10
1992.54762219477
 20
140.6648997660613
 30
0.0
 10
1992.338883331611
 20
139.9959088193793
 30
0.0
 10
1991.861744675765
 20
138.0103603530286
 30
0.0
 10
1991.64393020986
 20
137.1060732466272
 30
0.0
 10
1991.328813380087
 20
136.0111240923725
 30
0.0
 10
1990.916542966819
 20
134.7082543670094
 30
0.0
 10
1990.916542966819
 20
134.7082543670094
 30
0.0
 10
1987.272167732975
 20
123.105319426746
 30
0.0
 10
1987.272167732975
 20
123.105319426746
 30
0.0
 10
1987.272167732975
 20
123.105319426746
 30
0.0
 10
1985.376705782409
 20
123.105319426746
 30
0.0
 10
1985.376705782409
 20
123.105319426746
 30
0.0
 10
1985.376705782409
 20
123.105319426746
 30
0.0
 10
1988.567449659321
 20
133.2490164697431
 30
0.0
 10
1988.567449659321
 20
133.2490164697431
 30
0.0
 10
1989.233836949479
 20
135.3713684889626
 30
0.0
 10
1989.684939040069
 20
136.9212880235028
 30
0.0
 10
1989.918375445127
 20
137.893047029008
 30
0.0
 10
1990.211323999339
 20
139.1052351170969
 30
0.0
 10
1990.327967811683
 20
139.505231149601
 30
0.0
 10
1990.189304504152
 20
140.3874987608153
 30
0.0
 10
1990.062246065708
 20
141.2087664191461
 30
0.0
 10
1989.647297605728
 20
141.7435574694851
 30
0.0
 10
1988.936871325198
 20
141.7435574694851
 30
0.0
 10
1988.17972800758
 20
141.7435574694851
 30
0.0
 10
1987.566455310545
 20
141.659273388245
 30
0.0
 10
1986.708290119737
 20
140.7971655175569
 30
0.0
 10
1985.84997614856
 20
139.9285113104618
 30
0.0
 10
1985.140740111011
 20
138.9088450248874
 30
0.0
 10
1984.584599077163
 20
137.7361581257997
 30
0.0
 10
1984.029648286297
 20
136.5563297688134
 30
0.0
 10
1983.466960916042
 20
135.0608638507494
 30
0.0
 10
1982.896536966398
 20
133.2490164697431
 30
0.0
 10
1982.896536966398
 20
133.2490164697431
 30
0.0
 10
1979.704602846502
 20
123.105319426746
 30
0.0
 10
1979.704602846502
 20
123.105319426746
 30
0.0
 10
1979.704602846502
 20
123.105319426746
 30
0.0
 10
1977.921916418581
 20
123.105319426746
 30
0.0
 10
1977.921916418581
 20
123.105319426746
 30
0.0
 10
1977.921916418581
 20
123.105319426746
 30
0.0
 10
1981.571498965475
 20
134.7030470539584
 30
0.0
 10
1981.571498965475
 20
134.7030470539584
 30
0.0
 10
1981.956542570504
 20
135.9373290274211
 30
0.0
 10
1982.245771615394
 20
136.9433819088763
 30
0.0
 10
1982.436359273062
 20
137.729686179579
 30
0.0
 10
1982.760402925207
 20
139.0832156219098
 30
0.0
 10
1982.851158952669
 20
139.9985124759046
 30
0.0
 10
1982.606117678524
 20
140.810778921676
 30
0.0
 10
1982.364944694076
 20
141.6204417109219
 30
0.0
 10
1981.941069411725
 20
141.8272464292334
 30
0.0
 10
1981.233172397533
 20
141.8272464292334
 30
0.0
 10
1980.639389929345
 20
141.8272464292334
 30
0.0
 10
1980.059890376953
 20
141.5724600406662
 30
0.0
 10
1979.398710399847
 20
141.0654909200569
 30
0.0
 10
1978.566284213549
 20
140.4276694614944
 30
0.0
 10
1978.233164958657
 20
139.9038881587491
 30
0.0
 10
1977.824762835085
 20
139.2815398589669
 30
0.0
 10
1977.273680333915
 20
138.458263665602
 30
0.0
 10
1977.015695167332
 20
137.9040567766015
 30
0.0
 10
1976.550310160944
 20
136.687926008631
 30
0.0
 10
1976.084776374184
 20
135.4646537827621
 30
0.0
 10
1975.644088909695
 20
134.0411231749885
 30
0.0
 10
1975.336708659311
 20
133.0564946672286
 30
0.0
 10
1975.336708659311
 20
133.0564946672286
 30
0.0
 10
1972.205774492298
 20
123.105319426746
 30
0.0
 10
1972.205774492298
 20
123.105319426746
 30
0.0
 10
1972.205774492298
 20
123.105319426746
 30
0.0
 10
1970.338878373326
 20
123.105319426746
 30
0.0
 10
1970.338878373326
 20
123.105319426746
 30
0.0
 10
1970.338878373326
 20
123.105319426746
 30
0.0
 10
1976.718878323425
 20
143.4575073651321
 30
0.0
 10
1976.718878323425
 20
143.4575073651321
 30
0.0
  0
SPLINE
  5
36AA
102
{ACAD_REACTORS
330
369B
330
36AC
102
}
330
A
100
AcDbEntity
  8
TEMPLATE
100
AcDbSpline
210
0.0
220
0.0
230
1.0
 70
    11
 71
     3
 72
    32
 73
    28
 74
     0
 42
0.000000001
 43
0.0000000001
 40
0.0
 40
0.0
 40
0.0
 40
0.0
 40
1.0
 40
1.0
 40
1.0
 40
2.0
 40
2.0
 40
2.0
 40
3.0
 40
3.0
 40
3.0
 40
4.0
 40
4.0
 40
4.0
 40
5.0
 40
5.0
 40
5.0
 40
6.0
 40
6.0
 40
6.0
 40
7.0
 40
7.0
 40
7.0
 40
8.0
 40
8.0
 40
8.0
 40
9.0
 40
9.0
 40
9.0
 40
9.0
 10
1951.394524713372
 20
142.3847264864374
 30
0.0
 10
1950.311998720255
 20
140.9844800070205
 30
0.0
 10
1949.478382290974
 20
139.7243102486757
 30
0.0
 10
1948.128795528524
 20
135.7635535518901
 30
0.0
 10
1946.888041608841
 20
132.1406026917421
 30
0.0
 10
1946.098464169936
 20
129.5048096056932
 30
0.0
 10
1945.979216701069
 20
126.2947242803041
 30
0.0
 10
1945.888460673606
 20
123.9059066132458
 30
0.0
 10
1947.343086379314
 20
123.105319426746
 30
0.0
 10
1949.475853024634
 20
123.105319426746
 30
0.0
 10
1950.395018168326
 20
123.105319426746
 30
0.0
 10
1952.714504181618
 20
123.1637901132903
 30
0.0
 10
1954.3662638814
 20
125.2056519507783
 30
0.0
 10
1955.522584939468
 20
126.6401923061455
 30
0.0
 10
1956.588298750451
 20
128.1272521331414
 30
0.0
 10
1958.017036671275
 20
133.0053142189559
 30
0.0
 10
1959.205940631009
 20
137.0833842397621
 30
0.0
 10
1960.029142434186
 20
139.7191029356247
 30
0.0
 10
1959.968291261677
 20
141.2197761667398
 30
0.0
 10
1959.968291261677
 20
141.2197761667398
 30
0.0
 10
1959.968291261677
 20
141.2197761667398
 30
0.0
 10
1959.968291261677
 20
141.2197761667398
 30
0.0
 10
1959.580569609936
 20
143.7233035012931
 30
0.0
 10
1957.762919794387
 20
144.2522921170894
 30
0.0
 10
1956.724432791643
 20
144.2522921170894
 30
0.0
 10
1955.70156772805
 20
144.2522921170894
 30
0.0
 10
1952.960735698745
 20
144.4292663706373
 30
0.0
 10
1951.394524713372
 20
142.3847264864374
 30
0.0
  0
SPLINE
  5
36AB
102
{ACAD_REACTORS
330
369B
330
36AC
102
}
330
A
100
AcDbEntity
  8
TEMPLATE
100
AcDbSpline
210
0.0
220
0.0
230
1.0
 70
    11
 71
     3
 72
    29
 73
    25
 74
     0
 42
0.000000001
 43
0.0000000001
 40
0.0
 40
0.0
 40
0.0
 40
0.0
 40
1.0
 40
1.0
 40
1.0
 40
2.0
 40
2.0
 40
2.0
 40
3.0
 40
3.0
 40
3.0
 40
4.0
 40
4.0
 40
4.0
 40
5.0
 40
5.0
 40
5.0
 40
6.0
 40
6.0
 40
6.0
 40
7.0
 40
7.0
 40
7.0
 40
8.0
 40
8.0
 40
8.0
 40
8.0
 10
1947.916188375669
 20
126.8949043045264
 30
0.0
 10
1947.908303015907
 20
128.3120373562658
 30
0.0
 10
1948.355685597176
 20
130.8298476066162
 30
0.0
 10
1949.501740809517
 20
134.1986815898748
 30
0.0
 10
1951.062744481836
 20
138.7603622127471
 30
0.0
 10
1951.998870588036
 20
140.4276694614944
 30
0.0
 10
1952.818055321147
 20
141.2392663955878
 30
0.0
 10
1954.014844640642
 20
142.4210288974216
 30
0.0
 10
1955.623755593032
 20
142.4799459250845
 30
0.0
 10
1956.098364982539
 20
142.4210288974216
 30
0.0
 10
1956.77382787544
 20
142.3399435941987
 30
0.0
 10
1957.727956406759
 20
141.8978427161679
 30
0.0
 10
1957.784939289575
 20
140.4095182560024
 30
0.0
 10
1957.830466083678
 20
139.1357350935386
 30
0.0
 10
1957.463424903768
 20
136.7501905946838
 30
0.0
 10
1956.178706383896
 20
133.0053142189559
 30
0.0
 10
1954.698044112936
 20
128.6536370924121
 30
0.0
 10
1953.808635043822
 20
126.9429603649685
 30
0.0
 10
1953.095679496951
 20
126.1974219164366
 30
0.0
 10
1951.752490290537
 20
124.7997790935452
 30
0.0
 10
1950.311998720255
 20
124.9339789898883
 30
0.0
 10
1950.0993915674
 20
124.9339789898883
 30
0.0
 10
1949.823255195324
 20
124.9339789898883
 30
0.0
 10
1947.920056665365
 20
125.2336226608809
 30
0.0
 10
1947.916188375669
 20
126.8949043045264
 30
0.0
  0
SPLINE
  5
3886
330
A
100
AcDbEntity
  8
MODEL
100
AcDbSpline
210
0.0
220
0.0
230
1.0
 70
     8
 71
     7
 72
    16
 73
     8
 74
     0
 42
0.000000001
 43
0.0000000001
 40
0.0389718237093857
 40
0.0389718237093857
 40
0.0389718237093857
 40
0.0389718237093857
 40
0.0389718237093857
 40
0.0389718237093857
 40
0.0389718237093857
 40
0.0389718237093857
 40
0.9434754627779058
 40
0.9434754627779058
 40
0.9434754627779058
 40
0.9434754627779058
 40
0.9434754627779058
 40
0.9434754627779058
 40
0.9434754627779058
 40
0.9434754627779058
 10
1800.247702672559
 20
1017.19451680457
 30
0.0
 10
1803.102659158071
 20
1026.634057082773
 30
0.0
 10
1805.54265073969
 20
1036.199051621754
 30
0.0
 10
1807.609488377675
 20
1045.852857827214
 30
0.0
 10
1809.360398754672
 20
1055.565868474979
 30
0.0
 10
1810.813666431309
 20
1065.32872981471
 30
0.0
 10
1811.931498762155
 20
1075.133978407712
 30
0.0
 10
1812.679192829739
 20
1084.967419269311
 30
0.0
  0
ARC
  5
3887
330
A
100
AcDbEntity
  8
MODEL
100
AcDbCircle
 10
1796.418985294572
 20
1018.352499204912
 30
0.0
 40
4.0
100
AcDbArc
 50
269.9999974955313
 51
343.1722392500818
  0
ARC
  5
3888
330
A
100
AcDbEntity
  8
MODEL
100
AcDbCircle
 10
1742.962169319451
 20
943.2712116127499
 30
0.0
 40
4.0
100
AcDbArc
 50
269.9999974955313
 51
327.344984931127
  0
SPLINE
  5
388C
330
A
100
AcDbEntity
  8
MODEL
100
AcDbSpline
210
0.0
220
0.0
230
1.0
 70
     8
 71
     7
 72
    16
 73
     8
 74
     0
 42
0.000000001
 43
0.0000000001
 40
0.0476051818606359
 40
0.0476051818606359
 40
0.0476051818606359
 40
0.0476051818606359
 40
0.0476051818606359
 40
0.0476051818606359
 40
0.0476051818606359
 40
0.0476051818606359
 40
0.9747248054479785
 40
0.9747248054479785
 40
0.9747248054479785
 40
0.9747248054479785
 40
0.9747248054479785
 40
0.9747248054479785
 40
0.9747248054479785
 40
0.9747248054479785
 10
1778.840589482649
 20
1014.352490122006
 30
0.0
 10
1775.877266121406
 20
1003.248412513258
 30
0.0
 10
1772.304046980186
 20
992.3071057811816
 30
0.0
 10
1768.156093006784
 20
981.5622414355734
 30
0.0
 10
1763.465003059839
 20
971.0416792239297
 30
0.0
 10
1758.249505593448
 20
960.7745398453384
 30
0.0
 10
1752.531126908407
 20
950.788987267615
 30
0.0
 10
1746.329908055983
 20
941.1128937954257
 30
0.0
  0
SPLINE
  5
3891
330
A
100
AcDbEntity
  8
MODEL
100
AcDbSpline
210
0.0
220
0.0
230
1.0
 70
     8
 71
     3
 72
    75
 73
    71
 74
     0
 42
0.000000001
 43
0.0000000001
 40
0.0
 40
0.0
 40
0.0
 40
0.0
 40
1.029394116396146
 40
2.058731718118253
 40
3.087955924898787
 40
4.117009346922286
 40
5.145834088504273
 40
6.174371798258776
 40
7.202563780740943
 40
8.230351185265231
 40
9.257675286869308
 40
10.28447787155037
 40
11.31070173251655
 40
12.33629127623832
 40
13.36119322702418
 40
14.38535740767579
 40
15.40873756292161
 40
16.43129218342197
 40
17.45298528272188
 40
18.47378707873376
 40
19.49367453563744
 40
20.51263173122636
 40
21.5306500294057
 40
22.54772804511543
 40
23.56387139792443
 40
24.5790922825357
 40
25.59340885990479
 40
26.6068445592419
 40
27.6194273427045
 40
28.63118879460554
 40
29.64216372397024
 40
30.65238852093995
 40
31.66189571159235
 40
32.67073335361699
 40
33.67894588409524
 40
34.68656744482557
 40
35.69362967372711
 40
36.70016279447879
 40
37.70619633836471
 40
38.71175932032668
 40
39.71688025608974
 40
40.72158709453224
 40
41.72590711993591
 40
42.72986685906245
 40
43.73349200731927
 40
44.73680737828728
 40
45.73983687598346
 40
46.74260348660135
 40
47.74512928414015
 40
48.74743544351532
 40
49.74954225536274
 40
50.75146913736659
 40
51.75323463801618
 40
52.75485643013403
 40
53.75635129327473
 40
54.75773508617187
 40
55.75902271258171
 40
56.76022808552494
 40
57.76136409473655
 40
58.76244257970209
 40
59.76347430872237
 40
60.76446896340603
 40
61.76543512747011
 40
62.76638027851516
 40
63.76731078141675
 40
64.76823188207527
 40
65.76914770062723
 40
66.77006122383698
 40
67.77097429749104
 40
68.7718876220211
 40
68.7718876220211
 40
68.7718876220211
 40
68.7718876220211
 10
1659.551132601706
 20
963.9998379585071
 30
0.0
 10
1659.551131501895
 20
963.9998369267327
 30
0.0
 10
1659.545204998614
 20
963.9998348634966
 30
0.0
 10
1659.518517640969
 20
963.9998043720828
 30
0.0
 10
1659.474042620962
 20
963.9997422588407
 30
0.0
 10
1659.411800971427
 20
963.9996457770307
 30
0.0
 10
1659.331830611748
 20
963.9995190571339
 30
0.0
 10
1659.234183895836
 20
963.9993708953756
 30
0.0
 10
1659.118926978037
 20
963.999214280839
 30
0.0
 10
1658.986138410539
 20
963.999065222792
 30
0.0
 10
1658.835907768048
 20
963.9989416100055
 30
0.0
 10
1658.668334198206
 20
963.9988619919299
 30
0.0
 10
1658.483525037933
 20
963.998844400396
 30
0.0
 10
1658.281594564505
 20
963.9989052656005
 30
0.0
 10
1658.062662954799
 20
963.9990584887986
 30
0.0
 10
1657.826855503563
 20
963.9993147170811
 30
0.0
 10
1657.574302131092
 20
963.9996808510317
 30
0.0
 10
1657.305137186982
 20
964.0001597982395
 30
0.0
 10
1657.019499534093
 20
964.0007504676672
 30
0.0
 10
1656.717532876657
 20
964.0014479833902
 30
0.0
 10
1656.399386282837
 20
964.0022440840825
 30
0.0
 10
1656.06521483879
 20
964.0031276621361
 30
0.0
 10
1655.715180390313
 20
964.0040854121456
 30
0.0
 10
1655.349452334013
 20
964.0051025647102
 30
0.0
 10
1654.968208302292
 20
964.0061635606529
 30
0.0
 10
1654.571634864692
 20
964.0072527879369
 30
0.0
 10
1654.159927895788
 20
964.0083550332332
 30
0.0
 10
1653.733292885359
 20
964.0094559289486
 30
0.0
 10
1653.291945326431
 20
964.0105424324341
 30
0.0
 10
1652.836111516431
 20
964.0116042039793
 30
0.0
 10
1652.366023084649
 20
964.0126270462628
 30
0.0
 10
1651.881948984128
 20
964.0136294158714
 30
0.0
 10
1651.384069068905
 20
964.0145221312908
 30
0.0
 10
1650.872692971117
 20
964.0153466696705
 30
0.0
 10
1650.348140071045
 20
964.016158086239
 30
0.0
 10
1649.810685263254
 20
964.0169530890329
 30
0.0
 10
1649.260618443639
 20
964.0177355515028
 30
0.0
 10
1648.698229945076
 20
964.0185014106886
 30
0.0
 10
1648.123817559342
 20
964.0192469487287
 30
0.0
 10
1647.537685488329
 20
964.0199679770507
 30
0.0
 10
1646.940144974466
 20
964.0206608674329
 30
0.0
 10
1646.331514132262
 20
964.0213226725958
 30
0.0
 10
1645.712117752426
 20
964.0219511843228
 30
0.0
 10
1645.082287010469
 20
964.0225448605255
 30
0.0
 10
1644.44235916327
 20
964.0231027198664
 30
0.0
 10
1643.792677244141
 20
964.0236242204177
 30
0.0
 10
1643.133589770629
 20
964.0241091420452
 30
0.0
 10
1642.465450475161
 20
964.0245574911736
 30
0.0
 10
1641.788618060963
 20
964.024969438948
 30
0.0
 10
1641.103455976487
 20
964.0253452889359
 30
0.0
 10
1640.410332204903
 20
964.025685475592
 30
0.0
 10
1639.709619061923
 20
964.0259905889455
 30
0.0
 10
1639.001692995058
 20
964.0262614189036
 30
0.0
 10
1638.286934377428
 20
964.0264990097261
 30
0.0
 10
1637.565727289842
 20
964.0267047125584
 30
0.0
 10
1636.838459285999
 20
964.0268802201957
 30
0.0
 10
1636.10552113903
 20
964.0270275688875
 30
0.0
 10
1635.367306571471
 20
964.0271490922736
 30
0.0
 10
1634.624211983943
 20
964.0272473494973
 30
0.0
 10
1633.876636190917
 20
964.0273250436934
 30
0.0
 10
1633.124980167162
 20
964.0273849393037
 30
0.0
 10
1632.369646806257
 20
964.0274297831551
 30
0.0
 10
1631.611040691227
 20
964.0274622319833
 30
0.0
 10
1630.849567876644
 20
964.0274847875611
 30
0.0
 10
1630.085635681031
 20
964.0274997406362
 30
0.0
 10
1629.319652488423
 20
964.0275091202114
 30
0.0
 10
1628.552027557032
 20
964.0275146617481
 30
0.0
 10
1627.783170834218
 20
964.0275177194111
 30
0.0
 10
1627.013492776478
 20
964.0275193829715
 30
0.0
 10
1626.500100365364
 20
964.0275196302376
 30
0.0
 10
1626.243404126603
 20
964.0275197540017
 30
0.0
  0
SPLINE
  5
3892
330
A
100
AcDbEntity
  8
MODEL
100
AcDbSpline
210
0.0
220
0.0
230
1.0
 70
     8
 71
     3
 72
    75
 73
    71
 74
     0
 42
0.000000001
 43
0.0000000001
 40
0.0
 40
0.0
 40
0.0
 40
0.0
 40
1.029394116396146
 40
2.058731718118253
 40
3.087955924898787
 40
4.117009346922286
 40
5.145834088504273
 40
6.174371798258776
 40
7.202563780740943
 40
8.230351185265231
 40
9.257675286869308
 40
10.28447787155037
 40
11.31070173251655
 40
12.33629127623832
 40
13.36119322702418
 40
14.38535740767579
 40
15.40873756292161
 40
16.43129218342197
 40
17.45298528272188
 40
18.47378707873376
 40
19.49367453563744
 40
20.51263173122636
 40
21.5306500294057
 40
22.54772804511543
 40
23.56387139792443
 40
24.5790922825357
 40
25.59340885990479
 40
26.6068445592419
 40
27.6194273427045
 40
28.63118879460554
 40
29.64216372397024
 40
30.65238852093995
 40
31.66189571159235
 40
32.67073335361699
 40
33.67894588409524
 40
34.68656744482557
 40
35.69362967372711
 40
36.70016279447879
 40
37.70619633836471
 40
38.71175932032668
 40
39.71688025608974
 40
40.72158709453224
 40
41.72590711993591
 40
42.72986685906245
 40
43.73349200731927
 40
44.73680737828728
 40
45.73983687598346
 40
46.74260348660135
 40
47.74512928414015
 40
48.74743544351532
 40
49.74954225536274
 40
50.75146913736659
 40
51.75323463801618
 40
52.75485643013403
 40
53.75635129327473
 40
54.75773508617187
 40
55.75902271258171
 40
56.76022808552494
 40
57.76136409473655
 40
58.76244257970209
 40
59.76347430872237
 40
60.76446896340603
 40
61.76543512747011
 40
62.76638027851516
 40
63.76731078141675
 40
64.76823188207527
 40
65.76914770062723
 40
66.77006122383698
 40
67.77097429749104
 40
68.7718876220211
 40
68.7718876220211
 40
68.7718876220211
 40
68.7718876220211
 10
1668.405234618372
 20
968.2749467767266
 30
0.0
 10
1668.405236286534
 20
968.2749470107941
 30
0.0
 10
1668.39783924556
 20
968.2746448789534
 30
0.0
 10
1668.364555268972
 20
968.273272058634
 30
0.0
 10
1668.309082841259
 20
968.270976021637
 30
0.0
 10
1668.23144431543
 20
968.2677664362621
 30
0.0
 10
1668.131674608116
 20
968.2636643896097
 30
0.0
 10
1668.009823066277
 20
968.258702100988
 30
0.0
 10
1667.86595183542
 20
968.2529219423799
 30
0.0
 10
1667.700134926571
 20
968.2463753951655
 30
0.0
 10
1667.512456972434
 20
968.2391218106262
 30
0.0
 10
1667.303012064806
 20
968.2312270543465
 30
0.0
 10
1667.071902687994
 20
968.2227620644829
 30
0.0
 10
1666.819238852946
 20
968.2138013711286
 30
0.0
 10
1666.545137492773
 20
968.2044216208363
 30
0.0
 10
1666.249722164786
 20
968.1947001492357
 30
0.0
 10
1665.933123075913
 20
968.1847136408236
 30
0.0
 10
1665.595477421572
 20
968.1745369087206
 30
0.0
 10
1665.236930002588
 20
968.1642418201649
 30
0.0
 10
1664.857634063424
 20
968.153896384871
 30
0.0
 10
1664.457752282396
 20
968.1435640149924
 30
0.0
 10
1664.037457832529
 20
968.1333029566216
 30
0.0
 10
1663.596935460469
 20
968.1231658880337
 30
0.0
 10
1663.136382535845
 20
968.1131996956013
 30
0.0
 10
1662.656009883983
 20
968.1034453948581
 30
0.0
 10
1662.156042565892
 20
968.0939382157361
 30
0.0
 10
1661.63672017783
 20
968.0847077765633
 30
0.0
 10
1661.098297038583
 20
968.0757783614375
 30
0.0
 10
1660.541042508878
 20
968.0671690442599
 30
0.0
 10
1659.965241455238
 20
968.0588953660975
 30
0.0
 10
1659.371188032749
 20
968.0509652185996
 30
0.0
 10
1658.759223084179
 20
968.0433948646445
 30
0.0
 10
1658.129578251446
 20
968.036175248459
 30
0.0
 10
1657.482658131831
 20
968.0292787246202
 30
0.0
 10
1656.818873590248
 20
968.0227019930666
 30
0.0
 10
1656.138577896678
 20
968.0164404269293
 30
0.0
 10
1655.442143227959
 20
968.0104912372902
 30
0.0
 10
1654.729942410227
 20
968.0048509805841
 30
0.0
 10
1654.002358001202
 20
967.9995156075223
 30
0.0
 10
1653.259780950522
 20
967.9944802627127
 30
0.0
 10
1652.502611381808
 20
967.9897393025298
 30
0.0
 10
1651.731258323943
 20
967.985286391346
 30
0.0
 10
1650.946139404219
 20
967.9811146324195
 30
0.0
 10
1650.147680422392
 20
967.9772167037648
 30
0.0
 10
1649.336314916664
 20
967.9735849849952
 30
0.0
 10
1648.512483736275
 20
967.9702116663087
 30
0.0
 10
1647.676634639408
 20
967.9670888323948
 30
0.0
 10
1646.82922192914
 20
967.9642085152576
 30
0.0
 10
1645.970706128767
 20
967.9615627176084
 30
0.0
 10
1645.101553686228
 20
967.9591434079542
 30
0.0
 10
1644.222236701362
 20
967.9569424901769
 30
0.0
 10
1643.333232665537
 20
967.9549517523104
 30
0.0
 10
1642.435024202921
 20
967.9531628009121
 30
0.0
 10
1641.528098802937
 20
967.951566989372
 30
0.0
 10
1640.612948534329
 20
967.9501553507201
 30
0.0
 10
1639.690069733399
 20
967.9489185456681
 30
0.0
 10
1638.759962663706
 20
967.9478468371148
 30
0.0
 10
1637.823131151797
 20
967.9469300886179
 30
0.0
 10
1636.880082219462
 20
967.9461577726164
 30
0.0
 10
1635.93132572965
 20
967.9455189806889
 30
0.0
 10
1634.977374031213
 20
967.9450024293895
 30
0.0
 10
1634.018741678675
 20
967.94459646342
 30
0.0
 10
1633.055944949342
 20
967.9442890363047
 30
0.0
 10
1632.089502192523
 20
967.9440677343213
 30
0.0
 10
1631.119931143098
 20
967.9439195949075
 30
0.0
 10
1630.147757624788
 20
967.9438316471045
 30
0.0
 10
1629.173481797921
 20
967.9437887157604
 30
0.0
 10
1628.1977028897
 20
967.943781418768
 30
0.0
 10
1627.220652493984
 20
967.94377611995
 30
0.0
 10
1626.569507580031
 20
967.9438099995226
 30
0.0
 10
1626.243403905516
 20
967.943790280004
 30
0.0
  0
ARC
  5
3893
330
A
100
AcDbEntity
  8
MODEL
100
AcDbCircle
 10
1670.807770162471
 20
951.9927568418119
 30
0.0
 40
16.45848978847372
100
AcDbArc
 50
98.39376973222157
 51
133.1523872297138
  0
SPLINE
  5
3894
102
{ACAD_REACTORS
330
47CF
102
}
330
A
100
AcDbEntity
  8
HIDDEN
100
AcDbSpline
210
0.0
220
0.0
230
1.0
 70
     8
 71
     7
 72
    51
 73
    43
 74
     0
 42
0.000000001
 43
0.0000000001
 40
0.3927333841233648
 40
0.3927333841233648
 40
0.3927333841233648
 40
0.3927333841233648
 40
0.3927333841233648
 40
0.3927333841233648
 40
0.3927333841233648
 40
0.3927333841233648
 40
0.4679898777874379
 40
0.4679898777874379
 40
0.4679898777874379
 40
0.4679898777874379
 40
0.4679898777874379
 40
0.5266959999999998
 40
0.5266959999999998
 40
0.5266959999999998
 40
0.5266959999999998
 40
0.5266959999999998
 40
0.5345481059510655
 40
0.5345481059510655
 40
0.5345481059510655
 40
0.5345481059510655
 40
0.5345481059510655
 40
0.6155138095828083
 40
0.6155138095828083
 40
0.6155138095828083
 40
0.6155138095828083
 40
0.6155138095828083
 40
0.6260898399999999
 40
0.6260898399999999
 40
0.6260898399999999
 40
0.6260898399999999
 40
0.6260898399999999
 40
0.8564184985599999
 40
0.8564184985599999
 40
0.8564184985599999
 40
0.8564184985599999
 40
0.8564184985599999
 40
0.925217968
 40
0.925217968
 40
0.925217968
 40
0.925217968
 40
0.925217968
 40
0.9643489417593263
 40
0.9643489417593263
 40
0.9643489417593263
 40
0.9643489417593263
 40
0.9643489417593263
 40
0.9643489417593263
 40
0.9643489417593263
 40
0.9643489417593263
 10
1748.712229373069
 20
1016.239950270099
 30
0.0
 10
1747.140319140322
 20
1014.014426061395
 30
0.0
 10
1745.540108417877
 20
1011.832239019792
 30
0.0
 10
1743.912252883888
 20
1009.69906558845
 30
0.0
 10
1742.258468059486
 20
1007.621195612496
 30
0.0
 10
1740.581864374313
 20
1005.605745056286
 30
0.0
 10
1737.567651669046
 20
1002.143638458771
 30
0.0
 10
1734.527235095848
 20
998.929793112466
 30
0.0
 10
1733.193808989461
 20
997.5727832449469
 30
0.0
 10
1731.864206401586
 20
996.2707566935627
 30
0.0
 10
1730.543933251353
 20
995.0268230837013
 30
0.0
 10
1729.063804330073
 20
993.684542718975
 30
0.0
 10
1727.607113399869
 20
992.4186559488284
 30
0.0
 10
1727.435597700982
 20
992.27037695248
 30
0.0
 10
1727.264425606863
 20
992.1231583040775
 30
0.0
 10
1727.093604919584
 20
991.9769977191594
 30
0.0
 10
1725.165451060096
 20
990.3356623754283
 30
0.0
 10
1723.284025104819
 20
988.8289128712844
 30
0.0
 10
1721.615003261053
 20
987.563543574381
 30
0.0
 10
1719.992552248108
 20
986.3967929827762
 30
0.0
 10
1718.4107915827
 20
985.3155191640166
 30
0.0
 10
1716.658977929257
 20
984.1758630729367
 30
0.0
 10
1714.938466523195
 20
983.1175894254833
 30
0.0
 10
1714.74009213635
 20
982.9963894261003
 30
0.0
 10
1714.542100713357
 20
982.8762335605483
 30
0.0
 10
1714.344475161281
 20
982.757101945141
 30
0.0
 10
1709.850841017273
 20
980.0663757929491
 30
0.0
 10
1705.529927231027
 20
977.8878021486802
 30
0.0
 10
1701.388767528809
 20
976.0782944205188
 30
0.0
 10
1697.117746966653
 20
974.4950216670608
 30
0.0
 10
1692.712088528468
 20
973.1215131606863
 30
0.0
 10
1686.8434090606
 20
971.5997275734029
 30
0.0
 10
1680.859970155635
 20
970.3756188951141
 30
0.0
 10
1679.478493631023
 20
970.1080245864053
 30
0.0
 10
1678.095158428014
 20
969.8529621444453
 30
0.0
 10
1676.707531774447
 20
969.6079222154134
 30
0.0
 10
1674.530342853566
 20
969.2371272140721
 30
0.0
 10
1672.352431101743
 20
968.8827182824883
 30
0.0
 10
1671.562813223248
 20
968.7563108500384
 30
0.0
 10
1670.773264139183
 20
968.6321940218535
 30
0.0
 10
1669.983820966775
 20
968.5105219596356
 30
0.0
 10
1669.194488283698
 20
968.3914059257571
 30
0.0
 10
1668.405234618372
 20
968.2749467767266
 30
0.0
  0
LINE
  5
3895
330
A
100
AcDbEntity
  8
MODEL
100
AcDbLine
 10
1718.324324185973
 20
938.2712055428259
 30
0.0
 11
1626.243393286117
 21
938.2712055428259
 31
0.0
  0
LINE
  5
3896
330
A
100
AcDbEntity
  8
MODEL
100
AcDbLine
 10
1725.078106422745
 20
939.2712030940223
 30
0.0
 11
1736.677900026899
 21
939.2712047405643
 31
0.0
  0
LINE
  5
3897
330
A
100
AcDbEntity
  8
MODEL
100
AcDbLine
 10
1791.352581039378
 20
1014.352496725149
 30
0.0
 11
1791.324573690504
 21
1014.352496276172
 31
0.0
  0
LINE
  5
3898
330
A
100
AcDbEntity
  8
MODEL
100
AcDbLine
 10
1791.324573690504
 20
1014.352496276172
 30
0.0
 11
1778.840582259639
 21
1014.352490121286
 31
0.0
  0
LINE
  5
3899
330
A
100
AcDbEntity
  8
MODEL
100
AcDbLine
 10
1806.428868326436
 20
1087.780233290423
 30
0.0
 11
1806.44715466482
 21
1087.781833214299
 31
0.0
  0
SPLINE
  5
389A
102
{ACAD_REACTORS
330
47CF
102
}
330
A
100
AcDbEntity
  8
HIDDEN
100
AcDbSpline
210
0.0
220
0.0
230
1.0
 70
     8
 71
     7
 72
    26
 73
    18
 74
     0
 42
0.000000001
 43
0.0000000001
 40
0.0
 40
0.0
 40
0.0
 40
0.0
 40
0.0
 40
0.0
 40
0.0
 40
0.0
 40
0.1659
 40
0.1659
 40
0.1659
 40
0.1659
 40
0.1659
 40
0.7899999999999999
 40
0.7899999999999999
 40
0.7899999999999999
 40
0.7899999999999999
 40
0.7899999999999999
 40
1.0
 40
1.0
 40
1.0
 40
1.0
 40
1.0
 40
1.0
 40
1.0
 40
1.0
 10
1806.44715466482
 20
1087.781833214299
 30
0.0
 10
1804.624402302604
 20
1086.566003907601
 30
0.0
 10
1802.853227673513
 20
1085.272850197571
 30
0.0
 10
1801.130513552506
 20
1083.915572610922
 30
0.0
 10
1799.452351166319
 20
1082.50417991723
 30
0.0
 10
1797.815094591996
 20
1081.046364456304
 30
0.0
 10
1790.197345658149
 20
1073.912823096121
 30
0.0
 10
1783.361184063424
 20
1065.981365313897
 30
0.0
 10
1778.284503002559
 20
1059.484701597377
 30
0.0
 10
1773.435913742177
 20
1052.80642345362
 30
0.0
 10
1768.747151438623
 20
1046.02758965975
 30
0.0
 10
1762.620733680127
 20
1036.872346451861
 30
0.0
 10
1756.520092218658
 20
1027.699887422807
 30
0.0
 10
1754.98227946079
 20
1025.391786063387
 30
0.0
 10
1753.438667482745
 20
1023.087552258183
 30
0.0
 10
1751.884076138439
 20
1020.79068235267
 30
0.0
 10
1750.312290462129
 20
1018.505330706545
 30
0.0
 10
1748.712229373069
 20
1016.239950270099
 30
0.0
  0
SPLINE
  5
389B
330
A
100
AcDbEntity
  8
MODEL
100
AcDbSpline
210
0.0
220
0.0
230
1.0
 70
     8
 71
     7
 72
    31
 73
    23
 74
     0
 42
0.000000001
 43
0.0000000001
 40
0.0
 40
0.0
 40
0.0
 40
0.0
 40
0.0
 40
0.0
 40
0.0
 40
0.0
 40
0.24
 40
0.24
 40
0.24
 40
0.24
 40
0.24
 40
0.4148000000000001
 40
0.4148000000000001
 40
0.4148000000000001
 40
0.4148000000000001
 40
0.4148000000000001
 40
0.5376920000000001
 40
0.5376920000000001
 40
0.5376920000000001
 40
0.5376920000000001
 40
0.5376920000000001
 40
1.0
 40
1.0
 40
1.0
 40
1.0
 40
1.0
 40
1.0
 40
1.0
 40
1.0
 10
1812.679192829739
 20
1084.967419269311
 30
0.0
 10
1812.703396607148
 20
1085.300343837988
 30
0.0
 10
1812.716494194859
 20
1085.634075832028
 30
0.0
 10
1812.716768565051
 20
1085.968287727758
 30
0.0
 10
1812.701911732183
 20
1086.302475115268
 30
0.0
 10
1812.669059036736
 20
1086.635593043399
 30
0.0
 10
1812.573316855969
 20
1087.206821919955
 30
0.0
 10
1812.391818412241
 20
1087.755723824439
 30
0.0
 10
1812.297676438695
 20
1087.981188592747
 30
0.0
 10
1812.183398735776
 20
1088.197961635289
 30
0.0
 10
1812.045170288764
 20
1088.401885537095
 30
0.0
 10
1811.767313342537
 20
1088.714172981453
 30
0.0
 10
1811.426034299384
 20
1088.952059007365
 30
0.0
 10
1811.275375908461
 20
1089.035807172744
 30
0.0
 10
1811.116873565262
 20
1089.103801666329
 30
0.0
 10
1810.953107798238
 20
1089.156316181564
 30
0.0
 10
1810.157124197866
 20
1089.337687392979
 30
0.0
 10
1809.317145997955
 20
1089.220596189871
 30
0.0
 10
1808.7039659233
 20
1089.015595472845
 30
0.0
 10
1808.105657517993
 20
1088.769630967216
 30
0.0
 10
1807.534400920004
 20
1088.469345926844
 30
0.0
 10
1806.98207310201
 20
1088.13863950686
 30
0.0
 10
1806.44715466482
 20
1087.781833214299
 30
0.0
  0
LINE
  5
389E
330
A
100
AcDbEntity
  8
MODEL
100
AcDbLine
 10
1648.14340461182
 20
942.3363443767506
 30
0.0
 11
1626.243403678389
 21
942.3363453340265
 31
0.0
  0
ARC
  5
389F
330
A
100
AcDbEntity
  8
MODEL
100
AcDbCircle
 10
1651.143406185965
 20
952.0053976869953
 30
0.0
 40
3.000001151497385
100
AcDbArc
 50
133.1523967571587
 51
179.9999879679661
  0
LINE
  5
38A0
330
A
100
AcDbEntity
  8
MODEL
100
AcDbLine
 10
1648.14340461182
 20
942.3363443767506
 30
0.0
 11
1648.143405034467
 21
952.0053983169913
 31
0.0
  0
LINE
  5
38A1
330
A
100
AcDbEntity
  8
MODEL
100
AcDbLine
 10
1659.551132601706
 20
963.9998379585071
 30
0.0
 11
1649.091581743491
 21
954.1940098879626
 31
0.0
  0
LINE
  5
38A7
330
A
100
AcDbEntity
  8
MODEL
100
AcDbLine
 10
1718.324331332848
 20
938.2712126897007
 30
0.0
 11
1722.842047701995
 21
938.271212492224
 31
0.0
  0
ARC
  5
38A8
330
A
100
AcDbEntity
  8
MODEL
100
AcDbCircle
 10
1722.842047833129
 20
941.271212492224
 30
0.0
 40
3.000000000000005
100
AcDbArc
 50
269.9999974956616
 51
318.1894442894046
  0
LINE
  5
38AA
330
A
100
AcDbEntity
  8
MODEL
100
AcDbLine
 10
1796.418985119727
 20
1014.352499204912
 30
0.0
 11
1791.428269600414
 21
1014.352499423067
 31
0.0
  0
LINE
  5
38AB
330
A
100
AcDbEntity
  8
MODEL
100
AcDbLine
 10
1742.962169144603
 20
939.2712116127426
 30
0.0
 11
1736.677907173774
 21
939.2712118874391
 31
0.0
  0
SPLINE
  5
38AD
330
A
100
AcDbEntity
  8
MODEL
100
AcDbSpline
210
0.0
220
0.0
230
1.0
 70
     8
 71
     3
 72
    45
 73
    41
 74
     0
 42
0.000000001
 43
0.0000000001
 40
0.0
 40
0.0
 40
0.0
 40
0.0
 40
8.85409447228422
 40
24.34910994206213
 40
33.20349285002167
 40
47.59143936389088
 40
71.68482831086197
 40
90.45514475083473
 40
108.3733411306558
 40
127.1535816379382
 40
145.1449178517646
 40
163.9925864636162
 40
182.8535751947691
 40
200.9474046119537
 40
219.8991518632799
 40
231.0970272117999
 40
238.7426411044499
 40
249.5948811537707
 40
256.2755899494745
 40
262.9593734854468
 40
267.1392852636437
 40
272.158936850718
 40
274.670556818874
 40
282.2148729533281
 40
288.939985469775
 40
291.136778935343
 40
295.5395794381425
 40
297.7438162094913
 40
302.1530963726212
 40
306.5622603330092
 40
315.3806227328616
 40
324.1989930951401
 40
333.017358702315
 40
341.8357232881575
 40
359.472467139846
 40
368.4442950837119
 40
377.4161254132991
 40
386.387948005256
 40
395.3597462228439
 40
396.1350846667004
 40
396.1350846667004
 40
396.1350846667004
 40
396.1350846667004
 10
1626.24339015094
 20
1089.244615052759
 30
0.0
 10
1629.194469681115
 20
1089.244060797223
 30
0.0
 10
1637.311341445574
 20
1089.242405403186
 30
0.0
 10
1648.342816406741
 20
1089.239685515952
 30
0.0
 10
1661.098665566371
 20
1089.236080058223
 30
0.0
 10
1676.504305892982
 20
1089.231271839139
 30
0.0
 10
1694.616996805133
 20
1089.225175591235
 30
0.0
 10
1712.92529178217
 20
1089.219508316068
 30
0.0
 10
1728.740572955337
 20
1089.215335666056
 30
0.0
 10
1743.306133229521
 20
1089.212359040924
 30
0.0
 10
1756.9294906864
 20
1089.210664492813
 30
0.0
 10
1769.250968850146
 20
1089.210559066405
 30
0.0
 10
1780.104881396822
 20
1089.212600928847
 30
0.0
 10
1789.385568473034
 20
1089.217356822824
 30
0.0
 10
1795.91189848475
 20
1089.224239805988
 30
0.0
 10
1800.022304039687
 20
1089.231373481349
 30
0.0
 10
1802.749445327843
 20
1089.237643461324
 30
0.0
 10
1804.640512408657
 20
1089.243362468658
 30
0.0
 10
1806.078728101608
 20
1089.248746102842
 30
0.0
 10
1806.915033627947
 20
1089.252487562726
 30
0.0
 10
1807.528251719782
 20
1089.255385971444
 30
0.0
 10
1807.895049699207
 20
1089.256990741457
 30
0.0
 10
1808.284651638243
 20
1089.258287707386
 30
0.0
 10
1808.593180954631
 20
1089.25870197323
 30
0.0
 10
1808.741990606825
 20
1089.259604863181
 30
0.0
 10
1808.858381129606
 20
1089.259972742379
 30
0.0
 10
1808.93562864003
 20
1089.259592554393
 30
0.0
 10
1809.004413875441
 20
1089.258851847042
 30
0.0
 10
1809.063806577912
 20
1089.258166763778
 30
0.0
 10
1809.153850737408
 20
1089.257097537045
 30
0.0
 10
1809.260342962015
 20
1089.255938455789
 30
0.0
 10
1809.387086221275
 20
1089.25450437366
 30
0.0
 10
1809.500564080923
 20
1089.253171858893
 30
0.0
 10
1809.642715338991
 20
1089.251498684569
 30
0.0
 10
1809.768237021961
 20
1089.250006525551
 30
0.0
 10
1809.878536618118
 20
1089.248686620673
 30
0.0
 10
1809.953828161008
 20
1089.247780085075
 30
0.0
 10
1810.018785178072
 20
1089.246992906641
 30
0.0
 10
1810.06294477488
 20
1089.246463738285
 30
0.0
 10
1810.079103728597
 20
1089.246269643997
 30
0.0
 10
1810.080357326909
 20
1089.246254614538
 30
0.0
  0
SPLINE
  5
38B0
330
A
100
AcDbEntity
  8
MODEL
100
AcDbSpline
210
0.0
220
0.0
230
1.0
 70
     8
 71
     3
 72
    75
 73
    71
 74
     0
 42
0.000000001
 43
0.0000000001
 40
0.0
 40
0.0
 40
0.0
 40
0.0
 40
1.029394116396146
 40
2.058731718118252
 40
3.087955924898786
 40
4.117009346922286
 40
5.145834088504272
 40
6.174371798258775
 40
7.20256378074094
 40
8.230351185265231
 40
9.257675286869306
 40
10.28447787155037
 40
11.31070173251655
 40
12.33629127623831
 40
13.36119322702418
 40
14.38535740767579
 40
15.4087375629216
 40
16.43129218342196
 40
17.45298528272187
 40
18.47378707873376
 40
19.49367453563742
 40
20.51263173122636
 40
21.5306500294057
 40
22.54772804511543
 40
23.56387139792443
 40
24.57909228253569
 40
25.59340885990478
 40
26.60684455924189
 40
27.61942734270449
 40
28.63118879460552
 40
29.64216372397023
 40
30.65238852093995
 40
31.66189571159234
 40
32.67073335361698
 40
33.67894588409523
 40
34.68656744482556
 40
35.6936296737271
 40
36.70016279447879
 40
37.70619633836471
 40
38.71175932032667
 40
39.71688025608974
 40
40.72158709453223
 40
41.7259071199359
 40
42.72986685906244
 40
43.73349200731927
 40
44.73680737828728
 40
45.73983687598346
 40
46.74260348660135
 40
47.74512928414014
 40
48.74743544351533
 40
49.74954225536275
 40
50.75146913736659
 40
51.75323463801619
 40
52.75485643013403
 40
53.75635129327473
 40
54.75773508617188
 40
55.75902271258172
 40
56.76022808552495
 40
57.76136409473656
 40
58.7624425797021
 40
59.76347430872238
 40
60.76446896340603
 40
61.76543512747011
 40
62.76638027851516
 40
63.76731078141675
 40
64.76823188207527
 40
65.76914770062723
 40
66.77006122383698
 40
67.77097429749104
 40
68.77188762202108
 40
68.77188762202108
 40
68.77188762202108
 40
68.77188762202108
 10
607.1069520951811
 20
964.0052906048543
 30
0.0
 10
606.850485540747
 20
964.0052895842912
 30
0.0
 10
606.3375664703586
 20
964.0052875434801
 30
0.0
 10
605.5685928580157
 20
964.0052570856744
 30
0.0
 10
604.8004440686806
 20
964.005195006014
 30
0.0
 10
604.0335325587681
 20
964.0050985577238
 30
0.0
 10
603.2682695788486
 20
964.0049718712751
 30
0.0
 10
602.5050643418823
 20
964.0048237428839
 30
0.0
 10
601.744323342779
 20
964.0046671615939
 30
0.0
 10
600.9864498485791
 20
964.0045181366806
 30
0.0
 10
600.2318435786389
 20
964.0043945568721
 30
0.0
 10
599.4809005759186
 20
964.004314971625
 30
0.0
 10
598.7340132565683
 20
964.0042974127393
 30
0.0
 10
597.9915706111084
 20
964.0043583103959
 30
0.0
 10
597.2539585192086
 20
964.0045115658384
 30
0.0
 10
596.5215601323022
 20
964.004767826131
 30
0.0
 10
595.7947562747164
 20
964.0051339918507
 30
0.0
 10
595.0739258149794
 20
964.0056129705674
 30
0.0
 10
594.3594459644906
 20
964.0062036712309
 30
0.0
 10
593.6516924698323
 20
964.006901217889
 30
0.0
 10
592.9510396761058
 20
964.0076973492071
 30
0.0
 10
592.2578604515826
 20
964.0085809575628
 30
0.0
 10
591.5725259712659
 20
964.0095387375238
 30
0.0
 10
590.8954053571312
 20
964.0105559196916
 30
0.0
 10
590.2268652318622
 20
964.0116169448559
 30
0.0
 10
589.5672691578244
 20
964.0127062009722
 30
0.0
 10
588.916977114323
 20
964.0138084746911
 30
0.0
 10
588.2763449156506
 20
964.0149093984066
 30
0.0
 10
587.6457237013116
 20
964.0159959294622
 30
0.0
 10
587.0254583540687
 20
964.0170577281212
 30
0.0
 10
586.4158918343334
 20
964.0180805970447
 30
0.0
 10
585.8173424009461
 20
964.0190829928217
 30
0.0
 10
585.2301858036977
 20
964.0199757339071
 30
0.0
 10
584.6547207595382
 20
964.0208002974384
 30
0.0
 10
584.0912192214333
 20
964.0216117386374
 30
0.0
 10
583.5399827672396
 20
964.0224067655261
 30
0.0
 10
583.0013040668442
 20
964.023189251541
 30
0.0
 10
582.4754747046123
 20
964.0239551337161
 30
0.0
 10
581.9627797215386
 20
964.0247006941661
 30
0.0
 10
581.4634977401826
 20
964.0254217443128
 30
0.0
 10
580.9779000276054
 20
964.0261146559221
 30
0.0
 10
580.5062501471499
 20
964.0267764816956
 30
0.0
 10
580.0488036977282
 20
964.0274050134224
 30
0.0
 10
579.6058081699908
 20
964.02799870899
 30
0.0
 10
579.17750285147
 20
964.0285565870474
 30
0.0
 10
578.7641187638898
 20
964.029078105674
 30
0.0
 10
578.3658786152615
 20
964.0295630447083
 30
0.0
 10
577.9829967475476
 20
964.030011410571
 30
0.0
 10
577.6156790662086
 20
964.0304233744012
 30
0.0
 10
577.264122951458
 20
964.0307992397604
 30
0.0
 10
576.9285171473335
 20
964.031139441083
 30
0.0
 10
576.6090416304238
 20
964.031444568401
 30
0.0
 10
576.3058674631199
 20
964.0317154116085
 30
0.0
 10
576.0191566398522
 20
964.0319530149643
 30
0.0
 10
575.7490619385595
 20
964.0321587296041
 30
0.0
 10
575.4957267941378
 20
964.0323342483146
 30
0.0
 10
575.25928521142
 20
964.0324816073405
 30
0.0
 10
575.039861735199
 20
964.0326031403181
 30
0.0
 10
574.8375714572636
 20
964.032701406388
 30
0.0
 10
574.6525200438797
 20
964.0327791086713
 30
0.0
 10
574.4848037742073
 20
964.0328390116094
 30
0.0
 10
574.3345095835708
 20
964.0328838620328
 30
0.0
 10
574.201715107573
 20
964.0329163166682
 30
0.0
 10
574.0864887247614
 20
964.03293887728
 30
0.0
 10
573.988889595416
 20
964.0329538346243
 30
0.0
 10
573.9089676994214
 20
964.0329632176911
 30
0.0
 10
573.8467638576864
 20
964.032968761948
 30
0.0
 10
573.802309816531
 20
964.0329718215532
 30
0.0
 10
573.7756281168137
 20
964.0329734862796
 30
0.0
 10
573.7696979462222
 20
964.0329737338063
 30
0.0
 10
573.7696978261762
 20
964.0329738575699
 30
0.0
  0
SPLINE
  5
38B1
330
A
100
AcDbEntity
  8
MODEL
100
AcDbSpline
210
0.0
220
0.0
230
1.0
 70
     8
 71
     3
 72
    75
 73
    71
 74
     0
 42
0.000000001
 43
0.0000000001
 40
0.0
 40
0.0
 40
0.0
 40
0.0
 40
1.029394116396146
 40
2.058731718118252
 40
3.087955924898786
 40
4.117009346922286
 40
5.145834088504272
 40
6.174371798258775
 40
7.20256378074094
 40
8.230351185265231
 40
9.257675286869306
 40
10.28447787155037
 40
11.31070173251655
 40
12.33629127623831
 40
13.36119322702418
 40
14.38535740767579
 40
15.4087375629216
 40
16.43129218342196
 40
17.45298528272187
 40
18.47378707873376
 40
19.49367453563742
 40
20.51263173122636
 40
21.5306500294057
 40
22.54772804511543
 40
23.56387139792443
 40
24.57909228253569
 40
25.59340885990478
 40
26.60684455924189
 40
27.61942734270449
 40
28.63118879460552
 40
29.64216372397023
 40
30.65238852093995
 40
31.66189571159234
 40
32.67073335361698
 40
33.67894588409523
 40
34.68656744482556
 40
35.6936296737271
 40
36.70016279447879
 40
37.70619633836471
 40
38.71175932032667
 40
39.71688025608974
 40
40.72158709453223
 40
41.7259071199359
 40
42.72986685906244
 40
43.73349200731927
 40
44.73680737828728
 40
45.73983687598346
 40
46.74260348660135
 40
47.74512928414014
 40
48.74743544351533
 40
49.74954225536275
 40
50.75146913736659
 40
51.75323463801619
 40
52.75485643013403
 40
53.75635129327473
 40
54.75773508617188
 40
55.75902271258172
 40
56.76022808552495
 40
57.76136409473656
 40
58.7624425797021
 40
59.76347430872238
 40
60.76446896340603
 40
61.76543512747011
 40
62.76638027851516
 40
63.76731078141675
 40
64.76823188207527
 40
65.76914770062723
 40
66.77006122383698
 40
67.77097429749104
 40
68.77188762202108
 40
68.77188762202108
 40
68.77188762202108
 40
68.77188762202108
 10
607.1069520951811
 20
968.2803994230746
 30
0.0
 10
606.7827205686141
 20
968.2803996713135
 30
0.0
 10
606.1328521536949
 20
968.2800975678836
 30
0.0
 10
605.1596832448146
 20
968.2787247901049
 30
0.0
 10
604.1872060194315
 20
968.2764287956118
 30
0.0
 10
603.2163086926472
 20
968.2732192526785
 30
0.0
 10
602.2473862532594
 20
968.269117248378
 30
0.0
 10
601.2809646086777
 20
968.2641550020014
 30
0.0
 10
600.3175328038438
 20
968.2583748855025
 30
0.0
 10
599.357587577079
 20
968.2518283802503
 30
0.0
 10
598.4016212500743
 20
968.2445748374969
 30
0.0
 10
597.4501250032432
 20
968.2366801228111
 30
0.0
 10
596.5035882156977
 20
968.2282151743182
 30
0.0
 10
595.5624990027451
 20
968.2192545221044
 30
0.0
 10
594.6273445203138
 20
968.2098748126857
 30
0.0
 10
593.6986113538757
 20
968.200153381684
 30
0.0
 10
592.7767858382527
 20
968.1901669135643
 30
0.0
 10
591.8623542847077
 20
968.1799902214336
 30
0.0
 10
590.9558030666182
 20
968.1696951725046
 30
0.0
 10
590.0576185370834
 20
968.15934977647
 30
0.0
 10
589.1682867636142
 20
968.1490174454627
 30
0.0
 10
588.2882930814181
 20
968.1387564255581
 30
0.0
 10
587.4181214740989
 20
968.1286193950098
 30
0.0
 10
586.5582537929828
 20
968.1186532401632
 30
0.0
 10
585.7091688954994
 20
968.108898976531
 30
0.0
 10
584.8713416759152
 20
968.0993918340357
 30
0.0
 10
584.0452421846081
 20
968.0901614309753
 30
0.0
 10
583.2313347149926
 20
968.0812320514203
 30
0.0
 10
582.4300769671996
 20
968.0726227692705
 30
0.0
 10
581.6419181767293
 20
968.0643491255553
 30
0.0
 10
580.8673037831419
 20
968.0564190119183
 30
0.0
 10
580.1066488007369
 20
968.0488486912129
 30
0.0
 10
579.3604385287714
 20
968.0416291076456
 30
0.0
 10
578.629052876439
 20
968.0347326157764
 30
0.0
 10
577.9128421614683
 20
968.0281559155303
 30
0.0
 10
577.2121951449031
 20
968.0218943800194
 30
0.0
 10
576.5274892392287
 20
968.0159452203131
 30
0.0
 10
575.8591002604031
 20
968.0103049928223
 30
0.0
 10
575.2073952976303
 20
968.0049696482477
 30
0.0
 10
574.5727328335075
 20
967.9999343311758
 30
0.0
 10
573.9554615214607
 20
967.9951933979776
 30
0.0
 10
573.3559197544624
 20
967.9907405129995
 30
0.0
 10
572.7744353586482
 20
967.986568779492
 30
0.0
 10
572.2113254434322
 20
967.9826708754515
 30
0.0
 10
571.6668963159342
 20
967.9790391804775
 30
0.0
 10
571.1414434349014
 20
967.9756658847639
 30
0.0
 10
570.6352513791813
 20
967.9725430729748
 30
0.0
 10
570.1485938033899
 20
967.9696627771107
 30
0.0
 10
569.6817333630339
 20
967.9670169998647
 30
0.0
 10
569.2349216083845
 20
967.96459770974
 30
0.0
 10
568.8083988425666
 20
967.96239681061
 30
0.0
 10
568.4023939470522
 20
967.9604060904874
 30
0.0
 10
568.0171241826198
 20
967.9586171559315
 30
0.0
 10
567.6527949787657
 20
967.9570213603181
 30
0.0
 10
567.3095997306397
 20
967.9556097366697
 30
0.0
 10
566.987719628533
 20
967.9543729456889
 30
0.0
 10
566.687323545923
 20
967.9533012502618
 30
0.0
 10
566.4085680084996
 20
967.9523845139481
 30
0.0
 10
566.1515972154617
 20
967.951612209182
 30
0.0
 10
565.9165430848103
 20
967.9509734275282
 30
0.0
 10
565.7035253272285
 20
967.9504568855407
 30
0.0
 10
565.5126514713653
 20
967.9500509279126
 30
0.0
 10
565.3440170903292
 20
967.9497435081705
 30
0.0
 10
565.1977052723838
 20
967.949522212579
 30
0.0
 10
565.0737888921527
 20
967.9493740785817
 30
0.0
 10
564.9723224026335
 20
967.9492861352162
 30
0.0
 10
564.8933727027276
 20
967.9492432073278
 30
0.0
 10
564.8369041771172
 20
967.949235912801
 30
0.0
 10
564.8032080008439
 20
967.9492306154564
 30
0.0
 10
564.7952695839509
 20
967.9492644953764
 30
0.0
 10
564.7955517885154
 20
967.9492447758405
 30
0.0
  0
LINE
  5
38B3
330
A
100
AcDbEntity
  8
MODEL
100
AcDbLine
 10
344.7708381367144
 20
939.2766672074479
 30
0.0
 11
333.1710296189946
 21
939.2766693610349
 31
0.0
  0
LINE
  5
38B4
330
A
100
AcDbEntity
  8
MODEL
100
AcDbLine
 10
278.7695443535072
 20
1014.357959289875
 30
0.0
 11
291.347765493231
 21
1014.357956531652
 31
0.0
  0
ARC
  5
38B5
330
A
100
AcDbEntity
  8
MODEL
100
AcDbCircle
 10
582.2069509675372
 20
952.0108514217557
 30
0.0
 40
3.000001151496576
100
AcDbArc
 50
0.0000095277225352
 51
46.84760073841003
  0
LINE
  5
38B6
330
A
100
AcDbEntity
  8
MODEL
100
AcDbLine
 10
585.2069521190302
 20
952.0108519206208
 30
0.0
 11
585.2069521190302
 21
942.3417979803774
 31
0.0
  0
LINE
  5
38B7
330
A
100
AcDbEntity
  8
MODEL
100
AcDbLine
 10
584.2587755056762
 20
954.1994635330409
 30
0.0
 11
573.7696978261762
 21
964.0329738575699
 31
0.0
  0
ARC
  5
38B8
330
A
100
AcDbEntity
  8
MODEL
100
AcDbCircle
 10
563.776299409156
 20
953.3733488794103
 30
0.0
 40
14.61148919844959
100
AcDbArc
 50
46.84761026594943
 51
85.99997477653503
  0
LINE
  5
38C1
330
A
100
AcDbEntity
  8
MODEL
100
AcDbLine
 10
347.006898533257
 20
938.2766693610349
 30
0.0
 11
351.5246145294029
 21
938.2766693610349
 31
0.0
  0
ARC
  5
38C2
330
A
100
AcDbEntity
  8
MODEL
100
AcDbCircle
 10
347.0068991984687
 20
941.2766702474985
 30
0.0
 40
3.000000886463394
100
AcDbArc
 50
221.810377649523
 51
269.9999872951182
  0
LINE
  5
38C5
330
A
100
AcDbEntity
  8
MODEL
100
AcDbLine
 10
278.7695443535072
 20
1014.357959289875
 30
0.0
 11
274.1416258324267
 21
1014.357959289875
 31
0.0
  0
SPLINE
  5
38C6
330
A
100
AcDbEntity
  8
MODEL
100
AcDbSpline
210
0.0
220
0.0
230
1.0
 70
     8
 71
     3
 72
    13
 73
     9
 74
     0
 42
0.000000001
 43
0.0000000001
 40
0.0
 40
0.0
 40
0.0
 40
0.0
 40
8.34169735698127
 40
22.35574163824872
 40
38.87229631054975
 40
57.70222557704344
 40
73.21381779611053
 40
80.30246416311289
 40
80.30246416311289
 40
80.30246416311289
 40
80.30246416311289
 10
323.5201137772988
 20
941.1282250049883
 30
0.0
 10
322.0267021273418
 20
943.4735683598635
 30
0.0
 10
318.1231769197789
 20
949.8226199624289
 30
0.0
 10
311.8073882790511
 20
961.1416819756889
 30
0.0
 10
304.6322406500354
 20
975.9573335909101
 30
0.0
 10
298.285195477724
 20
991.6890562888709
 30
0.0
 10
293.9787044373625
 20
1004.816999435622
 30
0.0
 10
291.9513833625284
 20
1012.073524994753
 30
0.0
 10
291.3477662220395
 20
1014.357956531651
 30
0.0
  0
LINE
  5
38C7
330
A
100
AcDbEntity
  8
MODEL
100
AcDbLine
 10
333.1710296189946
 20
939.2766693610349
 30
0.0
 11
326.8941597584441
 21
939.2766693610349
 31
0.0
  0
ARC
  5
38C9
330
A
100
AcDbEntity
  8
MODEL
100
AcDbCircle
 10
326.8941605607058
 20
943.2766706701111
 30
0.0
 40
4.000001309076389
100
AcDbArc
 50
212.487204144871
 51
269.9999885082439
  0
ARC
  5
38CA
330
A
100
AcDbEntity
  8
MODEL
100
AcDbCircle
 10
556.3080551888003
 20
1107.817263401126
 30
0.0
 40
300.0082102243312
100
AcDbArc
 50
184.3678260309226
 51
197.590930582931
  0
ARC
  5
38CB
330
A
100
AcDbEntity
  8
MODEL
100
AcDbCircle
 10
274.1416495475374
 20
1018.357990652037
 30
0.0
 40
4.000031362232711
100
AcDbArc
 50
197.5913005541861
 51
269.9996603085161
  0
SPLINE
  5
38CC
102
{ACAD_REACTORS
330
47A4
102
}
330
A
100
AcDbEntity
  8
HIDDEN
100
AcDbSpline
210
0.0
220
0.0
230
1.0
 70
     8
 71
     7
 72
    51
 73
    43
 74
     0
 42
0.000000001
 43
0.0000000001
 40
0.0110329290599662
 40
0.0110329290599662
 40
0.0110329290599662
 40
0.0110329290599662
 40
0.0110329290599662
 40
0.0110329290599662
 40
0.0110329290599662
 40
0.0110329290599662
 40
0.074782032
 40
0.074782032
 40
0.074782032
 40
0.074782032
 40
0.074782032
 40
0.1435815014400001
 40
0.1435815014400001
 40
0.1435815014400001
 40
0.1435815014400001
 40
0.1435815014400001
 40
0.3739101600000001
 40
0.3739101600000001
 40
0.3739101600000001
 40
0.3739101600000001
 40
0.3739101600000001
 40
0.3844861904171917
 40
0.3844861904171917
 40
0.3844861904171917
 40
0.3844861904171917
 40
0.3844861904171917
 40
0.4654518940489345
 40
0.4654518940489345
 40
0.4654518940489345
 40
0.4654518940489345
 40
0.4654518940489345
 40
0.4733040000000002
 40
0.4733040000000002
 40
0.4733040000000002
 40
0.4733040000000002
 40
0.4733040000000002
 40
0.5320101222125622
 40
0.5320101222125622
 40
0.5320101222125622
 40
0.5320101222125622
 40
0.5320101222125622
 40
0.6073532256375129
 40
0.6073532256375129
 40
0.6073532256375129
 40
0.6073532256375129
 40
0.6073532256375129
 40
0.6073532256375129
 40
0.6073532256375129
 40
0.6073532256375129
 10
564.7955517885154
 20
967.9492447758405
 30
0.0
 10
560.5173404885087
 20
968.2484083454713
 30
0.0
 10
556.2401899297353
 20
968.5475032717861
 30
0.0
 10
551.9651100402867
 20
968.8464720152253
 30
0.0
 10
547.6925074808629
 20
969.1453194390876
 30
0.0
 10
543.4223036420686
 20
969.4441098212585
 30
0.0
 10
534.5476601486977
 20
970.0654968764841
 30
0.0
 10
525.6784566385783
 20
970.6879583291486
 30
0.0
 10
521.0754801439422
 20
971.0115675992304
 30
0.0
 10
516.4718854616027
 20
971.3360105941458
 30
0.0
 10
511.8662977541704
 20
971.6616894769861
 30
0.0
 10
491.8274039006598
 20
973.0852477666115
 30
0.0
 10
471.702754771121
 20
974.553741829375
 30
0.0
 10
456.1115420959565
 20
975.7317528887886
 30
0.0
 10
440.4048207683761
 20
977.0163784991885
 30
0.0
 10
424.6608025558841
 20
978.4316308043205
 30
0.0
 10
408.4069351354652
 20
980.2784468985835
 30
0.0
 10
392.9965858277453
 20
982.7958336408012
 30
0.0
 10
392.321731705119
 20
982.9076675744357
 30
0.0
 10
391.6486143418612
 20
983.0208436859036
 30
0.0
 10
390.9772918727272
 20
983.1353865977264
 30
0.0
 10
385.1826555041723
 20
984.1388640115381
 30
0.0
 10
379.5315396894608
 20
985.2483700366463
 30
0.0
 10
374.6729902113753
 20
986.3234326925028
 30
0.0
 10
369.9862844021723
 20
987.50194615533
 30
0.0
 10
365.5037009166433
 20
988.7906528921669
 30
0.0
 10
360.8345111248588
 20
990.324223408825
 30
0.0
 10
356.4451192517832
 20
991.9861085323384
 30
0.0
 10
356.0592593980205
 20
992.1340310766111
 30
0.0
 10
355.6755965393846
 20
992.2829514996358
 30
0.0
 10
355.294133619917
 20
992.4328671202468
 30
0.0
 10
352.0793305059947
 20
993.7120367229215
 30
0.0
 10
349.022695500457
 20
995.0623220869995
 30
0.0
 10
346.450142326316
 20
996.3070747821682
 30
0.0
 10
343.9966737049713
 20
997.6046298463964
 30
0.0
 10
341.6562773249921
 20
998.9538014858947
 30
0.0
 10
336.5559071977937
 20
1002.148507978088
 30
0.0
 10
331.9793151605141
 20
1005.59213899762
 30
0.0
 10
329.5592503918911
 20
1007.601658283407
 30
0.0
 10
327.2784487426275
 20
1009.679183376851
 30
0.0
 10
325.125726354107
 20
1011.817313460691
 30
0.0
 10
323.0894785798906
 20
1014.00841805698
 30
0.0
 10
321.1580360447211
 20
1016.245408269731
 30
0.0
  0
SPLINE
  5
38D1
102
{ACAD_REACTORS
330
47A4
102
}
330
A
100
AcDbEntity
  8
HIDDEN
100
AcDbSpline
210
0.0
220
0.0
230
1.0
 70
     8
 71
     3
 72
    18
 73
    14
 74
     0
 42
0.000000001
 43
0.0000000001
 40
0.0
 40
0.0
 40
0.0
 40
0.0
 40
6.597240113651079
 40
13.19498334875555
 40
19.79289399350086
 40
26.39085028637512
 40
39.58692322546909
 40
52.78256910094192
 40
65.97648271186166
 40
72.57402936672393
 40
79.17112207561034
 40
85.76740485831043
 40
92.36227963629236
 40
92.36227963629236
 40
92.36227963629236
 40
92.36227963629236
 10
321.1580360447211
 20
1016.245408269731
 30
0.0
 10
319.7208882611981
 20
1017.909907972661
 30
0.0
 10
316.9581846864118
 20
1021.33564705323
 30
0.0
 10
313.0274616477643
 20
1026.635436519484
 30
0.0
 10
309.2279098796377
 20
1032.029976334388
 30
0.0
 10
304.2599318820164
 20
1039.290350146747
 30
0.0
 10
298.1185164419026
 20
1048.412298563208
 30
0.0
 10
290.5686221054153
 20
1059.235228166955
 30
0.0
 10
283.8979244206299
 20
1067.98599711466
 30
0.0
 10
278.1653326926631
 20
1074.661289487158
 30
0.0
 10
273.6114041587958
 20
1079.439903341382
 30
0.0
 10
268.7412265653062
 20
1083.897089006389
 30
0.0
 10
265.231987044705
 20
1086.563461146329
 30
0.0
 10
263.4032041068737
 20
1087.783313142291
 30
0.0
  0
SPLINE
  5
38D2
330
A
100
AcDbEntity
  8
MODEL
100
AcDbSpline
210
0.0
220
0.0
230
1.0
 70
     8
 71
     7
 72
    31
 73
    23
 74
     0
 42
0.000000001
 43
0.0000000001
 40
0.0
 40
0.0
 40
0.0
 40
0.0
 40
0.0
 40
0.0
 40
0.0
 40
0.0
 40
0.4623079999999999
 40
0.4623079999999999
 40
0.4623079999999999
 40
0.4623079999999999
 40
0.4623079999999999
 40
0.5851999999999999
 40
0.5851999999999999
 40
0.5851999999999999
 40
0.5851999999999999
 40
0.5851999999999999
 40
0.76
 40
0.76
 40
0.76
 40
0.76
 40
0.76
 40
1.0
 40
1.0
 40
1.0
 40
1.0
 40
1.0
 40
1.0
 40
1.0
 40
1.0
 10
263.4032041068737
 20
1087.783313142291
 30
0.0
 10
262.8682856856054
 20
1088.140119458712
 30
0.0
 10
262.3159578823713
 20
1088.470825903328
 30
0.0
 10
261.7447012977814
 20
1088.77111096918
 30
0.0
 10
261.1463929034458
 20
1089.017075501494
 30
0.0
 10
260.5332128379401
 20
1089.222076245866
 30
0.0
 10
259.6932346432611
 20
1089.339167486434
 30
0.0
 10
258.8972510348127
 20
1089.157796310521
 30
0.0
 10
258.7334852654482
 20
1089.105281802583
 30
0.0
 10
258.574982919216
 20
1089.037287316075
 30
0.0
 10
258.4243245245622
 20
1088.95353915741
 30
0.0
 10
258.0830454708071
 20
1088.715653146724
 30
0.0
 10
257.8051885106493
 20
1088.403365714757
 30
0.0
 10
257.6669600545453
 20
1088.199441819113
 30
0.0
 10
257.5526823419592
 20
1087.982668781671
 30
0.0
 10
257.4585403583648
 20
1087.75720401756
 30
0.0
 10
257.2770418901516
 20
1087.208302121171
 30
0.0
 10
257.1812996839095
 20
1086.637073248882
 30
0.0
 10
257.1484469736048
 20
1086.303955322217
 30
0.0
 10
257.1335901258377
 20
1085.969767935373
 30
0.0
 10
257.133864481121
 20
1085.63555603963
 30
0.0
 10
257.1469620539452
 20
1085.301824045001
 30
0.0
 10
257.1711658165102
 20
1084.968899475248
 30
0.0
  0
SPLINE
  5
38D3
330
A
100
AcDbEntity
  8
MODEL
100
AcDbSpline
210
0.0
220
0.0
230
1.0
 70
     8
 71
     3
 72
    56
 73
    52
 74
     0
 42
0.000000001
 43
0.0000000001
 40
0.0
 40
0.0
 40
0.0
 40
0.0
 40
35.88738734052286
 40
71.77421362255994
 40
89.71781711524976
 40
107.6614023798754
 40
125.6049710681722
 40
143.5485480228303
 40
148.0344256469535
 40
152.5203723438928
 40
157.0053122830147
 40
161.4819259648299
 40
163.7152122868738
 40
165.9450984853857
 40
171.5090404126902
 40
175.9526955392757
 40
184.8272063152644
 40
193.6897613732757
 40
209.1856668093757
 40
218.722122192488
 40
231.7353130028951
 40
238.7425285223414
 40
253.7593762816062
 40
274.7869318657818
 40
294.0219427069681
 40
312.6366862627567
 40
331.2511190142286
 40
342.4501551556688
 40
349.3638704848269
 40
361.4622188309606
 40
368.3753120431876
 40
380.4730355057495
 40
387.386073048721
 40
399.3041990591474
 40
403.5558712267014
 40
406.1069111683402
 40
412.909810143204
 40
417.1616999991991
 40
421.413624242113
 40
423.9647848320604
 40
429.0670912497269
 40
431.6182264272643
 40
434.1693417725607
 40
435.8700714634447
 40
437.5707877923179
 40
438.4211402127173
 40
439.2714887726663
 40
440.1218328319858
 40
440.9721713592456
 40
441.8225043779106
 40
442.6728319264473
 40
442.6728319264473
 40
442.6728319264473
 40
442.6728319264473
 10
607.1069520951811
 20
1089.254055440249
 30
0.0
 10
595.1444963321507
 20
1089.254060498469
 30
0.0
 10
571.2197478512995
 20
1089.249412691159
 30
0.0
 10
541.3142387433787
 20
1089.252733025088
 30
0.0
 10
517.3904205501191
 20
1089.255022790855
 30
0.0
 10
499.4477985045111
 20
1089.257265259663
 30
0.0
 10
481.5055643018883
 20
1089.259896331112
 30
0.0
 10
468.049254632943
 20
1089.261985426039
 30
0.0
 10
459.0785102679462
 20
1089.263592849471
 30
0.0
 10
454.5934799533667
 20
1089.264418068374
 30
0.0
 10
450.1115689417881
 20
1089.265248099387
 30
0.0
 10
446.3805441483152
 20
1089.26538952074
 30
0.0
 10
443.4014135429921
 20
1089.265098563899
 30
0.0
 10
440.0603707826909
 20
1089.264589717291
 30
0.0
 10
435.9841694274388
 20
1089.264097971125
 30
0.0
 10
429.7003499443259
 20
1089.263429960605
 30
0.0
 10
422.3326056438551
 20
1089.26083847427
 30
0.0
 10
411.3452922245658
 20
1089.253906152378
 30
0.0
 10
400.2498179115524
 20
1089.246124645965
 30
0.0
 10
388.0037601072497
 20
1089.237854781474
 30
0.0
 10
378.6696802827524
 20
1089.232203908115
 30
0.0
 10
367.8399387881606
 20
1089.226566939742
 30
0.0
 10
354.8822423960762
 20
1089.221125491867
 30
0.0
 10
339.1111111855814
 20
1089.217169643973
 30
0.0
 10
323.5424420362784
 20
1089.215847333762
 30
0.0
 10
309.8687858043729
 20
1089.216555181976
 30
0.0
 10
299.3186414669642
 20
1089.218464837094
 30
0.0
 10
292.1020855600314
 20
1089.220590093644
 30
0.0
 10
286.5777083904782
 20
1089.222650774904
 30
0.0
 10
282.2185952581154
 20
1089.22468630618
 30
0.0
 10
277.4659942480599
 20
1089.227412203081
 30
0.0
 10
273.9127085185052
 20
1089.229899109482
 30
0.0
 10
270.1742254349106
 20
1089.233034612201
 30
0.0
 10
267.7594921787555
 20
1089.235451186288
 30
0.0
 10
266.0673077864654
 20
1089.237399986463
 30
0.0
 10
264.9193573898979
 20
1089.238804989342
 30
0.0
 10
263.8841269348873
 20
1089.240188170224
 30
0.0
 10
262.8705765490473
 20
1089.241695988364
 30
0.0
 10
262.2228167773815
 20
1089.242752677231
 30
0.0
 10
261.5982903054706
 20
1089.243858192058
 30
0.0
 10
261.1333045696398
 20
1089.244772758821
 30
0.0
 10
260.7393666845915
 20
1089.245649466495
 30
0.0
 10
260.5084322958742
 20
1089.246216035611
 30
0.0
 10
260.3292795681942
 20
1089.246698897879
 30
0.0
 10
260.2148191558832
 20
1089.247034821627
 30
0.0
 10
260.131320847681
 20
1089.2472986639
 30
0.0
 10
260.0719091822053
 20
1089.24749503778
 30
0.0
 10
260.0193127534972
 20
1089.247685308296
 30
0.0
 10
259.962104607856
 20
1089.247878967416
 30
0.0
 10
259.9402463562243
 20
1089.248049418354
 30
0.0
 10
259.8503011147283
 20
1089.248212090989
 30
0.0
 10
259.8787657074159
 20
1089.248245588708
 30
0.0
  0
LINE
  5
38D5
330
A
100
AcDbEntity
  8
MODEL
100
AcDbLine
 10
326.8937582520908
 20
939.2766693811575
 30
0.0
 11
326.785102907476
 21
939.2781653855493
 31
0.0
  0
SPLINE
  5
3961
330
A
100
AcDbEntity
  8
MODEL
100
AcDbSpline
210
0.0
220
0.0
230
1.0
 70
     8
 71
     3
 72
    58
 73
    54
 74
     0
 42
0.000000001
 43
0.0000000001
 40
0.0
 40
0.0
 40
0.0
 40
0.0
 40
35.89680385633788
 40
71.79350747618278
 40
89.74189480251404
 40
107.6902794619374
 40
125.6386618006309
 40
143.5870455125395
 40
148.0741389970946
 40
152.5612365204098
 40
157.0483978379569
 40
161.5357416653743
 40
163.7794587452537
 40
166.0231800807927
 40
171.6325145513346
 40
176.120132606142
 40
187.3395942673683
 40
196.3151011824842
 40
212.0222760711043
 40
221.4610508254066
 40
234.6190850947742
 40
242.7163277836138
 40
256.8865122255307
 40
280.1660421189618
 40
299.0360237771694
 40
317.9060974173293
 40
336.8129910528108
 40
349.0781138584411
 40
356.9627975226474
 40
369.2279397884527
 40
376.2366370983052
 40
388.5018580192029
 40
395.4408982394023
 40
403.2003001222337
 40
407.5110782977976
 40
411.821856247819
 40
414.4083245016604
 40
422.1677386662003
 40
426.4785270157565
 40
430.7893136788244
 40
432.5136274202379
 40
434.2379405509111
 40
439.4108766191413
 40
442.8594989763944
 40
445.4459657834224
 40
447.453830660635
 40
448.5995400210396
 40
449.7452496247931
 40
450.890959488811
 40
452.0366696135002
 40
453.1823799791988
 40
454.3280905423953
 40
455.4738012317272
 40
455.4738012317272
 40
455.4738012317272
 40
455.4738012317272
 10
607.1069183064996
 20
2266.464511142583
 30
0.0
 10
595.1413237065302
 20
2266.464512659782
 30
0.0
 10
571.2101439352213
 20
2266.418928025655
 30
0.0
 10
541.2966090669019
 20
2266.249418482158
 30
0.0
 10
517.3663042610518
 20
2266.045829946358
 30
0.0
 10
499.418883521665
 20
2265.859028739958
 30
0.0
 10
481.4718431123059
 20
2265.638693217923
 30
0.0
 10
468.0119216810803
 20
2265.446540571672
 30
0.0
 10
459.0387865262186
 20
2265.308859229925
 30
0.0
 10
454.5522270903042
 20
2265.238056564876
 30
0.0
 10
450.0656159277518
 20
2265.165438698984
 30
0.0
 10
446.3267984148864
 20
2265.098403843955
 30
0.0
 10
443.3360058657439
 20
2265.028750519829
 30
0.0
 10
439.9717533933602
 20
2264.933501730923
 30
0.0
 10
435.8611795222262
 20
2264.77224411904
 30
0.0
 10
428.7672561856401
 20
2264.362875531252
 30
0.0
 10
420.5709593040687
 20
2263.615314375912
 30
0.0
 10
408.7196544124694
 20
2261.929214116952
 30
0.0
 10
397.5776091744796
 20
2259.594254668023
 30
0.0
 10
385.2887562886265
 20
2256.112829314603
 30
0.0
 10
375.6327229195397
 20
2252.709703527495
 30
0.0
 10
364.743994293591
 20
2248.13293243137
 30
0.0
 10
351.1258902485154
 20
2241.394702107214
 30
0.0
 10
335.2082934096711
 20
2231.371049136938
 30
0.0
 10
319.3139916697713
 20
2218.637731839086
 30
0.0
 10
305.8228033593571
 20
2205.392555880022
 30
0.0
 10
295.1433167779563
 20
2192.550883721101
 30
0.0
 10
287.6815925743308
 20
2181.873782282395
 30
0.0
 10
281.9819577847614
 20
2172.691450844191
 30
0.0
 10
277.6323483017935
 20
2164.746266732515
 30
0.0
 10
273.073568139613
 20
2155.270945281402
 30
0.0
 10
269.7019786916956
 20
2147.204701754361
 30
0.0
 10
266.6732828647823
 20
2138.740774103042
 30
0.0
 10
264.7779368400828
 20
2132.692998663329
 30
0.0
 10
263.3162644937859
 20
2127.43156173283
 30
0.0
 10
262.4004682091057
 20
2123.809270166274
 30
0.0
 10
261.2914690067212
 20
2119.051123276221
 30
0.0
 10
260.3156806816281
 20
2114.262906490115
 30
0.0
 10
259.400063700394
 20
2108.879512688179
 30
0.0
 10
258.9010075239443
 20
2105.46694500226
 30
0.0
 10
258.5684547886289
 20
2102.90191121438
 30
0.0
 10
258.2254869406119
 20
2100.048561527542
 30
0.0
 10
257.8776875194548
 20
2096.617179124672
 30
0.0
 10
257.5875512426376
 20
2092.892289245511
 30
0.0
 10
257.4229237683271
 20
2090.216292939935
 30
0.0
 10
257.3292038727909
 20
2088.305219320449
 30
0.0
 10
257.2710894724027
 20
2086.87327950299
 30
0.0
 10
257.2320768636949
 20
2085.728272673885
 30
0.0
 10
257.1988008926804
 20
2084.582873539021
 30
0.0
 10
257.1776921308577
 20
2083.43793403163
 30
0.0
 10
257.1447531308899
 20
2082.290481587987
 30
0.0
 10
257.1895550066278
 20
2081.151818354987
 30
0.0
 10
257.0483988386063
 20
2080.370587746829
 30
0.0
 10
257.1429889266677
 20
2080.000583629871
 30
0.0
  0
SPLINE
  5
3962
330
A
100
AcDbEntity
  8
MODEL
100
AcDbSpline
210
0.0
220
0.0
230
1.0
 70
     8
 71
     3
 72
    58
 73
    54
 74
     0
 42
0.000000001
 43
0.0000000001
 40
0.0
 40
0.0
 40
0.0
 40
0.0
 40
35.89680385633788
 40
71.79350747618278
 40
89.74189480251404
 40
107.6902794619374
 40
125.6386618006309
 40
143.5870455125395
 40
148.0741389970946
 40
152.5612365204098
 40
157.0483978379569
 40
161.5357416653743
 40
163.7794587452537
 40
166.0231800807927
 40
171.6325145513346
 40
176.120132606142
 40
187.3395942673683
 40
196.3151011824842
 40
212.0222760711043
 40
221.4610508254066
 40
234.6190850947742
 40
242.7163277836138
 40
256.8865122255307
 40
280.1660421189618
 40
299.0360237771694
 40
317.9060974173293
 40
336.8129910528108
 40
349.0781138584411
 40
356.9627975226474
 40
369.2279397884527
 40
376.2366370983052
 40
388.5018580192029
 40
395.4408982394023
 40
403.2003001222337
 40
407.5110782977976
 40
411.821856247819
 40
414.4083245016604
 40
422.1677386662003
 40
426.4785270157565
 40
430.7893136788244
 40
432.5136274202379
 40
434.2379405509111
 40
439.4108766191413
 40
442.8594989763944
 40
445.4459657834224
 40
447.453830660635
 40
448.5995400210396
 40
449.7452496247931
 40
450.890959488811
 40
452.0366696135002
 40
453.1823799791988
 40
454.3280905423953
 40
455.4738012317272
 40
455.4738012317272
 40
455.4738012317272
 40
455.4738012317272
 10
607.1069183064996
 20
2266.464511142583
 30
0.0
 10
619.0725129064689
 20
2266.464512659782
 30
0.0
 10
643.0036926777778
 20
2266.418928025655
 30
0.0
 10
672.9172275460973
 20
2266.249418482158
 30
0.0
 10
696.8475323519546
 20
2266.045829946358
 30
0.0
 10
714.7949530913342
 20
2265.859028739958
 30
0.0
 10
732.7419935006932
 20
2265.638693217923
 30
0.0
 10
746.2019149319189
 20
2265.446540571672
 30
0.0
 10
755.1750500867878
 20
2265.308859229925
 30
0.0
 10
759.6616095226949
 20
2265.238056564876
 30
0.0
 10
764.1482206852546
 20
2265.165438698984
 30
0.0
 10
767.88703819812
 20
2265.098403843955
 30
0.0
 10
770.8778307472552
 20
2265.028750519829
 30
0.0
 10
774.2420832196389
 20
2264.933501730923
 30
0.0
 10
778.3526570907728
 20
2264.77224411904
 30
0.0
 10
785.4465804273663
 20
2264.362875531252
 30
0.0
 10
793.6428773089305
 20
2263.615314375912
 30
0.0
 10
805.4941822005297
 20
2261.929214116952
 30
0.0
 10
816.6362274385195
 20
2259.594254668023
 30
0.0
 10
828.9250803243725
 20
2256.112829314603
 30
0.0
 10
838.5811136934666
 20
2252.709703527495
 30
0.0
 10
849.469842319408
 20
2248.13293243137
 30
0.0
 10
863.0879463644909
 20
2241.394702107214
 30
0.0
 10
879.0055432033281
 20
2231.371049136938
 30
0.0
 10
894.8998449432278
 20
2218.637731839086
 30
0.0
 10
908.3910332536419
 20
2205.392555880022
 30
0.0
 10
919.0705198350428
 20
2192.550883721101
 30
0.0
 10
926.5322440386684
 20
2181.873782282395
 30
0.0
 10
932.2318788282377
 20
2172.691450844191
 30
0.0
 10
936.5814883112128
 20
2164.746266732515
 30
0.0
 10
941.1402684733857
 20
2155.270945281402
 30
0.0
 10
944.5118579213107
 20
2147.204701754361
 30
0.0
 10
947.5405537482237
 20
2138.740774103042
 30
0.0
 10
949.4358997729167
 20
2132.692998663329
 30
0.0
 10
950.8975721192128
 20
2127.43156173283
 30
0.0
 10
951.8133684038937
 20
2123.809270166274
 30
0.0
 10
952.9223676062777
 20
2119.051123276221
 30
0.0
 10
953.8981559313708
 20
2114.262906490115
 30
0.0
 10
954.8137729126047
 20
2108.879512688179
 30
0.0
 10
955.3128290890547
 20
2105.46694500226
 30
0.0
 10
955.6453818243707
 20
2102.90191121438
 30
0.0
 10
955.9883496723877
 20
2100.048561527542
 30
0.0
 10
956.3361490935517
 20
2096.617179124672
 30
0.0
 10
956.6262853703618
 20
2092.892289245511
 30
0.0
 10
956.7909128446797
 20
2090.216292939935
 30
0.0
 10
956.8846327402088
 20
2088.305219320449
 30
0.0
 10
956.9427471405968
 20
2086.87327950299
 30
0.0
 10
956.9817597493037
 20
2085.728272673885
 30
0.0
 10
957.0150357203188
 20
2084.582873539021
 30
0.0
 10
957.0361444821417
 20
2083.43793403163
 30
0.0
 10
957.0690834821097
 20
2082.290481587987
 30
0.0
 10
957.0242816063717
 20
2081.151818354987
 30
0.0
 10
957.1654377743997
 20
2080.370587746829
 30
0.0
 10
957.0708476863317
 20
2080.000583629871
 30
0.0
  0
SPLINE
  5
3963
330
A
100
AcDbEntity
  8
MODEL
100
AcDbSpline
210
0.0
220
0.0
230
1.0
 70
     8
 71
     3
 72
    58
 73
    54
 74
     0
 42
0.000000001
 43
0.0000000001
 40
0.0
 40
0.0
 40
0.0
 40
0.0
 40
35.89680385633788
 40
71.79350747618278
 40
89.74189480251404
 40
107.6902794619374
 40
125.6386618006309
 40
143.5870455125395
 40
148.0741389970946
 40
152.5612365204098
 40
157.0483978379569
 40
161.5357416653743
 40
163.7794587452537
 40
166.0231800807927
 40
171.6325145513346
 40
176.120132606142
 40
187.3395942673683
 40
196.3151011824842
 40
212.0222760711043
 40
221.4610508254066
 40
234.6190850947742
 40
242.7163277836138
 40
256.8865122255307
 40
280.1660421189618
 40
299.0360237771694
 40
317.9060974173293
 40
336.8129910528108
 40
349.0781138584411
 40
356.9627975226474
 40
369.2279397884527
 40
376.2366370983052
 40
388.5018580192029
 40
395.4408982394023
 40
403.2003001222337
 40
407.5110782977976
 40
411.821856247819
 40
414.4083245016604
 40
422.1677386662003
 40
426.4785270157565
 40
430.7893136788244
 40
432.5136274202379
 40
434.2379405509111
 40
439.4108766191413
 40
442.8594989763944
 40
445.4459657834224
 40
447.453830660635
 40
448.5995400210396
 40
449.7452496247931
 40
450.890959488811
 40
452.0366696135002
 40
453.1823799791988
 40
454.3280905423953
 40
455.4738012317272
 40
455.4738012317272
 40
455.4738012317272
 40
455.4738012317272
 10
607.1069183064996
 20
1893.536661007364
 30
0.0
 10
595.1413237065302
 20
1893.536659490165
 30
0.0
 10
571.2101439352213
 20
1893.582244124294
 30
0.0
 10
541.2966090669019
 20
1893.751753667789
 30
0.0
 10
517.3663042610518
 20
1893.955342203589
 30
0.0
 10
499.418883521665
 20
1894.142143409988
 30
0.0
 10
481.4718431123059
 20
1894.362478932024
 30
0.0
 10
468.0119216810803
 20
1894.554631578274
 30
0.0
 10
459.0387865262186
 20
1894.692312920022
 30
0.0
 10
454.5522270903042
 20
1894.76311558507
 30
0.0
 10
450.0656159277518
 20
1894.835733450961
 30
0.0
 10
446.3267984148864
 20
1894.902768305992
 30
0.0
 10
443.3360058657439
 20
1894.972421630117
 30
0.0
 10
439.9717533933602
 20
1895.067670419025
 30
0.0
 10
435.8611795222262
 20
1895.228928030906
 30
0.0
 10
428.7672561856401
 20
1895.638296618693
 30
0.0
 10
420.5709593040687
 20
1896.385857774035
 30
0.0
 10
408.7196544124694
 20
1898.071958032996
 30
0.0
 10
397.5776091744796
 20
1900.406917481924
 30
0.0
 10
385.2887562886265
 20
1903.888342835344
 30
0.0
 10
375.6327229195397
 20
1907.291468622452
 30
0.0
 10
364.743994293591
 20
1911.868239718578
 30
0.0
 10
351.1258902485154
 20
1918.606470042733
 30
0.0
 10
335.2082934096711
 20
1928.630123013008
 30
0.0
 10
319.3139916697713
 20
1941.363440310859
 30
0.0
 10
305.8228033593571
 20
1954.608616269924
 30
0.0
 10
295.1433167779563
 20
1967.450288428844
 30
0.0
 10
287.6815925743308
 20
1978.12738986755
 30
0.0
 10
281.9819577847614
 20
1987.309721305755
 30
0.0
 10
277.6323483017935
 20
1995.254905417431
 30
0.0
 10
273.073568139613
 20
2004.730226868543
 30
0.0
 10
269.7019786916956
 20
2012.796470395584
 30
0.0
 10
266.6732828647823
 20
2021.260398046905
 30
0.0
 10
264.7779368400828
 20
2027.308173486618
 30
0.0
 10
263.3162644937859
 20
2032.569610417117
 30
0.0
 10
262.4004682091057
 20
2036.191901983673
 30
0.0
 10
261.2914690067212
 20
2040.950048873724
 30
0.0
 10
260.3156806816281
 20
2045.738265659832
 30
0.0
 10
259.400063700394
 20
2051.121659461769
 30
0.0
 10
258.9010075239443
 20
2054.534227147687
 30
0.0
 10
258.5684547886289
 20
2057.099260935567
 30
0.0
 10
258.2254869406119
 20
2059.952610622406
 30
0.0
 10
257.8776875194548
 20
2063.383993025275
 30
0.0
 10
257.5875512426376
 20
2067.108882904436
 30
0.0
 10
257.4229237683271
 20
2069.784879210012
 30
0.0
 10
257.3292038727909
 20
2071.695952829497
 30
0.0
 10
257.2710894724027
 20
2073.127892646958
 30
0.0
 10
257.2320768636949
 20
2074.272899476061
 30
0.0
 10
257.1988008926804
 20
2075.418298610925
 30
0.0
 10
257.1776921308577
 20
2076.563238118315
 30
0.0
 10
257.1447531308899
 20
2077.710690561959
 30
0.0
 10
257.1895550066278
 20
2078.849353794958
 30
0.0
 10
257.0483988386063
 20
2079.630584403118
 30
0.0
 10
257.1429889266677
 20
2080.000588520074
 30
0.0
  0
SPLINE
  5
3964
330
A
100
AcDbEntity
  8
MODEL
100
AcDbSpline
210
0.0
220
0.0
230
1.0
 70
     8
 71
     3
 72
    58
 73
    54
 74
     0
 42
0.000000001
 43
0.0000000001
 40
0.0
 40
0.0
 40
0.0
 40
0.0
 40
35.89680385633788
 40
71.79350747618278
 40
89.74189480251404
 40
107.6902794619374
 40
125.6386618006309
 40
143.5870455125395
 40
148.0741389970946
 40
152.5612365204098
 40
157.0483978379569
 40
161.5357416653743
 40
163.7794587452537
 40
166.0231800807927
 40
171.6325145513346
 40
176.120132606142
 40
187.3395942673683
 40
196.3151011824842
 40
212.0222760711043
 40
221.4610508254066
 40
234.6190850947742
 40
242.7163277836138
 40
256.8865122255307
 40
280.1660421189618
 40
299.0360237771694
 40
317.9060974173293
 40
336.8129910528108
 40
349.0781138584411
 40
356.9627975226474
 40
369.2279397884527
 40
376.2366370983052
 40
388.5018580192029
 40
395.4408982394023
 40
403.2003001222337
 40
407.5110782977976
 40
411.821856247819
 40
414.4083245016604
 40
422.1677386662003
 40
426.4785270157565
 40
430.7893136788244
 40
432.5136274202379
 40
434.2379405509111
 40
439.4108766191413
 40
442.8594989763944
 40
445.4459657834224
 40
447.453830660635
 40
448.5995400210396
 40
449.7452496247931
 40
450.890959488811
 40
452.0366696135002
 40
453.1823799791988
 40
454.3280905423953
 40
455.4738012317272
 40
455.4738012317272
 40
455.4738012317272
 40
455.4738012317272
 10
607.1069183064996
 20
1893.536661007364
 30
0.0
 10
619.0725129064689
 20
1893.536659490165
 30
0.0
 10
643.0036926777778
 20
1893.582244124294
 30
0.0
 10
672.9172275460973
 20
1893.751753667789
 30
0.0
 10
696.8475323519546
 20
1893.955342203589
 30
0.0
 10
714.7949530913342
 20
1894.142143409988
 30
0.0
 10
732.7419935006932
 20
1894.362478932024
 30
0.0
 10
746.2019149319189
 20
1894.554631578274
 30
0.0
 10
755.1750500867878
 20
1894.692312920022
 30
0.0
 10
759.6616095226949
 20
1894.76311558507
 30
0.0
 10
764.1482206852546
 20
1894.835733450961
 30
0.0
 10
767.88703819812
 20
1894.902768305992
 30
0.0
 10
770.8778307472552
 20
1894.972421630117
 30
0.0
 10
774.2420832196389
 20
1895.067670419025
 30
0.0
 10
778.3526570907728
 20
1895.228928030906
 30
0.0
 10
785.4465804273663
 20
1895.638296618693
 30
0.0
 10
793.6428773089305
 20
1896.385857774035
 30
0.0
 10
805.4941822005297
 20
1898.071958032996
 30
0.0
 10
816.6362274385195
 20
1900.406917481924
 30
0.0
 10
828.9250803243725
 20
1903.888342835344
 30
0.0
 10
838.5811136934666
 20
1907.291468622452
 30
0.0
 10
849.469842319408
 20
1911.868239718578
 30
0.0
 10
863.0879463644909
 20
1918.606470042733
 30
0.0
 10
879.0055432033281
 20
1928.630123013008
 30
0.0
 10
894.8998449432278
 20
1941.363440310859
 30
0.0
 10
908.3910332536419
 20
1954.608616269924
 30
0.0
 10
919.0705198350428
 20
1967.450288428844
 30
0.0
 10
926.5322440386684
 20
1978.12738986755
 30
0.0
 10
932.2318788282377
 20
1987.309721305755
 30
0.0
 10
936.5814883112128
 20
1995.254905417431
 30
0.0
 10
941.1402684733857
 20
2004.730226868543
 30
0.0
 10
944.5118579213107
 20
2012.796470395584
 30
0.0
 10
947.5405537482237
 20
2021.260398046905
 30
0.0
 10
949.4358997729167
 20
2027.308173486618
 30
0.0
 10
950.8975721192128
 20
2032.569610417117
 30
0.0
 10
951.8133684038937
 20
2036.191901983673
 30
0.0
 10
952.9223676062777
 20
2040.950048873724
 30
0.0
 10
953.8981559313708
 20
2045.738265659832
 30
0.0
 10
954.8137729126047
 20
2051.121659461769
 30
0.0
 10
955.3128290890547
 20
2054.534227147687
 30
0.0
 10
955.6453818243707
 20
2057.099260935567
 30
0.0
 10
955.9883496723877
 20
2059.952610622406
 30
0.0
 10
956.3361490935517
 20
2063.383993025275
 30
0.0
 10
956.6262853703618
 20
2067.108882904436
 30
0.0
 10
956.7909128446797
 20
2069.784879210012
 30
0.0
 10
956.8846327402088
 20
2071.695952829497
 30
0.0
 10
956.9427471405968
 20
2073.127892646958
 30
0.0
 10
956.9817597493037
 20
2074.272899476061
 30
0.0
 10
957.0150357203188
 20
2075.418298610925
 30
0.0
 10
957.0361444821417
 20
2076.563238118315
 30
0.0
 10
957.0690834821097
 20
2077.710690561959
 30
0.0
 10
957.0242816063717
 20
2078.849353794958
 30
0.0
 10
957.1654377743997
 20
2079.630584403118
 30
0.0
 10
957.0708476863317
 20
2080.000588520074
 30
0.0
  0
CIRCLE
  5
3965
330
A
100
AcDbEntity
  8
MODEL
100
AcDbCircle
 10
607.1069183064996
 20
2080.000586074973
 30
0.0
 40
40.93091461041922
  0
CIRCLE
  5
3966
330
A
100
AcDbEntity
  8
MODEL
100
AcDbCircle
 10
607.1069183064996
 20
2080.000586074973
 30
0.0
 40
23.13991284896815
  0
CIRCLE
  5
3967
330
A
100
AcDbEntity
  8
MODEL
100
AcDbCircle
 10
607.1069183064996
 20
2080.000586074973
 30
0.0
 40
21.95328793119563
  0
CIRCLE
  5
3968
330
A
100
AcDbEntity
  8
MODEL
100
AcDbCircle
 10
607.1069183064996
 20
2080.000586074973
 30
0.0
 40
21.9528310166648
  0
SOLID
  5
3DFA
330
A
100
AcDbEntity
  8
MODEL
100
AcDbTrace
 10
1791.428269600415
 20
1014.352499423067
 30
0.0
 11
1796.418987161836
 21
1014.352499423067
 31
0.0
 12
1796.418985119727
 22
1014.352499204912
 32
0.0
 13
1796.418985119727
 23
1014.352499204912
 33
0.0
1001
GradientColor1ACI
1070
     5
1001
GradientColor2ACI
1070
     2
1001
ACAD
1010
0.0
1020
0.0
1030
0.0
  0
SOLID
  5
4079
330
A
100
AcDbEntity
  8
MODEL
100
AcDbTrace
 10
1736.677907173775
 20
939.2712118874391
 30
0.0
 11
1742.962171879971
 21
939.2712118874391
 31
0.0
 12
1742.962169144605
 22
939.2712116127499
 32
0.0
 13
1742.962169144605
 23
939.2712116127499
 33
0.0
1001
GradientColor1ACI
1070
     5
1001
GradientColor2ACI
1070
     2
1001
ACAD
1010
0.0
1020
0.0
1030
0.0
  0
SOLID
  5
408A
330
A
100
AcDbEntity
  8
MODEL
100
AcDbTrace
 10
1718.324331332848
 20
938.2712126897007
 30
0.0
 11
1722.842049681507
 21
938.2712126897007
 31
0.0
 12
1722.842047701995
 22
938.271212492224
 32
0.0
 13
1722.842047701995
 23
938.271212492224
 33
0.0
1001
GradientColor1ACI
1070
     5
1001
GradientColor2ACI
1070
     2
1001
ACAD
1010
0.0
1020
0.0
1030
0.0
  0
LINE
  5
47A1
330
A
100
AcDbEntity
  8
MODEL
100
AcDbLine
 10
351.5246145294029
 20
938.2766693610349
 30
0.0
 11
607.1069520951816
 21
938.2766693610356
 31
0.0
  0
LINE
  5
47A3
330
A
100
AcDbEntity
  8
MODEL
100
AcDbLine
 10
585.2069521190302
 20
942.3417979803774
 30
0.0
 11
607.1069520951811
 21
942.3417979803774
 31
0.0
  0
SPLINE
  5
47A5
330
A
100
AcDbEntity
  8
MODEL
100
AcDbSpline
210
0.0
220
0.0
230
1.0
 70
     8
 71
     3
 72
    75
 73
    71
 74
     0
 42
0.000000001
 43
0.0000000001
 40
0.0
 40
0.0
 40
0.0
 40
0.0
 40
1.029394116396146
 40
2.058731718118252
 40
3.087955924898786
 40
4.117009346922286
 40
5.145834088504272
 40
6.174371798258775
 40
7.20256378074094
 40
8.230351185265231
 40
9.257675286869306
 40
10.28447787155037
 40
11.31070173251655
 40
12.33629127623831
 40
13.36119322702418
 40
14.38535740767579
 40
15.4087375629216
 40
16.43129218342196
 40
17.45298528272187
 40
18.47378707873376
 40
19.49367453563742
 40
20.51263173122636
 40
21.5306500294057
 40
22.54772804511543
 40
23.56387139792443
 40
24.57909228253569
 40
25.59340885990478
 40
26.60684455924189
 40
27.61942734270449
 40
28.63118879460552
 40
29.64216372397023
 40
30.65238852093995
 40
31.66189571159234
 40
32.67073335361698
 40
33.67894588409523
 40
34.68656744482556
 40
35.6936296737271
 40
36.70016279447879
 40
37.70619633836471
 40
38.71175932032667
 40
39.71688025608974
 40
40.72158709453223
 40
41.7259071199359
 40
42.72986685906244
 40
43.73349200731927
 40
44.73680737828728
 40
45.73983687598346
 40
46.74260348660135
 40
47.74512928414014
 40
48.74743544351533
 40
49.74954225536275
 40
50.75146913736659
 40
51.75323463801619
 40
52.75485643013403
 40
53.75635129327473
 40
54.75773508617188
 40
55.75902271258172
 40
56.76022808552495
 40
57.76136409473656
 40
58.7624425797021
 40
59.76347430872238
 40
60.76446896340603
 40
61.76543512747011
 40
62.76638027851516
 40
63.76731078141675
 40
64.76823188207527
 40
65.76914770062723
 40
66.77006122383698
 40
67.77097429749104
 40
68.77188762202108
 40
68.77188762202108
 40
68.77188762202108
 40
68.77188762202108
 10
607.106952095182
 20
964.0052906048543
 30
0.0
 10
607.3634186496162
 20
964.0052895842912
 30
0.0
 10
607.8763377200045
 20
964.0052875434801
 30
0.0
 10
608.6453113323474
 20
964.0052570856744
 30
0.0
 10
609.4134601216825
 20
964.005195006014
 30
0.0
 10
610.180371631595
 20
964.0050985577238
 30
0.0
 10
610.9456346115145
 20
964.0049718712751
 30
0.0
 10
611.7088398484808
 20
964.0048237428839
 30
0.0
 10
612.4695808475841
 20
964.0046671615939
 30
0.0
 10
613.227454341784
 20
964.0045181366806
 30
0.0
 10
613.9820606117243
 20
964.0043945568721
 30
0.0
 10
614.7330036144446
 20
964.004314971625
 30
0.0
 10
615.4798909337948
 20
964.0042974127393
 30
0.0
 10
616.2223335792547
 20
964.0043583103959
 30
0.0
 10
616.9599456711545
 20
964.0045115658384
 30
0.0
 10
617.6923440580609
 20
964.004767826131
 30
0.0
 10
618.4191479156467
 20
964.0051339918507
 30
0.0
 10
619.1399783753837
 20
964.0056129705674
 30
0.0
 10
619.8544582258725
 20
964.0062036712309
 30
0.0
 10
620.5622117205309
 20
964.006901217889
 30
0.0
 10
621.2628645142573
 20
964.0076973492071
 30
0.0
 10
621.9560437387805
 20
964.0085809575628
 30
0.0
 10
622.6413782190972
 20
964.0095387375238
 30
0.0
 10
623.318498833232
 20
964.0105559196916
 30
0.0
 10
623.9870389585009
 20
964.0116169448559
 30
0.0
 10
624.6466350325387
 20
964.0127062009722
 30
0.0
 10
625.2969270760401
 20
964.0138084746911
 30
0.0
 10
625.9375592747125
 20
964.0149093984066
 30
0.0
 10
626.5681804890515
 20
964.0159959294622
 30
0.0
 10
627.1884458362944
 20
964.0170577281212
 30
0.0
 10
627.7980123560297
 20
964.0180805970447
 30
0.0
 10
628.396561789417
 20
964.0190829928217
 30
0.0
 10
628.9837183866654
 20
964.0199757339071
 30
0.0
 10
629.5591834308249
 20
964.0208002974384
 30
0.0
 10
630.1226849689298
 20
964.0216117386374
 30
0.0
 10
630.6739214231235
 20
964.0224067655261
 30
0.0
 10
631.2126001235189
 20
964.023189251541
 30
0.0
 10
631.7384294857508
 20
964.0239551337161
 30
0.0
 10
632.2511244688245
 20
964.0247006941661
 30
0.0
 10
632.7504064501805
 20
964.0254217443128
 30
0.0
 10
633.2360041627577
 20
964.0261146559221
 30
0.0
 10
633.7076540432132
 20
964.0267764816956
 30
0.0
 10
634.1651004926349
 20
964.0274050134224
 30
0.0
 10
634.6080960203723
 20
964.02799870899
 30
0.0
 10
635.0364013388931
 20
964.0285565870474
 30
0.0
 10
635.4497854264733
 20
964.029078105674
 30
0.0
 10
635.8480255751016
 20
964.0295630447083
 30
0.0
 10
636.2309074428155
 20
964.030011410571
 30
0.0
 10
636.5982251241545
 20
964.0304233744012
 30
0.0
 10
636.9497812389051
 20
964.0307992397604
 30
0.0
 10
637.2853870430296
 20
964.031139441083
 30
0.0
 10
637.6048625599393
 20
964.031444568401
 30
0.0
 10
637.9080367272433
 20
964.0317154116085
 30
0.0
 10
638.1947475505109
 20
964.0319530149643
 30
0.0
 10
638.4648422518036
 20
964.0321587296041
 30
0.0
 10
638.7181773962253
 20
964.0323342483146
 30
0.0
 10
638.9546189789431
 20
964.0324816073405
 30
0.0
 10
639.1740424551641
 20
964.0326031403181
 30
0.0
 10
639.3763327330995
 20
964.032701406388
 30
0.0
 10
639.5613841464834
 20
964.0327791086713
 30
0.0
 10
639.7291004161558
 20
964.0328390116094
 30
0.0
 10
639.8793946067923
 20
964.0328838620328
 30
0.0
 10
640.0121890827901
 20
964.0329163166682
 30
0.0
 10
640.1274154656018
 20
964.03293887728
 30
0.0
 10
640.2250145949471
 20
964.0329538346243
 30
0.0
 10
640.3049364909417
 20
964.0329632176911
 30
0.0
 10
640.3671403326767
 20
964.032968761948
 30
0.0
 10
640.4115943738321
 20
964.0329718215532
 30
0.0
 10
640.4382760735494
 20
964.0329734862796
 30
0.0
 10
640.4442062441409
 20
964.0329737338063
 30
0.0
 10
640.4442063641869
 20
964.0329738575699
 30
0.0
  0
SPLINE
  5
47A6
330
A
100
AcDbEntity
  8
MODEL
100
AcDbSpline
210
0.0
220
0.0
230
1.0
 70
     8
 71
     3
 72
    75
 73
    71
 74
     0
 42
0.000000001
 43
0.0000000001
 40
0.0
 40
0.0
 40
0.0
 40
0.0
 40
1.029394116396146
 40
2.058731718118252
 40
3.087955924898786
 40
4.117009346922286
 40
5.145834088504272
 40
6.174371798258775
 40
7.20256378074094
 40
8.230351185265231
 40
9.257675286869306
 40
10.28447787155037
 40
11.31070173251655
 40
12.33629127623831
 40
13.36119322702418
 40
14.38535740767579
 40
15.4087375629216
 40
16.43129218342196
 40
17.45298528272187
 40
18.47378707873376
 40
19.49367453563742
 40
20.51263173122636
 40
21.5306500294057
 40
22.54772804511543
 40
23.56387139792443
 40
24.57909228253569
 40
25.59340885990478
 40
26.60684455924189
 40
27.61942734270449
 40
28.63118879460552
 40
29.64216372397023
 40
30.65238852093995
 40
31.66189571159234
 40
32.67073335361698
 40
33.67894588409523
 40
34.68656744482556
 40
35.6936296737271
 40
36.70016279447879
 40
37.70619633836471
 40
38.71175932032667
 40
39.71688025608974
 40
40.72158709453223
 40
41.7259071199359
 40
42.72986685906244
 40
43.73349200731927
 40
44.73680737828728
 40
45.73983687598346
 40
46.74260348660135
 40
47.74512928414014
 40
48.74743544351533
 40
49.74954225536275
 40
50.75146913736659
 40
51.75323463801619
 40
52.75485643013403
 40
53.75635129327473
 40
54.75773508617188
 40
55.75902271258172
 40
56.76022808552495
 40
57.76136409473656
 40
58.7624425797021
 40
59.76347430872238
 40
60.76446896340603
 40
61.76543512747011
 40
62.76638027851516
 40
63.76731078141675
 40
64.76823188207527
 40
65.76914770062723
 40
66.77006122383698
 40
67.77097429749104
 40
68.77188762202108
 40
68.77188762202108
 40
68.77188762202108
 40
68.77188762202108
 10
607.106952095182
 20
968.2803994230746
 30
0.0
 10
607.431183621749
 20
968.2803996713135
 30
0.0
 10
608.0810520366682
 20
968.2800975678836
 30
0.0
 10
609.0542209455485
 20
968.2787247901049
 30
0.0
 10
610.0266981709316
 20
968.2764287956118
 30
0.0
 10
610.9975954977159
 20
968.2732192526785
 30
0.0
 10
611.9665179371037
 20
968.269117248378
 30
0.0
 10
612.9329395816854
 20
968.2641550020014
 30
0.0
 10
613.8963713865193
 20
968.2583748855025
 30
0.0
 10
614.8563166132841
 20
968.2518283802503
 30
0.0
 10
615.8122829402888
 20
968.2445748374969
 30
0.0
 10
616.7637791871199
 20
968.2366801228111
 30
0.0
 10
617.7103159746654
 20
968.2282151743182
 30
0.0
 10
618.651405187618
 20
968.2192545221044
 30
0.0
 10
619.5865596700493
 20
968.2098748126857
 30
0.0
 10
620.5152928364874
 20
968.200153381684
 30
0.0
 10
621.4371183521104
 20
968.1901669135643
 30
0.0
 10
622.3515499056554
 20
968.1799902214336
 30
0.0
 10
623.258101123745
 20
968.1696951725046
 30
0.0
 10
624.1562856532797
 20
968.15934977647
 30
0.0
 10
625.0456174267489
 20
968.1490174454627
 30
0.0
 10
625.925611108945
 20
968.1387564255581
 30
0.0
 10
626.7957827162642
 20
968.1286193950098
 30
0.0
 10
627.6556503973803
 20
968.1186532401632
 30
0.0
 10
628.5047352948637
 20
968.108898976531
 30
0.0
 10
629.3425625144479
 20
968.0993918340357
 30
0.0
 10
630.168662005755
 20
968.0901614309753
 30
0.0
 10
630.9825694753705
 20
968.0812320514203
 30
0.0
 10
631.7838272231635
 20
968.0726227692705
 30
0.0
 10
632.5719860136338
 20
968.0643491255553
 30
0.0
 10
633.3466004072212
 20
968.0564190119183
 30
0.0
 10
634.1072553896262
 20
968.0488486912129
 30
0.0
 10
634.8534656615917
 20
968.0416291076456
 30
0.0
 10
635.5848513139241
 20
968.0347326157764
 30
0.0
 10
636.3010620288948
 20
968.0281559155303
 30
0.0
 10
637.00170904546
 20
968.0218943800194
 30
0.0
 10
637.6864149511345
 20
968.0159452203131
 30
0.0
 10
638.35480392996
 20
968.0103049928223
 30
0.0
 10
639.0065088927328
 20
968.0049696482477
 30
0.0
 10
639.6411713568556
 20
967.9999343311758
 30
0.0
 10
640.2584426689024
 20
967.9951933979776
 30
0.0
 10
640.8579844359007
 20
967.9907405129995
 30
0.0
 10
641.4394688317149
 20
967.986568779492
 30
0.0
 10
642.0025787469309
 20
967.9826708754515
 30
0.0
 10
642.5470078744289
 20
967.9790391804775
 30
0.0
 10
643.0724607554617
 20
967.9756658847639
 30
0.0
 10
643.5786528111818
 20
967.9725430729748
 30
0.0
 10
644.0653103869732
 20
967.9696627771107
 30
0.0
 10
644.5321708273292
 20
967.9670169998647
 30
0.0
 10
644.9789825819786
 20
967.96459770974
 30
0.0
 10
645.4055053477965
 20
967.96239681061
 30
0.0
 10
645.8115102433109
 20
967.9604060904874
 30
0.0
 10
646.1967800077433
 20
967.9586171559315
 30
0.0
 10
646.5611092115975
 20
967.9570213603181
 30
0.0
 10
646.9043044597234
 20
967.9556097366697
 30
0.0
 10
647.2261845618301
 20
967.9543729456889
 30
0.0
 10
647.5265806444401
 20
967.9533012502618
 30
0.0
 10
647.8053361818635
 20
967.9523845139481
 30
0.0
 10
648.0623069749014
 20
967.951612209182
 30
0.0
 10
648.2973611055528
 20
967.9509734275282
 30
0.0
 10
648.5103788631346
 20
967.9504568855407
 30
0.0
 10
648.7012527189978
 20
967.9500509279126
 30
0.0
 10
648.8698871000339
 20
967.9497435081705
 30
0.0
 10
649.0161989179793
 20
967.949522212579
 30
0.0
 10
649.1401152982104
 20
967.9493740785817
 30
0.0
 10
649.2415817877296
 20
967.9492861352162
 30
0.0
 10
649.3205314876355
 20
967.9492432073278
 30
0.0
 10
649.377000013246
 20
967.949235912801
 30
0.0
 10
649.4106961895192
 20
967.9492306154564
 30
0.0
 10
649.4186346064122
 20
967.9492644953764
 30
0.0
 10
649.4183524018478
 20
967.9492447758405
 30
0.0
  0
LINE
  5
47A7
330
A
100
AcDbEntity
  8
MODEL
100
AcDbLine
 10
869.4430660536487
 20
939.2766672074479
 30
0.0
 11
881.0428745713685
 21
939.2766693610349
 31
0.0
  0
LINE
  5
47A8
330
A
100
AcDbEntity
  8
MODEL
100
AcDbLine
 10
935.4443598368558
 20
1014.357959289875
 30
0.0
 11
922.8661386971322
 21
1014.357956531652
 31
0.0
  0
ARC
  5
47A9
330
A
100
AcDbEntity
  8
MODEL
100
AcDbCircle
 10
632.0069532228259
 20
952.0108514217557
 30
0.0
 40
3.000001151496576
100
AcDbArc
 50
133.15239926159
 51
179.9999904722775
  0
LINE
  5
47AA
330
A
100
AcDbEntity
  8
MODEL
100
AcDbLine
 10
629.0069520713329
 20
952.0108519206208
 30
0.0
 11
629.0069520713329
 21
942.3417979803774
 31
0.0
  0
LINE
  5
47AB
330
A
100
AcDbEntity
  8
MODEL
100
AcDbLine
 10
629.9551286846869
 20
954.1994635330409
 30
0.0
 11
640.4442063641869
 21
964.0329738575699
 31
0.0
  0
ARC
  5
47AC
330
A
100
AcDbEntity
  8
MODEL
100
AcDbCircle
 10
650.4376047812071
 20
953.3733488794103
 30
0.0
 40
14.61148919844959
100
AcDbArc
 50
94.00002522346499
 51
133.1523897340506
  0
LINE
  5
47AD
330
A
100
AcDbEntity
  8
MODEL
100
AcDbLine
 10
867.2070056571062
 20
938.2766693610349
 30
0.0
 11
862.6892896609603
 21
938.2766693610349
 31
0.0
  0
ARC
  5
47AE
330
A
100
AcDbEntity
  8
MODEL
100
AcDbCircle
 10
867.2070049918945
 20
941.2766702474985
 30
0.0
 40
3.000000886463394
100
AcDbArc
 50
270.0000127048818
 51
318.1896223504763
  0
LINE
  5
47AF
330
A
100
AcDbEntity
  8
MODEL
100
AcDbLine
 10
935.4443598368558
 20
1014.357959289875
 30
0.0
 11
940.0722783579367
 21
1014.357959289875
 31
0.0
  0
SPLINE
  5
47B0
330
A
100
AcDbEntity
  8
MODEL
100
AcDbSpline
210
0.0
220
0.0
230
1.0
 70
     8
 71
     3
 72
    13
 73
     9
 74
     0
 42
0.000000001
 43
0.0000000001
 40
0.0
 40
0.0
 40
0.0
 40
0.0
 40
8.34169735698127
 40
22.35574163824872
 40
38.87229631054975
 40
57.70222557704344
 40
73.21381779611053
 40
80.30246416311289
 40
80.30246416311289
 40
80.30246416311289
 40
80.30246416311289
 10
890.6937904130642
 20
941.1282250049883
 30
0.0
 10
892.1872020630213
 20
943.4735683598635
 30
0.0
 10
896.0907272705841
 20
949.8226199624289
 30
0.0
 10
902.4065159113121
 20
961.1416819756889
 30
0.0
 10
909.5816635403277
 20
975.9573335909101
 30
0.0
 10
915.9287087126391
 20
991.6890562888709
 30
0.0
 10
920.2351997530005
 20
1004.816999435622
 30
0.0
 10
922.2625208278347
 20
1012.073524994753
 30
0.0
 10
922.8661379683236
 20
1014.357956531651
 30
0.0
  0
LINE
  5
47B1
330
A
100
AcDbEntity
  8
MODEL
100
AcDbLine
 10
881.0428745713685
 20
939.2766693610349
 30
0.0
 11
887.319744431919
 21
939.2766693610349
 31
0.0
  0
ARC
  5
47B2
330
A
100
AcDbEntity
  8
MODEL
100
AcDbCircle
 10
887.3197436296574
 20
943.2766706701111
 30
0.0
 40
4.000001309076389
100
AcDbArc
 50
270.0000114917561
 51
327.512795855129
  0
ARC
  5
47B3
330
A
100
AcDbEntity
  8
MODEL
100
AcDbCircle
 10
657.9058490015628
 20
1107.817263401126
 30
0.0
 40
300.0082102243312
100
AcDbArc
 50
342.4090694170689
 51
355.6321739690774
  0
ARC
  5
47B4
330
A
100
AcDbEntity
  8
MODEL
100
AcDbCircle
 10
940.0722546428258
 20
1018.357990652037
 30
0.0
 40
4.000031362232711
100
AcDbArc
 50
270.0003396914839
 51
342.4086994458139
  0
SPLINE
  5
47B5
102
{ACAD_REACTORS
330
47BC
102
}
330
A
100
AcDbEntity
  8
HIDDEN
100
AcDbSpline
210
0.0
220
0.0
230
1.0
 70
     8
 71
     7
 72
    51
 73
    43
 74
     0
 42
0.000000001
 43
0.0000000001
 40
0.0110329290599662
 40
0.0110329290599662
 40
0.0110329290599662
 40
0.0110329290599662
 40
0.0110329290599662
 40
0.0110329290599662
 40
0.0110329290599662
 40
0.0110329290599662
 40
0.074782032
 40
0.074782032
 40
0.074782032
 40
0.074782032
 40
0.074782032
 40
0.1435815014400001
 40
0.1435815014400001
 40
0.1435815014400001
 40
0.1435815014400001
 40
0.1435815014400001
 40
0.3739101600000001
 40
0.3739101600000001
 40
0.3739101600000001
 40
0.3739101600000001
 40
0.3739101600000001
 40
0.3844861904171917
 40
0.3844861904171917
 40
0.3844861904171917
 40
0.3844861904171917
 40
0.3844861904171917
 40
0.4654518940489345
 40
0.4654518940489345
 40
0.4654518940489345
 40
0.4654518940489345
 40
0.4654518940489345
 40
0.4733040000000002
 40
0.4733040000000002
 40
0.4733040000000002
 40
0.4733040000000002
 40
0.4733040000000002
 40
0.5320101222125622
 40
0.5320101222125622
 40
0.5320101222125622
 40
0.5320101222125622
 40
0.5320101222125622
 40
0.6073532256375129
 40
0.6073532256375129
 40
0.6073532256375129
 40
0.6073532256375129
 40
0.6073532256375129
 40
0.6073532256375129
 40
0.6073532256375129
 40
0.6073532256375129
 10
649.4183524018478
 20
967.9492447758405
 30
0.0
 10
653.6965637018544
 20
968.2484083454713
 30
0.0
 10
657.9737142606278
 20
968.5475032717861
 30
0.0
 10
662.2487941500764
 20
968.8464720152253
 30
0.0
 10
666.5213967095002
 20
969.1453194390876
 30
0.0
 10
670.7916005482945
 20
969.4441098212585
 30
0.0
 10
679.6662440416654
 20
970.0654968764841
 30
0.0
 10
688.5354475517848
 20
970.6879583291486
 30
0.0
 10
693.1384240464209
 20
971.0115675992304
 30
0.0
 10
697.7420187287604
 20
971.3360105941458
 30
0.0
 10
702.3476064361927
 20
971.6616894769861
 30
0.0
 10
722.3865002897033
 20
973.0852477666115
 30
0.0
 10
742.5111494192421
 20
974.553741829375
 30
0.0
 10
758.1023620944067
 20
975.7317528887886
 30
0.0
 10
773.8090834219871
 20
977.0163784991885
 30
0.0
 10
789.553101634479
 20
978.4316308043205
 30
0.0
 10
805.8069690548979
 20
980.2784468985835
 30
0.0
 10
821.2173183626179
 20
982.7958336408012
 30
0.0
 10
821.892172485244
 20
982.9076675744357
 30
0.0
 10
822.565289848502
 20
983.0208436859036
 30
0.0
 10
823.2366123176358
 20
983.1353865977264
 30
0.0
 10
829.0312486861909
 20
984.1388640115381
 30
0.0
 10
834.6823645009023
 20
985.2483700366463
 30
0.0
 10
839.5409139789878
 20
986.3234326925028
 30
0.0
 10
844.2276197881907
 20
987.50194615533
 30
0.0
 10
848.7102032737199
 20
988.7906528921669
 30
0.0
 10
853.3793930655044
 20
990.324223408825
 30
0.0
 10
857.7687849385799
 20
991.9861085323384
 30
0.0
 10
858.1546447923425
 20
992.1340310766111
 30
0.0
 10
858.5383076509785
 20
992.2829514996358
 30
0.0
 10
858.9197705704461
 20
992.4328671202468
 30
0.0
 10
862.1345736843683
 20
993.7120367229215
 30
0.0
 10
865.1912086899061
 20
995.0623220869995
 30
0.0
 10
867.7637618640471
 20
996.3070747821682
 30
0.0
 10
870.2172304853917
 20
997.6046298463964
 30
0.0
 10
872.5576268653709
 20
998.9538014858947
 30
0.0
 10
877.6579969925693
 20
1002.148507978088
 30
0.0
 10
882.234589029849
 20
1005.59213899762
 30
0.0
 10
884.6546537984719
 20
1007.601658283407
 30
0.0
 10
886.9354554477355
 20
1009.679183376851
 30
0.0
 10
889.088177836256
 20
1011.817313460691
 30
0.0
 10
891.1244256104725
 20
1014.00841805698
 30
0.0
 10
893.055868145642
 20
1016.245408269731
 30
0.0
  0
SPLINE
  5
47B6
102
{ACAD_REACTORS
330
47BC
102
}
330
A
100
AcDbEntity
  8
HIDDEN
100
AcDbSpline
210
0.0
220
0.0
230
1.0
 70
     8
 71
     3
 72
    18
 73
    14
 74
     0
 42
0.000000001
 43
0.0000000001
 40
0.0
 40
0.0
 40
0.0
 40
0.0
 40
6.597240113651079
 40
13.19498334875555
 40
19.79289399350086
 40
26.39085028637512
 40
39.58692322546909
 40
52.78256910094192
 40
65.97648271186166
 40
72.57402936672393
 40
79.17112207561034
 40
85.76740485831043
 40
92.36227963629236
 40
92.36227963629236
 40
92.36227963629236
 40
92.36227963629236
 10
893.055868145642
 20
1016.245408269731
 30
0.0
 10
894.4930159291649
 20
1017.909907972661
 30
0.0
 10
897.2557195039514
 20
1021.33564705323
 30
0.0
 10
901.1864425425989
 20
1026.635436519484
 30
0.0
 10
904.9859943107255
 20
1032.029976334388
 30
0.0
 10
909.9539723083468
 20
1039.290350146747
 30
0.0
 10
916.0953877484604
 20
1048.412298563208
 30
0.0
 10
923.6452820849478
 20
1059.235228166955
 30
0.0
 10
930.3159797697332
 20
1067.98599711466
 30
0.0
 10
936.0485714976998
 20
1074.661289487158
 30
0.0
 10
940.6025000315677
 20
1079.439903341382
 30
0.0
 10
945.4726776250567
 20
1083.897089006389
 30
0.0
 10
948.9819171456577
 20
1086.563461146329
 30
0.0
 10
950.8107000834898
 20
1087.783313142291
 30
0.0
  0
SPLINE
  5
47B7
330
A
100
AcDbEntity
  8
MODEL
100
AcDbSpline
210
0.0
220
0.0
230
1.0
 70
     8
 71
     7
 72
    31
 73
    23
 74
     0
 42
0.000000001
 43
0.0000000001
 40
0.0
 40
0.0
 40
0.0
 40
0.0
 40
0.0
 40
0.0
 40
0.0
 40
0.0
 40
0.4623079999999999
 40
0.4623079999999999
 40
0.4623079999999999
 40
0.4623079999999999
 40
0.4623079999999999
 40
0.5851999999999999
 40
0.5851999999999999
 40
0.5851999999999999
 40
0.5851999999999999
 40
0.5851999999999999
 40
0.76
 40
0.76
 40
0.76
 40
0.76
 40
0.76
 40
1.0
 40
1.0
 40
1.0
 40
1.0
 40
1.0
 40
1.0
 40
1.0
 40
1.0
 10
950.8107000834898
 20
1087.783313142291
 30
0.0
 10
951.3456185047578
 20
1088.140119458712
 30
0.0
 10
951.8979463079918
 20
1088.470825903328
 30
0.0
 10
952.4692028925817
 20
1088.77111096918
 30
0.0
 10
953.0675112869168
 20
1089.017075501494
 30
0.0
 10
953.6806913524227
 20
1089.222076245866
 30
0.0
 10
954.5206695471018
 20
1089.339167486434
 30
0.0
 10
955.3166531555507
 20
1089.157796310521
 30
0.0
 10
955.4804189249147
 20
1089.105281802583
 30
0.0
 10
955.6389212711467
 20
1089.037287316075
 30
0.0
 10
955.7895796658007
 20
1088.95353915741
 30
0.0
 10
956.1308587195557
 20
1088.715653146724
 30
0.0
 10
956.4087156797137
 20
1088.403365714757
 30
0.0
 10
956.5469441358177
 20
1088.199441819113
 30
0.0
 10
956.6612218484038
 20
1087.982668781671
 30
0.0
 10
956.7553638319987
 20
1087.75720401756
 30
0.0
 10
956.9368623002117
 20
1087.208302121171
 30
0.0
 10
957.0326045064537
 20
1086.637073248882
 30
0.0
 10
957.0654572167588
 20
1086.303955322217
 30
0.0
 10
957.0803140645257
 20
1085.969767935373
 30
0.0
 10
957.0800397092418
 20
1085.63555603963
 30
0.0
 10
957.0669421364178
 20
1085.301824045001
 30
0.0
 10
957.0427383738528
 20
1084.968899475248
 30
0.0
  0
SPLINE
  5
47B8
330
A
100
AcDbEntity
  8
MODEL
100
AcDbSpline
210
0.0
220
0.0
230
1.0
 70
     8
 71
     3
 72
    56
 73
    52
 74
     0
 42
0.000000001
 43
0.0000000001
 40
0.0
 40
0.0
 40
0.0
 40
0.0
 40
35.88738734052286
 40
71.77421362255994
 40
89.71781711524976
 40
107.6614023798754
 40
125.6049710681722
 40
143.5485480228303
 40
148.0344256469535
 40
152.5203723438928
 40
157.0053122830147
 40
161.4819259648299
 40
163.7152122868738
 40
165.9450984853857
 40
171.5090404126902
 40
175.9526955392757
 40
184.8272063152644
 40
193.6897613732757
 40
209.1856668093757
 40
218.722122192488
 40
231.7353130028951
 40
238.7425285223414
 40
253.7593762816062
 40
274.7869318657818
 40
294.0219427069681
 40
312.6366862627567
 40
331.2511190142286
 40
342.4501551556688
 40
349.3638704848269
 40
361.4622188309606
 40
368.3753120431876
 40
380.4730355057495
 40
387.386073048721
 40
399.3041990591474
 40
403.5558712267014
 40
406.1069111683402
 40
412.909810143204
 40
417.1616999991991
 40
421.413624242113
 40
423.9647848320604
 40
429.0670912497269
 40
431.6182264272643
 40
434.1693417725607
 40
435.8700714634447
 40
437.5707877923179
 40
438.4211402127173
 40
439.2714887726663
 40
440.1218328319858
 40
440.9721713592456
 40
441.8225043779106
 40
442.6728319264473
 40
442.6728319264473
 40
442.6728319264473
 40
442.6728319264473
 10
607.106952095182
 20
1089.254055440249
 30
0.0
 10
619.0694078582125
 20
1089.254060498469
 30
0.0
 10
642.9941563390636
 20
1089.249412691159
 30
0.0
 10
672.8996654469844
 20
1089.252733025088
 30
0.0
 10
696.823483640244
 20
1089.255022790855
 30
0.0
 10
714.766105685852
 20
1089.257265259663
 30
0.0
 10
732.7083398884748
 20
1089.259896331112
 30
0.0
 10
746.1646495574201
 20
1089.261985426039
 30
0.0
 10
755.1353939224169
 20
1089.263592849471
 30
0.0
 10
759.6204242369964
 20
1089.264418068374
 30
0.0
 10
764.1023352485751
 20
1089.265248099387
 30
0.0
 10
767.833360042048
 20
1089.26538952074
 30
0.0
 10
770.812490647371
 20
1089.265098563899
 30
0.0
 10
774.1535334076722
 20
1089.264589717291
 30
0.0
 10
778.2297347629243
 20
1089.264097971125
 30
0.0
 10
784.5135542460372
 20
1089.263429960605
 30
0.0
 10
791.881298546508
 20
1089.26083847427
 30
0.0
 10
802.8686119657974
 20
1089.253906152378
 30
0.0
 10
813.9640862788107
 20
1089.246124645965
 30
0.0
 10
826.2101440831135
 20
1089.237854781474
 30
0.0
 10
835.5442239076107
 20
1089.232203908115
 30
0.0
 10
846.3739654022025
 20
1089.226566939742
 30
0.0
 10
859.331661794287
 20
1089.221125491867
 30
0.0
 10
875.1027930047818
 20
1089.217169643973
 30
0.0
 10
890.6714621540847
 20
1089.215847333762
 30
0.0
 10
904.3451183859903
 20
1089.216555181976
 30
0.0
 10
914.895262723399
 20
1089.218464837094
 30
0.0
 10
922.1118186303316
 20
1089.220590093644
 30
0.0
 10
927.6361957998848
 20
1089.222650774904
 30
0.0
 10
931.9953089322477
 20
1089.22468630618
 30
0.0
 10
936.7479099423027
 20
1089.227412203081
 30
0.0
 10
940.3011956718577
 20
1089.229899109482
 30
0.0
 10
944.0396787554528
 20
1089.233034612201
 30
0.0
 10
946.4544120116077
 20
1089.235451186288
 30
0.0
 10
948.1465964038978
 20
1089.237399986463
 30
0.0
 10
949.2945468004648
 20
1089.238804989342
 30
0.0
 10
950.3297772554757
 20
1089.240188170224
 30
0.0
 10
951.3433276413158
 20
1089.241695988364
 30
0.0
 10
951.9910874129818
 20
1089.242752677231
 30
0.0
 10
952.6156138848927
 20
1089.243858192058
 30
0.0
 10
953.0805996207238
 20
1089.244772758821
 30
0.0
 10
953.4745375057718
 20
1089.245649466495
 30
0.0
 10
953.7054718944887
 20
1089.246216035611
 30
0.0
 10
953.8846246221688
 20
1089.246698897879
 30
0.0
 10
953.9990850344798
 20
1089.247034821627
 30
0.0
 10
954.0825833426817
 20
1089.2472986639
 30
0.0
 10
954.1419950081578
 20
1089.24749503778
 30
0.0
 10
954.1945914368657
 20
1089.247685308296
 30
0.0
 10
954.2517995825067
 20
1089.247878967416
 30
0.0
 10
954.2736578341387
 20
1089.248049418354
 30
0.0
 10
954.3636030756347
 20
1089.248212090989
 30
0.0
 10
954.3351384829467
 20
1089.248245588708
 30
0.0
  0
LINE
  5
47B9
330
A
100
AcDbEntity
  8
MODEL
100
AcDbLine
 10
887.3201459382723
 20
939.2766693811575
 30
0.0
 11
887.4288012828871
 21
939.2781653855493
 31
0.0
  0
LINE
  5
47BA
330
A
100
AcDbEntity
  8
MODEL
100
AcDbLine
 10
862.6892896609603
 20
938.2766693610349
 30
0.0
 11
607.1069520951816
 21
938.2766693610356
 31
0.0
  0
LINE
  5
47BB
330
A
100
AcDbEntity
  8
MODEL
100
AcDbLine
 10
629.0069520713329
 20
942.3417979803774
 30
0.0
 11
607.106952095182
 21
942.3417979803774
 31
0.0
  0
SPLINE
  5
47D0
330
A
100
AcDbEntity
  8
MODEL
100
AcDbSpline
210
0.0
220
0.0
230
1.0
 70
     8
 71
     7
 72
    16
 73
     8
 74
     0
 42
0.000000001
 43
0.0000000001
 40
0.0389718237093857
 40
0.0389718237093857
 40
0.0389718237093857
 40
0.0389718237093857
 40
0.0389718237093857
 40
0.0389718237093857
 40
0.0389718237093857
 40
0.0389718237093857
 40
0.9434754627779058
 40
0.9434754627779058
 40
0.9434754627779058
 40
0.9434754627779058
 40
0.9434754627779058
 40
0.9434754627779058
 40
0.9434754627779058
 40
0.9434754627779058
 10
1452.239077629322
 20
1017.194516804569
 30
0.0
 10
1449.38412114381
 20
1026.634057082772
 30
0.0
 10
1446.94412956219
 20
1036.199051621753
 30
0.0
 10
1444.877291924206
 20
1045.852857827214
 30
0.0
 10
1443.126381547209
 20
1055.565868474977
 30
0.0
 10
1441.673113870571
 20
1065.32872981471
 30
0.0
 10
1440.555281539725
 20
1075.133978407712
 30
0.0
 10
1439.807587472142
 20
1084.967419269311
 30
0.0
  0
ARC
  5
47D1
330
A
100
AcDbEntity
  8
MODEL
100
AcDbCircle
 10
1456.067795007308
 20
1018.352499204911
 30
0.0
 40
4.0
100
AcDbArc
 50
196.8277607499151
 51
270.0000025044687
  0
ARC
  5
47D2
330
A
100
AcDbEntity
  8
MODEL
100
AcDbCircle
 10
1509.52461098243
 20
943.2712116127497
 30
0.0
 40
4.0
100
AcDbArc
 50
212.6550150688695
 51
270.0000025044687
  0
SPLINE
  5
47D3
330
A
100
AcDbEntity
  8
MODEL
100
AcDbSpline
210
0.0
220
0.0
230
1.0
 70
     8
 71
     7
 72
    16
 73
     8
 74
     0
 42
0.000000001
 43
0.0000000001
 40
0.0476051818606359
 40
0.0476051818606359
 40
0.0476051818606359
 40
0.0476051818606359
 40
0.0476051818606359
 40
0.0476051818606359
 40
0.0476051818606359
 40
0.0476051818606359
 40
0.9747248054479785
 40
0.9747248054479785
 40
0.9747248054479785
 40
0.9747248054479785
 40
0.9747248054479785
 40
0.9747248054479785
 40
0.9747248054479785
 40
0.9747248054479785
 10
1473.646190819232
 20
1014.352490122005
 30
0.0
 10
1476.609514180475
 20
1003.248412513257
 30
0.0
 10
1480.182733321695
 20
992.3071057811809
 30
0.0
 10
1484.330687295097
 20
981.5622414355727
 30
0.0
 10
1489.021777242041
 20
971.041679223929
 30
0.0
 10
1494.237274708433
 20
960.7745398453377
 30
0.0
 10
1499.955653393474
 20
950.7889872676143
 30
0.0
 10
1506.156872245898
 20
941.1128937954255
 30
0.0
  0
SPLINE
  5
47D4
330
A
100
AcDbEntity
  8
MODEL
100
AcDbSpline
210
0.0
220
0.0
230
1.0
 70
     8
 71
     3
 72
    75
 73
    71
 74
     0
 42
0.000000001
 43
0.0000000001
 40
0.0
 40
0.0
 40
0.0
 40
0.0
 40
1.029394116396146
 40
2.058731718118253
 40
3.087955924898787
 40
4.117009346922286
 40
5.145834088504273
 40
6.174371798258776
 40
7.202563780740943
 40
8.230351185265231
 40
9.257675286869308
 40
10.28447787155037
 40
11.31070173251655
 40
12.33629127623832
 40
13.36119322702418
 40
14.38535740767579
 40
15.40873756292161
 40
16.43129218342197
 40
17.45298528272188
 40
18.47378707873376
 40
19.49367453563744
 40
20.51263173122636
 40
21.5306500294057
 40
22.54772804511543
 40
23.56387139792443
 40
24.5790922825357
 40
25.59340885990479
 40
26.6068445592419
 40
27.6194273427045
 40
28.63118879460554
 40
29.64216372397024
 40
30.65238852093995
 40
31.66189571159235
 40
32.67073335361699
 40
33.67894588409524
 40
34.68656744482557
 40
35.69362967372711
 40
36.70016279447879
 40
37.70619633836471
 40
38.71175932032668
 40
39.71688025608974
 40
40.72158709453224
 40
41.72590711993591
 40
42.72986685906245
 40
43.73349200731927
 40
44.73680737828728
 40
45.73983687598346
 40
46.74260348660135
 40
47.74512928414015
 40
48.74743544351532
 40
49.74954225536274
 40
50.75146913736659
 40
51.75323463801618
 40
52.75485643013403
 40
53.75635129327473
 40
54.75773508617187
 40
55.75902271258171
 40
56.76022808552494
 40
57.76136409473655
 40
58.76244257970209
 40
59.76347430872237
 40
60.76446896340603
 40
61.76543512747011
 40
62.76638027851516
 40
63.76731078141675
 40
64.76823188207527
 40
65.76914770062723
 40
66.77006122383698
 40
67.77097429749104
 40
68.7718876220211
 40
68.7718876220211
 40
68.7718876220211
 40
68.7718876220211
 10
1592.935647700175
 20
963.9998379585069
 30
0.0
 10
1592.935648799986
 20
963.9998369267324
 30
0.0
 10
1592.941575303267
 20
963.9998348634964
 30
0.0
 10
1592.968262660912
 20
963.9998043720826
 30
0.0
 10
1593.012737680919
 20
963.9997422588405
 30
0.0
 10
1593.074979330454
 20
963.9996457770304
 30
0.0
 10
1593.154949690133
 20
963.9995190571336
 30
0.0
 10
1593.252596406045
 20
963.9993708953754
 30
0.0
 10
1593.367853323844
 20
963.9992142808388
 30
0.0
 10
1593.500641891342
 20
963.9990652227917
 30
0.0
 10
1593.650872533833
 20
963.9989416100053
 30
0.0
 10
1593.818446103675
 20
963.9988619919296
 30
0.0
 10
1594.003255263948
 20
963.9988444003958
 30
0.0
 10
1594.205185737376
 20
963.9989052656002
 30
0.0
 10
1594.424117347082
 20
963.9990584887984
 30
0.0
 10
1594.659924798318
 20
963.9993147170809
 30
0.0
 10
1594.912478170789
 20
963.9996808510315
 30
0.0
 10
1595.181643114899
 20
964.0001597982392
 30
0.0
 10
1595.467280767788
 20
964.000750467667
 30
0.0
 10
1595.769247425224
 20
964.00144798339
 30
0.0
 10
1596.087394019044
 20
964.0022440840822
 30
0.0
 10
1596.421565463091
 20
964.0031276621359
 30
0.0
 10
1596.771599911569
 20
964.0040854121454
 30
0.0
 10
1597.137327967868
 20
964.00510256471
 30
0.0
 10
1597.518571999589
 20
964.0061635606527
 30
0.0
 10
1597.915145437189
 20
964.0072527879366
 30
0.0
 10
1598.326852406093
 20
964.008355033233
 30
0.0
 10
1598.753487416522
 20
964.0094559289483
 30
0.0
 10
1599.19483497545
 20
964.0105424324339
 30
0.0
 10
1599.65066878545
 20
964.0116042039791
 30
0.0
 10
1600.120757217232
 20
964.0126270462625
 30
0.0
 10
1600.604831317753
 20
964.0136294158712
 30
0.0
 10
1601.102711232976
 20
964.0145221312906
 30
0.0
 10
1601.614087330764
 20
964.0153466696703
 30
0.0
 10
1602.138640230836
 20
964.0161580862388
 30
0.0
 10
1602.676095038627
 20
964.0169530890327
 30
0.0
 10
1603.226161858242
 20
964.0177355515026
 30
0.0
 10
1603.788550356805
 20
964.0185014106884
 30
0.0
 10
1604.362962742539
 20
964.0192469487284
 30
0.0
 10
1604.949094813552
 20
964.0199679770504
 30
0.0
 10
1605.546635327415
 20
964.0206608674326
 30
0.0
 10
1606.155266169619
 20
964.0213226725956
 30
0.0
 10
1606.774662549455
 20
964.0219511843226
 30
0.0
 10
1607.404493291412
 20
964.0225448605253
 30
0.0
 10
1608.044421138611
 20
964.0231027198662
 30
0.0
 10
1608.69410305774
 20
964.0236242204172
 30
0.0
 10
1609.353190531252
 20
964.0241091420447
 30
0.0
 10
1610.02132982672
 20
964.0245574911731
 30
0.0
 10
1610.698162240918
 20
964.0249694389476
 30
0.0
 10
1611.383324325394
 20
964.0253452889355
 30
0.0
 10
1612.076448096978
 20
964.0256854755916
 30
0.0
 10
1612.777161239958
 20
964.0259905889451
 30
0.0
 10
1613.485087306824
 20
964.0262614189031
 30
0.0
 10
1614.199845924453
 20
964.0264990097256
 30
0.0
 10
1614.921053012039
 20
964.026704712558
 30
0.0
 10
1615.648321015882
 20
964.0268802201953
 30
0.0
 10
1616.381259162851
 20
964.0270275688871
 30
0.0
 10
1617.11947373041
 20
964.0271490922731
 30
0.0
 10
1617.862568317938
 20
964.0272473494969
 30
0.0
 10
1618.610144110964
 20
964.0273250436929
 30
0.0
 10
1619.361800134719
 20
964.0273849393033
 30
0.0
 10
1620.117133495624
 20
964.0274297831546
 30
0.0
 10
1620.875739610654
 20
964.0274622319829
 30
0.0
 10
1621.637212425237
 20
964.0274847875606
 30
0.0
 10
1622.40114462085
 20
964.0274997406358
 30
0.0
 10
1623.167127813458
 20
964.027509120211
 30
0.0
 10
1623.934752744849
 20
964.0275146617477
 30
0.0
 10
1624.703609467663
 20
964.0275177194106
 30
0.0
 10
1625.473287525404
 20
964.027519382971
 30
0.0
 10
1625.986679936517
 20
964.0275196302372
 30
0.0
 10
1626.243376175278
 20
964.0275197540012
 30
0.0
  0
SPLINE
  5
47D5
330
A
100
AcDbEntity
  8
MODEL
100
AcDbSpline
210
0.0
220
0.0
230
1.0
 70
     8
 71
     3
 72
    75
 73
    71
 74
     0
 42
0.000000001
 43
0.0000000001
 40
0.0
 40
0.0
 40
0.0
 40
0.0
 40
1.029394116396146
 40
2.058731718118253
 40
3.087955924898787
 40
4.117009346922286
 40
5.145834088504273
 40
6.174371798258776
 40
7.202563780740943
 40
8.230351185265231
 40
9.257675286869308
 40
10.28447787155037
 40
11.31070173251655
 40
12.33629127623832
 40
13.36119322702418
 40
14.38535740767579
 40
15.40873756292161
 40
16.43129218342197
 40
17.45298528272188
 40
18.47378707873376
 40
19.49367453563744
 40
20.51263173122636
 40
21.5306500294057
 40
22.54772804511543
 40
23.56387139792443
 40
24.5790922825357
 40
25.59340885990479
 40
26.6068445592419
 40
27.6194273427045
 40
28.63118879460554
 40
29.64216372397024
 40
30.65238852093995
 40
31.66189571159235
 40
32.67073335361699
 40
33.67894588409524
 40
34.68656744482557
 40
35.69362967372711
 40
36.70016279447879
 40
37.70619633836471
 40
38.71175932032668
 40
39.71688025608974
 40
40.72158709453224
 40
41.72590711993591
 40
42.72986685906245
 40
43.73349200731927
 40
44.73680737828728
 40
45.73983687598346
 40
46.74260348660135
 40
47.74512928414015
 40
48.74743544351532
 40
49.74954225536274
 40
50.75146913736659
 40
51.75323463801618
 40
52.75485643013403
 40
53.75635129327473
 40
54.75773508617187
 40
55.75902271258171
 40
56.76022808552494
 40
57.76136409473655
 40
58.76244257970209
 40
59.76347430872237
 40
60.76446896340603
 40
61.76543512747011
 40
62.76638027851516
 40
63.76731078141675
 40
64.76823188207527
 40
65.76914770062723
 40
66.77006122383698
 40
67.77097429749104
 40
68.7718876220211
 40
68.7718876220211
 40
68.7718876220211
 40
68.7718876220211
 10
1584.081545683509
 20
968.2749467767263
 30
0.0
 10
1584.081544015347
 20
968.2749470107939
 30
0.0
 10
1584.088941056321
 20
968.2746448789532
 30
0.0
 10
1584.122225032909
 20
968.2732720586338
 30
0.0
 10
1584.177697460622
 20
968.2709760216368
 30
0.0
 10
1584.255335986451
 20
968.2677664362619
 30
0.0
 10
1584.355105693765
 20
968.2636643896095
 30
0.0
 10
1584.476957235604
 20
968.2587021009878
 30
0.0
 10
1584.620828466461
 20
968.2529219423797
 30
0.0
 10
1584.78664537531
 20
968.2463753951653
 30
0.0
 10
1584.974323329447
 20
968.239121810626
 30
0.0
 10
1585.183768237075
 20
968.2312270543463
 30
0.0
 10
1585.414877613887
 20
968.2227620644827
 30
0.0
 10
1585.667541448935
 20
968.2138013711284
 30
0.0
 10
1585.941642809108
 20
968.2044216208361
 30
0.0
 10
1586.237058137095
 20
968.1947001492355
 30
0.0
 10
1586.553657225968
 20
968.1847136408234
 30
0.0
 10
1586.891302880309
 20
968.1745369087204
 30
0.0
 10
1587.249850299293
 20
968.1642418201646
 30
0.0
 10
1587.629146238457
 20
968.1538963848708
 30
0.0
 10
1588.029028019485
 20
968.1435640149922
 30
0.0
 10
1588.449322469352
 20
968.1333029566214
 30
0.0
 10
1588.889844841412
 20
968.1231658880334
 30
0.0
 10
1589.350397766036
 20
968.1131996956011
 30
0.0
 10
1589.830770417898
 20
968.1034453948579
 30
0.0
 10
1590.330737735989
 20
968.0939382157359
 30
0.0
 10
1590.850060124051
 20
968.084707776563
 30
0.0
 10
1591.388483263298
 20
968.0757783614373
 30
0.0
 10
1591.945737793003
 20
968.0671690442597
 30
0.0
 10
1592.521538846643
 20
968.0588953660973
 30
0.0
 10
1593.115592269132
 20
968.0509652185993
 30
0.0
 10
1593.727557217702
 20
968.0433948646443
 30
0.0
 10
1594.357202050435
 20
968.0361752484588
 30
0.0
 10
1595.00412217005
 20
968.02927872462
 30
0.0
 10
1595.667906711633
 20
968.0227019930663
 30
0.0
 10
1596.348202405203
 20
968.0164404269291
 30
0.0
 10
1597.044637073922
 20
968.01049123729
 30
0.0
 10
1597.756837891654
 20
968.0048509805839
 30
0.0
 10
1598.484422300679
 20
967.9995156075221
 30
0.0
 10
1599.226999351359
 20
967.9944802627125
 30
0.0
 10
1599.984168920073
 20
967.9897393025295
 30
0.0
 10
1600.755521977938
 20
967.9852863913458
 30
0.0
 10
1601.540640897662
 20
967.9811146324192
 30
0.0
 10
1602.339099879489
 20
967.9772167037646
 30
0.0
 10
1603.150465385217
 20
967.973584984995
 30
0.0
 10
1603.974296565606
 20
967.9702116663085
 30
0.0
 10
1604.810145662473
 20
967.9670888323946
 30
0.0
 10
1605.657558372741
 20
967.9642085152574
 30
0.0
 10
1606.516074173114
 20
967.9615627176082
 30
0.0
 10
1607.385226615653
 20
967.959143407954
 30
0.0
 10
1608.264543600519
 20
967.9569424901764
 30
0.0
 10
1609.153547636344
 20
967.95495175231
 30
0.0
 10
1610.05175609896
 20
967.9531628009116
 30
0.0
 10
1610.958681498944
 20
967.9515669893716
 30
0.0
 10
1611.873831767552
 20
967.9501553507197
 30
0.0
 10
1612.796710568482
 20
967.9489185456677
 30
0.0
 10
1613.726817638175
 20
967.9478468371143
 30
0.0
 10
1614.663649150084
 20
967.9469300886175
 30
0.0
 10
1615.606698082419
 20
967.946157772616
 30
0.0
 10
1616.555454572231
 20
967.9455189806885
 30
0.0
 10
1617.509406270668
 20
967.9450024293891
 30
0.0
 10
1618.468038623206
 20
967.9445964634195
 30
0.0
 10
1619.430835352539
 20
967.9442890363042
 30
0.0
 10
1620.397278109358
 20
967.9440677343208
 30
0.0
 10
1621.366849158783
 20
967.943919594907
 30
0.0
 10
1622.339022677093
 20
967.943831647104
 30
0.0
 10
1623.31329850396
 20
967.94378871576
 30
0.0
 10
1624.289077412181
 20
967.9437814187676
 30
0.0
 10
1625.266127807897
 20
967.9437761199496
 30
0.0
 10
1625.91727272185
 20
967.9438099995222
 30
0.0
 10
1626.243376396365
 20
967.9437902800036
 30
0.0
  0
ARC
  5
47D6
330
A
100
AcDbEntity
  8
MODEL
100
AcDbCircle
 10
1581.67901013941
 20
951.9927568418117
 30
0.0
 40
16.45848978847372
100
AcDbArc
 50
46.84761277028615
 51
81.60623026777846
  0
SPLINE
  5
47D7
102
{ACAD_REACTORS
330
47EB
102
}
330
A
100
AcDbEntity
  8
HIDDEN
100
AcDbSpline
210
0.0
220
0.0
230
1.0
 70
     8
 71
     7
 72
    51
 73
    43
 74
     0
 42
0.000000001
 43
0.0000000001
 40
0.3927333841233648
 40
0.3927333841233648
 40
0.3927333841233648
 40
0.3927333841233648
 40
0.3927333841233648
 40
0.3927333841233648
 40
0.3927333841233648
 40
0.3927333841233648
 40
0.4679898777874379
 40
0.4679898777874379
 40
0.4679898777874379
 40
0.4679898777874379
 40
0.4679898777874379
 40
0.5266959999999998
 40
0.5266959999999998
 40
0.5266959999999998
 40
0.5266959999999998
 40
0.5266959999999998
 40
0.5345481059510655
 40
0.5345481059510655
 40
0.5345481059510655
 40
0.5345481059510655
 40
0.5345481059510655
 40
0.6155138095828083
 40
0.6155138095828083
 40
0.6155138095828083
 40
0.6155138095828083
 40
0.6155138095828083
 40
0.6260898399999999
 40
0.6260898399999999
 40
0.6260898399999999
 40
0.6260898399999999
 40
0.6260898399999999
 40
0.8564184985599999
 40
0.8564184985599999
 40
0.8564184985599999
 40
0.8564184985599999
 40
0.8564184985599999
 40
0.925217968
 40
0.925217968
 40
0.925217968
 40
0.925217968
 40
0.925217968
 40
0.9643489417593263
 40
0.9643489417593263
 40
0.9643489417593263
 40
0.9643489417593263
 40
0.9643489417593263
 40
0.9643489417593263
 40
0.9643489417593263
 40
0.9643489417593263
 10
1503.774550928812
 20
1016.239950270099
 30
0.0
 10
1505.346461161559
 20
1014.014426061394
 30
0.0
 10
1506.946671884003
 20
1011.832239019792
 30
0.0
 10
1508.574527417993
 20
1009.699065588449
 30
0.0
 10
1510.228312242395
 20
1007.621195612495
 30
0.0
 10
1511.904915927568
 20
1005.605745056286
 30
0.0
 10
1514.919128632835
 20
1002.143638458771
 30
0.0
 10
1517.959545206033
 20
998.9297931124657
 30
0.0
 10
1519.29297131242
 20
997.5727832449467
 30
0.0
 10
1520.622573900295
 20
996.2707566935625
 30
0.0
 10
1521.942847050528
 20
995.0268230837011
 30
0.0
 10
1523.422975971808
 20
993.6845427189747
 30
0.0
 10
1524.879666902011
 20
992.4186559488281
 30
0.0
 10
1525.051182600899
 20
992.2703769524798
 30
0.0
 10
1525.222354695017
 20
992.1231583040773
 30
0.0
 10
1525.393175382297
 20
991.9769977191592
 30
0.0
 10
1527.321329241785
 20
990.3356623754281
 30
0.0
 10
1529.202755197062
 20
988.8289128712842
 30
0.0
 10
1530.871777040828
 20
987.5635435743808
 30
0.0
 10
1532.494228053772
 20
986.396792982776
 30
0.0
 10
1534.07598871918
 20
985.3155191640163
 30
0.0
 10
1535.827802372624
 20
984.1758630729365
 30
0.0
 10
1537.548313778686
 20
983.1175894254831
 30
0.0
 10
1537.746688165531
 20
982.9963894261001
 30
0.0
 10
1537.944679588524
 20
982.876233560548
 30
0.0
 10
1538.1423051406
 20
982.7571019451408
 30
0.0
 10
1542.635939284608
 20
980.0663757929489
 30
0.0
 10
1546.956853070854
 20
977.88780214868
 30
0.0
 10
1551.098012773072
 20
976.0782944205185
 30
0.0
 10
1555.369033335228
 20
974.4950216670605
 30
0.0
 10
1559.774691773412
 20
973.121513160686
 30
0.0
 10
1565.643371241281
 20
971.5997275734027
 30
0.0
 10
1571.626810146246
 20
970.3756188951139
 30
0.0
 10
1573.008286670859
 20
970.1080245864051
 30
0.0
 10
1574.391621873867
 20
969.8529621444451
 30
0.0
 10
1575.779248527434
 20
969.6079222154132
 30
0.0
 10
1577.956437448315
 20
969.2371272140718
 30
0.0
 10
1580.134349200138
 20
968.8827182824881
 30
0.0
 10
1580.923967078633
 20
968.7563108500382
 30
0.0
 10
1581.713516162698
 20
968.6321940218533
 30
0.0
 10
1582.502959335106
 20
968.5105219596354
 30
0.0
 10
1583.292292018183
 20
968.3914059257569
 30
0.0
 10
1584.081545683509
 20
968.2749467767263
 30
0.0
  0
LINE
  5
47D8
330
A
100
AcDbEntity
  8
MODEL
100
AcDbLine
 10
1534.162456115908
 20
938.2712055428257
 30
0.0
 11
1626.243387015764
 21
938.2712055428254
 31
0.0
  0
LINE
  5
47D9
330
A
100
AcDbEntity
  8
MODEL
100
AcDbLine
 10
1527.408673879136
 20
939.2712030940221
 30
0.0
 11
1515.808880274982
 21
939.271204740564
 31
0.0
  0
LINE
  5
47DA
330
A
100
AcDbEntity
  8
MODEL
100
AcDbLine
 10
1461.134199262503
 20
1014.352496725148
 30
0.0
 11
1461.162206611377
 21
1014.352496276171
 31
0.0
  0
LINE
  5
47DB
330
A
100
AcDbEntity
  8
MODEL
100
AcDbLine
 10
1461.162206611377
 20
1014.352496276171
 30
0.0
 11
1473.646198042242
 21
1014.352490121286
 31
0.0
  0
LINE
  5
47DC
330
A
100
AcDbEntity
  8
MODEL
100
AcDbLine
 10
1446.057911975444
 20
1087.780233290423
 30
0.0
 11
1446.039625637061
 21
1087.781833214297
 31
0.0
  0
SPLINE
  5
47DD
102
{ACAD_REACTORS
330
47EB
102
}
330
A
100
AcDbEntity
  8
HIDDEN
100
AcDbSpline
210
0.0
220
0.0
230
1.0
 70
     8
 71
     7
 72
    26
 73
    18
 74
     0
 42
0.000000001
 43
0.0000000001
 40
0.0
 40
0.0
 40
0.0
 40
0.0
 40
0.0
 40
0.0
 40
0.0
 40
0.0
 40
0.1659
 40
0.1659
 40
0.1659
 40
0.1659
 40
0.1659
 40
0.7899999999999999
 40
0.7899999999999999
 40
0.7899999999999999
 40
0.7899999999999999
 40
0.7899999999999999
 40
1.0
 40
1.0
 40
1.0
 40
1.0
 40
1.0
 40
1.0
 40
1.0
 40
1.0
 10
1446.039625637061
 20
1087.781833214297
 30
0.0
 10
1447.862377999276
 20
1086.566003907601
 30
0.0
 10
1449.633552628368
 20
1085.272850197571
 30
0.0
 10
1451.356266749375
 20
1083.915572610922
 30
0.0
 10
1453.034429135561
 20
1082.50417991723
 30
0.0
 10
1454.671685709885
 20
1081.046364456304
 30
0.0
 10
1462.289434643732
 20
1073.91282309612
 30
0.0
 10
1469.125596238456
 20
1065.981365313897
 30
0.0
 10
1474.202277299322
 20
1059.484701597376
 30
0.0
 10
1479.050866559703
 20
1052.80642345362
 30
0.0
 10
1483.739628863257
 20
1046.02758965975
 30
0.0
 10
1489.866046621754
 20
1036.87234645186
 30
0.0
 10
1495.966688083223
 20
1027.699887422806
 30
0.0
 10
1497.504500841091
 20
1025.391786063386
 30
0.0
 10
1499.048112819136
 20
1023.087552258182
 30
0.0
 10
1500.602704163441
 20
1020.79068235267
 30
0.0
 10
1502.174489839752
 20
1018.505330706544
 30
0.0
 10
1503.774550928812
 20
1016.239950270099
 30
0.0
  0
SPLINE
  5
47DE
330
A
100
AcDbEntity
  8
MODEL
100
AcDbSpline
210
0.0
220
0.0
230
1.0
 70
     8
 71
     7
 72
    31
 73
    23
 74
     0
 42
0.000000001
 43
0.0000000001
 40
0.0
 40
0.0
 40
0.0
 40
0.0
 40
0.0
 40
0.0
 40
0.0
 40
0.0
 40
0.24
 40
0.24
 40
0.24
 40
0.24
 40
0.24
 40
0.4148000000000001
 40
0.4148000000000001
 40
0.4148000000000001
 40
0.4148000000000001
 40
0.4148000000000001
 40
0.5376920000000001
 40
0.5376920000000001
 40
0.5376920000000001
 40
0.5376920000000001
 40
0.5376920000000001
 40
1.0
 40
1.0
 40
1.0
 40
1.0
 40
1.0
 40
1.0
 40
1.0
 40
1.0
 10
1439.807587472142
 20
1084.967419269311
 30
0.0
 10
1439.783383694732
 20
1085.300343837986
 30
0.0
 10
1439.770286107021
 20
1085.634075832028
 30
0.0
 10
1439.77001173683
 20
1085.968287727756
 30
0.0
 10
1439.784868569697
 20
1086.302475115267
 30
0.0
 10
1439.817721265145
 20
1086.635593043397
 30
0.0
 10
1439.913463445912
 20
1087.206821919955
 30
0.0
 10
1440.09496188964
 20
1087.755723824439
 30
0.0
 10
1440.189103863186
 20
1087.981188592747
 30
0.0
 10
1440.303381566105
 20
1088.197961635288
 30
0.0
 10
1440.441610013117
 20
1088.401885537093
 30
0.0
 10
1440.719466959344
 20
1088.714172981452
 30
0.0
 10
1441.060746002497
 20
1088.952059007363
 30
0.0
 10
1441.211404393419
 20
1089.035807172743
 30
0.0
 10
1441.369906736618
 20
1089.103801666327
 30
0.0
 10
1441.533672503642
 20
1089.156316181562
 30
0.0
 10
1442.329656104014
 20
1089.337687392979
 30
0.0
 10
1443.169634303926
 20
1089.220596189871
 30
0.0
 10
1443.78281437858
 20
1089.015595472845
 30
0.0
 10
1444.381122783887
 20
1088.769630967216
 30
0.0
 10
1444.952379381876
 20
1088.469345926844
 30
0.0
 10
1445.504707199871
 20
1088.13863950686
 30
0.0
 10
1446.039625637061
 20
1087.781833214297
 30
0.0
  0
LINE
  5
47DF
330
A
100
AcDbEntity
  8
MODEL
100
AcDbLine
 10
1604.343375690061
 20
942.3363443767504
 30
0.0
 11
1626.243376623492
 21
942.3363453340261
 31
0.0
  0
ARC
  5
47E0
330
A
100
AcDbEntity
  8
MODEL
100
AcDbCircle
 10
1601.343374115916
 20
952.005397686995
 30
0.0
 40
3.000001151497385
100
AcDbArc
 50
0.0000120320339452
 51
46.84760324284128
  0
LINE
  5
47E1
330
A
100
AcDbEntity
  8
MODEL
100
AcDbLine
 10
1604.343375690061
 20
942.3363443767504
 30
0.0
 11
1604.343375267414
 21
952.0053983169911
 31
0.0
  0
LINE
  5
47E2
330
A
100
AcDbEntity
  8
MODEL
100
AcDbLine
 10
1592.935647700175
 20
963.9998379585069
 30
0.0
 11
1603.39519855839
 21
954.1940098879624
 31
0.0
  0
LINE
  5
47E3
330
A
100
AcDbEntity
  8
MODEL
100
AcDbLine
 10
1534.162448969033
 20
938.2712126897005
 30
0.0
 11
1529.644732599886
 21
938.2712124922238
 31
0.0
  0
ARC
  5
47E4
330
A
100
AcDbEntity
  8
MODEL
100
AcDbCircle
 10
1529.644732468752
 20
941.2712124922238
 30
0.0
 40
3.000000000000005
100
AcDbArc
 50
221.8105557105954
 51
270.0000025043384
  0
LINE
  5
47E5
330
A
100
AcDbEntity
  8
MODEL
100
AcDbLine
 10
1456.067795182154
 20
1014.352499204911
 30
0.0
 11
1461.058510701467
 21
1014.352499423066
 31
0.0
  0
LINE
  5
47E6
330
A
100
AcDbEntity
  8
MODEL
100
AcDbLine
 10
1509.524611157278
 20
939.2712116127424
 30
0.0
 11
1515.808873128107
 21
939.2712118874389
 31
0.0
  0
SPLINE
  5
47E7
330
A
100
AcDbEntity
  8
MODEL
100
AcDbSpline
210
0.0
220
0.0
230
1.0
 70
     8
 71
     3
 72
    45
 73
    41
 74
     0
 42
0.000000001
 43
0.0000000001
 40
0.0
 40
0.0
 40
0.0
 40
0.0
 40
8.85409447228422
 40
24.34910994206213
 40
33.20349285002167
 40
47.59143936389088
 40
71.68482831086197
 40
90.45514475083473
 40
108.3733411306558
 40
127.1535816379382
 40
145.1449178517646
 40
163.9925864636162
 40
182.8535751947691
 40
200.9474046119537
 40
219.8991518632799
 40
231.0970272117999
 40
238.7426411044499
 40
249.5948811537707
 40
256.2755899494745
 40
262.9593734854468
 40
267.1392852636437
 40
272.158936850718
 40
274.670556818874
 40
282.2148729533281
 40
288.939985469775
 40
291.136778935343
 40
295.5395794381425
 40
297.7438162094913
 40
302.1530963726212
 40
306.5622603330092
 40
315.3806227328616
 40
324.1989930951401
 40
333.017358702315
 40
341.8357232881575
 40
359.472467139846
 40
368.4442950837119
 40
377.4161254132991
 40
386.387948005256
 40
395.3597462228439
 40
396.1350846667004
 40
396.1350846667004
 40
396.1350846667004
 40
396.1350846667004
 10
1626.24339015094
 20
1089.244615052759
 30
0.0
 10
1623.292310620766
 20
1089.244060797223
 30
0.0
 10
1615.175438856306
 20
1089.242405403186
 30
0.0
 10
1604.143963895139
 20
1089.239685515952
 30
0.0
 10
1591.388114735509
 20
1089.236080058223
 30
0.0
 10
1575.982474408899
 20
1089.231271839139
 30
0.0
 10
1557.869783496747
 20
1089.225175591235
 30
0.0
 10
1539.56148851971
 20
1089.219508316068
 30
0.0
 10
1523.746207346544
 20
1089.215335666054
 30
0.0
 10
1509.180647072359
 20
1089.212359040923
 30
0.0
 10
1495.55728961548
 20
1089.210664492811
 30
0.0
 10
1483.235811451735
 20
1089.210559066405
 30
0.0
 10
1472.381898905059
 20
1089.212600928845
 30
0.0
 10
1463.101211828847
 20
1089.217356822822
 30
0.0
 10
1456.574881817131
 20
1089.224239805988
 30
0.0
 10
1452.464476262193
 20
1089.231373481349
 30
0.0
 10
1449.737334974038
 20
1089.237643461322
 30
0.0
 10
1447.846267893224
 20
1089.243362468658
 30
0.0
 10
1446.408052200273
 20
1089.24874610284
 30
0.0
 10
1445.571746673934
 20
1089.252487562725
 30
0.0
 10
1444.958528582099
 20
1089.255385971444
 30
0.0
 10
1444.591730602673
 20
1089.256990741455
 30
0.0
 10
1444.202128663637
 20
1089.258287707386
 30
0.0
 10
1443.89359934725
 20
1089.258701973228
 30
0.0
 10
1443.744789695055
 20
1089.259604863179
 30
0.0
 10
1443.628399172274
 20
1089.259972742379
 30
0.0
 10
1443.55115166185
 20
1089.259592554391
 30
0.0
 10
1443.48236642644
 20
1089.258851847042
 30
0.0
 10
1443.422973723969
 20
1089.258166763776
 30
0.0
 10
1443.332929564473
 20
1089.257097537045
 30
0.0
 10
1443.226437339866
 20
1089.255938455788
 30
0.0
 10
1443.099694080606
 20
1089.254504373659
 30
0.0
 10
1442.986216220958
 20
1089.253171858893
 30
0.0
 10
1442.844064962889
 20
1089.251498684569
 30
0.0
 10
1442.71854327992
 20
1089.250006525549
 30
0.0
 10
1442.608243683763
 20
1089.248686620673
 30
0.0
 10
1442.532952140872
 20
1089.247780085074
 30
0.0
 10
1442.467995123809
 20
1089.246992906641
 30
0.0
 10
1442.423835527
 20
1089.246463738285
 30
0.0
 10
1442.407676573284
 20
1089.246269643995
 30
0.0
 10
1442.406422974971
 20
1089.246254614538
 30
0.0
  0
SOLID
  5
47E8
330
A
100
AcDbEntity
  8
MODEL
100
AcDbTrace
 10
1461.058510701466
 20
1014.352499423066
 30
0.0
 11
1456.067793140045
 21
1014.352499423066
 31
0.0
 12
1456.067795182154
 22
1014.352499204911
 32
0.0
 13
1456.067795182154
 23
1014.352499204911
 33
0.0
1001
GradientColor1ACI
1070
     5
1001
GradientColor2ACI
1070
     2
1001
ACAD
1010
0.0
1020
0.0
1030
0.0
  0
SOLID
  5
47E9
330
A
100
AcDbEntity
  8
MODEL
100
AcDbTrace
 10
1515.808873128106
 20
939.2712118874389
 30
0.0
 11
1509.52460842191
 21
939.2712118874389
 31
0.0
 12
1509.524611157276
 22
939.2712116127497
 32
0.0
 13
1509.524611157276
 23
939.2712116127497
 33
0.0
1001
GradientColor1ACI
1070
     5
1001
GradientColor2ACI
1070
     2
1001
ACAD
1010
0.0
1020
0.0
1030
0.0
  0
SOLID
  5
47EA
330
A
100
AcDbEntity
  8
MODEL
100
AcDbTrace
 10
1534.162448969033
 20
938.2712126897005
 30
0.0
 11
1529.644730620374
 21
938.2712126897005
 31
0.0
 12
1529.644732599886
 22
938.2712124922238
 32
0.0
 13
1529.644732599886
 23
938.2712124922238
 33
0.0
1001
GradientColor1ACI
1070
     5
1001
GradientColor2ACI
1070
     2
1001
ACAD
1010
0.0
1020
0.0
1030
0.0
  0
LINE
  5
47EC
330
A
100
AcDbEntity
  8
MODEL
100
AcDbLine
 10
1778.840589482649
 20
1014.352490122006
 30
0.0
 11
1473.646198042242
 21
1014.352490121286
 31
0.0
  0
LINE
  5
47ED
330
A
100
AcDbEntity
  8
MODEL
100
AcDbLine
 10
291.3477662220395
 20
1014.357956531651
 30
0.0
 11
922.8661379683236
 21
1014.357956531651
 31
0.0
  0
CIRCLE
  5
4886
330
A
100
AcDbEntity
  8
DIM
  6
Continuous
100
AcDbCircle
 10
1434.821235187302
 20
1690.300770924295
 30
0.0
 40
0.0
  0
SPLINE
  5
4888
330
A
100
AcDbEntity
  8
HIDDEN
100
AcDbSpline
210
0.0
220
0.0
230
1.0
 70
     8
 71
     3
 72
    38
 73
    34
 74
     0
 42
0.000000001
 43
0.0000000001
 40
0.0
 40
0.0
 40
0.0
 40
0.0
 40
7.027974833277213
 40
18.44807861062505
 40
36.89551572343838
 40
56.22275774150123
 40
74.42851634093773
 40
92.6345324323923
 40
110.8383413224918
 40
128.9821429194731
 40
147.1209950710308
 40
166.1237859821545
 40
184.5162021773496
 40
202.9262868185766
 40
221.3418149738331
 40
239.2985348050419
 40
251.2341204905327
 40
257.1990669387607
 40
264.0120149960271
 40
268.2668552425407
 40
272.5182441497219
 40
275.9161635026055
 40
288.082603076513
 40
293.2893969406214
 40
298.4675657109817
 40
301.9084167014103
 40
305.3470962926403
 40
312.2244834902751
 40
332.8575871819114
 40
360.3723173414619
 40
394.7661713122191
 40
429.1617957904465
 40
455.4488626142324
 40
455.4488626142324
 40
455.4488626142324
 40
455.4488626142324
 10
1946.129932455744
 20
2080.001450333214
 30
0.0
 10
1946.129422908967
 20
2082.343969714992
 30
0.0
 10
1946.011137825441
 20
2088.493557442333
 30
0.0
 10
1945.161519854501
 20
2100.76839494882
 30
0.0
 10
1942.713077464
 20
2117.003449027502
 30
0.0
 10
1938.060702327803
 20
2135.100672486499
 30
0.0
 10
1931.620334711738
 20
2152.552788688507
 30
0.0
 10
1923.646184944945
 20
2168.943618150375
 30
0.0
 10
1914.102541703372
 20
2184.448513684598
 30
0.0
 10
1903.101222291134
 20
2198.926751842544
 30
0.0
 10
1890.56694971494
 20
2212.465544546269
 30
0.0
 10
1876.690907209737
 20
2224.754149865651
 30
0.0
 10
1861.582841130021
 20
2235.645503677611
 30
0.0
 10
1845.635048692156
 20
2244.881547485199
 30
0.0
 10
1828.967803783267
 20
2252.400041696746
 30
0.0
 10
1813.676768656519
 20
2257.511532521144
 30
0.0
 10
1802.059789997653
 20
2260.350569889152
 30
0.0
 10
1793.970794705314
 20
2261.914993790856
 30
0.0
 10
1788.362274082659
 20
2262.803621859441
 30
0.0
 10
1783.297784183965
 20
2263.45880718646
 30
0.0
 10
1779.352495793607
 20
2263.885049765669
 30
0.0
 10
1772.773517523613
 20
2264.476670178013
 30
0.0
 10
1765.858004942395
 20
2264.851237711079
 30
0.0
 10
1758.343555771437
 20
2265.055004224141
 30
0.0
 10
1753.735690964951
 20
2265.13906150687
 30
0.0
 10
1749.7169831518
 20
2265.203842648052
 30
0.0
 10
1745.131937636386
 20
2265.277690567365
 30
0.0
 10
1734.816782584055
 20
2265.437351884433
 30
0.0
 10
1716.476835972313
 20
2265.694692712209
 30
0.0
 10
1688.964724960509
 20
2266.010655137699
 30
0.0
 10
1656.864350443506
 20
2266.274319738762
 30
0.0
 10
1625.172451055656
 20
2266.419518453366
 30
0.0
 10
1604.944883154425
 20
2266.447875200552
 30
0.0
 10
1596.182530193551
 20
2266.447875200552
 30
0.0
  0
SPLINE
  5
4889
330
A
100
AcDbEntity
  8
HIDDEN
100
AcDbSpline
210
0.0
220
0.0
230
1.0
 70
     8
 71
     3
 72
    38
 73
    34
 74
     0
 42
0.000000001
 43
0.0000000001
 40
0.0
 40
0.0
 40
0.0
 40
0.0
 40
7.027974833277263
 40
18.44807861062501
 40
36.89551572343837
 40
56.2227577415014
 40
74.42851634093945
 40
92.63453243239569
 40
110.8383413224966
 40
128.9821429194785
 40
147.1209950710362
 40
166.1237859821605
 40
184.5162021773561
 40
202.9262868185833
 40
221.3418149738399
 40
239.2985348050498
 40
251.2341204905415
 40
257.1990669387698
 40
264.0120149960364
 40
268.2668552425502
 40
272.5182441497316
 40
275.9161635026155
 40
288.0826030765226
 40
293.2893969406311
 40
298.4675657109916
 40
301.9084167014202
 40
305.34709629265
 40
312.2244834902847
 40
332.8575871819212
 40
360.3723173414716
 40
394.7661713122289
 40
429.1617957904566
 40
455.4488626142324
 40
455.4488626142324
 40
455.4488626142324
 40
455.4488626142324
 10
1246.235127931356
 20
2080.001450333214
 30
0.0
 10
1246.235637478134
 20
2082.343969714992
 30
0.0
 10
1246.35392256166
 20
2088.493557442333
 30
0.0
 10
1247.2035405326
 20
2100.76839494882
 30
0.0
 10
1249.651982923101
 20
2117.003449027502
 30
0.0
 10
1254.304358059298
 20
2135.100672486499
 30
0.0
 10
1260.744725675363
 20
2152.552788688508
 30
0.0
 10
1268.718875442163
 20
2168.943618150381
 30
0.0
 10
1278.262518683729
 20
2184.448513684601
 30
0.0
 10
1289.263838095973
 20
2198.926751842549
 30
0.0
 10
1301.798110672168
 20
2212.465544546272
 30
0.0
 10
1315.674153177362
 20
2224.754149865656
 30
0.0
 10
1330.782219257078
 20
2235.645503677613
 30
0.0
 10
1346.730011694952
 20
2244.881547485204
 30
0.0
 10
1363.39725660384
 20
2252.400041696747
 30
0.0
 10
1378.688291730588
 20
2257.511532521145
 30
0.0
 10
1390.305270389455
 20
2260.350569889155
 30
0.0
 10
1398.394265681794
 20
2261.914993790859
 30
0.0
 10
1404.002786304457
 20
2262.803621859442
 30
0.0
 10
1409.067276203144
 20
2263.458807186461
 30
0.0
 10
1413.012564593509
 20
2263.88504976567
 30
0.0
 10
1419.591542863503
 20
2264.476670178014
 30
0.0
 10
1426.507055444712
 20
2264.851237711079
 30
0.0
 10
1434.02150461567
 20
2265.055004224143
 30
0.0
 10
1438.629369422158
 20
2265.13906150687
 30
0.0
 10
1442.648077235307
 20
2265.203842648052
 30
0.0
 10
1447.233122750721
 20
2265.277690567365
 30
0.0
 10
1457.548277803054
 20
2265.437351884433
 30
0.0
 10
1475.888224414802
 20
2265.694692712209
 30
0.0
 10
1503.4003354266
 20
2266.010655137699
 30
0.0
 10
1535.500709943602
 20
2266.274319738762
 30
0.0
 10
1567.192609331451
 20
2266.419518453366
 30
0.0
 10
1587.420177232675
 20
2266.447875200551
 30
0.0
 10
1596.182530193551
 20
2266.447875200552
 30
0.0
  0
SPLINE
  5
488A
330
A
100
AcDbEntity
  8
HIDDEN
100
AcDbSpline
210
0.0
220
0.0
230
1.0
 70
     8
 71
     3
 72
    38
 73
    34
 74
     0
 42
0.000000001
 43
0.0000000001
 40
0.0
 40
0.0
 40
0.0
 40
0.0
 40
27.51967261948469
 40
61.91941002839466
 40
96.31818949277127
 40
123.8364834975179
 40
144.474660686829
 40
151.3540317406218
 40
154.7938158137663
 40
158.2373053094758
 40
163.4233925409388
 40
168.6375237745444
 40
179.9916706777463
 40
182.6190242846785
 40
187.8788517676361
 40
192.2659473542824
 40
198.4121755939283
 40
204.5619465365306
 40
216.8673766289417
 40
235.3260500773389
 40
254.6596556625211
 40
273.1087923586778
 40
291.2113411414658
 40
310.0612985524375
 40
328.054510877185
 40
346.351540523591
 40
365.6219475022225
 40
384.0184085046913
 40
402.1898389302082
 40
420.289075944482
 40
439.2490918244006
 40
449.5279173795217
 40
455.4976448352693
 40
455.4976448352693
 40
455.4976448352693
 40
455.4976448352693
 10
1596.18255940265
 20
1893.553285298466
 30
0.0
 10
1587.009338466535
 20
1893.551589729745
 30
0.0
 10
1566.369524912237
 20
1893.578456158136
 30
0.0
 10
1534.263747818342
 20
1893.725766784039
 30
0.0
 10
1502.159184038294
 20
1893.991026307379
 30
0.0
 10
1474.642579335324
 20
1894.309392156375
 30
0.0
 10
1456.299117538711
 20
1894.568607531276
 30
0.0
 10
1445.981266224892
 20
1894.729825761776
 30
0.0
 10
1441.394312081747
 20
1894.803728219904
 30
0.0
 10
1437.371748562623
 20
1894.870416869395
 30
0.0
 10
1432.758005244385
 20
1894.959789617164
 30
0.0
 10
1425.509784888494
 20
1895.180727675395
 30
0.0
 10
1419.120234323043
 20
1895.548953809387
 30
0.0
 10
1412.732051466538
 20
1896.123215573908
 30
0.0
 10
1408.664240361094
 20
1896.565152816159
 30
0.0
 10
1403.44546071594
 20
1897.259123853722
 30
0.0
 10
1397.954171478113
 20
1898.141671015556
 30
0.0
 10
1389.903488802756
 20
1899.707792651669
 30
0.0
 10
1377.951078716778
 20
1902.660252044322
 30
0.0
 10
1362.119482459418
 20
1908.042198753707
 30
0.0
 10
1345.076286440742
 20
1915.915643933645
 30
0.0
 10
1329.044604652493
 20
1925.448840780536
 30
0.0
 10
1314.163576538745
 20
1936.421672908169
 30
0.0
 10
1300.551651224921
 20
1948.71051732431
 30
0.0
 10
1288.170102497931
 20
1962.323249928494
 30
0.0
 10
1277.084095898249
 20
1977.186976481879
 30
0.0
 10
1267.489605657579
 20
1993.214879576757
 30
0.0
 10
1259.604591738925
 20
2010.100841626815
 30
0.0
 10
1253.568839524259
 20
2027.318226432525
 30
0.0
 10
1249.209277810664
 20
2045.227536183514
 30
0.0
 10
1247.023455920953
 20
2060.875679719324
 30
0.0
 10
1246.321054994503
 20
2072.595264967696
 30
0.0
 10
1246.234695103176
 20
2078.011626361384
 30
0.0
 10
1246.235127931356
 20
2080.001450333214
 30
0.0
  0
SPLINE
  5
488B
330
A
100
AcDbEntity
  8
HIDDEN
100
AcDbSpline
210
0.0
220
0.0
230
1.0
 70
     8
 71
     3
 72
    37
 73
    33
 74
     0
 42
0.000000001
 43
0.0000000001
 40
0.0
 40
0.0
 40
0.0
 40
0.0
 40
7.028703868275203
 40
18.45000530979417
 40
37.77796004523996
 40
56.22870199058517
 40
74.43163127190857
 40
92.63484189264612
 40
111.7025476501719
 40
129.8342761365097
 40
147.9640083849558
 40
166.9573694648125
 40
185.351982920612
 40
203.7517940242871
 40
223.0334950863744
 40
233.2617199533381
 40
240.9323898058353
 40
252.8610420265195
 40
258.8221442947578
 40
264.7795221124039
 40
269.8815750944518
 40
274.1292253098769
 40
276.6755400593254
 40
287.9963650548589
 40
298.3856120998178
 40
305.2672827964541
 40
312.1472297338923
 40
332.7870696742442
 40
360.3040889053852
 40
394.7007945446567
 40
429.0992425589548
 40
455.4976351703489
 40
455.4976351703489
 40
455.4976351703489
 40
455.4976351703489
 10
1946.129932455744
 20
2080.001450333214
 30
0.0
 10
1946.130442055376
 20
2077.658687991349
 30
0.0
 10
1946.014808164834
 20
2071.508407203431
 30
0.0
 10
1945.150214956415
 20
2058.939615040319
 30
0.0
 10
1942.669345705251
 20
2042.705705990442
 30
0.0
 10
1937.981256710486
 20
2024.61961467696
 30
0.0
 10
1931.649047036944
 20
2007.441394229351
 30
0.0
 10
1923.555168003918
 20
1990.79026465384
 30
0.0
 10
1913.829832320347
 20
1975.06194795805
 30
0.0
 10
1902.594412775423
 20
1960.408620105473
 30
0.0
 10
1890.008757509324
 20
1946.931570564421
 30
0.0
 10
1876.083728189024
 20
1934.706746836365
 30
0.0
 10
1860.932529602735
 20
1923.885445142047
 30
0.0
 10
1844.694860155706
 20
1914.57874520481
 30
0.0
 10
1830.071078989979
 20
1908.104806203881
 30
0.0
 10
1818.36028655568
 20
1904.032673755122
 30
0.0
 10
1808.816363478732
 20
1901.237588104952
 30
0.0
 10
1800.517353641099
 20
1899.289062595981
 30
0.0
 10
1792.698985631465
 20
1897.848060440034
 30
0.0
 10
1787.089153868979
 20
1896.995829657937
 30
0.0
 10
1782.02463828494
 20
1896.372103933731
 30
0.0
 10
1778.078862748688
 20
1895.97675156496
 30
0.0
 10
1772.061802501241
 20
1895.469485671818
 30
0.0
 10
1763.985728423625
 20
1895.040846798742
 30
0.0
 10
1754.456461188911
 20
1894.857976865544
 30
0.0
 10
1746.407249481735
 20
1894.730508422682
 30
0.0
 10
1734.941469677524
 20
1894.551589667481
 30
0.0
 10
1716.59766036474
 20
1894.295340418487
 30
0.0
 10
1689.081577740613
 20
1893.979890882154
 30
0.0
 10
1656.978528816635
 20
1893.718660235354
 30
0.0
 10
1625.247611988143
 20
1893.576815142316
 30
0.0
 10
1604.981989137883
 20
1893.551658826275
 30
0.0
 10
1596.182527835848
 20
1893.553285299193
 30
0.0
  0
CIRCLE
  5
488C
330
A
100
AcDbEntity
  8
HIDDEN
100
AcDbCircle
 10
1596.182530193551
 20
2080.000586074973
 30
0.0
 40
21.89999997615087
  0
SPLINE
  5
488D
330
A
100
AcDbEntity
  8
MODEL
100
AcDbSpline
210
0.0
220
0.0
230
1.0
 70
  1064
 71
     3
 72
    29
 73
    25
 74
    23
 42
0.000000001
 43
0.0000000001
 44
0.0000000001
 12
0.0002175208328160769
 22
0.9999999763423434
 32
0.0
 13
1.0
 23
1.030287278095082E-13
 33
0.0
 40
0.0
 40
0.0
 40
0.0
 40
0.0
 40
12.11376482833155
 40
24.23131952220563
 40
36.34769463855578
 40
48.45663626089661
 40
60.55763027465547
 40
72.65489346100581
 40
84.75760963276507
 40
96.87255447293207
 40
109.0004786101403
 40
121.1373779212989
 40
133.2766440630485
 40
145.4095440135134
 40
157.5275909437087
 40
169.6248773932573
 40
181.6988920072182
 40
193.7546757229584
 40
205.8126128229329
 40
217.9110760436877
 40
230.1344613619549
 40
242.6863041425809
 40
298.6660640657989
 40
412.1971567175299
 40
412.1971567175299
 40
412.1971567175299
 40
412.1971567175299
 10
1276.182530193551
 20
2080.000586074992
 30
0.0
 10
1276.183408525622
 20
2084.038507588908
 30
0.0
 10
1276.496558630183
 20
2092.118982364099
 30
0.0
 10
1277.895407819011
 20
2104.16525916369
 30
0.0
 10
1280.21351074667
 20
2116.067986829501
 30
0.0
 10
1283.437985011054
 20
2127.751947841462
 30
0.0
 10
1287.553084666279
 20
2139.146145633672
 30
0.0
 10
1292.538081807056
 20
2150.185246556136
 30
0.0
 10
1298.365108272587
 20
2160.80922120717
 30
0.0
 10
1304.999251528853
 20
2170.960863879255
 30
0.0
 10
1312.398251996742
 20
2180.583519628133
 30
0.0
 10
1320.51380740368
 20
2189.620820912438
 30
0.0
 10
1329.293074465962
 20
2198.017198039143
 30
0.0
 10
1338.680001102947
 20
2205.718442880236
 30
0.0
 10
1348.616245433182
 20
2212.672504327722
 30
0.0
 10
1359.042060427293
 20
2218.830401904694
 30
0.0
 10
1369.897509853829
 20
2224.148480390063
 30
0.0
 10
1381.126072745992
 20
2228.589911133511
 30
0.0
 10
1392.6787189349
 20
2232.13275218862
 30
0.0
 10
1404.528973878522
 20
2234.760425410683
 30
0.0
 10
1416.706677188592
 20
2236.520841624882
 30
0.0
 10
1443.579286738068
 20
2238.313274674874
 30
0.0
 10
1504.300858417355
 20
2238.076590225284
 30
0.0
 10
1560.786235555756
 20
2238.952992765229
 30
0.0
 10
1598.629933106333
 20
2238.952992765233
 30
0.0
 11
1276.182530193551
 21
2080.000586074992
 31
0.0
 11
1276.651310635053
 21
2092.105277034029
 31
0.0
 11
1278.048741860473
 21
2104.141984130625
 31
0.0
 11
1280.365364248386
 21
2116.034831000569
 31
0.0
 11
1283.587540020984
 21
2127.707193679296
 31
0.0
 11
1287.698638438193
 21
2139.088446946184
 31
0.0
 11
1292.6772311741
 21
2150.113753788617
 31
0.0
 11
1298.496640426395
 21
2160.725549804771
 31
0.0
 11
1305.123129682027
 21
2170.867617080494
 31
0.0
 11
1312.514917972269
 21
2180.482605887046
 31
0.0
 11
1320.623707684099
 21
2189.513212416982
 31
0.0
 11
1329.396747902626
 21
2197.903417884331
 31
0.0
 11
1338.777377085959
 21
2205.598290029649
 31
0.0
 11
1348.706421378385
 21
2212.545313913404
 31
0.0
 11
1359.123538731047
 21
2218.695761499011
 31
0.0
 11
1369.967232827861
 21
2224.00576406331
 31
0.0
 11
1381.178084105877
 21
2228.439581224957
 31
0.0
 11
1392.706181674634
 21
2231.974664470392
 31
0.0
 11
1404.515467161615
 21
2234.604034849577
 31
0.0
 11
1416.613355621926
 21
2236.351101946372
 31
0.0
 11
1429.129632211389
 21
2237.295335776319
 31
0.0
 11
1485.100888740792
 21
2238.271021986575
 31
0.0
 11
1598.629933106333
 21
2238.952992765233
 31
0.0
  0
SPLINE
  5
488E
330
A
100
AcDbEntity
  8
MODEL
100
AcDbSpline
210
0.0
220
0.0
230
1.0
 70
  1064
 71
     3
 72
    29
 73
    25
 74
    23
 42
0.000000001
 43
0.0000000001
 44
0.0000000001
 12
-0.0002175208324323611
 22
0.9999999763423434
 32
0.0
 13
-1.0
 23
0.0
 33
0.0
 40
0.0
 40
0.0
 40
0.0
 40
0.0
 40
12.1137648283206
 40
24.23131952219346
 40
36.34769463854713
 40
48.45663626088702
 40
60.55763027464712
 40
72.65489346099625
 40
84.75760963274661
 40
96.87255447292264
 40
109.0004786101304
 40
121.1373779212851
 40
133.2766440630324
 40
145.4095440135046
 40
157.5275909437031
 40
169.6248773932473
 40
181.6988920072073
 40
193.754675722946
 40
205.8126128229203
 40
217.9110760436784
 40
230.1344613619417
 40
242.6863041425677
 40
298.6660640657848
 40
412.1971567175146
 40
412.1971567175146
 40
412.1971567175146
 40
412.1971567175146
 10
1916.179753724465
 20
2079.995468510322
 30
0.0
 10
1916.178875392395
 20
2084.033390024234
 30
0.0
 10
1915.865725287833
 20
2092.113864799422
 30
0.0
 10
1914.466876099005
 20
2104.160141599009
 30
0.0
 10
1912.148773171344
 20
2116.062869264821
 30
0.0
 10
1908.924298906961
 20
2127.746830276783
 30
0.0
 10
1904.809199251733
 20
2139.141028068992
 30
0.0
 10
1899.824202110961
 20
2150.180128991454
 30
0.0
 10
1893.997175645432
 20
2160.80410364249
 30
0.0
 10
1887.36303238916
 20
2170.95574631457
 30
0.0
 10
1879.964031921274
 20
2180.578402063452
 30
0.0
 10
1871.848476514339
 20
2189.615703347757
 30
0.0
 10
1863.069209452054
 20
2198.01208047446
 30
0.0
 10
1853.682282815062
 20
2205.713325315549
 30
0.0
 10
1843.746038484833
 20
2212.667386763045
 30
0.0
 10
1833.320223490718
 20
2218.82528434001
 30
0.0
 10
1822.464774064186
 20
2224.143362825386
 30
0.0
 10
1811.236211172023
 20
2228.584793568829
 30
0.0
 10
1799.683564983115
 20
2232.127634623938
 30
0.0
 10
1787.833310039494
 20
2234.755307846003
 30
0.0
 10
1775.655606729424
 20
2236.5157240602
 30
0.0
 10
1748.782997179949
 20
2238.308157110194
 30
0.0
 10
1688.061425500663
 20
2238.071472660601
 30
0.0
 10
1631.576048362263
 20
2238.947875200552
 30
0.0
 10
1593.732350811686
 20
2238.947875200552
 30
0.0
 11
1916.179753724465
 21
2079.995468510322
 31
0.0
 11
1915.710973282964
 21
2092.100159469348
 31
0.0
 11
1914.313542057543
 21
2104.136866565943
 31
0.0
 11
1911.996919669628
 21
2116.02971343589
 31
0.0
 11
1908.77474389703
 21
2127.702076114616
 31
0.0
 11
1904.66364547982
 21
2139.083329381505
 31
0.0
 11
1899.685052743916
 21
2150.108636223938
 31
0.0
 11
1893.865643491626
 21
2160.720432240085
 31
0.0
 11
1887.239154235986
 21
2170.862499515813
 31
0.0
 11
1879.847365945746
 21
2180.477488322366
 31
0.0
 11
1871.73857623392
 21
2189.5080948523
 31
0.0
 11
1862.965536015392
 21
2197.898300319645
 31
0.0
 11
1853.584906832051
 21
2205.593172464965
 31
0.0
 11
1843.655862539625
 21
2212.540196348725
 31
0.0
 11
1833.238745186966
 21
2218.690643934329
 31
0.0
 11
1822.395051090154
 21
2224.00064649863
 31
0.0
 11
1811.184199812139
 21
2228.434463660275
 31
0.0
 11
1799.656102243382
 21
2231.96954690571
 31
0.0
 11
1787.846816756398
 21
2234.598917284897
 31
0.0
 11
1775.748928296091
 21
2236.345984381692
 31
0.0
 11
1763.232651706628
 21
2237.290218211638
 31
0.0
 11
1707.261395177226
 21
2238.265904421894
 31
0.0
 11
1593.732350811686
 21
2238.947875200552
 31
0.0
  0
SPLINE
  5
488F
330
A
100
AcDbEntity
  8
MODEL
100
AcDbSpline
210
0.0
220
0.0
230
1.0
 70
  1064
 71
     3
 72
    29
 73
    25
 74
    23
 42
0.000000001
 43
0.0000000001
 44
0.0000000001
 12
0.0002175208341924928
 22
-0.9999999763423432
 32
0.0
 13
-0.9999999829174976
 23
0.0001848377797559071
 33
0.0
 40
0.0
 40
0.0
 40
0.0
 40
0.0
 40
12.11493997172629
 40
24.23351633311136
 40
36.35097409540623
 40
48.46076790061183
 40
60.56240809744397
 40
72.66010406910135
 40
84.76337606302641
 40
96.87860975298831
 40
109.0066038360426
 40
121.14372556263
 40
133.283068730198
 40
145.4159900733366
 40
157.5342300416181
 40
169.6314064453054
 40
181.7053805081848
 40
193.7621724160369
 40
205.8196864010922
 40
217.9200422619984
 40
230.145813241987
 40
242.6993297187474
 40
298.6894026158722
 40
412.2288355015527
 40
412.2288355015527
 40
412.2288355015527
 40
412.2288355015527
 10
1916.179753724465
 20
2079.995468510274
 30
0.0
 10
1916.180632141748
 20
2075.957155281902
 30
0.0
 10
1915.870948571553
 20
2067.875809207623
 30
0.0
 10
1914.476923109811
 20
2055.827867147918
 30
0.0
 10
1912.16339754683
 20
2043.923238729363
 30
0.0
 10
1908.943088866585
 20
2032.237227887276
 30
0.0
 10
1904.831781943551
 20
2020.840965488681
 30
0.0
 10
1899.849992423288
 20
2009.799803054578
 30
0.0
 10
1894.025662826914
 20
1999.173854034371
 30
0.0
 10
1887.39382989269
 20
1989.020318735517
 30
0.0
 10
1879.996418744506
 20
1979.396174537855
 30
0.0
 10
1871.882025743565
 20
1970.357646979635
 30
0.0
 10
1863.103407638008
 20
1961.960412793368
 30
0.0
 10
1853.71665219636
 20
1954.258776720029
 30
0.0
 10
1843.780216023069
 20
1947.304909445737
 30
0.0
 10
1833.353972673191
 20
1941.147652649092
 30
0.0
 10
1822.497424761884
 20
1935.831164058426
 30
0.0
 10
1811.268134693557
 20
1931.391023042825
 30
0.0
 10
1799.71376206835
 20
1927.850929223945
 30
0.0
 10
1787.861673360303
 20
1925.225609152263
 30
0.0
 10
1775.681520175703
 20
1923.46817916085
 30
0.0
 10
1748.803757626372
 20
1921.681831928071
 30
0.0
 10
1688.075743975233
 20
1921.915090778667
 30
0.0
 10
1631.583908474975
 20
1921.046289370528
 30
0.0
 10
1593.737431492927
 20
1921.053284829424
 30
0.0
 11
1916.179753724465
 21
2079.995468510274
 31
0.0
 11
1915.716129316152
 21
2067.889402967475
 31
0.0
 11
1914.323548470756
 21
2055.851105263241
 31
0.0
 11
1912.011453822553
 21
2043.956274412878
 31
0.0
 11
1908.793441314925
 21
2032.281879289132
 31
0.0
 11
1904.686098907919
 21
2020.898583026397
 31
0.0
 11
1899.710766614639
 21
2009.871329678709
 31
0.0
 11
1893.894008213868
 21
1999.257446569027
 31
0.0
 11
1887.269778277589
 21
1989.113558502132
 31
0.0
 11
1879.879706165991
 21
1979.497162365118
 31
0.0
 11
1871.772003859708
 21
1970.465280660916
 31
0.0
 11
1862.999640023539
 21
1962.074256571697
 31
0.0
 11
1853.61925271695
 21
1954.379055840256
 31
0.0
 11
1843.68991242962
 21
1947.432118285674
 31
0.0
 11
1833.272443762749
 21
1941.282482238176
 31
0.0
 11
1822.428065791796
 21
1935.973968689715
 31
0.0
 11
1811.215608883108
 21
1931.541470389652
 31
0.0
 11
1799.68710445107
 21
1928.009158248818
 31
0.0
 11
1787.875355533941
 21
1925.382144834449
 31
0.0
 11
1775.774659019948
 21
1923.637834101991
 31
0.0
 11
1763.2565008396
 21
1922.696297217913
 31
0.0
 11
1707.274889715131
 21
1921.722911922117
 31
0.0
 11
1593.737431492927
 21
1921.053284829424
 31
0.0
  0
SPLINE
  5
4890
330
A
100
AcDbEntity
  8
MODEL
100
AcDbSpline
210
0.0
220
0.0
230
1.0
 70
  1064
 71
     3
 72
    29
 73
    25
 74
    23
 42
0.000000001
 43
0.0000000001
 44
0.0000000001
 12
-0.9999999829172778
 22
-0.0001848389681109817
 32
0.0
 13
0.0002175208334930994
 23
0.9999999763423433
 33
0.0
 40
0.0
 40
0.0
 40
0.0
 40
0.0
 40
113.5393906733641
 40
169.5288708381454
 40
182.0829626032296
 40
194.3080681135209
 40
206.4100467836073
 40
218.4666133107821
 40
230.5231514309767
 40
242.5976431908416
 40
254.6947340922681
 40
266.8127943071603
 40
278.9457420571294
 40
291.0851138363528
 40
303.2222664000705
 40
315.3503700104395
 40
327.4654971057571
 40
339.5683575193717
 40
351.6667144706294
 40
363.7682400363565
 40
375.8778057221953
 40
387.9952596216943
 40
400.1138106694067
 40
412.2288525306227
 40
412.2288525306227
 40
412.2288525306227
 40
412.2288525306227
 10
1598.624879243806
 20
1921.058402393372
 30
0.0
 10
1560.778416332538
 20
1921.051406892101
 30
0.0
 10
1504.286752868301
 20
1921.919622443788
 30
0.0
 10
1443.558842439099
 20
1921.687404417258
 30
0.0
 10
1416.681234492422
 20
1923.472988428573
 30
0.0
 10
1404.500642401124
 20
1925.230959564627
 30
0.0
 10
1392.648519460128
 20
1927.856129348786
 30
0.0
 10
1381.094066965804
 20
1931.396426193507
 30
0.0
 10
1369.864851591355
 20
1935.836132101445
 30
0.0
 10
1359.008314434652
 20
1941.152799884954
 30
0.0
 10
1348.581996501036
 20
1947.310083472644
 30
0.0
 10
1338.645621260779
 20
1954.263902060831
 30
0.0
 10
1329.258898810627
 20
1961.965512302772
 30
0.0
 10
1320.480254268337
 20
1970.362759150559
 30
0.0
 10
1312.365814594888
 20
1979.401324100744
 30
0.0
 10
1304.968479599642
 20
1989.025539510793
 30
0.0
 10
1298.33662911825
 20
1999.178894127457
 30
0.0
 10
1292.512158360295
 20
2009.804825285004
 30
0.0
 10
1287.53048396082
 20
2020.84609495049
 30
0.0
 10
1283.41922519984
 20
2032.242480723486
 30
0.0
 10
1280.198837664358
 20
2043.928348989444
 30
0.0
 10
1277.885340052629
 20
2055.832899020411
 30
0.0
 10
1276.491349047735
 20
2067.880868031974
 30
0.0
 10
1276.181651768883
 20
2075.962238883439
 30
0.0
 10
1276.182530193551
 20
2080.000586074973
 30
0.0
 11
1598.624879243806
 21
1921.058402393372
 31
0.0
 11
1485.087462725368
 21
1921.727943129639
 31
0.0
 11
1429.106445877107
 21
1922.701412059379
 31
0.0
 11
1416.587701303089
 21
1923.642822881841
 31
0.0
 11
1404.487695643044
 21
1925.387261979268
 31
0.0
 11
1392.674363837467
 21
1928.014633171652
 31
0.0
 11
1381.146776445829
 21
1931.546704143807
 31
0.0
 11
1369.934480178592
 21
1935.978918472944
 31
0.0
 11
1359.089656570793
 21
1941.287699140364
 31
0.0
 11
1348.672272365759
 21
1947.437310071316
 31
0.0
 11
1338.743075781746
 21
1954.384139460885
 31
0.0
 11
1329.362666115081
 21
1962.079354570875
 31
0.0
 11
1320.590276393084
 21
1970.470392990499
 31
0.0
 11
1312.482559983188
 21
1979.502303473429
 31
0.0
 11
1305.092460349827
 21
1989.118816593726
 31
0.0
 11
1298.468224184093
 21
1999.262573282265
 31
0.0
 11
1292.65158718225
 21
2009.876053587058
 31
0.0
 11
1287.676064895183
 21
2020.903946354534
 31
0.0
 11
1283.568826899129
 21
2032.287158425901
 31
0.0
 11
1280.350817225632
 21
2043.961317703593
 31
0.0
 11
1278.03871769103
 21
2055.856143669053
 31
0.0
 11
1276.646162655153
 21
2067.89441887641
 31
0.0
 11
1276.182530193551
 21
2080.000586074973
 31
0.0
  0
LINE
  5
4896
330
A
100
AcDbEntity
  8
DIM
  6
Continuous
100
AcDbLine
 10
1432.808210372229
 20
2322.096526291538
 30
0.0
 11
1432.808210372229
 21
2237.47941318408
 31
0.0
  0
LINE
  5
489A
330
A
100
AcDbEntity
  8
DIM
  6
Continuous
100
AcDbLine
 10
1609.912499886831
 20
2128.078522097869
 30
0.0
 11
1609.912499886831
 21
2294.330494374131
 31
0.0
  0
LINE
  5
489C
330
A
100
AcDbEntity
  8
DIM
  6
Continuous
100
AcDbLine
 10
1635.205520261191
 20
2110.928047837552
 30
0.0
 11
1866.245777019947
 21
2265.935138737122
 31
0.0
  0
LINE
  5
489D
330
A
100
AcDbEntity
  8
DIM
  6
Continuous
100
AcDbLine
 10
1866.245777019947
 20
2265.935138737122
 30
0.0
 11
1939.920431428002
 21
2265.935138737122
 31
0.0
  0
LINE
  5
49CF
330
A
100
AcDbEntity
  8
DIM
  6
Continuous
100
AcDbLine
 10
269.9651003098224
 20
938.2753284405796
 30
0.0
 11
198.1437406819154
 21
938.2753284405796
 31
0.0
  0
LINE
  5
49D0
330
A
100
AcDbEntity
  8
DIM
  6
Continuous
100
AcDbLine
 10
234.0544204958689
 20
938.2753284405796
 30
0.0
 11
234.0544204958689
 21
762.2519854261647
 31
0.0
  0
LINE
  5
49D1
330
A
100
AcDbEntity
  8
DIM
  6
Continuous
100
AcDbLine
 10
208.8319608953375
 20
1014.357957910764
 30
0.0
 11
137.0106012674306
 21
1014.357957910764
 31
0.0
  0
LINE
  5
49D2
330
A
100
AcDbEntity
  8
DIM
  6
Continuous
100
AcDbLine
 10
172.9212810813841
 20
1014.357957910764
 30
0.0
 11
172.9212810813841
 21
698.6387811843042
 31
0.0
  0
MTEXT
  5
4A10
330
A
100
AcDbEntity
  8
TEMPLATE
390
1D
100
AcDbMText
 10
159.3952744366309
 20
313.2260774945897
 30
0.0
 40
24.4326171875
 41
0.0
 46
27.5355595703125
 71
     1
 72
     1
  1
{手洗器 -CATALANO, Sfera-}
  7
ＭＳ ゴシック
 73
     1
 44
0.7828267384257843
1001
ACAD
1000
ACAD_MTEXT_DEFINED_HEIGHT_BEGIN
1070
    46
1040
27.5355595703125
1000
ACAD_MTEXT_DEFINED_HEIGHT_END
  0
MTEXT
  5
4A11
330
A
100
AcDbEntity
  8
TEMPLATE
390
1D
100
AcDbMText
 10
159.3952744366309
 20
228.2260774945897
 30
0.0
 40
24.4326171875
 41
0.0
 46
65.556517578125
 71
     1
 72
     1
  1
{カウンター置き、半埋め込み/オーバーフロー無し/\P陶器/ホワイト}
  7
ＭＳ ゴシック
 73
     1
 44
0.9822934569727008
1001
ACAD
1000
ACAD_MTEXT_DEFINED_HEIGHT_BEGIN
1070
    46
1040
65.556517578125
1000
ACAD_MTEXT_DEFINED_HEIGHT_END
  0
MTEXT
  5
4A12
330
A
100
AcDbEntity
  8
TEMPLATE
390
1D
100
AcDbMText
 10
1356.395274436891
 20
313.2260774945897
 30
0.0
 40
24.4326171875
 41
0.0
 46
24.4326171875
 71
     1
 72
     1
  1
{ADF70-0706-N01}
  7
ＭＳ ゴシック
 73
     1
 44
0.7828267384257843
1001
ACAD
1000
ACAD_MTEXT_DEFINED_HEIGHT_BEGIN
1070
    46
1040
24.4326171875
1000
ACAD_MTEXT_DEFINED_HEIGHT_END
  0
MTEXT
  5
4A13
330
A
100
AcDbEntity
  8
TEMPLATE
390
1D
100
AcDbMText
 10
1356.395274436891
 20
231.0717335739412
 30
0.0
 40
24.4326171875
 41
0.0
 46
28.40135167875453
 71
     1
 72
     1
  1
{12.2kg}
  7
ＭＳ ゴシック
 73
     1
 44
0.7828267384257843
1001
ACAD
1000
ACAD_MTEXT_DEFINED_HEIGHT_BEGIN
1070
    46
1040
28.40135167875453
1000
ACAD_MTEXT_DEFINED_HEIGHT_END
  0
MTEXT
  5
4A14
330
A
100
AcDbEntity
  8
TEMPLATE
390
1D
100
AcDbMText
 10
1606.387397105173
 20
231.0717335739412
 30
0.0
 40
24.4326171875
 41
0.0
 46
24.4326171875
 71
     1
 72
     1
  1
{15L}
  7
ＭＳ ゴシック
 73
     1
 44
0.7828267384257843
1001
ACAD
1000
ACAD_MTEXT_DEFINED_HEIGHT_BEGIN
1070
    46
1040
24.4326171875
1000
ACAD_MTEXT_DEFINED_HEIGHT_END
  0
LINE
  5
4A17
330
A
100
AcDbEntity
  8
DIM
100
AcDbLine
 10
829.1549966919848
 20
2265.075154483758
 30
0.0
 11
1071.183882009421
 21
2265.075154483758
 31
0.0
  0
LINE
  5
4A18
330
A
100
AcDbEntity
  8
DIM
100
AcDbLine
 10
819.8919151929344
 20
1894.90859770421
 30
0.0
 11
1071.183882009421
 21
1894.90859770421
 31
0.0
  0
LINE
  5
4A19
330
A
100
AcDbEntity
  8
DIM
100
AcDbLine
 10
1071.183882009421
 20
2255.075154483758
 30
0.0
 11
1071.183882009421
 21
1904.90859770421
 31
0.0
  0
INSERT
  5
4A1A
330
A
100
AcDbEntity
  8
DIM
100
AcDbBlockReference
  2
_DOT
 10
1071.183882009421
 20
2265.075154483758
 30
0.0
 41
10.0
 42
10.0
 43
10.0
 50
90.0
  0
INSERT
  5
4A1B
330
A
100
AcDbEntity
  8
DIM
100
AcDbBlockReference
  2
_DOT
 10
1071.183882009421
 20
1894.90859770421
 30
0.0
 41
10.0
 42
10.0
 43
10.0
 50
270.0
  0
MTEXT
  5
4A1C
330
A
100
AcDbEntity
  8
DIM
100
AcDbMText
 10
1039.179380321288
 20
2079.991876093984
 30
0.0
 40
24.0
 41
0.0
 46
0.0
 71
     5
 72
     1
  1
\A1;370
  7
ＭＳ ゴシック
 11
0.0
 21
1.0
 31
0.0
 73
     1
 44
1.0
  0
LINE
  5
4A1D
330
A
100
AcDbEntity
  8
DIM
100
AcDbLine
 10
257.1429889266678
 20
2139.957727087246
 30
0.0
 11
257.1429889266678
 21
2370.919335379444
 31
0.0
  0
LINE
  5
4A1E
330
A
100
AcDbEntity
  8
DIM
100
AcDbLine
 10
957.0708476863317
 20
2139.957727087246
 30
0.0
 11
957.0708476863317
 21
2370.919335379444
 31
0.0
  0
LINE
  5
4A1F
330
A
100
AcDbEntity
  8
DIM
100
AcDbLine
 10
267.1429889266678
 20
2370.919335379444
 30
0.0
 11
947.0708476863317
 21
2370.919335379444
 31
0.0
  0
INSERT
  5
4A20
330
A
100
AcDbEntity
  8
DIM
100
AcDbBlockReference
  2
_DOT
 10
257.1429889266678
 20
2370.919335379444
 30
0.0
 41
10.0
 42
10.0
 43
10.0
 50
180.0
  0
INSERT
  5
4A21
330
A
100
AcDbEntity
  8
DIM
100
AcDbBlockReference
  2
_DOT
 10
957.0708476863317
 20
2370.919335379444
 30
0.0
 41
10.0
 42
10.0
 43
10.0
  0
MTEXT
  5
4A22
330
A
100
AcDbEntity
  8
DIM
100
AcDbMText
 10
607.1069183064999
 20
2402.923837067578
 30
0.0
 40
24.0
 41
0.0
 46
0.0
 71
     5
 72
     1
  1
\A1;700
  7
ＭＳ ゴシック
 73
     1
 44
1.0
  0
TEXT
  5
4A2F
330
A
100
AcDbEntity
  8
DIM
  6
Continuous
100
AcDbText
 10
1449.176504082753
 20
2427.041529518221
 30
34.99521132346015
 40
24.0
  1
カウンター切込寸法
  7
ＭＳ ゴシック
100
AcDbText
  0
TEXT
  5
4A30
330
A
100
AcDbEntity
  8
DIM
  6
Continuous
100
AcDbText
 10
1181.125019676943
 20
1646.530589735559
 30
34.99521132346014
 40
24.0
  1
※陶器製品には寸法公差があります。
  7
ＭＳ ゴシック
100
AcDbText
  0
TEXT
  5
4A31
330
A
100
AcDbEntity
  8
DIM
  6
Continuous
100
AcDbText
 10
1184.048866119359
 20
1597.049897435399
 30
34.99521132346014
 40
24.0
  1
  洗面器の収め方をご確認の上、必ず現物を合わせて
  7
ＭＳ ゴシック
100
AcDbText
  0
TEXT
  5
4A32
330
A
100
AcDbEntity
  8
DIM
  6
Continuous
100
AcDbText
 10
1184.048866119359
 20
1548.601701121918
 30
34.99521132346014
 40
24.0
  1
  カウンターに切込を行ってください。
  7
ＭＳ ゴシック
100
AcDbText
  0
LINE
  5
4A33
330
A
100
AcDbEntity
  8
DIM
  6
Continuous
100
AcDbLine
 10
1389.371090447935
 20
2237.500586074973
 30
0.0
 11
1191.641373955888
 21
2237.500586074973
 31
0.0
1001
ACAD
1000
DSTYLE
1002
{
1070
   179
1070
     0
1070
   271
1070
     0
1070
    43
1040
25.0
1070
    44
1040
0.0
1070
    42
1040
25.0
1002
}
  0
LINE
  5
4A34
330
A
100
AcDbEntity
  8
DIM
  6
Continuous
100
AcDbLine
 10
1389.371090447935
 20
1922.500586074974
 30
0.0
 11
1191.641373955888
 21
1922.500586074974
 31
0.0
1001
ACAD
1000
DSTYLE
1002
{
1070
   179
1070
     0
1070
   271
1070
     0
1070
    43
1040
25.0
1070
    44
1040
0.0
1070
    42
1040
25.0
1002
}
  0
LINE
  5
4A35
330
A
100
AcDbEntity
  8
DIM
  6
Continuous
100
AcDbLine
 10
1191.641373955888
 20
2228.500586074973
 30
0.0
 11
1191.641373955888
 21
1931.500586074974
 31
0.0
1001
ACAD
1000
DSTYLE
1002
{
1070
   179
1070
     0
1070
   271
1070
     0
1070
    43
1040
25.0
1070
    44
1040
0.0
1070
    42
1040
25.0
1002
}
  0
INSERT
  5
4A36
330
A
100
AcDbEntity
  8
DIM
100
AcDbBlockReference
  2
_DOT
 10
1191.641373955888
 20
2237.500586074973
 30
0.0
 41
9.0
 42
9.0
 43
9.0
 50
90.0
1001
ACAD
1000
DSTYLE
1002
{
1070
   179
1070
     0
1070
   271
1070
     0
1070
    43
1040
25.0
1070
    44
1040
0.0
1070
    42
1040
25.0
1002
}
  0
INSERT
  5
4A37
330
A
100
AcDbEntity
  8
DIM
100
AcDbBlockReference
  2
_DOT
 10
1191.641373955888
 20
1922.500586074974
 30
0.0
 41
9.0
 42
9.0
 43
9.0
 50
270.0
1001
ACAD
1000
DSTYLE
1002
{
1070
   179
1070
     0
1070
   271
1070
     0
1070
    43
1040
25.0
1070
    44
1040
0.0
1070
    42
1040
25.0
1002
}
  0
MTEXT
  5
4A38
330
A
100
AcDbEntity
  8
DIM
100
AcDbMText
 10
1169.420482527853
 20
2080.000586074973
 30
0.0
 40
24.4326171875
 41
0.0
 46
0.0
 71
     5
 72
     1
  1
\A1;315
  7
ＭＳ ゴシック
 11
0.0
 21
1.0
 31
0.0
 73
     1
 44
1.0
1001
ACAD
1000
DSTYLE
1002
{
1070
   179
1070
     0
1070
   271
1070
     0
1070
    43
1040
25.0
1070
    44
1040
0.0
1070
    42
1040
25.0
1002
}
  0
LINE
  5
4A39
330
A
100
AcDbEntity
  8
DIM
  6
Continuous
100
AcDbLine
 10
1276.182530193551
 20
2025.892460636467
 30
0.0
 11
1276.182530193551
 21
1762.100843022132
 31
0.0
1001
ACAD
1000
DSTYLE
1002
{
1070
   179
1070
     0
1070
   271
1070
     0
1070
    43
1040
25.0
1070
    44
1040
0.0
1070
    42
1040
25.0
1002
}
  0
LINE
  5
4A3A
330
A
100
AcDbEntity
  8
DIM
  6
Continuous
100
AcDbLine
 10
1916.179753724465
 20
2018.254380653741
 30
0.0
 11
1916.179753724465
 21
1762.100843022132
 31
0.0
1001
ACAD
1000
DSTYLE
1002
{
1070
   179
1070
     0
1070
   271
1070
     0
1070
    43
1040
25.0
1070
    44
1040
0.0
1070
    42
1040
25.0
1002
}
  0
LINE
  5
4A3B
330
A
100
AcDbEntity
  8
DIM
  6
Continuous
100
AcDbLine
 10
1285.182530193551
 20
1762.100843022132
 30
0.0
 11
1907.179753724465
 21
1762.100843022132
 31
0.0
1001
ACAD
1000
DSTYLE
1002
{
1070
   179
1070
     0
1070
   271
1070
     0
1070
    43
1040
25.0
1070
    44
1040
0.0
1070
    42
1040
25.0
1002
}
  0
INSERT
  5
4A3C
330
A
100
AcDbEntity
  8
DIM
100
AcDbBlockReference
  2
_DOT
 10
1276.182530193551
 20
1762.100843022132
 30
0.0
 41
9.0
 42
9.0
 43
9.0
 50
180.0
1001
ACAD
1000
DSTYLE
1002
{
1070
   179
1070
     0
1070
   271
1070
     0
1070
    43
1040
25.0
1070
    44
1040
0.0
1070
    42
1040
25.0
1002
}
  0
INSERT
  5
4A3D
330
A
100
AcDbEntity
  8
DIM
100
AcDbBlockReference
  2
_DOT
 10
1916.179753724465
 20
1762.100843022132
 30
0.0
 41
9.0
 42
9.0
 43
9.0
1001
ACAD
1000
DSTYLE
1002
{
1070
   179
1070
     0
1070
   271
1070
     0
1070
    43
1040
25.0
1070
    44
1040
0.0
1070
    42
1040
25.0
1002
}
  0
MTEXT
  5
4A3E
330
A
100
AcDbEntity
  8
DIM
100
AcDbMText
 10
1596.181141959008
 20
1784.317151615882
 30
0.0
 40
24.4326171875
 41
0.0
 46
0.0
 71
     5
 72
     1
  1
\A1;640
  7
ＭＳ ゴシック
 73
     1
 44
1.0
1001
ACAD
1000
DSTYLE
1002
{
1070
   179
1070
     0
1070
   271
1070
     0
1070
    43
1040
25.0
1070
    44
1040
0.0
1070
    42
1040
25.0
1002
}
  0
TEXT
  5
4A3F
330
A
100
AcDbEntity
  8
TEMPLATE
  6
Continuous
100
AcDbText
 10
1418.516987918769
 20
2336.781815798257
 30
0.0
 40
24.4326171875
  1
半埋め込み
  7
ＭＳ ゴシック
100
AcDbText
  0
LINE
  5
4A40
330
A
100
AcDbEntity
  8
DIM
  6
Continuous
100
AcDbLine
 10
1311.628850535441
 20
2179.364178868148
 30
0.0
 11
1334.318607662954
 21
2202.053935995662
 31
0.0
1001
ACAD
1010
0.0
1020
0.0
1030
0.0
  0
LINE
  5
4A41
330
A
100
AcDbEntity
  8
DIM
  6
Continuous
100
AcDbLine
 10
1284.179008754013
 20
2129.463696784047
 30
0.0
 11
1384.11587930258
 21
2229.400567332615
 31
0.0
1001
ACAD
1010
0.0
1020
0.0
1030
0.0
  0
LINE
  5
4A42
330
A
100
AcDbEntity
  8
DIM
  6
Continuous
100
AcDbLine
 10
1277.527415536636
 20
2100.361463263998
 30
0.0
 11
1413.084526809934
 21
2235.918574537296
 31
0.0
1001
ACAD
1010
0.0
1020
0.0
1030
0.0
  0
LINE
  5
4A43
330
A
100
AcDbEntity
  8
DIM
  6
Continuous
100
AcDbLine
 10
1276.250746501461
 20
2076.63415392615
 30
0.0
 11
1437.248393636727
 21
2237.631801061416
 31
0.0
1001
ACAD
1010
0.0
1020
0.0
1030
0.0
  0
LINE
  5
4A44
330
A
100
AcDbEntity
  8
DIM
  6
Continuous
100
AcDbLine
 10
1278.045251501113
 20
2055.97801862313
 30
0.0
 11
1460.173293674492
 21
2238.106060796509
 31
0.0
1001
ACAD
1010
0.0
1020
0.0
1030
0.0
  0
LINE
  5
4A45
330
A
100
AcDbEntity
  8
DIM
  6
Continuous
100
AcDbLine
 10
1282.036724031707
 20
2037.518850851051
 30
0.0
 11
1482.79022242609
 21
2238.272349245433
 31
0.0
1001
ACAD
1010
0.0
1020
0.0
1030
0.0
  0
LINE
  5
4A46
330
A
100
AcDbEntity
  8
DIM
  6
Continuous
100
AcDbLine
 10
1287.757706922258
 20
2020.789193438929
 30
0.0
 11
1505.338528389671
 21
2238.370014906342
 31
0.0
1001
ACAD
1010
0.0
1020
0.0
1030
0.0
  0
LINE
  5
4A47
330
A
100
AcDbEntity
  8
DIM
  6
Continuous
100
AcDbLine
 10
1294.924572669291
 20
2005.505418883289
 30
0.0
 11
1527.930344922574
 21
2238.511191136572
 31
0.0
1001
ACAD
1010
0.0
1020
0.0
1030
0.0
  0
LINE
  5
4A48
330
A
100
AcDbEntity
  8
DIM
  6
Continuous
100
AcDbLine
 10
1303.4322904128
 20
1991.562496324124
 30
0.0
 11
1550.522161455478
 21
2238.652367366803
 31
0.0
1001
ACAD
1010
0.0
1020
0.0
1030
0.0
  0
LINE
  5
4A49
330
A
100
AcDbEntity
  8
DIM
  6
Continuous
100
AcDbLine
 10
1313.098985421961
 20
1978.778551030613
 30
0.0
 11
1573.113977988382
 21
2238.793543597033
 31
0.0
1001
ACAD
1010
0.0
1020
0.0
1030
0.0
  0
LINE
  5
4A4A
330
A
100
AcDbEntity
  8
DIM
  6
Continuous
100
AcDbLine
 10
1323.935112617361
 20
1967.16403792334
 30
0.0
 11
1595.706612734551
 21
2238.93553804053
 31
0.0
1001
ACAD
1010
0.0
1020
0.0
1030
0.0
  0
LINE
  5
4A4B
330
A
100
AcDbEntity
  8
DIM
  6
Continuous
100
AcDbLine
 10
1335.852397358556
 20
1956.630682361862
 30
0.0
 11
1618.017830269741
 21
2238.796115273047
 31
0.0
1001
ACAD
1010
0.0
1020
0.0
1030
0.0
  0
LINE
  5
4A4C
330
A
100
AcDbEntity
  8
DIM
  6
Continuous
100
AcDbLine
 10
1348.962533189825
 20
1947.290177890458
 30
0.0
 11
1640.329047804931
 21
2238.656692505564
 31
0.0
1001
ACAD
1010
0.0
1020
0.0
1030
0.0
  0
LINE
  5
4A4D
330
A
100
AcDbEntity
  8
DIM
  6
Continuous
100
AcDbLine
 10
1363.255289045427
 20
1939.132293443388
 30
0.0
 11
1662.640265340122
 21
2238.517269738082
 31
0.0
1001
ACAD
1010
0.0
1020
0.0
1030
0.0
  0
LINE
  5
4A4E
330
A
100
AcDbEntity
  8
DIM
  6
Continuous
100
AcDbLine
 10
1378.941354512945
 20
1932.367718608233
 30
0.0
 11
1684.951482875312
 21
2238.3778469706
 31
0.0
1001
ACAD
1010
0.0
1020
0.0
1030
0.0
  0
LINE
  5
4A4F
330
A
100
AcDbEntity
  8
DIM
  6
Continuous
100
AcDbLine
 10
1396.190718996111
 20
1927.166442788725
 30
0.0
 11
1707.298033413893
 21
2238.273757206507
 31
0.0
1001
ACAD
1010
0.0
1020
0.0
1030
0.0
  0
LINE
  5
4A50
330
A
100
AcDbEntity
  8
DIM
  6
Continuous
100
AcDbLine
 10
1415.292184727464
 20
1923.817268217405
 30
0.0
 11
1729.610372303986
 21
2238.135455793928
 31
0.0
1001
ACAD
1010
0.0
1020
0.0
1030
0.0
  0
LINE
  5
4A51
330
A
100
AcDbEntity
  8
DIM
  6
Continuous
100
AcDbLine
 10
1436.325714938425
 20
1922.400158125694
 30
0.0
 11
1751.682582120778
 21
2237.757025308047
 31
0.0
1001
ACAD
1010
0.0
1020
0.0
1030
0.0
  0
LINE
  5
4A52
330
A
100
AcDbEntity
  8
DIM
  6
Continuous
100
AcDbLine
 10
1458.293990078798
 20
1921.917792963394
 30
0.0
 11
1772.967816799432
 21
2236.591619684027
 31
0.0
1001
ACAD
1010
0.0
1020
0.0
1030
0.0
  0
LINE
  5
4A53
330
A
100
AcDbEntity
  8
DIM
  6
Continuous
100
AcDbLine
 10
1480.559977768351
 20
1921.733140350274
 30
0.0
 11
1792.492769793899
 21
2233.665932375822
 31
0.0
1001
ACAD
1010
0.0
1020
0.0
1030
0.0
  0
LINE
  5
4A54
330
A
100
AcDbEntity
  8
DIM
  6
Continuous
100
AcDbLine
 10
1502.922447982549
 20
1921.644970261799
 30
0.0
 11
1810.069701583895
 21
2228.792223863145
 31
0.0
1001
ACAD
1010
0.0
1020
0.0
1030
0.0
  0
LINE
  5
4A55
330
A
100
AcDbEntity
  8
DIM
  6
Continuous
100
AcDbLine
 10
1525.236324746851
 20
1921.508206723428
 30
0.0
 11
1826.029617403935
 21
2222.301499380513
 31
0.0
1001
ACAD
1010
0.0
1020
0.0
1030
0.0
  0
LINE
  5
4A56
330
A
100
AcDbEntity
  8
DIM
  6
Continuous
100
AcDbLine
 10
1547.550201511153
 20
1921.371443185057
 30
0.0
 11
1840.621627125776
 21
2214.44286879968
 31
0.0
1001
ACAD
1010
0.0
1020
0.0
1030
0.0
  0
LINE
  5
4A57
330
A
100
AcDbEntity
  8
DIM
  6
Continuous
100
AcDbLine
 10
1569.864078275455
 20
1921.234679646686
 30
0.0
 11
1853.923765221211
 21
2205.294366592443
 31
0.0
1001
ACAD
1010
0.0
1020
0.0
1030
0.0
  0
LINE
  5
4A58
330
A
100
AcDbEntity
  8
DIM
  6
Continuous
100
AcDbLine
 10
1592.177955039757
 20
1921.097916108315
 30
0.0
 11
1866.110403715657
 21
2195.030364784215
 31
0.0
1001
ACAD
1010
0.0
1020
0.0
1030
0.0
  0
LINE
  5
4A59
330
A
100
AcDbEntity
  8
DIM
  6
Continuous
100
AcDbLine
 10
1614.712553518543
 20
1921.181874284429
 30
0.0
 11
1877.135670496175
 21
2183.60499126206
 31
0.0
1001
ACAD
1010
0.0
1020
0.0
1030
0.0
  0
LINE
  5
4A5A
330
A
100
AcDbEntity
  8
DIM
  6
Continuous
100
AcDbLine
 10
1637.30167803154
 20
1921.320358494753
 30
0.0
 11
1887.067592677717
 21
2171.08627314093
 31
0.0
1001
ACAD
1010
0.0
1020
0.0
1030
0.0
  0
LINE
  5
4A5B
330
A
100
AcDbEntity
  8
DIM
  6
Continuous
100
AcDbLine
 10
1659.890802544537
 20
1921.458842705077
 30
0.0
 11
1895.788978010791
 21
2157.357018171331
 31
0.0
1001
ACAD
1010
0.0
1020
0.0
1030
0.0
  0
LINE
  5
4A5C
330
A
100
AcDbEntity
  8
DIM
  6
Continuous
100
AcDbLine
 10
1682.479927057534
 20
1921.597326915401
 30
0.0
 11
1903.272272257723
 21
2142.38967211559
 31
0.0
1001
ACAD
1010
0.0
1020
0.0
1030
0.0
  0
LINE
  5
4A5D
330
A
100
AcDbEntity
  8
DIM
  6
Continuous
100
AcDbLine
 10
1705.041931708224
 20
1921.708691263418
 30
0.0
 11
1909.29252000895
 21
2125.959279564144
 31
0.0
1001
ACAD
1010
0.0
1020
0.0
1030
0.0
  0
LINE
  5
4A5E
330
A
100
AcDbEntity
  8
DIM
  6
Continuous
100
AcDbLine
 10
1727.610182936395
 20
1921.826302188916
 30
0.0
 11
1913.657170610679
 21
2107.8732898632
 31
0.0
1001
ACAD
1010
0.0
1020
0.0
1030
0.0
  0
LINE
  5
4A5F
330
A
100
AcDbEntity
  8
DIM
  6
Continuous
100
AcDbLine
 10
1750.416683039697
 20
1922.182161989545
 30
0.0
 11
1915.966506851055
 21
2087.731985800904
 31
0.0
1001
ACAD
1010
0.0
1020
0.0
1030
0.0
  0
LINE
  5
4A60
330
A
100
AcDbEntity
  8
DIM
  6
Continuous
100
AcDbLine
 10
1774.162686712311
 20
1923.477525359487
 30
0.0
 11
1915.409707224283
 21
2064.724545871458
 31
0.0
1001
ACAD
1010
0.0
1020
0.0
1030
0.0
  0
LINE
  5
4A61
330
A
100
AcDbEntity
  8
DIM
  6
Continuous
100
AcDbLine
 10
1801.732540128012
 20
1928.596738472515
 30
0.0
 11
1910.204560675621
 21
2037.068759020123
 31
0.0
1001
ACAD
1010
0.0
1020
0.0
1030
0.0
  0
LINE
  5
4A62
330
A
100
AcDbEntity
  8
DIM
  6
Continuous
100
AcDbLine
 10
1841.926957278574
 20
1946.340515320403
 30
0.0
 11
1892.299159914228
 21
1996.712717956058
 31
0.0
1001
ACAD
1010
0.0
1020
0.0
1030
0.0
  0
LINE
  5
4A63
330
A
100
AcDbEntity
  8
DIM
  6
Continuous
100
AcDbLine
 10
1565.095150384901
 20
2096.070874177516
 30
0.0
 11
1580.100447092924
 21
2111.076170885538
 31
0.0
1001
ACAD
1010
0.0
1020
0.0
1030
0.0
  0
LINE
  5
4A68
330
A
100
AcDbEntity
  8
DIM
  6
Continuous
100
AcDbLine
 10
1562.392145957097
 20
2070.917229447039
 30
0.0
 11
1605.272078797555
 21
2113.797162287497
 31
0.0
1001
ACAD
1010
0.0
1020
0.0
1030
0.0
  0
LINE
  5
4A6D
330
A
100
AcDbEntity
  8
DIM
  6
Continuous
100
AcDbLine
 10
1570.337475375793
 20
2056.411918563062
 30
0.0
 11
1619.772826506379
 21
2105.847269693648
 31
0.0
1001
ACAD
1010
0.0
1020
0.0
1030
0.0
  0
LINE
  5
4A72
330
A
100
AcDbEntity
  8
DIM
  6
Continuous
100
AcDbLine
 10
1583.685977922974
 20
2047.30978080757
 30
0.0
 11
1628.86713835017
 21
2092.490941234766
 31
0.0
1001
ACAD
1010
0.0
1020
0.0
1030
0.0
  0
LINE
  5
4A77
330
A
100
AcDbEntity
  8
DIM
  6
Continuous
100
AcDbLine
 10
1604.95194020415
 20
2046.125102786074
 30
0.0
 11
1630.058534863836
 21
2071.23169744576
 31
0.0
1001
ACAD
1010
0.0
1020
0.0
1030
0.0
  0
TEXT
  5
4A79
330
A
100
AcDbEntity
  8
TEMPLATE
  6
Continuous
100
AcDbText
 10
1594.213231327759
 20
2305.265570589865
 30
0.0
 40
24.4326171875
  1
カウンター置き
  7
ＭＳ ゴシック
100
AcDbText
  0
TEXT
  5
4A7A
330
A
100
AcDbEntity
  8
TEMPLATE
  6
Continuous
100
AcDbText
 10
1890.995894315555
 20
2275.261059206382
 30
0.0
 40
24.4326171875
  1
%%C100
  7
ＭＳ ゴシック
100
AcDbText
  0
LINE
  5
4A7B
330
A
100
AcDbEntity
  8
DIM
100
AcDbLine
 10
257.5629580748636
 20
1117.959794576287
 30
0.0
 11
257.5629580748636
 21
1259.405277547166
 31
0.0
  0
LINE
  5
4A7C
330
A
100
AcDbEntity
  8
DIM
100
AcDbLine
 10
607.1069520951811
 20
1119.254055440249
 30
0.0
 11
607.1069520951811
 21
1259.405277547166
 31
0.0
  0
LINE
  5
4A7D
330
A
100
AcDbEntity
  8
DIM
100
AcDbLine
 10
267.5629580748636
 20
1259.405277547166
 30
0.0
 11
597.1069520951811
 21
1259.405277547166
 31
0.0
  0
INSERT
  5
4A7E
330
A
100
AcDbEntity
  8
DIM
100
AcDbBlockReference
  2
_DOT
 10
257.5629580748636
 20
1259.405277547166
 30
0.0
 41
10.0
 42
10.0
 43
10.0
 50
180.0
  0
INSERT
  5
4A7F
330
A
100
AcDbEntity
  8
DIM
100
AcDbBlockReference
  2
_DOT
 10
607.1069520951811
 20
1259.405277547166
 30
0.0
 41
10.0
 42
10.0
 43
10.0
  0
MTEXT
  5
4A80
330
A
100
AcDbEntity
  8
DIM
100
AcDbMText
 10
432.3349550850223
 20
1291.409779235299
 30
0.0
 40
24.0
 41
0.0
 46
0.0
 71
     5
 72
     1
  1
\A1;350
  7
ＭＳ ゴシック
 73
     1
 44
1.0
  0
LINE
  5
4A81
330
A
100
AcDbEntity
  8
DIM
100
AcDbLine
 10
984.3351384829467
 20
1089.248245588708
 30
0.0
 11
1051.630320470089
 21
1089.248245588708
 31
0.0
  0
LINE
  5
4A82
330
A
100
AcDbEntity
  8
DIM
100
AcDbLine
 10
917.319744431919
 20
939.2766693610349
 30
0.0
 11
1051.630320470089
 21
939.2766693610349
 31
0.0
  0
LINE
  5
4A83
330
A
100
AcDbEntity
  8
DIM
100
AcDbLine
 10
1051.630320470089
 20
1079.248245588708
 30
0.0
 11
1051.630320470089
 21
949.2766693610349
 31
0.0
  0
INSERT
  5
4A84
330
A
100
AcDbEntity
  8
DIM
100
AcDbBlockReference
  2
_DOT
 10
1051.630320470089
 20
1089.248245588708
 30
0.0
 41
10.0
 42
10.0
 43
10.0
 50
90.0
  0
INSERT
  5
4A85
330
A
100
AcDbEntity
  8
DIM
100
AcDbBlockReference
  2
_DOT
 10
1051.630320470089
 20
939.2766693610349
 30
0.0
 41
10.0
 42
10.0
 43
10.0
 50
270.0
  0
MTEXT
  5
4A86
330
A
100
AcDbEntity
  8
DIM
100
AcDbMText
 10
1019.625818781956
 20
1014.262457474872
 30
0.0
 40
24.0
 41
0.0
 46
0.0
 71
     5
 72
     1
  1
\A1;150
  7
ＭＳ ゴシック
 11
0.0
 21
1.0
 31
0.0
 73
     1
 44
1.0
  0
LINE
  5
4A87
330
A
100
AcDbEntity
  8
DIM
100
AcDbLine
 10
889.2440912732119
 20
909.7699775527484
 30
0.0
 11
889.2440912732119
 21
804.5217581073026
 31
0.0
  0
LINE
  5
4A88
330
A
100
AcDbEntity
  8
DIM
100
AcDbLine
 10
324.9698129171512
 20
909.7699775527484
 30
0.0
 11
324.9698129171512
 21
804.5217581073026
 31
0.0
  0
LINE
  5
4A89
330
A
100
AcDbEntity
  8
DIM
100
AcDbLine
 10
879.2440912732119
 20
804.5217581073026
 30
0.0
 11
334.9698129171512
 21
804.5217581073026
 31
0.0
  0
INSERT
  5
4A8A
330
A
100
AcDbEntity
  8
DIM
100
AcDbBlockReference
  2
_DOT
 10
889.2440912732119
 20
804.5217581073026
 30
0.0
 41
10.0
 42
10.0
 43
10.0
  0
INSERT
  5
4A8B
330
A
100
AcDbEntity
  8
DIM
100
AcDbBlockReference
  2
_DOT
 10
324.9698129171512
 20
804.5217581073026
 30
0.0
 41
10.0
 42
10.0
 43
10.0
 50
180.0
  0
MTEXT
  5
4A8C
330
A
100
AcDbEntity
  8
DIM
100
AcDbMText
 10
607.1069520951816
 20
836.5262597954356
 30
0.0
 40
24.0
 41
0.0
 46
24.0
 71
     5
 72
     1
  1
{565}
  7
ＭＳ ゴシック
 73
     1
 44
1.0
1001
ACAD
1000
ACAD_MTEXT_DEFINED_HEIGHT_BEGIN
1070
    46
1040
24.0
1000
ACAD_MTEXT_DEFINED_HEIGHT_END
  0
LINE
  5
4A8D
330
A
100
AcDbEntity
  8
DIM
100
AcDbLine
 10
1411.512317898281
 20
1089.138635542676
 30
0.0
 11
1351.606163300206
 21
1089.138635542676
 31
0.0
  0
LINE
  5
4A8E
330
A
100
AcDbEntity
  8
DIM
100
AcDbLine
 10
1426.067793140045
 20
1014.352499423066
 30
0.0
 11
1351.606163300206
 21
1014.352499423066
 31
0.0
  0
LINE
  5
4A8F
330
A
100
AcDbEntity
  8
DIM
100
AcDbLine
 10
1351.606163300206
 20
1079.138635542676
 30
0.0
 11
1351.606163300206
 21
1024.352499423066
 31
0.0
  0
INSERT
  5
4A90
330
A
100
AcDbEntity
  8
DIM
100
AcDbBlockReference
  2
_DOT
 10
1351.606163300206
 20
1089.138635542676
 30
0.0
 41
10.0
 42
10.0
 43
10.0
 50
90.0
  0
INSERT
  5
4A91
330
A
100
AcDbEntity
  8
DIM
100
AcDbBlockReference
  2
_DOT
 10
1351.606163300206
 20
1014.352499423066
 30
0.0
 41
10.0
 42
10.0
 43
10.0
 50
270.0
  0
MTEXT
  5
4A92
330
A
100
AcDbEntity
  8
DIM
100
AcDbMText
 10
1319.601661612073
 20
1051.745567482871
 30
0.0
 40
24.0
 41
0.0
 46
0.0
 71
     5
 72
     1
  1
\A1;75
  7
ＭＳ ゴシック
 11
0.0
 21
1.0
 31
0.0
 73
     1
 44
1.0
  0
LINE
  5
4A93
330
A
100
AcDbEntity
  8
DIM
100
AcDbLine
 10
1507.605401751796
 20
909.7617051048413
 30
0.0
 11
1507.605401751796
 21
843.4171454601317
 31
0.0
  0
LINE
  5
4A94
330
A
100
AcDbEntity
  8
DIM
100
AcDbLine
 10
1744.881378550085
 20
909.7617051048416
 30
0.0
 11
1744.881378550085
 21
843.4171454601317
 31
0.0
  0
LINE
  5
4A95
330
A
100
AcDbEntity
  8
DIM
100
AcDbLine
 10
1517.605401751796
 20
843.4171454601317
 30
0.0
 11
1734.881378550085
 21
843.4171454601317
 31
0.0
  0
INSERT
  5
4A96
330
A
100
AcDbEntity
  8
DIM
100
AcDbBlockReference
  2
_DOT
 10
1507.605401751796
 20
843.4171454601317
 30
0.0
 41
10.0
 42
10.0
 43
10.0
 50
180.0
  0
INSERT
  5
4A97
330
A
100
AcDbEntity
  8
DIM
100
AcDbBlockReference
  2
_DOT
 10
1744.881378550085
 20
843.4171454601317
 30
0.0
 41
10.0
 42
10.0
 43
10.0
  0
MTEXT
  5
4A98
330
A
100
AcDbEntity
  8
DIM
100
AcDbMText
 10
1626.243390150941
 20
875.4216471482647
 30
0.0
 40
24.0
 41
0.0
 46
24.0
 71
     5
 72
     1
  1
{235}
  7
ＭＳ ゴシック
 73
     1
 44
1.0
1001
ACAD
1000
ACAD_MTEXT_DEFINED_HEIGHT_BEGIN
1070
    46
1040
24.0
1000
ACAD_MTEXT_DEFINED_HEIGHT_END
  0
LINE
  5
4A99
330
A
100
AcDbEntity
  8
DIM
100
AcDbLine
 10
1840.974462403599
 20
1089.138635542678
 30
0.0
 11
1906.384114011205
 21
1089.138635542678
 31
0.0
  0
LINE
  5
4A9A
330
A
100
AcDbEntity
  8
DIM
100
AcDbLine
 10
1678.14340461182
 20
942.3363443767506
 30
0.0
 11
1906.384114011205
 21
942.3363443767506
 31
0.0
  0
LINE
  5
4A9B
330
A
100
AcDbEntity
  8
DIM
100
AcDbLine
 10
1906.384114011205
 20
1079.138635542678
 30
0.0
 11
1906.384114011205
 21
952.3363443767506
 31
0.0
  0
INSERT
  5
4A9C
330
A
100
AcDbEntity
  8
DIM
100
AcDbBlockReference
  2
_DOT
 10
1906.384114011205
 20
1089.138635542678
 30
0.0
 41
10.0
 42
10.0
 43
10.0
 50
90.0
  0
INSERT
  5
4A9D
330
A
100
AcDbEntity
  8
DIM
100
AcDbBlockReference
  2
_DOT
 10
1906.384114011205
 20
942.3363443767506
 30
0.0
 41
10.0
 42
10.0
 43
10.0
 50
270.0
  0
MTEXT
  5
4A9E
330
A
100
AcDbEntity
  8
DIM
100
AcDbMText
 10
1874.379612323072
 20
1015.737489959714
 30
0.0
 40
24.0
 41
0.0
 46
24.0
 71
     5
 72
     1
  1
{145}
  7
ＭＳ ゴシック
 11
0.0
 21
1.0
 31
0.0
 73
     1
 44
1.0
1001
ACAD
1000
ACAD_MTEXT_DEFINED_HEIGHT_BEGIN
1070
    46
1040
24.0
1000
ACAD_MTEXT_DEFINED_HEIGHT_END
  0
LINE
  5
4A9F
330
A
100
AcDbEntity
  8
DIM
100
AcDbLine
 10
1626.243390150941
 20
815.4216471482647
 30
0.0
 11
1626.243390150941
 21
773.7441167499778
 31
0.0
  0
LINE
  5
4AA0
330
A
100
AcDbEntity
  8
DIM
100
AcDbLine
 10
1812.679192829739
 20
1025.63564318615
 30
0.0
 11
1812.679192829739
 21
773.7441167499778
 31
0.0
  0
LINE
  5
4AA1
330
A
100
AcDbEntity
  8
DIM
100
AcDbLine
 10
1636.243390150941
 20
773.7441167499778
 30
0.0
 11
1802.679192829739
 21
773.7441167499778
 31
0.0
  0
INSERT
  5
4AA2
330
A
100
AcDbEntity
  8
DIM
100
AcDbBlockReference
  2
_DOT
 10
1626.243390150941
 20
773.7441167499778
 30
0.0
 41
10.0
 42
10.0
 43
10.0
 50
180.0
  0
INSERT
  5
4AA3
330
A
100
AcDbEntity
  8
DIM
100
AcDbBlockReference
  2
_DOT
 10
1812.679192829739
 20
773.7441167499778
 30
0.0
 41
10.0
 42
10.0
 43
10.0
  0
MTEXT
  5
4AA4
330
A
100
AcDbEntity
  8
DIM
100
AcDbMText
 10
1719.46129149034
 20
805.7486184381108
 30
0.0
 40
24.0
 41
0.0
 46
24.0
 71
     5
 72
     1
  1
{185}
  7
ＭＳ ゴシック
 73
     1
 44
1.0
1001
ACAD
1000
ACAD_MTEXT_DEFINED_HEIGHT_BEGIN
1070
    46
1040
24.0
1000
ACAD_MTEXT_DEFINED_HEIGHT_END
  0
TEXT
  5
4AA5
330
A
100
AcDbEntity
  8
TEMPLATE
  6
Continuous
100
AcDbText
 10
218.2160224462175
 20
723.9488519676659
 30
0.0
 40
24.4326171875
  1
カウンター置き
  7
ＭＳ ゴシック
100
AcDbText
  0
TEXT
  5
4AA6
330
A
100
AcDbEntity
  8
TEMPLATE
  6
Continuous
100
AcDbText
 10
155.5520003581574
 20
661.7282938919021
 30
0.0
 40
24.4326171875
  1
半埋め込み
  7
ＭＳ ゴシック
100
AcDbText
  0
LINE
  5
4AA7
330
A
100
AcDbEntity
  8
DIM
100
AcDbLine
 10
1656.243376396365
 20
967.9437902800036
 30
0.0
 11
1626.5234929771
 21
967.9437902800036
 31
0.0
1001
ACAD
1000
DSTYLE
1002
{
1070
     3
1000
<>（深さ）
1070
   172
1070
     1
1002
}
  0
LINE
  5
4AA8
330
A
100
AcDbEntity
  8
DIM
100
AcDbLine
 10
1656.24339015094
 20
1089.244615052759
 30
0.0
 11
1626.5234929771
 21
1089.244615052759
 31
0.0
1001
ACAD
1000
DSTYLE
1002
{
1070
     3
1000
<>（深さ）
1070
   172
1070
     1
1002
}
  0
LINE
  5
4AA9
330
A
100
AcDbEntity
  8
DIM
100
AcDbLine
 10
1626.5234929771
 20
1089.244615052759
 30
0.0
 11
1626.5234929771
 21
1296.515841762776
 31
0.0
1001
ACAD
1000
DSTYLE
1002
{
1070
     3
1000
<>（深さ）
1070
   172
1070
     1
1002
}
  0
LINE
  5
4AAA
330
A
100
AcDbEntity
  8
DIM
100
AcDbLine
 10
1626.5234929771
 20
967.9437902800036
 30
0.0
 11
1626.5234929771
 21
1089.244615052759
 31
0.0
1001
ACAD
1000
DSTYLE
1002
{
1070
     3
1000
<>（深さ）
1070
   172
1070
     1
1002
}
  0
LINE
  5
4AAB
330
A
100
AcDbEntity
  8
DIM
100
AcDbLine
 10
1626.5234929771
 20
957.9437902800036
 30
0.0
 11
1626.5234929771
 21
947.9437902800036
 31
0.0
1001
ACAD
1000
DSTYLE
1002
{
1070
     3
1000
<>（深さ）
1070
   172
1070
     1
1002
}
  0
LINE
  5
4AAC
330
A
100
AcDbEntity
  8
DIM
100
AcDbLine
 10
1626.5234929771
 20
1099.244615052759
 30
0.0
 11
1626.5234929771
 21
1109.244615052759
 31
0.0
1001
ACAD
1000
DSTYLE
1002
{
1070
     3
1000
<>（深さ）
1070
   172
1070
     1
1002
}
  0
INSERT
  5
4AAD
330
A
100
AcDbEntity
  8
DIM
100
AcDbBlockReference
  2
_DOT
 10
1626.5234929771
 20
967.9437902800036
 30
0.0
 41
10.0
 42
10.0
 43
10.0
 50
90.0
1001
ACAD
1000
DSTYLE
1002
{
1070
     3
1000
<>（深さ）
1070
   172
1070
     1
1002
}
  0
INSERT
  5
4AAE
330
A
100
AcDbEntity
  8
DIM
100
AcDbBlockReference
  2
_DOT
 10
1626.5234929771
 20
1089.244615052759
 30
0.0
 41
10.0
 42
10.0
 43
10.0
 50
270.0
1001
ACAD
1000
DSTYLE
1002
{
1070
     3
1000
<>（深さ）
1070
   172
1070
     1
1002
}
  0
MTEXT
  5
4AAF
330
A
100
AcDbEntity
  8
DIM
100
AcDbMText
 10
1592.814352049252
 20
1202.880228407768
 30
0.0
 40
24.0
 41
0.0
 46
26.56896336126047
 71
     5
 72
     1
  1
{125（深さ）}
  7
ＭＳ ゴシック
 11
0.0
 21
1.0
 31
0.0
 73
     1
 44
1.0
1001
ACAD
1000
DSTYLE
1002
{
1070
     3
1000
<>（深さ）
1070
   172
1070
     1
1002
}
1000
ACAD_MTEXT_DEFINED_HEIGHT_BEGIN
1070
    46
1040
26.56896336126047
1000
ACAD_MTEXT_DEFINED_HEIGHT_END
  0
CIRCLE
  5
4B00
330
A
100
AcDbEntity
  8
MODEL
100
AcDbCircle
 10
1595.055150941086
 20
2081.129594128355
 30
0.0
 40
50.0
  0
SPLINE
  5
4B53
330
A
100
AcDbEntity
  8
MODEL
100
AcDbSpline
210
0.0
220
0.0
230
1.0
 70
  1064
 71
     3
 72
    29
 73
    25
 74
    23
 42
0.000000001
 43
0.0000000001
 44
0.0000000001
 12
0.0002175208341782811
 22
-0.9999999763423432
 32
0.0
 13
-0.9999999829174976
 23
0.0001848377797559163
 33
0.0
 40
0.0
 40
0.0
 40
0.0
 40
0.0
 40
13.07670904391626
 40
26.15536922225028
 40
39.23345692356904
 40
52.3073305401037
 40
65.37675402860766
 40
78.44400998090269
 40
91.51431358325169
 40
104.5911746393292
 40
117.6750100831942
 40
130.7638361979657
 40
143.8538841885995
 40
156.940414420971
 40
170.0189108746285
 40
183.0858976923495
 40
196.1401876355158
 40
209.1850586698919
 40
222.2303442506355
 40
235.2990612794476
 40
248.4363650761005
 40
261.7528359749542
 40
318.1727428737154
 40
431.8641207043494
 40
431.8641207043494
 40
431.8641207043494
 40
431.8641207043494
 10
942.0515507145635
 20
2081.078543799586
 30
0.0
 10
942.0524988667834
 20
2076.719640888069
 30
0.0
 10
941.7182853001709
 20
2067.997397885605
 30
0.0
 10
940.2137506371369
 20
2054.994099260255
 30
0.0
 10
937.7165469307945
 20
2042.144601107614
 30
0.0
 10
934.2397306154812
 20
2029.528183613469
 30
0.0
 10
929.7998244552223
 20
2017.221285201185
 30
0.0
 10
924.4195003498533
 20
2005.296766089754
 30
0.0
 10
918.1304447170645
 20
1993.822765169415
 30
0.0
 10
910.9724018057008
 20
1982.863368805432
 30
0.0
 10
902.9916883157109
 20
1972.480128185728
 30
0.0
 10
894.2402525596511
 20
1962.731906706791
 30
0.0
 10
884.7730101093429
 20
1953.675990892888
 30
0.0
 10
874.6472807239641
 20
1945.368186900151
 30
0.0
 10
863.9224309566334
 20
1937.862795999446
 30
0.0
 10
852.6598851928267
 20
1931.211944759486
 30
0.0
 10
840.9227479008499
 20
1925.464451251625
 30
0.0
 10
828.7760985779017
 20
1920.66174275931
 30
0.0
 10
816.2824175445398
 20
1916.833715316818
 30
0.0
 10
803.4963395438455
 20
1914.000726436069
 30
0.0
 10
790.4436343610059
 20
1912.115745561114
 30
0.0
 10
762.8662546149625
 20
1910.270951462713
 30
0.0
 10
701.6898372237616
 20
1910.489736738348
 30
0.0
 10
645.0040436026663
 20
1909.626636501222
 30
0.0
 10
607.1069183064994
 20
1909.63364132184
 30
0.0
 11
942.0515507145635
 21
2081.078543799586
 31
0.0
 11
941.5511353671311
 21
2068.011413131406
 31
0.0
 11
940.0482394961102
 21
2055.019390345819
 31
0.0
 11
937.5528319500461
 21
2042.181582156629
 31
0.0
 11
934.0785884128593
 21
2029.577781016281
 31
0.0
 11
929.6427571689053
 21
2017.284155371378
 31
0.0
 11
924.2686998756028
 21
2005.37312324435
 31
0.0
 11
917.9872184521894
 21
1993.911193765205
 31
0.0
 11
910.8372281233901
 21
1982.962132920638
 31
0.0
 11
902.8647571880006
 21
1972.587815733155
 31
0.0
 11
894.1213262053186
 21
1962.847703633502
 31
0.0
 11
884.6619419284264
 21
1953.799532243703
 31
0.0
 11
874.544261739082
 21
1945.499543020281
 31
0.0
 11
863.828076525391
 21
1938.002180553773
 31
0.0
 11
852.5754174821448
 21
1931.35960507803
 31
0.0
 11
840.8505317233362
 21
1925.620132988792
 31
0.0
 11
828.7191710009404
 21
1920.824432067486
 31
0.0
 11
816.2462437560064
 21
1917.002709703716
 31
0.0
 11
803.4892818077919
 21
1914.165230782037
 31
0.0
 11
790.4864706266287
 21
1912.2902234667
 31
0.0
 11
777.2076107387699
 21
1911.290084836994
 31
0.0
 11
720.7963188353383
 21
1910.304163820522
 31
0.0
 11
607.1069183064994
 21
1909.63364132184
 31
0.0
  0
SPLINE
  5
4B54
330
A
100
AcDbEntity
  8
MODEL
100
AcDbSpline
210
0.0
220
0.0
230
1.0
 70
  1064
 71
     3
 72
    29
 73
    25
 74
    23
 42
0.000000001
 43
0.0000000001
 44
0.0000000001
 12
-0.9999999829172778
 22
-0.0001848389681109909
 32
0.0
 13
0.000217520833635214
 23
0.9999999763423433
 33
0.0
 40
0.0
 40
0.0
 40
0.0
 40
0.0
 40
113.6913554708694
 40
170.1109415332675
 40
183.4277318388957
 40
196.5646702724513
 40
209.6342814902505
 40
222.6790366759564
 40
235.7237697270204
 40
248.7783513300174
 40
261.8452824606422
 40
274.9236819323384
 40
288.0102296097865
 40
301.1002914828882
 40
314.1891339902098
 40
327.2730318002918
 40
340.3498337227128
 40
353.4199091333628
 40
366.4875348495993
 40
379.5568917516612
 40
392.6306404705094
 40
405.7087246424198
 40
418.7873823742661
 40
431.8641377632337
 40
431.8641377632337
 40
431.8641377632337
 40
431.8641377632337
 10
607.1014047220818
 20
1909.63364132111
 30
0.0
 10
569.204286879178
 20
1909.626636456834
 30
0.0
 10
512.5185719576646
 20
1910.489189776213
 30
0.0
 10
451.3422379944336
 20
1910.271370458058
 30
0.0
 10
423.7649126838833
 20
1912.115460284607
 30
0.0
 10
410.7119956975613
 20
1914.000964021545
 30
0.0
 10
397.9258885365895
 20
1916.833798721279
 30
0.0
 10
385.4321846969011
 20
1920.661996663484
 30
0.0
 10
373.285517098504
 20
1925.464313814593
 30
0.0
 10
361.5484160196039
 20
1931.211976262974
 30
0.0
 10
350.2858254093684
 20
1937.862830431402
 30
0.0
 10
339.5610074583545
 20
1945.368191633407
 30
0.0
 10
329.4352969309376
 20
1953.67598360096
 30
0.0
 10
319.9680378002889
 20
1962.731903828565
 30
0.0
 10
311.2165721801281
 20
1972.480143531353
 30
0.0
 10
303.2359356577751
 20
1982.863449907014
 30
0.0
 10
296.0778393420219
 20
1993.822715448184
 30
0.0
 10
289.7886575238449
 20
2005.296684305736
 30
0.0
 10
284.4084589175512
 20
2017.221292640669
 30
0.0
 10
279.9686097879074
 20
2029.528268163795
 30
0.0
 10
276.4916997083797
 20
2042.144591661807
 30
0.0
 10
273.9945183497473
 20
2054.994053284222
 30
0.0
 10
272.490022751907
 20
2067.997368604505
 30
0.0
 10
272.1557973248673
 20
2076.719625439728
 30
0.0
 10
272.1567454804451
 20
2081.078543799595
 30
0.0
 11
607.1014047220818
 21
1909.63364132111
 31
0.0
 11
493.4120260455128
 21
1910.304077700852
 31
0.0
 11
437.0010567215381
 21
1911.29009564284
 31
0.0
 11
423.7218662991914
 21
1912.290098528401
 31
0.0
 11
410.7194509141337
 21
1914.165290668275
 31
0.0
 11
397.9616168031937
 21
1917.002966862304
 31
0.0
 11
385.4892035707887
 21
1920.824556324181
 31
0.0
 11
373.3578981869651
 21
1925.620021896775
 31
0.0
 11
361.6327707524224
 21
1931.35966365154
 31
0.0
 11
350.3801676943817
 21
1938.002224422106
 31
0.0
 11
339.6640577147004
 21
1945.499525246045
 31
0.0
 11
329.5463631719631
 21
1953.799524478213
 31
0.0
 11
320.0869642010659
 21
1962.847700590061
 31
0.0
 11
311.3435285270172
 21
1972.587830506815
 31
0.0
 11
303.3710566833454
 21
1982.962225650944
 31
0.0
 11
296.2210319311898
 21
1993.911193390498
 31
0.0
 11
289.9395892493822
 21
2005.372883888642
 31
0.0
 11
284.5654636104039
 21
2017.284290836443
 31
0.0
 11
280.1297135530496
 21
2029.57787498681
 31
0.0
 11
276.6554439822266
 21
2042.181539394943
 31
0.0
 11
274.1600339405113
 21
2055.019343503562
 31
0.0
 11
272.6571646196757
 21
2068.011366897602
 31
0.0
 11
272.1567454804451
 21
2081.078543799595
 31
0.0
  0
SPLINE
  5
4B55
330
A
100
AcDbEntity
  8
MODEL
100
AcDbSpline
210
0.0
220
0.0
230
1.0
 70
  1064
 71
     3
 72
    29
 73
    25
 74
    23
 42
0.000000001
 43
0.0000000001
 44
0.0000000001
 12
0.0002175208327023833
 22
0.9999999763423434
 32
0.0
 13
1.0
 23
1.030287278095137E-13
 33
0.0
 40
0.0
 40
0.0
 40
0.0
 40
0.0
 40
13.07537581006337
 40
26.15278768768911
 40
39.22959443757091
 40
52.30230946261077
 40
65.3706888513205
 40
78.43701917414313
 40
91.50633015678989
 40
104.5823406776255
 40
117.6654478919967
 40
130.7534612934402
 40
143.8427763229008
 40
156.9286061862098
 40
170.0063058823475
 40
183.072658751404
 40
196.1262876676662
 40
209.1699116400836
 40
222.2147345374157
 40
235.2817287039925
 40
248.4170343933939
 40
261.7318817112627
 40
318.1434053841679
 40
431.8246986594545
 40
431.8246986594545
 40
431.8246986594545
 40
431.8246986594545
 10
272.1567454804451
 20
2081.078543799609
 30
0.0
 10
272.1576935359898
 20
2085.437002299853
 30
0.0
 10
272.4956434241871
 20
2094.15823490078
 30
0.0
 10
274.0053741813295
 20
2107.159628832653
 30
0.0
 10
276.5074829660739
 20
2120.006913478891
 30
0.0
 10
279.988734459674
 20
2132.620893693384
 30
0.0
 10
284.4326141614982
 20
2144.92523669119
 30
0.0
 10
289.8162389889021
 20
2156.847165158618
 30
0.0
 10
296.107985037031
 20
2168.318626827097
 30
0.0
 10
303.2682247467029
 20
2179.275543112608
 30
0.0
 10
311.2503000134186
 20
2189.656706720413
 30
0.0
 10
320.0025695619379
 20
2199.403141474594
 30
0.0
 10
329.4700527137009
 20
2208.457695886567
 30
0.0
 10
339.5954720815513
 20
2216.764673280504
 30
0.0
 10
350.3195648285732
 20
2224.269884507504
 30
0.0
 10
361.5810563340125
 20
2230.921088828436
 30
0.0
 10
373.3165328365649
 20
2236.670038939204
 30
0.0
 10
385.4618272320556
 20
2241.473967014081
 30
0.0
 10
397.9534137940419
 20
2245.304847129196
 30
0.0
 10
410.7375013996024
 20
2248.140392678743
 30
0.0
 10
423.7879304505492
 20
2250.028570273629
 30
0.0
 10
451.3609313453445
 20
2251.879670544076
 30
0.0
 10
512.5309852775256
 20
2251.657599882848
 30
0.0
 10
569.2103836724104
 20
2252.528231479434
 30
0.0
 10
607.104148097506
 20
2252.528231479438
 30
0.0
 11
272.1567454804451
 21
2081.078543799609
 31
0.0
 11
272.6627227639175
 21
2094.144126050814
 31
0.0
 11
274.1708370590178
 21
2107.134287431258
 31
0.0
 11
276.6711081161517
 21
2119.969844272105
 31
0.0
 11
280.1497829015154
 21
2132.571221175586
 31
0.0
 11
284.5895516515423
 21
2144.862315239726
 31
0.0
 11
289.9669425071895
 21
2156.770827140493
 31
0.0
 11
296.2510979909688
 21
2168.230158683686
 31
0.0
 11
303.4032296864154
 21
2179.176804898486
 31
0.0
 11
311.377156745915
 21
2189.549084379512
 31
0.0
 11
320.121377252781
 21
2199.287395450928
 31
0.0
 11
329.5810206180967
 21
2208.334235525866
 31
0.0
 11
339.6984376277934
 21
2216.633441286863
 31
0.0
 11
350.4138220224406
 21
2224.130558507323
 31
0.0
 11
361.6654533856502
 21
2230.773627750161
 31
0.0
 11
373.3889690305591
 21
2236.514395016568
 31
0.0
 11
385.5184410032836
 21
2241.311481215159
 31
0.0
 11
397.9900528784101
 21
2245.135916030784
 31
0.0
 11
410.7446662403997
 21
2247.9760171796
 31
0.0
 11
423.7450242068862
 21
2249.854034298061
 31
0.0
 11
437.0220406018377
 21
2250.857027192526
 31
0.0
 11
493.4249058192819
 21
2251.845358291686
 31
0.0
 11
607.104148097506
 21
2252.528231479438
 31
0.0
  0
SPLINE
  5
4B56
330
A
100
AcDbEntity
  8
MODEL
100
AcDbSpline
210
0.0
220
0.0
230
1.0
 70
  1064
 71
     3
 72
    29
 73
    25
 74
    23
 42
0.000000001
 43
0.0000000001
 44
0.0000000001
 12
-0.0002175208324181494
 22
0.9999999763423434
 32
0.0
 13
-1.0
 23
0.0
 33
0.0
 40
0.0
 40
0.0
 40
0.0
 40
0.0
 40
13.07537581005835
 40
26.15278768768409
 40
39.22959443756594
 40
52.30230946260585
 40
65.37068885131681
 40
78.4370191741383
 40
91.50633015678076
 40
104.5823406776211
 40
117.6654478919919
 40
130.7534612934321
 40
143.8427763228924
 40
156.9286061862071
 40
170.0063058823478
 40
183.0726587513999
 40
196.1262876676615
 40
209.1699116400779
 40
222.2147345374106
 40
235.2817287039891
 40
248.4170343933882
 40
261.7318817112575
 40
318.1434053841605
 40
431.8246986594477
 40
431.8246986594477
 40
431.8246986594477
 40
431.8246986594477
 10
942.0515507145635
 20
2081.078543799614
 30
0.0
 10
942.05060265902
 20
2085.437002299856
 30
0.0
 10
941.7126527708213
 20
2094.158234900782
 30
0.0
 10
940.2029220136798
 20
2107.159628832653
 30
0.0
 10
937.7008132289349
 20
2120.006913478892
 30
0.0
 10
934.2195617353345
 20
2132.620893693384
 30
0.0
 10
929.7756820335102
 20
2144.92523669119
 30
0.0
 10
924.3920572061091
 20
2156.847165158618
 30
0.0
 10
918.1003111579798
 20
2168.318626827096
 30
0.0
 10
910.9400714483056
 20
2179.275543112607
 30
0.0
 10
902.9579961815923
 20
2189.656706720412
 30
0.0
 10
894.2057266330742
 20
2199.403141474594
 30
0.0
 10
884.7382434813084
 20
2208.457695886566
 30
0.0
 10
874.6128241134538
 20
2216.764673280501
 30
0.0
 10
863.8887313664336
 20
2224.269884507506
 30
0.0
 10
852.6272398609933
 20
2230.921088828436
 30
0.0
 10
840.891763358444
 20
2236.670038939204
 30
0.0
 10
828.7464689629533
 20
2241.47396701408
 30
0.0
 10
816.2548824009666
 20
2245.304847129197
 30
0.0
 10
803.4707947954057
 20
2248.140392678741
 30
0.0
 10
790.4203657444593
 20
2250.02857027363
 30
0.0
 10
762.847364849665
 20
2251.879670544076
 30
0.0
 10
701.6773109174846
 20
2251.657599882848
 30
0.0
 10
644.9979125226001
 20
2252.528231479438
 30
0.0
 10
607.1041480975044
 20
2252.528231479438
 30
0.0
 11
942.0515507145635
 21
2081.078543799614
 31
0.0
 11
941.5455734310915
 21
2094.144126050814
 31
0.0
 11
940.0374591359912
 21
2107.134287431258
 31
0.0
 11
937.5371880788571
 21
2119.969844272105
 31
0.0
 11
934.0585132934932
 21
2132.571221175586
 31
0.0
 11
929.6187445434664
 21
2144.862315239727
 31
0.0
 11
924.241353687821
 21
2156.770827140494
 31
0.0
 11
917.9571982040432
 21
2168.230158683683
 31
0.0
 11
910.8050665085927
 21
2179.176804898486
 31
0.0
 11
902.831139449095
 21
2189.549084379513
 31
0.0
 11
894.0869189422315
 21
2199.287395450927
 31
0.0
 11
884.6272755769144
 21
2208.334235525863
 31
0.0
 11
874.5098585672117
 21
2216.633441286862
 31
0.0
 11
863.7944741725635
 21
2224.130558507325
 31
0.0
 11
852.5428428093571
 21
2230.77362775016
 31
0.0
 11
840.8193271644493
 21
2236.514395016568
 31
0.0
 11
828.6898551917259
 21
2241.311481215159
 31
0.0
 11
816.2182433165988
 21
2245.135916030784
 31
0.0
 11
803.4636299546071
 21
2247.976017179599
 31
0.0
 11
790.4632719881231
 21
2249.854034298061
 31
0.0
 11
777.1862555931712
 21
2250.857027192526
 31
0.0
 11
720.7833903757291
 21
2251.845358291686
 31
0.0
 11
607.1041480975044
 21
2252.528231479438
 31
0.0
  0
DIMENSION
  5
4B5B
330
A
100
AcDbEntity
  8
DIM
100
AcDbDimension
  2
*D20
 10
180.6968366969058
 20
1909.731768036054
 30
0.0
 11
148.6923350087727
 21
2080.277706191206
 31
0.0
 70
    32
  1
340
 71
     5
 42
341.0918763103027
 73
     0
 74
     0
 75
     0
  3
tfrom線あり
100
AcDbAlignedDimension
 13
436.4065829342713
 23
2250.823644346357
 33
0.0
 14
440.9548645083056
 24
1909.731768036054
 34
0.0
 50
90.0
100
AcDbRotatedDimension
  0
DIMENSION
  5
4B6A
330
A
100
AcDbEntity
  8
DIM
100
AcDbDimension
  2
*D21
 10
942.0515507145635
 20
1762.895085441206
 30
0.0
 11
607.1041480975042
 21
1762.895085441206
 31
0.0
 70
   160
 71
     5
 42
669.8948052341184
 73
     0
 74
     0
 75
     0
  3
tfrom線あり
100
AcDbAlignedDimension
 13
272.1567454804451
 23
1991.658415367584
 33
0.0
 14
942.0515507145635
 24
1991.658415367584
 34
0.0
100
AcDbRotatedDimension
  0
HATCH
  5
4BA4
330
A
100
AcDbEntity
  8
DIM
  6
Continuous
100
AcDbHatch
 10
0.0
 20
0.0
 30
0.0
210
0.0
220
0.0
230
1.0
  2
ANSI31
 70
     0
 71
     0
 91
        1
 92
        1
 93
        1
 72
     2
 10
1595.125233336486
 20
2081.199676523755
 40
50.0
 50
0.0
 51
360.0
 73
     1
 97
        0
 75
     0
 76
     1
 52
0.0
 41
2.0
 77
     0
 78
     1
 53
45.0
 43
30.79828768215793
 44
90.07207030202107
 45
-4.490128060534577
 46
4.490128060534577
 79
     0
 98
        1
 10
61.96759839144397
 20
90.07207612160482
1001
ACAD
1010
0.0
1020
0.0
1030
0.0
  0
VIEWPORT
  5
349
330
B
100
AcDbEntity
 67
     1
  8
0
100
AcDbViewport
 10
202.5
 20
128.5
 30
0.0
 40
486.0
 41
308.4
 68
     1
 69
     1
 12
202.5
 22
128.5
 13
0.0
 23
0.0
 14
0.5
 24
0.5
 15
0.0
 25
0.0
 16
0.0
 26
0.0
 36
1.0
 17
0.0
 27
0.0
 37
0.0
 42
50.0
 43
0.0
 44
0.0
 45
308.4
 50
0.0
 51
0.0
 72
   100
 90
   557152
  1

281
     0
 71
     1
 74
     0
110
0.0
120
0.0
130
0.0
111
1.0
121
0.0
131
0.0
112
0.0
122
1.0
132
0.0
 79
     0
146
0.0
170
     0
 61
     5
348
26C
292
     1
282
     1
141
0.0
142
0.0
 63
   256
  0
VIEWPORT
  5
34A
330
B
100
AcDbEntity
 67
     1
  8
0
100
AcDbViewport
 10
202.5
 20
128.5
 30
0.0
 40
324.0
 41
205.6
 68
     2
 69
     2
 12
986.6781359294573
 22
1427.077061889956
 13
0.0
 23
0.0
 14
0.5
 24
0.5
 15
0.0
 25
0.0
 16
0.0
 26
0.0
 36
1.0
 17
0.0
 27
0.0
 37
0.0
 42
50.0
 43
0.0
 44
0.0
 45
2890.021615685494
 50
0.0
 51
0.0
 72
   100
 90
   557152
  1

281
     0
 71
     1
 74
     0
110
0.0
120
0.0
130
0.0
111
1.0
121
0.0
131
0.0
112
0.0
122
1.0
132
0.0
 79
     0
146
0.0
170
     0
 61
     5
348
26C
292
     1
282
     1
141
0.0
142
0.0
 63
   256
  0
ENDSEC
  0
SECTION
  2
OBJECTS
  0
DICTIONARY
  5
19
330
0
100
AcDbDictionary
281
     1
  3
ACAD_COLOR
350
674
  3
ACAD_DETAILVIEWSTYLE
350
BBF
  3
ACAD_FIELDLIST
350
146A
  3
ACAD_GROUP
350
1A
  3
ACAD_IMAGE_VARS
350
27B
  3
ACAD_LAYOUT
350
1E
  3
ACAD_MATERIAL
350
263
  3
ACAD_MLEADERSTYLE
350
336
  3
ACAD_MLINESTYLE
350
1B
  3
ACAD_PLOTSETTINGS
350
22
  3
ACAD_PLOTSTYLENAME
350
1F
  3
ACAD_SCALELIST
350
241
  3
ACAD_SECTIONVIEWSTYLE
350
BC0
  3
ACAD_TABLESTYLE
350
278
  3
ACAD_VISUALSTYLE
350
267
  3
ACDB_RECOMPOSE_DATA
350
4BAD
  3
AcDbVariableDictionary
350
330
  3
APPDATA
350
27A
  3
DimOffsetDictionary
350
E3E
  0
SUN
  5
904
330
15
100
AcDbSun
 90
        1
290
     0
 63
     7
421
 16777215
 40
1.0
291
     1
 91
  2455826
 92
 54000000
292
     0
 70
     2
 71
   256
280
     1
  0
DICTIONARY
  5
2E1
330
2
100
AcDbDictionary
280
     1
281
     1
  3
ACAD_LAYERSTATES
360
2E2
  3
ACLYDICTIONARY
360
DF9
  0
DICTIONARY
  5
374D
330
A
100
AcDbDictionary
280
     1
281
     1
  3
ACAD_SORTENTS
360
374E
  0
DICTIONARY
  5
1468
330
1466
100
AcDbDictionary
280
     1
281
     1
  3
ACAD_FIELD
360
36C0
  0
DICTIONARY
  5
674
102
{ACAD_REACTORS
330
19
102
}
330
19
100
AcDbDictionary
281
     1
  0
DICTIONARY
  5
BBF
102
{ACAD_REACTORS
330
19
102
}
330
19
100
AcDbDictionary
281
     1
  0
FIELDLIST
  5
146A
102
{ACAD_REACTORS
330
19
102
}
330
19
100
AcDbIdSet
 90
        2
330
146B
330
1467
100
AcDbFieldList
  0
DICTIONARY
  5
1A
102
{ACAD_REACTORS
330
19
102
}
330
19
100
AcDbDictionary
281
     1
  3
*A1
350
36AC
  3
*A2
350
47A4
  3
*A3
350
47BC
  3
*A4
350
47CF
  3
*A5
350
47EB
  0
RASTERVARIABLES
  5
27B
102
{ACAD_REACTORS
330
19
102
}
330
19
100
AcDbRasterVariables
 90
        0
 70
     1
 71
     1
 72
     1
  0
DICTIONARY
  5
1E
102
{ACAD_REACTORS
330
19
102
}
330
19
100
AcDbDictionary
281
     1
  3
Layout1
350
21
  3
Model
350
20
  0
DICTIONARY
  5
263
102
{ACAD_REACTORS
330
19
102
}
330
19
100
AcDbDictionary
281
     1
  3
ByBlock
350
265
  3
ByLayer
350
264
  3
Global
350
266
  0
DICTIONARY
  5
336
102
{ACAD_REACTORS
330
19
102
}
330
19
100
AcDbDictionary
281
     1
  3
Standard
350
DAB
  0
DICTIONARY
  5
1B
102
{ACAD_REACTORS
330
19
102
}
330
19
100
AcDbDictionary
281
     1
  3
Standard
350
1C
  0
DICTIONARY
  5
22
102
{ACAD_REACTORS
330
19
102
}
330
19
100
AcDbDictionary
281
     1
  0
ACDBDICTIONARYWDFLT
  5
1F
102
{ACAD_REACTORS
330
19
102
}
330
19
100
AcDbDictionary
281
     1
  3
Normal
350
1D
100
AcDbDictionaryWithDefault
340
1D
  0
DICTIONARY
  5
241
102
{ACAD_REACTORS
330
19
102
}
330
19
100
AcDbDictionary
281
     1
  3
A0
350
242
  3
A1
350
243
  3
A2
350
244
  3
A3
350
245
  3
A4
350
246
  3
A5
350
247
  3
A6
350
248
  3
A7
350
249
  3
A8
350
24A
  3
A9
350
24B
  3
B0
350
24C
  3
B1
350
24D
  3
B2
350
24E
  3
B3
350
24F
  3
B4
350
250
  3
B5
350
251
  3
B6
350
252
  3
B7
350
253
  3
B8
350
254
  3
B9
350
255
  3
C0
350
256
  3
C1
350
257
  3
C2
350
258
  3
C3
350
259
  3
C4
350
25A
  3
C5
350
25B
  3
C6
350
25C
  3
C7
350
25D
  3
C8
350
25E
  3
C9
350
25F
  3
D0
350
260
  3
D1
350
261
  3
D2
350
262
  0
DICTIONARY
  5
BC0
102
{ACAD_REACTORS
330
19
102
}
330
19
100
AcDbDictionary
281
     1
  0
DICTIONARY
  5
278
102
{ACAD_REACTORS
330
19
102
}
330
19
100
AcDbDictionary
281
     1
  3
Standard
350
279
  0
DICTIONARY
  5
267
102
{ACAD_REACTORS
330
19
102
}
330
19
100
AcDbDictionary
281
     1
  3
2dWireframe
350
26C
  3
3D Hidden
350
26E
  3
3dWireframe
350
26D
  3
Basic
350
26F
  3
Brighten
350
273
  3
ColorChange
350
277
  3
Conceptual
350
271
  3
Dim
350
272
  3
EdgeColorOff
350
8FE
  3
Facepattern
350
276
  3
Flat
350
268
  3
FlatWithEdges
350
269
  3
Gouraud
350
26A
  3
GouraudWithEdges
350
26B
  3
Hidden
350
8FB
  3
JitterOff
350
8FC
  3
Linepattern
350
275
  3
OverhangOff
350
8FD
  3
Realistic
350
270
  3
Shaded
350
903
  3
Shaded with edges
350
902
  3
Shades of Gray
350
8FF
  3
Sketchy
350
900
  3
Thicken
350
274
  3
Wireframe
350
8FA
  3
X-Ray
350
901
  0
XRECORD
  5
4BAD
102
{ACAD_REACTORS
330
19
102
}
330
19
100
AcDbXrecord
280
     1
 90
        1
330
279
  0
DICTIONARY
  5
330
102
{ACAD_REACTORS
330
19
102
}
330
19
100
AcDbDictionary
281
     1
  3
CANNOSCALE
350
331
  3
CMLEADERSTYLE
350
DB1
  3
CTABLESTYLE
350
335
  3
HPTRANSPARENCY
350
D52
  3
XCLIPFRAME
350
896
  0
DICTIONARY
  5
27A
102
{ACAD_REACTORS
330
19
102
}
330
19
100
AcDbDictionary
281
     1
  0
DICTIONARY
  5
E3E
102
{ACAD_REACTORS
330
19
102
}
330
19
100
AcDbDictionary
281
     1
  3
DIMRAILANGLE
350
ECE
  3
DIMRAILFIRSTOFFSET
350
ECC
  3
DIMRAILOFFSET
350
ECD
  3
DIMRAILSENABLED
350
ECF
  0
DICTIONARY
  5
2E2
102
{ACAD_REACTORS
330
2E1
102
}
330
2E1
100
AcDbDictionary
281
     1
  0
DICTIONARY
  5
DF9
102
{ACAD_REACTORS
330
2E1
102
}
330
2E1
100
AcDbDictionary
281
     1
1001
ACAD
1000
<All
  0
SORTENTSTABLE
  5
374E
102
{ACAD_REACTORS
330
374D
102
}
330
374D
100
AcDbSortentsTable
330
A
331
369B
  5
35AE
331
369C
  5
369A
331
36A7
  5
369B
331
36A8
  5
369C
331
36A9
  5
36A7
331
36AA
  5
36A8
331
36AB
  5
36A9
  0
DICTIONARY
  5
36C0
102
{ACAD_REACTORS
330
1468
102
}
330
1468
100
AcDbDictionary
280
     1
281
     1
  3
TEXT
360
1467
  0
GROUP
  5
36AC
102
{ACAD_REACTORS
330
1A
102
}
330
1A
100
AcDbGroup
300

 70
     1
 71
     1
340
369B
340
369C
340
36A7
340
36A8
340
36A9
340
36AA
340
36AB
  0
GROUP
  5
47A4
102
{ACAD_REACTORS
330
1A
102
}
330
1A
100
AcDbGroup
300

 70
     1
 71
     1
340
38D1
340
38CC
  0
GROUP
  5
47BC
102
{ACAD_REACTORS
330
1A
102
}
330
1A
100
AcDbGroup
300

 70
     1
 71
     1
340
47B5
340
47B6
  0
GROUP
  5
47CF
102
{ACAD_REACTORS
330
1A
102
}
330
1A
100
AcDbGroup
300

 70
     1
 71
     1
340
3894
340
389A
  0
GROUP
  5
47EB
102
{ACAD_REACTORS
330
1A
102
}
330
1A
100
AcDbGroup
300

 70
     1
 71
     1
340
47D7
340
47DD
  0
LAYOUT
  5
21
102
{ACAD_REACTORS
330
1E
102
}
330
1E
100
AcDbPlotSettings
  1

  2
none_device
  4
ISO_A3_(420.00_x_297.00_MM)
  6

 40
7.5
 41
20.0
 42
7.5
 43
20.0
 44
420.0
 45
297.0
 46
0.0
 47
0.0
 48
0.0
 49
0.0
140
0.0
141
0.0
142
1.0
143
1.0
 70
     0
 72
     1
 73
     0
 74
     0
  7

 75
     0
 76
     0
 77
     2
 78
   300
147
1.0
148
0.0
149
0.0
100
AcDbLayout
  1
Layout1
 70
     0
 71
     0
 10
-7.5
 20
-20.0
 11
412.5
 21
277.0
 12
0.0
 22
0.0
 32
0.0
 14
0.0
 24
0.0
 34
0.0
 15
0.0
 25
0.0
 35
0.0
146
0.0
 13
0.0
 23
0.0
 33
0.0
 16
0.0
 26
0.0
 36
0.0
 17
0.0
 27
0.0
 37
0.0
 76
     0
330
B
331
349
  0
LAYOUT
  5
20
102
{ACAD_REACTORS
330
1E
102
}
330
1E
100
AcDbPlotSettings
  1

  2
none_device
  4
ISO_A3_(420.00_x_297.00_MM)
  6

 40
7.5
 41
20.0
 42
7.5
 43
20.0
 44
420.0
 45
297.0
 46
0.0
 47
0.0
 48
0.0
 49
0.0
140
0.0
141
0.0
142
1.0
143
1.0
 70
  1024
 72
     1
 73
     0
 74
     0
  7

 75
     0
 76
     0
 77
     2
 78
   300
147
1.0
148
0.0
149
0.0
100
AcDbLayout
  1
Model
 70
     0
 71
     1
 10
0.0
 20
0.0
 11
2100.0
 21
2970.0
 12
0.0
 22
0.0
 32
0.0
 14
0.0
 24
0.0
 34
-0.0000000000000142
 15
2100.0
 25
2970.0
 35
34.99521132346014
146
0.0
 13
0.0
 23
0.0
 33
0.0
 16
0.0
 26
0.0
 36
0.0
 17
0.0
 27
0.0
 37
0.0
 76
     0
330
A
331
15
  0
MATERIAL
  5
265
102
{ACAD_REACTORS
330
263
102
}
330
263
100
AcDbMaterial
  1
ByBlock
 72
     1
 94
      127
  0
MATERIAL
  5
264
102
{ACAD_REACTORS
330
263
102
}
330
263
100
AcDbMaterial
  1
ByLayer
 72
     1
 94
      127
  0
MATERIAL
  5
266
102
{ACAD_REACTORS
330
263
102
}
330
263
100
AcDbMaterial
  1
Global
 72
     1
 94
      127
  0
MLEADERSTYLE
  5
DAB
102
{ACAD_REACTORS
330
336
102
}
330
336
100
AcDbMLeaderStyle
170
     2
171
     1
172
     0
 90
        2
 40
0.0
 41
0.0
173
     1
 91
-1056964608
340
11
 92
       -2
290
     1
 42
2.0
291
     1
 43
8.0
  3
Standard
341
0
 44
4.0
300

342
17
174
     1
178
     6
175
     1
176
     0
 93
-1056964608
 45
4.0
292
     0
297
     0
 46
4.0
343
0
 94
-1056964608
 47
1.0
 49
1.0
140
1.0
293
     1
141
0.0
294
     1
177
     0
142
1.0
295
     0
296
     0
143
3.75
1001
ACAD_MLEADERVER
1070
     2
  0
MLINESTYLE
  5
1C
102
{ACAD_REACTORS
330
1B
102
}
330
1B
100
AcDbMlineStyle
  2
Standard
 70
     0
  3

 62
     0
 51
90.0
 52
90.0
 71
     2
 49
0.5
 62
   256
  6
BYLAYER
 49
-0.5
 62
   256
  6
BYLAYER
  0
ACDBPLACEHOLDER
  5
1D
102
{ACAD_REACTORS
330
1F
102
}
330
1F
  0
SCALE
  5
242
102
{ACAD_REACTORS
330
241
102
}
330
241
100
AcDbScale
 70
     0
300
1:1
140
1.0
141
1.0
290
     1
  0
SCALE
  5
243
102
{ACAD_REACTORS
330
241
102
}
330
241
100
AcDbScale
 70
     0
300
1:2
140
1.0
141
2.0
290
     0
  0
SCALE
  5
244
102
{ACAD_REACTORS
330
241
102
}
330
241
100
AcDbScale
 70
     0
300
1:4
140
1.0
141
4.0
290
     0
  0
SCALE
  5
245
102
{ACAD_REACTORS
330
241
102
}
330
241
100
AcDbScale
 70
     0
300
1:5
140
1.0
141
5.0
290
     0
  0
SCALE
  5
246
102
{ACAD_REACTORS
330
241
102
}
330
241
100
AcDbScale
 70
     0
300
1:8
140
1.0
141
8.0
290
     0
  0
SCALE
  5
247
102
{ACAD_REACTORS
330
241
102
}
330
241
100
AcDbScale
 70
     0
300
1:10
140
1.0
141
10.0
290
     0
  0
SCALE
  5
248
102
{ACAD_REACTORS
330
241
102
}
330
241
100
AcDbScale
 70
     0
300
1:16
140
1.0
141
16.0
290
     0
  0
SCALE
  5
249
102
{ACAD_REACTORS
330
241
102
}
330
241
100
AcDbScale
 70
     0
300
1:20
140
1.0
141
20.0
290
     0
  0
SCALE
  5
24A
102
{ACAD_REACTORS
330
241
102
}
330
241
100
AcDbScale
 70
     0
300
1:30
140
1.0
141
30.0
290
     0
  0
SCALE
  5
24B
102
{ACAD_REACTORS
330
241
102
}
330
241
100
AcDbScale
 70
     0
300
1:40
140
1.0
141
40.0
290
     0
  0
SCALE
  5
24C
102
{ACAD_REACTORS
330
241
102
}
330
241
100
AcDbScale
 70
     0
300
1:50
140
1.0
141
50.0
290
     0
  0
SCALE
  5
24D
102
{ACAD_REACTORS
330
241
102
}
330
241
100
AcDbScale
 70
     0
300
1:100
140
1.0
141
100.0
290
     0
  0
SCALE
  5
24E
102
{ACAD_REACTORS
330
241
102
}
330
241
100
AcDbScale
 70
     0
300
2:1
140
2.0
141
1.0
290
     0
  0
SCALE
  5
24F
102
{ACAD_REACTORS
330
241
102
}
330
241
100
AcDbScale
 70
     0
300
4:1
140
4.0
141
1.0
290
     0
  0
SCALE
  5
250
102
{ACAD_REACTORS
330
241
102
}
330
241
100
AcDbScale
 70
     0
300
8:1
140
8.0
141
1.0
290
     0
  0
SCALE
  5
251
102
{ACAD_REACTORS
330
241
102
}
330
241
100
AcDbScale
 70
     0
300
10:1
140
10.0
141
1.0
290
     0
  0
SCALE
  5
252
102
{ACAD_REACTORS
330
241
102
}
330
241
100
AcDbScale
 70
     0
300
100:1
140
100.0
141
1.0
290
     0
  0
SCALE
  5
253
102
{ACAD_REACTORS
330
241
102
}
330
241
100
AcDbScale
 70
     0
300
1/128" = 1'-0"
140
0.0078125
141
12.0
290
     0
  0
SCALE
  5
254
102
{ACAD_REACTORS
330
241
102
}
330
241
100
AcDbScale
 70
     0
300
1/64" = 1'-0"
140
0.015625
141
12.0
290
     0
  0
SCALE
  5
255
102
{ACAD_REACTORS
330
241
102
}
330
241
100
AcDbScale
 70
     0
300
1/32" = 1'-0"
140
0.03125
141
12.0
290
     0
  0
SCALE
  5
256
102
{ACAD_REACTORS
330
241
102
}
330
241
100
AcDbScale
 70
     0
300
1/16" = 1'-0"
140
0.0625
141
12.0
290
     0
  0
SCALE
  5
257
102
{ACAD_REACTORS
330
241
102
}
330
241
100
AcDbScale
 70
     0
300
3/32" = 1'-0"
140
0.09375
141
12.0
290
     0
  0
SCALE
  5
258
102
{ACAD_REACTORS
330
241
102
}
330
241
100
AcDbScale
 70
     0
300
1/8" = 1'-0"
140
0.125
141
12.0
290
     0
  0
SCALE
  5
259
102
{ACAD_REACTORS
330
241
102
}
330
241
100
AcDbScale
 70
     0
300
3/16" = 1'-0"
140
0.1875
141
12.0
290
     0
  0
SCALE
  5
25A
102
{ACAD_REACTORS
330
241
102
}
330
241
100
AcDbScale
 70
     0
300
1/4" = 1'-0"
140
0.25
141
12.0
290
     0
  0
SCALE
  5
25B
102
{ACAD_REACTORS
330
241
102
}
330
241
100
AcDbScale
 70
     0
300
3/8" = 1'-0"
140
0.375
141
12.0
290
     0
  0
SCALE
  5
25C
102
{ACAD_REACTORS
330
241
102
}
330
241
100
AcDbScale
 70
     0
300
1/2" = 1'-0"
140
0.5
141
12.0
290
     0
  0
SCALE
  5
25D
102
{ACAD_REACTORS
330
241
102
}
330
241
100
AcDbScale
 70
     0
300
3/4" = 1'-0"
140
0.75
141
12.0
290
     0
  0
SCALE
  5
25E
102
{ACAD_REACTORS
330
241
102
}
330
241
100
AcDbScale
 70
     0
300
1" = 1'-0"
140
1.0
141
12.0
290
     0
  0
SCALE
  5
25F
102
{ACAD_REACTORS
330
241
102
}
330
241
100
AcDbScale
 70
     0
300
1-1/2" = 1'-0"
140
1.5
141
12.0
290
     0
  0
SCALE
  5
260
102
{ACAD_REACTORS
330
241
102
}
330
241
100
AcDbScale
 70
     0
300
3" = 1'-0"
140
3.0
141
12.0
290
     0
  0
SCALE
  5
261
102
{ACAD_REACTORS
330
241
102
}
330
241
100
AcDbScale
 70
     0
300
6" = 1'-0"
140
6.0
141
12.0
290
     0
  0
SCALE
  5
262
102
{ACAD_REACTORS
330
241
102
}
330
241
100
AcDbScale
 70
     0
300
1'-0" = 1'-0"
140
12.0
141
12.0
290
     0
  0
TABLESTYLE
  5
279
102
{ACAD_REACTORS
330
278
102
}
102
{ACAD_XDICTIONARY
360
4BAB
102
}
330
278
100
AcDbTableStyle
  3
Standard
 70
     0
 71
     0
 40
0.06
 41
0.06
280
     0
281
     0
  7
Standard
140
4.5
170
     2
 62
     0
 63
   257
283
     0
 90
        4
 91
        0
  1

274
    -2
284
     1
 64
     0
275
    -2
285
     1
 65
     0
276
    -2
286
     1
 66
     0
277
    -2
287
     1
 67
     0
278
    -2
288
     1
 68
     0
279
    -2
289
     1
 69
     0
  7
Standard
140
6.0
170
     5
 62
     0
 63
   257
283
     0
 90
        4
 91
        0
  1

274
    -2
284
     1
 64
     0
275
    -2
285
     1
 65
     0
276
    -2
286
     1
 66
     0
277
    -2
287
     1
 67
     0
278
    -2
288
     1
 68
     0
279
    -2
289
     1
 69
     0
  7
Standard
140
4.5
170
     5
 62
     0
 63
   257
283
     0
 90
        4
 91
        0
  1

274
    -2
284
     1
 64
     0
275
    -2
285
     1
 65
     0
276
    -2
286
     1
 66
     0
277
    -2
287
     1
 67
     0
278
    -2
288
     1
 68
     0
279
    -2
289
     1
 69
     0
  0
VISUALSTYLE
  5
26C
102
{ACAD_REACTORS
330
267
102
}
330
267
100
AcDbVisualStyle
  2
2dWireframe
 70
     4
 71
     0
 72
     2
 73
     0
 90
        0
 40
-0.6
 41
-30.0
 62
     5
 63
     7
421
 16777215
 74
     1
 91
        4
 64
     7
 65
   257
 75
     1
175
     1
 42
1.0
 92
        0
 66
   257
 43
1.0
 76
     1
 77
     6
 78
     2
 67
     7
 79
     5
170
     0
171
     0
290
     0
174
     0
 93
        1
 44
0.0
173
     0
291
     0
 45
0.0
  0
VISUALSTYLE
  5
26E
102
{ACAD_REACTORS
330
267
102
}
330
267
100
AcDbVisualStyle
  2
3D Hidden
 70
     6
 71
     1
 72
     2
 73
     2
 90
        0
 40
-0.6
 41
-30.0
 62
     5
 63
     7
421
 16777215
 74
     2
 91
        2
 64
     7
 65
   257
 75
     2
175
     1
 42
40.0
 92
        0
 66
   257
 43
1.0
 76
     1
 77
     6
 78
     2
 67
     7
 79
     3
170
     0
171
     0
290
     0
174
     0
 93
        1
 44
0.0
173
     0
291
     0
 45
0.0
  0
VISUALSTYLE
  5
26D
102
{ACAD_REACTORS
330
267
102
}
330
267
100
AcDbVisualStyle
  2
3dWireframe
 70
     5
 71
     0
 72
     2
 73
     0
 90
        0
 40
-0.6
 41
-30.0
 62
     5
 63
     7
421
 16777215
 74
     1
 91
        4
 64
     7
 65
   257
 75
     1
175
     1
 42
1.0
 92
        0
 66
   257
 43
1.0
 76
     1
 77
     6
 78
     2
 67
     7
 79
     5
170
     0
171
     0
290
     0
174
     0
 93
        1
 44
0.0
173
     0
291
     0
 45
0.0
  0
VISUALSTYLE
  5
26F
102
{ACAD_REACTORS
330
267
102
}
330
267
100
AcDbVisualStyle
  2
Basic
 70
     7
 71
     1
 72
     0
 73
     1
 90
        0
 40
-0.6
 41
-30.0
 62
     5
 63
     7
421
 16777215
 74
     0
 91
        4
 64
     7
 65
   257
 75
     1
175
     1
 42
1.0
 92
        8
 66
     7
 43
1.0
 76
     1
 77
     6
 78
     2
 67
     7
 79
     5
170
     0
171
     0
290
     0
174
     0
 93
        1
 44
0.0
173
     0
291
     1
 45
0.0
  0
VISUALSTYLE
  5
273
102
{ACAD_REACTORS
330
267
102
}
330
267
100
AcDbVisualStyle
  2
Brighten
 70
    12
 71
     2
 72
     2
 73
     0
 90
        0
 40
-0.6
 41
-30.0
 62
     5
 63
     7
421
 16777215
 74
     1
 91
        4
 64
     7
 65
   257
 75
     1
175
     1
 42
1.0
 92
        8
 66
     7
 43
1.0
 76
     1
 77
     6
 78
     2
 67
     7
 79
     5
170
     0
171
     0
290
     0
174
     0
 93
        1
 44
50.0
173
     0
291
     1
 45
0.0
  0
VISUALSTYLE
  5
277
102
{ACAD_REACTORS
330
267
102
}
330
267
100
AcDbVisualStyle
  2
ColorChange
 70
    16
 71
     2
 72
     2
 73
     3
 90
        0
 40
-0.6
 41
-30.0
 62
     5
 63
     8
421
  8421504
 74
     1
 91
        4
 64
     7
 65
   257
 75
     1
175
     1
 42
1.0
 92
        8
 66
     8
424
  8421504
 43
1.0
 76
     1
 77
     6
 78
     2
 67
     7
 79
     5
170
     0
171
     0
290
     0
174
     0
 93
        1
 44
0.0
173
     0
291
     1
 45
0.0
  0
VISUALSTYLE
  5
271
102
{ACAD_REACTORS
330
267
102
}
330
267
100
AcDbVisualStyle
  2
Conceptual
 70
     9
 71
     3
 72
     2
 73
     0
 90
        0
 40
-0.6
 41
-30.0
 62
     5
 63
     7
421
 16777215
 74
     2
 91
        2
 64
     7
 65
   257
 75
     1
175
     1
 42
40.0
 92
        8
 66
     7
 43
1.0
 76
     1
 77
     6
 78
     2
 67
     7
 79
     3
170
     0
171
     0
290
     0
174
     0
 93
        1
 44
0.0
173
     0
291
     0
 45
0.0
  0
VISUALSTYLE
  5
272
102
{ACAD_REACTORS
330
267
102
}
330
267
100
AcDbVisualStyle
  2
Dim
 70
    11
 71
     2
 72
     2
 73
     0
 90
        0
 40
-0.6
 41
-30.0
 62
     5
 63
     7
421
 16777215
 74
     1
 91
        4
 64
     7
 65
   257
 75
     1
175
     1
 42
1.0
 92
        8
 66
     7
 43
1.0
 76
     1
 77
     6
 78
     2
 67
     7
 79
     5
170
     0
171
     0
290
     0
174
     0
 93
        1
 44
-50.0
173
     0
291
     1
 45
0.0
  0
VISUALSTYLE
  5
8FE
102
{ACAD_REACTORS
330
267
102
}
330
267
100
AcDbVisualStyle
  2
EdgeColorOff
 70
    22
 71
     2
 72
     2
 73
     0
 90
        0
 40
0.6
 41
30.0
 62
     5
 63
     7
421
 16777215
 74
     1
 91
        4
 64
     7
 65
   257
 75
     1
175
     1
 42
1.0
 92
        8
 66
     7
 43
1.0
 76
     1
 77
     6
 78
     2
 67
     7
 79
     5
170
     0
171
     0
290
     0
174
     0
 93
        1
 44
0.0
173
     0
291
     1
 45
0.0
  0
VISUALSTYLE
  5
276
102
{ACAD_REACTORS
330
267
102
}
330
267
100
AcDbVisualStyle
  2
Facepattern
 70
    15
 71
     2
 72
     2
 73
     0
 90
        0
 40
-0.6
 41
-30.0
 62
     5
 63
     7
421
 16777215
 74
     1
 91
        4
 64
     7
 65
   257
 75
     1
175
     1
 42
1.0
 92
        8
 66
     7
 43
1.0
 76
     1
 77
     6
 78
     2
 67
     7
 79
     5
170
     0
171
     0
290
     0
174
     0
 93
        1
 44
0.0
173
     0
291
     1
 45
0.0
  0
VISUALSTYLE
  5
268
102
{ACAD_REACTORS
330
267
102
}
330
267
100
AcDbVisualStyle
  2
Flat
 70
     0
 71
     2
 72
     1
 73
     1
 90
        2
 40
-0.6
 41
30.0
 62
     5
 63
     7
421
 16777215
 74
     0
 91
        4
 64
     7
 65
   257
 75
     1
175
     1
 42
1.0
 92
        8
 66
     7
 43
1.0
 76
     1
 77
     6
 78
     2
 67
     7
 79
     5
170
     0
171
     0
290
     0
174
     0
 93
       13
 44
0.0
173
     0
291
     1
 45
0.0
  0
VISUALSTYLE
  5
269
102
{ACAD_REACTORS
330
267
102
}
330
267
100
AcDbVisualStyle
  2
FlatWithEdges
 70
     1
 71
     2
 72
     1
 73
     1
 90
        2
 40
-0.6
 41
30.0
 62
     5
 63
     7
421
 16777215
 74
     1
 91
        4
 64
     7
 65
   257
 75
     1
175
     1
 42
1.0
 92
        0
 66
   257
 43
1.0
 76
     1
 77
     6
 78
     2
 67
     7
 79
     5
170
     0
171
     0
290
     0
174
     0
 93
       13
 44
0.0
173
     0
291
     1
 45
0.0
  0
VISUALSTYLE
  5
26A
102
{ACAD_REACTORS
330
267
102
}
330
267
100
AcDbVisualStyle
  2
Gouraud
 70
     2
 71
     2
 72
     2
 73
     1
 90
        2
 40
-0.6
 41
30.0
 62
     5
 63
     7
421
 16777215
 74
     0
 91
        4
 64
     7
 65
   257
 75
     1
175
     1
 42
1.0
 92
        0
 66
     7
 43
1.0
 76
     1
 77
     6
 78
     2
 67
     7
 79
     5
170
     0
171
     0
290
     0
174
     0
 93
       13
 44
0.0
173
     0
291
     1
 45
0.0
  0
VISUALSTYLE
  5
26B
102
{ACAD_REACTORS
330
267
102
}
330
267
100
AcDbVisualStyle
  2
GouraudWithEdges
 70
     3
 71
     2
 72
     2
 73
     1
 90
        2
 40
-0.6
 41
30.0
 62
     5
 63
     7
421
 16777215
 74
     1
 91
        4
 64
     7
 65
   257
 75
     1
175
     1
 42
1.0
 92
        0
 66
   257
 43
1.0
 76
     1
 77
     6
 78
     2
 67
     7
 79
     5
170
     0
171
     0
290
     0
174
     0
 93
       13
 44
0.0
173
     0
291
     1
 45
0.0
  0
VISUALSTYLE
  5
8FB
102
{ACAD_REACTORS
330
267
102
}
330
267
100
AcDbVisualStyle
  2
Hidden
 70
     6
 71
     1
 72
     2
 73
     2
 90
        0
 40
0.6
 41
30.0
 62
     5
 63
     7
421
 16777215
 74
     2
 91
        2
 64
     7
 65
   257
 75
     2
175
     1
 42
40.0
 92
        0
 66
   257
 43
1.0
 76
     1
 77
     6
 78
     2
 67
     7
 79
     3
170
     0
171
     0
290
     0
174
     0
 93
        1
 44
0.0
173
     0
291
     0
 45
0.0
  0
VISUALSTYLE
  5
8FC
102
{ACAD_REACTORS
330
267
102
}
330
267
100
AcDbVisualStyle
  2
JitterOff
 70
    20
 71
     2
 72
     2
 73
     0
 90
        0
 40
0.6
 41
30.0
 62
     5
 63
     7
421
 16777215
 74
     1
 91
        4
 64
     7
 65
   257
 75
     1
175
     1
 42
1.0
 92
       10
 66
     7
 43
1.0
 76
     1
 77
     6
 78
     2
 67
     7
 79
     5
170
     0
171
     0
290
     0
174
     0
 93
        1
 44
0.0
173
     0
291
     1
 45
0.0
  0
VISUALSTYLE
  5
275
102
{ACAD_REACTORS
330
267
102
}
330
267
100
AcDbVisualStyle
  2
Linepattern
 70
    14
 71
     2
 72
     2
 73
     0
 90
        0
 40
-0.6
 41
-30.0
 62
     5
 63
     7
421
 16777215
 74
     1
 91
        4
 64
     7
 65
   257
 75
     7
175
     7
 42
1.0
 92
        8
 66
     7
 43
1.0
 76
     1
 77
     6
 78
     2
 67
     7
 79
     5
170
     0
171
     0
290
     0
174
     0
 93
        1
 44
0.0
173
     0
291
     1
 45
0.0
  0
VISUALSTYLE
  5
8FD
102
{ACAD_REACTORS
330
267
102
}
330
267
100
AcDbVisualStyle
  2
OverhangOff
 70
    21
 71
     2
 72
     2
 73
     0
 90
        0
 40
0.6
 41
30.0
 62
     5
 63
     7
421
 16777215
 74
     1
 91
        4
 64
     7
 65
   257
 75
     1
175
     1
 42
1.0
 92
        9
 66
     7
 43
1.0
 76
     1
 77
     6
 78
     2
 67
     7
 79
     5
170
     0
171
     0
290
     0
174
     0
 93
        1
 44
0.0
173
     0
291
     1
 45
0.0
  0
VISUALSTYLE
  5
270
102
{ACAD_REACTORS
330
267
102
}
330
267
100
AcDbVisualStyle
  2
Realistic
 70
     8
 71
     2
 72
     2
 73
     0
 90
        0
 40
-0.6
 41
-30.0
 62
     5
 63
     7
421
 16777215
 74
     1
 91
        0
 64
     7
 65
   257
 75
     1
175
     1
 42
1.0
 92
        8
 66
     8
424
  7895160
 43
1.0
 76
     1
 77
     6
 78
     2
 67
     7
 79
     5
170
     0
171
     0
290
     0
174
     0
 93
       13
 44
0.0
173
     0
291
     0
 45
0.0
  0
VISUALSTYLE
  5
903
102
{ACAD_REACTORS
330
267
102
}
330
267
100
AcDbVisualStyle
  2
Shaded
 70
    27
 71
     2
 72
     2
 73
     1
 90
        2
 40
0.6
 41
30.0
 62
     5
 63
     7
421
 16777215
 74
     0
 91
        4
 64
     7
 65
   257
 75
     1
175
     1
 42
1.0
 92
        8
 66
   257
 43
1.0
 76
     1
 77
     6
 78
     2
 67
     8
425
  7895160
 79
     3
170
     0
171
     0
290
     0
174
     0
 93
        5
 44
0.0
173
     0
291
     0
 45
0.0
  0
VISUALSTYLE
  5
902
102
{ACAD_REACTORS
330
267
102
}
330
267
100
AcDbVisualStyle
  2
Shaded with edges
 70
    26
 71
     2
 72
     2
 73
     1
 90
        2
 40
0.6
 41
30.0
 62
     5
 63
     7
421
 16777215
 74
     1
 91
       10
 64
     7
 65
   257
 75
     2
175
     1
 42
1.0
 92
        8
 66
   257
 43
1.0
 76
     1
 77
     6
 78
     2
 67
     7
 79
     3
170
     0
171
     0
290
     0
174
     0
 93
        5
 44
0.0
173
     0
291
     0
 45
0.0
  0
VISUALSTYLE
  5
8FF
102
{ACAD_REACTORS
330
267
102
}
330
267
100
AcDbVisualStyle
  2
Shades of Gray
 70
    23
 71
     2
 72
     2
 73
     3
 90
        0
 40
0.6
 41
30.0
 62
     5
 63
     7
421
 16777215
 74
     2
 91
        2
 64
     7
 65
     7
 75
     1
175
     1
 42
40.0
 92
        8
 66
     7
 43
1.0
 76
     1
 77
     6
 78
     2
 67
     7
 79
     3
170
     0
171
     0
290
     0
174
     0
 93
        1
 44
0.0
173
     0
291
     0
 45
0.0
  0
VISUALSTYLE
  5
900
102
{ACAD_REACTORS
330
267
102
}
330
267
100
AcDbVisualStyle
  2
Sketchy
 70
    24
 71
     1
 72
     2
 73
     2
 90
        0
 40
0.6
 41
30.0
 62
     5
 63
     7
421
 16777215
 74
     2
 91
        2
 64
     7
 65
     7
 75
     1
175
     1
 42
40.0
 92
       11
 66
     7
 43
1.0
 76
     1
 77
     6
 78
     2
 67
     7
 79
     6
170
     0
171
     0
290
     0
174
     0
 93
        1
 44
0.0
173
     0
291
     0
 45
0.0
  0
VISUALSTYLE
  5
274
102
{ACAD_REACTORS
330
267
102
}
330
267
100
AcDbVisualStyle
  2
Thicken
 70
    13
 71
     2
 72
     2
 73
     0
 90
        0
 40
-0.6
 41
-30.0
 62
     5
 63
     7
421
 16777215
 74
     1
 91
        4
 64
     7
 65
   257
 75
     1
175
     1
 42
1.0
 92
       12
 66
     7
 43
1.0
 76
     1
 77
     6
 78
     2
 67
     7
 79
     5
170
     0
171
     0
290
     0
174
     0
 93
        1
 44
0.0
173
     0
291
     1
 45
0.0
  0
VISUALSTYLE
  5
8FA
102
{ACAD_REACTORS
330
267
102
}
330
267
100
AcDbVisualStyle
  2
Wireframe
 70
     5
 71
     0
 72
     2
 73
     0
 90
        0
 40
0.6
 41
30.0
 62
     5
 63
     7
421
 16777215
 74
     1
 91
        4
 64
     7
 65
   257
 75
     1
175
     1
 42
1.0
 92
        0
 66
   257
 43
1.0
 76
     1
 77
     6
 78
     2
 67
     7
 79
     3
170
     0
171
     0
290
     0
174
     0
 93
        1
 44
0.0
173
     0
291
     0
 45
0.0
  0
VISUALSTYLE
  5
901
102
{ACAD_REACTORS
330
267
102
}
330
267
100
AcDbVisualStyle
  2
X-Ray
 70
    25
 71
     2
 72
     2
 73
     1
 90
        1
 40
0.5
 41
30.0
 62
     5
 63
     7
421
 16777215
 74
     1
 91
        0
 64
     7
 65
   257
 75
     1
175
     1
 42
1.0
 92
        8
 66
     7
 43
1.0
 76
     1
 77
     6
 78
     2
 67
     7
 79
     3
170
     0
171
     0
290
     0
174
     0
 93
       13
 44
0.0
173
     0
291
     0
 45
0.0
  0
DICTIONARYVAR
  5
331
102
{ACAD_REACTORS
330
330
102
}
330
330
100
DictionaryVariables
280
     0
  1
1:1
  0
DICTIONARYVAR
  5
DB1
102
{ACAD_REACTORS
330
330
102
}
330
330
100
DictionaryVariables
280
     0
  1
Standard
  0
DICTIONARYVAR
  5
335
102
{ACAD_REACTORS
330
330
102
}
330
330
100
DictionaryVariables
280
     0
  1
Standard
  0
DICTIONARYVAR
  5
D52
102
{ACAD_REACTORS
330
330
102
}
330
330
100
DictionaryVariables
280
     0
  1
ByLayer
  0
DICTIONARYVAR
  5
896
102
{ACAD_REACTORS
330
330
102
}
330
330
100
DictionaryVariables
280
     0
  1
0
  0
DICTIONARYVAR
  5
ECE
102
{ACAD_REACTORS
330
E3E
102
}
330
E3E
100
DictionaryVariables
280
     0
  1
0.261799
  0
DICTIONARYVAR
  5
ECC
102
{ACAD_REACTORS
330
E3E
102
}
330
E3E
100
DictionaryVariables
280
     0
  1
0.400000
  0
DICTIONARYVAR
  5
ECD
102
{ACAD_REACTORS
330
E3E
102
}
330
E3E
100
DictionaryVariables
280
     0
  1
0.250000
  0
DICTIONARYVAR
  5
ECF
102
{ACAD_REACTORS
330
E3E
102
}
330
E3E
100
DictionaryVariables
280
     0
  1
1
  0
FIELD
  5
1467
102
{ACAD_REACTORS
330
36C0
102
}
330
36C0
100
AcDbField
  1
_text
  2
{%<\_FldIdx 0>%N}
 90
        1
360
146B
 97
        0
 91
       63
 92
        0
 94
       11
 95
        2
 96
        0
300

 93
        1
  6
ACFD_FIELDTEXT_CHECKSUM
 93
        2
 90
        2
140
4495.0
 94
        0
300

302

304
ACVALUE_END
  7
ACFD_FIELD_VALUE
 93
        6
 90
        4
  1
{20181114N}
 94
        0
300

302

304
ACVALUE_END
301
{20181114N}
 98
       11
  0
DICTIONARY
  5
4BAB
330
279
100
AcDbDictionary
280
     1
281
     1
  3
ACAD_ROUNDTRIP_2008_TABLESTYLE_CELLSTYLEMAP
360
4BAC
  0
FIELD
  5
146B
330
1467
100
AcDbField
  1
AcVar
  2
\AcVar Date \f "yyyyMMdd"
 90
        0
 97
        0
 91
       63
 92
        0
 94
        8
 95
       64
 96
        0
300
Variable not supported
 93
        1
  6
Variable
 93
        2
 90
        4
  1
Date
 94
        0
300

302

304
ACVALUE_END
  7
ACFD_FIELD_VALUE
 93
        6
 90
        8
 92
       16
310
E2070B0000000E000A002D002F000000
 94
        0
300
yyyyMMdd
302

304
ACVALUE_END
301
20181114
 98
        8
  0
CELLSTYLEMAP
  5
4BAC
102
{ACAD_REACTORS
330
4BAB
102
}
330
4BAB
100
AcDbCellStyleMap
 90
        3
300
CELLSTYLE
  1
TABLEFORMAT_BEGIN
 90
        5
170
     1
 91
        0
 92
    32768
 62
   257
 93
        1
300
CONTENTFORMAT
  1
CONTENTFORMAT_BEGIN
 90
        0
 91
        0
 92
        4
 93
        0
300

 40
0.0
140
1.0
 94
        5
 62
     0
340
17
144
6.0
309
CONTENTFORMAT_END
171
     1
301
MARGIN
  1
CELLMARGIN_BEGIN
 40
0.06
 40
0.06
 40
0.06
 40
0.06
 40
0.18
 40
0.18
309
CELLMARGIN_END
 94
        6
 95
        1
302
GRIDFORMAT
  1
GRIDFORMAT_BEGIN
 90
        0
 91
        1
 62
     0
 92
       -2
340
0
 93
        0
 40
0.045
309
GRIDFORMAT_END
 95
        2
302
GRIDFORMAT
  1
GRIDFORMAT_BEGIN
 90
        0
 91
        1
 62
     0
 92
       -2
340
0
 93
        0
 40
0.045
309
GRIDFORMAT_END
 95
        4
302
GRIDFORMAT
  1
GRIDFORMAT_BEGIN
 90
        0
 91
        1
 62
     0
 92
       -2
340
0
 93
        0
 40
0.045
309
GRIDFORMAT_END
 95
        8
302
GRIDFORMAT
  1
GRIDFORMAT_BEGIN
 90
        0
 91
        1
 62
     0
 92
       -2
340
0
 93
        0
 40
0.045
309
GRIDFORMAT_END
 95
       16
302
GRIDFORMAT
  1
GRIDFORMAT_BEGIN
 90
        0
 91
        1
 62
     0
 92
       -2
340
0
 93
        0
 40
0.045
309
GRIDFORMAT_END
 95
       32
302
GRIDFORMAT
  1
GRIDFORMAT_BEGIN
 90
        0
 91
        1
 62
     0
 92
       -2
340
0
 93
        0
 40
0.045
309
GRIDFORMAT_END
309
TABLEFORMAT_END
  1
CELLSTYLE_BEGIN
 90
        1
 91
        1
300
_TITLE
309
CELLSTYLE_END
300
CELLSTYLE
  1
TABLEFORMAT_BEGIN
 90
        5
170
     1
 91
        0
 92
        0
 62
   257
 93
        1
300
CONTENTFORMAT
  1
CONTENTFORMAT_BEGIN
 90
        0
 91
        0
 92
        4
 93
        0
300

 40
0.0
140
1.0
 94
        5
 62
     0
340
17
144
4.5
309
CONTENTFORMAT_END
171
     1
301
MARGIN
  1
CELLMARGIN_BEGIN
 40
0.06
 40
0.06
 40
0.06
 40
0.06
 40
0.18
 40
0.18
309
CELLMARGIN_END
 94
        6
 95
        1
302
GRIDFORMAT
  1
GRIDFORMAT_BEGIN
 90
        0
 91
        1
 62
     0
 92
       -2
340
0
 93
        0
 40
0.045
309
GRIDFORMAT_END
 95
        2
302
GRIDFORMAT
  1
GRIDFORMAT_BEGIN
 90
        0
 91
        1
 62
     0
 92
       -2
340
0
 93
        0
 40
0.045
309
GRIDFORMAT_END
 95
        4
302
GRIDFORMAT
  1
GRIDFORMAT_BEGIN
 90
        0
 91
        1
 62
     0
 92
       -2
340
0
 93
        0
 40
0.045
309
GRIDFORMAT_END
 95
        8
302
GRIDFORMAT
  1
GRIDFORMAT_BEGIN
 90
        0
 91
        1
 62
     0
 92
       -2
340
0
 93
        0
 40
0.045
309
GRIDFORMAT_END
 95
       16
302
GRIDFORMAT
  1
GRIDFORMAT_BEGIN
 90
        0
 91
        1
 62
     0
 92
       -2
340
0
 93
        0
 40
0.045
309
GRIDFORMAT_END
 95
       32
302
GRIDFORMAT
  1
GRIDFORMAT_BEGIN
 90
        0
 91
        1
 62
     0
 92
       -2
340
0
 93
        0
 40
0.045
309
GRIDFORMAT_END
309
TABLEFORMAT_END
  1
CELLSTYLE_BEGIN
 90
        2
 91
        1
300
_HEADER
309
CELLSTYLE_END
300
CELLSTYLE
  1
TABLEFORMAT_BEGIN
 90
        5
170
     1
 91
        0
 92
        0
 62
   257
 93
        1
300
CONTENTFORMAT
  1
CONTENTFORMAT_BEGIN
 90
        0
 91
        0
 92
        4
 93
        0
300

 40
0.0
140
1.0
 94
        2
 62
     0
340
17
144
4.5
309
CONTENTFORMAT_END
171
     1
301
MARGIN
  1
CELLMARGIN_BEGIN
 40
0.06
 40
0.06
 40
0.06
 40
0.06
 40
0.18
 40
0.18
309
CELLMARGIN_END
 94
        6
 95
        1
302
GRIDFORMAT
  1
GRIDFORMAT_BEGIN
 90
        0
 91
        1
 62
     0
 92
       -2
340
0
 93
        0
 40
0.045
309
GRIDFORMAT_END
 95
        2
302
GRIDFORMAT
  1
GRIDFORMAT_BEGIN
 90
        0
 91
        1
 62
     0
 92
       -2
340
0
 93
        0
 40
0.045
309
GRIDFORMAT_END
 95
        4
302
GRIDFORMAT
  1
GRIDFORMAT_BEGIN
 90
        0
 91
        1
 62
     0
 92
       -2
340
0
 93
        0
 40
0.045
309
GRIDFORMAT_END
 95
        8
302
GRIDFORMAT
  1
GRIDFORMAT_BEGIN
 90
        0
 91
        1
 62
     0
 92
       -2
340
0
 93
        0
 40
0.045
309
GRIDFORMAT_END
 95
       16
302
GRIDFORMAT
  1
GRIDFORMAT_BEGIN
 90
        0
 91
        1
 62
     0
 92
       -2
340
0
 93
        0
 40
0.045
309
GRIDFORMAT_END
 95
       32
302
GRIDFORMAT
  1
GRIDFORMAT_BEGIN
 90
        0
 91
        1
 62
     0
 92
       -2
340
0
 93
        0
 40
0.045
309
GRIDFORMAT_END
309
TABLEFORMAT_END
  1
CELLSTYLE_BEGIN
 90
        3
 91
        2
300
_DATA
309
CELLSTYLE_END
  0
ENDSEC
  0
EOF
