  0
SECTION
  2
HEADER
  9
$ACADVER
  1
AC1021
  9
$ACADMAINTVER
 70
    25
  9
$DWGCODEPAGE
  3
ANSI_932
  9
$LASTSAVEDBY
  1
tform
  9
$INSBASE
 10
0.0
 20
0.0
 30
0.0
  9
$EXTMIN
 10
0.0
 20
0.0
 30
0.0
  9
$EXTMAX
 10
2100.0
 20
2970.0
 30
34.99521132346015
  9
$LIMMIN
 10
0.0
 20
0.0
  9
$LIMMAX
 10
2100.0
 20
2970.0
  9
$ORTHOMODE
 70
     1
  9
$REGENMODE
 70
     1
  9
$FILLMODE
 70
     1
  9
$QTEXTMODE
 70
     0
  9
$MIRRTEXT
 70
     1
  9
$LTSCALE
 40
5.0
  9
$ATTMODE
 70
     1
  9
$TEXTSIZE
 40
533.0403732820173
  9
$TRACEWID
 40
1.0
  9
$TEXTSTYLE
  7
Standard
  9
$CLAYER
  8
Dim
  9
$CELTYPE
  6
Continuous
  9
$CECOLOR
 62
   256
  9
$CELTSCALE
 40
1.0
  9
$DISPSILH
 70
     0
  9
$DIMSCALE
 40
1.0
  9
$DIMASZ
 40
9.0
  9
$DIMEXO
 40
25.0
  9
$DIMDLI
 40
25.0
  9
$DIMRND
 40
0.0
  9
$DIMDLE
 40
0.0
  9
$DIMEXE
 40
0.0
  9
$DIMTP
 40
0.0
  9
$DIMTM
 40
0.0
  9
$DIMTXT
 40
24.4326171875
  9
$DIMCEN
 40
0.0
  9
$DIMTSZ
 40
0.0
  9
$DIMTOL
 70
     0
  9
$DIMLIM
 70
     0
  9
$DIMTIH
 70
     0
  9
$DIMTOH
 70
     0
  9
$DIMSE1
 70
     0
  9
$DIMSE2
 70
     0
  9
$DIMTAD
 70
     1
  9
$DIMZIN
 70
    11
  9
$DIMBLK
  1
DOT
  9
$DIMASO
 70
     1
  9
$DIMSHO
 70
     1
  9
$DIMPOST
  1
<>
  9
$DIMAPOST
  1
[]
  9
$DIMALT
 70
     0
  9
$DIMALTD
 70
     1
  9
$DIMALTF
 40
1.0
  9
$DIMLFAC
 40
1.0
  9
$DIMTOFL
 70
     0
  9
$DIMTVP
 40
0.0
  9
$DIMTIX
 70
     1
  9
$DIMSOXD
 70
     0
  9
$DIMSAH
 70
     0
  9
$DIMBLK1
  1

  9
$DIMBLK2
  1

  9
$DIMSTYLE
  2
JIS
  9
$DIMCLRD
 70
     0
  9
$DIMCLRE
 70
     0
  9
$DIMCLRT
 70
     0
  9
$DIMTFAC
 40
1.0
  9
$DIMGAP
 40
10.0
  9
$DIMJUST
 70
     0
  9
$DIMSD1
 70
     0
  9
$DIMSD2
 70
     0
  9
$DIMTOLJ
 70
     1
  9
$DIMTZIN
 70
    11
  9
$DIMALTZ
 70
    11
  9
$DIMALTTZ
 70
    11
  9
$DIMUPT
 70
     0
  9
$DIMDEC
 70
     0
  9
$DIMTDEC
 70
     1
  9
$DIMALTU
 70
     2
  9
$DIMALTTD
 70
     2
  9
$DIMTXSTY
  7
ＭＳ ゴシック
  9
$DIMAUNIT
 70
     0
  9
$DIMADEC
 70
     0
  9
$DIMALTRND
 40
0.0
  9
$DIMAZIN
 70
     0
  9
$DIMDSEP
 70
    46
  9
$DIMATFIT
 70
     0
  9
$DIMFRAC
 70
     2
  9
$DIMLDRBLK
  1
DOT
  9
$DIMLUNIT
 70
     2
  9
$DIMLWD
 70
    -2
  9
$DIMLWE
 70
    -2
  9
$DIMTMOVE
 70
     0
  9
$DIMFXL
 40
1.0
  9
$DIMFXLON
 70
     0
  9
$DIMJOGANG
 40
0.7853981633974483
  9
$DIMTFILL
 70
     0
  9
$DIMTFILLCLR
 70
     0
  9
$DIMARCSYM
 70
     0
  9
$DIMLTYPE
  6

  9
$DIMLTEX1
  6

  9
$DIMLTEX2
  6

  9
$LUNITS
 70
     2
  9
$LUPREC
 70
     0
  9
$SKETCHINC
 40
0.1
  9
$FILLETRAD
 40
0.0
  9
$AUNITS
 70
     0
  9
$AUPREC
 70
     0
  9
$MENU
  1
acad
  9
$ELEVATION
 40
0.0
  9
$PELEVATION
 40
0.0
  9
$THICKNESS
 40
0.0
  9
$LIMCHECK
 70
     0
  9
$CHAMFERA
 40
0.0
  9
$CHAMFERB
 40
0.0
  9
$CHAMFERC
 40
0.0
  9
$CHAMFERD
 40
0.0
  9
$SKPOLY
 70
     0
  9
$TDCREATE
 40
2447893.375
  9
$TDUCREATE
 40
0.0
  9
$TDUPDATE
 40
2459499.685225185
  9
$TDUUPDATE
 40
2459499.310225185
  9
$TDINDWG
 40
0.1838710069
  9
$TDUSRTIMER
 40
0.0014457523
  9
$USRTIMER
 70
     1
  9
$ANGBASE
 50
0.0
  9
$ANGDIR
 70
     0
  9
$PDMODE
 70
     1
  9
$PDSIZE
 40
-2.0
  9
$PLINEWID
 40
0.0
  9
$SPLFRAME
 70
     0
  9
$SPLINETYPE
 70
     6
  9
$SPLINESEGS
 70
     8
  9
$HANDSEED
  5
2B43
  9
$SURFTAB1
 70
     6
  9
$SURFTAB2
 70
     6
  9
$SURFTYPE
 70
     6
  9
$SURFU
 70
     6
  9
$SURFV
 70
     6
  9
$UCSBASE
  2

  9
$UCSNAME
  2

  9
$UCSORG
 10
0.0
 20
0.0
 30
0.0
  9
$UCSXDIR
 10
1.0
 20
0.0
 30
0.0
  9
$UCSYDIR
 10
0.0
 20
1.0
 30
0.0
  9
$UCSORTHOREF
  2

  9
$UCSORTHOVIEW
 70
     0
  9
$UCSORGTOP
 10
0.0
 20
0.0
 30
0.0
  9
$UCSORGBOTTOM
 10
0.0
 20
0.0
 30
0.0
  9
$UCSORGLEFT
 10
0.0
 20
0.0
 30
0.0
  9
$UCSORGRIGHT
 10
0.0
 20
0.0
 30
0.0
  9
$UCSORGFRONT
 10
0.0
 20
0.0
 30
0.0
  9
$UCSORGBACK
 10
0.0
 20
0.0
 30
0.0
  9
$PUCSBASE
  2

  9
$PUCSNAME
  2

  9
$PUCSORG
 10
0.0
 20
0.0
 30
0.0
  9
$PUCSXDIR
 10
1.0
 20
0.0
 30
0.0
  9
$PUCSYDIR
 10
0.0
 20
1.0
 30
0.0
  9
$PUCSORTHOREF
  2

  9
$PUCSORTHOVIEW
 70
     0
  9
$PUCSORGTOP
 10
0.0
 20
0.0
 30
0.0
  9
$PUCSORGBOTTOM
 10
0.0
 20
0.0
 30
0.0
  9
$PUCSORGLEFT
 10
0.0
 20
0.0
 30
0.0
  9
$PUCSORGRIGHT
 10
0.0
 20
0.0
 30
0.0
  9
$PUCSORGFRONT
 10
0.0
 20
0.0
 30
0.0
  9
$PUCSORGBACK
 10
0.0
 20
0.0
 30
0.0
  9
$USERI1
 70
     0
  9
$USERI2
 70
     0
  9
$USERI3
 70
     0
  9
$USERI4
 70
     0
  9
$USERI5
 70
     0
  9
$USERR1
 40
0.0
  9
$USERR2
 40
0.0
  9
$USERR3
 40
0.0
  9
$USERR4
 40
0.0
  9
$USERR5
 40
0.0
  9
$WORLDVIEW
 70
     1
  9
$SHADEDGE
 70
     3
  9
$SHADEDIF
 70
    70
  9
$TILEMODE
 70
     1
  9
$MAXACTVP
 70
    64
  9
$PINSBASE
 10
0.0
 20
0.0
 30
0.0
  9
$PLIMCHECK
 70
     0
  9
$PEXTMIN
 10
0.0
 20
0.0
 30
0.0
  9
$PEXTMAX
 10
0.0
 20
0.0
 30
0.0
  9
$PLIMMIN
 10
-7.5
 20
-20.0
  9
$PLIMMAX
 10
412.5
 20
277.0
  9
$UNITMODE
 70
     0
  9
$VISRETAIN
 70
     0
  9
$PLINEGEN
 70
     1
  9
$PSLTSCALE
 70
     0
  9
$TREEDEPTH
 70
  3020
  9
$CMLSTYLE
  2
Standard
  9
$CMLJUST
 70
     0
  9
$CMLSCALE
 40
1.0
  9
$PROXYGRAPHICS
 70
     0
  9
$MEASUREMENT
 70
     1
  9
$CELWEIGHT
370
    -1
  9
$ENDCAPS
280
     0
  9
$JOINSTYLE
280
     0
  9
$LWDISPLAY
290
     1
  9
$INSUNITS
 70
     4
  9
$HYPERLINKBASE
  1

  9
$STYLESHEET
  1

  9
$XEDIT
290
     1
  9
$CEPSNTYPE
380
     0
  9
$PSTYLEMODE
290
     1
  9
$FINGERPRINTGUID
  2

  9
$VERSIONGUID
  2

  9
$EXTNAMES
290
     1
  9
$PSVPSCALE
 40
0.0
  9
$OLESTARTUP
290
     0
  9
$SORTENTS
280
   127
  9
$INDEXCTL
280
     0
  9
$HIDETEXT
280
     1
  9
$XCLIPFRAME
290
     0
  9
$HALOGAP
280
     0
  9
$OBSCOLOR
 70
   257
  9
$OBSLTYPE
280
     0
  9
$INTERSECTIONDISPLAY
280
     0
  9
$INTERSECTIONCOLOR
 70
   257
  9
$DIMASSOC
280
     2
  9
$PROJECTNAME
  1

  9
$CAMERADISPLAY
290
     0
  9
$LENSLENGTH
 40
50.0
  9
$CAMERAHEIGHT
 40
0.0
  9
$STEPSPERSEC
 40
2.0
  9
$STEPSIZE
 40
6.0
  9
$3DDWFPREC
 40
2.0
  9
$PSOLWIDTH
 40
0.25
  9
$PSOLHEIGHT
 40
4.0
  9
$LOFTANG1
 40
1.570796326794897
  9
$LOFTANG2
 40
1.570796326794897
  9
$LOFTMAG1
 40
0.0
  9
$LOFTMAG2
 40
0.0
  9
$LOFTPARAM
 70
     7
  9
$LOFTNORMALS
280
     1
  9
$LATITUDE
 40
37.795
  9
$LONGITUDE
 40
-122.394
  9
$NORTHDIRECTION
 40
0.0
  9
$TIMEZONE
 70
 -8000
  9
$LIGHTGLYPHDISPLAY
280
     1
  9
$TILEMODELIGHTSYNCH
280
     1
  9
$SOLIDHIST
280
     1
  9
$SHOWHIST
280
     1
  9
$DWFFRAME
280
     2
  9
$DGNFRAME
280
     2
  9
$REALWORLDSCALE
290
     1
  9
$INTERFERECOLOR
 62
   256
  9
$CSHADOW
280
     0
  9
$SHADOWPLANELOCATION
 40
0.0
  0
ENDSEC
  0
SECTION
  2
CLASSES
  0
CLASS
  1
LWPOLYLINE
  2
AcDbPolyline
  3
ObjectDBX Classes
 90
        0
 91
        1
280
     0
281
     1
  0
CLASS
  1
IMAGE
  2
AcDbRasterImage
  3
ISM
 90
      127
 91
        4
280
     0
281
     1
  0
CLASS
  1
OLE2FRAME
  2
AcDbOle2Frame
  3
ObjectDBX Classes
 90
        0
 91
        1
280
     0
281
     1
  0
CLASS
  1
HATCH
  2
AcDbHatch
  3
ObjectDBX Classes
 90
        0
 91
        1
280
     0
281
     1
  0
CLASS
  1
DICTIONARYVAR
  2
AcDbDictionaryVar
  3
ObjectDBX Classes
 90
        0
 91
        3
280
     0
281
     0
  0
CLASS
  1
RASTERVARIABLES
  2
AcDbRasterVariables
  3
ISM
 90
        0
 91
        3
280
     0
281
     0
  0
CLASS
  1
IMAGEDEF
  2
AcDbRasterImageDef
  3
ISM
 90
        0
 91
        3
280
     0
281
     0
  0
CLASS
  1
IMAGEDEF_REACTOR
  2
AcDbRasterImageDefReactor
  3
ISM
 90
        1
 91
        3
280
     0
281
     0
  0
CLASS
  1
IDBUFFER
  2
AcDbIdBuffer
  3
ObjectDBX Classes
 90
        0
 91
        3
280
     0
281
     0
  0
CLASS
  1
SPATIAL_FILTER
  2
AcDbSpatialFilter
  3
ObjectDBX Classes
 90
        0
 91
        3
280
     0
281
     0
  0
CLASS
  1
XRECORD
  2
AcDbXrecord
  3
ObjectDBX Classes
 90
        0
 91
        1
280
     0
281
     0
  0
CLASS
  1
SORTENTSTABLE
  2
AcDbSortentsTable
  3
ObjectDBX Classes
 90
        0
 91
        3
280
     0
281
     0
  0
CLASS
  1
LAYER_INDEX
  2
AcDbLayerIndex
  3
ObjectDBX Classes
 90
        0
 91
        3
280
     0
281
     0
  0
CLASS
  1
SPATIAL_INDEX
  2
AcDbSpatialIndex
  3
AutoCAD 2000
 90
        0
 91
        3
280
     0
281
     0
  0
CLASS
  1
OBJECT_PTR
  2
CAseDLPNTableRecord
  3
ASE-LPNTableRecord
 90
        1
 91
        3
280
     0
281
     0
  0
CLASS
  1
LAYOUT
  2
AcDbLayout
  3
ObjectDBX Classes
 90
        0
 91
        1
280
     0
281
     0
  0
CLASS
  1
PLOTSETTINGS
  2
AcDbPlotSettings
  3
ObjectDBX Classes
 90
        0
 91
        3
280
     0
281
     0
  0
CLASS
  1
ACDBDICTIONARYWDFLT
  2
AcDbDictionaryWithDefault
  3
ObjectDBX Classes
 90
        0
 91
        3
280
     0
281
     0
  0
CLASS
  1
ACDBPLACEHOLDER
  2
AcDbPlaceHolder
  3
ObjectDBX Classes
 90
        0
 91
        1
280
     0
281
     0
  0
CLASS
  1
SCALE
  2
AcDbScale
  3
ObjectDBX Classes
 90
     1153
 91
        3
280
     0
281
     0
  0
CLASS
  1
MATERIAL
  2
AcDbMaterial
  3
ObjectDBX Classes
 90
     1153
 91
        3
280
     0
281
     0
  0
CLASS
  1
VISUALSTYLE
  2
AcDbVisualStyle
  3
ObjectDBX Classes
 90
     4095
 91
        3
280
     0
281
     0
  0
CLASS
  1
TABLESTYLE
  2
AcDbTableStyle
  3
ObjectDBX Classes
 90
     4095
 91
        3
280
     0
281
     0
  0
CLASS
  1
DIMASSOC
  2
AcDbDimAssoc
  3
"AcDbDimAssoc|Product Desc:     AcDim ARX App For Dimension|Company:          Autodesk, Inc.|WEB Address:      www.autodesk.com"
 90
        0
 91
        3
280
     0
281
     0
  0
CLASS
  1
CELLSTYLEMAP
  2
AcDbCellStyleMap
  3
ObjectDBX Classes
 90
     1152
 91
        3
280
     0
281
     0
  0
CLASS
  1
SUN
  2
AcDbSun
  3
SCENEOE
 90
     1153
 91
        3
280
     0
281
     0
  0
CLASS
  1
MLEADERSTYLE
  2
AcDbMLeaderStyle
  3
ACDB_MLEADERSTYLE_CLASS
 90
     4095
 91
        3
280
     0
281
     0
  0
CLASS
  1
FIELD
  2
AcDbField
  3
ObjectDBX Classes
 90
     1152
 91
        3
280
     0
281
     0
  0
CLASS
  1
FIELDLIST
  2
AcDbFieldList
  3
ObjectDBX Classes
 90
     1152
 91
        3
280
     0
281
     0
  0
CLASS
  1
ACDB_ALDIMOBJECTCONTEXTDATA_CLASS
  2
AcDbAlignedDimensionObjectContextData
  3
ObjectDBX Classes
 90
     1153
 91
        3
280
     0
281
     0
  0
ENDSEC
  0
SECTION
  2
TABLES
  0
TABLE
  2
VPORT
  5
7
330
0
100
AcDbSymbolTable
 70
     1
  0
VPORT
  5
15
330
7
100
AcDbSymbolTableRecord
100
AcDbViewportTableRecord
  2
*ACTIVE
 70
     0
 10
0.0
 20
0.0
 11
1.0
 21
1.0
 12
672.9525617540357
 22
1782.612370234511
 13
0.0
 23
0.0
 14
1.0
 24
1.0
 15
0.0
 25
0.0
 16
0.0
 26
0.0
 36
1.0
 17
377.0474382459643
 27
-297.6123702345112
 37
0.0
 40
3029.4
 41
2.333333333333333
 42
50.0
 43
0.0
 44
0.0
 50
0.0
 51
0.0
 71
    16
 72
  2000
 73
     1
 74
     1
 75
     0
 76
     0
 77
     0
 78
     0
281
     0
 65
     1
110
0.0
120
0.0
130
0.0
111
1.0
121
0.0
131
0.0
112
0.0
122
1.0
132
0.0
 79
     0
146
0.0
348
26C
 60
     3
 61
     5
292
     1
282
     1
141
0.0
142
0.0
 63
   256
361
8C2
  0
ENDTAB
  0
TABLE
  2
LTYPE
  5
4
330
0
100
AcDbSymbolTable
 70
     3
  0
LTYPE
  5
11
330
4
100
AcDbSymbolTableRecord
100
AcDbLinetypeTableRecord
  2
ByBlock
 70
     0
  3

 72
    65
 73
     0
 40
0.0
  0
LTYPE
  5
12
330
4
100
AcDbSymbolTableRecord
100
AcDbLinetypeTableRecord
  2
ByLayer
 70
     0
  3

 72
    65
 73
     0
 40
0.0
  0
LTYPE
  5
13
330
4
100
AcDbSymbolTableRecord
100
AcDbLinetypeTableRecord
  2
Continuous
 70
     0
  3
Solid line
 72
    65
 73
     0
 40
0.0
  0
LTYPE
  5
8D4
330
4
100
AcDbSymbolTableRecord
100
AcDbLinetypeTableRecord
  2
HIDDEN
 70
     0
  3
Hidden _ _ _ _ _ _ _ _ _ _ _ _ _ _ _ _ _ _ _ _ 
 72
    65
 73
     2
 40
9.524999999999999
 49
6.35
 74
     0
 49
-3.175
 74
     0
  0
LTYPE
  5
BF2
330
4
100
AcDbSymbolTableRecord
100
AcDbLinetypeTableRecord
  2
BORDER
 70
     0
  3
Border __  __  . __  __  . __  __  . __  __  . 
 72
    65
 73
     6
 40
44.45
 49
12.7
 74
     0
 49
-6.35
 74
     0
 49
12.7
 74
     0
 49
-6.35
 74
     0
 49
0.0
 74
     0
 49
-6.35
 74
     0
  0
ENDTAB
  0
TABLE
  2
LAYER
  5
2
102
{ACAD_XDICTIONARY
360
2E1
102
}
330
0
100
AcDbSymbolTable
 70
     8
  0
LAYER
  5
14
330
2
100
AcDbSymbolTableRecord
100
AcDbLayerTableRecord
  2
0
 70
     0
 62
     7
  6
Continuous
370
    -3
390
1D
347
266
  0
LAYER
  5
4A
330
2
100
AcDbSymbolTableRecord
100
AcDbLayerTableRecord
  2
Defpoints
 70
     0
 62
     7
  6
Continuous
290
     0
370
    20
390
1D
347
266
  0
LAYER
  5
4B
330
2
100
AcDbSymbolTableRecord
100
AcDbLayerTableRecord
  2
template
 70
     0
 62
     7
  6
Continuous
370
    20
390
1D
347
266
  0
LAYER
  5
4D
330
2
100
AcDbSymbolTableRecord
100
AcDbLayerTableRecord
  2
MODEL
 70
     0
 62
     7
  6
Continuous
370
    20
390
1D
347
266
  0
LAYER
  5
382
330
2
100
AcDbSymbolTableRecord
100
AcDbLayerTableRecord
  2
レイヤー 1
 70
     0
 62
     7
  6
Continuous
370
    -3
390
1D
347
266
  0
LAYER
  5
5C4
330
2
100
AcDbSymbolTableRecord
100
AcDbLayerTableRecord
  2
HIDDEN
 70
     0
 62
   253
  6
HIDDEN
370
    20
390
1D
347
266
1001
AcAecLayerStandard
1000

1000

  0
LAYER
  5
5EB
330
2
100
AcDbSymbolTableRecord
100
AcDbLayerTableRecord
  2
Dim
 70
     0
 62
     3
  6
Continuous
370
    13
390
1D
347
266
1001
AcAecLayerStandard
1000

1000

  0
LAYER
  5
BF1
330
2
100
AcDbSymbolTableRecord
100
AcDbLayerTableRecord
  2
PRINT BORDER
 70
     0
 62
     4
  6
BORDER
290
     0
370
    20
390
1D
347
266
1001
AcAecLayerStandard
1000

1000

  0
ENDTAB
  0
TABLE
  2
STYLE
  5
3
330
0
100
AcDbSymbolTable
 70
     2
  0
STYLE
  5
17
330
3
100
AcDbSymbolTableRecord
100
AcDbTextStyleTableRecord
  2
Standard
 70
     0
 40
0.0
 41
1.0
 50
0.0
 71
     0
 42
533.0403732820173
  3
txt
  4
BIGFONT.SHX
  0
STYLE
  5
39
330
3
100
AcDbSymbolTableRecord
100
AcDbTextStyleTableRecord
  2
ＭＳ ゴシック
 70
     0
 40
0.0
 41
1.0
 50
0.0
 71
     0
 42
2.5
  3
msgothic.ttc
  4
ＭＳ ゴシック
1001
ACAD
1000
ＭＳ ゴシック
1071
        0
  0
ENDTAB
  0
TABLE
  2
VIEW
  5
5
330
0
100
AcDbSymbolTable
 70
     0
  0
ENDTAB
  0
TABLE
  2
UCS
  5
6
330
0
100
AcDbSymbolTable
 70
     0
  0
ENDTAB
  0
TABLE
  2
APPID
  5
8
330
0
100
AcDbSymbolTable
 70
    15
  0
APPID
  5
16
330
8
100
AcDbSymbolTableRecord
100
AcDbRegAppTableRecord
  2
ACAD
 70
     0
  0
APPID
  5
5C5
330
8
100
AcDbSymbolTableRecord
100
AcDbRegAppTableRecord
  2
AcAecLayerStandard
 70
     0
  0
APPID
  5
913
330
8
100
AcDbSymbolTableRecord
100
AcDbRegAppTableRecord
  2
ACAD_DSTYLE_DIMBREAK
 70
     0
  0
APPID
  5
914
330
8
100
AcDbSymbolTableRecord
100
AcDbRegAppTableRecord
  2
ACAD_DSTYLE_DIMJAG
 70
     0
  0
APPID
  5
915
330
8
100
AcDbSymbolTableRecord
100
AcDbRegAppTableRecord
  2
ACAD_DSTYLE_DIMTALN
 70
     0
  0
APPID
  5
E4F
330
8
100
AcDbSymbolTableRecord
100
AcDbRegAppTableRecord
  2
ACAD_MLEADERVER
 70
     0
  0
APPID
  5
E79
330
8
100
AcDbSymbolTableRecord
100
AcDbRegAppTableRecord
  2
ACAD_PSEXT
 70
     0
  0
APPID
  5
E7A
330
8
100
AcDbSymbolTableRecord
100
AcDbRegAppTableRecord
  2
ACAD_NAV_VCDISPLAY
 70
     0
  0
APPID
  5
166E
330
8
100
AcDbSymbolTableRecord
100
AcDbRegAppTableRecord
  2
AcadAnnotative
 70
     0
  0
APPID
  5
166F
330
8
100
AcDbSymbolTableRecord
100
AcDbRegAppTableRecord
  2
GradientColor1ACI
 70
     0
  0
APPID
  5
1670
330
8
100
AcDbSymbolTableRecord
100
AcDbRegAppTableRecord
  2
GradientColor2ACI
 70
     0
  0
APPID
  5
22AC
330
8
100
AcDbSymbolTableRecord
100
AcDbRegAppTableRecord
  2
PLOTTRANSPARENCY
 70
     0
  0
APPID
  5
22B8
330
8
100
AcDbSymbolTableRecord
100
AcDbRegAppTableRecord
  2
AcCmTransparency
 70
     0
  0
APPID
  5
2959
330
8
100
AcDbSymbolTableRecord
100
AcDbRegAppTableRecord
  2
HATCHBACKGROUNDCOLOR
 70
     0
  0
APPID
  5
2A96
330
8
100
AcDbSymbolTableRecord
100
AcDbRegAppTableRecord
  2
ACAD_DSTYLE_DIMRADIAL_EXTENSION
 70
     0
  0
ENDTAB
  0
TABLE
  2
DIMSTYLE
  5
9
330
0
100
AcDbSymbolTable
 70
     5
100
AcDbDimStyleTable
  0
DIMSTYLE
105
5C
102
{ACAD_REACTORS
330
28FD
330
2973
330
298F
330
299F
330
29B5
330
29C5
330
29D5
330
29E5
330
29F8
330
2A28
330
2ADE
330
2AED
330
2B10
330
2B2B
102
}
330
9
100
AcDbSymbolTableRecord
100
AcDbDimStyleTableRecord
  2
JIS
 70
     0
  3
<>
  4
[]
 41
9.0
 42
0.0
 43
6.99999999999994
 44
19.9999999999962
 73
     0
 74
     0
 77
     1
 78
    11
140
24.4326171875
141
0.0
143
1.0
147
10.0
171
     1
174
     1
178
     0
179
     2
271
     1
272
     1
276
     2
284
    11
285
    11
286
    11
289
     0
340
39
341
4E
342
4E
  0
DIMSTYLE
105
2ABE
330
9
100
AcDbSymbolTableRecord
100
AcDbDimStyleTableRecord
  2
Piccolo Standard
 70
     0
 41
9.0
 42
0.0
 43
3.75
 44
0.0
 90
        2
 73
     0
 77
     1
 78
     8
140
9.0
141
0.0
143
0.03937007874016
147
3.0
171
     3
178
     0
271
     0
272
     0
274
     3
278
    44
283
     0
284
     8
340
17
341
2AC0
342
4E
1001
ACAD_DSTYLE_DIMBREAK
1070
   391
1040
3.75
1001
ACAD_DSTYLE_DIMJAG
1070
   388
1040
1.5
1001
ACAD_DSTYLE_DIMTALN
1070
   392
1070
     0
  0
DIMSTYLE
105
2AC6
330
9
100
AcDbSymbolTableRecord
100
AcDbDimStyleTableRecord
  2
AM_DIN
 70
     0
  4
"
 41
3.5
 42
1.0
 43
10.0
 44
1.0
 47
0.1
 48
0.1
 50
89.99999999999996
 73
     0
 74
     0
 77
     1
 78
     8
 79
     2
140
3.5
141
0.0
143
0.0393701
146
0.71
147
1.5
172
     1
176
   256
177
   256
271
     2
178
     2
271
     2
272
     3
274
     4
283
     0
284
     8
340
17
371
    -1
372
    -1
345
11
346
11
347
11
1001
ACAD_DSTYLE_DIMJAG
1070
   388
1040
1.5
1001
ACAD_DSTYLE_DIMBREAK
1070
   391
1040
3.75
  0
DIMSTYLE
105
2AC7
330
9
100
AcDbSymbolTableRecord
100
AcDbDimStyleTableRecord
  2
ISO-25
 70
     0
 41
2.5
 42
0.625
 43
3.75
 44
1.25
 73
     0
 74
     0
 77
     1
 78
     8
140
2.5
141
2.5
143
0.03937007874016
147
0.625
171
     3
172
     1
178
     0
271
     2
272
     2
274
     3
283
     0
284
     8
340
17
  0
DIMSTYLE
105
2AC8
330
9
100
AcDbSymbolTableRecord
100
AcDbDimStyleTableRecord
  2
TFORM
 70
     0
 41
9.0
 42
5.0
 43
3.75
 44
0.0
 73
     0
 74
     0
 77
     1
 78
     8
140
12.0
141
0.0
143
0.03937007874016
147
6.0
171
     3
172
     1
178
     0
271
     0
272
     0
274
     3
278
    44
283
     0
284
     8
340
17
341
2AC0
342
4E
1001
ACAD_DSTYLE_DIMJAG
1070
   388
1040
1.5
1001
ACAD_DSTYLE_DIMTALN
1070
   392
1070
     0
  0
ENDTAB
  0
TABLE
  2
BLOCK_RECORD
  5
1
330
0
100
AcDbSymbolTable
 70
    23
  0
BLOCK_RECORD
  5
A
102
{ACAD_XDICTIONARY
360
295A
102
}
330
1
100
AcDbSymbolTableRecord
100
AcDbBlockTableRecord
  2
*MODEL_SPACE
340
20
 70
     0
280
     1
281
     0
  0
BLOCK_RECORD
  5
B
330
1
100
AcDbSymbolTableRecord
100
AcDbBlockTableRecord
  2
*PAPER_SPACE
340
21
 70
     0
280
     1
281
     0
  0
BLOCK_RECORD
  5
4E
330
1
100
AcDbSymbolTableRecord
100
AcDbBlockTableRecord
  2
_DOT
340
0
102
{BLKREFS
331
2906
331
2907
331
297A
331
297B
331
2996
331
2997
331
29A6
331
29A7
331
29BC
331
29BD
331
29CC
331
29CD
331
29DC
331
29DD
331
29EC
331
29ED
331
29FF
331
2A00
331
2A15
331
2A16
331
2A31
331
2A32
331
2AE7
331
2AE8
331
2AF6
331
2AF7
331
2B19
331
2B1A
331
2B34
331
2B35
102
}
 70
     0
280
     1
281
     0
  0
BLOCK_RECORD
  5
3A5
330
1
100
AcDbSymbolTableRecord
100
AcDbBlockTableRecord
  2
名称未設定-1
340
0
102
{BLKREFS
331
3D0
102
}
 70
     1
280
     1
281
     0
  0
BLOCK_RECORD
  5
3A8
330
1
100
AcDbSymbolTableRecord
100
AcDbBlockTableRecord
  2
block 2
340
0
102
{BLKREFS
331
3A7
102
}
 70
     0
280
     1
281
     0
  0
BLOCK_RECORD
  5
3AB
330
1
100
AcDbSymbolTableRecord
100
AcDbBlockTableRecord
  2
block 3
340
0
102
{BLKREFS
331
3AA
102
}
 70
     0
280
     1
281
     0
  0
BLOCK_RECORD
  5
3AE
330
1
100
AcDbSymbolTableRecord
100
AcDbBlockTableRecord
  2
block 4
340
0
102
{BLKREFS
331
3AD
102
}
 70
     0
280
     1
281
     0
  0
BLOCK_RECORD
  5
3BD
330
1
100
AcDbSymbolTableRecord
100
AcDbBlockTableRecord
  2
block 5
340
0
102
{BLKREFS
331
3BC
102
}
 70
     0
280
     1
281
     0
  0
BLOCK_RECORD
  5
11F0
330
1
100
AcDbSymbolTableRecord
100
AcDbBlockTableRecord
  2
BLOCK_2
340
0
102
{BLKREFS
331
1273
331
127B
331
127C
102
}
 70
     0
280
     1
281
     0
  0
BLOCK_RECORD
  5
2900
330
1
100
AcDbSymbolTableRecord
100
AcDbBlockTableRecord
  2
*D7
340
0
 70
     0
280
     1
281
     0
  0
BLOCK_RECORD
  5
2974
330
1
100
AcDbSymbolTableRecord
100
AcDbBlockTableRecord
  2
*D8
340
0
 70
     0
280
     1
281
     0
  0
BLOCK_RECORD
  5
2990
330
1
100
AcDbSymbolTableRecord
100
AcDbBlockTableRecord
  2
*D9
340
0
 70
     0
280
     1
281
     0
  0
BLOCK_RECORD
  5
29A0
330
1
100
AcDbSymbolTableRecord
100
AcDbBlockTableRecord
  2
*D10
340
0
 70
     0
280
     1
281
     0
  0
BLOCK_RECORD
  5
29B6
330
1
100
AcDbSymbolTableRecord
100
AcDbBlockTableRecord
  2
*D11
340
0
 70
     0
280
     1
281
     0
  0
BLOCK_RECORD
  5
29C6
330
1
100
AcDbSymbolTableRecord
100
AcDbBlockTableRecord
  2
*D12
340
0
 70
     0
280
     1
281
     0
  0
BLOCK_RECORD
  5
29D6
330
1
100
AcDbSymbolTableRecord
100
AcDbBlockTableRecord
  2
*D13
340
0
 70
     0
280
     1
281
     0
  0
BLOCK_RECORD
  5
29E6
330
1
100
AcDbSymbolTableRecord
100
AcDbBlockTableRecord
  2
*D14
340
0
 70
     0
280
     1
281
     0
  0
BLOCK_RECORD
  5
29F9
330
1
100
AcDbSymbolTableRecord
100
AcDbBlockTableRecord
  2
*D15
340
0
 70
     0
280
     1
281
     0
  0
BLOCK_RECORD
  5
2A0F
330
1
100
AcDbSymbolTableRecord
100
AcDbBlockTableRecord
  2
*D16
340
0
 70
     0
280
     1
281
     0
  0
BLOCK_RECORD
  5
2A29
330
1
100
AcDbSymbolTableRecord
100
AcDbBlockTableRecord
  2
*D17
340
0
 70
     0
280
     1
281
     0
  0
BLOCK_RECORD
  5
2AC0
330
1
100
AcDbSymbolTableRecord
100
AcDbBlockTableRecord
  2
_None
340
0
 70
     0
280
     1
281
     0
  0
BLOCK_RECORD
  5
2AE1
330
1
100
AcDbSymbolTableRecord
100
AcDbBlockTableRecord
  2
*D19
340
0
 70
     0
280
     1
281
     0
  0
BLOCK_RECORD
  5
2AF0
330
1
100
AcDbSymbolTableRecord
100
AcDbBlockTableRecord
  2
*D20
340
0
 70
     0
280
     1
281
     0
  0
BLOCK_RECORD
  5
2B13
330
1
100
AcDbSymbolTableRecord
100
AcDbBlockTableRecord
  2
*D21
340
0
 70
     0
280
     1
281
     0
  0
BLOCK_RECORD
  5
2B2E
330
1
100
AcDbSymbolTableRecord
100
AcDbBlockTableRecord
  2
*D22
340
0
 70
     0
280
     1
281
     0
  0
ENDTAB
  0
ENDSEC
  0
SECTION
  2
BLOCKS
  0
BLOCK
  5
D
330
A
100
AcDbEntity
  8
0
390
1D
100
AcDbBlockBegin
  2
*MODEL_SPACE
 70
     0
 10
0.0
 20
0.0
 30
0.0
  3
*MODEL_SPACE
  1
*MODEL_SPACE
  0
ENDBLK
  5
E
330
A
100
AcDbEntity
  8
0
390
1D
100
AcDbBlockEnd
  0
BLOCK
  5
F
330
B
100
AcDbEntity
 67
     1
  8
0
390
1D
100
AcDbBlockBegin
  2
*PAPER_SPACE
 70
     0
 10
0.0
 20
0.0
 30
0.0
  3
*PAPER_SPACE
  1
*PAPER_SPACE
  0
ENDBLK
  5
10
330
B
100
AcDbEntity
 67
     1
  8
0
390
1D
100
AcDbBlockEnd
  0
BLOCK
  5
2BB
330
4E
100
AcDbEntity
  8
0
390
1D
100
AcDbBlockBegin
  2
_DOT
 70
     0
 10
0.0
 20
0.0
 30
0.0
  3
_DOT
  1
_DOT
  0
POLYLINE
  5
2BD
330
4E
100
AcDbEntity
  8
0
  6
ByBlock
 62
     0
370
    -2
390
1D
100
AcDb2dPolyline
 66
     1
 10
0.0
 20
0.0
 30
0.0
 70
     1
 40
0.5
 41
0.5
  0
VERTEX
  5
2BE
330
2BD
100
AcDbEntity
  8
0
  6
ByBlock
 62
     0
370
    -2
390
1D
100
AcDbVertex
100
AcDb2dVertex
 10
-0.25
 20
0.0
 30
0.0
 42
1.0
  0
VERTEX
  5
2BF
330
2BD
100
AcDbEntity
  8
0
  6
ByBlock
 62
     0
370
    -2
390
1D
100
AcDbVertex
100
AcDb2dVertex
 10
0.25
 20
0.0
 30
0.0
 42
1.0
  0
SEQEND
  5
2C0
330
2BD
100
AcDbEntity
  8
0
390
1D
  0
LINE
  5
2C1
330
4E
100
AcDbEntity
  8
0
  6
ByBlock
 62
     0
370
    -2
390
1D
100
AcDbLine
 10
-0.5
 20
0.0
 30
0.0
 11
-1.0
 21
0.0
 31
0.0
  0
ENDBLK
  5
2C2
330
4E
100
AcDbEntity
  8
0
390
1D
100
AcDbBlockEnd
  0
BLOCK
  5
3A6
330
3A5
100
AcDbEntity
  8
0
100
AcDbBlockBegin
  2
名称未設定-1
 70
     0
 10
0.0
 20
0.0
 30
0.0
  3
名称未設定-1
  1
名称未設定-1
  0
INSERT
  5
3A7
330
3A5
100
AcDbEntity
  8
レイヤー 1
100
AcDbBlockReference
  2
block 2
 10
0.0
 20
0.0
 30
0.0
  0
ENDBLK
  5
3CC
330
3A5
100
AcDbEntity
  8
0
100
AcDbBlockEnd
  0
BLOCK
  5
3A9
330
3A8
100
AcDbEntity
  8
0
100
AcDbBlockBegin
  2
block 2
 70
     0
 10
0.0
 20
0.0
 30
0.0
  3
block 2
  1
block 2
  0
INSERT
  5
3AA
330
3A8
100
AcDbEntity
  8
レイヤー 1
100
AcDbBlockReference
  2
block 3
 10
0.0
 20
0.0
 30
0.0
  0
ENDBLK
  5
3CB
330
3A8
100
AcDbEntity
  8
0
100
AcDbBlockEnd
  0
BLOCK
  5
3AC
330
3AB
100
AcDbEntity
  8
0
100
AcDbBlockBegin
  2
block 3
 70
     0
 10
0.0
 20
0.0
 30
0.0
  3
block 3
  1
block 3
  0
INSERT
  5
3AD
330
3AB
100
AcDbEntity
  8
レイヤー 1
100
AcDbBlockReference
  2
block 4
 10
0.0
 20
0.0
 30
0.0
  0
ENDBLK
  5
3CA
330
3AB
100
AcDbEntity
  8
0
100
AcDbBlockEnd
  0
BLOCK
  5
3AF
330
3AE
100
AcDbEntity
  8
0
100
AcDbBlockBegin
  2
block 4
 70
     0
 10
0.0
 20
0.0
 30
0.0
  3
block 4
  1
block 4
  0
POLYLINE
  5
3B0
330
3AE
100
AcDbEntity
  8
レイヤー 1
370
     0
100
AcDb2dPolyline
 66
     1
 10
0.0
 20
0.0
 30
0.0
  0
VERTEX
  5
3B1
330
3B0
100
AcDbEntity
  8
レイヤー 1
370
     0
100
AcDbVertex
100
AcDb2dVertex
 10
83.79545727667795
 20
167.6444858234922
 30
0.0
  0
VERTEX
  5
3B2
330
3B0
100
AcDbEntity
  8
レイヤー 1
370
     0
100
AcDbVertex
100
AcDb2dVertex
 10
83.79545727667795
 20
159.7968976406313
 30
0.0
  0
VERTEX
  5
3B3
330
3B0
100
AcDbEntity
  8
レイヤー 1
370
     0
100
AcDbVertex
100
AcDb2dVertex
 10
71.3631329975216
 20
159.7968976406313
 30
0.0
  0
VERTEX
  5
3B4
330
3B0
100
AcDbEntity
  8
レイヤー 1
370
     0
100
AcDbVertex
100
AcDb2dVertex
 10
71.3631329975216
 20
127.8027915271048
 30
0.0
  0
VERTEX
  5
3B5
330
3B0
100
AcDbEntity
  8
レイヤー 1
370
     0
100
AcDbVertex
100
AcDb2dVertex
 10
60.43011526263018
 20
127.8027915271048
 30
0.0
  0
VERTEX
  5
3B6
330
3B0
100
AcDbEntity
  8
レイヤー 1
370
     0
100
AcDbVertex
100
AcDb2dVertex
 10
60.43011526263018
 20
159.7968976406313
 30
0.0
  0
VERTEX
  5
3B7
330
3B0
100
AcDbEntity
  8
レイヤー 1
370
     0
100
AcDbVertex
100
AcDb2dVertex
 10
48.21793273020759
 20
159.7968976406313
 30
0.0
  0
VERTEX
  5
3B8
330
3B0
100
AcDbEntity
  8
レイヤー 1
370
     0
100
AcDbVertex
100
AcDb2dVertex
 10
48.21793273020759
 20
167.6444858234922
 30
0.0
  0
VERTEX
  5
3B9
330
3B0
100
AcDbEntity
  8
レイヤー 1
370
     0
100
AcDbVertex
100
AcDb2dVertex
 10
83.79545727667795
 20
167.6444858234922
 30
0.0
  0
SEQEND
  5
3BA
330
3B0
100
AcDbEntity
  8
レイヤー 1
370
     0
  0
HATCH
  5
3BB
330
3AE
100
AcDbEntity
  8
レイヤー 1
 62
   250
420
  2234388
100
AcDbHatch
 10
0.0
 20
0.0
 30
0.0
210
0.0
220
0.0
230
1.0
  2
SOLID
 70
     1
 71
     0
 91
        1
 92
        1
 93
        8
 72
     1
 10
83.79545727667795
 20
167.6444858234922
 11
83.79545727667795
 21
159.7968976406313
 72
     1
 10
83.79545727667795
 20
159.7968976406313
 11
71.3631329975216
 21
159.7968976406313
 72
     1
 10
71.3631329975216
 20
159.7968976406313
 11
71.3631329975216
 21
127.8027915271048
 72
     1
 10
71.3631329975216
 20
127.8027915271048
 11
60.43011526263018
 21
127.8027915271048
 72
     1
 10
60.43011526263018
 20
127.8027915271048
 11
60.43011526263018
 21
159.7968976406313
 72
     1
 10
60.43011526263018
 20
159.7968976406313
 11
48.21793273020759
 21
159.7968976406313
 72
     1
 10
48.21793273020759
 20
159.7968976406313
 11
48.21793273020759
 21
167.6444858234922
 72
     1
 10
48.21793273020759
 20
167.6444858234922
 11
83.79545727667795
 21
167.6444858234922
 97
        0
 75
     2
 76
     1
 98
        0
  0
INSERT
  5
3BC
330
3AE
100
AcDbEntity
  8
レイヤー 1
100
AcDbBlockReference
  2
block 5
 10
0.0
 20
0.0
 30
0.0
  0
ENDBLK
  5
3C9
330
3AE
100
AcDbEntity
  8
0
100
AcDbBlockEnd
  0
BLOCK
  5
3BE
330
3BD
100
AcDbEntity
  8
0
100
AcDbBlockBegin
  2
block 5
 70
     0
 10
0.0
 20
0.0
 30
0.0
  3
block 5
  1
block 5
  0
SPLINE
  5
3BF
330
3BD
100
AcDbEntity
  8
レイヤー 1
370
     0
100
AcDbSpline
210
0.0
220
0.0
230
1.0
 70
    11
 71
     3
 72
    56
 73
    52
 74
     0
 42
0.000000001
 43
0.0000000001
 40
0.0
 40
0.0
 40
0.0
 40
0.0
 40
1.0
 40
1.0
 40
1.0
 40
2.0
 40
2.0
 40
2.0
 40
3.0
 40
3.0
 40
3.0
 40
4.0
 40
4.0
 40
4.0
 40
5.0
 40
5.0
 40
5.0
 40
6.0
 40
6.0
 40
6.0
 40
7.0
 40
7.0
 40
7.0
 40
8.0
 40
8.0
 40
8.0
 40
9.0
 40
9.0
 40
9.0
 40
10.0
 40
10.0
 40
10.0
 40
11.0
 40
11.0
 40
11.0
 40
12.0
 40
12.0
 40
12.0
 40
13.0
 40
13.0
 40
13.0
 40
14.0
 40
14.0
 40
14.0
 40
15.0
 40
15.0
 40
15.0
 40
16.0
 40
16.0
 40
16.0
 40
17.0
 40
17.0
 40
17.0
 40
17.0
 10
100.4504378777679
 20
166.69157178364
 30
0.0
 10
101.9848844191641
 20
167.1313385124438
 30
0.0
 10
103.9637485713373
 20
166.7649523658846
 30
0.0
 10
103.9637485713373
 20
166.7649523658846
 30
0.0
 10
103.9637485713373
 20
166.7649523658846
 30
0.0
 10
103.0132460999156
 20
163.911205638077
 30
0.0
 10
103.0132460999156
 20
163.911205638077
 30
0.0
 10
103.0132460999156
 20
163.911205638077
 30
0.0
 10
101.0674548862189
 20
164.3601018759394
 30
0.0
 10
99.57090442016032
 20
163.1805004036133
 30
0.0
 10
98.40508333886608
 20
162.258247733807
 30
0.0
 10
97.65301849830304
 20
159.804132345923
 30
0.0
 10
97.3598406791005
 20
158.8699940888517
 30
0.0
 10
97.3598406791005
 20
158.8699940888517
 30
0.0
 10
96.07137411762282
 20
154.9119212747295
 30
0.0
 10
96.07137411762282
 20
154.9119212747295
 30
0.0
 10
96.07137411762282
 20
154.9119212747295
 30
0.0
 10
100.3012651448482
 20
154.9119212747295
 30
0.0
 10
100.3012651448482
 20
154.9119212747295
 30
0.0
 10
100.3012651448482
 20
154.9119212747295
 30
0.0
 10
99.64152892419852
 20
152.4199098115079
 30
0.0
 10
99.64152892419852
 20
152.4199098115079
 30
0.0
 10
99.64152892419852
 20
152.4199098115079
 30
0.0
 10
95.38097652692731
 20
152.4199098115079
 30
0.0
 10
95.38097652692731
 20
152.4199098115079
 30
0.0
 10
95.38097652692731
 20
152.4199098115079
 30
0.0
 10
87.75353009080013
 20
127.8027915271048
 30
0.0
 10
87.75353009080013
 20
127.8027915271048
 30
0.0
 10
87.75353009080013
 20
127.8027915271048
 30
0.0
 10
85.36538832498108
 20
127.8027915271048
 30
0.0
 10
85.36538832498108
 20
127.8027915271048
 30
0.0
 10
85.36538832498108
 20
127.8027915271048
 30
0.0
 10
93.00006946639998
 20
152.4199098115079
 30
0.0
 10
93.00006946639998
 20
152.4199098115079
 30
0.0
 10
93.00006946639998
 20
152.4199098115079
 30
0.0
 10
89.85297266450198
 20
152.4199098115079
 30
0.0
 10
89.85297266450198
 20
152.4199098115079
 30
0.0
 10
89.85297266450198
 20
152.4199098115079
 30
0.0
 10
90.51270888515164
 20
154.9119212747295
 30
0.0
 10
90.51270888515164
 20
154.9119212747295
 30
0.0
 10
90.51270888515164
 20
154.9119212747295
 30
0.0
 10
93.6904670570955
 20
154.9119212747295
 30
0.0
 10
93.6904670570955
 20
154.9119212747295
 30
0.0
 10
93.6904670570955
 20
154.9119212747295
 30
0.0
 10
94.81598049462158
 20
158.3616699146644
 30
0.0
 10
94.81598049462158
 20
158.3616699146644
 30
0.0
 10
95.7237637538445
 20
161.2605474231013
 30
0.0
 10
96.4968436907311
 20
162.8139420021662
 30
0.0
 10
97.15657991138076
 20
163.9844139654337
 30
0.0
 10
97.81183750494507
 20
165.1523021053827
 30
0.0
 10
99.1047826935081
 20
166.3084769129547
 30
0.0
 10
100.4504378777679
 20
166.69157178364
 30
0.0
  0
HATCH
  5
3C0
330
3BD
100
AcDbEntity
  8
レイヤー 1
 62
   250
420
  2234388
100
AcDbHatch
 10
0.0
 20
0.0
 30
0.0
210
0.0
220
0.0
230
1.0
  2
SOLID
 70
     1
 71
     0
 91
        1
 92
        1
 93
        1
 72
     4
 94
        3
 73
     0
 74
     1
 95
       56
 96
       52
 40
0.0
 40
0.0
 40
0.0
 40
0.0
 40
1.0
 40
1.0
 40
1.0
 40
2.0
 40
2.0
 40
2.0
 40
3.0
 40
3.0
 40
3.0
 40
4.0
 40
4.0
 40
4.0
 40
5.0
 40
5.0
 40
5.0
 40
6.0
 40
6.0
 40
6.0
 40
7.0
 40
7.0
 40
7.0
 40
8.0
 40
8.0
 40
8.0
 40
9.0
 40
9.0
 40
9.0
 40
10.0
 40
10.0
 40
10.0
 40
11.0
 40
11.0
 40
11.0
 40
12.0
 40
12.0
 40
12.0
 40
13.0
 40
13.0
 40
13.0
 40
14.0
 40
14.0
 40
14.0
 40
15.0
 40
15.0
 40
15.0
 40
16.0
 40
16.0
 40
16.0
 40
17.0
 40
17.0
 40
17.0
 40
17.0
 10
100.4504378777679
 20
166.69157178364
 10
101.9848844191641
 20
167.1313385124438
 10
103.9637485713373
 20
166.7649523658846
 10
103.9637485713373
 20
166.7649523658846
 10
103.9637485713373
 20
166.7649523658846
 10
103.0132460999156
 20
163.911205638077
 10
103.0132460999156
 20
163.911205638077
 10
103.0132460999156
 20
163.911205638077
 10
101.0674548862189
 20
164.3601018759394
 10
99.57090442016032
 20
163.1805004036133
 10
98.40508333886608
 20
162.258247733807
 10
97.65301849830304
 20
159.804132345923
 10
97.3598406791005
 20
158.8699940888517
 10
97.3598406791005
 20
158.8699940888517
 10
96.07137411762282
 20
154.9119212747295
 10
96.07137411762282
 20
154.9119212747295
 10
96.07137411762282
 20
154.9119212747295
 10
100.3012651448482
 20
154.9119212747295
 10
100.3012651448482
 20
154.9119212747295
 10
100.3012651448482
 20
154.9119212747295
 10
99.64152892419852
 20
152.4199098115079
 10
99.64152892419852
 20
152.4199098115079
 10
99.64152892419852
 20
152.4199098115079
 10
95.38097652692731
 20
152.4199098115079
 10
95.38097652692731
 20
152.4199098115079
 10
95.38097652692731
 20
152.4199098115079
 10
87.75353009080013
 20
127.8027915271048
 10
87.75353009080013
 20
127.8027915271048
 10
87.75353009080013
 20
127.8027915271048
 10
85.36538832498108
 20
127.8027915271048
 10
85.36538832498108
 20
127.8027915271048
 10
85.36538832498108
 20
127.8027915271048
 10
93.00006946639998
 20
152.4199098115079
 10
93.00006946639998
 20
152.4199098115079
 10
93.00006946639998
 20
152.4199098115079
 10
89.85297266450198
 20
152.4199098115079
 10
89.85297266450198
 20
152.4199098115079
 10
89.85297266450198
 20
152.4199098115079
 10
90.51270888515164
 20
154.9119212747295
 10
90.51270888515164
 20
154.9119212747295
 10
90.51270888515164
 20
154.9119212747295
 10
93.6904670570955
 20
154.9119212747295
 10
93.6904670570955
 20
154.9119212747295
 10
93.6904670570955
 20
154.9119212747295
 10
94.81598049462158
 20
158.3616699146644
 10
94.81598049462158
 20
158.3616699146644
 10
95.7237637538445
 20
161.2605474231013
 10
96.4968436907311
 20
162.8139420021662
 10
97.15657991138076
 20
163.9844139654337
 10
97.81183750494507
 20
165.1523021053827
 10
99.1047826935081
 20
166.3084769129547
 10
100.4504378777679
 20
166.69157178364
 97
        0
 75
     2
 76
     1
 98
        0
  0
SPLINE
  5
3C1
330
3BD
100
AcDbEntity
  8
レイヤー 1
370
     0
100
AcDbSpline
210
0.0
220
0.0
230
1.0
 70
    11
 71
     3
 72
    38
 73
    34
 74
     0
 42
0.000000001
 43
0.0000000001
 40
0.0
 40
0.0
 40
0.0
 40
0.0
 40
1.0
 40
1.0
 40
1.0
 40
2.0
 40
2.0
 40
2.0
 40
3.0
 40
3.0
 40
3.0
 40
4.0
 40
4.0
 40
4.0
 40
5.0
 40
5.0
 40
5.0
 40
6.0
 40
6.0
 40
6.0
 40
7.0
 40
7.0
 40
7.0
 40
8.0
 40
8.0
 40
8.0
 40
9.0
 40
9.0
 40
9.0
 40
10.0
 40
10.0
 40
10.0
 40
11.0
 40
11.0
 40
11.0
 40
11.0
 10
126.377554584636
 20
154.8151140277308
 30
0.0
 10
126.377554584636
 20
154.8151140277308
 30
0.0
 10
128.8311532078563
 20
154.8151140277308
 30
0.0
 10
128.8311532078563
 20
154.8151140277308
 30
0.0
 10
128.8311532078563
 20
154.8151140277308
 30
0.0
 10
127.7345785914971
 20
151.3062819612468
 30
0.0
 10
127.7345785914971
 20
151.3062819612468
 30
0.0
 10
128.571392836906
 20
152.2922689395754
 30
0.0
 10
129.8860421413442
 20
153.604506675583
 30
0.0
 10
131.0163787157314
 20
154.2664822097754
 30
0.0
 10
132.7044766171327
 20
155.2500576196734
 30
0.0
 10
133.6642808525008
 20
155.3847609420097
 30
0.0
 10
134.7284715499351
 20
155.3565111403944
 30
0.0
 10
134.7284715499351
 20
155.3565111403944
 30
0.0
 10
133.6877075172549
 20
152.0345756272799
 30
0.0
 10
133.6877075172549
 20
152.0345756272799
 30
0.0
 10
133.011434827367
 20
152.3184516825359
 30
0.0
 10
130.930940291334
 20
151.7768823149844
 30
0.0
 10
129.739280976855
 20
150.9162968950455
 30
0.0
 10
128.66613302525
 20
150.1454562717016
 30
0.0
 10
127.9192358313239
 20
149.4857200510519
 30
0.0
 10
127.0393578639405
 20
147.8282835196966
 30
0.0
 10
126.164647543194
 20
146.1699857139017
 30
0.0
 10
125.4742499524985
 20
143.5262176944419
 30
0.0
 10
124.2822461282437
 20
139.6959580071401
 30
0.0
 10
124.2822461282437
 20
139.6959580071401
 30
0.0
 10
120.5753209406769
 20
127.8027915271048
 30
0.0
 10
120.5753209406769
 20
127.8027915271048
 30
0.0
 10
120.5753209406769
 20
127.8027915271048
 30
0.0
 10
118.1964809388044
 20
127.8027915271048
 30
0.0
 10
118.1964809388044
 20
127.8027915271048
 30
0.0
 10
118.1964809388044
 20
127.8027915271048
 30
0.0
 10
126.377554584636
 20
154.8151140277308
 30
0.0
 10
126.377554584636
 20
154.8151140277308
 30
0.0
  0
HATCH
  5
3C2
330
3BD
100
AcDbEntity
  8
レイヤー 1
 62
   250
420
  2234388
100
AcDbHatch
 10
0.0
 20
0.0
 30
0.0
210
0.0
220
0.0
230
1.0
  2
SOLID
 70
     1
 71
     0
 91
        1
 92
        1
 93
        1
 72
     4
 94
        3
 73
     0
 74
     1
 95
       38
 96
       34
 40
0.0
 40
0.0
 40
0.0
 40
0.0
 40
1.0
 40
1.0
 40
1.0
 40
2.0
 40
2.0
 40
2.0
 40
3.0
 40
3.0
 40
3.0
 40
4.0
 40
4.0
 40
4.0
 40
5.0
 40
5.0
 40
5.0
 40
6.0
 40
6.0
 40
6.0
 40
7.0
 40
7.0
 40
7.0
 40
8.0
 40
8.0
 40
8.0
 40
9.0
 40
9.0
 40
9.0
 40
10.0
 40
10.0
 40
10.0
 40
11.0
 40
11.0
 40
11.0
 40
11.0
 10
126.377554584636
 20
154.8151140277308
 10
126.377554584636
 20
154.8151140277308
 10
128.8311532078563
 20
154.8151140277308
 10
128.8311532078563
 20
154.8151140277308
 10
128.8311532078563
 20
154.8151140277308
 10
127.7345785914971
 20
151.3062819612468
 10
127.7345785914971
 20
151.3062819612468
 10
128.571392836906
 20
152.2922689395754
 10
129.8860421413442
 20
153.604506675583
 10
131.0163787157314
 20
154.2664822097754
 10
132.7044766171327
 20
155.2500576196734
 10
133.6642808525008
 20
155.3847609420097
 10
134.7284715499351
 20
155.3565111403944
 10
134.7284715499351
 20
155.3565111403944
 10
133.6877075172549
 20
152.0345756272799
 10
133.6877075172549
 20
152.0345756272799
 10
133.011434827367
 20
152.3184516825359
 10
130.930940291334
 20
151.7768823149844
 10
129.739280976855
 20
150.9162968950455
 10
128.66613302525
 20
150.1454562717016
 10
127.9192358313239
 20
149.4857200510519
 10
127.0393578639405
 20
147.8282835196966
 10
126.164647543194
 20
146.1699857139017
 10
125.4742499524985
 20
143.5262176944419
 10
124.2822461282437
 20
139.6959580071401
 10
124.2822461282437
 20
139.6959580071401
 10
120.5753209406769
 20
127.8027915271048
 10
120.5753209406769
 20
127.8027915271048
 10
120.5753209406769
 20
127.8027915271048
 10
118.1964809388044
 20
127.8027915271048
 10
118.1964809388044
 20
127.8027915271048
 10
118.1964809388044
 20
127.8027915271048
 10
126.377554584636
 20
154.8151140277308
 10
126.377554584636
 20
154.8151140277308
 97
        0
 75
     2
 76
     1
 98
        0
  0
SPLINE
  5
3C3
330
3BD
100
AcDbEntity
  8
レイヤー 1
370
     0
100
AcDbSpline
210
0.0
220
0.0
230
1.0
 70
    11
 71
     3
 72
   104
 73
   100
 74
     0
 42
0.000000001
 43
0.0000000001
 40
0.0
 40
0.0
 40
0.0
 40
0.0
 40
1.0
 40
1.0
 40
1.0
 40
2.0
 40
2.0
 40
2.0
 40
3.0
 40
3.0
 40
3.0
 40
4.0
 40
4.0
 40
4.0
 40
5.0
 40
5.0
 40
5.0
 40
6.0
 40
6.0
 40
6.0
 40
7.0
 40
7.0
 40
7.0
 40
8.0
 40
8.0
 40
8.0
 40
9.0
 40
9.0
 40
9.0
 40
10.0
 40
10.0
 40
10.0
 40
11.0
 40
11.0
 40
11.0
 40
12.0
 40
12.0
 40
12.0
 40
13.0
 40
13.0
 40
13.0
 40
14.0
 40
14.0
 40
14.0
 40
15.0
 40
15.0
 40
15.0
 40
16.0
 40
16.0
 40
16.0
 40
17.0
 40
17.0
 40
17.0
 40
18.0
 40
18.0
 40
18.0
 40
19.0
 40
19.0
 40
19.0
 40
20.0
 40
20.0
 40
20.0
 40
21.0
 40
21.0
 40
21.0
 40
22.0
 40
22.0
 40
22.0
 40
23.0
 40
23.0
 40
23.0
 40
24.0
 40
24.0
 40
24.0
 40
25.0
 40
25.0
 40
25.0
 40
26.0
 40
26.0
 40
26.0
 40
27.0
 40
27.0
 40
27.0
 40
28.0
 40
28.0
 40
28.0
 40
29.0
 40
29.0
 40
29.0
 40
30.0
 40
30.0
 40
30.0
 40
31.0
 40
31.0
 40
31.0
 40
32.0
 40
32.0
 40
32.0
 40
33.0
 40
33.0
 40
33.0
 40
33.0
 10
139.8926730891197
 20
154.8294111834263
 30
0.0
 10
139.8926730891197
 20
154.8294111834263
 30
0.0
 10
142.0344903652445
 20
154.8294111834263
 30
0.0
 10
142.0344903652445
 20
154.8294111834263
 30
0.0
 10
142.0344903652445
 20
154.8294111834263
 30
0.0
 10
140.9516961399171
 20
151.3157559800812
 30
0.0
 10
140.9516961399171
 20
151.3157559800812
 30
0.0
 10
141.8928968473923
 20
152.7887075264977
 30
0.0
 10
142.7341897198865
 20
153.4484437471474
 30
0.0
 10
143.8552245303272
 20
154.2926649527359
 30
0.0
 10
144.9803934580775
 20
155.1296514530327
 30
0.0
 10
146.3139908001845
 20
155.3044901642492
 30
0.0
 10
147.241066606852
 20
155.3044901642492
 30
0.0
 10
148.3855280820469
 20
155.3044901642492
 30
0.0
 10
149.4969166187653
 20
155.0752189084569
 30
0.0
 10
150.0784491203092
 20
153.8172414621372
 30
0.0
 10
150.5228667310863
 20
152.833838307127
 30
0.0
 10
150.5414702589793
 20
152.7201500811143
 30
0.0
 10
150.4140016419347
 20
150.7765981809602
 30
0.0
 10
151.5818897818837
 20
152.7699317437168
 30
0.0
 10
152.4424752018226
 20
153.6256940267945
 30
0.0
 10
153.9038856707499
 20
154.4507949398263
 30
0.0
 10
155.4455669174378
 20
155.3044901642492
 30
0.0
 10
156.339225275853
 20
155.3659851592288
 30
0.0
 10
157.3748216618963
 20
155.2147453676543
 30
0.0
 10
158.911679771723
 20
154.9877134254046
 30
0.0
 10
159.8859534176746
 20
154.4390816074493
 30
0.0
 10
160.3965169054045
 20
152.7816450760939
 30
0.0
 10
160.9070803931344
 20
151.1219692311958
 30
0.0
 10
160.6328506116007
 20
150.2303779314354
 30
0.0
 10
159.9992971339115
 20
147.597634224801
 30
0.0
 10
159.7105979417943
 20
146.4014962832367
 30
0.0
 10
159.2947746424084
 20
144.9400858143094
 30
0.0
 10
158.7463150793409
 20
143.2092687007094
 30
0.0
 10
158.7463150793409
 20
143.2092687007094
 30
0.0
 10
153.9038856707499
 20
127.8027915271048
 30
0.0
 10
153.9038856707499
 20
127.8027915271048
 30
0.0
 10
153.9038856707499
 20
127.8027915271048
 30
0.0
 10
151.3882752878863
 20
127.8027915271048
 30
0.0
 10
151.3882752878863
 20
127.8027915271048
 30
0.0
 10
151.3882752878863
 20
127.8027915271048
 30
0.0
 10
155.6250565106276
 20
141.2751908193897
 30
0.0
 10
155.6250565106276
 20
141.2751908193897
 30
0.0
 10
156.5094131050963
 20
144.0936252951782
 30
0.0
 10
157.109893644309
 20
146.1506931664571
 30
0.0
 10
157.4220195011804
 20
147.4415712963654
 30
0.0
 10
157.8095929989511
 20
149.0530157726519
 30
0.0
 10
157.9656559273867
 20
149.5826995529385
 30
0.0
 10
157.7816877071116
 20
150.7529992613181
 30
0.0
 10
157.6111553680925
 20
151.8430281919372
 30
0.0
 10
157.0582171779396
 20
152.5547853887321
 30
0.0
 10
156.1170164704645
 20
152.5547853887321
 30
0.0
 10
155.1096698860365
 20
152.5547853887321
 30
0.0
 10
154.2962823053817
 20
152.4412694176073
 30
0.0
 10
153.156643967048
 20
151.2945686288697
 30
0.0
 10
152.0170056287143
 20
150.1476955852443
 30
0.0
 10
151.076149431015
 20
148.7930831468137
 30
0.0
 10
150.3337308641742
 20
147.2290087646991
 30
0.0
 10
149.5957909244188
 20
145.6683794803425
 30
0.0
 10
148.8530278478023
 20
143.6822806228776
 30
0.0
 10
148.0964843801539
 20
141.2751908193897
 30
0.0
 10
148.0964843801539
 20
141.2751908193897
 30
0.0
 10
143.8552245303272
 20
127.8027915271048
 30
0.0
 10
143.8552245303272
 20
127.8027915271048
 30
0.0
 10
143.8552245303272
 20
127.8027915271048
 30
0.0
 10
141.486030802177
 20
127.8027915271048
 30
0.0
 10
141.486030802177
 20
127.8027915271048
 30
0.0
 10
141.486030802177
 20
127.8027915271048
 30
0.0
 10
146.3329388378533
 20
143.2092687007094
 30
0.0
 10
146.3329388378533
 20
143.2092687007094
 30
0.0
 10
146.8483254624444
 20
144.8408669988801
 30
0.0
 10
147.2314203331297
 20
146.1837661049335
 30
0.0
 10
147.4867020769946
 20
147.224185627838
 30
0.0
 10
147.9169947869641
 20
149.0197705792876
 30
0.0
 10
148.0306830129768
 20
150.2400242051577
 30
0.0
 10
147.709255392159
 20
151.3157559800812
 30
0.0
 10
147.3874832615654
 20
152.3916600098926
 30
0.0
 10
146.8245542879144
 20
152.6683013598569
 30
0.0
 10
145.8840425999909
 20
152.6683013598569
 30
0.0
 10
145.0989048209514
 20
152.6683013598569
 30
0.0
 10
144.3282364524954
 20
152.3275811915945
 30
0.0
 10
143.4531816219731
 20
151.6538923250251
 30
0.0
 10
142.34627171234
 20
150.8074318058939
 30
0.0
 10
141.901854101563
 20
150.1097995099067
 30
0.0
 10
141.3578731655808
 20
149.289521733736
 30
0.0
 10
140.6299240093235
 20
148.192602607601
 30
0.0
 10
140.2850697237515
 20
147.455696197173
 30
0.0
 10
139.6652966370942
 20
145.8385673095858
 30
0.0
 10
139.0506911970739
 20
144.2214384219986
 30
0.0
 10
138.463991048893
 20
142.3252566160164
 30
0.0
 10
138.0571250036777
 20
141.0154304484394
 30
0.0
 10
138.0571250036777
 20
141.0154304484394
 30
0.0
 10
133.9009590684727
 20
127.8027915271048
 30
0.0
 10
133.9009590684727
 20
127.8027915271048
 30
0.0
 10
133.9009590684727
 20
127.8027915271048
 30
0.0
 10
131.4180771143097
 20
127.8027915271048
 30
0.0
 10
131.4180771143097
 20
127.8027915271048
 30
0.0
 10
131.4180771143097
 20
127.8027915271048
 30
0.0
 10
139.8926730891197
 20
154.8294111834263
 30
0.0
 10
139.8926730891197
 20
154.8294111834263
 30
0.0
  0
HATCH
  5
3C4
330
3BD
100
AcDbEntity
  8
レイヤー 1
 62
   250
420
  2234388
100
AcDbHatch
 10
0.0
 20
0.0
 30
0.0
210
0.0
220
0.0
230
1.0
  2
SOLID
 70
     1
 71
     0
 91
        1
 92
        1
 93
        1
 72
     4
 94
        3
 73
     0
 74
     1
 95
      104
 96
      100
 40
0.0
 40
0.0
 40
0.0
 40
0.0
 40
1.0
 40
1.0
 40
1.0
 40
2.0
 40
2.0
 40
2.0
 40
3.0
 40
3.0
 40
3.0
 40
4.0
 40
4.0
 40
4.0
 40
5.0
 40
5.0
 40
5.0
 40
6.0
 40
6.0
 40
6.0
 40
7.0
 40
7.0
 40
7.0
 40
8.0
 40
8.0
 40
8.0
 40
9.0
 40
9.0
 40
9.0
 40
10.0
 40
10.0
 40
10.0
 40
11.0
 40
11.0
 40
11.0
 40
12.0
 40
12.0
 40
12.0
 40
13.0
 40
13.0
 40
13.0
 40
14.0
 40
14.0
 40
14.0
 40
15.0
 40
15.0
 40
15.0
 40
16.0
 40
16.0
 40
16.0
 40
17.0
 40
17.0
 40
17.0
 40
18.0
 40
18.0
 40
18.0
 40
19.0
 40
19.0
 40
19.0
 40
20.0
 40
20.0
 40
20.0
 40
21.0
 40
21.0
 40
21.0
 40
22.0
 40
22.0
 40
22.0
 40
23.0
 40
23.0
 40
23.0
 40
24.0
 40
24.0
 40
24.0
 40
25.0
 40
25.0
 40
25.0
 40
26.0
 40
26.0
 40
26.0
 40
27.0
 40
27.0
 40
27.0
 40
28.0
 40
28.0
 40
28.0
 40
29.0
 40
29.0
 40
29.0
 40
30.0
 40
30.0
 40
30.0
 40
31.0
 40
31.0
 40
31.0
 40
32.0
 40
32.0
 40
32.0
 40
33.0
 40
33.0
 40
33.0
 40
33.0
 10
139.8926730891197
 20
154.8294111834263
 10
139.8926730891197
 20
154.8294111834263
 10
142.0344903652445
 20
154.8294111834263
 10
142.0344903652445
 20
154.8294111834263
 10
142.0344903652445
 20
154.8294111834263
 10
140.9516961399171
 20
151.3157559800812
 10
140.9516961399171
 20
151.3157559800812
 10
141.8928968473923
 20
152.7887075264977
 10
142.7341897198865
 20
153.4484437471474
 10
143.8552245303272
 20
154.2926649527359
 10
144.9803934580775
 20
155.1296514530327
 10
146.3139908001845
 20
155.3044901642492
 10
147.241066606852
 20
155.3044901642492
 10
148.3855280820469
 20
155.3044901642492
 10
149.4969166187653
 20
155.0752189084569
 10
150.0784491203092
 20
153.8172414621372
 10
150.5228667310863
 20
152.833838307127
 10
150.5414702589793
 20
152.7201500811143
 10
150.4140016419347
 20
150.7765981809602
 10
151.5818897818837
 20
152.7699317437168
 10
152.4424752018226
 20
153.6256940267945
 10
153.9038856707499
 20
154.4507949398263
 10
155.4455669174378
 20
155.3044901642492
 10
156.339225275853
 20
155.3659851592288
 10
157.3748216618963
 20
155.2147453676543
 10
158.911679771723
 20
154.9877134254046
 10
159.8859534176746
 20
154.4390816074493
 10
160.3965169054045
 20
152.7816450760939
 10
160.9070803931344
 20
151.1219692311958
 10
160.6328506116007
 20
150.2303779314354
 10
159.9992971339115
 20
147.597634224801
 10
159.7105979417943
 20
146.4014962832367
 10
159.2947746424084
 20
144.9400858143094
 10
158.7463150793409
 20
143.2092687007094
 10
158.7463150793409
 20
143.2092687007094
 10
153.9038856707499
 20
127.8027915271048
 10
153.9038856707499
 20
127.8027915271048
 10
153.9038856707499
 20
127.8027915271048
 10
151.3882752878863
 20
127.8027915271048
 10
151.3882752878863
 20
127.8027915271048
 10
151.3882752878863
 20
127.8027915271048
 10
155.6250565106276
 20
141.2751908193897
 10
155.6250565106276
 20
141.2751908193897
 10
156.5094131050963
 20
144.0936252951782
 10
157.109893644309
 20
146.1506931664571
 10
157.4220195011804
 20
147.4415712963654
 10
157.8095929989511
 20
149.0530157726519
 10
157.9656559273867
 20
149.5826995529385
 10
157.7816877071116
 20
150.7529992613181
 10
157.6111553680925
 20
151.8430281919372
 10
157.0582171779396
 20
152.5547853887321
 10
156.1170164704645
 20
152.5547853887321
 10
155.1096698860365
 20
152.5547853887321
 10
154.2962823053817
 20
152.4412694176073
 10
153.156643967048
 20
151.2945686288697
 10
152.0170056287143
 20
150.1476955852443
 10
151.076149431015
 20
148.7930831468137
 10
150.3337308641742
 20
147.2290087646991
 10
149.5957909244188
 20
145.6683794803425
 10
148.8530278478023
 20
143.6822806228776
 10
148.0964843801539
 20
141.2751908193897
 10
148.0964843801539
 20
141.2751908193897
 10
143.8552245303272
 20
127.8027915271048
 10
143.8552245303272
 20
127.8027915271048
 10
143.8552245303272
 20
127.8027915271048
 10
141.486030802177
 20
127.8027915271048
 10
141.486030802177
 20
127.8027915271048
 10
141.486030802177
 20
127.8027915271048
 10
146.3329388378533
 20
143.2092687007094
 10
146.3329388378533
 20
143.2092687007094
 10
146.8483254624444
 20
144.8408669988801
 10
147.2314203331297
 20
146.1837661049335
 10
147.4867020769946
 20
147.224185627838
 10
147.9169947869641
 20
149.0197705792876
 10
148.0306830129768
 20
150.2400242051577
 10
147.709255392159
 20
151.3157559800812
 10
147.3874832615654
 20
152.3916600098926
 10
146.8245542879144
 20
152.6683013598569
 10
145.8840425999909
 20
152.6683013598569
 10
145.0989048209514
 20
152.6683013598569
 10
144.3282364524954
 20
152.3275811915945
 10
143.4531816219731
 20
151.6538923250251
 10
142.34627171234
 20
150.8074318058939
 10
141.901854101563
 20
150.1097995099067
 10
141.3578731655808
 20
149.289521733736
 10
140.6299240093235
 20
148.192602607601
 10
140.2850697237515
 20
147.455696197173
 10
139.6652966370942
 20
145.8385673095858
 10
139.0506911970739
 20
144.2214384219986
 10
138.463991048893
 20
142.3252566160164
 10
138.0571250036777
 20
141.0154304484394
 10
138.0571250036777
 20
141.0154304484394
 10
133.9009590684727
 20
127.8027915271048
 10
133.9009590684727
 20
127.8027915271048
 10
133.9009590684727
 20
127.8027915271048
 10
131.4180771143097
 20
127.8027915271048
 10
131.4180771143097
 20
127.8027915271048
 10
131.4180771143097
 20
127.8027915271048
 10
139.8926730891197
 20
154.8294111834263
 10
139.8926730891197
 20
154.8294111834263
 97
        0
 75
     2
 76
     1
 98
        0
  0
SPLINE
  5
3C5
330
3BD
100
AcDbEntity
  8
レイヤー 1
370
     0
100
AcDbSpline
210
0.0
220
0.0
230
1.0
 70
    11
 71
     3
 72
    29
 73
    25
 74
     0
 42
0.000000001
 43
0.0000000001
 40
0.0
 40
0.0
 40
0.0
 40
0.0
 40
1.0
 40
1.0
 40
1.0
 40
2.0
 40
2.0
 40
2.0
 40
3.0
 40
3.0
 40
3.0
 40
4.0
 40
4.0
 40
4.0
 40
5.0
 40
5.0
 40
5.0
 40
6.0
 40
6.0
 40
6.0
 40
7.0
 40
7.0
 40
7.0
 40
8.0
 40
8.0
 40
8.0
 40
8.0
 10
101.6420971922469
 20
132.8388354296931
 30
0.0
 10
101.630039350094
 20
134.7164137077823
 30
0.0
 10
102.2236296937908
 20
138.0598810818841
 30
0.0
 10
103.7487744712405
 20
142.5378191476827
 30
0.0
 10
105.819967243327
 20
148.5896501242061
 30
0.0
 10
107.0602024361932
 20
150.8074318058939
 30
0.0
 10
108.1522984254671
 20
151.8833358357054
 30
0.0
 10
109.741177511439
 20
153.4532668840085
 30
0.0
 10
111.8740375333931
 20
153.5290590346837
 30
0.0
 10
112.5075910110823
 20
153.4532668840085
 30
0.0
 10
113.4012493694975
 20
153.3490526768302
 30
0.0
 10
114.6683563248758
 20
152.7580461564518
 30
0.0
 10
114.7493161221879
 20
150.7838328862519
 30
0.0
 10
114.8106388622796
 20
149.0909118479895
 30
0.0
 10
114.3186789024427
 20
145.9191825971221
 30
0.0
 10
112.6164561002338
 20
140.9489400617108
 30
0.0
 10
110.6444821435766
 20
135.1746117095912
 30
0.0
 10
109.4669477299053
 20
132.8960240524753
 30
0.0
 10
108.5212683953448
 20
131.9072809959403
 30
0.0
 10
106.7346406980658
 20
130.0538184021569
 30
0.0
 10
104.8222669326213
 20
130.2336525051225
 30
0.0
 10
104.5408024457958
 20
130.2336525051225
 30
0.0
 10
104.1721769856939
 20
130.2336525051225
 30
0.0
 10
101.6465758193322
 20
130.6305277668397
 30
0.0
 10
101.6420971922469
 20
132.8388354296931
 30
0.0
  0
SPLINE
  5
3C6
330
3BD
100
AcDbEntity
  8
レイヤー 1
370
     0
100
AcDbSpline
210
0.0
220
0.0
230
1.0
 70
    11
 71
     3
 72
    32
 73
    28
 74
     0
 42
0.000000001
 43
0.0000000001
 40
0.0
 40
0.0
 40
0.0
 40
0.0
 40
1.0
 40
1.0
 40
1.0
 40
2.0
 40
2.0
 40
2.0
 40
3.0
 40
3.0
 40
3.0
 40
4.0
 40
4.0
 40
4.0
 40
5.0
 40
5.0
 40
5.0
 40
6.0
 40
6.0
 40
6.0
 40
7.0
 40
7.0
 40
7.0
 40
8.0
 40
8.0
 40
8.0
 40
9.0
 40
9.0
 40
9.0
 40
9.0
 10
106.2595617172429
 20
153.4105476718098
 30
0.0
 10
104.8222669326213
 20
151.5474388043041
 30
0.0
 10
103.7177685914188
 20
149.8758773721411
 30
0.0
 10
101.9232171692965
 20
144.6141795664062
 30
0.0
 10
100.2754269116635
 20
139.7999999594306
 30
0.0
 10
99.22777268346732
 20
136.3052927937542
 30
0.0
 10
99.06964269637689
 20
132.039572749846
 30
0.0
 10
98.94665270641765
 20
128.8673267343149
 30
0.0
 10
100.8807305877373
 20
127.8027915271048
 30
0.0
 10
103.7129454545577
 20
127.8027915271048
 30
0.0
 10
104.9352661390825
 20
127.8027915271048
 30
0.0
 10
108.0151835347002
 20
127.8827177950895
 30
0.0
 10
110.2045431598849
 20
130.5926316915021
 30
0.0
 10
111.7417457794874
 20
132.4984597712065
 30
0.0
 10
113.155269389579
 20
134.475256864725
 30
0.0
 10
115.0562743324223
 20
140.9489400617108
 30
0.0
 10
116.6361961642235
 20
146.3680788349845
 30
0.0
 10
117.7282921534974
 20
149.8639917848761
 30
0.0
 10
117.6480213757369
 20
151.8595646611754
 30
0.0
 10
117.6480213757369
 20
151.8595646611754
 30
0.0
 10
117.6480213757369
 20
151.8595646611754
 30
0.0
 10
117.6480213757369
 20
151.8595646611754
 30
0.0
 10
117.13229024137
 20
155.18150017429
 30
0.0
 10
114.7162431837115
 20
155.886194920681
 30
0.0
 10
113.3351034925446
 20
155.886194920681
 30
0.0
 10
111.9829026225447
 20
155.886194920681
 30
0.0
 10
108.3414342923792
 20
156.1251124501957
 30
0.0
 10
106.2595617172429
 20
153.4105476718098
 30
0.0
  0
HATCH
  5
3C7
330
3BD
100
AcDbEntity
  8
レイヤー 1
 62
   250
420
  2234388
100
AcDbHatch
 10
0.0
 20
0.0
 30
0.0
210
0.0
220
0.0
230
1.0
  2
SOLID
 70
     1
 71
     0
 91
        2
 92
        1
 93
        1
 72
     4
 94
        3
 73
     0
 74
     1
 95
       29
 96
       25
 40
0.0
 40
0.0
 40
0.0
 40
0.0
 40
1.0
 40
1.0
 40
1.0
 40
2.0
 40
2.0
 40
2.0
 40
3.0
 40
3.0
 40
3.0
 40
4.0
 40
4.0
 40
4.0
 40
5.0
 40
5.0
 40
5.0
 40
6.0
 40
6.0
 40
6.0
 40
7.0
 40
7.0
 40
7.0
 40
8.0
 40
8.0
 40
8.0
 40
8.0
 10
101.6420971922469
 20
132.8388354296931
 10
101.630039350094
 20
134.7164137077823
 10
102.2236296937908
 20
138.0598810818841
 10
103.7487744712405
 20
142.5378191476827
 10
105.819967243327
 20
148.5896501242061
 10
107.0602024361932
 20
150.8074318058939
 10
108.1522984254671
 20
151.8833358357054
 10
109.741177511439
 20
153.4532668840085
 10
111.8740375333931
 20
153.5290590346837
 10
112.5075910110823
 20
153.4532668840085
 10
113.4012493694975
 20
153.3490526768302
 10
114.6683563248758
 20
152.7580461564518
 10
114.7493161221879
 20
150.7838328862519
 10
114.8106388622796
 20
149.0909118479895
 10
114.3186789024427
 20
145.9191825971221
 10
112.6164561002338
 20
140.9489400617108
 10
110.6444821435766
 20
135.1746117095912
 10
109.4669477299053
 20
132.8960240524753
 10
108.5212683953448
 20
131.9072809959403
 10
106.7346406980658
 20
130.0538184021569
 10
104.8222669326213
 20
130.2336525051225
 10
104.5408024457958
 20
130.2336525051225
 10
104.1721769856939
 20
130.2336525051225
 10
101.6465758193322
 20
130.6305277668397
 10
101.6420971922469
 20
132.8388354296931
 97
        0
 92
        1
 93
        1
 72
     4
 94
        3
 73
     0
 74
     1
 95
       32
 96
       28
 40
0.0
 40
0.0
 40
0.0
 40
0.0
 40
1.0
 40
1.0
 40
1.0
 40
2.0
 40
2.0
 40
2.0
 40
3.0
 40
3.0
 40
3.0
 40
4.0
 40
4.0
 40
4.0
 40
5.0
 40
5.0
 40
5.0
 40
6.0
 40
6.0
 40
6.0
 40
7.0
 40
7.0
 40
7.0
 40
8.0
 40
8.0
 40
8.0
 40
9.0
 40
9.0
 40
9.0
 40
9.0
 10
106.2595617172429
 20
153.4105476718098
 10
104.8222669326213
 20
151.5474388043041
 10
103.7177685914188
 20
149.8758773721411
 10
101.9232171692965
 20
144.6141795664062
 10
100.2754269116635
 20
139.7999999594306
 10
99.22777268346732
 20
136.3052927937542
 10
99.06964269637689
 20
132.039572749846
 10
98.94665270641765
 20
128.8673267343149
 10
100.8807305877373
 20
127.8027915271048
 10
103.7129454545577
 20
127.8027915271048
 10
104.9352661390825
 20
127.8027915271048
 10
108.0151835347002
 20
127.8827177950895
 10
110.2045431598849
 20
130.5926316915021
 10
111.7417457794874
 20
132.4984597712065
 10
113.155269389579
 20
134.475256864725
 10
115.0562743324223
 20
140.9489400617108
 10
116.6361961642235
 20
146.3680788349845
 10
117.7282921534974
 20
149.8639917848761
 10
117.6480213757369
 20
151.8595646611754
 10
117.6480213757369
 20
151.8595646611754
 10
117.6480213757369
 20
151.8595646611754
 10
117.6480213757369
 20
151.8595646611754
 10
117.13229024137
 20
155.18150017429
 10
114.7162431837115
 20
155.886194920681
 10
113.3351034925446
 20
155.886194920681
 10
111.9829026225447
 20
155.886194920681
 10
108.3414342923792
 20
156.1251124501957
 10
106.2595617172429
 20
153.4105476718098
 97
        0
 75
     2
 76
     1
 98
        0
  0
ENDBLK
  5
3C8
330
3BD
100
AcDbEntity
  8
0
100
AcDbBlockEnd
  0
BLOCK
  5
11F1
330
11F0
100
AcDbEntity
  8
0
100
AcDbBlockBegin
  2
BLOCK_2
 70
     0
 10
0.0
 20
0.0
 30
0.0
  3
BLOCK_2
  1
BLOCK_2
  0
ENDBLK
  5
11F2
330
11F0
100
AcDbEntity
  8
0
100
AcDbBlockEnd
  0
BLOCK
  5
2901
330
2900
100
AcDbEntity
  8
0
100
AcDbBlockBegin
  2
*D7
 70
     1
 10
0.0
 20
0.0
 30
0.0
  3
*D7
  1

  0
LINE
  5
2903
330
2900
100
AcDbEntity
  8
Dim
  6
Continuous
 62
     0
370
    -2
100
AcDbLine
 10
332.809847268089
 20
2053.722124525774
 30
0.0
 11
332.809847268089
 21
2262.286241523987
 31
0.0
  0
LINE
  5
2904
330
2900
100
AcDbEntity
  8
Dim
  6
Continuous
 62
     0
370
    -2
100
AcDbLine
 10
882.8421634290089
 20
2053.722091369614
 30
0.0
 11
882.8421634290089
 21
2262.286241523987
 31
0.0
  0
LINE
  5
2905
330
2900
100
AcDbEntity
  8
Dim
  6
Continuous
 62
     0
370
    -2
100
AcDbLine
 10
341.809847268089
 20
2262.286241523987
 30
0.0
 11
873.8421634290089
 21
2262.286241523987
 31
0.0
  0
INSERT
  5
2906
330
2900
100
AcDbEntity
  8
Dim
 62
     0
370
    -2
100
AcDbBlockReference
  2
_DOT
 10
332.809847268089
 20
2262.286241523987
 30
0.0
 41
9.0
 42
9.0
 43
9.0
 50
180.0
  0
INSERT
  5
2907
330
2900
100
AcDbEntity
  8
Dim
 62
     0
370
    -2
100
AcDbBlockReference
  2
_DOT
 10
882.8421634290089
 20
2262.286241523987
 30
0.0
 41
9.0
 42
9.0
 43
9.0
  0
MTEXT
  5
2908
330
2900
100
AcDbEntity
  8
Dim
  6
Continuous
 62
     0
100
AcDbMText
 10
607.826005348549
 20
2284.507132952022
 30
0.0
 40
24.4326171875
 41
0.0
 46
0.0
 71
     5
 72
     1
  1
\A1;550
  7
ＭＳ ゴシック
 73
     1
 44
1.0
  0
POINT
  5
2909
330
2900
100
AcDbEntity
  8
Defpoints
 62
     0
100
AcDbPoint
 10
332.809847268089
 20
2028.722124525774
 30
0.0
  0
POINT
  5
290A
330
2900
100
AcDbEntity
  8
Defpoints
 62
     0
100
AcDbPoint
 10
882.8421634290089
 20
2028.722091369614
 30
0.0
  0
POINT
  5
290B
330
2900
100
AcDbEntity
  8
Defpoints
 62
     0
100
AcDbPoint
 10
882.8421634290089
 20
2262.286241523987
 30
0.0
  0
ENDBLK
  5
2902
330
2900
100
AcDbEntity
  8
0
100
AcDbBlockEnd
  0
BLOCK
  5
2975
330
2974
100
AcDbEntity
  8
0
100
AcDbBlockBegin
  2
*D8
 70
     1
 10
0.0
 20
0.0
 30
0.0
  3
*D8
  1

  0
LINE
  5
2977
330
2974
100
AcDbEntity
  8
Dim
  6
Continuous
 62
     0
370
    -2
100
AcDbLine
 10
750.7761196412716
 20
2166.611172002452
 30
0.0
 11
984.5118646249057
 21
2166.611172002452
 31
0.0
  0
LINE
  5
2978
330
2974
100
AcDbEntity
  8
Dim
  6
Continuous
 62
     0
370
    -2
100
AcDbLine
 10
750.7761196412716
 20
1816.611172002452
 30
0.0
 11
984.5118646249057
 21
1816.611172002452
 31
0.0
  0
LINE
  5
2979
330
2974
100
AcDbEntity
  8
Dim
  6
Continuous
 62
     0
370
    -2
100
AcDbLine
 10
984.5118646249057
 20
2157.611172002452
 30
0.0
 11
984.5118646249057
 21
1825.611172002452
 31
0.0
  0
INSERT
  5
297A
330
2974
100
AcDbEntity
  8
Dim
 62
     0
370
    -2
100
AcDbBlockReference
  2
_DOT
 10
984.5118646249057
 20
2166.611172002452
 30
0.0
 41
9.0
 42
9.0
 43
9.0
 50
90.0
  0
INSERT
  5
297B
330
2974
100
AcDbEntity
  8
Dim
 62
     0
370
    -2
100
AcDbBlockReference
  2
_DOT
 10
984.5118646249057
 20
1816.611172002452
 30
0.0
 41
9.0
 42
9.0
 43
9.0
 50
270.0
  0
MTEXT
  5
297C
330
2974
100
AcDbEntity
  8
Dim
  6
Continuous
 62
     0
100
AcDbMText
 10
962.2909731968703
 20
1991.611172002452
 30
0.0
 40
24.4326171875
 41
0.0
 46
0.0
 71
     5
 72
     1
  1
\A1;350
  7
ＭＳ ゴシック
 11
0.0
 21
1.0
 31
0.0
 73
     1
 44
1.0
  0
POINT
  5
297D
330
2974
100
AcDbEntity
  8
Defpoints
 62
     0
100
AcDbPoint
 10
725.7761196412716
 20
2166.611172002452
 30
0.0
  0
POINT
  5
297E
330
2974
100
AcDbEntity
  8
Defpoints
 62
     0
100
AcDbPoint
 10
725.7761196412716
 20
1816.611172002452
 30
0.0
  0
POINT
  5
297F
330
2974
100
AcDbEntity
  8
Defpoints
 62
     0
100
AcDbPoint
 10
984.5118646249057
 20
1816.611172002452
 30
0.0
  0
ENDBLK
  5
2976
330
2974
100
AcDbEntity
  8
0
100
AcDbBlockEnd
  0
BLOCK
  5
2991
330
2990
100
AcDbEntity
  8
0
100
AcDbBlockBegin
  2
*D9
 70
     1
 10
0.0
 20
0.0
 30
0.0
  3
*D9
  1

  0
LINE
  5
2993
330
2990
100
AcDbEntity
  8
Dim
  6
Continuous
 62
     0
370
    -2
100
AcDbLine
 10
1413.301416387437
 20
2136.345443857959
 30
0.0
 11
1252.216517636113
 21
2136.345443857959
 31
0.0
  0
LINE
  5
2994
330
2990
100
AcDbEntity
  8
Dim
  6
Continuous
 62
     0
370
    -2
100
AcDbLine
 10
1413.301416387437
 20
1846.345443857959
 30
0.0
 11
1252.216517636113
 21
1846.345443857959
 31
0.0
  0
LINE
  5
2995
330
2990
100
AcDbEntity
  8
Dim
  6
Continuous
 62
     0
370
    -2
100
AcDbLine
 10
1252.216517636113
 20
2127.345443857959
 30
0.0
 11
1252.216517636113
 21
1855.345443857959
 31
0.0
  0
INSERT
  5
2996
330
2990
100
AcDbEntity
  8
Dim
 62
     0
370
    -2
100
AcDbBlockReference
  2
_DOT
 10
1252.216517636113
 20
2136.345443857959
 30
0.0
 41
9.0
 42
9.0
 43
9.0
 50
90.0
  0
INSERT
  5
2997
330
2990
100
AcDbEntity
  8
Dim
 62
     0
370
    -2
100
AcDbBlockReference
  2
_DOT
 10
1252.216517636113
 20
1846.345443857959
 30
0.0
 41
9.0
 42
9.0
 43
9.0
 50
270.0
  0
MTEXT
  5
2998
330
2990
100
AcDbEntity
  8
Dim
  6
Continuous
 62
     0
100
AcDbMText
 10
1229.995626208078
 20
1991.345443857959
 30
0.0
 40
24.4326171875
 41
0.0
 46
0.0
 71
     5
 72
     1
  1
\A1;290
  7
ＭＳ ゴシック
 11
0.0
 21
1.0
 31
0.0
 73
     1
 44
1.0
  0
POINT
  5
2999
330
2990
100
AcDbEntity
  8
Defpoints
 62
     0
100
AcDbPoint
 10
1438.301416387437
 20
2136.345443857959
 30
0.0
  0
POINT
  5
299A
330
2990
100
AcDbEntity
  8
Defpoints
 62
     0
100
AcDbPoint
 10
1438.301416387437
 20
1846.345443857959
 30
0.0
  0
POINT
  5
299B
330
2990
100
AcDbEntity
  8
Defpoints
 62
     0
100
AcDbPoint
 10
1252.216517636113
 20
1846.345443857959
 30
0.0
  0
ENDBLK
  5
2992
330
2990
100
AcDbEntity
  8
0
100
AcDbBlockEnd
  0
BLOCK
  5
29A1
330
29A0
100
AcDbEntity
  8
0
100
AcDbBlockBegin
  2
*D10
 70
     1
 10
0.0
 20
0.0
 30
0.0
  3
*D10
  1

  0
LINE
  5
29A3
330
29A0
100
AcDbEntity
  8
Dim
  6
Continuous
 62
     0
370
    -2
100
AcDbLine
 10
1319.327323062558
 20
1931.10870916507
 30
0.0
 11
1319.327323062558
 21
1719.587680951484
 31
0.0
  0
LINE
  5
29A4
330
29A0
100
AcDbEntity
  8
Dim
  6
Continuous
 62
     0
370
    -2
100
AcDbLine
 10
1809.327323062558
 20
1931.10870916507
 30
0.0
 11
1809.327323062558
 21
1719.587680951484
 31
0.0
  0
LINE
  5
29A5
330
29A0
100
AcDbEntity
  8
Dim
  6
Continuous
 62
     0
370
    -2
100
AcDbLine
 10
1328.327323062558
 20
1719.587680951484
 30
0.0
 11
1800.327323062558
 21
1719.587680951484
 31
0.0
  0
INSERT
  5
29A6
330
29A0
100
AcDbEntity
  8
Dim
 62
     0
370
    -2
100
AcDbBlockReference
  2
_DOT
 10
1319.327323062558
 20
1719.587680951484
 30
0.0
 41
9.0
 42
9.0
 43
9.0
 50
180.0
  0
INSERT
  5
29A7
330
29A0
100
AcDbEntity
  8
Dim
 62
     0
370
    -2
100
AcDbBlockReference
  2
_DOT
 10
1809.327323062558
 20
1719.587680951484
 30
0.0
 41
9.0
 42
9.0
 43
9.0
  0
MTEXT
  5
29A8
330
29A0
100
AcDbEntity
  8
Dim
  6
Continuous
 62
     0
100
AcDbMText
 10
1564.327323062558
 20
1741.803989545234
 30
0.0
 40
24.4326171875
 41
0.0
 46
0.0
 71
     5
 72
     1
  1
\A1;490
  7
ＭＳ ゴシック
 73
     1
 44
1.0
  0
POINT
  5
29A9
330
29A0
100
AcDbEntity
  8
Defpoints
 62
     0
100
AcDbPoint
 10
1319.327323062558
 20
1956.10870916507
 30
0.0
  0
POINT
  5
29AA
330
29A0
100
AcDbEntity
  8
Defpoints
 62
     0
100
AcDbPoint
 10
1809.327323062558
 20
1956.10870916507
 30
0.0
  0
POINT
  5
29AB
330
29A0
100
AcDbEntity
  8
Defpoints
 62
     0
100
AcDbPoint
 10
1809.327323062558
 20
1719.587680951484
 30
0.0
  0
ENDBLK
  5
29A2
330
29A0
100
AcDbEntity
  8
0
100
AcDbBlockEnd
  0
BLOCK
  5
29B7
330
29B6
100
AcDbEntity
  8
0
100
AcDbBlockBegin
  2
*D11
 70
     1
 10
0.0
 20
0.0
 30
0.0
  3
*D11
  1

  0
LINE
  5
29B9
330
29B6
100
AcDbEntity
  8
Dim
  6
Continuous
 62
     0
370
    -2
100
AcDbLine
 10
332.7983838374666
 20
1186.765648070933
 30
0.0
 11
332.7983838374666
 21
1265.019783809529
 31
0.0
  0
LINE
  5
29BA
330
29B6
100
AcDbEntity
  8
Dim
  6
Continuous
 62
     0
370
    -2
100
AcDbLine
 10
607.7983838374666
 20
1186.765648070933
 30
0.0
 11
607.7983838374666
 21
1265.019783809529
 31
0.0
  0
LINE
  5
29BB
330
29B6
100
AcDbEntity
  8
Dim
  6
Continuous
 62
     0
370
    -2
100
AcDbLine
 10
341.7983838374666
 20
1265.019783809529
 30
0.0
 11
598.7983838374666
 21
1265.019783809529
 31
0.0
  0
INSERT
  5
29BC
330
29B6
100
AcDbEntity
  8
Dim
 62
     0
370
    -2
100
AcDbBlockReference
  2
_DOT
 10
332.7983838374666
 20
1265.019783809529
 30
0.0
 41
9.0
 42
9.0
 43
9.0
 50
180.0
  0
INSERT
  5
29BD
330
29B6
100
AcDbEntity
  8
Dim
 62
     0
370
    -2
100
AcDbBlockReference
  2
_DOT
 10
607.7983838374666
 20
1265.019783809529
 30
0.0
 41
9.0
 42
9.0
 43
9.0
  0
MTEXT
  5
29BE
330
29B6
100
AcDbEntity
  8
Dim
  6
Continuous
 62
     0
100
AcDbMText
 10
470.2983838374666
 20
1287.240675237565
 30
0.0
 40
24.4326171875
 41
0.0
 46
0.0
 71
     5
 72
     1
  1
\A1;275
  7
ＭＳ ゴシック
 73
     1
 44
1.0
  0
POINT
  5
29BF
330
29B6
100
AcDbEntity
  8
Defpoints
 62
     0
100
AcDbPoint
 10
332.7983838374666
 20
1161.765648070933
 30
0.0
  0
POINT
  5
29C0
330
29B6
100
AcDbEntity
  8
Defpoints
 62
     0
100
AcDbPoint
 10
607.7983838374666
 20
1161.765648070933
 30
0.0
  0
POINT
  5
29C1
330
29B6
100
AcDbEntity
  8
Defpoints
 62
     0
100
AcDbPoint
 10
607.7983838374666
 20
1265.019783809529
 30
0.0
  0
ENDBLK
  5
29B8
330
29B6
100
AcDbEntity
  8
0
100
AcDbBlockEnd
  0
BLOCK
  5
29C7
330
29C6
100
AcDbEntity
  8
0
100
AcDbBlockBegin
  2
*D12
 70
     1
 10
0.0
 20
0.0
 30
0.0
  3
*D12
  1

  0
LINE
  5
29C9
330
29C6
100
AcDbEntity
  8
Dim
  6
Continuous
 62
     0
370
    -2
100
AcDbLine
 10
902.3057001971015
 20
1166.042529246948
 30
0.0
 11
966.1427342167308
 21
1166.042529246948
 31
0.0
  0
LINE
  5
29CA
330
29C6
100
AcDbEntity
  8
Dim
  6
Continuous
 62
     0
370
    -2
100
AcDbLine
 10
845.5401665136878
 20
1016.042529246948
 30
0.0
 11
966.1427342167308
 21
1016.042529246948
 31
0.0
  0
LINE
  5
29CB
330
29C6
100
AcDbEntity
  8
Dim
  6
Continuous
 62
     0
370
    -2
100
AcDbLine
 10
966.1427342167308
 20
1157.042529246948
 30
0.0
 11
966.1427342167308
 21
1025.042529246948
 31
0.0
  0
INSERT
  5
29CC
330
29C6
100
AcDbEntity
  8
Dim
 62
     0
370
    -2
100
AcDbBlockReference
  2
_DOT
 10
966.1427342167308
 20
1166.042529246948
 30
0.0
 41
9.0
 42
9.0
 43
9.0
 50
90.0
  0
INSERT
  5
29CD
330
29C6
100
AcDbEntity
  8
Dim
 62
     0
370
    -2
100
AcDbBlockReference
  2
_DOT
 10
966.1427342167308
 20
1016.042529246948
 30
0.0
 41
9.0
 42
9.0
 43
9.0
 50
270.0
  0
MTEXT
  5
29CE
330
29C6
100
AcDbEntity
  8
Dim
  6
Continuous
 62
     0
100
AcDbMText
 10
943.9218427886954
 20
1091.042529246948
 30
0.0
 40
24.4326171875
 41
0.0
 46
0.0
 71
     5
 72
     1
  1
\A1;150
  7
ＭＳ ゴシック
 11
0.0
 21
1.0
 31
0.0
 73
     1
 44
1.0
  0
POINT
  5
29CF
330
29C6
100
AcDbEntity
  8
Defpoints
 62
     0
100
AcDbPoint
 10
877.3057001971015
 20
1166.042529246948
 30
0.0
  0
POINT
  5
29D0
330
29C6
100
AcDbEntity
  8
Defpoints
 62
     0
100
AcDbPoint
 10
820.5401665136878
 20
1016.042529246948
 30
0.0
  0
POINT
  5
29D1
330
29C6
100
AcDbEntity
  8
Defpoints
 62
     0
100
AcDbPoint
 10
966.1427342167308
 20
1016.042529246948
 30
0.0
  0
ENDBLK
  5
29C8
330
29C6
100
AcDbEntity
  8
0
100
AcDbBlockEnd
  0
BLOCK
  5
29D7
330
29D6
100
AcDbEntity
  8
0
100
AcDbBlockBegin
  2
*D13
 70
     1
 10
0.0
 20
0.0
 30
0.0
  3
*D13
  1

  0
LINE
  5
29D9
330
29D6
100
AcDbEntity
  8
Dim
  6
Continuous
 62
     0
370
    -2
100
AcDbLine
 10
400.898405567692
 20
1004.669304523475
 30
0.0
 11
400.898405567692
 21
918.6208784082346
 31
0.0
  0
LINE
  5
29DA
330
29D6
100
AcDbEntity
  8
Dim
  6
Continuous
 62
     0
370
    -2
100
AcDbLine
 10
815.898405567692
 20
1004.669304523475
 30
0.0
 11
815.898405567692
 21
918.6208784082346
 31
0.0
  0
LINE
  5
29DB
330
29D6
100
AcDbEntity
  8
Dim
  6
Continuous
 62
     0
370
    -2
100
AcDbLine
 10
409.898405567692
 20
918.6208784082346
 30
0.0
 11
806.898405567692
 21
918.6208784082346
 31
0.0
  0
INSERT
  5
29DC
330
29D6
100
AcDbEntity
  8
Dim
 62
     0
370
    -2
100
AcDbBlockReference
  2
_DOT
 10
400.898405567692
 20
918.6208784082346
 30
0.0
 41
9.0
 42
9.0
 43
9.0
 50
180.0
  0
INSERT
  5
29DD
330
29D6
100
AcDbEntity
  8
Dim
 62
     0
370
    -2
100
AcDbBlockReference
  2
_DOT
 10
815.898405567692
 20
918.6208784082346
 30
0.0
 41
9.0
 42
9.0
 43
9.0
  0
MTEXT
  5
29DE
330
29D6
100
AcDbEntity
  8
Dim
  6
Continuous
 62
     0
100
AcDbMText
 10
608.398405567692
 20
940.8417698362701
 30
0.0
 40
24.4326171875
 41
0.0
 46
0.0
 71
     5
 72
     1
  1
\A1;415
  7
ＭＳ ゴシック
 73
     1
 44
1.0
  0
POINT
  5
29DF
330
29D6
100
AcDbEntity
  8
Defpoints
 62
     0
100
AcDbPoint
 10
400.898405567692
 20
1029.669304523475
 30
0.0
  0
POINT
  5
29E0
330
29D6
100
AcDbEntity
  8
Defpoints
 62
     0
100
AcDbPoint
 10
815.898405567692
 20
1029.669304523475
 30
0.0
  0
POINT
  5
29E1
330
29D6
100
AcDbEntity
  8
Defpoints
 62
     0
100
AcDbPoint
 10
815.898405567692
 20
918.6208784082346
 30
0.0
  0
ENDBLK
  5
29D8
330
29D6
100
AcDbEntity
  8
0
100
AcDbBlockEnd
  0
BLOCK
  5
29E7
330
29E6
100
AcDbEntity
  8
0
100
AcDbBlockBegin
  2
*D14
 70
     1
 10
0.0
 20
0.0
 30
0.0
  3
*D14
  1

  0
LINE
  5
29E9
330
29E6
100
AcDbEntity
  8
Dim
  6
Continuous
 62
     0
370
    -2
100
AcDbLine
 10
1299.671531786325
 20
1166.040829037698
 30
0.0
 11
1253.10181338157
 21
1166.040829037698
 31
0.0
  0
LINE
  5
29EA
330
29E6
100
AcDbEntity
  8
Dim
  6
Continuous
 62
     0
370
    -2
100
AcDbLine
 10
1299.671531786325
 20
1091.040829037698
 30
0.0
 11
1253.10181338157
 21
1091.040829037698
 31
0.0
  0
LINE
  5
29EB
330
29E6
100
AcDbEntity
  8
Dim
  6
Continuous
 62
     0
370
    -2
100
AcDbLine
 10
1253.10181338157
 20
1157.040829037698
 30
0.0
 11
1253.10181338157
 21
1100.040829037698
 31
0.0
  0
INSERT
  5
29EC
330
29E6
100
AcDbEntity
  8
Dim
 62
     0
370
    -2
100
AcDbBlockReference
  2
_DOT
 10
1253.10181338157
 20
1166.040829037698
 30
0.0
 41
9.0
 42
9.0
 43
9.0
 50
90.0
  0
INSERT
  5
29ED
330
29E6
100
AcDbEntity
  8
Dim
 62
     0
370
    -2
100
AcDbBlockReference
  2
_DOT
 10
1253.10181338157
 20
1091.040829037698
 30
0.0
 41
9.0
 42
9.0
 43
9.0
 50
270.0
  0
MTEXT
  5
29EE
330
29E6
100
AcDbEntity
  8
Dim
  6
Continuous
 62
     0
100
AcDbMText
 10
1230.880921953535
 20
1128.540829037698
 30
0.0
 40
24.4326171875
 41
0.0
 46
0.0
 71
     5
 72
     1
  1
\A1;75
  7
ＭＳ ゴシック
 11
0.0
 21
1.0
 31
0.0
 73
     1
 44
1.0
  0
POINT
  5
29EF
330
29E6
100
AcDbEntity
  8
Defpoints
 62
     0
100
AcDbPoint
 10
1324.671531786325
 20
1166.040829037698
 30
0.0
  0
POINT
  5
29F0
330
29E6
100
AcDbEntity
  8
Defpoints
 62
     0
100
AcDbPoint
 10
1324.671531786325
 20
1091.040829037698
 30
0.0
  0
POINT
  5
29F1
330
29E6
100
AcDbEntity
  8
Defpoints
 62
     0
100
AcDbPoint
 10
1253.10181338157
 20
1091.040829037698
 30
0.0
  0
ENDBLK
  5
29E8
330
29E6
100
AcDbEntity
  8
0
100
AcDbBlockEnd
  0
BLOCK
  5
29FA
330
29F9
100
AcDbEntity
  8
0
100
AcDbBlockBegin
  2
*D15
 70
     1
 10
0.0
 20
0.0
 30
0.0
  3
*D15
  1

  0
LINE
  5
29FC
330
29F9
100
AcDbEntity
  8
Dim
  6
Continuous
 62
     0
370
    -2
100
AcDbLine
 10
1382.404520328992
 20
990.93424879233
 30
0.0
 11
1382.404520328992
 21
918.6208784082352
 31
0.0
  0
LINE
  5
29FD
330
29F9
100
AcDbEntity
  8
Dim
  6
Continuous
 62
     0
370
    -2
100
AcDbLine
 10
1597.404520328992
 20
990.93424879233
 30
0.0
 11
1597.404520328992
 21
918.6208784082352
 31
0.0
  0
LINE
  5
29FE
330
29F9
100
AcDbEntity
  8
Dim
  6
Continuous
 62
     0
370
    -2
100
AcDbLine
 10
1391.404520328992
 20
918.6208784082352
 30
0.0
 11
1588.404520328992
 21
918.6208784082352
 31
0.0
  0
INSERT
  5
29FF
330
29F9
100
AcDbEntity
  8
Dim
 62
     0
370
    -2
100
AcDbBlockReference
  2
_DOT
 10
1382.404520328992
 20
918.6208784082352
 30
0.0
 41
9.0
 42
9.0
 43
9.0
 50
180.0
  0
INSERT
  5
2A00
330
29F9
100
AcDbEntity
  8
Dim
 62
     0
370
    -2
100
AcDbBlockReference
  2
_DOT
 10
1597.404520328992
 20
918.6208784082352
 30
0.0
 41
9.0
 42
9.0
 43
9.0
  0
MTEXT
  5
2A01
330
29F9
100
AcDbEntity
  8
Dim
  6
Continuous
 62
     0
100
AcDbMText
 10
1489.904520328992
 20
940.8417698362707
 30
0.0
 40
24.4326171875
 41
0.0
 46
0.0
 71
     5
 72
     1
  1
\A1;215
  7
ＭＳ ゴシック
 73
     1
 44
1.0
  0
POINT
  5
2A02
330
29F9
100
AcDbEntity
  8
Defpoints
 62
     0
100
AcDbPoint
 10
1382.404520328992
 20
1015.93424879233
 30
0.0
  0
POINT
  5
2A03
330
29F9
100
AcDbEntity
  8
Defpoints
 62
     0
100
AcDbPoint
 10
1597.404520328992
 20
1015.93424879233
 30
0.0
  0
POINT
  5
2A04
330
29F9
100
AcDbEntity
  8
Defpoints
 62
     0
100
AcDbPoint
 10
1597.404520328992
 20
918.6208784082352
 30
0.0
  0
ENDBLK
  5
29FB
330
29F9
100
AcDbEntity
  8
0
100
AcDbBlockEnd
  0
BLOCK
  5
2A10
330
2A0F
100
AcDbEntity
  8
0
100
AcDbBlockBegin
  2
*D16
 70
     1
 10
0.0
 20
0.0
 30
0.0
  3
*D16
  1

  0
LINE
  5
2A12
330
2A0F
100
AcDbEntity
  8
Dim
  6
Continuous
 62
     0
370
    -2
100
AcDbLine
 10
1489.904520328992
 20
893.6208784082352
 30
0.0
 11
1489.904520328992
 21
828.1849335040234
 31
0.0
  0
LINE
  5
2A13
330
2A0F
100
AcDbEntity
  8
Dim
  6
Continuous
 62
     0
370
    -2
100
AcDbLine
 10
1664.904520328992
 20
1104.799616251106
 30
0.0
 11
1664.904520328992
 21
828.1849335040234
 31
0.0
  0
LINE
  5
2A14
330
2A0F
100
AcDbEntity
  8
Dim
  6
Continuous
 62
     0
370
    -2
100
AcDbLine
 10
1498.904520328992
 20
828.1849335040234
 30
0.0
 11
1655.904520328992
 21
828.1849335040234
 31
0.0
  0
INSERT
  5
2A15
330
2A0F
100
AcDbEntity
  8
Dim
 62
     0
370
    -2
100
AcDbBlockReference
  2
_DOT
 10
1489.904520328992
 20
828.1849335040234
 30
0.0
 41
9.0
 42
9.0
 43
9.0
 50
180.0
  0
INSERT
  5
2A16
330
2A0F
100
AcDbEntity
  8
Dim
 62
     0
370
    -2
100
AcDbBlockReference
  2
_DOT
 10
1664.904520328992
 20
828.1849335040234
 30
0.0
 41
9.0
 42
9.0
 43
9.0
  0
MTEXT
  5
2A17
330
2A0F
100
AcDbEntity
  8
Dim
  6
Continuous
 62
     0
100
AcDbMText
 10
1577.404520328992
 20
850.405824932059
 30
0.0
 40
24.4326171875
 41
0.0
 46
0.0
 71
     5
 72
     1
  1
\A1;185
  7
ＭＳ ゴシック
 73
     1
 44
1.0
  0
POINT
  5
2A18
330
2A0F
100
AcDbEntity
  8
Defpoints
 62
     0
100
AcDbPoint
 10
1489.904520328992
 20
918.6208784082352
 30
0.0
  0
POINT
  5
2A19
330
2A0F
100
AcDbEntity
  8
Defpoints
 62
     0
100
AcDbPoint
 10
1664.904520328992
 20
1129.799616251106
 30
0.0
  0
POINT
  5
2A1A
330
2A0F
100
AcDbEntity
  8
Defpoints
 62
     0
100
AcDbPoint
 10
1664.904520328992
 20
828.1849335040234
 30
0.0
  0
ENDBLK
  5
2A11
330
2A0F
100
AcDbEntity
  8
0
100
AcDbBlockEnd
  0
BLOCK
  5
2A2A
330
2A29
100
AcDbEntity
  8
0
100
AcDbBlockBegin
  2
*D17
 70
     1
 10
0.0
 20
0.0
 30
0.0
  3
*D17
  1

  0
LINE
  5
2A2C
330
2A29
100
AcDbEntity
  8
Dim
  6
Continuous
 62
     0
370
    -2
100
AcDbLine
 10
1507.790523203143
 20
1166.051771753572
 30
0.0
 11
1490.92388535431
 21
1166.051771753572
 31
0.0
  0
LINE
  5
2A2D
330
2A29
100
AcDbEntity
  8
Dim
  6
Continuous
 62
     0
370
    -2
100
AcDbLine
 10
1515.92388535431
 20
1041.10741408879
 30
0.0
 11
1490.92388535431
 21
1041.10741408879
 31
0.0
  0
LINE
  5
2A2E
330
2A29
100
AcDbEntity
  8
Dim
  6
Continuous
 62
     0
370
    -2
100
AcDbLine
 10
1490.92388535431
 20
1166.051771753572
 30
0.0
 11
1490.92388535431
 21
1336.477351267765
 31
0.0
  0
LINE
  5
2A2F
330
2A29
100
AcDbEntity
  8
Dim
  6
Continuous
 62
     0
370
    -2
100
AcDbLine
 10
1490.92388535431
 20
1157.051771753572
 30
0.0
 11
1490.92388535431
 21
1050.10741408879
 31
0.0
  0
LINE
  5
2A30
330
2A29
100
AcDbEntity
  8
Dim
  6
Continuous
 62
     0
370
    -2
100
AcDbLine
 10
1490.92388535431
 20
1157.051771753572
 30
0.0
 11
1490.92388535431
 21
1148.051771753572
 31
0.0
  0
INSERT
  5
2A31
330
2A29
100
AcDbEntity
  8
Dim
 62
     0
370
    -2
100
AcDbBlockReference
  2
_DOT
 10
1490.92388535431
 20
1166.051771753572
 30
0.0
 41
9.0
 42
9.0
 43
9.0
 50
90.0
  0
INSERT
  5
2A32
330
2A29
100
AcDbEntity
  8
Dim
 62
     0
370
    -2
100
AcDbBlockReference
  2
_DOT
 10
1490.92388535431
 20
1041.10741408879
 30
0.0
 41
9.0
 42
9.0
 43
9.0
 50
270.0
  0
MTEXT
  5
2A33
330
2A29
100
AcDbEntity
  8
Dim
  6
Continuous
 62
     0
100
AcDbMText
 10
1466.662105057793
 20
1260.264561510669
 30
0.0
 40
24.4326171875
 41
0.0
 46
0.0
 71
     5
 72
     1
  1
\A1;125(深さ)
  7
ＭＳ ゴシック
 11
0.0
 21
1.0
 31
0.0
 73
     1
 44
1.0
  0
POINT
  5
2A34
330
2A29
100
AcDbEntity
  8
Defpoints
 62
     0
100
AcDbPoint
 10
1482.790523203143
 20
1166.051771753572
 30
0.0
  0
POINT
  5
2A35
330
2A29
100
AcDbEntity
  8
Defpoints
 62
     0
100
AcDbPoint
 10
1490.92388535431
 20
1041.10741408879
 30
0.0
  0
POINT
  5
2A36
330
2A29
100
AcDbEntity
  8
Defpoints
 62
     0
100
AcDbPoint
 10
1490.92388535431
 20
1041.10741408879
 30
0.0
  0
ENDBLK
  5
2A2B
330
2A29
100
AcDbEntity
  8
0
100
AcDbBlockEnd
  0
BLOCK
  5
2AC1
330
2AC0
100
AcDbEntity
  8
0
 48
0.5
100
AcDbBlockBegin
  2
_None
 70
     0
 10
0.0
 20
0.0
 30
0.0
  3
_None
  1
_None
  0
ENDBLK
  5
2AC2
330
2AC0
100
AcDbEntity
  8
0
 48
0.5
100
AcDbBlockEnd
  0
BLOCK
  5
2AE2
330
2AE1
100
AcDbEntity
  8
0
100
AcDbBlockBegin
  2
*D19
 70
     1
 10
0.0
 20
0.0
 30
0.0
  3
*D19
  1

  0
LINE
  5
2AE4
330
2AE1
100
AcDbEntity
  8
Dim
  6
Continuous
 62
     0
370
    -2
100
AcDbLine
 10
347.8263769458691
 20
1938.263078726997
 30
0.0
 11
347.8263769458691
 21
1658.141922045953
 31
0.0
  0
LINE
  5
2AE5
330
2AE1
100
AcDbEntity
  8
Dim
  6
Continuous
 62
     0
370
    -2
100
AcDbLine
 10
867.8256221295168
 20
1938.263078726996
 30
0.0
 11
867.8256221295168
 21
1658.141922045953
 31
0.0
  0
LINE
  5
2AE6
330
2AE1
100
AcDbEntity
  8
Dim
  6
Continuous
 62
     0
370
    -2
100
AcDbLine
 10
356.8263769458691
 20
1658.141922045953
 30
0.0
 11
858.8256221295168
 21
1658.141922045953
 31
0.0
  0
INSERT
  5
2AE7
330
2AE1
100
AcDbEntity
  8
Dim
 62
     0
370
    -2
100
AcDbBlockReference
  2
_DOT
 10
347.8263769458691
 20
1658.141922045953
 30
0.0
 41
9.0
 42
9.0
 43
9.0
 50
180.0
  0
INSERT
  5
2AE8
330
2AE1
100
AcDbEntity
  8
Dim
 62
     0
370
    -2
100
AcDbBlockReference
  2
_DOT
 10
867.8256221295168
 20
1658.141922045953
 30
0.0
 41
9.0
 42
9.0
 43
9.0
  0
MTEXT
  5
2AE9
330
2AE1
100
AcDbEntity
  8
Dim
  6
Continuous
 62
     0
100
AcDbMText
 10
607.825999537693
 20
1680.362813473988
 30
0.0
 40
24.4326171875
 41
0.0
 46
0.0
 71
     5
 72
     1
  1
\A1;520
  7
ＭＳ ゴシック
 73
     1
 44
1.0
  0
POINT
  5
2AEA
330
2AE1
100
AcDbEntity
  8
Defpoints
 62
     0
100
AcDbPoint
 10
347.8263769458691
 20
1963.263078726997
 30
0.0
  0
POINT
  5
2AEB
330
2AE1
100
AcDbEntity
  8
Defpoints
 62
     0
100
AcDbPoint
 10
867.8256221295168
 20
1963.263078726996
 30
0.0
  0
POINT
  5
2AEC
330
2AE1
100
AcDbEntity
  8
Defpoints
 62
     0
100
AcDbPoint
 10
867.8256221295168
 20
1658.141922045953
 30
0.0
  0
ENDBLK
  5
2AE3
330
2AE1
100
AcDbEntity
  8
0
100
AcDbBlockEnd
  0
BLOCK
  5
2AF1
330
2AF0
100
AcDbEntity
  8
0
100
AcDbBlockBegin
  2
*D20
 70
     1
 10
0.0
 20
0.0
 30
0.0
  3
*D20
  1

  0
LINE
  5
2AF3
330
2AF0
100
AcDbEntity
  8
Dim
  6
Continuous
 62
     0
370
    -2
100
AcDbLine
 10
436.0601651652864
 20
2151.868809235509
 30
0.0
 11
220.6893245570238
 21
2151.868809235509
 31
0.0
  0
LINE
  5
2AF4
330
2AF0
100
AcDbEntity
  8
Dim
  6
Continuous
 62
     0
370
    -2
100
AcDbLine
 10
436.0601651652863
 20
1830.399619532595
 30
0.0
 11
220.6893245570237
 21
1830.399619532595
 31
0.0
  0
LINE
  5
2AF5
330
2AF0
100
AcDbEntity
  8
Dim
  6
Continuous
 62
     0
370
    -2
100
AcDbLine
 10
220.6893245570238
 20
2142.868809235509
 30
0.0
 11
220.6893245570237
 21
1839.399619532595
 31
0.0
  0
INSERT
  5
2AF6
330
2AF0
100
AcDbEntity
  8
Dim
 62
     0
370
    -2
100
AcDbBlockReference
  2
_DOT
 10
220.6893245570238
 20
2151.868809235509
 30
0.0
 41
9.0
 42
9.0
 43
9.0
 50
90.0
  0
INSERT
  5
2AF7
330
2AF0
100
AcDbEntity
  8
Dim
 62
     0
370
    -2
100
AcDbBlockReference
  2
_DOT
 10
220.6893245570237
 20
1830.399619532595
 30
0.0
 41
9.0
 42
9.0
 43
9.0
 50
270.0
  0
MTEXT
  5
2AF8
330
2AF0
100
AcDbEntity
  8
Dim
  6
Continuous
 62
     0
100
AcDbMText
 10
198.4684331289883
 20
1991.134214384052
 30
0.0
 40
24.4326171875
 41
0.0
 46
0.0
 71
     5
 72
     1
  1
\A1;320
  7
ＭＳ ゴシック
 11
8.841192357087163E-17
 21
1.0
 31
0.0
 73
     1
 44
1.0
  0
POINT
  5
2AF9
330
2AF0
100
AcDbEntity
  8
Defpoints
 62
     0
100
AcDbPoint
 10
461.0601651652864
 20
2151.868809235509
 30
0.0
  0
POINT
  5
2AFA
330
2AF0
100
AcDbEntity
  8
Defpoints
 62
     0
100
AcDbPoint
 10
461.0601651652863
 20
1830.399619532595
 30
0.0
  0
POINT
  5
2AFB
330
2AF0
100
AcDbEntity
  8
Defpoints
 62
     0
100
AcDbPoint
 10
220.6893245570237
 20
1830.399619532595
 30
0.0
  0
ENDBLK
  5
2AF2
330
2AF0
100
AcDbEntity
  8
0
100
AcDbBlockEnd
  0
BLOCK
  5
2B14
330
2B13
100
AcDbEntity
  8
0
100
AcDbBlockBegin
  2
*D21
 70
     1
 10
0.0
 20
0.0
 30
0.0
  3
*D21
  1

  0
LINE
  5
2B16
330
2B13
100
AcDbEntity
  8
Dim
  6
Continuous
 62
     0
370
    -2
100
AcDbLine
 10
1489.904520328992
 20
899.9501747941051
 30
0.0
 11
1489.904520328992
 21
854.2114276607999
 31
0.0
  0
LINE
  5
2B17
330
2B13
100
AcDbEntity
  8
Dim
  6
Continuous
 62
     0
370
    -2
100
AcDbLine
 10
1666.162526112305
 20
1116.327518966568
 30
0.0
 11
1666.162526112305
 21
854.2114276607999
 31
0.0
  0
LINE
  5
2B18
330
2B13
100
AcDbEntity
  8
Dim
  6
Continuous
 62
     0
370
    -2
100
AcDbLine
 10
1498.904520328992
 20
854.2114276607999
 30
0.0
 11
1657.162526112305
 21
854.2114276607999
 31
0.0
  0
INSERT
  5
2B19
330
2B13
100
AcDbEntity
  8
Dim
 62
     0
370
    -2
100
AcDbBlockReference
  2
_DOT
 10
1489.904520328992
 20
854.2114276607999
 30
0.0
 41
9.0
 42
9.0
 43
9.0
 50
180.0
  0
INSERT
  5
2B1A
330
2B13
100
AcDbEntity
  8
Dim
 62
     0
370
    -2
100
AcDbBlockReference
  2
_DOT
 10
1666.162526112305
 20
854.2114276607999
 30
0.0
 41
9.0
 42
9.0
 43
9.0
  0
MTEXT
  5
2B1B
330
2B13
100
AcDbEntity
  8
Dim
  6
Continuous
 62
     0
100
AcDbMText
 10
1578.033523220648
 20
876.4323190888355
 30
0.0
 40
24.4326171875
 41
0.0
 46
0.0
 71
     5
 72
     1
  1
\A1;175
  7
ＭＳ ゴシック
 73
     1
 44
1.0
  0
POINT
  5
2B1C
330
2B13
100
AcDbEntity
  8
Defpoints
 62
     0
100
AcDbPoint
 10
1489.904520328992
 20
924.9501747941051
 30
0.0
  0
POINT
  5
2B1D
330
2B13
100
AcDbEntity
  8
Defpoints
 62
     0
100
AcDbPoint
 10
1666.162526112305
 20
1141.327518966568
 30
0.0
  0
POINT
  5
2B1E
330
2B13
100
AcDbEntity
  8
Defpoints
 62
     0
100
AcDbPoint
 10
1666.162526112305
 20
854.2114276607999
 30
0.0
  0
ENDBLK
  5
2B15
330
2B13
100
AcDbEntity
  8
0
100
AcDbBlockEnd
  0
BLOCK
  5
2B2F
330
2B2E
100
AcDbEntity
  8
0
100
AcDbBlockBegin
  2
*D22
 70
     1
 10
0.0
 20
0.0
 30
0.0
  3
*D22
  1

  0
LINE
  5
2B31
330
2B2E
100
AcDbEntity
  8
Dim
  6
Continuous
 62
     0
370
    -2
100
AcDbLine
 10
1537.073638729338
 20
1019.075910201403
 30
0.0
 11
1770.05919618237
 21
1019.075910201403
 31
0.0
  0
LINE
  5
2B32
330
2B2E
100
AcDbEntity
  8
Dim
  6
Continuous
 62
     0
370
    -2
100
AcDbLine
 10
1682.127922449623
 20
1166.045744383329
 30
0.0
 11
1770.05919618237
 21
1166.045744383329
 31
0.0
  0
LINE
  5
2B33
330
2B2E
100
AcDbEntity
  8
Dim
  6
Continuous
 62
     0
370
    -2
100
AcDbLine
 10
1770.05919618237
 20
1028.075910201403
 30
0.0
 11
1770.05919618237
 21
1157.045744383329
 31
0.0
  0
INSERT
  5
2B34
330
2B2E
100
AcDbEntity
  8
Dim
 62
     0
370
    -2
100
AcDbBlockReference
  2
_DOT
 10
1770.05919618237
 20
1019.075910201403
 30
0.0
 41
9.0
 42
9.0
 43
9.0
 50
270.0
  0
INSERT
  5
2B35
330
2B2E
100
AcDbEntity
  8
Dim
 62
     0
370
    -2
100
AcDbBlockReference
  2
_DOT
 10
1770.05919618237
 20
1166.045744383329
 30
0.0
 41
9.0
 42
9.0
 43
9.0
 50
90.0
  0
MTEXT
  5
2B36
330
2B2E
100
AcDbEntity
  8
Dim
  6
Continuous
 62
     0
100
AcDbMText
 10
1747.838304754334
 20
1092.560827292366
 30
0.0
 40
24.4326171875
 41
0.0
 46
0.0
 71
     5
 72
     1
  1
\A1;145
  7
ＭＳ ゴシック
 11
0.0
 21
1.0
 31
0.0
 73
     1
 44
1.0
  0
POINT
  5
2B37
330
2B2E
100
AcDbEntity
  8
Defpoints
 62
     0
100
AcDbPoint
 10
1512.073638729338
 20
1019.075910201403
 30
0.0
  0
POINT
  5
2B38
330
2B2E
100
AcDbEntity
  8
Defpoints
 62
     0
100
AcDbPoint
 10
1657.127922449623
 20
1166.045744383329
 30
0.0
  0
POINT
  5
2B39
330
2B2E
100
AcDbEntity
  8
Defpoints
 62
     0
100
AcDbPoint
 10
1770.05919618237
 20
1166.045744383329
 30
0.0
  0
ENDBLK
  5
2B30
330
2B2E
100
AcDbEntity
  8
0
100
AcDbBlockEnd
  0
ENDSEC
  0
SECTION
  2
ENTITIES
  0
MTEXT
  5
177
330
A
100
AcDbEntity
  8
template
390
1D
100
AcDbMText
 10
82.00000000048226
 20
348.023957835319
 30
0.0
 40
16.28841145833333
 41
0.0
 46
0.0
 71
     1
 72
     1
  1
品名
  7
ＭＳ ゴシック
 73
     1
 44
0.7828267384257843
  0
MTEXT
  5
178
330
A
100
AcDbEntity
  8
template
390
1D
100
AcDbMText
 10
82.00000000048226
 20
263.0239578353188
 30
0.0
 40
16.28841145833333
 41
0.0
 46
0.0
 71
     1
 72
     1
  1
仕様
  7
ＭＳ ゴシック
 73
     1
 44
0.7828267384257843
  0
LINE
  5
179
330
A
100
AcDbEntity
  8
template
390
1D
100
AcDbLine
 10
2025.0
 20
271.4388797103189
 30
0.0
 11
75.00000000000023
 21
271.4388797103189
 31
0.0
  0
LWPOLYLINE
  5
17A
330
A
100
AcDbEntity
  8
template
390
1D
100
AcDbPolyline
 90
        5
 70
   128
 43
0.0
 10
2025.0
 20
2901.438879710319
 10
75.00000000000023
 20
2901.438879710319
 10
75.00000000000023
 20
101.4388797103188
 10
2025.0
 20
101.4388797103188
 10
2025.0
 20
2901.438879710319
  0
LINE
  5
17B
330
A
100
AcDbEntity
  8
template
390
1D
100
AcDbLine
 10
2025.0
 20
356.4388797103188
 30
0.0
 11
75.00000000000023
 21
356.4388797103188
 31
0.0
  0
LINE
  5
17C
330
A
100
AcDbEntity
  8
template
390
1D
100
AcDbLine
 10
2025.000000000482
 20
186.4388797103189
 30
0.0
 11
1272.000000000482
 21
186.4388797103189
 31
0.0
  0
MTEXT
  5
17E
330
A
100
AcDbEntity
  8
template
390
1D
100
AcDbMText
 10
1301.871406252743
 20
156.5284852370108
 30
0.0
 40
24.4326171875
 41
0.0
 46
0.0
 71
     1
 72
     1
  1
大洋金物株式会社 ティーフォルム事業部
  7
ＭＳ ゴシック
 73
     1
 44
0.7828267384257843
  0
MTEXT
  5
180
330
A
100
AcDbEntity
  8
template
390
1D
100
AcDbMText
 10
1834.000000000742
 20
234.4414968978188
 30
0.0
 40
24.4326171875
 41
0.0
 46
0.0
 71
     1
 72
     1
  1
1:10
  7
ＭＳ ゴシック
 73
     1
 44
0.7828267384257843
  0
MTEXT
  5
181
330
A
100
AcDbEntity
  8
template
390
1D
100
AcDbMText
 10
1781.000000000742
 20
263.0239578353188
 30
0.0
 40
16.28841145833333
 41
0.0
 46
0.0
 71
     1
 72
     1
  1
縮尺
  7
ＭＳ ゴシック
 73
     1
 44
0.7828267384257843
  0
LINE
  5
182
330
A
100
AcDbEntity
  8
template
390
1D
100
AcDbLine
 10
1774.000000000742
 20
186.4388797103189
 30
0.0
 11
1774.000000000742
 21
271.4388797103189
 31
0.0
  0
MTEXT
  5
183
330
A
100
AcDbEntity
  8
template
390
1D
100
AcDbMText
 10
1530.000000000742
 20
263.0239578353188
 30
0.0
 40
16.28841145833333
 41
0.0
 46
0.0
 71
     1
 72
     1
  1
容量
  7
ＭＳ ゴシック
 73
     1
 44
0.7828267384257843
  0
LINE
  5
184
330
A
100
AcDbEntity
  8
template
390
1D
100
AcDbLine
 10
1523.000000000742
 20
186.4388797103189
 30
0.0
 11
1523.000000000742
 21
271.4388797103189
 31
0.0
  0
MTEXT
  5
185
330
A
100
AcDbEntity
  8
template
390
1D
100
AcDbMText
 10
1279.000000000742
 20
348.023957835319
 30
0.0
 40
16.28841145833333
 41
0.0
 46
0.0
 71
     1
 72
     1
  1
品番
  7
ＭＳ ゴシック
 73
     1
 44
0.7828267384257843
  0
MTEXT
  5
186
330
A
100
AcDbEntity
  8
template
390
1D
100
AcDbMText
 10
1279.000000000742
 20
263.0239578353188
 30
0.0
 40
16.28841145833333
 41
0.0
 46
0.0
 71
     1
 72
     1
  1
重量
  7
ＭＳ ゴシック
 73
     1
 44
0.7828267384257843
  0
MTEXT
  5
187
330
A
100
AcDbEntity
  8
template
390
1D
100
AcDbMText
 10
1332.000000000742
 20
319.4414968978188
 30
0.0
 40
24.4326171875
 41
0.0
 46
24.4326171875
 71
     1
 72
     1
  1
{ADF70-0707-N01}
  7
ＭＳ ゴシック
 73
     1
 44
0.7828267384257843
1001
ACAD
1000
ACAD_MTEXT_DEFINED_HEIGHT_BEGIN
1070
    46
1040
24.4326171875
1000
ACAD_MTEXT_DEFINED_HEIGHT_END
  0
LINE
  5
188
330
A
100
AcDbEntity
  8
template
390
1D
100
AcDbLine
 10
1272.000000000742
 20
101.4388797103188
 30
0.0
 11
1272.000000000742
 21
356.4388797103188
 31
0.0
  0
MTEXT
  5
189
330
A
100
AcDbEntity
  8
template
390
1D
100
AcDbMText
 10
135.0000000004822
 20
319.4414968978188
 30
0.0
 40
24.4326171875
 41
0.0
 46
27.5355595703125
 71
     1
 72
     1
  1
{手洗器 -CATALANO, Sfera-}
  7
ＭＳ ゴシック
 73
     1
 44
0.7828267384257843
1001
ACAD
1000
ACAD_MTEXT_DEFINED_HEIGHT_BEGIN
1070
    46
1040
27.5355595703125
1000
ACAD_MTEXT_DEFINED_HEIGHT_END
  0
MTEXT
  5
18A
330
A
100
AcDbEntity
  8
template
390
1D
100
AcDbMText
 10
135.0000000004822
 20
234.4414968978188
 30
0.0
 40
24.4326171875
 41
0.0
 46
65.556517578125
 71
     1
 72
     1
  1
{カウンター置き、半埋め込み/オーバーフロー無し/\P陶器/ホワイト}
  7
ＭＳ ゴシック
 73
     1
 44
0.9822934569727008
1001
ACAD
1000
ACAD_MTEXT_DEFINED_HEIGHT_BEGIN
1070
    46
1040
65.556517578125
1000
ACAD_MTEXT_DEFINED_HEIGHT_END
  0
MTEXT
  5
1A6
330
A
100
AcDbEntity
  8
template
390
1D
100
AcDbMText
 10
1332.000000000742
 20
234.4414968978188
 30
0.0
 40
24.4326171875
 41
0.0
 46
28.40135167875453
 71
     1
 72
     1
  1
{8.5kg}
  7
ＭＳ ゴシック
 73
     1
 44
0.7828267384257843
1001
ACAD
1000
ACAD_MTEXT_DEFINED_HEIGHT_BEGIN
1070
    46
1040
28.40135167875453
1000
ACAD_MTEXT_DEFINED_HEIGHT_END
  0
MTEXT
  5
374
330
A
100
AcDbEntity
  8
template
390
1D
100
AcDbMText
 10
1581.992122669024
 20
234.4414968978188
 30
0.0
 40
24.4326171875
 41
0.0
 46
24.4326171875
 71
     1
 72
     1
  1
{10.5L}
  7
ＭＳ ゴシック
 73
     1
 44
0.7828267384257843
1001
ACAD
1000
ACAD_MTEXT_DEFINED_HEIGHT_BEGIN
1070
    46
1040
24.4326171875
1000
ACAD_MTEXT_DEFINED_HEIGHT_END
  0
INSERT
  5
3D0
330
A
100
AcDbEntity
  8
template
100
AcDbBlockReference
  2
名称未設定-1
 10
1873.559250554905
 20
30.23897196054438
 30
0.0
 41
0.7619999999999999
 42
0.7619999999999999
 43
0.7619999999999999
  0
MTEXT
  5
BDB
102
{ACAD_XDICTIONARY
360
BDC
102
}
330
A
100
AcDbEntity
  8
template
  6
Continuous
100
AcDbMText
 10
78.95663872901252
 20
86.10730750352229
 30
0.0
 40
23.0
 41
0.0
 46
23.0
 71
     1
 72
     1
  1
{20210927N}
  7
ＭＳ ゴシック
 73
     1
 44
1.0
1001
ACAD
1000
ACAD_MTEXT_DEFINED_HEIGHT_BEGIN
1070
    46
1040
23.0
1000
ACAD_MTEXT_DEFINED_HEIGHT_END
  0
LWPOLYLINE
  5
BEE
330
A
100
AcDbEntity
  8
PRINT BORDER
100
AcDbPolyline
 90
        4
 70
     1
 43
0.0
 10
0.0
 20
0.0
 10
0.0
 20
2970.0
 10
2100.0
 20
2970.0
 10
2100.0
 20
0.0
  0
INSERT
  5
1273
330
A
100
AcDbEntity
  8
0
 62
     7
100
AcDbBlockReference
  2
BLOCK_2
 10
591.2037060744204
 20
943.564364962162
 30
0.0
  0
INSERT
  5
127B
330
A
100
AcDbEntity
  8
0
 62
     7
100
AcDbBlockReference
  2
BLOCK_2
 10
1291.863324028138
 20
1038.76992320659
 30
0.0
  0
INSERT
  5
127C
330
A
100
AcDbEntity
  8
0
 62
     7
100
AcDbBlockReference
  2
BLOCK_2
 10
652.1648429406905
 20
1595.641631888467
 30
0.0
  0
SPLINE
  5
26FA
330
A
100
AcDbEntity
  8
MODEL
100
AcDbSpline
210
0.0
220
0.0
230
1.0
 70
     8
 71
     7
 72
    31
 73
    23
 74
     0
 42
0.000000001
 43
0.0000000001
 40
0.4191138635407401
 40
0.4191138635407401
 40
0.4191138635407401
 40
0.4191138635407401
 40
0.4191138635407401
 40
0.4191138635407401
 40
0.4191138635407401
 40
0.4191138635407401
 40
0.4623079999999999
 40
0.4623079999999999
 40
0.4623079999999999
 40
0.4623079999999999
 40
0.4623079999999999
 40
0.5851999999999999
 40
0.5851999999999999
 40
0.5851999999999999
 40
0.5851999999999999
 40
0.5851999999999999
 40
0.76
 40
0.76
 40
0.76
 40
0.76
 40
0.76
 40
1.0
 40
1.0
 40
1.0
 40
1.0
 40
1.0
 40
1.0
 40
1.0
 40
1.0
 10
335.2798518387262
 20
1166.046826734977
 30
0.0
 10
335.2197755769571
 20
1166.046930958841
 30
0.0
 10
335.1596971649574
 20
1166.045703056104
 30
0.0
 10
335.0996518351317
 20
1166.043086549766
 30
0.0
 10
335.0396804566908
 20
1166.03902341178
 30
0.0
 10
334.9798303979801
 20
1166.033454402909
 30
0.0
 10
334.7503778733021
 20
1166.006020023927
 30
0.0
 10
334.5244690520653
 20
1165.954544907745
 30
0.0
 10
334.3607032827445
 20
1165.902030399663
 30
0.0
 10
334.2022009365787
 20
1165.834035913011
 30
0.0
 10
334.0515425419976
 20
1165.750287754214
 30
0.0
 10
333.7102634884454
 20
1165.512401743224
 30
0.0
 10
333.4324065285646
 20
1165.200114311009
 30
0.0
 10
333.2941780726424
 20
1164.996190415242
 30
0.0
 10
333.1799003602455
 20
1164.779417377698
 30
0.0
 10
333.0857583768475
 20
1164.553952613503
 30
0.0
 10
332.9042599091217
 20
1164.005050716951
 30
0.0
 10
332.8085177033895
 20
1163.433821844578
 30
0.0
 10
332.7756649933826
 20
1163.100703917883
 30
0.0
 10
332.7608081459066
 20
1162.766516531026
 30
0.0
 10
332.7610825014885
 20
1162.432304635282
 30
0.0
 10
332.7741800746103
 20
1162.098572640665
 30
0.0
 10
332.7983838374666
 20
1161.765648070933
 30
0.0
  0
LINE
  5
26FB
330
A
100
AcDbEntity
  8
HIDDEN
 48
0.5
100
AcDbLine
 10
629.6863853696004
 20
1019.070710141838
 30
0.0
 11
585.8864006283866
 21
1019.070710141838
 31
0.0
  0
LINE
  5
26FC
330
A
100
AcDbEntity
  8
MODEL
100
AcDbLine
 10
788.4730710229655
 20
1015.15200007068
 30
0.0
 11
427.0997149750065
 21
1015.15200007068
 31
0.0
  0
LINE
  5
26FD
330
A
100
AcDbEntity
  8
MODEL
100
AcDbLine
 10
420.3459385814594
 20
1016.151998026846
 30
0.0
 11
408.7461311979373
 21
1016.15200007068
 31
0.0
  0
LINE
  5
26FE
330
A
100
AcDbEntity
  8
MODEL
100
AcDbLine
 10
363.6905264926495
 20
1091.149250103511
 30
0.0
 11
354.7980979000445
 21
1091.151989514659
 31
0.0
  0
LINE
  5
2703
330
A
100
AcDbEntity
  8
MODEL
100
AcDbLine
 10
422.5819989791294
 20
1015.15200007068
 30
0.0
 11
427.0997149750065
 21
1015.15200007068
 31
0.0
  0
ARC
  5
2705
330
A
100
AcDbEntity
  8
MODEL
100
AcDbCircle
 10
422.5819996434243
 20
1018.152000957648
 30
0.0
 40
3.000000886967832
100
AcDbArc
 50
221.8103748415659
 51
269.9999873126272
  0
LINE
  5
2709
330
A
100
AcDbEntity
  8
MODEL
100
AcDbLine
 10
349.7688941622423
 20
1091.151993689611
 30
0.0
 11
354.7980979000445
 21
1091.151989514659
 31
0.0
  0
ARC
  5
270A
330
A
100
AcDbEntity
  8
MODEL
100
AcDbCircle
 10
618.9278587150948
 20
1156.845492406998
 30
0.0
 40
259.9987017346364
100
AcDbArc
 50
194.6364285709211
 51
212.2735188443889
  0
LINE
  5
270B
330
A
100
AcDbEntity
  8
MODEL
100
AcDbLine
 10
402.4787314317755
 20
1016.15200007068
 30
0.0
 11
408.7461311979373
 21
1016.15200007068
 31
0.0
  0
ARC
  5
270D
330
A
100
AcDbEntity
  8
MODEL
100
AcDbCircle
 10
402.4787326370965
 20
1020.152001172039
 30
0.0
 40
4.000001101359123
100
AcDbArc
 50
212.2733715737105
 51
269.9999827348507
  0
ARC
  5
270E
330
A
100
AcDbEntity
  8
MODEL
100
AcDbCircle
 10
349.7689167050653
 20
1095.152032834896
 30
0.0
 40
4.000039145349289
100
AcDbArc
 50
197.5913089656514
 51
269.9996771005892
  0
ARC
  5
270F
330
A
100
AcDbEntity
  8
MODEL
100
AcDbCircle
 10
631.9441034755823
 20
1184.612280569373
 30
0.0
 40
300.0168831821477
100
AcDbArc
 50
184.3673678647172
 51
197.5906013716607
  0
LINE
  5
2710
330
A
100
AcDbEntity
  8
MODEL
100
AcDbLine
 10
367.3664503596474
 20
1091.14783088149
 30
0.0
 11
363.6905264926495
 21
1091.149250103511
 31
0.0
  0
SPLINE
  5
2711
330
A
100
AcDbEntity
  8
MODEL
100
AcDbSpline
210
0.0
220
0.0
230
1.0
 70
     8
 71
     3
 72
    81
 73
    77
 74
     0
 42
0.000000001
 43
0.0000000001
 40
0.0
 40
0.0
 40
0.0
 40
0.0
 40
2.105877236301518
 40
5.615660106428549
 40
14.74090048098289
 40
20.3561831960965
 40
29.48047219269561
 40
44.21853740256248
 40
58.95646921290327
 40
73.69564377426447
 40
88.43760825605418
 40
103.1828529887088
 40
117.9300385595293
 40
132.6773257790642
 40
147.422795776722
 40
162.1642512121256
 40
176.8999403823179
 40
193.5133521911296
 40
210.5655739771107
 40
220.311522790838
 40
227.624353105842
 40
237.8668072501737
 40
244.0503548242022
 40
257.9912131948446
 40
264.2014139294886
 40
267.3099206882337
 40
276.6501747914347
 40
286.0166629542375
 40
293.8393445538187
 40
300.1026782783653
 40
312.6330123065887
 40
337.6934413861005
 40
350.2236536137851
 40
375.2841229578836
 40
404.9770667159741
 40
423.719328617495
 40
437.7762948544637
 40
447.1456573878147
 40
456.5053822592786
 40
463.5135712316628
 40
480.980445960257
 40
491.4256977795928
 40
505.317617232021
 40
519.1823060313723
 40
529.5716837923995
 40
544.141212624852
 40
558.2295521399897
 40
572.3234036977005
 40
586.4229585681067
 40
600.5270711874449
 40
614.6339496077468
 40
631.1899272569439
 40
641.6909585367433
 40
648.1525545473044
 40
658.6513235904634
 40
665.1112342523975
 40
675.7087945192542
 40
682.2575718216551
 40
692.8988867530271
 40
696.9916203984978
 40
699.4472600208464
 40
705.9957083303958
 40
710.088598487105
 40
714.1816098526264
 40
716.6374826131643
 40
723.3038578103307
 40
727.1636623433498
 40
729.7369204754443
 40
731.0235633747039
 40
732.3102145220699
 40
733.5968732330374
 40
734.8835384375205
 40
736.1702090698177
 40
737.45688408964
 40
738.7435625045654
 40
738.8072004657665
 40
738.8072004657665
 40
738.8072004657665
 40
738.8072004657665
 10
335.2796265839374
 20
1166.046827109659
 30
0.0
 10
335.2796863529175
 20
1166.046826980738
 30
0.0
 10
335.2935954578234
 20
1166.046804439486
 30
0.0
 10
335.4070456263976
 20
1166.04662348183
 30
0.0
 10
335.7720852587186
 20
1166.046052315527
 30
0.0
 10
336.5892346643477
 20
1166.044837079581
 30
0.0
 10
338.0187947228947
 20
1166.042813027829
 30
0.0
 10
340.7792464089384
 20
1166.03927063061
 30
0.0
 10
345.1805387605664
 20
1166.034568263015
 30
0.0
 10
350.7836729985966
 20
1166.029770459424
 30
0.0
 10
357.5350049241483
 20
1166.025146040897
 30
0.0
 10
365.3703218207766
 20
1166.020840709268
 30
0.0
 10
374.2207779849073
 20
1166.016947848381
 30
0.0
 10
384.0181542157475
 20
1166.013576434716
 30
0.0
 10
394.6965816857805
 20
1166.011075021411
 30
0.0
 10
406.1915492849466
 20
1166.009991174591
 30
0.0
 10
418.9578913381074
 20
1166.011130734992
 30
0.0
 10
433.1584026587684
 20
1166.015930876254
 30
0.0
 10
446.5480195918385
 20
1166.024384419577
 30
0.0
 10
457.3852862294543
 20
1166.033321697973
 30
0.0
 10
466.1889992593524
 20
1166.040994113427
 30
0.0
 10
473.9386179980525
 20
1166.047682030519
 30
0.0
 10
483.9308022199357
 20
1166.055152905609
 30
0.0
 10
492.6590083944716
 20
1166.059123333637
 30
0.0
 10
500.3918928364315
 20
1166.058435135247
 30
0.0
 10
506.6010139459786
 20
1166.057419251436
 30
0.0
 10
513.8670305991864
 20
1166.055774861934
 30
0.0
 10
522.7076482675507
 20
1166.05420249091
 30
0.0
 10
530.5240600515194
 20
1166.053119965094
 30
0.0
 10
539.3953120870606
 20
1166.051755588697
 30
0.0
 10
554.0122878148345
 20
1166.049563772034
 30
0.0
 10
570.7186988121634
 20
1166.047911882202
 30
0.0
 10
591.6021534106503
 20
1166.04669981577
 30
0.0
 10
614.0300676354486
 20
1166.046330932583
 30
0.0
 10
638.5285567291744
 20
1166.047356300107
 30
0.0
 10
659.3585934871903
 20
1166.04935414323
 30
0.0
 10
673.4138932891315
 20
1166.051309869533
 30
0.0
 10
684.3415740609225
 20
1166.053024036714
 30
0.0
 10
692.9195350524924
 20
1166.05422790673
 30
0.0
 10
704.1940928149806
 20
1166.056158073205
 30
0.0
 10
715.8253115680664
 20
1166.059722211466
 30
0.0
 10
729.7002324679734
 20
1166.056893805408
 30
0.0
 10
742.2977327316216
 20
1166.047259284216
 30
0.0
 10
754.6968780085544
 20
1166.036281795335
 30
0.0
 10
767.0646408991697
 20
1166.025907303058
 30
0.0
 10
779.1732519098036
 20
1166.017804239613
 30
0.0
 10
791.9070657433135
 20
1166.012437081276
 30
0.0
 10
803.9082130740085
 20
1166.010193930533
 30
0.0
 10
815.2527773853467
 20
1166.010344796953
 30
0.0
 10
825.8801749005534
 20
1166.012100891334
 30
0.0
 10
836.3030790415824
 20
1166.015074945013
 30
0.0
 10
845.0078873966004
 20
1166.018472465577
 30
0.0
 10
851.4129185807496
 20
1166.021548513431
 30
0.0
 10
856.2921349346975
 20
1166.024208938799
 30
0.0
 10
860.1301121759634
 20
1166.02658400141
 30
0.0
 10
864.2484612232247
 20
1166.029474582117
 30
0.0
 10
867.4253227359463
 20
1166.032013011869
 30
0.0
 10
870.7342027527075
 20
1166.035012408194
 30
0.0
 10
872.9314854257564
 20
1166.037278432336
 30
0.0
 10
874.4671752664754
 20
1166.03901821621
 30
0.0
 10
875.5557729715397
 20
1166.040300166196
 30
0.0
 10
876.5319674684024
 20
1166.041513302702
 30
0.0
 10
877.4796623400716
 20
1166.042754066499
 30
0.0
 10
878.0802400733837
 20
1166.043570609376
 30
0.0
 10
878.7425248554964
 20
1166.044495447182
 30
0.0
 10
879.2787350547683
 20
1166.045273933035
 30
0.0
 10
879.6864134710004
 20
1166.045885264384
 30
0.0
 10
879.8786241097796
 20
1166.046178731505
 30
0.0
 10
879.9874872576424
 20
1166.046346566779
 30
0.0
 10
880.0596676442024
 20
1166.046458579661
 30
0.0
 10
880.1222676752104
 20
1166.046556313337
 30
0.0
 10
880.1749741230556
 20
1166.046639152726
 30
0.0
 10
880.2191522523085
 20
1166.046708733301
 30
0.0
 10
880.2496539119416
 20
1166.046757967067
 30
0.0
 10
880.2742833015604
 20
1166.046795215069
 30
0.0
 10
880.2747415415756
 20
1166.046797554154
 30
0.0
 10
880.2747415439253
 20
1166.046797634467
 30
0.0
  0
LINE
  5
2712
330
A
100
AcDbEntity
  8
MODEL
100
AcDbLine
 10
1649.65512852657
 20
1091.156147520221
 30
0.0
 11
1649.623668182134
 21
1091.153022519862
 31
0.0
  0
SPLINE
  5
2714
330
A
100
AcDbEntity
  8
MODEL
100
AcDbSpline
210
0.0
220
0.0
230
1.0
 70
     8
 71
     7
 72
    16
 73
     8
 74
     0
 42
0.000000001
 43
0.0000000001
 40
0.0565046317107987
 40
0.0565046317107987
 40
0.0565046317107987
 40
0.0565046317107987
 40
0.0565046317107987
 40
0.0565046317107987
 40
0.0565046317107987
 40
0.0565046317107987
 40
0.9612395310256623
 40
0.9612395310256623
 40
0.9612395310256623
 40
0.9612395310256623
 40
0.9612395310256623
 40
0.9612395310256623
 40
0.9612395310256623
 40
0.9612395310256623
 10
1666.162492961272
 20
1161.770573346653
 30
0.0
 10
1665.41293559164
 20
1151.927659668148
 30
0.0
 10
1664.290174880676
 20
1142.113240783135
 30
0.0
 10
1662.817982990835
 20
1132.342630431685
 30
0.0
 10
1661.022134272719
 20
1122.62593262405
 30
0.0
 10
1658.89128487914
 20
1112.976028998269
 30
0.0
 10
1656.38898380072
 20
1103.418045369039
 30
0.0
 10
1653.489162832083
 20
1093.98215719029
 30
0.0
  0
ARC
  5
2715
330
A
100
AcDbEntity
  8
MODEL
100
AcDbCircle
 10
1649.665645050845
 20
1095.157194115909
 30
0.0
 40
3.99999999999999
100
AcDbArc
 50
269.9999974957137
 51
342.9168496336055
  0
ARC
  5
2716
330
A
100
AcDbEntity
  8
MODEL
100
AcDbCircle
 10
1596.492031767049
 20
1020.1571964402
 30
0.0
 40
3.999999999999991
100
AcDbArc
 50
269.9999974956616
 51
327.4867642642993
  0
LINE
  5
2717
330
A
100
AcDbEntity
  8
MODEL
100
AcDbLine
 10
1578.614234068875
 20
1016.157190850416
 30
0.0
 11
1590.214027563274
 21
1016.1571923872
 31
0.0
  0
LINE
  5
2718
330
A
100
AcDbEntity
  8
MODEL
100
AcDbLine
 10
1649.665644875999
 20
1091.157194115909
 30
0.0
 11
1644.662064131438
 21
1091.157194334624
 31
0.0
  0
SPLINE
  5
271A
330
A
100
AcDbEntity
  8
MODEL
100
AcDbSpline
210
0.0
220
0.0
230
1.0
 70
     8
 71
     7
 72
    16
 73
     8
 74
     0
 42
0.000000001
 43
0.0000000001
 40
0.0254081084182837
 40
0.0254081084182837
 40
0.0254081084182837
 40
0.0254081084182837
 40
0.0254081084182837
 40
0.0254081084182837
 40
0.0254081084182837
 40
0.0254081084182837
 40
0.9523918616609516
 40
0.9523918616609516
 40
0.9523918616609516
 40
0.9523918616609516
 40
0.9523918616609516
 40
0.9523918616609516
 40
0.9523918616609516
 40
0.9523918616609516
 10
1599.86510098006
 20
1018.007218746312
 30
0.0
 10
1606.027356429996
 20
1027.675093068881
 30
0.0
 10
1611.702685362861
 20
1037.653101722412
 30
0.0
 10
1616.871821717247
 20
1047.910884417767
 30
0.0
 10
1621.515985227722
 20
1058.424696378996
 30
0.0
 10
1625.615184708321
 20
1069.157526288445
 30
0.0
 10
1629.14660097825
 20
1080.082082271701
 30
0.0
 10
1632.08299577367
 20
1091.164435517918
 30
0.0
  0
LINE
  5
271C
330
A
100
AcDbEntity
  8
MODEL
100
AcDbLine
 10
1590.214031890697
 20
1016.15719671462
 30
0.0
 11
1596.492031592203
 21
1016.1571964402
 31
0.0
  0
ARC
  5
271F
330
A
100
AcDbEntity
  8
MODEL
100
AcDbCircle
 10
1576.378172550052
 20
1018.157197319405
 30
0.0
 40
3.0
100
AcDbArc
 50
269.9999974956616
 51
318.1895193462015
  0
SPLINE
  5
2720
330
A
100
AcDbEntity
  8
MODEL
100
AcDbSpline
210
0.0
220
0.0
230
1.0
 70
     8
 71
     3
 72
    39
 73
    35
 74
     0
 42
0.000000001
 43
0.0000000001
 40
0.0
 40
0.0
 40
0.0
 40
0.0
 40
10.94669605563796
 40
20.50941122722586
 40
28.54973458598916
 40
36.59004258887838
 40
44.63115649822891
 40
52.67333259123571
 40
60.71551603577006
 40
68.75702377780188
 40
76.79739757018072
 40
84.83778985219774
 40
92.8784524207247
 40
100.9197242317877
 40
108.9610506756014
 40
117.0023451283982
 40
125.0435683618012
 40
133.0847995735108
 40
141.1257890047499
 40
149.1660720895239
 40
157.2063059162792
 40
165.2468799196917
 40
173.2890344343028
 40
181.3311959710868
 40
189.3731044697744
 40
197.4135269942109
 40
205.4539290891661
 40
213.4943331339639
 40
221.5347798835479
 40
229.5752102024631
 40
237.5358046162319
 40
243.8991696583645
 40
250.2625376917192
 40
256.6259207945068
 40
256.6259207945068
 40
256.6259207945068
 40
256.6259207945068
 10
1408.486831997685
 20
1015.157200330749
 30
0.0
 10
1408.486831838187
 20
1015.157200171253
 30
0.0
 10
1408.945649665517
 20
1015.157199852362
 30
0.0
 10
1410.770088114863
 20
1015.157199363622
 30
0.0
 10
1413.301696599691
 20
1015.157198895618
 30
0.0
 10
1416.427107585062
 20
1015.157198434707
 30
0.0
 10
1420.266673601289
 20
1015.157197957557
 30
0.0
 10
1424.78350350514
 20
1015.157197468773
 30
0.0
 10
1429.933786021329
 20
1015.157196973113
 30
0.0
 10
1435.667046433871
 20
1015.157196475423
 30
0.0
 10
1441.927657673744
 20
1015.157195980534
 30
0.0
 10
1448.655129502664
 20
1015.157195493205
 30
0.0
 10
1455.78475253039
 20
1015.157195018129
 30
0.0
 10
1463.247549067044
 20
1015.157194559896
 30
0.0
 10
1470.971237281938
 20
1015.157194122953
 30
0.0
 10
1478.880863529996
 20
1015.157193711541
 30
0.0
 10
1486.899826891003
 20
1015.157193329655
 30
0.0
 10
1494.950388981677
 20
1015.157192980992
 30
0.0
 10
1502.954379854055
 20
1015.157192668933
 30
0.0
 10
1510.834276819813
 20
1015.157192396499
 30
0.0
 10
1518.514028840021
 20
1015.157192166309
 30
0.0
 10
1525.920049235718
 20
1015.157191980569
 30
0.0
 10
1532.980591116843
 20
1015.157191841089
 30
0.0
 10
1539.626979418599
 20
1015.157191749237
 30
0.0
 10
1545.793926089703
 20
1015.157191705923
 30
0.0
 10
1551.421858257359
 20
1015.157191711555
 30
0.0
 10
1556.456446222053
 20
1015.157191766059
 30
0.0
 10
1560.849295845929
 20
1015.157191868919
 30
0.0
 10
1564.557998270439
 20
1015.157192019124
 30
0.0
 10
1567.536854925259
 20
1015.157192214564
 30
0.0
 10
1569.616991186893
 20
1015.15719243696
 30
0.0
 10
1570.95260967637
 20
1015.157192674528
 30
0.0
 10
1571.695129631201
 20
1015.157192918534
 30
0.0
 10
1571.860451629631
 20
1015.157193096744
 30
0.0
 10
1571.860451722349
 20
1015.157193189462
 30
0.0
  0
LINE
  5
2721
330
A
100
AcDbEntity
  8
MODEL
100
AcDbLine
 10
1571.860456049771
 20
1015.157197516881
 30
0.0
 11
1576.378172418918
 21
1015.157197319405
 31
0.0
  0
ARC
  5
272E
102
{ACAD_REACTORS
330
28F0
102
}
330
A
100
AcDbEntity
  8
HIDDEN
100
AcDbCircle
 10
1515.2419039778
 20
1028.689729939962
 30
0.0
 40
3.000000986193311
100
AcDbArc
 50
130.0000096341787
 51
178.9999913943168
  0
LINE
  5
272F
102
{ACAD_REACTORS
330
28F0
102
}
330
A
100
AcDbEntity
  8
HIDDEN
100
AcDbLine
 10
1512.242362905649
 20
1028.742087574775
 30
0.0
 11
1512.073638729338
 21
1019.075910201403
 31
0.0
  0
SPLINE
  5
2735
102
{ACAD_REACTORS
330
2B2D
102
}
330
A
100
AcDbEntity
  8
MODEL
100
AcDbSpline
210
0.0
220
0.0
230
1.0
 70
     8
 71
     3
 72
    74
 73
    70
 74
     0
 42
0.000000001
 43
0.0000000001
 40
18.1901902744051
 40
18.1901902744051
 40
18.1901902744051
 40
18.1901902744051
 40
28.66214802676901
 40
40.12701478105522
 40
51.5918593741011
 40
57.32431902764062
 40
68.7893582048775
 40
74.52061933745007
 40
80.24877910828694
 40
90.25912251037924
 40
94.54219473519383
 40
103.0942355195545
 40
111.628157369697
 40
120.1447983991739
 40
125.8136231078888
 40
137.8412667037922
 40
144.2012881962095
 40
151.9702491071666
 40
166.7958381450106
 40
181.6213516439576
 40
194.0923423866948
 40
205.8614365923754
 40
230.5880556352878
 40
255.3226016796905
 40
272.4808948861192
 40
289.7471327059246
 40
307.0090807636752
 40
324.060741681369
 40
341.0634767123673
 40
358.0682838886985
 40
374.9306484285082
 40
390.9466241444025
 40
407.7612448895235
 40
424.5643795540722
 40
441.3633728350732
 40
458.1656096784353
 40
475.103107091779
 40
492.1234648567169
 40
508.3328508135031
 40
525.5607650141072
 40
542.9739782145286
 40
560.3782548450318
 40
577.2086356010698
 40
584.9260697172252
 40
593.4175756909915
 40
602.6870737104002
 40
608.8723525540337
 40
614.2894223192371
 40
619.7913758930479
 40
624.0656054928394
 40
625.7765146456579
 40
636.0569864019692
 40
644.6438016944525
 40
651.5264436942659
 40
656.6957076226453
 40
660.1448969829097
 40
663.5960465484552
 40
667.0486457925113
 40
670.5021329341072
 40
673.9560054596723
 40
678.1192199997814
 40
686.4454731276659
 40
694.7717768109599
 40
703.0980819344486
 40
707.2612304925971
 40
711.4243787509804
 40
715.5875272863823
 40
719.7506760031748
 40
721.4526486356311
 40
721.4526486356311
 40
721.4526486356311
 40
721.4526486356311
 10
1663.687415560598
 20
1166.051945058239
 30
0.0
 10
1663.674916932595
 20
1166.052086929998
 30
0.0
 10
1663.641476049828
 20
1166.052468395941
 30
0.0
 10
1663.567391449664
 20
1166.053324511154
 30
0.0
 10
1663.483098718773
 20
1166.054314110584
 30
0.0
 10
1663.38177247343
 20
1166.055509402253
 30
0.0
 10
1663.29328914707
 20
1166.056609238501
 30
0.0
 10
1663.179863836765
 20
1166.057889247338
 30
0.0
 10
1663.060026563514
 20
1166.058961062615
 30
0.0
 10
1662.919105990998
 20
1166.060027599542
 30
0.0
 10
1662.673803797057
 20
1166.061587993183
 30
0.0
 10
1662.354460513642
 20
1166.063166645454
 30
0.0
 10
1661.758464347146
 20
1166.064358158077
 30
0.0
 10
1660.987696853628
 20
1166.062169637265
 30
0.0
 10
1659.82982239834
 20
1166.056979824923
 30
0.0
 10
1658.419100737671
 20
1166.05052403537
 30
0.0
 10
1656.439176352795
 20
1166.043133406074
 30
0.0
 10
1653.855556255811
 20
1166.03509344668
 30
0.0
 10
1649.68671662077
 20
1166.026058871739
 30
0.0
 10
1643.785919022005
 20
1166.019500077917
 30
0.0
 10
1637.341466727903
 20
1166.016264954615
 30
0.0
 10
1628.252532521281
 20
1166.014981760662
 30
0.0
 10
1615.115570385925
 20
1166.017235723685
 30
0.0
 10
1598.585147709876
 20
1166.022324392438
 30
0.0
 10
1582.47379937052
 20
1166.027718758134
 30
0.0
 10
1567.490775238577
 20
1166.032955620631
 30
0.0
 10
1551.762981819097
 20
1166.038519497441
 30
0.0
 10
1535.495262918898
 20
1166.044057293581
 30
0.0
 10
1518.856168663069
 20
1166.04879484919
 30
0.0
 10
1501.996323307746
 20
1166.0517954512
 30
0.0
 10
1485.351797999812
 20
1166.052331188014
 30
0.0
 10
1468.817450251549
 20
1166.05034031352
 30
0.0
 10
1452.49718585482
 20
1166.046405572201
 30
0.0
 10
1436.285461998806
 20
1166.041198623109
 30
0.0
 10
1420.602251998046
 20
1166.035705871775
 30
0.0
 10
1405.54883654716
 20
1166.030389796285
 30
0.0
 10
1391.23758614941
 20
1166.025470561418
 30
0.0
 10
1378.015841828187
 20
1166.021158745677
 30
0.0
 10
1365.738901088582
 20
1166.017576628166
 30
0.0
 10
1354.516378671038
 20
1166.015347102327
 30
0.0
 10
1344.388992429395
 20
1166.015539499339
 30
0.0
 10
1335.847300990545
 20
1166.019707843004
 30
0.0
 10
1330.234337403346
 20
1166.027061861835
 30
0.0
 10
1326.605513128538
 20
1166.035067682923
 30
0.0
 10
1324.212015025032
 20
1166.041998320519
 30
0.0
 10
1322.373938308839
 20
1166.048823217175
 30
0.0
 10
1321.068838262625
 20
1166.05445601585
 30
0.0
 10
1320.171254808983
 20
1166.058559729999
 30
0.0
 10
1319.50792950053
 20
1166.061483456831
 30
0.0
 10
1319.088394737096
 20
1166.062954606842
 30
0.0
 10
1318.557050064193
 20
1166.064181264691
 30
0.0
 10
1318.046499733639
 20
1166.063342193168
 30
0.0
 10
1317.65063755453
 20
1166.061112896922
 30
0.0
 10
1317.447074851149
 20
1166.05986376188
 30
0.0
 10
1317.334284803538
 20
1166.059264989989
 30
0.0
 10
1317.252899446574
 20
1166.05868359628
 30
0.0
 10
1317.194027908464
 20
1166.05815411118
 30
0.0
 10
1317.137947673887
 20
1166.057571147544
 30
0.0
 10
1317.090228004005
 20
1166.057025278217
 30
0.0
 10
1317.039709381433
 20
1166.056421421568
 30
0.0
 10
1316.976200413304
 20
1166.055650364001
 30
0.0
 10
1316.899176977491
 20
1166.054742814483
 30
0.0
 10
1316.820911723385
 20
1166.053821811101
 30
0.0
 10
1316.766373149828
 20
1166.053182533903
 30
0.0
 10
1316.729338069586
 20
1166.052753434318
 30
0.0
 10
1316.704936704806
 20
1166.052471764558
 30
0.0
 10
1316.683567116261
 20
1166.052228692844
 30
0.0
 10
1316.669821870069
 20
1166.052067293317
 30
0.0
 10
1316.661689147135
 20
1166.051981821661
 30
0.0
 10
1316.659513842571
 20
1166.051958386398
 30
0.0
  0
LINE
  5
275C
330
A
100
AcDbEntity
  8
MODEL
100
AcDbLine
 10
795.2268474165276
 20
1016.151998026846
 30
0.0
 11
806.8266548000497
 21
1016.15200007068
 31
0.0
  0
LINE
  5
275D
330
A
100
AcDbEntity
  8
MODEL
100
AcDbLine
 10
851.8822595053375
 20
1091.149250103511
 30
0.0
 11
860.7746880979425
 21
1091.151989514659
 31
0.0
  0
LINE
  5
2762
330
A
100
AcDbEntity
  8
MODEL
100
AcDbLine
 10
792.9907870188576
 20
1015.15200007068
 30
0.0
 11
788.4730710229805
 21
1015.15200007068
 31
0.0
  0
ARC
  5
2764
330
A
100
AcDbEntity
  8
MODEL
100
AcDbCircle
 10
792.9907863545627
 20
1018.152000957648
 30
0.0
 40
3.000000886967832
100
AcDbArc
 50
270.0000126869559
 51
318.1896251584316
  0
LINE
  5
2768
330
A
100
AcDbEntity
  8
MODEL
100
AcDbLine
 10
865.8038918357447
 20
1091.151993689611
 30
0.0
 11
860.7746880979425
 21
1091.151989514659
 31
0.0
  0
ARC
  5
2769
330
A
100
AcDbEntity
  8
MODEL
100
AcDbCircle
 10
596.6449272828545
 20
1156.845492407016
 30
0.0
 40
259.9987017346775
100
AcDbArc
 50
327.7264811556278
 51
345.3635714290772
  0
LINE
  5
276A
330
A
100
AcDbEntity
  8
MODEL
100
AcDbLine
 10
813.0940545662115
 20
1016.15200007068
 30
0.0
 11
806.8266548000497
 21
1016.15200007068
 31
0.0
  0
ARC
  5
276C
330
A
100
AcDbEntity
  8
MODEL
100
AcDbCircle
 10
813.0940533608905
 20
1020.152001172039
 30
0.0
 40
4.000001101359123
100
AcDbArc
 50
270.0000172651493
 51
327.7266284262702
  0
ARC
  5
276D
330
A
100
AcDbEntity
  8
MODEL
100
AcDbCircle
 10
865.8038692929217
 20
1095.152032834896
 30
0.0
 40
4.000039145349289
100
AcDbArc
 50
270.0003228989939
 51
342.4086910343657
  0
ARC
  5
276E
330
A
100
AcDbEntity
  8
MODEL
100
AcDbCircle
 10
583.6286825224047
 20
1184.612280569373
 30
0.0
 40
300.0168831821477
100
AcDbArc
 50
342.4093986283393
 51
355.6326321352827
  0
LINE
  5
276F
330
A
100
AcDbEntity
  8
MODEL
100
AcDbLine
 10
848.2063356383396
 20
1091.14783088149
 30
0.0
 11
851.8822595053375
 21
1091.149250103511
 31
0.0
  0
SPLINE
  5
2785
330
A
100
AcDbEntity
  8
HIDDEN
 48
0.5
100
AcDbSpline
210
0.0
220
0.0
230
1.0
 70
     8
 71
     3
 72
    75
 73
    71
 74
     0
 42
0.000000001
 43
0.0000000001
 40
0.0
 40
0.0
 40
0.0
 40
0.0
 40
1.029394116396146
 40
2.058731718118252
 40
3.087955924898786
 40
4.117009346922286
 40
5.145834088504272
 40
6.174371798258775
 40
7.20256378074094
 40
8.230351185265231
 40
9.257675286869306
 40
10.28447787155037
 40
11.31070173251655
 40
12.33629127623831
 40
13.36119322702418
 40
14.38535740767579
 40
15.4087375629216
 40
16.43129218342196
 40
17.45298528272187
 40
18.47378707873376
 40
19.49367453563742
 40
20.51263173122636
 40
21.5306500294057
 40
22.54772804511543
 40
23.56387139792443
 40
24.57909228253569
 40
25.59340885990478
 40
26.60684455924189
 40
27.61942734270449
 40
28.63118879460552
 40
29.64216372397023
 40
30.65238852093995
 40
31.66189571159234
 40
32.67073335361698
 40
33.67894588409523
 40
34.68656744482556
 40
35.6936296737271
 40
36.70016279447879
 40
37.70619633836471
 40
38.71175932032667
 40
39.71688025608974
 40
40.72158709453223
 40
41.7259071199359
 40
42.72986685906244
 40
43.73349200731927
 40
44.73680737828728
 40
45.73983687598346
 40
46.74260348660135
 40
47.74512928414014
 40
48.74743544351533
 40
49.74954225536275
 40
50.75146913736659
 40
51.75323463801619
 40
52.75485643013403
 40
53.75635129327473
 40
54.75773508617188
 40
55.75902271258172
 40
56.76022808552495
 40
57.76136409473656
 40
58.7624425797021
 40
59.76347430872238
 40
60.76446896340603
 40
61.76543512747011
 40
62.76638027851516
 40
63.76731078141675
 40
64.76823188207527
 40
65.76914770062723
 40
66.77006122383698
 40
67.77097429749104
 40
68.77188762202108
 40
68.77188762202108
 40
68.77188762202108
 40
68.77188762202108
 10
607.6983812441053
 20
1039.666702852161
 30
0.0
 10
607.4419146896716
 20
1039.666701831597
 30
0.0
 10
606.9289956192833
 20
1039.666699790786
 30
0.0
 10
606.1600220069477
 20
1039.666669332981
 30
0.0
 10
605.3918732176053
 20
1039.66660725332
 30
0.0
 10
604.6249617076924
 20
1039.66651080503
 30
0.0
 10
603.8596987277733
 20
1039.666384118581
 30
0.0
 10
603.0964934908075
 20
1039.66623599019
 30
0.0
 10
602.3357524917037
 20
1039.6660794089
 30
0.0
 10
601.5778789975034
 20
1039.665930383987
 30
0.0
 10
600.8232727275636
 20
1039.665806804178
 30
0.0
 10
600.0723297248437
 20
1039.665727218931
 30
0.0
 10
599.3254424054935
 20
1039.665709660045
 30
0.0
 10
598.5829997600335
 20
1039.665770557702
 30
0.0
 10
597.8453876681333
 20
1039.665923813144
 30
0.0
 10
597.1129892812264
 20
1039.666180073437
 30
0.0
 10
596.3861854236416
 20
1039.666546239157
 30
0.0
 10
595.6653549639045
 20
1039.667025217873
 30
0.0
 10
594.9508751134153
 20
1039.667615918537
 30
0.0
 10
594.2431216187565
 20
1039.668313465195
 30
0.0
 10
593.5424688250305
 20
1039.669109596513
 30
0.0
 10
592.8492896005073
 20
1039.669993204869
 30
0.0
 10
592.1639551201906
 20
1039.67095098483
 30
0.0
 10
591.4868345060554
 20
1039.671968166998
 30
0.0
 10
590.8182943807865
 20
1039.673029192162
 30
0.0
 10
590.1586983067496
 20
1039.674118448278
 30
0.0
 10
589.5084062632477
 20
1039.675220721997
 30
0.0
 10
588.8677740645753
 20
1039.676321645713
 30
0.0
 10
588.2371528502363
 20
1039.677408176768
 30
0.0
 10
587.6168875029934
 20
1039.678469975427
 30
0.0
 10
587.0073209832585
 20
1039.679492844351
 30
0.0
 10
586.4087715498704
 20
1039.680495240128
 30
0.0
 10
585.8216149526224
 20
1039.681387981213
 30
0.0
 10
585.2461499084625
 20
1039.682212544744
 30
0.0
 10
584.6826483703585
 20
1039.683023985944
 30
0.0
 10
584.1314119161643
 20
1039.683819012832
 30
0.0
 10
583.5927332157685
 20
1039.684601498847
 30
0.0
 10
583.0669038535375
 20
1039.685367381022
 30
0.0
 10
582.5542088704633
 20
1039.686112941472
 30
0.0
 10
582.0549268891077
 20
1039.686833991619
 30
0.0
 10
581.5693291765306
 20
1039.687526903228
 30
0.0
 10
581.0976792960746
 20
1039.688188729001
 30
0.0
 10
580.6402328466525
 20
1039.688817260729
 30
0.0
 10
580.1972373189155
 20
1039.689410956296
 30
0.0
 10
579.7689320003947
 20
1039.689968834354
 30
0.0
 10
579.3555479128145
 20
1039.69049035298
 30
0.0
 10
578.9573077641935
 20
1039.690975292014
 30
0.0
 10
578.5744258964723
 20
1039.691423657877
 30
0.0
 10
578.2071082151333
 20
1039.691835621707
 30
0.0
 10
577.8555521003823
 20
1039.692211487066
 30
0.0
 10
577.5199462962587
 20
1039.692551688389
 30
0.0
 10
577.2004707793485
 20
1039.692856815707
 30
0.0
 10
576.8972966120446
 20
1039.693127658915
 30
0.0
 10
576.6105857887765
 20
1039.69336526227
 30
0.0
 10
576.3404910874847
 20
1039.69357097691
 30
0.0
 10
576.0871559430625
 20
1039.693746495621
 30
0.0
 10
575.8507143603447
 20
1039.693893854647
 30
0.0
 10
575.6312908841237
 20
1039.694015387624
 30
0.0
 10
575.4290006061883
 20
1039.694113653694
 30
0.0
 10
575.2439491928044
 20
1039.694191355978
 30
0.0
 10
575.0762329231325
 20
1039.694251258915
 30
0.0
 10
574.9259387324955
 20
1039.694296109339
 30
0.0
 10
574.7931442564973
 20
1039.694328563974
 30
0.0
 10
574.6779178736865
 20
1039.694351124586
 30
0.0
 10
574.5803187443403
 20
1039.694366081931
 30
0.0
 10
574.5003968483466
 20
1039.694375464997
 30
0.0
 10
574.4381930066115
 20
1039.694381009254
 30
0.0
 10
574.3937389654557
 20
1039.69438406886
 30
0.0
 10
574.3670572657384
 20
1039.694385733585
 30
0.0
 10
574.3611270951465
 20
1039.694385981113
 30
0.0
 10
574.3611269751004
 20
1039.694386104876
 30
0.0
  0
SPLINE
  5
2786
330
A
100
AcDbEntity
  8
HIDDEN
 48
0.5
100
AcDbSpline
210
0.0
220
0.0
230
1.0
 70
     8
 71
     3
 72
    56
 73
    52
 74
     0
 42
0.000000001
 43
0.0000000001
 40
0.0
 40
0.0
 40
0.0
 40
0.0
 40
1.029394116396146
 40
2.058731718118252
 40
3.087955924898786
 40
4.117009346922286
 40
5.145834088504272
 40
6.174371798258775
 40
7.20256378074094
 40
8.230351185265231
 40
9.257675286869306
 40
10.28447787155037
 40
11.31070173251655
 40
12.33629127623831
 40
13.36119322702418
 40
14.38535740767579
 40
15.4087375629216
 40
16.43129218342196
 40
17.45298528272187
 40
18.47378707873376
 40
19.49367453563742
 40
20.51263173122636
 40
21.5306500294057
 40
22.54772804511543
 40
23.56387139792443
 40
24.57909228253569
 40
25.59340885990478
 40
26.60684455924189
 40
27.61942734270449
 40
28.63118879460552
 40
29.64216372397023
 40
30.65238852093995
 40
31.66189571159234
 40
32.67073335361698
 40
33.67894588409523
 40
34.68656744482556
 40
35.6936296737271
 40
36.70016279447879
 40
37.70619633836471
 40
38.71175932032667
 40
39.71688025608974
 40
40.72158709453223
 40
41.7259071199359
 40
42.72986685906244
 40
43.73349200731927
 40
44.73680737828728
 40
45.73983687598346
 40
46.74260348660135
 40
47.74512928414014
 40
48.74743544351533
 40
49.73648707694061
 40
49.73648707694061
 40
49.73648707694061
 40
49.73648707694061
 10
607.7402009706525
 20
1043.228050846095
 30
0.0
 10
607.4159694440855
 20
1043.228051094334
 30
0.0
 10
606.7661010291654
 20
1043.227748990904
 30
0.0
 10
605.7929321202855
 20
1043.226376213126
 30
0.0
 10
604.8204548949025
 20
1043.224080218632
 30
0.0
 10
603.8495575681186
 20
1043.220870675699
 30
0.0
 10
602.8806351287303
 20
1043.216768671399
 30
0.0
 10
601.9142134841486
 20
1043.211806425022
 30
0.0
 10
600.9507816793143
 20
1043.206026308523
 30
0.0
 10
599.9908364525495
 20
1043.199479803271
 30
0.0
 10
599.0348701255457
 20
1043.192226260518
 30
0.0
 10
598.0833738787146
 20
1043.184331545831
 30
0.0
 10
597.1368370911687
 20
1043.175866597339
 30
0.0
 10
596.1957478782165
 20
1043.166905945125
 30
0.0
 10
595.2605933957843
 20
1043.157526235706
 30
0.0
 10
594.3318602293466
 20
1043.147804804705
 30
0.0
 10
593.4100347137237
 20
1043.137818336585
 30
0.0
 10
592.4956031601787
 20
1043.127641644454
 30
0.0
 10
591.5890519420896
 20
1043.117346595525
 30
0.0
 10
590.6908674125543
 20
1043.107001199491
 30
0.0
 10
589.8015356390856
 20
1043.096668868483
 30
0.0
 10
588.9215419568895
 20
1043.086407848579
 30
0.0
 10
588.0513703495694
 20
1043.07627081803
 30
0.0
 10
587.1915026684537
 20
1043.066304663184
 30
0.0
 10
586.3424177709703
 20
1043.056550399552
 30
0.0
 10
585.5045905513784
 20
1043.047043257056
 30
0.0
 10
584.6784910600795
 20
1043.037812853996
 30
0.0
 10
583.8645835904636
 20
1043.028883474441
 30
0.0
 10
583.0633258426706
 20
1043.020274192291
 30
0.0
 10
582.2751670522007
 20
1043.012000548576
 30
0.0
 10
581.5005526586124
 20
1043.004070434939
 30
0.0
 10
580.7398976762074
 20
1042.996500114233
 30
0.0
 10
579.9936874042423
 20
1042.989280530666
 30
0.0
 10
579.2623017519095
 20
1042.982384038797
 30
0.0
 10
578.5460910369393
 20
1042.975807338551
 30
0.0
 10
577.8454440203745
 20
1042.96954580304
 30
0.0
 10
577.1607381146996
 20
1042.963596643334
 30
0.0
 10
576.4923491358745
 20
1042.957956415843
 30
0.0
 10
575.8406441731013
 20
1042.952621071268
 30
0.0
 10
575.2059817089785
 20
1042.947585754196
 30
0.0
 10
574.5887103969317
 20
1042.942844820998
 30
0.0
 10
573.9891686299334
 20
1042.93839193602
 30
0.0
 10
573.4076842341196
 20
1042.934220202513
 30
0.0
 10
572.8445743189036
 20
1042.930322298472
 30
0.0
 10
572.3001451914056
 20
1042.926690603498
 30
0.0
 10
571.7746923103723
 20
1042.923317307785
 30
0.0
 10
571.2685002546523
 20
1042.920194495995
 30
0.0
 10
570.7818426788604
 20
1042.917314200131
 30
0.0
 10
570.3149822385044
 20
1042.914668422885
 30
0.0
 10
569.8701103993731
 20
1042.912259636554
 30
0.0
 10
569.5875004910154
 20
1042.9108008514
 30
0.0
 10
569.4504550852221
 20
1042.910110398464
 30
0.0
  0
SPLINE
  5
2787
330
A
100
AcDbEntity
  8
HIDDEN
 48
0.5
100
AcDbSpline
210
0.0
220
0.0
230
1.0
 70
     8
 71
     3
 72
    75
 73
    71
 74
     0
 42
0.000000001
 43
0.0000000001
 40
0.0
 40
0.0
 40
0.0
 40
0.0
 40
1.029394116396146
 40
2.058731718118252
 40
3.087955924898786
 40
4.117009346922286
 40
5.145834088504272
 40
6.174371798258775
 40
7.20256378074094
 40
8.230351185265231
 40
9.257675286869306
 40
10.28447787155037
 40
11.31070173251655
 40
12.33629127623831
 40
13.36119322702418
 40
14.38535740767579
 40
15.4087375629216
 40
16.43129218342196
 40
17.45298528272187
 40
18.47378707873376
 40
19.49367453563742
 40
20.51263173122636
 40
21.5306500294057
 40
22.54772804511543
 40
23.56387139792443
 40
24.57909228253569
 40
25.59340885990478
 40
26.60684455924189
 40
27.61942734270449
 40
28.63118879460552
 40
29.64216372397023
 40
30.65238852093995
 40
31.66189571159234
 40
32.67073335361698
 40
33.67894588409523
 40
34.68656744482556
 40
35.6936296737271
 40
36.70016279447879
 40
37.70619633836471
 40
38.71175932032667
 40
39.71688025608974
 40
40.72158709453223
 40
41.7259071199359
 40
42.72986685906244
 40
43.73349200731927
 40
44.73680737828728
 40
45.73983687598346
 40
46.74260348660135
 40
47.74512928414014
 40
48.74743544351533
 40
49.74954225536275
 40
50.75146913736659
 40
51.75323463801619
 40
52.75485643013403
 40
53.75635129327473
 40
54.75773508617188
 40
55.75902271258172
 40
56.76022808552495
 40
57.76136409473656
 40
58.7624425797021
 40
59.76347430872238
 40
60.76446896340603
 40
61.76543512747011
 40
62.76638027851516
 40
63.76731078141675
 40
64.76823188207527
 40
65.76914770062723
 40
66.77006122383698
 40
67.77097429749104
 40
68.77188762202108
 40
68.77188762202108
 40
68.77188762202108
 40
68.77188762202108
 10
607.8210927259165
 20
1039.666702852161
 30
0.0
 10
608.0775592803507
 20
1039.666701831597
 30
0.0
 10
608.5904783507385
 20
1039.666699790786
 30
0.0
 10
609.3594519630815
 20
1039.666669332981
 30
0.0
 10
610.1276007524166
 20
1039.66660725332
 30
0.0
 10
610.8945122623295
 20
1039.66651080503
 30
0.0
 10
611.6597752422485
 20
1039.666384118581
 30
0.0
 10
612.4229804792144
 20
1039.66623599019
 30
0.0
 10
613.1837214783186
 20
1039.6660794089
 30
0.0
 10
613.9415949725185
 20
1039.665930383987
 30
0.0
 10
614.6962012424583
 20
1039.665806804178
 30
0.0
 10
615.4471442451786
 20
1039.665727218931
 30
0.0
 10
616.1940315645284
 20
1039.665709660045
 30
0.0
 10
616.9364742099815
 20
1039.665770557702
 30
0.0
 10
617.6740863018886
 20
1039.665923813144
 30
0.0
 10
618.4064846887877
 20
1039.666180073437
 30
0.0
 10
619.1332885463803
 20
1039.666546239157
 30
0.0
 10
619.8541190061173
 20
1039.667025217873
 30
0.0
 10
620.5685988566065
 20
1039.667615918537
 30
0.0
 10
621.2763523512644
 20
1039.668313465195
 30
0.0
 10
621.9770051449914
 20
1039.669109596513
 30
0.0
 10
622.6701843695146
 20
1039.669993204869
 30
0.0
 10
623.3555188498317
 20
1039.67095098483
 30
0.0
 10
624.0326394639665
 20
1039.671968166998
 30
0.0
 10
624.7011795892345
 20
1039.673029192162
 30
0.0
 10
625.3607756632723
 20
1039.674118448278
 30
0.0
 10
626.0110677067746
 20
1039.675220721997
 30
0.0
 10
626.6516999054393
 20
1039.676321645713
 30
0.0
 10
627.2823211197856
 20
1039.677408176768
 30
0.0
 10
627.9025864670216
 20
1039.678469975427
 30
0.0
 10
628.5121529867633
 20
1039.679492844351
 30
0.0
 10
629.1107024201433
 20
1039.680495240128
 30
0.0
 10
629.6978590173994
 20
1039.681387981213
 30
0.0
 10
630.2733240615585
 20
1039.682212544744
 30
0.0
 10
630.8368255996634
 20
1039.683023985944
 30
0.0
 10
631.3880620538575
 20
1039.683819012832
 30
0.0
 10
631.9267407542607
 20
1039.684601498847
 30
0.0
 10
632.4525701164844
 20
1039.685367381022
 30
0.0
 10
632.9652650995513
 20
1039.686112941472
 30
0.0
 10
633.4645470809146
 20
1039.686833991619
 30
0.0
 10
633.9501447934913
 20
1039.687526903228
 30
0.0
 10
634.4217946739477
 20
1039.688188729001
 30
0.0
 10
634.8792411233685
 20
1039.688817260729
 30
0.0
 10
635.3222366511063
 20
1039.689410956296
 30
0.0
 10
635.7505419696195
 20
1039.689968834354
 30
0.0
 10
636.1639260572074
 20
1039.69049035298
 30
0.0
 10
636.5621662058356
 20
1039.690975292014
 30
0.0
 10
636.9450480735495
 20
1039.691423657877
 30
0.0
 10
637.3123657548886
 20
1039.691835621707
 30
0.0
 10
637.6639218696464
 20
1039.692211487066
 30
0.0
 10
637.9995276737636
 20
1039.692551688389
 30
0.0
 10
638.3190031906734
 20
1039.692856815707
 30
0.0
 10
638.6221773579773
 20
1039.693127658915
 30
0.0
 10
638.9088881812445
 20
1039.69336526227
 30
0.0
 10
639.1789828825376
 20
1039.69357097691
 30
0.0
 10
639.4323180269525
 20
1039.693746495621
 30
0.0
 10
639.6687596096695
 20
1039.693893854647
 30
0.0
 10
639.8881830858986
 20
1039.694015387624
 30
0.0
 10
640.0904733638404
 20
1039.694113653694
 30
0.0
 10
640.2755247772175
 20
1039.694191355978
 30
0.0
 10
640.4432410468894
 20
1039.694251258915
 30
0.0
 10
640.5935352375263
 20
1039.694296109339
 30
0.0
 10
640.7263297135246
 20
1039.694328563974
 30
0.0
 10
640.8415560963354
 20
1039.694351124586
 30
0.0
 10
640.9391552256816
 20
1039.694366081931
 30
0.0
 10
641.0190771216685
 20
1039.694375464997
 30
0.0
 10
641.0812809634103
 20
1039.694381009254
 30
0.0
 10
641.1257350045666
 20
1039.69438406886
 30
0.0
 10
641.1524167042835
 20
1039.694385733585
 30
0.0
 10
641.1583468748745
 20
1039.694385981113
 30
0.0
 10
641.1583469949205
 20
1039.694386104876
 30
0.0
  0
SPLINE
  5
2788
330
A
100
AcDbEntity
  8
HIDDEN
 48
0.5
100
AcDbSpline
210
0.0
220
0.0
230
1.0
 70
     8
 71
     3
 72
    56
 73
    52
 74
     0
 42
0.000000001
 43
0.0000000001
 40
0.0
 40
0.0
 40
0.0
 40
0.0
 40
1.029394116396146
 40
2.058731718118252
 40
3.087955924898786
 40
4.117009346922286
 40
5.145834088504272
 40
6.174371798258775
 40
7.20256378074094
 40
8.230351185265231
 40
9.257675286869306
 40
10.28447787155037
 40
11.31070173251655
 40
12.33629127623831
 40
13.36119322702418
 40
14.38535740767579
 40
15.4087375629216
 40
16.43129218342196
 40
17.45298528272187
 40
18.47378707873376
 40
19.49367453563742
 40
20.51263173122636
 40
21.5306500294057
 40
22.54772804511543
 40
23.56387139792443
 40
24.57909228253569
 40
25.59340885990478
 40
26.60684455924189
 40
27.61942734270449
 40
28.63118879460552
 40
29.64216372397023
 40
30.65238852093995
 40
31.66189571159234
 40
32.67073335361698
 40
33.67894588409523
 40
34.68656744482556
 40
35.6936296737271
 40
36.70016279447879
 40
37.70619633836471
 40
38.71175932032667
 40
39.71688025608974
 40
40.72158709453223
 40
41.7259071199359
 40
42.72986685906244
 40
43.73349200731927
 40
44.73680737828728
 40
45.73983687598346
 40
46.74260348660135
 40
47.74512928414014
 40
48.74743544351533
 40
49.66450341976648
 40
49.66450341976648
 40
49.66450341976648
 40
49.66450341976648
 10
607.8629124524623
 20
1043.228050846095
 30
0.0
 10
608.1871439790293
 20
1043.228051094334
 30
0.0
 10
608.8370123939485
 20
1043.227748990904
 30
0.0
 10
609.8101813028284
 20
1043.226376213126
 30
0.0
 10
610.7826585282046
 20
1043.224080218632
 30
0.0
 10
611.7535558549966
 20
1043.220870675699
 30
0.0
 10
612.7224782943763
 20
1043.216768671399
 30
0.0
 10
613.6888999389653
 20
1043.211806425022
 30
0.0
 10
614.6523317437996
 20
1043.206026308523
 30
0.0
 10
615.6122769705644
 20
1043.199479803271
 30
0.0
 10
616.5682432975614
 20
1043.192226260518
 30
0.0
 10
617.5197395443925
 20
1043.184331545831
 30
0.0
 10
618.4662763319457
 20
1043.175866597339
 30
0.0
 10
619.4073655448983
 20
1043.166905945125
 30
0.0
 10
620.3425200273296
 20
1043.157526235706
 30
0.0
 10
621.2712531937673
 20
1043.147804804705
 30
0.0
 10
622.1930787093906
 20
1043.137818336585
 30
0.0
 10
623.1075102629356
 20
1043.127641644454
 30
0.0
 10
624.0140614810257
 20
1043.117346595525
 30
0.0
 10
624.9122460105605
 20
1043.107001199491
 30
0.0
 10
625.8015777840214
 20
1043.096668868483
 30
0.0
 10
626.6815714662257
 20
1043.086407848579
 30
0.0
 10
627.5517430735445
 20
1043.07627081803
 30
0.0
 10
628.4116107546606
 20
1043.066304663184
 30
0.0
 10
629.2606956521445
 20
1043.056550399552
 30
0.0
 10
630.0985228717286
 20
1043.047043257056
 30
0.0
 10
630.9246223630275
 20
1043.037812853996
 30
0.0
 10
631.7385298326503
 20
1043.028883474441
 30
0.0
 10
632.5397875804433
 20
1043.020274192291
 30
0.0
 10
633.3279463709146
 20
1043.012000548576
 30
0.0
 10
634.1025607645015
 20
1043.004070434939
 30
0.0
 10
634.8632157468996
 20
1042.996500114233
 30
0.0
 10
635.6094260188725
 20
1042.989280530666
 30
0.0
 10
636.3408116712044
 20
1042.982384038797
 30
0.0
 10
637.0570223861755
 20
1042.975807338551
 30
0.0
 10
637.7576694027407
 20
1042.96954580304
 30
0.0
 10
638.4423753084075
 20
1042.963596643334
 30
0.0
 10
639.1107642872325
 20
1042.957956415843
 30
0.0
 10
639.7624692500135
 20
1042.952621071268
 30
0.0
 10
640.3971317141354
 20
1042.947585754196
 30
0.0
 10
641.0144030261827
 20
1042.942844820998
 30
0.0
 10
641.6139447931737
 20
1042.93839193602
 30
0.0
 10
642.1954291889956
 20
1042.934220202513
 30
0.0
 10
642.7585391042035
 20
1042.930322298472
 30
0.0
 10
643.3029682317015
 20
1042.926690603498
 30
0.0
 10
643.8284211127343
 20
1042.923317307785
 30
0.0
 10
644.3346131684625
 20
1042.920194495995
 30
0.0
 10
644.8212707442467
 20
1042.917314200131
 30
0.0
 10
645.2881311846095
 20
1042.914668422885
 30
0.0
 10
645.7223067154214
 20
1042.912317552383
 30
0.0
 10
645.9951639806018
 20
1042.910906503191
 30
0.0
 10
646.1226829175944
 20
1042.9102616951
 30
0.0
  0
SPLINE
  5
2789
330
A
100
AcDbEntity
  8
HIDDEN
 48
0.5
100
AcDbSpline
210
0.0
220
0.0
230
1.0
 70
     8
 71
     3
 72
    75
 73
    71
 74
     0
 42
0.000000001
 43
0.0000000001
 40
0.0
 40
0.0
 40
0.0
 40
0.0
 40
1.029394116396146
 40
2.058731718118252
 40
3.087955924898786
 40
4.117009346922286
 40
5.145834088504272
 40
6.174371798258775
 40
7.20256378074094
 40
8.230351185265231
 40
9.257675286869306
 40
10.28447787155037
 40
11.31070173251655
 40
12.33629127623831
 40
13.36119322702418
 40
14.38535740767579
 40
15.4087375629216
 40
16.43129218342196
 40
17.45298528272187
 40
18.47378707873376
 40
19.49367453563742
 40
20.51263173122636
 40
21.5306500294057
 40
22.54772804511543
 40
23.56387139792443
 40
24.57909228253569
 40
25.59340885990478
 40
26.60684455924189
 40
27.61942734270449
 40
28.63118879460552
 40
29.64216372397023
 40
30.65238852093995
 40
31.66189571159234
 40
32.67073335361698
 40
33.67894588409523
 40
34.68656744482556
 40
35.6936296737271
 40
36.70016279447879
 40
37.70619633836471
 40
38.71175932032667
 40
39.71688025608974
 40
40.72158709453223
 40
41.7259071199359
 40
42.72986685906244
 40
43.73349200731927
 40
44.73680737828728
 40
45.73983687598346
 40
46.74260348660135
 40
47.74512928414014
 40
48.74743544351533
 40
49.74954225536275
 40
50.75146913736659
 40
51.75323463801619
 40
52.75485643013403
 40
53.75635129327473
 40
54.75773508617188
 40
55.75902271258172
 40
56.76022808552495
 40
57.76136409473656
 40
58.7624425797021
 40
59.76347430872238
 40
60.76446896340603
 40
61.76543512747011
 40
62.76638027851516
 40
63.76731078141675
 40
64.76823188207527
 40
65.76914770062723
 40
66.77006122383698
 40
67.77097429749104
 40
68.77188762202108
 40
68.77188762202108
 40
68.77188762202108
 40
68.77188762202108
 10
607.7516932719477
 20
1039.666702852161
 30
0.0
 10
607.4952267175054
 20
1039.666701831597
 30
0.0
 10
606.9823076471243
 20
1039.666699790786
 30
0.0
 10
606.2133340347814
 20
1039.666669332981
 30
0.0
 10
605.4451852454463
 20
1039.66660725332
 30
0.0
 10
604.6782737355343
 20
1039.66651080503
 30
0.0
 10
603.9130107556143
 20
1039.666384118581
 30
0.0
 10
603.1498055186416
 20
1039.66623599019
 30
0.0
 10
602.3890645195374
 20
1039.6660794089
 30
0.0
 10
601.6311910253385
 20
1039.665930383987
 30
0.0
 10
600.8765847554055
 20
1039.665806804178
 30
0.0
 10
600.1256417526847
 20
1039.665727218931
 30
0.0
 10
599.3787544333345
 20
1039.665709660045
 30
0.0
 10
598.6363117878745
 20
1039.665770557702
 30
0.0
 10
597.8986996959743
 20
1039.665923813144
 30
0.0
 10
597.1663013090683
 20
1039.666180073437
 30
0.0
 10
596.4394974514826
 20
1039.666546239157
 30
0.0
 10
595.7186669917387
 20
1039.667025217873
 30
0.0
 10
595.0041871412495
 20
1039.667615918537
 30
0.0
 10
594.2964336465916
 20
1039.668313465195
 30
0.0
 10
593.5957808528647
 20
1039.669109596513
 30
0.0
 10
592.9026016283415
 20
1039.669993204869
 30
0.0
 10
592.2172671480243
 20
1039.67095098483
 30
0.0
 10
591.5401465338905
 20
1039.671968166998
 30
0.0
 10
590.8716064086284
 20
1039.673029192162
 30
0.0
 10
590.2120103345833
 20
1039.674118448278
 30
0.0
 10
589.5617182910814
 20
1039.675220721997
 30
0.0
 10
588.9210860924163
 20
1039.676321645713
 30
0.0
 10
588.2904648780773
 20
1039.677408176768
 30
0.0
 10
587.6701995308345
 20
1039.678469975427
 30
0.0
 10
587.0606330110927
 20
1039.679492844351
 30
0.0
 10
586.4620835777123
 20
1039.680495240128
 30
0.0
 10
585.8749269804566
 20
1039.681387981213
 30
0.0
 10
585.2994619363044
 20
1039.682212544744
 30
0.0
 10
584.7359603981995
 20
1039.683023985944
 30
0.0
 10
584.1847239439985
 20
1039.683819012832
 30
0.0
 10
583.6460452436036
 20
1039.684601498847
 30
0.0
 10
583.1202158813785
 20
1039.685367381022
 30
0.0
 10
582.6075208983043
 20
1039.686112941472
 30
0.0
 10
582.1082389169414
 20
1039.686833991619
 30
0.0
 10
581.6226412043716
 20
1039.687526903228
 30
0.0
 10
581.1509913239165
 20
1039.688188729001
 30
0.0
 10
580.6935448744944
 20
1039.688817260729
 30
0.0
 10
580.2505493467575
 20
1039.689410956296
 30
0.0
 10
579.8222440282366
 20
1039.689968834354
 30
0.0
 10
579.4088599406555
 20
1039.69049035298
 30
0.0
 10
579.0106197920277
 20
1039.690975292014
 30
0.0
 10
578.6277379243065
 20
1039.691423657877
 30
0.0
 10
578.2604202429675
 20
1039.691835621707
 30
0.0
 10
577.9088641282165
 20
1039.692211487066
 30
0.0
 10
577.5732583240997
 20
1039.692551688389
 30
0.0
 10
577.2537828071895
 20
1039.692856815707
 30
0.0
 10
576.9506086398783
 20
1039.693127658915
 30
0.0
 10
576.6638978166184
 20
1039.69336526227
 30
0.0
 10
576.3938031153184
 20
1039.69357097691
 30
0.0
 10
576.1404679709035
 20
1039.693746495621
 30
0.0
 10
575.9040263881866
 20
1039.693893854647
 30
0.0
 10
575.6846029119574
 20
1039.694015387624
 30
0.0
 10
575.4823126340225
 20
1039.694113653694
 30
0.0
 10
575.2972612206386
 20
1039.694191355978
 30
0.0
 10
575.1295449509735
 20
1039.694251258915
 30
0.0
 10
574.9792507603297
 20
1039.694296109339
 30
0.0
 10
574.8464562843396
 20
1039.694328563974
 30
0.0
 10
574.7312299015207
 20
1039.694351124586
 30
0.0
 10
574.6336307721826
 20
1039.694366081931
 30
0.0
 10
574.5537088761876
 20
1039.694375464997
 30
0.0
 10
574.4915050344525
 20
1039.694381009254
 30
0.0
 10
574.4470509932976
 20
1039.69438406886
 30
0.0
 10
574.4203692935725
 20
1039.694385733585
 30
0.0
 10
574.4144391229884
 20
1039.694385981113
 30
0.0
 10
574.4144390029423
 20
1039.694386104876
 30
0.0
  0
SPLINE
  5
278A
330
A
100
AcDbEntity
  8
HIDDEN
 48
0.5
100
AcDbSpline
210
0.0
220
0.0
230
1.0
 70
     8
 71
     3
 72
    56
 73
    52
 74
     0
 42
0.000000001
 43
0.0000000001
 40
0.0
 40
0.0
 40
0.0
 40
0.0
 40
1.029394116396146
 40
2.058731718118252
 40
3.087955924898786
 40
4.117009346922286
 40
5.145834088504272
 40
6.174371798258775
 40
7.20256378074094
 40
8.230351185265231
 40
9.257675286869306
 40
10.28447787155037
 40
11.31070173251655
 40
12.33629127623831
 40
13.36119322702418
 40
14.38535740767579
 40
15.4087375629216
 40
16.43129218342196
 40
17.45298528272187
 40
18.47378707873376
 40
19.49367453563742
 40
20.51263173122636
 40
21.5306500294057
 40
22.54772804511543
 40
23.56387139792443
 40
24.57909228253569
 40
25.59340885990478
 40
26.60684455924189
 40
27.61942734270449
 40
28.63118879460552
 40
29.64216372397023
 40
30.65238852093995
 40
31.66189571159234
 40
32.67073335361698
 40
33.67894588409523
 40
34.68656744482556
 40
35.6936296737271
 40
36.70016279447879
 40
37.70619633836471
 40
38.71175932032667
 40
39.71688025608974
 40
40.72158709453223
 40
41.7259071199359
 40
42.72986685906244
 40
43.73349200731927
 40
44.73680737828728
 40
45.73983687598346
 40
46.74260348660135
 40
47.74512928414014
 40
48.74743544351533
 40
49.6645034194599
 40
49.6645034194599
 40
49.6645034194599
 40
49.6645034194599
 10
607.7098735454015
 20
1043.228050846095
 30
0.0
 10
607.3856420188263
 20
1043.228051094334
 30
0.0
 10
606.7357736039144
 20
1043.227748990904
 30
0.0
 10
605.7626046950345
 20
1043.226376213126
 30
0.0
 10
604.7901274696515
 20
1043.224080218632
 30
0.0
 10
603.8192301428676
 20
1043.220870675699
 30
0.0
 10
602.8503077034793
 20
1043.216768671399
 30
0.0
 10
601.8838860588976
 20
1043.211806425022
 30
0.0
 10
600.9204542540565
 20
1043.206026308523
 30
0.0
 10
599.9605090272917
 20
1043.199479803271
 30
0.0
 10
599.0045427002947
 20
1043.192226260518
 30
0.0
 10
598.0530464534636
 20
1043.184331545831
 30
0.0
 10
597.1065096659104
 20
1043.175866597339
 30
0.0
 10
596.1654204529573
 20
1043.166905945125
 30
0.0
 10
595.2302659705333
 20
1043.157526235706
 30
0.0
 10
594.3015328040883
 20
1043.147804804705
 30
0.0
 10
593.3797072884727
 20
1043.137818336585
 30
0.0
 10
592.4652757349277
 20
1043.127641644454
 30
0.0
 10
591.5587245168385
 20
1043.117346595525
 30
0.0
 10
590.6605399872965
 20
1043.107001199491
 30
0.0
 10
589.7712082138346
 20
1043.096668868483
 30
0.0
 10
588.8912145316303
 20
1043.086407848579
 30
0.0
 10
588.0210429243116
 20
1043.07627081803
 30
0.0
 10
587.1611752432027
 20
1043.066304663184
 30
0.0
 10
586.3120903457193
 20
1043.056550399552
 30
0.0
 10
585.4742631261274
 20
1043.047043257056
 30
0.0
 10
584.6481636348285
 20
1043.037812853996
 30
0.0
 10
583.8342561652125
 20
1043.028883474441
 30
0.0
 10
583.0329984174195
 20
1043.020274192291
 30
0.0
 10
582.2448396269497
 20
1043.012000548576
 30
0.0
 10
581.4702252333614
 20
1043.004070434939
 30
0.0
 10
580.7095702509564
 20
1042.996500114233
 30
0.0
 10
579.9633599789845
 20
1042.989280530666
 30
0.0
 10
579.2319743266517
 20
1042.982384038797
 30
0.0
 10
578.5157636116883
 20
1042.975807338551
 30
0.0
 10
577.8151165951235
 20
1042.96954580304
 30
0.0
 10
577.1304106894486
 20
1042.963596643334
 30
0.0
 10
576.4620217106235
 20
1042.957956415843
 30
0.0
 10
575.8103167478507
 20
1042.952621071268
 30
0.0
 10
575.1756542837275
 20
1042.947585754196
 30
0.0
 10
574.5583829716807
 20
1042.942844820998
 30
0.0
 10
573.9588412046824
 20
1042.93839193602
 30
0.0
 10
573.3773568088686
 20
1042.934220202513
 30
0.0
 10
572.8142468936526
 20
1042.930322298472
 30
0.0
 10
572.2698177661546
 20
1042.926690603498
 30
0.0
 10
571.7443648851213
 20
1042.923317307785
 30
0.0
 10
571.2381728294017
 20
1042.920194495995
 30
0.0
 10
570.7515152536093
 20
1042.917314200131
 30
0.0
 10
570.2846548132534
 20
1042.914668422885
 30
0.0
 10
569.8504792824874
 20
1042.912317552383
 30
0.0
 10
569.5776220173443
 20
1042.910906503191
 30
0.0
 10
569.4501030803922
 20
1042.910261695101
 30
0.0
  0
LINE
  5
278B
330
A
100
AcDbEntity
  8
MODEL
100
AcDbLine
 10
1330.692131039859
 20
1091.156147520223
 30
0.0
 11
1330.723591384295
 21
1091.153022519863
 31
0.0
  0
SPLINE
  5
278C
330
A
100
AcDbEntity
  8
MODEL
100
AcDbSpline
210
0.0
220
0.0
230
1.0
 70
     8
 71
     3
 72
    26
 73
    22
 74
     0
 42
0.000000001
 43
0.0000000001
 40
27.89271629165918
 40
27.89271629165918
 40
27.89271629165918
 40
27.89271629165918
 40
28.77202580717479
 40
43.16258001881286
 40
58.98647764207605
 40
67.61785365651366
 40
80.56630906347579
 40
89.19942216399406
 40
93.5162129958138
 40
95.67477733766702
 40
98.91416838568401
 40
99.99138081686034
 40
100.5261884887723
 40
102.1135714619021
 40
104.7499789156434
 40
108.4403907600914
 40
115.7572393771595
 40
119.7134895367076
 40
125.6483316631558
 40
136.034655112718
 40
137.0856922372086
 40
137.0856922372086
 40
137.0856922372086
 40
137.0856922372086
 10
1330.723591384295
 20
1091.153022519863
 30
0.0
 10
1330.724471734655
 20
1091.152935145609
 30
0.0
 10
1330.739999133919
 20
1091.151394147809
 30
0.0
 10
1330.780081642786
 20
1091.147419441111
 30
0.0
 10
1330.851013378443
 20
1091.140435663726
 30
0.0
 10
1330.935470507878
 20
1091.132194529438
 30
0.0
 10
1331.015318306027
 20
1091.124474591122
 30
0.0
 10
1331.093689829465
 20
1091.116999756011
 30
0.0
 10
1331.143588101745
 20
1091.112309795358
 30
0.0
 10
1331.17606371394
 20
1091.109244463897
 30
0.0
 10
1331.199663052407
 20
1091.107027990501
 30
0.0
 10
1331.21637776891
 20
1091.105502924014
 30
0.0
 10
1331.229052983828
 20
1091.104679369365
 30
0.0
 10
1331.254483493938
 20
1091.103753396286
 30
0.0
 10
1331.333169157319
 20
1091.102982499234
 30
0.0
 10
1331.560528402081
 20
1091.103960028789
 30
0.0
 10
1331.981871333603
 20
1091.107046731076
 30
0.0
 10
1332.664417163691
 20
1091.110001702689
 30
0.0
 10
1333.672790992165
 20
1091.113058457825
 30
0.0
 10
1334.823656391297
 20
1091.114998773727
 30
0.0
 10
1335.712860778999
 20
1091.116116040893
 30
0.0
 10
1335.795683829162
 20
1091.116217453554
 30
0.0
  0
SPLINE
  5
278D
330
A
100
AcDbEntity
  8
MODEL
100
AcDbSpline
210
0.0
220
0.0
230
1.0
 70
     8
 71
     7
 72
    16
 73
     8
 74
     0
 42
0.000000001
 43
0.0000000001
 40
0.0565046317107987
 40
0.0565046317107987
 40
0.0565046317107987
 40
0.0565046317107987
 40
0.0565046317107987
 40
0.0565046317107987
 40
0.0565046317107987
 40
0.0565046317107987
 40
0.9612395310256623
 40
0.9612395310256623
 40
0.9612395310256623
 40
0.9612395310256623
 40
0.9612395310256623
 40
0.9612395310256623
 40
0.9612395310256623
 40
0.9612395310256623
 10
1314.184766605158
 20
1161.770573346655
 30
0.0
 10
1314.93432397479
 20
1151.92765966815
 30
0.0
 10
1316.057084685754
 20
1142.113240783137
 30
0.0
 10
1317.529276575595
 20
1132.342630431687
 30
0.0
 10
1319.32512529371
 20
1122.625932624052
 30
0.0
 10
1321.45597468729
 20
1112.976028998271
 30
0.0
 10
1323.95827576571
 20
1103.41804536904
 30
0.0
 10
1326.858096734347
 20
1093.982157190291
 30
0.0
  0
ARC
  5
278E
330
A
100
AcDbEntity
  8
MODEL
100
AcDbCircle
 10
1330.681614515584
 20
1095.15719411591
 30
0.0
 40
3.99999999999999
100
AcDbArc
 50
197.0831503663977
 51
270.0000025043124
  0
ARC
  5
278F
330
A
100
AcDbEntity
  8
MODEL
100
AcDbCircle
 10
1383.85522779938
 20
1020.157196440201
 30
0.0
 40
3.999999999999991
100
AcDbArc
 50
212.5132357357007
 51
270.0000025043384
  0
LINE
  5
2790
330
A
100
AcDbEntity
  8
MODEL
100
AcDbLine
 10
1401.733025497554
 20
1016.157190850417
 30
0.0
 11
1390.133232003155
 21
1016.157192387201
 31
0.0
  0
LINE
  5
2791
330
A
100
AcDbEntity
  8
MODEL
100
AcDbLine
 10
1330.68161469043
 20
1091.15719411591
 30
0.0
 11
1335.685195434991
 21
1091.157194334625
 31
0.0
  0
SPLINE
  5
2793
330
A
100
AcDbEntity
  8
MODEL
100
AcDbSpline
210
0.0
220
0.0
230
1.0
 70
     8
 71
     7
 72
    16
 73
     8
 74
     0
 42
0.000000001
 43
0.0000000001
 40
0.0254081084182837
 40
0.0254081084182837
 40
0.0254081084182837
 40
0.0254081084182837
 40
0.0254081084182837
 40
0.0254081084182837
 40
0.0254081084182837
 40
0.0254081084182837
 40
0.9523053326430122
 40
0.9523053326430122
 40
0.9523053326430122
 40
0.9523053326430122
 40
0.9523053326430122
 40
0.9523053326430122
 40
0.9523053326430122
 40
0.9523053326430122
 10
1380.482158586369
 20
1018.007218746313
 30
0.0
 10
1374.320478350304
 20
1027.674190624079
 30
0.0
 10
1368.645633731535
 20
1037.651238936718
 30
0.0
 10
1363.476885396819
 20
1047.908011896215
 30
0.0
 10
1358.833008398302
 20
1058.420770757998
 30
0.0
 10
1354.733988098269
 20
1069.152517043729
 30
0.0
 10
1351.202636496284
 20
1080.075963800526
 30
0.0
 10
1348.266182579819
 20
1091.157194194421
 30
0.0
  0
LINE
  5
2795
330
A
100
AcDbEntity
  8
MODEL
100
AcDbLine
 10
1390.133227675732
 20
1016.157196714621
 30
0.0
 11
1383.855227974226
 21
1016.157196440201
 31
0.0
  0
ARC
  5
2798
330
A
100
AcDbEntity
  8
MODEL
100
AcDbCircle
 10
1403.969087016377
 20
1018.157197319405
 30
0.0
 40
3.0
100
AcDbArc
 50
221.8104806537985
 51
270.0000025043384
  0
LINE
  5
2799
330
A
100
AcDbEntity
  8
MODEL
100
AcDbLine
 10
1408.486803516658
 20
1015.157197516882
 30
0.0
 11
1403.969087147512
 21
1015.157197319405
 31
0.0
  0
SPLINE
  5
27BE
330
A
100
AcDbEntity
  8
MODEL
100
AcDbSpline
210
0.0
220
0.0
230
1.0
 70
    11
 71
     3
 72
   120
 73
   116
 74
     0
 42
0.000000001
 43
0.0000000001
 40
0.0
 40
0.0
 40
0.0
 40
0.0
 40
5.736199134428761
 40
14.34054662915204
 40
29.39810144523126
 40
43.7384420167065
 40
58.07883670375672
 40
73.13592748834589
 40
87.47603833652839
 40
101.8166149737457
 40
116.8742612315676
 40
131.2145605844555
 40
145.5548452096661
 40
160.6121371885957
 40
174.9524451398921
 40
190.9696291311486
 40
207.4426793378222
 40
215.6792658894441
 40
223.9158040929279
 40
232.9759570013845
 40
240.9866558404071
 40
251.2048950525626
 40
256.7069997795529
 40
269.2829209418722
 40
275.5705139140284
 40
281.8579273278767
 40
286.5734283968249
 40
296.3726629890771
 40
306.1717503911342
 40
312.7044362843192
 40
319.2371233561952
 40
332.3025014733452
 40
345.3678794012779
 40
395.9963607993273
 40
425.3942821472428
 40
435.1935883880684
 40
440.0932388226926
 40
444.9928946144471
 40
454.7922927209859
 40
470.7166029287163
 40
474.3915233704661
 40
480.5165498389361
 40
495.2175084962878
 40
502.5681537331504
 40
511.1438967861487
 40
520.944648087478
 40
533.1955787114506
 40
545.4466031701164
 40
557.4289637459476
 40
569.3442830416602
 40
594.3663126310832
 40
618.1967537734789
 40
636.5362395697034
 40
653.8712366201551
 40
670.3803647199987
 40
686.9370203932978
 40
704.3554479245531
 40
720.944412414607
 40
737.3570360354978
 40
754.363659934968
 40
770.5605038198477
 40
787.6020616918604
 40
803.8988800531222
 40
820.1954490402039
 40
837.3081682113351
 40
853.6122320817817
 40
869.9162189039135
 40
887.0629496023798
 40
903.9236351202535
 40
920.784331703713
 40
938.4882015058446
 40
954.5657140632505
 40
970.5562927038228
 40
980.1505619386749
 40
987.3462902184048
 40
997.7735702415067
 40
1003.399484348369
 40
1010.632744575719
 40
1018.669389679562
 40
1025.098390475465
 40
1028.312846905425
 40
1036.348923595665
 40
1046.941655886538
 40
1059.433442651338
 40
1076.089093653453
 40
1101.072576334959
 40
1117.728232826362
 40
1142.711716996262
 40
1167.69519952582
 40
1187.493529647211
 40
1198.964063784404
 40
1207.567067581322
 40
1219.037990130847
 40
1230.509201530781
 40
1240.547169541353
 40
1247.717339894733
 40
1255.60457730842
 40
1260.623712006697
 40
1269.944884544361
 40
1276.39798251646
 40
1284.285151148713
 40
1299.342509472574
 40
1313.682836700293
 40
1328.740251915646
 40
1343.080539502325
 40
1357.420818132546
 40
1375.553539120876
 40
1393.311213987369
 40
1411.069031233324
 40
1428.939991216376
 40
1445.665204326692
 40
1462.390622100223
 40
1480.699645332505
 40
1491.482293321254
 40
1498.670683194952
 40
1498.670683194952
 40
1498.670683194952
 40
1498.670683194952
 10
332.8098472680895
 20
1991.12760526801
 30
0.0
 10
332.8098503205356
 20
1989.21562345386
 30
0.0
 10
332.8883334991865
 20
1984.43529185798
 30
0.0
 10
333.4513652977066
 20
1974.649222931186
 30
0.0
 10
335.0371322086453
 20
1962.069389275081
 30
0.0
 10
338.0850879772943
 20
1947.799203313358
 30
0.0
 10
342.3105643619374
 20
1933.832438050441
 30
0.0
 10
347.7095045479905
 20
1920.27492101691
 30
0.0
 10
354.2304074518206
 20
1907.221641533744
 30
0.0
 10
361.7880653805146
 20
1894.740138683321
 30
0.0
 10
370.3447995628917
 20
1882.919935347824
 30
0.0
 10
379.8341423791676
 20
1871.836297524596
 30
0.0
 10
390.1742398414817
 20
1861.541772494575
 30
0.0
 10
401.3278401980374
 20
1852.132236152995
 30
0.0
 10
413.6883728343114
 20
1843.369835448597
 30
0.0
 10
427.1924812257594
 20
1835.503681973378
 30
0.0
 10
439.5541604274217
 20
1829.850743290716
 30
0.0
 10
449.8627782548233
 20
1826.053913933103
 30
0.0
 10
457.9898185728916
 20
1823.517113958555
 30
0.0
 10
466.1646243432865
 20
1821.423004680049
 30
0.0
 10
475.0781198024806
 20
1819.596797980372
 30
0.0
 10
482.8980542572785
 20
1818.387367283352
 30
0.0
 10
492.2667052837814
 20
1817.288689973522
 30
0.0
 10
500.3656574745646
 20
1816.650970278574
 30
0.0
 10
508.7388289378246
 20
1816.228090215686
 30
0.0
 10
514.4987178293045
 20
1816.020524316032
 30
0.0
 10
521.4303002140687
 20
1815.834098382355
 30
0.0
 10
529.5336512450845
 20
1815.687193261249
 30
0.0
 10
538.2431628038566
 20
1815.567547905854
 30
0.0
 10
545.8640696193643
 20
1815.473309567411
 30
0.0
 10
554.5737825996425
 20
1815.376383346106
 30
0.0
 10
565.4611384156556
 20
1815.275471044827
 30
0.0
 10
591.0469802738253
 20
1815.101490303451
 30
0.0
 10
622.0779268565043
 20
1815.078018279058
 30
0.0
 10
652.0192448050757
 20
1815.282775759012
 30
0.0
 10
666.7173962281254
 20
1815.437680865151
 30
0.0
 10
673.2497997069104
 20
1815.515724292258
 30
0.0
 10
679.7821737975787
 20
1815.599430246887
 30
0.0
 10
689.9888544357996
 20
1815.744748372271
 30
0.0
 10
699.7867355770027
 20
1815.952575818636
 30
0.0
 10
708.3546407744893
 20
1816.298354023027
 30
0.0
 10
716.5107195162805
 20
1816.722359588515
 30
0.0
 10
725.8738146737405
 20
1817.506544070654
 30
0.0
 10
735.9949463691187
 20
1818.857124863411
 30
0.0
 10
744.4457568911844
 20
1820.327829693237
 30
0.0
 10
754.4068054930426
 20
1822.582969113294
 30
0.0
 10
765.3794758543395
 20
1825.826500053785
 30
0.0
 10
776.7591578292804
 20
1830.141057753253
 30
0.0
 10
787.6844738997484
 20
1835.242433170643
 30
0.0
 10
801.9303369297945
 20
1843.199182221986
 30
0.0
 10
818.4717272250514
 20
1854.982712458423
 30
0.0
 10
834.7822958177667
 20
1870.404249587075
 30
0.0
 10
847.5247123147815
 20
1885.638094385314
 30
0.0
 10
857.3234689862174
 20
1900.034720391248
 30
0.0
 10
865.4244531229515
 20
1914.773793924705
 30
0.0
 10
872.1122300202214
 20
1930.236666673715
 30
0.0
 10
877.2598559505236
 20
1946.308709474579
 30
0.0
 10
880.7853328466254
 20
1962.761422357058
 30
0.0
 10
882.7114018252787
 20
1979.337922541448
 30
0.0
 10
883.0403398891535
 20
1995.892940376246
 30
0.0
 10
881.7819544902045
 20
2012.612079878643
 30
0.0
 10
878.9711223696677
 20
2028.90321307687
 30
0.0
 10
874.5904843306885
 20
2044.877014957981
 30
0.0
 10
868.7121309500603
 20
2060.387593627997
 30
0.0
 10
861.3721447290836
 20
2075.266500968
 30
0.0
 10
852.6605498691597
 20
2089.386274110038
 30
0.0
 10
842.6963718698125
 20
2102.665524937631
 30
0.0
 10
831.4210105586926
 20
2115.105394736315
 30
0.0
 10
818.8835328135856
 20
2126.549262049933
 30
0.0
 10
805.1618799654484
 20
2136.856814272671
 30
0.0
 10
790.6925396368565
 20
2145.596720315137
 30
0.0
 10
775.6728884835566
 20
2152.69115745175
 30
0.0
 10
762.5764428434295
 20
2157.361115377495
 30
0.0
 10
752.0268915685833
 20
2160.224557489927
 30
0.0
 10
743.1644344195915
 20
2162.174039016094
 30
0.0
 10
735.5213109672727
 20
2163.471572725643
 30
0.0
 10
727.8230708186557
 20
2164.470597903148
 30
0.0
 10
720.8921671954477
 20
2165.16972279805
 30
0.0
 10
713.6770464267415
 20
2165.6870585736
 30
0.0
 10
707.7908807602025
 20
2165.982249751904
 30
0.0
 10
701.9021706518934
 20
2166.212676983516
 30
0.0
 10
694.6238198732344
 20
2166.417873659278
 30
0.0
 10
684.2517840792016
 20
2166.598617097978
 30
0.0
 10
671.0061905622165
 20
2166.771754340533
 30
0.0
 10
652.9635722119956
 20
2166.965797604925
 30
0.0
 10
633.5323517121824
 20
2167.095650987103
 30
0.0
 10
611.3248687936825
 20
2167.157390041456
 30
0.0
 10
589.1172821315295
 20
2167.130941509402
 30
0.0
 10
565.8625157077354
 20
2166.993982108059
 30
0.0
 10
547.1126909169357
 20
2166.801900833949
 30
0.0
 10
533.8231541386876
 20
2166.630910194579
 30
0.0
 10
523.3096557399354
 20
2166.463627214761
 30
0.0
 10
512.7973980175984
 20
2166.21047588371
 30
0.0
 10
501.8142738474735
 20
2165.711046479638
 30
0.0
 10
492.2824872632873
 20
2164.958834337747
 30
0.0
 10
483.9705478587525
 20
2164.007512643829
 30
0.0
 10
477.3514750290874
 20
2163.012305051256
 30
0.0
 10
470.0651509907934
 20
2161.664953694017
 30
0.0
 10
463.3019859205183
 20
2160.137284706722
 30
0.0
 10
455.6956734281293
 20
2158.045785653333
 30
0.0
 10
446.3652597011637
 20
2155.041935489825
 30
0.0
 10
434.8195520112886
 20
2150.406196055159
 30
0.0
 10
421.6083758617706
 20
2143.663240801605
 30
0.0
 10
409.2444164980943
 20
2135.910120631306
 30
0.0
 10
397.5898384310735
 20
2127.130129003525
 30
0.0
 10
385.9218574344945
 20
2116.749709568794
 30
0.0
 10
374.4562857381634
 20
2104.518666212241
 30
0.0
 10
363.5670266629127
 20
2090.306284174485
 30
0.0
 10
354.1806204323907
 20
2075.161575450121
 30
0.0
 10
346.5168019573566
 20
2059.457788756745
 30
0.0
 10
340.5716448880517
 20
2043.395440340643
 30
0.0
 10
336.1751923228976
 20
2026.690657917236
 30
0.0
 10
333.8037797619645
 20
2011.581791271134
 30
0.0
 10
332.9330757160087
 20
1999.51420908182
 30
0.0
 10
332.8098434429735
 20
1993.523568768276
 30
0.0
 10
332.8098472680963
 20
1991.12760526801
 30
0.0
  0
CIRCLE
  5
27BF
330
A
100
AcDbEntity
  8
MODEL
100
AcDbCircle
 10
607.8259995376893
 20
1991.127606221733
 30
0.0
 40
40.93091461041922
  0
CIRCLE
  5
27C0
330
A
100
AcDbEntity
  8
MODEL
100
AcDbCircle
 10
607.8259995376893
 20
1991.127606221733
 30
0.0
 40
23.13991284896815
  0
CIRCLE
  5
27C1
330
A
100
AcDbEntity
  8
MODEL
100
AcDbCircle
 10
607.8259995376893
 20
1991.127606221733
 30
0.0
 40
21.95328793119563
  0
CIRCLE
  5
27C2
330
A
100
AcDbEntity
  8
MODEL
100
AcDbCircle
 10
607.8259995376893
 20
1991.127606221733
 30
0.0
 40
21.9528310166648
  0
SPLINE
  5
28BF
330
A
100
AcDbEntity
  8
MODEL
100
AcDbSpline
210
0.0
220
0.0
230
1.0
 70
     8
 71
     7
 72
    31
 73
    23
 74
     0
 42
0.000000001
 43
0.0000000001
 40
0.4191138635407401
 40
0.4191138635407401
 40
0.4191138635407401
 40
0.4191138635407401
 40
0.4191138635407401
 40
0.4191138635407401
 40
0.4191138635407401
 40
0.4191138635407401
 40
0.4623079999999999
 40
0.4623079999999999
 40
0.4623079999999999
 40
0.4623079999999999
 40
0.4623079999999999
 40
0.5851999999999999
 40
0.5851999999999999
 40
0.5851999999999999
 40
0.5851999999999999
 40
0.5851999999999999
 40
0.76
 40
0.76
 40
0.76
 40
0.76
 40
0.76
 40
1.0
 40
1.0
 40
1.0
 40
1.0
 40
1.0
 40
1.0
 40
1.0
 40
1.0
 10
880.2929341592453
 20
1166.046826734977
 30
0.0
 10
880.3530104210145
 20
1166.046930958841
 30
0.0
 10
880.4130888330142
 20
1166.045703056104
 30
0.0
 10
880.4731341628399
 20
1166.043086549766
 30
0.0
 10
880.5331055412807
 20
1166.03902341178
 30
0.0
 10
880.5929555999915
 20
1166.033454402909
 30
0.0
 10
880.8224081246694
 20
1166.006020023927
 30
0.0
 10
881.0483169459062
 20
1165.954544907745
 30
0.0
 10
881.2120827152271
 20
1165.902030399663
 30
0.0
 10
881.3705850613928
 20
1165.834035913011
 30
0.0
 10
881.521243455974
 20
1165.750287754214
 30
0.0
 10
881.8625225095261
 20
1165.512401743224
 30
0.0
 10
882.140379469407
 20
1165.200114311009
 30
0.0
 10
882.2786079253292
 20
1164.996190415242
 30
0.0
 10
882.3928856377261
 20
1164.779417377698
 30
0.0
 10
882.4870276211241
 20
1164.553952613503
 30
0.0
 10
882.6685260888498
 20
1164.005050716951
 30
0.0
 10
882.764268294582
 20
1163.433821844578
 30
0.0
 10
882.7971210045889
 20
1163.100703917883
 30
0.0
 10
882.811977852065
 20
1162.766516531026
 30
0.0
 10
882.811703496483
 20
1162.432304635282
 30
0.0
 10
882.7986059233613
 20
1162.098572640665
 30
0.0
 10
882.7744021605049
 20
1161.765648070933
 30
0.0
  0
SPLINE
  5
28C4
102
{ACAD_REACTORS
330
28CF
102
}
330
A
100
AcDbEntity
  8
HIDDEN
100
AcDbSpline
210
0.0
220
0.0
230
1.0
 70
  1064
 71
     3
 72
    41
 73
    37
 74
    35
 42
0.000000001
 43
0.0000000001
 44
0.0
 40
0.0
 40
0.0
 40
0.0
 40
0.0
 40
1.683494460737197
 40
4.066729835509138
 40
7.138519917234287
 40
11.49649063886429
 40
17.69242994145709
 40
22.4801074316793
 40
30.92732917275515
 40
41.58686585696572
 40
54.94191450240312
 40
66.11833913410919
 40
81.80669888273812
 40
92.80249772138347
 40
107.1893731573606
 40
122.6740864417652
 40
139.6860232829048
 40
156.4327944954599
 40
176.8849625013441
 40
189.8131455370785
 40
210.447644527262
 40
227.1021810547808
 40
253.1338830668617
 40
265.9171800852994
 40
274.8727908789348
 40
280.0646836297885
 40
285.7346623711065
 40
290.2401656630788
 40
295.0366413131548
 40
300.0371160067319
 40
300.7546656779756
 40
302.0277316903125
 40
302.8526801498252
 40
303.359682347429
 40
305.4539793375721
 40
312.9738289605002
 40
312.9738289605002
 40
312.9738289605002
 40
312.9738289605002
 10
335.2796265839374
 20
1166.046827109659
 30
0.0
 10
335.8390850605292
 20
1165.961691256781
 30
0.0
 10
337.1905397469249
 20
1165.756033013736
 30
0.0
 10
339.2472346825907
 20
1164.467654175672
 30
0.0
 10
341.9007685968157
 20
1162.584759350434
 30
0.0
 10
345.4708941410985
 20
1159.759722236738
 30
0.0
 10
349.2550437788944
 20
1156.317428082983
 30
0.0
 10
353.8016379427849
 20
1151.701053894303
 30
0.0
 10
359.0699185832331
 20
1145.720500876074
 30
0.0
 10
365.7453084995083
 20
1137.198059771136
 30
0.0
 10
372.5407641556682
 20
1127.633009912459
 30
0.0
 10
380.0577148863132
 20
1116.532215297707
 30
0.0
 10
387.1026607082447
 20
1106.060614240339
 30
0.0
 10
395.1138565535989
 20
1094.954456759168
 30
0.0
 10
404.0416809066489
 20
1084.616253944124
 30
0.0
 10
415.9910175950645
 20
1074.432646097766
 30
0.0
 10
430.1860106292939
 20
1066.028866699575
 30
0.0
 10
447.0154162050657
 20
1059.305816613088
 30
0.0
 10
463.2201354750125
 20
1055.083859374759
 30
0.0
 10
480.9245274707538
 20
1051.788054852257
 30
0.0
 10
497.524872483841
 20
1049.576666168323
 30
0.0
 10
518.5300144889594
 20
1047.471294894576
 30
0.0
 10
536.9541349678293
 20
1046.051096427212
 30
0.0
 10
552.8610545660506
 20
1044.892487657316
 30
0.0
 10
561.7713975616359
 20
1044.311491945546
 30
0.0
 10
568.4561826401084
 20
1043.752231853263
 30
0.0
 10
572.9433573538347
 20
1040.979618405838
 30
0.0
 10
576.6380360460746
 20
1037.651942306124
 30
0.0
 10
580.3358714994442
 20
1034.634558687176
 30
0.0
 10
582.9787117923385
 20
1032.329197982005
 30
0.0
 10
584.8024234762466
 20
1030.882297585998
 30
0.0
 10
585.4170091043592
 20
1030.140590419523
 30
0.0
 10
585.6857256584792
 20
1029.297611087915
 30
0.0
 10
585.7492549785118
 20
1028.155316372861
 30
0.0
 10
585.763862082177
 20
1024.782697258084
 30
0.0
 10
585.7589686425206
 20
1021.577614168817
 30
0.0
 10
585.7551411649674
 20
1019.070710141838
 30
0.0
 11
335.2796265839374
 21
1166.046827109659
 31
0.0
 11
336.9271932507704
 21
1165.700882493176
 31
0.0
 11
339.0304221253054
 21
1164.580061743508
 31
0.0
 11
341.5423091641983
 21
1162.811922096866
 31
0.0
 11
344.9616897977448
 21
1160.110118089631
 31
0.0
 11
349.5581176406918
 21
1155.955299811295
 31
0.0
 11
352.9219531387057
 21
1152.54847335656
 31
0.0
 11
358.5267110780683
 21
1146.228485731251
 31
0.0
 11
365.1316925022547
 21
1137.861888889752
 31
0.0
 11
372.9163440765874
 21
1127.010321068085
 31
0.0
 11
379.2106338680551
 21
1117.7748252195
 31
0.0
 11
388.0586717519773
 21
1104.819638721148
 31
0.0
 11
394.5638727365058
 21
1095.954541302008
 31
0.0
 11
404.0541668927494
 21
1085.141747877629
 31
0.0
 11
415.8481295213664
 21
1075.107865726886
 31
0.0
 11
430.4526059633454
 21
1066.383459561272
 31
0.0
 11
445.9618233070128
 21
1060.065348812595
 31
0.0
 11
465.7087785814579
 21
1054.740977156711
 31
0.0
 11
478.4125888229923
 21
1052.34282746319
 31
0.0
 11
498.8537238687745
 21
1049.5245750586
 31
0.0
 11
515.4221082198596
 21
1047.832763325227
 31
0.0
 11
541.3691854335584
 21
1045.735457026155
 31
0.0
 11
554.1196462412977
 21
1044.819797781729
 31
0.0
 11
563.0532683630695
 21
1044.192613221596
 31
0.0
 11
568.1824359142074
 21
1043.388007374786
 31
0.0
 11
573.1405065434983
 21
1040.63733571827
 31
0.0
 11
576.5919223037686
 21
1037.741254026789
 31
0.0
 11
580.266235822065
 21
1034.658138908757
 31
0.0
 11
584.0968216740371
 21
1031.443895733175
 31
0.0
 11
584.6464966123553
 21
1030.982663695165
 31
0.0
 11
585.4258895274156
 21
1029.976063597946
 31
0.0
 11
585.6752919452215
 21
1029.189718638755
 31
0.0
 11
585.7181337984302
 21
1028.684529759237
 31
0.0
 11
585.7551411649674
 21
1026.590559764766
 31
0.0
 11
585.7551411649674
 21
1019.070710141838
 31
0.0
  0
SPLINE
  5
28C5
102
{ACAD_REACTORS
330
28CF
102
}
330
A
100
AcDbEntity
  8
HIDDEN
100
AcDbSpline
210
0.0
220
0.0
230
1.0
 70
  1064
 71
     3
 72
    41
 73
    37
 74
    35
 42
0.000000001
 43
0.0000000001
 44
0.0
 40
0.0
 40
0.0
 40
0.0
 40
0.0
 40
1.683494460737141
 40
4.066729835509132
 40
7.138519917234234
 40
11.49649063886428
 40
17.69242994145699
 40
22.48010743167924
 40
30.9273291727551
 40
41.5868658569657
 40
54.94191450240308
 40
66.11833913410915
 40
81.80669888273808
 40
92.80249772138343
 40
107.1893731573606
 40
122.6740864417652
 40
139.6860232829047
 40
156.4327944954598
 40
176.884962501344
 40
189.8131455370785
 40
210.4476445272619
 40
227.1021810547808
 40
253.1338830668616
 40
265.9171800852993
 40
274.8727908789348
 40
280.0646836297885
 40
285.7346623711064
 40
290.2401656630787
 40
295.0366413131547
 40
300.0371160067318
 40
300.7546656779755
 40
302.0277316903125
 40
302.8526801498252
 40
303.359682347429
 40
305.453979337572
 40
312.9738289605001
 40
312.9738289605001
 40
312.9738289605001
 40
312.9738289605001
 10
880.2931594140496
 20
1166.046827109659
 30
0.0
 10
879.7337009374578
 20
1165.961691256781
 30
0.0
 10
878.3822462510623
 20
1165.756033013736
 30
0.0
 10
876.3255513153962
 20
1164.467654175672
 30
0.0
 10
873.6720174011714
 20
1162.584759350434
 30
0.0
 10
870.1018918568884
 20
1159.759722236738
 30
0.0
 10
866.3177422190927
 20
1156.317428082983
 30
0.0
 10
861.771148055202
 20
1151.701053894302
 30
0.0
 10
856.5028674147538
 20
1145.720500876074
 30
0.0
 10
849.8274774984789
 20
1137.198059771136
 30
0.0
 10
843.0320218423186
 20
1127.633009912459
 30
0.0
 10
835.5150711116737
 20
1116.532215297707
 30
0.0
 10
828.4701252897422
 20
1106.060614240339
 30
0.0
 10
820.4589294443884
 20
1094.954456759168
 30
0.0
 10
811.5311050913378
 20
1084.616253944124
 30
0.0
 10
799.5817684029225
 20
1074.432646097766
 30
0.0
 10
785.386775368693
 20
1066.028866699574
 30
0.0
 10
768.5573697929212
 20
1059.305816613088
 30
0.0
 10
752.3526505229745
 20
1055.083859374759
 30
0.0
 10
734.6482585272335
 20
1051.788054852257
 30
0.0
 10
718.0479135141458
 20
1049.576666168323
 30
0.0
 10
697.0427715090275
 20
1047.471294894576
 30
0.0
 10
678.6186510301577
 20
1046.051096427212
 30
0.0
 10
662.7117314319362
 20
1044.892487657316
 30
0.0
 10
653.8013884363514
 20
1044.311491945546
 30
0.0
 10
647.1166033578786
 20
1043.752231853263
 30
0.0
 10
642.6294286441523
 20
1040.979618405838
 30
0.0
 10
638.9347499519122
 20
1037.651942306124
 30
0.0
 10
635.2369144985431
 20
1034.634558687176
 30
0.0
 10
632.594074205648
 20
1032.329197982005
 30
0.0
 10
630.7703625217406
 20
1030.882297585998
 30
0.0
 10
630.1557768936277
 20
1030.140590419523
 30
0.0
 10
629.8870603395078
 20
1029.297611087915
 30
0.0
 10
629.8235310194752
 20
1028.155316372861
 30
0.0
 10
629.80892391581
 20
1024.782697258084
 30
0.0
 10
629.8138173554664
 20
1021.577614168817
 30
0.0
 10
629.8176448330196
 20
1019.070710141838
 30
0.0
 11
880.2931594140496
 21
1166.046827109659
 31
0.0
 11
878.6455927472166
 21
1165.700882493176
 31
0.0
 11
876.5423638726816
 21
1164.580061743508
 31
0.0
 11
874.0304768337887
 21
1162.811922096866
 31
0.0
 11
870.6110962002422
 21
1160.110118089631
 31
0.0
 11
866.0146683572952
 21
1155.955299811295
 31
0.0
 11
862.6508328592813
 21
1152.54847335656
 31
0.0
 11
857.0460749199187
 21
1146.228485731251
 31
0.0
 11
850.4410934957323
 21
1137.861888889752
 31
0.0
 11
842.6564419213996
 21
1127.010321068085
 31
0.0
 11
836.3621521299319
 21
1117.7748252195
 31
0.0
 11
827.5141142460097
 21
1104.819638721148
 31
0.0
 11
821.0089132614812
 21
1095.954541302008
 31
0.0
 11
811.5186191052376
 21
1085.141747877629
 31
0.0
 11
799.7246564766206
 21
1075.107865726886
 31
0.0
 11
785.1201800346416
 21
1066.383459561272
 31
0.0
 11
769.6109626909742
 21
1060.065348812595
 31
0.0
 11
749.8640074165291
 21
1054.740977156711
 31
0.0
 11
737.1601971749947
 21
1052.34282746319
 31
0.0
 11
716.7190621292125
 21
1049.5245750586
 31
0.0
 11
700.1506777781274
 21
1047.832763325227
 31
0.0
 11
674.2036005644286
 21
1045.735457026155
 31
0.0
 11
661.4531397566893
 21
1044.819797781729
 31
0.0
 11
652.5195176349175
 21
1044.192613221596
 31
0.0
 11
647.3903500837796
 21
1043.388007374786
 31
0.0
 11
642.4322794544887
 21
1040.63733571827
 31
0.0
 11
638.9808636942184
 21
1037.741254026789
 31
0.0
 11
635.306550175922
 21
1034.658138908757
 31
0.0
 11
631.4759643239499
 21
1031.443895733175
 31
0.0
 11
630.9262893856317
 21
1030.982663695165
 31
0.0
 11
630.1468964705714
 21
1029.976063597946
 31
0.0
 11
629.8974940527655
 21
1029.189718638755
 31
0.0
 11
629.8546521995568
 21
1028.684529759237
 31
0.0
 11
629.8176448330196
 21
1026.590559764766
 31
0.0
 11
629.8176448330196
 21
1019.070710141838
 31
0.0
  0
SPLINE
  5
28D9
102
{ACAD_REACTORS
330
28F0
102
}
330
A
100
AcDbEntity
  8
HIDDEN
100
AcDbSpline
210
0.0
220
0.0
230
1.0
 70
  1064
 71
     3
 72
    64
 73
    60
 74
    58
 42
0.000000001
 43
0.0000000001
 44
0.0
 40
0.0
 40
0.0
 40
0.0
 40
0.0
 40
1.519627491047304
 40
2.854355393669521
 40
5.678425394058798
 40
8.969636530052462
 40
12.52772672994436
 40
15.5522065652427
 40
19.4661816492167
 40
21.5122222733568
 40
27.82771388476523
 40
32.27553854671239
 40
36.01176333667301
 40
39.57008099285807
 40
43.39527000457243
 40
47.4873422449791
 40
52.29109079349153
 40
60.65307393479543
 40
64.92311044717304
 40
69.01522583919959
 40
76.3098545191793
 40
80.93574943010685
 40
84.49412988548085
 40
89.12001716836879
 40
92.10443876572101
 40
97.82908924535019
 40
102.1853959837185
 40
106.7116643029721
 40
108.1682444440848
 40
111.5000140728689
 40
115.1144133343829
 40
118.9922053005233
 40
123.3176717521678
 40
127.6359073119699
 40
131.8223238402717
 40
135.0986469018953
 40
136.3214498295476
 40
141.8984534630783
 40
144.7687571840569
 40
149.5241970777333
 40
151.8528034782621
 40
158.2626142485452
 40
163.1851470303431
 40
167.9991032968401
 40
170.3784117034139
 40
176.2644699202552
 40
183.3149510379691
 40
187.7013910934533
 40
191.0471455714495
 40
193.4935879485768
 40
197.5276959612218
 40
202.2606803978534
 40
206.7598864379318
 40
209.3993717085997
 40
210.2047403906178
 40
211.1980694223107
 40
211.955942715375
 40
213.8230116058151
 40
221.6235911904041
 40
221.6235911904041
 40
221.6235911904041
 40
221.6235911904041
 10
1316.659513842571
 20
1166.051958386398
 30
0.0
 10
1317.165096203018
 20
1165.984224876655
 30
0.0
 10
1318.1147445517
 20
1165.856999283537
 30
0.0
 10
1319.832188886865
 20
1165.015492874247
 30
0.0
 10
1321.872163469723
 20
1163.600989580148
 30
0.0
 10
1324.473660740913
 20
1161.693701417901
 30
0.0
 10
1327.027681040448
 20
1159.615843740605
 30
0.0
 10
1329.659451164935
 20
1157.309499594859
 30
0.0
 10
1331.838624528759
 20
1155.253898931799
 30
0.0
 10
1334.737684364135
 20
1152.366088733463
 30
0.0
 10
1337.653957755913
 20
1149.244469309312
 30
0.0
 10
1340.817568002839
 20
1145.589853584708
 30
0.0
 10
1343.303753639126
 20
1142.566304437385
 30
0.0
 10
1345.599624124255
 20
1139.656108701535
 30
0.0
 10
1347.91282157146
 20
1136.609331683863
 30
0.0
 10
1350.416740099594
 20
1133.186953973613
 30
0.0
 10
1353.730023656909
 20
1128.483981123981
 30
0.0
 10
1356.968208987515
 20
1123.656834188441
 30
0.0
 10
1359.994914594228
 20
1118.975266398599
 30
0.0
 10
1362.786094140032
 20
1114.565358940684
 30
0.0
 10
1365.590882679994
 20
1110.023990763698
 30
0.0
 10
1368.269204670346
 20
1105.613943832356
 30
0.0
 10
1370.47445652576
 20
1101.9574133476
 30
0.0
 10
1372.393015455859
 20
1098.766921925905
 30
0.0
 10
1374.690977464402
 20
1094.962092519207
 30
0.0
 10
1376.951574609304
 20
1091.23915494689
 30
0.0
 10
1379.605346884131
 20
1087.156064438763
 30
0.0
 10
1381.564855624009
 20
1084.320206762399
 30
0.0
 10
1383.384850745275
 20
1081.804643130929
 30
0.0
 10
1385.067301533023
 20
1079.564914380059
 30
0.0
 10
1387.314376565672
 20
1076.741422928568
 30
0.0
 10
1389.866411400441
 20
1073.739636841108
 30
0.0
 10
1392.689808701382
 20
1070.664008027701
 30
0.0
 10
1395.715959621657
 20
1067.639993035421
 30
0.0
 10
1398.616843358544
 20
1064.991062810782
 30
0.0
 10
1400.834448277009
 20
1063.128642946318
 30
0.0
 10
1403.46144620829
 20
1061.035856298344
 30
0.0
 10
1406.062103670908
 20
1059.126401098957
 30
0.0
 10
1409.737627263604
 20
1056.705021017455
 30
0.0
 10
1412.592059310509
 20
1055.008716044152
 30
0.0
 10
1416.554882878356
 20
1052.880337098976
 30
0.0
 10
1420.680986195973
 20
1050.941069318418
 30
0.0
 10
1425.69870935286
 20
1048.987169711489
 30
0.0
 10
1429.541503904608
 20
1047.737209311295
 30
0.0
 10
1433.738393040433
 20
1046.556203905383
 30
0.0
 10
1438.717262772795
 20
1045.401781910863
 30
0.0
 10
1444.40707410387
 20
1044.449091631451
 30
0.0
 10
1449.338899992739
 20
1043.962269104792
 30
0.0
 10
1452.52520389827
 20
1042.690742538889
 30
0.0
 10
1455.30959171758
 20
1040.946618117807
 30
0.0
 10
1458.094703185418
 20
1038.43773773882
 30
0.0
 10
1461.520901823087
 20
1035.646287844914
 30
0.0
 10
1464.508074615193
 20
1033.047633980932
 30
0.0
 10
1466.607082276586
 20
1031.431815992398
 30
0.0
 10
1467.652515012585
 20
1030.373511043944
 30
0.0
 10
1468.023298573436
 20
1029.577599011726
 30
0.0
 10
1468.153881966083
 20
1028.372868934546
 30
0.0
 10
1468.103640314601
 20
1024.897033012823
 30
0.0
 10
1468.19773299681
 20
1021.675381087429
 30
0.0
 10
1468.273653988125
 20
1019.075912115962
 30
0.0
 11
1316.659513842571
 21
1166.051958386398
 31
0.0
 11
1318.151787106006
 21
1165.764924906149
 31
0.0
 11
1319.369472384136
 21
1165.218352735742
 31
0.0
 11
1321.7378754302
 21
1163.680159516899
 31
0.0
 11
1324.385650830858
 21
1161.725330580813
 31
0.0
 11
1327.150438405289
 21
1159.485697678117
 31
0.0
 11
1329.425647392789
 21
1157.492985371404
 31
0.0
 11
1332.275284802183
 21
1154.809933453727
 31
0.0
 11
1333.725129389397
 21
1153.366246192386
 31
0.0
 11
1338.044032935625
 21
1148.758371796078
 31
0.0
 11
1340.957216293517
 21
1145.397344133781
 31
0.0
 11
1343.331356275668
 21
1142.512411721008
 31
0.0
 11
1345.536133780628
 21
1139.719459752939
 31
0.0
 11
1347.850259962338
 21
1136.67366084453
 31
0.0
 11
1350.267537070146
 21
1133.371869420958
 31
0.0
 11
1353.035903013656
 21
1129.44603828346
 31
0.0
 11
1357.701917132747
 21
1122.50694077039
 31
0.0
 11
1360.021215452528
 21
1118.921683858968
 31
0.0
 11
1362.210596350606
 21
1115.464514545094
 31
0.0
 11
1366.04883049018
 21
1109.261324537639
 31
0.0
 11
1368.451611493269
 21
1105.308408249866
 31
0.0
 11
1370.290116595616
 21
1102.261775608107
 31
0.0
 11
1372.676521911354
 21
1098.298960595644
 31
0.0
 11
1374.219476008257
 21
1095.744344200646
 31
0.0
 11
1377.216458874138
 21
1090.866873871107
 31
0.0
 11
1379.591235667774
 21
1087.21477261578
 31
0.0
 11
1382.166726877722
 21
1083.492683158854
 31
0.0
 11
1383.0205973533
 21
1082.312627686251
 31
0.0
 11
1385.022498765146
 21
1079.649344074516
 31
0.0
 11
1387.274253725523
 21
1076.822069482254
 31
0.0
 11
1389.787210588452
 21
1073.868712352186
 31
0.0
 11
1392.713904921511
 21
1070.683728787842
 31
0.0
 11
1395.769791349491
 21
1067.632709861446
 31
0.0
 11
1398.862280021145
 21
1064.810902432841
 31
0.0
 11
1401.37162424692
 21
1062.704368701638
 31
0.0
 11
1402.328049004013
 21
1061.94246405938
 31
0.0
 11
1406.824843653928
 21
1058.643705595213
 31
0.0
 11
1409.221856102844
 21
1057.064789900692
 31
0.0
 11
1413.310062169477
 21
1054.63563783894
 31
0.0
 11
1415.361518347219
 21
1053.533850509467
 31
0.0
 11
1421.161848264059
 21
1050.805875625666
 31
0.0
 11
1425.748394206179
 21
1049.018440225799
 31
0.0
 11
1430.32565074251
 21
1047.527501750757
 31
0.0
 11
1432.61602483115
 21
1046.883067869215
 31
0.0
 11
1438.34777115352
 21
1045.544125963065
 31
0.0
 11
1445.304550277074
 21
1044.398478452998
 31
0.0
 11
1449.63487511502
 21
1043.699090750629
 31
0.0
 11
1452.749367492975
 21
1042.47679362853
 31
0.0
 11
1454.827394869244
 21
1041.185715579735
 31
0.0
 11
1457.939486571271
 21
1038.618827834651
 31
0.0
 11
1461.565163131305
 21
1035.576524240429
 31
0.0
 11
1465.01175504317
 21
1032.684490495096
 31
0.0
 11
1467.033718141622
 21
1030.987862155544
 31
0.0
 11
1467.575597279798
 21
1030.392055380167
 31
0.0
 11
1467.996064722371
 21
1029.492105551043
 31
0.0
 11
1468.104899652277
 21
1028.742087627009
 31
0.0
 11
1468.137481587501
 21
1026.875303049414
 31
0.0
 11
1468.273653988125
 21
1019.075912115962
 31
0.0
  0
LINE
  5
28DB
102
{ACAD_REACTORS
330
28F0
102
}
330
A
100
AcDbEntity
  8
HIDDEN
100
AcDbLine
 10
1532.147881290227
 20
1044.159661437279
 30
0.0
 11
1447.21050502862
 21
1044.159661437279
 31
0.0
  0
LINE
  5
28DC
102
{ACAD_REACTORS
330
28F0
102
}
330
A
100
AcDbEntity
  8
HIDDEN
100
AcDbLine
 10
1524.700092098458
 20
1040.54231177802
 30
0.0
 11
1455.647167467972
 21
1040.54231177802
 31
0.0
  0
LINE
  5
28DD
102
{ACAD_REACTORS
330
28F0
330
2B2D
102
}
330
A
100
AcDbEntity
  8
HIDDEN
100
AcDbLine
 10
1468.273653988125
 20
1019.075912115962
 30
0.0
 11
1512.073638729338
 21
1019.075910201403
 31
0.0
  0
SPLINE
  5
28DE
330
A
100
AcDbEntity
  8
MODEL
100
AcDbSpline
210
0.0
220
0.0
230
1.0
 70
     8
 71
     3
 72
    15
 73
    11
 74
     0
 42
0.000000001
 43
0.0000000001
 40
4.086662491314271
 40
4.086662491314271
 40
4.086662491314271
 40
4.086662491314271
 40
4.410337948850557
 40
5.083502549792327
 40
5.665024227745964
 40
6.310597082247281
 40
6.800082136257732
 40
7.547987870471855
 40
8.619265811110694
 40
9.735730936573988
 40
9.735730936573988
 40
9.735730936573988
 40
9.735730936573988
 10
1316.659893123106
 20
1166.051907573702
 30
0.0
 10
1316.552024006718
 20
1166.051884518421
 30
0.0
 10
1316.220006935013
 20
1166.034591641846
 30
0.0
 10
1315.703040293745
 20
1165.909335250338
 30
0.0
 10
1315.154991826159
 20
1165.577442410894
 30
0.0
 10
1314.773785211368
 20
1165.142383725736
 30
0.0
 10
1314.47656796131
 20
1164.586887973642
 30
0.0
 10
1314.248390708237
 20
1163.847956029761
 30
0.0
 10
1314.139037950517
 20
1162.871941095136
 30
0.0
 10
1314.157797047447
 20
1162.141541407405
 30
0.0
 10
1314.184766605158
 20
1161.770573346655
 30
0.0
  0
LINE
  5
28DF
330
A
100
AcDbEntity
  8
MODEL
100
AcDbLine
 10
1332.478576276083
 20
1091.157194194458
 30
0.0
 11
1348.266182579811
 21
1091.157194194458
 31
0.0
  0
LINE
  5
28E0
330
A
100
AcDbEntity
  8
MODEL
100
AcDbLine
 10
1644.453750401556
 20
1091.164435517862
 30
0.0
 11
1632.082995773656
 21
1091.164435517862
 31
0.0
  0
SPLINE
  5
28EE
102
{ACAD_REACTORS
330
28F0
102
}
330
A
100
AcDbEntity
  8
HIDDEN
100
AcDbSpline
210
0.0
220
0.0
230
1.0
 70
  1064
 71
     3
 72
    64
 73
    60
 74
    58
 42
0.000000001
 43
0.0000000001
 44
0.0
 40
0.0
 40
0.0
 40
0.0
 40
0.0
 40
1.51962749104842
 40
2.8543553936696
 40
5.678425394058877
 40
8.96963653005254
 40
12.52772672994532
 40
15.55220656524281
 40
19.46618164921747
 40
21.51222227335692
 40
27.82771388476536
 40
32.27553854671252
 40
36.01176333667314
 40
39.57008099285876
 40
43.39527000457257
 40
47.48734224497924
 40
52.2910907934922
 40
60.65307393479559
 40
64.9231104471732
 40
69.01522583919976
 40
76.30985451917947
 40
80.93574943010702
 40
84.49412988548161
 40
89.12001716836943
 40
92.10443876572165
 40
97.82908924535096
 40
102.1853959837191
 40
106.7116643029722
 40
108.1682444440849
 40
111.500014072869
 40
115.1144133343835
 40
118.9922053005242
 40
123.3176717521678
 40
127.6359073119699
 40
131.8223238402717
 40
135.0986469018953
 40
136.3214498295483
 40
141.8984534630793
 40
144.7687571840579
 40
149.5241970777341
 40
151.852803478262
 40
158.2626142485451
 40
163.185147030343
 40
167.9991032968401
 40
170.3784117034139
 40
176.2644699202552
 40
183.3149510379691
 40
187.7013910934544
 40
191.0471455714495
 40
193.4935879485776
 40
197.5276959612221
 40
202.2606803978542
 40
206.7598864379326
 40
209.3993717085999
 40
210.2047403906185
 40
211.1980694223114
 40
211.9559427153758
 40
213.8230116058159
 40
221.6235911904048
 40
221.6235911904048
 40
221.6235911904048
 40
221.6235911904048
 10
1663.687778874892
 20
1166.051958386398
 30
0.0
 10
1663.182196514445
 20
1165.984224876655
 30
0.0
 10
1662.232548165762
 20
1165.856999283537
 30
0.0
 10
1660.515103830599
 20
1165.015492874247
 30
0.0
 10
1658.47512924774
 20
1163.600989580148
 30
0.0
 10
1655.873631976549
 20
1161.693701417901
 30
0.0
 10
1653.319611677014
 20
1159.615843740605
 30
0.0
 10
1650.687841552527
 20
1157.309499594858
 30
0.0
 10
1648.508668188704
 20
1155.2538989318
 30
0.0
 10
1645.609608353327
 20
1152.366088733462
 30
0.0
 10
1642.69333496155
 20
1149.244469309312
 30
0.0
 10
1639.529724714624
 20
1145.589853584708
 30
0.0
 10
1637.043539078337
 20
1142.566304437385
 30
0.0
 10
1634.747668593207
 20
1139.656108701535
 30
0.0
 10
1632.434471146003
 20
1136.609331683863
 30
0.0
 10
1629.930552617869
 20
1133.186953973612
 30
0.0
 10
1626.617269060552
 20
1128.483981123981
 30
0.0
 10
1623.379083729949
 20
1123.656834188441
 30
0.0
 10
1620.352378123235
 20
1118.975266398599
 30
0.0
 10
1617.561198577432
 20
1114.565358940685
 30
0.0
 10
1614.756410037468
 20
1110.023990763698
 30
0.0
 10
1612.078088047118
 20
1105.613943832355
 30
0.0
 10
1609.872836191701
 20
1101.957413347601
 30
0.0
 10
1607.954277261603
 20
1098.766921925904
 30
0.0
 10
1605.656315253059
 20
1094.962092519208
 30
0.0
 10
1603.395718108159
 20
1091.23915494689
 30
0.0
 10
1600.74194583333
 20
1087.156064438764
 30
0.0
 10
1598.782437093455
 20
1084.320206762398
 30
0.0
 10
1596.962441972188
 20
1081.804643130929
 30
0.0
 10
1595.27999118444
 20
1079.564914380058
 30
0.0
 10
1593.03291615179
 20
1076.741422928568
 30
0.0
 10
1590.48088131702
 20
1073.739636841108
 30
0.0
 10
1587.657484016082
 20
1070.664008027701
 30
0.0
 10
1584.631333095805
 20
1067.639993035421
 30
0.0
 10
1581.730449358919
 20
1064.991062810782
 30
0.0
 10
1579.512844440455
 20
1063.128642946318
 30
0.0
 10
1576.885846509171
 20
1061.035856298345
 30
0.0
 10
1574.285189046554
 20
1059.126401098957
 30
0.0
 10
1570.609665453858
 20
1056.705021017455
 30
0.0
 10
1567.755233406953
 20
1055.008716044153
 30
0.0
 10
1563.792409839107
 20
1052.880337098975
 30
0.0
 10
1559.66630652149
 20
1050.941069318418
 30
0.0
 10
1554.648583364602
 20
1048.987169711489
 30
0.0
 10
1550.805788812856
 20
1047.737209311295
 30
0.0
 10
1546.608899677028
 20
1046.556203905383
 30
0.0
 10
1541.630029944668
 20
1045.401781910863
 30
0.0
 10
1535.940218613592
 20
1044.449091631451
 30
0.0
 10
1531.008392724724
 20
1043.962269104793
 30
0.0
 10
1527.822088819192
 20
1042.690742538888
 30
0.0
 10
1525.037700999883
 20
1040.946618117808
 30
0.0
 10
1522.252589532044
 20
1038.437737738819
 30
0.0
 10
1518.826390894375
 20
1035.646287844914
 30
0.0
 10
1515.839218102267
 20
1033.047633980934
 30
0.0
 10
1513.740210440878
 20
1031.431815992396
 30
0.0
 10
1512.694777704877
 20
1030.373511043945
 30
0.0
 10
1512.323994144027
 20
1029.577599011726
 30
0.0
 10
1512.193410751379
 20
1028.372868934546
 30
0.0
 10
1512.243652402862
 20
1024.897033012823
 30
0.0
 10
1512.149559720652
 20
1021.675381087428
 30
0.0
 10
1512.073638729338
 20
1019.075912115962
 30
0.0
 11
1663.687778874892
 21
1166.051958386398
 31
0.0
 11
1662.195505611456
 21
1165.764924906149
 31
0.0
 11
1660.977820333327
 21
1165.218352735742
 31
0.0
 11
1658.609417287263
 21
1163.680159516899
 31
0.0
 11
1655.961641886605
 21
1161.725330580813
 31
0.0
 11
1653.196854312173
 21
1159.485697678117
 31
0.0
 11
1650.921645324674
 21
1157.492985371404
 31
0.0
 11
1648.072007915279
 21
1154.809933453727
 31
0.0
 11
1646.622163328066
 21
1153.366246192386
 31
0.0
 11
1642.303259781838
 21
1148.758371796078
 31
0.0
 11
1639.390076423946
 21
1145.397344133781
 31
0.0
 11
1637.015936441795
 21
1142.512411721008
 31
0.0
 11
1634.811158936834
 21
1139.719459752939
 31
0.0
 11
1632.497032755125
 21
1136.67366084453
 31
0.0
 11
1630.079755647317
 21
1133.371869420958
 31
0.0
 11
1627.311389703806
 21
1129.44603828346
 31
0.0
 11
1622.645375584716
 21
1122.50694077039
 31
0.0
 11
1620.326077264935
 21
1118.921683858968
 31
0.0
 11
1618.136696366857
 21
1115.464514545094
 31
0.0
 11
1614.298462227283
 21
1109.261324537639
 31
0.0
 11
1611.895681224194
 21
1105.308408249866
 31
0.0
 11
1610.057176121846
 21
1102.261775608107
 31
0.0
 11
1607.670770806108
 21
1098.298960595644
 31
0.0
 11
1606.127816709205
 21
1095.744344200646
 31
0.0
 11
1603.130833843324
 21
1090.866873871107
 31
0.0
 11
1600.756057049688
 21
1087.21477261578
 31
0.0
 11
1598.180565839741
 21
1083.492683158854
 31
0.0
 11
1597.326695364163
 21
1082.312627686251
 31
0.0
 11
1595.324793952317
 21
1079.649344074516
 31
0.0
 11
1593.073038991939
 21
1076.822069482254
 31
0.0
 11
1590.56008212901
 21
1073.868712352186
 31
0.0
 11
1587.633387795952
 21
1070.683728787842
 31
0.0
 11
1584.577501367972
 21
1067.632709861446
 31
0.0
 11
1581.485012696318
 21
1064.810902432841
 31
0.0
 11
1578.975668470543
 21
1062.704368701638
 31
0.0
 11
1578.019243713449
 21
1061.94246405938
 31
0.0
 11
1573.522449063534
 21
1058.643705595213
 31
0.0
 11
1571.125436614618
 21
1057.064789900692
 31
0.0
 11
1567.037230547985
 21
1054.63563783894
 31
0.0
 11
1564.985774370244
 21
1053.533850509467
 31
0.0
 11
1559.185444453404
 21
1050.805875625666
 31
0.0
 11
1554.598898511284
 21
1049.018440225799
 31
0.0
 11
1550.021641974953
 21
1047.527501750757
 31
0.0
 11
1547.731267886313
 21
1046.883067869215
 31
0.0
 11
1541.999521563943
 21
1045.544125963065
 31
0.0
 11
1535.042742440389
 21
1044.398478452998
 31
0.0
 11
1530.712417602442
 21
1043.699090750629
 31
0.0
 11
1527.597925224488
 21
1042.47679362853
 31
0.0
 11
1525.519897848218
 21
1041.185715579735
 31
0.0
 11
1522.407806146192
 21
1038.618827834651
 31
0.0
 11
1518.782129586157
 21
1035.576524240429
 31
0.0
 11
1515.335537674292
 21
1032.684490495096
 31
0.0
 11
1513.313574575841
 21
1030.987862155544
 31
0.0
 11
1512.771695437664
 21
1030.392055380167
 31
0.0
 11
1512.351227995091
 21
1029.492105551043
 31
0.0
 11
1512.242393065185
 21
1028.742087627009
 31
0.0
 11
1512.209811129961
 21
1026.875303049414
 31
0.0
 11
1512.073638729338
 21
1019.075912115962
 31
0.0
  0
SPLINE
  5
28EF
330
A
100
AcDbEntity
  8
MODEL
100
AcDbSpline
210
0.0
220
0.0
230
1.0
 70
     8
 71
     3
 72
    15
 73
    11
 74
     0
 42
0.000000001
 43
0.0000000001
 40
4.086662491314271
 40
4.086662491314271
 40
4.086662491314271
 40
4.086662491314271
 40
4.410337948850557
 40
5.083502549792327
 40
5.665024227745964
 40
6.310597082247281
 40
6.800082136257732
 40
7.547987870471855
 40
8.619265811110694
 40
9.735730936573988
 40
9.735730936573988
 40
9.735730936573988
 40
9.735730936573988
 10
1663.687399594356
 20
1166.051907573702
 30
0.0
 10
1663.795268710744
 20
1166.051884518421
 30
0.0
 10
1664.127285782449
 20
1166.034591641846
 30
0.0
 10
1664.644252423718
 20
1165.909335250338
 30
0.0
 10
1665.192300891304
 20
1165.577442410894
 30
0.0
 10
1665.573507506095
 20
1165.142383725736
 30
0.0
 10
1665.870724756153
 20
1164.586887973642
 30
0.0
 10
1666.098902009226
 20
1163.847956029761
 30
0.0
 10
1666.208254766946
 20
1162.871941095136
 30
0.0
 10
1666.189495670016
 20
1162.141541407405
 30
0.0
 10
1666.162526112305
 20
1161.770573346655
 30
0.0
  0
MTEXT
  5
28FC
330
A
100
AcDbEntity
  8
Dim
390
1D
100
AcDbMText
 10
1233.105353753132
 20
1621.235580489652
 30
34.99521132346015
 40
24.0
 41
1169.771715461011
 46
0.0
 71
     1
 72
     1
  1
※陶器製品には寸法公差があります。\P  洗面器の収め方をご確認の上、必ず現物を合わせて\P  カウンターに切込を行ってください。
  7
ＭＳ ゴシック
 73
     1
 44
1.174240107638677
  0
DIMENSION
  5
28FD
330
A
100
AcDbEntity
  8
Dim
  6
Continuous
100
AcDbDimension
  2
*D7
 10
882.8421634290089
 20
2262.286241523987
 30
0.0
 11
607.826005348549
 21
2284.507132952022
 31
0.0
 70
    32
 71
     5
 42
550.0323161609199
 73
     0
 74
     0
 75
     0
  3
JIS
100
AcDbAlignedDimension
 13
332.809847268089
 23
2028.722124525774
 33
0.0
 14
882.8421634290089
 24
2028.722091369614
 34
0.0
100
AcDbRotatedDimension
1001
ACAD
1000
DSTYLE
1002
{
1070
   179
1070
     0
1070
   271
1070
     0
1070
    43
1040
25.0
1070
    44
1040
0.0
1070
    42
1040
25.0
1002
}
  0
LINE
  5
2915
330
A
100
AcDbEntity
  8
Dim
  6
Continuous
100
AcDbLine
 10
351.870059850512
 20
1014.984770872807
 30
0.0
 11
351.870059850512
 21
838.9614278583924
 31
0.0
  0
LINE
  5
2916
330
A
100
AcDbEntity
  8
Dim
  6
Continuous
100
AcDbLine
 10
290.736920436027
 20
1091.067400342991
 30
0.0
 11
290.736920436027
 21
775.348223616532
 31
0.0
  0
MTEXT
  5
2917
330
A
100
AcDbEntity
  8
template
390
1D
100
AcDbMText
 10
339.9912306235442
 20
826.0777485702075
 30
0.0
 40
24.4326171875
 41
0.0
 46
26.28949609375
 71
     1
 72
     1
  1
{カウンター置き}
  7
ＭＳ ゴシック
 73
     1
 44
0.7828267384257843
1001
ACAD
1000
ACAD_MTEXT_DEFINED_HEIGHT_BEGIN
1070
    46
1040
26.28949609375
1000
ACAD_MTEXT_DEFINED_HEIGHT_END
  0
MTEXT
  5
2918
330
A
100
AcDbEntity
  8
template
390
1D
100
AcDbMText
 10
275.3520069584279
 20
763.4905637516027
 30
0.0
 40
24.4326171875
 41
0.0
 46
26.1673330078125
 71
     1
 72
     1
  1
{半埋め込み}
  7
ＭＳ ゴシック
 73
     1
 44
0.7828267384257843
1001
ACAD
1000
ACAD_MTEXT_DEFINED_HEIGHT_BEGIN
1070
    46
1040
26.1673330078125
1000
ACAD_MTEXT_DEFINED_HEIGHT_END
  0
LINE
  5
2919
330
A
100
AcDbEntity
  8
Dim
  6
Continuous
100
AcDbLine
 10
387.7807396644657
 20
1014.984770872807
 30
0.0
 11
315.9593800365587
 21
1014.984770872807
 31
0.0
  0
LINE
  5
291A
330
A
100
AcDbEntity
  8
Dim
  6
Continuous
100
AcDbLine
 10
326.6476002499808
 20
1091.067400342991
 30
0.0
 11
254.8262406220738
 21
1091.067400342991
 31
0.0
  0
LINE
  5
2924
330
A
100
AcDbEntity
  8
MODEL
  6
Continuous
100
AcDbLine
 10
1632.08299577367
 20
1091.164435517918
 30
0.0
 11
1348.266182579819
 21
1091.157194194421
 31
0.0
  0
LINE
  5
2928
330
A
100
AcDbEntity
  8
MODEL
  6
Continuous
100
AcDbLine
 10
850.0442975718383
 20
1091.1485404925
 30
0.0
 11
363.6905264926495
 21
1091.149250103511
 31
0.0
  0
SPLINE
  5
2930
102
{ACAD_REACTORS
330
295F
102
}
330
A
100
AcDbEntity
  8
MODEL
100
AcDbSpline
210
0.0
220
0.0
230
1.0
 70
     8
 71
     3
 72
    48
 73
    44
 74
     0
 42
0.000000001
 43
0.0000000001
 40
0.0
 40
0.0
 40
0.0
 40
0.0
 40
28.10210182719839
 40
28.10210182719839
 40
51.61910405409076
 40
51.61910405409076
 40
75.13610628098313
 40
75.13610628098313
 40
98.6531085078755
 40
98.6531085078755
 40
122.1701107347679
 40
122.1701107347679
 40
162.5191829825643
 40
162.5191829825643
 40
187.2529603607049
 40
187.2529603607049
 40
202.7477486771849
 40
202.7477486771849
 40
219.6837611525045
 40
219.6837611525045
 40
231.1889845697467
 40
231.1889845697467
 40
240.1057568714683
 40
240.1057568714683
 40
249.0225291731898
 40
249.0225291731898
 40
257.9393014749114
 40
257.9393014749114
 40
266.856073776633
 40
266.856073776633
 40
275.7728460783545
 40
275.7728460783545
 40
288.3046847524658
 40
288.3046847524658
 40
300.8365234265771
 40
300.8365234265771
 40
310.1963405847408
 40
310.1963405847408
 40
319.5561577429046
 40
319.5561577429046
 40
346.5573097968798
 40
346.5573097968798
 40
374.643888020344
 40
374.643888020344
 40
374.643888020344
 40
374.643888020344
 10
1319.327323062557
 20
1991.127642367915
 30
0.0
 10
1319.327335714305
 20
1983.368926737459
 30
0.0
 10
1319.952292638213
 20
1975.610948758412
 30
0.0
 10
1322.23828384564
 20
1961.574621534594
 30
0.0
 10
1323.713853641355
 20
1955.259618273615
 30
0.0
 10
1327.514449862909
 20
1942.881203189267
 30
0.0
 10
1329.839029758332
 20
1936.818421898124
 30
0.0
 10
1335.294843386451
 20
1925.035392236538
 30
0.0
 10
1338.426203855539
 20
1919.314794323143
 30
0.0
 10
1345.429415930601
 20
1908.312612657477
 30
0.0
 10
1349.300907739351
 20
1903.031337672543
 30
0.0
 10
1360.703938669504
 20
1889.430420678916
 30
0.0
 10
1368.871763455915
 20
1881.643664932901
 30
0.0
 10
1383.20102745248
 20
1870.825120507015
 30
0.0
 10
1388.915707782049
 20
1867.119149379502
 30
0.0
 10
1398.546918556102
 20
1861.84278700177
 30
0.0
 10
1402.345691238312
 20
1859.987347254311
 30
0.0
 10
1410.443353774587
 20
1856.497851466332
 30
0.0
 10
1414.767654484124
 20
1854.895363436572
 30
0.0
 10
1422.16728683703
 20
1852.580005909802
 30
0.0
 10
1425.20674042288
 20
1851.743747729707
 30
0.0
 10
1430.681086043471
 20
1850.432948730728
 30
0.0
 10
1433.097880132518
 20
1849.91948388872
 30
0.0
 10
1438.002196189191
 20
1849.000589528971
 30
0.0
 10
1440.483710888264
 20
1848.596234987618
 30
0.0
 10
1445.51963515424
 20
1847.888140437813
 30
0.0
 10
1448.075442884423
 20
1847.584044348596
 30
0.0
 10
1453.265395618197
 20
1847.063649695253
 30
0.0
 10
1455.898148136272
 20
1846.84771761798
 30
0.0
 10
1461.257773724399
 20
1846.486933669113
 30
0.0
 10
1463.981703438214
 20
1846.3422219487
 30
0.0
 10
1470.63854209747
 20
1846.057356279557
 30
0.0
 10
1474.610380638064
 20
1845.942572190431
 30
0.0
 10
1482.693767215358
 20
1845.764688044691
 30
0.0
 10
1486.806443826725
 20
1845.700173986889
 30
0.0
 10
1494.040496741182
 20
1845.597543952306
 30
0.0
 10
1497.146043729699
 20
1845.557169860868
 30
0.0
 10
1503.350312370778
 20
1845.481229142861
 30
0.0
 10
1506.452071480359
 20
1845.445997769961
 30
0.0
 10
1518.502173086083
 20
1845.319979485483
 30
0.0
 10
1527.451385978384
 20
1845.249433493399
 30
0.0
 10
1545.709320066708
 20
1845.152074803287
 30
0.0
 10
1555.018195620382
 20
1845.127211573164
 30
0.0
 10
1564.326945654393
 20
1845.127211573164
 30
0.0
  0
SPLINE
  5
2931
102
{ACAD_REACTORS
330
295F
102
}
330
A
100
AcDbEntity
  8
MODEL
100
AcDbSpline
210
0.0
220
0.0
230
1.0
 70
     8
 71
     3
 72
    48
 73
    44
 74
     0
 42
0.000000001
 43
0.0000000001
 40
0.0
 40
0.0
 40
0.0
 40
0.0
 40
28.10208746202806
 40
28.10208746202806
 40
51.56798515117733
 40
51.56798515117733
 40
75.0338828403266
 40
75.0338828403266
 40
98.49978052947587
 40
98.49978052947587
 40
121.9656782186251
 40
121.9656782186251
 40
162.2009567845345
 40
162.2009567845345
 40
186.5552900582795
 40
186.5552900582795
 40
202.0961547742817
 40
202.0961547742817
 40
217.6370194902839
 40
217.6370194902839
 40
233.1778842062862
 40
233.1778842062862
 40
243.4036603104988
 40
243.4036603104988
 40
253.6294364147115
 40
253.6294364147115
 40
262.0683495634948
 40
262.0683495634948
 40
270.5072627122781
 40
270.5072627122781
 40
287.3850890098447
 40
287.3850890098447
 40
295.1088050317585
 40
295.1088050317585
 40
302.8325210536724
 40
302.8325210536724
 40
310.5562370755862
 40
310.5562370755862
 40
318.2799530975001
 40
318.2799530975001
 40
337.3321681303025
 40
337.3321681303025
 40
374.6438279827257
 40
374.6438279827257
 40
374.6438279827257
 40
374.6438279827257
 10
1319.327323062557
 20
1991.127642367895
 30
0.0
 10
1319.327310410903
 20
1998.886303421429
 30
0.0
 10
1319.952257459983
 20
2006.644161089566
 30
0.0
 10
1322.236012048976
 20
2020.666633071492
 30
0.0
 10
1323.707438724218
 20
2026.968147209382
 30
0.0
 10
1327.496080947778
 20
2039.320710576437
 30
0.0
 10
1329.812858098652
 20
2045.371172671481
 30
0.0
 10
1335.249860426331
 20
2057.131536910165
 30
0.0
 10
1338.370169666072
 20
2062.841695624985
 30
0.0
 10
1345.348606654763
 20
2073.825670756142
 30
0.0
 10
1349.206391212014
 20
2079.099193039698
 30
0.0
 10
1360.564700023177
 20
2092.67801211301
 30
0.0
 10
1368.698139631954
 20
2100.454657369997
 30
0.0
 10
1382.90069177455
 20
2111.218400792249
 30
0.0
 10
1388.51747780513
 20
2114.884620114541
 30
0.0
 10
1398.050033836015
 20
2120.159192020203
 30
0.0
 10
1401.852363362567
 20
2122.035686847469
 30
0.0
 10
1409.601266704907
 20
2125.411691199572
 30
0.0
 10
1413.557527403908
 20
2126.914903250464
 30
0.0
 10
1421.603701563669
 20
2129.543087663971
 30
0.0
 10
1425.707460206868
 20
2130.671866182987
 30
0.0
 10
1432.649266305576
 20
2132.250492690618
 30
0.0
 10
1435.44513434414
 20
2132.801488987909
 30
0.0
 10
1441.123359145102
 20
2133.763703094347
 30
0.0
 10
1444.002454194313
 20
2134.173912821656
 30
0.0
 10
1449.355640036738
 20
2134.810416201726
 30
0.0
 10
1451.809865351978
 20
2135.056117244046
 30
0.0
 10
1456.790843332769
 20
2135.474543629301
 30
0.0
 10
1459.322034072168
 20
2135.647766910442
 30
0.0
 10
1467.032917462624
 20
2136.081525632251
 30
0.0
 10
1472.333557831706
 20
2136.256408138037
 30
0.0
 10
1480.249211101691
 20
2136.438865789967
 30
0.0
 10
1482.76440474471
 20
2136.486106925149
 30
0.0
 10
1487.823072290441
 20
2136.570217546815
 30
0.0
 10
1490.372489000918
 20
2136.607178298803
 30
0.0
 10
1495.482410868746
 20
2136.676952208414
 30
0.0
 10
1498.04403710051
 20
2136.709709767316
 30
0.0
 10
1503.163602731518
 20
2136.771642428442
 30
0.0
 10
1505.72398675415
 20
2136.800753565598
 30
0.0
 10
1514.599927263859
 20
2136.895486919856
 30
0.0
 10
1520.914230609589
 20
2136.951873694915
 30
0.0
 10
1539.593978357691
 20
2137.084374781361
 30
0.0
 10
1551.960291270225
 20
2137.127988368985
 30
0.0
 10
1564.326945654393
 20
2137.127988368985
 30
0.0
  0
SPLINE
  5
2932
102
{ACAD_REACTORS
330
295F
102
}
330
A
100
AcDbEntity
  8
MODEL
100
AcDbSpline
210
0.0
220
0.0
230
1.0
 70
     8
 71
     3
 72
    48
 73
    44
 74
     0
 42
0.000000001
 43
0.0000000001
 40
0.0
 40
0.0
 40
0.0
 40
0.0
 40
28.10208746202827
 40
28.10208746202827
 40
51.56798517499183
 40
51.56798517499183
 40
75.0338828879554
 40
75.0338828879554
 40
98.49978060091897
 40
98.49978060091897
 40
121.9656783138825
 40
121.9656783138825
 40
162.2009569680199
 40
162.2009569680199
 40
186.555290443313
 40
186.555290443313
 40
202.0961550748226
 40
202.0961550748226
 40
217.6370197063321
 40
217.6370197063321
 40
233.1778843378417
 40
233.1778843378417
 40
243.403660556185
 40
243.403660556185
 40
253.6294367745283
 40
253.6294367745283
 40
262.068350027784
 40
262.068350027784
 40
270.5072632810397
 40
270.5072632810397
 40
287.3850897875512
 40
287.3850897875512
 40
295.108805835456
 40
295.108805835456
 40
302.8325218833608
 40
302.8325218833608
 40
310.5562379312656
 40
310.5562379312656
 40
318.2799539791704
 40
318.2799539791704
 40
337.3321684247252
 40
337.3321684247252
 40
374.6438279827257
 40
374.6438279827257
 40
374.6438279827257
 40
374.6438279827257
 10
1809.326568246106
 20
1991.127642367895
 30
0.0
 10
1809.32658089776
 20
1998.886303421429
 30
0.0
 10
1808.701633848679
 20
2006.644161089578
 30
0.0
 10
1806.417879258639
 20
2020.666633077975
 30
0.0
 10
1804.946452581455
 20
2026.968147222166
 30
0.0
 10
1801.157810352328
 20
2039.320710601261
 30
0.0
 10
1798.841033197838
 20
2045.371172702023
 30
0.0
 10
1793.404030861399
 20
2057.131536951232
 30
0.0
 10
1790.283721616506
 20
2062.841695670896
 30
0.0
 10
1783.305284616247
 20
2073.825670810539
 30
0.0
 10
1779.447500052593
 20
2079.099193097737
 30
0.0
 10
1768.089191214262
 20
2092.678012188964
 30
0.0
 10
1759.955751581554
 20
2100.454657456792
 30
0.0
 10
1745.753199364837
 20
2111.218400911659
 30
0.0
 10
1740.136413282046
 20
2114.884620254727
 30
0.0
 10
1730.603857212788
 20
2120.159192152741
 30
0.0
 10
1726.801527702999
 20
2122.035686961884
 30
0.0
 10
1719.052624397293
 20
2125.41169128102
 30
0.0
 10
1715.096363716897
 20
2126.914903317695
 30
0.0
 10
1707.0501895973
 20
2129.543087706345
 30
0.0
 10
1702.946430974058
 20
2130.671866215339
 30
0.0
 10
1696.00462486512
 20
2132.250492719819
 30
0.0
 10
1693.208756793509
 20
2132.801489020598
 30
0.0
 10
1687.530531925266
 20
2133.763703131013
 30
0.0
 10
1684.65143684113
 20
2134.173912858904
 30
0.0
 10
1679.298250929336
 20
2134.810416238529
 30
0.0
 10
1676.844025580926
 20
2135.056117279939
 30
0.0
 10
1671.863047529522
 20
2135.474543662469
 30
0.0
 10
1669.331856753881
 20
2135.647766941738
 30
0.0
 10
1661.62097325216
 20
2136.081525657364
 30
0.0
 10
1656.320332805794
 20
2136.256408158363
 30
0.0
 10
1648.404679442298
 20
2136.438865805369
 30
0.0
 10
1645.889485786473
 20
2136.486106939258
 30
0.0
 10
1640.830818216571
 20
2136.570217558963
 30
0.0
 10
1638.281401494555
 20
2136.607178310439
 30
0.0
 10
1633.171479606368
 20
2136.676952219264
 30
0.0
 10
1630.609853366092
 20
2136.709709777916
 30
0.0
 10
1625.490287717665
 20
2136.771642438425
 30
0.0
 10
1622.929903686302
 20
2136.800753575277
 30
0.0
 10
1614.053963362763
 20
2136.89548692612
 30
0.0
 10
1607.739660211737
 20
2136.951873698727
 30
0.0
 10
1589.059912755816
 20
2137.08437478205
 30
0.0
 10
1576.693599940853
 20
2137.127988368985
 30
0.0
 10
1564.326945654262
 20
2137.127988368985
 30
0.0
  0
SPLINE
  5
2933
102
{ACAD_REACTORS
330
295F
102
}
330
A
100
AcDbEntity
  8
MODEL
100
AcDbSpline
210
0.0
220
0.0
230
1.0
 70
     8
 71
     3
 72
    48
 73
    44
 74
     0
 42
0.000000001
 43
0.0000000001
 40
0.0
 40
0.0
 40
0.0
 40
0.0
 40
28.10210182719832
 40
28.10210182719832
 40
51.61910407565267
 40
51.61910407565267
 40
75.13610632410703
 40
75.13610632410703
 40
98.6531085725614
 40
98.6531085725614
 40
122.1701108210158
 40
122.1701108210158
 40
162.5191831314435
 40
162.5191831314435
 40
187.2529606746482
 40
187.2529606746482
 40
202.7477490091371
 40
202.7477490091371
 40
219.6837691484197
 40
219.6837691484197
 40
231.1889903594234
 40
231.1889903594234
 40
240.1057603458162
 40
240.1057603458162
 40
249.0225303322091
 40
249.0225303322091
 40
257.939300318602
 40
257.939300318602
 40
266.8560703049948
 40
266.8560703049948
 40
275.7728402913877
 40
275.7728402913877
 40
288.3046896544168
 40
288.3046896544168
 40
300.8365390174459
 40
300.8365390174459
 40
310.1963492578419
 40
310.1963492578419
 40
319.5561594982378
 40
319.5561594982378
 40
346.5573119634399
 40
346.5573119634399
 40
374.643888020344
 40
374.643888020344
 40
374.643888020344
 40
374.643888020344
 10
1809.326568246106
 20
1991.127642367915
 30
0.0
 10
1809.326555594358
 20
1983.368926737459
 30
0.0
 10
1808.701598670443
 20
1975.610948758399
 30
0.0
 10
1806.415607462063
 20
1961.574621528723
 30
0.0
 10
1804.940037664601
 20
1955.25961826204
 30
0.0
 10
1801.139441438005
 20
1942.881203166793
 30
0.0
 10
1798.814861539286
 20
1936.818421870474
 30
0.0
 10
1793.359047903221
 20
1925.035392199365
 30
0.0
 10
1790.227687429477
 20
1919.31479428159
 30
0.0
 10
1783.224475343923
 20
1908.312612608256
 30
0.0
 10
1779.352983529352
 20
1903.031337620035
 30
0.0
 10
1767.949952577641
 20
1889.430420613897
 30
0.0
 10
1759.782127773477
 20
1881.643664861115
 30
0.0
 10
1745.452863718281
 20
1870.825120410215
 30
0.0
 10
1739.73818334585
 20
1867.11914926589
 30
0.0
 10
1730.106972519498
 20
1861.842786883228
 30
0.0
 10
1726.308199829175
 20
1859.987347141031
 30
0.0
 10
1718.210535368519
 20
1856.49785054337
 30
0.0
 10
1713.886232676225
 20
1854.895361903683
 30
0.0
 10
1706.486598737625
 20
1852.580004275181
 30
0.0
 10
1703.447145684193
 20
1851.74374637529
 30
0.0
 10
1697.972801194403
 20
1850.432947840423
 30
0.0
 10
1695.556007698288
 20
1849.919483189877
 30
0.0
 10
1690.651692864544
 20
1849.000589153694
 30
0.0
 10
1688.170178794652
 20
1848.596234744688
 30
0.0
 10
1683.13425581644
 20
1847.888140404625
 30
0.0
 10
1680.578448750043
 20
1847.584044393646
 30
0.0
 10
1675.38849738372
 20
1847.063649852653
 30
0.0
 10
1672.75574557206
 20
1846.84771780953
 30
0.0
 10
1667.396121444712
 20
1846.486933898963
 30
0.0
 10
1664.672192483624
 20
1846.342222182511
 30
0.0
 10
1658.015351361217
 20
1846.057356320405
 30
0.0
 10
1654.043509432159
 20
1845.942572141885
 30
0.0
 10
1645.960115846058
 20
1845.764687884493
 30
0.0
 10
1641.847435605196
 20
1845.700173799975
 30
0.0
 10
1634.613381362404
 20
1845.597543778721
 30
0.0
 10
1631.507836662117
 20
1845.557169722193
 30
0.0
 10
1625.303572607518
 20
1845.48122907043
 30
0.0
 10
1622.201815790613
 20
1845.445997726693
 30
0.0
 10
1610.151716341032
 20
1845.319979468811
 30
0.0
 10
1601.202503312358
 20
1845.249433478964
 30
0.0
 10
1582.944569805805
 20
1845.152074799451
 30
0.0
 10
1573.63569497021
 20
1845.127211573164
 30
0.0
 10
1564.326945654262
 20
1845.127211573164
 30
0.0
  0
SPLINE
  5
2938
330
A
100
AcDbEntity
  8
HIDDEN
100
AcDbSpline
210
0.0
220
0.0
230
1.0
 70
    11
 71
     3
 72
   120
 73
   116
 74
     0
 42
0.000000001
 43
0.0000000001
 40
0.0
 40
0.0
 40
0.0
 40
0.0
 40
5.736199134428761
 40
14.34054662915204
 40
29.39810144523126
 40
43.7384420167065
 40
58.07883670375672
 40
73.13592748834589
 40
87.47603833652839
 40
101.8166149737457
 40
116.8742612315676
 40
131.2145605844555
 40
145.5548452096661
 40
160.6121371885957
 40
174.9524451398921
 40
190.9696291311486
 40
207.4426793378222
 40
215.6792658894441
 40
223.9158040929279
 40
232.9759570013845
 40
240.9866558404071
 40
251.2048950525626
 40
256.7069997795529
 40
269.2829209418722
 40
275.5705139140284
 40
281.8579273278767
 40
286.5734283968249
 40
296.3726629890771
 40
306.1717503911342
 40
312.7044362843192
 40
319.2371233561952
 40
332.3025014733452
 40
345.3678794012779
 40
395.9963607993273
 40
425.3942821472428
 40
435.1935883880684
 40
440.0932388226926
 40
444.9928946144471
 40
454.7922927209859
 40
470.7166029287163
 40
474.3915233704661
 40
480.5165498389361
 40
495.2175084962878
 40
502.5681537331504
 40
511.1438967861487
 40
520.944648087478
 40
533.1955787114506
 40
545.4466031701164
 40
557.4289637459476
 40
569.3442830416602
 40
594.3663126310832
 40
618.1967537734789
 40
636.5362395697034
 40
653.8712366201551
 40
670.3803647199987
 40
686.9370203932978
 40
704.3554479245531
 40
720.944412414607
 40
737.3570360354978
 40
754.363659934968
 40
770.5605038198477
 40
787.6020616918604
 40
803.8988800531222
 40
820.1954490402039
 40
837.3081682113351
 40
853.6122320817817
 40
869.9162189039135
 40
887.0629496023798
 40
903.9236351202535
 40
920.784331703713
 40
938.4882015058446
 40
954.5657140632505
 40
970.5562927038228
 40
980.1505619386749
 40
987.3462902184048
 40
997.7735702415067
 40
1003.399484348369
 40
1010.632744575719
 40
1018.669389679562
 40
1025.098390475465
 40
1028.312846905425
 40
1036.348923595665
 40
1046.941655886538
 40
1059.433442651338
 40
1076.089093653453
 40
1101.072576334959
 40
1117.728232826362
 40
1142.711716996262
 40
1167.69519952582
 40
1187.493529647211
 40
1198.964063784404
 40
1207.567067581322
 40
1219.037990130847
 40
1230.509201530781
 40
1240.547169541353
 40
1247.717339894733
 40
1255.60457730842
 40
1260.623712006697
 40
1269.944884544361
 40
1276.39798251646
 40
1284.285151148713
 40
1299.342509472574
 40
1313.682836700293
 40
1328.740251915646
 40
1343.080539502325
 40
1357.420818132546
 40
1375.553539120876
 40
1393.311213987369
 40
1411.069031233324
 40
1428.939991216376
 40
1445.665204326692
 40
1462.390622100223
 40
1480.699645332505
 40
1491.482293321254
 40
1498.670683194952
 40
1498.670683194952
 40
1498.670683194952
 40
1498.670683194952
 10
1289.310793384728
 20
1991.127605268011
 30
0.0
 10
1289.310796437174
 20
1989.215623453861
 30
0.0
 10
1289.389279615825
 20
1984.435291857981
 30
0.0
 10
1289.952311414345
 20
1974.649222931187
 30
0.0
 10
1291.538078325284
 20
1962.069389275082
 30
0.0
 10
1294.586034093933
 20
1947.799203313359
 30
0.0
 10
1298.811510478576
 20
1933.832438050442
 30
0.0
 10
1304.210450664629
 20
1920.274921016911
 30
0.0
 10
1310.731353568459
 20
1907.221641533745
 30
0.0
 10
1318.289011497153
 20
1894.740138683322
 30
0.0
 10
1326.84574567953
 20
1882.919935347825
 30
0.0
 10
1336.335088495806
 20
1871.836297524597
 30
0.0
 10
1346.67518595812
 20
1861.541772494576
 30
0.0
 10
1357.828786314676
 20
1852.132236152996
 30
0.0
 10
1370.18931895095
 20
1843.369835448598
 30
0.0
 10
1383.693427342398
 20
1835.503681973379
 30
0.0
 10
1396.05510654406
 20
1829.850743290717
 30
0.0
 10
1406.363724371462
 20
1826.053913933104
 30
0.0
 10
1414.49076468953
 20
1823.517113958556
 30
0.0
 10
1422.665570459925
 20
1821.42300468005
 30
0.0
 10
1431.579065919119
 20
1819.596797980373
 30
0.0
 10
1439.399000373917
 20
1818.387367283353
 30
0.0
 10
1448.76765140042
 20
1817.288689973523
 30
0.0
 10
1456.866603591203
 20
1816.650970278575
 30
0.0
 10
1465.239775054463
 20
1816.228090215687
 30
0.0
 10
1470.999663945943
 20
1816.020524316033
 30
0.0
 10
1477.931246330707
 20
1815.834098382356
 30
0.0
 10
1486.034597361723
 20
1815.68719326125
 30
0.0
 10
1494.744108920495
 20
1815.567547905855
 30
0.0
 10
1502.365015736003
 20
1815.473309567412
 30
0.0
 10
1511.074728716281
 20
1815.376383346107
 30
0.0
 10
1521.962084532294
 20
1815.275471044828
 30
0.0
 10
1547.547926390464
 20
1815.101490303452
 30
0.0
 10
1578.578872973143
 20
1815.078018279059
 30
0.0
 10
1608.520190921714
 20
1815.282775759013
 30
0.0
 10
1623.218342344764
 20
1815.437680865152
 30
0.0
 10
1629.750745823549
 20
1815.515724292259
 30
0.0
 10
1636.283119914217
 20
1815.599430246888
 30
0.0
 10
1646.489800552438
 20
1815.744748372272
 30
0.0
 10
1656.287681693641
 20
1815.952575818637
 30
0.0
 10
1664.855586891128
 20
1816.298354023028
 30
0.0
 10
1673.011665632919
 20
1816.722359588516
 30
0.0
 10
1682.374760790379
 20
1817.506544070655
 30
0.0
 10
1692.495892485757
 20
1818.857124863412
 30
0.0
 10
1700.946703007823
 20
1820.327829693238
 30
0.0
 10
1710.907751609681
 20
1822.582969113295
 30
0.0
 10
1721.880421970978
 20
1825.826500053786
 30
0.0
 10
1733.260103945919
 20
1830.141057753254
 30
0.0
 10
1744.185420016387
 20
1835.242433170644
 30
0.0
 10
1758.431283046433
 20
1843.199182221987
 30
0.0
 10
1774.97267334169
 20
1854.982712458424
 30
0.0
 10
1791.283241934405
 20
1870.404249587076
 30
0.0
 10
1804.02565843142
 20
1885.638094385315
 30
0.0
 10
1813.824415102856
 20
1900.034720391249
 30
0.0
 10
1821.92539923959
 20
1914.773793924706
 30
0.0
 10
1828.61317613686
 20
1930.236666673716
 30
0.0
 10
1833.760802067162
 20
1946.30870947458
 30
0.0
 10
1837.286278963264
 20
1962.761422357059
 30
0.0
 10
1839.212347941917
 20
1979.337922541449
 30
0.0
 10
1839.541286005792
 20
1995.892940376247
 30
0.0
 10
1838.282900606843
 20
2012.612079878644
 30
0.0
 10
1835.472068486306
 20
2028.903213076871
 30
0.0
 10
1831.091430447327
 20
2044.877014957982
 30
0.0
 10
1825.213077066699
 20
2060.387593627998
 30
0.0
 10
1817.873090845722
 20
2075.266500968
 30
0.0
 10
1809.161495985798
 20
2089.386274110039
 30
0.0
 10
1799.197317986451
 20
2102.665524937632
 30
0.0
 10
1787.921956675331
 20
2115.105394736316
 30
0.0
 10
1775.384478930224
 20
2126.549262049934
 30
0.0
 10
1761.662826082087
 20
2136.856814272672
 30
0.0
 10
1747.193485753495
 20
2145.596720315138
 30
0.0
 10
1732.173834600195
 20
2152.691157451751
 30
0.0
 10
1719.077388960068
 20
2157.361115377495
 30
0.0
 10
1708.527837685222
 20
2160.224557489927
 30
0.0
 10
1699.66538053623
 20
2162.174039016094
 30
0.0
 10
1692.022257083911
 20
2163.471572725643
 30
0.0
 10
1684.324016935294
 20
2164.470597903149
 30
0.0
 10
1677.393113312086
 20
2165.169722798051
 30
0.0
 10
1670.17799254338
 20
2165.687058573601
 30
0.0
 10
1664.291826876841
 20
2165.982249751904
 30
0.0
 10
1658.403116768532
 20
2166.212676983517
 30
0.0
 10
1651.124765989873
 20
2166.417873659278
 30
0.0
 10
1640.75273019584
 20
2166.598617097979
 30
0.0
 10
1627.507136678855
 20
2166.771754340534
 30
0.0
 10
1609.464518328634
 20
2166.965797604926
 30
0.0
 10
1590.033297828821
 20
2167.095650987104
 30
0.0
 10
1567.825814910321
 20
2167.157390041457
 30
0.0
 10
1545.618228248168
 20
2167.130941509402
 30
0.0
 10
1522.363461824374
 20
2166.99398210806
 30
0.0
 10
1503.613637033574
 20
2166.80190083395
 30
0.0
 10
1490.324100255326
 20
2166.63091019458
 30
0.0
 10
1479.810601856574
 20
2166.463627214762
 30
0.0
 10
1469.298344134237
 20
2166.210475883711
 30
0.0
 10
1458.315219964112
 20
2165.711046479639
 30
0.0
 10
1448.783433379926
 20
2164.958834337748
 30
0.0
 10
1440.471493975391
 20
2164.00751264383
 30
0.0
 10
1433.852421145726
 20
2163.012305051257
 30
0.0
 10
1426.566097107432
 20
2161.664953694018
 30
0.0
 10
1419.802932037157
 20
2160.137284706723
 30
0.0
 10
1412.196619544768
 20
2158.045785653333
 30
0.0
 10
1402.866205817802
 20
2155.041935489826
 30
0.0
 10
1391.320498127927
 20
2150.40619605516
 30
0.0
 10
1378.109321978409
 20
2143.663240801606
 30
0.0
 10
1365.745362614733
 20
2135.910120631307
 30
0.0
 10
1354.090784547712
 20
2127.130129003526
 30
0.0
 10
1342.422803551133
 20
2116.749709568794
 30
0.0
 10
1330.957231854802
 20
2104.518666212241
 30
0.0
 10
1320.067972779551
 20
2090.306284174485
 30
0.0
 10
1310.681566549029
 20
2075.161575450122
 30
0.0
 10
1303.017748073995
 20
2059.457788756746
 30
0.0
 10
1297.07259100469
 20
2043.395440340644
 30
0.0
 10
1292.676138439536
 20
2026.690657917237
 30
0.0
 10
1290.304725878603
 20
2011.581791271135
 30
0.0
 10
1289.434021832647
 20
1999.514209081821
 30
0.0
 10
1289.310789559612
 20
1993.523568768277
 30
0.0
 10
1289.310793384735
 20
1991.127605268011
 30
0.0
  0
CIRCLE
  5
293B
330
A
100
AcDbEntity
  8
HIDDEN
 48
0.75
100
AcDbCircle
 10
1564.326945654328
 20
1991.127606221734
 30
0.0
 40
21.95328793119563
  0
CIRCLE
  5
293C
330
A
100
AcDbEntity
  8
HIDDEN
 48
0.75
100
AcDbCircle
 10
1564.326945654328
 20
1991.127606221734
 30
0.0
 40
21.9528310166648
  0
HATCH
  5
295F
330
A
100
AcDbEntity
  8
Dim
  6
Continuous
100
AcDbHatch
 10
0.0
 20
0.0
 30
0.0
210
0.0
220
0.0
230
1.0
  2
ANSI31
 70
     0
 71
     1
 91
        2
 92
        1
 93
        2
 72
     4
 94
        3
 73
     0
 74
     0
 95
       48
 96
       44
 40
0.0
 40
0.0
 40
0.0
 40
0.0
 40
28.10210182719839
 40
28.10210182719839
 40
51.61910405409076
 40
51.61910405409076
 40
75.13610628098313
 40
75.13610628098313
 40
98.6531085078755
 40
98.6531085078755
 40
122.1701107347679
 40
122.1701107347679
 40
162.5191829825643
 40
162.5191829825643
 40
187.2529603607049
 40
187.2529603607049
 40
202.7477486771849
 40
202.7477486771849
 40
219.6837611525045
 40
219.6837611525045
 40
231.1889845697467
 40
231.1889845697467
 40
240.1057568714683
 40
240.1057568714683
 40
249.0225291731898
 40
249.0225291731898
 40
257.9393014749114
 40
257.9393014749114
 40
266.856073776633
 40
266.856073776633
 40
275.7728460783545
 40
275.7728460783545
 40
288.3046847524658
 40
288.3046847524658
 40
300.8365234265771
 40
300.8365234265771
 40
310.1963405847408
 40
310.1963405847408
 40
319.5561577429046
 40
319.5561577429046
 40
346.5573097968798
 40
346.5573097968798
 40
374.643888020344
 40
374.643888020344
 40
374.643888020344
 40
374.643888020344
 10
1319.327323062557
 20
1991.127642367915
 10
1319.327335714305
 20
1983.368926737459
 10
1319.952292638213
 20
1975.610948758412
 10
1322.23828384564
 20
1961.574621534594
 10
1323.713853641355
 20
1955.259618273615
 10
1327.514449862909
 20
1942.881203189267
 10
1329.839029758332
 20
1936.818421898124
 10
1335.294843386451
 20
1925.035392236538
 10
1338.426203855539
 20
1919.314794323143
 10
1345.429415930601
 20
1908.312612657477
 10
1349.300907739351
 20
1903.031337672543
 10
1360.703938669504
 20
1889.430420678916
 10
1368.871763455915
 20
1881.643664932901
 10
1383.20102745248
 20
1870.825120507015
 10
1388.915707782049
 20
1867.119149379502
 10
1398.546918556102
 20
1861.84278700177
 10
1402.345691238312
 20
1859.987347254311
 10
1410.443353774587
 20
1856.497851466332
 10
1414.767654484124
 20
1854.895363436572
 10
1422.16728683703
 20
1852.580005909802
 10
1425.20674042288
 20
1851.743747729707
 10
1430.681086043471
 20
1850.432948730728
 10
1433.097880132518
 20
1849.91948388872
 10
1438.002196189191
 20
1849.000589528971
 10
1440.483710888264
 20
1848.596234987618
 10
1445.51963515424
 20
1847.888140437813
 10
1448.075442884423
 20
1847.584044348596
 10
1453.265395618197
 20
1847.063649695253
 10
1455.898148136272
 20
1846.84771761798
 10
1461.257773724399
 20
1846.486933669113
 10
1463.981703438214
 20
1846.3422219487
 10
1470.63854209747
 20
1846.057356279557
 10
1474.610380638064
 20
1845.942572190431
 10
1482.693767215358
 20
1845.764688044691
 10
1486.806443826725
 20
1845.700173986889
 10
1494.040496741182
 20
1845.597543952306
 10
1497.146043729699
 20
1845.557169860868
 10
1503.350312370778
 20
1845.481229142861
 10
1506.452071480359
 20
1845.445997769961
 10
1518.502173086083
 20
1845.319979485483
 10
1527.451385978384
 20
1845.249433493399
 10
1545.709320066708
 20
1845.152074803287
 10
1555.018195620382
 20
1845.127211573164
 10
1564.326945654393
 20
1845.127211573164
 72
     4
 94
        3
 73
     0
 74
     0
 95
       48
 96
       44
 40
0.0
 40
0.0
 40
0.0
 40
0.0
 40
28.10208746202806
 40
28.10208746202806
 40
51.56798515117733
 40
51.56798515117733
 40
75.0338828403266
 40
75.0338828403266
 40
98.49978052947587
 40
98.49978052947587
 40
121.9656782186251
 40
121.9656782186251
 40
162.2009567845345
 40
162.2009567845345
 40
186.5552900582795
 40
186.5552900582795
 40
202.0961547742817
 40
202.0961547742817
 40
217.6370194902839
 40
217.6370194902839
 40
233.1778842062862
 40
233.1778842062862
 40
243.4036603104988
 40
243.4036603104988
 40
253.6294364147115
 40
253.6294364147115
 40
262.0683495634948
 40
262.0683495634948
 40
270.5072627122781
 40
270.5072627122781
 40
287.3850890098447
 40
287.3850890098447
 40
295.1088050317585
 40
295.1088050317585
 40
302.8325210536724
 40
302.8325210536724
 40
310.5562370755862
 40
310.5562370755862
 40
318.2799530975001
 40
318.2799530975001
 40
337.3321681303025
 40
337.3321681303025
 40
374.6438279827257
 40
374.6438279827257
 40
374.6438279827257
 40
374.6438279827257
 10
1319.327323062557
 20
1991.127642367895
 10
1319.327310410903
 20
1998.886303421429
 10
1319.952257459983
 20
2006.644161089566
 10
1322.236012048976
 20
2020.666633071492
 10
1323.707438724218
 20
2026.968147209382
 10
1327.496080947778
 20
2039.320710576437
 10
1329.812858098652
 20
2045.371172671481
 10
1335.249860426331
 20
2057.131536910165
 10
1338.370169666072
 20
2062.841695624985
 10
1345.348606654763
 20
2073.825670756142
 10
1349.206391212014
 20
2079.099193039698
 10
1360.564700023177
 20
2092.67801211301
 10
1368.698139631954
 20
2100.454657369997
 10
1382.90069177455
 20
2111.218400792249
 10
1388.51747780513
 20
2114.884620114541
 10
1398.050033836015
 20
2120.159192020203
 10
1401.852363362567
 20
2122.035686847469
 10
1409.601266704907
 20
2125.411691199572
 10
1413.557527403908
 20
2126.914903250464
 10
1421.603701563669
 20
2129.543087663971
 10
1425.707460206868
 20
2130.671866182987
 10
1432.649266305576
 20
2132.250492690618
 10
1435.44513434414
 20
2132.801488987909
 10
1441.123359145102
 20
2133.763703094347
 10
1444.002454194313
 20
2134.173912821656
 10
1449.355640036738
 20
2134.810416201726
 10
1451.809865351978
 20
2135.056117244046
 10
1456.790843332769
 20
2135.474543629301
 10
1459.322034072168
 20
2135.647766910442
 10
1467.032917462624
 20
2136.081525632251
 10
1472.333557831706
 20
2136.256408138037
 10
1480.249211101691
 20
2136.438865789967
 10
1482.76440474471
 20
2136.486106925149
 10
1487.823072290441
 20
2136.570217546815
 10
1490.372489000918
 20
2136.607178298803
 10
1495.482410868746
 20
2136.676952208414
 10
1498.04403710051
 20
2136.709709767316
 10
1503.163602731518
 20
2136.771642428442
 10
1505.72398675415
 20
2136.800753565598
 10
1514.599927263859
 20
2136.895486919856
 10
1520.914230609589
 20
2136.951873694915
 10
1539.593978357691
 20
2137.084374781361
 10
1551.960291270225
 20
2137.127988368985
 10
1564.326945654393
 20
2137.127988368985
 97
        2
330
2930
330
2931
 92
        1
 93
        2
 72
     4
 94
        3
 73
     0
 74
     0
 95
       48
 96
       44
 40
0.0
 40
0.0
 40
0.0
 40
0.0
 40
28.10210182719832
 40
28.10210182719832
 40
51.61910407565267
 40
51.61910407565267
 40
75.13610632410703
 40
75.13610632410703
 40
98.6531085725614
 40
98.6531085725614
 40
122.1701108210158
 40
122.1701108210158
 40
162.5191831314435
 40
162.5191831314435
 40
187.2529606746482
 40
187.2529606746482
 40
202.7477490091371
 40
202.7477490091371
 40
219.6837691484197
 40
219.6837691484197
 40
231.1889903594234
 40
231.1889903594234
 40
240.1057603458162
 40
240.1057603458162
 40
249.0225303322091
 40
249.0225303322091
 40
257.939300318602
 40
257.939300318602
 40
266.8560703049948
 40
266.8560703049948
 40
275.7728402913877
 40
275.7728402913877
 40
288.3046896544168
 40
288.3046896544168
 40
300.8365390174459
 40
300.8365390174459
 40
310.1963492578419
 40
310.1963492578419
 40
319.5561594982378
 40
319.5561594982378
 40
346.5573119634399
 40
346.5573119634399
 40
374.643888020344
 40
374.643888020344
 40
374.643888020344
 40
374.643888020344
 10
1809.326568246106
 20
1991.127642367915
 10
1809.326555594358
 20
1983.368926737459
 10
1808.701598670443
 20
1975.610948758399
 10
1806.415607462063
 20
1961.574621528723
 10
1804.940037664601
 20
1955.25961826204
 10
1801.139441438005
 20
1942.881203166793
 10
1798.814861539286
 20
1936.818421870474
 10
1793.359047903221
 20
1925.035392199365
 10
1790.227687429477
 20
1919.31479428159
 10
1783.224475343923
 20
1908.312612608256
 10
1779.352983529352
 20
1903.031337620035
 10
1767.949952577641
 20
1889.430420613897
 10
1759.782127773477
 20
1881.643664861115
 10
1745.452863718281
 20
1870.825120410215
 10
1739.73818334585
 20
1867.11914926589
 10
1730.106972519498
 20
1861.842786883228
 10
1726.308199829175
 20
1859.987347141031
 10
1718.210535368519
 20
1856.49785054337
 10
1713.886232676225
 20
1854.895361903683
 10
1706.486598737625
 20
1852.580004275181
 10
1703.447145684193
 20
1851.74374637529
 10
1697.972801194403
 20
1850.432947840423
 10
1695.556007698288
 20
1849.919483189877
 10
1690.651692864544
 20
1849.000589153694
 10
1688.170178794652
 20
1848.596234744688
 10
1683.13425581644
 20
1847.888140404625
 10
1680.578448750043
 20
1847.584044393646
 10
1675.38849738372
 20
1847.063649852653
 10
1672.75574557206
 20
1846.84771780953
 10
1667.396121444712
 20
1846.486933898963
 10
1664.672192483624
 20
1846.342222182511
 10
1658.015351361217
 20
1846.057356320405
 10
1654.043509432159
 20
1845.942572141885
 10
1645.960115846058
 20
1845.764687884493
 10
1641.847435605196
 20
1845.700173799975
 10
1634.613381362404
 20
1845.597543778721
 10
1631.507836662117
 20
1845.557169722193
 10
1625.303572607518
 20
1845.48122907043
 10
1622.201815790613
 20
1845.445997726693
 10
1610.151716341032
 20
1845.319979468811
 10
1601.202503312358
 20
1845.249433478964
 10
1582.944569805805
 20
1845.152074799451
 10
1573.63569497021
 20
1845.127211573164
 10
1564.326945654262
 20
1845.127211573164
 72
     4
 94
        3
 73
     0
 74
     0
 95
       48
 96
       44
 40
0.0
 40
0.0
 40
0.0
 40
0.0
 40
28.10208746202827
 40
28.10208746202827
 40
51.56798517499183
 40
51.56798517499183
 40
75.0338828879554
 40
75.0338828879554
 40
98.49978060091897
 40
98.49978060091897
 40
121.9656783138825
 40
121.9656783138825
 40
162.2009569680199
 40
162.2009569680199
 40
186.555290443313
 40
186.555290443313
 40
202.0961550748226
 40
202.0961550748226
 40
217.6370197063321
 40
217.6370197063321
 40
233.1778843378417
 40
233.1778843378417
 40
243.403660556185
 40
243.403660556185
 40
253.6294367745283
 40
253.6294367745283
 40
262.068350027784
 40
262.068350027784
 40
270.5072632810397
 40
270.5072632810397
 40
287.3850897875512
 40
287.3850897875512
 40
295.108805835456
 40
295.108805835456
 40
302.8325218833608
 40
302.8325218833608
 40
310.5562379312656
 40
310.5562379312656
 40
318.2799539791704
 40
318.2799539791704
 40
337.3321684247252
 40
337.3321684247252
 40
374.6438279827257
 40
374.6438279827257
 40
374.6438279827257
 40
374.6438279827257
 10
1809.326568246106
 20
1991.127642367895
 10
1809.32658089776
 20
1998.886303421429
 10
1808.701633848679
 20
2006.644161089578
 10
1806.417879258639
 20
2020.666633077975
 10
1804.946452581455
 20
2026.968147222166
 10
1801.157810352328
 20
2039.320710601261
 10
1798.841033197838
 20
2045.371172702023
 10
1793.404030861399
 20
2057.131536951232
 10
1790.283721616506
 20
2062.841695670896
 10
1783.305284616247
 20
2073.825670810539
 10
1779.447500052593
 20
2079.099193097737
 10
1768.089191214262
 20
2092.678012188964
 10
1759.955751581554
 20
2100.454657456792
 10
1745.753199364837
 20
2111.218400911659
 10
1740.136413282046
 20
2114.884620254727
 10
1730.603857212788
 20
2120.159192152741
 10
1726.801527702999
 20
2122.035686961884
 10
1719.052624397293
 20
2125.41169128102
 10
1715.096363716897
 20
2126.914903317695
 10
1707.0501895973
 20
2129.543087706345
 10
1702.946430974058
 20
2130.671866215339
 10
1696.00462486512
 20
2132.250492719819
 10
1693.208756793509
 20
2132.801489020598
 10
1687.530531925266
 20
2133.763703131013
 10
1684.65143684113
 20
2134.173912858904
 10
1679.298250929336
 20
2134.810416238529
 10
1676.844025580926
 20
2135.056117279939
 10
1671.863047529522
 20
2135.474543662469
 10
1669.331856753881
 20
2135.647766941738
 10
1661.62097325216
 20
2136.081525657364
 10
1656.320332805794
 20
2136.256408158363
 10
1648.404679442298
 20
2136.438865805369
 10
1645.889485786473
 20
2136.486106939258
 10
1640.830818216571
 20
2136.570217558963
 10
1638.281401494555
 20
2136.607178310439
 10
1633.171479606368
 20
2136.676952219264
 10
1630.609853366092
 20
2136.709709777916
 10
1625.490287717665
 20
2136.771642438425
 10
1622.929903686302
 20
2136.800753575277
 10
1614.053963362763
 20
2136.89548692612
 10
1607.739660211737
 20
2136.951873698727
 10
1589.059912755816
 20
2137.08437478205
 10
1576.693599940853
 20
2137.127988368985
 10
1564.326945654262
 20
2137.127988368985
 97
        2
330
2933
330
2932
 75
     0
 76
     1
 52
0.0
 41
6.0
 77
     0
 78
     1
 53
45.0
 43
-1983.528737411085
 44
-0.0000000000002274
 45
-13.47038418160373
 46
13.47038418160373
 79
     0
 98
        1
 10
-1983.528737411085
 20
-0.0000000000002274
1001
ACAD
1010
0.0
1020
0.0
1030
0.0
1001
HATCHBACKGROUNDCOLOR
1071
-939524096
1000

1000

  0
CIRCLE
  5
2966
102
{ACAD_REACTORS
330
2967
102
}
330
A
100
AcDbEntity
  8
MODEL
  6
Continuous
100
AcDbCircle
 10
1564.326945654328
 20
1991.127606221734
 30
0.0
 40
50.0
  0
HATCH
  5
2967
330
A
100
AcDbEntity
  8
Dim
  6
Continuous
100
AcDbHatch
 10
0.0
 20
0.0
 30
0.0
210
0.0
220
0.0
230
1.0
  2
ANSI31
 70
     0
 71
     1
 91
        1
 92
        1
 93
        1
 72
     2
 10
1564.326945654328
 20
1991.127606221734
 40
50.0
 50
0.0
 51
360.0
 73
     1
 97
        1
330
2966
 75
     0
 76
     1
 52
0.0
 41
2.0
 77
     0
 78
     1
 53
45.0
 43
0.0
 44
0.0
 45
-4.490128060534577
 46
4.490128060534577
 79
     0
 98
        1
 10
31.16931070928604
 20
0.0000058195837482
1001
ACAD
1010
0.0
1020
0.0
1030
0.0
  0
MTEXT
  5
2968
330
A
100
AcDbEntity
  8
Dim
390
1D
100
AcDbMText
 10
1783.52665802453
 20
2176.458965526623
 30
0.0
 40
24.4326171875
 41
0.0
 46
24.4326171875
 71
     1
 72
     1
  1
{Ø100}
  7
ＭＳ ゴシック
 73
     1
 44
0.7828267384257843
1001
ACAD
1000
ACAD_MTEXT_DEFINED_HEIGHT_BEGIN
1070
    46
1040
24.4326171875
1000
ACAD_MTEXT_DEFINED_HEIGHT_END
  0
LINE
  5
2969
330
A
100
AcDbEntity
  8
Dim
  6
Continuous
100
AcDbLine
 10
1770.35333708414
 20
2139.724678325176
 30
0.0
 11
1844.027991492196
 21
2139.724678325176
 31
0.0
  0
LINE
  5
296A
330
A
100
AcDbEntity
  8
Dim
  6
Continuous
100
AcDbLine
 10
1598.466951333711
 20
2027.657867816906
 30
0.0
 11
1770.35333708414
 21
2139.724678325176
 31
0.0
  0
MTEXT
  5
296B
330
A
100
AcDbEntity
  8
Dim
390
1D
100
AcDbMText
 10
1473.719183855487
 20
2317.571517677045
 30
0.0
 40
24.4326171875
 41
0.0
 46
26.1673330078125
 71
     1
 72
     1
  1
{半埋め込み}
  7
ＭＳ ゴシック
 73
     1
 44
0.7828267384257843
1001
ACAD
1000
ACAD_MTEXT_DEFINED_HEIGHT_BEGIN
1070
    46
1040
26.1673330078125
1000
ACAD_MTEXT_DEFINED_HEIGHT_END
  0
LINE
  5
296C
330
A
100
AcDbEntity
  8
Dim
  6
Continuous
100
AcDbLine
 10
1486.026039063319
 20
2277.833400742853
 30
0.0
 11
1486.026039063319
 21
2130.801956037184
 31
0.0
  0
MTEXT
  5
296D
330
A
100
AcDbEntity
  8
Dim
390
1D
100
AcDbMText
 10
1554.108597225533
 20
2244.067817419494
 30
0.0
 40
24.4326171875
 41
0.0
 46
26.28949609375
 71
     1
 72
     1
  1
{カウンター置き}
  7
ＭＳ ゴシック
 73
     1
 44
0.7828267384257843
1001
ACAD
1000
ACAD_MTEXT_DEFINED_HEIGHT_BEGIN
1070
    46
1040
26.28949609375
1000
ACAD_MTEXT_DEFINED_HEIGHT_END
  0
LINE
  5
296E
330
A
100
AcDbEntity
  8
Dim
  6
Continuous
100
AcDbLine
 10
1565.848296961922
 20
2041.461314757184
 30
0.0
 11
1565.848296961922
 21
2207.713287033447
 31
0.0
  0
MTEXT
  5
296F
330
A
100
AcDbEntity
  8
Dim
390
1D
100
AcDbMText
 10
1424.796846279658
 20
2452.757166217769
 30
34.99521132346015
 40
24.0
 41
0.0
 46
27.413396484375
 71
     1
 72
     1
  1
{カウンター切込寸法}
  7
ＭＳ ゴシック
 73
     1
 44
0.7828267384257843
1001
ACAD
1000
ACAD_MTEXT_DEFINED_HEIGHT_BEGIN
1070
    46
1040
27.413396484375
1000
ACAD_MTEXT_DEFINED_HEIGHT_END
  0
DIMENSION
  5
2973
330
A
100
AcDbEntity
  8
Dim
  6
Continuous
100
AcDbDimension
  2
*D8
 10
984.5118646249057
 20
1816.611172002452
 30
0.0
 11
962.2909731968703
 21
1991.611172002452
 31
0.0
 70
    32
  1
350
 71
     5
 42
350.0
 73
     0
 74
     0
 75
     0
  3
JIS
100
AcDbAlignedDimension
 13
725.7761196412716
 23
2166.611172002452
 33
0.0
 14
725.7761196412716
 24
1816.611172002452
 34
0.0
 50
90.0
100
AcDbRotatedDimension
1001
ACAD
1000
DSTYLE
1002
{
1070
   179
1070
     0
1070
   271
1070
     0
1070
    43
1040
25.0
1070
    44
1040
0.0
1070
    42
1040
25.0
1002
}
  0
DIMENSION
  5
298F
330
A
100
AcDbEntity
  8
Dim
  6
Continuous
100
AcDbDimension
  2
*D9
 10
1252.216517636113
 20
1846.345443857959
 30
0.0
 11
1229.995626208078
 21
1991.345443857959
 31
0.0
 70
    32
  1
290
 71
     5
 42
289.9999999999998
 73
     0
 74
     0
 75
     0
  3
JIS
100
AcDbAlignedDimension
 13
1438.301416387437
 23
2136.345443857959
 33
0.0
 14
1438.301416387437
 24
1846.345443857959
 34
0.0
 50
90.0
100
AcDbRotatedDimension
1001
ACAD
1000
DSTYLE
1002
{
1070
   179
1070
     0
1070
   271
1070
     0
1070
    43
1040
25.0
1070
    44
1040
0.0
1070
    42
1040
25.0
1002
}
  0
DIMENSION
  5
299F
330
A
100
AcDbEntity
  8
Dim
  6
Continuous
100
AcDbDimension
  2
*D10
 10
1809.327323062558
 20
1719.587680951484
 30
0.0
 11
1564.327323062558
 21
1741.803989545234
 31
0.0
 70
    32
  1
490
 71
     5
 42
490.0
 73
     0
 74
     0
 75
     0
  3
JIS
100
AcDbAlignedDimension
 13
1319.327323062558
 23
1956.10870916507
 33
0.0
 14
1809.327323062558
 24
1956.10870916507
 34
0.0
100
AcDbRotatedDimension
1001
ACAD
1000
DSTYLE
1002
{
1070
   179
1070
     0
1070
   271
1070
     0
1070
    43
1040
25.0
1070
    44
1040
0.0
1070
    42
1040
25.0
1002
}
  0
DIMENSION
  5
29B5
330
A
100
AcDbEntity
  8
Dim
  6
Continuous
100
AcDbDimension
  2
*D11
 10
607.7983838374666
 20
1265.019783809529
 30
0.0
 11
470.2983838374666
 21
1287.240675237565
 31
0.0
 70
    32
 71
     5
 42
275.0
 73
     0
 74
     0
 75
     0
  3
JIS
100
AcDbAlignedDimension
 13
332.7983838374666
 23
1161.765648070933
 33
0.0
 14
607.7983838374666
 24
1161.765648070933
 34
0.0
100
AcDbRotatedDimension
1001
ACAD
1000
DSTYLE
1002
{
1070
   179
1070
     0
1070
   271
1070
     0
1070
    43
1040
25.0
1070
    44
1040
0.0
1070
    42
1040
25.0
1002
}
  0
DIMENSION
  5
29C5
330
A
100
AcDbEntity
  8
Dim
  6
Continuous
100
AcDbDimension
  2
*D12
 10
966.1427342167308
 20
1016.042529246948
 30
0.0
 11
943.9218427886954
 21
1091.042529246948
 31
0.0
 70
    32
 71
     5
 42
149.9999999999999
 73
     0
 74
     0
 75
     0
  3
JIS
100
AcDbAlignedDimension
 13
877.3057001971015
 23
1166.042529246948
 33
0.0
 14
820.5401665136878
 24
1016.042529246948
 34
0.0
 50
90.0
100
AcDbRotatedDimension
1001
ACAD
1000
DSTYLE
1002
{
1070
   179
1070
     0
1070
   271
1070
     0
1070
    43
1040
25.0
1070
    44
1040
0.0
1070
    42
1040
25.0
1002
}
  0
DIMENSION
  5
29D5
330
A
100
AcDbEntity
  8
Dim
  6
Continuous
100
AcDbDimension
  2
*D13
 10
815.898405567692
 20
918.6208784082346
 30
0.0
 11
608.398405567692
 21
940.8417698362701
 31
0.0
 70
    32
  1
415
 71
     5
 42
414.9999999999999
 73
     0
 74
     0
 75
     0
  3
JIS
100
AcDbAlignedDimension
 13
400.898405567692
 23
1029.669304523475
 33
0.0
 14
815.898405567692
 24
1029.669304523475
 34
0.0
100
AcDbRotatedDimension
1001
ACAD
1000
DSTYLE
1002
{
1070
   179
1070
     0
1070
   271
1070
     0
1070
    43
1040
25.0
1070
    44
1040
0.0
1070
    42
1040
25.0
1002
}
  0
DIMENSION
  5
29E5
330
A
100
AcDbEntity
  8
Dim
  6
Continuous
100
AcDbDimension
  2
*D14
 10
1253.10181338157
 20
1091.040829037698
 30
0.0
 11
1230.880921953535
 21
1128.540829037698
 31
0.0
 70
    32
 71
     5
 42
75.0
 73
     0
 74
     0
 75
     0
  3
JIS
100
AcDbAlignedDimension
 13
1324.671531786325
 23
1166.040829037698
 33
0.0
 14
1324.671531786325
 24
1091.040829037698
 34
0.0
 50
90.0
100
AcDbRotatedDimension
1001
ACAD
1000
DSTYLE
1002
{
1070
   179
1070
     0
1070
   271
1070
     0
1070
    43
1040
25.0
1070
    44
1040
0.0
1070
    42
1040
25.0
1002
}
  0
DIMENSION
  5
29F8
330
A
100
AcDbEntity
  8
Dim
  6
Continuous
100
AcDbDimension
  2
*D15
 10
1597.404520328992
 20
918.6208784082352
 30
0.0
 11
1489.904520328992
 21
940.8417698362707
 31
0.0
 70
    32
  1
215
 71
     5
 42
215.0
 73
     0
 74
     0
 75
     0
  3
JIS
100
AcDbAlignedDimension
 13
1382.404520328992
 23
1015.93424879233
 33
0.0
 14
1597.404520328992
 24
1015.93424879233
 34
0.0
100
AcDbRotatedDimension
1001
ACAD
1000
DSTYLE
1002
{
1070
   179
1070
     0
1070
   271
1070
     0
1070
    43
1040
25.0
1070
    44
1040
0.0
1070
    42
1040
25.0
1002
}
  0
DIMENSION
  5
2A28
330
A
100
AcDbEntity
  8
Dim
  6
Continuous
100
AcDbDimension
  2
*D17
 10
1490.92388535431
 20
1041.10741408879
 30
0.0
 11
1490.92388535431
 21
1260.264561510669
 31
0.0
 70
   160
 71
     5
 42
124.9443576647816
 73
     0
 74
     1
 75
     1
  3
JIS
100
AcDbAlignedDimension
 13
1482.790523203143
 23
1166.051771753572
 33
0.0
 14
1490.92388535431
 24
1041.10741408879
 34
0.0
 50
90.0
100
AcDbRotatedDimension
1001
ACAD
1000
DSTYLE
1002
{
1070
     3
1000
<>(深さ)
1070
   172
1070
     1
1070
   179
1070
     0
1070
   271
1070
     0
1070
    43
1040
25.0
1070
    44
1040
0.0
1070
    42
1040
25.0
1002
}
  0
SPLINE
  5
2AD5
330
A
100
AcDbEntity
  8
MODEL
100
AcDbSpline
210
0.0
220
0.0
230
1.0
 70
  1064
 71
     3
 72
    33
 73
    29
 74
    27
 42
0.000000001
 43
0.0000000001
 44
0.0000000001
 12
-1.630649022334774E-6
 22
0.9999999999986706
 32
0.0
 13
1.0
 23
0.0
 33
0.0
 40
0.0
 40
0.0
 40
0.0
 40
0.0
 40
10.69973213802046
 40
21.39543574899776
 40
32.08502641202688
 40
42.77122240762392
 40
53.4580141354251
 40
64.1497597992354
 40
74.85063976723511
 40
85.5626501037315
 40
96.28467506760047
 40
107.0140875406002
 40
117.7462109442485
 40
128.4749291847507
 40
139.1941324130188
 40
149.8977950538347
 40
160.580760827846
 40
171.239645545783
 40
181.8785211046118
 40
192.5067466591314
 40
203.1427710669471
 40
213.8206859010294
 40
224.5853309017491
 40
235.484040163842
 40
246.5650867183501
 40
257.8606687413756
 40
304.3392937770751
 40
351.0360334115907
 40
351.0360334115907
 40
351.0360334115907
 40
351.0360334115907
 10
347.8263769458691
 20
1991.127606221734
 30
0.0
 10
347.8263711300332
 20
1994.694183601069
 30
0.0
 10
348.065303047901
 20
2001.828313171373
 30
0.0
 10
349.140458004335
 20
2012.476870966916
 30
0.0
 10
350.9309403646924
 20
2023.024761131919
 30
0.0
 10
353.4322570242488
 20
2033.423916100288
 30
0.0
 10
356.6352473431227
 20
2043.62958936478
 30
0.0
 10
360.5242255760077
 20
2053.599211851708
 30
0.0
 10
365.0786562180062
 20
2063.292083035709
 30
0.0
 10
370.2731486845641
 20
2072.668885900311
 30
0.0
 10
376.0787536363613
 20
2081.691229034479
 30
0.0
 10
382.464271129467
 20
2090.321081210232
 30
0.0
 10
389.3974688389668
 20
2098.52028752957
 30
0.0
 10
396.8455684014466
 20
2106.250094796173
 30
0.0
 10
404.7754816688209
 20
2113.470903137827
 30
0.0
 10
413.1538541157888
 20
2120.142087104681
 30
0.0
 10
421.9462556509093
 20
2126.22253790493
 30
0.0
 10
431.118276853947
 20
2131.672261257021
 30
0.0
 10
440.6360235465775
 20
2136.45311974071
 30
0.0
 10
450.4649176560241
 20
2140.536997179104
 30
0.0
 10
460.5741078165026
 20
2143.908251911891
 30
0.0
 10
470.9396247294769
 20
2146.568153605164
 30
0.0
 10
481.5437949003084
 20
2148.549336977783
 30
0.0
 10
492.3780736476991
 20
2149.915390414439
 30
0.0
 10
503.4400876178604
 20
2150.772247962593
 30
0.0
 10
526.3749997409461
 20
2151.712980437031
 30
0.0
 10
561.2042498241921
 20
2151.910411322051
 30
0.0
 10
592.2604196595174
 20
2152.127976682558
 30
0.0
 10
607.8259995376893
 20
2152.127976682558
 30
0.0
 11
347.8263769458691
 21
1991.127606221734
 31
0.0
 11
348.1848979464935
 21
2001.821330106214
 31
0.0
 11
349.2600519002909
 21
2012.462858178324
 31
0.0
 11
351.0497269196484
 21
2023.001568339829
 31
0.0
 11
353.5491024728415
 21
2033.391366542894
 31
0.0
 11
356.7487451971913
 21
2043.587924975518
 31
0.0
 11
360.6333692304773
 21
2053.549005311487
 31
0.0
 11
365.1828768502028
 21
2063.2346035123
 31
0.0
 11
370.3724798868329
 21
2072.605579223047
 31
0.0
 11
376.1733819356356
 21
2081.622860118418
 31
0.0
 11
382.5547747507944
 21
2090.248294470055
 31
0.0
 11
389.4844431094938
 21
2098.443303267462
 31
0.0
 11
396.929294496805
 21
2106.168559438291
 31
0.0
 11
404.8561178088061
 21
2113.384291558404
 31
0.0
 11
413.2310993138154
 21
2120.049730682659
 31
0.0
 11
422.0193114773617
 21
2126.123698471279
 31
0.0
 11
431.1844052146549
 21
2131.565470261505
 31
0.0
 11
440.692241244151
 21
2136.339014771873
 31
0.0
 11
450.5071295382789
 21
2140.416654556299
 31
0.0
 11
460.5961172354666
 21
2143.78375159227
 31
0.0
 11
470.9368820344291
 21
2146.445790017322
 31
0.0
 11
481.5158346705578
 21
2148.43660470334
 31
0.0
 11
492.3261981426808
 21
2149.821489240122
 31
0.0
 11
503.3723342819285
 21
2150.700391473811
 31
0.0
 11
514.6565815125939
 21
2151.206294306494
 31
0.0
 11
561.1297216178504
 21
2151.92032089308
 31
0.0
 11
607.8259995376893
 21
2152.127976682558
 31
0.0
  0
SPLINE
  5
2AD6
330
A
100
AcDbEntity
  8
MODEL
100
AcDbSpline
210
0.0
220
0.0
230
1.0
 70
  1064
 71
     3
 72
    33
 73
    29
 74
    27
 42
0.000000001
 43
0.0000000001
 44
0.0000000001
 12
1.630648951277320E-6
 22
0.9999999999986706
 32
0.0
 13
-1.0
 23
0.0
 33
0.0
 40
0.0
 40
0.0
 40
0.0
 40
0.0
 40
10.6997321380144
 40
21.39543574900276
 40
32.08502641202953
 40
42.77122240762431
 40
53.45801413542554
 40
64.14975979923587
 40
74.85063976723468
 40
85.56265010372935
 40
96.28467506759958
 40
107.0140875406042
 40
117.746210944253
 40
128.4749291847566
 40
139.1941324130225
 40
149.8977950538348
 40
160.580760827845
 40
171.239645545782
 40
181.8785211046107
 40
192.5067466591301
 40
203.142771066948
 40
213.8206859010356
 40
224.5853309017502
 40
235.4840401638453
 40
246.5650867183533
 40
257.8606687413744
 40
304.3392937770739
 40
351.0360334115968
 40
351.0360334115968
 40
351.0360334115968
 40
351.0360334115968
 10
867.8256221295168
 20
1991.127606221733
 30
0.0
 10
867.8256279453524
 20
1994.694183601066
 30
0.0
 10
867.5866960274815
 20
2001.828313171372
 30
0.0
 10
866.5115410710462
 20
2012.476870966914
 30
0.0
 10
864.7210587106933
 20
2023.024761131922
 30
0.0
 10
862.2197420511368
 20
2033.423916100288
 30
0.0
 10
859.0167517322633
 20
2043.629589364781
 30
0.0
 10
855.127773499378
 20
2053.599211851707
 30
0.0
 10
850.5733428573795
 20
2063.292083035708
 30
0.0
 10
845.3788503908221
 20
2072.66888590031
 30
0.0
 10
839.5732454390209
 20
2081.691229034476
 30
0.0
 10
833.1877279459134
 20
2090.321081210231
 30
0.0
 10
826.254530236411
 20
2098.520287529569
 30
0.0
 10
818.8064306739323
 20
2106.250094796174
 30
0.0
 10
810.8765174065611
 20
2113.470903137829
 30
0.0
 10
802.498144959596
 20
2120.142087104683
 30
0.0
 10
793.7057434244764
 20
2126.222537904929
 30
0.0
 10
784.5337222214387
 20
2131.672261257022
 30
0.0
 10
775.0159755288087
 20
2136.45311974071
 30
0.0
 10
765.1870814193616
 20
2140.536997179105
 30
0.0
 10
755.0778912588801
 20
2143.908251911891
 30
0.0
 10
744.7123743459051
 20
2146.568153605163
 30
0.0
 10
734.1082041750726
 20
2148.549336977784
 30
0.0
 10
723.2739254276833
 20
2149.915390414438
 30
0.0
 10
712.2119114575222
 20
2150.772247962593
 30
0.0
 10
689.2769993344389
 20
2151.712980437031
 30
0.0
 10
654.4477492511912
 20
2151.910411322051
 30
0.0
 10
623.3915794158636
 20
2152.127976682558
 30
0.0
 10
607.8259995376893
 20
2152.127976682558
 30
0.0
 11
867.8256221295168
 21
1991.127606221733
 31
0.0
 11
867.4671011288899
 21
2001.821330106207
 31
0.0
 11
866.3919471750906
 21
2012.462858178328
 31
0.0
 11
864.6022721557365
 21
2023.001568339831
 31
0.0
 11
862.1028966025444
 21
2033.391366542894
 31
0.0
 11
858.9032538781945
 21
2043.587924975518
 31
0.0
 11
855.0186298449084
 21
2053.549005311487
 31
0.0
 11
850.4691222251831
 21
2063.234603512299
 31
0.0
 11
845.2795191885533
 21
2072.605579223044
 31
0.0
 11
839.4786171397476
 21
2081.622860118415
 31
0.0
 11
833.0972243245849
 21
2090.248294470055
 31
0.0
 11
826.1675559658846
 21
2098.443303267462
 31
0.0
 11
818.7227045785733
 21
2106.168559438293
 31
0.0
 11
810.7958812665752
 21
2113.384291558406
 31
0.0
 11
802.4208997615698
 21
2120.04973068266
 31
0.0
 11
793.6326875980242
 21
2126.123698471279
 31
0.0
 11
784.467593860731
 21
2131.565470261505
 31
0.0
 11
774.959757831235
 21
2136.339014771873
 31
0.0
 11
765.1448695371073
 21
2140.416654556299
 31
0.0
 11
755.0558818399173
 21
2143.78375159227
 31
0.0
 11
744.7151170409493
 21
2146.445790017322
 31
0.0
 11
734.1361644048258
 21
2148.43660470334
 31
0.0
 11
723.3258009327005
 21
2149.821489240122
 31
0.0
 11
712.279664793453
 21
2150.700391473811
 31
0.0
 11
700.995417562792
 21
2151.206294306494
 31
0.0
 11
654.5222774575356
 21
2151.92032089308
 31
0.0
 11
607.8259995376893
 21
2152.127976682558
 31
0.0
  0
SPLINE
  5
2AD7
330
A
100
AcDbEntity
  8
MODEL
100
AcDbSpline
210
0.0
220
0.0
230
1.0
 70
  1064
 71
     3
 72
    33
 73
    29
 74
    27
 42
0.000000001
 43
0.0000000001
 44
0.0000000001
 12
-1.630649642871880E-6
 22
-0.9999999999986706
 32
0.0
 13
-1.0
 23
0.0
 33
0.0
 40
0.0
 40
0.0
 40
0.0
 40
0.0
 40
10.69976876237316
 40
21.39551184301108
 40
32.08508622801772
 40
42.77126944497219
 40
53.45807236728644
 40
64.14985008884553
 40
74.85076011945215
 40
85.56278383865929
 40
96.28479693351478
 40
107.0141682603937
 40
117.7462300427696
 40
128.4749274875509
 40
139.1941484038089
 40
149.897839382691
 40
160.580817197888
 40
171.2397267027203
 40
181.8786424357565
 40
192.5069113858419
 40
203.1429564864041
 40
213.8207962622846
 40
224.5852840435426
 40
235.4838883227552
 40
246.5650878596681
 40
257.8611946986159
 40
304.3390569195233
 40
353.7280481193976
 40
353.7280481193976
 40
353.7280481193976
 40
353.7280481193976
 10
867.8256221295168
 20
1991.127606221733
 30
0.0
 10
867.8256163136588
 20
1987.56101663428
 30
0.0
 10
867.5866654677692
 20
1980.426862844051
 30
0.0
 10
866.5115196643367
 20
1969.778284704554
 30
0.0
 10
864.7210548896011
 20
1959.230387683666
 30
0.0
 10
862.2197325993386
 20
1948.831239754346
 30
0.0
 10
859.0167310714846
 20
1938.625559617039
 30
0.0
 10
855.1277525055898
 20
1928.655911558282
 30
0.0
 10
850.573341407773
 20
1918.963003910713
 30
0.0
 10
845.3788873397825
 20
1909.586167968951
 30
0.0
 10
839.573331869462
 20
1900.563808491243
 30
0.0
 10
833.187861135261
 20
1891.933968395718
 30
0.0
 10
826.2546789434772
 20
1883.734801481696
 30
0.0
 10
818.8065533666504
 20
1876.005048663174
 30
0.0
 10
810.8766001804186
 20
1868.78427230973
 30
0.0
 10
802.4981944457969
 20
1862.113099723969
 30
0.0
 10
793.7057658174424
 20
1856.032650110587
 30
0.0
 10
784.5337168458244
 20
1850.582923813423
 30
0.0
 10
775.0159444735054
 20
1845.802037503897
 30
0.0
 10
765.1870359194403
 20
1841.718106252152
 30
0.0
 10
755.07787302865
 20
1838.346782620767
 30
0.0
 10
744.7124406049925
 20
1835.686832243048
 30
0.0
 10
734.1083724849505
 20
1833.705694566333
 30
0.0
 10
723.2741045552491
 20
1832.339843713021
 30
0.0
 10
712.2118922552329
 20
1831.483076163619
 30
0.0
 10
689.2770167443641
 20
1830.542454210087
 30
0.0
 10
653.550358153356
 20
1830.333460664382
 30
0.0
 10
621.5970674226938
 20
1830.127847574518
 30
0.0
 10
605.1340703560691
 20
1830.127847574518
 30
0.0
 11
867.8256221295168
 21
1991.127606221733
 31
0.0
 11
867.4670765863206
 21
1980.43384651517
 31
0.0
 11
866.3919243207273
 21
1969.792278601897
 31
0.0
 11
864.6022645327598
 21
1959.253582364889
 31
0.0
 11
862.1028891020106
 21
1948.863797275558
 31
0.0
 11
858.9032380795109
 21
1938.667229714138
 31
0.0
 11
855.0186118765588
 21
1928.706115815052
 31
0.0
 11
850.4691202188866
 21
1919.020476902729
 31
0.0
 11
845.279551595033
 21
1909.649466836617
 31
0.0
 11
839.4786951972064
 21
1900.632170686548
 31
0.0
 11
833.0973478604693
 21
1892.00675387123
 31
0.0
 11
826.1677091367554
 21
1883.811800713369
 31
0.0
 11
818.7228376829976
 21
1876.086592761561
 31
0.0
 11
810.7959691541153
 21
1868.87088403841
 31
0.0
 11
802.4209462240555
 21
1862.205451457371
 31
0.0
 11
793.6327140329821
 21
1856.131491467729
 31
0.0
 11
784.4675948528302
 21
1850.689713978175
 31
0.0
 11
774.9597293910965
 21
1845.916138553379
 31
0.0
 11
765.144817822932
 21
1841.838441680822
 31
0.0
 11
755.0558317605697
 21
1838.471274382535
 31
0.0
 11
744.7151527146024
 21
1835.809203919969
 31
0.0
 11
734.1363474260872
 21
1833.818456356731
 31
0.0
 11
723.3260686321174
 21
1832.433737023611
 31
0.0
 11
712.2797712280372
 21
1831.554932814762
 31
0.0
 11
700.9950030280269
 21
1831.048932430416
 31
0.0
 11
654.5226281530017
 21
1830.334754510863
 31
0.0
 11
605.1340703560691
 21
1830.127847574518
 31
0.0
  0
SPLINE
  5
2AD8
330
A
100
AcDbEntity
  8
MODEL
100
AcDbSpline
210
0.0
220
0.0
230
1.0
 70
  1064
 71
     3
 72
    33
 73
    29
 74
    27
 42
0.000000001
 43
0.0000000001
 44
0.0000000001
 12
1.630649614448898E-6
 22
-0.9999999999986706
 32
0.0
 13
1.0
 23
0.0
 33
0.0
 40
0.0
 40
0.0
 40
0.0
 40
0.0
 40
10.69976876237899
 40
21.39551184300563
 40
32.08508622801509
 40
42.77126944497158
 40
53.45807236728599
 40
64.14985008884489
 40
74.85076011945156
 40
85.56278383866058
 40
96.28479693351626
 40
107.0141682603895
 40
117.7462300427634
 40
128.4749274875477
 40
139.19414840381
 40
149.8978393826916
 40
160.5808171978832
 40
171.239726702719
 40
181.8786424357547
 40
192.5069113858362
 40
203.1429564864002
 40
213.8207962622822
 40
224.5852840435424
 40
235.4838883227565
 40
246.5650878596694
 40
257.8611946986172
 40
304.3390569195218
 40
351.0361467962795
 40
351.0361467962795
 40
351.0361467962795
 40
351.0361467962795
 10
347.8263769458691
 20
1991.127606221734
 30
0.0
 10
347.826382761727
 20
1987.561016634279
 30
0.0
 10
348.0653336076132
 20
1980.426862844051
 30
0.0
 10
349.1404794110446
 20
1969.778284704555
 30
0.0
 10
350.9309441857842
 20
1959.23038768367
 30
0.0
 10
353.4322664760477
 20
1948.831239754348
 30
0.0
 10
356.6352680039008
 20
1938.625559617041
 30
0.0
 10
360.5242465697966
 20
1928.655911558283
 30
0.0
 10
365.0786576676133
 20
1918.963003910714
 30
0.0
 10
370.2731117356043
 20
1909.586167968953
 30
0.0
 10
376.0786672059193
 20
1900.563808491243
 30
0.0
 10
382.4641379401189
 20
1891.933968395718
 30
0.0
 10
389.3973201319022
 20
1883.734801481703
 30
0.0
 10
396.8454457087332
 20
1876.005048663161
 30
0.0
 10
404.7753988949677
 20
1868.7842723098
 30
0.0
 10
413.1538046295829
 20
1862.113099723718
 30
0.0
 10
421.946233257952
 20
1856.032650111526
 30
0.0
 10
431.1182822295146
 20
1850.582923809938
 30
0.0
 10
440.6360546020388
 20
1845.802037516881
 30
0.0
 10
450.4649631553331
 20
1841.718106203732
 30
0.0
 10
460.5741260490018
 20
1838.346782801935
 30
0.0
 10
470.9395584618471
 20
1835.686831561658
 30
0.0
 10
481.54362662277
 20
1833.705697145485
 30
0.0
 10
492.3778943969467
 20
1832.339833887466
 30
0.0
 10
503.4401072921262
 20
1831.48311380794
 30
0.0
 10
526.3749781604797
 20
1830.542121570025
 30
0.0
 10
561.2042718595087
 20
1830.344601023922
 30
0.0
 10
592.2603029121034
 20
1830.127199886727
 30
0.0
 10
607.8259995376893
 20
1830.127199886727
 30
0.0
 11
347.8263769458691
 21
1991.127606221734
 31
0.0
 11
348.1849224890628
 21
1980.433846515165
 31
0.0
 11
349.2600747546542
 21
1969.792278601903
 31
0.0
 11
351.0497345426251
 21
1959.253582364893
 31
0.0
 11
353.5491099733754
 21
1948.86379727556
 31
0.0
 11
356.748760995875
 21
1938.66722971414
 31
0.0
 11
360.6333871988271
 21
1928.706115815054
 31
0.0
 11
365.1828788564994
 21
1919.020476902731
 31
0.0
 11
370.3724474803532
 21
1909.649466836617
 31
0.0
 11
376.1733038781769
 21
1900.632170686546
 31
0.0
 11
382.5546512149097
 21
1892.006753871232
 31
0.0
 11
389.4842899386231
 21
1883.811800713373
 31
0.0
 11
396.9291613923854
 21
1876.086592761565
 31
0.0
 11
404.8560299212709
 21
1868.870884038411
 31
0.0
 11
413.2310528513291
 21
1862.205451457371
 31
0.0
 11
422.0192850423981
 21
1856.131491467732
 31
0.0
 11
431.1844042225533
 21
1850.689713978177
 31
0.0
 11
440.6922696842861
 21
1845.91613855338
 31
0.0
 11
450.5071812524467
 21
1841.838441680824
 31
0.0
 11
460.5961673148109
 21
1838.471274382537
 31
0.0
 11
470.9368463607798
 21
1835.809203919971
 31
0.0
 11
481.5156516492971
 21
1833.818456356733
 31
0.0
 11
492.3259304432685
 21
1832.433737023613
 31
0.0
 11
503.3722278473487
 21
1831.554932814764
 31
0.0
 11
514.656996047359
 21
1831.048932430418
 31
0.0
 11
561.1293709223814
 21
1830.334754510865
 31
0.0
 11
607.8259995376893
 21
1830.127199886727
 31
0.0
  0
DIMENSION
  5
2ADE
330
A
100
AcDbEntity
  8
Dim
  6
Continuous
100
AcDbDimension
  2
*D19
 10
867.8256221295168
 20
1658.141922045953
 30
0.0
 11
607.825999537693
 21
1680.362813473988
 31
0.0
 70
    32
 71
     5
 42
519.9992451836476
 73
     0
 74
     0
 75
     0
  3
JIS
100
AcDbAlignedDimension
 13
347.8263769458691
 23
1963.263078726997
 33
0.0
 14
867.8256221295168
 24
1963.263078726996
 34
0.0
100
AcDbRotatedDimension
1001
ACAD
1000
DSTYLE
1002
{
1070
   179
1070
     0
1070
   271
1070
     0
1070
    43
1040
25.0
1070
    44
1040
0.0
1070
    42
1040
25.0
1002
}
  0
DIMENSION
  5
2AED
330
A
100
AcDbEntity
  8
Dim
  6
Continuous
100
AcDbDimension
  2
*D20
 10
220.6893245570237
 20
1830.399619532595
 30
0.0
 11
198.4684331289883
 21
1991.134214384052
 31
0.0
 70
    32
  1
320
 71
     5
 42
321.4691897029134
 73
     0
 74
     0
 75
     0
  3
JIS
100
AcDbAlignedDimension
 13
461.0601651652864
 23
2151.868809235509
 33
0.0
 14
461.0601651652863
 24
1830.399619532595
 34
0.0
 50
90.0
100
AcDbRotatedDimension
1001
ACAD
1000
DSTYLE
1002
{
1070
   179
1070
     0
1070
   271
1070
     0
1070
    43
1040
25.0
1070
    44
1040
0.0
1070
    42
1040
25.0
1002
}
  0
DIMENSION
  5
2B10
330
A
100
AcDbEntity
  8
Dim
  6
Continuous
100
AcDbDimension
  2
*D21
 10
1666.162526112305
 20
854.2114276607999
 30
0.0
 11
1578.033523220648
 21
876.4323190888355
 31
0.0
 70
    32
  1
175
 71
     5
 42
176.2580057833127
 73
     0
 74
     0
 75
     0
  3
JIS
100
AcDbAlignedDimension
 13
1489.904520328992
 23
924.9501747941051
 33
0.0
 14
1666.162526112305
 24
1141.327518966568
 34
0.0
100
AcDbRotatedDimension
1001
ACAD
1000
DSTYLE
1002
{
1070
   179
1070
     0
1070
   271
1070
     0
1070
    43
1040
25.0
1070
    44
1040
0.0
1070
    42
1040
25.0
1002
}
  0
DIMENSION
  5
2B2B
102
{ACAD_REACTORS
330
2B2D
102
}
102
{ACAD_XDICTIONARY
360
2B2C
102
}
330
A
100
AcDbEntity
  8
Dim
  6
Continuous
100
AcDbDimension
  2
*D22
 10
1770.05919618237
 20
1166.045744383329
 30
0.0
 11
1770.05919618237
 21
1092.560827292366
 31
0.0
 70
   160
  1
145
 71
     5
 42
146.9698341819259
 73
     0
 74
     0
 75
     0
  3
JIS
100
AcDbAlignedDimension
 13
1512.073638729338
 23
1019.075910201403
 33
0.0
 14
1657.127922449623
 24
1166.045744383329
 34
0.0
 50
90.0
100
AcDbRotatedDimension
1001
ACAD
1000
DSTYLE
1002
{
1070
   179
1070
     0
1070
   271
1070
     0
1070
    43
1040
25.0
1070
    44
1040
0.0
1070
    42
1040
25.0
1002
}
  0
VIEWPORT
  5
349
330
B
100
AcDbEntity
 67
     1
  8
0
100
AcDbViewport
 10
202.5
 20
128.5
 30
0.0
 40
486.0
 41
308.4
 68
     1
 69
     1
 12
202.5
 22
128.5
 13
0.0
 23
0.0
 14
0.5
 24
0.5
 15
0.0
 25
0.0
 16
0.0
 26
0.0
 36
1.0
 17
0.0
 27
0.0
 37
0.0
 42
50.0
 43
0.0
 44
0.0
 45
308.4
 50
0.0
 51
0.0
 72
   100
 90
   557152
  1

281
     0
 71
     1
 74
     0
110
0.0
120
0.0
130
0.0
111
1.0
121
0.0
131
0.0
112
0.0
122
1.0
132
0.0
 79
     0
146
0.0
170
     0
 61
     5
348
26C
292
     1
282
     1
141
0.0
142
0.0
 63
   256
  0
VIEWPORT
  5
34A
330
B
100
AcDbEntity
 67
     1
  8
0
100
AcDbViewport
 10
202.5
 20
128.5
 30
0.0
 40
324.0
 41
205.6
 68
     2
 69
     2
 12
986.6781359294573
 22
1427.077061889956
 13
0.0
 23
0.0
 14
0.5
 24
0.5
 15
0.0
 25
0.0
 16
0.0
 26
0.0
 36
1.0
 17
0.0
 27
0.0
 37
0.0
 42
50.0
 43
0.0
 44
0.0
 45
2890.021615685494
 50
0.0
 51
0.0
 72
   100
 90
   557152
  1

281
     0
 71
     1
 74
     0
110
0.0
120
0.0
130
0.0
111
1.0
121
0.0
131
0.0
112
0.0
122
1.0
132
0.0
 79
     0
146
0.0
170
     0
 61
     5
348
26C
292
     1
282
     1
141
0.0
142
0.0
 63
   256
  0
ENDSEC
  0
SECTION
  2
OBJECTS
  0
DICTIONARY
  5
19
330
0
100
AcDbDictionary
281
     1
  3
ACAD_COLOR
350
38F
  3
ACAD_DETAILVIEWSTYLE
350
8CF
  3
ACAD_FIELDLIST
350
BA6
  3
ACAD_GROUP
350
1A
  3
ACAD_IMAGE_VARS
350
27B
  3
ACAD_LAYOUT
350
1E
  3
ACAD_MATERIAL
350
263
  3
ACAD_MLEADERSTYLE
350
336
  3
ACAD_MLINESTYLE
350
1B
  3
ACAD_PLOTSETTINGS
350
22
  3
ACAD_PLOTSTYLENAME
350
1F
  3
ACAD_SCALELIST
350
241
  3
ACAD_SECTIONVIEWSTYLE
350
8D0
  3
ACAD_TABLESTYLE
350
278
  3
ACAD_VISUALSTYLE
350
267
  3
ACDB_RECOMPOSE_DATA
350
2B42
  3
AcDbVariableDictionary
350
330
  3
APPDATA
350
27A
  3
DimOffsetDictionary
350
C08
  0
SUN
  5
8C2
330
15
100
AcDbSun
 90
        1
290
     0
 63
     7
421
 16777215
 40
1.0
291
     1
 91
  2455826
 92
 54000000
292
     0
 70
     2
 71
   256
280
     1
  0
DICTIONARY
  5
2E1
330
2
100
AcDbDictionary
280
     1
281
     1
  3
ACAD_LAYERSTATES
360
2E2
  3
ACLYDICTIONARY
360
BFE
  0
DICTIONARY
  5
295A
330
A
100
AcDbDictionary
280
     1
281
     1
  3
ACAD_SORTENTS
360
295B
  0
DICTIONARY
  5
BDC
330
BDB
100
AcDbDictionary
280
     1
281
     1
  3
ACAD_FIELD
360
2A7D
  0
DICTIONARY
  5
2B2C
330
2B2B
100
AcDbDictionary
280
     1
281
     1
  3
ACAD_DIMASSOC
360
2B2D
  0
DICTIONARY
  5
38F
102
{ACAD_REACTORS
330
19
102
}
330
19
100
AcDbDictionary
281
     1
  0
DICTIONARY
  5
8CF
102
{ACAD_REACTORS
330
19
102
}
330
19
100
AcDbDictionary
281
     1
  0
FIELDLIST
  5
BA6
102
{ACAD_REACTORS
330
19
102
}
330
19
100
AcDbIdSet
 90
        2
330
BDF
330
BDE
100
AcDbFieldList
  0
DICTIONARY
  5
1A
102
{ACAD_REACTORS
330
19
102
}
330
19
100
AcDbDictionary
281
     1
  3
*A1
350
28CF
  3
*A2
350
28F0
  0
RASTERVARIABLES
  5
27B
102
{ACAD_REACTORS
330
19
102
}
330
19
100
AcDbRasterVariables
 90
        0
 70
     1
 71
     1
 72
     1
  0
DICTIONARY
  5
1E
102
{ACAD_REACTORS
330
19
102
}
330
19
100
AcDbDictionary
281
     1
  3
Layout1
350
21
  3
Model
350
20
  0
DICTIONARY
  5
263
102
{ACAD_REACTORS
330
19
102
}
330
19
100
AcDbDictionary
281
     1
  3
ByBlock
350
265
  3
ByLayer
350
264
  3
Global
350
266
  0
DICTIONARY
  5
336
102
{ACAD_REACTORS
330
19
102
}
330
19
100
AcDbDictionary
281
     1
  3
Standard
350
8D1
  0
DICTIONARY
  5
1B
102
{ACAD_REACTORS
330
19
102
}
330
19
100
AcDbDictionary
281
     1
  3
Standard
350
1C
  0
DICTIONARY
  5
22
102
{ACAD_REACTORS
330
19
102
}
330
19
100
AcDbDictionary
281
     1
  0
ACDBDICTIONARYWDFLT
  5
1F
102
{ACAD_REACTORS
330
19
102
}
330
19
100
AcDbDictionary
281
     1
  3
Normal
350
1D
100
AcDbDictionaryWithDefault
340
1D
  0
DICTIONARY
  5
241
102
{ACAD_REACTORS
330
19
102
}
330
19
100
AcDbDictionary
281
     1
  3
A0
350
242
  3
A1
350
243
  3
A2
350
244
  3
A3
350
245
  3
A4
350
246
  3
A5
350
247
  3
A6
350
248
  3
A7
350
249
  3
A8
350
24A
  3
A9
350
24B
  3
B0
350
24C
  3
B1
350
24D
  3
B2
350
24E
  3
B3
350
24F
  3
B4
350
250
  3
B5
350
251
  3
B6
350
252
  3
B7
350
253
  3
B8
350
254
  3
B9
350
255
  3
C0
350
256
  3
C1
350
257
  3
C2
350
258
  3
C3
350
259
  3
C4
350
25A
  3
C5
350
25B
  3
C6
350
25C
  3
C7
350
25D
  3
C8
350
25E
  3
C9
350
25F
  3
D0
350
260
  3
D1
350
261
  3
D2
350
262
  0
DICTIONARY
  5
8D0
102
{ACAD_REACTORS
330
19
102
}
330
19
100
AcDbDictionary
281
     1
  0
DICTIONARY
  5
278
102
{ACAD_REACTORS
330
19
102
}
330
19
100
AcDbDictionary
281
     1
  3
Standard
350
279
  0
DICTIONARY
  5
267
102
{ACAD_REACTORS
330
19
102
}
330
19
100
AcDbDictionary
281
     1
  3
2dWireframe
350
26C
  3
3D Hidden
350
26E
  3
3dWireframe
350
26D
  3
Basic
350
26F
  3
Brighten
350
273
  3
ColorChange
350
277
  3
Conceptual
350
271
  3
Dim
350
272
  3
EdgeColorOff
350
8BC
  3
Facepattern
350
276
  3
Flat
350
268
  3
FlatWithEdges
350
269
  3
Gouraud
350
26A
  3
GouraudWithEdges
350
26B
  3
Hidden
350
8B9
  3
JitterOff
350
8BA
  3
Linepattern
350
275
  3
OverhangOff
350
8BB
  3
Realistic
350
270
  3
Shaded
350
8C1
  3
Shaded with edges
350
8C0
  3
Shades of Gray
350
8BD
  3
Sketchy
350
8BE
  3
Thicken
350
274
  3
Wireframe
350
8B8
  3
X-Ray
350
8BF
  0
XRECORD
  5
2B42
102
{ACAD_REACTORS
330
19
102
}
330
19
100
AcDbXrecord
280
     1
 90
        1
330
279
  0
DICTIONARY
  5
330
102
{ACAD_REACTORS
330
19
102
}
330
19
100
AcDbDictionary
281
     1
  3
CANNOSCALE
350
331
  3
CMLEADERSTYLE
350
8DA
  3
CTABLESTYLE
350
335
  3
HPTRANSPARENCY
350
C07
  3
XCLIPFRAME
350
64A
  0
DICTIONARY
  5
27A
102
{ACAD_REACTORS
330
19
102
}
330
19
100
AcDbDictionary
281
     1
  0
DICTIONARY
  5
C08
102
{ACAD_REACTORS
330
19
102
}
330
19
100
AcDbDictionary
281
     1
  3
DIMRAILANGLE
350
C0B
  3
DIMRAILFIRSTOFFSET
350
C09
  3
DIMRAILOFFSET
350
C0A
  3
DIMRAILSENABLED
350
C0C
  0
DICTIONARY
  5
2E2
102
{ACAD_REACTORS
330
2E1
102
}
330
2E1
100
AcDbDictionary
281
     1
  0
DICTIONARY
  5
BFE
102
{ACAD_REACTORS
330
2E1
102
}
330
2E1
100
AcDbDictionary
281
     1
1001
ACAD
1000
<All
  0
SORTENTSTABLE
  5
295B
102
{ACAD_REACTORS
330
295A
102
}
330
295A
100
AcDbSortentsTable
330
A
331
2930
  5
2934
331
2931
  5
2936
331
2932
  5
2937
331
2933
  5
2938
331
2938
  5
2949
331
293B
  5
295D
331
293C
  5
295E
331
295F
  5
2933
  0
DICTIONARY
  5
2A7D
102
{ACAD_REACTORS
330
BDC
102
}
330
BDC
100
AcDbDictionary
280
     1
281
     1
  3
TEXT
360
BDE
  0
DIMASSOC
  5
2B2D
102
{ACAD_REACTORS
330
2B2C
102
}
330
2B2C
100
AcDbDimAssoc
330
2B2B
 90
        3
 70
     0
 71
     1
  1
AcDbOsnapPointRef
 72
     1
331
28DD
 73
     0
 91
        0
 40
0.0
 10
0.0
 20
0.0
 30
0.0
 75
     0
  1
AcDbOsnapPointRef
 72
    10
331
2735
 73
     0
 91
        0
 40
141.5915447195919
 10
0.0
 20
0.0
 30
0.0
 75
     0
  0
GROUP
  5
28CF
102
{ACAD_REACTORS
330
1A
102
}
330
1A
100
AcDbGroup
300

 70
     1
 71
     1
340
28C4
340
28C5
  0
GROUP
  5
28F0
102
{ACAD_REACTORS
330
1A
102
}
330
1A
100
AcDbGroup
300

 70
     1
 71
     1
340
272E
340
272F
340
28D9
340
28DC
340
28DB
340
28DD
340
28EE
  0
LAYOUT
  5
21
102
{ACAD_REACTORS
330
1E
102
}
330
1E
100
AcDbPlotSettings
  1

  2
none_device
  4
ISO_A3_(420.00_x_297.00_MM)
  6

 40
7.5
 41
20.0
 42
7.5
 43
20.0
 44
420.0
 45
297.0
 46
0.0
 47
0.0
 48
0.0
 49
0.0
140
0.0
141
0.0
142
1.0
143
1.0
 70
     0
 72
     1
 73
     0
 74
     0
  7

 75
     0
 76
     0
 77
     2
 78
   300
147
1.0
148
0.0
149
0.0
100
AcDbLayout
  1
Layout1
 70
     0
 71
     0
 10
0.0
 20
0.0
 11
0.0
 21
0.0
 12
0.0
 22
0.0
 32
0.0
 14
0.0
 24
0.0
 34
0.0
 15
0.0
 25
0.0
 35
0.0
146
0.0
 13
0.0
 23
0.0
 33
0.0
 16
0.0
 26
0.0
 36
0.0
 17
0.0
 27
0.0
 37
0.0
 76
     0
330
B
331
349
  0
LAYOUT
  5
20
102
{ACAD_REACTORS
330
1E
102
}
330
1E
100
AcDbPlotSettings
  1

  2
none_device
  4
ISO_A3_(420.00_x_297.00_MM)
  6

 40
7.5
 41
20.0
 42
7.5
 43
20.0
 44
420.0
 45
297.0
 46
0.0
 47
0.0
 48
0.0
 49
0.0
140
0.0
141
0.0
142
1.0
143
1.0
 70
  1024
 72
     1
 73
     0
 74
     0
  7

 75
     0
 76
     0
 77
     2
 78
   300
147
1.0
148
0.0
149
0.0
100
AcDbLayout
  1
Model
 70
     0
 71
     1
 10
0.0
 20
0.0
 11
2100.0
 21
2970.0
 12
0.0
 22
0.0
 32
0.0
 14
0.0
 24
0.0
 34
0.0
 15
2100.0
 25
2970.0
 35
34.99521132346015
146
0.0
 13
0.0
 23
0.0
 33
0.0
 16
0.0
 26
0.0
 36
0.0
 17
0.0
 27
0.0
 37
0.0
 76
     0
330
A
331
15
  0
MATERIAL
  5
265
102
{ACAD_REACTORS
330
263
102
}
330
263
100
AcDbMaterial
  1
ByBlock
 72
     1
 94
      127
  0
MATERIAL
  5
264
102
{ACAD_REACTORS
330
263
102
}
330
263
100
AcDbMaterial
  1
ByLayer
 72
     1
 94
      127
  0
MATERIAL
  5
266
102
{ACAD_REACTORS
330
263
102
}
330
263
100
AcDbMaterial
  1
Global
 72
     1
 94
      127
  0
MLEADERSTYLE
  5
8D1
102
{ACAD_REACTORS
330
336
102
}
330
336
100
AcDbMLeaderStyle
170
     2
171
     1
172
     0
 90
        2
 40
0.0
 41
0.0
173
     1
 91
-1056964608
340
11
 92
       -2
290
     1
 42
2.0
291
     1
 43
8.0
  3
Standard
341
0
 44
4.0
300

342
17
174
     1
178
     6
175
     1
176
     0
 93
-1056964608
 45
4.0
292
     0
297
     0
 46
4.0
343
0
 94
-1056964608
 47
1.0
 49
1.0
140
1.0
293
     1
141
0.0
294
     1
177
     0
142
1.0
295
     0
296
     0
143
3.75
1001
ACAD_MLEADERVER
1070
     2
  0
MLINESTYLE
  5
1C
102
{ACAD_REACTORS
330
1B
102
}
330
1B
100
AcDbMlineStyle
  2
Standard
 70
     0
  3

 62
     0
 51
90.0
 52
90.0
 71
     2
 49
0.5
 62
   256
  6
BYLAYER
 49
-0.5
 62
   256
  6
BYLAYER
  0
ACDBPLACEHOLDER
  5
1D
102
{ACAD_REACTORS
330
1F
102
}
330
1F
  0
SCALE
  5
242
102
{ACAD_REACTORS
330
241
102
}
330
241
100
AcDbScale
 70
     0
300
1:1
140
1.0
141
1.0
290
     1
  0
SCALE
  5
243
102
{ACAD_REACTORS
330
241
102
}
330
241
100
AcDbScale
 70
     0
300
1:2
140
1.0
141
2.0
290
     0
  0
SCALE
  5
244
102
{ACAD_REACTORS
330
241
102
}
330
241
100
AcDbScale
 70
     0
300
1:4
140
1.0
141
4.0
290
     0
  0
SCALE
  5
245
102
{ACAD_REACTORS
330
241
102
}
330
241
100
AcDbScale
 70
     0
300
1:5
140
1.0
141
5.0
290
     0
  0
SCALE
  5
246
102
{ACAD_REACTORS
330
241
102
}
330
241
100
AcDbScale
 70
     0
300
1:8
140
1.0
141
8.0
290
     0
  0
SCALE
  5
247
102
{ACAD_REACTORS
330
241
102
}
330
241
100
AcDbScale
 70
     0
300
1:10
140
1.0
141
10.0
290
     0
  0
SCALE
  5
248
102
{ACAD_REACTORS
330
241
102
}
330
241
100
AcDbScale
 70
     0
300
1:16
140
1.0
141
16.0
290
     0
  0
SCALE
  5
249
102
{ACAD_REACTORS
330
241
102
}
330
241
100
AcDbScale
 70
     0
300
1:20
140
1.0
141
20.0
290
     0
  0
SCALE
  5
24A
102
{ACAD_REACTORS
330
241
102
}
330
241
100
AcDbScale
 70
     0
300
1:30
140
1.0
141
30.0
290
     0
  0
SCALE
  5
24B
102
{ACAD_REACTORS
330
241
102
}
330
241
100
AcDbScale
 70
     0
300
1:40
140
1.0
141
40.0
290
     0
  0
SCALE
  5
24C
102
{ACAD_REACTORS
330
241
102
}
330
241
100
AcDbScale
 70
     0
300
1:50
140
1.0
141
50.0
290
     0
  0
SCALE
  5
24D
102
{ACAD_REACTORS
330
241
102
}
330
241
100
AcDbScale
 70
     0
300
1:100
140
1.0
141
100.0
290
     0
  0
SCALE
  5
24E
102
{ACAD_REACTORS
330
241
102
}
330
241
100
AcDbScale
 70
     0
300
2:1
140
2.0
141
1.0
290
     0
  0
SCALE
  5
24F
102
{ACAD_REACTORS
330
241
102
}
330
241
100
AcDbScale
 70
     0
300
4:1
140
4.0
141
1.0
290
     0
  0
SCALE
  5
250
102
{ACAD_REACTORS
330
241
102
}
330
241
100
AcDbScale
 70
     0
300
8:1
140
8.0
141
1.0
290
     0
  0
SCALE
  5
251
102
{ACAD_REACTORS
330
241
102
}
330
241
100
AcDbScale
 70
     0
300
10:1
140
10.0
141
1.0
290
     0
  0
SCALE
  5
252
102
{ACAD_REACTORS
330
241
102
}
330
241
100
AcDbScale
 70
     0
300
100:1
140
100.0
141
1.0
290
     0
  0
SCALE
  5
253
102
{ACAD_REACTORS
330
241
102
}
330
241
100
AcDbScale
 70
     0
300
1/128" = 1'-0"
140
0.0078125
141
12.0
290
     0
  0
SCALE
  5
254
102
{ACAD_REACTORS
330
241
102
}
330
241
100
AcDbScale
 70
     0
300
1/64" = 1'-0"
140
0.015625
141
12.0
290
     0
  0
SCALE
  5
255
102
{ACAD_REACTORS
330
241
102
}
330
241
100
AcDbScale
 70
     0
300
1/32" = 1'-0"
140
0.03125
141
12.0
290
     0
  0
SCALE
  5
256
102
{ACAD_REACTORS
330
241
102
}
330
241
100
AcDbScale
 70
     0
300
1/16" = 1'-0"
140
0.0625
141
12.0
290
     0
  0
SCALE
  5
257
102
{ACAD_REACTORS
330
241
102
}
330
241
100
AcDbScale
 70
     0
300
3/32" = 1'-0"
140
0.09375
141
12.0
290
     0
  0
SCALE
  5
258
102
{ACAD_REACTORS
330
241
102
}
330
241
100
AcDbScale
 70
     0
300
1/8" = 1'-0"
140
0.125
141
12.0
290
     0
  0
SCALE
  5
259
102
{ACAD_REACTORS
330
241
102
}
330
241
100
AcDbScale
 70
     0
300
3/16" = 1'-0"
140
0.1875
141
12.0
290
     0
  0
SCALE
  5
25A
102
{ACAD_REACTORS
330
241
102
}
330
241
100
AcDbScale
 70
     0
300
1/4" = 1'-0"
140
0.25
141
12.0
290
     0
  0
SCALE
  5
25B
102
{ACAD_REACTORS
330
241
102
}
330
241
100
AcDbScale
 70
     0
300
3/8" = 1'-0"
140
0.375
141
12.0
290
     0
  0
SCALE
  5
25C
102
{ACAD_REACTORS
330
241
102
}
330
241
100
AcDbScale
 70
     0
300
1/2" = 1'-0"
140
0.5
141
12.0
290
     0
  0
SCALE
  5
25D
102
{ACAD_REACTORS
330
241
102
}
330
241
100
AcDbScale
 70
     0
300
3/4" = 1'-0"
140
0.75
141
12.0
290
     0
  0
SCALE
  5
25E
102
{ACAD_REACTORS
330
241
102
}
330
241
100
AcDbScale
 70
     0
300
1" = 1'-0"
140
1.0
141
12.0
290
     0
  0
SCALE
  5
25F
102
{ACAD_REACTORS
330
241
102
}
330
241
100
AcDbScale
 70
     0
300
1-1/2" = 1'-0"
140
1.5
141
12.0
290
     0
  0
SCALE
  5
260
102
{ACAD_REACTORS
330
241
102
}
330
241
100
AcDbScale
 70
     0
300
3" = 1'-0"
140
3.0
141
12.0
290
     0
  0
SCALE
  5
261
102
{ACAD_REACTORS
330
241
102
}
330
241
100
AcDbScale
 70
     0
300
6" = 1'-0"
140
6.0
141
12.0
290
     0
  0
SCALE
  5
262
102
{ACAD_REACTORS
330
241
102
}
330
241
100
AcDbScale
 70
     0
300
1'-0" = 1'-0"
140
12.0
141
12.0
290
     0
  0
TABLESTYLE
  5
279
102
{ACAD_REACTORS
330
278
102
}
102
{ACAD_XDICTIONARY
360
2B40
102
}
330
278
100
AcDbTableStyle
  3
Standard
 70
     0
 71
     0
 40
0.06
 41
0.06
280
     0
281
     0
  7
Standard
140
4.5
170
     2
 62
     0
 63
   257
283
     0
 90
        4
 91
        0
  1

274
    -2
284
     1
 64
     0
275
    -2
285
     1
 65
     0
276
    -2
286
     1
 66
     0
277
    -2
287
     1
 67
     0
278
    -2
288
     1
 68
     0
279
    -2
289
     1
 69
     0
  7
Standard
140
6.0
170
     5
 62
     0
 63
   257
283
     0
 90
        4
 91
        0
  1

274
    -2
284
     1
 64
     0
275
    -2
285
     1
 65
     0
276
    -2
286
     1
 66
     0
277
    -2
287
     1
 67
     0
278
    -2
288
     1
 68
     0
279
    -2
289
     1
 69
     0
  7
Standard
140
4.5
170
     5
 62
     0
 63
   257
283
     0
 90
        4
 91
        0
  1

274
    -2
284
     1
 64
     0
275
    -2
285
     1
 65
     0
276
    -2
286
     1
 66
     0
277
    -2
287
     1
 67
     0
278
    -2
288
     1
 68
     0
279
    -2
289
     1
 69
     0
  0
VISUALSTYLE
  5
26C
102
{ACAD_REACTORS
330
267
102
}
330
267
100
AcDbVisualStyle
  2
2dWireframe
 70
     4
 71
     0
 72
     2
 73
     0
 90
        0
 40
-0.6
 41
-30.0
 62
     5
 63
     7
421
 16777215
 74
     1
 91
        4
 64
     7
 65
   257
 75
     1
175
     1
 42
1.0
 92
        0
 66
   257
 43
1.0
 76
     1
 77
     6
 78
     2
 67
     7
 79
     5
170
     0
171
     0
290
     0
174
     0
 93
        1
 44
0.0
173
     0
291
     0
 45
0.0
  0
VISUALSTYLE
  5
26E
102
{ACAD_REACTORS
330
267
102
}
330
267
100
AcDbVisualStyle
  2
3D Hidden
 70
     6
 71
     1
 72
     2
 73
     2
 90
        0
 40
-0.6
 41
-30.0
 62
     5
 63
     7
421
 16777215
 74
     2
 91
        2
 64
     7
 65
   257
 75
     2
175
     1
 42
40.0
 92
        0
 66
   257
 43
1.0
 76
     1
 77
     6
 78
     2
 67
     7
 79
     3
170
     0
171
     0
290
     0
174
     0
 93
        1
 44
0.0
173
     0
291
     0
 45
0.0
  0
VISUALSTYLE
  5
26D
102
{ACAD_REACTORS
330
267
102
}
330
267
100
AcDbVisualStyle
  2
3dWireframe
 70
     5
 71
     0
 72
     2
 73
     0
 90
        0
 40
-0.6
 41
-30.0
 62
     5
 63
     7
421
 16777215
 74
     1
 91
        4
 64
     7
 65
   257
 75
     1
175
     1
 42
1.0
 92
        0
 66
   257
 43
1.0
 76
     1
 77
     6
 78
     2
 67
     7
 79
     5
170
     0
171
     0
290
     0
174
     0
 93
        1
 44
0.0
173
     0
291
     0
 45
0.0
  0
VISUALSTYLE
  5
26F
102
{ACAD_REACTORS
330
267
102
}
330
267
100
AcDbVisualStyle
  2
Basic
 70
     7
 71
     1
 72
     0
 73
     1
 90
        0
 40
-0.6
 41
-30.0
 62
     5
 63
     7
421
 16777215
 74
     0
 91
        4
 64
     7
 65
   257
 75
     1
175
     1
 42
1.0
 92
        8
 66
     7
 43
1.0
 76
     1
 77
     6
 78
     2
 67
     7
 79
     5
170
     0
171
     0
290
     0
174
     0
 93
        1
 44
0.0
173
     0
291
     1
 45
0.0
  0
VISUALSTYLE
  5
273
102
{ACAD_REACTORS
330
267
102
}
330
267
100
AcDbVisualStyle
  2
Brighten
 70
    12
 71
     2
 72
     2
 73
     0
 90
        0
 40
-0.6
 41
-30.0
 62
     5
 63
     7
421
 16777215
 74
     1
 91
        4
 64
     7
 65
   257
 75
     1
175
     1
 42
1.0
 92
        8
 66
     7
 43
1.0
 76
     1
 77
     6
 78
     2
 67
     7
 79
     5
170
     0
171
     0
290
     0
174
     0
 93
        1
 44
50.0
173
     0
291
     1
 45
0.0
  0
VISUALSTYLE
  5
277
102
{ACAD_REACTORS
330
267
102
}
330
267
100
AcDbVisualStyle
  2
ColorChange
 70
    16
 71
     2
 72
     2
 73
     3
 90
        0
 40
-0.6
 41
-30.0
 62
     5
 63
     8
421
  8421504
 74
     1
 91
        4
 64
     7
 65
   257
 75
     1
175
     1
 42
1.0
 92
        8
 66
     8
424
  8421504
 43
1.0
 76
     1
 77
     6
 78
     2
 67
     7
 79
     5
170
     0
171
     0
290
     0
174
     0
 93
        1
 44
0.0
173
     0
291
     1
 45
0.0
  0
VISUALSTYLE
  5
271
102
{ACAD_REACTORS
330
267
102
}
330
267
100
AcDbVisualStyle
  2
Conceptual
 70
     9
 71
     3
 72
     2
 73
     0
 90
        0
 40
-0.6
 41
-30.0
 62
     5
 63
     7
421
 16777215
 74
     2
 91
        2
 64
     7
 65
   257
 75
     1
175
     1
 42
40.0
 92
        8
 66
     7
 43
1.0
 76
     1
 77
     6
 78
     2
 67
     7
 79
     3
170
     0
171
     0
290
     0
174
     0
 93
        1
 44
0.0
173
     0
291
     0
 45
0.0
  0
VISUALSTYLE
  5
272
102
{ACAD_REACTORS
330
267
102
}
330
267
100
AcDbVisualStyle
  2
Dim
 70
    11
 71
     2
 72
     2
 73
     0
 90
        0
 40
-0.6
 41
-30.0
 62
     5
 63
     7
421
 16777215
 74
     1
 91
        4
 64
     7
 65
   257
 75
     1
175
     1
 42
1.0
 92
        8
 66
     7
 43
1.0
 76
     1
 77
     6
 78
     2
 67
     7
 79
     5
170
     0
171
     0
290
     0
174
     0
 93
        1
 44
-50.0
173
     0
291
     1
 45
0.0
  0
VISUALSTYLE
  5
8BC
102
{ACAD_REACTORS
330
267
102
}
330
267
100
AcDbVisualStyle
  2
EdgeColorOff
 70
    22
 71
     2
 72
     2
 73
     0
 90
        0
 40
0.6
 41
30.0
 62
     5
 63
     7
421
 16777215
 74
     1
 91
        4
 64
     7
 65
   257
 75
     1
175
     1
 42
1.0
 92
        8
 66
     7
 43
1.0
 76
     1
 77
     6
 78
     2
 67
     7
 79
     5
170
     0
171
     0
290
     0
174
     0
 93
        1
 44
0.0
173
     0
291
     1
 45
0.0
  0
VISUALSTYLE
  5
276
102
{ACAD_REACTORS
330
267
102
}
330
267
100
AcDbVisualStyle
  2
Facepattern
 70
    15
 71
     2
 72
     2
 73
     0
 90
        0
 40
-0.6
 41
-30.0
 62
     5
 63
     7
421
 16777215
 74
     1
 91
        4
 64
     7
 65
   257
 75
     1
175
     1
 42
1.0
 92
        8
 66
     7
 43
1.0
 76
     1
 77
     6
 78
     2
 67
     7
 79
     5
170
     0
171
     0
290
     0
174
     0
 93
        1
 44
0.0
173
     0
291
     1
 45
0.0
  0
VISUALSTYLE
  5
268
102
{ACAD_REACTORS
330
267
102
}
330
267
100
AcDbVisualStyle
  2
Flat
 70
     0
 71
     2
 72
     1
 73
     1
 90
        2
 40
-0.6
 41
30.0
 62
     5
 63
     7
421
 16777215
 74
     0
 91
        4
 64
     7
 65
   257
 75
     1
175
     1
 42
1.0
 92
        8
 66
     7
 43
1.0
 76
     1
 77
     6
 78
     2
 67
     7
 79
     5
170
     0
171
     0
290
     0
174
     0
 93
       13
 44
0.0
173
     0
291
     1
 45
0.0
  0
VISUALSTYLE
  5
269
102
{ACAD_REACTORS
330
267
102
}
330
267
100
AcDbVisualStyle
  2
FlatWithEdges
 70
     1
 71
     2
 72
     1
 73
     1
 90
        2
 40
-0.6
 41
30.0
 62
     5
 63
     7
421
 16777215
 74
     1
 91
        4
 64
     7
 65
   257
 75
     1
175
     1
 42
1.0
 92
        0
 66
   257
 43
1.0
 76
     1
 77
     6
 78
     2
 67
     7
 79
     5
170
     0
171
     0
290
     0
174
     0
 93
       13
 44
0.0
173
     0
291
     1
 45
0.0
  0
VISUALSTYLE
  5
26A
102
{ACAD_REACTORS
330
267
102
}
330
267
100
AcDbVisualStyle
  2
Gouraud
 70
     2
 71
     2
 72
     2
 73
     1
 90
        2
 40
-0.6
 41
30.0
 62
     5
 63
     7
421
 16777215
 74
     0
 91
        4
 64
     7
 65
   257
 75
     1
175
     1
 42
1.0
 92
        0
 66
     7
 43
1.0
 76
     1
 77
     6
 78
     2
 67
     7
 79
     5
170
     0
171
     0
290
     0
174
     0
 93
       13
 44
0.0
173
     0
291
     1
 45
0.0
  0
VISUALSTYLE
  5
26B
102
{ACAD_REACTORS
330
267
102
}
330
267
100
AcDbVisualStyle
  2
GouraudWithEdges
 70
     3
 71
     2
 72
     2
 73
     1
 90
        2
 40
-0.6
 41
30.0
 62
     5
 63
     7
421
 16777215
 74
     1
 91
        4
 64
     7
 65
   257
 75
     1
175
     1
 42
1.0
 92
        0
 66
   257
 43
1.0
 76
     1
 77
     6
 78
     2
 67
     7
 79
     5
170
     0
171
     0
290
     0
174
     0
 93
       13
 44
0.0
173
     0
291
     1
 45
0.0
  0
VISUALSTYLE
  5
8B9
102
{ACAD_REACTORS
330
267
102
}
330
267
100
AcDbVisualStyle
  2
Hidden
 70
     6
 71
     1
 72
     2
 73
     2
 90
        0
 40
0.6
 41
30.0
 62
     5
 63
     7
421
 16777215
 74
     2
 91
        2
 64
     7
 65
   257
 75
     2
175
     1
 42
40.0
 92
        0
 66
   257
 43
1.0
 76
     1
 77
     6
 78
     2
 67
     7
 79
     3
170
     0
171
     0
290
     0
174
     0
 93
        1
 44
0.0
173
     0
291
     0
 45
0.0
  0
VISUALSTYLE
  5
8BA
102
{ACAD_REACTORS
330
267
102
}
330
267
100
AcDbVisualStyle
  2
JitterOff
 70
    20
 71
     2
 72
     2
 73
     0
 90
        0
 40
0.6
 41
30.0
 62
     5
 63
     7
421
 16777215
 74
     1
 91
        4
 64
     7
 65
   257
 75
     1
175
     1
 42
1.0
 92
       10
 66
     7
 43
1.0
 76
     1
 77
     6
 78
     2
 67
     7
 79
     5
170
     0
171
     0
290
     0
174
     0
 93
        1
 44
0.0
173
     0
291
     1
 45
0.0
  0
VISUALSTYLE
  5
275
102
{ACAD_REACTORS
330
267
102
}
330
267
100
AcDbVisualStyle
  2
Linepattern
 70
    14
 71
     2
 72
     2
 73
     0
 90
        0
 40
-0.6
 41
-30.0
 62
     5
 63
     7
421
 16777215
 74
     1
 91
        4
 64
     7
 65
   257
 75
     7
175
     7
 42
1.0
 92
        8
 66
     7
 43
1.0
 76
     1
 77
     6
 78
     2
 67
     7
 79
     5
170
     0
171
     0
290
     0
174
     0
 93
        1
 44
0.0
173
     0
291
     1
 45
0.0
  0
VISUALSTYLE
  5
8BB
102
{ACAD_REACTORS
330
267
102
}
330
267
100
AcDbVisualStyle
  2
OverhangOff
 70
    21
 71
     2
 72
     2
 73
     0
 90
        0
 40
0.6
 41
30.0
 62
     5
 63
     7
421
 16777215
 74
     1
 91
        4
 64
     7
 65
   257
 75
     1
175
     1
 42
1.0
 92
        9
 66
     7
 43
1.0
 76
     1
 77
     6
 78
     2
 67
     7
 79
     5
170
     0
171
     0
290
     0
174
     0
 93
        1
 44
0.0
173
     0
291
     1
 45
0.0
  0
VISUALSTYLE
  5
270
102
{ACAD_REACTORS
330
267
102
}
330
267
100
AcDbVisualStyle
  2
Realistic
 70
     8
 71
     2
 72
     2
 73
     0
 90
        0
 40
-0.6
 41
-30.0
 62
     5
 63
     7
421
 16777215
 74
     1
 91
        0
 64
     7
 65
   257
 75
     1
175
     1
 42
1.0
 92
        8
 66
     8
424
  7895160
 43
1.0
 76
     1
 77
     6
 78
     2
 67
     7
 79
     5
170
     0
171
     0
290
     0
174
     0
 93
       13
 44
0.0
173
     0
291
     0
 45
0.0
  0
VISUALSTYLE
  5
8C1
102
{ACAD_REACTORS
330
267
102
}
330
267
100
AcDbVisualStyle
  2
Shaded
 70
    27
 71
     2
 72
     2
 73
     1
 90
        2
 40
0.6
 41
30.0
 62
     5
 63
     7
421
 16777215
 74
     0
 91
        4
 64
     7
 65
   257
 75
     1
175
     1
 42
1.0
 92
        8
 66
   257
 43
1.0
 76
     1
 77
     6
 78
     2
 67
     8
425
  7895160
 79
     3
170
     0
171
     0
290
     0
174
     0
 93
        5
 44
0.0
173
     0
291
     0
 45
0.0
  0
VISUALSTYLE
  5
8C0
102
{ACAD_REACTORS
330
267
102
}
330
267
100
AcDbVisualStyle
  2
Shaded with edges
 70
    26
 71
     2
 72
     2
 73
     1
 90
        2
 40
0.6
 41
30.0
 62
     5
 63
     7
421
 16777215
 74
     1
 91
       10
 64
     7
 65
   257
 75
     2
175
     1
 42
1.0
 92
        8
 66
   257
 43
1.0
 76
     1
 77
     6
 78
     2
 67
     7
 79
     3
170
     0
171
     0
290
     0
174
     0
 93
        5
 44
0.0
173
     0
291
     0
 45
0.0
  0
VISUALSTYLE
  5
8BD
102
{ACAD_REACTORS
330
267
102
}
330
267
100
AcDbVisualStyle
  2
Shades of Gray
 70
    23
 71
     2
 72
     2
 73
     3
 90
        0
 40
0.6
 41
30.0
 62
     5
 63
     7
421
 16777215
 74
     2
 91
        2
 64
     7
 65
     7
 75
     1
175
     1
 42
40.0
 92
        8
 66
     7
 43
1.0
 76
     1
 77
     6
 78
     2
 67
     7
 79
     3
170
     0
171
     0
290
     0
174
     0
 93
        1
 44
0.0
173
     0
291
     0
 45
0.0
  0
VISUALSTYLE
  5
8BE
102
{ACAD_REACTORS
330
267
102
}
330
267
100
AcDbVisualStyle
  2
Sketchy
 70
    24
 71
     1
 72
     2
 73
     2
 90
        0
 40
0.6
 41
30.0
 62
     5
 63
     7
421
 16777215
 74
     2
 91
        2
 64
     7
 65
     7
 75
     1
175
     1
 42
40.0
 92
       11
 66
     7
 43
1.0
 76
     1
 77
     6
 78
     2
 67
     7
 79
     6
170
     0
171
     0
290
     0
174
     0
 93
        1
 44
0.0
173
     0
291
     0
 45
0.0
  0
VISUALSTYLE
  5
274
102
{ACAD_REACTORS
330
267
102
}
330
267
100
AcDbVisualStyle
  2
Thicken
 70
    13
 71
     2
 72
     2
 73
     0
 90
        0
 40
-0.6
 41
-30.0
 62
     5
 63
     7
421
 16777215
 74
     1
 91
        4
 64
     7
 65
   257
 75
     1
175
     1
 42
1.0
 92
       12
 66
     7
 43
1.0
 76
     1
 77
     6
 78
     2
 67
     7
 79
     5
170
     0
171
     0
290
     0
174
     0
 93
        1
 44
0.0
173
     0
291
     1
 45
0.0
  0
VISUALSTYLE
  5
8B8
102
{ACAD_REACTORS
330
267
102
}
330
267
100
AcDbVisualStyle
  2
Wireframe
 70
     5
 71
     0
 72
     2
 73
     0
 90
        0
 40
0.6
 41
30.0
 62
     5
 63
     7
421
 16777215
 74
     1
 91
        4
 64
     7
 65
   257
 75
     1
175
     1
 42
1.0
 92
        0
 66
   257
 43
1.0
 76
     1
 77
     6
 78
     2
 67
     7
 79
     3
170
     0
171
     0
290
     0
174
     0
 93
        1
 44
0.0
173
     0
291
     0
 45
0.0
  0
VISUALSTYLE
  5
8BF
102
{ACAD_REACTORS
330
267
102
}
330
267
100
AcDbVisualStyle
  2
X-Ray
 70
    25
 71
     2
 72
     2
 73
     1
 90
        1
 40
0.5
 41
30.0
 62
     5
 63
     7
421
 16777215
 74
     1
 91
        0
 64
     7
 65
   257
 75
     1
175
     1
 42
1.0
 92
        8
 66
     7
 43
1.0
 76
     1
 77
     6
 78
     2
 67
     7
 79
     3
170
     0
171
     0
290
     0
174
     0
 93
       13
 44
0.0
173
     0
291
     0
 45
0.0
  0
DICTIONARYVAR
  5
331
102
{ACAD_REACTORS
330
330
102
}
330
330
100
DictionaryVariables
280
     0
  1
1:1
  0
DICTIONARYVAR
  5
8DA
102
{ACAD_REACTORS
330
330
102
}
330
330
100
DictionaryVariables
280
     0
  1
Standard
  0
DICTIONARYVAR
  5
335
102
{ACAD_REACTORS
330
330
102
}
330
330
100
DictionaryVariables
280
     0
  1
Standard
  0
DICTIONARYVAR
  5
C07
102
{ACAD_REACTORS
330
330
102
}
330
330
100
DictionaryVariables
280
     0
  1
ByLayer
  0
DICTIONARYVAR
  5
64A
102
{ACAD_REACTORS
330
330
102
}
330
330
100
DictionaryVariables
280
     0
  1
0
  0
DICTIONARYVAR
  5
C0B
102
{ACAD_REACTORS
330
C08
102
}
330
C08
100
DictionaryVariables
280
     0
  1
0.261799
  0
DICTIONARYVAR
  5
C09
102
{ACAD_REACTORS
330
C08
102
}
330
C08
100
DictionaryVariables
280
     0
  1
0.400000
  0
DICTIONARYVAR
  5
C0A
102
{ACAD_REACTORS
330
C08
102
}
330
C08
100
DictionaryVariables
280
     0
  1
0.250000
  0
DICTIONARYVAR
  5
C0C
102
{ACAD_REACTORS
330
C08
102
}
330
C08
100
DictionaryVariables
280
     0
  1
1
  0
FIELD
  5
BDE
102
{ACAD_REACTORS
330
2A7D
102
}
330
2A7D
100
AcDbField
  1
_text
  2
{%<\_FldIdx 0>%N}
 90
        1
360
BDF
 97
        0
 91
       63
 92
        0
 94
       11
 95
        2
 96
        0
300

 93
        1
  6
ACFD_FIELDTEXT_CHECKSUM
 93
        2
 90
        2
140
4549.0
 94
        0
300

302

304
ACVALUE_END
  7
ACFD_FIELD_VALUE
 93
        6
 90
        4
  1
{20210927N}
 94
        0
300

302

304
ACVALUE_END
301
{20210927N}
 98
       11
  0
DICTIONARY
  5
2B40
330
279
100
AcDbDictionary
280
     1
281
     1
  3
ACAD_ROUNDTRIP_2008_TABLESTYLE_CELLSTYLEMAP
360
2B41
  0
FIELD
  5
BDF
330
BDE
100
AcDbField
  1
AcVar
  2
\AcVar Date \f "yyyyMMdd"
 90
        0
 97
        0
 91
       63
 92
        0
 94
        8
 95
       64
 96
        0
300
Variable not supported
 93
        1
  6
Variable
 93
        2
 90
        4
  1
Date
 94
        0
300

302

304
ACVALUE_END
  7
ACFD_FIELD_VALUE
 93
        6
 90
        8
 92
       16
310
E507090000001B0006002F0028000000
 94
        0
300
yyyyMMdd
302

304
ACVALUE_END
301
20210927
 98
        8
  0
CELLSTYLEMAP
  5
2B41
102
{ACAD_REACTORS
330
2B40
102
}
330
2B40
100
AcDbCellStyleMap
 90
        3
300
CELLSTYLE
  1
TABLEFORMAT_BEGIN
 90
        5
170
     1
 91
        0
 92
    32768
 62
   257
 93
        1
300
CONTENTFORMAT
  1
CONTENTFORMAT_BEGIN
 90
        0
 91
        0
 92
        4
 93
        0
300

 40
0.0
140
1.0
 94
        5
 62
     0
340
17
144
6.0
309
CONTENTFORMAT_END
171
     1
301
MARGIN
  1
CELLMARGIN_BEGIN
 40
0.06
 40
0.06
 40
0.06
 40
0.06
 40
0.18
 40
0.18
309
CELLMARGIN_END
 94
        6
 95
        1
302
GRIDFORMAT
  1
GRIDFORMAT_BEGIN
 90
        0
 91
        1
 62
     0
 92
       -2
340
0
 93
        0
 40
0.045
309
GRIDFORMAT_END
 95
        2
302
GRIDFORMAT
  1
GRIDFORMAT_BEGIN
 90
        0
 91
        1
 62
     0
 92
       -2
340
0
 93
        0
 40
0.045
309
GRIDFORMAT_END
 95
        4
302
GRIDFORMAT
  1
GRIDFORMAT_BEGIN
 90
        0
 91
        1
 62
     0
 92
       -2
340
0
 93
        0
 40
0.045
309
GRIDFORMAT_END
 95
        8
302
GRIDFORMAT
  1
GRIDFORMAT_BEGIN
 90
        0
 91
        1
 62
     0
 92
       -2
340
0
 93
        0
 40
0.045
309
GRIDFORMAT_END
 95
       16
302
GRIDFORMAT
  1
GRIDFORMAT_BEGIN
 90
        0
 91
        1
 62
     0
 92
       -2
340
0
 93
        0
 40
0.045
309
GRIDFORMAT_END
 95
       32
302
GRIDFORMAT
  1
GRIDFORMAT_BEGIN
 90
        0
 91
        1
 62
     0
 92
       -2
340
0
 93
        0
 40
0.045
309
GRIDFORMAT_END
309
TABLEFORMAT_END
  1
CELLSTYLE_BEGIN
 90
        1
 91
        1
300
_TITLE
309
CELLSTYLE_END
300
CELLSTYLE
  1
TABLEFORMAT_BEGIN
 90
        5
170
     1
 91
        0
 92
        0
 62
   257
 93
        1
300
CONTENTFORMAT
  1
CONTENTFORMAT_BEGIN
 90
        0
 91
        0
 92
        4
 93
        0
300

 40
0.0
140
1.0
 94
        5
 62
     0
340
17
144
4.5
309
CONTENTFORMAT_END
171
     1
301
MARGIN
  1
CELLMARGIN_BEGIN
 40
0.06
 40
0.06
 40
0.06
 40
0.06
 40
0.18
 40
0.18
309
CELLMARGIN_END
 94
        6
 95
        1
302
GRIDFORMAT
  1
GRIDFORMAT_BEGIN
 90
        0
 91
        1
 62
     0
 92
       -2
340
0
 93
        0
 40
0.045
309
GRIDFORMAT_END
 95
        2
302
GRIDFORMAT
  1
GRIDFORMAT_BEGIN
 90
        0
 91
        1
 62
     0
 92
       -2
340
0
 93
        0
 40
0.045
309
GRIDFORMAT_END
 95
        4
302
GRIDFORMAT
  1
GRIDFORMAT_BEGIN
 90
        0
 91
        1
 62
     0
 92
       -2
340
0
 93
        0
 40
0.045
309
GRIDFORMAT_END
 95
        8
302
GRIDFORMAT
  1
GRIDFORMAT_BEGIN
 90
        0
 91
        1
 62
     0
 92
       -2
340
0
 93
        0
 40
0.045
309
GRIDFORMAT_END
 95
       16
302
GRIDFORMAT
  1
GRIDFORMAT_BEGIN
 90
        0
 91
        1
 62
     0
 92
       -2
340
0
 93
        0
 40
0.045
309
GRIDFORMAT_END
 95
       32
302
GRIDFORMAT
  1
GRIDFORMAT_BEGIN
 90
        0
 91
        1
 62
     0
 92
       -2
340
0
 93
        0
 40
0.045
309
GRIDFORMAT_END
309
TABLEFORMAT_END
  1
CELLSTYLE_BEGIN
 90
        2
 91
        1
300
_HEADER
309
CELLSTYLE_END
300
CELLSTYLE
  1
TABLEFORMAT_BEGIN
 90
        5
170
     1
 91
        0
 92
        0
 62
   257
 93
        1
300
CONTENTFORMAT
  1
CONTENTFORMAT_BEGIN
 90
        0
 91
        0
 92
        4
 93
        0
300

 40
0.0
140
1.0
 94
        2
 62
     0
340
17
144
4.5
309
CONTENTFORMAT_END
171
     1
301
MARGIN
  1
CELLMARGIN_BEGIN
 40
0.06
 40
0.06
 40
0.06
 40
0.06
 40
0.18
 40
0.18
309
CELLMARGIN_END
 94
        6
 95
        1
302
GRIDFORMAT
  1
GRIDFORMAT_BEGIN
 90
        0
 91
        1
 62
     0
 92
       -2
340
0
 93
        0
 40
0.045
309
GRIDFORMAT_END
 95
        2
302
GRIDFORMAT
  1
GRIDFORMAT_BEGIN
 90
        0
 91
        1
 62
     0
 92
       -2
340
0
 93
        0
 40
0.045
309
GRIDFORMAT_END
 95
        4
302
GRIDFORMAT
  1
GRIDFORMAT_BEGIN
 90
        0
 91
        1
 62
     0
 92
       -2
340
0
 93
        0
 40
0.045
309
GRIDFORMAT_END
 95
        8
302
GRIDFORMAT
  1
GRIDFORMAT_BEGIN
 90
        0
 91
        1
 62
     0
 92
       -2
340
0
 93
        0
 40
0.045
309
GRIDFORMAT_END
 95
       16
302
GRIDFORMAT
  1
GRIDFORMAT_BEGIN
 90
        0
 91
        1
 62
     0
 92
       -2
340
0
 93
        0
 40
0.045
309
GRIDFORMAT_END
 95
       32
302
GRIDFORMAT
  1
GRIDFORMAT_BEGIN
 90
        0
 91
        1
 62
     0
 92
       -2
340
0
 93
        0
 40
0.045
309
GRIDFORMAT_END
309
TABLEFORMAT_END
  1
CELLSTYLE_BEGIN
 90
        3
 91
        2
300
_DATA
309
CELLSTYLE_END
  0
ENDSEC
  0
EOF
