  0
SECTION
  2
HEADER
  9
$ACADVER
  1
AC1015
  9
$ACADMAINTVER
 70
               6
  9
$DWGCODEPAGE
  3
ANSI_932
  9
$INSBASE
 10
0.0
 20
0.0
 30
0.0
  9
$EXTMIN
 10
-975.00000000024102
 20
-1431.5255224711127
 30
-14.834305555555552
  9
$EXTMAX
 10
975.00000000024102
 20
1405.9972926412993
 30
14.834305555555552
  9
$LIMMIN
 10
0.0
 20
0.0
  9
$LIMMAX
 10
0.0
 20
0.0
  9
$ORTHOMODE
 70
               0
  9
$REGENMODE
 70
               1
  9
$FILLMODE
 70
               1
  9
$QTEXTMODE
 70
               0
  9
$MIRRTEXT
 70
               1
  9
$LTSCALE
 40
50.799999999999997
  9
$ATTMODE
 70
               1
  9
$TEXTSIZE
 40
0.2
  9
$TRACEWID
 40
1.0
  9
$TEXTSTYLE
  7
Standard
  9
$CLAYER
  8
template
  9
$CELTYPE
  6
Continuous
  9
$CECOLOR
 62
             256
  9
$CELTSCALE
 40
1.0
  9
$DISPSILH
 70
               0
  9
$DIMSCALE
 40
1.0
  9
$DIMASZ
 40
9.9993896484374982
  9
$DIMEXO
 40
24.999999999999996
  9
$DIMDLI
 40
0.9999999999999999
  9
$DIMRND
 40
0.0
  9
$DIMDLE
 40
0.0
  9
$DIMEXE
 40
0.0
  9
$DIMTP
 40
0.0
  9
$DIMTM
 40
0.0
  9
$DIMTXT
 40
24.432617187500004
  9
$DIMCEN
 40
0.0
  9
$DIMTSZ
 40
0.0
  9
$DIMTOL
 70
               0
  9
$DIMLIM
 70
               0
  9
$DIMTIH
 70
               0
  9
$DIMTOH
 70
               0
  9
$DIMSE1
 70
               0
  9
$DIMSE2
 70
               0
  9
$DIMTAD
 70
               1
  9
$DIMZIN
 70
              11
  9
$DIMBLK
  1
_DOT
  9
$DIMASO
 70
               1
  9
$DIMSHO
 70
               1
  9
$DIMPOST
  1
<>
  9
$DIMAPOST
  1
[]
  9
$DIMALT
 70
               0
  9
$DIMALTD
 70
               1
  9
$DIMALTF
 40
1.0
  9
$DIMLFAC
 40
1.0
  9
$DIMTOFL
 70
               0
  9
$DIMTVP
 40
0.0
  9
$DIMTIX
 70
               1
  9
$DIMSOXD
 70
               0
  9
$DIMSAH
 70
               0
  9
$DIMBLK1
  1

  9
$DIMBLK2
  1

  9
$DIMSTYLE
  2
tform線あり
  9
$DIMCLRD
 70
               0
  9
$DIMCLRE
 70
               0
  9
$DIMCLRT
 70
               0
  9
$DIMTFAC
 40
1.0
  9
$DIMGAP
 40
0.4999999999999999
  9
$DIMJUST
 70
               0
  9
$DIMSD1
 70
               0
  9
$DIMSD2
 70
               0
  9
$DIMTOLJ
 70
               1
  9
$DIMTZIN
 70
              11
  9
$DIMALTZ
 70
              11
  9
$DIMALTTZ
 70
              11
  9
$DIMUPT
 70
               0
  9
$DIMDEC
 70
               1
  9
$DIMTDEC
 70
               1
  9
$DIMALTU
 70
               2
  9
$DIMALTTD
 70
               2
  9
$DIMTXSTY
  7
ＭＳゴシック
  9
$DIMAUNIT
 70
               0
  9
$DIMADEC
 70
               2
  9
$DIMALTRND
 40
0.0
  9
$DIMAZIN
 70
               0
  9
$DIMDSEP
 70
              46
  9
$DIMATFIT
 70
               0
  9
$DIMFRAC
 70
               2
  9
$DIMLDRBLK
  1

  9
$DIMLUNIT
 70
               2
  9
$DIMLWD
 70
              -2
  9
$DIMLWE
 70
              -2
  9
$DIMTMOVE
 70
               0
  9
$LUNITS
 70
               2
  9
$LUPREC
 70
               4
  9
$SKETCHINC
 40
0.1
  9
$FILLETRAD
 40
0.0
  9
$AUNITS
 70
               0
  9
$AUPREC
 70
               0
  9
$MENU
  1
acad
  9
$ELEVATION
 40
0.0
  9
$PELEVATION
 40
0.0
  9
$THICKNESS
 40
0.0
  9
$LIMCHECK
 70
               0
  9
$CHAMFERA
 40
0.0
  9
$CHAMFERB
 40
0.0
  9
$CHAMFERC
 40
0.0
  9
$CHAMFERD
 40
0.0
  9
$SKPOLY
 70
               0
  9
$TDCREATE
 40
2456050.598252315
  9
$TDUCREATE
 40
0.000000000
  9
$TDUPDATE
 40
2456050.598252315
  9
$TDUUPDATE
 40
0.000000000
  9
$TDINDWG
 40
0.0000000000
  9
$TDUSRTIMER
 40
0.0000000000
  9
$USRTIMER
 70
               1
  9
$ANGBASE
 50
0.0
  9
$ANGDIR
 70
               0
  9
$PDMODE
 70
               1
  9
$PDSIZE
 40
-2.0
  9
$PLINEWID
 40
0.0
  9
$SPLFRAME
 70
               0
  9
$SPLINETYPE
 70
               6
  9
$SPLINESEGS
 70
               8
  9
$HANDSEED
  5
1E7
  9
$SURFTAB1
 70
               6
  9
$SURFTAB2
 70
               6
  9
$SURFTYPE
 70
               6
  9
$SURFU
 70
               6
  9
$SURFV
 70
               6
  9
$UCSBASE
  2

  9
$UCSNAME
  2

  9
$UCSORG
 10
0.0
 20
0.0
 30
0.0
  9
$UCSXDIR
 10
1.0
 20
0.0
 30
0.0
  9
$UCSYDIR
 10
0.0
 20
1.0
 30
0.0
  9
$UCSORTHOREF
  2

  9
$UCSORTHOVIEW
 70
               0
  9
$UCSORGTOP
 10
0.0
 20
0.0
 30
0.0
  9
$UCSORGBOTTOM
 10
0.0
 20
0.0
 30
0.0
  9
$UCSORGLEFT
 10
0.0
 20
0.0
 30
0.0
  9
$UCSORGRIGHT
 10
0.0
 20
0.0
 30
0.0
  9
$UCSORGFRONT
 10
0.0
 20
0.0
 30
0.0
  9
$UCSORGBACK
 10
0.0
 20
0.0
 30
0.0
  9
$PUCSBASE
  2

  9
$PUCSNAME
  2

  9
$PUCSORG
 10
0.0
 20
0.0
 30
0.0
  9
$PUCSXDIR
 10
1.0
 20
0.0
 30
0.0
  9
$PUCSYDIR
 10
0.0
 20
1.0
 30
0.0
  9
$PUCSORTHOREF
  2

  9
$PUCSORTHOVIEW
 70
               0
  9
$PUCSORGTOP
 10
0.0
 20
0.0
 30
0.0
  9
$PUCSORGBOTTOM
 10
0.0
 20
0.0
 30
0.0
  9
$PUCSORGLEFT
 10
0.0
 20
0.0
 30
0.0
  9
$PUCSORGRIGHT
 10
0.0
 20
0.0
 30
0.0
  9
$PUCSORGFRONT
 10
0.0
 20
0.0
 30
0.0
  9
$PUCSORGBACK
 10
0.0
 20
0.0
 30
0.0
  9
$USERI1
 70
               0
  9
$USERI2
 70
               0
  9
$USERI3
 70
               0
  9
$USERI4
 70
               0
  9
$USERI5
 70
               0
  9
$USERR1
 40
0.0
  9
$USERR2
 40
0.0
  9
$USERR3
 40
0.0
  9
$USERR4
 40
0.0
  9
$USERR5
 40
0.0
  9
$WORLDVIEW
 70
               1
  9
$SHADEDGE
 70
               3
  9
$SHADEDIF
 70
              70
  9
$TILEMODE
 70
               1
  9
$MAXACTVP
 70
              64
  9
$PINSBASE
 10
0.0
 20
0.0
 30
0.0
  9
$PLIMCHECK
 70
               0
  9
$PEXTMIN
 10
1.0000000000000000E+20
 20
1.0000000000000000E+20
 30
1.0000000000000000E+20
  9
$PEXTMAX
 10
-1.0000000000000000E+20
 20
-1.0000000000000000E+20
 30
-1.0000000000000000E+20
  9
$PLIMMIN
 10
0.0
 20
0.0
  9
$PLIMMAX
 10
12.0
 20
9.0
  9
$UNITMODE
 70
               0
  9
$VISRETAIN
 70
               0
  9
$PLINEGEN
 70
               1
  9
$PSLTSCALE
 70
               0
  9
$TREEDEPTH
 70
            3020
  9
$CMLSTYLE
  2
Standard
  9
$CMLJUST
 70
               0
  9
$CMLSCALE
 40
1.0
  9
$PROXYGRAPHICS
 70
               0
  9
$MEASUREMENT
 70
               1
  9
$CELWEIGHT
370
               0
  9
$ENDCAPS
280
               0
  9
$JOINSTYLE
280
               0
  9
$LWDISPLAY
290
               1
  9
$INSUNITS
 70
               4
  9
$HYPERLINKBASE
  1

  9
$STYLESHEET
  1

  9
$XEDIT
290
               1
  9
$CEPSNTYPE
380
               0
  9
$PSTYLEMODE
290
               1
  9
$FINGERPRINTGUID
  2

  9
$VERSIONGUID
  2

  9
$EXTNAMES
290
               1
  9
$PSVPSCALE
 40
0.0
  0
ENDSEC
  0
SECTION
  2
CLASSES
  0
CLASS
  1
LWPOLYLINE
  2
AcDbPolyline
  3
AutoCAD 2000
 90
        0
280
               0
281
               1
  0
CLASS
  1
IMAGE
  2
AcDbRasterImage
  3
ISM
 90
      127
280
               0
281
               1
  0
CLASS
  1
OLE2FRAME
  2
AcDbOle2Frame
  3
AutoCAD 2000
 90
        0
280
               0
281
               1
  0
CLASS
  1
HATCH
  2
AcDbHatch
  3
AutoCAD 2000
 90
        0
280
               0
281
               1
  0
CLASS
  1
DICTIONARYVAR
  2
AcDbDictionaryVar
  3
AutoCAD 2000
 90
        0
280
               0
281
               0
  0
CLASS
  1
RASTERVARIABLES
  2
AcDbRasterVariables
  3
ISM
 90
        0
280
               0
281
               0
  0
CLASS
  1
IMAGEDEF
  2
AcDbRasterImageDef
  3
ISM
 90
        0
280
               0
281
               0
  0
CLASS
  1
IMAGEDEF_REACTOR
  2
AcDbRasterImageDefReactor
  3
ISM
 90
        1
280
               0
281
               0
  0
CLASS
  1
IDBUFFER
  2
AcDbIdBuffer
  3
AutoCAD 2000
 90
        0
280
               0
281
               0
  0
CLASS
  1
SPATIAL_FILTER
  2
AcDbSpatialFilter
  3
AutoCAD 2000
 90
        0
280
               0
281
               0
  0
CLASS
  1
XRECORD
  2
AcDbXrecord
  3
AutoCAD 2000
 90
        0
280
               0
281
               0
  0
CLASS
  1
SORTENTSTABLE
  2
AcDbSortentsTable
  3
AutoCAD 2000
 90
        0
280
               0
281
               0
  0
CLASS
  1
LAYER_INDEX
  2
AcDbLayerIndex
  3
AutoCAD 2000
 90
        0
280
               0
281
               0
  0
CLASS
  1
SPATIAL_INDEX
  2
AcDbSpatialIndex
  3
AutoCAD 2000
 90
        0
280
               0
281
               0
  0
CLASS
  1
OBJECT_PTR
  2
CAseDLPNTableRecord
  3
"ASE-LPNTableRecord"
 90
        1
280
               0
281
               0
  0
CLASS
  1
LAYOUT
  2
AcDbLayout
  3
AutoCAD 2000
 90
        0
280
               0
281
               0
  0
CLASS
  1
PLOTSETTINGS
  2
AcDbPlotSettings
  3
AutoCAD 2000
 90
        0
280
               0
281
               0
  0
CLASS
  1
ACDBDICTIONARYWDFLT
  2
AcDbDictionaryWithDefault
  3
AutoCAD 2000
 90
        0
280
               0
281
               0
  0
CLASS
  1
ACDBPLACEHOLDER
  2
AcDbPlaceHolder
  3
AutoCAD 2000
 90
        0
280
               0
281
               0
  0
ENDSEC
  0
SECTION
  2
TABLES
  0
TABLE
  2
VPORT
  5
7
100
AcDbSymbolTable
 70
               1
  0
VPORT
  5
15
100
AcDbSymbolTableRecord
100
AcDbViewportTableRecord
  2
*ACTIVE
 70
               0
 10
0.0
 20
0.0
 11
1.0
 21
1.0
 12
0.0
 22
-12.764114914906713
 13
0.0
 23
0.0
 14
1.0
 24
1.0
 15
0.0
 25
0.0
 16
0.0
 26
0.0
 36
1.0
 17
0.0
 27
0.0
 37
0.0
 40
2837.522815112412
 41
0.688564
 42
50.0
 43
0.0
 44
0.0
 50
0.0
 51
0.0
 71
               0
 72
            2000
 73
               1
 74
               1
 75
               0
 76
               0
 77
               0
 78
               0
281
               0
 65
               0
110
0.0
120
0.0
130
0.0
111
1.0
121
0.0
131
0.0
112
0.0
122
1.0
132
0.0
345
0
346
0
 79
               0
146
0.0
  0
ENDTAB
  0
TABLE
  2
LTYPE
  5
4
100
AcDbSymbolTable
 70
              15
  0
LTYPE
  5
11
100
AcDbSymbolTableRecord
100
AcDbLinetypeTableRecord
  2
ByBlock
 70
              64
  3

 72
              65
 73
               0
 40
0.0
  0
LTYPE
  5
12
100
AcDbSymbolTableRecord
100
AcDbLinetypeTableRecord
  2
ByLayer
 70
              64
  3

 72
              65
 73
               0
 40
0.0
  0
LTYPE
  5
13
100
AcDbSymbolTableRecord
100
AcDbLinetypeTableRecord
  2
Continuous
 70
              64
  3
Solid line
 72
              65
 73
               0
 40
0.0
  0
LTYPE
  5
3E
100
AcDbSymbolTableRecord
100
AcDbLinetypeTableRecord
  2
STYLE_01
 70
               0
  3

 72
              65
 73
               2
 40
0.1771653543307087
 49
0.1417322834645669
 74
               0
 49
-0.0354330708661417
 74
               0
  0
LTYPE
  5
3F
100
AcDbSymbolTableRecord
100
AcDbLinetypeTableRecord
  2
STYLE_02
 70
               0
  3

 72
              65
 73
               4
 40
0.0393700787401575
 49
0.0196850393700787
 74
               0
 49
-0.0098425196850394
 74
               0
 49
0.0005
 74
               0
 49
-0.0093425196850394
 74
               0
  0
LTYPE
  5
40
100
AcDbSymbolTableRecord
100
AcDbLinetypeTableRecord
  2
STYLE_03
 70
               0
  3

 72
              65
 73
               2
 40
1.25
 49
1.0416400000000001
 74
               0
 49
-0.2083599999999999
 74
               0
  0
LTYPE
  5
41
100
AcDbSymbolTableRecord
100
AcDbLinetypeTableRecord
  2
STYLE_04
 70
               0
  3

 72
              65
 73
               2
 40
1.5277099999999999
 49
1.3194249999999998
 74
               0
 49
-0.208285
 74
               0
  0
LTYPE
  5
42
100
AcDbSymbolTableRecord
100
AcDbLinetypeTableRecord
  2
STYLE_05
 70
               0
  3

 72
              65
 73
               2
 40
0.20828
 49
0.069425
 74
               0
 49
-0.138855
 74
               0
  0
LTYPE
  5
43
100
AcDbSymbolTableRecord
100
AcDbLinetypeTableRecord
  2
STYLE_06
 70
               0
  3

 72
              65
 73
               4
 40
1.0416400000000001
 49
0.625
 74
               0
 49
-0.20828
 74
               0
 49
0.06943
 74
               0
 49
-0.13893
 74
               0
  0
LTYPE
  5
44
100
AcDbSymbolTableRecord
100
AcDbLinetypeTableRecord
  2
STYLE_07
 70
               0
  3

 72
              65
 73
               6
 40
1.875
 49
0.625
 74
               0
 49
-0.20828
 74
               0
 49
0.6250000000000001
 74
               0
 49
-0.2083599999999999
 74
               0
 49
0.06943
 74
               0
 49
-0.1389299999999999
 74
               0
  0
LTYPE
  5
45
100
AcDbSymbolTableRecord
100
AcDbLinetypeTableRecord
  2
STYLE_08
 70
               0
  3

 72
              65
 73
               6
 40
1.25
 49
0.625
 74
               0
 49
-0.20828
 74
               0
 49
0.06943
 74
               0
 49
-0.13893
 74
               0
 49
0.0694299999999999
 74
               0
 49
-0.13893
 74
               0
  0
LTYPE
  5
46
100
AcDbSymbolTableRecord
100
AcDbLinetypeTableRecord
  2
STYLE_09
 70
               0
  3

 72
              65
 73
               4
 40
5.0
 49
3.75
 74
               0
 49
-0.2777849999999998
 74
               0
 49
0.6944300000000003
 74
               0
 49
-0.2777849999999998
 74
               0
  0
LTYPE
  5
47
100
AcDbSymbolTableRecord
100
AcDbLinetypeTableRecord
  2
STYLE_10
 70
               0
  3

 72
              65
 73
               6
 40
5.9375
 49
3.75
 74
               0
 49
-0.2777849999999998
 74
               0
 49
0.6944300000000003
 74
               0
 49
-0.2777849999999998
 74
               0
 49
0.625
 74
               0
 49
-0.3125
 74
               0
  0
LTYPE
  5
48
100
AcDbSymbolTableRecord
100
AcDbLinetypeTableRecord
  2
STYLE_11
 70
               0
  3

 72
              65
 73
               2
 40
0.0694444881889764
 49
0.0347222440944882
 74
               0
 49
-0.0347222440944882
 74
               0
  0
LTYPE
  5
49
100
AcDbSymbolTableRecord
100
AcDbLinetypeTableRecord
  2
STYLE_12
 70
               0
  3

 72
              65
 73
               2
 40
0.3937007874015748
 49
0.1968503937007874
 74
               0
 49
-0.1968503937007874
 74
               0
  0
ENDTAB
  0
TABLE
  2
LAYER
  5
2
100
AcDbSymbolTable
 70
               5
  0
LAYER
  5
14
100
AcDbSymbolTableRecord
100
AcDbLayerTableRecord
  2
0
 70
               0
 62
               7
  6
Continuous
290
               1
370
              -3
390
1D
  0
LAYER
  5
4A
100
AcDbSymbolTableRecord
100
AcDbLayerTableRecord
  2
Defpoints
 70
               0
 62
               7
  6
Continuous
290
               0
370
              -3
390
1D
  0
LAYER
  5
4B
100
AcDbSymbolTableRecord
100
AcDbLayerTableRecord
  2
template
 70
               0
 62
               7
  6
Continuous
290
               1
370
              -3
390
1D
  0
LAYER
  5
4C
100
AcDbSymbolTableRecord
100
AcDbLayerTableRecord
  2
notes
 70
               0
 62
               7
  6
Continuous
290
               1
370
              -3
390
1D
  0
LAYER
  5
4D
100
AcDbSymbolTableRecord
100
AcDbLayerTableRecord
  2
ADF70-1105
 70
               0
 62
               7
  6
Continuous
290
               1
370
              -3
390
1D
  0
ENDTAB
  0
TABLE
  2
STYLE
  5
3
100
AcDbSymbolTable
 70
               3
  0
STYLE
  5
17
100
AcDbSymbolTableRecord
100
AcDbTextStyleTableRecord
  2
Standard
 70
               0
 40
0.0
 41
1.0
 50
0.0
 71
               0
 42
0.0
  3
txt
  4
BIGFONT.SHX
  0
STYLE
  5
3C
100
AcDbSymbolTableRecord
100
AcDbTextStyleTableRecord
  2
ＭＳ ゴシック
 70
               0
 40
0.0
 41
1.0
 50
0.0
 71
               0
 42
0.0
  3

  4
ＭＳ ゴシック
1001
ACAD
1000
ＭＳ ゴシック
1071
        0
  0
STYLE
  5
3D
100
AcDbSymbolTableRecord
100
AcDbTextStyleTableRecord
  2
ＭＳゴシック
 70
               0
 40
0.0
 41
1.0
 50
0.0
 71
               0
 42
0.0
  3

  4
ＭＳゴシック
1001
ACAD
1000
ＭＳゴシック
1071
        0
  0
ENDTAB
  0
TABLE
  2
VIEW
  5
5
100
AcDbSymbolTable
 70
               0
  0
ENDTAB
  0
TABLE
  2
UCS
  5
6
100
AcDbSymbolTable
 70
               0
  0
ENDTAB
  0
TABLE
  2
APPID
  5
8
100
AcDbSymbolTable
 70
               1
  0
APPID
  5
16
100
AcDbSymbolTableRecord
100
AcDbRegAppTableRecord
  2
ACAD
 70
               0
  0
ENDTAB
  0
TABLE
  2
DIMSTYLE
  5
9
100
AcDbSymbolTable
 70
               2
100
AcDbDimStyleTable
 71
               0
  0
DIMSTYLE
105
18
100
AcDbSymbolTableRecord
100
AcDbDimStyleTableRecord
  2
Standard
 70
               0
  3

  4

 40
1.0
 41
0.18
 42
0.0625
 43
0.38
 44
0.18
 45
0.0
 46
0.0
 47
0.0
 48
0.0
 71
               0
 72
               0
 73
               1
 74
               1
 75
               0
 76
               0
 77
               0
 78
               0
 79
               0
140
0.18
141
0.09
142
0.0
143
25.399999999999999
144
1.0
145
0.0
146
1.0
147
0.09
148
0.0
170
               0
171
               2
172
               0
173
               0
174
               0
175
               0
176
               0
177
               0
178
               0
179
               0
271
               4
272
               4
273
               2
274
               2
275
               0
276
               0
277
               2
278
              46
279
               0
280
               0
281
               0
282
               0
283
               1
284
               0
285
               0
286
               0
288
               0
289
               3
340
17
341
0
342
0
343
0
344
0
371
              -2
372
              -2
  0
DIMSTYLE
105
56
100
AcDbSymbolTableRecord
100
AcDbDimStyleTableRecord
  2
tform線あり
 70
               0
  3
<>
  4
[]
 40
1.0
 41
9.9993896484374982
 42
24.999999999999996
 43
0.9999999999999999
 44
0.0
 45
0.0
 46
0.0
 47
0.0
 48
0.0
 71
               0
 72
               0
 73
               0
 74
               0
 75
               0
 76
               0
 77
               1
 78
              11
 79
               0
140
24.432617187500004
141
0.0
142
0.0
143
1.0
144
1.0
145
0.0
146
1.0
147
0.4999999999999999
148
0.0
170
               0
171
               1
172
               0
173
               0
174
               1
175
               0
176
               0
177
               0
178
               0
179
               2
271
               1
272
               1
273
               2
274
               2
275
               0
276
               2
277
               2
278
              46
279
               0
280
               0
281
               0
282
               0
283
               1
284
              11
285
              11
286
              11
288
               0
289
               0
340
3D
341
4E
342
4E
343
0
344
0
371
              -2
372
              -2
  0
ENDTAB
  0
TABLE
  2
BLOCK_RECORD
  5
1
100
AcDbSymbolTable
 70
              26
  0
BLOCK_RECORD
  5
A
100
AcDbSymbolTableRecord
100
AcDbBlockTableRecord
  2
*MODEL_SPACE
340
20
  0
BLOCK_RECORD
  5
B
100
AcDbSymbolTableRecord
100
AcDbBlockTableRecord
  2
*PAPER_SPACE
340
21
  0
BLOCK_RECORD
  5
4E
100
AcDbSymbolTableRecord
100
AcDbBlockTableRecord
  2
_DOT
340
0
  0
BLOCK_RECORD
  5
23
100
AcDbSymbolTableRecord
100
AcDbBlockTableRecord
  2
グループ
340
0
102
{BLKREFS
331
182
102
}
  0
BLOCK_RECORD
  5
24
100
AcDbSymbolTableRecord
100
AcDbBlockTableRecord
  2
*D2
340
0
  0
BLOCK_RECORD
  5
25
100
AcDbSymbolTableRecord
100
AcDbBlockTableRecord
  2
*D3
340
0
  0
BLOCK_RECORD
  5
26
100
AcDbSymbolTableRecord
100
AcDbBlockTableRecord
  2
*D4
340
0
  0
BLOCK_RECORD
  5
27
100
AcDbSymbolTableRecord
100
AcDbBlockTableRecord
  2
*D5
340
0
  0
BLOCK_RECORD
  5
28
100
AcDbSymbolTableRecord
100
AcDbBlockTableRecord
  2
*D6
340
0
  0
BLOCK_RECORD
  5
29
100
AcDbSymbolTableRecord
100
AcDbBlockTableRecord
  2
*D7
340
0
  0
BLOCK_RECORD
  5
2A
100
AcDbSymbolTableRecord
100
AcDbBlockTableRecord
  2
*D8
340
0
  0
BLOCK_RECORD
  5
2B
100
AcDbSymbolTableRecord
100
AcDbBlockTableRecord
  2
*D9
340
0
  0
BLOCK_RECORD
  5
2C
100
AcDbSymbolTableRecord
100
AcDbBlockTableRecord
  2
*D10
340
0
  0
BLOCK_RECORD
  5
2D
100
AcDbSymbolTableRecord
100
AcDbBlockTableRecord
  2
*D11
340
0
  0
BLOCK_RECORD
  5
2E
100
AcDbSymbolTableRecord
100
AcDbBlockTableRecord
  2
*D12
340
0
  0
BLOCK_RECORD
  5
2F
100
AcDbSymbolTableRecord
100
AcDbBlockTableRecord
  2
*D13
340
0
  0
BLOCK_RECORD
  5
30
100
AcDbSymbolTableRecord
100
AcDbBlockTableRecord
  2
*D14
340
0
  0
BLOCK_RECORD
  5
31
100
AcDbSymbolTableRecord
100
AcDbBlockTableRecord
  2
*D15
340
0
  0
BLOCK_RECORD
  5
32
100
AcDbSymbolTableRecord
100
AcDbBlockTableRecord
  2
*D16
340
0
  0
BLOCK_RECORD
  5
33
100
AcDbSymbolTableRecord
100
AcDbBlockTableRecord
  2
*D17
340
0
  0
BLOCK_RECORD
  5
34
100
AcDbSymbolTableRecord
100
AcDbBlockTableRecord
  2
*D18
340
0
  0
BLOCK_RECORD
  5
35
100
AcDbSymbolTableRecord
100
AcDbBlockTableRecord
  2
*D19
340
0
  0
BLOCK_RECORD
  5
36
100
AcDbSymbolTableRecord
100
AcDbBlockTableRecord
  2
*D20
340
0
  0
BLOCK_RECORD
  5
37
100
AcDbSymbolTableRecord
100
AcDbBlockTableRecord
  2
*D21
340
0
  0
BLOCK_RECORD
  5
38
100
AcDbSymbolTableRecord
100
AcDbBlockTableRecord
  2
グループ-1
340
0
102
{BLKREFS
331
1E0
102
}
  0
BLOCK_RECORD
  5
39
100
AcDbSymbolTableRecord
100
AcDbBlockTableRecord
  2
グループ-2
340
0
102
{BLKREFS
331
1E1
102
}
  0
BLOCK_RECORD
  5
3A
100
AcDbSymbolTableRecord
100
AcDbBlockTableRecord
  2
グループ-3
340
0
102
{BLKREFS
331
1E2
102
}
  0
BLOCK_RECORD
  5
3B
100
AcDbSymbolTableRecord
100
AcDbBlockTableRecord
  2
グループ-4
340
0
102
{BLKREFS
331
1E3
102
}
  0
ENDTAB
  0
ENDSEC
  0
SECTION
  2
BLOCKS
  0
BLOCK
  5
D
100
AcDbEntity
  8
0
390
0
100
AcDbBlockBegin
  2
*MODEL_SPACE
 70
               0
 10
0.0
 20
0.0
 30
0.0
  3
*MODEL_SPACE
  1

  0
ENDBLK
  5
E
100
AcDbEntity
  8
0
390
0
100
AcDbBlockEnd
  0
BLOCK
  5
F
100
AcDbEntity
 67
               1
  8
0
390
0
100
AcDbBlockBegin
  2
*PAPER_SPACE
 70
               0
 10
0.0
 20
0.0
 30
0.0
  3
*PAPER_SPACE
  1

  0
ENDBLK
  5
10
100
AcDbEntity
 67
               1
  8
0
390
0
100
AcDbBlockEnd
  0
BLOCK
  5
4F
100
AcDbEntity
  8
0
390
0
100
AcDbBlockBegin
  2
_DOT
 70
               0
 10
0.0
 20
0.0
 30
0.0
  3
_DOT
  1

  0
POLYLINE
  5
50
100
AcDbEntity
  8
0
370
              -2
390
0
  6
ByBlock
 62
               0
100
AcDb2dPolyline
 66
               1
 10
0.0
 20
0.0
 30
0.0
 70
               1
 40
0.5
 41
0.5
  0
VERTEX
  5
51
100
AcDbEntity
  8
0
370
              -2
390
0
  6
ByBlock
 62
               0
100
AcDbVertex
100
AcDb2dVertex
 10
-0.25
 20
0.0
 30
0.0
 42
1.0
  0
VERTEX
  5
52
100
AcDbEntity
  8
0
370
              -2
390
0
  6
ByBlock
 62
               0
100
AcDbVertex
100
AcDb2dVertex
 10
0.25
 20
0.0
 30
0.0
 42
1.0
  0
SEQEND
  5
53
100
AcDbEntity
  8
0
390
0
  0
LINE
  5
54
100
AcDbEntity
  8
0
370
              -2
390
0
  6
ByBlock
 62
               0
100
AcDbLine
 10
-0.5
 20
0.0
 30
0.0
 11
-1.0
 21
0.0
 31
0.0
  0
ENDBLK
  5
55
100
AcDbEntity
  8
0
390
0
100
AcDbBlockEnd
  0
BLOCK
  5
57
100
AcDbEntity
  8
template
390
0
100
AcDbBlockBegin
  2
グループ
 70
               0
 10
0.0
 20
0.0
 30
0.0
  3
グループ
  1

  0
LWPOLYLINE
  5
58
100
AcDbEntity
  8
0
370
              15
390
0
  6
Continuous
 62
               7
100
AcDbPolyline
 90
        8
 70
             129
 10
-3484.3369272558416
 20
-9980.9373180151124
 10
-3484.3369272558416
 20
-9986.9347067086892
 10
-3493.8381241738448
 20
-9986.9347067086892
 10
-3493.8381241738448
 20
-10011.385669972198
 10
-3502.1935014356277
 20
-10011.385669972198
 10
-3502.1935014356277
 20
-9986.9347067086892
 10
-3511.5264583819371
 20
-9986.9347067086892
 10
-3511.5264583819371
 20
-9980.9373180151124
  0
LWPOLYLINE
  5
59
100
AcDbEntity
  8
0
370
              15
390
0
  6
Continuous
 62
               7
100
AcDbPolyline
 90
      101
 70
             128
 10
-3471.6086354252848
 20
-9981.6655665080507
 10
-3471.5932853965019
 20
-9981.6612057513667
 42
-0.0222221607827761
 10
-3471.3032808198286
 20
-9981.5925812861205
 10
-3471.2874870557998
 20
-9981.5895778630165
 42
-0.0146883565577
 10
-3471.0247843506108
 20
-9981.5475746760749
 42
-0.0127458844216937
 10
-3470.7601453834609
 20
-9981.5200377080018
 10
-3470.697690305145
 20
-9981.515144285413
 42
-0.0198099018575731
 10
-3470.3068411956779
 20
-9981.5000591280168
 10
-3470.2550297262242
 20
-9981.5001129036827
 42
-0.014761738276621
 10
-3469.7604062652313
 20
-9981.5152329289285
 10
-3469.687714810354
 20
-9981.5196055358156
 42
-0.016262454898913
 10
-3469.2975611809106
 20
-9981.5558384110864
 10
-3469.176028789675
 20
-9981.5711249700798
 42
-0.0080020874670638
 10
-3469.0304497585603
 20
-9981.5918078173509
 10
-3468.9921302878975
 20
-9981.5978790951722
 42
-0.0053821929607466
 10
-3468.9236461826499
 20
-9981.6094866189833
 10
-3469.6500518818484
 20
-9983.7904150746981
 42
0.010866775729071
 10
-3469.7173689519318
 20
-9983.7772279594865
 10
-3469.7548369751694
 20
-9983.7707302168837
 42
0.0170663203282083
 10
-3469.8980537620632
 20
-9983.7509006195942
 10
-3469.9659290947675
 20
-9983.7438534490047
 42
0.022016237525777
 10
-3470.2463085026216
 20
-9983.7271710882342
 10
-3470.3241640696742
 20
-9983.7259717209672
 42
0.0282606915764025
 10
-3470.6598003932531
 20
-9983.7397749979355
 10
-3470.7037136670383
 20
-9983.7440749879406
 42
0.0169677213662415
 10
-3470.9496381619838
 20
-9983.7766120374908
 42
0.0190576269845126
 10
-3471.1925461245642
 20
-9983.8267589095976
 10
-3471.1988053126752
 20
-9983.8283018837064
 42
0.0213685642834372
 10
-3471.4491897971566
 20
-9983.9015021688137
 10
-3471.454679692069
 20
-9983.9033651648715
 42
0.0237595297580743
 10
-3471.7081745769578
 20
-9984.0030496867621
 10
-3471.7132766509976
 20
-9984.0053414622453
 42
0.026185746881236
 10
-3471.965447427232
 20
-9984.1348777996209
 10
-3471.9758736163062
 20
-9984.140943274082
 42
0.0272553062011653
 10
-3472.2123033915523
 20
-9984.2963154800327
 10
-3472.2470664050702
 20
-9984.3219766281309
 42
0.0325996893204954
 10
-3472.3972217487135
 20
-9984.4487245010969
 10
-3472.420931177835
 20
-9984.4715425296072
 42
0.0138050960662997
 10
-3472.5128143340471
 20
-9984.5649921911609
 42
0.0125280103852545
 10
-3472.599656866887
 20
-9984.6631555177682
 10
-3472.6233373117889
 20
-9984.6913140159486
 42
0.0205218024684974
 10
-3472.7484373873035
 20
-9984.8531073301783
 10
-3472.7709037277896
 20
-9984.8847670600044
 42
0.0163110129589536
 10
-3472.9266141070398
 20
-9985.1200974950716
 10
-3472.9293380030917
 20
-9985.1245212570593
 42
0.0131897341887449
 10
-3473.0761385239939
 20
-9985.3776533494165
 10
-3473.0778386193642
 20
-9985.3807715885596
 42
0.0107895576090562
 10
-3473.2156153215778
 20
-9985.6469867982014
 10
-3473.2163482111
 20
-9985.6484810308411
 42
0.0091371507204882
 10
-3473.3448281597507
 20
-9985.9230062286042
 10
-3473.3745737911586
 20
-9985.9897127357599
 42
0.0135418326361503
 10
-3473.5462877302325
 20
-9986.4046505210335
 10
-3473.5798925386557
 20
-9986.4925166632875
 42
0.0092834542431867
 10
-3473.7511215985855
 20
-9986.9664151616162
 10
-3473.7767387263034
 20
-9987.0416562314094
 42
0.0054261043555938
 10
-3473.8843768745965
 20
-9987.3694202044735
 10
-3473.901902860805
 20
-9987.4248083668008
 42
0.0008225090812543
 10
-3473.9705729126035
 20
-9987.6430771248524
 10
-3474.955262044537
 20
-9990.667968418109
 10
-3471.7226382044632
 20
-9990.667968418109
 10
-3472.2268306343167
 20
-9992.5724467164619
 10
-3475.4828869163002
 20
-9992.5724467164619
 10
-3481.3120359486538
 20
-10011.385669782467
 10
-3483.1371335589643
 20
-10011.385669782467
 10
-3477.3024555234633
 20
-9992.5724467164619
 10
-3479.7075718925034
 20
-9992.5724467164619
 10
-3479.20337946265
 20
-9990.667968418109
 10
-3476.7748306517001
 20
-9990.667968418109
 10
-3475.9146757335116
 20
-9988.0315554174103
 42
-0.0005863560645529
 10
-3475.877941055322
 20
-9987.9147289971643
 10
-3475.8018532216474
 20
-9987.6737366977341
 42
-0.0087522378915574
 10
-3475.6023850781921
 20
-9987.0784606105917
 10
-3475.5101208027786
 20
-9986.8183204420766
 42
-0.0077400953819255
 10
-3475.2521871436461
 20
-9986.125315764526
 10
-3475.2364221720686
 20
-9986.0848848811438
 42
-0.0082369946321636
 10
-3474.989337701455
 20
-9985.4808058149447
 42
-0.0085725238371646
 10
-3474.7220916054525
 20
-9984.8853797756583
 10
-3474.6204620044427
 20
-9984.6689586736666
 42
-0.0168109410597953
 10
-3474.3335175757152
 20
-9984.1077511475669
 10
-3474.2076741853134
 20
-9983.8807871146728
 42
-0.0007817726863175
 10
-3474.1533898351995
 20
-9983.7832428695383
 10
-3474.1532615291912
 20
-9983.7830131608189
 42
-0.0036626142189749
 10
-3474.098373665161
 20
-9983.6864152808339
 42
-0.0080221150637492
 10
-3474.0412494097554
 20
-9983.5911360460814
 10
-3474.0105494583931
 20
-9983.541745096958
 42
-0.0202139325522732
 10
-3473.8828937185849
 20
-9983.353763496274
 10
-3473.8288262533988
 20
-9983.2806846320364
 42
-0.0249323791790752
 10
-3473.5696634596829
 20
-9982.9646393898856
 10
-3473.5455236455527
 20
-9982.9380251169696
 42
-0.0242132121556027
 10
-3473.2058429040076
 20
-9982.5981416307641
 10
-3473.1579313312591
 20
-9982.554632494579
 42
-0.025101752785772
 10
-3472.8739496306189
 20
-9982.3216397488141
 10
-3472.872504153831
 20
-9982.3205704912543
 42
-0.0130868069038815
 10
-3472.5742435038483
 20
-9982.1117900226927
 10
-3472.5726816846959
 20
-9982.1107565824113
 42
-0.0290329526380924
 10
-3472.2615705433118
 20
-9981.9299310807892
 10
-3472.2317249813
 20
-9981.9148286979362
 42
-0.0160250190045755
 10
-3471.9658205675614
 20
-9981.7908125877366
 42
-0.0267600374821154
 10
-3471.6905444901067
 20
-9981.6900642671935
 10
-3471.6638085705717
 20
-9981.6818717083625
 42
-0.0049981587858741
 10
-3471.6086354252848
 20
-9981.6655665080507
 42
-0.0049981587858741
  0
LWPOLYLINE
  5
5A
100
AcDbEntity
  8
0
370
              15
390
0
  6
Continuous
 62
               7
100
AcDbPolyline
 90
      118
 70
             128
 10
-3451.7942678608379
 20
-9990.7419517459366
 10
-3449.9191459363383
 20
-9990.7419517459366
 10
-3450.7571848419384
 20
-9993.4235182723369
 42
-0.0010587229191498
 10
-3450.7257290264392
 20
-9993.3866137390651
 10
-3450.6675349357342
 20
-9993.3186314828054
 42
-0.0071874740450618
 10
-3450.5171597176522
 20
-9993.147990790796
 10
-3450.3754369443741
 20
-9992.9917546494653
 42
-0.0148118053513502
 10
-3449.9253076516625
 20
-9992.5241408034526
 10
-3449.83808531676
 20
-9992.4387434825967
 42
-0.0086273358680843
 10
-3449.5025365157508
 20
-9992.1213678485801
 10
-3449.458702799508
 20
-9992.0813182042311
 42
-0.0103138323111048
 10
-3449.2006790972919
 20
-9991.855155066909
 10
-3449.1549046909563
 20
-9991.8166730196408
 42
-0.0060206748523941
 10
-3448.9820566268527
 20
-9991.6748783688945
 10
-3448.9800254959996
 20
-9991.6732526632895
 42
-0.0067069027327793
 10
-3448.8077326813041
 20
-9991.5391020294683
 10
-3448.8051839153582
 20
-9991.5371718595779
 42
-0.0076184352035932
 10
-3448.6342786495065
 20
-9991.4117969843501
 42
-0.0089652861680723
 10
-3448.4593176867506
 20
-9991.2921637240033
 10
-3448.4229659666239
 20
-9991.268252510532
 42
-0.0156916245945526
 10
-3448.2270064694667
 20
-9991.1479900240593
 42
-0.0023299011058644
 10
-3448.026744425445
 20
-9991.0348120844956
 10
-3448.0113602931069
 20
-9991.0262120894549
 42
-0.0107669341464652
 10
-3447.7771234679808
 20
-9990.9018119560915
 10
-3447.7548586669309
 20
-9990.8905952061541
 42
-0.0078058045862484
 10
-3447.4712685489772
 20
-9990.7532337505145
 10
-3447.461361461269
 20
-9990.7486246226472
 42
-0.0181829330462782
 10
-3447.1510520566321
 20
-9990.6177608815451
 10
-3447.0969966140888
 20
-9990.5972457616099
 42
-0.0208411536032369
 10
-3446.7479116466366
 20
-9990.4811552991159
 10
-3446.7335555464992
 20
-9990.4770368541595
 42
-0.0222799817130751
 10
-3446.4048357525917
 20
-9990.3983952880226
 10
-3446.3959467893678
 20
-9990.3966832774404
 42
-0.0215509523915338
 10
-3446.079475821075
 20
-9990.3497675889012
 10
-3446.0369938600488
 20
-9990.3453300621131
 42
-0.0182545924852865
 10
-3445.8028850807204
 20
-9990.3294862367202
 10
-3445.7634840643732
 20
-9990.3282616916404
 42
-0.0072962856585823
 10
-3445.6075611846836
 20
-9990.3256923631197
 10
-3445.5784615141711
 20
-9990.325637527716
 42
-0.0059227516387011
 10
-3445.4807120149671
 20
-9990.3266112395067
 10
-3445.4514697977443
 20
-9990.3272490061026
 42
-0.001183311184122
 10
-3445.4122185137626
 20
-9990.3281980104184
 10
-3446.20760510937
 20
-9992.8669319555174
 42
0.0143932051464671
 10
-3446.234006491703
 20
-9992.8567329854795
 10
-3446.2412784641374
 20
-9992.854161766616
 42
0.0234388603523226
 10
-3446.2831093300629
 20
-9992.8415425309013
 10
-3446.2917909929824
 20
-9992.8393615688947
 42
0.0199162743121939
 10
-3446.3520798270661
 20
-9992.826744833561
 10
-3446.3728937648684
 20
-9992.8232476341327
 42
0.0293643550654652
 10
-3446.4759686236189
 20
-9992.8120975884794
 10
-3446.5006538043481
 20
-9992.8108859714594
 42
0.0214606686839542
 10
-3446.6537947202955
 20
-9992.8099474110422
 10
-3446.6631666311187
 20
-9992.810292322587
 42
0.016756405414909
 10
-3446.8346868222284
 20
-9992.8223693649543
 10
-3446.8431466149859
 20
-9992.8232507053817
 42
0.0137677553269606
 10
-3447.030499928273
 20
-9992.848000013928
 10
-3447.0378516677583
 20
-9992.8491779338929
 42
0.0118497261525581
 10
-3447.2383494319174
 20
-9992.8861952840944
 10
-3447.2444994391071
 20
-9992.8874821468016
 42
0.0106421143891303
 10
-3447.4553803264062
 20
-9992.9363145223815
 10
-3447.4602891347813
 20
-9992.9375618650629
 42
0.009974637969829
 10
-3447.6787476039408
 20
-9992.9977363933776
 10
-3447.7402956441138
 20
-9993.0160182720083
 42
0.0191613675836725
 10
-3448.0762801065921
 20
-9993.1299956522798
 10
-3448.1643398793949
 20
-9993.1636825626265
 42
0.020527408016824
 10
-3448.5496466512759
 20
-9993.329510970445
 10
-3448.6072959332573
 20
-9993.3571789350171
 42
0.0181256912189068
 10
-3448.865572873925
 20
-9993.4928627539957
 10
-3448.9185282572448
 20
-9993.5231803672141
 42
0.0140709242428571
 10
-3449.0634831918669
 20
-9993.6116750406454
 10
-3449.0897320604681
 20
-9993.6287318593495
 42
0.0086667884399583
 10
-3449.1786582220284
 20
-9993.6887345272444
 42
0.0036408192056468
 10
-3449.2660914601015
 20
-9993.7509153850642
 10
-3449.3013183345302
 20
-9993.7763563309491
 42
0.0052260781296728
 10
-3449.4575470319842
 20
-9993.8916887176292
 10
-3449.4737538881809
 20
-9993.9039168281997
 42
0.0050024435875011
 10
-3449.6597572312721
 20
-9994.0471993964893
 10
-3449.675075387755
 20
-9994.05924541891
 42
0.0136138710289007
 10
-3449.8855166560966
 20
-9994.2342119238365
 10
-3449.9191845318737
 20
-9994.2637908965371
 42
0.0172815186923626
 10
-3450.1835880735271
 20
-9994.5127875691505
 10
-3450.1861504193785
 20
-9994.5153733863062
 42
0.0189403857989103
 10
-3450.4367322179532
 20
-9994.7881786511061
 10
-3450.469363711497
 20
-9994.8265225826126
 42
0.0185044199471571
 10
-3450.6613201504738
 20
-9995.0697711637313
 42
0.0088565243899672
 10
-3450.8397802570921
 20
-9995.3232875838657
 10
-3450.8489582367511
 20
-9995.3368289636419
 42
0.0157195347215696
 10
-3451.0321788430842
 20
-9995.6263511729558
 10
-3451.0782617850236
 20
-9995.7045033699906
 42
0.0095451879788309
 10
-3451.2433473351534
 20
-9995.9970980123344
 10
-3451.2544952540829
 20
-9996.0177686844672
 42
0.0100351706272122
 10
-3451.3865390032424
 20
-9996.2748242449561
 42
0.0086935915426642
 10
-3451.5088701550349
 20
-9996.5366573903593
 10
-3451.5121908964506
 20
-9996.5440997133337
 42
0.0072580174871651
 10
-3451.6325373483965
 20
-9996.8246917049182
 10
-3451.635798981702
 20
-9996.8326117309334
 42
0.0060005122588646
 10
-3451.7549996500543
 20
-9997.1322214015654
 10
-3451.7582106283862
 20
-9997.1405829294454
 42
0.0049017786985892
 10
-3451.8771107872253
 20
-9997.4595119099977
 10
-3451.8802765936343
 20
-9997.468264847279
 42
0.0039415167597389
 10
-3451.999712871705
 20
-9997.8068069097335
 10
-3452.0028439743428
 20
-9997.8159101105684
 42
0.0031035838776099
 10
-3452.1236487600463
 20
-9998.1743499723725
 10
-3452.1267588045666
 20
-9998.1837705937178
 42
0.0025070747178421
 10
-3452.249660155891
 20
-9998.5624178106882
 10
-3452.286954052307
 20
-9998.6793094759123
 42
0.0029081910273096
 10
-3452.4789723501276
 20
-9999.2934731342339
 10
-3452.5197755186355
 20
-9999.4266963764803
 42
0.0009266453745445
 10
-3452.7881928929683
 20
-10000.308920836465
 10
-3452.8090803656019
 20
-10000.378032715676
 42
-0.0005809993670368
 10
-3453.0864170461819
 20
-10001.291840822279
 10
-3453.1526988444193
 20
-10001.509325754323
 42
-0.0012018708193724
 10
-3453.299683153884
 20
-10001.987488418959
 10
-3453.3520030056925
 20
-10002.156247560608
 42
-0.0002691059616191
 10
-3453.3955724866178
 20
-10002.296515180167
 10
-3456.2285283849069
 20
-10011.385669782467
 10
-3458.0465172768854
 20
-10011.385669782467
 10
-3451.7942678608379
 20
-9990.7419517459366
  0
SPLINE
  5
5B
100
AcDbEntity
  8
0
370
              15
390
0
  6
Continuous
 62
               7
100
AcDbSpline
210
0.0
220
0.0
230
1.0
 70
              13
 71
               2
 72
             782
 73
             779
 74
               0
 42
0.000001
 43
0.000001
 40
0.0
 40
0.0
 40
0.0
 40
1.0
 40
1.0
 40
2.0
 40
2.0
 40
3.0
 40
3.0
 40
4.0
 40
4.0
 40
5.0
 40
5.0
 40
6.0
 40
6.0
 40
7.0
 40
7.0
 40
8.0
 40
8.0
 40
9.0
 40
9.0
 40
10.0
 40
10.0
 40
11.0
 40
11.0
 40
12.0
 40
12.0
 40
13.0
 40
13.0
 40
14.0
 40
14.0
 40
15.0
 40
15.0
 40
16.0
 40
16.0
 40
17.0
 40
17.0
 40
18.0
 40
18.0
 40
19.0
 40
19.0
 40
20.0
 40
20.0
 40
21.0
 40
21.0
 40
22.0
 40
22.0
 40
23.0
 40
23.0
 40
24.0
 40
24.0
 40
25.0
 40
25.0
 40
26.0
 40
26.0
 40
27.0
 40
27.0
 40
28.0
 40
28.0
 40
29.0
 40
29.0
 40
30.0
 40
30.0
 40
31.0
 40
31.0
 40
32.0
 40
32.0
 40
33.0
 40
33.0
 40
34.0
 40
34.0
 40
35.0
 40
35.0
 40
36.0
 40
36.0
 40
37.0
 40
37.0
 40
38.0
 40
38.0
 40
39.0
 40
39.0
 40
40.0
 40
40.0
 40
41.0
 40
41.0
 40
42.0
 40
42.0
 40
43.0
 40
43.0
 40
44.0
 40
44.0
 40
45.0
 40
45.0
 40
46.0
 40
46.0
 40
47.0
 40
47.0
 40
48.0
 40
48.0
 40
49.0
 40
49.0
 40
50.0
 40
50.0
 40
51.0
 40
51.0
 40
52.0
 40
52.0
 40
53.0
 40
53.0
 40
54.0
 40
54.0
 40
55.0
 40
55.0
 40
56.0
 40
56.0
 40
57.0
 40
57.0
 40
58.0
 40
58.0
 40
59.0
 40
59.0
 40
60.0
 40
60.0
 40
61.0
 40
61.0
 40
62.0
 40
62.0
 40
63.0
 40
63.0
 40
64.0
 40
64.0
 40
65.0
 40
65.0
 40
66.0
 40
66.0
 40
67.0
 40
67.0
 40
68.0
 40
68.0
 40
69.0
 40
69.0
 40
70.0
 40
70.0
 40
71.0
 40
71.0
 40
72.0
 40
72.0
 40
73.0
 40
73.0
 40
74.0
 40
74.0
 40
75.0
 40
75.0
 40
76.0
 40
76.0
 40
77.0
 40
77.0
 40
78.0
 40
78.0
 40
79.0
 40
79.0
 40
80.0
 40
80.0
 40
81.0
 40
81.0
 40
82.0
 40
82.0
 40
83.0
 40
83.0
 40
84.0
 40
84.0
 40
85.0
 40
85.0
 40
86.0
 40
86.0
 40
87.0
 40
87.0
 40
88.0
 40
88.0
 40
89.0
 40
89.0
 40
90.0
 40
90.0
 40
91.0
 40
91.0
 40
92.0
 40
92.0
 40
93.0
 40
93.0
 40
94.0
 40
94.0
 40
95.0
 40
95.0
 40
96.0
 40
96.0
 40
97.0
 40
97.0
 40
98.0
 40
98.0
 40
99.0
 40
99.0
 40
100.0
 40
100.0
 40
101.0
 40
101.0
 40
102.0
 40
102.0
 40
103.0
 40
103.0
 40
104.0
 40
104.0
 40
105.0
 40
105.0
 40
106.0
 40
106.0
 40
107.0
 40
107.0
 40
108.0
 40
108.0
 40
109.0
 40
109.0
 40
110.0
 40
110.0
 40
111.0
 40
111.0
 40
112.0
 40
112.0
 40
113.0
 40
113.0
 40
114.0
 40
114.0
 40
115.0
 40
115.0
 40
116.0
 40
116.0
 40
117.0
 40
117.0
 40
118.0
 40
118.0
 40
119.0
 40
119.0
 40
120.0
 40
120.0
 40
121.0
 40
121.0
 40
122.0
 40
122.0
 40
123.0
 40
123.0
 40
124.0
 40
124.0
 40
125.0
 40
125.0
 40
126.0
 40
126.0
 40
127.0
 40
127.0
 40
128.0
 40
128.0
 40
129.0
 40
129.0
 40
130.0
 40
130.0
 40
131.0
 40
131.0
 40
132.0
 40
132.0
 40
133.0
 40
133.0
 40
134.0
 40
134.0
 40
135.0
 40
135.0
 40
136.0
 40
136.0
 40
137.0
 40
137.0
 40
138.0
 40
138.0
 40
139.0
 40
139.0
 40
140.0
 40
140.0
 40
141.0
 40
141.0
 40
142.0
 40
142.0
 40
143.0
 40
143.0
 40
144.0
 40
144.0
 40
145.0
 40
145.0
 40
146.0
 40
146.0
 40
147.0
 40
147.0
 40
148.0
 40
148.0
 40
149.0
 40
149.0
 40
150.0
 40
150.0
 40
151.0
 40
151.0
 40
152.0
 40
152.0
 40
153.0
 40
153.0
 40
154.0
 40
154.0
 40
155.0
 40
155.0
 40
156.0
 40
156.0
 40
157.0
 40
157.0
 40
158.0
 40
158.0
 40
159.0
 40
159.0
 40
160.0
 40
160.0
 40
161.0
 40
161.0
 40
162.0
 40
162.0
 40
163.0
 40
163.0
 40
164.0
 40
164.0
 40
165.0
 40
165.0
 40
166.0
 40
166.0
 40
167.0
 40
167.0
 40
168.0
 40
168.0
 40
169.0
 40
169.0
 40
170.0
 40
170.0
 40
171.0
 40
171.0
 40
172.0
 40
172.0
 40
173.0
 40
173.0
 40
174.0
 40
174.0
 40
175.0
 40
175.0
 40
176.0
 40
176.0
 40
177.0
 40
177.0
 40
178.0
 40
178.0
 40
179.0
 40
179.0
 40
180.0
 40
180.0
 40
181.0
 40
181.0
 40
182.0
 40
182.0
 40
183.0
 40
183.0
 40
184.0
 40
184.0
 40
185.0
 40
185.0
 40
186.0
 40
186.0
 40
187.0
 40
187.0
 40
188.0
 40
188.0
 40
189.0
 40
189.0
 40
190.0
 40
190.0
 40
191.0
 40
191.0
 40
192.0
 40
192.0
 40
193.0
 40
193.0
 40
194.0
 40
194.0
 40
195.0
 40
195.0
 40
196.0
 40
196.0
 40
197.0
 40
197.0
 40
198.0
 40
198.0
 40
199.0
 40
199.0
 40
200.0
 40
200.0
 40
201.0
 40
201.0
 40
202.0
 40
202.0
 40
203.0
 40
203.0
 40
204.0
 40
204.0
 40
205.0
 40
205.0
 40
206.0
 40
206.0
 40
207.0
 40
207.0
 40
208.0
 40
208.0
 40
209.0
 40
209.0
 40
210.0
 40
210.0
 40
211.0
 40
211.0
 40
212.0
 40
212.0
 40
213.0
 40
213.0
 40
214.0
 40
214.0
 40
215.0
 40
215.0
 40
216.0
 40
216.0
 40
217.0
 40
217.0
 40
218.0
 40
218.0
 40
219.0
 40
219.0
 40
220.0
 40
220.0
 40
221.0
 40
221.0
 40
222.0
 40
222.0
 40
223.0
 40
223.0
 40
224.0
 40
224.0
 40
225.0
 40
225.0
 40
226.0
 40
226.0
 40
227.0
 40
227.0
 40
228.0
 40
228.0
 40
229.0
 40
229.0
 40
230.0
 40
230.0
 40
231.0
 40
231.0
 40
232.0
 40
232.0
 40
233.0
 40
233.0
 40
234.0
 40
234.0
 40
235.0
 40
235.0
 40
236.0
 40
236.0
 40
237.0
 40
237.0
 40
238.0
 40
238.0
 40
239.0
 40
239.0
 40
240.0
 40
240.0
 40
241.0
 40
241.0
 40
242.0
 40
242.0
 40
243.0
 40
243.0
 40
244.0
 40
244.0
 40
245.0
 40
245.0
 40
246.0
 40
246.0
 40
247.0
 40
247.0
 40
248.0
 40
248.0
 40
249.0
 40
249.0
 40
250.0
 40
250.0
 40
251.0
 40
251.0
 40
252.0
 40
252.0
 40
253.0
 40
253.0
 40
254.0
 40
254.0
 40
255.0
 40
255.0
 40
256.0
 40
256.0
 40
257.0
 40
257.0
 40
258.0
 40
258.0
 40
259.0
 40
259.0
 40
260.0
 40
260.0
 40
261.0
 40
261.0
 40
262.0
 40
262.0
 40
263.0
 40
263.0
 40
264.0
 40
264.0
 40
265.0
 40
265.0
 40
266.0
 40
266.0
 40
267.0
 40
267.0
 40
268.0
 40
268.0
 40
269.0
 40
269.0
 40
270.0
 40
270.0
 40
271.0
 40
271.0
 40
272.0
 40
272.0
 40
273.0
 40
273.0
 40
274.0
 40
274.0
 40
275.0
 40
275.0
 40
276.0
 40
276.0
 40
277.0
 40
277.0
 40
278.0
 40
278.0
 40
279.0
 40
279.0
 40
280.0
 40
280.0
 40
281.0
 40
281.0
 40
282.0
 40
282.0
 40
283.0
 40
283.0
 40
284.0
 40
284.0
 40
285.0
 40
285.0
 40
286.0
 40
286.0
 40
287.0
 40
287.0
 40
288.0
 40
288.0
 40
289.0
 40
289.0
 40
290.0
 40
290.0
 40
291.0
 40
291.0
 40
292.0
 40
292.0
 40
293.0
 40
293.0
 40
294.0
 40
294.0
 40
295.0
 40
295.0
 40
296.0
 40
296.0
 40
297.0
 40
297.0
 40
298.0
 40
298.0
 40
299.0
 40
299.0
 40
300.0
 40
300.0
 40
301.0
 40
301.0
 40
302.0
 40
302.0
 40
303.0
 40
303.0
 40
304.0
 40
304.0
 40
305.0
 40
305.0
 40
306.0
 40
306.0
 40
307.0
 40
307.0
 40
308.0
 40
308.0
 40
309.0
 40
309.0
 40
310.0
 40
310.0
 40
311.0
 40
311.0
 40
312.0
 40
312.0
 40
313.0
 40
313.0
 40
314.0
 40
314.0
 40
315.0
 40
315.0
 40
316.0
 40
316.0
 40
317.0
 40
317.0
 40
318.0
 40
318.0
 40
319.0
 40
319.0
 40
320.0
 40
320.0
 40
321.0
 40
321.0
 40
322.0
 40
322.0
 40
323.0
 40
323.0
 40
324.0
 40
324.0
 40
325.0
 40
325.0
 40
326.0
 40
326.0
 40
327.0
 40
327.0
 40
328.0
 40
328.0
 40
329.0
 40
329.0
 40
330.0
 40
330.0
 40
331.0
 40
331.0
 40
332.0
 40
332.0
 40
333.0
 40
333.0
 40
334.0
 40
334.0
 40
335.0
 40
335.0
 40
336.0
 40
336.0
 40
337.0
 40
337.0
 40
338.0
 40
338.0
 40
339.0
 40
339.0
 40
340.0
 40
340.0
 40
341.0
 40
341.0
 40
342.0
 40
342.0
 40
343.0
 40
343.0
 40
344.0
 40
344.0
 40
345.0
 40
345.0
 40
346.0
 40
346.0
 40
347.0
 40
347.0
 40
348.0
 40
348.0
 40
349.0
 40
349.0
 40
350.0
 40
350.0
 40
351.0
 40
351.0
 40
352.0
 40
352.0
 40
353.0
 40
353.0
 40
354.0
 40
354.0
 40
355.0
 40
355.0
 40
356.0
 40
356.0
 40
357.0
 40
357.0
 40
358.0
 40
358.0
 40
359.0
 40
359.0
 40
360.0
 40
360.0
 40
361.0
 40
361.0
 40
362.0
 40
362.0
 40
363.0
 40
363.0
 40
364.0
 40
364.0
 40
365.0
 40
365.0
 40
366.0
 40
366.0
 40
367.0
 40
367.0
 40
368.0
 40
368.0
 40
369.0
 40
369.0
 40
370.0
 40
370.0
 40
371.0
 40
371.0
 40
372.0
 40
372.0
 40
373.0
 40
373.0
 40
374.0
 40
374.0
 40
375.0
 40
375.0
 40
376.0
 40
376.0
 40
377.0
 40
377.0
 40
378.0
 40
378.0
 40
379.0
 40
379.0
 40
380.0
 40
380.0
 40
381.0
 40
381.0
 40
382.0
 40
382.0
 40
383.0
 40
383.0
 40
384.0
 40
384.0
 40
385.0
 40
385.0
 40
386.0
 40
386.0
 40
387.0
 40
387.0
 40
388.0
 40
388.0
 40
389.0
 40
389.0
 40
389.0
 10
-3441.465563410105
 20
-9990.7310253825744
 30
0.0
 41
1.0
 10
-3440.6471393013844
 20
-9990.7310253825744
 30
0.0
 41
1.0
 10
-3439.8287151926643
 20
-9990.7310253825744
 30
0.0
 41
1.0
 10
-3440.2424689281811
 20
-9992.0736516468241
 30
0.0
 41
1.0
 10
-3440.6562226636979
 20
-9993.4162779110738
 30
0.0
 41
1.0
 10
-3440.6378831685042
 20
-9993.3875771381208
 30
0.0
 41
0.9999957264393431
 10
-3440.6193761717154
 20
-9993.3589840880359
 30
0.0
 41
1.0
 10
-3440.5889468475698
 20
-9993.3119712096486
 30
0.0
 41
1.0
 10
-3440.5585175234246
 20
-9993.2649583312595
 30
0.0
 41
1.0
 10
-3440.4791518783154
 20
-9993.1423395243528
 30
0.0
 41
0.9995394069081683
 10
-3440.3924934867669
 20
-9993.0247614626169
 30
0.0
 41
1.0
 10
-3440.3567366245065
 20
-9992.9762465700223
 30
0.0
 41
1.0
 10
-3440.3209797622462
 20
-9992.9277316774278
 30
0.0
 41
1.0
 10
-3440.1872530944329
 20
-9992.7462914023054
 30
0.0
 41
0.9994460617141565
 10
-3440.0417526131405
 20
-9992.574149004653
 30
0.0
 41
1.0
 10
-3440.0373644321608
 20
-9992.5689573242635
 30
0.0
 41
1.0
 10
-3440.0329762511806
 20
-9992.5637656438757
 30
0.0
 41
1.0
 10
-3439.896252131844
 20
-9992.4020066069934
 30
0.0
 41
0.9994359394934296
 10
-3439.7489779015013
 20
-9992.2497904058364
 30
0.0
 41
1.0
 10
-3439.7465945475406
 20
-9992.2473270754563
 30
0.0
 41
1.0
 10
-3439.7442111935793
 20
-9992.2448637450743
 30
0.0
 41
1.0
 10
-3439.6017036711387
 20
-9992.097574204663
 30
0.0
 41
0.9995293688569373
 10
-3439.450431990168
 20
-9991.9593009925084
 30
0.0
 41
1.0
 10
-3439.4311382309088
 20
-9991.9416651068605
 30
0.0
 41
1.0
 10
-3439.4118444716496
 20
-9991.9240292212144
 30
0.0
 41
1.0
 10
-3439.2991603091987
 20
-9991.8210277803555
 30
0.0
 41
0.9997087614802377
 10
-3439.1816374202308
 20
-9991.7235834995463
 30
0.0
 41
1.0
 10
-3439.1624713470592
 20
-9991.7076919210413
 30
0.0
 41
1.0
 10
-3439.143305273888
 20
-9991.691800342538
 30
0.0
 41
1.0
 10
-3439.0641145312679
 20
-9991.6261392187425
 30
0.0
 41
0.9999595338695426
 10
-3438.9837552604204
 20
-9991.5619134880944
 30
0.0
 41
1.0
 10
-3438.9033959895824
 20
-9991.4976877574518
 30
0.0
 41
0.9999749417507812
 10
-3438.8221354551888
 20
-9991.4346062034674
 30
0.0
 41
1.0
 10
-3438.8011493089757
 20
-9991.4183149161254
 30
0.0
 41
1.0
 10
-3438.7801631627626
 20
-9991.4020236287852
 30
0.0
 41
1.0
 10
-3438.695595277527
 20
-9991.3363746189971
 30
0.0
 41
0.9999792037113752
 10
-3438.6101876778193
 20
-9991.2718218373993
 30
0.0
 41
1.0
 10
-3438.589362851907
 20
-9991.2560820151411
 30
0.0
 41
1.0
 10
-3438.5685380259947
 20
-9991.240342192883
 30
0.0
 41
1.0
 10
-3438.5247800780526
 20
-9991.2072690557579
 30
0.0
 41
0.9999993374072504
 10
-3438.4810983919069
 20
-9991.1740952603323
 30
0.0
 41
1.0
 10
-3438.4374167057485
 20
-9991.1409214648993
 30
0.0
 41
0.9999160953820173
 10
-3438.3928902948492
 20
-9991.1088903997133
 30
0.0
 41
1.0
 10
-3438.3600684074272
 20
-9991.0852792441256
 30
0.0
 41
1.0
 10
-3438.3272465200048
 20
-9991.0616680885396
 30
0.0
 41
1.0
 10
-3438.2170763342438
 20
-9990.9824147121708
 30
0.0
 41
0.9980964527234471
 10
-3438.0979873407423
 20
-9990.9173272393145
 30
0.0
 41
1.0
 10
-3438.0609547338136
 20
-9990.8970872597201
 30
0.0
 41
1.0
 10
-3438.0239221268844
 20
-9990.8768472801275
 30
0.0
 41
1.0
 10
-3437.8445951136123
 20
-9990.7788370294275
 30
0.0
 41
0.9984572810574631
 10
-3437.6555065472576
 20
-9990.7013147680827
 30
0.0
 41
1.0
 10
-3437.651860277871
 20
-9990.6998198757483
 30
0.0
 41
1.0
 10
-3437.6482140084845
 20
-9990.6983249834138
 30
0.0
 41
1.0
 10
-3437.4664179809074
 20
-9990.623792506738
 30
0.0
 41
0.998783852803478
 10
-3437.2781653223396
 20
-9990.5675268665691
 30
0.0
 41
1.0
 10
-3437.2739273731381
 20
-9990.5662602128778
 30
0.0
 41
1.0
 10
-3437.2696894239366
 20
-9990.5649935591864
 30
0.0
 41
1.0
 10
-3437.089912663776
 20
-9990.511261226402
 30
0.0
 41
0.9990652816208206
 10
-3436.9061667320648
 20
-9990.4732575468624
 30
0.0
 41
1.0
 10
-3436.9009783310298
 20
-9990.4721844437554
 30
0.0
 41
1.0
 10
-3436.8957899299949
 20
-9990.4711113406483
 30
0.0
 41
1.0
 10
-3436.7224208003449
 20
-9990.4352538673211
 30
0.0
 41
0.9992909934272201
 10
-3436.5468450338903
 20
-9990.4125434348534
 30
0.0
 41
1.0
 10
-3436.3712692674358
 20
-9990.3898330023876
 30
0.0
 41
0.999455353944941
 10
-3436.1945778343497
 20
-9990.3787536981818
 30
0.0
 41
1.0
 10
-3436.1591434265529
 20
-9990.3765318101341
 30
0.0
 41
1.0
 10
-3436.1237090187565
 20
-9990.3743099220865
 30
0.0
 41
1.0
 10
-3435.9574832521839
 20
-9990.3638868596736
 30
0.0
 41
0.9990928098291215
 10
-3435.7909734602754
 20
-9990.3676465009084
 30
0.0
 41
1.0
 10
-3435.7524116249897
 20
-9990.3685171924426
 30
0.0
 41
1.0
 10
-3435.7138497897045
 20
-9990.3693878839767
 30
0.0
 41
1.0
 10
-3435.6244636683591
 20
-9990.3714061421433
 30
0.0
 41
0.9998382089207235
 10
-3435.5352079855866
 20
-9990.3766382686699
 30
0.0
 41
1.0
 10
-3435.5347780793609
 20
-9990.3766634695712
 30
0.0
 41
1.0
 10
-3435.5343481731352
 20
-9990.3766886704743
 30
0.0
 41
1.0
 10
-3435.4459523027949
 20
-9990.3818703951983
 30
0.0
 41
0.999755801675934
 10
-3435.3578717255996
 20
-9990.3909529105658
 30
0.0
 41
1.0
 10
-3435.3573955871543
 20
-9990.3910020080511
 30
0.0
 41
1.0
 10
-3435.3569194487086
 20
-9990.3910511055346
 30
0.0
 41
1.0
 10
-3435.2697911483842
 20
-9990.4000354259333
 30
0.0
 41
0.9996565144179987
 10
-3435.1832532950566
 20
-9990.4135727326211
 30
0.0
 41
1.0
 10
-3435.1827873696693
 20
-9990.4136456183551
 30
0.0
 41
1.0
 10
-3435.182321444282
 20
-9990.4137185040872
 30
0.0
 41
1.0
 10
-3435.0967154417049
 20
-9990.4271100393125
 30
0.0
 41
0.9995321806869768
 10
-3435.0120883613863
 20
-9990.4457105277397
 30
0.0
 41
1.0
 10
-3435.0116991668137
 20
-9990.4457960702057
 30
0.0
 41
1.0
 10
-3435.0113099722412
 20
-9990.4458816126717
 30
0.0
 41
1.0
 10
-3434.9274612810545
 20
-9990.4643110161705
 30
0.0
 41
0.9993819199219853
 10
-3434.8451147468622
 20
-9990.4885863994296
 30
0.0
 41
1.0
 10
-3434.8448763133483
 20
-9990.4886566885434
 30
0.0
 41
1.0
 10
-3434.8446378798344
 20
-9990.4887269776573
 30
0.0
 41
1.0
 10
-3434.7627682126508
 20
-9990.5128617826958
 30
0.0
 41
0.9992088568508968
 10
-3434.6830756936779
 20
-9990.5434270184851
 30
0.0
 41
1.0
 10
-3434.6033947027963
 20
-9990.573986619218
 30
0.0
 41
0.9990226101769676
 10
-3434.5267240328917
 20
-9990.6114640508313
 30
0.0
 41
1.0
 10
-3434.4500648911057
 20
-9990.6489358473773
 30
0.0
 41
0.9988424273963954
 10
-3434.3773612639066
 20
-9990.6936006226242
 30
0.0
 41
1.0
 10
-3434.3770935555149
 20
-9990.6937650867039
 30
0.0
 41
1.0
 10
-3434.3768258471227
 20
-9990.6939295507837
 30
0.0
 41
1.0
 10
-3434.3035868031507
 20
-9990.7389232541809
 30
0.0
 41
0.9986928844489653
 10
-3434.2353239364352
 20
-9990.7911589884661
 30
0.0
 41
1.0
 10
-3434.2347426442157
 20
-9990.791603801692
 30
0.0
 41
1.0
 10
-3434.2341613519966
 20
-9990.792048614916
 30
0.0
 41
1.0
 10
-3434.1647359008457
 20
-9990.8451739756456
 30
0.0
 41
0.9986007262271247
 10
-3434.1013097310793
 20
-9990.905334745341
 30
0.0
 41
1.0
 10
-3434.10041531562
 20
-9990.9061831131785
 30
0.0
 41
1.0
 10
-3434.0995209001603
 20
-9990.907031481016
 30
0.0
 41
1.0
 10
-3434.0343058994758
 20
-9990.9688889863828
 30
0.0
 41
0.9985581491381527
 10
-3433.9760982877765
 20
-9991.0373814766517
 30
0.0
 41
1.0
 10
-3433.966839834181
 20
-9991.0482758343533
 30
0.0
 41
1.0
 10
-3433.9575813805859
 20
-9991.059170192053
 30
0.0
 41
1.0
 10
-3433.8808568616928
 20
-9991.1494513977286
 30
0.0
 41
0.9970460233519579
 10
-3433.818864960539
 20
-9991.2504184819009
 30
0.0
 41
1.0
 10
-3433.8043955954586
 20
-9991.2739849409845
 30
0.0
 41
1.0
 10
-3433.7899262303781
 20
-9991.2975514000664
 30
0.0
 41
1.0
 10
-3433.7501895303658
 20
-9991.3622711240932
 30
0.0
 41
0.9988468816623756
 10
-3433.7168431596101
 20
-9991.4305035765319
 30
0.0
 41
1.0
 10
-3433.7098071371256
 20
-9991.4449004976559
 30
0.0
 41
1.0
 10
-3433.7027711146411
 20
-9991.4592974187781
 30
0.0
 41
1.0
 10
-3433.6834967888653
 20
-9991.4987360289433
 30
0.0
 41
0.9998431189992653
 10
-3433.6656314613638
 20
-9991.538832583401
 30
0.0
 41
1.0
 10
-3433.6477661338849
 20
-9991.5789291378078
 30
0.0
 41
0.9999989989941606
 10
-3433.6297874104721
 20
-9991.6189749753703
 30
0.0
 41
1.0
 10
-3433.6236150988652
 20
-9991.6327231922114
 30
0.0
 41
1.0
 10
-3433.6174427872584
 20
-9991.6464714090507
 30
0.0
 41
1.0
 10
-3433.5871194406409
 20
-9991.7140136802773
 30
0.0
 41
0.999879035632141
 10
-3433.5589115605162
 20
-9991.7824664321815
 30
0.0
 41
1.0
 10
-3433.552076379231
 20
-9991.7990535336121
 30
0.0
 41
1.0
 10
-3433.5452411979454
 20
-9991.8156406350427
 30
0.0
 41
1.0
 10
-3433.5216835355586
 20
-9991.8728085899438
 30
0.0
 41
0.999822757456155
 10
-3433.5002947871717
 20
-9991.9308228982154
 30
0.0
 41
1.0
 10
-3433.4789060387839
 20
-9991.988837206487
 30
0.0
 41
0.9996797971039286
 10
-3433.4604797538277
 20
-9992.0478593255957
 30
0.0
 41
1.0
 10
-3433.4565759510997
 20
-9992.0603637837721
 30
0.0
 41
1.0
 10
-3433.4526721483717
 20
-9992.0728682419485
 30
0.0
 41
1.0
 10
-3433.4264382579613
 20
-9992.1568992774082
 30
0.0
 41
0.9979274938739348
 10
-3433.4112137344796
 20
-9992.2436036360796
 30
0.0
 41
1.0
 10
-3433.4089900472209
 20
-9992.2562676368834
 30
0.0
 41
1.0
 10
-3433.4067663599626
 20
-9992.2689316376891
 30
0.0
 41
1.0
 10
-3433.3958364202626
 20
-9992.3311781449884
 30
0.0
 41
0.9994985982136286
 10
-3433.3888682550851
 20
-9992.3939916461386
 30
0.0
 41
1.0
 10
-3433.3819000899057
 20
-9992.4568051473088
 30
0.0
 41
0.9996372611202907
 10
-3433.3783242241389
 20
-9992.5199027259878
 30
0.0
 41
1.0
 10
-3433.3781556466502
 20
-9992.5228773430572
 30
0.0
 41
1.0
 10
-3433.3779870691615
 20
-9992.5258519601266
 30
0.0
 41
1.0
 10
-3433.3740740484145
 20
-9992.5948987729535
 30
0.0
 41
0.9997730630731078
 10
-3433.3731057349273
 20
-9992.6640495969896
 30
0.0
 41
1.0
 10
-3433.3730486285094
 20
-9992.6681277761418
 30
0.0
 41
1.0
 10
-3433.3729915220911
 20
-9992.6722059552922
 30
0.0
 41
1.0
 10
-3433.3719089957676
 20
-9992.749513137649
 30
0.0
 41
0.9998772614071678
 10
-3433.3732490824987
 20
-9992.8268162841941
 30
0.0
 41
1.0
 10
-3433.3733383456974
 20
-9992.8319654480183
 30
0.0
 41
1.0
 10
-3433.3734276088958
 20
-9992.8371146118443
 30
0.0
 41
1.0
 10
-3433.3749462220253
 20
-9992.9247160860887
 30
0.0
 41
0.9999415567325541
 10
-3433.3783585322699
 20
-9993.0122642477327
 30
0.0
 41
1.0
 10
-3433.3785998529456
 20
-9993.018455707479
 30
0.0
 41
1.0
 10
-3433.3788411736214
 20
-9993.0246471672272
 30
0.0
 41
1.0
 10
-3433.3827361252179
 20
-9993.1245782483838
 30
0.0
 41
0.9999716810421486
 10
-3433.3881347083338
 20
-9993.2244393865567
 30
0.0
 41
1.0
 10
-3433.3913475071254
 20
-9993.2838686362629
 30
0.0
 41
1.0
 10
-3433.3945603059169
 20
-9993.3432978859673
 30
0.0
 41
1.0
 10
-3433.4026342150664
 20
-9993.4926462871845
 30
0.0
 41
0.9999819129911814
 10
-3433.4125040066838
 20
-9993.6418867649118
 30
0.0
 41
1.0
 10
-3433.4223737983002
 20
-9993.7911272426245
 30
0.0
 41
1.0
 10
-3433.4248131188642
 20
-9993.8283202884741
 30
0.0
 41
1.0
 10
-3433.4021148850052
 20
-9993.7895792910967
 30
0.0
 41
0.9999982128063463
 10
-3433.3792703262125
 20
-9993.7509243970762
 30
0.0
 41
1.0
 10
-3433.3523607663601
 20
-9993.7053911830772
 30
0.0
 41
1.0
 10
-3433.3254512065078
 20
-9993.6598579690763
 30
0.0
 41
1.0
 10
-3433.248787527973
 20
-9993.5301366469903
 30
0.0
 41
0.9998609190057189
 10
-3433.1678402151247
 20
-9993.4030442650837
 30
0.0
 41
1.0
 10
-3433.1381918936386
 20
-9993.3564945321195
 30
0.0
 41
1.0
 10
-3433.1085435721525
 20
-9993.3099447991553
 30
0.0
 41
1.0
 10
-3433.0262713519082
 20
-9993.1807722291505
 30
0.0
 41
0.99990676097336
 10
-3432.9405023424556
 20
-9993.0538945397257
 30
0.0
 41
1.0
 10
-3432.9380976392545
 20
-9993.0503372736712
 30
0.0
 41
1.0
 10
-3432.9356929360533
 20
-9993.0467800076149
 30
0.0
 41
1.0
 10
-3432.8547333329998
 20
-9992.9270168502953
 30
0.0
 41
0.9998784952149491
 10
-3432.7700797233101
 20
-9992.8098356335759
 30
0.0
 41
1.0
 10
-3432.6854261136236
 20
-9992.69265441686
 30
0.0
 41
0.9998532968283156
 10
-3432.5968084928086
 20
-9992.5784415084017
 30
0.0
 41
1.0
 10
-3432.5768467038183
 20
-9992.5527141873827
 30
0.0
 41
1.0
 10
-3432.5568849148281
 20
-9992.5269868663636
 30
0.0
 41
1.0
 10
-3432.4384008650636
 20
-9992.3742812553883
 30
0.0
 41
0.9991551975795409
 10
-3432.3077764154414
 20
-9992.2318216933054
 30
0.0
 41
1.0
 10
-3432.3042667994614
 20
-9992.2279940916815
 30
0.0
 41
1.0
 10
-3432.300757183481
 20
-9992.2241664900557
 30
0.0
 41
1.0
 10
-3432.1771519658123
 20
-9992.0893621312152
 30
0.0
 41
0.9997418144180049
 10
-3432.0475498261176
 20
-9991.9603127206083
 30
0.0
 41
1.0
 10
-3431.917947686416
 20
-9991.8312633099958
 30
0.0
 41
0.9989238204634633
 10
-3431.7769451381655
 20
-9991.7147783479559
 30
0.0
 41
1.0
 10
-3431.7316974600308
 20
-9991.6773983563507
 30
0.0
 41
1.0
 10
-3431.6864497818965
 20
-9991.6400183647474
 30
0.0
 41
1.0
 10
-3431.5462097246677
 20
-9991.524163311451
 30
0.0
 41
0.9990825084098142
 10
-3431.3965697920612
 20
-9991.420734313615
 30
0.0
 41
1.0
 10
-3431.3865244280182
 20
-9991.4137911005455
 30
0.0
 41
1.0
 10
-3431.3764790639752
 20
-9991.4068478874742
 30
0.0
 41
1.0
 10
-3431.246929859471
 20
-9991.3173053157916
 30
0.0
 41
0.9998164899827193
 10
-3431.1140456560815
 20
-9991.2327910742661
 30
0.0
 41
1.0
 10
-3431.1022000955509
 20
-9991.2252573077385
 30
0.0
 41
1.0
 10
-3431.0903545350202
 20
-9991.2177235412091
 30
0.0
 41
1.0
 10
-3430.9811614527039
 20
-9991.1482768327496
 30
0.0
 41
0.9997473449131685
 10
-3430.8689574954556
 20
-9991.083807874933
 30
0.0
 41
1.0
 10
-3430.7567535382191
 20
-9991.0193389171254
 30
0.0
 41
0.9999327861139619
 10
-3430.6430849274493
 20
-9990.95748892544
 30
0.0
 41
1.0
 10
-3430.642532924885
 20
-9990.9571885667592
 30
0.0
 41
1.0
 10
-3430.6419809223212
 20
-9990.9568882080785
 30
0.0
 41
1.0
 10
-3430.5272083064474
 20
-9990.8944374990442
 30
0.0
 41
0.9996956420482497
 10
-3430.4094949806095
 20
-9990.8377240320715
 30
0.0
 41
1.0
 10
-3430.3790545757174
 20
-9990.8230580553427
 30
0.0
 41
1.0
 10
-3430.3486141708258
 20
-9990.8083920786121
 30
0.0
 41
1.0
 10
-3430.2456370640698
 20
-9990.7587784201623
 30
0.0
 41
0.9998070570175708
 10
-3430.1407906751256
 20
-9990.7132478332605
 30
0.0
 41
1.0
 10
-3430.0359442861859
 20
-9990.6677172463587
 30
0.0
 41
0.9997827436146552
 10
-3429.9292913495783
 20
-9990.6265960750479
 30
0.0
 41
1.0
 10
-3429.9100684999453
 20
-9990.6191845014146
 30
0.0
 41
1.0
 10
-3429.8908456503123
 20
-9990.611772927783
 30
0.0
 41
1.0
 10
-3429.7457470144336
 20
-9990.5558286092037
 30
0.0
 41
0.9988031841976541
 10
-3429.5958766518211
 20
-9990.514328545034
 30
0.0
 41
1.0
 10
-3429.5709594034606
 20
-9990.5074287992284
 30
0.0
 41
1.0
 10
-3429.5460421551002
 20
-9990.5005290534227
 30
0.0
 41
1.0
 10
-3429.3787721294561
 20
-9990.4542109110153
 30
0.0
 41
0.9984748040547695
 10
-3429.2074152208124
 20
-9990.4266166787529
 30
0.0
 41
1.0
 10
-3429.2026760845747
 20
-9990.4258535182416
 30
0.0
 41
1.0
 10
-3429.197936948337
 20
-9990.4250903577304
 30
0.0
 41
1.0
 10
-3429.0360583121742
 20
-9990.3990224464869
 30
0.0
 41
0.9984436495473619
 10
-3428.8722835684384
 20
-9990.3911444926689
 30
0.0
 41
1.0
 10
-3428.8505863603032
 20
-9990.390100805469
 30
0.0
 41
1.0
 10
-3428.8288891521679
 20
-9990.3890571182692
 30
0.0
 41
1.0
 10
-3428.7085088247095
 20
-9990.3832665388509
 30
0.0
 41
0.9987954789337464
 10
-3428.5881405798041
 20
-9990.3893030665931
 30
0.0
 41
1.0
 10
-3428.5681757873208
 20
-9990.3903043109312
 30
0.0
 41
1.0
 10
-3428.5482109948371
 20
-9990.3913055552694
 30
0.0
 41
1.0
 10
-3428.467772334905
 20
-9990.3953395943336
 30
0.0
 41
0.9997941595876234
 10
-3428.3875635568002
 20
-9990.4026336602565
 30
0.0
 41
1.0
 10
-3428.3073547787076
 20
-9990.4099277261776
 30
0.0
 41
0.9998589466237471
 10
-3428.2274362318517
 20
-9990.4199115806277
 30
0.0
 41
1.0
 10
-3428.1950300300432
 20
-9990.4239599375469
 30
0.0
 41
1.0
 10
-3428.1626238282342
 20
-9990.4280082944661
 30
0.0
 41
1.0
 10
-3428.0178928777596
 20
-9990.4460888627546
 30
0.0
 41
0.9993495063248147
 10
-3427.8748416339936
 20
-9990.4745545724982
 30
0.0
 41
1.0
 10
-3427.8419079368437
 20
-9990.4811080357122
 30
0.0
 41
1.0
 10
-3427.8089742396937
 20
-9990.4876614989262
 30
0.0
 41
1.0
 10
-3427.6996804164887
 20
-9990.509409833061
 30
0.0
 41
0.9996788715561702
 10
-3427.5916288445319
 20
-9990.5366676324229
 30
0.0
 41
1.0
 10
-3427.5895658420086
 20
-9990.5371880589919
 30
0.0
 41
1.0
 10
-3427.5875028394848
 20
-9990.5377084855609
 30
0.0
 41
1.0
 10
-3427.4835772725887
 20
-9990.563925431783
 30
0.0
 41
0.999548065449237
 10
-3427.381415037346
 20
-9990.5963403884107
 30
0.0
 41
1.0
 10
-3427.3797253952043
 20
-9990.5968764933277
 30
0.0
 41
1.0
 10
-3427.3780357530622
 20
-9990.5974125982466
 30
0.0
 41
1.0
 10
-3427.2792528021041
 20
-9990.6287553450402
 30
0.0
 41
0.9993867959457642
 10
-3427.1829056436736
 20
-9990.6669347143252
 30
0.0
 41
1.0
 10
-3427.1816626946015
 20
-9990.6674272562159
 30
0.0
 41
1.0
 10
-3427.1804197455294
 20
-9990.6679197981084
 30
0.0
 41
1.0
 10
-3427.0865584852477
 20
-9990.7051140836084
 30
0.0
 41
0.9992050256519004
 10
-3426.9959588101983
 20
-9990.7496679828546
 30
0.0
 41
1.0
 10
-3426.9952241274837
 20
-9990.7500292753175
 30
0.0
 41
1.0
 10
-3426.994489444769
 20
-9990.7503905677786
 30
0.0
 41
1.0
 10
-3426.9053591351608
 20
-9990.7942218820954
 30
0.0
 41
0.9990222350739669
 10
-3426.8204490737712
 20
-9990.8457551497904
 30
0.0
 41
1.0
 10
-3426.8202651884831
 20
-9990.8458667526975
 30
0.0
 41
1.0
 10
-3426.8200813031949
 20
-9990.8459783556063
 30
0.0
 41
1.0
 10
-3426.7355390123707
 20
-9990.8972884174946
 30
0.0
 41
0.9988642743810012
 10
-3426.6562644777587
 20
-9990.9564126050136
 30
0.0
 41
1.0
 10
-3426.5769899431371
 20
-9991.0155367925418
 30
0.0
 41
0.9987681233309708
 10
-3426.5039661588498
 20
-9991.0822274839538
 30
0.0
 41
1.0
 10
-3426.5036372308905
 20
-9991.0825278851626
 30
0.0
 41
1.0
 10
-3426.5033083029316
 20
-9991.0828282863695
 30
0.0
 41
1.0
 10
-3426.4296266627252
 20
-9991.1501197801954
 30
0.0
 41
0.9987496570895167
 10
-3426.3630328573995
 20
-9991.2244325942811
 30
0.0
 41
1.0
 10
-3426.3622606876379
 20
-9991.2252942676405
 30
0.0
 41
1.0
 10
-3426.3614885178758
 20
-9991.2261559409999
 30
0.0
 41
1.0
 10
-3426.2933503730264
 20
-9991.3021921018044
 30
0.0
 41
0.9988147669826452
 10
-3426.2329281187995
 20
-9991.3844931086496
 30
0.0
 41
1.0
 10
-3426.2318087927233
 20
-9991.3860177400002
 30
0.0
 41
1.0
 10
-3426.2306894666472
 20
-9991.3875423713507
 30
0.0
 41
1.0
 10
-3426.1680285602629
 20
-9991.4728926409025
 30
0.0
 41
0.9989452636215014
 10
-3426.1134616473023
 20
-9991.5636313300602
 30
0.0
 41
1.0
 10
-3426.1121129212179
 20
-9991.5658741110838
 30
0.0
 41
1.0
 10
-3426.1107641951339
 20
-9991.5681168921074
 30
0.0
 41
1.0
 10
-3426.0534998300072
 20
-9991.6633411433049
 30
0.0
 41
0.9991046436066361
 10
-3426.0044906166841
 20
-9991.7630655763351
 30
0.0
 41
1.0
 10
-3426.0030267550919
 20
-9991.766044256412
 30
0.0
 41
1.0
 10
-3426.0015628934998
 20
-9991.7690229364889
 30
0.0
 41
1.0
 10
-3425.9496259570005
 20
-9991.8747047296511
 30
0.0
 41
0.9992763831097949
 10
-3425.9058728284572
 20
-9991.9840287915795
 30
0.0
 41
1.0
 10
-3425.904393558787
 20
-9991.9877249791316
 30
0.0
 41
1.0
 10
-3425.9029142891168
 20
-9991.9914211666819
 30
0.0
 41
1.0
 10
-3425.856202621238
 20
-9992.1081376036964
 30
0.0
 41
0.9994163472884613
 10
-3425.8175695900541
 20
-9992.2277711921397
 30
0.0
 41
1.0
 10
-3425.8163314377971
 20
-9992.2316053359536
 30
0.0
 41
1.0
 10
-3425.8150932855406
 20
-9992.2354394797676
 30
0.0
 41
1.0
 10
-3425.7752097245348
 20
-9992.358945541213
 30
0.0
 41
0.9997268055891868
 10
-3425.7411416686218
 20
-9992.484180573163
 30
0.0
 41
1.0
 10
-3425.7402114883557
 20
-9992.4875999392589
 30
0.0
 41
1.0
 10
-3425.7392813080896
 20
-9992.4910193053547
 30
0.0
 41
1.0
 10
-3425.7070736127157
 20
-9992.6094156050822
 30
0.0
 41
0.9996701318998083
 10
-3425.6809879959392
 20
-9992.7293095583773
 30
0.0
 41
1.0
 10
-3425.6549023791699
 20
-9992.849203511636
 30
0.0
 41
0.9995785451109551
 10
-3425.6358188018335
 20
-9992.9704092726442
 30
0.0
 41
1.0
 10
-3425.6315990196567
 20
-9992.9972104274293
 30
0.0
 41
1.0
 10
-3425.62737923748
 20
-9993.0240115822144
 30
0.0
 41
1.0
 10
-3425.6008042615426
 20
-9993.1927975559174
 30
0.0
 41
0.9979925101218296
 10
-3425.5957786756171
 20
-9993.3635888839981
 30
0.0
 41
1.0
 10
-3425.5949538631921
 20
-9993.3916196074824
 30
0.0
 41
1.0
 10
-3425.5941290507676
 20
-9993.4196503309649
 30
0.0
 41
1.0
 10
-3425.5907530896902
 20
-9993.5343802120842
 30
0.0
 41
0.999531490226207
 10
-3425.5944032818288
 20
-9993.6491016958425
 30
0.0
 41
1.0
 10
-3425.5980534739665
 20
-9993.7638231795772
 30
0.0
 41
0.999624548694382
 10
-3425.6079825690972
 20
-9993.8781724507026
 30
0.0
 41
1.0
 10
-3425.6081456170923
 20
-9993.8800502068443
 30
0.0
 41
1.0
 10
-3425.608308665087
 20
-9993.8819279629879
 30
0.0
 41
1.0
 10
-3425.6185638562088
 20
-9994.0000327464004
 30
0.0
 41
0.9997286095002145
 10
-3425.634309179778
 20
-9994.1175316552763
 30
0.0
 41
1.0
 10
-3425.6347026724284
 20
-9994.1204680799783
 30
0.0
 41
1.0
 10
-3425.6350961650787
 20
-9994.1234045046804
 30
0.0
 41
1.0
 10
-3425.651628473951
 20
-9994.2467762629858
 30
0.0
 41
0.9998265533968306
 10
-3425.6727439326819
 20
-9994.3694467377591
 30
0.0
 41
1.0
 10
-3425.67342047482
 20
-9994.3733771162697
 30
0.0
 41
1.0
 10
-3425.6740970169576
 20
-9994.3773074947821
 30
0.0
 41
1.0
 10
-3425.6965655599656
 20
-9994.5078387265894
 30
0.0
 41
0.9999022530856303
 10
-3425.7226750245754
 20
-9994.63769069523
 30
0.0
 41
1.0
 10
-3425.7236536657401
 20
-9994.6425578376147
 30
0.0
 41
1.0
 10
-3425.7246323069048
 20
-9994.6474249799976
 30
0.0
 41
1.0
 10
-3425.7526990538545
 20
-9994.7870112334494
 30
0.0
 41
0.9999524761940298
 10
-3425.7834820226867
 20
-9994.9260237266044
 30
0.0
 41
1.0
 10
-3425.7847581298593
 20
-9994.9317864858931
 30
0.0
 41
1.0
 10
-3425.7860342370313
 20
-9994.93754924518
 30
0.0
 41
1.0
 10
-3425.8193694202064
 20
-9995.0880872569069
 30
0.0
 41
0.9999813588720196
 10
-3425.8545404210095
 20
-9995.2382069695923
 30
0.0
 41
1.0
 10
-3425.8560943464681
 20
-9995.2448395600222
 30
0.0
 41
1.0
 10
-3425.8576482719263
 20
-9995.2514721504522
 30
0.0
 41
1.0
 10
-3425.895927123659
 20
-9995.414857044052
 30
0.0
 41
0.9999955237731011
 10
-3425.9351830016299
 20
-9995.5780099476196
 30
0.0
 41
1.0
 10
-3425.9474646372573
 20
-9995.6290541381131
 30
0.0
 41
1.0
 10
-3425.9597462728843
 20
-9995.6800983286048
 30
0.0
 41
1.0
 10
-3426.0235654221174
 20
-9995.9453396131921
 30
0.0
 41
0.9999993604706587
 10
-3426.0879843692865
 20
-9996.210435863879
 30
0.0
 41
1.0
 10
-3426.0927032048412
 20
-9996.2298547719511
 30
0.0
 41
1.0
 10
-3426.0974220403959
 20
-9996.2492736800232
 30
0.0
 41
1.0
 10
-3426.1712786586618
 20
-9996.5532077468015
 30
0.0
 41
0.9999659914725158
 10
-3426.2501382545383
 20
-9996.8558822933282
 30
0.0
 41
1.0
 10
-3426.2550909434703
 20
-9996.8748914305179
 30
0.0
 41
1.0
 10
-3426.2600436324028
 20
-9996.8939005677057
 30
0.0
 41
1.0
 10
-3426.3488086061398
 20
-9997.2345933885936
 30
0.0
 41
0.9999441976027061
 10
-3426.4447516391069
 20
-9997.5733348139074
 30
0.0
 41
1.0
 10
-3426.4614521575349
 20
-9997.6322985264433
 30
0.0
 41
1.0
 10
-3426.4781526759625
 20
-9997.6912622389791
 30
0.0
 41
1.0
 10
-3426.6074967457971
 20
-9998.147931089401
 30
0.0
 41
0.9999625120739444
 10
-3426.7447295131133
 20
-9998.6022916233687
 30
0.0
 41
1.0
 10
-3426.780519456187
 20
-9998.7207876499651
 30
0.0
 41
1.0
 10
-3426.8163093992603
 20
-9998.8392836765615
 30
0.0
 41
1.0
 10
-3426.8908296033137
 20
-9999.0860107547051
 30
0.0
 41
0.9999793386318799
 10
-3426.968515626445
 20
-9999.3317593939209
 30
0.0
 41
1.0
 10
-3427.0462016495826
 20
-9999.5775080331568
 30
0.0
 41
1.0
 10
-3427.0569812084532
 20
-9999.6115259375329
 30
0.0
 41
1.0
 10
-3428.9073542617225
 20
-10005.49859786
 30
0.0
 41
1.0
 10
-3430.7577273149918
 20
-10011.385669782467
 30
0.0
 41
1.0
 10
-3431.718984005015
 20
-10011.385669782467
 30
0.0
 41
1.0
 10
-3432.6802406950387
 20
-10011.385669782467
 30
0.0
 41
1.0
 10
-3431.06129591636
 20
-10006.237641280677
 30
0.0
 41
1.0
 10
-3429.4423511376817
 20
-10001.089612778887
 30
0.0
 41
1.0
 10
-3429.3971853145049
 20
-10000.945581556611
 30
0.0
 41
1.0
 10
-3429.3520194913281
 20
-10000.801550334332
 30
0.0
 41
1.0
 10
-3429.1817150739525
 20
-10000.258459305125
 30
0.0
 41
0.9999911657901631
 10
-3429.0159822622904
 20
-9999.7139557738228
 30
0.0
 41
1.0
 10
-3428.9862863188064
 20
-9999.6163918338243
 30
0.0
 41
1.0
 10
-3428.9565903753219
 20
-9999.5188278938276
 30
0.0
 41
1.0
 10
-3428.8502494506674
 20
-9999.1694522426478
 30
0.0
 41
0.999995242818391
 10
-3428.7460658612854
 20
-9998.8194272181099
 30
0.0
 41
1.0
 10
-3428.7410063909642
 20
-9998.8024289438727
 30
0.0
 41
1.0
 10
-3428.7359469206431
 20
-9998.7854306696354
 30
0.0
 41
1.0
 10
-3428.6418822719361
 20
-9998.4694021936775
 30
0.0
 41
0.9999931687504455
 10
-3428.5501564340866
 20
-9998.1526869804875
 30
0.0
 41
1.0
 10
-3428.5452211696347
 20
-9998.1356462712429
 30
0.0
 41
1.0
 10
-3428.5402859051828
 20
-9998.1186055619983
 30
0.0
 41
1.0
 10
-3428.4584305962208
 20
-9997.8359717672429
 30
0.0
 41
0.9999893840813711
 10
-3428.379183369756
 20
-9997.5525956379715
 30
0.0
 41
1.0
 10
-3428.2999361432949
 20
-9997.2692195087129
 30
0.0
 41
0.999983398008539
 10
-3428.2239599025525
 20
-9996.9849489256758
 30
0.0
 41
1.0
 10
-3428.2149559658355
 20
-9996.951260047219
 30
0.0
 41
1.0
 10
-3428.2059520291191
 20
-9996.9175711687622
 30
0.0
 41
1.0
 10
-3428.1369874802449
 20
-9996.6595353364355
 30
0.0
 41
0.9999233658065917
 10
-3428.0744325090254
 20
-9996.3998711777185
 30
0.0
 41
1.0
 10
-3428.0118775378055
 20
-9996.1402070189961
 30
0.0
 41
1.0
 10
-3427.9723941189477
 20
-9995.9764003545697
 30
0.0
 41
1.0
 10
-3427.9674155149728
 20
-9995.9557453927082
 30
0.0
 41
1.0
 10
-3427.9624369109979
 20
-9995.9350904308485
 30
0.0
 41
1.0
 10
-3427.9329107001035
 20
-9995.8125936901943
 30
0.0
 41
0.9999868670847107
 10
-3427.9046416160941
 20
-9995.6898007444979
 30
0.0
 41
1.0
 10
-3427.900744128935
 20
-9995.672871157074
 30
0.0
 41
1.0
 10
-3427.8968466417755
 20
-9995.6559415696502
 30
0.0
 41
1.0
 10
-3427.876372532111
 20
-9995.5670077989143
 30
0.0
 41
0.9999778173347862
 10
-3427.8570849339822
 20
-9995.4778091816224
 30
0.0
 41
1.0
 10
-3427.8377973358674
 20
-9995.388610564396
 30
0.0
 41
0.9999602692866906
 10
-3427.8201029772363
 20
-9995.2990822759657
 30
0.0
 41
1.0
 10
-3427.8168991451585
 20
-9995.2828718210803
 30
0.0
 41
1.0
 10
-3427.8136953130811
 20
-9995.266661366195
 30
0.0
 41
1.0
 10
-3427.7895932902952
 20
-9995.1447121679976
 30
0.0
 41
0.9995617985320857
 10
-3427.7727499430762
 20
-9995.0215504202915
 30
0.0
 41
1.0
 10
-3427.7702854531699
 20
-9995.0035296029237
 30
0.0
 41
1.0
 10
-3427.7678209632631
 20
-9994.9855087855576
 30
0.0
 41
1.0
 10
-3427.7475377022147
 20
-9994.837193735857
 30
0.0
 41
0.999112141063742
 10
-3427.7398123486273
 20
-9994.6876976370513
 30
0.0
 41
1.0
 10
-3427.7388935586023
 20
-9994.6699178004637
 30
0.0
 41
1.0
 10
-3427.7379747685773
 20
-9994.652137963878
 30
0.0
 41
1.0
 10
-3427.7320869950395
 20
-9994.5382015382347
 30
0.0
 41
0.9989792494906947
 10
-3427.7365060871562
 20
-9994.424198702347
 30
0.0
 41
1.0
 10
-3427.7371540590248
 20
-9994.4074824564268
 30
0.0
 41
1.0
 10
-3427.7378020308929
 20
-9994.3907662105066
 30
0.0
 41
1.0
 10
-3427.7409251792724
 20
-9994.3101958664793
 30
0.0
 41
0.9997820295395983
 10
-3427.7474091766494
 20
-9994.2298261447049
 30
0.0
 41
1.0
 10
-3427.7538931740241
 20
-9994.1494564229852
 30
0.0
 41
0.9998335105977291
 10
-3427.7633053695367
 20
-9994.0693768065121
 30
0.0
 41
1.0
 10
-3427.7649002942135
 20
-9994.0558070760271
 30
0.0
 41
1.0
 10
-3427.7664952188898
 20
-9994.042237345544
 30
0.0
 41
1.0
 10
-3427.7790972637522
 20
-9993.9350182681446
 30
0.0
 41
0.9996876457880687
 10
-3427.7970411765496
 20
-9993.8285628404301
 30
0.0
 41
1.0
 10
-3427.7992728396962
 20
-9993.8153231051801
 30
0.0
 41
1.0
 10
-3427.8015045028428
 20
-9993.8020833699302
 30
0.0
 41
1.0
 10
-3427.8153003242633
 20
-9993.7202372259799
 30
0.0
 41
0.9995547496498585
 10
-3427.8339536461563
 20
-9993.6393597287788
 30
0.0
 41
1.0
 10
-3427.8343276030255
 20
-9993.6377383180825
 30
0.0
 41
1.0
 10
-3427.8347015598947
 20
-9993.6361169073862
 30
0.0
 41
1.0
 10
-3427.852606968047
 20
-9993.5584822315977
 30
0.0
 41
0.9994899427177132
 10
-3427.8754318767287
 20
-9993.4821489487549
 30
0.0
 41
1.0
 10
-3427.8758904034735
 20
-9993.4806154989528
 30
0.0
 41
1.0
 10
-3427.8763489302182
 20
-9993.4790820491507
 30
0.0
 41
1.0
 10
-3427.8982567854109
 20
-9993.4058156659066
 30
0.0
 41
0.9993784877585518
 10
-3427.9252724205144
 20
-9993.33427496076
 30
0.0
 41
1.0
 10
-3427.9258041114908
 20
-9993.3328669780403
 30
0.0
 41
1.0
 10
-3427.9263358024677
 20
-9993.3314589953206
 30
0.0
 41
1.0
 10
-3427.9522880556233
 20
-9993.262734255597
 30
0.0
 41
0.9992430832256863
 10
-3427.9835045907803
 20
-9993.1962351035327
 30
0.0
 41
1.0
 10
-3427.9840867068306
 20
-9993.1949950484286
 30
0.0
 41
1.0
 10
-3427.9846688228808
 20
-9993.1937549933245
 30
0.0
 41
1.0
 10
-3428.0147211259373
 20
-9993.1297359514683
 30
0.0
 41
0.9990789632798389
 10
-3428.0501517527164
 20
-9993.0685293397146
 30
0.0
 41
1.0
 10
-3428.0507474588971
 20
-9993.0675002538574
 30
0.0
 41
1.0
 10
-3428.0513431650779
 20
-9993.0664711680001
 30
0.0
 41
1.0
 10
-3428.0855823794923
 20
-9993.0073227279681
 30
0.0
 41
0.9988874801126554
 10
-3428.1252416555253
 20
-9992.9516630155485
 30
0.0
 41
1.0
 10
-3428.1257971815949
 20
-9992.9508833638665
 30
0.0
 41
1.0
 10
-3428.1263527076644
 20
-9992.9501037121845
 30
0.0
 41
1.0
 10
-3428.1649009315629
 20
-9992.8960033031235
 30
0.0
 41
0.9986762060689158
 10
-3428.2088034028329
 20
-9992.8461495886913
 30
0.0
 41
1.0
 10
-3428.2092473631665
 20
-9992.8456454468724
 30
0.0
 41
1.0
 10
-3428.2096913235005
 20
-9992.8451413050534
 30
0.0
 41
1.0
 10
-3428.2527058741089
 20
-9992.7962958742519
 30
0.0
 41
0.9984621642490338
 10
-3428.3008634308871
 20
-9992.7525125737811
 30
0.0
 41
1.0
 10
-3428.3011100654053
 20
-9992.7522883416168
 30
0.0
 41
1.0
 10
-3428.3013566999234
 20
-9992.7520641094507
 30
0.0
 41
1.0
 10
-3428.3490209876682
 20
-9992.7087292733067
 30
0.0
 41
0.9982724693846145
 10
-3428.4014396195066
 20
-9992.6712849227915
 30
0.0
 41
1.0
 10
-3428.4538582513451
 20
-9992.6338405722763
 30
0.0
 41
0.9981399180170726
 10
-3428.5104443147375
 20
-9992.6030540528318
 30
0.0
 41
1.0
 10
-3428.5104899768176
 20
-9992.603029209673
 30
0.0
 41
1.0
 10
-3428.5105356388981
 20
-9992.603004366516
 30
0.0
 41
1.0
 10
-3428.5672130264493
 20
-9992.5721681607592
 30
0.0
 41
0.9980927086848384
 10
-3428.6272583775158
 20
-9992.5485513519052
 30
0.0
 41
1.0
 10
-3428.6276985472268
 20
-9992.5483782260308
 30
0.0
 41
1.0
 10
-3428.6281387169383
 20
-9992.5482051001563
 30
0.0
 41
1.0
 10
-3428.6890644074288
 20
-9992.5242420395516
 30
0.0
 41
0.9981411356566043
 10
-3428.7524529288339
 20
-9992.5078693980449
 30
0.0
 41
1.0
 10
-3428.7533350455319
 20
-9992.5076415558397
 30
0.0
 41
1.0
 10
-3428.7542171622299
 20
-9992.5074137136362
 30
0.0
 41
1.0
 10
-3428.8193699170256
 20
-9992.4905853877226
 30
0.0
 41
0.9983031812946681
 10
-3428.8860373460143
 20
-9992.4814460265461
 30
0.0
 41
1.0
 10
-3428.8949083714269
 20
-9992.4802299078729
 30
0.0
 41
1.0
 10
-3428.90377939684
 20
-9992.4790137892014
 30
0.0
 41
1.0
 10
-3428.9581290393426
 20
-9992.4715630592109
 30
0.0
 41
0.9983887708256206
 10
-3429.0129728886322
 20
-9992.4703183855781
 30
0.0
 41
1.0
 10
-3429.0210362938396
 20
-9992.4701353877026
 30
0.0
 41
1.0
 10
-3429.0290996990466
 20
-9992.4699523898289
 30
0.0
 41
1.0
 10
-3429.0678167379147
 20
-9992.4690737119436
 30
0.0
 41
0.9998869563075347
 10
-3429.1065426911277
 20
-9992.4693595813042
 30
0.0
 41
1.0
 10
-3429.1452686443727
 20
-9992.4696454506629
 30
0.0
 41
0.9999972320048089
 10
-3429.1839928236286
 20
-9992.4701135501928
 30
0.0
 41
1.0
 10
-3429.2033458401647
 20
-9992.4703474902817
 30
0.0
 41
1.0
 10
-3429.2226988567008
 20
-9992.4705814303707
 30
0.0
 41
1.0
 10
-3429.3001290690827
 20
-9992.4715174100784
 30
0.0
 41
0.9997304945087413
 10
-3429.3774323753305
 20
-9992.4760465038653
 30
0.0
 41
1.0
 10
-3429.3864820170243
 20
-9992.4765767098543
 30
0.0
 41
1.0
 10
-3429.395531658718
 20
-9992.4771069158451
 30
0.0
 41
1.0
 10
-3429.4909342483584
 20
-9992.4826964216118
 30
0.0
 41
0.9997888306416108
 10
-3429.586026584198
 20
-9992.4922013860996
 30
0.0
 41
1.0
 10
-3429.594747645775
 20
-9992.4930731007316
 30
0.0
 41
1.0
 10
-3429.603468707352
 20
-9992.4939448153636
 30
0.0
 41
1.0
 10
-3429.7160031663425
 20
-9992.5051932091174
 30
0.0
 41
0.9984170238193459
 10
-3429.8265623136949
 20
-9992.5290092910527
 30
0.0
 41
1.0
 10
-3429.8629434446839
 20
-9992.5368463268605
 30
0.0
 41
1.0
 10
-3429.8993245756733
 20
-9992.5446833626665
 30
0.0
 41
1.0
 10
-3430.0145156440913
 20
-9992.5694972291767
 30
0.0
 41
0.9976592854196877
 10
-3430.1252438104912
 20
-9992.6097959063227
 30
0.0
 41
1.0
 10
-3430.2359719769088
 20
-9992.6500945834759
 30
0.0
 41
0.9993255074354297
 10
-3430.3434437757132
 20
-9992.6984114819734
 30
0.0
 41
1.0
 10
-3430.3480689546232
 20
-9992.7004908581675
 30
0.0
 41
1.0
 10
-3430.3526941335331
 20
-9992.7025702343617
 30
0.0
 41
1.0
 10
-3430.4694162901765
 20
-9992.7550458852547
 30
0.0
 41
0.997647507826925
 10
-3430.5778636344867
 20
-9992.8229938749155
 30
0.0
 41
1.0
 10
-3430.5962060286229
 20
-9992.8344863537313
 30
0.0
 41
1.0
 10
-3430.6145484227595
 20
-9992.8459788325472
 30
0.0
 41
1.0
 10
-3430.6987506143064
 20
-9992.8987359533112
 30
0.0
 41
0.999513133640461
 10
-3430.7794983292602
 20
-9992.9566421652635
 30
0.0
 41
1.0
 10
-3430.860246044223
 20
-9993.0145483772194
 30
0.0
 41
0.999581010760373
 10
-3430.9375076919409
 20
-9993.0770300596778
 30
0.0
 41
1.0
 10
-3430.9404777231539
 20
-9993.0794319311444
 30
0.0
 41
1.0
 10
-3430.9434477543664
 20
-9993.0818338026111
 30
0.0
 41
1.0
 10
-3431.026649464518
 20
-9993.1491192280064
 30
0.0
 41
0.9996617837952585
 10
-3431.106240151646
 20
-9993.2206396835609
 30
0.0
 41
1.0
 10
-3431.1183709025199
 20
-9993.2315404165493
 30
0.0
 41
1.0
 10
-3431.1305016533938
 20
-9993.2424411495358
 30
0.0
 41
1.0
 10
-3431.1987771807917
 20
-9993.3037937650115
 30
0.0
 41
0.9997267750055812
 10
-3431.264110689086
 20
-9993.3682703015456
 30
0.0
 41
1.0
 10
-3431.3294441973794
 20
-9993.4327468380798
 30
0.0
 41
0.9999667288964828
 10
-3431.3937171405055
 20
-9993.4982806449552
 30
0.0
 41
1.0
 10
-3431.4625445882857
 20
-9993.5684583037182
 30
0.0
 41
1.0
 10
-3431.5313720360664
 20
-9993.6386359624812
 30
0.0
 41
1.0
 10
-3431.7332998747652
 20
-9993.8445250868936
 30
0.0
 41
0.9988205335173138
 10
-3431.9143054917458
 20
-9994.0690293189564
 30
0.0
 41
1.0
 10
-3431.9449454566493
 20
-9994.1070325693836
 30
0.0
 41
1.0
 10
-3431.9755854215523
 20
-9994.1450358198126
 30
0.0
 41
1.0
 10
-3432.2178709683362
 20
-9994.445546552728
 30
0.0
 41
0.9997077826754884
 10
-3432.4453489194379
 20
-9994.757416346938
 30
0.0
 41
1.0
 10
-3432.447072334573
 20
-9994.7597791303233
 30
0.0
 41
1.0
 10
-3432.4487957497076
 20
-9994.7621419137085
 30
0.0
 41
1.0
 10
-3432.67972053107
 20
-9995.0787372746781
 30
0.0
 41
0.9989147567078149
 10
-3432.8801840339543
 20
-9995.4154467358658
 30
0.0
 41
1.0
 10
-3432.9049251792612
 20
-9995.4570033164182
 30
0.0
 41
1.0
 10
-3432.9296663245686
 20
-9995.4985598969706
 30
0.0
 41
1.0
 10
-3433.0848776232128
 20
-9995.7592612814351
 30
0.0
 41
0.9997476598181074
 10
-3433.2282226107177
 20
-9996.0266710300093
 30
0.0
 41
1.0
 10
-3433.3715675982312
 20
-9996.2940807785999
 30
0.0
 41
0.9996258967110466
 10
-3433.5000758501592
 20
-9996.5689287152181
 30
0.0
 41
1.0
 10
-3433.513275759612
 20
-9996.5971601153196
 30
0.0
 41
1.0
 10
-3433.5264756690644
 20
-9996.6253915154211
 30
0.0
 41
1.0
 10
-3433.6666843900512
 20
-9996.9252639133429
 30
0.0
 41
0.9998735413944629
 10
-3433.797285736779
 20
-9997.2294435128279
 30
0.0
 41
1.0
 10
-3433.80072856484
 20
-9997.2374620982955
 30
0.0
 41
1.0
 10
-3433.8041713929015
 20
-9997.2454806837613
 30
0.0
 41
1.0
 10
-3433.9278870835074
 20
-9997.5336231123147
 30
0.0
 41
0.9999377418862249
 10
-3434.0451418856742
 20
-9997.8244545799716
 30
0.0
 41
1.0
 10
-3434.1623966878719
 20
-9998.1152860477032
 30
0.0
 41
0.9999508299507405
 10
-3434.2738606312373
 20
-9998.4083857244968
 30
0.0
 41
1.0
 10
-3434.2769413998949
 20
-9998.4164867504478
 30
0.0
 41
1.0
 10
-3434.280022168552
 20
-9998.4245877763969
 30
0.0
 41
1.0
 10
-3434.3976476492367
 20
-9998.7338895050962
 30
0.0
 41
0.9999609228432526
 10
-3434.5097862521261
 20
-9999.0452225211557
 30
0.0
 41
1.0
 10
-3434.5127422624764
 20
-9999.0534293615674
 30
0.0
 41
1.0
 10
-3434.5156982728272
 20
-9999.0616362019791
 30
0.0
 41
1.0
 10
-3434.6337488964086
 20
-9999.3893828988384
 30
0.0
 41
0.9999674607397642
 10
-3434.7464964224869
 20
-9999.718991518861
 30
0.0
 41
1.0
 10
-3434.7978948130431
 20
-9999.8692507145352
 30
0.0
 41
1.0
 10
-3434.8492932035992
 20
-10000.019509910209
 30
0.0
 41
1.0
 10
-3434.9653038103534
 20
-10000.358657892704
 30
0.0
 41
0.9999287532309024
 10
-3435.0731852143222
 20
-10000.700478631672
 30
0.0
 41
1.0
 10
-3435.1196624704035
 20
-10000.847741175859
 30
0.0
 41
1.0
 10
-3435.1661397264847
 20
-10000.995003720047
 30
0.0
 41
1.0
 10
-3435.1810666181273
 20
-10001.042299370121
 30
0.0
 41
0.9999998224425742
 10
-3435.1959371270232
 20
-10001.089612778887
 30
0.0
 41
1.0
 10
-3436.8165932638185
 20
-10006.237641280677
 30
0.0
 41
1.0
 10
-3438.4372494006143
 20
-10011.385669782467
 30
0.0
 41
1.0
 10
-3439.3425578445049
 20
-10011.385669782467
 30
0.0
 41
1.0
 10
-3440.2478662883959
 20
-10011.385669782467
 30
0.0
 41
1.0
 10
-3438.39578187701
 20
-10005.49859786
 30
0.0
 41
1.0
 10
-3436.5436974656241
 20
-9999.6115259375329
 30
0.0
 41
1.0
 10
-3436.5335757073212
 20
-9999.5794827240825
 30
0.0
 41
1.0
 10
-3436.4609680384715
 20
-9999.3491831822575
 30
0.0
 41
1.0
 10
-3436.3883603696299
 20
-9999.1188836404581
 30
0.0
 41
0.9999825681965193
 10
-3436.3184773304047
 20
-9998.8877427453463
 30
0.0
 41
1.0
 10
-3436.2701862682425
 20
-9998.7280181618444
 30
0.0
 41
1.0
 10
-3436.2218952060803
 20
-9998.5682935783443
 30
0.0
 41
1.0
 10
-3436.1247428527681
 20
-9998.2469583565871
 30
0.0
 41
0.9999672528956877
 10
-3436.0328040471495
 20
-9997.9240928110157
 30
0.0
 41
1.0
 10
-3436.0300151634792
 20
-9997.9142989656229
 30
0.0
 41
1.0
 10
-3436.0272262798085
 20
-9997.9045051202302
 30
0.0
 41
1.0
 10
-3435.9408652415386
 20
-9997.6012272654734
 30
0.0
 41
0.9999899749138242
 10
-3435.8572236319915
 20
-9997.2971881769772
 30
0.0
 41
1.0
 10
-3435.8471177129732
 20
-9997.2604529392956
 30
0.0
 41
1.0
 10
-3435.8370117939553
 20
-9997.2237177016159
 30
0.0
 41
1.0
 10
-3435.7735820224616
 20
-9996.9931490885429
 30
0.0
 41
0.9999214200503462
 10
-3435.7159525940788
 20
-9996.7610627463146
 30
0.0
 41
1.0
 10
-3435.7031867418968
 20
-9996.7096518609142
 30
0.0
 41
1.0
 10
-3435.6904208897149
 20
-9996.6582409755119
 30
0.0
 41
1.0
 10
-3435.6583231656914
 20
-9996.5289764040645
 30
0.0
 41
0.9999828681656985
 10
-3435.627740913706
 20
-9996.3993449296395
 30
0.0
 41
1.0
 10
-3435.597158661712
 20
-9996.2697134551745
 30
0.0
 41
0.9999389844478421
 10
-3435.5694476729227
 20
-9996.1394379992762
 30
0.0
 41
1.0
 10
-3435.5623099292015
 20
-9996.1058818954371
 30
0.0
 41
1.0
 10
-3435.5551721854808
 20
-9996.0723257915961
 30
0.0
 41
1.0
 10
-3435.5131857092465
 20
-9995.8749381279995
 30
0.0
 41
0.9998933699439813
 10
-3435.4769814448459
 20
-9995.6764085202485
 30
0.0
 41
1.0
 10
-3435.4756086196312
 20
-9995.6688804995592
 30
0.0
 41
1.0
 10
-3435.474235794416
 20
-9995.66135247887
 30
0.0
 41
1.0
 10
-3435.4352858795792
 20
-9995.4477668297077
 30
0.0
 41
0.9996850305193046
 10
-3435.4071022033218
 20
-9995.2324958242752
 30
0.0
 41
1.0
 10
-3435.4051071699532
 20
-9995.2172574701599
 30
0.0
 41
1.0
 10
-3435.4031121365852
 20
-9995.2020191160445
 30
0.0
 41
1.0
 10
-3435.3757042741258
 20
-9994.9926738888935
 30
0.0
 41
0.9994697936706397
 10
-3435.3619797149054
 20
-9994.7819886935522
 30
0.0
 41
1.0
 10
-3435.3615026456559
 20
-9994.7746652213445
 30
0.0
 41
1.0
 10
-3435.3610255764065
 20
-9994.7673417491369
 30
0.0
 41
1.0
 10
-3435.3482551556858
 20
-9994.5713034982218
 30
0.0
 41
0.9991804893136836
 10
-3435.3513834719588
 20
-9994.3748746482488
 30
0.0
 41
1.0
 10
-3435.3514673507807
 20
-9994.3696078468292
 30
0.0
 41
1.0
 10
-3435.351551229603
 20
-9994.3643410454097
 30
0.0
 41
1.0
 10
-3435.3545117882309
 20
-9994.1784457982631
 30
0.0
 41
0.9988448329318466
 10
-3435.3753033338553
 20
-9993.993693208442
 30
0.0
 41
1.0
 10
-3435.3768974075579
 20
-9993.9795283526746
 30
0.0
 41
1.0
 10
-3435.3784914812604
 20
-9993.9653634969072
 30
0.0
 41
1.0
 10
-3435.3960948794779
 20
-9993.8089406186209
 30
0.0
 41
0.9985503209461792
 10
-3435.4304111517786
 20
-9993.6553164345187
 30
0.0
 41
1.0
 10
-3435.4379971438511
 20
-9993.6213561071127
 30
0.0
 41
1.0
 10
-3435.4455831359242
 20
-9993.5873957797048
 30
0.0
 41
1.0
 10
-3435.4647274240801
 20
-9993.5016922504165
 30
0.0
 41
0.9991036781365384
 10
-3435.491052285729
 20
-9993.4179151631033
 30
0.0
 41
1.0
 10
-3435.4950345111888
 20
-9993.405242000581
 30
0.0
 41
1.0
 10
-3435.4990167366486
 20
-9993.3925688380587
 30
0.0
 41
1.0
 10
-3435.5173771473887
 20
-9993.334138075752
 30
0.0
 41
0.9998874504367804
 10
-3435.5374823550587
 20
-9993.2762844735553
 30
0.0
 41
1.0
 10
-3435.5575875627451
 20
-9993.2184308713131
 30
0.0
 41
0.99940416375449
 10
-3435.5816361756833
 20
-9993.1621021674146
 30
0.0
 41
1.0
 10
-3435.5858329599032
 20
-9993.1522721029432
 30
0.0
 41
1.0
 10
-3435.5900297441226
 20
-9993.1424420384737
 30
0.0
 41
1.0
 10
-3435.6179085751151
 20
-9993.0771418725089
 30
0.0
 41
0.9991846840696655
 10
-3435.6509649318073
 20
-9993.0143038412316
 30
0.0
 41
1.0
 10
-3435.6521015382045
 20
-9993.0121432247724
 30
0.0
 41
1.0
 10
-3435.6532381446018
 20
-9993.0099826083133
 30
0.0
 41
1.0
 10
-3435.6840212885045
 20
-9992.9514658099433
 30
0.0
 41
0.9989253167917683
 10
-3435.7200907125552
 20
-9992.8960508815617
 30
0.0
 41
1.0
 10
-3435.7211448372309
 20
-9992.8944313867978
 30
0.0
 41
1.0
 10
-3435.7221989619065
 20
-9992.8928118920321
 30
0.0
 41
1.0
 10
-3435.756160136611
 20
-9992.8406359531691
 30
0.0
 41
0.998646717284093
 10
-3435.7953572892475
 20
-9992.7922699195406
 30
0.0
 41
1.0
 10
-3435.7962314179522
 20
-9992.7911913172575
 30
0.0
 41
1.0
 10
-3435.7971055466564
 20
-9992.7901127149744
 30
0.0
 41
1.0
 10
-3435.8345544418917
 20
-9992.7439038859047
 30
0.0
 41
0.9984001104275091
 10
-3435.8769811724023
 20
-9992.7022187785424
 30
0.0
 41
1.0
 10
-3435.8775683105137
 20
-9992.701641903659
 30
0.0
 41
1.0
 10
-3435.878155448625
 20
-9992.7010650287757
 30
0.0
 41
1.0
 10
-3435.9194079029239
 20
-9992.6605336711673
 30
0.0
 41
0.9982442159072168
 10
-3435.9651640042548
 20
-9992.6251651099119
 30
0.0
 41
1.0
 10
-3435.9653787997217
 20
-9992.6249990772649
 30
0.0
 41
1.0
 10
-3435.9655935951887
 20
-9992.6248330446178
 30
0.0
 41
1.0
 10
-3436.010920105592
 20
-9992.5897965486511
 30
0.0
 41
0.9982450060825111
 10
-3436.060071084662
 20
-9992.5603647656208
 30
0.0
 41
1.0
 10
-3436.1092220637374
 20
-9992.530932982585
 30
0.0
 41
0.9983922639627315
 10
-3436.1613883699051
 20
-9992.5072533479306
 30
0.0
 41
1.0
 10
-3436.1616152472261
 20
-9992.5071503624495
 30
0.0
 41
1.0
 10
-3436.1618421245475
 20
-9992.5070473769701
 30
0.0
 41
1.0
 10
-3436.2144621853536
 20
-9992.4831617713553
 30
0.0
 41
0.9986517147151197
 10
-3436.269275158219
 20
-9992.4648606522333
 30
0.0
 41
1.0
 10
-3436.2699530796522
 20
-9992.4646343058012
 30
0.0
 41
1.0
 10
-3436.2706310010853
 20
-9992.4644079593672
 30
0.0
 41
1.0
 10
-3436.326799816824
 20
-9992.4456541473774
 30
0.0
 41
0.9989435598947105
 10
-3436.3844532039889
 20
-9992.4321364451425
 30
0.0
 41
1.0
 10
-3436.385533323556
 20
-9992.4318831948931
 30
0.0
 41
1.0
 10
-3436.3866134431237
 20
-9992.4316299446436
 30
0.0
 41
1.0
 10
-3436.4464270694348
 20
-9992.4176057419027
 30
0.0
 41
0.9992249241233814
 10
-3436.5071585783289
 20
-9992.4083303991902
 30
0.0
 41
1.0
 10
-3436.5085722666236
 20
-9992.4081144907814
 30
0.0
 41
1.0
 10
-3436.5099859549182
 20
-9992.4078985823726
 30
0.0
 41
1.0
 10
-3436.5735448403948
 20
-9992.3981914228407
 30
0.0
 41
0.9994396597832477
 10
-3436.6376107769297
 20
-9992.3927585004949
 30
0.0
 41
1.0
 10
-3436.6567514444096
 20
-9992.3911353327749
 30
0.0
 41
1.0
 10
-3436.6758921118899
 20
-9992.3895121650567
 30
0.0
 41
1.0
 10
-3436.7782393833872
 20
-9992.3808329072745
 30
0.0
 41
0.9987693403120986
 10
-3436.88094300698
 20
-9992.3823359707276
 30
0.0
 41
1.0
 10
-3436.8911973412023
 20
-9992.3824860425011
 30
0.0
 41
1.0
 10
-3436.9014516754246
 20
-9992.3826361142746
 30
0.0
 41
1.0
 10
-3437.0110074416034
 20
-9992.3842394585627
 30
0.0
 41
0.9989753644968366
 10
-3437.1199694416191
 20
-9992.3957424654873
 30
0.0
 41
1.0
 10
-3437.2289314416371
 20
-9992.4072454724137
 30
0.0
 41
0.9983190067309543
 10
-3437.3358302526062
 20
-9992.4312804642013
 30
0.0
 41
1.0
 10
-3437.3447312042099
 20
-9992.4332817427639
 30
0.0
 41
1.0
 10
-3437.353632155814
 20
-9992.4352830213247
 30
0.0
 41
1.0
 10
-3437.4783328700005
 20
-9992.4633205702394
 30
0.0
 41
0.9985539388303668
 10
-3437.5993026236811
 20
-9992.504584246286
 30
0.0
 41
1.0
 10
-3437.6016480546359
 20
-9992.5053842900998
 30
0.0
 41
1.0
 10
-3437.6039934855912
 20
-9992.5061843339136
 30
0.0
 41
1.0
 10
-3437.7296541011842
 20
-9992.5490480975895
 30
0.0
 41
0.9988468746494358
 10
-3437.8506244434766
 20
-9992.6037661826485
 30
0.0
 41
1.0
 10
-3437.8538072654719
 20
-9992.6052058572113
 30
0.0
 41
1.0
 10
-3437.8569900874672
 20
-9992.6066455317741
 30
0.0
 41
1.0
 10
-3437.9843260737539
 20
-9992.6642429659605
 30
0.0
 41
0.9991322885919429
 10
-3438.1064266578173
 20
-9992.7322382981456
 30
0.0
 41
1.0
 10
-3438.1240286688517
 20
-9992.7420405001303
 30
0.0
 41
1.0
 10
-3438.1416306798865
 20
-9992.751842702115
 30
0.0
 41
1.0
 10
-3438.2438073609446
 20
-9992.8087428178969
 30
0.0
 41
0.9993860037851259
 10
-3438.3417483650201
 20
-9992.8726588334866
 30
0.0
 41
1.0
 10
-3438.3473666778627
 20
-9992.8763253281759
 30
0.0
 41
1.0
 10
-3438.3529849907054
 20
-9992.8799918228633
 30
0.0
 41
1.0
 10
-3438.4396893690832
 20
-9992.9365748490691
 30
0.0
 41
0.9998821494954171
 10
-3438.5246157449064
 20
-9992.9957930791534
 30
0.0
 41
1.0
 10
-3438.6095421207328
 20
-9993.0550113092377
 30
0.0
 41
0.9997976482741346
 10
-3438.6920177511483
 20
-9993.1175977172898
 30
0.0
 41
1.0
 10
-3438.7066540159403
 20
-9993.1287044070596
 30
0.0
 41
1.0
 10
-3438.7212902807328
 20
-9993.1398110968294
 30
0.0
 41
1.0
 10
-3438.8330384407327
 20
-9993.2246108844211
 30
0.0
 41
0.9998091630802174
 10
-3438.9413887187716
 20
-9993.3137112351305
 30
0.0
 41
1.0
 10
-3438.9543944712505
 20
-9993.3244063355778
 30
0.0
 41
1.0
 10
-3438.9674002237289
 20
-9993.3351014360251
 30
0.0
 41
1.0
 10
-3439.1017620067119
 20
-9993.4455919876182
 30
0.0
 41
0.9995035112316529
 10
-3439.2288978844626
 20
-9993.5643258046221
 30
0.0
 41
1.0
 10
-3439.2385451948567
 20
-9993.5733355507873
 30
0.0
 41
1.0
 10
-3439.2481925052502
 20
-9993.5823452969507
 30
0.0
 41
1.0
 10
-3439.3716155680186
 20
-9993.6976116687092
 30
0.0
 41
0.9994630424297486
 10
-3439.4872239737979
 20
-9993.8207144119406
 30
0.0
 41
1.0
 10
-3439.4909068125717
 20
-9993.8246359914556
 30
0.0
 41
1.0
 10
-3439.4945896513454
 20
-9993.8285575709724
 30
0.0
 41
1.0
 10
-3439.6028323795845
 20
-9993.9438171551792
 30
0.0
 41
0.9995160693749905
 10
-3439.7036984091137
 20
-9994.0655845730471
 30
0.0
 41
1.0
 10
-3439.7056321291911
 20
-9994.0679189972507
 30
0.0
 41
1.0
 10
-3439.7075658492686
 20
-9994.0702534214561
 30
0.0
 41
1.0
 10
-3439.8045644386425
 20
-9994.1873519909168
 30
0.0
 41
0.9996561470516204
 10
-3439.8952906573122
 20
-9994.3093747533694
 30
0.0
 41
1.0
 10
-3439.9014483232113
 20
-9994.3176565424073
 30
0.0
 41
1.0
 10
-3439.9076059891099
 20
-9994.3259383314453
 30
0.0
 41
1.0
 10
-3439.986016875981
 20
-9994.431397515822
 30
0.0
 41
0.9998349055173331
 10
-3440.06054415791
 20
-9994.5396360994819
 30
0.0
 41
1.0
 10
-3440.1350714398654
 20
-9994.6478746831781
 30
0.0
 41
0.9999728109561741
 10
-3440.2079943357662
 20
-9994.7572006087212
 30
0.0
 41
1.0
 10
-3440.2093095511709
 20
-9994.7591723782134
 30
0.0
 41
1.0
 10
-3440.2106247665761
 20
-9994.7611441477056
 30
0.0
 41
1.0
 10
-3440.286178093319
 20
-9994.8744136122805
 30
0.0
 41
0.9999972147446675
 10
-3440.361195903793
 20
-9994.9880384552671
 30
0.0
 41
1.0
 10
-3440.366167446361
 20
-9994.995568543658
 30
0.0
 41
1.0
 10
-3440.3711389889286
 20
-9995.0030986320471
 30
0.0
 41
1.0
 10
-3440.45609988457
 20
-9995.1317836518647
 30
0.0
 41
0.9999371979007047
 10
-3440.5381552339577
 20
-9995.2623405656159
 30
0.0
 41
1.0
 10
-3440.5416641183165
 20
-9995.2679234936768
 30
0.0
 41
1.0
 10
-3440.5451730026753
 20
-9995.2735064217359
 30
0.0
 41
1.0
 10
-3440.634246120816
 20
-9995.4152291916635
 30
0.0
 41
0.9998272025611882
 10
-3440.7179895116897
 20
-9995.560165068393
 30
0.0
 41
1.0
 10
-3440.7332046837118
 20
-9995.5864981828454
 30
0.0
 41
1.0
 10
-3440.748419855734
 20
-9995.6128312972996
 30
0.0
 41
1.0
 10
-3440.8625935906566
 20
-9995.8104334029431
 30
0.0
 41
0.9995217214839174
 10
-3440.9643332802179
 20
-9996.0147157308147
 30
0.0
 41
1.0
 10
-3440.9719768428522
 20
-9996.0300631805148
 30
0.0
 41
1.0
 10
-3440.9796204054865
 20
-9996.0454106302168
 30
0.0
 41
1.0
 10
-3441.0665256980883
 20
-9996.2199070883216
 30
0.0
 41
0.9998269762607339
 10
-3441.1468801643514
 20
-9996.3975153750289
 30
0.0
 41
1.0
 10
-3441.2272346306304
 20
-9996.5751236617671
 30
0.0
 41
0.999894474738829
 10
-3441.3023954251898
 20
-9996.7549913873863
 30
0.0
 41
1.0
 10
-3441.3073490947786
 20
-9996.7668460422974
 30
0.0
 41
1.0
 10
-3441.3123027643674
 20
-9996.7787006972085
 30
0.0
 41
1.0
 10
-3441.3929498249227
 20
-9996.971697637231
 30
0.0
 41
0.999950673441211
 10
-3441.4697473538276
 20
-9997.1662584420919
 30
0.0
 41
1.0
 10
-3441.4843473190922
 20
-9997.2032463638825
 30
0.0
 41
1.0
 10
-3441.4989472843567
 20
-9997.2402342856712
 30
0.0
 41
1.0
 10
-3441.5465448827467
 20
-9997.3608192469856
 30
0.0
 41
0.9999912393929771
 10
-3441.5931313267538
 20
-9997.481798449644
 30
0.0
 41
1.0
 10
-3441.6397177707968
 20
-9997.6027776523952
 30
0.0
 41
0.9999927113960789
 10
-3441.6853790651717
 20
-9997.7241090598454
 30
0.0
 41
1.0
 10
-3441.6993474965684
 20
-9997.7612260418427
 30
0.0
 41
1.0
 10
-3441.7133159279656
 20
-9997.7983430238382
 30
0.0
 41
1.0
 10
-3441.7869140851512
 20
-9997.9939083953268
 30
0.0
 41
0.9999487550947499
 10
-3441.8565377101468
 20
-9998.1909237605778
 30
0.0
 41
1.0
 10
-3441.8801313200802
 20
-9998.2576870708617
 30
0.0
 41
1.0
 10
-3441.9037249300136
 20
-9998.3244503811438
 30
0.0
 41
1.0
 10
-3441.9984105644007
 20
-9998.5923842160137
 30
0.0
 41
0.9999808436940785
 10
-3442.0897721530127
 20
-9998.8614696471959
 30
0.0
 41
1.0
 10
-3442.1811337416348
 20
-9999.1305550784
 30
0.0
 41
0.9999873932917466
 10
-3442.2697884503859
 20
-9999.4005444335162
 30
0.0
 41
1.0
 10
-3442.2898808072487
 20
-9999.4617337662476
 30
0.0
 41
1.0
 10
-3442.3099731641109
 20
-9999.5229230989789
 30
0.0
 41
1.0
 10
-3442.4388125865789
 20
-9999.9152911195306
 30
0.0
 41
0.9999794883029466
 10
-3442.5626153715284
 20
-10000.309277325785
 30
0.0
 41
1.0
 10
-3442.5737676309382
 20
-10000.344767935934
 30
0.0
 41
1.0
 10
-3442.5849198903475
 20
-10000.380258546082
 30
0.0
 41
1.0
 10
-3442.727478054303
 20
-10000.833931298355
 30
0.0
 41
0.9999982761707921
 10
-3442.8683504943137
 20
-10001.288130320459
 30
0.0
 41
1.0
 10
-3444.4564908268862
 20
-10006.336900051463
 30
0.0
 41
1.0
 10
-3446.0446311594587
 20
-10011.385669782467
 30
0.0
 41
1.0
 10
-3446.9933817709352
 20
-10011.385669782467
 30
0.0
 41
1.0
 10
-3447.9421323824117
 20
-10011.385669782467
 30
0.0
 41
1.0
 10
-3444.7038478962586
 20
-10001.058347582521
 30
0.0
 41
1.0
 10
-3441.465563410105
 20
-9990.7310253825744
 30
0.0
 41
1.0
  0
LWPOLYLINE
  5
5C
100
AcDbEntity
  8
0
370
              15
390
0
  6
Continuous
 62
               7
100
AcDbPolyline
 90
      232
 70
             128
 10
-3467.1691091839321
 20
-9991.8153682140892
 42
0.0004370800608612
 10
-3467.2219863580895
 20
-9991.8840348534559
 10
-3467.2612705891315
 20
-9991.9351419662416
 42
0.0030481992131143
 10
-3467.3916093062221
 20
-9992.1068636585478
 10
-3467.4301209780015
 20
-9992.158250442375
 42
0.0042058245777711
 10
-3467.6341060286868
 20
-9992.4352561874712
 10
-3467.6865111511715
 20
-9992.5076890342298
 42
0.0120948898724347
 10
-3467.9825550679247
 20
-9992.9384386387646
 10
-3468.0787475670568
 20
-9993.0859193740052
 42
0.0141601263940378
 10
-3468.3823916139772
 20
-9993.5815887107383
 10
-3468.4219288814056
 20
-9993.6504326781742
 42
0.0071131081298861
 10
-3468.6272012046416
 20
-9994.0199354770084
 42
0.006845879098228
 10
-3468.8220807314847
 20
-9994.3950270404857
 10
-3468.8288925939423
 20
-9994.4085887542096
 42
0.0064120880293985
 10
-3469.0270348439781
 20
-9994.8160132291086
 10
-3469.0345695295036
 20
-9994.8320250858487
 42
0.0058857236470073
 10
-3469.237324921382
 20
-9995.2764011968993
 10
-3469.2454998476692
 20
-9995.294891350517
 42
0.005318974188842
 10
-3469.454204160349
 20
-9995.7808548244648
 10
-3469.462951966018
 20
-9995.8018367026307
 42
0.0047503650408573
 10
-3469.6789256921784
 20
-9996.334036135866
 10
-3469.6881939405166
 20
-9996.3575125119496
 42
0.0042071762176668
 10
-3469.9127413242472
 20
-9996.9406061060254
 10
-3469.9224907265934
 20
-9996.9665722808877
 42
0.0036680086483066
 10
-3470.1569453698921
 20
-9997.6052076653814
 10
-3470.1671531497532
 20
-9997.6336561997632
 42
0.0032573142614002
 10
-3470.4127854357293
 20
-9998.3325088595448
 10
-3470.481435956573
 20
-9998.5319719436065
 42
0.002613336665105
 10
-3470.8298811553186
 20
-9999.5618352272431
 10
-3470.8931379428209
 20
-9999.7520660626415
 42
0.0020592950749539
 10
-3471.1070010117865
 20
-10000.404169715248
 10
-3471.1100528029497
 20
-10000.413606203658
 42
0.0025609928522602
 10
-3471.3118733044353
 20
-10001.048751426024
 10
-3471.3144646715677
 20
-10001.057053766983
 42
0.0031362356233636
 10
-3471.503955457239
 20
-10001.677816623145
 10
-3471.5060865001665
 20
-10001.684957929356
 42
0.0037229918044885
 10
-3471.682886887093
 20
-10002.293943231329
 10
-3471.6845654762974
 20
-10002.299890121496
 42
0.0043077623691979
 10
-3471.8483062783644
 20
-10002.899708853274
 42
0.004765416181236
 10
-3472.0011350008817
 20
-10003.502394942181
 10
-3472.0355996097196
 20
-10003.643956719325
 42
0.0112969368439051
 10
-3472.2314639678611
 20
-10004.535648879941
 10
-3472.2594703569594
 20
-10004.678476926047
 42
0.0130056762579139
 10
-3472.460307600606
 20
-10005.865417997691
 10
-3472.4808473507555
 20
-10006.009496111184
 42
0.0138721532144921
 10
-3472.584550355291
 20
-10006.916325596994
 10
-3472.6038458431963
 20
-10007.13982331889
 42
0.0071254696993534
 10
-3472.6371924891218
 20
-10007.603010327766
 10
-3472.6421534632873
 20
-10007.689014322365
 42
0.002888179922571
 10
-3472.6572917565745
 20
-10007.98075603217
 42
0.0060297297175706
 10
-3472.66722395635
 20
-10008.272704968285
 10
-3472.6682862380176
 20
-10008.32109734022
 42
0.0229523164165801
 10
-3472.6605552102319
 20
-10008.643852186502
 10
-3472.6563294367106
 20
-10008.704255720526
 42
0.0123673300648699
 10
-3472.6372507901933
 20
-10008.905376445691
 42
0.0128577674444082
 10
-3472.6080553997849
 20
-10009.105274295631
 10
-3472.6009295263998
 20
-10009.146603110215
 42
0.0285717853750128
 10
-3472.5364355247025
 20
-10009.424719261535
 10
-3472.5227670010418
 20
-10009.471374030994
 42
0.0316283099122479
 10
-3472.4069564211231
 20
-10009.790388532832
 10
-3472.4039077293719
 20
-10009.797374905149
 42
0.0338984824216331
 10
-3472.254476018401
 20
-10010.084940869347
 10
-3472.2521672890352
 20
-10010.088731898615
 42
0.0350228718361512
 10
-3472.0698069983573
 20
-10010.3457838833
 10
-3472.0689217465788
 20
-10010.346862961069
 42
0.0347476747568915
 10
-3471.8544970593421
 20
-10010.574048008284
 42
0.0331337701901041
 10
-3471.6112537335889
 20
-10010.770176670367
 10
-3471.6101536350798
 20
-10010.770949373535
 42
0.0305233319086814
 10
-3471.3416089395123
 20
-10010.93607754362
 10
-3471.338378895005
 20
-10010.937801555487
 42
0.0273744481137809
 10
-3471.0458251834357
 20
-10011.073939699378
 10
-3471.0407206482932
 20
-10011.075983283848
 42
0.0240964406194946
 10
-3470.7252435726514
 20
-10011.184967010127
 10
-3470.7186602434376
 20
-10011.186891749803
 42
0.0209636179830058
 10
-3470.3812600907659
 20
-10011.27035989774
 10
-3470.3736276303362
 20
-10011.271911810738
 42
0.0181388704706824
 10
-3470.0153052383575
 20
-10011.331327903948
 10
-3470.0070243899595
 20
-10011.332394087769
 42
0.015608654757934
 10
-3469.6288370257585
 20
-10011.369130274346
 10
-3469.585641773439
 20
-10011.371968776824
 42
0.0137148329001714
 10
-3469.2579686281447
 20
-10011.384489032076
 10
-3469.2120324381376
 20
-10011.384983465192
 42
0.0051057823881881
 10
-3468.9758868516265
 20
-10011.3851137196
 42
0.0052256693289627
 10
-3468.7397895679037
 20
-10011.380364895138
 10
-3468.6695627840982
 20
-10011.378217929123
 42
0.0161507179029981
 10
-3468.2938257060086
 20
-10011.354567558797
 10
-3468.2738127456241
 20
-10011.352657363508
 42
0.0101216737840202
 10
-3467.8597855240964
 20
-10011.304664433137
 10
-3467.8257322347067
 20
-10011.300016736332
 42
0.0245291776406347
 10
-3467.3489425791608
 20
-10011.210941658257
 10
-3467.2641192635865
 20
-10011.1907457379
 42
0.0143509212579337
 10
-3466.9074881596921
 20
-10011.094941104133
 42
0.0156557856999666
 10
-3466.5572720949795
 20
-10010.977929888319
 10
-3466.5497708804701
 20
-10010.975159726559
 42
0.0170137333627749
 10
-3466.1931748847728
 20
-10010.829502111681
 10
-3466.1860709623811
 20
-10010.826314276124
 42
0.0183105364415296
 10
-3465.8267212942142
 20
-10010.6489792343
 10
-3465.8197745295761
 20
-10010.645228799429
 42
0.0194899958130684
 10
-3465.4612937885863
 20
-10010.433249817534
 10
-3465.4542799092551
 20
-10010.428724475241
 42
0.0204869852981135
 10
-3465.1002656071637
 20
-10010.179204460157
 10
-3465.0929999985747
 20
-10010.173624394807
 42
0.0212516938560846
 10
-3464.7470100674745
 20
-10009.88372039792
 10
-3464.7004933733979
 20
-10009.841253087827
 42
0.0215248918239289
 10
-3464.440467204503
 20
-10009.582488808825
 10
-3464.3954374701152
 20
-10009.533644687468
 42
0.0114578554983812
 10
-3464.2406453164454
 20
-10009.357821754016
 10
-3464.2294507804659
 20
-10009.34450299048
 42
0.0061531305157491
 10
-3464.1029761344644
 20
-10009.190213457165
 42
0.0006325587117777
 10
-3463.9785976504904
 20
-10009.034210081714
 10
-3463.9555575152608
 20
-10009.005236560832
 42
0.0041897761577063
 10
-3463.7871021112487
 20
-10008.789717184716
 10
-3463.7286399913964
 20
-10008.713615837783
 42
0.0092993880067475
 10
-3463.4520280641727
 20
-10008.3393370739
 10
-3463.3696335709787
 20
-10008.223400070339
 42
0.0159321727076504
 10
-3463.0230270883312
 20
-10007.701225849574
 10
-3462.9786709529485
 20
-10007.629546285336
 42
0.008554731703133
 10
-3462.7441591876159
 20
-10007.2356713361
 42
0.0084601156877867
 10
-3462.5231830101716
 20
-10006.834044487065
 10
-3462.5150675363438
 20
-10006.818684804795
 42
0.0081429654287822
 10
-3462.2918182659118
 20
-10006.378963292265
 10
-3462.2829581017222
 20
-10006.360784450235
 42
0.0076574581314067
 10
-3462.0565505911482
 20
-10005.877601574966
 10
-3462.0470709504316
 20
-10005.856537096679
 42
0.0070682724180825
 10
-3461.8166260426287
 20
-10005.324499791908
 10
-3461.8066357586431
 20
-10005.300510602887
 42
0.0064559514457294
 10
-3461.5713025504647
 20
-10004.714198336373
 10
-3461.560893192297
 20
-10004.687263410924
 42
0.0058311413909041
 10
-3461.3198464555271
 20
-10004.041231316522
 10
-3461.3090913781466
 20
-10004.011346975381
 42
0.005231242582106
 10
-3461.0615101000899
 20
-10003.300144561499
 10
-3461.0504662637259
 20
-10003.267317849477
 42
0.0046680544806192
 10
-3460.7955378359939
 20
-10002.485491533727
 10
-3460.7535456859296
 20
-10002.352508296372
 42
0.0041666856462794
 10
-3460.5502596735528
 20
-10001.689539521423
 10
-3460.5125972329297
 20
-10001.562958413908
 42
0.0015170975150185
 10
-3460.3914106544762
 20
-10001.151090062276
 42
-0.0004887993112769
 10
-3460.2710708813947
 20
-10000.738971650377
 10
-3460.1945936238581
 20
-10000.478014264292
 42
0.00025833789394
 10
-3459.9213790538661
 20
-9999.5439575613618
 10
-3459.8396062041957
 20
-9999.2638583014559
 42
0.000663616967508
 10
-3459.6457384442056
 20
-9998.5965053779437
 10
-3459.6406417898561
 20
-9998.5788737950552
 42
0.0010589131330863
 10
-3459.4591930889419
 20
-9997.9461424520159
 10
-3459.4542110184361
 20
-9997.9286295449074
 42
0.001565552445253
 10
-3459.285940811279
 20
-9997.3300128657938
 10
-3459.2811106108788
 20
-9997.3126207069108
 42
0.0021640440501079
 10
-3459.1268206388777
 20
-9996.7475936888404
 10
-3459.1221864194545
 20
-9996.7303289588708
 42
0.0028763871853884
 10
-3458.9826707013945
 20
-9996.1983610079988
 10
-3458.9782848372297
 20
-9996.1812370298539
 42
0.0037310511931393
 10
-3458.8543281453904
 20
-9995.681789435821
 10
-3458.8502529250995
 20
-9995.6648291645688
 42
0.0047652197744581
 10
-3458.742629024593
 20
-9995.1973513962712
 10
-3458.7389384252729
 20
-9995.1805918411374
 42
0.0060276699297509
 10
-3458.6484083261162
 20
-9994.7445160459756
 10
-3458.645189635829
 20
-9994.728014831675
 42
0.0075824337769924
 10
-3458.5725003264115
 20
-9994.32274766724
 10
-3458.5698549490303
 20
-9994.306592719784
 42
0.0095130624611361
 10
-3458.5157397133999
 20
-9993.931503366719
 10
-3458.5087534895169
 20
-9993.8755698085988
 42
0.0121054653224666
 10
-3458.4821621589399
 20
-9993.6106739801289
 10
-3458.4812956691831
 20
-9993.5992705372337
 42
0.0069050827326757
 10
-3458.4662068511425
 20
-9993.3563293103543
 10
-3458.4650715514722
 20
-9993.3328030532721
 42
0.0169063976754061
 10
-3458.4622442724935
 20
-9993.1366103260098
 10
-3458.4634149240246
 20
-9993.0762745646607
 42
0.0052007733084392
 10
-3458.465668372618
 20
-9993.0006811745079
 42
0.0054038123330603
 10
-3458.4856318844613
 20
-9992.8806628784714
 10
-3458.4907177403275
 20
-9992.8520043919161
 42
0.0112050460489999
 10
-3458.5261021023898
 20
-9992.6756779535608
 10
-3458.5439270644265
 20
-9992.5961363668575
 42
0.0240764468024125
 10
-3458.6348244305736
 20
-9992.2658993313526
 10
-3458.6533831933843
 20
-9992.2092791663672
 42
0.0256812331842151
 10
-3458.796746113575
 20
-9991.8375549601042
 10
-3458.8021555393993
 20
-9991.8254236251087
 42
0.0268360501218736
 10
-3458.9715827802465
 20
-9991.4944304910932
 10
-3458.9771191878772
 20
-9991.4849108207891
 42
0.0274670231729327
 10
-3459.1693201642947
 20
-9991.192623445866
 10
-3459.1747014642538
 20
-9991.1853442983302
 42
0.0275035967099408
 10
-3459.3862743438194
 20
-9990.9298284080196
 10
-3459.3913438447912
 20
-9990.924349320383
 42
0.0269557673558533
 10
-3459.6187473882255
 20
-9990.7037070344268
 10
-3459.6234904459893
 20
-9990.6995770799822
 42
0.0259124802165337
 10
-3459.8630452774387
 20
-9990.5118865528129
 10
-3459.8675761226223
 20
-9990.5087010504812
 42
0.0245162152999382
 10
-3460.1154924757157
 20
-9990.3519680413738
 10
-3460.1200190220343
 20
-9990.3494078441763
 42
0.022928258883879
 10
-3460.3724385788673
 20
-9990.2215396516731
 10
-3460.3772190727173
 20
-9990.2193873519045
 42
0.0212984135716487
 10
-3460.6302570251655
 20
-9990.1181884346697
 10
-3460.6355613101459
 20
-9990.1163248719058
 42
0.019755546236938
 10
-3460.885339647858
 20
-9990.0395094539454
 42
0.0183511896822503
 10
-3461.14026837335
 20
-9989.9819265469741
 10
-3461.2266335700533
 20
-9989.9657237565934
 42
0.0338057877193934
 10
-3461.5121409193048
 20
-9989.9319153514534
 10
-3461.6031463243421
 20
-9989.927335696193
 42
0.0091990524547128
 10
-3461.7089934329806
 20
-9989.923959840271
 42
0.0028333980708909
 10
-3461.8149073487566
 20
-9989.9231317327522
 10
-3461.8158228020229
 20
-9989.9231297629285
 42
-0.0023619827775808
 10
-3461.9235688170893
 20
-9989.9223889218501
 10
-3461.9599739873047
 20
-9989.9219666153876
 42
0.0008824598463124
 10
-3462.1405299764897
 20
-9989.9201908371542
 10
-3462.1843914095607
 20
-9989.9198368756224
 42
0.0038132665735372
 10
-3462.452674305538
 20
-9989.919717939556
 10
-3462.4692079602328
 20
-9989.9198367056997
 42
0.0060665569310698
 10
-3462.7704884517661
 20
-9989.9256570051202
 10
-3462.7847387838492
 20
-9989.9261053130904
 42
0.0080356953336912
 10
-3463.1141975001938
 20
-9989.9417730351561
 10
-3463.1262675152757
 20
-9989.9425416180966
 42
0.0098996399106415
 10
-3463.4790305999049
 20
-9989.972026847292
 10
-3463.4890763093017
 20
-9989.9730671434918
 42
0.011774098137113
 10
-3463.8602331676798
 20
-9990.0203593910283
 10
-3463.8684558641326
 20
-9990.021604507594
 42
0.0137435215170484
 10
-3464.2530446836727
 20
-9990.0907014811655
 10
-3464.2597017227413
 20
-9990.0920873773885
 42
0.0158359869370668
 10
-3464.6526988165328
 20
-9990.1869794658669
 10
-3464.6581120034107
 20
-9990.1884694067412
 42
0.018055412405379
 10
-3465.0544270480545
 20
-9990.3131074229896
 10
-3465.0589838361066
 20
-9990.3147234592452
 42
0.0203657431268734
 10
-3465.4534613538885
 20
-9990.4729838007479
 10
-3465.4576048929252
 20
-9990.4748454222026
 42
0.022681968467081
 10
-3465.8450409491488
 20
-9990.6704880008856
 10
-3465.8492407401473
 20
-9990.6728535927941
 42
0.0248634984614032
 10
-3466.2244226813345
 20
-9990.9094802387444
 10
-3466.2726176101114
 20
-9990.9433372805652
 42
0.0267044190861146
 10
-3466.5469103070291
 20
-9991.1587776564338
 42
0.0139303002206783
 10
-3466.8030774729687
 20
-9991.3960164973469
 10
-3466.8079308586885
 20
-9991.4007691602055
 42
0.0283460963440539
 10
-3467.05200345291
 20
-9991.6684998206438
 10
-3467.0916719580723
 20
-9991.7173013981246
 42
0.0070695364835837
 10
-3467.1691091839321
 20
-9991.8153682140892
 42
0.0070695364835837
  0
LWPOLYLINE
  5
5D
100
AcDbEntity
  8
0
370
              15
390
0
  6
Continuous
 62
               7
100
AcDbPolyline
 90
      226
 70
             128
 10
-3470.6979296211784
 20
-10007.536957020275
 42
-0.0026277636680019
 10
-3470.6980075049787
 20
-10007.470185094637
 10
-3470.6977901467462
 20
-10007.417029877088
 42
-0.0088680296720705
 10
-3470.6940135304544
 20
-10007.244014094718
 10
-3470.6916671713407
 20
-10007.184734069231
 42
-0.0077381705611244
 10
-3470.675621060579
 20
-10006.893473573453
 10
-3470.6747531494048
 20
-10006.881185339747
 42
-0.0068872530534192
 10
-3470.6481210696543
 20
-10006.565963587653
 10
-3470.6469168454705
 20
-10006.55372260866
 42
-0.006213002148723
 10
-3470.6093231286391
 20
-10006.214852917394
 10
-3470.6078192251075
 20
-10006.202679045506
 42
-0.0056726929665791
 10
-3470.5588973656118
 20
-10005.840483823435
 10
-3470.5571239199608
 20
-10005.828390023145
 42
-0.0052341884500589
 10
-3470.4965133337028
 20
-10005.443196767637
 10
-3470.4944953449244
 20
-10005.431191837635
 42
-0.0049768450196869
 10
-3470.4217566635061
 20
-10005.023347270249
 10
-3470.3975076487759
 20
-10004.894799287198
 42
-0.0089029805616245
 10
-3470.2604267969814
 20
-10004.233023839775
 10
-3470.227681421663
 20
-10004.087992409251
 42
-0.0080318257104561
 10
-3469.9981328073209
 20
-10003.142282777391
 10
-3469.9861478808743
 20
-10003.096152142207
 42
-0.0074265721318796
 10
-3469.7021363420226
 20
-10002.066087563822
 10
-3469.6822567989043
 20
-10001.997953503227
 42
-0.006971192270336
 10
-3469.3549522204007
 20
-10000.931685762909
 10
-3469.2950002732882
 20
-10000.745664404518
 42
-0.0052070422893518
 10
-3469.065575048036
 20
-10000.058392327508
 10
-3469.0482938559212
 20
-10000.008365047057
 42
-0.0009167004470042
 10
-3468.8452019685742
 20
-9999.4239091987365
 42
-0.0025162726932321
 10
-3468.6381043383126
 20
-9998.8408679345757
 10
-3468.6008797264767
 20
-9998.7377183885874
 42
-0.0028212681441029
 10
-3468.3527038075431
 20
-9998.0619877564968
 10
-3468.3428730447913
 20
-9998.0356803118175
 42
-0.0031964916809041
 10
-3468.10658078713
 20
-9997.4154755496929
 10
-3468.0969463331394
 20
-9997.3906655595711
 42
-0.0036281836439361
 10
-3467.87184037203
 20
-9996.8232248786589
 10
-3467.862401961871
 20
-9996.7999274471531
 42
-0.0041269166824055
 10
-3467.6477842652134
 20
-9996.2824865511757
 10
-3467.6151513087898
 20
-9996.2056081048086
 42
-0.0047472213048641
 10
-3467.4581065032389
 20
-9995.8451866369323
 10
-3467.4512124220114
 20
-9995.8297660395583
 42
-0.0025651660004918
 10
-3467.3028543881805
 20
-9995.5024379838505
 42
-0.0057144635004241
 10
-3467.1491046944193
 20
-9995.17762831051
 10
-3467.1210739890021
 20
-9995.120119928084
 42
-0.0065388068387594
 10
-3466.9376069612681
 20
-9994.7558874314309
 10
-3466.9291485054841
 20
-9994.7396278520519
 42
-0.007451084305261
 10
-3466.7529662596116
 20
-9994.4129395709388
 10
-3466.7447865890758
 20
-9994.3982987936615
 42
-0.0084648979859527
 10
-3466.5751527359807
 20
-9994.106389782708
 10
-3466.567296609503
 20
-9994.093382791074
 42
-0.0095638542798169
 10
-3466.4034611618981
 20
-9993.833493919079
 10
-3466.3959862182342
 20
-9993.8221245576351
 42
-0.0107191626831104
 10
-3466.2371846378392
 20
-9993.5915133230774
 10
-3466.2301679041029
 20
-9993.5817772307055
 42
-0.0118458573880847
 10
-3466.0756198055956
 20
-9993.3777050354038
 42
-0.0129184518193698
 10
-3465.9111671819987
 20
-9993.1815445192369
 10
-3465.8810224096219
 20
-9993.1474184403232
 42
-0.0217742579667002
 10
-3465.7044100872954
 20
-9992.9642116700834
 10
-3465.6936645428336
 20
-9992.9539948368802
 42
-0.0097266568609284
 10
-3465.5276069239794
 20
-9992.8021472624423
 42
-0.0187720905686973
 10
-3465.3532593480913
 20
-9992.6600784090551
 10
-3465.3225533573955
 20
-9992.6369193266437
 42
-0.0179428207497619
 10
-3465.0901326374196
 20
-9992.4743671495453
 10
-3465.0864803105178
 20
-9992.472003214667
 42
-0.0170047877696752
 10
-3464.8507166729732
 20
-9992.3305427005071
 10
-3464.8469336842077
 20
-9992.3284443954599
 42
-0.0160190788350147
 10
-3464.6100251365915
 20
-9992.2067930934827
 42
-0.0151102861466796
 10
-3464.3659933541376
 20
-9992.100110317424
 10
-3464.3136068519334
 20
-9992.0790701845326
 42
-0.0271945441850517
 10
-3463.9549442928633
 20
-9991.9572053738229
 10
-3463.8858794924154
 20
-9991.9378558325679
 42
-0.0237596594052044
 10
-3463.4700826453645
 20
-9991.8424051205802
 10
-3463.4020197916143
 20
-9991.83015043245
 42
-0.0213715440535831
 10
-3463.1161448601888
 20
-9991.7912034009423
 10
-3463.055997693933
 20
-9991.7856136862392
 42
-0.0101465655793179
 10
-3462.8885051619764
 20
-9991.7734701429781
 10
-3462.8791647757921
 20
-9991.772983227982
 42
-0.0100375910930734
 10
-3462.7300106752155
 20
-9991.7682074100558
 10
-3462.719751405572
 20
-9991.7680849710414
 42
-0.0103625633412873
 10
-3462.59104341088
 20
-9991.7692164045657
 10
-3462.568777759674
 20
-9991.769873763029
 42
-0.0115689250344852
 10
-3462.4847270220853
 20
-9991.7743032692779
 42
-0.0072438037371705
 10
-3462.4008887425503
 20
-9991.7818924690364
 10
-3462.3840882331733
 20
-9991.7836590117513
 42
-0.021791731325591
 10
-3462.2675184698742
 20
-9991.8010789044693
 10
-3462.20191837929
 20
-9991.813825512887
 42
-0.0332943556707432
 10
-3461.9975262142652
 20
-9991.8678658041936
 10
-3461.967353645704
 20
-9991.8780338813158
 42
-0.0184824084829589
 10
-3461.8288485892499
 20
-9991.9304848966985
 42
-0.0198002050559278
 10
-3461.6947742487282
 20
-9991.9933689569079
 10
-3461.6928876113734
 20
-9991.994346743777
 42
-0.0212242342985904
 10
-3461.5607486689605
 20
-9992.0701094825781
 10
-3461.5589333734279
 20
-9992.0712552847799
 42
-0.0226090605789595
 10
-3461.4304294722169
 20
-9992.1607349283349
 10
-3461.4285850304686
 20
-9992.1621471813305
 42
-0.023845705217817
 10
-3461.3054029491859
 20
-9992.2661430771823
 10
-3461.3034502206165
 20
-9992.2679579549585
 42
-0.0248160564187046
 10
-3461.1872487133269
 20
-9992.3872325561551
 10
-3461.185145079914
 20
-9992.3896178898722
 42
-0.0254109591407948
 10
-3461.0775398620403
 20
-9992.5249062758485
 10
-3461.075291840134
 20
-9992.5280478242385
 42
-0.0255528488283894
 10
-3460.9778451613438
 20
-9992.680074878459
 10
-3460.9755140614207
 20
-9992.6841564900787
 42
-0.0252146793173397
 10
-3460.889733035408
 20
-9992.853658736085
 10
-3460.8874307962542
 20
-9992.8588408179894
 42
-0.0244265636012706
 10
-3460.8147761024979
 20
-9993.0465873900212
 10
-3460.8055297010246
 20
-9993.0744528083724
 42
-0.0231319612874056
 10
-3460.7596069220322
 20
-9993.2377538551755
 42
-0.0112130424282123
 10
-3460.7249708994905
 20
-9993.4039574553826
 10
-3460.7237683743815
 20
-9993.4104540422522
 42
-0.021052788128263
 10
-3460.6980818990119
 20
-9993.5915096876797
 10
-3460.6945713041887
 20
-9993.6269152362402
 42
-0.0190029892481087
 10
-3460.6791298306443
 20
-9993.8804510824957
 10
-3460.6783198541998
 20
-9993.9159266968818
 42
-0.0137974553668101
 10
-3460.679868707035
 20
-9994.2409581036009
 10
-3460.6807141619906
 20
-9994.2670768482003
 42
-0.0081336634223571
 10
-3460.6955734972134
 20
-9994.5724243158074
 42
-0.0073526923586468
 10
-3460.7198820305862
 20
-9994.8771725600691
 10
-3460.721143454371
 20
-9994.8905092347577
 42
-0.006688613867668
 10
-3460.7568790404225
 20
-9995.2210952782971
 10
-3460.7585361298875
 20
-9995.2347168972465
 42
-0.0061359187342793
 10
-3460.8063867319356
 20
-9995.5914808773305
 10
-3460.808424233011
 20
-9995.6053756801757
 42
-0.00566986100775
 10
-3460.8690745637759
 20
-9995.9886542490003
 10
-3460.8714799971012
 20
-9996.0028133682445
 42
-0.005272107725
 10
-3460.9456121979042
 20
-9996.4129407079399
 10
-3460.948375346743
 20
-9996.4273573433093
 42
-0.0049289272185978
 10
-3461.036669464841
 20
-9996.8646658544203
 10
-3461.0397819595255
 20
-9996.879334707246
 42
-0.0047415956722972
 10
-3461.1430199510537
 20
-9997.3441314646407
 10
-3461.1777881614171
 20
-9997.493938560041
 42
-0.0084404470896924
 10
-3461.3678046049922
 20
-9998.2541625845843
 10
-3461.3739312929747
 20
-9998.2770267087253
 42
-0.0039635940247838
 10
-3461.5953849772509
 20
-9999.0780155729444
 10
-3461.6087617724384
 20
-9999.1249471895644
 42
-0.0072475040836868
 10
-3461.876208660301
 20
-10000.014166905954
 10
-3461.9464209871144
 20
-10000.235907255883
 42
-0.0051345458826153
 10
-3462.2331803591878
 20
-10001.110232443738
 10
-3462.2547066259663
 20
-10001.173658710901
 42
-0.00191500166012
 10
-3462.5102400328219
 20
-10001.917207831095
 10
-3462.5167076371845
 20
-10001.935795295918
 42
-0.0021524362771611
 10
-3462.7651856882821
 20
-10002.640121117724
 10
-3462.7743961090032
 20
-10002.665874696093
 42
-0.0024331286814767
 10
-3463.0106513680144
 20
-10003.316474004143
 10
-3463.0196993205536
 20
-10003.341017310466
 42
-0.0027449721794719
 10
-3463.2443138914005
 20
-10003.940147189422
 10
-3463.2532038987952
 20
-10003.963469779281
 42
-0.0031083229758488
 10
-3463.4667463854025
 20
-10004.513393816855
 10
-3463.4754825170844
 20
-10004.535483532729
 42
-0.0035311343286747
 10
-3463.6785237026697
 20
-10005.038466658441
 10
-3463.6871090418194
 20
-10005.059309381955
 42
-0.0040245640951843
 10
-3463.8802208456118
 20
-10005.517618704544
 10
-3463.88865695921
 20
-10005.537198072605
 42
-0.0046015135854237
 10
-3464.0724132523787
 20
-10005.95310310226
 10
-3464.0806994301993
 20
-10005.971400241695
 42
-0.0052768638275391
 10
-3464.255676949163
 20
-10006.347173125981
 10
-3464.2638091597955
 20
-10006.364166464537
 42
-0.0060672675649592
 10
-3464.4305887725559
 20
-10006.702082087639
 10
-3464.4385582530331
 20
-10006.717747346627
 42
-0.0069904648833281
 10
-3464.5977266470386
 20
-10007.0200831533
 10
-3464.6055180466515
 20
-10007.034393702532
 42
-0.0080637022760717
 10
-3464.757669906995
 20
-10007.30342900568
 10
-3464.7652589396307
 20
-10007.316356871288
 42
-0.0093006455664976
 10
-3464.9109996161578
 20
-10007.554371269784
 10
-3464.9183502828992
 20
-10007.565889238953
 42
-0.0107060778064226
 10
-3465.0582988263404
 20
-10007.775159556335
 10
-3465.0653605946191
 20
-10007.785245098899
 42
-0.0122723111437993
 10
-3465.2001543128181
 20
-10007.968038428389
 10
-3465.2004805363699
 20
-10007.968458816196
 42
-0.0141836319638816
 10
-3465.3440621393456
 20
-10008.14302857403
 10
-3465.3510098949955
 20
-10008.151003574292
 42
-0.0175957477165455
 10
-3465.4909160630323
 20
-10008.300624462699
 42
-0.0080466359665458
 10
-3465.6383798280594
 20
-10008.442946990848
 10
-3465.6844143725802
 20
-10008.485967428942
 42
-0.0269600260378685
 10
-3465.9376946185685
 20
-10008.698290687455
 10
-3466.0042617548497
 20
-10008.748242102067
 42
-0.01783628397698
 10
-3466.2442062445161
 20
-10008.915260028327
 10
-3466.2514512155394
 20
-10008.919928540547
 42
-0.0174650732611552
 10
-3466.4877874129579
 20
-10009.060789505491
 42
-0.0169240130164128
 10
-3466.7332536588219
 20
-10009.185081765272
 10
-3466.7792398143733
 20
-10009.206443720836
 42
-0.0318883036825422
 10
-3467.1295906699929
 20
-10009.342782030346
 10
-3467.197956205152
 20
-10009.364482650819
 42
-0.0284435909907388
 10
-3467.5740063314488
 20
-10009.460700086296
 10
-3467.6091644919507
 20
-10009.467593682126
 42
-0.0243909341006526
 10
-3467.9226079528667
 20
-10009.513314713155
 10
-3467.9728886796511
 20
-10009.518160260057
 42
-0.0196639292919663
 10
-3468.1884842571653
 20
-10009.53040854557
 10
-3468.240308328328
 20
-10009.531311806308
 42
-0.0100501510632081
 10
-3468.3527316099926
 20
-10009.531011407955
 10
-3468.3843914710233
 20
-10009.530290336075
 42
-0.0019752031310161
 10
-3468.4334838080185
 20
-10009.528978175858
 10
-3468.4362441111452
 20
-10009.528893484036
 42
0.0065378751980672
 10
-3468.479820685995
 20
-10009.528126592817
 42
-0.0167974694700364
 10
-3468.5233515089071
 20
-10009.526466694293
 10
-3468.5274308481889
 20
-10009.526173683396
 42
-0.0081283276282427
 10
-3468.5789906459559
 20
-10009.521626689755
 10
-3468.5907302198061
 20
-10009.52039877218
 42
-0.0126703440188602
 10
-3468.6654485155777
 20
-10009.510663981111
 10
-3468.6882363832765
 20
-10009.507105725192
 42
-0.0117852088456028
 10
-3468.8077753691268
 20
-10009.485542730032
 10
-3468.8631558208717
 20
-10009.474199189801
 42
-0.025177459227297
 10
-3469.0899998598702
 20
-10009.415701180373
 10
-3469.1347190496954
 20
-10009.401734361045
 42
-0.014652519993148
 10
-3469.3211120372689
 20
-10009.337467833835
 42
-0.0166929435800852
 10
-3469.5030896934018
 20
-10009.261660700779
 10
-3469.5077463246689
 20
-10009.259535800167
 42
-0.0191684358410368
 10
-3469.6929299559379
 20
-10009.166299716366
 10
-3469.6962625416754
 20
-10009.164458468824
 42
-0.0221181781829125
 10
-3469.8795728455843
 20
-10009.052324970447
 10
-3469.8819226495862
 20
-10009.050740672461
 42
-0.0254984685417754
 10
-3470.0582127999642
 20
-10008.918329522498
 10
-3470.0806949476796
 20
-10008.899577213551
 42
-0.0292492648771626
 10
-3470.2054638865161
 20
-10008.782484413912
 42
-0.0159048957512902
 10
-3470.3193038839581
 20
-10008.654464422321
 10
-3470.3206226745451
 20
-10008.652882809292
 42
-0.0343813379533727
 10
-3470.4232599361717
 20
-10008.511011483524
 10
-3470.4547514675319
 20
-10008.460508091432
 42
-0.0369117275710221
 10
-3470.5406439694298
 20
-10008.297030850481
 42
-0.0191751379919819
 10
-3470.6078373549872
 20
-10008.124626244475
 10
-3470.6096006787466
 20
-10008.1195328998
 42
-0.0378178042232218
 10
-3470.6593953975307
 20
-10007.930592123719
 10
-3470.6653906932629
 20
-10007.898031505511
 42
-0.018484604641031
 10
-3470.6861078925554
 20
-10007.756278684978
 42
-0.0179866351355231
 10
-3470.6964408976287
 20
-10007.613387871899
 10
-3470.6964973400745
 20
-10007.611830185284
 42
-0.0085497186017768
 10
-3470.6979296211784
 20
-10007.536957020275
 42
-0.0085497186017768
  0
ENDBLK
  5
5E
100
AcDbEntity
  8
template
390
0
100
AcDbBlockEnd
  0
BLOCK
  5
5F
100
AcDbEntity
  8
notes
390
0
100
AcDbBlockBegin
  2
*D2
 70
               1
 10
0.0
 20
0.0
 30
0.0
  3
*D2
  1

  0
LINE
  5
60
100
AcDbEntity
  8
0
370
              -2
390
0
  6
Continuous
 62
               0
100
AcDbLine
 10
-98.626921776256495
 20
295.38076532876948
 30
0.0
 11
104.0
 21
295.38076532876948
 31
0.0
  0
LINE
  5
61
100
AcDbEntity
  8
0
370
              -2
390
0
  6
Continuous
 62
               0
100
AcDbLine
 10
-9.9221822474119108
 20
795.38076532876585
 30
0.0
 11
104.0
 21
795.38076532876585
 31
0.0
  0
LINE
  5
62
100
AcDbEntity
  8
0
370
              -2
390
0
  6
Continuous
 62
               0
100
AcDbLine
 10
104.0
 20
295.38076532876948
 30
0.0
 11
104.0
 21
795.38076532876585
 31
0.0
  0
CIRCLE
  5
63
102
{ACAD_REACTORS
330
64
102
}
100
AcDbEntity
  8
0
370
              -2
390
0
  6
Continuous
 62
               0
100
AcDbCircle
 10
104.0
 20
295.38076532876948
 30
0.0
 40
4.99969482421875
  0
HATCH
  5
64
100
AcDbEntity
  8
0
370
              -2
390
0
  6
Continuous
 62
               0
100
AcDbHatch
 10
0.0
 20
0.0
 30
0.0
210
0.0
220
0.0
230
1.0
  2
SOLID
 70
               1
 71
               1
 91
        1
 92
        1
 93
        1
 72
               2
 10
104.0
 20
295.38076532876948
 40
4.99969482421875
 50
0.0
 51
360.0
 73
               0
 97
        1
330
63
 75
               0
 76
               1
 98
        1
 10
0.0
 20
0.0
  0
CIRCLE
  5
65
102
{ACAD_REACTORS
330
66
102
}
100
AcDbEntity
  8
0
370
              -2
390
0
  6
Continuous
 62
               0
100
AcDbCircle
 10
104.0
 20
795.38076532876585
 30
0.0
 40
4.99969482421875
  0
HATCH
  5
66
100
AcDbEntity
  8
0
370
              -2
390
0
  6
Continuous
 62
               0
100
AcDbHatch
 10
0.0
 20
0.0
 30
0.0
210
0.0
220
0.0
230
1.0
  2
SOLID
 70
               1
 71
               1
 91
        1
 92
        1
 93
        1
 72
               2
 10
104.0
 20
795.38076532876585
 40
4.99969482421875
 50
0.0
 51
360.0
 73
               0
 97
        1
330
65
 75
               0
 76
               1
 98
        1
 10
0.0
 20
0.0
  0
MTEXT
  5
67
100
AcDbEntity
  8
0
390
0
 62
               0
100
AcDbMText
 10
70.122382812500291
 20
521.56826364659173
 30
0.0
 40
24.432617187500004
 41
0.0
 71
               1
 72
               1
  1
500
  7
ＭＳゴシック
 11
0.0
 21
1.0
 31
0.0
 73
               1
 44
0.7828267384257843
  0
POINT
  5
68
100
AcDbEntity
  8
Defpoints
370
               0
390
0
 62
               0
100
AcDbPoint
 10
-34.922182247411911
 20
795.38076532876585
 30
0.0
  0
POINT
  5
69
100
AcDbEntity
  8
Defpoints
370
               0
390
0
 62
               0
100
AcDbPoint
 10
-123.62692177625649
 20
295.38076532876948
 30
0.0
  0
POINT
  5
6A
100
AcDbEntity
  8
Defpoints
370
               0
390
0
 62
               0
100
AcDbPoint
 10
104.0
 20
295.38076532876948
 30
0.0
  0
ENDBLK
  5
6B
100
AcDbEntity
  8
notes
390
0
100
AcDbBlockEnd
  0
BLOCK
  5
6C
100
AcDbEntity
  8
notes
390
0
100
AcDbBlockBegin
  2
*D3
 70
               1
 10
0.0
 20
0.0
 30
0.0
  3
*D3
  1

  0
LINE
  5
6D
100
AcDbEntity
  8
0
370
              -2
390
0
  6
Continuous
 62
               0
100
AcDbLine
 10
-170.62692177625559
 20
705.38076532876585
 30
0.0
 11
-30.125
 21
705.38076532876585
 31
0.0
  0
LINE
  5
6E
100
AcDbEntity
  8
0
370
              -2
390
0
  6
Continuous
 62
               0
100
AcDbLine
 10
-98.626921776255585
 20
795.38076532876585
 30
0.0
 11
-30.125
 21
795.38076532876585
 31
0.0
  0
LINE
  5
6F
100
AcDbEntity
  8
0
370
              -2
390
0
  6
Continuous
 62
               0
100
AcDbLine
 10
-30.125
 20
705.38076532876585
 30
0.0
 11
-30.125
 21
795.38076532876585
 31
0.0
  0
CIRCLE
  5
70
102
{ACAD_REACTORS
330
71
102
}
100
AcDbEntity
  8
0
370
              -2
390
0
  6
Continuous
 62
               0
100
AcDbCircle
 10
-30.125
 20
705.38076532876585
 30
0.0
 40
4.99969482421875
  0
HATCH
  5
71
100
AcDbEntity
  8
0
370
              -2
390
0
  6
Continuous
 62
               0
100
AcDbHatch
 10
0.0
 20
0.0
 30
0.0
210
0.0
220
0.0
230
1.0
  2
SOLID
 70
               1
 71
               1
 91
        1
 92
        1
 93
        1
 72
               2
 10
-30.125
 20
705.38076532876585
 40
4.99969482421875
 50
0.0
 51
360.0
 73
               0
 97
        1
330
70
 75
               0
 76
               1
 98
        1
 10
0.0
 20
0.0
  0
CIRCLE
  5
72
102
{ACAD_REACTORS
330
73
102
}
100
AcDbEntity
  8
0
370
              -2
390
0
  6
Continuous
 62
               0
100
AcDbCircle
 10
-30.125
 20
795.38076532876585
 30
0.0
 40
4.99969482421875
  0
HATCH
  5
73
100
AcDbEntity
  8
0
370
              -2
390
0
  6
Continuous
 62
               0
100
AcDbHatch
 10
0.0
 20
0.0
 30
0.0
210
0.0
220
0.0
230
1.0
  2
SOLID
 70
               1
 71
               1
 91
        1
 92
        1
 93
        1
 72
               2
 10
-30.125
 20
795.38076532876585
 40
4.99969482421875
 50
0.0
 51
360.0
 73
               0
 97
        1
330
72
 75
               0
 76
               1
 98
        1
 10
0.0
 20
0.0
  0
MTEXT
  5
74
100
AcDbEntity
  8
0
390
0
 62
               0
100
AcDbMText
 10
-64.002617187499709
 20
734.50576532876585
 30
0.0
 40
24.432617187500004
 41
0.0
 71
               1
 72
               1
  1
90
  7
ＭＳゴシック
 11
0.0
 21
1.0
 31
0.0
 73
               1
 44
0.7828267384257843
  0
POINT
  5
75
100
AcDbEntity
  8
Defpoints
370
               0
390
0
 62
               0
100
AcDbPoint
 10
-123.62692177625559
 20
795.38076532876585
 30
0.0
  0
POINT
  5
76
100
AcDbEntity
  8
Defpoints
370
               0
390
0
 62
               0
100
AcDbPoint
 10
-195.62692177625559
 20
705.38076532876585
 30
0.0
  0
POINT
  5
77
100
AcDbEntity
  8
Defpoints
370
               0
390
0
 62
               0
100
AcDbPoint
 10
-30.125
 20
705.38076532876585
 30
0.0
  0
ENDBLK
  5
78
100
AcDbEntity
  8
notes
390
0
100
AcDbBlockEnd
  0
BLOCK
  5
79
100
AcDbEntity
  8
notes
390
0
100
AcDbBlockBegin
  2
*D4
 70
               1
 10
0.0
 20
0.0
 30
0.0
  3
*D4
  1

  0
LINE
  5
7A
100
AcDbEntity
  8
0
370
              -2
390
0
  6
Continuous
 62
               0
100
AcDbLine
 10
-213.66952788175877
 20
742.03815922325612
 30
0.0
 11
-213.66952788175877
 21
861.0
 31
0.0
  0
LINE
  5
7B
100
AcDbEntity
  8
0
370
              -2
390
0
  6
Continuous
 62
               0
100
AcDbLine
 10
-123.66952788175877
 20
820.38076532876585
 30
0.0
 11
-123.66952788175877
 21
861.0
 31
0.0
  0
LINE
  5
7C
100
AcDbEntity
  8
0
370
              -2
390
0
  6
Continuous
 62
               0
100
AcDbLine
 10
-213.66952788175877
 20
861.0
 30
0.0
 11
-123.66952788175877
 21
861.0
 31
0.0
  0
CIRCLE
  5
7D
102
{ACAD_REACTORS
330
7E
102
}
100
AcDbEntity
  8
0
370
              -2
390
0
  6
Continuous
 62
               0
100
AcDbCircle
 10
-213.66952788175877
 20
861.0
 30
0.0
 40
4.99969482421875
  0
HATCH
  5
7E
100
AcDbEntity
  8
0
370
              -2
390
0
  6
Continuous
 62
               0
100
AcDbHatch
 10
0.0
 20
0.0
 30
0.0
210
0.0
220
0.0
230
1.0
  2
SOLID
 70
               1
 71
               1
 91
        1
 92
        1
 93
        1
 72
               2
 10
-213.66952788175877
 20
861.0
 40
4.99969482421875
 50
0.0
 51
360.0
 73
               0
 97
        1
330
7D
 75
               0
 76
               1
 98
        1
 10
0.0
 20
0.0
  0
CIRCLE
  5
7F
102
{ACAD_REACTORS
330
80
102
}
100
AcDbEntity
  8
0
370
              -2
390
0
  6
Continuous
 62
               0
100
AcDbCircle
 10
-123.66952788175877
 20
861.0
 30
0.0
 40
4.99969482421875
  0
HATCH
  5
80
100
AcDbEntity
  8
0
370
              -2
390
0
  6
Continuous
 62
               0
100
AcDbHatch
 10
0.0
 20
0.0
 30
0.0
210
0.0
220
0.0
230
1.0
  2
SOLID
 70
               1
 71
               1
 91
        1
 92
        1
 93
        1
 72
               2
 10
-123.66952788175877
 20
861.0
 40
4.99969482421875
 50
0.0
 51
360.0
 73
               0
 97
        1
330
7F
 75
               0
 76
               1
 98
        1
 10
0.0
 20
0.0
  0
MTEXT
  5
81
100
AcDbEntity
  8
0
390
0
 62
               0
100
AcDbMText
 10
-181.875
 20
894.87761718749971
 30
0.0
 40
24.432617187500004
 41
0.0
 71
               1
 72
               1
  1
90
  7
ＭＳゴシック
 73
               1
 44
0.7828267384257843
  0
POINT
  5
82
100
AcDbEntity
  8
Defpoints
370
               0
390
0
 62
               0
100
AcDbPoint
 10
-123.66952788175877
 20
795.38076532876585
 30
0.0
  0
POINT
  5
83
100
AcDbEntity
  8
Defpoints
370
               0
390
0
 62
               0
100
AcDbPoint
 10
-213.66952788175877
 20
717.03815922325612
 30
0.0
  0
POINT
  5
84
100
AcDbEntity
  8
Defpoints
370
               0
390
0
 62
               0
100
AcDbPoint
 10
-213.66952788175877
 20
861.0
 30
0.0
  0
ENDBLK
  5
85
100
AcDbEntity
  8
notes
390
0
100
AcDbBlockEnd
  0
BLOCK
  5
86
100
AcDbEntity
  8
notes
390
0
100
AcDbBlockBegin
  2
*D5
 70
               1
 10
0.0
 20
0.0
 30
0.0
  3
*D5
  1

  0
LINE
  5
87
100
AcDbEntity
  8
0
370
              -2
390
0
  6
Continuous
 62
               0
100
AcDbLine
 10
-648.62692177625649
 20
795.38076532876585
 30
0.0
 11
-723.62692177625649
 21
795.38076532876585
 31
0.0
  0
LINE
  5
88
100
AcDbEntity
  8
0
370
              -2
390
0
  6
Continuous
 62
               0
100
AcDbLine
 10
-648.62692177625559
 20
710.38076532876585
 30
0.0
 11
-723.62692177625649
 21
710.38076532876585
 31
0.0
  0
LINE
  5
89
100
AcDbEntity
  8
0
370
              -2
390
0
  6
Continuous
 62
               0
100
AcDbLine
 10
-723.62692177625649
 20
795.38076532876585
 30
0.0
 11
-723.62692177625649
 21
710.38076532876585
 31
0.0
  0
CIRCLE
  5
8A
102
{ACAD_REACTORS
330
8B
102
}
100
AcDbEntity
  8
0
370
              -2
390
0
  6
Continuous
 62
               0
100
AcDbCircle
 10
-723.62692177625649
 20
795.38076532876585
 30
0.0
 40
4.99969482421875
  0
HATCH
  5
8B
100
AcDbEntity
  8
0
370
              -2
390
0
  6
Continuous
 62
               0
100
AcDbHatch
 10
0.0
 20
0.0
 30
0.0
210
0.0
220
0.0
230
1.0
  2
SOLID
 70
               1
 71
               1
 91
        1
 92
        1
 93
        1
 72
               2
 10
-723.62692177625649
 20
795.38076532876585
 40
4.99969482421875
 50
0.0
 51
360.0
 73
               0
 97
        1
330
8A
 75
               0
 76
               1
 98
        1
 10
0.0
 20
0.0
  0
CIRCLE
  5
8C
102
{ACAD_REACTORS
330
8D
102
}
100
AcDbEntity
  8
0
370
              -2
390
0
  6
Continuous
 62
               0
100
AcDbCircle
 10
-723.62692177625649
 20
710.38076532876585
 30
0.0
 40
4.99969482421875
  0
HATCH
  5
8D
100
AcDbEntity
  8
0
370
              -2
390
0
  6
Continuous
 62
               0
100
AcDbHatch
 10
0.0
 20
0.0
 30
0.0
210
0.0
220
0.0
230
1.0
  2
SOLID
 70
               1
 71
               1
 91
        1
 92
        1
 93
        1
 72
               2
 10
-723.62692177625649
 20
710.38076532876585
 40
4.99969482421875
 50
0.0
 51
360.0
 73
               0
 97
        1
330
8C
 75
               0
 76
               1
 98
        1
 10
0.0
 20
0.0
  0
MTEXT
  5
8E
100
AcDbEntity
  8
0
390
0
 62
               0
100
AcDbMText
 10
-757.5045389637562
 20
737.00576532876585
 30
0.0
 40
24.432617187500004
 41
0.0
 71
               1
 72
               1
  1
85
  7
ＭＳゴシック
 11
0.0
 21
1.0
 31
0.0
 73
               1
 44
0.7828267384257843
  0
POINT
  5
8F
100
AcDbEntity
  8
Defpoints
370
               0
390
0
 62
               0
100
AcDbPoint
 10
-623.62692177625559
 20
710.38076532876585
 30
0.0
  0
POINT
  5
90
100
AcDbEntity
  8
Defpoints
370
               0
390
0
 62
               0
100
AcDbPoint
 10
-623.62692177625649
 20
795.38076532876585
 30
0.0
  0
POINT
  5
91
100
AcDbEntity
  8
Defpoints
370
               0
390
0
 62
               0
100
AcDbPoint
 10
-723.62692177625649
 20
795.38076532876585
 30
0.0
  0
ENDBLK
  5
92
100
AcDbEntity
  8
notes
390
0
100
AcDbBlockEnd
  0
BLOCK
  5
93
100
AcDbEntity
  8
notes
390
0
100
AcDbBlockBegin
  2
*D6
 70
               1
 10
0.0
 20
0.0
 30
0.0
  3
*D6
  1

  0
LINE
  5
94
100
AcDbEntity
  8
0
370
              -2
390
0
  6
Continuous
 62
               0
100
AcDbLine
 10
-648.62692177625559
 20
710.38076532876585
 30
0.0
 11
-723.62692177625649
 21
710.38076532876585
 31
0.0
  0
LINE
  5
95
100
AcDbEntity
  8
0
370
              -2
390
0
  6
Continuous
 62
               0
100
AcDbLine
 10
-542.91244277944588
 20
330.38076532876585
 30
0.0
 11
-723.62692177625649
 21
330.38076532876585
 31
0.0
  0
LINE
  5
96
100
AcDbEntity
  8
0
370
              -2
390
0
  6
Continuous
 62
               0
100
AcDbLine
 10
-723.62692177625649
 20
710.38076532876585
 30
0.0
 11
-723.62692177625649
 21
330.38076532876585
 31
0.0
  0
CIRCLE
  5
97
102
{ACAD_REACTORS
330
98
102
}
100
AcDbEntity
  8
0
370
              -2
390
0
  6
Continuous
 62
               0
100
AcDbCircle
 10
-723.62692177625649
 20
710.38076532876585
 30
0.0
 40
4.99969482421875
  0
HATCH
  5
98
100
AcDbEntity
  8
0
370
              -2
390
0
  6
Continuous
 62
               0
100
AcDbHatch
 10
0.0
 20
0.0
 30
0.0
210
0.0
220
0.0
230
1.0
  2
SOLID
 70
               1
 71
               1
 91
        1
 92
        1
 93
        1
 72
               2
 10
-723.62692177625649
 20
710.38076532876585
 40
4.99969482421875
 50
0.0
 51
360.0
 73
               0
 97
        1
330
97
 75
               0
 76
               1
 98
        1
 10
0.0
 20
0.0
  0
CIRCLE
  5
99
102
{ACAD_REACTORS
330
9A
102
}
100
AcDbEntity
  8
0
370
              -2
390
0
  6
Continuous
 62
               0
100
AcDbCircle
 10
-723.62692177625649
 20
330.38076532876585
 30
0.0
 40
4.99969482421875
  0
HATCH
  5
9A
100
AcDbEntity
  8
0
370
              -2
390
0
  6
Continuous
 62
               0
100
AcDbHatch
 10
0.0
 20
0.0
 30
0.0
210
0.0
220
0.0
230
1.0
  2
SOLID
 70
               1
 71
               1
 91
        1
 92
        1
 93
        1
 72
               2
 10
-723.62692177625649
 20
330.38076532876585
 40
4.99969482421875
 50
0.0
 51
360.0
 73
               0
 97
        1
330
99
 75
               0
 76
               1
 98
        1
 10
0.0
 20
0.0
  0
MTEXT
  5
9B
100
AcDbEntity
  8
0
390
0
 62
               0
100
AcDbMText
 10
-757.5045389637562
 20
496.56826364658991
 30
0.0
 40
24.432617187500004
 41
0.0
 71
               1
 72
               1
  1
380
  7
ＭＳゴシック
 11
0.0
 21
1.0
 31
0.0
 73
               1
 44
0.7828267384257843
  0
POINT
  5
9C
100
AcDbEntity
  8
Defpoints
370
               0
390
0
 62
               0
100
AcDbPoint
 10
-517.91244277944588
 20
330.38076532876585
 30
0.0
  0
POINT
  5
9D
100
AcDbEntity
  8
Defpoints
370
               0
390
0
 62
               0
100
AcDbPoint
 10
-623.62692177625559
 20
710.38076532876585
 30
0.0
  0
POINT
  5
9E
100
AcDbEntity
  8
Defpoints
370
               0
390
0
 62
               0
100
AcDbPoint
 10
-723.62692177625649
 20
710.38076532876585
 30
0.0
  0
ENDBLK
  5
9F
100
AcDbEntity
  8
notes
390
0
100
AcDbBlockEnd
  0
BLOCK
  5
A0
100
AcDbEntity
  8
notes
390
0
100
AcDbBlockBegin
  2
*D7
 70
               1
 10
0.0
 20
0.0
 30
0.0
  3
*D7
  1

  0
LINE
  5
A1
100
AcDbEntity
  8
0
370
              -2
390
0
  6
Continuous
 62
               0
100
AcDbLine
 10
-518.62692177625649
 20
-475.54143255478266
 30
0.0
 11
-723.62692177625649
 21
-475.54143255478266
 31
0.0
  0
LINE
  5
A2
100
AcDbEntity
  8
0
370
              -2
390
0
  6
Continuous
 62
               0
100
AcDbLine
 10
-639.52923612175709
 20
-420.54143255478448
 30
0.0
 11
-723.62692177625649
 21
-420.54143255478448
 31
0.0
  0
LINE
  5
A3
100
AcDbEntity
  8
0
370
              -2
390
0
  6
Continuous
 62
               0
100
AcDbLine
 10
-723.62692177625649
 20
-475.54143255478266
 30
0.0
 11
-723.62692177625649
 21
-420.54143255478448
 31
0.0
  0
CIRCLE
  5
A4
102
{ACAD_REACTORS
330
A5
102
}
100
AcDbEntity
  8
0
370
              -2
390
0
  6
Continuous
 62
               0
100
AcDbCircle
 10
-723.62692177625649
 20
-475.54143255478266
 30
0.0
 40
4.99969482421875
  0
HATCH
  5
A5
100
AcDbEntity
  8
0
370
              -2
390
0
  6
Continuous
 62
               0
100
AcDbHatch
 10
0.0
 20
0.0
 30
0.0
210
0.0
220
0.0
230
1.0
  2
SOLID
 70
               1
 71
               1
 91
        1
 92
        1
 93
        1
 72
               2
 10
-723.62692177625649
 20
-475.54143255478266
 40
4.99969482421875
 50
0.0
 51
360.0
 73
               0
 97
        1
330
A4
 75
               0
 76
               1
 98
        1
 10
0.0
 20
0.0
  0
CIRCLE
  5
A6
102
{ACAD_REACTORS
330
A7
102
}
100
AcDbEntity
  8
0
370
              -2
390
0
  6
Continuous
 62
               0
100
AcDbCircle
 10
-723.62692177625649
 20
-420.54143255478448
 30
0.0
 40
4.99969482421875
  0
HATCH
  5
A7
100
AcDbEntity
  8
0
370
              -2
390
0
  6
Continuous
 62
               0
100
AcDbHatch
 10
0.0
 20
0.0
 30
0.0
210
0.0
220
0.0
230
1.0
  2
SOLID
 70
               1
 71
               1
 91
        1
 92
        1
 93
        1
 72
               2
 10
-723.62692177625649
 20
-420.54143255478448
 40
4.99969482421875
 50
0.0
 51
360.0
 73
               0
 97
        1
330
A6
 75
               0
 76
               1
 98
        1
 10
0.0
 20
0.0
  0
MTEXT
  5
A8
100
AcDbEntity
  8
0
390
0
 62
               0
100
AcDbMText
 10
-757.5045389637562
 20
-463.91643255478266
 30
0.0
 40
24.432617187500004
 41
0.0
 71
               1
 72
               1
  1
55
  7
ＭＳゴシック
 11
0.0
 21
1.0
 31
0.0
 73
               1
 44
0.7828267384257843
  0
POINT
  5
A9
100
AcDbEntity
  8
Defpoints
370
               0
390
0
 62
               0
100
AcDbPoint
 10
-614.52923612175709
 20
-420.54143255478448
 30
0.0
  0
POINT
  5
AA
100
AcDbEntity
  8
Defpoints
370
               0
390
0
 62
               0
100
AcDbPoint
 10
-493.62692177625649
 20
-475.54143255478266
 30
0.0
  0
POINT
  5
AB
100
AcDbEntity
  8
Defpoints
370
               0
390
0
 62
               0
100
AcDbPoint
 10
-723.62692177625649
 20
-475.54143255478266
 30
0.0
  0
ENDBLK
  5
AC
100
AcDbEntity
  8
notes
390
0
100
AcDbBlockEnd
  0
BLOCK
  5
AD
100
AcDbEntity
  8
notes
390
0
100
AcDbBlockBegin
  2
*D8
 70
               1
 10
0.0
 20
0.0
 30
0.0
  3
*D8
  1

  0
LINE
  5
AE
100
AcDbEntity
  8
0
370
              -2
390
0
  6
Continuous
 62
               0
100
AcDbLine
 10
-98.626921776256495
 20
-420.54143255478084
 30
0.0
 11
-23.626921776256495
 21
-420.54143255478084
 31
0.0
  0
LINE
  5
AF
100
AcDbEntity
  8
0
370
              -2
390
0
  6
Continuous
 62
               0
100
AcDbLine
 10
-98.626921776256495
 20
-600.54143255478266
 30
0.0
 11
-23.626921776256495
 21
-600.54143255478266
 31
0.0
  0
LINE
  5
B0
100
AcDbEntity
  8
0
370
              -2
390
0
  6
Continuous
 62
               0
100
AcDbLine
 10
-23.626921776256495
 20
-420.54143255478084
 30
0.0
 11
-23.626921776256495
 21
-600.54143255478266
 31
0.0
  0
CIRCLE
  5
B1
102
{ACAD_REACTORS
330
B2
102
}
100
AcDbEntity
  8
0
370
              -2
390
0
  6
Continuous
 62
               0
100
AcDbCircle
 10
-23.626921776256495
 20
-420.54143255478084
 30
0.0
 40
4.99969482421875
  0
HATCH
  5
B2
100
AcDbEntity
  8
0
370
              -2
390
0
  6
Continuous
 62
               0
100
AcDbHatch
 10
0.0
 20
0.0
 30
0.0
210
0.0
220
0.0
230
1.0
  2
SOLID
 70
               1
 71
               1
 91
        1
 92
        1
 93
        1
 72
               2
 10
-23.626921776256495
 20
-420.54143255478084
 40
4.99969482421875
 50
0.0
 51
360.0
 73
               0
 97
        1
330
B1
 75
               0
 76
               1
 98
        1
 10
0.0
 20
0.0
  0
CIRCLE
  5
B3
102
{ACAD_REACTORS
330
B4
102
}
100
AcDbEntity
  8
0
370
              -2
390
0
  6
Continuous
 62
               0
100
AcDbCircle
 10
-23.626921776256495
 20
-600.54143255478266
 30
0.0
 40
4.99969482421875
  0
HATCH
  5
B4
100
AcDbEntity
  8
0
370
              -2
390
0
  6
Continuous
 62
               0
100
AcDbHatch
 10
0.0
 20
0.0
 30
0.0
210
0.0
220
0.0
230
1.0
  2
SOLID
 70
               1
 71
               1
 91
        1
 92
        1
 93
        1
 72
               2
 10
-23.626921776256495
 20
-600.54143255478266
 40
4.99969482421875
 50
0.0
 51
360.0
 73
               0
 97
        1
330
B3
 75
               0
 76
               1
 98
        1
 10
0.0
 20
0.0
  0
MTEXT
  5
B5
100
AcDbEntity
  8
0
390
0
 62
               0
100
AcDbMText
 10
-57.504538963756204
 20
-534.35393423695859
 30
0.0
 40
24.432617187500004
 41
0.0
 71
               1
 72
               1
  1
180
  7
ＭＳゴシック
 11
0.0
 21
1.0
 31
0.0
 73
               1
 44
0.7828267384257843
  0
POINT
  5
B6
100
AcDbEntity
  8
Defpoints
370
               0
390
0
 62
               0
100
AcDbPoint
 10
-123.62692177625649
 20
-600.54143255478266
 30
0.0
  0
POINT
  5
B7
100
AcDbEntity
  8
Defpoints
370
               0
390
0
 62
               0
100
AcDbPoint
 10
-123.62692177625649
 20
-420.54143255478084
 30
0.0
  0
POINT
  5
B8
100
AcDbEntity
  8
Defpoints
370
               0
390
0
 62
               0
100
AcDbPoint
 10
-23.626921776256495
 20
-420.54143255478084
 30
0.0
  0
ENDBLK
  5
B9
100
AcDbEntity
  8
notes
390
0
100
AcDbBlockEnd
  0
BLOCK
  5
BA
100
AcDbEntity
  8
notes
390
0
100
AcDbBlockBegin
  2
*D9
 70
               1
 10
0.0
 20
0.0
 30
0.0
  3
*D9
  1

  0
LINE
  5
BB
100
AcDbEntity
  8
0
370
              -2
390
0
  6
Continuous
 62
               0
100
AcDbLine
 10
-123.62692177625649
 20
-625.54143255478266
 30
0.0
 11
-123.62692177625649
 21
-700.54143255478266
 31
0.0
  0
LINE
  5
BC
100
AcDbEntity
  8
0
370
              -2
390
0
  6
Continuous
 62
               0
100
AcDbLine
 10
-548.62692177625649
 20
-625.54143255478266
 30
0.0
 11
-548.62692177625649
 21
-700.54143255478266
 31
0.0
  0
LINE
  5
BD
100
AcDbEntity
  8
0
370
              -2
390
0
  6
Continuous
 62
               0
100
AcDbLine
 10
-123.62692177625649
 20
-700.54143255478266
 30
0.0
 11
-548.62692177625649
 21
-700.54143255478266
 31
0.0
  0
CIRCLE
  5
BE
102
{ACAD_REACTORS
330
BF
102
}
100
AcDbEntity
  8
0
370
              -2
390
0
  6
Continuous
 62
               0
100
AcDbCircle
 10
-123.62692177625649
 20
-700.54143255478266
 30
0.0
 40
4.99969482421875
  0
HATCH
  5
BF
100
AcDbEntity
  8
0
370
              -2
390
0
  6
Continuous
 62
               0
100
AcDbHatch
 10
0.0
 20
0.0
 30
0.0
210
0.0
220
0.0
230
1.0
  2
SOLID
 70
               1
 71
               1
 91
        1
 92
        1
 93
        1
 72
               2
 10
-123.62692177625649
 20
-700.54143255478266
 40
4.99969482421875
 50
0.0
 51
360.0
 73
               0
 97
        1
330
BE
 75
               0
 76
               1
 98
        1
 10
0.0
 20
0.0
  0
CIRCLE
  5
C0
102
{ACAD_REACTORS
330
C1
102
}
100
AcDbEntity
  8
0
370
              -2
390
0
  6
Continuous
 62
               0
100
AcDbCircle
 10
-548.62692177625649
 20
-700.54143255478266
 30
0.0
 40
4.99969482421875
  0
HATCH
  5
C1
100
AcDbEntity
  8
0
370
              -2
390
0
  6
Continuous
 62
               0
100
AcDbHatch
 10
0.0
 20
0.0
 30
0.0
210
0.0
220
0.0
230
1.0
  2
SOLID
 70
               1
 71
               1
 91
        1
 92
        1
 93
        1
 72
               2
 10
-548.62692177625649
 20
-700.54143255478266
 40
4.99969482421875
 50
0.0
 51
360.0
 73
               0
 97
        1
330
C0
 75
               0
 76
               1
 98
        1
 10
0.0
 20
0.0
  0
MTEXT
  5
C2
100
AcDbEntity
  8
0
390
0
 62
               0
100
AcDbMText
 10
-359.93942345843243
 20
-666.66381536728295
 30
0.0
 40
24.432617187500004
 41
0.0
 71
               1
 72
               1
  1
425
  7
ＭＳゴシック
 73
               1
 44
0.7828267384257843
  0
POINT
  5
C3
100
AcDbEntity
  8
Defpoints
370
               0
390
0
 62
               0
100
AcDbPoint
 10
-548.62692177625649
 20
-600.54143255478266
 30
0.0
  0
POINT
  5
C4
100
AcDbEntity
  8
Defpoints
370
               0
390
0
 62
               0
100
AcDbPoint
 10
-123.62692177625649
 20
-600.54143255478266
 30
0.0
  0
POINT
  5
C5
100
AcDbEntity
  8
Defpoints
370
               0
390
0
 62
               0
100
AcDbPoint
 10
-123.62692177625649
 20
-700.54143255478266
 30
0.0
  0
ENDBLK
  5
C6
100
AcDbEntity
  8
notes
390
0
100
AcDbBlockEnd
  0
BLOCK
  5
C7
100
AcDbEntity
  8
notes
390
0
100
AcDbBlockBegin
  2
*D10
 70
               1
 10
0.0
 20
0.0
 30
0.0
  3
*D10
  1

  0
LINE
  5
C8
100
AcDbEntity
  8
0
370
              -2
390
0
  6
Continuous
 62
               0
100
AcDbLine
 10
818.94292946231008
 20
-420.54143255478266
 30
0.0
 11
893.94292946231008
 21
-420.54143255478266
 31
0.0
  0
LINE
  5
C9
100
AcDbEntity
  8
0
370
              -2
390
0
  6
Continuous
 62
               0
100
AcDbLine
 10
818.94292946231008
 20
-600.54143255478266
 30
0.0
 11
893.94292946231008
 21
-600.54143255478266
 31
0.0
  0
LINE
  5
CA
100
AcDbEntity
  8
0
370
              -2
390
0
  6
Continuous
 62
               0
100
AcDbLine
 10
893.94292946231008
 20
-420.54143255478266
 30
0.0
 11
893.94292946231008
 21
-600.54143255478266
 31
0.0
  0
CIRCLE
  5
CB
102
{ACAD_REACTORS
330
CC
102
}
100
AcDbEntity
  8
0
370
              -2
390
0
  6
Continuous
 62
               0
100
AcDbCircle
 10
893.94292946231008
 20
-420.54143255478266
 30
0.0
 40
4.99969482421875
  0
HATCH
  5
CC
100
AcDbEntity
  8
0
370
              -2
390
0
  6
Continuous
 62
               0
100
AcDbHatch
 10
0.0
 20
0.0
 30
0.0
210
0.0
220
0.0
230
1.0
  2
SOLID
 70
               1
 71
               1
 91
        1
 92
        1
 93
        1
 72
               2
 10
893.94292946231008
 20
-420.54143255478266
 40
4.99969482421875
 50
0.0
 51
360.0
 73
               0
 97
        1
330
CB
 75
               0
 76
               1
 98
        1
 10
0.0
 20
0.0
  0
CIRCLE
  5
CD
102
{ACAD_REACTORS
330
CE
102
}
100
AcDbEntity
  8
0
370
              -2
390
0
  6
Continuous
 62
               0
100
AcDbCircle
 10
893.94292946231008
 20
-600.54143255478266
 30
0.0
 40
4.99969482421875
  0
HATCH
  5
CE
100
AcDbEntity
  8
0
370
              -2
390
0
  6
Continuous
 62
               0
100
AcDbHatch
 10
0.0
 20
0.0
 30
0.0
210
0.0
220
0.0
230
1.0
  2
SOLID
 70
               1
 71
               1
 91
        1
 92
        1
 93
        1
 72
               2
 10
893.94292946231008
 20
-600.54143255478266
 40
4.99969482421875
 50
0.0
 51
360.0
 73
               0
 97
        1
330
CD
 75
               0
 76
               1
 98
        1
 10
0.0
 20
0.0
  0
MTEXT
  5
CF
100
AcDbEntity
  8
0
390
0
 62
               0
100
AcDbMText
 10
860.06531227480991
 20
-534.35393423695859
 30
0.0
 40
24.432617187500004
 41
0.0
 71
               1
 72
               1
  1
180
  7
ＭＳゴシック
 11
0.0
 21
1.0
 31
0.0
 73
               1
 44
0.7828267384257843
  0
POINT
  5
D0
100
AcDbEntity
  8
Defpoints
370
               0
390
0
 62
               0
100
AcDbPoint
 10
793.94292946231008
 20
-600.54143255478266
 30
0.0
  0
POINT
  5
D1
100
AcDbEntity
  8
Defpoints
370
               0
390
0
 62
               0
100
AcDbPoint
 10
793.94292946231008
 20
-420.54143255478266
 30
0.0
  0
POINT
  5
D2
100
AcDbEntity
  8
Defpoints
370
               0
390
0
 62
               0
100
AcDbPoint
 10
893.94292946231008
 20
-420.54143255478266
 30
0.0
  0
ENDBLK
  5
D3
100
AcDbEntity
  8
notes
390
0
100
AcDbBlockEnd
  0
BLOCK
  5
D4
100
AcDbEntity
  8
notes
390
0
100
AcDbBlockBegin
  2
*D11
 70
               1
 10
0.0
 20
0.0
 30
0.0
  3
*D11
  1

  0
LINE
  5
D5
100
AcDbEntity
  8
0
370
              -2
390
0
  6
Continuous
 62
               0
100
AcDbLine
 10
793.94292946231008
 20
-625.54143255478266
 30
0.0
 11
793.94292946231008
 21
-700.54143255478266
 31
0.0
  0
LINE
  5
D6
100
AcDbEntity
  8
0
370
              -2
390
0
  6
Continuous
 62
               0
100
AcDbLine
 10
518.94292946231008
 20
-625.54143255478266
 30
0.0
 11
518.94292946231008
 21
-700.54143255478266
 31
0.0
  0
LINE
  5
D7
100
AcDbEntity
  8
0
370
              -2
390
0
  6
Continuous
 62
               0
100
AcDbLine
 10
793.94292946231008
 20
-700.54143255478266
 30
0.0
 11
518.94292946231008
 21
-700.54143255478266
 31
0.0
  0
CIRCLE
  5
D8
102
{ACAD_REACTORS
330
D9
102
}
100
AcDbEntity
  8
0
370
              -2
390
0
  6
Continuous
 62
               0
100
AcDbCircle
 10
793.94292946231008
 20
-700.54143255478266
 30
0.0
 40
4.99969482421875
  0
HATCH
  5
D9
100
AcDbEntity
  8
0
370
              -2
390
0
  6
Continuous
 62
               0
100
AcDbHatch
 10
0.0
 20
0.0
 30
0.0
210
0.0
220
0.0
230
1.0
  2
SOLID
 70
               1
 71
               1
 91
        1
 92
        1
 93
        1
 72
               2
 10
793.94292946231008
 20
-700.54143255478266
 40
4.99969482421875
 50
0.0
 51
360.0
 73
               0
 97
        1
330
D8
 75
               0
 76
               1
 98
        1
 10
0.0
 20
0.0
  0
CIRCLE
  5
DA
102
{ACAD_REACTORS
330
DB
102
}
100
AcDbEntity
  8
0
370
              -2
390
0
  6
Continuous
 62
               0
100
AcDbCircle
 10
518.94292946231008
 20
-700.54143255478266
 30
0.0
 40
4.99969482421875
  0
HATCH
  5
DB
100
AcDbEntity
  8
0
370
              -2
390
0
  6
Continuous
 62
               0
100
AcDbHatch
 10
0.0
 20
0.0
 30
0.0
210
0.0
220
0.0
230
1.0
  2
SOLID
 70
               1
 71
               1
 91
        1
 92
        1
 93
        1
 72
               2
 10
518.94292946231008
 20
-700.54143255478266
 40
4.99969482421875
 50
0.0
 51
360.0
 73
               0
 97
        1
330
DA
 75
               0
 76
               1
 98
        1
 10
0.0
 20
0.0
  0
MTEXT
  5
DC
100
AcDbEntity
  8
0
390
0
 62
               0
100
AcDbMText
 10
632.6304277801346
 20
-666.66381536728295
 30
0.0
 40
24.432617187500004
 41
0.0
 71
               1
 72
               1
  1
275
  7
ＭＳゴシック
 73
               1
 44
0.7828267384257843
  0
POINT
  5
DD
100
AcDbEntity
  8
Defpoints
370
               0
390
0
 62
               0
100
AcDbPoint
 10
518.94292946231008
 20
-600.54143255478266
 30
0.0
  0
POINT
  5
DE
100
AcDbEntity
  8
Defpoints
370
               0
390
0
 62
               0
100
AcDbPoint
 10
793.94292946231008
 20
-600.54143255478266
 30
0.0
  0
POINT
  5
DF
100
AcDbEntity
  8
Defpoints
370
               0
390
0
 62
               0
100
AcDbPoint
 10
793.94292946231008
 20
-700.54143255478266
 30
0.0
  0
ENDBLK
  5
E0
100
AcDbEntity
  8
notes
390
0
100
AcDbBlockEnd
  0
BLOCK
  5
E1
100
AcDbEntity
  8
notes
390
0
100
AcDbBlockBegin
  2
*D12
 70
               1
 10
0.0
 20
0.0
 30
0.0
  3
*D12
  1

  0
LINE
  5
E2
100
AcDbEntity
  8
0
370
              -2
390
0
  6
Continuous
 62
               0
100
AcDbLine
 10
499.94188812105222
 20
-420.54143255478266
 30
0.0
 11
522.94188812105222
 21
-420.54143255478266
 31
0.0
  0
LINE
  5
E3
100
AcDbEntity
  8
0
370
              -2
390
0
  6
Continuous
 62
               0
100
AcDbLine
 10
499.94188812105222
 20
-549.54143255478266
 30
0.0
 11
522.94188812105222
 21
-549.54143255478266
 31
0.0
  0
LINE
  5
E4
100
AcDbEntity
  8
0
370
              -2
390
0
  6
Continuous
 62
               0
100
AcDbLine
 10
522.94188812105222
 20
-420.54143255478266
 30
0.0
 11
522.94188812105222
 21
-273.4265418299201
 31
0.0
  0
LINE
  5
E5
100
AcDbEntity
  8
0
370
              -2
390
0
  6
Continuous
 62
               0
100
AcDbLine
 10
522.94188812105222
 20
-420.54143255478266
 30
0.0
 11
522.94188812105222
 21
-549.54143255478266
 31
0.0
  0
CIRCLE
  5
E6
102
{ACAD_REACTORS
330
E7
102
}
100
AcDbEntity
  8
0
370
              -2
390
0
  6
Continuous
 62
               0
100
AcDbCircle
 10
522.94188812105222
 20
-420.54143255478266
 30
0.0
 40
4.99969482421875
  0
HATCH
  5
E7
100
AcDbEntity
  8
0
370
              -2
390
0
  6
Continuous
 62
               0
100
AcDbHatch
 10
0.0
 20
0.0
 30
0.0
210
0.0
220
0.0
230
1.0
  2
SOLID
 70
               1
 71
               1
 91
        1
 92
        1
 93
        1
 72
               2
 10
522.94188812105222
 20
-420.54143255478266
 40
4.99969482421875
 50
0.0
 51
360.0
 73
               0
 97
        1
330
E6
 75
               0
 76
               1
 98
        1
 10
0.0
 20
0.0
  0
CIRCLE
  5
E8
102
{ACAD_REACTORS
330
E9
102
}
100
AcDbEntity
  8
0
370
              -2
390
0
  6
Continuous
 62
               0
100
AcDbCircle
 10
522.94188812105222
 20
-549.54143255478266
 30
0.0
 40
4.99969482421875
  0
HATCH
  5
E9
100
AcDbEntity
  8
0
370
              -2
390
0
  6
Continuous
 62
               0
100
AcDbHatch
 10
0.0
 20
0.0
 30
0.0
210
0.0
220
0.0
230
1.0
  2
SOLID
 70
               1
 71
               1
 91
        1
 92
        1
 93
        1
 72
               2
 10
522.94188812105222
 20
-549.54143255478266
 40
4.99969482421875
 50
0.0
 51
360.0
 73
               0
 97
        1
330
E8
 75
               0
 76
               1
 98
        1
 10
0.0
 20
0.0
  0
MTEXT
  5
EA
100
AcDbEntity
  8
0
390
0
 62
               0
100
AcDbMText
 10
489.06427093355205
 20
-416.3015418299201
 30
0.0
 40
24.432617187500004
 41
0.0
 71
               1
 72
               1
  1
(深さ)125
  7
ＭＳゴシック
 11
0.0
 21
1.0
 31
0.0
 73
               1
 44
0.7828267384257843
  0
POINT
  5
EB
100
AcDbEntity
  8
Defpoints
370
               0
390
0
 62
               0
100
AcDbPoint
 10
524.94188812105222
 20
-549.54143255478266
 30
0.0
  0
POINT
  5
EC
100
AcDbEntity
  8
Defpoints
370
               0
390
0
 62
               0
100
AcDbPoint
 10
524.94188812105222
 20
-420.54143255478266
 30
0.0
  0
POINT
  5
ED
100
AcDbEntity
  8
Defpoints
370
               0
390
0
 62
               0
100
AcDbPoint
 10
522.94188812105222
 20
-420.54143255478266
 30
0.0
  0
ENDBLK
  5
EE
100
AcDbEntity
  8
notes
390
0
100
AcDbBlockEnd
  0
BLOCK
  5
EF
100
AcDbEntity
  8
notes
390
0
100
AcDbBlockBegin
  2
*D13
 70
               1
 10
0.0
 20
0.0
 30
0.0
  3
*D13
  1

  0
LINE
  5
F0
100
AcDbEntity
  8
0
370
              -2
390
0
  6
Continuous
 62
               0
100
AcDbLine
 10
-141.30459130591953
 20
813.05843485842979
 30
0.0
 11
-464.72668339959364
 21
1136.4805269521039
 31
0.0
  0
LINE
  5
F1
100
AcDbEntity
  8
0
370
              -2
390
0
  6
Continuous
 62
               0
100
AcDbLine
 10
-576.17526173564693
 20
378.18776442870512
 30
0.0
 11
-899.59735382931922
 21
701.60985652237832
 31
0.0
  0
LINE
  5
F2
100
AcDbEntity
  8
0
370
              -2
390
0
  6
Continuous
 62
               0
100
AcDbLine
 10
-464.72668339959364
 20
1136.4805269521039
 30
0.0
 11
-899.59735382931922
 21
701.60985652237832
 31
0.0
  0
CIRCLE
  5
F3
102
{ACAD_REACTORS
330
F4
102
}
100
AcDbEntity
  8
0
370
              -2
390
0
  6
Continuous
 62
               0
100
AcDbCircle
 10
-464.72668339959364
 20
1136.4805269521039
 30
0.0
 40
4.99969482421875
  0
HATCH
  5
F4
100
AcDbEntity
  8
0
370
              -2
390
0
  6
Continuous
 62
               0
100
AcDbHatch
 10
0.0
 20
0.0
 30
0.0
210
0.0
220
0.0
230
1.0
  2
SOLID
 70
               1
 71
               1
 91
        1
 92
        1
 93
        1
 72
               2
 10
-464.72668339959364
 20
1136.4805269521039
 40
4.99969482421875
 50
0.0
 51
360.0
 73
               0
 97
        1
330
F3
 75
               0
 76
               1
 98
        1
 10
0.0
 20
0.0
  0
CIRCLE
  5
F5
102
{ACAD_REACTORS
330
F6
102
}
100
AcDbEntity
  8
0
370
              -2
390
0
  6
Continuous
 62
               0
100
AcDbCircle
 10
-899.59735382931922
 20
701.60985652237832
 30
0.0
 40
4.99969482421875
  0
HATCH
  5
F6
100
AcDbEntity
  8
0
370
              -2
390
0
  6
Continuous
 62
               0
100
AcDbHatch
 10
0.0
 20
0.0
 30
0.0
210
0.0
220
0.0
230
1.0
  2
SOLID
 70
               1
 71
               1
 91
        1
 92
        1
 93
        1
 72
               2
 10
-899.59735382931922
 20
701.60985652237832
 40
4.99969482421875
 50
0.0
 51
360.0
 73
               0
 97
        1
330
F5
 75
               0
 76
               1
 98
        1
 10
0.0
 20
0.0
  0
MTEXT
  5
F7
100
AcDbEntity
  8
0
390
0
 62
               0
100
AcDbMText
 10
-722.95509287466302
 20
926.16230316448218
 30
0.0
 40
24.432617187500004
 41
0.0
 71
               1
 72
               1
  1
615
  7
ＭＳゴシック
 11
0.7071067811865476
 21
0.7071067811865475
 31
0.0
 73
               1
 44
0.7828267384257843
  0
POINT
  5
F8
100
AcDbEntity
  8
Defpoints
370
               0
390
0
 62
               0
100
AcDbPoint
 10
-558.49759220598298
 20
360.51009489904209
 30
0.0
  0
POINT
  5
F9
100
AcDbEntity
  8
Defpoints
370
               0
390
0
 62
               0
100
AcDbPoint
 10
-123.62692177625559
 20
795.38076532876585
 30
0.0
  0
POINT
  5
FA
100
AcDbEntity
  8
Defpoints
370
               0
390
0
 62
               0
100
AcDbPoint
 10
-464.72668339959364
 20
1136.4805269521039
 30
0.0
  0
ENDBLK
  5
FB
100
AcDbEntity
  8
notes
390
0
100
AcDbBlockEnd
  0
BLOCK
  5
FC
100
AcDbEntity
  8
notes
390
0
100
AcDbBlockBegin
  2
*D14
 70
               1
 10
0.0
 20
0.0
 30
0.0
  3
*D14
  1

  0
LINE
  5
FD
100
AcDbEntity
  8
0
370
              -2
390
0
  6
Continuous
 62
               0
100
AcDbLine
 10
-473.62692177625649
 20
820.38076532876585
 30
0.0
 11
-473.62692177625649
 21
928.00000000000091
 31
0.0
  0
LINE
  5
FE
100
AcDbEntity
  8
0
370
              -2
390
0
  6
Continuous
 62
               0
100
AcDbLine
 10
-268.62692177625649
 20
820.38076532876585
 30
0.0
 11
-268.62692177625649
 21
928.00000000000091
 31
0.0
  0
LINE
  5
FF
100
AcDbEntity
  8
0
370
              -2
390
0
  6
Continuous
 62
               0
100
AcDbLine
 10
-473.62692177625649
 20
928.00000000000091
 30
0.0
 11
-268.62692177625649
 21
928.00000000000091
 31
0.0
  0
CIRCLE
  5
100
102
{ACAD_REACTORS
330
101
102
}
100
AcDbEntity
  8
0
370
              -2
390
0
  6
Continuous
 62
               0
100
AcDbCircle
 10
-473.62692177625649
 20
928.00000000000091
 30
0.0
 40
4.99969482421875
  0
HATCH
  5
101
100
AcDbEntity
  8
0
370
              -2
390
0
  6
Continuous
 62
               0
100
AcDbHatch
 10
0.0
 20
0.0
 30
0.0
210
0.0
220
0.0
230
1.0
  2
SOLID
 70
               1
 71
               1
 91
        1
 92
        1
 93
        1
 72
               2
 10
-473.62692177625649
 20
928.00000000000091
 40
4.99969482421875
 50
0.0
 51
360.0
 73
               0
 97
        1
330
100
 75
               0
 76
               1
 98
        1
 10
0.0
 20
0.0
  0
CIRCLE
  5
102
102
{ACAD_REACTORS
330
103
102
}
100
AcDbEntity
  8
0
370
              -2
390
0
  6
Continuous
 62
               0
100
AcDbCircle
 10
-268.62692177625649
 20
928.00000000000091
 30
0.0
 40
4.99969482421875
  0
HATCH
  5
103
100
AcDbEntity
  8
0
370
              -2
390
0
  6
Continuous
 62
               0
100
AcDbHatch
 10
0.0
 20
0.0
 30
0.0
210
0.0
220
0.0
230
1.0
  2
SOLID
 70
               1
 71
               1
 91
        1
 92
        1
 93
        1
 72
               2
 10
-268.62692177625649
 20
928.00000000000091
 40
4.99969482421875
 50
0.0
 51
360.0
 73
               0
 97
        1
330
102
 75
               0
 76
               1
 98
        1
 10
0.0
 20
0.0
  0
MTEXT
  5
104
100
AcDbEntity
  8
0
390
0
 62
               0
100
AcDbMText
 10
-394.93942345843243
 20
961.87761718750062
 30
0.0
 40
24.432617187500004
 41
0.0
 71
               1
 72
               1
  1
205
  7
ＭＳゴシック
 73
               1
 44
0.7828267384257843
  0
POINT
  5
105
100
AcDbEntity
  8
Defpoints
370
               0
390
0
 62
               0
100
AcDbPoint
 10
-268.62692177625649
 20
795.38076532876585
 30
0.0
  0
POINT
  5
106
100
AcDbEntity
  8
Defpoints
370
               0
390
0
 62
               0
100
AcDbPoint
 10
-473.62692177625649
 20
795.38076532876585
 30
0.0
  0
POINT
  5
107
100
AcDbEntity
  8
Defpoints
370
               0
390
0
 62
               0
100
AcDbPoint
 10
-473.62692177625649
 20
928.00000000000091
 30
0.0
  0
ENDBLK
  5
108
100
AcDbEntity
  8
notes
390
0
100
AcDbBlockEnd
  0
BLOCK
  5
109
100
AcDbEntity
  8
notes
390
0
100
AcDbBlockBegin
  2
*D15
 70
               1
 10
0.0
 20
0.0
 30
0.0
  3
*D15
  1

  0
LINE
  5
10A
100
AcDbEntity
  8
0
370
              -2
390
0
  6
Continuous
 62
               0
100
AcDbLine
 10
-268.62692177625649
 20
820.38076532876585
 30
0.0
 11
-268.62692177625649
 21
928.00000000000091
 31
0.0
  0
LINE
  5
10B
100
AcDbEntity
  8
0
370
              -2
390
0
  6
Continuous
 62
               0
100
AcDbLine
 10
-123.62692177625649
 20
825.76010927513926
 30
0.0
 11
-123.62692177625649
 21
928.00000000000091
 31
0.0
  0
LINE
  5
10C
100
AcDbEntity
  8
0
370
              -2
390
0
  6
Continuous
 62
               0
100
AcDbLine
 10
-268.62692177625649
 20
928.00000000000091
 30
0.0
 11
-123.62692177625649
 21
928.00000000000091
 31
0.0
  0
CIRCLE
  5
10D
102
{ACAD_REACTORS
330
10E
102
}
100
AcDbEntity
  8
0
370
              -2
390
0
  6
Continuous
 62
               0
100
AcDbCircle
 10
-268.62692177625649
 20
928.00000000000091
 30
0.0
 40
4.99969482421875
  0
HATCH
  5
10E
100
AcDbEntity
  8
0
370
              -2
390
0
  6
Continuous
 62
               0
100
AcDbHatch
 10
0.0
 20
0.0
 30
0.0
210
0.0
220
0.0
230
1.0
  2
SOLID
 70
               1
 71
               1
 91
        1
 92
        1
 93
        1
 72
               2
 10
-268.62692177625649
 20
928.00000000000091
 40
4.99969482421875
 50
0.0
 51
360.0
 73
               0
 97
        1
330
10D
 75
               0
 76
               1
 98
        1
 10
0.0
 20
0.0
  0
CIRCLE
  5
10F
102
{ACAD_REACTORS
330
110
102
}
100
AcDbEntity
  8
0
370
              -2
390
0
  6
Continuous
 62
               0
100
AcDbCircle
 10
-123.62692177625649
 20
928.00000000000091
 30
0.0
 40
4.99969482421875
  0
HATCH
  5
110
100
AcDbEntity
  8
0
370
              -2
390
0
  6
Continuous
 62
               0
100
AcDbHatch
 10
0.0
 20
0.0
 30
0.0
210
0.0
220
0.0
230
1.0
  2
SOLID
 70
               1
 71
               1
 91
        1
 92
        1
 93
        1
 72
               2
 10
-123.62692177625649
 20
928.00000000000091
 40
4.99969482421875
 50
0.0
 51
360.0
 73
               0
 97
        1
330
10F
 75
               0
 76
               1
 98
        1
 10
0.0
 20
0.0
  0
MTEXT
  5
111
100
AcDbEntity
  8
0
390
0
 62
               0
100
AcDbMText
 10
-219.93942345843243
 20
961.87761718750062
 30
0.0
 40
24.432617187500004
 41
0.0
 71
               1
 72
               1
  1
145
  7
ＭＳゴシック
 73
               1
 44
0.7828267384257843
  0
POINT
  5
112
100
AcDbEntity
  8
Defpoints
370
               0
390
0
 62
               0
100
AcDbPoint
 10
-123.62692177625649
 20
800.76010927513926
 30
0.0
  0
POINT
  5
113
100
AcDbEntity
  8
Defpoints
370
               0
390
0
 62
               0
100
AcDbPoint
 10
-268.62692177625649
 20
795.38076532876585
 30
0.0
  0
POINT
  5
114
100
AcDbEntity
  8
Defpoints
370
               0
390
0
 62
               0
100
AcDbPoint
 10
-268.62692177625649
 20
928.00000000000091
 30
0.0
  0
ENDBLK
  5
115
100
AcDbEntity
  8
notes
390
0
100
AcDbBlockEnd
  0
BLOCK
  5
116
100
AcDbEntity
  8
notes
390
0
100
AcDbBlockBegin
  2
*D16
 70
               1
 10
0.0
 20
0.0
 30
0.0
  3
*D16
  1

  0
LINE
  5
117
100
AcDbEntity
  8
0
370
              -2
390
0
  6
Continuous
 62
               0
100
AcDbLine
 10
-623.62692177625649
 20
820.38076532876585
 30
0.0
 11
-623.62692177625649
 21
1005.0
 31
0.0
  0
LINE
  5
118
100
AcDbEntity
  8
0
370
              -2
390
0
  6
Continuous
 62
               0
100
AcDbLine
 10
-123.62692177625559
 20
836.35280656997475
 30
0.0
 11
-123.62692177625559
 21
1005.0
 31
0.0
  0
LINE
  5
119
100
AcDbEntity
  8
0
370
              -2
390
0
  6
Continuous
 62
               0
100
AcDbLine
 10
-623.62692177625649
 20
1005.0
 30
0.0
 11
-123.62692177625559
 21
1005.0
 31
0.0
  0
CIRCLE
  5
11A
102
{ACAD_REACTORS
330
11B
102
}
100
AcDbEntity
  8
0
370
              -2
390
0
  6
Continuous
 62
               0
100
AcDbCircle
 10
-623.62692177625649
 20
1005.0
 30
0.0
 40
4.99969482421875
  0
HATCH
  5
11B
100
AcDbEntity
  8
0
370
              -2
390
0
  6
Continuous
 62
               0
100
AcDbHatch
 10
0.0
 20
0.0
 30
0.0
210
0.0
220
0.0
230
1.0
  2
SOLID
 70
               1
 71
               1
 91
        1
 92
        1
 93
        1
 72
               2
 10
-623.62692177625649
 20
1005.0
 40
4.99969482421875
 50
0.0
 51
360.0
 73
               0
 97
        1
330
11A
 75
               0
 76
               1
 98
        1
 10
0.0
 20
0.0
  0
CIRCLE
  5
11C
102
{ACAD_REACTORS
330
11D
102
}
100
AcDbEntity
  8
0
370
              -2
390
0
  6
Continuous
 62
               0
100
AcDbCircle
 10
-123.62692177625559
 20
1005.0
 30
0.0
 40
4.99969482421875
  0
HATCH
  5
11D
100
AcDbEntity
  8
0
370
              -2
390
0
  6
Continuous
 62
               0
100
AcDbHatch
 10
0.0
 20
0.0
 30
0.0
210
0.0
220
0.0
230
1.0
  2
SOLID
 70
               1
 71
               1
 91
        1
 92
        1
 93
        1
 72
               2
 10
-123.62692177625559
 20
1005.0
 40
4.99969482421875
 50
0.0
 51
360.0
 73
               0
 97
        1
330
11C
 75
               0
 76
               1
 98
        1
 10
0.0
 20
0.0
  0
MTEXT
  5
11E
100
AcDbEntity
  8
0
390
0
 62
               0
100
AcDbMText
 10
-377.81250168217593
 20
1038.8776171874997
 30
0.0
 40
24.432617187500004
 41
0.0
 71
               1
 72
               1
  1
500
  7
ＭＳゴシック
 73
               1
 44
0.7828267384257843
  0
POINT
  5
11F
100
AcDbEntity
  8
Defpoints
370
               0
390
0
 62
               0
100
AcDbPoint
 10
-123.62692177625559
 20
811.35280656997475
 30
0.0
  0
POINT
  5
120
100
AcDbEntity
  8
Defpoints
370
               0
390
0
 62
               0
100
AcDbPoint
 10
-623.62692177625649
 20
795.38076532876585
 30
0.0
  0
POINT
  5
121
100
AcDbEntity
  8
Defpoints
370
               0
390
0
 62
               0
100
AcDbPoint
 10
-623.62692177625649
 20
1005.0
 30
0.0
  0
ENDBLK
  5
122
100
AcDbEntity
  8
notes
390
0
100
AcDbBlockEnd
  0
BLOCK
  5
123
100
AcDbEntity
  8
notes
390
0
100
AcDbBlockBegin
  2
*D17
 70
               1
 10
0.0
 20
0.0
 30
0.0
  3
*D17
  1

  0
LINE
  5
124
100
AcDbEntity
  8
0
370
              -2
390
0
  6
Continuous
 62
               0
100
AcDbLine
 10
-474.0
 20
-419.61923467123415
 30
0.0
 11
-474.0
 21
-352.0
 31
0.0
  0
LINE
  5
125
100
AcDbEntity
  8
0
370
              -2
390
0
  6
Continuous
 62
               0
100
AcDbLine
 10
-269.0
 20
-419.61923467123415
 30
0.0
 11
-269.0
 21
-352.0
 31
0.0
  0
LINE
  5
126
100
AcDbEntity
  8
0
370
              -2
390
0
  6
Continuous
 62
               0
100
AcDbLine
 10
-474.0
 20
-352.0
 30
0.0
 11
-269.0
 21
-352.0
 31
0.0
  0
CIRCLE
  5
127
102
{ACAD_REACTORS
330
128
102
}
100
AcDbEntity
  8
0
370
              -2
390
0
  6
Continuous
 62
               0
100
AcDbCircle
 10
-474.0
 20
-352.0
 30
0.0
 40
4.99969482421875
  0
HATCH
  5
128
100
AcDbEntity
  8
0
370
              -2
390
0
  6
Continuous
 62
               0
100
AcDbHatch
 10
0.0
 20
0.0
 30
0.0
210
0.0
220
0.0
230
1.0
  2
SOLID
 70
               1
 71
               1
 91
        1
 92
        1
 93
        1
 72
               2
 10
-474.0
 20
-352.0
 40
4.99969482421875
 50
0.0
 51
360.0
 73
               0
 97
        1
330
127
 75
               0
 76
               1
 98
        1
 10
0.0
 20
0.0
  0
CIRCLE
  5
129
102
{ACAD_REACTORS
330
12A
102
}
100
AcDbEntity
  8
0
370
              -2
390
0
  6
Continuous
 62
               0
100
AcDbCircle
 10
-269.0
 20
-352.0
 30
0.0
 40
4.99969482421875
  0
HATCH
  5
12A
100
AcDbEntity
  8
0
370
              -2
390
0
  6
Continuous
 62
               0
100
AcDbHatch
 10
0.0
 20
0.0
 30
0.0
210
0.0
220
0.0
230
1.0
  2
SOLID
 70
               1
 71
               1
 91
        1
 92
        1
 93
        1
 72
               2
 10
-269.0
 20
-352.0
 40
4.99969482421875
 50
0.0
 51
360.0
 73
               0
 97
        1
330
129
 75
               0
 76
               1
 98
        1
 10
0.0
 20
0.0
  0
MTEXT
  5
12B
100
AcDbEntity
  8
0
390
0
 62
               0
100
AcDbMText
 10
-395.31250168217593
 20
-318.12238281250029
 30
0.0
 40
24.432617187500004
 41
0.0
 71
               1
 72
               1
  1
205
  7
ＭＳゴシック
 73
               1
 44
0.7828267384257843
  0
POINT
  5
12C
100
AcDbEntity
  8
Defpoints
370
               0
390
0
 62
               0
100
AcDbPoint
 10
-269.0
 20
-444.61923467123415
 30
0.0
  0
POINT
  5
12D
100
AcDbEntity
  8
Defpoints
370
               0
390
0
 62
               0
100
AcDbPoint
 10
-474.0
 20
-444.61923467123415
 30
0.0
  0
POINT
  5
12E
100
AcDbEntity
  8
Defpoints
370
               0
390
0
 62
               0
100
AcDbPoint
 10
-474.0
 20
-352.0
 30
0.0
  0
ENDBLK
  5
12F
100
AcDbEntity
  8
notes
390
0
100
AcDbBlockEnd
  0
BLOCK
  5
130
100
AcDbEntity
  8
notes
390
0
100
AcDbBlockBegin
  2
*D18
 70
               1
 10
0.0
 20
0.0
 30
0.0
  3
*D18
  1

  0
LINE
  5
131
100
AcDbEntity
  8
0
370
              -2
390
0
  6
Continuous
 62
               0
100
AcDbLine
 10
-269.0
 20
-419.61923467123415
 30
0.0
 11
-269.0
 21
-352.0
 31
0.0
  0
LINE
  5
132
100
AcDbEntity
  8
0
370
              -2
390
0
  6
Continuous
 62
               0
100
AcDbLine
 10
-124.0
 20
-414.23989072486074
 30
0.0
 11
-124.0
 21
-352.0
 31
0.0
  0
LINE
  5
133
100
AcDbEntity
  8
0
370
              -2
390
0
  6
Continuous
 62
               0
100
AcDbLine
 10
-269.0
 20
-352.0
 30
0.0
 11
-124.0
 21
-352.0
 31
0.0
  0
CIRCLE
  5
134
102
{ACAD_REACTORS
330
135
102
}
100
AcDbEntity
  8
0
370
              -2
390
0
  6
Continuous
 62
               0
100
AcDbCircle
 10
-269.0
 20
-352.0
 30
0.0
 40
4.99969482421875
  0
HATCH
  5
135
100
AcDbEntity
  8
0
370
              -2
390
0
  6
Continuous
 62
               0
100
AcDbHatch
 10
0.0
 20
0.0
 30
0.0
210
0.0
220
0.0
230
1.0
  2
SOLID
 70
               1
 71
               1
 91
        1
 92
        1
 93
        1
 72
               2
 10
-269.0
 20
-352.0
 40
4.99969482421875
 50
0.0
 51
360.0
 73
               0
 97
        1
330
134
 75
               0
 76
               1
 98
        1
 10
0.0
 20
0.0
  0
CIRCLE
  5
136
102
{ACAD_REACTORS
330
137
102
}
100
AcDbEntity
  8
0
370
              -2
390
0
  6
Continuous
 62
               0
100
AcDbCircle
 10
-124.0
 20
-352.0
 30
0.0
 40
4.99969482421875
  0
HATCH
  5
137
100
AcDbEntity
  8
0
370
              -2
390
0
  6
Continuous
 62
               0
100
AcDbHatch
 10
0.0
 20
0.0
 30
0.0
210
0.0
220
0.0
230
1.0
  2
SOLID
 70
               1
 71
               1
 91
        1
 92
        1
 93
        1
 72
               2
 10
-124.0
 20
-352.0
 40
4.99969482421875
 50
0.0
 51
360.0
 73
               0
 97
        1
330
136
 75
               0
 76
               1
 98
        1
 10
0.0
 20
0.0
  0
MTEXT
  5
138
100
AcDbEntity
  8
0
390
0
 62
               0
100
AcDbMText
 10
-220.31250168217593
 20
-318.12238281250029
 30
0.0
 40
24.432617187500004
 41
0.0
 71
               1
 72
               1
  1
145
  7
ＭＳゴシック
 73
               1
 44
0.7828267384257843
  0
POINT
  5
139
100
AcDbEntity
  8
Defpoints
370
               0
390
0
 62
               0
100
AcDbPoint
 10
-124.0
 20
-439.23989072486074
 30
0.0
  0
POINT
  5
13A
100
AcDbEntity
  8
Defpoints
370
               0
390
0
 62
               0
100
AcDbPoint
 10
-269.0
 20
-444.61923467123415
 30
0.0
  0
POINT
  5
13B
100
AcDbEntity
  8
Defpoints
370
               0
390
0
 62
               0
100
AcDbPoint
 10
-269.0
 20
-352.0
 30
0.0
  0
ENDBLK
  5
13C
100
AcDbEntity
  8
notes
390
0
100
AcDbBlockEnd
  0
BLOCK
  5
13D
100
AcDbEntity
  8
notes
390
0
100
AcDbBlockBegin
  2
*D19
 70
               1
 10
0.0
 20
0.0
 30
0.0
  3
*D19
  1

  0
LINE
  5
13E
100
AcDbEntity
  8
0
370
              -2
390
0
  6
Continuous
 62
               0
100
AcDbLine
 10
-98.626921776255585
 20
795.38076532876585
 30
0.0
 11
40.0
 21
795.38076532876585
 31
0.0
  0
LINE
  5
13F
100
AcDbEntity
  8
0
370
              -2
390
0
  6
Continuous
 62
               0
100
AcDbLine
 10
-98.626921776256495
 20
650.38076532876585
 30
0.0
 11
40.0
 21
650.38076532876585
 31
0.0
  0
LINE
  5
140
100
AcDbEntity
  8
0
370
              -2
390
0
  6
Continuous
 62
               0
100
AcDbLine
 10
40.0
 20
795.38076532876585
 30
0.0
 11
40.0
 21
650.38076532876585
 31
0.0
  0
CIRCLE
  5
141
102
{ACAD_REACTORS
330
142
102
}
100
AcDbEntity
  8
0
370
              -2
390
0
  6
Continuous
 62
               0
100
AcDbCircle
 10
40.0
 20
795.38076532876585
 30
0.0
 40
4.99969482421875
  0
HATCH
  5
142
100
AcDbEntity
  8
0
370
              -2
390
0
  6
Continuous
 62
               0
100
AcDbHatch
 10
0.0
 20
0.0
 30
0.0
210
0.0
220
0.0
230
1.0
  2
SOLID
 70
               1
 71
               1
 91
        1
 92
        1
 93
        1
 72
               2
 10
40.0
 20
795.38076532876585
 40
4.99969482421875
 50
0.0
 51
360.0
 73
               0
 97
        1
330
141
 75
               0
 76
               1
 98
        1
 10
0.0
 20
0.0
  0
CIRCLE
  5
143
102
{ACAD_REACTORS
330
144
102
}
100
AcDbEntity
  8
0
370
              -2
390
0
  6
Continuous
 62
               0
100
AcDbCircle
 10
40.0
 20
650.38076532876585
 30
0.0
 40
4.99969482421875
  0
HATCH
  5
144
100
AcDbEntity
  8
0
370
              -2
390
0
  6
Continuous
 62
               0
100
AcDbHatch
 10
0.0
 20
0.0
 30
0.0
210
0.0
220
0.0
230
1.0
  2
SOLID
 70
               1
 71
               1
 91
        1
 92
        1
 93
        1
 72
               2
 10
40.0
 20
650.38076532876585
 40
4.99969482421875
 50
0.0
 51
360.0
 73
               0
 97
        1
330
143
 75
               0
 76
               1
 98
        1
 10
0.0
 20
0.0
  0
MTEXT
  5
145
100
AcDbEntity
  8
0
390
0
 62
               0
100
AcDbMText
 10
6.122382812500291
 20
699.06826364658991
 30
0.0
 40
24.432617187500004
 41
0.0
 71
               1
 72
               1
  1
145
  7
ＭＳゴシック
 11
0.0
 21
1.0
 31
0.0
 73
               1
 44
0.7828267384257843
  0
POINT
  5
146
100
AcDbEntity
  8
Defpoints
370
               0
390
0
 62
               0
100
AcDbPoint
 10
-123.62692177625649
 20
650.38076532876585
 30
0.0
  0
POINT
  5
147
100
AcDbEntity
  8
Defpoints
370
               0
390
0
 62
               0
100
AcDbPoint
 10
-123.62692177625559
 20
795.38076532876585
 30
0.0
  0
POINT
  5
148
100
AcDbEntity
  8
Defpoints
370
               0
390
0
 62
               0
100
AcDbPoint
 10
40.0
 20
795.38076532876585
 30
0.0
  0
ENDBLK
  5
149
100
AcDbEntity
  8
notes
390
0
100
AcDbBlockEnd
  0
BLOCK
  5
14A
100
AcDbEntity
  8
notes
390
0
100
AcDbBlockBegin
  2
*D20
 70
               1
 10
0.0
 20
0.0
 30
0.0
  3
*D20
  1

  0
LINE
  5
14B
100
AcDbEntity
  8
0
370
              -2
390
0
  6
Continuous
 62
               0
100
AcDbLine
 10
-98.626921776256495
 20
650.38076532876585
 30
0.0
 11
40.0
 21
650.38076532876585
 31
0.0
  0
LINE
  5
14C
100
AcDbEntity
  8
0
370
              -2
390
0
  6
Continuous
 62
               0
100
AcDbLine
 10
-98.626921776256495
 20
445.38076532876585
 30
0.0
 11
40.0
 21
445.38076532876585
 31
0.0
  0
LINE
  5
14D
100
AcDbEntity
  8
0
370
              -2
390
0
  6
Continuous
 62
               0
100
AcDbLine
 10
40.0
 20
650.38076532876585
 30
0.0
 11
40.0
 21
445.38076532876585
 31
0.0
  0
CIRCLE
  5
14E
102
{ACAD_REACTORS
330
14F
102
}
100
AcDbEntity
  8
0
370
              -2
390
0
  6
Continuous
 62
               0
100
AcDbCircle
 10
40.0
 20
650.38076532876585
 30
0.0
 40
4.99969482421875
  0
HATCH
  5
14F
100
AcDbEntity
  8
0
370
              -2
390
0
  6
Continuous
 62
               0
100
AcDbHatch
 10
0.0
 20
0.0
 30
0.0
210
0.0
220
0.0
230
1.0
  2
SOLID
 70
               1
 71
               1
 91
        1
 92
        1
 93
        1
 72
               2
 10
40.0
 20
650.38076532876585
 40
4.99969482421875
 50
0.0
 51
360.0
 73
               0
 97
        1
330
14E
 75
               0
 76
               1
 98
        1
 10
0.0
 20
0.0
  0
CIRCLE
  5
150
102
{ACAD_REACTORS
330
151
102
}
100
AcDbEntity
  8
0
370
              -2
390
0
  6
Continuous
 62
               0
100
AcDbCircle
 10
40.0
 20
445.38076532876585
 30
0.0
 40
4.99969482421875
  0
HATCH
  5
151
100
AcDbEntity
  8
0
370
              -2
390
0
  6
Continuous
 62
               0
100
AcDbHatch
 10
0.0
 20
0.0
 30
0.0
210
0.0
220
0.0
230
1.0
  2
SOLID
 70
               1
 71
               1
 91
        1
 92
        1
 93
        1
 72
               2
 10
40.0
 20
445.38076532876585
 40
4.99969482421875
 50
0.0
 51
360.0
 73
               0
 97
        1
330
150
 75
               0
 76
               1
 98
        1
 10
0.0
 20
0.0
  0
MTEXT
  5
152
100
AcDbEntity
  8
0
390
0
 62
               0
100
AcDbMText
 10
6.122382812500291
 20
524.06826364658991
 30
0.0
 40
24.432617187500004
 41
0.0
 71
               1
 72
               1
  1
205
  7
ＭＳゴシック
 11
0.0
 21
1.0
 31
0.0
 73
               1
 44
0.7828267384257843
  0
POINT
  5
153
100
AcDbEntity
  8
Defpoints
370
               0
390
0
 62
               0
100
AcDbPoint
 10
-123.62692177625649
 20
445.38076532876585
 30
0.0
  0
POINT
  5
154
100
AcDbEntity
  8
Defpoints
370
               0
390
0
 62
               0
100
AcDbPoint
 10
-123.62692177625649
 20
650.38076532876585
 30
0.0
  0
POINT
  5
155
100
AcDbEntity
  8
Defpoints
370
               0
390
0
 62
               0
100
AcDbPoint
 10
40.0
 20
650.38076532876585
 30
0.0
  0
ENDBLK
  5
156
100
AcDbEntity
  8
notes
390
0
100
AcDbBlockEnd
  0
BLOCK
  5
157
100
AcDbEntity
  8
notes
390
0
100
AcDbBlockBegin
  2
*D21
 70
               1
 10
0.0
 20
0.0
 30
0.0
  3
*D21
  1

  0
LINE
  5
158
100
AcDbEntity
  8
0
370
              -2
390
0
  6
Continuous
 62
               0
100
AcDbLine
 10
470.94412121590312
 20
-590.54143255657436
 30
0.0
 11
439.03971679490314
 21
-590.54143255657436
 31
0.0
  0
LINE
  5
159
100
AcDbEntity
  8
0
370
              -2
390
0
  6
Continuous
 62
               0
100
AcDbLine
 10
471.0
 20
-600.54143255478266
 30
0.0
 11
439.03971679490314
 21
-600.54143255478266
 31
0.0
  0
LINE
  5
15A
100
AcDbEntity
  8
0
370
              -2
390
0
  6
Continuous
 62
               0
100
AcDbLine
 10
439.03971679490314
 20
-600.54143255478266
 30
0.0
 11
439.03971679490314
 21
-641.25
 31
0.0
  0
LINE
  5
15B
100
AcDbEntity
  8
0
370
              -2
390
0
  6
Continuous
 62
               0
100
AcDbLine
 10
439.03971679490314
 20
-590.54143255657436
 30
0.0
 11
439.03971679490314
 21
-600.54143255478266
 31
0.0
  0
CIRCLE
  5
15C
102
{ACAD_REACTORS
330
15D
102
}
100
AcDbEntity
  8
0
370
              -2
390
0
  6
Continuous
 62
               0
100
AcDbCircle
 10
439.03971679490314
 20
-590.54143255657436
 30
0.0
 40
4.99969482421875
  0
HATCH
  5
15D
100
AcDbEntity
  8
0
370
              -2
390
0
  6
Continuous
 62
               0
100
AcDbHatch
 10
0.0
 20
0.0
 30
0.0
210
0.0
220
0.0
230
1.0
  2
SOLID
 70
               1
 71
               1
 91
        1
 92
        1
 93
        1
 72
               2
 10
439.03971679490314
 20
-590.54143255657436
 40
4.99969482421875
 50
0.0
 51
360.0
 73
               0
 97
        1
330
15C
 75
               0
 76
               1
 98
        1
 10
0.0
 20
0.0
  0
CIRCLE
  5
15E
102
{ACAD_REACTORS
330
15F
102
}
100
AcDbEntity
  8
0
370
              -2
390
0
  6
Continuous
 62
               0
100
AcDbCircle
 10
439.03971679490314
 20
-600.54143255478266
 30
0.0
 40
4.99969482421875
  0
HATCH
  5
15F
100
AcDbEntity
  8
0
370
              -2
390
0
  6
Continuous
 62
               0
100
AcDbHatch
 10
0.0
 20
0.0
 30
0.0
210
0.0
220
0.0
230
1.0
  2
SOLID
 70
               1
 71
               1
 91
        1
 92
        1
 93
        1
 72
               2
 10
439.03971679490314
 20
-600.54143255478266
 40
4.99969482421875
 50
0.0
 51
360.0
 73
               0
 97
        1
330
15E
 75
               0
 76
               1
 98
        1
 10
0.0
 20
0.0
  0
MTEXT
  5
160
100
AcDbEntity
  8
0
390
0
 62
               0
100
AcDbMText
 10
405.16209960740298
 20
-641.25
 30
0.0
 40
24.432617187500004
 41
0.0
 71
               1
 72
               1
  1
10
  7
ＭＳゴシック
 11
0.0
 21
1.0
 31
0.0
 73
               1
 44
0.7828267384257843
  0
POINT
  5
161
100
AcDbEntity
  8
Defpoints
370
               0
390
0
 62
               0
100
AcDbPoint
 10
496.0
 20
-600.54143255478266
 30
0.0
  0
POINT
  5
162
100
AcDbEntity
  8
Defpoints
370
               0
390
0
 62
               0
100
AcDbPoint
 10
495.94412121590312
 20
-590.54143255657436
 30
0.0
  0
POINT
  5
163
100
AcDbEntity
  8
Defpoints
370
               0
390
0
 62
               0
100
AcDbPoint
 10
439.03971679490314
 20
-590.54143255657436
 30
0.0
  0
ENDBLK
  5
164
100
AcDbEntity
  8
notes
390
0
100
AcDbBlockEnd
  0
BLOCK
  5
165
100
AcDbEntity
  8
ADF70-1105
390
0
100
AcDbBlockBegin
  2
グループ-1
 70
               0
 10
0.0
 20
0.0
 30
0.0
  3
グループ-1
  1

  0
LINE
  5
166
100
AcDbEntity
  8
0
370
              15
390
0
  6
Continuous
 62
               7
100
AcDbLine
 10
-4515.8288959470447
 20
-8201.0668316626616
 30
0.0
 11
-4474.9558177233012
 21
-8201.0668316626616
 31
0.0
  0
LINE
  5
167
100
AcDbEntity
  8
0
370
              15
390
0
  6
Continuous
 62
               7
100
AcDbLine
 10
-4505.6106263911088
 20
-8191.0668316626616
 30
0.0
 11
-4485.174087279237
 21
-8191.0668316626616
 31
0.0
  0
LINE
  5
168
100
AcDbEntity
  8
0
370
              15
390
0
  6
Continuous
 62
               7
100
AcDbLine
 10
-4505.6106263911088
 20
-8211.0668316626616
 30
0.0
 11
-4485.174087279237
 21
-8211.0668316626616
 31
0.0
  0
ENDBLK
  5
169
100
AcDbEntity
  8
ADF70-1105
390
0
100
AcDbBlockEnd
  0
BLOCK
  5
16A
100
AcDbEntity
  8
ADF70-1105
390
0
100
AcDbBlockBegin
  2
グループ-2
 70
               0
 10
0.0
 20
0.0
 30
0.0
  3
グループ-2
  1

  0
LINE
  5
16B
100
AcDbEntity
  8
0
370
              15
390
0
  6
Continuous
 62
               7
100
AcDbLine
 10
-4515.8288959470447
 20
-7996.0668316626616
 30
0.0
 11
-4474.9558177233012
 21
-7996.0668316626616
 31
0.0
  0
LINE
  5
16C
100
AcDbEntity
  8
0
370
              15
390
0
  6
Continuous
 62
               7
100
AcDbLine
 10
-4505.6106263911088
 20
-7986.0668316626616
 30
0.0
 11
-4485.174087279237
 21
-7986.0668316626616
 31
0.0
  0
LINE
  5
16D
100
AcDbEntity
  8
0
370
              15
390
0
  6
Continuous
 62
               7
100
AcDbLine
 10
-4505.6106263911088
 20
-8006.0668316626616
 30
0.0
 11
-4485.174087279237
 21
-8006.0668316626616
 31
0.0
  0
ENDBLK
  5
16E
100
AcDbEntity
  8
ADF70-1105
390
0
100
AcDbBlockEnd
  0
BLOCK
  5
16F
100
AcDbEntity
  8
ADF70-1105
390
0
100
AcDbBlockBegin
  2
グループ-3
 70
               0
 10
0.0
 20
0.0
 30
0.0
  3
グループ-3
  1

  0
LINE
  5
170
100
AcDbEntity
  8
0
370
              15
390
0
  6
Continuous
 62
               7
100
AcDbLine
 10
-4640.3923568351729
 20
-7871.5033707745333
 30
0.0
 11
-4640.3923568351729
 21
-7830.6302925507898
 31
0.0
  0
LINE
  5
171
100
AcDbEntity
  8
0
370
              15
390
0
  6
Continuous
 62
               7
100
AcDbLine
 10
-4650.3923568351729
 20
-7861.2851012185974
 30
0.0
 11
-4650.3923568351729
 21
-7840.8485621067257
 31
0.0
  0
LINE
  5
172
100
AcDbEntity
  8
0
370
              15
390
0
  6
Continuous
 62
               7
100
AcDbLine
 10
-4630.3923568351729
 20
-7861.2851012185974
 30
0.0
 11
-4630.3923568351729
 21
-7840.8485621067257
 31
0.0
  0
ENDBLK
  5
173
100
AcDbEntity
  8
ADF70-1105
390
0
100
AcDbBlockEnd
  0
BLOCK
  5
174
100
AcDbEntity
  8
ADF70-1105
390
0
100
AcDbBlockBegin
  2
グループ-4
 70
               0
 10
0.0
 20
0.0
 30
0.0
  3
グループ-4
  1

  0
LINE
  5
175
100
AcDbEntity
  8
0
370
              15
390
0
  6
Continuous
 62
               7
100
AcDbLine
 10
-4845.3923568351729
 20
-7871.5033707745333
 30
0.0
 11
-4845.3923568351729
 21
-7830.6302925507898
 31
0.0
  0
LINE
  5
176
100
AcDbEntity
  8
0
370
              15
390
0
  6
Continuous
 62
               7
100
AcDbLine
 10
-4855.3923568351729
 20
-7861.2851012185974
 30
0.0
 11
-4855.3923568351729
 21
-7840.8485621067257
 31
0.0
  0
LINE
  5
177
100
AcDbEntity
  8
0
370
              15
390
0
  6
Continuous
 62
               7
100
AcDbLine
 10
-4835.3923568351729
 20
-7861.2851012185974
 30
0.0
 11
-4835.3923568351729
 21
-7840.8485621067257
 31
0.0
  0
ENDBLK
  5
178
100
AcDbEntity
  8
ADF70-1105
390
0
100
AcDbBlockEnd
  0
ENDSEC
  0
SECTION
  2
ENTITIES
  0
MTEXT
  5
179
100
AcDbEntity
  8
template
390
0
 62
               7
100
AcDbMText
 10
-967.99999999975898
 20
-1147.4176292337015
 30
0.0
 40
16.288411458333332
 41
0.0
 71
               1
 72
               1
  1
品名
  7
ＭＳ ゴシック
 73
               1
 44
0.7828267384257843
  0
MTEXT
  5
17A
100
AcDbEntity
  8
template
390
0
 62
               7
100
AcDbMText
 10
-967.99999999975898
 20
-1232.4176292337015
 30
0.0
 40
16.288411458333332
 41
0.0
 71
               1
 72
               1
  1
仕様
  7
ＭＳ ゴシック
 73
               1
 44
0.7828267384257843
  0
MTEXT
  5
17B
100
AcDbEntity
  8
template
390
0
 62
               7
100
AcDbMText
 10
-914.99999999975898
 20
-1176.000090171201
 30
0.0
 40
24.432617187500004
 41
0.0
 71
               1
 72
               1
  1
洗面器 -CATALANO,C-
  7
ＭＳ ゴシック
 73
               1
 44
0.7828267384257843
  0
LINE
  5
17C
100
AcDbEntity
  8
template
370
               5
390
0
  6
Continuous
 62
               7
100
AcDbLine
 10
974.99999999975898
 20
-1224.0027073587007
 30
0.0
 11
-975.00000000024102
 21
-1224.0027073587007
 31
0.0
  0
LWPOLYLINE
  5
17D
100
AcDbEntity
  8
template
370
               5
390
0
  6
Continuous
 62
               7
100
AcDbPolyline
 90
        5
 70
             128
 10
975.00000000024102
 20
1405.9972926412993
 10
-974.99999999975898
 20
1405.9972926412993
 10
-974.99999999975898
 20
-1394.0027073587007
 10
975.00000000024102
 20
-1394.0027073587007
 10
975.00000000024102
 20
1405.9972926412993
  0
LINE
  5
17E
100
AcDbEntity
  8
template
370
               5
390
0
  6
Continuous
 62
               7
100
AcDbLine
 10
974.99999999975898
 20
-1139.0027073587007
 30
0.0
 11
-975.00000000024102
 21
-1139.0027073587007
 31
0.0
  0
LINE
  5
17F
100
AcDbEntity
  8
template
370
               5
390
0
  6
Continuous
 62
               7
100
AcDbLine
 10
975.00000000024102
 20
-1309.0027073587007
 30
0.0
 11
222.00000000024102
 21
-1309.0027073587007
 31
0.0
  0
MTEXT
  5
180
100
AcDbEntity
  8
template
390
0
 62
               7
100
AcDbMText
 10
-974.99999999955617
 20
-1405.856529415556
 30
0.0
 40
21.717881944444446
 41
0.0
 71
               1
 72
               1
  1
100707SH
  7
ＭＳ ゴシック
 73
               1
 44
0.7828267384257843
  0
MTEXT
  5
181
100
AcDbEntity
  8
template
390
0
 62
               7
100
AcDbMText
 10
251.87140625250049
 20
-1338.9131018320077
 30
0.0
 40
24.432617187500004
 41
0.0
 71
               1
 72
               1
  1
大洋金物株式会社 ティーフォルム事業部
  7
ＭＳ ゴシック
 73
               1
 44
0.7828267384257843
  0
INSERT
  5
182
100
AcDbEntity
  8
template
390
0
 62
               7
100
AcDbBlockReference
  2
グループ
 10
4371.7654350589164
 20
8646.4475969914274
 30
0.0
  0
MTEXT
  5
183
100
AcDbEntity
  8
template
390
0
 62
               7
100
AcDbMText
 10
784.00000000050022
 20
-1261.000090171201
 30
0.0
 40
24.432617187500004
 41
0.0
 71
               1
 72
               1
  1
1:10
  7
ＭＳ ゴシック
 73
               1
 44
0.7828267384257843
  0
MTEXT
  5
184
100
AcDbEntity
  8
template
390
0
 62
               7
100
AcDbMText
 10
731.00000000050022
 20
-1232.4176292337015
 30
0.0
 40
16.288411458333332
 41
0.0
 71
               1
 72
               1
  1
縮尺
  7
ＭＳ ゴシック
 73
               1
 44
0.7828267384257843
  0
LINE
  5
185
100
AcDbEntity
  8
template
370
               5
390
0
  6
Continuous
 62
               7
100
AcDbLine
 10
724.00000000050022
 20
-1309.0027073587007
 30
0.0
 11
724.00000000050022
 21
-1224.0027073587007
 31
0.0
  0
MTEXT
  5
186
100
AcDbEntity
  8
template
390
0
 62
               7
100
AcDbMText
 10
480.00000000050022
 20
-1232.4176292337015
 30
0.0
 40
16.288411458333332
 41
0.0
 71
               1
 72
               1
  1
容量
  7
ＭＳ ゴシック
 73
               1
 44
0.7828267384257843
  0
MTEXT
  5
187
100
AcDbEntity
  8
template
390
0
 62
               7
100
AcDbMText
 10
533.00000000050022
 20
-1261.000090171201
 30
0.0
 40
24.432617187500004
 41
0.0
 71
               1
 72
               1
  1
5L
  7
ＭＳ ゴシック
 73
               1
 44
0.7828267384257843
  0
LINE
  5
188
100
AcDbEntity
  8
template
370
               5
390
0
  6
Continuous
 62
               7
100
AcDbLine
 10
473.00000000050022
 20
-1309.0027073587007
 30
0.0
 11
473.00000000050022
 21
-1224.0027073587007
 31
0.0
  0
MTEXT
  5
189
100
AcDbEntity
  8
template
390
0
 62
               7
100
AcDbMText
 10
229.00000000050022
 20
-1147.4176292337015
 30
0.0
 40
16.288411458333332
 41
0.0
 71
               1
 72
               1
  1
品番
  7
ＭＳ ゴシック
 73
               1
 44
0.7828267384257843
  0
MTEXT
  5
18A
100
AcDbEntity
  8
template
390
0
 62
               7
100
AcDbMText
 10
229.00000000050022
 20
-1232.4176292337015
 30
0.0
 40
16.288411458333332
 41
0.0
 71
               1
 72
               1
  1
重量
  7
ＭＳ ゴシック
 73
               1
 44
0.7828267384257843
  0
MTEXT
  5
18B
100
AcDbEntity
  8
template
390
0
 62
               7
100
AcDbMText
 10
282.00000000050022
 20
-1176.000090171201
 30
0.0
 40
24.432617187500004
 41
0.0
 71
               1
 72
               1
  1
ADF70-1105
  7
ＭＳ ゴシック
 73
               1
 44
0.7828267384257843
  0
MTEXT
  5
18C
100
AcDbEntity
  8
template
390
0
 62
               7
100
AcDbMText
 10
282.00000000050022
 20
-1261.000090171201
 30
0.0
 40
24.432617187500004
 41
0.0
 71
               1
 72
               1
  1
20kg
  7
ＭＳ ゴシック
 73
               1
 44
0.7828267384257843
  0
LINE
  5
18D
100
AcDbEntity
  8
template
370
               5
390
0
  6
Continuous
 62
               7
100
AcDbLine
 10
222.00000000050022
 20
-1394.0027073587007
 30
0.0
 11
222.00000000050022
 21
-1139.0027073587007
 31
0.0
  0
MTEXT
  5
18E
100
AcDbEntity
  8
template
390
0
 62
               7
100
AcDbMText
 10
-914.99999999975989
 20
-1261.000090171201
 30
0.0
 40
24.432617187500004
 41
0.0
 71
               1
 72
               1
  1
コーナー専用,壁掛け/オーバーフロー付き/壁取付ボルト付属/\P背面釉薬あり/陶器/ホワイト
  7
ＭＳ ゴシック
 73
               1
 44
1.3047112307096407
  0
LINE
  5
18F
100
AcDbEntity
  8
template
370
               5
390
0
  6
STYLE_12
 62
               7
100
AcDbLine
 10
-440.26732889942741
 20
-549.5418688230784
 30
0.0
 11
-357.98651465308467
 21
-549.54186882307658
 31
0.0
  0
LINE
  5
190
100
AcDbEntity
  8
template
370
               5
390
0
  6
STYLE_12
 62
               7
100
AcDbLine
 10
-422.12573002266345
 20
-563.28968243015152
 30
0.0
 11
-376.12811352984772
 21
-563.28968243015152
 31
0.0
  0
LINE
  5
191
100
AcDbEntity
  8
template
370
               5
390
0
  6
STYLE_12
 62
               7
100
AcDbLine
 10
477.80252233913961
 20
-549.5418688230784
 30
0.0
 11
560.08333658548236
 21
-549.5418688230784
 31
0.0
  0
LINE
  5
192
100
AcDbEntity
  8
template
370
               5
390
0
  6
STYLE_12
 62
               7
100
AcDbLine
 10
495.94412121590312
 20
-563.28968243015333
 30
0.0
 11
541.94173770871885
 21
-563.28968243015333
 31
0.0
  0
CIRCLE
  5
193
100
AcDbEntity
  8
template
370
              15
390
0
  6
STYLE_12
 62
               7
100
AcDbCircle
 10
-473.62692177625649
 20
-475.54143255478266
 30
0.0
 40
10.0
  0
CIRCLE
  5
194
100
AcDbEntity
  8
template
370
              15
390
0
  6
STYLE_12
 62
               7
100
AcDbCircle
 10
-268.62692177625649
 20
-475.58132327964631
 30
0.0
 40
10.0
  0
MTEXT
  5
195
100
AcDbEntity
  8
notes
390
0
 62
               7
100
AcDbMText
 10
-749.40784352322407
 20
163.53937071618384
 30
0.0
 40
24.432617187500004
 41
828.40732047546157
 71
               1
 72
               1
  1
＝φ30もしくはφ35の水栓取付用穴あけ加工を承ります。\P   必要な場合、ご注文の際にご指示ください。
  7
ＭＳゴシック
 73
               1
 44
1.0437689845677123
  0
CIRCLE
  5
196
100
AcDbEntity
  8
notes
370
              15
390
0
  6
STYLE_12
 62
               7
100
AcDbCircle
 10
-769.48812916243423
 20
154.33975393411311
 30
0.0
 40
17.499999999999705
  0
DIMENSION
  5
197
100
AcDbEntity
  8
notes
370
               5
390
0
  6
Continuous
 62
               7
100
AcDbDimension
  2
*D2
 10
104.0
 20
295.38076532876948
 30
0.0
 11
104.0
 21
545.38076532876767
 31
0.0
 71
               5
 72
               1
 41
1.0
 42
0.0
  3
tform線あり
100
AcDbAlignedDimension
 13
-34.922182247411911
 23
795.38076532876585
 33
0.0
 14
-123.62692177625649
 24
295.38076532876948
 34
0.0
 50
90.0
100
AcDbRotatedDimension
1001
ACAD
1000
DSTYLE
1002
{
1070
             271
1070
               0
1070
             279
1070
               2
1070
             340
1005
3C
1070
             147
1040
5.0
1002
}
  0
DIMENSION
  5
198
100
AcDbEntity
  8
notes
370
               5
390
0
  6
Continuous
 62
               7
100
AcDbDimension
  2
*D3
 10
-30.125
 20
705.38076532876585
 30
0.0
 11
-30.125
 21
750.38076532876585
 31
0.0
 71
               5
 72
               1
 41
1.0
 42
0.0
  3
tform線あり
100
AcDbAlignedDimension
 13
-123.62692177625559
 23
795.38076532876585
 33
0.0
 14
-195.62692177625559
 24
705.38076532876585
 34
0.0
 50
90.0
100
AcDbRotatedDimension
1001
ACAD
1000
DSTYLE
1002
{
1070
             279
1070
               2
1070
             340
1005
3C
1070
             147
1040
5.0
1002
}
  0
DIMENSION
  5
199
100
AcDbEntity
  8
notes
370
               5
390
0
  6
Continuous
 62
               7
100
AcDbDimension
  2
*D4
 10
-213.66952788175877
 20
861.0
 30
0.0
 11
-166.0
 21
866.0
 31
0.0
 70
             128
 71
               5
 72
               1
 41
1.0
 42
0.0
  3
tform線あり
100
AcDbAlignedDimension
 13
-123.66952788175877
 23
795.38076532876585
 33
0.0
 14
-213.66952788175877
 24
717.03815922325612
 34
0.0
100
AcDbRotatedDimension
1001
ACAD
1000
DSTYLE
1002
{
1070
             279
1070
               2
1070
             340
1005
3C
1070
             147
1040
5.0
1002
}
  0
DIMENSION
  5
19A
100
AcDbEntity
  8
notes
370
               5
390
0
  6
Continuous
 62
               7
100
AcDbDimension
  2
*D5
 10
-723.62692177625649
 20
795.38076532876585
 30
0.0
 11
-723.62692177625649
 21
752.88076532876585
 31
0.0
 71
               5
 72
               1
 41
1.0
 42
0.0
  3
tform線あり
100
AcDbAlignedDimension
 13
-623.62692177625559
 23
710.38076532876585
 33
0.0
 14
-623.62692177625649
 24
795.38076532876585
 34
0.0
 50
90.0
100
AcDbRotatedDimension
1001
ACAD
1000
DSTYLE
1002
{
1070
             279
1070
               2
1070
             340
1005
3C
1070
             147
1040
5.0
1002
}
  0
DIMENSION
  5
19B
100
AcDbEntity
  8
notes
370
               5
390
0
  6
Continuous
 62
               7
100
AcDbDimension
  2
*D6
 10
-723.62692177625649
 20
710.38076532876585
 30
0.0
 11
-723.62692177625649
 21
520.38076532876585
 31
0.0
 71
               5
 72
               1
 41
1.0
 42
0.0
  3
tform線あり
100
AcDbAlignedDimension
 13
-517.91244277944588
 23
330.38076532876585
 33
0.0
 14
-623.62692177625559
 24
710.38076532876585
 34
0.0
 50
90.0
100
AcDbRotatedDimension
1001
ACAD
1000
DSTYLE
1002
{
1070
             279
1070
               2
1070
             340
1005
3C
1070
             147
1040
5.0
1002
}
  0
DIMENSION
  5
19C
100
AcDbEntity
  8
notes
370
               5
390
0
  6
Continuous
 62
               7
100
AcDbDimension
  2
*D7
 10
-723.62692177625649
 20
-475.54143255478266
 30
0.0
 11
-728.62692177625649
 21
-448.04143255478266
 31
0.0
 70
             128
 71
               5
 72
               1
 41
1.0
 42
0.0
  3
tform線あり
100
AcDbAlignedDimension
 13
-614.52923612175709
 23
-420.54143255478448
 33
0.0
 14
-493.62692177625649
 24
-475.54143255478266
 34
0.0
 50
90.0
100
AcDbRotatedDimension
1001
ACAD
1000
DSTYLE
1002
{
1070
             279
1070
               2
1070
             340
1005
3C
1070
             147
1040
5.0
1002
}
  0
DIMENSION
  5
19D
100
AcDbEntity
  8
notes
370
               5
390
0
  6
Continuous
 62
               7
100
AcDbDimension
  2
*D8
 10
-23.626921776256495
 20
-420.54143255478084
 30
0.0
 11
-23.626921776256495
 21
-510.54143255478266
 31
0.0
 71
               5
 72
               1
 41
1.0
 42
0.0
  3
tform線あり
100
AcDbAlignedDimension
 13
-123.62692177625649
 23
-600.54143255478266
 33
0.0
 14
-123.62692177625649
 24
-420.54143255478084
 34
0.0
 50
90.0
100
AcDbRotatedDimension
1001
ACAD
1000
DSTYLE
1002
{
1070
             279
1070
               2
1070
             340
1005
3C
1070
             147
1040
5.0
1002
}
  0
DIMENSION
  5
19E
100
AcDbEntity
  8
notes
370
               5
390
0
  6
Continuous
 62
               7
100
AcDbDimension
  2
*D9
 10
-123.62692177625649
 20
-700.54143255478266
 30
0.0
 11
-336.12692177625649
 21
-700.54143255478266
 31
0.0
 71
               5
 72
               1
 41
1.0
 42
0.0
  3
tform線あり
100
AcDbAlignedDimension
 13
-548.62692177625649
 23
-600.54143255478266
 33
0.0
 14
-123.62692177625649
 24
-600.54143255478266
 34
0.0
100
AcDbRotatedDimension
1001
ACAD
1000
DSTYLE
1002
{
1070
             279
1070
               2
1070
             340
1005
3C
1070
             147
1040
5.0
1002
}
  0
DIMENSION
  5
19F
100
AcDbEntity
  8
notes
370
               5
390
0
  6
Continuous
 62
               7
100
AcDbDimension
  2
*D10
 10
893.94292946231008
 20
-420.54143255478266
 30
0.0
 11
893.94292946231008
 21
-510.54143255478266
 31
0.0
 71
               5
 72
               1
 41
1.0
 42
0.0
  3
tform線あり
100
AcDbAlignedDimension
 13
793.94292946231008
 23
-600.54143255478266
 33
0.0
 14
793.94292946231008
 24
-420.54143255478266
 34
0.0
 50
90.0
100
AcDbRotatedDimension
1001
ACAD
1000
DSTYLE
1002
{
1070
             279
1070
               2
1070
             340
1005
3C
1070
             147
1040
5.0
1002
}
  0
DIMENSION
  5
1A0
100
AcDbEntity
  8
notes
370
               5
390
0
  6
Continuous
 62
               7
100
AcDbDimension
  2
*D11
 10
793.94292946231008
 20
-700.54143255478266
 30
0.0
 11
656.44292946231008
 21
-700.54143255478266
 31
0.0
 71
               5
 72
               1
 41
1.0
 42
0.0
  3
tform線あり
100
AcDbAlignedDimension
 13
518.94292946231008
 23
-600.54143255478266
 33
0.0
 14
793.94292946231008
 24
-600.54143255478266
 34
0.0
100
AcDbRotatedDimension
1001
ACAD
1000
DSTYLE
1002
{
1070
             279
1070
               2
1070
             340
1005
3C
1070
             147
1040
5.0
1002
}
  0
DIMENSION
  5
1A1
100
AcDbEntity
  8
notes
370
               5
390
0
  6
Continuous
 62
               7
100
AcDbDimension
  2
*D12
 10
522.94188812105222
 20
-420.54143255478266
 30
0.0
 11
517.94188812105222
 21
-416.3015418299201
 31
0.0
 70
             128
 71
               5
 72
               1
 41
1.0
 42
0.0
  1
(深さ)125
  3
tform線あり
100
AcDbAlignedDimension
 13
524.94188812105222
 23
-549.54143255478266
 33
0.0
 14
524.94188812105222
 24
-420.54143255478266
 34
0.0
 50
90.0
100
AcDbRotatedDimension
1001
ACAD
1000
DSTYLE
1002
{
1070
             279
1070
               2
1070
             340
1005
3C
1070
             174
1070
               0
1070
             147
1040
5.0
1002
}
  0
DIMENSION
  5
1A2
100
AcDbEntity
  8
notes
370
               5
390
0
  6
Continuous
 62
               7
100
AcDbDimension
  2
*D13
 10
-464.72668339959364
 20
1136.4805269521039
 30
0.0
 11
-685.69755252038885
 21
922.58072564317354
 31
0.0
 70
             129
 71
               5
 72
               1
 41
1.0
 42
0.0
  3
tform線あり
100
AcDbAlignedDimension
 13
-558.49759220598298
 23
360.51009489904209
 33
0.0
 14
-123.62692177625559
 24
795.38076532876585
 34
0.0
 50
45.0
1001
ACAD
1000
DSTYLE
1002
{
1070
             279
1070
               2
1070
             340
1005
3C
1070
             147
1040
5.0
1002
}
  0
DIMENSION
  5
1A3
100
AcDbEntity
  8
notes
370
               5
390
0
  6
Continuous
 62
               7
100
AcDbDimension
  2
*D14
 10
-473.62692177625649
 20
928.00000000000091
 30
0.0
 11
-371.12692177625649
 21
928.00000000000091
 31
0.0
 71
               5
 72
               1
 41
1.0
 42
0.0
  3
tform線あり
100
AcDbAlignedDimension
 13
-268.62692177625649
 23
795.38076532876585
 33
0.0
 14
-473.62692177625649
 24
795.38076532876585
 34
0.0
100
AcDbRotatedDimension
1001
ACAD
1000
DSTYLE
1002
{
1070
             279
1070
               2
1070
             340
1005
3C
1070
             147
1040
5.0
1002
}
  0
DIMENSION
  5
1A4
100
AcDbEntity
  8
notes
370
               5
390
0
  6
Continuous
 62
               7
100
AcDbDimension
  2
*D15
 10
-268.62692177625649
 20
928.00000000000091
 30
0.0
 11
-196.12692177625649
 21
928.00000000000091
 31
0.0
 71
               5
 72
               1
 41
1.0
 42
0.0
  3
tform線あり
100
AcDbAlignedDimension
 13
-123.62692177625649
 23
800.76010927513926
 33
0.0
 14
-268.62692177625649
 24
795.38076532876585
 34
0.0
100
AcDbRotatedDimension
1001
ACAD
1000
DSTYLE
1002
{
1070
             279
1070
               2
1070
             340
1005
3C
1070
             147
1040
5.0
1002
}
  0
DIMENSION
  5
1A5
100
AcDbEntity
  8
notes
370
               5
390
0
  6
Continuous
 62
               7
100
AcDbDimension
  2
*D16
 10
-623.62692177625649
 20
1005.0
 30
0.0
 11
-354.0
 21
1010.0
 31
0.0
 70
             128
 71
               5
 72
               1
 41
1.0
 42
0.0
  3
tform線あり
100
AcDbAlignedDimension
 13
-123.62692177625559
 23
811.35280656997475
 33
0.0
 14
-623.62692177625649
 24
795.38076532876585
 34
0.0
100
AcDbRotatedDimension
1001
ACAD
1000
DSTYLE
1002
{
1070
             271
1070
               0
1070
             279
1070
               2
1070
             340
1005
3C
1070
             147
1040
5.0
1002
}
  0
DIMENSION
  5
1A6
100
AcDbEntity
  8
notes
370
               5
390
0
  6
Continuous
 62
               7
100
AcDbDimension
  2
*D17
 10
-474.0
 20
-352.0
 30
0.0
 11
-371.5
 21
-352.0
 31
0.0
 71
               5
 72
               1
 41
1.0
 42
0.0
  3
tform線あり
100
AcDbAlignedDimension
 13
-269.0
 23
-444.61923467123415
 33
0.0
 14
-474.0
 24
-444.61923467123415
 34
0.0
100
AcDbRotatedDimension
1001
ACAD
1000
DSTYLE
1002
{
1070
             279
1070
               2
1070
             340
1005
3C
1070
             147
1040
5.0
1002
}
  0
DIMENSION
  5
1A7
100
AcDbEntity
  8
notes
370
               5
390
0
  6
Continuous
 62
               7
100
AcDbDimension
  2
*D18
 10
-269.0
 20
-352.0
 30
0.0
 11
-196.5
 21
-352.0
 31
0.0
 71
               5
 72
               1
 41
1.0
 42
0.0
  3
tform線あり
100
AcDbAlignedDimension
 13
-124.0
 23
-439.23989072486074
 33
0.0
 14
-269.0
 24
-444.61923467123415
 34
0.0
100
AcDbRotatedDimension
1001
ACAD
1000
DSTYLE
1002
{
1070
             279
1070
               2
1070
             340
1005
3C
1070
             147
1040
5.0
1002
}
  0
MTEXT
  5
1A8
100
AcDbEntity
  8
notes
390
0
 62
               7
100
AcDbMText
 10
155.3125
 20
243.87761718749971
 30
0.0
 40
24.432617187500004
 41
0.0
 71
               1
 72
               1
  1
壁取付ボルト穴(4ヶ所)\P※内２ヶ所で固定します
  7
ＭＳ ゴシック
 73
               1
 44
0.7828267384257843
  0
DIMENSION
  5
1A9
100
AcDbEntity
  8
notes
370
               5
390
0
  6
Continuous
 62
               7
100
AcDbDimension
  2
*D19
 10
40.0
 20
795.38076532876585
 30
0.0
 11
40.0
 21
722.88076532876585
 31
0.0
 71
               5
 72
               1
 41
1.0
 42
0.0
  3
tform線あり
100
AcDbAlignedDimension
 13
-123.62692177625649
 23
650.38076532876585
 33
0.0
 14
-123.62692177625559
 24
795.38076532876585
 34
0.0
 50
90.0
100
AcDbRotatedDimension
1001
ACAD
1000
DSTYLE
1002
{
1070
             279
1070
               2
1070
             340
1005
3C
1070
             147
1040
5.0
1002
}
  0
DIMENSION
  5
1AA
100
AcDbEntity
  8
notes
370
               5
390
0
  6
Continuous
 62
               7
100
AcDbDimension
  2
*D20
 10
40.0
 20
650.38076532876585
 30
0.0
 11
40.0
 21
547.88076532876585
 31
0.0
 71
               5
 72
               1
 41
1.0
 42
0.0
  3
tform線あり
100
AcDbAlignedDimension
 13
-123.62692177625649
 23
445.38076532876585
 33
0.0
 14
-123.62692177625649
 24
650.38076532876585
 34
0.0
 50
90.0
100
AcDbRotatedDimension
1001
ACAD
1000
DSTYLE
1002
{
1070
             279
1070
               2
1070
             340
1005
3C
1070
             147
1040
5.0
1002
}
  0
LINE
  5
1AB
100
AcDbEntity
  8
notes
370
               5
390
0
  6
Continuous
 62
               7
100
AcDbLine
 10
-123.62692177625649
 20
445.38076532876585
 30
0.0
 11
146.0
 21
234.0
 31
0.0
  0
DIMENSION
  5
1AC
100
AcDbEntity
  8
notes
370
               5
390
0
  6
Continuous
 62
               7
100
AcDbDimension
  2
*D21
 10
439.03971679490314
 20
-590.54143255657436
 30
0.0
 11
434.03971679490314
 21
-609.5
 31
0.0
 70
             128
 71
               5
 72
               1
 41
1.0
 42
0.0
  3
tform線あり
100
AcDbAlignedDimension
 13
496.0
 23
-600.54143255478266
 33
0.0
 14
495.94412121590312
 24
-590.54143255657436
 34
0.0
 50
90.0
100
AcDbRotatedDimension
1001
ACAD
1000
DSTYLE
1002
{
1070
             279
1070
               2
1070
             340
1005
3C
1070
             174
1070
               0
1070
             147
1040
5.0
1002
}
  0
CIRCLE
  5
1AD
100
AcDbEntity
  8
ADF70-1105
370
              15
390
0
  6
Continuous
 62
               7
100
AcDbCircle
 10
-399.12692177625559
 20
519.88076532876585
 30
0.0
 40
39.5
  0
CIRCLE
  5
1AE
100
AcDbEntity
  8
ADF70-1105
370
              15
390
0
  6
Continuous
 62
               7
100
AcDbCircle
 10
-399.12692177625559
 20
519.88076532876585
 30
0.0
 40
23.0
  0
ARC
  5
1AF
100
AcDbEntity
  8
ADF70-1105
370
              15
390
0
  6
Continuous
 62
               7
100
AcDbCircle
 10
-399.12692177625559
 20
519.88076532876585
 30
0.0
 40
224.5
100
AcDbArc
 50
180.0
 51
270.0
  0
LINE
  5
1B0
100
AcDbEntity
  8
ADF70-1105
370
              15
390
0
  6
Continuous
 62
               7
100
AcDbLine
 10
-623.62692177625559
 20
519.88076532876585
 30
0.0
 11
-623.62692177625649
 21
795.38076532876585
 31
0.0
  0
LINE
  5
1B1
100
AcDbEntity
  8
ADF70-1105
370
              15
390
0
  6
Continuous
 62
               7
100
AcDbLine
 10
-123.62692177625559
 20
795.38076532876585
 30
0.0
 11
-623.62692177625649
 21
795.38076532876585
 31
0.0
  0
LINE
  5
1B2
100
AcDbEntity
  8
ADF70-1105
370
              15
390
0
  6
Continuous
 62
               7
100
AcDbLine
 10
-123.62692177625649
 20
295.38076532876948
 30
0.0
 11
-123.62692177625559
 21
795.38076532876585
 31
0.0
  0
LINE
  5
1B3
100
AcDbEntity
  8
ADF70-1105
370
              15
390
0
  6
Continuous
 62
               7
100
AcDbLine
 10
-399.12692177625559
 20
295.38076532876948
 30
0.0
 11
-123.62692177625649
 21
295.38076532876948
 31
0.0
  0
CIRCLE
  5
1B4
100
AcDbEntity
  8
ADF70-1105
370
              15
390
0
  6
STYLE_12
 62
               7
100
AcDbCircle
 10
-213.62692177625559
 20
705.38076532876585
 30
0.0
 40
18.0
  0
LINE
  5
1B5
100
AcDbEntity
  8
ADF70-1105
370
              15
390
0
  6
STYLE_12
 62
               7
100
AcDbLine
 10
-376.12811352984772
 20
-563.28968243015152
 30
0.0
 11
-361.13772520808106
 21
-550.71125311815558
 31
0.0
  0
LINE
  5
1B6
100
AcDbEntity
  8
ADF70-1105
370
              15
390
0
  6
STYLE_12
 62
               7
100
AcDbLine
 10
-376.12811352984772
 20
-563.28968243015152
 30
0.0
 11
-376.12811352984772
 21
-590.54143255657436
 31
0.0
  0
ARC
  5
1B7
100
AcDbEntity
  8
ADF70-1105
370
              15
390
0
  6
STYLE_12
 62
               7
100
AcDbCircle
 10
-326.38278636964333
 20
-419.20480092694561
 30
0.0
 40
120.12487250731026
100
AcDbArc
 50
300.99418396946686
 51
353.84047905610845
  0
ARC
  5
1B8
100
AcDbEntity
  8
ADF70-1105
370
              15
390
0
  6
STYLE_12
 62
               7
100
AcDbCircle
 10
-360.25809555203796
 20
-368.48871286365829
 30
0.0
 40
181.06740557771829
100
AcDbArc
 50
270.71882298336857
 51
301.91892954430159
  0
LINE
  5
1B9
100
AcDbEntity
  8
ADF70-1105
370
              15
390
0
  6
Continuous
 62
               7
100
AcDbLine
 10
-123.62692177625649
 20
-420.54143255478266
 30
0.0
 11
-618.62796311751481
 21
-420.54143255478266
 31
0.0
  0
ARC
  5
1BA
100
AcDbEntity
  8
ADF70-1105
370
              15
390
0
  6
Continuous
 62
               7
100
AcDbCircle
 10
-373.67898883919679
 20
-420.54143255478266
 30
0.0
 40
250.00000000000003
100
AcDbArc
 50
181.16938280562681
 51
225.77441236628056
  0
ARC
  5
1BB
100
AcDbEntity
  8
ADF70-1105
370
              15
390
0
  6
Continuous
 62
               7
100
AcDbCircle
 10
-545.95783257806033
 20
-597.54143255478266
 30
0.0
 40
3.0000000000004134
100
AcDbArc
 50
225.77441236629056
 51
270.0
  0
ARC
  5
1BC
100
AcDbEntity
  8
ADF70-1105
370
              15
390
0
  6
Continuous
 62
               7
100
AcDbCircle
 10
-618.62796311751481
 20
-425.54143255478266
 30
0.0
 40
5.0
100
AcDbArc
 50
90.0
 51
181.1693828056269
  0
ARC
  5
1BD
100
AcDbEntity
  8
ADF70-1105
370
              15
390
0
  6
STYLE_12
 62
               7
100
AcDbCircle
 10
-357.92378715964787
 20
-554.54147533375181
 30
0.0
 40
5.0000000000000737
100
AcDbArc
 50
90.718822983382978
 51
129.99999999999454
  0
LINE
  5
1BE
100
AcDbEntity
  8
ADF70-1105
370
              15
390
0
  6
Continuous
 62
               7
100
AcDbLine
 10
-123.62692177625649
 20
-600.54143255478266
 30
0.0
 11
-545.95783935974396
 21
-600.54143255478266
 31
0.0
  0
ARC
  5
1BF
100
AcDbEntity
  8
ADF70-1105
370
              15
390
0
  6
STYLE_12
 62
               7
100
AcDbCircle
 10
-195.05498602170246
 20
-432.43783928700395
 30
0.0
 40
11.901379403209365
100
AcDbArc
 50
91.656337999367295
 51
178.34366200063275
  0
LINE
  5
1C0
100
AcDbEntity
  8
ADF70-1105
370
              15
390
0
  6
STYLE_12
 62
               7
100
AcDbLine
 10
-422.12573002266345
 20
-563.28968243015152
 30
0.0
 11
-437.11611834443011
 21
-550.71125311815558
 31
0.0
  0
LINE
  5
1C1
100
AcDbEntity
  8
ADF70-1105
370
              15
390
0
  6
STYLE_12
 62
               7
100
AcDbLine
 10
-422.12573002266345
 20
-563.28968243015152
 30
0.0
 11
-422.12573002266345
 21
-590.54143255657436
 31
0.0
  0
ARC
  5
1C2
100
AcDbEntity
  8
ADF70-1105
370
              15
390
0
  6
STYLE_12
 62
               7
100
AcDbCircle
 10
-471.87105718286875
 20
-419.20480092694561
 30
0.0
 40
120.12487250730798
100
AcDbArc
 50
186.15952094389158
 51
239.00581603053308
  0
ARC
  5
1C3
100
AcDbEntity
  8
ADF70-1105
370
              15
390
0
  6
STYLE_12
 62
               7
100
AcDbCircle
 10
-437.99574800047321
 20
-368.48871286365829
 30
0.0
 40
181.0674055777188
100
AcDbArc
 50
238.08107045569815
 51
269.28117701663115
  0
ARC
  5
1C4
100
AcDbEntity
  8
ADF70-1105
370
              15
390
0
  6
STYLE_12
 62
               7
100
AcDbCircle
 10
-440.3300563928633
 20
-554.54147533375181
 30
0.0
 40
5.0000000000013394
100
AcDbArc
 50
50.000000000005464
 51
89.281177016627467
  0
ARC
  5
1C5
100
AcDbEntity
  8
ADF70-1105
370
              15
390
0
  6
STYLE_12
 62
               7
100
AcDbCircle
 10
-603.19885753080871
 20
-432.43783928700395
 30
0.0
 40
11.901379403209365
100
AcDbArc
 50
1.6563379993673062
 51
88.34366200063269
  0
LINE
  5
1C6
100
AcDbEntity
  8
ADF70-1105
370
              15
390
0
  6
Continuous
 62
               7
100
AcDbLine
 10
-123.62692177625649
 20
536.76010927513926
 30
0.0
 11
-123.62692177625649
 21
716.76010927513926
 31
0.0
  0
LINE
  5
1C7
100
AcDbEntity
  8
ADF70-1105
370
              15
390
0
  6
STYLE_12
 62
               7
100
AcDbLine
 10
541.94173770871885
 20
-563.28968243015333
 30
0.0
 11
556.93212603048596
 21
-550.7112531181574
 31
0.0
  0
LINE
  5
1C8
100
AcDbEntity
  8
ADF70-1105
370
              15
390
0
  6
STYLE_12
 62
               7
100
AcDbLine
 10
541.94173770871885
 20
-563.28968243015333
 30
0.0
 11
541.94173770871885
 21
-590.54143255657436
 31
0.0
  0
ARC
  5
1C9
100
AcDbEntity
  8
ADF70-1105
370
              15
390
0
  6
STYLE_12
 62
               7
100
AcDbCircle
 10
591.6870648689237
 20
-419.20480092694561
 30
0.0
 40
120.12487250731181
100
AcDbArc
 50
300.99418396946646
 51
353.84047905610845
  0
ARC
  5
1CA
100
AcDbEntity
  8
ADF70-1105
370
              15
390
0
  6
STYLE_12
 62
               7
100
AcDbCircle
 10
557.81175568652861
 20
-368.48871286365829
 30
0.0
 40
181.06740557772014
100
AcDbArc
 50
270.71882298336874
 51
301.91892954430136
  0
LINE
  5
1CB
100
AcDbEntity
  8
ADF70-1105
370
              15
390
0
  6
Continuous
 62
               7
100
AcDbLine
 10
793.94292946231008
 20
-420.54143255478266
 30
0.0
 11
298.94188812105222
 21
-420.54143255478266
 31
0.0
  0
ARC
  5
1CC
100
AcDbEntity
  8
ADF70-1105
370
              15
390
0
  6
Continuous
 62
               7
100
AcDbCircle
 10
543.89086239937023
 20
-420.54143255478266
 30
0.0
 40
250.00000000000003
100
AcDbArc
 50
181.16938280562681
 51
225.77441236628079
  0
ARC
  5
1CD
100
AcDbEntity
  8
ADF70-1105
370
              15
390
0
  6
Continuous
 62
               7
100
AcDbCircle
 10
371.61201866050669
 20
-597.54143255478266
 30
0.0
 40
3.0000000000004134
100
AcDbArc
 50
225.77441236629056
 51
270.0
  0
ARC
  5
1CE
100
AcDbEntity
  8
ADF70-1105
370
              15
390
0
  6
Continuous
 62
               7
100
AcDbCircle
 10
298.94188812105222
 20
-425.54143255478266
 30
0.0
 40
5.0
100
AcDbArc
 50
90.0
 51
181.16938280562681
  0
ARC
  5
1CF
100
AcDbEntity
  8
ADF70-1105
370
              15
390
0
  6
STYLE_12
 62
               7
100
AcDbCircle
 10
560.14606407891824
 20
-554.54147533375181
 30
0.0
 40
5.0000000000000622
100
AcDbArc
 50
90.718822983372547
 51
129.99999999999994
  0
LINE
  5
1D0
100
AcDbEntity
  8
ADF70-1105
370
              15
390
0
  6
Continuous
 62
               7
100
AcDbLine
 10
793.94292946231008
 20
-600.54143255478266
 30
0.0
 11
371.61201187882261
 21
-600.54143255478266
 31
0.0
  0
ARC
  5
1D1
100
AcDbEntity
  8
ADF70-1105
370
              15
390
0
  6
STYLE_12
 62
               7
100
AcDbCircle
 10
723.01486521686365
 20
-432.43783928700395
 30
0.0
 40
11.901379403207535
100
AcDbArc
 50
91.656337999365377
 51
178.34366200063263
  0
LINE
  5
1D2
100
AcDbEntity
  8
ADF70-1105
370
              15
390
0
  6
STYLE_12
 62
               7
100
AcDbLine
 10
495.94412121590312
 20
-563.28968243015333
 30
0.0
 11
480.95373289413646
 21
-550.7112531181574
 31
0.0
  0
LINE
  5
1D3
100
AcDbEntity
  8
ADF70-1105
370
              15
390
0
  6
STYLE_12
 62
               7
100
AcDbLine
 10
495.94412121590312
 20
-563.28968243015333
 30
0.0
 11
495.94412121590312
 21
-590.54143255657436
 31
0.0
  0
ARC
  5
1D4
100
AcDbEntity
  8
ADF70-1105
370
              15
390
0
  6
STYLE_12
 62
               7
100
AcDbCircle
 10
446.19879405569827
 20
-419.20480092694561
 30
0.0
 40
120.12487250730844
100
AcDbArc
 50
186.15952094389155
 51
239.00581603053357
  0
ARC
  5
1D5
100
AcDbEntity
  8
ADF70-1105
370
              15
390
0
  6
STYLE_12
 62
               7
100
AcDbCircle
 10
480.07410323809336
 20
-368.48871286365829
 30
0.0
 40
181.06740557772008
100
AcDbArc
 50
238.08107045569858
 51
269.28117701663132
  0
ARC
  5
1D6
100
AcDbEntity
  8
ADF70-1105
370
              15
390
0
  6
STYLE_12
 62
               7
100
AcDbCircle
 10
477.73979484570373
 20
-554.54147533375181
 30
0.0
 40
4.9999999999996536
100
AcDbArc
 50
49.999999999996056
 51
89.281177016627467
  0
ARC
  5
1D7
100
AcDbEntity
  8
ADF70-1105
370
              15
390
0
  6
STYLE_12
 62
               7
100
AcDbCircle
 10
314.87099370775832
 20
-432.43783928700395
 30
0.0
 40
11.901379403208912
100
AcDbArc
 50
1.6563379993673695
 51
88.343662000634637
  0
LINE
  5
1D8
100
AcDbEntity
  8
ADF70-1105
370
              15
390
0
  6
Continuous
 62
               7
100
AcDbLine
 10
793.94292946231008
 20
-600.54143255478266
 30
0.0
 11
793.94292946231008
 21
-420.54143255478266
 31
0.0
  0
LINE
  5
1D9
100
AcDbEntity
  8
ADF70-1105
370
              15
390
0
  6
STYLE_12
 62
               7
100
AcDbLine
 10
-248.62692177625649
 20
-475.54143255478266
 30
0.0
 11
-288.62692177625649
 21
-475.54143255478266
 31
0.0
  0
LINE
  5
1DA
100
AcDbEntity
  8
ADF70-1105
370
              15
390
0
  6
STYLE_12
 62
               7
100
AcDbLine
 10
-473.62692177625649
 20
-495.54143255478266
 30
0.0
 11
-473.62692177625649
 21
-455.54143255478266
 31
0.0
  0
LINE
  5
1DB
100
AcDbEntity
  8
ADF70-1105
370
              15
390
0
  6
STYLE_12
 62
               7
100
AcDbLine
 10
-453.62692177625649
 20
-475.54143255478266
 30
0.0
 11
-493.62692177625649
 21
-475.54143255478266
 31
0.0
  0
LINE
  5
1DC
100
AcDbEntity
  8
ADF70-1105
370
              15
390
0
  6
STYLE_12
 62
               7
100
AcDbLine
 10
-268.62692177625649
 20
-495.58132327964631
 30
0.0
 11
-268.62692177625649
 21
-455.58132327964631
 31
0.0
  0
LINE
  5
1DD
100
AcDbEntity
  8
ADF70-1105
370
              15
390
0
  6
STYLE_12
 62
               7
100
AcDbLine
 10
-422.12573002266345
 20
-590.54143255657436
 30
0.0
 11
-376.12811352984772
 21
-590.54143255657436
 31
0.0
  0
LINE
  5
1DE
100
AcDbEntity
  8
ADF70-1105
370
              15
390
0
  6
STYLE_12
 62
               7
100
AcDbLine
 10
495.94412121590312
 20
-590.54143255657436
 30
0.0
 11
541.94173770871885
 21
-590.54143255657436
 31
0.0
  0
LINE
  5
1DF
100
AcDbEntity
  8
ADF70-1105
370
              15
390
0
  6
Continuous
 62
               7
100
AcDbLine
 10
-123.62692177625649
 20
-420.54143255478266
 30
0.0
 11
-123.62692177625649
 21
-600.54143255478266
 31
0.0
  0
INSERT
  5
1E0
100
AcDbEntity
  8
ADF70-1105
390
0
 62
               7
100
AcDbBlockReference
  2
グループ-1
 10
4371.7654350589164
 20
8646.4475969914274
 30
0.0
  0
INSERT
  5
1E1
100
AcDbEntity
  8
ADF70-1105
390
0
 62
               7
100
AcDbBlockReference
  2
グループ-2
 10
4371.7654350589164
 20
8646.4475969914274
 30
0.0
  0
INSERT
  5
1E2
100
AcDbEntity
  8
ADF70-1105
390
0
 62
               7
100
AcDbBlockReference
  2
グループ-3
 10
4371.7654350589164
 20
8646.4475969914274
 30
0.0
  0
INSERT
  5
1E3
100
AcDbEntity
  8
ADF70-1105
390
0
 62
               7
100
AcDbBlockReference
  2
グループ-4
 10
4371.7654350589164
 20
8646.4475969914274
 30
0.0
  0
SPLINE
  5
1E4
100
AcDbEntity
  8
ADF70-1105
370
              15
390
0
  6
Continuous
 62
               7
100
AcDbSpline
210
0.0
220
0.0
230
1.0
 70
               9
 71
               2
 72
              17
 73
              14
 74
               0
 42
0.000001
 43
0.000001
 40
0.0
 40
0.0
 40
0.0
 40
1.0
 40
2.0
 40
3.0
 40
4.0
 40
5.0
 40
6.0
 40
7.0
 40
8.0
 40
9.0
 40
10.0
 40
11.0
 40
12.0
 40
12.0
 40
12.0
 10
-282.07865684338321
 20
645.66084848181163
 30
0.0
 10
-279.53102758382374
 20
644.13287449568907
 30
0.0
 10
-274.82492632181584
 20
639.42677323367934
 30
0.0
 10
-271.7689783495689
 20
634.3315147145604
 30
0.0
 10
-271.18202245835982
 20
630.21236934375975
 30
0.0
 10
-273.22133300523092
 20
628.17305879689047
 30
0.0
 10
-277.34047837603157
 20
628.76001468809955
 30
0.0
 10
-282.43573689514869
 20
631.81596266034558
 30
0.0
 10
-287.14183815715842
 20
636.52206392235439
 30
0.0
 10
-290.19778612940536
 20
641.61732244147333
 30
0.0
 10
-290.78474202061443
 20
645.73646781227399
 30
0.0
 10
-288.74543147374334
 20
647.77577835914326
 30
0.0
 10
-284.62628610294269
 20
647.1888224679351
 30
0.0
 10
-282.07865684338321
 20
645.66084848181163
 30
0.0
  0
LINE
  5
1E5
100
AcDbEntity
  8
ADF70-1105
370
              15
390
0
  6
Continuous
 62
               7
100
AcDbLine
 10
-582.0
 20
795.38076532876585
 30
0.0
 11
-174.0
 21
795.38076532876585
 31
0.0
  0
CIRCLE
  5
1E6
100
AcDbEntity
  8
ADF70-1105
370
              15
390
0
  6
Continuous
 62
               7
100
AcDbCircle
 10
-399.12692177625559
 20
519.88076532876585
 30
0.0
 40
189.9999999999998
  0
ENDSEC
  0
SECTION
  2
OBJECTS
  0
DICTIONARY
  5
19
100
AcDbDictionary
280
               0
281
               1
  3
ACAD_GROUP
350
1A
  3
ACAD_MLINESTYLE
350
1B
  3
ACAD_LAYOUT
350
1E
  3
ACAD_PLOTSETTINGS
350
22
  3
ACAD_PLOTSTYLENAME
350
1F
  0
DICTIONARY
  5
1A
102
{ACAD_REACTORS
330
19
102
}
100
AcDbDictionary
280
               0
281
               1
  0
DICTIONARY
  5
1B
102
{ACAD_REACTORS
330
19
102
}
100
AcDbDictionary
280
               0
281
               1
  3
Standard
350
1C
  0
MLINESTYLE
  5
1C
102
{ACAD_REACTORS
330
1B
102
}
100
AcDbMlineStyle
  2
Standard
 70
               0
  3

 62
               0
 51
90.0
 52
90.0
 71
               2
 49
0.5
 62
             256
  6
ByLayer
 49
-0.5
 62
             256
  6
ByLayer
  0
ACDBDICTIONARYWDFLT
  5
1F
102
{ACAD_REACTORS
330
19
102
}
100
AcDbDictionary
281
               1
  3
Normal
350
1D
100
AcDbDictionaryWithDefault
340
1D
  0
ACDBPLACEHOLDER
  5
1D
102
{ACAD_REACTORS
330
1F
102
}
  0
LAYOUT
  5
20
102
{ACAD_REACTORS
330
1E
102
}
100
AcDbPlotSettings
  1

  2

  4

  6

 40
0.0
 41
0.0
 42
0.0
 43
0.0
 44
0.0
 45
0.0
 46
0.0
 47
0.0
 48
0.0
 49
0.0
140
0.0
141
0.0
142
1.0
143
1.0
 70
            1024
 72
               0
 73
               0
 74
               0
  7

 75
               0
147
1.0
148
0.0
149
0.0
100
AcDbLayout
  1
Model
 70
               0
 71
               0
 10
0.0
 20
0.0
 11
0.0
 21
0.0
 12
0.0
 22
0.0
 32
0.0
 14
0.0
 24
0.0
 34
0.0
 15
0.0
 25
0.0
 35
0.0
146
0.0
 13
0.0
 23
0.0
 33
0.0
 16
0.0
 26
0.0
 36
0.0
 17
0.0
 27
0.0
 37
0.0
 76
               0
330
A
331
0
345
0
346
0
  0
LAYOUT
  5
21
102
{ACAD_REACTORS
330
1E
102
}
100
AcDbPlotSettings
  1

  2

  4

  6

 40
0.0
 41
0.0
 42
0.0
 43
0.0
 44
0.0
 45
0.0
 46
0.0
 47
0.0
 48
0.0
 49
0.0
140
0.0
141
0.0
142
1.0
143
1.0
 70
               0
 72
               0
 73
               0
 74
               0
  7

 75
               0
147
1.0
148
0.0
149
0.0
100
AcDbLayout
  1
Layout1
 70
               0
 71
               0
 10
0.0
 20
0.0
 11
0.0
 21
0.0
 12
0.0
 22
0.0
 32
0.0
 14
0.0
 24
0.0
 34
0.0
 15
0.0
 25
0.0
 35
0.0
146
0.0
 13
0.0
 23
0.0
 33
0.0
 16
0.0
 26
0.0
 36
0.0
 17
0.0
 27
0.0
 37
0.0
 76
               0
330
B
331
0
345
0
346
0
  0
DICTIONARY
  5
1E
102
{ACAD_REACTORS
330
19
102
}
100
AcDbDictionary
280
               0
281
               1
  3
Layout1
350
21
  3
Model
350
20
  0
DICTIONARY
  5
22
102
{ACAD_REACTORS
330
19
102
}
100
AcDbDictionary
280
               0
281
               1
  0
ENDSEC
  0
EOF
