  0
SECTION
  2
HEADER
  9
$ACADVER
  1
AC1015
  9
$ACADMAINTVER
 70
               6
  9
$DWGCODEPAGE
  3
ANSI_932
  9
$INSBASE
 10
0.0
 20
0.0
 30
0.0
  9
$EXTMIN
 10
-975.00000000024124
 20
-1431.5255224711136
 30
-14.834305555555556
  9
$EXTMAX
 10
975.00000000024124
 20
1405.9972926412993
 30
14.834305555555556
  9
$LIMMIN
 10
0.0
 20
0.0
  9
$LIMMAX
 10
0.0
 20
0.0
  9
$ORTHOMODE
 70
               0
  9
$REGENMODE
 70
               1
  9
$FILLMODE
 70
               1
  9
$QTEXTMODE
 70
               0
  9
$MIRRTEXT
 70
               1
  9
$LTSCALE
 40
50.799999999999997
  9
$ATTMODE
 70
               1
  9
$TEXTSIZE
 40
0.2
  9
$TRACEWID
 40
1.0
  9
$TEXTSTYLE
  7
Standard
  9
$CLAYER
  8
ADF70-1602
  9
$CELTYPE
  6
Continuous
  9
$CECOLOR
 62
             256
  9
$CELTSCALE
 40
1.0
  9
$DISPSILH
 70
               0
  9
$DIMSCALE
 40
1.0
  9
$DIMASZ
 40
22.4482421875
  9
$DIMEXO
 40
15.875
  9
$DIMDLI
 40
10.16
  9
$DIMRND
 40
0.0
  9
$DIMDLE
 40
1.5874999999999999
  9
$DIMEXE
 40
31.75
  9
$DIMTP
 40
0.0
  9
$DIMTM
 40
0.0
  9
$DIMTXT
 40
24.432617187500004
  9
$DIMCEN
 40
0.0
  9
$DIMTSZ
 40
0.0
  9
$DIMTOL
 70
               0
  9
$DIMLIM
 70
               0
  9
$DIMTIH
 70
               0
  9
$DIMTOH
 70
               0
  9
$DIMSE1
 70
               0
  9
$DIMSE2
 70
               0
  9
$DIMTAD
 70
               1
  9
$DIMZIN
 70
              11
  9
$DIMBLK
  1
VW_SLASH
  9
$DIMASO
 70
               1
  9
$DIMSHO
 70
               1
  9
$DIMPOST
  1
<>
  9
$DIMAPOST
  1
[]
  9
$DIMALT
 70
               0
  9
$DIMALTD
 70
               1
  9
$DIMALTF
 40
1.0
  9
$DIMLFAC
 40
1.0
  9
$DIMTOFL
 70
               1
  9
$DIMTVP
 40
0.0
  9
$DIMTIX
 70
               1
  9
$DIMSOXD
 70
               0
  9
$DIMSAH
 70
               0
  9
$DIMBLK1
  1

  9
$DIMBLK2
  1

  9
$DIMSTYLE
  2
Arch
  9
$DIMCLRD
 70
               0
  9
$DIMCLRE
 70
               0
  9
$DIMCLRT
 70
               0
  9
$DIMTFAC
 40
1.0
  9
$DIMGAP
 40
1.5874999999999999
  9
$DIMJUST
 70
               0
  9
$DIMSD1
 70
               0
  9
$DIMSD2
 70
               0
  9
$DIMTOLJ
 70
               1
  9
$DIMTZIN
 70
              11
  9
$DIMALTZ
 70
              11
  9
$DIMALTTZ
 70
              11
  9
$DIMUPT
 70
               0
  9
$DIMDEC
 70
               1
  9
$DIMTDEC
 70
               1
  9
$DIMALTU
 70
               2
  9
$DIMALTTD
 70
               2
  9
$DIMTXSTY
  7
ＭＳ ゴシック
  9
$DIMAUNIT
 70
               0
  9
$DIMADEC
 70
               2
  9
$DIMALTRND
 40
0.0
  9
$DIMAZIN
 70
               0
  9
$DIMDSEP
 70
              46
  9
$DIMATFIT
 70
               0
  9
$DIMFRAC
 70
               2
  9
$DIMLDRBLK
  1

  9
$DIMLUNIT
 70
               2
  9
$DIMLWD
 70
              -2
  9
$DIMLWE
 70
              -2
  9
$DIMTMOVE
 70
               0
  9
$LUNITS
 70
               2
  9
$LUPREC
 70
               4
  9
$SKETCHINC
 40
0.1
  9
$FILLETRAD
 40
0.0
  9
$AUNITS
 70
               0
  9
$AUPREC
 70
               0
  9
$MENU
  1
acad
  9
$ELEVATION
 40
0.0
  9
$PELEVATION
 40
0.0
  9
$THICKNESS
 40
0.0
  9
$LIMCHECK
 70
               0
  9
$CHAMFERA
 40
0.0
  9
$CHAMFERB
 40
0.0
  9
$CHAMFERC
 40
0.0
  9
$CHAMFERD
 40
0.0
  9
$SKPOLY
 70
               0
  9
$TDCREATE
 40
2456037.552233796
  9
$TDUCREATE
 40
0.000000000
  9
$TDUPDATE
 40
2456037.552233796
  9
$TDUUPDATE
 40
0.000000000
  9
$TDINDWG
 40
0.0000000000
  9
$TDUSRTIMER
 40
0.0000000000
  9
$USRTIMER
 70
               1
  9
$ANGBASE
 50
0.0
  9
$ANGDIR
 70
               0
  9
$PDMODE
 70
               1
  9
$PDSIZE
 40
-2.0
  9
$PLINEWID
 40
0.0
  9
$SPLFRAME
 70
               0
  9
$SPLINETYPE
 70
               6
  9
$SPLINESEGS
 70
               8
  9
$HANDSEED
  5
27C
  9
$SURFTAB1
 70
               6
  9
$SURFTAB2
 70
               6
  9
$SURFTYPE
 70
               6
  9
$SURFU
 70
               6
  9
$SURFV
 70
               6
  9
$UCSBASE
  2

  9
$UCSNAME
  2

  9
$UCSORG
 10
0.0
 20
0.0
 30
0.0
  9
$UCSXDIR
 10
1.0
 20
0.0
 30
0.0
  9
$UCSYDIR
 10
0.0
 20
1.0
 30
0.0
  9
$UCSORTHOREF
  2

  9
$UCSORTHOVIEW
 70
               0
  9
$UCSORGTOP
 10
0.0
 20
0.0
 30
0.0
  9
$UCSORGBOTTOM
 10
0.0
 20
0.0
 30
0.0
  9
$UCSORGLEFT
 10
0.0
 20
0.0
 30
0.0
  9
$UCSORGRIGHT
 10
0.0
 20
0.0
 30
0.0
  9
$UCSORGFRONT
 10
0.0
 20
0.0
 30
0.0
  9
$UCSORGBACK
 10
0.0
 20
0.0
 30
0.0
  9
$PUCSBASE
  2

  9
$PUCSNAME
  2

  9
$PUCSORG
 10
0.0
 20
0.0
 30
0.0
  9
$PUCSXDIR
 10
1.0
 20
0.0
 30
0.0
  9
$PUCSYDIR
 10
0.0
 20
1.0
 30
0.0
  9
$PUCSORTHOREF
  2

  9
$PUCSORTHOVIEW
 70
               0
  9
$PUCSORGTOP
 10
0.0
 20
0.0
 30
0.0
  9
$PUCSORGBOTTOM
 10
0.0
 20
0.0
 30
0.0
  9
$PUCSORGLEFT
 10
0.0
 20
0.0
 30
0.0
  9
$PUCSORGRIGHT
 10
0.0
 20
0.0
 30
0.0
  9
$PUCSORGFRONT
 10
0.0
 20
0.0
 30
0.0
  9
$PUCSORGBACK
 10
0.0
 20
0.0
 30
0.0
  9
$USERI1
 70
               0
  9
$USERI2
 70
               0
  9
$USERI3
 70
               0
  9
$USERI4
 70
               0
  9
$USERI5
 70
               0
  9
$USERR1
 40
0.0
  9
$USERR2
 40
0.0
  9
$USERR3
 40
0.0
  9
$USERR4
 40
0.0
  9
$USERR5
 40
0.0
  9
$WORLDVIEW
 70
               1
  9
$SHADEDGE
 70
               3
  9
$SHADEDIF
 70
              70
  9
$TILEMODE
 70
               1
  9
$MAXACTVP
 70
              64
  9
$PINSBASE
 10
0.0
 20
0.0
 30
0.0
  9
$PLIMCHECK
 70
               0
  9
$PEXTMIN
 10
1.0000000000000000E+20
 20
1.0000000000000000E+20
 30
1.0000000000000000E+20
  9
$PEXTMAX
 10
-1.0000000000000000E+20
 20
-1.0000000000000000E+20
 30
-1.0000000000000000E+20
  9
$PLIMMIN
 10
0.0
 20
0.0
  9
$PLIMMAX
 10
12.0
 20
9.0
  9
$UNITMODE
 70
               0
  9
$VISRETAIN
 70
               0
  9
$PLINEGEN
 70
               1
  9
$PSLTSCALE
 70
               0
  9
$TREEDEPTH
 70
            3020
  9
$CMLSTYLE
  2
Standard
  9
$CMLJUST
 70
               0
  9
$CMLSCALE
 40
1.0
  9
$PROXYGRAPHICS
 70
               0
  9
$MEASUREMENT
 70
               1
  9
$CELWEIGHT
370
               0
  9
$ENDCAPS
280
               0
  9
$JOINSTYLE
280
               0
  9
$LWDISPLAY
290
               1
  9
$INSUNITS
 70
               4
  9
$HYPERLINKBASE
  1

  9
$STYLESHEET
  1

  9
$XEDIT
290
               1
  9
$CEPSNTYPE
380
               0
  9
$PSTYLEMODE
290
               1
  9
$FINGERPRINTGUID
  2

  9
$VERSIONGUID
  2

  9
$EXTNAMES
290
               1
  9
$PSVPSCALE
 40
0.0
  0
ENDSEC
  0
SECTION
  2
CLASSES
  0
CLASS
  1
LWPOLYLINE
  2
AcDbPolyline
  3
AutoCAD 2000
 90
        0
280
               0
281
               1
  0
CLASS
  1
IMAGE
  2
AcDbRasterImage
  3
ISM
 90
      127
280
               0
281
               1
  0
CLASS
  1
OLE2FRAME
  2
AcDbOle2Frame
  3
AutoCAD 2000
 90
        0
280
               0
281
               1
  0
CLASS
  1
HATCH
  2
AcDbHatch
  3
AutoCAD 2000
 90
        0
280
               0
281
               1
  0
CLASS
  1
DICTIONARYVAR
  2
AcDbDictionaryVar
  3
AutoCAD 2000
 90
        0
280
               0
281
               0
  0
CLASS
  1
RASTERVARIABLES
  2
AcDbRasterVariables
  3
ISM
 90
        0
280
               0
281
               0
  0
CLASS
  1
IMAGEDEF
  2
AcDbRasterImageDef
  3
ISM
 90
        0
280
               0
281
               0
  0
CLASS
  1
IMAGEDEF_REACTOR
  2
AcDbRasterImageDefReactor
  3
ISM
 90
        1
280
               0
281
               0
  0
CLASS
  1
IDBUFFER
  2
AcDbIdBuffer
  3
AutoCAD 2000
 90
        0
280
               0
281
               0
  0
CLASS
  1
SPATIAL_FILTER
  2
AcDbSpatialFilter
  3
AutoCAD 2000
 90
        0
280
               0
281
               0
  0
CLASS
  1
XRECORD
  2
AcDbXrecord
  3
AutoCAD 2000
 90
        0
280
               0
281
               0
  0
CLASS
  1
SORTENTSTABLE
  2
AcDbSortentsTable
  3
AutoCAD 2000
 90
        0
280
               0
281
               0
  0
CLASS
  1
LAYER_INDEX
  2
AcDbLayerIndex
  3
AutoCAD 2000
 90
        0
280
               0
281
               0
  0
CLASS
  1
SPATIAL_INDEX
  2
AcDbSpatialIndex
  3
AutoCAD 2000
 90
        0
280
               0
281
               0
  0
CLASS
  1
OBJECT_PTR
  2
CAseDLPNTableRecord
  3
"ASE-LPNTableRecord"
 90
        1
280
               0
281
               0
  0
CLASS
  1
LAYOUT
  2
AcDbLayout
  3
AutoCAD 2000
 90
        0
280
               0
281
               0
  0
CLASS
  1
PLOTSETTINGS
  2
AcDbPlotSettings
  3
AutoCAD 2000
 90
        0
280
               0
281
               0
  0
CLASS
  1
ACDBDICTIONARYWDFLT
  2
AcDbDictionaryWithDefault
  3
AutoCAD 2000
 90
        0
280
               0
281
               0
  0
CLASS
  1
ACDBPLACEHOLDER
  2
AcDbPlaceHolder
  3
AutoCAD 2000
 90
        0
280
               0
281
               0
  0
ENDSEC
  0
SECTION
  2
TABLES
  0
TABLE
  2
VPORT
  5
7
100
AcDbSymbolTable
 70
               1
  0
VPORT
  5
15
100
AcDbSymbolTableRecord
100
AcDbViewportTableRecord
  2
*ACTIVE
 70
               0
 10
0.0
 20
0.0
 11
1.0
 21
1.0
 12
0.0
 22
-12.764114914907168
 13
0.0
 23
0.0
 14
1.0
 24
1.0
 15
0.0
 25
0.0
 16
0.0
 26
0.0
 36
1.0
 17
0.0
 27
0.0
 37
0.0
 40
2837.5228151124129
 41
0.688564
 42
50.0
 43
0.0
 44
0.0
 50
0.0
 51
0.0
 71
               0
 72
            2000
 73
               1
 74
               1
 75
               0
 76
               0
 77
               0
 78
               0
281
               0
 65
               0
110
0.0
120
0.0
130
0.0
111
1.0
121
0.0
131
0.0
112
0.0
122
1.0
132
0.0
345
0
346
0
 79
               0
146
0.0
  0
ENDTAB
  0
TABLE
  2
LTYPE
  5
4
100
AcDbSymbolTable
 70
              16
  0
LTYPE
  5
11
100
AcDbSymbolTableRecord
100
AcDbLinetypeTableRecord
  2
ByBlock
 70
              64
  3

 72
              65
 73
               0
 40
0.0
  0
LTYPE
  5
12
100
AcDbSymbolTableRecord
100
AcDbLinetypeTableRecord
  2
ByLayer
 70
              64
  3

 72
              65
 73
               0
 40
0.0
  0
LTYPE
  5
13
100
AcDbSymbolTableRecord
100
AcDbLinetypeTableRecord
  2
Continuous
 70
              64
  3
Solid line
 72
              65
 73
               0
 40
0.0
  0
LTYPE
  5
43
100
AcDbSymbolTableRecord
100
AcDbLinetypeTableRecord
  2
STYLE_01
 70
               0
  3

 72
              65
 73
               2
 40
0.1874999999999999
 49
0.125
 74
               0
 49
-0.0625
 74
               0
  0
LTYPE
  5
44
100
AcDbSymbolTableRecord
100
AcDbLinetypeTableRecord
  2
STYLE_02
 70
               0
  3

 72
              65
 73
               2
 40
0.6944250000000001
 49
0.48607
 74
               0
 49
-0.2083550000000001
 74
               0
  0
LTYPE
  5
45
100
AcDbSymbolTableRecord
100
AcDbLinetypeTableRecord
  2
STYLE_03
 70
               0
  3

 72
              65
 73
               2
 40
1.25
 49
1.0416400000000001
 74
               0
 49
-0.2083599999999999
 74
               0
  0
LTYPE
  5
46
100
AcDbSymbolTableRecord
100
AcDbLinetypeTableRecord
  2
STYLE_04
 70
               0
  3

 72
              65
 73
               2
 40
1.5277099999999999
 49
1.3194249999999998
 74
               0
 49
-0.208285
 74
               0
  0
LTYPE
  5
47
100
AcDbSymbolTableRecord
100
AcDbLinetypeTableRecord
  2
STYLE_05
 70
               0
  3

 72
              65
 73
               2
 40
0.20828
 49
0.069425
 74
               0
 49
-0.138855
 74
               0
  0
LTYPE
  5
48
100
AcDbSymbolTableRecord
100
AcDbLinetypeTableRecord
  2
STYLE_06
 70
               0
  3

 72
              65
 73
               4
 40
1.0416400000000001
 49
0.625
 74
               0
 49
-0.20828
 74
               0
 49
0.06943
 74
               0
 49
-0.13893
 74
               0
  0
LTYPE
  5
49
100
AcDbSymbolTableRecord
100
AcDbLinetypeTableRecord
  2
STYLE_07
 70
               0
  3

 72
              65
 73
               6
 40
1.875
 49
0.625
 74
               0
 49
-0.20828
 74
               0
 49
0.6250000000000001
 74
               0
 49
-0.2083599999999999
 74
               0
 49
0.06943
 74
               0
 49
-0.1389299999999999
 74
               0
  0
LTYPE
  5
4A
100
AcDbSymbolTableRecord
100
AcDbLinetypeTableRecord
  2
STYLE_08
 70
               0
  3

 72
              65
 73
               6
 40
1.25
 49
0.625
 74
               0
 49
-0.20828
 74
               0
 49
0.06943
 74
               0
 49
-0.13893
 74
               0
 49
0.0694299999999999
 74
               0
 49
-0.13893
 74
               0
  0
LTYPE
  5
4B
100
AcDbSymbolTableRecord
100
AcDbLinetypeTableRecord
  2
STYLE_09
 70
               0
  3

 72
              65
 73
               4
 40
5.0
 49
3.75
 74
               0
 49
-0.2777849999999998
 74
               0
 49
0.6944300000000003
 74
               0
 49
-0.2777849999999998
 74
               0
  0
LTYPE
  5
4C
100
AcDbSymbolTableRecord
100
AcDbLinetypeTableRecord
  2
STYLE_10
 70
               0
  3

 72
              65
 73
               6
 40
5.9375
 49
3.75
 74
               0
 49
-0.2777849999999998
 74
               0
 49
0.6944300000000003
 74
               0
 49
-0.2777849999999998
 74
               0
 49
0.625
 74
               0
 49
-0.3125
 74
               0
  0
LTYPE
  5
4D
100
AcDbSymbolTableRecord
100
AcDbLinetypeTableRecord
  2
STYLE_11
 70
               0
  3

 72
              65
 73
               2
 40
0.3972212598425197
 49
0.2383326771653543
 74
               0
 49
-0.1588885826771654
 74
               0
  0
LTYPE
  5
4E
100
AcDbSymbolTableRecord
100
AcDbLinetypeTableRecord
  2
STYLE_12
 70
               0
  3

 72
              65
 73
               2
 40
0.0694444881889764
 49
0.0347222440944882
 74
               0
 49
-0.0347222440944882
 74
               0
  0
LTYPE
  5
4F
100
AcDbSymbolTableRecord
100
AcDbLinetypeTableRecord
  2
STYLE_13
 70
               0
  3

 72
              65
 73
               2
 40
0.3937007874015748
 49
0.1968503937007874
 74
               0
 49
-0.1968503937007874
 74
               0
  0
ENDTAB
  0
TABLE
  2
LAYER
  5
2
100
AcDbSymbolTable
 70
               5
  0
LAYER
  5
14
100
AcDbSymbolTableRecord
100
AcDbLayerTableRecord
  2
0
 70
               0
 62
               7
  6
Continuous
290
               1
370
              -3
390
1D
  0
LAYER
  5
50
100
AcDbSymbolTableRecord
100
AcDbLayerTableRecord
  2
Defpoints
 70
               0
 62
               7
  6
Continuous
290
               0
370
              -3
390
1D
  0
LAYER
  5
51
100
AcDbSymbolTableRecord
100
AcDbLayerTableRecord
  2
template
 70
               0
 62
               7
  6
Continuous
290
               1
370
              -3
390
1D
  0
LAYER
  5
52
100
AcDbSymbolTableRecord
100
AcDbLayerTableRecord
  2
notes
 70
               0
 62
               7
  6
Continuous
290
               1
370
              -3
390
1D
  0
LAYER
  5
53
100
AcDbSymbolTableRecord
100
AcDbLayerTableRecord
  2
ADF70-1602
 70
               0
 62
               7
  6
Continuous
290
               1
370
              -3
390
1D
  0
ENDTAB
  0
TABLE
  2
STYLE
  5
3
100
AcDbSymbolTable
 70
               2
  0
STYLE
  5
17
100
AcDbSymbolTableRecord
100
AcDbTextStyleTableRecord
  2
Standard
 70
               0
 40
0.0
 41
1.0
 50
0.0
 71
               0
 42
0.0
  3
txt
  4
BIGFONT.SHX
  0
STYLE
  5
42
100
AcDbSymbolTableRecord
100
AcDbTextStyleTableRecord
  2
ＭＳ ゴシック
 70
               0
 40
0.0
 41
1.0
 50
0.0
 71
               0
 42
0.0
  3

  4
ＭＳ ゴシック
1001
ACAD
1000
ＭＳ ゴシック
1071
        0
  0
ENDTAB
  0
TABLE
  2
VIEW
  5
5
100
AcDbSymbolTable
 70
               0
  0
ENDTAB
  0
TABLE
  2
UCS
  5
6
100
AcDbSymbolTable
 70
               0
  0
ENDTAB
  0
TABLE
  2
APPID
  5
8
100
AcDbSymbolTable
 70
               1
  0
APPID
  5
16
100
AcDbSymbolTableRecord
100
AcDbRegAppTableRecord
  2
ACAD
 70
               0
  0
ENDTAB
  0
TABLE
  2
DIMSTYLE
  5
9
100
AcDbSymbolTable
 70
               3
100
AcDbDimStyleTable
 71
               0
  0
DIMSTYLE
105
18
100
AcDbSymbolTableRecord
100
AcDbDimStyleTableRecord
  2
Standard
 70
               0
  3

  4

 40
1.0
 41
0.18
 42
0.0625
 43
0.38
 44
0.18
 45
0.0
 46
0.0
 47
0.0
 48
0.0
 71
               0
 72
               0
 73
               1
 74
               1
 75
               0
 76
               0
 77
               0
 78
               0
 79
               0
140
0.18
141
0.09
142
0.0
143
25.399999999999999
144
1.0
145
0.0
146
1.0
147
0.09
148
0.0
170
               0
171
               2
172
               0
173
               0
174
               0
175
               0
176
               0
177
               0
178
               0
179
               0
271
               4
272
               4
273
               2
274
               2
275
               0
276
               0
277
               2
278
              46
279
               0
280
               0
281
               0
282
               0
283
               1
284
               0
285
               0
286
               0
288
               0
289
               3
340
17
341
0
342
0
343
0
344
0
371
              -2
372
              -2
  0
DIMSTYLE
105
5C
100
AcDbSymbolTableRecord
100
AcDbDimStyleTableRecord
  2
Tform線あり
 70
               0
  3
<>
  4
[]
 40
1.0
 41
9.9993896484374982
 42
24.999999999999996
 43
0.9999999999999999
 44
0.0
 45
0.0
 46
0.0
 47
0.0
 48
0.0
 71
               0
 72
               0
 73
               0
 74
               0
 75
               0
 76
               0
 77
               1
 78
              11
 79
               0
140
24.432617187500004
141
0.0
142
0.0
143
1.0
144
1.0
145
0.0
146
0.8
147
0.4999999999999999
148
0.0
170
               0
171
               1
172
               1
173
               0
174
               1
175
               0
176
               0
177
               0
178
               0
179
               2
271
               1
272
               1
273
               2
274
               2
275
               0
276
               2
277
               2
278
              46
279
               0
280
               0
281
               0
282
               0
283
               1
284
              11
285
              11
286
              11
288
               0
289
               0
340
42
341
54
342
54
343
0
344
0
371
              -2
372
              -2
  0
DIMSTYLE
105
66
100
AcDbSymbolTableRecord
100
AcDbDimStyleTableRecord
  2
Arch
 70
               0
  3
<>
  4
[]
 40
1.0
 41
22.4482421875
 42
15.875
 43
10.16
 44
31.75
 45
0.0
 46
1.5874999999999999
 47
0.0
 48
0.0
 71
               0
 72
               0
 73
               0
 74
               0
 75
               0
 76
               0
 77
               1
 78
              11
 79
               0
140
24.432617187500004
141
0.0
142
0.0
143
1.0
144
1.0
145
0.0
146
1.0
147
1.5874999999999999
148
0.0
170
               0
171
               1
172
               1
173
               0
174
               1
175
               0
176
               0
177
               0
178
               0
179
               2
271
               1
272
               1
273
               2
274
               2
275
               0
276
               2
277
               2
278
              46
279
               0
280
               0
281
               0
282
               0
283
               1
284
              11
285
              11
286
              11
288
               0
289
               0
340
42
341
62
342
5D
343
0
344
0
371
              -2
372
              -2
  0
ENDTAB
  0
TABLE
  2
BLOCK_RECORD
  5
1
100
AcDbSymbolTable
 70
              34
  0
BLOCK_RECORD
  5
A
100
AcDbSymbolTableRecord
100
AcDbBlockTableRecord
  2
*MODEL_SPACE
340
20
  0
BLOCK_RECORD
  5
B
100
AcDbSymbolTableRecord
100
AcDbBlockTableRecord
  2
*PAPER_SPACE
340
21
  0
BLOCK_RECORD
  5
54
100
AcDbSymbolTableRecord
100
AcDbBlockTableRecord
  2
_DOT
340
0
  0
BLOCK_RECORD
  5
5D
100
AcDbSymbolTableRecord
100
AcDbBlockTableRecord
  2
VW_SLASH
340
0
  0
BLOCK_RECORD
  5
62
100
AcDbSymbolTableRecord
100
AcDbBlockTableRecord
  2
VW_FILLEDARROW
340
0
  0
BLOCK_RECORD
  5
23
100
AcDbSymbolTableRecord
100
AcDbBlockTableRecord
  2
グループ
340
0
102
{BLKREFS
331
1D7
102
}
  0
BLOCK_RECORD
  5
24
100
AcDbSymbolTableRecord
100
AcDbBlockTableRecord
  2
*D4
340
0
  0
BLOCK_RECORD
  5
25
100
AcDbSymbolTableRecord
100
AcDbBlockTableRecord
  2
*D5
340
0
  0
BLOCK_RECORD
  5
26
100
AcDbSymbolTableRecord
100
AcDbBlockTableRecord
  2
*D6
340
0
  0
BLOCK_RECORD
  5
27
100
AcDbSymbolTableRecord
100
AcDbBlockTableRecord
  2
*D7
340
0
  0
BLOCK_RECORD
  5
28
100
AcDbSymbolTableRecord
100
AcDbBlockTableRecord
  2
*D8
340
0
  0
BLOCK_RECORD
  5
29
100
AcDbSymbolTableRecord
100
AcDbBlockTableRecord
  2
*D9
340
0
  0
BLOCK_RECORD
  5
2A
100
AcDbSymbolTableRecord
100
AcDbBlockTableRecord
  2
*D10
340
0
  0
BLOCK_RECORD
  5
2B
100
AcDbSymbolTableRecord
100
AcDbBlockTableRecord
  2
*D11
340
0
  0
BLOCK_RECORD
  5
2C
100
AcDbSymbolTableRecord
100
AcDbBlockTableRecord
  2
*D12
340
0
  0
BLOCK_RECORD
  5
2D
100
AcDbSymbolTableRecord
100
AcDbBlockTableRecord
  2
*D13
340
0
  0
BLOCK_RECORD
  5
2E
100
AcDbSymbolTableRecord
100
AcDbBlockTableRecord
  2
*D14
340
0
  0
BLOCK_RECORD
  5
2F
100
AcDbSymbolTableRecord
100
AcDbBlockTableRecord
  2
*D15
340
0
  0
BLOCK_RECORD
  5
30
100
AcDbSymbolTableRecord
100
AcDbBlockTableRecord
  2
*D16
340
0
  0
BLOCK_RECORD
  5
31
100
AcDbSymbolTableRecord
100
AcDbBlockTableRecord
  2
*D17
340
0
  0
BLOCK_RECORD
  5
32
100
AcDbSymbolTableRecord
100
AcDbBlockTableRecord
  2
*D18
340
0
  0
BLOCK_RECORD
  5
33
100
AcDbSymbolTableRecord
100
AcDbBlockTableRecord
  2
*D19
340
0
  0
BLOCK_RECORD
  5
34
100
AcDbSymbolTableRecord
100
AcDbBlockTableRecord
  2
*D20
340
0
  0
BLOCK_RECORD
  5
35
100
AcDbSymbolTableRecord
100
AcDbBlockTableRecord
  2
*D21
340
0
  0
BLOCK_RECORD
  5
36
100
AcDbSymbolTableRecord
100
AcDbBlockTableRecord
  2
*D22
340
0
  0
BLOCK_RECORD
  5
37
100
AcDbSymbolTableRecord
100
AcDbBlockTableRecord
  2
*D23
340
0
  0
BLOCK_RECORD
  5
38
100
AcDbSymbolTableRecord
100
AcDbBlockTableRecord
  2
*D24
340
0
  0
BLOCK_RECORD
  5
39
100
AcDbSymbolTableRecord
100
AcDbBlockTableRecord
  2
グループ-1
340
0
102
{BLKREFS
331
205
102
}
  0
BLOCK_RECORD
  5
3A
100
AcDbSymbolTableRecord
100
AcDbBlockTableRecord
  2
*D26
340
0
  0
BLOCK_RECORD
  5
3B
100
AcDbSymbolTableRecord
100
AcDbBlockTableRecord
  2
*D27
340
0
  0
BLOCK_RECORD
  5
3C
100
AcDbSymbolTableRecord
100
AcDbBlockTableRecord
  2
*D28
340
0
  0
BLOCK_RECORD
  5
3D
100
AcDbSymbolTableRecord
100
AcDbBlockTableRecord
  2
*D29
340
0
  0
BLOCK_RECORD
  5
3E
100
AcDbSymbolTableRecord
100
AcDbBlockTableRecord
  2
グループ-2
340
0
102
{BLKREFS
331
254
102
}
  0
BLOCK_RECORD
  5
3F
100
AcDbSymbolTableRecord
100
AcDbBlockTableRecord
  2
グループ-3
340
0
102
{BLKREFS
331
257
102
}
  0
BLOCK_RECORD
  5
40
100
AcDbSymbolTableRecord
100
AcDbBlockTableRecord
  2
グループ-4
340
0
102
{BLKREFS
331
258
102
}
  0
BLOCK_RECORD
  5
41
100
AcDbSymbolTableRecord
100
AcDbBlockTableRecord
  2
グループ-5
340
0
102
{BLKREFS
331
259
102
}
  0
ENDTAB
  0
ENDSEC
  0
SECTION
  2
BLOCKS
  0
BLOCK
  5
D
100
AcDbEntity
  8
0
390
0
100
AcDbBlockBegin
  2
*MODEL_SPACE
 70
               0
 10
0.0
 20
0.0
 30
0.0
  3
*MODEL_SPACE
  1

  0
ENDBLK
  5
E
100
AcDbEntity
  8
0
390
0
100
AcDbBlockEnd
  0
BLOCK
  5
F
100
AcDbEntity
 67
               1
  8
0
390
0
100
AcDbBlockBegin
  2
*PAPER_SPACE
 70
               0
 10
0.0
 20
0.0
 30
0.0
  3
*PAPER_SPACE
  1

  0
ENDBLK
  5
10
100
AcDbEntity
 67
               1
  8
0
390
0
100
AcDbBlockEnd
  0
BLOCK
  5
55
100
AcDbEntity
  8
0
390
0
100
AcDbBlockBegin
  2
_DOT
 70
               0
 10
0.0
 20
0.0
 30
0.0
  3
_DOT
  1

  0
POLYLINE
  5
56
100
AcDbEntity
  8
0
370
              -2
390
0
  6
ByBlock
 62
               0
100
AcDb2dPolyline
 66
               1
 10
0.0
 20
0.0
 30
0.0
 70
               1
 40
0.5
 41
0.5
  0
VERTEX
  5
57
100
AcDbEntity
  8
0
370
              -2
390
0
  6
ByBlock
 62
               0
100
AcDbVertex
100
AcDb2dVertex
 10
-0.25
 20
0.0
 30
0.0
 42
1.0
  0
VERTEX
  5
58
100
AcDbEntity
  8
0
370
              -2
390
0
  6
ByBlock
 62
               0
100
AcDbVertex
100
AcDb2dVertex
 10
0.25
 20
0.0
 30
0.0
 42
1.0
  0
SEQEND
  5
59
100
AcDbEntity
  8
0
390
0
  0
LINE
  5
5A
100
AcDbEntity
  8
0
370
              -2
390
0
  6
ByBlock
 62
               0
100
AcDbLine
 10
-0.5
 20
0.0
 30
0.0
 11
-1.0
 21
0.0
 31
0.0
  0
ENDBLK
  5
5B
100
AcDbEntity
  8
0
390
0
100
AcDbBlockEnd
  0
BLOCK
  5
5E
100
AcDbEntity
  8
0
370
              -2
390
0
  6
ByBlock
 62
               0
100
AcDbBlockBegin
  2
VW_SLASH
 70
               0
 10
0.0
 20
0.0
 30
0.0
  3
VW_SLASH
  1

  0
LINE
  5
5F
100
AcDbEntity
  8
0
370
              -2
390
0
  6
ByBlock
 62
               0
100
AcDbLine
 10
0.0
 20
0.0
 30
0.0
 11
-1.0
 21
0.0
 31
0.0
  0
LINE
  5
60
100
AcDbEntity
  8
0
370
              20
390
0
  6
ByBlock
 62
               0
100
AcDbLine
 10
-0.4987813153181721
 20
-0.4987813153181719
 30
0.0
 11
0.4987813153181721
 21
0.4987813153181719
 31
0.0
  0
ENDBLK
  5
61
100
AcDbEntity
  8
0
390
0
100
AcDbBlockEnd
  0
BLOCK
  5
63
100
AcDbEntity
  8
0
370
              -2
390
0
  6
ByBlock
 62
               0
100
AcDbBlockBegin
  2
VW_FILLEDARROW
 70
               0
 10
0.0
 20
0.0
 30
0.0
  3
VW_FILLEDARROW
  1

  0
SOLID
  5
64
100
AcDbEntity
  8
0
370
              -2
390
0
 62
               0
100
AcDbTrace
 10
0.0
 20
0.0
 30
0.0
 11
-1.4107666015625
 21
-0.3780137715974714
 31
0.0
 12
-1.4107666015625
 22
0.3780137715974717
 32
0.0
 13
-1.4107666015625
 23
0.3780137715974717
 33
0.0
  0
ENDBLK
  5
65
100
AcDbEntity
  8
0
390
0
100
AcDbBlockEnd
  0
BLOCK
  5
67
100
AcDbEntity
  8
template
390
0
100
AcDbBlockBegin
  2
グループ
 70
               0
 10
0.0
 20
0.0
 30
0.0
  3
グループ
  1

  0
LWPOLYLINE
  5
68
100
AcDbEntity
  8
0
370
              15
390
0
  6
Continuous
 62
               7
100
AcDbPolyline
 90
        8
 70
             129
 10
-803.77448302737162
 20
-5565.6219436387373
 10
-803.77448302737162
 20
-5571.6193323323132
 10
-813.27567994537492
 20
-5571.6193323323132
 10
-813.27567994537492
 20
-5596.0702955958222
 10
-821.63105720715771
 20
-5596.0702955958222
 10
-821.63105720715771
 20
-5571.6193323323132
 10
-830.96401415346713
 20
-5571.6193323323132
 10
-830.96401415346713
 20
-5565.6219436387373
  0
LWPOLYLINE
  5
69
100
AcDbEntity
  8
0
370
              15
390
0
  6
Continuous
 62
               7
100
AcDbPolyline
 90
      101
 70
             128
 10
-791.04619119681468
 20
-5566.3501921316738
 10
-791.03084116803541
 20
-5566.3458313749907
 42
-0.0222221607814361
 10
-790.74083659135863
 20
-5566.2772069097446
 10
-790.72504282735417
 20
-5566.2742034866451
 42
-0.0146883565569374
 10
-790.46234012214086
 20
-5566.232200299698
 42
-0.0127458844186948
 10
-790.19770115496726
 20
-5566.204663331624
 10
-790.135246076675
 20
-5566.1997699090371
 42
-0.0198099018560845
 10
-789.74439696720378
 20
-5566.1846847516399
 10
-789.69258549775441
 20
-5566.1847385273049
 42
-0.014761738276271
 10
-789.19796203677822
 20
-5566.1998585525507
 10
-789.12527058188959
 20
-5566.2042311594396
 42
-0.0162624548998702
 10
-788.73511695244065
 20
-5566.2404640347104
 10
-788.61358456117114
 20
-5566.2557505937075
 42
-0.0080020874637098
 10
-788.46800553008984
 20
-5566.2764334409749
 10
-788.42968605956492
 20
-5566.2825047187753
 42
-0.0053821929710036
 10
-788.36120195418005
 20
-5566.2941122426082
 10
-789.08760765337865
 20
-5568.4750406983221
 42
0.0108667757410794
 10
-789.15492472350104
 20
-5568.4618535831041
 10
-789.19239274669894
 20
-5568.4553558405078
 42
0.0170663203322662
 10
-789.3356095336203
 20
-5568.4355262432155
 10
-789.4034848662975
 20
-5568.4284790726288
 42
0.0220162375295323
 10
-789.68386427415521
 20
-5568.4117967118582
 10
-789.76171984121697
 20
-5568.4105973445912
 42
0.0282606915793214
 10
-790.09735616478281
 20
-5568.4244006215604
 10
-790.14126943855513
 20
-5568.4287006115637
 42
0.0169677213701441
 10
-790.38719393351403
 20
-5568.4612376611167
 42
0.0190576269879252
 10
-790.63010189610259
 20
-5568.5113845332253
 10
-790.63636108420496
 20
-5568.5129275073323
 42
0.0213685642838165
 10
-790.88674556867454
 20
-5568.5861277924341
 10
-790.89223546359892
 20
-5568.5879907884955
 42
0.0237595297567428
 10
-791.14573034848934
 20
-5568.687675310387
 10
-791.15083242252729
 20
-5568.6899670858693
 42
0.0261857468804609
 10
-791.40300319876349
 20
-5568.8195034232476
 10
-791.41342938785306
 20
-5568.8255688977179
 42
0.0272553062024101
 10
-791.64985916308274
 20
-5568.9809411036567
 10
-791.68462217659783
 20
-5569.0066022517531
 42
0.0325996893212827
 10
-791.83477752024373
 20
-5569.1333501247209
 10
-791.85848694935839
 20
-5569.1561681532248
 42
0.0138050960597942
 10
-791.95037010557689
 20
-5569.2496178147849
 42
0.0125280103823653
 10
-792.03721263841771
 20
-5569.3477811413932
 10
-792.06089308331877
 20
-5569.3759396395726
 42
0.0205218024730985
 10
-792.18599315882761
 20
-5569.5377329537941
 10
-792.20845949931959
 20
-5569.5693926836284
 42
0.0163110129581581
 10
-792.36416987857035
 20
-5569.8047231186965
 10
-792.36689377462187
 20
-5569.8091468806833
 42
0.0131897341901284
 10
-792.51369429552483
 20
-5570.0622789730423
 10
-792.51539439089424
 20
-5570.0653972121836
 42
0.0107895576054576
 10
-792.65317109310513
 20
-5570.331612421819
 10
-792.65390398263003
 20
-5570.3331066544652
 42
0.0091371507213268
 10
-792.78238393128061
 20
-5570.6076318522273
 10
-792.81212956268882
 20
-5570.6743383593839
 42
0.0135418326355149
 10
-792.98384350176104
 20
-5571.0892761446539
 10
-793.01744831019482
 20
-5571.1771422869342
 42
0.0092834542412868
 10
-793.18867737011556
 20
-5571.6510407852393
 10
-793.21429449783136
 20
-5571.7262818550271
 42
0.0054261043575506
 10
-793.32193264612624
 20
-5572.0540458280975
 10
-793.33945863231463
 20
-5572.109433990362
 42
0.0008225090826379
 10
-793.40812868413366
 20
-5572.3277027484773
 10
-794.39281781606712
 20
-5575.3525940417339
 10
-791.16019397599325
 20
-5575.3525940417339
 10
-791.6643864058467
 20
-5577.2570723400859
 10
-794.92044268783002
 20
-5577.2570723400859
 10
-800.74959172018384
 20
-5596.0702954060907
 10
-802.57468933049415
 20
-5596.0702954060907
 10
-796.74001129499322
 20
-5577.2570723400859
 10
-799.14512766403357
 20
-5577.2570723400859
 10
-798.64093523418012
 20
-5575.3525940417339
 10
-796.2123864232301
 20
-5575.3525940417339
 10
-795.35223150504146
 20
-5572.7161810410344
 42
-0.0005863560656061
 10
-795.31549682687034
 20
-5572.5993546208465
 10
-795.23940899317756
 20
-5572.3583623213581
 42
-0.0087522378929294
 10
-795.03994084971953
 20
-5571.7630862342085
 10
-794.94767657430646
 20
-5571.5029460656961
 42
-0.0077400953825944
 10
-794.68974291517611
 20
-5570.80994138815
 10
-794.67397794360011
 20
-5570.7695105047715
 42
-0.0082369946331917
 10
-794.42689347298528
 20
-5570.1654314385687
 42
-0.0085725238365023
 10
-794.15964737698118
 20
-5569.5700053992787
 10
-794.05801777597435
 20
-5569.3535842972942
 42
-0.0168109410604912
 10
-793.77107334724496
 20
-5568.7923767711909
 10
-793.64522995688628
 20
-5568.565412738375
 42
-0.000781772690924
 10
-793.59094560672929
 20
-5568.4678684931632
 10
-793.59081730073865
 20
-5568.4676387844747
 42
-0.0036626142146571
 10
-793.53592943669082
 20
-5568.3710409044579
 42
-0.0080221150643324
 10
-793.47880518128682
 20
-5568.2757616697099
 10
-793.44810522992293
 20
-5568.226370720583
 42
-0.0202139325585788
 10
-793.32044949011993
 20
-5568.0383891199062
 10
-793.26638202492859
 20
-5567.9653102556604
 42
-0.0249323791797811
 10
-793.00721923120921
 20
-5567.649265013506
 10
-792.98307941708242
 20
-5567.6226507405936
 42
-0.0242132121538123
 10
-792.64339867553826
 20
-5567.2827672543881
 10
-792.59548710279387
 20
-5567.2392581182075
 42
-0.0251017527863551
 10
-792.31150540214912
 20
-5567.006265372439
 10
-792.3100599253446
 20
-5567.0051961148665
 42
-0.0130868069031074
 10
-792.01179927537805
 20
-5566.7964156463177
 10
-792.01023745623309
 20
-5566.7953822060408
 42
-0.0290329526385782
 10
-791.69912631484203
 20
-5566.6145567044132
 10
-791.66928075285227
 20
-5566.599454321572
 42
-0.0160250190051633
 10
-791.40337633909121
 20
-5566.4754382113606
 42
-0.0267600374778507
 10
-791.12810026162242
 20
-5566.3746898908121
 10
-791.10136434210165
 20
-5566.3664973319865
 42
-0.0049981587672691
 10
-791.04619119681468
 20
-5566.3501921316738
 42
-0.0049981587672691
  0
LWPOLYLINE
  5
6A
100
AcDbEntity
  8
0
370
              15
390
0
  6
Continuous
 62
               7
100
AcDbPolyline
 90
      118
 70
             128
 10
-771.23182363236776
 20
-5575.4265773695606
 10
-769.3567017078683
 20
-5575.4265773695606
 10
-770.19474061346818
 20
-5578.1081438959609
 42
-0.0010587229188221
 10
-770.1632847979123
 20
-5578.0712393626245
 10
-770.10509070726425
 20
-5578.0032571064303
 42
-0.0071874740420085
 10
-769.95471548916987
 20
-5577.8326164144055
 10
-769.81299271590399
 20
-5577.6763802730875
 42
-0.0148118053511524
 10
-769.3628634231867
 20
-5577.2087664270703
 10
-769.27564108826743
 20
-5577.1233691061998
 42
-0.0086273358685292
 10
-768.940092287281
 20
-5576.8059934722041
 10
-768.89625857105261
 20
-5576.7659438278688
 42
-0.010313832309124
 10
-768.63823486882166
 20
-5576.539780690533
 10
-768.59246046250246
 20
-5576.5012986432794
 42
-0.0060206748555847
 10
-768.41961239838236
 20
-5576.3595039925185
 10
-768.41758126748869
 20
-5576.3578782868808
 42
-0.0067069027278682
 10
-768.24528845283385
 20
-5576.2237276530923
 10
-768.24273968689636
 20
-5576.2217974832083
 42
-0.0076184352042838
 10
-768.07183442103656
 20
-5576.0964226079741
 42
-0.0089652861668753
 10
-767.89687345830839
 20
-5575.9767893476446
 10
-767.86052173814949
 20
-5575.9528781341523
 42
-0.0156916245939776
 10
-767.66456224099693
 20
-5575.8326156476833
 42
-0.0023299011071897
 10
-767.46430019708282
 20
-5575.7194377081796
 10
-767.44891606463727
 20
-5575.710837713078
 42
-0.0107669341465194
 10
-767.21467923954924
 20
-5575.5864375797346
 10
-767.19241443846113
 20
-5575.5752208297781
 42
-0.0078058045889648
 10
-766.90882432051626
 20
-5575.437859374143
 10
-766.89891723279925
 20
-5575.4332502462712
 42
-0.0181829330472362
 10
-766.58860782819795
 20
-5575.3023865051819
 10
-766.53455238562299
 20
-5575.2818713852348
 42
-0.0208411536034227
 10
-766.18546741816658
 20
-5575.1657809227399
 10
-766.1711113180462
 20
-5575.161662477788
 42
-0.0222799817147609
 10
-765.84239152412192
 20
-5575.0830209116457
 10
-765.83350256087078
 20
-5575.081308901058
 42
-0.0215509523881152
 10
-765.51703159260501
 20
-5575.034393212527
 10
-765.47454963156952
 20
-5575.0299556857371
 42
-0.0182545924867398
 10
-765.24044085225091
 20
-5575.0141118603442
 10
-765.20103983593162
 20
-5575.0128873152662
 42
-0.0072962856571108
 10
-765.04511695621386
 20
-5575.0103179867438
 10
-765.01601728567653
 20
-5575.01026315134
 42
-0.0059227516325682
 10
-764.91826778649693
 20
-5575.0112368631299
 10
-764.88902556898836
 20
-5575.0118746297339
 42
-0.0011833111995326
 10
-764.8497742852926
 20
-5575.0128236340433
 10
-765.64516088089977
 20
-5577.5515575791424
 42
0.0143932051635778
 10
-765.6715622632471
 20
-5577.5413586090981
 10
-765.67883423566764
 20
-5577.53878739024
 42
0.0234388603466587
 10
-765.72066510160005
 20
-5577.5261681545235
 10
-765.72934676451246
 20
-5577.5239871925187
 42
0.0199162742970862
 10
-765.78963559858653
 20
-5577.511370457185
 10
-765.81044953639866
 20
-5577.5078732577549
 42
0.0293643550642459
 10
-765.91352439516334
 20
-5577.4967232121016
 10
-765.93820957587809
 20
-5577.4955115950834
 42
0.0214606686832594
 10
-766.09135049182294
 20
-5577.4945730346662
 10
-766.10072240264856
 20
-5577.494917946211
 42
0.016756405417532
 10
-766.27224259375987
 20
-5577.5069949885792
 10
-766.28070238651594
 20
-5577.5078763290057
 42
0.0137677553203916
 10
-766.46805569977471
 20
-5577.5326256375474
 10
-766.47540743928857
 20
-5577.5338035575169
 42
0.0118497261470542
 10
-766.67590520338297
 20
-5577.5708209077047
 10
-766.68205521063715
 20
-5577.5721077704266
 42
0.0106421143906248
 10
-766.89293609794265
 20
-5577.6209401460073
 10
-766.89784490631121
 20
-5577.6221874886869
 42
0.0099746379724868
 10
-767.11630337546899
 20
-5577.6823620169998
 10
-767.177851415644
 20
-5577.7006438956323
 42
0.0191613675861633
 10
-767.51383587815837
 20
-5577.8146212759184
 10
-767.60189565090616
 20
-5577.8483081862432
 42
0.0205274080154103
 10
-767.98720242280569
 20
-5578.014136594069
 10
-768.04485170479131
 20
-5578.041804558643
 42
0.018125691220736
 10
-768.30312864545465
 20
-5578.1774883776197
 10
-768.35608402875516
 20
-5578.2078059908263
 42
0.0140709242398401
 10
-768.50103896339692
 20
-5578.2963006642685
 10
-768.52728783201917
 20
-5578.3133574829862
 42
0.0086667884387314
 10
-768.61621399355795
 20
-5578.3733601508666
 42
0.0036408191959702
 10
-768.70364723155967
 20
-5578.4355410086364
 10
-768.73887410605994
 20
-5578.4609819545722
 42
0.0052260781285029
 10
-768.895102803447
 20
-5578.5763143412032
 10
-768.9113096597107
 20
-5578.5885424518247
 42
0.0050024435863816
 10
-769.09731300270175
 20
-5578.7318250200333
 10
-769.11263115928466
 20
-5578.7438710425322
 42
0.0136138710275613
 10
-769.3230724276209
 20
-5578.918837547455
 10
-769.35674030340351
 20
-5578.9484165201593
 42
0.0172815186905865
 10
-769.62114384506242
 20
-5579.1974131927791
 10
-769.62370619090871
 20
-5579.1999990099303
 42
0.0189403857977902
 10
-769.87428798948486
 20
-5579.4728042747311
 10
-769.90691948302424
 20
-5579.5111482062321
 42
0.0185044199507574
 10
-770.0988759220038
 20
-5579.7543967873553
 42
0.0088565243903058
 10
-770.27733602864214
 20
-5580.0079132075198
 10
-770.28651400828073
 20
-5580.021454587265
 42
0.0157195347235681
 10
-770.4697346146163
 20
-5580.3109767965834
 10
-770.51581755654377
 20
-5580.3891289935982
 42
0.0095451879798883
 10
-770.68090310668333
 20
-5580.6817236359584
 10
-770.69205102561716
 20
-5580.7023943080985
 42
0.0100351706251426
 10
-770.82409477477222
 20
-5580.9594498685801
 42
0.0086935915427001
 10
-770.94642592657101
 20
-5581.2212830139952
 10
-770.94974666798078
 20
-5581.2287253369568
 42
0.0072580174855261
 10
-771.07009311992533
 20
-5581.5093173285386
 10
-771.07335475323202
 20
-5581.5172373545574
 42
0.0060005122618751
 10
-771.19255542158169
 20
-5581.8168470251812
 10
-771.19576639991635
 20
-5581.8252085530676
 42
0.0049017786986925
 10
-771.31466655877637
 20
-5582.1441375336799
 10
-771.31783236516424
 20
-5582.152890470903
 42
0.0039415167606315
 10
-771.43726864322082
 20
-5582.4914325333157
 10
-771.44039974587304
 20
-5582.5005357341925
 42
0.0031035838755126
 10
-771.56120453156086
 20
-5582.8589755959492
 10
-771.56431457609654
 20
-5582.86839621734
 42
0.0025070747144294
 10
-771.68721592740337
 20
-5583.2470434342576
 10
-771.72450982383725
 20
-5583.3639350995372
 42
0.0029081910282855
 10
-771.91652812164659
 20
-5583.9780987578233
 10
-771.95733129016514
 20
-5584.1113220001043
 42
0.0009266453735785
 10
-772.22574866449554
 20
-5584.9935464600803
 10
-772.24663613714051
 20
-5585.0626583393305
 42
-0.0005809993663322
 10
-772.52397281771164
 20
-5585.9764664459035
 10
-772.59025461597139
 20
-5586.1939513780198
 42
-0.0012018708171208
 10
-772.73723892541375
 20
-5586.6721140425834
 10
-772.78955877693522
 20
-5586.8408731833069
 42
-0.0002691059613613
 10
-772.83312825814789
 20
-5586.9811408037913
 10
-775.66608415643714
 20
-5596.0702954060907
 10
-777.48407304841567
 20
-5596.0702954060907
 10
-771.23182363236776
 20
-5575.4265773695606
  0
SPLINE
  5
6B
100
AcDbEntity
  8
0
370
              15
390
0
  6
Continuous
 62
               7
100
AcDbSpline
210
0.0
220
0.0
230
1.0
 70
              13
 71
               2
 72
             782
 73
             779
 74
               0
 42
0.000001
 43
0.000001
 40
0.0
 40
0.0
 40
0.0
 40
1.0
 40
1.0
 40
2.0
 40
2.0
 40
3.0
 40
3.0
 40
4.0
 40
4.0
 40
5.0
 40
5.0
 40
6.0
 40
6.0
 40
7.0
 40
7.0
 40
8.0
 40
8.0
 40
9.0
 40
9.0
 40
10.0
 40
10.0
 40
11.0
 40
11.0
 40
12.0
 40
12.0
 40
13.0
 40
13.0
 40
14.0
 40
14.0
 40
15.0
 40
15.0
 40
16.0
 40
16.0
 40
17.0
 40
17.0
 40
18.0
 40
18.0
 40
19.0
 40
19.0
 40
20.0
 40
20.0
 40
21.0
 40
21.0
 40
22.0
 40
22.0
 40
23.0
 40
23.0
 40
24.0
 40
24.0
 40
25.0
 40
25.0
 40
26.0
 40
26.0
 40
27.0
 40
27.0
 40
28.0
 40
28.0
 40
29.0
 40
29.0
 40
30.0
 40
30.0
 40
31.0
 40
31.0
 40
32.0
 40
32.0
 40
33.0
 40
33.0
 40
34.0
 40
34.0
 40
35.0
 40
35.0
 40
36.0
 40
36.0
 40
37.0
 40
37.0
 40
38.0
 40
38.0
 40
39.0
 40
39.0
 40
40.0
 40
40.0
 40
41.0
 40
41.0
 40
42.0
 40
42.0
 40
43.0
 40
43.0
 40
44.0
 40
44.0
 40
45.0
 40
45.0
 40
46.0
 40
46.0
 40
47.0
 40
47.0
 40
48.0
 40
48.0
 40
49.0
 40
49.0
 40
50.0
 40
50.0
 40
51.0
 40
51.0
 40
52.0
 40
52.0
 40
53.0
 40
53.0
 40
54.0
 40
54.0
 40
55.0
 40
55.0
 40
56.0
 40
56.0
 40
57.0
 40
57.0
 40
58.0
 40
58.0
 40
59.0
 40
59.0
 40
60.0
 40
60.0
 40
61.0
 40
61.0
 40
62.0
 40
62.0
 40
63.0
 40
63.0
 40
64.0
 40
64.0
 40
65.0
 40
65.0
 40
66.0
 40
66.0
 40
67.0
 40
67.0
 40
68.0
 40
68.0
 40
69.0
 40
69.0
 40
70.0
 40
70.0
 40
71.0
 40
71.0
 40
72.0
 40
72.0
 40
73.0
 40
73.0
 40
74.0
 40
74.0
 40
75.0
 40
75.0
 40
76.0
 40
76.0
 40
77.0
 40
77.0
 40
78.0
 40
78.0
 40
79.0
 40
79.0
 40
80.0
 40
80.0
 40
81.0
 40
81.0
 40
82.0
 40
82.0
 40
83.0
 40
83.0
 40
84.0
 40
84.0
 40
85.0
 40
85.0
 40
86.0
 40
86.0
 40
87.0
 40
87.0
 40
88.0
 40
88.0
 40
89.0
 40
89.0
 40
90.0
 40
90.0
 40
91.0
 40
91.0
 40
92.0
 40
92.0
 40
93.0
 40
93.0
 40
94.0
 40
94.0
 40
95.0
 40
95.0
 40
96.0
 40
96.0
 40
97.0
 40
97.0
 40
98.0
 40
98.0
 40
99.0
 40
99.0
 40
100.0
 40
100.0
 40
101.0
 40
101.0
 40
102.0
 40
102.0
 40
103.0
 40
103.0
 40
104.0
 40
104.0
 40
105.0
 40
105.0
 40
106.0
 40
106.0
 40
107.0
 40
107.0
 40
108.0
 40
108.0
 40
109.0
 40
109.0
 40
110.0
 40
110.0
 40
111.0
 40
111.0
 40
112.0
 40
112.0
 40
113.0
 40
113.0
 40
114.0
 40
114.0
 40
115.0
 40
115.0
 40
116.0
 40
116.0
 40
117.0
 40
117.0
 40
118.0
 40
118.0
 40
119.0
 40
119.0
 40
120.0
 40
120.0
 40
121.0
 40
121.0
 40
122.0
 40
122.0
 40
123.0
 40
123.0
 40
124.0
 40
124.0
 40
125.0
 40
125.0
 40
126.0
 40
126.0
 40
127.0
 40
127.0
 40
128.0
 40
128.0
 40
129.0
 40
129.0
 40
130.0
 40
130.0
 40
131.0
 40
131.0
 40
132.0
 40
132.0
 40
133.0
 40
133.0
 40
134.0
 40
134.0
 40
135.0
 40
135.0
 40
136.0
 40
136.0
 40
137.0
 40
137.0
 40
138.0
 40
138.0
 40
139.0
 40
139.0
 40
140.0
 40
140.0
 40
141.0
 40
141.0
 40
142.0
 40
142.0
 40
143.0
 40
143.0
 40
144.0
 40
144.0
 40
145.0
 40
145.0
 40
146.0
 40
146.0
 40
147.0
 40
147.0
 40
148.0
 40
148.0
 40
149.0
 40
149.0
 40
150.0
 40
150.0
 40
151.0
 40
151.0
 40
152.0
 40
152.0
 40
153.0
 40
153.0
 40
154.0
 40
154.0
 40
155.0
 40
155.0
 40
156.0
 40
156.0
 40
157.0
 40
157.0
 40
158.0
 40
158.0
 40
159.0
 40
159.0
 40
160.0
 40
160.0
 40
161.0
 40
161.0
 40
162.0
 40
162.0
 40
163.0
 40
163.0
 40
164.0
 40
164.0
 40
165.0
 40
165.0
 40
166.0
 40
166.0
 40
167.0
 40
167.0
 40
168.0
 40
168.0
 40
169.0
 40
169.0
 40
170.0
 40
170.0
 40
171.0
 40
171.0
 40
172.0
 40
172.0
 40
173.0
 40
173.0
 40
174.0
 40
174.0
 40
175.0
 40
175.0
 40
176.0
 40
176.0
 40
177.0
 40
177.0
 40
178.0
 40
178.0
 40
179.0
 40
179.0
 40
180.0
 40
180.0
 40
181.0
 40
181.0
 40
182.0
 40
182.0
 40
183.0
 40
183.0
 40
184.0
 40
184.0
 40
185.0
 40
185.0
 40
186.0
 40
186.0
 40
187.0
 40
187.0
 40
188.0
 40
188.0
 40
189.0
 40
189.0
 40
190.0
 40
190.0
 40
191.0
 40
191.0
 40
192.0
 40
192.0
 40
193.0
 40
193.0
 40
194.0
 40
194.0
 40
195.0
 40
195.0
 40
196.0
 40
196.0
 40
197.0
 40
197.0
 40
198.0
 40
198.0
 40
199.0
 40
199.0
 40
200.0
 40
200.0
 40
201.0
 40
201.0
 40
202.0
 40
202.0
 40
203.0
 40
203.0
 40
204.0
 40
204.0
 40
205.0
 40
205.0
 40
206.0
 40
206.0
 40
207.0
 40
207.0
 40
208.0
 40
208.0
 40
209.0
 40
209.0
 40
210.0
 40
210.0
 40
211.0
 40
211.0
 40
212.0
 40
212.0
 40
213.0
 40
213.0
 40
214.0
 40
214.0
 40
215.0
 40
215.0
 40
216.0
 40
216.0
 40
217.0
 40
217.0
 40
218.0
 40
218.0
 40
219.0
 40
219.0
 40
220.0
 40
220.0
 40
221.0
 40
221.0
 40
222.0
 40
222.0
 40
223.0
 40
223.0
 40
224.0
 40
224.0
 40
225.0
 40
225.0
 40
226.0
 40
226.0
 40
227.0
 40
227.0
 40
228.0
 40
228.0
 40
229.0
 40
229.0
 40
230.0
 40
230.0
 40
231.0
 40
231.0
 40
232.0
 40
232.0
 40
233.0
 40
233.0
 40
234.0
 40
234.0
 40
235.0
 40
235.0
 40
236.0
 40
236.0
 40
237.0
 40
237.0
 40
238.0
 40
238.0
 40
239.0
 40
239.0
 40
240.0
 40
240.0
 40
241.0
 40
241.0
 40
242.0
 40
242.0
 40
243.0
 40
243.0
 40
244.0
 40
244.0
 40
245.0
 40
245.0
 40
246.0
 40
246.0
 40
247.0
 40
247.0
 40
248.0
 40
248.0
 40
249.0
 40
249.0
 40
250.0
 40
250.0
 40
251.0
 40
251.0
 40
252.0
 40
252.0
 40
253.0
 40
253.0
 40
254.0
 40
254.0
 40
255.0
 40
255.0
 40
256.0
 40
256.0
 40
257.0
 40
257.0
 40
258.0
 40
258.0
 40
259.0
 40
259.0
 40
260.0
 40
260.0
 40
261.0
 40
261.0
 40
262.0
 40
262.0
 40
263.0
 40
263.0
 40
264.0
 40
264.0
 40
265.0
 40
265.0
 40
266.0
 40
266.0
 40
267.0
 40
267.0
 40
268.0
 40
268.0
 40
269.0
 40
269.0
 40
270.0
 40
270.0
 40
271.0
 40
271.0
 40
272.0
 40
272.0
 40
273.0
 40
273.0
 40
274.0
 40
274.0
 40
275.0
 40
275.0
 40
276.0
 40
276.0
 40
277.0
 40
277.0
 40
278.0
 40
278.0
 40
279.0
 40
279.0
 40
280.0
 40
280.0
 40
281.0
 40
281.0
 40
282.0
 40
282.0
 40
283.0
 40
283.0
 40
284.0
 40
284.0
 40
285.0
 40
285.0
 40
286.0
 40
286.0
 40
287.0
 40
287.0
 40
288.0
 40
288.0
 40
289.0
 40
289.0
 40
290.0
 40
290.0
 40
291.0
 40
291.0
 40
292.0
 40
292.0
 40
293.0
 40
293.0
 40
294.0
 40
294.0
 40
295.0
 40
295.0
 40
296.0
 40
296.0
 40
297.0
 40
297.0
 40
298.0
 40
298.0
 40
299.0
 40
299.0
 40
300.0
 40
300.0
 40
301.0
 40
301.0
 40
302.0
 40
302.0
 40
303.0
 40
303.0
 40
304.0
 40
304.0
 40
305.0
 40
305.0
 40
306.0
 40
306.0
 40
307.0
 40
307.0
 40
308.0
 40
308.0
 40
309.0
 40
309.0
 40
310.0
 40
310.0
 40
311.0
 40
311.0
 40
312.0
 40
312.0
 40
313.0
 40
313.0
 40
314.0
 40
314.0
 40
315.0
 40
315.0
 40
316.0
 40
316.0
 40
317.0
 40
317.0
 40
318.0
 40
318.0
 40
319.0
 40
319.0
 40
320.0
 40
320.0
 40
321.0
 40
321.0
 40
322.0
 40
322.0
 40
323.0
 40
323.0
 40
324.0
 40
324.0
 40
325.0
 40
325.0
 40
326.0
 40
326.0
 40
327.0
 40
327.0
 40
328.0
 40
328.0
 40
329.0
 40
329.0
 40
330.0
 40
330.0
 40
331.0
 40
331.0
 40
332.0
 40
332.0
 40
333.0
 40
333.0
 40
334.0
 40
334.0
 40
335.0
 40
335.0
 40
336.0
 40
336.0
 40
337.0
 40
337.0
 40
338.0
 40
338.0
 40
339.0
 40
339.0
 40
340.0
 40
340.0
 40
341.0
 40
341.0
 40
342.0
 40
342.0
 40
343.0
 40
343.0
 40
344.0
 40
344.0
 40
345.0
 40
345.0
 40
346.0
 40
346.0
 40
347.0
 40
347.0
 40
348.0
 40
348.0
 40
349.0
 40
349.0
 40
350.0
 40
350.0
 40
351.0
 40
351.0
 40
352.0
 40
352.0
 40
353.0
 40
353.0
 40
354.0
 40
354.0
 40
355.0
 40
355.0
 40
356.0
 40
356.0
 40
357.0
 40
357.0
 40
358.0
 40
358.0
 40
359.0
 40
359.0
 40
360.0
 40
360.0
 40
361.0
 40
361.0
 40
362.0
 40
362.0
 40
363.0
 40
363.0
 40
364.0
 40
364.0
 40
365.0
 40
365.0
 40
366.0
 40
366.0
 40
367.0
 40
367.0
 40
368.0
 40
368.0
 40
369.0
 40
369.0
 40
370.0
 40
370.0
 40
371.0
 40
371.0
 40
372.0
 40
372.0
 40
373.0
 40
373.0
 40
374.0
 40
374.0
 40
375.0
 40
375.0
 40
376.0
 40
376.0
 40
377.0
 40
377.0
 40
378.0
 40
378.0
 40
379.0
 40
379.0
 40
380.0
 40
380.0
 40
381.0
 40
381.0
 40
382.0
 40
382.0
 40
383.0
 40
383.0
 40
384.0
 40
384.0
 40
385.0
 40
385.0
 40
386.0
 40
386.0
 40
387.0
 40
387.0
 40
388.0
 40
388.0
 40
389.0
 40
389.0
 40
389.0
 10
-760.90311918163513
 20
-5575.4156510061985
 30
0.0
 41
1.0
 10
-760.08469507291466
 20
-5575.4156510061985
 30
0.0
 41
1.0
 10
-759.26627096419418
 20
-5575.4156510061985
 30
0.0
 41
1.0
 10
-759.68002469971088
 20
-5576.7582772704482
 30
0.0
 41
1.0
 10
-760.0937784352277
 20
-5578.1009035346979
 30
0.0
 41
1.0
 10
-760.07543894001083
 20
-5578.0722027617094
 30
0.0
 41
0.9999957264409296
 10
-760.05693194316405
 20
-5578.0436097115353
 30
0.0
 41
1.0
 10
-760.02650261905922
 20
-5577.996596833209
 30
0.0
 41
1.0
 10
-759.99607329495439
 20
-5577.9495839548836
 30
0.0
 41
1.0
 10
-759.9167076498486
 20
-5577.8269651479823
 30
0.0
 41
0.9995394069082436
 10
-759.83004925829516
 20
-5577.7093870862382
 30
0.0
 41
1.0
 10
-759.79429239603564
 20
-5577.6608721936445
 30
0.0
 41
1.0
 10
-759.75853553377624
 20
-5577.6123573010518
 30
0.0
 41
1.0
 10
-759.62480886596029
 20
-5577.4309170259276
 30
0.0
 41
0.9994460617143356
 10
-759.47930838467073
 20
-5577.2587746282761
 30
0.0
 41
1.0
 10
-759.47492020369816
 20
-5577.2535829478966
 30
0.0
 41
1.0
 10
-759.47053202272559
 20
-5577.248391267517
 30
0.0
 41
1.0
 10
-759.33380790338549
 20
-5577.0866322306292
 30
0.0
 41
0.9994359394933747
 10
-759.18653367303136
 20
-5576.9344160294622
 30
0.0
 41
1.0
 10
-759.18415031907318
 20
-5576.9319526990839
 30
0.0
 41
1.0
 10
-759.181766965115
 20
-5576.9294893687056
 30
0.0
 41
1.0
 10
-759.03925944267542
 20
-5576.7821998282925
 30
0.0
 41
0.9995293688568706
 10
-758.88798776169779
 20
-5576.6439266161324
 30
0.0
 41
1.0
 10
-758.86869400243518
 20
-5576.6262907304817
 30
0.0
 41
1.0
 10
-758.84940024317245
 20
-5576.6086548448311
 30
0.0
 41
1.0
 10
-758.73671608071902
 20
-5576.5056534039713
 30
0.0
 41
0.9997087614803401
 10
-758.61919319176059
 20
-5576.4082091231703
 30
0.0
 41
1.0
 10
-758.60002711859443
 20
-5576.3923175446707
 30
0.0
 41
1.0
 10
-758.58086104542815
 20
-5576.3764259661702
 30
0.0
 41
1.0
 10
-758.50167030280591
 20
-5576.3107648423729
 30
0.0
 41
0.999959533869254
 10
-758.42131103195038
 20
-5576.2465391117184
 30
0.0
 41
1.0
 10
-758.34095176109281
 20
-5576.1823133810612
 30
0.0
 41
0.9999749417508708
 10
-758.2596912267295
 20
-5576.1192318270987
 30
0.0
 41
1.0
 10
-758.23870508057166
 20
-5576.1029405398003
 30
0.0
 41
1.0
 10
-758.21771893441394
 20
-5576.0866492525029
 30
0.0
 41
1.0
 10
-758.13315104913033
 20
-5576.0210002426766
 30
0.0
 41
0.9999792037121486
 10
-758.04774344934935
 20
-5575.9564474610233
 30
0.0
 41
1.0
 10
-758.02691862343431
 20
-5575.9407076387633
 30
0.0
 41
1.0
 10
-758.00609379751938
 20
-5575.9249678165024
 30
0.0
 41
1.0
 10
-757.96233584950619
 20
-5575.8918946793247
 30
0.0
 41
0.999999337395288
 10
-757.91865416343671
 20
-5575.8587208839563
 30
0.0
 41
1.0
 10
-757.87497247729584
 20
-5575.8255470885342
 30
0.0
 41
0.9999160953816163
 10
-757.83044606637895
 20
-5575.7935160233383
 30
0.0
 41
1.0
 10
-757.79762417895699
 20
-5575.7699048677514
 30
0.0
 41
1.0
 10
-757.76480229153492
 20
-5575.7462937121645
 30
0.0
 41
1.0
 10
-757.65463210577843
 20
-5575.6670403357975
 30
0.0
 41
0.9980964527230619
 10
-757.53554311228129
 20
-5575.601952862944
 30
0.0
 41
1.0
 10
-757.49851050535131
 20
-5575.5817128833496
 30
0.0
 41
1.0
 10
-757.46147789842144
 20
-5575.5614729037552
 30
0.0
 41
1.0
 10
-757.28215088514844
 20
-5575.4634626530542
 30
0.0
 41
0.998457281057312
 10
-757.09306231878759
 20
-5575.3859403917068
 30
0.0
 41
1.0
 10
-757.08941604939628
 20
-5575.3844454993705
 30
0.0
 41
1.0
 10
-757.08576978000497
 20
-5575.3829506070342
 30
0.0
 41
1.0
 10
-756.90397375243413
 20
-5575.308418130362
 30
0.0
 41
0.9987838528032643
 10
-756.71572109386943
 20
-5575.2521524901949
 30
0.0
 41
1.0
 10
-756.71148314466836
 20
-5575.2508858365036
 30
0.0
 41
1.0
 10
-756.70724519546718
 20
-5575.2496191828131
 30
0.0
 41
1.0
 10
-756.52746843530656
 20
-5575.1958868500278
 30
0.0
 41
0.9990652816207213
 10
-756.34372250359434
 20
-5575.1578831704865
 30
0.0
 41
1.0
 10
-756.33853410255665
 20
-5575.1568100673785
 30
0.0
 41
1.0
 10
-756.33334570151885
 20
-5575.1557369642705
 30
0.0
 41
1.0
 10
-756.1599765718712
 20
-5575.1198794909433
 30
0.0
 41
0.9992909934271204
 10
-755.98440080542014
 20
-5575.0971690584774
 30
0.0
 41
1.0
 10
-755.80882503897362
 20
-5575.0744586260125
 30
0.0
 41
0.9994553539448462
 10
-755.63213360589361
 20
-5575.0633793218067
 30
0.0
 41
1.0
 10
-755.59669919808539
 20
-5575.0611574337581
 30
0.0
 41
1.0
 10
-755.56126479027728
 20
-5575.0589355457096
 30
0.0
 41
1.0
 10
-755.39503902370802
 20
-5575.0485124832976
 30
0.0
 41
0.9990928098292119
 10
-755.2285292318054
 20
-5575.0522721245325
 30
0.0
 41
1.0
 10
-755.18996739654722
 20
-5575.0531428160648
 30
0.0
 41
1.0
 10
-755.15140556128904
 20
-5575.054013507598
 30
0.0
 41
1.0
 10
-755.06201943991596
 20
-5575.0560317657664
 30
0.0
 41
0.9998382089204962
 10
-754.97276375711658
 20
-5575.0612638922958
 30
0.0
 41
1.0
 10
-754.97233385090817
 20
-5575.061289093197
 30
0.0
 41
1.0
 10
-754.97190394469987
 20
-5575.0613142940992
 30
0.0
 41
1.0
 10
-754.88350807434165
 20
-5575.0664960188224
 30
0.0
 41
0.9997558016756722
 10
-754.79542749712959
 20
-5575.0755785341898
 30
0.0
 41
1.0
 10
-754.79495135869888
 20
-5575.0756276316724
 30
0.0
 41
1.0
 10
-754.79447522026817
 20
-5575.075676729155
 30
0.0
 41
1.0
 10
-754.70734691992777
 20
-5575.0846610495555
 30
0.0
 41
0.9996565144179805
 10
-754.62080906658662
 20
-5575.0981983562451
 30
0.0
 41
1.0
 10
-754.62034314121206
 20
-5575.0982712419755
 30
0.0
 41
1.0
 10
-754.61987721583762
 20
-5575.0983441277067
 30
0.0
 41
1.0
 10
-754.53427121324808
 20
-5575.1117356629329
 30
0.0
 41
0.9995321806865526
 10
-754.44964413291666
 20
-5575.1303361513637
 30
0.0
 41
1.0
 10
-754.44925493833728
 20
-5575.1304216938315
 30
0.0
 41
1.0
 10
-754.44886574375789
 20
-5575.1305072362984
 30
0.0
 41
1.0
 10
-754.36501705258092
 20
-5575.1489366397955
 30
0.0
 41
0.9993819199220988
 10
-754.28267051839248
 20
-5575.1732120230536
 30
0.0
 41
1.0
 10
-754.2824320848988
 20
-5575.173282312162
 30
0.0
 41
1.0
 10
-754.28219365140501
 20
-5575.1733526012695
 30
0.0
 41
1.0
 10
-754.20032398419869
 20
-5575.1974874063135
 30
0.0
 41
0.9992088568505119
 10
-754.12063146520802
 20
-5575.2280526421091
 30
0.0
 41
1.0
 10
-754.04095047432691
 20
-5575.2586122428429
 30
0.0
 41
0.9990226101771856
 10
-753.96427980442184
 20
-5575.2960896744562
 30
0.0
 41
1.0
 10
-753.88762066262439
 20
-5575.3335614710086
 30
0.0
 41
0.9988424273971387
 10
-753.81491703541064
 20
-5575.3782262462628
 30
0.0
 41
1.0
 10
-753.8146493270317
 20
-5575.3783907103352
 30
0.0
 41
1.0
 10
-753.81438161865276
 20
-5575.3785551744068
 30
0.0
 41
1.0
 10
-753.74114257468284
 20
-5575.4235488778031
 30
0.0
 41
0.9986928844491494
 10
-753.67287970797213
 20
-5575.4757846120838
 30
0.0
 41
1.0
 10
-753.67229841574931
 20
-5575.4762294253123
 30
0.0
 41
1.0
 10
-753.67171712352661
 20
-5575.47667423854
 30
0.0
 41
1.0
 10
-753.60229167236957
 20
-5575.529799599276
 30
0.0
 41
0.9986007262277327
 10
-753.53886550260393
 20
-5575.5899603689686
 30
0.0
 41
1.0
 10
-753.53797108714707
 20
-5575.5908087368034
 30
0.0
 41
1.0
 10
-753.5370766716901
 20
-5575.5916571046382
 30
0.0
 41
1.0
 10
-753.4718616710046
 20
-5575.6535146100077
 30
0.0
 41
0.9985581491384145
 10
-753.41365405930185
 20
-5575.7220071002803
 30
0.0
 41
1.0
 10
-753.40439560570871
 20
-5575.7329014579791
 30
0.0
 41
1.0
 10
-753.39513715211569
 20
-5575.743795815677
 30
0.0
 41
1.0
 10
-753.31841263321962
 20
-5575.8340770213572
 30
0.0
 41
0.9970460233524131
 10
-753.25642073205927
 20
-5575.9350441055412
 30
0.0
 41
1.0
 10
-753.24195136698177
 20
-5575.9586105646194
 30
0.0
 41
1.0
 10
-753.22748200190415
 20
-5575.9821770236967
 30
0.0
 41
1.0
 10
-753.18774530189273
 20
-5576.0468967477264
 30
0.0
 41
0.9988468816634676
 10
-753.15439893114012
 20
-5576.1151292001559
 30
0.0
 41
1.0
 10
-753.14736290865085
 20
-5576.129526121289
 30
0.0
 41
1.0
 10
-753.14032688616157
 20
-5576.1439230424221
 30
0.0
 41
1.0
 10
-753.12105256039308
 20
-5576.1833616525737
 30
0.0
 41
0.9998431189997248
 10
-753.10318723289356
 20
-5576.223458207025
 30
0.0
 41
1.0
 10
-753.08532190537085
 20
-5576.2635547615273
 30
0.0
 41
0.9999989989908307
 10
-753.0673431819182
 20
-5576.3036005991798
 30
0.0
 41
1.0
 10
-753.06117087035318
 20
-5576.3173488159273
 30
0.0
 41
1.0
 10
-753.05499855878816
 20
-5576.3310970326747
 30
0.0
 41
1.0
 10
-753.02467521217659
 20
-5576.3986393038849
 30
0.0
 41
0.9998790356322868
 10
-752.99646733203087
 20
-5576.4670920558419
 30
0.0
 41
1.0
 10
-752.98963215075423
 20
-5576.4836791572507
 30
0.0
 41
1.0
 10
-752.98279696947759
 20
-5576.5002662586594
 30
0.0
 41
1.0
 10
-752.95923930709307
 20
-5576.5574342135551
 30
0.0
 41
0.9998227574562598
 10
-752.93785055870148
 20
-5576.6154485218376
 30
0.0
 41
1.0
 10
-752.91646181031183
 20
-5576.6734628301156
 30
0.0
 41
0.9996797971040609
 10
-752.89803552535295
 20
-5576.7324849492343
 30
0.0
 41
1.0
 10
-752.89413172262744
 20
-5576.7449894074034
 30
0.0
 41
1.0
 10
-752.89022791990192
 20
-5576.7574938655716
 30
0.0
 41
1.0
 10
-752.86399402949132
 20
-5576.8415249010286
 30
0.0
 41
0.99792749387345
 10
-752.8487695060121
 20
-5576.9282292596899
 30
0.0
 41
1.0
 10
-752.84654581875077
 20
-5576.940893260512
 30
0.0
 41
1.0
 10
-752.84432213148943
 20
-5576.953557261334
 30
0.0
 41
1.0
 10
-752.83339219179175
 20
-5577.0158037686188
 30
0.0
 41
0.9994985982135657
 10
-752.82642402661486
 20
-5577.0786172697626
 30
0.0
 41
1.0
 10
-752.81945586143786
 20
-5577.1414307709074
 30
0.0
 41
0.9996372611202224
 10
-752.81587999567023
 20
-5577.2045283495845
 30
0.0
 41
1.0
 10
-752.81571141818085
 20
-5577.2075029666676
 30
0.0
 41
1.0
 10
-752.81554284069148
 20
-5577.2104775837506
 30
0.0
 41
1.0
 10
-752.81162981994487
 20
-5577.2795243965893
 30
0.0
 41
0.9997730630734096
 10
-752.81066150645711
 20
-5577.3486752206281
 30
0.0
 41
1.0
 10
-752.81060440003898
 20
-5577.3527533997712
 30
0.0
 41
1.0
 10
-752.81054729362086
 20
-5577.3568315789153
 30
0.0
 41
1.0
 10
-752.8094647672965
 20
-5577.4341387612367
 30
0.0
 41
0.999877261407084
 10
-752.81080485402845
 20
-5577.5114419078045
 30
0.0
 41
1.0
 10
-752.81089411722712
 20
-5577.516591071636
 30
0.0
 41
1.0
 10
-752.8109833804258
 20
-5577.5217402354674
 30
0.0
 41
1.0
 10
-752.81250199355566
 20
-5577.6093417097181
 30
0.0
 41
0.9999415567328743
 10
-752.81591430380092
 20
-5577.6968898713767
 30
0.0
 41
1.0
 10
-752.81615562447632
 20
-5577.7030813311139
 30
0.0
 41
1.0
 10
-752.81639694515161
 20
-5577.7092727908512
 30
0.0
 41
1.0
 10
-752.82029189674756
 20
-5577.8092038719851
 30
0.0
 41
0.9999716810426216
 10
-752.82569047986658
 20
-5577.9090650102271
 30
0.0
 41
1.0
 10
-752.82890327865539
 20
-5577.9684942598842
 30
0.0
 41
1.0
 10
-752.83211607744408
 20
-5578.0279235095413
 30
0.0
 41
1.0
 10
-752.84018998659508
 20
-5578.1772719107948
 30
0.0
 41
0.9999819129889239
 10
-752.85005977821356
 20
-5578.3265123885376
 30
0.0
 41
1.0
 10
-752.85992956983011
 20
-5578.4757528662485
 30
0.0
 41
1.0
 10
-752.86236889039401
 20
-5578.5129459120981
 30
0.0
 41
1.0
 10
-752.83967065658283
 20
-5578.4742049148026
 30
0.0
 41
0.9999982128233421
 10
-752.81682609776101
 20
-5578.4355500207312
 30
0.0
 41
1.0
 10
-752.78991653789944
 20
-5578.3900168067157
 30
0.0
 41
1.0
 10
-752.76300697803788
 20
-5578.3444835927003
 30
0.0
 41
1.0
 10
-752.68634329951658
 20
-5578.214762270637
 30
0.0
 41
0.9998609190057847
 10
-752.60539598665093
 20
-5578.0876698887014
 30
0.0
 41
1.0
 10
-752.57574766517337
 20
-5578.0411201557508
 30
0.0
 41
1.0
 10
-752.5460993436958
 20
-5577.9945704228003
 30
0.0
 41
1.0
 10
-752.46382712345564
 20
-5577.8653978528
 30
0.0
 41
0.9999067609734044
 10
-752.37805811398562
 20
-5577.7385201633497
 30
0.0
 41
1.0
 10
-752.37565341079028
 20
-5577.7349628973025
 30
0.0
 41
1.0
 10
-752.37324870759494
 20
-5577.7314056312562
 30
0.0
 41
1.0
 10
-752.2922891045298
 20
-5577.6116424739193
 30
0.0
 41
0.9998784952148214
 10
-752.20763549484025
 20
-5577.4944612571999
 30
0.0
 41
1.0
 10
-752.12298188514978
 20
-5577.3772800404795
 30
0.0
 41
0.9998532968282184
 10
-752.03436426432393
 20
-5577.2630671320048
 30
0.0
 41
1.0
 10
-752.01440247534038
 20
-5577.2373398109939
 30
0.0
 41
1.0
 10
-751.99444068635682
 20
-5577.211612489984
 30
0.0
 41
1.0
 10
-751.87595663659579
 20
-5577.0589068790132
 30
0.0
 41
0.9991551975795586
 10
-751.74533218697161
 20
-5576.9164473169285
 30
0.0
 41
1.0
 10
-751.74182257099824
 20
-5576.9126197153109
 30
0.0
 41
1.0
 10
-751.73831295502498
 20
-5576.9087921136934
 30
0.0
 41
1.0
 10
-751.61470773735334
 20
-5576.7739877548502
 30
0.0
 41
0.9997418144181752
 10
-751.48510559764759
 20
-5576.6449383442323
 30
0.0
 41
1.0
 10
-751.35550345795332
 20
-5576.5158889336253
 30
0.0
 41
0.9989238204632023
 10
-751.21450090970416
 20
-5576.3994039715881
 30
0.0
 41
1.0
 10
-751.16925323156147
 20
-5576.3620239799766
 30
0.0
 41
1.0
 10
-751.12400555341867
 20
-5576.3246439883651
 30
0.0
 41
1.0
 10
-750.98376549619456
 20
-5576.2087889350714
 30
0.0
 41
0.999082508409635
 10
-750.83412556359144
 20
-5576.105359937239
 30
0.0
 41
1.0
 10
-750.82408019952243
 20
-5576.0984167241513
 30
0.0
 41
1.0
 10
-750.81403483545341
 20
-5576.0914735110637
 30
0.0
 41
1.0
 10
-750.68448563097922
 20
-5576.0019309394011
 30
0.0
 41
0.9998164899826039
 10
-750.55160142761122
 20
-5575.9174166978901
 30
0.0
 41
1.0
 10
-750.53975586709453
 20
-5575.9098829313698
 30
0.0
 41
1.0
 10
-750.52791030657795
 20
-5575.9023491648504
 30
0.0
 41
1.0
 10
-750.41871722424423
 20
-5575.8329024563791
 30
0.0
 41
0.9997473449130585
 10
-750.30651326698558
 20
-5575.7684334985579
 30
0.0
 41
1.0
 10
-750.19430930972885
 20
-5575.7039645407385
 30
0.0
 41
0.999932786114493
 10
-750.08064069897387
 20
-5575.6421145490613
 30
0.0
 41
1.0
 10
-750.08008869641253
 20
-5575.6418141903814
 30
0.0
 41
1.0
 10
-750.0795366938512
 20
-5575.6415138317025
 30
0.0
 41
1.0
 10
-749.96476407796251
 20
-5575.579063122661
 30
0.0
 41
0.9996956420483812
 10
-749.84705075212196
 20
-5575.5223496556864
 30
0.0
 41
1.0
 10
-749.81661034724107
 20
-5575.5076836789613
 30
0.0
 41
1.0
 10
-749.78616994236017
 20
-5575.493017702237
 30
0.0
 41
1.0
 10
-749.68319283560561
 20
-5575.4434040437891
 30
0.0
 41
0.9998070570176899
 10
-749.57834644665593
 20
-5575.3978734568836
 30
0.0
 41
1.0
 10
-749.47350005770966
 20
-5575.3523428699809
 30
0.0
 41
0.999782743614797
 10
-749.36684712109991
 20
-5575.3112216986692
 30
0.0
 41
1.0
 10
-749.34762427147109
 20
-5575.3038101250377
 30
0.0
 41
1.0
 10
-749.32840142184227
 20
-5575.2963985514061
 30
0.0
 41
1.0
 10
-749.1833027859642
 20
-5575.2404542328277
 30
0.0
 41
0.9988031841978315
 10
-749.03343242335541
 20
-5575.1989541686589
 30
0.0
 41
1.0
 10
-749.00851517499791
 20
-5575.1920544228542
 30
0.0
 41
1.0
 10
-748.9835979266403
 20
-5575.1851546770486
 30
0.0
 41
1.0
 10
-748.81632790099161
 20
-5575.1388365346411
 30
0.0
 41
0.9984748040550074
 10
-748.64497099234234
 20
-5575.111242302376
 30
0.0
 41
1.0
 10
-748.64023185609358
 20
-5575.110479141862
 30
0.0
 41
1.0
 10
-748.63549271984471
 20
-5575.1097159813489
 30
0.0
 41
1.0
 10
-748.47361408369375
 20
-5575.0836480701109
 30
0.0
 41
0.9984436495478749
 10
-748.30983933996868
 20
-5575.0757701162929
 30
0.0
 41
1.0
 10
-748.28814213183352
 20
-5575.0747264290931
 30
0.0
 41
1.0
 10
-748.26644492369837
 20
-5575.0736827418932
 30
0.0
 41
1.0
 10
-748.14606459624008
 20
-5575.067892162474
 30
0.0
 41
0.9987954789335692
 10
-748.02569635133409
 20
-5575.0739286902162
 30
0.0
 41
1.0
 10
-748.00573155883944
 20
-5575.0749299345553
 30
0.0
 41
1.0
 10
-747.9857667663448
 20
-5575.0759311788934
 30
0.0
 41
1.0
 10
-747.90532810642424
 20
-5575.0799652179585
 30
0.0
 41
0.9997941595879053
 10
-747.82511932832983
 20
-5575.0872592838796
 30
0.0
 41
1.0
 10
-747.74491055022565
 20
-5575.0945533498016
 30
0.0
 41
0.9998589466239308
 10
-747.66499200336091
 20
-5575.1045372042527
 30
0.0
 41
1.0
 10
-747.63258580156241
 20
-5575.1085855611709
 30
0.0
 41
1.0
 10
-747.60017959976392
 20
-5575.1126339180892
 30
0.0
 41
1.0
 10
-747.45544864930082
 20
-5575.1307144863758
 30
0.0
 41
0.9993495063248652
 10
-747.3123974055444
 20
-5575.1591801961158
 30
0.0
 41
1.0
 10
-747.27946370837594
 20
-5575.1657336593344
 30
0.0
 41
1.0
 10
-747.24653001120748
 20
-5575.172287122552
 30
0.0
 41
1.0
 10
-747.13723618800964
 20
-5575.1940354566859
 30
0.0
 41
0.9996788715562029
 10
-747.0291846160618
 20
-5575.2212932560469
 30
0.0
 41
1.0
 10
-747.02712161352451
 20
-5575.2218136826195
 30
0.0
 41
1.0
 10
-747.02505861098712
 20
-5575.2223341091922
 30
0.0
 41
1.0
 10
-746.92113304410702
 20
-5575.2485510554097
 30
0.0
 41
0.9995480654493381
 10
-746.81897080887597
 20
-5575.2809660120347
 30
0.0
 41
1.0
 10
-746.8172811667423
 20
-5575.2815021169499
 30
0.0
 41
1.0
 10
-746.81559152460864
 20
-5575.2820382218652
 30
0.0
 41
1.0
 10
-746.71680857364345
 20
-5575.3133809686597
 30
0.0
 41
0.9993867959455868
 10
-746.62046141520398
 20
-5575.3515603379492
 30
0.0
 41
1.0
 10
-746.61921846611403
 20
-5575.3520528798472
 30
0.0
 41
1.0
 10
-746.61797551702421
 20
-5575.3525454217461
 30
0.0
 41
1.0
 10
-746.52411425675507
 20
-5575.3897397072424
 30
0.0
 41
0.9992050256523486
 10
-746.4335145817281
 20
-5575.4342936064768
 30
0.0
 41
1.0
 10
-746.43277989901901
 20
-5575.4346548989361
 30
0.0
 41
1.0
 10
-746.43204521630992
 20
-5575.4350161913953
 30
0.0
 41
1.0
 10
-746.34291490669932
 20
-5575.478847505713
 30
0.0
 41
0.9990222350741054
 10
-746.258004845301
 20
-5575.5303807734144
 30
0.0
 41
1.0
 10
-746.25782096001944
 20
-5575.5304923763188
 30
0.0
 41
1.0
 10
-746.25763707473777
 20
-5575.5306039792231
 30
0.0
 41
1.0
 10
-746.17309478390894
 20
-5575.5819140411122
 30
0.0
 41
0.9988642743806147
 10
-746.09382024928846
 20
-5575.6410382286376
 30
0.0
 41
1.0
 10
-746.01454571467468
 20
-5575.7001624161585
 30
0.0
 41
0.9987681233312471
 10
-745.94152193040077
 20
-5575.766853107556
 30
0.0
 41
1.0
 10
-745.94119300243119
 20
-5575.7671535087738
 30
0.0
 41
1.0
 10
-745.94086407446162
 20
-5575.7674539099917
 30
0.0
 41
1.0
 10
-745.86718243425139
 20
-5575.8347454038239
 30
0.0
 41
0.9987496570898397
 10
-745.80058862892463
 20
-5575.9090582179106
 30
0.0
 41
1.0
 10
-745.79981645916519
 20
-5575.9099198912672
 30
0.0
 41
1.0
 10
-745.79904428940586
 20
-5575.9107815646239
 30
0.0
 41
1.0
 10
-745.7309061445618
 20
-5575.9868177254211
 30
0.0
 41
0.9988147669826093
 10
-745.67048389033539
 20
-5576.0691187322655
 30
0.0
 41
1.0
 10
-745.66936456425628
 20
-5576.0706433636196
 30
0.0
 41
1.0
 10
-745.66824523817729
 20
-5576.0721679949738
 30
0.0
 41
1.0
 10
-745.60558433179585
 20
-5576.1575182645229
 30
0.0
 41
0.9989452636216613
 10
-745.55101741883459
 20
-5576.2482569536805
 30
0.0
 41
1.0
 10
-745.54966869274938
 20
-5576.250499734706
 30
0.0
 41
1.0
 10
-745.54831996666417
 20
-5576.2527425157314
 30
0.0
 41
1.0
 10
-745.49105560153237
 20
-5576.3479667669399
 30
0.0
 41
0.9991046436070245
 10
-745.44204638820997
 20
-5576.4476911999664
 30
0.0
 41
1.0
 10
-745.44058252661989
 20
-5576.4506698800396
 30
0.0
 41
1.0
 10
-745.43911866502981
 20
-5576.453648560112
 30
0.0
 41
1.0
 10
-745.38718172852714
 20
-5576.559330353286
 30
0.0
 41
0.9992763831102246
 10
-745.34342859997241
 20
-5576.6686544152399
 30
0.0
 41
1.0
 10
-745.34194933030938
 20
-5576.6723506027729
 30
0.0
 41
1.0
 10
-745.34047006064634
 20
-5576.6760467903059
 30
0.0
 41
1.0
 10
-745.29375839276372
 20
-5576.7927632273322
 30
0.0
 41
0.9994163472884063
 10
-745.25512536157237
 20
-5576.912396815801
 30
0.0
 41
1.0
 10
-745.25388720932892
 20
-5576.916230959574
 30
0.0
 41
1.0
 10
-745.25264905708559
 20
-5576.9200651033461
 30
0.0
 41
1.0
 10
-745.21276549606443
 20
-5577.0435711648352
 30
0.0
 41
0.9997268055890989
 10
-745.17869744015206
 20
-5577.168806196788
 30
0.0
 41
1.0
 10
-745.17776725988085
 20
-5577.1722255629029
 30
0.0
 41
1.0
 10
-745.17683707960964
 20
-5577.1756449290178
 30
0.0
 41
1.0
 10
-745.14462938424072
 20
-5577.2940412287371
 30
0.0
 41
0.9996701319001123
 10
-745.11854376746965
 20
-5577.4139351820022
 30
0.0
 41
1.0
 10
-745.09245815069835
 20
-5577.5338291352691
 30
0.0
 41
0.9995785451108724
 10
-745.07337457335882
 20
-5577.655034896301
 30
0.0
 41
1.0
 10
-745.06915479118538
 20
-5577.6818360510642
 30
0.0
 41
1.0
 10
-745.06493500901206
 20
-5577.7086372058275
 30
0.0
 41
1.0
 10
-745.03836003307299
 20
-5577.8774231795296
 30
0.0
 41
0.9979925101214814
 10
-745.03333444714701
 20
-5578.0482145076221
 30
0.0
 41
1.0
 10
-745.03250963472237
 20
-5578.0762452311055
 30
0.0
 41
1.0
 10
-745.03168482229762
 20
-5578.104275954589
 30
0.0
 41
1.0
 10
-745.02830886122069
 20
-5578.2190058357173
 30
0.0
 41
0.9995314902262983
 10
-745.03195905335917
 20
-5578.3337273194657
 30
0.0
 41
1.0
 10
-745.03560924549754
 20
-5578.4484488032122
 30
0.0
 41
0.9996245486944618
 10
-745.04553834062824
 20
-5578.5627980743384
 30
0.0
 41
1.0
 10
-745.04570138862255
 20
-5578.5646758304756
 30
0.0
 41
1.0
 10
-745.04586443661697
 20
-5578.5665535866119
 30
0.0
 41
1.0
 10
-745.05611962773571
 20
-5578.684658369998
 30
0.0
 41
0.9997286095001235
 10
-745.07186495130748
 20
-5578.8021572788975
 30
0.0
 41
1.0
 10
-745.07225844395794
 20
-5578.8050937036005
 30
0.0
 41
1.0
 10
-745.07265193660851
 20
-5578.8080301283044
 30
0.0
 41
1.0
 10
-745.08918424548131
 20
-5578.9314018866062
 30
0.0
 41
0.9998265533969762
 10
-745.11029970421384
 20
-5579.054072361394
 30
0.0
 41
1.0
 10
-745.11097624635067
 20
-5579.0580027399001
 30
0.0
 41
1.0
 10
-745.11165278848762
 20
-5579.0619331184062
 30
0.0
 41
1.0
 10
-745.13412133149234
 20
-5579.192464350198
 30
0.0
 41
0.9999022530851679
 10
-745.16023079610397
 20
-5579.3223163188468
 30
0.0
 41
1.0
 10
-745.16120943726958
 20
-5579.3271834612351
 30
0.0
 41
1.0
 10
-745.16218807843518
 20
-5579.3320506036234
 30
0.0
 41
1.0
 10
-745.1902548253712
 20
-5579.4716368570134
 30
0.0
 41
0.9999524761932703
 10
-745.22103779420979
 20
-5579.6106493501975
 30
0.0
 41
1.0
 10
-745.22231390138563
 20
-5579.6164121095017
 30
0.0
 41
1.0
 10
-745.22359000856159
 20
-5579.6221748688058
 30
0.0
 41
1.0
 10
-745.25692519174174
 20
-5579.7727128805527
 30
0.0
 41
0.9999813588718747
 10
-745.29209619254596
 20
-5579.9228325932427
 30
0.0
 41
1.0
 10
-745.2936501180011
 20
-5579.929465183659
 30
0.0
 41
1.0
 10
-745.29520404345612
 20
-5579.9360977740753
 30
0.0
 41
1.0
 10
-745.33348289516289
 20
-5580.0994826675669
 30
0.0
 41
0.999995523770664
 10
-745.37273877314192
 20
-5580.2626355711673
 30
0.0
 41
1.0
 10
-745.38502040877813
 20
-5580.313679761698
 30
0.0
 41
1.0
 10
-745.39730204441435
 20
-5580.3647239522288
 30
0.0
 41
1.0
 10
-745.46112119369377
 20
-5580.6299652370053
 30
0.0
 41
0.9999993604410121
 10
-745.52554014083614
 20
-5580.8950614875839
 30
0.0
 41
1.0
 10
-745.53025897638088
 20
-5580.9144803956151
 30
0.0
 41
1.0
 10
-745.53497781192561
 20
-5580.9338993036454
 30
0.0
 41
1.0
 10
-745.60883443019497
 20
-5581.2378333704373
 30
0.0
 41
0.9999659914732032
 10
-745.68769402607438
 20
-5581.5405079169759
 30
0.0
 41
1.0
 10
-745.69264671500355
 20
-5581.5595170541528
 30
0.0
 41
1.0
 10
-745.6975994039326
 20
-5581.5785261913288
 30
0.0
 41
1.0
 10
-745.78636437767977
 20
-5581.9192190122549
 30
0.0
 41
0.9999441976026338
 10
-745.88230741064342
 20
-5582.2579604375542
 30
0.0
 41
1.0
 10
-745.89900792906792
 20
-5582.3169241500782
 30
0.0
 41
1.0
 10
-745.91570844749253
 20
-5582.3758878626031
 30
0.0
 41
1.0
 10
-746.04505251730461
 20
-5582.8325567129486
 30
0.0
 41
0.99996251207309
 10
-746.18228528462976
 20
-5583.28691724695
 30
0.0
 41
1.0
 10
-746.21807522771417
 20
-5583.4054132735819
 30
0.0
 41
1.0
 10
-746.25386517079858
 20
-5583.5239093002137
 30
0.0
 41
1.0
 10
-746.32838537484554
 20
-5583.7706363783354
 30
0.0
 41
0.9999793386307989
 10
-746.40607139797521
 20
-5584.016385017545
 30
0.0
 41
1.0
 10
-746.48375742111273
 20
-5584.2621336567809
 30
0.0
 41
1.0
 10
-746.49453697998342
 20
-5584.296151561156
 30
0.0
 41
1.0
 10
-748.34491003325252
 20
-5590.1832234836238
 30
0.0
 41
1.0
 10
-750.19528308652173
 20
-5596.0702954060907
 30
0.0
 41
1.0
 10
-751.15653977654529
 20
-5596.0702954060907
 30
0.0
 41
1.0
 10
-752.11779646656885
 20
-5596.0702954060907
 30
0.0
 41
1.0
 10
-750.49885168789046
 20
-5590.9222669043011
 30
0.0
 41
1.0
 10
-748.87990690921197
 20
-5585.7742384025123
 30
0.0
 41
1.0
 10
-748.83474108603741
 20
-5585.630207180242
 30
0.0
 41
1.0
 10
-748.78957526286285
 20
-5585.4861759579708
 30
0.0
 41
1.0
 10
-748.61927084550757
 20
-5584.943084928831
 30
0.0
 41
0.9999911657881224
 10
-748.45353803382045
 20
-5584.3985813974468
 30
0.0
 41
1.0
 10
-748.42384209032184
 20
-5584.3010174574028
 30
0.0
 41
1.0
 10
-748.39414614682335
 20
-5584.203453517358
 30
0.0
 41
1.0
 10
-748.28780522214845
 20
-5583.8540778661109
 30
0.0
 41
0.9999952428125621
 10
-748.18362163281517
 20
-5583.504052841733
 30
0.0
 41
1.0
 10
-748.17856216248151
 20
-5583.4870545674539
 30
0.0
 41
1.0
 10
-748.17350269214785
 20
-5583.4700562931748
 30
0.0
 41
1.0
 10
-748.07943804347883
 20
-5583.154027817347
 30
0.0
 41
0.9999931687524467
 10
-747.98771220561662
 20
-5582.8373126041133
 30
0.0
 41
1.0
 10
-747.98277694115814
 20
-5582.820271894846
 30
0.0
 41
1.0
 10
-747.97784167669965
 20
-5582.8032311855786
 30
0.0
 41
1.0
 10
-747.89598636773417
 20
-5582.5205973908105
 30
0.0
 41
0.9999893840783816
 10
-747.81673914128612
 20
-5582.2372212615956
 30
0.0
 41
1.0
 10
-747.73749191482898
 20
-5581.9538451323479
 30
0.0
 41
0.9999833980063215
 10
-747.66151567408895
 20
-5581.6695745493262
 30
0.0
 41
1.0
 10
-747.65251173736465
 20
-5581.6358856708403
 30
0.0
 41
1.0
 10
-747.64350780064046
 20
-5581.6021967923543
 30
0.0
 41
1.0
 10
-747.57454325177844
 20
-5581.344160960075
 30
0.0
 41
0.9999233658063401
 10
-747.51198828055578
 20
-5581.0844968013425
 30
0.0
 41
1.0
 10
-747.44943330933552
 20
-5580.8248326426201
 30
0.0
 41
1.0
 10
-747.40994989047795
 20
-5580.6610259781937
 30
0.0
 41
1.0
 10
-747.40497128650168
 20
-5580.6403710163268
 30
0.0
 41
1.0
 10
-747.39999268252529
 20
-5580.6197160544607
 30
0.0
 41
1.0
 10
-747.3704664716106
 20
-5580.4972193137273
 30
0.0
 41
0.9999868670855503
 10
-747.3421973876242
 20
-5580.3744263681228
 30
0.0
 41
1.0
 10
-747.3382999004657
 20
-5580.3574967807017
 30
0.0
 41
1.0
 10
-747.33440241330709
 20
-5580.3405671932815
 30
0.0
 41
1.0
 10
-747.31392830362438
 20
-5580.2516334224601
 30
0.0
 41
0.9999778173341964
 10
-747.29464070551262
 20
-5580.1624348052464
 30
0.0
 41
1.0
 10
-747.27535310740018
 20
-5580.0732361880309
 30
0.0
 41
0.9999602692859851
 10
-747.25765874876606
 20
-5579.9837078995888
 30
0.0
 41
1.0
 10
-747.25445491668859
 20
-5579.9674974447043
 30
0.0
 41
1.0
 10
-747.25125108461111
 20
-5579.951286989819
 30
0.0
 41
1.0
 10
-747.22714906182466
 20
-5579.8293377916179
 30
0.0
 41
0.9995617985321019
 10
-747.21030571460608
 20
-5579.7061760439128
 30
0.0
 41
1.0
 10
-747.20784122469991
 20
-5579.6881552265477
 30
0.0
 41
1.0
 10
-747.20537673479384
 20
-5579.6701344091834
 30
0.0
 41
1.0
 10
-747.18509347374572
 20
-5579.5218193594856
 30
0.0
 41
0.9991121410639371
 10
-747.17736812015733
 20
-5579.3723232606762
 30
0.0
 41
1.0
 10
-747.17644933013287
 20
-5579.3545434241023
 30
0.0
 41
1.0
 10
-747.17553054010841
 20
-5579.3367635875275
 30
0.0
 41
1.0
 10
-747.16964276656938
 20
-5579.2228271618715
 30
0.0
 41
0.9989792494906634
 10
-747.1740618586864
 20
-5579.108824325971
 30
0.0
 41
1.0
 10
-747.174709830555
 20
-5579.0921080800454
 30
0.0
 41
1.0
 10
-747.1753578024236
 20
-5579.0753918341197
 30
0.0
 41
1.0
 10
-747.1784809508033
 20
-5578.9948214900796
 30
0.0
 41
0.9997820295395095
 10
-747.18496494817941
 20
-5578.9144517683289
 30
0.0
 41
1.0
 10
-747.19144894555473
 20
-5578.8340820465901
 30
0.0
 41
0.9998335105972003
 10
-747.20086114106584
 20
-5578.7540024301452
 30
0.0
 41
1.0
 10
-747.20245606574269
 20
-5578.7404326996575
 30
0.0
 41
1.0
 10
-747.20405099041955
 20
-5578.7268629691698
 30
0.0
 41
1.0
 10
-747.21665303528334
 20
-5578.6196438917568
 30
0.0
 41
0.9996876457878374
 10
-747.23459694808173
 20
-5578.5131884640405
 30
0.0
 41
1.0
 10
-747.23682861122666
 20
-5578.4999487288005
 30
0.0
 41
1.0
 10
-747.2390602743717
 20
-5578.4867089935606
 30
0.0
 41
1.0
 10
-747.25285609579294
 20
-5578.4048628495984
 30
0.0
 41
0.9995547496493902
 10
-747.2715094176865
 20
-5578.3239853524037
 30
0.0
 41
1.0
 10
-747.271883374558
 20
-5578.3223639416974
 30
0.0
 41
1.0
 10
-747.2722573314295
 20
-5578.3207425309911
 30
0.0
 41
1.0
 10
-747.29016273958109
 20
-5578.2431078552054
 30
0.0
 41
0.9994899427175791
 10
-747.31298764825851
 20
-5578.166774572378
 30
0.0
 41
1.0
 10
-747.31344617499906
 20
-5578.1652411225896
 30
0.0
 41
1.0
 10
-747.3139047017396
 20
-5578.163707672802
 30
0.0
 41
1.0
 10
-747.33581255693923
 20
-5578.0904412895388
 30
0.0
 41
0.9993784877590024
 10
-747.36282819204439
 20
-5578.018900584384
 30
0.0
 41
1.0
 10
-747.36335988302062
 20
-5578.0174926016653
 30
0.0
 41
1.0
 10
-747.36389157399674
 20
-5578.0160846189465
 30
0.0
 41
1.0
 10
-747.38984382715182
 20
-5577.9473598792229
 30
0.0
 41
0.999243083225528
 10
-747.4210603623103
 20
-5577.8808607271567
 30
0.0
 41
1.0
 10
-747.4216424783674
 20
-5577.8796206720381
 30
0.0
 41
1.0
 10
-747.42222459442439
 20
-5577.8783806169204
 30
0.0
 41
1.0
 10
-747.45227689746946
 20
-5577.8143615750896
 30
0.0
 41
0.9990789632799372
 10
-747.48770752424639
 20
-5577.7531549633395
 30
0.0
 41
1.0
 10
-747.48830323042807
 20
-5577.7521258774814
 30
0.0
 41
1.0
 10
-747.48889893660964
 20
-5577.7510967916223
 30
0.0
 41
1.0
 10
-747.52313815102377
 20
-5577.6919483515903
 30
0.0
 41
0.9988874801124128
 10
-747.5627974270551
 20
-5577.6362886391726
 30
0.0
 41
1.0
 10
-747.56335295312158
 20
-5577.6355089874942
 30
0.0
 41
1.0
 10
-747.56390847918806
 20
-5577.6347293358167
 30
0.0
 41
1.0
 10
-747.60245670309087
 20
-5577.5806289267484
 30
0.0
 41
0.9986762060686054
 10
-747.6463591743634
 20
-5577.5307752123153
 30
0.0
 41
1.0
 10
-747.64680313469921
 20
-5577.5302710704946
 30
0.0
 41
1.0
 10
-747.64724709503491
 20
-5577.5297669286738
 30
0.0
 41
1.0
 10
-747.69026164564366
 20
-5577.4809214978704
 30
0.0
 41
0.9984621642481769
 10
-747.73841920241739
 20
-5577.4371381974051
 30
0.0
 41
1.0
 10
-747.73866583693416
 20
-5577.4369139652408
 30
0.0
 41
1.0
 10
-747.73891247145104
 20
-5577.4366897330774
 30
0.0
 41
1.0
 10
-747.78657675919442
 20
-5577.3933548969335
 30
0.0
 41
0.9982724693850077
 10
-747.83899539103663
 20
-5577.3559105464155
 30
0.0
 41
1.0
 10
-747.89141402287578
 20
-5577.3184661959003
 30
0.0
 41
0.9981399180167545
 10
-747.9480000862651
 20
-5577.2876796764576
 30
0.0
 41
1.0
 10
-747.94804574834666
 20
-5577.2876548332988
 30
0.0
 41
1.0
 10
-747.94809141042833
 20
-5577.28762999014
 30
0.0
 41
1.0
 10
-748.00476879798271
 20
-5577.2567937843805
 30
0.0
 41
0.9980927086833731
 10
-748.06481414905318
 20
-5577.2331769755274
 30
0.0
 41
1.0
 10
-748.06525431876071
 20
-5577.2330038496539
 30
0.0
 41
1.0
 10
-748.06569448846835
 20
-5577.2328307237804
 30
0.0
 41
1.0
 10
-748.12662017895559
 20
-5577.2088676631784
 30
0.0
 41
0.9981411356562754
 10
-748.19000870035086
 20
-5577.1924950216735
 30
0.0
 41
1.0
 10
-748.19089081705556
 20
-5577.1922671794673
 30
0.0
 41
1.0
 10
-748.19177293376038
 20
-5577.1920393372611
 30
0.0
 41
1.0
 10
-748.25692568856573
 20
-5577.1752110113439
 30
0.0
 41
0.9983031812936657
 10
-748.32359311756329
 20
-5577.1660716501674
 30
0.0
 41
1.0
 10
-748.33246414296377
 20
-5577.1648555314969
 30
0.0
 41
1.0
 10
-748.34133516836437
 20
-5577.1636394128263
 30
0.0
 41
1.0
 10
-748.39568481086872
 20
-5577.1561886828349
 30
0.0
 41
0.998388770826372
 10
-748.45052866016215
 20
-5577.1549440092012
 30
0.0
 41
1.0
 10
-748.45859206536693
 20
-5577.1547610113266
 30
0.0
 41
1.0
 10
-748.46665547057171
 20
-5577.154578013452
 30
0.0
 41
1.0
 10
-748.50537250944228
 20
-5577.1536993355676
 30
0.0
 41
0.9998869563079627
 10
-748.54409846265764
 20
-5577.1539852049273
 30
0.0
 41
1.0
 10
-748.58282441596953
 20
-5577.1542710742879
 30
0.0
 41
0.999997232017995
 10
-748.62154859528675
 20
-5577.1547391738186
 30
0.0
 41
1.0
 10
-748.64090161175886
 20
-5577.1549731139066
 30
0.0
 41
1.0
 10
-748.66025462823109
 20
-5577.1552070539947
 30
0.0
 41
1.0
 10
-748.73768484059519
 20
-5577.1561430337033
 30
0.0
 41
0.9997304945089212
 10
-748.8149881468255
 20
-5577.1606721274884
 30
0.0
 41
1.0
 10
-748.82403778853677
 20
-5577.1612023334783
 30
0.0
 41
1.0
 10
-748.83308743024793
 20
-5577.1617325394691
 30
0.0
 41
1.0
 10
-748.92849001990101
 20
-5577.1673220452349
 30
0.0
 41
0.9997888306414882
 10
-749.02358235574945
 20
-5577.1768270097245
 30
0.0
 41
1.0
 10
-749.0323034173158
 20
-5577.1776987243557
 30
0.0
 41
1.0
 10
-749.04102447888215
 20
-5577.1785704389877
 30
0.0
 41
1.0
 10
-749.1535589378675
 20
-5577.1898188327414
 30
0.0
 41
0.9984170238192922
 10
-749.2641180852163
 20
-5577.2136349146758
 30
0.0
 41
1.0
 10
-749.30049921620866
 20
-5577.2214719504827
 30
0.0
 41
1.0
 10
-749.33688034720092
 20
-5577.2293089862906
 30
0.0
 41
1.0
 10
-749.45207141561912
 20
-5577.2541228527998
 30
0.0
 41
0.9976592854196662
 10
-749.56279958202094
 20
-5577.2944215299467
 30
0.0
 41
1.0
 10
-749.67352774842163
 20
-5577.3347202070918
 30
0.0
 41
0.9993255074351615
 10
-749.78099954721097
 20
-5577.3830371055838
 30
0.0
 41
1.0
 10
-749.78562472613714
 20
-5577.3851164817843
 30
0.0
 41
1.0
 10
-749.79024990506332
 20
-5577.3871958579857
 30
0.0
 41
1.0
 10
-749.90697206170125
 20
-5577.4396715088769
 30
0.0
 41
0.9976475078270913
 10
-750.01541940600919
 20
-5577.507619498535
 30
0.0
 41
1.0
 10
-750.03376180014823
 20
-5577.5191119773517
 30
0.0
 41
1.0
 10
-750.05210419428727
 20
-5577.5306044561694
 30
0.0
 41
1.0
 10
-750.13630638583277
 20
-5577.5833615769334
 30
0.0
 41
0.9995131336407769
 10
-750.21705410079028
 20
-5577.6412677888866
 30
0.0
 41
1.0
 10
-750.29780181573983
 20
-5577.6991740008343
 30
0.0
 41
0.999581010760678
 10
-750.37506346346368
 20
-5577.7616556832954
 30
0.0
 41
1.0
 10
-750.37803349468015
 20
-5577.7640575547648
 30
0.0
 41
1.0
 10
-750.38100352589663
 20
-5577.7664594262351
 30
0.0
 41
1.0
 10
-750.46420523603535
 20
-5577.8337448516213
 30
0.0
 41
0.9996617837955643
 10
-750.54379592316559
 20
-5577.9052653071758
 30
0.0
 41
1.0
 10
-750.55592667404653
 20
-5577.9161660401696
 30
0.0
 41
1.0
 10
-750.56805742492736
 20
-5577.9270667731644
 30
0.0
 41
1.0
 10
-750.63633295232569
 20
-5577.9884193886382
 30
0.0
 41
0.9997267750052069
 10
-750.70166646061602
 20
-5578.0528959251697
 30
0.0
 41
1.0
 10
-750.76699996890477
 20
-5578.1173724616992
 30
0.0
 41
0.9999667288956328
 10
-750.83127291207745
 20
-5578.1829062686202
 30
0.0
 41
1.0
 10
-750.9001003598371
 20
-5578.2530839273622
 30
0.0
 41
1.0
 10
-750.96892780759663
 20
-5578.3232615861052
 30
0.0
 41
1.0
 10
-751.17085564629235
 20
-5578.5291507105158
 30
0.0
 41
0.9988205335175225
 10
-751.35186126327403
 20
-5578.7536549425786
 30
0.0
 41
1.0
 10
-751.38250122817817
 20
-5578.7916581930076
 30
0.0
 41
1.0
 10
-751.41314119308231
 20
-5578.8296614434366
 30
0.0
 41
1.0
 10
-751.65542673987284
 20
-5579.1301721763602
 30
0.0
 41
0.9997077826754831
 10
-751.88290469097808
 20
-5579.4420419705757
 30
0.0
 41
1.0
 10
-751.88462810610781
 20
-5579.4444047539546
 30
0.0
 41
1.0
 10
-751.88635152123743
 20
-5579.4467675373326
 30
0.0
 41
1.0
 10
-752.11727630260225
 20
-5579.7633628983067
 30
0.0
 41
0.9989147567079095
 10
-752.31773980548871
 20
-5580.1000723594962
 30
0.0
 41
1.0
 10
-752.34248095079556
 20
-5580.1416289400486
 30
0.0
 41
1.0
 10
-752.36722209610252
 20
-5580.183185520601
 30
0.0
 41
1.0
 10
-752.52243339474433
 20
-5580.4438869050609
 30
0.0
 41
0.9997476598181074
 10
-752.66577838224794
 20
-5580.7112966536333
 30
0.0
 41
1.0
 10
-752.80912336975518
 20
-5580.9787064022121
 30
0.0
 41
0.9996258967110637
 10
-752.93763162168705
 20
-5581.253554338834
 30
0.0
 41
1.0
 10
-752.95083153113865
 20
-5581.2817857389346
 30
0.0
 41
1.0
 10
-752.96403144059036
 20
-5581.3100171390342
 30
0.0
 41
1.0
 10
-753.10424016159493
 20
-5581.6098895369969
 30
0.0
 41
0.999873541394369
 10
-753.23484150830905
 20
-5581.9140691364519
 30
0.0
 41
1.0
 10
-753.23828433637061
 20
-5581.9220877219195
 30
0.0
 41
1.0
 10
-753.24172716443218
 20
-5581.9301063073863
 30
0.0
 41
1.0
 10
-753.36544285502646
 20
-5582.2182487359114
 30
0.0
 41
0.9999377418860923
 10
-753.4826976572042
 20
-5582.5090802035938
 30
0.0
 41
1.0
 10
-753.59995245938535
 20
-5582.7999116712854
 30
0.0
 41
0.9999508299505938
 10
-753.71141640275937
 20
-5583.093011348099
 30
0.0
 41
1.0
 10
-753.71449717142048
 20
-5583.1011123740591
 30
0.0
 41
1.0
 10
-753.71757794008158
 20
-5583.1092134000191
 30
0.0
 41
1.0
 10
-753.83520342078612
 20
-5583.4185151287747
 30
0.0
 41
0.9999609228433266
 10
-753.94734202365942
 20
-5583.7298481447879
 30
0.0
 41
1.0
 10
-753.95029803400826
 20
-5583.738054985195
 30
0.0
 41
1.0
 10
-753.95325404435721
 20
-5583.7462618256031
 30
0.0
 41
1.0
 10
-754.07130466792125
 20
-5584.0740085224115
 30
0.0
 41
0.9999674607410117
 10
-754.18405219399824
 20
-5584.4036171424314
 30
0.0
 41
1.0
 10
-754.23545058455886
 20
-5584.5538763381173
 30
0.0
 41
1.0
 10
-754.28684897511948
 20
-5584.7041355338042
 30
0.0
 41
1.0
 10
-754.40285958187678
 20
-5585.0432835163047
 30
0.0
 41
0.9999287532310633
 10
-754.51074098585218
 20
-5585.385104255296
 30
0.0
 41
1.0
 10
-754.55721824197713
 20
-5585.5323667996217
 30
0.0
 41
1.0
 10
-754.60369549810207
 20
-5585.6796293439475
 30
0.0
 41
1.0
 10
-754.61862238975959
 20
-5585.7269249940709
 30
0.0
 41
0.9999998223749625
 10
-754.63349289855341
 20
-5585.7742384025123
 30
0.0
 41
1.0
 10
-756.25414903534886
 20
-5590.9222669043011
 30
0.0
 41
1.0
 10
-757.87480517214431
 20
-5596.0702954060907
 30
0.0
 41
1.0
 10
-758.78011361603524
 20
-5596.0702954060907
 30
0.0
 41
1.0
 10
-759.68542205992617
 20
-5596.0702954060907
 30
0.0
 41
1.0
 10
-757.83333764854012
 20
-5590.1832234836238
 30
0.0
 41
1.0
 10
-755.98125323715408
 20
-5584.296151561156
 30
0.0
 41
1.0
 10
-755.97113147885136
 20
-5584.2641083477065
 30
0.0
 41
1.0
 10
-755.89852381000162
 20
-5584.0338088058807
 30
0.0
 41
1.0
 10
-755.82591614116268
 20
-5583.8035092640894
 30
0.0
 41
0.9999825681970516
 10
-755.75603310194469
 20
-5583.5723683690039
 30
0.0
 41
1.0
 10
-755.70774203978067
 20
-5583.4126437854975
 30
0.0
 41
1.0
 10
-755.65945097761653
 20
-5583.2529192019902
 30
0.0
 41
1.0
 10
-755.56229862430371
 20
-5582.9315839802284
 30
0.0
 41
0.9999672528961996
 10
-755.47035981867953
 20
-5582.6087184346397
 30
0.0
 41
1.0
 10
-755.46757093501208
 20
-5582.5989245892579
 30
0.0
 41
1.0
 10
-755.46478205134463
 20
-5582.589130743876
 30
0.0
 41
1.0
 10
-755.37842101305091
 20
-5582.2858528890356
 30
0.0
 41
0.9999899749160407
 10
-755.29477940352149
 20
-5581.9818138006012
 30
0.0
 41
1.0
 10
-755.2846734845034
 20
-5581.9450785629206
 30
0.0
 41
1.0
 10
-755.2745675654852
 20
-5581.9083433252399
 30
0.0
 41
1.0
 10
-755.21113779398513
 20
-5581.6777747121432
 30
0.0
 41
0.9999214200502566
 10
-755.15350836560901
 20
-5581.4456883699395
 30
0.0
 41
1.0
 10
-755.14074251342697
 20
-5581.3942774845373
 30
0.0
 41
1.0
 10
-755.12797666124493
 20
-5581.342866599135
 30
0.0
 41
1.0
 10
-755.0958789372371
 20
-5581.213602027753
 30
0.0
 41
0.9999828681664263
 10
-755.06529668523592
 20
-5581.0839705532626
 30
0.0
 41
1.0
 10
-755.03471443324338
 20
-5580.9543390788085
 30
0.0
 41
0.9999389844477572
 10
-755.00700344445113
 20
-5580.8240636228948
 30
0.0
 41
1.0
 10
-754.99986570073099
 20
-5580.7905075190574
 30
0.0
 41
1.0
 10
-754.99272795701086
 20
-5580.7569514152201
 30
0.0
 41
1.0
 10
-754.95074148078106
 20
-5580.5595637516453
 30
0.0
 41
0.9998933699441698
 10
-754.91453721637913
 20
-5580.3610341438871
 30
0.0
 41
1.0
 10
-754.9131643911627
 20
-5580.3535061231905
 30
0.0
 41
1.0
 10
-754.91179156594626
 20
-5580.3459781024931
 30
0.0
 41
1.0
 10
-754.87284165111225
 20
-5580.1323924533463
 30
0.0
 41
0.9996850305193595
 10
-754.84465797485268
 20
-5579.9171214479056
 30
0.0
 41
1.0
 10
-754.84266294148324
 20
-5579.9018830937821
 30
0.0
 41
1.0
 10
-754.8406679081138
 20
-5579.8866447396595
 30
0.0
 41
1.0
 10
-754.81326004565483
 20
-5579.6772995125057
 30
0.0
 41
0.9994697936706956
 10
-754.79953548643539
 20
-5579.4666143171762
 30
0.0
 41
1.0
 10
-754.79905841718562
 20
-5579.459290844964
 30
0.0
 41
1.0
 10
-754.79858134793585
 20
-5579.4519673727518
 30
0.0
 41
1.0
 10
-754.78581092721606
 20
-5579.255929121844
 30
0.0
 41
0.9991804893137201
 10
-754.78893924348858
 20
-5579.059500271871
 30
0.0
 41
1.0
 10
-754.78902312231071
 20
-5579.0542334704578
 30
0.0
 41
1.0
 10
-754.78910700113283
 20
-5579.0489666690446
 30
0.0
 41
1.0
 10
-754.79206755976156
 20
-5578.8630714219016
 30
0.0
 41
0.9988448329322724
 10
-754.81285910538509
 20
-5578.6783188320642
 30
0.0
 41
1.0
 10
-754.81445317908833
 20
-5578.6641539762913
 30
0.0
 41
1.0
 10
-754.81604725279146
 20
-5578.6499891205194
 30
0.0
 41
1.0
 10
-754.83365065100884
 20
-5578.4935662422276
 30
0.0
 41
0.9985503209456704
 10
-754.86796692330836
 20
-5578.3399420581427
 30
0.0
 41
1.0
 10
-754.87555291537956
 20
-5578.3059817307421
 30
0.0
 41
1.0
 10
-754.88313890745076
 20
-5578.2720214033425
 30
0.0
 41
1.0
 10
-754.9022831956089
 20
-5578.1863178740477
 30
0.0
 41
0.9991036781367578
 10
-754.92860805725923
 20
-5578.1025407867282
 30
0.0
 41
1.0
 10
-754.93259028271382
 20
-5578.0898676242214
 30
0.0
 41
1.0
 10
-754.93657250816841
 20
-5578.0771944617154
 30
0.0
 41
1.0
 10
-754.95493291891182
 20
-5578.0187636993996
 30
0.0
 41
0.9998874504369497
 10
-754.97503812658874
 20
-5577.9609100971793
 30
0.0
 41
1.0
 10
-754.99514333426669
 20
-5577.9030564949571
 30
0.0
 41
0.9994041637543073
 10
-755.01919194720313
 20
-5577.8467277910622
 30
0.0
 41
1.0
 10
-755.02338873142628
 20
-5577.8368977265827
 30
0.0
 41
1.0
 10
-755.02758551564943
 20
-5577.8270676621032
 30
0.0
 41
1.0
 10
-755.05546434664245
 20
-5577.7617674961384
 30
0.0
 41
0.9991846840700681
 10
-755.08852070333717
 20
-5577.6989294648556
 30
0.0
 41
1.0
 10
-755.08965730973432
 20
-5577.6967688483965
 30
0.0
 41
1.0
 10
-755.09079391613159
 20
-5577.6946082319382
 30
0.0
 41
1.0
 10
-755.12157706003325
 20
-5577.6360914335692
 30
0.0
 41
0.9989253167918065
 10
-755.15764648408526
 20
-5577.5806765051848
 30
0.0
 41
1.0
 10
-755.1587006087592
 20
-5577.5790570104227
 30
0.0
 41
1.0
 10
-755.15975473343315
 20
-5577.5774375156607
 30
0.0
 41
1.0
 10
-755.19371590814114
 20
-5577.5252615767931
 30
0.0
 41
0.9986467172837438
 10
-755.23291306077749
 20
-5577.4768955431646
 30
0.0
 41
1.0
 10
-755.23378718947833
 20
-5577.475816940886
 30
0.0
 41
1.0
 10
-755.23466131817918
 20
-5577.4747383386075
 30
0.0
 41
1.0
 10
-755.27211021341463
 20
-5577.4285295095351
 30
0.0
 41
0.9984001104268262
 10
-755.31453694393213
 20
-5577.3868444021664
 30
0.0
 41
1.0
 10
-755.31512408204412
 20
-5577.3862675272831
 30
0.0
 41
1.0
 10
-755.31571122015612
 20
-5577.3856906523988
 30
0.0
 41
1.0
 10
-755.35696367445314
 20
-5577.345159294794
 30
0.0
 41
0.9982442159080759
 10
-755.40271977578482
 20
-5577.3097907335377
 30
0.0
 41
1.0
 10
-755.40293457124972
 20
-5577.3096247008925
 30
0.0
 41
1.0
 10
-755.40314936671462
 20
-5577.3094586682464
 30
0.0
 41
1.0
 10
-755.44847587712479
 20
-5577.2744221722742
 30
0.0
 41
0.9982450060833906
 10
-755.49762685619226
 20
-5577.244990389243
 30
0.0
 41
1.0
 10
-755.54677783526438
 20
-5577.2155586062099
 30
0.0
 41
0.9983922639635121
 10
-755.59894414143037
 20
-5577.1918789715555
 30
0.0
 41
1.0
 10
-755.59917101875408
 20
-5577.1917759860744
 30
0.0
 41
1.0
 10
-755.59939789607779
 20
-5577.1916730005933
 30
0.0
 41
1.0
 10
-755.65201795688688
 20
-5577.1677873949784
 30
0.0
 41
0.9986517147156465
 10
-755.70683092975014
 20
-5577.1494862758573
 30
0.0
 41
1.0
 10
-755.70750885118264
 20
-5577.1492599294243
 30
0.0
 41
1.0
 10
-755.70818677261514
 20
-5577.1490335829913
 30
0.0
 41
1.0
 10
-755.76435558833896
 20
-5577.1302797710068
 30
0.0
 41
0.9989435598960541
 10
-755.82200897548887
 20
-5577.116762068772
 30
0.0
 41
1.0
 10
-755.82308909507128
 20
-5577.1165088185189
 30
0.0
 41
1.0
 10
-755.82416921465369
 20
-5577.1162555682658
 30
0.0
 41
1.0
 10
-755.88398284097298
 20
-5577.1022313655249
 30
0.0
 41
0.9992249241239092
 10
-755.94471434987304
 20
-5577.0929560228096
 30
0.0
 41
1.0
 10
-755.9461280381604
 20
-5577.0927401144017
 30
0.0
 41
1.0
 10
-755.94754172644787
 20
-5577.0925242059948
 30
0.0
 41
1.0
 10
-756.01110061193049
 20
-5577.0828170464638
 30
0.0
 41
0.9994396597834275
 10
-756.07516654847086
 20
-5577.0773841241189
 30
0.0
 41
1.0
 10
-756.09430721594538
 20
-5577.0757609564007
 30
0.0
 41
1.0
 10
-756.11344788341989
 20
-5577.0741377886816
 30
0.0
 41
1.0
 10
-756.2157951549184
 20
-5577.0654585308976
 30
0.0
 41
0.9987693403118889
 10
-756.31849877851175
 20
-5577.0669615943516
 30
0.0
 41
1.0
 10
-756.32875311274074
 20
-5577.0671116661251
 30
0.0
 41
1.0
 10
-756.33900744696962
 20
-5577.0672617378996
 30
0.0
 41
1.0
 10
-756.4485632131408
 20
-5577.0688650821867
 30
0.0
 41
0.9989753644965583
 10
-756.55752521314935
 20
-5577.0803680891113
 30
0.0
 41
1.0
 10
-756.66648721316346
 20
-5577.0918710960368
 30
0.0
 41
0.9983190067307413
 10
-756.77338602412669
 20
-5577.1159060878226
 30
0.0
 41
1.0
 10
-756.78228697573547
 20
-5577.1179073663861
 30
0.0
 41
1.0
 10
-756.79118792734425
 20
-5577.1199086449487
 30
0.0
 41
1.0
 10
-756.91588864152266
 20
-5577.1479461938616
 30
0.0
 41
0.9985539388304933
 10
-757.03685839520108
 20
-5577.1892098699072
 30
0.0
 41
1.0
 10
-757.03920382616116
 20
-5577.1900099137229
 30
0.0
 41
1.0
 10
-757.04154925712123
 20
-5577.1908099575385
 30
0.0
 41
1.0
 10
-757.16720987272515
 20
-5577.2336737212172
 30
0.0
 41
0.9988468746491949
 10
-757.28818021502832
 20
-5577.2883918062817
 30
0.0
 41
1.0
 10
-757.29136303701284
 20
-5577.2898314808399
 30
0.0
 41
1.0
 10
-757.29454585899748
 20
-5577.2912711553981
 30
0.0
 41
1.0
 10
-757.4218818452747
 20
-5577.3488685895809
 30
0.0
 41
0.9991322885920144
 10
-757.54398242933337
 20
-5577.4168639217633
 30
0.0
 41
1.0
 10
-757.56158444037396
 20
-5577.4266661237507
 30
0.0
 41
1.0
 10
-757.57918645141456
 20
-5577.436468325739
 30
0.0
 41
1.0
 10
-757.68136313247123
 20
-5577.4933684415191
 30
0.0
 41
0.9993860037850647
 10
-757.77930413655042
 20
-5577.5572844571107
 30
0.0
 41
1.0
 10
-757.78492244939571
 20
-5577.5609509518008
 30
0.0
 41
1.0
 10
-757.79054076224088
 20
-5577.564617446491
 30
0.0
 41
1.0
 10
-757.87724514062006
 20
-5577.6212004726967
 30
0.0
 41
0.999882149495464
 10
-757.96217151643668
 20
-5577.6804187027756
 30
0.0
 41
1.0
 10
-758.04709789225217
 20
-5577.7396369328544
 30
0.0
 41
0.9997976482744507
 10
-758.12957352265767
 20
-5577.8022233408983
 30
0.0
 41
1.0
 10
-758.14420978746034
 20
-5577.8133300306763
 30
0.0
 41
1.0
 10
-758.1588460522629
 20
-5577.8244367204543
 30
0.0
 41
1.0
 10
-758.27059421228569
 20
-5577.9092365080633
 30
0.0
 41
0.9998091630800342
 10
-758.37894449031035
 20
-5577.9983368587627
 30
0.0
 41
1.0
 10
-758.39195024278456
 20
-5578.0090319592055
 30
0.0
 41
1.0
 10
-758.40495599525866
 20
-5578.0197270596491
 30
0.0
 41
1.0
 10
-758.5393177782438
 20
-5578.1302176112449
 30
0.0
 41
0.9995035112317185
 10
-758.66645365601312
 20
-5578.2489514282661
 30
0.0
 41
1.0
 10
-758.67610096639578
 20
-5578.2579611744195
 30
0.0
 41
1.0
 10
-758.68574827677855
 20
-5578.2669709205729
 30
0.0
 41
1.0
 10
-758.80917133954142
 20
-5578.3822372923269
 30
0.0
 41
0.9994630424299041
 10
-758.92477974532812
 20
-5578.5053400355646
 30
0.0
 41
1.0
 10
-758.92846258410032
 20
-5578.5092616150787
 30
0.0
 41
1.0
 10
-758.93214542287262
 20
-5578.5131831945928
 30
0.0
 41
1.0
 10
-759.04038815110925
 20
-5578.6284427787969
 30
0.0
 41
0.9995160693749913
 10
-759.14125418064407
 20
-5578.7502101966729
 30
0.0
 41
1.0
 10
-759.14318790071843
 20
-5578.7525446208729
 30
0.0
 41
1.0
 10
-759.14512162079279
 20
-5578.7548790450737
 30
0.0
 41
1.0
 10
-759.24212021017024
 20
-5578.8719776145381
 30
0.0
 41
0.9996561470515071
 10
-759.33284642884189
 20
-5578.9940003769943
 30
0.0
 41
1.0
 10
-759.33900409474404
 20
-5579.0022821660368
 30
0.0
 41
1.0
 10
-759.34516176064619
 20
-5579.0105639550793
 30
0.0
 41
1.0
 10
-759.42357264750331
 20
-5579.1160231394379
 30
0.0
 41
0.9998349055174192
 10
-759.49809992944006
 20
-5579.2242617231068
 30
0.0
 41
1.0
 10
-759.5726272113767
 20
-5579.3325003067766
 30
0.0
 41
0.9999728109565037
 10
-759.64555010730464
 20
-5579.4418262323579
 30
0.0
 41
1.0
 10
-759.64686532270525
 20
-5579.4437980018438
 30
0.0
 41
1.0
 10
-759.64818053810586
 20
-5579.4457697713297
 30
0.0
 41
1.0
 10
-759.72373386488334
 20
-5579.5590392359554
 30
0.0
 41
0.9999972147362387
 10
-759.79875167521095
 20
-5579.6726640787228
 30
0.0
 41
1.0
 10
-759.80372321783466
 20
-5579.6801941671965
 30
0.0
 41
1.0
 10
-759.80869476045825
 20
-5579.6877242556711
 30
0.0
 41
1.0
 10
-759.89365565607909
 20
-5579.816409275455
 30
0.0
 41
0.9999371979004443
 10
-759.97571100548817
 20
-5579.9469661892399
 30
0.0
 41
1.0
 10
-759.97921988984672
 20
-5579.9525491172999
 30
0.0
 41
1.0
 10
-759.98272877420527
 20
-5579.9581320453599
 30
0.0
 41
1.0
 10
-760.07180189233213
 20
-5580.0998548152656
 30
0.0
 41
0.9998272025609528
 10
-760.15554528320808
 20
-5580.244790691997
 30
0.0
 41
1.0
 10
-760.17076045523606
 20
-5580.2711238064603
 30
0.0
 41
1.0
 10
-760.18597562726404
 20
-5580.2974569209237
 30
0.0
 41
1.0
 10
-760.30014936219322
 20
-5580.4950590265771
 30
0.0
 41
0.9995217214838034
 10
-760.40188905174625
 20
-5580.6993413544342
 30
0.0
 41
1.0
 10
-760.40953261438551
 20
-5580.7146888041461
 30
0.0
 41
1.0
 10
-760.41717617702477
 20
-5580.7300362538572
 30
0.0
 41
1.0
 10
-760.50408146961263
 20
-5580.9045327119356
 30
0.0
 41
0.9998269762607739
 10
-760.58443593588163
 20
-5581.0821409986529
 30
0.0
 41
1.0
 10
-760.66479040215552
 20
-5581.2597492853802
 30
0.0
 41
0.9998944747388229
 10
-760.73995119671622
 20
-5581.4396170110003
 30
0.0
 41
1.0
 10
-760.74490486630907
 20
-5581.4514716659214
 30
0.0
 41
1.0
 10
-760.74985853590192
 20
-5581.4633263208434
 30
0.0
 41
1.0
 10
-760.83050559644983
 20
-5581.6563232608505
 30
0.0
 41
0.9999506734409286
 10
-760.90730312535743
 20
-5581.8508840657159
 30
0.0
 41
1.0
 10
-760.9219030906213
 20
-5581.8878719875047
 30
0.0
 41
1.0
 10
-760.93650305588528
 20
-5581.9248599092925
 30
0.0
 41
1.0
 10
-760.98410065425196
 20
-5582.0454448705495
 30
0.0
 41
0.9999912393948933
 10
-761.03068709828358
 20
-5582.166424073268
 30
0.0
 41
1.0
 10
-761.0772735423227
 20
-5582.2874032760064
 30
0.0
 41
0.9999927113928274
 10
-761.12293483670226
 20
-5582.4087346834704
 30
0.0
 41
1.0
 10
-761.13690326809888
 20
-5582.4458516654668
 30
0.0
 41
1.0
 10
-761.15087169949561
 20
-5582.4829686474632
 30
0.0
 41
1.0
 10
-761.22446985668216
 20
-5582.6785340189563
 30
0.0
 41
0.9999487550946001
 10
-761.29409348165836
 20
-5582.8755493841491
 30
0.0
 41
1.0
 10
-761.31768709159564
 20
-5582.942312694443
 30
0.0
 41
1.0
 10
-761.34128070153292
 20
-5583.0090760047369
 30
0.0
 41
1.0
 10
-761.43596633589607
 20
-5583.2770098395395
 30
0.0
 41
0.9999808436938164
 10
-761.52732792454276
 20
-5583.5460952708199
 30
0.0
 41
1.0
 10
-761.61868951319252
 20
-5583.8151807021104
 30
0.0
 41
0.9999873932911858
 10
-761.70734422189901
 20
-5584.0851700570893
 30
0.0
 41
1.0
 10
-761.72743657877004
 20
-5584.146359389847
 30
0.0
 41
1.0
 10
-761.74752893564096
 20
-5584.2075487226048
 30
0.0
 41
1.0
 10
-761.87636835809144
 20
-5584.5999167431055
 30
0.0
 41
0.9999794883037778
 10
-762.00017114305592
 20
-5584.9939029494008
 30
0.0
 41
1.0
 10
-762.01132340248569
 20
-5585.0293935596128
 30
0.0
 41
1.0
 10
-762.02247566191545
 20
-5585.0648841698257
 30
0.0
 41
1.0
 10
-762.1650338258479
 20
-5585.5185569220239
 30
0.0
 41
0.9999982761727468
 10
-762.30590626584353
 20
-5585.9727559440844
 30
0.0
 41
1.0
 10
-763.89404659841614
 20
-5591.0215256750871
 30
0.0
 41
1.0
 10
-765.48218693098875
 20
-5596.0702954060907
 30
0.0
 41
1.0
 10
-766.43093754246513
 20
-5596.0702954060907
 30
0.0
 41
1.0
 10
-767.37968815394152
 20
-5596.0702954060907
 30
0.0
 41
1.0
 10
-764.14140366778838
 20
-5585.7429732061446
 30
0.0
 41
1.0
 10
-760.90311918163513
 20
-5575.4156510061985
 30
0.0
 41
1.0
  0
LWPOLYLINE
  5
6C
100
AcDbEntity
  8
0
370
              15
390
0
  6
Continuous
 62
               7
100
AcDbPolyline
 90
      232
 70
             128
 10
-786.60666495546218
 20
-5576.4999938377141
 42
0.0004370800743078
 10
-786.65954212937436
 20
-5576.5686604767616
 10
-786.69882636066166
 20
-5576.6197675898666
 42
0.0030481992189125
 10
-786.8291650778034
 20
-5576.7914892822409
 10
-786.86767674953126
 20
-5576.842876065999
 42
0.00420582457591
 10
-787.07166180019431
 20
-5577.1198818110634
 10
-787.12406692270179
 20
-5577.1923146578538
 42
0.0120948898744134
 10
-787.42011083946636
 20
-5577.6230642624078
 10
-787.51630333858816
 20
-5577.7705449976329
 42
0.0141601263948788
 10
-787.81994738550713
 20
-5578.2662143343632
 10
-787.85948465293461
 20
-5578.3350583017982
 42
0.0071131081298208
 10
-788.06475697617157
 20
-5578.7045611006324
 42
0.0068458790993746
 10
-788.25963650301912
 20
-5579.079652664117
 10
-788.26644836547234
 20
-5579.0932143778318
 42
0.0064120880292297
 10
-788.46459061551286
 20
-5579.5006388527436
 10
-788.47212530103366
 20
-5579.5166507094727
 42
0.005885723645024
 10
-788.6748806928972
 20
-5579.9610268204888
 10
-788.68305561919931
 20
-5579.979516974141
 42
0.0053189741898192
 10
-788.8917599318695
 20
-5580.465480448066
 10
-788.9005077375482
 20
-5580.4864623262556
 42
0.0047503650423196
 10
-789.11648146369691
 20
-5581.01866175946
 10
-789.12574971204708
 20
-5581.0421381355736
 42
0.0042071762174936
 10
-789.35029709577407
 20
-5581.6252317296412
 10
-789.36004649812344
 20
-5581.6511979045126
 42
0.0036680086476937
 10
-789.59450114144181
 20
-5582.2898332890609
 10
-789.6047089212833
 20
-5582.3182818233881
 42
0.0032573142631812
 10
-789.85034120724765
 20
-5583.0171344831351
 10
-789.91899172808564
 20
-5583.2165975671805
 42
0.0026133366648766
 10
-790.26743692684863
 20
-5584.2464608508662
 10
-790.33069371434647
 20
-5584.4366916862509
 42
0.0020592950740744
 10
-790.54455678331647
 20
-5585.0887953388719
 10
-790.54760857447957
 20
-5585.0982318272818
 42
0.0025609928537802
 10
-790.74942907596539
 20
-5585.733377049648
 10
-790.75202044309822
 20
-5585.7416793906077
 42
0.0031362356240495
 10
-790.94151122876906
 20
-5586.3624422467683
 10
-790.94364227169797
 20
-5586.3695835529843
 42
0.003722991803495
 10
-791.12044265862278
 20
-5586.9785688549528
 10
-791.12212124782957
 20
-5586.9845157451282
 42
0.0043077623696232
 10
-791.28586204989426
 20
-5587.5843344768964
 42
0.0047654161824403
 10
-791.43869077241015
 20
-5588.1870205657988
 10
-791.4731553812494
 20
-5588.3285823429487
 42
0.0112969368446105
 10
-791.66901973939287
 20
-5589.2202745035729
 10
-791.6970261284896
 20
-5589.3631025496707
 42
0.013005676257183
 10
-791.89786337213627
 20
-5590.550043621316
 10
-791.91840312228328
 20
-5590.694121734793
 42
0.0138721532145712
 10
-792.0221061268212
 20
-5591.6009512206183
 10
-792.04140161472912
 20
-5591.8244489425442
 42
0.0071254697017242
 10
-792.07474826065163
 20
-5592.2876359513903
 10
-792.07970923481537
 20
-5592.3736399459585
 42
0.0028881799193515
 10
-792.09484752810476
 20
-5592.6653816557937
 42
0.0060297297127596
 10
-792.10477972788033
 20
-5592.9573305919066
 10
-792.10584200954747
 20
-5593.0057229638442
 42
0.0229523164152189
 10
-792.09811098176169
 20
-5593.3284778101252
 10
-792.09388520824177
 20
-5593.3888813441354
 42
0.0123673300662347
 10
-792.07480656172299
 20
-5593.5900020693161
 42
0.012857767448129
 10
-792.04561117131425
 20
-5593.7898999192566
 10
-792.0384852979297
 20
-5593.8312287338395
 42
0.0285717853782368
 10
-791.97399129623318
 20
-5594.1093448851561
 10
-791.96032277256711
 20
-5594.1559996546321
 42
0.0316283099160748
 10
-791.84451219265338
 20
-5594.4750141564564
 10
-791.84146350089679
 20
-5594.4820005287838
 42
0.0338984824248705
 10
-791.69203178993064
 20
-5594.7695664929706
 10
-791.68972306055866
 20
-5594.7733575222501
 42
0.0350228718358589
 10
-791.50736276988721
 20
-5595.0304095069241
 10
-791.50647751811198
 20
-5595.0314885846883
 42
0.0347476747523385
 10
-791.29205283087208
 20
-5595.2586736319081
 42
0.0331337701908717
 10
-791.04880950512313
 20
-5595.4548022939871
 10
-791.04770940660956
 20
-5595.4555749971578
 42
0.0305233319081092
 10
-790.77916471104311
 20
-5595.6207031672457
 10
-790.77593466653502
 20
-5595.6224271791125
 42
0.0273744481148853
 10
-790.48338095495956
 20
-5595.7585653230035
 10
-790.47827641982315
 20
-5595.7606089074725
 42
0.0240964406181643
 10
-790.1627993441748
 20
-5595.8695926337541
 10
-790.15621601496741
 20
-5595.8715173734281
 42
0.0209636179812185
 10
-789.81881586231236
 20
-5595.9549855213609
 10
-789.81118340186617
 20
-5595.956537434362
 42
0.0181388704714213
 10
-789.45286100986334
 20
-5596.0159535275761
 10
-789.44458016148951
 20
-5596.017019711393
 42
0.0156086547594812
 10
-789.0663927972779
 20
-5596.0537558979704
 10
-789.02319754497523
 20
-5596.0565944004475
 42
0.0137148329036422
 10
-788.69552439967481
 20
-5596.0691146557001
 10
-788.64958820970139
 20
-5596.0696090888159
 42
0.005105782390602
 10
-788.41344262315658
 20
-5596.0697393432238
 42
0.0052256693323039
 10
-788.17734533933083
 20
-5596.0649905187583
 10
-788.10711855562852
 20
-5596.062843552746
 42
0.0161507179062521
 10
-787.73138147751877
 20
-5596.0391931824188
 10
-787.71136851715414
 20
-5596.0372829871321
 42
0.01012167378349
 10
-787.29734129562962
 20
-5595.989290056762
 10
-787.26328800623673
 20
-5595.9846423599565
 42
0.0245291776383875
 10
-786.78649835069041
 20
-5595.895567281882
 10
-786.70167503516416
 20
-5595.8753713615351
 42
0.0143509212560996
 10
-786.34504393122199
 20
-5595.7795667277551
 42
0.0156557857038064
 10
-785.99482786649469
 20
-5595.6625555119372
 10
-785.98732665200009
 20
-5595.6597853501826
 42
0.0170137333625867
 10
-785.63073065630908
 20
-5595.5141277353077
 10
-785.62362673391124
 20
-5595.5109398997483
 42
0.0183105364410341
 10
-785.26427706574827
 20
-5595.3336048579249
 10
-785.25733030110621
 20
-5595.3298544230511
 42
0.0194899958158517
 10
-784.89884956011895
 20
-5595.1178754411585
 10
-784.89183568078556
 20
-5595.1133500988653
 42
0.0204869852953868
 10
-784.53782137869837
 20
-5594.8638300837847
 10
-784.53055577010457
 20
-5594.8582500184311
 42
0.0212516938565324
 10
-784.18456583899615
 20
-5594.5683460215369
 10
-784.1380491449255
 20
-5594.5258787114481
 42
0.0215248918260844
 10
-783.87802297603321
 20
-5594.2671144324486
 10
-783.83299324164682
 20
-5594.2182703110921
 42
0.0114578554984733
 10
-783.67820108797537
 20
-5594.0424473776402
 10
-783.66700655199554
 20
-5594.0291286141028
 42
0.0061531305139987
 10
-783.54053190599427
 20
-5593.8748390807896
 42
0.0006325587134231
 10
-783.41615342189596
 20
-5593.71883570518
 10
-783.39311328679105
 20
-5593.6898621844539
 42
0.0041897761562421
 10
-783.22465788281909
 20
-5593.4743428083939
 10
-783.16619576292612
 20
-5593.3982414614075
 42
0.0092993880035237
 10
-782.88958383571094
 20
-5593.0239626975354
 10
-782.80718934251252
 20
-5592.9080256939678
 42
0.0159321727085189
 10
-782.46058285986112
 20
-5592.3858514731992
 10
-782.41622672446601
 20
-5592.3141719089399
 42
0.008554731702402
 10
-782.18171495914635
 20
-5591.9202969597245
 42
0.0084601156882716
 10
-781.96073878170159
 20
-5591.5186701106877
 10
-781.95262330787386
 20
-5591.5033104284194
 42
0.0081429654279426
 10
-781.72937403744163
 20
-5591.0635889158893
 10
-781.72051387325234
 20
-5591.0454100738589
 42
0.0076574581333236
 10
-781.49410636268487
 20
-5590.5622271986049
 10
-781.48462672196194
 20
-5590.541162720303
 42
0.0070682724199952
 10
-781.25418181415546
 20
-5590.0091254155222
 10
-781.24419153017345
 20
-5589.9851362265099
 42
0.0064559514454757
 10
-781.00885832198912
 20
-5589.398823959983
 10
-780.99844896382683
 20
-5589.3718890345481
 42
0.0058311413908683
 10
-780.75740222706577
 20
-5588.7258569401702
 10
-780.74664714967651
 20
-5588.6959725990046
 42
0.005231242581383
 10
-780.49906587163366
 20
-5587.9847701851641
 10
-780.48802203525588
 20
-5587.951943473101
 42
0.0046680544795013
 10
-780.23309360751864
 20
-5587.1701171573368
 10
-780.19110145747732
 20
-5587.0371339200519
 42
0.0041666856438862
 10
-779.98781544508279
 20
-5586.3741651450482
 10
-779.95015300442196
 20
-5586.2475840374045
 42
0.0015170975147167
 10
-779.82896642600599
 20
-5585.8357156859001
 42
-0.0004887993103826
 10
-779.70862665286927
 20
-5585.4235972738124
 10
-779.63214939538784
 20
-5585.162639887918
 42
0.0002583378933223
 10
-779.35893482529548
 20
-5584.228583184642
 10
-779.27716197576433
 20
-5583.9484839252145
 42
0.0006636169678635
 10
-779.08329421573558
 20
-5583.2811310015677
 10
-779.07819756138645
 20
-5583.2634994186801
 42
0.0010589131325031
 10
-778.89674886047192
 20
-5582.6307680756399
 10
-778.89176678998251
 20
-5582.6132551685887
 42
0.0015655524463699
 10
-778.72349658280859
 20
-5582.0146384894188
 10
-778.71866638239112
 20
-5581.9972463304739
 42
0.0021640440485591
 10
-778.5643764104077
 20
-5581.4322193124644
 10
-778.55974219097413
 20
-5581.4149545824575
 42
0.0028763871858202
 10
-778.4202264729247
 20
-5580.8829866316237
 10
-778.41584060875891
 20
-5580.8658626534743
 42
0.0037310511944524
 10
-778.2918839169206
 20
-5580.366415059445
 10
-778.28780869663251
 20
-5580.3494547882028
 42
0.0047652197765012
 10
-778.18018479612317
 20
-5579.8819770198952
 10
-778.17649419680015
 20
-5579.8652174647468
 42
0.0060276699292639
 10
-778.08596409764618
 20
-5579.4291416696005
 10
-778.08274540735636
 20
-5579.4126404552881
 42
0.0075824337741402
 10
-778.01005609794151
 20
-5579.007373290865
 10
-778.00741072056076
 20
-5578.9912183434117
 42
0.0095130624602963
 10
-777.95329548493009
 20
-5578.616128990343
 10
-777.94630926104753
 20
-5578.5601954322265
 42
0.0121054653250137
 10
-777.91971793046957
 20
-5578.2952996037529
 10
-777.91885144071023
 20
-5578.283896160825
 42
0.0069050827384419
 10
-777.90376262267228
 20
-5578.0409549339784
 10
-777.90262732300368
 20
-5578.0174286769316
 42
0.0169063976679992
 10
-777.89980004402355
 20
-5577.8212359496338
 10
-777.90097069555463
 20
-5577.760900188292
 42
0.0052007732910633
 10
-777.90322414414777
 20
-5577.6853067981319
 42
0.0054038123294143
 10
-777.92318765598736
 20
-5577.5652885021173
 10
-777.92827351185701
 20
-5577.536630015541
 42
0.0112050460444398
 10
-777.96365787391346
 20
-5577.3603035772121
 10
-777.98148283595629
 20
-5577.2807619904816
 42
0.0240764468027383
 10
-778.072380202104
 20
-5576.9505249549757
 10
-778.09093896491595
 20
-5576.8939047899867
 42
0.0256812331833571
 10
-778.23430188510542
 20
-5576.5221805837291
 10
-778.2397113109256
 20
-5576.5100492487427
 42
0.0268360501226725
 10
-778.40913855177666
 20
-5576.1790561147182
 10
-778.41467495941481
 20
-5576.1695364444004
 42
0.0274670231737012
 10
-778.60687593582497
 20
-5575.8772490694882
 10
-778.61225723578627
 20
-5575.8699699219487
 42
0.0275035967093446
 10
-778.82383011534944
 20
-5575.6144540316436
 10
-778.82889961631975
 20
-5575.6089749440089
 42
0.0269557673545467
 10
-779.05630315975554
 20
-5575.3883326580508
 10
-779.06104621753639
 20
-5575.3842027035917
 42
0.0259124802202176
 10
-779.30060104896893
 20
-5575.196512176437
 10
-779.30513189414785
 20
-5575.1933266741089
 42
0.0245162153005263
 10
-779.55304824724567
 20
-5575.0365936649969
 10
-779.55757479357339
 20
-5575.034033467794
 42
0.0229282588843837
 10
-779.80999435039723
 20
-5574.9061652752971
 10
-779.81477484422521
 20
-5574.9040129755394
 42
0.021298413570022
 10
-780.06781279669576
 20
-5574.8028140582928
 10
-780.07311708165173
 20
-5574.800950495538
 42
0.019755546232465
 10
-780.32289541938826
 20
-5574.7241350775676
 42
0.0183511896786511
 10
-780.57782414485519
 20
-5574.6665521706018
 10
-780.66418934158264
 20
-5574.6503493802156
 42
0.033805787716318
 10
-780.94969669083468
 20
-5574.6165409750774
 10
-781.04070209589361
 20
-5574.6119613198152
 42
0.0091990524529909
 10
-781.14654920451062
 20
-5574.6085854638932
 42
0.0028333980753702
 10
-781.25246312064201
 20
-5574.6077573563762
 10
-781.25337857355294
 20
-5574.6077553865525
 42
-0.0023619827801044
 10
-781.36112458869718
 20
-5574.6070145454742
 10
-781.39752975883471
 20
-5574.6065922390117
 42
0.0008824598472324
 10
-781.57808574842659
 20
-5574.6048164607746
 10
-781.62194718109049
 20
-5574.6044624992473
 42
0.0038132665785544
 10
-781.89023007702224
 20
-5574.6043435631818
 10
-781.90676373176279
 20
-5574.6044623293246
 42
0.0060665569318889
 10
-782.20804422331889
 20
-5574.6102826287442
 10
-782.22229455537945
 20
-5574.6107309367126
 42
0.0080356953344444
 10
-782.55175327173163
 20
-5574.626398658781
 10
-782.56382328680593
 20
-5574.6271672417206
 42
0.0098996399102699
 10
-782.91658637142564
 20
-5574.6566524709151
 10
-782.9266320808315
 20
-5574.6576927671167
 42
0.0117740981361029
 10
-783.29778893918922
 20
-5574.7049850146477
 10
-783.3060116356628
 20
-5574.7062301312171
 42
0.0137435215149147
 10
-783.69060045514539
 20
-5574.7753271047786
 10
-783.6972574942713
 20
-5574.7767130010125
 42
0.0158359869387747
 10
-784.09025458806968
 20
-5574.8716050894918
 10
-784.09566777494092
 20
-5574.8730950303634
 42
0.0180554124038817
 10
-784.49198281955489
 20
-5574.9977330466036
 10
-784.49653960763669
 20
-5574.9993490828692
 42
0.0203657431289364
 10
-784.89101712545539
 20
-5575.1576094243883
 10
-784.89516066445537
 20
-5575.1594710458266
 42
0.0226819684652984
 10
-785.28259672066145
 20
-5575.3551136244987
 10
-785.28679651167715
 20
-5575.3574792164172
 42
0.0248634984601196
 10
-785.6619784528549
 20
-5575.5941058623612
 10
-785.71017338165086
 20
-5575.6279629041956
 42
0.0267044190890058
 10
-785.98446607855885
 20
-5575.8434032800578
 42
0.0139303002174006
 10
-786.24063324449003
 20
-5576.0806421209627
 10
-786.24548663021858
 20
-5576.0853947838305
 42
0.0283460963440984
 10
-786.48955922444873
 20
-5576.3531254442787
 10
-786.52922772960233
 20
-5576.4019270217486
 42
0.007069536481258
 10
-786.60666495546218
 20
-5576.4999938377141
 42
0.007069536481258
  0
LWPOLYLINE
  5
6D
100
AcDbEntity
  8
0
370
              15
390
0
  6
Continuous
 62
               7
100
AcDbPolyline
 90
      226
 70
             128
 10
-790.13548539270857
 20
-5592.2215826438978
 42
-0.0026277636589496
 10
-790.13556327650861
 20
-5592.1548107181306
 10
-790.13534591827658
 20
-5592.1016555007118
 42
-0.0088680296719343
 10
-790.13156930198363
 20
-5591.9286397183096
 10
-790.12922294287114
 20
-5591.8693596928551
 42
-0.0077381705597736
 10
-790.11317683210802
 20
-5591.5780991970578
 10
-790.11230892093488
 20
-5591.5658109633714
 42
-0.0068872530534635
 10
-790.08567684118657
 20
-5591.2505892113013
 10
-790.08447261700064
 20
-5591.2383482322839
 42
-0.0062130021482986
 10
-790.04687890017237
 20
-5590.8994785410423
 10
-790.04537499663775
 20
-5590.8873046691297
 42
-0.0056726929678868
 10
-789.9964531371362
 20
-5590.5251094470204
 10
-789.994679691491
 20
-5590.5130156467703
 42
-0.0052341884486999
 10
-789.93406910522845
 20
-5590.1278223912359
 10
-789.93205111645443
 20
-5590.1158174612592
 42
-0.0049768450167768
 10
-789.85931243502841
 20
-5589.7079728938288
 10
-789.83506342030626
 20
-5589.5794249108212
 42
-0.0089029805624611
 10
-789.69798256851277
 20
-5588.9176494634048
 10
-789.66523719319298
 20
-5588.7726180328755
 42
-0.00803182570956
 10
-789.43568857885225
 20
-5587.8269084010217
 10
-789.42370365240401
 20
-5587.7807777658318
 42
-0.0074265721318515
 10
-789.13969211355231
 20
-5586.7507131874454
 10
-789.11981257043726
 20
-5586.682579126862
 42
-0.0069711922703211
 10
-788.79250799193073
 20
-5585.6163113865341
 10
-788.73255604482654
 20
-5585.4302900281673
 42
-0.0052070422895877
 10
-788.50313081956597
 20
-5584.7430179511321
 10
-788.48584962739096
 20
-5584.6929906705072
 42
-0.0009167004446728
 10
-788.28275774010422
 20
-5584.1085348223605
 42
-0.0025162726942745
 10
-788.0756601098376
 20
-5583.5254935581861
 10
-788.03843549803207
 20
-5583.4223440122805
 42
-0.0028212681462673
 10
-787.79025957907311
 20
-5582.7466133801208
 10
-787.78042881632234
 20
-5582.7203059354433
 42
-0.0031964916822934
 10
-787.54413655866017
 20
-5582.1001011733179
 10
-787.53450210466212
 20
-5582.0752911831769
 42
-0.0036281836454796
 10
-787.30939614355998
 20
-5581.5078505022811
 10
-787.29995773340761
 20
-5581.4845530707908
 42
-0.0041269166824711
 10
-787.08534003674333
 20
-5580.9671121747997
 10
-787.05270708031821
 20
-5580.8902337284289
 42
-0.0047472213062236
 10
-786.89566227476894
 20
-5580.5298122605564
 10
-786.88876819356153
 20
-5580.514391663226
 42
-0.0025651660008272
 10
-786.74041015971056
 20
-5580.1870636074755
 42
-0.0057144634986486
 10
-786.58666046594362
 20
-5579.8622539341213
 10
-786.55862976053845
 20
-5579.804745551719
 42
-0.0065388068362642
 10
-786.37516273279823
 20
-5579.440513055054
 10
-786.36670427702268
 20
-5579.4242534756904
 42
-0.0074510843032565
 10
-786.19052203114188
 20
-5579.0975651945619
 10
-786.18234236060539
 20
-5579.0829244172828
 42
-0.0084648979862257
 10
-786.01270850751075
 20
-5578.791015406332
 10
-786.00485238102601
 20
-5578.7780084146862
 42
-0.0095638542800703
 10
-785.84101693342848
 20
-5578.5181195427022
 10
-785.83354198976372
 20
-5578.5067501812573
 42
-0.0107191626809169
 10
-785.67474040936918
 20
-5578.2761389467023
 10
-785.66772367562851
 20
-5578.266402854324
 42
-0.0118458573887417
 10
-785.51317557712559
 20
-5578.0623306590278
 42
-0.0129184518167017
 10
-785.34872295351897
 20
-5577.8661701428509
 10
-785.3185781811643
 20
-5577.8320440639609
 42
-0.0217742579646326
 10
-785.14196585882564
 20
-5577.6488372937074
 10
-785.13122031438081
 20
-5577.6386204605187
 42
-0.0097266568632664
 10
-784.96516269550943
 20
-5577.4867728860663
 42
-0.018772090570483
 10
-784.79081511962568
 20
-5577.3447040326819
 10
-784.76010912896004
 20
-5577.3215449502923
 42
-0.0179428207519597
 10
-784.52768840894964
 20
-5577.1589927731693
 10
-784.5240360820269
 20
-5577.1566288382774
 42
-0.0170047877701201
 10
-784.28827244450349
 20
-5577.0151683241311
 10
-784.28448945577418
 20
-5577.0130700191039
 42
-0.0160190788371208
 10
-784.04758090812163
 20
-5576.8914187171067
 42
-0.0151102861487263
 10
-783.80354912567179
 20
-5576.7847359410498
 10
-783.75116262346319
 20
-5576.7636958081566
 42
-0.0271945441878557
 10
-783.39250006440193
 20
-5576.6418309974506
 10
-783.32343526391628
 20
-5576.6224814561847
 42
-0.0237596594029283
 10
-782.90763841689432
 20
-5576.5270307442033
 10
-782.83957556317023
 20
-5576.5147760560776
 42
-0.0213715440539272
 10
-782.55370063171858
 20
-5576.4758290245663
 10
-782.49355346547452
 20
-5576.4702393098632
 42
-0.0101465655819559
 10
-782.32606093350648
 20
-5576.4580957666021
 10
-782.31672054732587
 20
-5576.457608851606
 42
-0.0100375910924945
 10
-782.1675664467457
 20
-5576.4528330336798
 10
-782.1573071770415
 20
-5576.4527105946654
 42
-0.0103625633392126
 10
-782.02859918241052
 20
-5576.4538420281915
 10
-782.00633353116871
 20
-5576.4544993866557
 42
-0.0115689250293957
 10
-781.92228279361564
 20
-5576.4589288929019
 42
-0.0072438037499574
 10
-781.83844451419088
 20
-5576.4665180926495
 10
-781.82164400470367
 20
-5576.4682846353753
 42
-0.0217917313127598
 10
-781.70507424138691
 20
-5576.485704528096
 10
-781.63947415081964
 20
-5576.498451136511
 42
-0.0332943556766088
 10
-781.43508198579502
 20
-5576.5524914278176
 10
-781.40490941724647
 20
-5576.5626595049353
 42
-0.0184824084823608
 10
-781.26640436077946
 20
-5576.6151105203226
 42
-0.0198002050670122
 10
-781.13233002027198
 20
-5576.6779945805256
 10
-781.1304433829032
 20
-5576.678972367401
 42
-0.0212242342954396
 10
-780.99830444049496
 20
-5576.7547351061985
 10
-780.99648914495788
 20
-5576.755880908403
 42
-0.0226090605775553
 10
-780.86798524374274
 20
-5576.8453605519617
 10
-780.86614080199865
 20
-5576.8467728049545
 42
-0.0238457052213516
 10
-780.74295872070252
 20
-5576.9507687008199
 10
-780.74100599214671
 20
-5576.9525835785835
 42
-0.0248160564150881
 10
-780.62480448484621
 20
-5577.0718581797919
 10
-780.62270085144405
 20
-5577.0742435134962
 42
-0.0254109591423071
 10
-780.51509563357797
 20
-5577.2095318994607
 10
-780.51284761166403
 20
-5577.2126734478616
 42
-0.0255528488293559
 10
-780.4154009328638
 20
-5577.3647005021012
 10
-780.41306983295067
 20
-5577.3687821137037
 42
-0.025214679321333
 10
-780.3272888069439
 20
-5577.5382843596954
 10
-780.32498656778398
 20
-5577.5434664416134
 42
-0.0244265635941584
 10
-780.25233187402011
 20
-5577.731213013667
 10
-780.24308547255669
 20
-5577.7590784319891
 42
-0.0231319612921706
 10
-780.19716269356206
 20
-5577.9223794787995
 42
-0.0112130424337474
 10
-780.16252667102242
 20
-5578.0885830789957
 10
-780.16132414591129
 20
-5578.0950796658763
 42
-0.021052788122964
 10
-780.13563767054029
 20
-5578.2761353113201
 10
-780.1321270757187
 20
-5578.3115408598642
 42
-0.0190029892402437
 10
-780.11668560217413
 20
-5578.5650767061361
 10
-780.11587562573004
 20
-5578.6005523205058
 42
-0.0137974553654839
 10
-780.11742447856568
 20
-5578.9255837272394
 10
-780.11826993352111
 20
-5578.9517024718307
 42
-0.0081336634218161
 10
-780.13312926874369
 20
-5579.2570499394315
 42
-0.0073526923570356
 10
-780.15743780211869
 20
-5579.5617981837204
 10
-780.15869922590105
 20
-5579.5751348583817
 42
-0.0066886138701541
 10
-780.19443481194799
 20
-5579.905720901882
 10
-780.1960919014175
 20
-5579.9193425208705
 42
-0.0061359187344659
 10
-780.24394250346916
 20
-5580.2761065009763
 10
-780.24598000454125
 20
-5580.2900013037997
 42
-0.005669861005859
 10
-780.30663033530732
 20
-5580.6732798726325
 10
-780.30903576863125
 20
-5580.6874389918685
 42
-0.0052721077269955
 10
-780.38316796943002
 20
-5581.0975663315421
 10
-780.38593111827265
 20
-5581.1119829669324
 42
-0.0049289272179079
 10
-780.47422523637294
 20
-5581.5492914780561
 10
-780.47733773105529
 20
-5581.5639603308709
 42
-0.004741595671264
 10
-780.5805757225869
 20
-5582.0287570882792
 10
-780.61534393294733
 20
-5582.178564183665
 42
-0.0084404470903536
 10
-780.80536037651746
 20
-5582.9387882081901
 10
-780.81148706450483
 20
-5582.9616523323493
 42
-0.0039635940254438
 10
-781.03294074879113
 20
-5583.7626411966048
 10
-781.04631754396837
 20
-5583.8095728131884
 42
-0.0072475040835441
 10
-781.31376443182955
 20
-5584.6987925295734
 10
-781.38397675865963
 20
-5584.9205328795533
 42
-0.0051345458822572
 10
-781.67073613071773
 20
-5585.7948580673619
 10
-781.69226239747945
 20
-5585.8582843344748
 42
-0.0019150016597069
 10
-781.94779580435193
 20
-5586.601833454718
 10
-781.95426340874883
 20
-5586.6204209196412
 42
-0.0021524362751849
 10
-782.20274145981193
 20
-5587.3247467413476
 10
-782.2119518805099
 20
-5587.3505003196533
 42
-0.0024331286823494
 10
-782.44820713954437
 20
-5588.001099627767
 10
-782.45725509208899
 20
-5588.0256429341052
 42
-0.002744972179209
 10
-782.68186966293035
 20
-5588.6247728130456
 10
-782.69075967032268
 20
-5588.6480954028984
 42
-0.0031083229766391
 10
-782.90430215693254
 20
-5589.1980194404778
 10
-782.9130382886085
 20
-5589.2201091563365
 42
-0.0035311343288732
 10
-783.11607947419998
 20
-5589.7230922820654
 10
-783.12466481334855
 20
-5589.7439350055784
 42
-0.0040245640938721
 10
-783.31777661714204
 20
-5590.2022443281676
 10
-783.32621273074619
 20
-5590.2218236962426
 42
-0.0046015135857675
 10
-783.50996902390887
 20
-5590.637728725882
 10
-783.51825520173873
 20
-5590.6560258653381
 42
-0.0052768638272314
 10
-783.69323272069278
 20
-5591.0317987496046
 10
-783.70136493132179
 20
-5591.0487920881524
 42
-0.0060672675638737
 10
-783.86814454408568
 20
-5591.3867077112618
 10
-783.87611402456298
 20
-5591.4023729702512
 42
-0.0069904648869538
 10
-784.03528241856861
 20
-5591.7047087769224
 10
-784.04307381818251
 20
-5591.7190193261558
 42
-0.0080637022766019
 10
-784.19522567852528
 20
-5591.9880546293034
 10
-784.20281471114413
 20
-5592.0009824948829
 42
-0.00930064556697
 10
-784.34855538768807
 20
-5592.2389968934076
 10
-784.35590605442599
 20
-5592.2505148625714
 42
-0.0107060778049895
 10
-784.49585459787022
 20
-5592.459785179959
 10
-784.50291636615225
 20
-5592.469870722528
 42
-0.0122723111428296
 10
-784.63771008434787
 20
-5592.6526640520151
 10
-784.63803630789869
 20
-5592.6530844398203
 42
-0.0141836319639242
 10
-784.78161791087609
 20
-5592.8276541976538
 10
-784.78856566652598
 20
-5592.8356291979162
 42
-0.0175957477196762
 10
-784.92847183456274
 20
-5592.9852500863235
 42
-0.0080466359701764
 10
-785.07593559957775
 20
-5593.1275726144604
 10
-785.12197014411038
 20
-5593.1705930525659
 42
-0.0269600260388865
 10
-785.37525039009086
 20
-5593.3829163110731
 10
-785.44181752638417
 20
-5593.4328677256945
 42
-0.0178362839754632
 10
-785.68176201604615
 20
-5593.5998856519509
 10
-785.68900698705215
 20
-5593.6045541641597
 42
-0.0174650732637901
 10
-785.92534318448793
 20
-5593.7454151291149
 42
-0.0169240130165737
 10
-786.17080943034568
 20
-5593.8697073888925
 10
-786.21679558590336
 20
-5593.8910693444595
 42
-0.0318883036836312
 10
-786.56714644152089
 20
-5594.027407653969
 10
-786.63551197668596
 20
-5594.0491082744447
 42
-0.0284435909900643
 10
-787.01156210297916
 20
-5594.1453257099201
 10
-787.04672026346896
 20
-5594.1522193057472
 42
-0.0243909341021725
 10
-787.36016372439667
 20
-5594.1979403367786
 10
-787.41044445117734
 20
-5594.2027858836809
 42
-0.0196639292912439
 10
-787.62604002869512
 20
-5594.215034169194
 10
-787.67786409987389
 20
-5594.2159374299308
 42
-0.0100501510669351
 10
-787.79028738152283
 20
-5594.215637031577
 10
-787.82194724286398
 20
-5594.214915959692
 42
-0.0019752031201467
 10
-787.87103957954821
 20
-5594.2136037994824
 10
-787.87379988271186
 20
-5594.2135191076577
 42
0.0065378751955407
 10
-787.91737645752505
 20
-5594.212752216441
 42
-0.0167974694605618
 10
-787.96090728046227
 20
-5594.2110923179152
 10
-787.96498661971896
 20
-5594.2107993070204
 42
-0.0081283276409469
 10
-788.01654641742402
 20
-5594.2062523133854
 10
-788.02828599133613
 20
-5594.2050243958038
 42
-0.0126703440194509
 10
-788.10300428714811
 20
-5594.1952896047296
 10
-788.12579215480628
 20
-5594.1917313488175
 42
-0.0117852088409878
 10
-788.24533114063331
 20
-5594.1701683536621
 10
-788.30071159240174
 20
-5594.1588248134258
 42
-0.0251774592293454
 10
-788.52755563139829
 20
-5594.1003268039967
 10
-788.57227482123915
 20
-5594.0863599846643
 42
-0.0146525199919773
 10
-788.75866780879915
 20
-5594.0220934574591
 42
-0.0166929435882237
 10
-788.94064546490745
 20
-5593.9462863244134
 10
-788.94530209619893
 20
-5593.9441614237912
 42
-0.019168435840741
 10
-789.13048572745129
 20
-5593.8509253399998
 10
-789.13381831320521
 20
-5593.8490840924478
 42
-0.0221181781794332
 10
-789.31712861710628
 20
-5593.7369505940769
 10
-789.31947842111583
 20
-5593.735366296085
 42
-0.0254984685375571
 10
-789.49576857150566
 20
-5593.6029551461124
 10
-789.51825071919916
 20
-5593.5842028371835
 42
-0.029249264881338
 10
-789.64301965804611
 20
-5593.4671100375363
 42
-0.0159048957505443
 10
-789.75685965548428
 20
-5593.3390900459517
 10
-789.75817844607559
 20
-5593.3375084329173
 42
-0.0343813379553441
 10
-789.86081570770205
 20
-5593.1956371071474
 10
-789.89230723906212
 20
-5593.1451337150547
 42
-0.0369117275706227
 10
-789.97819974095989
 20
-5592.981656474105
 42
-0.0191751379925295
 10
-790.04539312651468
 20
-5592.8092518681051
 10
-790.04715645027636
 20
-5592.8041585234241
 42
-0.0378178042242837
 10
-790.09695116906016
 20
-5592.6152177473459
 10
-790.10294646479088
 20
-5592.5826571291464
 42
-0.0184846046437829
 10
-790.12366366408537
 20
-5592.4409043086016
 42
-0.0179866351291688
 10
-790.13399666915893
 20
-5592.2980134955214
 10
-790.13405311160477
 20
-5592.2964558089079
 42
-0.0085497186138641
 10
-790.13548539270857
 20
-5592.2215826438978
 42
-0.0085497186138641
  0
ENDBLK
  5
6E
100
AcDbEntity
  8
template
390
0
100
AcDbBlockEnd
  0
BLOCK
  5
6F
100
AcDbEntity
  8
notes
390
0
100
AcDbBlockBegin
  2
*D4
 70
               1
 10
0.0
 20
0.0
 30
0.0
  3
*D4
  1

  0
LINE
  5
70
100
AcDbEntity
  8
0
370
              -2
390
0
  6
Continuous
 62
               0
100
AcDbLine
 10
618.86372644791118
 20
1057.9806362798158
 30
0.0
 11
698.86372644761013
 21
1057.9806362798158
 31
0.0
  0
LINE
  5
71
100
AcDbEntity
  8
0
370
              -2
390
0
  6
Continuous
 62
               0
100
AcDbLine
 10
613.7457567129868
 20
797.9806362798181
 30
0.0
 11
698.86372644761013
 21
797.9806362798181
 31
0.0
  0
LINE
  5
72
100
AcDbEntity
  8
0
370
              -2
390
0
  6
Continuous
 62
               0
100
AcDbLine
 10
698.86372644761013
 20
1057.9806362798158
 30
0.0
 11
698.86372644761013
 21
797.9806362798181
 31
0.0
  0
CIRCLE
  5
73
102
{ACAD_REACTORS
330
74
102
}
100
AcDbEntity
  8
0
370
              -2
390
0
  6
Continuous
 62
               0
100
AcDbCircle
 10
698.86372644761013
 20
1057.9806362798158
 30
0.0
 40
4.99969482421875
  0
HATCH
  5
74
100
AcDbEntity
  8
0
370
              -2
390
0
  6
Continuous
 62
               0
100
AcDbHatch
 10
0.0
 20
0.0
 30
0.0
210
0.0
220
0.0
230
1.0
  2
SOLID
 70
               1
 71
               1
 91
        1
 92
        1
 93
        1
 72
               2
 10
698.86372644761013
 20
1057.9806362798158
 40
4.99969482421875
 50
0.0
 51
360.0
 73
               0
 97
        1
330
73
 75
               0
 76
               1
 98
        1
 10
0.0
 20
0.0
  0
CIRCLE
  5
75
102
{ACAD_REACTORS
330
76
102
}
100
AcDbEntity
  8
0
370
              -2
390
0
  6
Continuous
 62
               0
100
AcDbCircle
 10
698.86372644761013
 20
797.9806362798181
 30
0.0
 40
4.99969482421875
  0
HATCH
  5
76
100
AcDbEntity
  8
0
370
              -2
390
0
  6
Continuous
 62
               0
100
AcDbHatch
 10
0.0
 20
0.0
 30
0.0
210
0.0
220
0.0
230
1.0
  2
SOLID
 70
               1
 71
               1
 91
        1
 92
        1
 93
        1
 72
               2
 10
698.86372644761013
 20
797.9806362798181
 40
4.99969482421875
 50
0.0
 51
360.0
 73
               0
 97
        1
330
75
 75
               0
 76
               1
 98
        1
 10
0.0
 20
0.0
  0
MTEXT
  5
77
100
AcDbEntity
  8
0
390
0
 62
               0
100
AcDbMText
 10
664.9861092601102
 20
904.16813459764171
 30
0.0
 40
24.432617187500004
 41
0.0
 71
               1
 72
               1
  1
260
  7
ＭＳ ゴシック
 11
0.0
 21
1.0
 31
0.0
 73
               1
 44
0.7828267384257843
  0
POINT
  5
78
100
AcDbEntity
  8
Defpoints
370
               0
390
0
 62
               0
100
AcDbPoint
 10
588.7457567129868
 20
797.9806362798181
 30
0.0
  0
POINT
  5
79
100
AcDbEntity
  8
Defpoints
370
               0
390
0
 62
               0
100
AcDbPoint
 10
593.86372644791118
 20
1057.9806362798158
 30
0.0
  0
POINT
  5
7A
100
AcDbEntity
  8
Defpoints
370
               0
390
0
 62
               0
100
AcDbPoint
 10
698.86372644761013
 20
1057.9806362798158
 30
0.0
  0
ENDBLK
  5
7B
100
AcDbEntity
  8
notes
390
0
100
AcDbBlockEnd
  0
BLOCK
  5
7C
100
AcDbEntity
  8
notes
390
0
100
AcDbBlockBegin
  2
*D5
 70
               1
 10
0.0
 20
0.0
 30
0.0
  3
*D5
  1

  0
LINE
  5
7D
100
AcDbEntity
  8
0
370
              -2
390
0
  6
Continuous
 62
               0
100
AcDbLine
 10
438.88898446945291
 20
489.08646779294531
 30
0.0
 11
438.88898446945291
 21
416.07570941771519
 31
0.0
  0
LINE
  5
7E
100
AcDbEntity
  8
0
370
              -2
390
0
  6
Continuous
 62
               0
100
AcDbLine
 10
538.91465265572242
 20
490.62277765760473
 30
0.0
 11
538.91465265572242
 21
416.07570941771519
 31
0.0
  0
LINE
  5
7F
100
AcDbEntity
  8
0
370
              -2
390
0
  6
Continuous
 62
               0
100
AcDbLine
 10
438.88898446945291
 20
416.07570941771519
 30
0.0
 11
538.91465265572242
 21
416.07570941771519
 31
0.0
  0
CIRCLE
  5
80
102
{ACAD_REACTORS
330
81
102
}
100
AcDbEntity
  8
0
370
              -2
390
0
  6
Continuous
 62
               0
100
AcDbCircle
 10
438.88898446945291
 20
416.07570941771519
 30
0.0
 40
4.99969482421875
  0
HATCH
  5
81
100
AcDbEntity
  8
0
370
              -2
390
0
  6
Continuous
 62
               0
100
AcDbHatch
 10
0.0
 20
0.0
 30
0.0
210
0.0
220
0.0
230
1.0
  2
SOLID
 70
               1
 71
               1
 91
        1
 92
        1
 93
        1
 72
               2
 10
438.88898446945291
 20
416.07570941771519
 40
4.99969482421875
 50
0.0
 51
360.0
 73
               0
 97
        1
330
80
 75
               0
 76
               1
 98
        1
 10
0.0
 20
0.0
  0
CIRCLE
  5
82
102
{ACAD_REACTORS
330
83
102
}
100
AcDbEntity
  8
0
370
              -2
390
0
  6
Continuous
 62
               0
100
AcDbCircle
 10
538.91465265572242
 20
416.07570941771519
 30
0.0
 40
4.99969482421875
  0
HATCH
  5
83
100
AcDbEntity
  8
0
370
              -2
390
0
  6
Continuous
 62
               0
100
AcDbHatch
 10
0.0
 20
0.0
 30
0.0
210
0.0
220
0.0
230
1.0
  2
SOLID
 70
               1
 71
               1
 91
        1
 92
        1
 93
        1
 72
               2
 10
538.91465265572242
 20
416.07570941771519
 40
4.99969482421875
 50
0.0
 51
360.0
 73
               0
 97
        1
330
82
 75
               0
 76
               1
 98
        1
 10
0.0
 20
0.0
  0
MTEXT
  5
84
100
AcDbEntity
  8
0
390
0
 62
               0
100
AcDbMText
 10
470.1021509735433
 20
449.95332660521535
 30
0.0
 40
24.432617187500004
 41
0.0
 71
               1
 72
               1
  1
100
  7
ＭＳ ゴシック
 73
               1
 44
0.7828267384257843
  0
POINT
  5
85
100
AcDbEntity
  8
Defpoints
370
               0
390
0
 62
               0
100
AcDbPoint
 10
538.91465265572242
 20
515.62277765760473
 30
0.0
  0
POINT
  5
86
100
AcDbEntity
  8
Defpoints
370
               0
390
0
 62
               0
100
AcDbPoint
 10
438.88898446945291
 20
514.08646779294531
 30
0.0
  0
POINT
  5
87
100
AcDbEntity
  8
Defpoints
370
               0
390
0
 62
               0
100
AcDbPoint
 10
438.88898446945291
 20
416.07570941771519
 30
0.0
  0
ENDBLK
  5
88
100
AcDbEntity
  8
notes
390
0
100
AcDbBlockEnd
  0
BLOCK
  5
89
100
AcDbEntity
  8
notes
390
0
100
AcDbBlockBegin
  2
*D6
 70
               1
 10
0.0
 20
0.0
 30
0.0
  3
*D6
  1

  0
LINE
  5
8A
100
AcDbEntity
  8
0
370
              -2
390
0
  6
Continuous
 62
               0
100
AcDbLine
 10
433.93677665228506
 20
-772.55838262016005
 30
0.0
 11
338.93677665228506
 21
-772.55838262016005
 31
0.0
  0
LINE
  5
8B
100
AcDbEntity
  8
0
370
              -2
390
0
  6
Continuous
 62
               0
100
AcDbLine
 10
433.93677665228506
 20
-612.55838262016005
 30
0.0
 11
338.93677665228506
 21
-612.55838262016005
 31
0.0
  0
LINE
  5
8C
100
AcDbEntity
  8
0
370
              -2
390
0
  6
Continuous
 62
               0
100
AcDbLine
 10
338.93677665228506
 20
-772.55838262016005
 30
0.0
 11
338.93677665228506
 21
-612.55838262016005
 31
0.0
  0
CIRCLE
  5
8D
102
{ACAD_REACTORS
330
8E
102
}
100
AcDbEntity
  8
0
370
              -2
390
0
  6
Continuous
 62
               0
100
AcDbCircle
 10
338.93677665228506
 20
-772.55838262016005
 30
0.0
 40
4.99969482421875
  0
HATCH
  5
8E
100
AcDbEntity
  8
0
370
              -2
390
0
  6
Continuous
 62
               0
100
AcDbHatch
 10
0.0
 20
0.0
 30
0.0
210
0.0
220
0.0
230
1.0
  2
SOLID
 70
               1
 71
               1
 91
        1
 92
        1
 93
        1
 72
               2
 10
338.93677665228506
 20
-772.55838262016005
 40
4.99969482421875
 50
0.0
 51
360.0
 73
               0
 97
        1
330
8D
 75
               0
 76
               1
 98
        1
 10
0.0
 20
0.0
  0
CIRCLE
  5
8F
102
{ACAD_REACTORS
330
90
102
}
100
AcDbEntity
  8
0
370
              -2
390
0
  6
Continuous
 62
               0
100
AcDbCircle
 10
338.93677665228506
 20
-612.55838262016005
 30
0.0
 40
4.99969482421875
  0
HATCH
  5
90
100
AcDbEntity
  8
0
370
              -2
390
0
  6
Continuous
 62
               0
100
AcDbHatch
 10
0.0
 20
0.0
 30
0.0
210
0.0
220
0.0
230
1.0
  2
SOLID
 70
               1
 71
               1
 91
        1
 92
        1
 93
        1
 72
               2
 10
338.93677665228506
 20
-612.55838262016005
 40
4.99969482421875
 50
0.0
 51
360.0
 73
               0
 97
        1
330
8F
 75
               0
 76
               1
 98
        1
 10
0.0
 20
0.0
  0
MTEXT
  5
91
100
AcDbEntity
  8
0
390
0
 62
               0
100
AcDbMText
 10
305.05915946478513
 20
-716.37088430233598
 30
0.0
 40
24.432617187500004
 41
0.0
 71
               1
 72
               1
  1
160
  7
ＭＳ ゴシック
 11
0.0
 21
1.0
 31
0.0
 73
               1
 44
0.7828267384257843
  0
POINT
  5
92
100
AcDbEntity
  8
Defpoints
370
               0
390
0
 62
               0
100
AcDbPoint
 10
458.93677665228506
 20
-612.55838262016005
 30
0.0
  0
POINT
  5
93
100
AcDbEntity
  8
Defpoints
370
               0
390
0
 62
               0
100
AcDbPoint
 10
458.93677665228506
 20
-772.55838262016005
 30
0.0
  0
POINT
  5
94
100
AcDbEntity
  8
Defpoints
370
               0
390
0
 62
               0
100
AcDbPoint
 10
338.93677665228506
 20
-772.55838262016005
 30
0.0
  0
ENDBLK
  5
95
100
AcDbEntity
  8
notes
390
0
100
AcDbBlockEnd
  0
BLOCK
  5
96
100
AcDbEntity
  8
notes
390
0
100
AcDbBlockBegin
  2
*D7
 70
               1
 10
0.0
 20
0.0
 30
0.0
  3
*D7
  1

  0
LINE
  5
97
100
AcDbEntity
  8
0
370
              -2
390
0
  6
Continuous
 62
               0
100
AcDbLine
 10
433.93677665228506
 20
-612.55838262016005
 30
0.0
 11
338.93677665228506
 21
-612.55838262016005
 31
0.0
  0
LINE
  5
98
100
AcDbEntity
  8
0
370
              -2
390
0
  6
Continuous
 62
               0
100
AcDbLine
 10
433.93677665228506
 20
-332.55838262016096
 30
0.0
 11
338.93677665228506
 21
-332.55838262016096
 31
0.0
  0
LINE
  5
99
100
AcDbEntity
  8
0
370
              -2
390
0
  6
Continuous
 62
               0
100
AcDbLine
 10
338.93677665228506
 20
-612.55838262016005
 30
0.0
 11
338.93677665228506
 21
-332.55838262016096
 31
0.0
  0
CIRCLE
  5
9A
102
{ACAD_REACTORS
330
9B
102
}
100
AcDbEntity
  8
0
370
              -2
390
0
  6
Continuous
 62
               0
100
AcDbCircle
 10
338.93677665228506
 20
-612.55838262016005
 30
0.0
 40
4.99969482421875
  0
HATCH
  5
9B
100
AcDbEntity
  8
0
370
              -2
390
0
  6
Continuous
 62
               0
100
AcDbHatch
 10
0.0
 20
0.0
 30
0.0
210
0.0
220
0.0
230
1.0
  2
SOLID
 70
               1
 71
               1
 91
        1
 92
        1
 93
        1
 72
               2
 10
338.93677665228506
 20
-612.55838262016005
 40
4.99969482421875
 50
0.0
 51
360.0
 73
               0
 97
        1
330
9A
 75
               0
 76
               1
 98
        1
 10
0.0
 20
0.0
  0
CIRCLE
  5
9C
102
{ACAD_REACTORS
330
9D
102
}
100
AcDbEntity
  8
0
370
              -2
390
0
  6
Continuous
 62
               0
100
AcDbCircle
 10
338.93677665228506
 20
-332.55838262016096
 30
0.0
 40
4.99969482421875
  0
HATCH
  5
9D
100
AcDbEntity
  8
0
370
              -2
390
0
  6
Continuous
 62
               0
100
AcDbHatch
 10
0.0
 20
0.0
 30
0.0
210
0.0
220
0.0
230
1.0
  2
SOLID
 70
               1
 71
               1
 91
        1
 92
        1
 93
        1
 72
               2
 10
338.93677665228506
 20
-332.55838262016096
 40
4.99969482421875
 50
0.0
 51
360.0
 73
               0
 97
        1
330
9C
 75
               0
 76
               1
 98
        1
 10
0.0
 20
0.0
  0
MTEXT
  5
9E
100
AcDbEntity
  8
0
390
0
 62
               0
100
AcDbMText
 10
305.05915946478513
 20
-496.37088430233598
 30
0.0
 40
24.432617187500004
 41
0.0
 71
               1
 72
               1
  1
280
  7
ＭＳ ゴシック
 11
0.0
 21
1.0
 31
0.0
 73
               1
 44
0.7828267384257843
  0
POINT
  5
9F
100
AcDbEntity
  8
Defpoints
370
               0
390
0
 62
               0
100
AcDbPoint
 10
458.93677665228506
 20
-332.55838262016096
 30
0.0
  0
POINT
  5
A0
100
AcDbEntity
  8
Defpoints
370
               0
390
0
 62
               0
100
AcDbPoint
 10
458.93677665228506
 20
-612.55838262016005
 30
0.0
  0
POINT
  5
A1
100
AcDbEntity
  8
Defpoints
370
               0
390
0
 62
               0
100
AcDbPoint
 10
338.93677665228506
 20
-612.55838262016005
 30
0.0
  0
ENDBLK
  5
A2
100
AcDbEntity
  8
notes
390
0
100
AcDbBlockEnd
  0
BLOCK
  5
A3
100
AcDbEntity
  8
notes
390
0
100
AcDbBlockBegin
  2
*D8
 70
               1
 10
0.0
 20
0.0
 30
0.0
  3
*D8
  1

  0
LINE
  5
A4
100
AcDbEntity
  8
0
370
              -2
390
0
  6
Continuous
 62
               0
100
AcDbLine
 10
433.93677665228506
 20
-332.55838262016096
 30
0.0
 11
338.93677665228506
 21
-332.55838262016096
 31
0.0
  0
LINE
  5
A5
100
AcDbEntity
  8
0
370
              -2
390
0
  6
Continuous
 62
               0
100
AcDbLine
 10
433.93677665228506
 20
-172.55838262016096
 30
0.0
 11
338.93677665228506
 21
-172.55838262016096
 31
0.0
  0
LINE
  5
A6
100
AcDbEntity
  8
0
370
              -2
390
0
  6
Continuous
 62
               0
100
AcDbLine
 10
338.93677665228506
 20
-332.55838262016096
 30
0.0
 11
338.93677665228506
 21
-172.55838262016096
 31
0.0
  0
CIRCLE
  5
A7
102
{ACAD_REACTORS
330
A8
102
}
100
AcDbEntity
  8
0
370
              -2
390
0
  6
Continuous
 62
               0
100
AcDbCircle
 10
338.93677665228506
 20
-332.55838262016096
 30
0.0
 40
4.99969482421875
  0
HATCH
  5
A8
100
AcDbEntity
  8
0
370
              -2
390
0
  6
Continuous
 62
               0
100
AcDbHatch
 10
0.0
 20
0.0
 30
0.0
210
0.0
220
0.0
230
1.0
  2
SOLID
 70
               1
 71
               1
 91
        1
 92
        1
 93
        1
 72
               2
 10
338.93677665228506
 20
-332.55838262016096
 40
4.99969482421875
 50
0.0
 51
360.0
 73
               0
 97
        1
330
A7
 75
               0
 76
               1
 98
        1
 10
0.0
 20
0.0
  0
CIRCLE
  5
A9
102
{ACAD_REACTORS
330
AA
102
}
100
AcDbEntity
  8
0
370
              -2
390
0
  6
Continuous
 62
               0
100
AcDbCircle
 10
338.93677665228506
 20
-172.55838262016096
 30
0.0
 40
4.99969482421875
  0
HATCH
  5
AA
100
AcDbEntity
  8
0
370
              -2
390
0
  6
Continuous
 62
               0
100
AcDbHatch
 10
0.0
 20
0.0
 30
0.0
210
0.0
220
0.0
230
1.0
  2
SOLID
 70
               1
 71
               1
 91
        1
 92
        1
 93
        1
 72
               2
 10
338.93677665228506
 20
-172.55838262016096
 40
4.99969482421875
 50
0.0
 51
360.0
 73
               0
 97
        1
330
A9
 75
               0
 76
               1
 98
        1
 10
0.0
 20
0.0
  0
MTEXT
  5
AB
100
AcDbEntity
  8
0
390
0
 62
               0
100
AcDbMText
 10
305.05915946478513
 20
-276.37088430233689
 30
0.0
 40
24.432617187500004
 41
0.0
 71
               1
 72
               1
  1
160
  7
ＭＳ ゴシック
 11
0.0
 21
1.0
 31
0.0
 73
               1
 44
0.7828267384257843
  0
POINT
  5
AC
100
AcDbEntity
  8
Defpoints
370
               0
390
0
 62
               0
100
AcDbPoint
 10
458.93677665228506
 20
-172.55838262016096
 30
0.0
  0
POINT
  5
AD
100
AcDbEntity
  8
Defpoints
370
               0
390
0
 62
               0
100
AcDbPoint
 10
458.93677665228506
 20
-332.55838262016096
 30
0.0
  0
POINT
  5
AE
100
AcDbEntity
  8
Defpoints
370
               0
390
0
 62
               0
100
AcDbPoint
 10
338.93677665228506
 20
-332.55838262016096
 30
0.0
  0
ENDBLK
  5
AF
100
AcDbEntity
  8
notes
390
0
100
AcDbBlockEnd
  0
BLOCK
  5
B0
100
AcDbEntity
  8
notes
390
0
100
AcDbBlockBegin
  2
*D9
 70
               1
 10
0.0
 20
0.0
 30
0.0
  3
*D9
  1

  0
LINE
  5
B1
100
AcDbEntity
  8
0
370
              -2
390
0
  6
Continuous
 62
               0
100
AcDbLine
 10
478.93677665228506
 20
-847.55838262016005
 30
0.0
 11
478.93677665228506
 21
-997.53179756010013
 31
0.0
  0
LINE
  5
B2
100
AcDbEntity
  8
0
370
              -2
390
0
  6
Continuous
 62
               0
100
AcDbLine
 10
438.93677665228483
 20
-916.84041492291362
 30
0.0
 11
438.93677665228483
 21
-997.53179756010013
 31
0.0
  0
LINE
  5
B3
100
AcDbEntity
  8
0
370
              -2
390
0
  6
Continuous
 62
               0
100
AcDbLine
 10
478.93677665228506
 20
-997.53179756010013
 30
0.0
 11
438.93677665228483
 21
-997.53179756010013
 31
0.0
  0
CIRCLE
  5
B4
102
{ACAD_REACTORS
330
B5
102
}
100
AcDbEntity
  8
0
370
              -2
390
0
  6
Continuous
 62
               0
100
AcDbCircle
 10
478.93677665228506
 20
-997.53179756010013
 30
0.0
 40
4.99969482421875
  0
HATCH
  5
B5
100
AcDbEntity
  8
0
370
              -2
390
0
  6
Continuous
 62
               0
100
AcDbHatch
 10
0.0
 20
0.0
 30
0.0
210
0.0
220
0.0
230
1.0
  2
SOLID
 70
               1
 71
               1
 91
        1
 92
        1
 93
        1
 72
               2
 10
478.93677665228506
 20
-997.53179756010013
 40
4.99969482421875
 50
0.0
 51
360.0
 73
               0
 97
        1
330
B4
 75
               0
 76
               1
 98
        1
 10
0.0
 20
0.0
  0
CIRCLE
  5
B6
102
{ACAD_REACTORS
330
B7
102
}
100
AcDbEntity
  8
0
370
              -2
390
0
  6
Continuous
 62
               0
100
AcDbCircle
 10
438.93677665228483
 20
-997.53179756010013
 30
0.0
 40
4.99969482421875
  0
HATCH
  5
B7
100
AcDbEntity
  8
0
370
              -2
390
0
  6
Continuous
 62
               0
100
AcDbHatch
 10
0.0
 20
0.0
 30
0.0
210
0.0
220
0.0
230
1.0
  2
SOLID
 70
               1
 71
               1
 91
        1
 92
        1
 93
        1
 72
               2
 10
438.93677665228483
 20
-997.53179756010013
 40
4.99969482421875
 50
0.0
 51
360.0
 73
               0
 97
        1
330
B6
 75
               0
 76
               1
 98
        1
 10
0.0
 20
0.0
  0
MTEXT
  5
B8
100
AcDbEntity
  8
0
390
0
 62
               0
100
AcDbMText
 10
443.06177665228483
 20
-963.65418037260042
 30
0.0
 40
24.432617187500004
 41
0.0
 71
               1
 72
               1
  1
40
  7
ＭＳ ゴシック
 73
               1
 44
0.7828267384257843
  0
POINT
  5
B9
100
AcDbEntity
  8
Defpoints
370
               0
390
0
 62
               0
100
AcDbPoint
 10
438.93677665228483
 20
-891.84041492291362
 30
0.0
  0
POINT
  5
BA
100
AcDbEntity
  8
Defpoints
370
               0
390
0
 62
               0
100
AcDbPoint
 10
478.93677665228506
 20
-822.55838262016005
 30
0.0
  0
POINT
  5
BB
100
AcDbEntity
  8
Defpoints
370
               0
390
0
 62
               0
100
AcDbPoint
 10
478.93677665228506
 20
-997.53179756010013
 30
0.0
  0
ENDBLK
  5
BC
100
AcDbEntity
  8
notes
390
0
100
AcDbBlockEnd
  0
BLOCK
  5
BD
100
AcDbEntity
  8
notes
390
0
100
AcDbBlockBegin
  2
*D10
 70
               1
 10
0.0
 20
0.0
 30
0.0
  3
*D10
  1

  0
LINE
  5
BE
100
AcDbEntity
  8
0
370
              -2
390
0
  6
Continuous
 62
               0
100
AcDbLine
 10
-682.86424284225291
 20
-897.53200411207035
 30
0.0
 11
-751.24302668099085
 21
-897.53200411207035
 31
0.0
  0
LINE
  5
BF
100
AcDbEntity
  8
0
370
              -2
390
0
  6
Continuous
 62
               0
100
AcDbLine
 10
-682.86424284225291
 20
-47.532004112068535
 30
0.0
 11
-751.24302668099085
 21
-47.532004112068535
 31
0.0
  0
LINE
  5
C0
100
AcDbEntity
  8
0
370
              -2
390
0
  6
Continuous
 62
               0
100
AcDbLine
 10
-751.24302668099085
 20
-897.53200411207035
 30
0.0
 11
-751.24302668099085
 21
-47.532004112068535
 31
0.0
  0
CIRCLE
  5
C1
102
{ACAD_REACTORS
330
C2
102
}
100
AcDbEntity
  8
0
370
              -2
390
0
  6
Continuous
 62
               0
100
AcDbCircle
 10
-751.24302668099085
 20
-897.53200411207035
 30
0.0
 40
4.99969482421875
  0
HATCH
  5
C2
100
AcDbEntity
  8
0
370
              -2
390
0
  6
Continuous
 62
               0
100
AcDbHatch
 10
0.0
 20
0.0
 30
0.0
210
0.0
220
0.0
230
1.0
  2
SOLID
 70
               1
 71
               1
 91
        1
 92
        1
 93
        1
 72
               2
 10
-751.24302668099085
 20
-897.53200411207035
 40
4.99969482421875
 50
0.0
 51
360.0
 73
               0
 97
        1
330
C1
 75
               0
 76
               1
 98
        1
 10
0.0
 20
0.0
  0
CIRCLE
  5
C3
102
{ACAD_REACTORS
330
C4
102
}
100
AcDbEntity
  8
0
370
              -2
390
0
  6
Continuous
 62
               0
100
AcDbCircle
 10
-751.24302668099085
 20
-47.532004112068535
 30
0.0
 40
4.99969482421875
  0
HATCH
  5
C4
100
AcDbEntity
  8
0
370
              -2
390
0
  6
Continuous
 62
               0
100
AcDbHatch
 10
0.0
 20
0.0
 30
0.0
210
0.0
220
0.0
230
1.0
  2
SOLID
 70
               1
 71
               1
 91
        1
 92
        1
 93
        1
 72
               2
 10
-751.24302668099085
 20
-47.532004112068535
 40
4.99969482421875
 50
0.0
 51
360.0
 73
               0
 97
        1
330
C3
 75
               0
 76
               1
 98
        1
 10
0.0
 20
0.0
  0
MTEXT
  5
C5
100
AcDbEntity
  8
0
390
0
 62
               0
100
AcDbMText
 10
-785.12064386849102
 20
-496.34450579424538
 30
0.0
 40
24.432617187500004
 41
0.0
 71
               1
 72
               1
  1
850
  7
ＭＳ ゴシック
 11
0.0
 21
1.0
 31
0.0
 73
               1
 44
0.7828267384257843
  0
POINT
  5
C6
100
AcDbEntity
  8
Defpoints
370
               0
390
0
 62
               0
100
AcDbPoint
 10
-657.86424284225291
 20
-47.532004112068535
 30
0.0
  0
POINT
  5
C7
100
AcDbEntity
  8
Defpoints
370
               0
390
0
 62
               0
100
AcDbPoint
 10
-657.86424284225291
 20
-897.53200411207035
 30
0.0
  0
POINT
  5
C8
100
AcDbEntity
  8
Defpoints
370
               0
390
0
 62
               0
100
AcDbPoint
 10
-751.24302668099085
 20
-897.53200411207035
 30
0.0
  0
ENDBLK
  5
C9
100
AcDbEntity
  8
notes
390
0
100
AcDbBlockEnd
  0
BLOCK
  5
CA
100
AcDbEntity
  8
notes
390
0
100
AcDbBlockBegin
  2
*D11
 70
               1
 10
0.0
 20
0.0
 30
0.0
  3
*D11
  1

  0
LINE
  5
CB
100
AcDbEntity
  8
0
370
              -2
390
0
  6
Continuous
 62
               0
100
AcDbLine
 10
-593.6295364300679
 20
-572.53200411207035
 30
0.0
 11
-701.24302668099085
 21
-572.53200411207035
 31
0.0
  0
LINE
  5
CC
100
AcDbEntity
  8
0
370
              -2
390
0
  6
Continuous
 62
               0
100
AcDbLine
 10
-596.1295364300679
 20
-472.53200411207035
 30
0.0
 11
-701.24302668099085
 21
-472.53200411207035
 31
0.0
  0
LINE
  5
CD
100
AcDbEntity
  8
0
370
              -2
390
0
  6
Continuous
 62
               0
100
AcDbLine
 10
-701.24302668099085
 20
-572.53200411207035
 30
0.0
 11
-701.24302668099085
 21
-472.53200411207035
 31
0.0
  0
CIRCLE
  5
CE
102
{ACAD_REACTORS
330
CF
102
}
100
AcDbEntity
  8
0
370
              -2
390
0
  6
Continuous
 62
               0
100
AcDbCircle
 10
-701.24302668099085
 20
-572.53200411207035
 30
0.0
 40
4.99969482421875
  0
HATCH
  5
CF
100
AcDbEntity
  8
0
370
              -2
390
0
  6
Continuous
 62
               0
100
AcDbHatch
 10
0.0
 20
0.0
 30
0.0
210
0.0
220
0.0
230
1.0
  2
SOLID
 70
               1
 71
               1
 91
        1
 92
        1
 93
        1
 72
               2
 10
-701.24302668099085
 20
-572.53200411207035
 40
4.99969482421875
 50
0.0
 51
360.0
 73
               0
 97
        1
330
CE
 75
               0
 76
               1
 98
        1
 10
0.0
 20
0.0
  0
CIRCLE
  5
D0
102
{ACAD_REACTORS
330
D1
102
}
100
AcDbEntity
  8
0
370
              -2
390
0
  6
Continuous
 62
               0
100
AcDbCircle
 10
-701.24302668099085
 20
-472.53200411207035
 30
0.0
 40
4.99969482421875
  0
HATCH
  5
D1
100
AcDbEntity
  8
0
370
              -2
390
0
  6
Continuous
 62
               0
100
AcDbHatch
 10
0.0
 20
0.0
 30
0.0
210
0.0
220
0.0
230
1.0
  2
SOLID
 70
               1
 71
               1
 91
        1
 92
        1
 93
        1
 72
               2
 10
-701.24302668099085
 20
-472.53200411207035
 40
4.99969482421875
 50
0.0
 51
360.0
 73
               0
 97
        1
330
D0
 75
               0
 76
               1
 98
        1
 10
0.0
 20
0.0
  0
MTEXT
  5
D2
100
AcDbEntity
  8
0
390
0
 62
               0
100
AcDbMText
 10
-735.12064386849102
 20
-546.34450579424629
 30
0.0
 40
24.432617187500004
 41
0.0
 71
               1
 72
               1
  1
100
  7
ＭＳ ゴシック
 11
0.0
 21
1.0
 31
0.0
 73
               1
 44
0.7828267384257843
  0
POINT
  5
D3
100
AcDbEntity
  8
Defpoints
370
               0
390
0
 62
               0
100
AcDbPoint
 10
-571.1295364300679
 20
-472.53200411207035
 30
0.0
  0
POINT
  5
D4
100
AcDbEntity
  8
Defpoints
370
               0
390
0
 62
               0
100
AcDbPoint
 10
-568.6295364300679
 20
-572.53200411207035
 30
0.0
  0
POINT
  5
D5
100
AcDbEntity
  8
Defpoints
370
               0
390
0
 62
               0
100
AcDbPoint
 10
-701.24302668099085
 20
-572.53200411207035
 30
0.0
  0
ENDBLK
  5
D6
100
AcDbEntity
  8
notes
390
0
100
AcDbBlockEnd
  0
BLOCK
  5
D7
100
AcDbEntity
  8
notes
390
0
100
AcDbBlockBegin
  2
*D12
 70
               1
 10
0.0
 20
0.0
 30
0.0
  3
*D12
  1

  0
LINE
  5
D8
100
AcDbEntity
  8
0
370
              -2
390
0
  6
Continuous
 62
               0
100
AcDbLine
 10
-596.1295364300679
 20
-472.53200411207035
 30
0.0
 11
-701.24302668099085
 21
-472.53200411207035
 31
0.0
  0
LINE
  5
D9
100
AcDbEntity
  8
0
370
              -2
390
0
  6
Continuous
 62
               0
100
AcDbLine
 10
-593.6295364300679
 20
-372.53200411207035
 30
0.0
 11
-701.24302668099085
 21
-372.53200411207035
 31
0.0
  0
LINE
  5
DA
100
AcDbEntity
  8
0
370
              -2
390
0
  6
Continuous
 62
               0
100
AcDbLine
 10
-701.24302668099085
 20
-472.53200411207035
 30
0.0
 11
-701.24302668099085
 21
-372.53200411207035
 31
0.0
  0
CIRCLE
  5
DB
102
{ACAD_REACTORS
330
DC
102
}
100
AcDbEntity
  8
0
370
              -2
390
0
  6
Continuous
 62
               0
100
AcDbCircle
 10
-701.24302668099085
 20
-472.53200411207035
 30
0.0
 40
4.99969482421875
  0
HATCH
  5
DC
100
AcDbEntity
  8
0
370
              -2
390
0
  6
Continuous
 62
               0
100
AcDbHatch
 10
0.0
 20
0.0
 30
0.0
210
0.0
220
0.0
230
1.0
  2
SOLID
 70
               1
 71
               1
 91
        1
 92
        1
 93
        1
 72
               2
 10
-701.24302668099085
 20
-472.53200411207035
 40
4.99969482421875
 50
0.0
 51
360.0
 73
               0
 97
        1
330
DB
 75
               0
 76
               1
 98
        1
 10
0.0
 20
0.0
  0
CIRCLE
  5
DD
102
{ACAD_REACTORS
330
DE
102
}
100
AcDbEntity
  8
0
370
              -2
390
0
  6
Continuous
 62
               0
100
AcDbCircle
 10
-701.24302668099085
 20
-372.53200411207035
 30
0.0
 40
4.99969482421875
  0
HATCH
  5
DE
100
AcDbEntity
  8
0
370
              -2
390
0
  6
Continuous
 62
               0
100
AcDbHatch
 10
0.0
 20
0.0
 30
0.0
210
0.0
220
0.0
230
1.0
  2
SOLID
 70
               1
 71
               1
 91
        1
 92
        1
 93
        1
 72
               2
 10
-701.24302668099085
 20
-372.53200411207035
 40
4.99969482421875
 50
0.0
 51
360.0
 73
               0
 97
        1
330
DD
 75
               0
 76
               1
 98
        1
 10
0.0
 20
0.0
  0
MTEXT
  5
DF
100
AcDbEntity
  8
0
390
0
 62
               0
100
AcDbMText
 10
-735.12064386849102
 20
-446.34450579424629
 30
0.0
 40
24.432617187500004
 41
0.0
 71
               1
 72
               1
  1
100
  7
ＭＳ ゴシック
 11
0.0
 21
1.0
 31
0.0
 73
               1
 44
0.7828267384257843
  0
POINT
  5
E0
100
AcDbEntity
  8
Defpoints
370
               0
390
0
 62
               0
100
AcDbPoint
 10
-568.6295364300679
 20
-372.53200411207035
 30
0.0
  0
POINT
  5
E1
100
AcDbEntity
  8
Defpoints
370
               0
390
0
 62
               0
100
AcDbPoint
 10
-571.1295364300679
 20
-472.53200411207035
 30
0.0
  0
POINT
  5
E2
100
AcDbEntity
  8
Defpoints
370
               0
390
0
 62
               0
100
AcDbPoint
 10
-701.24302668099085
 20
-472.53200411207035
 30
0.0
  0
ENDBLK
  5
E3
100
AcDbEntity
  8
notes
390
0
100
AcDbBlockEnd
  0
BLOCK
  5
E4
100
AcDbEntity
  8
notes
390
0
100
AcDbBlockBegin
  2
*D13
 70
               1
 10
0.0
 20
0.0
 30
0.0
  3
*D13
  1

  0
LINE
  5
E5
100
AcDbEntity
  8
0
370
              -2
390
0
  6
Continuous
 62
               0
100
AcDbLine
 10
-135.864242842252
 20
-897.53200411206853
 30
0.0
 11
-10.864242842252906
 21
-897.53200411206853
 31
0.0
  0
LINE
  5
E6
100
AcDbEntity
  8
0
370
              -2
390
0
  6
Continuous
 62
               0
100
AcDbLine
 10
-85.864242842252906
 20
-837.53200411206853
 30
0.0
 11
-10.864242842252906
 21
-837.53200411206853
 31
0.0
  0
LINE
  5
E7
100
AcDbEntity
  8
0
370
              -2
390
0
  6
Continuous
 62
               0
100
AcDbLine
 10
-10.864242842252906
 20
-897.53200411206853
 30
0.0
 11
-10.864242842252906
 21
-837.53200411206853
 31
0.0
  0
CIRCLE
  5
E8
102
{ACAD_REACTORS
330
E9
102
}
100
AcDbEntity
  8
0
370
              -2
390
0
  6
Continuous
 62
               0
100
AcDbCircle
 10
-10.864242842252906
 20
-897.53200411206853
 30
0.0
 40
4.99969482421875
  0
HATCH
  5
E9
100
AcDbEntity
  8
0
370
              -2
390
0
  6
Continuous
 62
               0
100
AcDbHatch
 10
0.0
 20
0.0
 30
0.0
210
0.0
220
0.0
230
1.0
  2
SOLID
 70
               1
 71
               1
 91
        1
 92
        1
 93
        1
 72
               2
 10
-10.864242842252906
 20
-897.53200411206853
 40
4.99969482421875
 50
0.0
 51
360.0
 73
               0
 97
        1
330
E8
 75
               0
 76
               1
 98
        1
 10
0.0
 20
0.0
  0
CIRCLE
  5
EA
102
{ACAD_REACTORS
330
EB
102
}
100
AcDbEntity
  8
0
370
              -2
390
0
  6
Continuous
 62
               0
100
AcDbCircle
 10
-10.864242842252906
 20
-837.53200411206853
 30
0.0
 40
4.99969482421875
  0
HATCH
  5
EB
100
AcDbEntity
  8
0
370
              -2
390
0
  6
Continuous
 62
               0
100
AcDbHatch
 10
0.0
 20
0.0
 30
0.0
210
0.0
220
0.0
230
1.0
  2
SOLID
 70
               1
 71
               1
 91
        1
 92
        1
 93
        1
 72
               2
 10
-10.864242842252906
 20
-837.53200411206853
 40
4.99969482421875
 50
0.0
 51
360.0
 73
               0
 97
        1
330
EA
 75
               0
 76
               1
 98
        1
 10
0.0
 20
0.0
  0
MTEXT
  5
EC
100
AcDbEntity
  8
0
390
0
 62
               0
100
AcDbMText
 10
-44.741860029752843
 20
-883.40700411206853
 30
0.0
 40
24.432617187500004
 41
0.0
 71
               1
 72
               1
  1
60
  7
ＭＳ ゴシック
 11
0.0
 21
1.0
 31
0.0
 73
               1
 44
0.7828267384257843
  0
POINT
  5
ED
100
AcDbEntity
  8
Defpoints
370
               0
390
0
 62
               0
100
AcDbPoint
 10
-110.86424284225291
 20
-837.53200411206853
 30
0.0
  0
POINT
  5
EE
100
AcDbEntity
  8
Defpoints
370
               0
390
0
 62
               0
100
AcDbPoint
 10
-160.864242842252
 20
-897.53200411206853
 30
0.0
  0
POINT
  5
EF
100
AcDbEntity
  8
Defpoints
370
               0
390
0
 62
               0
100
AcDbPoint
 10
-10.864242842252906
 20
-897.53200411206853
 30
0.0
  0
ENDBLK
  5
F0
100
AcDbEntity
  8
notes
390
0
100
AcDbBlockEnd
  0
BLOCK
  5
F1
100
AcDbEntity
  8
notes
390
0
100
AcDbBlockBegin
  2
*D14
 70
               1
 10
0.0
 20
0.0
 30
0.0
  3
*D14
  1

  0
LINE
  5
F2
100
AcDbEntity
  8
0
370
              -2
390
0
  6
Continuous
 62
               0
100
AcDbLine
 10
-85.864242842252906
 20
-837.53200411206853
 30
0.0
 11
-10.864242842252906
 21
-837.53200411206853
 31
0.0
  0
LINE
  5
F3
100
AcDbEntity
  8
0
370
              -2
390
0
  6
Continuous
 62
               0
100
AcDbLine
 10
-85.864242842252906
 20
-107.53200411206853
 30
0.0
 11
-10.864242842252906
 21
-107.53200411206853
 31
0.0
  0
LINE
  5
F4
100
AcDbEntity
  8
0
370
              -2
390
0
  6
Continuous
 62
               0
100
AcDbLine
 10
-10.864242842252906
 20
-837.53200411206853
 30
0.0
 11
-10.864242842252906
 21
-107.53200411206853
 31
0.0
  0
CIRCLE
  5
F5
102
{ACAD_REACTORS
330
F6
102
}
100
AcDbEntity
  8
0
370
              -2
390
0
  6
Continuous
 62
               0
100
AcDbCircle
 10
-10.864242842252906
 20
-837.53200411206853
 30
0.0
 40
4.99969482421875
  0
HATCH
  5
F6
100
AcDbEntity
  8
0
370
              -2
390
0
  6
Continuous
 62
               0
100
AcDbHatch
 10
0.0
 20
0.0
 30
0.0
210
0.0
220
0.0
230
1.0
  2
SOLID
 70
               1
 71
               1
 91
        1
 92
        1
 93
        1
 72
               2
 10
-10.864242842252906
 20
-837.53200411206853
 40
4.99969482421875
 50
0.0
 51
360.0
 73
               0
 97
        1
330
F5
 75
               0
 76
               1
 98
        1
 10
0.0
 20
0.0
  0
CIRCLE
  5
F7
102
{ACAD_REACTORS
330
F8
102
}
100
AcDbEntity
  8
0
370
              -2
390
0
  6
Continuous
 62
               0
100
AcDbCircle
 10
-10.864242842252906
 20
-107.53200411206853
 30
0.0
 40
4.99969482421875
  0
HATCH
  5
F8
100
AcDbEntity
  8
0
370
              -2
390
0
  6
Continuous
 62
               0
100
AcDbHatch
 10
0.0
 20
0.0
 30
0.0
210
0.0
220
0.0
230
1.0
  2
SOLID
 70
               1
 71
               1
 91
        1
 92
        1
 93
        1
 72
               2
 10
-10.864242842252906
 20
-107.53200411206853
 40
4.99969482421875
 50
0.0
 51
360.0
 73
               0
 97
        1
330
F7
 75
               0
 76
               1
 98
        1
 10
0.0
 20
0.0
  0
MTEXT
  5
F9
100
AcDbEntity
  8
0
390
0
 62
               0
100
AcDbMText
 10
-44.741860029752843
 20
-496.34450579424447
 30
0.0
 40
24.432617187500004
 41
0.0
 71
               1
 72
               1
  1
730
  7
ＭＳ ゴシック
 11
0.0
 21
1.0
 31
0.0
 73
               1
 44
0.7828267384257843
  0
POINT
  5
FA
100
AcDbEntity
  8
Defpoints
370
               0
390
0
 62
               0
100
AcDbPoint
 10
-110.86424284225291
 20
-107.53200411206853
 30
0.0
  0
POINT
  5
FB
100
AcDbEntity
  8
Defpoints
370
               0
390
0
 62
               0
100
AcDbPoint
 10
-110.86424284225291
 20
-837.53200411206853
 30
0.0
  0
POINT
  5
FC
100
AcDbEntity
  8
Defpoints
370
               0
390
0
 62
               0
100
AcDbPoint
 10
-10.864242842252906
 20
-837.53200411206853
 30
0.0
  0
ENDBLK
  5
FD
100
AcDbEntity
  8
notes
390
0
100
AcDbBlockEnd
  0
BLOCK
  5
FE
100
AcDbEntity
  8
notes
390
0
100
AcDbBlockBegin
  2
*D15
 70
               1
 10
0.0
 20
0.0
 30
0.0
  3
*D15
  1

  0
LINE
  5
FF
100
AcDbEntity
  8
0
370
              -2
390
0
  6
Continuous
 62
               0
100
AcDbLine
 10
-660.86424284225291
 20
-919.53200411207035
 30
0.0
 11
-660.86424284225291
 21
-997.53200411207035
 31
0.0
  0
LINE
  5
100
100
AcDbEntity
  8
0
370
              -2
390
0
  6
Continuous
 62
               0
100
AcDbLine
 10
-490.86424284225109
 20
-922.53200411207035
 30
0.0
 11
-490.86424284225109
 21
-997.53200411207035
 31
0.0
  0
LINE
  5
101
100
AcDbEntity
  8
0
370
              -2
390
0
  6
Continuous
 62
               0
100
AcDbLine
 10
-660.86424284225291
 20
-997.53200411207035
 30
0.0
 11
-490.86424284225109
 21
-997.53200411207035
 31
0.0
  0
CIRCLE
  5
102
102
{ACAD_REACTORS
330
103
102
}
100
AcDbEntity
  8
0
370
              -2
390
0
  6
Continuous
 62
               0
100
AcDbCircle
 10
-660.86424284225291
 20
-997.53200411207035
 30
0.0
 40
4.99969482421875
  0
HATCH
  5
103
100
AcDbEntity
  8
0
370
              -2
390
0
  6
Continuous
 62
               0
100
AcDbHatch
 10
0.0
 20
0.0
 30
0.0
210
0.0
220
0.0
230
1.0
  2
SOLID
 70
               1
 71
               1
 91
        1
 92
        1
 93
        1
 72
               2
 10
-660.86424284225291
 20
-997.53200411207035
 40
4.99969482421875
 50
0.0
 51
360.0
 73
               0
 97
        1
330
102
 75
               0
 76
               1
 98
        1
 10
0.0
 20
0.0
  0
CIRCLE
  5
104
102
{ACAD_REACTORS
330
105
102
}
100
AcDbEntity
  8
0
370
              -2
390
0
  6
Continuous
 62
               0
100
AcDbCircle
 10
-490.86424284225109
 20
-997.53200411207035
 30
0.0
 40
4.99969482421875
  0
HATCH
  5
105
100
AcDbEntity
  8
0
370
              -2
390
0
  6
Continuous
 62
               0
100
AcDbHatch
 10
0.0
 20
0.0
 30
0.0
210
0.0
220
0.0
230
1.0
  2
SOLID
 70
               1
 71
               1
 91
        1
 92
        1
 93
        1
 72
               2
 10
-490.86424284225109
 20
-997.53200411207035
 40
4.99969482421875
 50
0.0
 51
360.0
 73
               0
 97
        1
330
104
 75
               0
 76
               1
 98
        1
 10
0.0
 20
0.0
  0
MTEXT
  5
106
100
AcDbEntity
  8
0
390
0
 62
               0
100
AcDbMText
 10
-599.67674452442748
 20
-963.65438692457064
 30
0.0
 40
24.432617187500004
 41
0.0
 71
               1
 72
               1
  1
170
  7
ＭＳ ゴシック
 73
               1
 44
0.7828267384257843
  0
POINT
  5
107
100
AcDbEntity
  8
Defpoints
370
               0
390
0
 62
               0
100
AcDbPoint
 10
-490.86424284225109
 20
-897.53200411207035
 30
0.0
  0
POINT
  5
108
100
AcDbEntity
  8
Defpoints
370
               0
390
0
 62
               0
100
AcDbPoint
 10
-660.86424284225291
 20
-894.53200411207035
 30
0.0
  0
POINT
  5
109
100
AcDbEntity
  8
Defpoints
370
               0
390
0
 62
               0
100
AcDbPoint
 10
-660.86424284225291
 20
-997.53200411207035
 30
0.0
  0
ENDBLK
  5
10A
100
AcDbEntity
  8
notes
390
0
100
AcDbBlockEnd
  0
BLOCK
  5
10B
100
AcDbEntity
  8
notes
390
0
100
AcDbBlockBegin
  2
*D16
 70
               1
 10
0.0
 20
0.0
 30
0.0
  3
*D16
  1

  0
LINE
  5
10C
100
AcDbEntity
  8
0
370
              -2
390
0
  6
Continuous
 62
               0
100
AcDbLine
 10
-490.86424284225109
 20
-922.53200411207035
 30
0.0
 11
-490.86424284225109
 21
-997.53200411207035
 31
0.0
  0
LINE
  5
10D
100
AcDbEntity
  8
0
370
              -2
390
0
  6
Continuous
 62
               0
100
AcDbLine
 10
-170.86424284225018
 20
-922.53200411207035
 30
0.0
 11
-170.86424284225018
 21
-997.53200411207035
 31
0.0
  0
LINE
  5
10E
100
AcDbEntity
  8
0
370
              -2
390
0
  6
Continuous
 62
               0
100
AcDbLine
 10
-490.86424284225109
 20
-997.53200411207035
 30
0.0
 11
-170.86424284225018
 21
-997.53200411207035
 31
0.0
  0
CIRCLE
  5
10F
102
{ACAD_REACTORS
330
110
102
}
100
AcDbEntity
  8
0
370
              -2
390
0
  6
Continuous
 62
               0
100
AcDbCircle
 10
-490.86424284225109
 20
-997.53200411207035
 30
0.0
 40
4.99969482421875
  0
HATCH
  5
110
100
AcDbEntity
  8
0
370
              -2
390
0
  6
Continuous
 62
               0
100
AcDbHatch
 10
0.0
 20
0.0
 30
0.0
210
0.0
220
0.0
230
1.0
  2
SOLID
 70
               1
 71
               1
 91
        1
 92
        1
 93
        1
 72
               2
 10
-490.86424284225109
 20
-997.53200411207035
 40
4.99969482421875
 50
0.0
 51
360.0
 73
               0
 97
        1
330
10F
 75
               0
 76
               1
 98
        1
 10
0.0
 20
0.0
  0
CIRCLE
  5
111
102
{ACAD_REACTORS
330
112
102
}
100
AcDbEntity
  8
0
370
              -2
390
0
  6
Continuous
 62
               0
100
AcDbCircle
 10
-170.86424284225018
 20
-997.53200411207035
 30
0.0
 40
4.99969482421875
  0
HATCH
  5
112
100
AcDbEntity
  8
0
370
              -2
390
0
  6
Continuous
 62
               0
100
AcDbHatch
 10
0.0
 20
0.0
 30
0.0
210
0.0
220
0.0
230
1.0
  2
SOLID
 70
               1
 71
               1
 91
        1
 92
        1
 93
        1
 72
               2
 10
-170.86424284225018
 20
-997.53200411207035
 40
4.99969482421875
 50
0.0
 51
360.0
 73
               0
 97
        1
330
111
 75
               0
 76
               1
 98
        1
 10
0.0
 20
0.0
  0
MTEXT
  5
113
100
AcDbEntity
  8
0
390
0
 62
               0
100
AcDbMText
 10
-354.67674452442611
 20
-963.65438692457064
 30
0.0
 40
24.432617187500004
 41
0.0
 71
               1
 72
               1
  1
320
  7
ＭＳ ゴシック
 73
               1
 44
0.7828267384257843
  0
POINT
  5
114
100
AcDbEntity
  8
Defpoints
370
               0
390
0
 62
               0
100
AcDbPoint
 10
-170.86424284225018
 20
-897.53200411207035
 30
0.0
  0
POINT
  5
115
100
AcDbEntity
  8
Defpoints
370
               0
390
0
 62
               0
100
AcDbPoint
 10
-490.86424284225109
 20
-897.53200411207035
 30
0.0
  0
POINT
  5
116
100
AcDbEntity
  8
Defpoints
370
               0
390
0
 62
               0
100
AcDbPoint
 10
-490.86424284225109
 20
-997.53200411207035
 30
0.0
  0
ENDBLK
  5
117
100
AcDbEntity
  8
notes
390
0
100
AcDbBlockEnd
  0
BLOCK
  5
118
100
AcDbEntity
  8
notes
390
0
100
AcDbBlockBegin
  2
*D17
 70
               1
 10
0.0
 20
0.0
 30
0.0
  3
*D17
  1

  0
LINE
  5
119
100
AcDbEntity
  8
0
370
              -2
390
0
  6
Continuous
 62
               0
100
AcDbLine
 10
-660.86424284225291
 20
-25.532004112067625
 30
0.0
 11
-660.86424284225291
 21
52.467995887931465
 31
0.0
  0
LINE
  5
11A
100
AcDbEntity
  8
0
370
              -2
390
0
  6
Continuous
 62
               0
100
AcDbLine
 10
-110.86424284225109
 20
-72.532004112067625
 30
0.0
 11
-110.86424284225109
 21
52.467995887931465
 31
0.0
  0
LINE
  5
11B
100
AcDbEntity
  8
0
370
              -2
390
0
  6
Continuous
 62
               0
100
AcDbLine
 10
-660.86424284225291
 20
52.467995887931465
 30
0.0
 11
-110.86424284225109
 21
52.467995887931465
 31
0.0
  0
CIRCLE
  5
11C
102
{ACAD_REACTORS
330
11D
102
}
100
AcDbEntity
  8
0
370
              -2
390
0
  6
Continuous
 62
               0
100
AcDbCircle
 10
-660.86424284225291
 20
52.467995887931465
 30
0.0
 40
4.99969482421875
  0
HATCH
  5
11D
100
AcDbEntity
  8
0
370
              -2
390
0
  6
Continuous
 62
               0
100
AcDbHatch
 10
0.0
 20
0.0
 30
0.0
210
0.0
220
0.0
230
1.0
  2
SOLID
 70
               1
 71
               1
 91
        1
 92
        1
 93
        1
 72
               2
 10
-660.86424284225291
 20
52.467995887931465
 40
4.99969482421875
 50
0.0
 51
360.0
 73
               0
 97
        1
330
11C
 75
               0
 76
               1
 98
        1
 10
0.0
 20
0.0
  0
CIRCLE
  5
11E
102
{ACAD_REACTORS
330
11F
102
}
100
AcDbEntity
  8
0
370
              -2
390
0
  6
Continuous
 62
               0
100
AcDbCircle
 10
-110.86424284225109
 20
52.467995887931465
 30
0.0
 40
4.99969482421875
  0
HATCH
  5
11F
100
AcDbEntity
  8
0
370
              -2
390
0
  6
Continuous
 62
               0
100
AcDbHatch
 10
0.0
 20
0.0
 30
0.0
210
0.0
220
0.0
230
1.0
  2
SOLID
 70
               1
 71
               1
 91
        1
 92
        1
 93
        1
 72
               2
 10
-110.86424284225109
 20
52.467995887931465
 40
4.99969482421875
 50
0.0
 51
360.0
 73
               0
 97
        1
330
11E
 75
               0
 76
               1
 98
        1
 10
0.0
 20
0.0
  0
MTEXT
  5
120
100
AcDbEntity
  8
0
390
0
 62
               0
100
AcDbMText
 10
-409.67674452442748
 20
86.345613075431174
 30
0.0
 40
24.432617187500004
 41
0.0
 71
               1
 72
               1
  1
550
  7
ＭＳ ゴシック
 73
               1
 44
0.7828267384257843
  0
POINT
  5
121
100
AcDbEntity
  8
Defpoints
370
               0
390
0
 62
               0
100
AcDbPoint
 10
-110.86424284225109
 20
-97.532004112067625
 30
0.0
  0
POINT
  5
122
100
AcDbEntity
  8
Defpoints
370
               0
390
0
 62
               0
100
AcDbPoint
 10
-660.86424284225291
 20
-50.532004112067625
 30
0.0
  0
POINT
  5
123
100
AcDbEntity
  8
Defpoints
370
               0
390
0
 62
               0
100
AcDbPoint
 10
-660.86424284225291
 20
52.467995887931465
 30
0.0
  0
ENDBLK
  5
124
100
AcDbEntity
  8
notes
390
0
100
AcDbBlockEnd
  0
BLOCK
  5
125
100
AcDbEntity
  8
notes
390
0
100
AcDbBlockBegin
  2
*D18
 70
               1
 10
0.0
 20
0.0
 30
0.0
  3
*D18
  1

  0
LINE
  5
126
100
AcDbEntity
  8
0
370
              -2
390
0
  6
Continuous
 62
               0
100
AcDbLine
 10
416.94630848828069
 20
1057.9806362798122
 30
0.0
 11
338.94652498434402
 21
1057.9806362798122
 31
0.0
  0
LINE
  5
127
100
AcDbEntity
  8
0
370
              -2
390
0
  6
Continuous
 62
               0
100
AcDbLine
 10
413.97083478007585
 20
957.98063627981219
 30
0.0
 11
338.94652498434402
 21
957.98063627981219
 31
0.0
  0
LINE
  5
128
100
AcDbEntity
  8
0
370
              -2
390
0
  6
Continuous
 62
               0
100
AcDbLine
 10
338.94652498434402
 20
1057.9806362798122
 30
0.0
 11
338.94652498434402
 21
957.98063627981219
 31
0.0
  0
CIRCLE
  5
129
102
{ACAD_REACTORS
330
12A
102
}
100
AcDbEntity
  8
0
370
              -2
390
0
  6
Continuous
 62
               0
100
AcDbCircle
 10
338.94652498434402
 20
1057.9806362798122
 30
0.0
 40
4.99969482421875
  0
HATCH
  5
12A
100
AcDbEntity
  8
0
370
              -2
390
0
  6
Continuous
 62
               0
100
AcDbHatch
 10
0.0
 20
0.0
 30
0.0
210
0.0
220
0.0
230
1.0
  2
SOLID
 70
               1
 71
               1
 91
        1
 92
        1
 93
        1
 72
               2
 10
338.94652498434402
 20
1057.9806362798122
 40
4.99969482421875
 50
0.0
 51
360.0
 73
               0
 97
        1
330
129
 75
               0
 76
               1
 98
        1
 10
0.0
 20
0.0
  0
CIRCLE
  5
12B
102
{ACAD_REACTORS
330
12C
102
}
100
AcDbEntity
  8
0
370
              -2
390
0
  6
Continuous
 62
               0
100
AcDbCircle
 10
338.94652498434402
 20
957.98063627981219
 30
0.0
 40
4.99969482421875
  0
HATCH
  5
12C
100
AcDbEntity
  8
0
370
              -2
390
0
  6
Continuous
 62
               0
100
AcDbHatch
 10
0.0
 20
0.0
 30
0.0
210
0.0
220
0.0
230
1.0
  2
SOLID
 70
               1
 71
               1
 91
        1
 92
        1
 93
        1
 72
               2
 10
338.94652498434402
 20
957.98063627981219
 40
4.99969482421875
 50
0.0
 51
360.0
 73
               0
 97
        1
330
12B
 75
               0
 76
               1
 98
        1
 10
0.0
 20
0.0
  0
MTEXT
  5
12D
100
AcDbEntity
  8
0
390
0
 62
               0
100
AcDbMText
 10
305.06890779684409
 20
984.16813459763671
 30
0.0
 40
24.432617187500004
 41
0.0
 71
               1
 72
               1
  1
100
  7
ＭＳ ゴシック
 11
0.0
 21
1.0
 31
0.0
 73
               1
 44
0.7828267384257843
  0
POINT
  5
12E
100
AcDbEntity
  8
Defpoints
370
               0
390
0
 62
               0
100
AcDbPoint
 10
438.97083478007585
 20
957.98063627981219
 30
0.0
  0
POINT
  5
12F
100
AcDbEntity
  8
Defpoints
370
               0
390
0
 62
               0
100
AcDbPoint
 10
441.94630848828069
 20
1057.9806362798122
 30
0.0
  0
POINT
  5
130
100
AcDbEntity
  8
Defpoints
370
               0
390
0
 62
               0
100
AcDbPoint
 10
338.94652498434402
 20
1057.9806362798122
 30
0.0
  0
ENDBLK
  5
131
100
AcDbEntity
  8
notes
390
0
100
AcDbBlockEnd
  0
BLOCK
  5
132
100
AcDbEntity
  8
notes
390
0
100
AcDbBlockBegin
  2
*D19
 70
               1
 10
0.0
 20
0.0
 30
0.0
  3
*D19
  1

  0
LINE
  5
133
100
AcDbEntity
  8
0
370
              -2
390
0
  6
Continuous
 62
               0
100
AcDbLine
 10
438.94652498434402
 20
805.07570941771519
 30
0.0
 11
438.94652498434402
 21
801.22560538641255
 31
0.0
  0
LINE
  5
134
100
AcDbEntity
  8
0
370
              -2
390
0
  6
Continuous
 62
               0
100
AcDbLine
 10
538.94060357799208
 20
805.07570941771519
 30
0.0
 11
538.94060357799208
 21
801.22560538641255
 31
0.0
  0
LINE
  5
135
100
AcDbEntity
  8
0
370
              -2
390
0
  6
Continuous
 62
               0
100
AcDbLine
 10
438.94652498434402
 20
801.22560538641255
 30
0.0
 11
282.68986245496467
 21
801.22560538641255
 31
0.0
  0
LINE
  5
136
100
AcDbEntity
  8
0
370
              -2
390
0
  6
Continuous
 62
               0
100
AcDbLine
 10
438.94652498434402
 20
801.22560538641255
 30
0.0
 11
538.94060357799208
 21
801.22560538641255
 31
0.0
  0
CIRCLE
  5
137
102
{ACAD_REACTORS
330
138
102
}
100
AcDbEntity
  8
0
370
              -2
390
0
  6
Continuous
 62
               0
100
AcDbCircle
 10
438.94652498434402
 20
801.22560538641255
 30
0.0
 40
4.99969482421875
  0
HATCH
  5
138
100
AcDbEntity
  8
0
370
              -2
390
0
  6
Continuous
 62
               0
100
AcDbHatch
 10
0.0
 20
0.0
 30
0.0
210
0.0
220
0.0
230
1.0
  2
SOLID
 70
               1
 71
               1
 91
        1
 92
        1
 93
        1
 72
               2
 10
438.94652498434402
 20
801.22560538641255
 40
4.99969482421875
 50
0.0
 51
360.0
 73
               0
 97
        1
330
137
 75
               0
 76
               1
 98
        1
 10
0.0
 20
0.0
  0
CIRCLE
  5
139
102
{ACAD_REACTORS
330
13A
102
}
100
AcDbEntity
  8
0
370
              -2
390
0
  6
Continuous
 62
               0
100
AcDbCircle
 10
538.94060357799208
 20
801.22560538641255
 30
0.0
 40
4.99969482421875
  0
HATCH
  5
13A
100
AcDbEntity
  8
0
370
              -2
390
0
  6
Continuous
 62
               0
100
AcDbHatch
 10
0.0
 20
0.0
 30
0.0
210
0.0
220
0.0
230
1.0
  2
SOLID
 70
               1
 71
               1
 91
        1
 92
        1
 93
        1
 72
               2
 10
538.94060357799208
 20
801.22560538641255
 40
4.99969482421875
 50
0.0
 51
360.0
 73
               0
 97
        1
330
139
 75
               0
 76
               1
 98
        1
 10
0.0
 20
0.0
  0
MTEXT
  5
13B
100
AcDbEntity
  8
0
390
0
 62
               0
100
AcDbMText
 10
282.68986245496467
 20
835.10322257391272
 30
0.0
 40
24.432617187500004
 41
0.0
 71
               1
 72
               1
  1
100(深さ)
  7
ＭＳ ゴシック
 73
               1
 44
0.7828267384257843
  0
POINT
  5
13C
100
AcDbEntity
  8
Defpoints
370
               0
390
0
 62
               0
100
AcDbPoint
 10
538.94060357799208
 20
780.07570941771519
 30
0.0
  0
POINT
  5
13D
100
AcDbEntity
  8
Defpoints
370
               0
390
0
 62
               0
100
AcDbPoint
 10
438.94652498434402
 20
780.07570941771519
 30
0.0
  0
POINT
  5
13E
100
AcDbEntity
  8
Defpoints
370
               0
390
0
 62
               0
100
AcDbPoint
 10
438.94652498434402
 20
801.22560538641255
 30
0.0
  0
ENDBLK
  5
13F
100
AcDbEntity
  8
notes
390
0
100
AcDbBlockEnd
  0
BLOCK
  5
140
100
AcDbEntity
  8
notes
390
0
100
AcDbBlockBegin
  2
*D20
 70
               1
 10
0.0
 20
0.0
 30
0.0
  3
*D20
  1

  0
LINE
  5
141
100
AcDbEntity
  8
0
370
              -2
390
0
  6
Continuous
 62
               0
100
AcDbLine
 10
438.93677665228483
 20
-25.558382620158227
 30
0.0
 11
438.93677665228483
 21
79.308767138293661
 31
0.0
  0
LINE
  5
142
100
AcDbEntity
  8
0
370
              -2
390
0
  6
Continuous
 62
               0
100
AcDbLine
 10
598.93677665228506
 20
-195.03639981471406
 30
0.0
 11
598.93677665228506
 21
79.308767138293661
 31
0.0
  0
LINE
  5
143
100
AcDbEntity
  8
0
370
              -2
390
0
  6
Continuous
 62
               0
100
AcDbLine
 10
438.93677665228483
 20
79.308767138293661
 30
0.0
 11
598.93677665228506
 21
79.308767138293661
 31
0.0
  0
CIRCLE
  5
144
102
{ACAD_REACTORS
330
145
102
}
100
AcDbEntity
  8
0
370
              -2
390
0
  6
Continuous
 62
               0
100
AcDbCircle
 10
438.93677665228483
 20
79.308767138293661
 30
0.0
 40
4.99969482421875
  0
HATCH
  5
145
100
AcDbEntity
  8
0
370
              -2
390
0
  6
Continuous
 62
               0
100
AcDbHatch
 10
0.0
 20
0.0
 30
0.0
210
0.0
220
0.0
230
1.0
  2
SOLID
 70
               1
 71
               1
 91
        1
 92
        1
 93
        1
 72
               2
 10
438.93677665228483
 20
79.308767138293661
 40
4.99969482421875
 50
0.0
 51
360.0
 73
               0
 97
        1
330
144
 75
               0
 76
               1
 98
        1
 10
0.0
 20
0.0
  0
CIRCLE
  5
146
102
{ACAD_REACTORS
330
147
102
}
100
AcDbEntity
  8
0
370
              -2
390
0
  6
Continuous
 62
               0
100
AcDbCircle
 10
598.93677665228506
 20
79.308767138293661
 30
0.0
 40
4.99969482421875
  0
HATCH
  5
147
100
AcDbEntity
  8
0
370
              -2
390
0
  6
Continuous
 62
               0
100
AcDbHatch
 10
0.0
 20
0.0
 30
0.0
210
0.0
220
0.0
230
1.0
  2
SOLID
 70
               1
 71
               1
 91
        1
 92
        1
 93
        1
 72
               2
 10
598.93677665228506
 20
79.308767138293661
 40
4.99969482421875
 50
0.0
 51
360.0
 73
               0
 97
        1
330
146
 75
               0
 76
               1
 98
        1
 10
0.0
 20
0.0
  0
MTEXT
  5
148
100
AcDbEntity
  8
0
390
0
 62
               0
100
AcDbMText
 10
495.12427497010935
 20
113.18638432579337
 30
0.0
 40
24.432617187500004
 41
0.0
 71
               1
 72
               1
  1
160
  7
ＭＳ ゴシック
 73
               1
 44
0.7828267384257843
  0
POINT
  5
149
100
AcDbEntity
  8
Defpoints
370
               0
390
0
 62
               0
100
AcDbPoint
 10
598.93677665228506
 20
-220.03639981471406
 30
0.0
  0
POINT
  5
14A
100
AcDbEntity
  8
Defpoints
370
               0
390
0
 62
               0
100
AcDbPoint
 10
438.93677665228483
 20
-50.558382620158227
 30
0.0
  0
POINT
  5
14B
100
AcDbEntity
  8
Defpoints
370
               0
390
0
 62
               0
100
AcDbPoint
 10
438.93677665228483
 20
79.308767138293661
 30
0.0
  0
ENDBLK
  5
14C
100
AcDbEntity
  8
notes
390
0
100
AcDbBlockEnd
  0
BLOCK
  5
14D
100
AcDbEntity
  8
notes
390
0
100
AcDbBlockBegin
  2
*D21
 70
               1
 10
0.0
 20
0.0
 30
0.0
  3
*D21
  1

  0
LINE
  5
14E
100
AcDbEntity
  8
0
370
              -2
390
0
  6
Continuous
 62
               0
100
AcDbLine
 10
623.93677665228506
 20
-217.51936372018736
 30
0.0
 11
698.93677665228506
 21
-217.51936372018736
 31
0.0
  0
LINE
  5
14F
100
AcDbEntity
  8
0
370
              -2
390
0
  6
Continuous
 62
               0
100
AcDbLine
 10
623.93677665228506
 20
-727.51936372018736
 30
0.0
 11
698.93677665228506
 21
-727.51936372018736
 31
0.0
  0
LINE
  5
150
100
AcDbEntity
  8
0
370
              -2
390
0
  6
Continuous
 62
               0
100
AcDbLine
 10
698.93677665228506
 20
-217.51936372018736
 30
0.0
 11
698.93677665228506
 21
-727.51936372018736
 31
0.0
  0
CIRCLE
  5
151
102
{ACAD_REACTORS
330
152
102
}
100
AcDbEntity
  8
0
370
              -2
390
0
  6
Continuous
 62
               0
100
AcDbCircle
 10
698.93677665228506
 20
-217.51936372018736
 30
0.0
 40
4.99969482421875
  0
HATCH
  5
152
100
AcDbEntity
  8
0
370
              -2
390
0
  6
Continuous
 62
               0
100
AcDbHatch
 10
0.0
 20
0.0
 30
0.0
210
0.0
220
0.0
230
1.0
  2
SOLID
 70
               1
 71
               1
 91
        1
 92
        1
 93
        1
 72
               2
 10
698.93677665228506
 20
-217.51936372018736
 40
4.99969482421875
 50
0.0
 51
360.0
 73
               0
 97
        1
330
151
 75
               0
 76
               1
 98
        1
 10
0.0
 20
0.0
  0
CIRCLE
  5
153
102
{ACAD_REACTORS
330
154
102
}
100
AcDbEntity
  8
0
370
              -2
390
0
  6
Continuous
 62
               0
100
AcDbCircle
 10
698.93677665228506
 20
-727.51936372018736
 30
0.0
 40
4.99969482421875
  0
HATCH
  5
154
100
AcDbEntity
  8
0
370
              -2
390
0
  6
Continuous
 62
               0
100
AcDbHatch
 10
0.0
 20
0.0
 30
0.0
210
0.0
220
0.0
230
1.0
  2
SOLID
 70
               1
 71
               1
 91
        1
 92
        1
 93
        1
 72
               2
 10
698.93677665228506
 20
-727.51936372018736
 40
4.99969482421875
 50
0.0
 51
360.0
 73
               0
 97
        1
330
153
 75
               0
 76
               1
 98
        1
 10
0.0
 20
0.0
  0
MTEXT
  5
155
100
AcDbEntity
  8
0
390
0
 62
               0
100
AcDbMText
 10
665.05915946478513
 20
-496.33186540236329
 30
0.0
 40
24.432617187500004
 41
0.0
 71
               1
 72
               1
  1
510
  7
ＭＳ ゴシック
 11
0.0
 21
1.0
 31
0.0
 73
               1
 44
0.7828267384257843
  0
POINT
  5
156
100
AcDbEntity
  8
Defpoints
370
               0
390
0
 62
               0
100
AcDbPoint
 10
598.93677665228506
 20
-727.51936372018736
 30
0.0
  0
POINT
  5
157
100
AcDbEntity
  8
Defpoints
370
               0
390
0
 62
               0
100
AcDbPoint
 10
598.93677665228506
 20
-217.51936372018736
 30
0.0
  0
POINT
  5
158
100
AcDbEntity
  8
Defpoints
370
               0
390
0
 62
               0
100
AcDbPoint
 10
698.93677665228506
 20
-217.51936372018736
 30
0.0
  0
ENDBLK
  5
159
100
AcDbEntity
  8
notes
390
0
100
AcDbBlockEnd
  0
BLOCK
  5
15A
100
AcDbEntity
  8
notes
390
0
100
AcDbBlockBegin
  2
*D22
 70
               1
 10
0.0
 20
0.0
 30
0.0
  3
*D22
  1

  0
LINE
  5
15B
100
AcDbEntity
  8
0
370
              -2
390
0
  6
Continuous
 62
               0
100
AcDbLine
 10
-360.864242842252
 20
918.68063627981564
 30
0.0
 11
-360.864242842252
 21
993.98063627981583
 31
0.0
  0
LINE
  5
15C
100
AcDbEntity
  8
0
370
              -2
390
0
  6
Continuous
 62
               0
100
AcDbLine
 10
-660.86424284225291
 20
918.68063627981564
 30
0.0
 11
-660.86424284225291
 21
993.98063627981583
 31
0.0
  0
LINE
  5
15D
100
AcDbEntity
  8
0
370
              -2
390
0
  6
Continuous
 62
               0
100
AcDbLine
 10
-360.864242842252
 20
993.98063627981583
 30
0.0
 11
-660.86424284225291
 21
993.98063627981583
 31
0.0
  0
CIRCLE
  5
15E
102
{ACAD_REACTORS
330
15F
102
}
100
AcDbEntity
  8
0
370
              -2
390
0
  6
Continuous
 62
               0
100
AcDbCircle
 10
-360.864242842252
 20
993.98063627981583
 30
0.0
 40
4.99969482421875
  0
HATCH
  5
15F
100
AcDbEntity
  8
0
370
              -2
390
0
  6
Continuous
 62
               0
100
AcDbHatch
 10
0.0
 20
0.0
 30
0.0
210
0.0
220
0.0
230
1.0
  2
SOLID
 70
               1
 71
               1
 91
        1
 92
        1
 93
        1
 72
               2
 10
-360.864242842252
 20
993.98063627981583
 40
4.99969482421875
 50
0.0
 51
360.0
 73
               0
 97
        1
330
15E
 75
               0
 76
               1
 98
        1
 10
0.0
 20
0.0
  0
CIRCLE
  5
160
102
{ACAD_REACTORS
330
161
102
}
100
AcDbEntity
  8
0
370
              -2
390
0
  6
Continuous
 62
               0
100
AcDbCircle
 10
-660.86424284225291
 20
993.98063627981583
 30
0.0
 40
4.99969482421875
  0
HATCH
  5
161
100
AcDbEntity
  8
0
370
              -2
390
0
  6
Continuous
 62
               0
100
AcDbHatch
 10
0.0
 20
0.0
 30
0.0
210
0.0
220
0.0
230
1.0
  2
SOLID
 70
               1
 71
               1
 91
        1
 92
        1
 93
        1
 72
               2
 10
-660.86424284225291
 20
993.98063627981583
 40
4.99969482421875
 50
0.0
 51
360.0
 73
               0
 97
        1
330
160
 75
               0
 76
               1
 98
        1
 10
0.0
 20
0.0
  0
MTEXT
  5
162
100
AcDbEntity
  8
0
390
0
 62
               0
100
AcDbMText
 10
-534.67674452442793
 20
1027.858253467316
 30
0.0
 40
24.432617187500004
 41
0.0
 71
               1
 72
               1
  1
300
  7
ＭＳ ゴシック
 73
               1
 44
0.7828267384257843
  0
POINT
  5
163
100
AcDbEntity
  8
Defpoints
370
               0
390
0
 62
               0
100
AcDbPoint
 10
-660.86424284225291
 20
893.68063627981564
 30
0.0
  0
POINT
  5
164
100
AcDbEntity
  8
Defpoints
370
               0
390
0
 62
               0
100
AcDbPoint
 10
-360.864242842252
 20
893.68063627981564
 30
0.0
  0
POINT
  5
165
100
AcDbEntity
  8
Defpoints
370
               0
390
0
 62
               0
100
AcDbPoint
 10
-360.864242842252
 20
993.98063627981583
 30
0.0
  0
ENDBLK
  5
166
100
AcDbEntity
  8
notes
390
0
100
AcDbBlockEnd
  0
BLOCK
  5
167
100
AcDbEntity
  8
notes
390
0
100
AcDbBlockBegin
  2
*D23
 70
               1
 10
0.0
 20
0.0
 30
0.0
  3
*D23
  1

  0
LINE
  5
168
100
AcDbEntity
  8
0
370
              -2
390
0
  6
Continuous
 62
               0
100
AcDbLine
 10
-180.864242842252
 20
1118.6806362798156
 30
0.0
 11
-180.864242842252
 21
1243.722799735292
 31
0.0
  0
LINE
  5
169
100
AcDbEntity
  8
0
370
              -2
390
0
  6
Continuous
 62
               0
100
AcDbLine
 10
-660.86424284225291
 20
1118.6806362798156
 30
0.0
 11
-660.86424284225291
 21
1243.722799735292
 31
0.0
  0
LINE
  5
16A
100
AcDbEntity
  8
0
370
              -2
390
0
  6
Continuous
 62
               0
100
AcDbLine
 10
-180.864242842252
 20
1243.722799735292
 30
0.0
 11
-660.86424284225291
 21
1243.722799735292
 31
0.0
  0
CIRCLE
  5
16B
102
{ACAD_REACTORS
330
16C
102
}
100
AcDbEntity
  8
0
370
              -2
390
0
  6
Continuous
 62
               0
100
AcDbCircle
 10
-180.864242842252
 20
1243.722799735292
 30
0.0
 40
4.99969482421875
  0
HATCH
  5
16C
100
AcDbEntity
  8
0
370
              -2
390
0
  6
Continuous
 62
               0
100
AcDbHatch
 10
0.0
 20
0.0
 30
0.0
210
0.0
220
0.0
230
1.0
  2
SOLID
 70
               1
 71
               1
 91
        1
 92
        1
 93
        1
 72
               2
 10
-180.864242842252
 20
1243.722799735292
 40
4.99969482421875
 50
0.0
 51
360.0
 73
               0
 97
        1
330
16B
 75
               0
 76
               1
 98
        1
 10
0.0
 20
0.0
  0
CIRCLE
  5
16D
102
{ACAD_REACTORS
330
16E
102
}
100
AcDbEntity
  8
0
370
              -2
390
0
  6
Continuous
 62
               0
100
AcDbCircle
 10
-660.86424284225291
 20
1243.722799735292
 30
0.0
 40
4.99969482421875
  0
HATCH
  5
16E
100
AcDbEntity
  8
0
370
              -2
390
0
  6
Continuous
 62
               0
100
AcDbHatch
 10
0.0
 20
0.0
 30
0.0
210
0.0
220
0.0
230
1.0
  2
SOLID
 70
               1
 71
               1
 91
        1
 92
        1
 93
        1
 72
               2
 10
-660.86424284225291
 20
1243.722799735292
 40
4.99969482421875
 50
0.0
 51
360.0
 73
               0
 97
        1
330
16D
 75
               0
 76
               1
 98
        1
 10
0.0
 20
0.0
  0
MTEXT
  5
16F
100
AcDbEntity
  8
0
390
0
 62
               0
100
AcDbMText
 10
-444.67674452442793
 20
1277.6004169227922
 30
0.0
 40
24.432617187500004
 41
0.0
 71
               1
 72
               1
  1
480
  7
ＭＳ ゴシック
 73
               1
 44
0.7828267384257843
  0
POINT
  5
170
100
AcDbEntity
  8
Defpoints
370
               0
390
0
 62
               0
100
AcDbPoint
 10
-660.86424284225291
 20
1093.6806362798156
 30
0.0
  0
POINT
  5
171
100
AcDbEntity
  8
Defpoints
370
               0
390
0
 62
               0
100
AcDbPoint
 10
-180.864242842252
 20
1093.6806362798156
 30
0.0
  0
POINT
  5
172
100
AcDbEntity
  8
Defpoints
370
               0
390
0
 62
               0
100
AcDbPoint
 10
-180.864242842252
 20
1243.722799735292
 30
0.0
  0
ENDBLK
  5
173
100
AcDbEntity
  8
notes
390
0
100
AcDbBlockEnd
  0
BLOCK
  5
174
100
AcDbEntity
  8
notes
390
0
100
AcDbBlockBegin
  2
*D24
 70
               1
 10
0.0
 20
0.0
 30
0.0
  3
*D24
  1

  0
LINE
  5
175
100
AcDbEntity
  8
0
370
              -2
390
0
  6
Continuous
 62
               0
100
AcDbLine
 10
-155.864242842252
 20
1093.6806362798156
 30
0.0
 11
-10.864242842252906
 21
1093.6806362798156
 31
0.0
  0
LINE
  5
176
100
AcDbEntity
  8
0
370
              -2
390
0
  6
Continuous
 62
               0
100
AcDbLine
 10
-155.864242842252
 20
343.68063627981564
 30
0.0
 11
-10.864242842252906
 21
343.68063627981564
 31
0.0
  0
LINE
  5
177
100
AcDbEntity
  8
0
370
              -2
390
0
  6
Continuous
 62
               0
100
AcDbLine
 10
-10.864242842252906
 20
1093.6806362798156
 30
0.0
 11
-10.864242842252906
 21
343.68063627981564
 31
0.0
  0
CIRCLE
  5
178
102
{ACAD_REACTORS
330
179
102
}
100
AcDbEntity
  8
0
370
              -2
390
0
  6
Continuous
 62
               0
100
AcDbCircle
 10
-10.864242842252906
 20
1093.6806362798156
 30
0.0
 40
4.99969482421875
  0
HATCH
  5
179
100
AcDbEntity
  8
0
370
              -2
390
0
  6
Continuous
 62
               0
100
AcDbHatch
 10
0.0
 20
0.0
 30
0.0
210
0.0
220
0.0
230
1.0
  2
SOLID
 70
               1
 71
               1
 91
        1
 92
        1
 93
        1
 72
               2
 10
-10.864242842252906
 20
1093.6806362798156
 40
4.99969482421875
 50
0.0
 51
360.0
 73
               0
 97
        1
330
178
 75
               0
 76
               1
 98
        1
 10
0.0
 20
0.0
  0
CIRCLE
  5
17A
102
{ACAD_REACTORS
330
17B
102
}
100
AcDbEntity
  8
0
370
              -2
390
0
  6
Continuous
 62
               0
100
AcDbCircle
 10
-10.864242842252906
 20
343.68063627981564
 30
0.0
 40
4.99969482421875
  0
HATCH
  5
17B
100
AcDbEntity
  8
0
370
              -2
390
0
  6
Continuous
 62
               0
100
AcDbHatch
 10
0.0
 20
0.0
 30
0.0
210
0.0
220
0.0
230
1.0
  2
SOLID
 70
               1
 71
               1
 91
        1
 92
        1
 93
        1
 72
               2
 10
-10.864242842252906
 20
343.68063627981564
 40
4.99969482421875
 50
0.0
 51
360.0
 73
               0
 97
        1
330
17A
 75
               0
 76
               1
 98
        1
 10
0.0
 20
0.0
  0
MTEXT
  5
17C
100
AcDbEntity
  8
0
390
0
 62
               0
100
AcDbMText
 10
-44.741860029752843
 20
694.86813459764016
 30
0.0
 40
24.432617187500004
 41
0.0
 71
               1
 72
               1
  1
750
  7
ＭＳ ゴシック
 11
0.0
 21
1.0
 31
0.0
 73
               1
 44
0.7828267384257843
  0
POINT
  5
17D
100
AcDbEntity
  8
Defpoints
370
               0
390
0
 62
               0
100
AcDbPoint
 10
-180.864242842252
 20
343.68063627981564
 30
0.0
  0
POINT
  5
17E
100
AcDbEntity
  8
Defpoints
370
               0
390
0
 62
               0
100
AcDbPoint
 10
-180.864242842252
 20
1093.6806362798156
 30
0.0
  0
POINT
  5
17F
100
AcDbEntity
  8
Defpoints
370
               0
390
0
 62
               0
100
AcDbPoint
 10
-10.864242842252906
 20
1093.6806362798156
 30
0.0
  0
ENDBLK
  5
180
100
AcDbEntity
  8
notes
390
0
100
AcDbBlockEnd
  0
BLOCK
  5
181
100
AcDbEntity
  8
notes
390
0
100
AcDbBlockBegin
  2
グループ-1
 70
               0
 10
0.0
 20
0.0
 30
0.0
  3
グループ-1
  1

  0
MTEXT
  5
182
100
AcDbEntity
  8
0
390
0
 62
               7
100
AcDbMText
 10
-1513.16318661171
 20
-3834.1275747525656
 30
0.0
 40
24.432617187500004
 41
0.0
 71
               1
 72
               1
  1
※カウンター置きの場合も壁固定が必要です。\P
  7
ＭＳ ゴシック
 11
0.0
 21
1.0
 31
0.0
 73
               1
 44
0.7828267384257843
  0
MTEXT
  5
183
100
AcDbEntity
  8
0
390
0
 62
               7
100
AcDbMText
 10
-1658.1892953046429
 20
-3834.1275747525656
 30
0.0
 40
24.432617187500004
 41
764.7717154610109
 71
               1
 72
               1
  1
※陶器製品には寸法公差があります。\P  洗面器の収め方をご確認の上、必ず現物を合わせて\P  カウンターに切込を行ってください。
  7
ＭＳ ゴシック
 11
0.0
 21
1.0
 31
0.0
 73
               1
 44
1.0437689845677123
  0
ENDBLK
  5
184
100
AcDbEntity
  8
notes
390
0
100
AcDbBlockEnd
  0
BLOCK
  5
185
100
AcDbEntity
  8
notes
390
0
100
AcDbBlockBegin
  2
*D26
 70
               1
 10
0.0
 20
0.0
 30
0.0
  3
*D26
  1

  0
LINE
  5
186
100
AcDbEntity
  8
0
370
              -2
390
0
  6
Continuous
 62
               0
100
AcDbLine
 10
618.86372644791118
 20
1057.9806362798158
 30
0.0
 11
748.86372644761013
 21
1057.9806362798158
 31
0.0
  0
LINE
  5
187
100
AcDbEntity
  8
0
370
              -2
390
0
  6
Continuous
 62
               0
100
AcDbLine
 10
618.86372644791118
 20
692.98063627981583
 30
0.0
 11
748.86372644761013
 21
692.98063627981583
 31
0.0
  0
LINE
  5
188
100
AcDbEntity
  8
0
370
              -2
390
0
  6
Continuous
 62
               0
100
AcDbLine
 10
748.86372644761013
 20
1057.9806362798158
 30
0.0
 11
748.86372644761013
 21
692.98063627981583
 31
0.0
  0
CIRCLE
  5
189
102
{ACAD_REACTORS
330
18A
102
}
100
AcDbEntity
  8
0
370
              -2
390
0
  6
Continuous
 62
               0
100
AcDbCircle
 10
748.86372644761013
 20
1057.9806362798158
 30
0.0
 40
4.99969482421875
  0
HATCH
  5
18A
100
AcDbEntity
  8
0
370
              -2
390
0
  6
Continuous
 62
               0
100
AcDbHatch
 10
0.0
 20
0.0
 30
0.0
210
0.0
220
0.0
230
1.0
  2
SOLID
 70
               1
 71
               1
 91
        1
 92
        1
 93
        1
 72
               2
 10
748.86372644761013
 20
1057.9806362798158
 40
4.99969482421875
 50
0.0
 51
360.0
 73
               0
 97
        1
330
189
 75
               0
 76
               1
 98
        1
 10
0.0
 20
0.0
  0
CIRCLE
  5
18B
102
{ACAD_REACTORS
330
18C
102
}
100
AcDbEntity
  8
0
370
              -2
390
0
  6
Continuous
 62
               0
100
AcDbCircle
 10
748.86372644761013
 20
692.98063627981583
 30
0.0
 40
4.99969482421875
  0
HATCH
  5
18C
100
AcDbEntity
  8
0
370
              -2
390
0
  6
Continuous
 62
               0
100
AcDbHatch
 10
0.0
 20
0.0
 30
0.0
210
0.0
220
0.0
230
1.0
  2
SOLID
 70
               1
 71
               1
 91
        1
 92
        1
 93
        1
 72
               2
 10
748.86372644761013
 20
692.98063627981583
 40
4.99969482421875
 50
0.0
 51
360.0
 73
               0
 97
        1
330
18B
 75
               0
 76
               1
 98
        1
 10
0.0
 20
0.0
  0
MTEXT
  5
18D
100
AcDbEntity
  8
0
390
0
 62
               0
100
AcDbMText
 10
714.98610926011008
 20
851.66813459764035
 30
0.0
 40
24.432617187500004
 41
0.0
 71
               1
 72
               1
  1
365
  7
ＭＳ ゴシック
 11
0.0
 21
1.0
 31
0.0
 73
               1
 44
0.7828267384257843
  0
POINT
  5
18E
100
AcDbEntity
  8
Defpoints
370
               0
390
0
 62
               0
100
AcDbPoint
 10
593.86372644791118
 20
692.98063627981583
 30
0.0
  0
POINT
  5
18F
100
AcDbEntity
  8
Defpoints
370
               0
390
0
 62
               0
100
AcDbPoint
 10
593.86372644791118
 20
1057.9806362798158
 30
0.0
  0
POINT
  5
190
100
AcDbEntity
  8
Defpoints
370
               0
390
0
 62
               0
100
AcDbPoint
 10
748.86372644761013
 20
1057.9806362798158
 30
0.0
  0
ENDBLK
  5
191
100
AcDbEntity
  8
notes
390
0
100
AcDbBlockEnd
  0
BLOCK
  5
192
100
AcDbEntity
  8
notes
390
0
100
AcDbBlockBegin
  2
*D27
 70
               1
 10
0.0
 20
0.0
 30
0.0
  3
*D27
  1

  0
LINE
  5
193
100
AcDbEntity
  8
0
370
              -2
390
0
  6
Continuous
 62
               0
100
AcDbLine
 10
538.91465265572242
 20
465.62277765760473
 30
0.0
 11
538.91465265572242
 21
416.07570941771473
 31
0.0
  0
LINE
  5
194
100
AcDbEntity
  8
0
370
              -2
390
0
  6
Continuous
 62
               0
100
AcDbLine
 10
598.91465265572242
 20
657.72300628725907
 30
0.0
 11
598.91465265572242
 21
416.07570941771473
 31
0.0
  0
LINE
  5
195
100
AcDbEntity
  8
0
370
              -2
390
0
  6
Continuous
 62
               0
100
AcDbLine
 10
538.91465265572242
 20
416.07570941771473
 30
0.0
 11
598.91465265572242
 21
416.07570941771473
 31
0.0
  0
CIRCLE
  5
196
102
{ACAD_REACTORS
330
197
102
}
100
AcDbEntity
  8
0
370
              -2
390
0
  6
Continuous
 62
               0
100
AcDbCircle
 10
538.91465265572242
 20
416.07570941771473
 30
0.0
 40
4.99969482421875
  0
HATCH
  5
197
100
AcDbEntity
  8
0
370
              -2
390
0
  6
Continuous
 62
               0
100
AcDbHatch
 10
0.0
 20
0.0
 30
0.0
210
0.0
220
0.0
230
1.0
  2
SOLID
 70
               1
 71
               1
 91
        1
 92
        1
 93
        1
 72
               2
 10
538.91465265572242
 20
416.07570941771473
 40
4.99969482421875
 50
0.0
 51
360.0
 73
               0
 97
        1
330
196
 75
               0
 76
               1
 98
        1
 10
0.0
 20
0.0
  0
CIRCLE
  5
198
102
{ACAD_REACTORS
330
199
102
}
100
AcDbEntity
  8
0
370
              -2
390
0
  6
Continuous
 62
               0
100
AcDbCircle
 10
598.91465265572242
 20
416.07570941771473
 30
0.0
 40
4.99969482421875
  0
HATCH
  5
199
100
AcDbEntity
  8
0
370
              -2
390
0
  6
Continuous
 62
               0
100
AcDbHatch
 10
0.0
 20
0.0
 30
0.0
210
0.0
220
0.0
230
1.0
  2
SOLID
 70
               1
 71
               1
 91
        1
 92
        1
 93
        1
 72
               2
 10
598.91465265572242
 20
416.07570941771473
 40
4.99969482421875
 50
0.0
 51
360.0
 73
               0
 97
        1
330
198
 75
               0
 76
               1
 98
        1
 10
0.0
 20
0.0
  0
MTEXT
  5
19A
100
AcDbEntity
  8
0
390
0
 62
               0
100
AcDbMText
 10
553.03965265572242
 20
449.9533266052149
 30
0.0
 40
24.432617187500004
 41
0.0
 71
               1
 72
               1
  1
60
  7
ＭＳ ゴシック
 73
               1
 44
0.7828267384257843
  0
POINT
  5
19B
100
AcDbEntity
  8
Defpoints
370
               0
390
0
 62
               0
100
AcDbPoint
 10
598.91465265572242
 20
682.72300628725907
 30
0.0
  0
POINT
  5
19C
100
AcDbEntity
  8
Defpoints
370
               0
390
0
 62
               0
100
AcDbPoint
 10
538.91465265572242
 20
490.62277765760473
 30
0.0
  0
POINT
  5
19D
100
AcDbEntity
  8
Defpoints
370
               0
390
0
 62
               0
100
AcDbPoint
 10
538.91465265572242
 20
416.07570941771473
 30
0.0
  0
ENDBLK
  5
19E
100
AcDbEntity
  8
notes
390
0
100
AcDbBlockEnd
  0
BLOCK
  5
19F
100
AcDbEntity
  8
notes
390
0
100
AcDbBlockBegin
  2
*D28
 70
               1
 10
0.0
 20
0.0
 30
0.0
  3
*D28
  1

  0
LINE
  5
1A0
100
AcDbEntity
  8
0
370
              -2
390
0
  6
Continuous
 62
               0
100
AcDbLine
 10
-335.864242842252
 20
893.68063627981564
 30
0.0
 11
-260.864242842252
 21
893.68063627981564
 31
0.0
  0
LINE
  5
1A1
100
AcDbEntity
  8
0
370
              -2
390
0
  6
Continuous
 62
               0
100
AcDbLine
 10
-335.864242842252
 20
543.68063627981564
 30
0.0
 11
-260.864242842252
 21
543.68063627981564
 31
0.0
  0
LINE
  5
1A2
100
AcDbEntity
  8
0
370
              -2
390
0
  6
Continuous
 62
               0
100
AcDbLine
 10
-260.864242842252
 20
893.68063627981564
 30
0.0
 11
-260.864242842252
 21
543.68063627981564
 31
0.0
  0
CIRCLE
  5
1A3
102
{ACAD_REACTORS
330
1A4
102
}
100
AcDbEntity
  8
0
370
              -2
390
0
  6
Continuous
 62
               0
100
AcDbCircle
 10
-260.864242842252
 20
893.68063627981564
 30
0.0
 40
4.99969482421875
  0
HATCH
  5
1A4
100
AcDbEntity
  8
0
370
              -2
390
0
  6
Continuous
 62
               0
100
AcDbHatch
 10
0.0
 20
0.0
 30
0.0
210
0.0
220
0.0
230
1.0
  2
SOLID
 70
               1
 71
               1
 91
        1
 92
        1
 93
        1
 72
               2
 10
-260.864242842252
 20
893.68063627981564
 40
4.99969482421875
 50
0.0
 51
360.0
 73
               0
 97
        1
330
1A3
 75
               0
 76
               1
 98
        1
 10
0.0
 20
0.0
  0
CIRCLE
  5
1A5
102
{ACAD_REACTORS
330
1A6
102
}
100
AcDbEntity
  8
0
370
              -2
390
0
  6
Continuous
 62
               0
100
AcDbCircle
 10
-260.864242842252
 20
543.68063627981564
 30
0.0
 40
4.99969482421875
  0
HATCH
  5
1A6
100
AcDbEntity
  8
0
370
              -2
390
0
  6
Continuous
 62
               0
100
AcDbHatch
 10
0.0
 20
0.0
 30
0.0
210
0.0
220
0.0
230
1.0
  2
SOLID
 70
               1
 71
               1
 91
        1
 92
        1
 93
        1
 72
               2
 10
-260.864242842252
 20
543.68063627981564
 40
4.99969482421875
 50
0.0
 51
360.0
 73
               0
 97
        1
330
1A5
 75
               0
 76
               1
 98
        1
 10
0.0
 20
0.0
  0
MTEXT
  5
1A7
100
AcDbEntity
  8
0
390
0
 62
               0
100
AcDbMText
 10
-294.74186002975193
 20
694.86813459764016
 30
0.0
 40
24.432617187500004
 41
0.0
 71
               1
 72
               1
  1
350
  7
ＭＳ ゴシック
 11
0.0
 21
1.0
 31
0.0
 73
               1
 44
0.7828267384257843
  0
POINT
  5
1A8
100
AcDbEntity
  8
Defpoints
370
               0
390
0
 62
               0
100
AcDbPoint
 10
-360.864242842252
 20
543.68063627981564
 30
0.0
  0
POINT
  5
1A9
100
AcDbEntity
  8
Defpoints
370
               0
390
0
 62
               0
100
AcDbPoint
 10
-360.864242842252
 20
893.68063627981564
 30
0.0
  0
POINT
  5
1AA
100
AcDbEntity
  8
Defpoints
370
               0
390
0
 62
               0
100
AcDbPoint
 10
-260.864242842252
 20
893.68063627981564
 30
0.0
  0
ENDBLK
  5
1AB
100
AcDbEntity
  8
notes
390
0
100
AcDbBlockEnd
  0
BLOCK
  5
1AC
100
AcDbEntity
  8
notes
390
0
100
AcDbBlockBegin
  2
*D29
 70
               1
 10
0.0
 20
0.0
 30
0.0
  3
*D29
  1

  0
LINE
  5
1AD
100
AcDbEntity
  8
0
370
              -2
390
0
  6
Continuous
 62
               0
100
AcDbLine
 10
583.86372644791481
 20
747.25743631851128
 30
0.0
 11
583.86372644791481
 21
726.875
 31
0.0
  0
LINE
  5
1AE
100
AcDbEntity
  8
0
370
              -2
390
0
  6
Continuous
 62
               0
100
AcDbLine
 10
598.86372644791481
 20
747.25743631851128
 30
0.0
 11
598.86372644791481
 21
726.875
 31
0.0
  0
LINE
  5
1AF
100
AcDbEntity
  8
0
370
              -2
390
0
  6
Continuous
 62
               0
100
AcDbLine
 10
598.86372644791481
 20
726.875
 30
0.0
 11
657.84534496388937
 21
726.875
 31
0.0
  0
LINE
  5
1B0
100
AcDbEntity
  8
0
370
              -2
390
0
  6
Continuous
 62
               0
100
AcDbLine
 10
583.86372644791481
 20
726.875
 30
0.0
 11
598.86372644791481
 21
726.875
 31
0.0
  0
CIRCLE
  5
1B1
102
{ACAD_REACTORS
330
1B2
102
}
100
AcDbEntity
  8
0
370
              -2
390
0
  6
Continuous
 62
               0
100
AcDbCircle
 10
583.86372644791481
 20
726.875
 30
0.0
 40
4.99969482421875
  0
HATCH
  5
1B2
100
AcDbEntity
  8
0
370
              -2
390
0
  6
Continuous
 62
               0
100
AcDbHatch
 10
0.0
 20
0.0
 30
0.0
210
0.0
220
0.0
230
1.0
  2
SOLID
 70
               1
 71
               1
 91
        1
 92
        1
 93
        1
 72
               2
 10
583.86372644791481
 20
726.875
 40
4.99969482421875
 50
0.0
 51
360.0
 73
               0
 97
        1
330
1B1
 75
               0
 76
               1
 98
        1
 10
0.0
 20
0.0
  0
CIRCLE
  5
1B3
102
{ACAD_REACTORS
330
1B4
102
}
100
AcDbEntity
  8
0
370
              -2
390
0
  6
Continuous
 62
               0
100
AcDbCircle
 10
598.86372644791481
 20
726.875
 30
0.0
 40
4.99969482421875
  0
HATCH
  5
1B4
100
AcDbEntity
  8
0
370
              -2
390
0
  6
Continuous
 62
               0
100
AcDbHatch
 10
0.0
 20
0.0
 30
0.0
210
0.0
220
0.0
230
1.0
  2
SOLID
 70
               1
 71
               1
 91
        1
 92
        1
 93
        1
 72
               2
 10
598.86372644791481
 20
726.875
 40
4.99969482421875
 50
0.0
 51
360.0
 73
               0
 97
        1
330
1B3
 75
               0
 76
               1
 98
        1
 10
0.0
 20
0.0
  0
MTEXT
  5
1B5
100
AcDbEntity
  8
0
390
0
 62
               0
100
AcDbMText
 10
626.09534496388937
 20
760.75261718750016
 30
0.0
 40
24.432617187500004
 41
0.0
 71
               1
 72
               1
  1
15
  7
ＭＳ ゴシック
 73
               1
 44
0.7828267384257843
  0
POINT
  5
1B6
100
AcDbEntity
  8
Defpoints
370
               0
390
0
 62
               0
100
AcDbPoint
 10
598.86372644791481
 20
772.25743631851128
 30
0.0
  0
POINT
  5
1B7
100
AcDbEntity
  8
Defpoints
370
               0
390
0
 62
               0
100
AcDbPoint
 10
583.86372644791481
 20
772.25743631851128
 30
0.0
  0
POINT
  5
1B8
100
AcDbEntity
  8
Defpoints
370
               0
390
0
 62
               0
100
AcDbPoint
 10
583.86372644791481
 20
726.875
 30
0.0
  0
ENDBLK
  5
1B9
100
AcDbEntity
  8
notes
390
0
100
AcDbBlockEnd
  0
BLOCK
  5
1BA
100
AcDbEntity
  8
ADF70-1602
390
0
100
AcDbBlockBegin
  2
グループ-2
 70
               0
 10
0.0
 20
0.0
 30
0.0
  3
グループ-2
  1

  0
LINE
  5
1BB
100
AcDbEntity
  8
0
370
               5
390
0
  6
Continuous
 62
               7
100
AcDbLine
 10
-2352.0672336726993
 20
-3132.1515863352356
 30
0.0
 11
-2389.0672336726993
 21
-3095.1515863352356
 31
0.0
  0
LINE
  5
1BC
100
AcDbEntity
  8
0
370
               5
390
0
  6
Continuous
 62
               7
100
AcDbLine
 10
-2352.0672336726993
 20
-3112.1515863352356
 30
0.0
 11
-2389.0672336726993
 21
-3075.1515863352356
 31
0.0
  0
LINE
  5
1BD
100
AcDbEntity
  8
0
370
               5
390
0
  6
Continuous
 62
               7
100
AcDbLine
 10
-2352.0672336726993
 20
-3092.1515863352356
 30
0.0
 11
-2389.0672336726993
 21
-3055.1515863352356
 31
0.0
  0
ENDBLK
  5
1BE
100
AcDbEntity
  8
ADF70-1602
390
0
100
AcDbBlockEnd
  0
BLOCK
  5
1BF
100
AcDbEntity
  8
ADF70-1602
390
0
100
AcDbBlockBegin
  2
グループ-3
 70
               0
 10
0.0
 20
0.0
 30
0.0
  3
グループ-3
  1

  0
LINE
  5
1C0
100
AcDbEntity
  8
0
370
              15
390
0
  6
STYLE_13
 62
               7
100
AcDbLine
 10
-1246.6693623755377
 20
-4346.2732069801696
 30
0.0
 11
-1172.3909491663603
 21
-4369.9674069145876
 31
0.0
  0
ARC
  5
1C1
100
AcDbEntity
  8
0
370
              15
390
0
  6
STYLE_13
 62
               7
100
AcDbCircle
 10
-1244.2381283792388
 20
-4338.6515863352388
 30
0.0
 40
8.0000000000001155
100
AcDbArc
 50
180.00175600994248
 51
252.30774691727248
  0
ARC
  5
1C2
100
AcDbEntity
  8
0
370
              15
390
0
  6
STYLE_13
 62
               7
100
AcDbCircle
 10
-1176.9495129094198
 20
-4384.2579456238345
 30
0.0
 40
15.000000000000197
100
AcDbArc
 50
3.0000000000055604
 51
72.30774691727386
  0
ENDBLK
  5
1C3
100
AcDbEntity
  8
ADF70-1602
390
0
100
AcDbBlockEnd
  0
BLOCK
  5
1C4
100
AcDbEntity
  8
ADF70-1602
390
0
100
AcDbBlockBegin
  2
グループ-4
 70
               0
 10
0.0
 20
0.0
 30
0.0
  3
グループ-4
  1

  0
LINE
  5
1C5
100
AcDbEntity
  8
0
370
              15
390
0
  6
STYLE_13
 62
               7
100
AcDbLine
 10
-1246.6693623755377
 20
-5061.029965690308
 30
0.0
 11
-1172.3909491663603
 21
-5037.33576575589
 31
0.0
  0
ARC
  5
1C6
100
AcDbEntity
  8
0
370
              15
390
0
  6
STYLE_13
 62
               7
100
AcDbCircle
 10
-1244.2381283792388
 20
-5068.6515863352388
 30
0.0
 40
7.9999999999996678
100
AcDbArc
 50
107.69225308272749
 51
179.99824399005755
  0
ARC
  5
1C7
100
AcDbEntity
  8
0
370
              15
390
0
  6
STYLE_13
 62
               7
100
AcDbCircle
 10
-1176.9495129094198
 20
-5023.045227046643
 30
0.0
 40
15.000000000000101
100
AcDbArc
 50
287.6922530827261
 51
356.99999999999443
  0
ENDBLK
  5
1C8
100
AcDbEntity
  8
ADF70-1602
390
0
100
AcDbBlockEnd
  0
BLOCK
  5
1C9
100
AcDbEntity
  8
ADF70-1602
390
0
100
AcDbBlockBegin
  2
グループ-5
 70
               0
 10
0.0
 20
0.0
 30
0.0
  3
グループ-5
  1

  0
CIRCLE
  5
1CA
100
AcDbEntity
  8
0
370
               5
390
0
  6
STYLE_13
 62
               7
100
AcDbCircle
 10
-2252.0672336726993
 20
-3512.409422879764
 30
0.0
 40
17.5
  0
CIRCLE
  5
1CB
100
AcDbEntity
  8
0
370
               5
390
0
  6
STYLE_13
 62
               7
100
AcDbCircle
 10
-2252.0672336726993
 20
-3412.409422879764
 30
0.0
 40
15.0
  0
CIRCLE
  5
1CC
100
AcDbEntity
  8
0
370
               5
390
0
  6
STYLE_13
 62
               7
100
AcDbCircle
 10
-2252.0672336726993
 20
-3612.4094228797649
 30
0.0
 40
15.0
  0
ENDBLK
  5
1CD
100
AcDbEntity
  8
ADF70-1602
390
0
100
AcDbBlockEnd
  0
ENDSEC
  0
SECTION
  2
ENTITIES
  0
MTEXT
  5
1CE
100
AcDbEntity
  8
template
390
0
 62
               7
100
AcDbMText
 10
-967.99999999975921
 20
-1147.4176292337006
 30
0.0
 40
16.288411458333332
 41
0.0
 71
               1
 72
               1
  1
品名
  7
ＭＳ ゴシック
 73
               1
 44
0.7828267384257843
  0
MTEXT
  5
1CF
100
AcDbEntity
  8
template
390
0
 62
               7
100
AcDbMText
 10
-967.99999999975921
 20
-1232.4176292337006
 30
0.0
 40
16.288411458333332
 41
0.0
 71
               1
 72
               1
  1
仕様
  7
ＭＳ ゴシック
 73
               1
 44
0.7828267384257843
  0
MTEXT
  5
1D0
100
AcDbEntity
  8
template
390
0
 62
               7
100
AcDbMText
 10
-914.99999999975921
 20
-1176.000090171201
 30
0.0
 40
24.432617187500004
 41
0.0
 71
               1
 72
               1
  1
洗面器 -CATALANO,Roma-
  7
ＭＳ ゴシック
 73
               1
 44
0.7828267384257843
  0
LINE
  5
1D1
100
AcDbEntity
  8
template
370
               5
390
0
  6
Continuous
 62
               7
100
AcDbLine
 10
974.99999999975876
 20
-1224.0027073587007
 30
0.0
 11
-975.00000000024124
 21
-1224.0027073587007
 31
0.0
  0
LWPOLYLINE
  5
1D2
100
AcDbEntity
  8
template
370
               5
390
0
  6
Continuous
 62
               7
100
AcDbPolyline
 90
        5
 70
             128
 10
975.00000000024124
 20
1405.9972926412993
 10
-974.99999999975921
 20
1405.9972926412993
 10
-974.99999999975921
 20
-1394.0027073587007
 10
975.00000000024124
 20
-1394.0027073587007
 10
975.00000000024124
 20
1405.9972926412993
  0
LINE
  5
1D3
100
AcDbEntity
  8
template
370
               5
390
0
  6
Continuous
 62
               7
100
AcDbLine
 10
974.99999999975876
 20
-1139.0027073587007
 30
0.0
 11
-975.00000000024124
 21
-1139.0027073587007
 31
0.0
  0
LINE
  5
1D4
100
AcDbEntity
  8
template
370
               5
390
0
  6
Continuous
 62
               7
100
AcDbLine
 10
975.00000000024124
 20
-1309.0027073587007
 30
0.0
 11
222.00000000024124
 21
-1309.0027073587007
 31
0.0
  0
MTEXT
  5
1D5
100
AcDbEntity
  8
template
390
0
 62
               7
100
AcDbMText
 10
-974.99999999955594
 20
-1405.8565294155578
 30
0.0
 40
21.717881944444446
 41
0.0
 71
               1
 72
               1
  1
100707SH
  7
ＭＳ ゴシック
 73
               1
 44
0.7828267384257843
  0
MTEXT
  5
1D6
100
AcDbEntity
  8
template
390
0
 62
               7
100
AcDbMText
 10
251.87140625250095
 20
-1338.9131018320086
 30
0.0
 40
24.432617187500004
 41
0.0
 71
               1
 72
               1
  1
大洋金物株式会社 ティーフォルム事業部
  7
ＭＳ ゴシック
 73
               1
 44
0.7828267384257843
  0
INSERT
  5
1D7
100
AcDbEntity
  8
template
390
0
 62
               7
100
AcDbBlockReference
  2
グループ
 10
1691.2029908304464
 20
4231.1322226150514
 30
0.0
  0
MTEXT
  5
1D8
100
AcDbEntity
  8
template
390
0
 62
               7
100
AcDbMText
 10
784.00000000049999
 20
-1261.000090171201
 30
0.0
 40
24.432617187500004
 41
0.0
 71
               1
 72
               1
  1
1:10
  7
ＭＳ ゴシック
 73
               1
 44
0.7828267384257843
  0
MTEXT
  5
1D9
100
AcDbEntity
  8
template
390
0
 62
               7
100
AcDbMText
 10
731.00000000049999
 20
-1232.4176292337006
 30
0.0
 40
16.288411458333332
 41
0.0
 71
               1
 72
               1
  1
縮尺
  7
ＭＳ ゴシック
 73
               1
 44
0.7828267384257843
  0
LINE
  5
1DA
100
AcDbEntity
  8
template
370
               5
390
0
  6
Continuous
 62
               7
100
AcDbLine
 10
724.00000000049999
 20
-1309.0027073587007
 30
0.0
 11
724.00000000049999
 21
-1224.0027073587007
 31
0.0
  0
MTEXT
  5
1DB
100
AcDbEntity
  8
template
390
0
 62
               7
100
AcDbMText
 10
480.00000000049999
 20
-1232.4176292337006
 30
0.0
 40
16.288411458333332
 41
0.0
 71
               1
 72
               1
  1
容量
  7
ＭＳ ゴシック
 73
               1
 44
0.7828267384257843
  0
MTEXT
  5
1DC
100
AcDbEntity
  8
template
390
0
 62
               7
100
AcDbMText
 10
533.00000000049999
 20
-1261.000090171201
 30
0.0
 40
24.432617187500004
 41
0.0
 71
               1
 72
               1
  1
10L
  7
ＭＳ ゴシック
 73
               1
 44
0.7828267384257843
  0
LINE
  5
1DD
100
AcDbEntity
  8
template
370
               5
390
0
  6
Continuous
 62
               7
100
AcDbLine
 10
473.00000000049999
 20
-1309.0027073587007
 30
0.0
 11
473.00000000049999
 21
-1224.0027073587007
 31
0.0
  0
MTEXT
  5
1DE
100
AcDbEntity
  8
template
390
0
 62
               7
100
AcDbMText
 10
229.00000000049999
 20
-1147.4176292337006
 30
0.0
 40
16.288411458333332
 41
0.0
 71
               1
 72
               1
  1
品番
  7
ＭＳ ゴシック
 73
               1
 44
0.7828267384257843
  0
MTEXT
  5
1DF
100
AcDbEntity
  8
template
390
0
 62
               7
100
AcDbMText
 10
229.00000000049999
 20
-1232.4176292337006
 30
0.0
 40
16.288411458333332
 41
0.0
 71
               1
 72
               1
  1
重量
  7
ＭＳ ゴシック
 73
               1
 44
0.7828267384257843
  0
MTEXT
  5
1E0
100
AcDbEntity
  8
template
390
0
 62
               7
100
AcDbMText
 10
282.00000000049999
 20
-1176.000090171201
 30
0.0
 40
24.432617187500004
 41
0.0
 71
               1
 72
               1
  1
ADF70-1602
  7
ＭＳ ゴシック
 73
               1
 44
0.7828267384257843
  0
MTEXT
  5
1E1
100
AcDbEntity
  8
template
390
0
 62
               7
100
AcDbMText
 10
282.00000000049999
 20
-1261.000090171201
 30
0.0
 40
24.432617187500004
 41
0.0
 71
               1
 72
               1
  1
30kg
  7
ＭＳ ゴシック
 73
               1
 44
0.7828267384257843
  0
LINE
  5
1E2
100
AcDbEntity
  8
template
370
               5
390
0
  6
Continuous
 62
               7
100
AcDbLine
 10
222.00000000049999
 20
-1394.0027073587007
 30
0.0
 11
222.00000000049999
 21
-1139.0027073587007
 31
0.0
  0
MTEXT
  5
1E3
100
AcDbEntity
  8
template
390
0
 62
               7
100
AcDbMText
 10
-914.99999999975921
 20
-1261.000090171201
 30
0.0
 40
24.432617187500004
 41
0.0
 71
               1
 72
               1
  1
壁掛け,カウンタ ー置き,半埋め込み/オーバーフロー付き/壁取付ボルト付属/\P陶器/ホワイト
  7
ＭＳ ゴシック
 73
               1
 44
1.3047112307096407
  0
MTEXT
  5
1E4
100
AcDbEntity
  8
notes
390
0
 62
               7
100
AcDbMText
 10
39.844942737146084
 20
-832.10679324041757
 30
0.0
 40
24.432617187500004
 41
837.08742952023033
 71
               1
 72
               1
  1
＝φ30もしくはφ35の水栓取付用穴あけ加工を承ります。\P   必要な場合、ご注文の際にご指示ください。
  7
ＭＳ ゴシック
 11
0.0
 21
1.0
 31
0.0
 73
               1
 44
1.0437689845677123
  0
MTEXT
  5
1E5
100
AcDbEntity
  8
notes
390
0
 62
               7
100
AcDbMText
 10
351.8665220428602
 20
-92.994548144677537
 30
0.0
 40
24.432617187500004
 41
0.0
 71
               1
 72
               1
  1
壁取付ボルト穴(4ヶ所)
  7
ＭＳ ゴシック
 11
0.0
 21
1.0
 31
0.0
 73
               1
 44
0.7828267384257843
  0
MTEXT
  5
1E6
100
AcDbEntity
  8
notes
390
0
 62
               7
100
AcDbMText
 10
-873.02649277359319
 20
582.96756187005076
 30
0.0
 40
24.432617187500004
 41
0.0
 71
               1
 72
               1
  1
カウンター切込寸法
  7
ＭＳ ゴシック
 11
0.0
 21
1.0
 31
0.0
 73
               1
 44
0.7828267384257843
  0
MTEXT
  5
1E7
100
AcDbEntity
  8
notes
390
0
 62
               7
100
AcDbMText
 10
-779.5136430776231
 20
328.36746659389837
 30
0.0
 40
24.432617187500004
 41
0.0
 71
               1
 72
               1
  1
半埋め込み
  7
ＭＳ ゴシック
 11
0.0
 21
1.0
 31
0.0
 73
               1
 44
0.7828267384257843
  0
MTEXT
  5
1E8
100
AcDbEntity
  8
notes
390
0
 62
               7
100
AcDbMText
 10
-730.5136430776231
 20
531.23063627981583
 30
0.0
 40
24.432617187500004
 41
0.0
 71
               1
 72
               1
  1
カウンター置き
  7
ＭＳ ゴシック
 11
0.0
 21
1.0
 31
0.0
 73
               1
 44
0.7828267384257843
  0
LINE
  5
1E9
100
AcDbEntity
  8
notes
370
               5
390
0
  6
Continuous
 62
               7
100
AcDbLine
 10
478.93677665228506
 20
-172.55838262016096
 30
0.0
 11
385.56486245496467
 21
-79.186468422840335
 31
0.0
  0
MTEXT
  5
1EA
100
AcDbEntity
  8
notes
390
0
 62
               7
100
AcDbMText
 10
794.71300763971078
 20
-979.82427569454649
 30
0.0
 40
24.432617187500004
 41
0.0
 71
               1
 72
               1
  1
半埋め込み
  7
ＭＳ ゴシック
 11
0.0
 21
1.0
 31
0.0
 73
               1
 44
0.7828267384257843
  0
MTEXT
  5
1EB
100
AcDbEntity
  8
notes
390
0
 62
               7
100
AcDbMText
 10
737.71300763971215
 20
-863.65663422934267
 30
0.0
 40
24.432617187500004
 41
0.0
 71
               1
 72
               1
  1
カウンター置き
  7
ＭＳ ゴシック
 11
0.0
 21
1.0
 31
0.0
 73
               1
 44
0.7828267384257843
  0
LINE
  5
1EC
100
AcDbEntity
  8
notes
370
               5
390
0
  6
Continuous
 62
               7
100
AcDbLine
 10
598.93677665228506
 20
-747.21496756267334
 30
0.0
 11
598.93677665228506
 21
-873.91496756267588
 31
0.0
  0
LINE
  5
1ED
100
AcDbEntity
  8
notes
370
               5
390
0
  6
Continuous
 62
               7
100
AcDbLine
 10
538.93677665228506
 20
-909.69157272144457
 30
0.0
 11
538.93677665228506
 21
-986.39157272144712
 31
0.0
  0
LINE
  5
1EE
100
AcDbEntity
  8
notes
370
               5
390
0
  6
Continuous
 62
               7
100
AcDbLine
 10
538.93677665228506
 20
-961.39157272144712
 30
0.0
 11
785.56486245496467
 21
-961.39157272144712
 31
0.0
  0
LINE
  5
1EF
100
AcDbEntity
  8
notes
370
               5
390
0
  6
Continuous
 62
               7
100
AcDbLine
 10
598.93677665228506
 20
-848.91496756267406
 30
0.0
 11
731.56486245496467
 21
-848.91496756267406
 31
0.0
  0
DIMENSION
  5
1F0
100
AcDbEntity
  8
notes
370
               5
390
0
  6
Continuous
 62
               7
100
AcDbDimension
  2
*D4
 10
698.86372644761013
 20
1057.9806362798158
 30
0.0
 11
698.86372644761013
 21
927.98063627981719
 31
0.0
 71
               5
 72
               1
 41
1.0
 42
0.0
  3
Tform線あり
100
AcDbAlignedDimension
 13
588.7457567129868
 23
797.9806362798181
 33
0.0
 14
593.86372644791118
 24
1057.9806362798158
 34
0.0
 50
90.0
100
AcDbRotatedDimension
1001
ACAD
1000
DSTYLE
1002
{
1070
             279
1070
               2
1070
             340
1005
42
1070
             147
1040
5.0
1002
}
  0
DIMENSION
  5
1F1
100
AcDbEntity
  8
notes
370
               5
390
0
  6
Continuous
 62
               7
100
AcDbDimension
  2
*D5
 10
438.88898446945291
 20
416.07570941771519
 30
0.0
 11
493.91465265571878
 21
421.07570941771519
 31
0.0
 70
             128
 71
               5
 72
               1
 41
1.0
 42
0.0
  3
Tform線あり
100
AcDbAlignedDimension
 13
538.91465265572242
 23
515.62277765760473
 33
0.0
 14
438.88898446945291
 24
514.08646779294531
 34
0.0
100
AcDbRotatedDimension
1001
ACAD
1000
DSTYLE
1002
{
1070
             279
1070
               2
1070
             340
1005
42
1070
             147
1040
5.0
1002
}
  0
DIMENSION
  5
1F2
100
AcDbEntity
  8
notes
370
               5
390
0
  6
Continuous
 62
               7
100
AcDbDimension
  2
*D6
 10
338.93677665228506
 20
-772.55838262016005
 30
0.0
 11
338.93677665228506
 21
-692.55838262016005
 31
0.0
 71
               5
 72
               1
 41
1.0
 42
0.0
  3
Tform線あり
100
AcDbAlignedDimension
 13
458.93677665228506
 23
-612.55838262016005
 33
0.0
 14
458.93677665228506
 24
-772.55838262016005
 34
0.0
 50
90.0
100
AcDbRotatedDimension
1001
ACAD
1000
DSTYLE
1002
{
1070
             279
1070
               2
1070
             340
1005
42
1070
             147
1040
5.0
1002
}
  0
DIMENSION
  5
1F3
100
AcDbEntity
  8
notes
370
               5
390
0
  6
Continuous
 62
               7
100
AcDbDimension
  2
*D7
 10
338.93677665228506
 20
-612.55838262016005
 30
0.0
 11
338.93677665228506
 21
-472.55838262016005
 31
0.0
 71
               5
 72
               1
 41
1.0
 42
0.0
  3
Tform線あり
100
AcDbAlignedDimension
 13
458.93677665228506
 23
-332.55838262016096
 33
0.0
 14
458.93677665228506
 24
-612.55838262016005
 34
0.0
 50
90.0
100
AcDbRotatedDimension
1001
ACAD
1000
DSTYLE
1002
{
1070
             279
1070
               2
1070
             340
1005
42
1070
             147
1040
5.0
1002
}
  0
DIMENSION
  5
1F4
100
AcDbEntity
  8
notes
370
               5
390
0
  6
Continuous
 62
               7
100
AcDbDimension
  2
*D8
 10
338.93677665228506
 20
-332.55838262016096
 30
0.0
 11
333.93677665228506
 21
-252.55838262016096
 31
0.0
 70
             128
 71
               5
 72
               1
 41
1.0
 42
0.0
  3
Tform線あり
100
AcDbAlignedDimension
 13
458.93677665228506
 23
-172.55838262016096
 33
0.0
 14
458.93677665228506
 24
-332.55838262016096
 34
0.0
 50
90.0
100
AcDbRotatedDimension
1001
ACAD
1000
DSTYLE
1002
{
1070
             279
1070
               2
1070
             340
1005
42
1070
             147
1040
5.0
1002
}
  0
DIMENSION
  5
1F5
100
AcDbEntity
  8
notes
370
               5
390
0
  6
Continuous
 62
               7
100
AcDbDimension
  2
*D9
 10
478.93677665228506
 20
-997.53179756010013
 30
0.0
 11
458.93677665228483
 21
-997.53179756010013
 31
0.0
 71
               5
 72
               1
 41
1.0
 42
0.0
  3
Tform線あり
100
AcDbAlignedDimension
 13
438.93677665228483
 23
-891.84041492291362
 33
0.0
 14
478.93677665228506
 24
-822.55838262016005
 34
0.0
100
AcDbRotatedDimension
1001
ACAD
1000
DSTYLE
1002
{
1070
             279
1070
               2
1070
             340
1005
42
1070
             147
1040
5.0
1002
}
  0
DIMENSION
  5
1F6
100
AcDbEntity
  8
notes
370
               5
390
0
  6
Continuous
 62
               7
100
AcDbDimension
  2
*D10
 10
-751.24302668099085
 20
-897.53200411207035
 30
0.0
 11
-751.24302668099085
 21
-472.53200411206944
 31
0.0
 71
               5
 72
               1
 41
1.0
 42
0.0
  3
Tform線あり
100
AcDbAlignedDimension
 13
-657.86424284225291
 23
-47.532004112068535
 33
0.0
 14
-657.86424284225291
 24
-897.53200411207035
 34
0.0
 50
90.0
100
AcDbRotatedDimension
1001
ACAD
1000
DSTYLE
1002
{
1070
             279
1070
               2
1070
             340
1005
42
1070
             147
1040
5.0
1002
}
  0
DIMENSION
  5
1F7
100
AcDbEntity
  8
notes
370
               5
390
0
  6
Continuous
 62
               7
100
AcDbDimension
  2
*D11
 10
-701.24302668099085
 20
-572.53200411207035
 30
0.0
 11
-701.24302668099085
 21
-522.53200411207035
 31
0.0
 71
               5
 72
               1
 41
1.0
 42
0.0
  3
Tform線あり
100
AcDbAlignedDimension
 13
-571.1295364300679
 23
-472.53200411207035
 33
0.0
 14
-568.6295364300679
 24
-572.53200411207035
 34
0.0
 50
90.0
100
AcDbRotatedDimension
1001
ACAD
1000
DSTYLE
1002
{
1070
             279
1070
               2
1070
             340
1005
42
1070
             147
1040
5.0
1002
}
  0
DIMENSION
  5
1F8
100
AcDbEntity
  8
notes
370
               5
390
0
  6
Continuous
 62
               7
100
AcDbDimension
  2
*D12
 10
-701.24302668099085
 20
-472.53200411207035
 30
0.0
 11
-701.24302668099085
 21
-422.53200411207035
 31
0.0
 71
               5
 72
               1
 41
1.0
 42
0.0
  3
Tform線あり
100
AcDbAlignedDimension
 13
-568.6295364300679
 23
-372.53200411207035
 33
0.0
 14
-571.1295364300679
 24
-472.53200411207035
 34
0.0
 50
90.0
100
AcDbRotatedDimension
1001
ACAD
1000
DSTYLE
1002
{
1070
             279
1070
               2
1070
             340
1005
42
1070
             147
1040
5.0
1002
}
  0
DIMENSION
  5
1F9
100
AcDbEntity
  8
notes
370
               5
390
0
  6
Continuous
 62
               7
100
AcDbDimension
  2
*D13
 10
-10.864242842252906
 20
-897.53200411206853
 30
0.0
 11
-10.864242842252906
 21
-867.53200411206853
 31
0.0
 71
               5
 72
               1
 41
1.0
 42
0.0
  3
Tform線あり
100
AcDbAlignedDimension
 13
-110.86424284225291
 23
-837.53200411206853
 33
0.0
 14
-160.864242842252
 24
-897.53200411206853
 34
0.0
 50
90.0
100
AcDbRotatedDimension
1001
ACAD
1000
DSTYLE
1002
{
1070
             279
1070
               2
1070
             340
1005
42
1070
             147
1040
5.0
1002
}
  0
DIMENSION
  5
1FA
100
AcDbEntity
  8
notes
370
               5
390
0
  6
Continuous
 62
               7
100
AcDbDimension
  2
*D14
 10
-10.864242842252906
 20
-837.53200411206853
 30
0.0
 11
-10.864242842252906
 21
-472.53200411206853
 31
0.0
 71
               5
 72
               1
 41
1.0
 42
0.0
  3
Tform線あり
100
AcDbAlignedDimension
 13
-110.86424284225291
 23
-107.53200411206853
 33
0.0
 14
-110.86424284225291
 24
-837.53200411206853
 34
0.0
 50
90.0
100
AcDbRotatedDimension
1001
ACAD
1000
DSTYLE
1002
{
1070
             279
1070
               2
1070
             340
1005
42
1070
             147
1040
5.0
1002
}
  0
DIMENSION
  5
1FB
100
AcDbEntity
  8
notes
370
               5
390
0
  6
Continuous
 62
               7
100
AcDbDimension
  2
*D15
 10
-660.86424284225291
 20
-997.53200411207035
 30
0.0
 11
-575.864242842252
 21
-997.53200411207035
 31
0.0
 71
               5
 72
               1
 41
1.0
 42
0.0
  3
Tform線あり
100
AcDbAlignedDimension
 13
-490.86424284225109
 23
-897.53200411207035
 33
0.0
 14
-660.86424284225291
 24
-894.53200411207035
 34
0.0
100
AcDbRotatedDimension
1001
ACAD
1000
DSTYLE
1002
{
1070
             279
1070
               2
1070
             340
1005
42
1070
             147
1040
5.0
1002
}
  0
DIMENSION
  5
1FC
100
AcDbEntity
  8
notes
370
               5
390
0
  6
Continuous
 62
               7
100
AcDbDimension
  2
*D16
 10
-490.86424284225109
 20
-997.53200411207035
 30
0.0
 11
-330.86424284225063
 21
-997.53200411207035
 31
0.0
 71
               5
 72
               1
 41
1.0
 42
0.0
  3
Tform線あり
100
AcDbAlignedDimension
 13
-170.86424284225018
 23
-897.53200411207035
 33
0.0
 14
-490.86424284225109
 24
-897.53200411207035
 34
0.0
100
AcDbRotatedDimension
1001
ACAD
1000
DSTYLE
1002
{
1070
             279
1070
               2
1070
             340
1005
42
1070
             147
1040
5.0
1002
}
  0
DIMENSION
  5
1FD
100
AcDbEntity
  8
notes
370
               5
390
0
  6
Continuous
 62
               7
100
AcDbDimension
  2
*D17
 10
-660.86424284225291
 20
52.467995887931465
 30
0.0
 11
-385.864242842252
 21
52.467995887931465
 31
0.0
 71
               5
 72
               1
 41
1.0
 42
0.0
  3
Tform線あり
100
AcDbAlignedDimension
 13
-110.86424284225109
 23
-97.532004112067625
 33
0.0
 14
-660.86424284225291
 24
-50.532004112067625
 34
0.0
100
AcDbRotatedDimension
1001
ACAD
1000
DSTYLE
1002
{
1070
             279
1070
               2
1070
             340
1005
42
1070
             147
1040
5.0
1002
}
  0
DIMENSION
  5
1FE
100
AcDbEntity
  8
notes
370
               5
390
0
  6
Continuous
 62
               7
100
AcDbDimension
  2
*D18
 10
338.94652498434402
 20
1057.9806362798122
 30
0.0
 11
338.94652498434402
 21
1007.9806362798122
 31
0.0
 71
               5
 72
               1
 41
1.0
 42
0.0
  3
Tform線あり
100
AcDbAlignedDimension
 13
438.97083478007585
 23
957.98063627981219
 33
0.0
 14
441.94630848828069
 24
1057.9806362798122
 34
0.0
 50
90.0
100
AcDbRotatedDimension
1001
ACAD
1000
DSTYLE
1002
{
1070
             279
1070
               2
1070
             340
1005
42
1070
             147
1040
5.0
1002
}
  0
DIMENSION
  5
1FF
100
AcDbEntity
  8
notes
370
               5
390
0
  6
Continuous
 62
               7
100
AcDbDimension
  2
*D19
 10
438.94652498434402
 20
801.22560538641255
 30
0.0
 11
425.56486245496467
 21
806.22560538641255
 31
0.0
 70
             128
 71
               5
 72
               1
 41
1.0
 42
0.0
  3
Tform線あり
100
AcDbAlignedDimension
 13
538.94060357799208
 23
780.07570941771519
 33
0.0
 14
438.94652498434402
 24
780.07570941771519
 34
0.0
100
AcDbRotatedDimension
1001
ACAD
1000
DSTYLE
1002
{
1070
             279
1070
               2
1070
             340
1005
42
1070
               3
1000
<>(深さ)
1070
             174
1070
               0
1070
             147
1040
5.0
1002
}
  0
DIMENSION
  5
200
100
AcDbEntity
  8
notes
370
               5
390
0
  6
Continuous
 62
               7
100
AcDbDimension
  2
*D20
 10
438.93677665228483
 20
79.308767138293661
 30
0.0
 11
518.93677665228483
 21
79.308767138293661
 31
0.0
 71
               5
 72
               1
 41
1.0
 42
0.0
  3
Tform線あり
100
AcDbAlignedDimension
 13
598.93677665228506
 23
-220.03639981471406
 33
0.0
 14
438.93677665228483
 24
-50.558382620158227
 34
0.0
100
AcDbRotatedDimension
1001
ACAD
1000
DSTYLE
1002
{
1070
             279
1070
               2
1070
             340
1005
42
1070
             147
1040
5.0
1002
}
  0
DIMENSION
  5
201
100
AcDbEntity
  8
notes
370
               5
390
0
  6
Continuous
 62
               7
100
AcDbDimension
  2
*D21
 10
698.93677665228506
 20
-217.51936372018736
 30
0.0
 11
698.93677665228506
 21
-472.51936372018736
 31
0.0
 71
               5
 72
               1
 41
1.0
 42
0.0
  3
Tform線あり
100
AcDbAlignedDimension
 13
598.93677665228506
 23
-727.51936372018736
 33
0.0
 14
598.93677665228506
 24
-217.51936372018736
 34
0.0
 50
90.0
100
AcDbRotatedDimension
1001
ACAD
1000
DSTYLE
1002
{
1070
             279
1070
               2
1070
             340
1005
42
1070
             147
1040
5.0
1002
}
  0
DIMENSION
  5
202
100
AcDbEntity
  8
notes
370
               5
390
0
  6
Continuous
 62
               7
100
AcDbDimension
  2
*D22
 10
-360.864242842252
 20
993.98063627981583
 30
0.0
 11
-510.86424284225245
 21
993.98063627981583
 31
0.0
 71
               5
 72
               1
 41
1.0
 42
0.0
  3
Tform線あり
100
AcDbAlignedDimension
 13
-660.86424284225291
 23
893.68063627981564
 33
0.0
 14
-360.864242842252
 24
893.68063627981564
 34
0.0
100
AcDbRotatedDimension
1001
ACAD
1000
DSTYLE
1002
{
1070
             279
1070
               2
1070
             340
1005
42
1070
             147
1040
5.0
1002
}
  0
DIMENSION
  5
203
100
AcDbEntity
  8
notes
370
               5
390
0
  6
Continuous
 62
               7
100
AcDbDimension
  2
*D23
 10
-180.864242842252
 20
1243.722799735292
 30
0.0
 11
-420.86424284225245
 21
1243.722799735292
 31
0.0
 71
               5
 72
               1
 41
1.0
 42
0.0
  3
Tform線あり
100
AcDbAlignedDimension
 13
-660.86424284225291
 23
1093.6806362798156
 33
0.0
 14
-180.864242842252
 24
1093.6806362798156
 34
0.0
100
AcDbRotatedDimension
1001
ACAD
1000
DSTYLE
1002
{
1070
             279
1070
               2
1070
             340
1005
42
1070
             147
1040
5.0
1002
}
  0
DIMENSION
  5
204
100
AcDbEntity
  8
notes
370
               5
390
0
  6
Continuous
 62
               7
100
AcDbDimension
  2
*D24
 10
-10.864242842252906
 20
1093.6806362798156
 30
0.0
 11
-10.864242842252906
 21
718.68063627981564
 31
0.0
 71
               5
 72
               1
 41
1.0
 42
0.0
  3
Tform線あり
100
AcDbAlignedDimension
 13
-180.864242842252
 23
343.68063627981564
 33
0.0
 14
-180.864242842252
 24
1093.6806362798156
 34
0.0
 50
90.0
100
AcDbRotatedDimension
1001
ACAD
1000
DSTYLE
1002
{
1070
             279
1070
               2
1070
             340
1005
42
1070
             147
1040
5.0
1002
}
  0
INSERT
  5
205
100
AcDbEntity
  8
notes
390
0
 62
               7
100
AcDbBlockReference
  2
グループ-1
 10
1691.2029908304464
 20
4231.1322226150514
 30
0.0
  0
DIMENSION
  5
206
100
AcDbEntity
  8
notes
370
               5
390
0
  6
Continuous
 62
               7
100
AcDbDimension
  2
*D26
 10
748.86372644761013
 20
1057.9806362798158
 30
0.0
 11
748.86372644761013
 21
875.48063627981583
 31
0.0
 71
               5
 72
               1
 41
1.0
 42
0.0
  3
Tform線あり
100
AcDbAlignedDimension
 13
593.86372644791118
 23
692.98063627981583
 33
0.0
 14
593.86372644791118
 24
1057.9806362798158
 34
0.0
 50
90.0
100
AcDbRotatedDimension
1001
ACAD
1000
DSTYLE
1002
{
1070
             279
1070
               2
1070
             340
1005
42
1070
             147
1040
5.0
1002
}
  0
DIMENSION
  5
207
100
AcDbEntity
  8
notes
370
               5
390
0
  6
Continuous
 62
               7
100
AcDbDimension
  2
*D27
 10
538.91465265572242
 20
416.07570941771473
 30
0.0
 11
568.91465265572242
 21
416.07570941771473
 31
0.0
 71
               5
 72
               1
 41
1.0
 42
0.0
  3
Tform線あり
100
AcDbAlignedDimension
 13
598.91465265572242
 23
682.72300628725907
 33
0.0
 14
538.91465265572242
 24
490.62277765760473
 34
0.0
100
AcDbRotatedDimension
1001
ACAD
1000
DSTYLE
1002
{
1070
             279
1070
               2
1070
             340
1005
42
1070
             147
1040
5.0
1002
}
  0
CIRCLE
  5
208
100
AcDbEntity
  8
notes
370
              15
390
0
  6
STYLE_13
 62
               7
100
AcDbCircle
 10
53.677161119387847
 20
-856.77192558104889
 30
0.0
 40
15.0
  0
DIMENSION
  5
209
100
AcDbEntity
  8
notes
370
               5
390
0
  6
Continuous
 62
               7
100
AcDbDimension
  2
*D28
 10
-260.864242842252
 20
893.68063627981564
 30
0.0
 11
-260.864242842252
 21
718.68063627981564
 31
0.0
 71
               5
 72
               1
 41
1.0
 42
0.0
  3
Tform線あり
100
AcDbAlignedDimension
 13
-360.864242842252
 23
543.68063627981564
 33
0.0
 14
-360.864242842252
 24
893.68063627981564
 34
0.0
 50
90.0
100
AcDbRotatedDimension
1001
ACAD
1000
DSTYLE
1002
{
1070
             279
1070
               2
1070
             340
1005
42
1070
             147
1040
5.0
1002
}
  0
LINE
  5
20A
100
AcDbEntity
  8
notes
370
               5
390
0
  6
Continuous
 62
               7
100
AcDbLine
 10
-660.86424284225291
 20
543.68063627981564
 30
0.0
 11
-694.43513754503624
 21
543.68063627981564
 31
0.0
  0
LINE
  5
20B
100
AcDbEntity
  8
notes
370
               5
390
0
  6
Continuous
 62
               7
100
AcDbLine
 10
-660.86424284225291
 20
343.68063627981564
 30
0.0
 11
-746.43513754503624
 21
343.68063627981564
 31
0.0
  0
DIMENSION
  5
20C
100
AcDbEntity
  8
notes
370
               5
390
0
  6
Continuous
 62
               7
100
AcDbDimension
  2
*D29
 10
583.86372644791481
 20
726.875
 30
0.0
 11
626.09534496388937
 21
731.875
 31
0.0
 70
             128
 71
               5
 72
               1
 41
1.0
 42
0.0
  3
Tform線あり
100
AcDbAlignedDimension
 13
598.86372644791481
 23
772.25743631851128
 33
0.0
 14
583.86372644791481
 24
772.25743631851128
 34
0.0
100
AcDbRotatedDimension
1001
ACAD
1000
DSTYLE
1002
{
1070
             279
1070
               2
1070
             340
1005
42
1070
             174
1070
               0
1070
             147
1040
5.0
1002
}
  0
LWPOLYLINE
  5
20D
100
AcDbEntity
  8
ADF70-1602
370
              15
390
0
  6
Continuous
 62
               7
100
AcDbPolyline
 90
        9
 70
             129
 10
-110.86424284225291
 20
-847.53200411206853
 10
-110.86424284225109
 20
-97.532004112067625
 42
0.4142135623731071
 10
-160.864242842252
 20
-47.532004112068535
 10
-657.86424284225291
 20
-47.532004112068535
 42
0.4142135623730063
 10
-660.86424284225291
 20
-50.532004112067625
 10
-660.86424284225291
 20
-894.53200411207035
 42
0.414213562373095
 10
-657.86424284225291
 20
-897.53200411207035
 10
-160.864242842252
 20
-897.53200411206853
 42
0.4142135623731004
 10
-110.86424284225291
 20
-847.53200411206853
  0
LINE
  5
20E
100
AcDbEntity
  8
ADF70-1602
370
              15
390
0
  6
Continuous
 62
               7
100
AcDbLine
 10
-490.86424284225109
 20
-807.53200411207035
 30
0.0
 11
-490.86424284225382
 21
-137.53200411206853
 31
0.0
  0
LINE
  5
20F
100
AcDbEntity
  8
ADF70-1602
370
              15
390
0
  6
Continuous
 62
               7
100
AcDbLine
 10
-200.86424284225018
 20
-837.53200411206672
 30
0.0
 11
-460.86424284225109
 21
-837.53200411207035
 31
0.0
  0
ARC
  5
210
100
AcDbEntity
  8
ADF70-1602
370
              15
390
0
  6
Continuous
 62
               7
100
AcDbCircle
 10
-200.86424284225018
 20
-807.53200411206672
 30
0.0
 40
30.0
100
AcDbArc
 50
270.0
 51
0.0
  0
LINE
  5
211
100
AcDbEntity
  8
ADF70-1602
370
              15
390
0
  6
Continuous
 62
               7
100
AcDbLine
 10
-200.86424284225109
 20
-107.53200411206853
 30
0.0
 11
-460.86424284225291
 21
-107.53200411206853
 31
0.0
  0
LINE
  5
212
100
AcDbEntity
  8
ADF70-1602
370
              15
390
0
  6
Continuous
 62
               7
100
AcDbLine
 10
-170.86424284225018
 20
-807.53200411206672
 30
0.0
 11
-170.86424284225109
 21
-137.53200411206853
 31
0.0
  0
CIRCLE
  5
213
100
AcDbEntity
  8
ADF70-1602
370
              15
390
0
  6
Continuous
 62
               7
100
AcDbCircle
 10
-398.14104288095064
 20
-472.53200411207035
 30
0.0
 40
38.999999999999091
  0
CIRCLE
  5
214
100
AcDbEntity
  8
ADF70-1602
370
              15
390
0
  6
Continuous
 62
               7
100
AcDbCircle
 10
-398.14104288095064
 20
-472.53200411207035
 30
0.0
 40
23.043551013696742
  0
ARC
  5
215
100
AcDbEntity
  8
ADF70-1602
370
              15
390
0
  6
Continuous
 62
               7
100
AcDbCircle
 10
-460.86424284225291
 20
-137.53200411206853
 30
0.0
 40
30.0
100
AcDbArc
 50
90.0
 51
180.0
  0
ARC
  5
216
100
AcDbEntity
  8
ADF70-1602
370
              15
390
0
  6
Continuous
 62
               7
100
AcDbCircle
 10
-460.86424284225109
 20
-807.53200411207035
 30
0.0
 40
30.0
100
AcDbArc
 50
180.0
 51
270.0
  0
ARC
  5
217
100
AcDbEntity
  8
ADF70-1602
370
              15
390
0
  6
Continuous
 62
               7
100
AcDbCircle
 10
-200.86424284225018
 20
-807.53200411206853
 30
0.0
 40
30.0
100
AcDbArc
 50
270.0
 51
0.0
  0
ARC
  5
218
100
AcDbEntity
  8
ADF70-1602
370
              15
390
0
  6
Continuous
 62
               7
100
AcDbCircle
 10
-200.86424284225109
 20
-137.53200411206853
 30
0.0
 40
30.0
100
AcDbArc
 50
0.0
 51
90.0
  0
CIRCLE
  5
219
100
AcDbEntity
  8
ADF70-1602
370
              15
390
0
  6
STYLE_13
 62
               7
100
AcDbCircle
 10
-560.86424284225291
 20
-472.53200411207035
 30
0.0
 40
17.5
  0
CIRCLE
  5
21A
100
AcDbEntity
  8
ADF70-1602
370
              15
390
0
  6
STYLE_13
 62
               7
100
AcDbCircle
 10
-560.86424284225291
 20
-372.53200411207035
 30
0.0
 40
15.0
  0
CIRCLE
  5
21B
100
AcDbEntity
  8
ADF70-1602
370
              15
390
0
  6
STYLE_13
 62
               7
100
AcDbCircle
 10
-560.86424284225291
 20
-572.53200411207035
 30
0.0
 40
15.0
  0
LINE
  5
21C
100
AcDbEntity
  8
ADF70-1602
370
              15
390
0
  6
Continuous
 62
               7
100
AcDbLine
 10
-203.47326638332675
 20
-127.15452437239583
 30
0.0
 11
-456.93532286307641
 21
-127.15452437240219
 31
0.0
  0
LINE
  5
21D
100
AcDbEntity
  8
ADF70-1602
370
              15
390
0
  6
Continuous
 62
               7
100
AcDbLine
 10
-203.47326638332584
 20
-817.90948385173579
 30
0.0
 11
-456.9353228630755
 21
-817.90948385173579
 31
0.0
  0
ARC
  5
21E
100
AcDbEntity
  8
ADF70-1602
370
              15
390
0
  6
Continuous
 62
               7
100
AcDbCircle
 10
-203.47326638332584
 20
-806.90948385173579
 30
0.0
 40
11.0
100
AcDbArc
 50
270.0
 51
0.0
  0
LINE
  5
21F
100
AcDbEntity
  8
ADF70-1602
370
              15
390
0
  6
Continuous
 62
               7
100
AcDbLine
 10
-467.93532286307459
 20
-138.15452437240219
 30
0.0
 11
-467.9353228630755
 21
-806.90948385173579
 31
0.0
  0
ARC
  5
220
100
AcDbEntity
  8
ADF70-1602
370
              15
390
0
  6
Continuous
 62
               7
100
AcDbCircle
 10
-456.9353228630755
 20
-806.90948385173579
 30
0.0
 40
11.0
100
AcDbArc
 50
180.0
 51
270.0
  0
ARC
  5
221
100
AcDbEntity
  8
ADF70-1602
370
              15
390
0
  6
Continuous
 62
               7
100
AcDbCircle
 10
-456.9353228630755
 20
-138.15452437240219
 30
0.0
 40
11.0
100
AcDbArc
 50
90.0
 51
180.0
  0
LINE
  5
222
100
AcDbEntity
  8
ADF70-1602
370
              15
390
0
  6
Continuous
 62
               7
100
AcDbLine
 10
-192.47326638332675
 20
-138.15452437239583
 30
0.0
 11
-192.47326638332493
 21
-806.90948385173579
 31
0.0
  0
ARC
  5
223
100
AcDbEntity
  8
ADF70-1602
370
              15
390
0
  6
Continuous
 62
               7
100
AcDbCircle
 10
-203.47326638332675
 20
-138.15452437239583
 30
0.0
 40
11.0
100
AcDbArc
 50
0.0
 51
90.0
  0
SPLINE
  5
224
100
AcDbEntity
  8
ADF70-1602
370
              15
390
0
  6
Continuous
 62
               7
100
AcDbSpline
210
0.0
220
0.0
230
1.0
 70
               9
 71
               2
 72
              30
 73
              27
 74
               0
 42
0.000001
 43
0.000001
 40
0.0
 40
0.0
 40
0.0
 40
1.0
 40
1.0
 40
2.0
 40
3.0
 40
4.0
 40
5.0
 40
6.0
 40
7.0
 40
8.0
 40
9.0
 40
10.0
 40
11.0
 40
12.0
 40
13.0
 40
14.0
 40
15.0
 40
16.0
 40
17.0
 40
18.0
 40
19.0
 40
20.0
 40
21.0
 40
22.0
 40
22.0
 40
23.0
 40
23.0
 40
23.0
 10
-485.13319469225667
 20
-485.03200411207035
 30
0.0
 10
-485.07400926983632
 20
-485.03200411207035
 30
0.0
 10
-485.01482384741598
 20
-485.03200411207035
 30
0.0
 10
-484.38614747803626
 20
-484.71360227731384
 30
0.0
 10
-483.67362823870121
 20
-482.42355723125547
 30
0.0
 10
-483.27863290153186
 20
-480.31665405385775
 30
0.0
 10
-482.9916042100524
 20
-477.81059406490294
 30
0.0
 10
-482.7497181186402
 20
-473.81542358177012
 30
0.0
 10
-482.82665958112761
 20
-469.93618275786412
 30
0.0
 10
-482.99160490366853
 20
-467.25341415923685
 30
0.0
 10
-483.27862885544187
 20
-464.74735417028387
 30
0.0
 10
-483.67365182162416
 20
-462.64045099288433
 30
0.0
 10
-484.39492064786305
 20
-460.35584067233322
 30
0.0
 10
-485.13319469225758
 20
-459.96606624375545
 30
0.0
 10
-485.87970753618288
 20
-460.34998789101883
 30
0.0
 10
-486.59273756288826
 20
-462.64045099288433
 30
0.0
 10
-486.98776052907237
 20
-464.74735417028387
 30
0.0
 10
-487.27478448084571
 20
-467.25341415923776
 30
0.0
 10
-487.43972980338481
 20
-469.93618275786412
 30
0.0
 10
-487.51943660515576
 20
-473.80093237436722
 30
0.0
 10
-487.27478517446184
 20
-477.81059406490294
 30
0.0
 10
-486.98775648298329
 20
-480.31665405385684
 30
0.0
 10
-486.59276114581121
 20
-482.42355723125638
 30
0.0
 10
-485.87462706102474
 20
-484.70889914947293
 30
0.0
 10
-485.25156553709735
 20
-485.03200411207035
 30
0.0
 10
-485.19238011467701
 20
-485.03200411207035
 30
0.0
 10
-485.13319469225667
 20
-485.03200411207035
 30
0.0
  0
LINE
  5
225
100
AcDbEntity
  8
ADF70-1602
370
              15
390
0
  6
Continuous
 62
               7
100
AcDbLine
 10
453.94692875459418
 20
940.52300628725925
 30
0.0
 11
438.94692875459418
 21
940.52300628725925
 31
0.0
  0
LINE
  5
226
100
AcDbEntity
  8
ADF70-1602
370
              15
390
0
  6
STYLE_13
 62
               7
100
AcDbLine
 10
536.83367532583543
 20
752.78945421717526
 30
0.0
 11
529.15851556414691
 21
606.95635029473806
 31
0.0
  0
LINE
  5
227
100
AcDbEntity
  8
ADF70-1602
370
              15
390
0
  6
Continuous
 62
               7
100
AcDbLine
 10
533.0193670943454
 20
509.62369148666721
 30
0.0
 11
444.99369890525918
 21
508.08719773307666
 31
0.0
  0
LINE
  5
228
100
AcDbEntity
  8
ADF70-1602
370
              15
390
0
  6
Continuous
 62
               7
100
AcDbLine
 10
438.89045707676701
 20
562.13527553502854
 30
0.0
 11
438.88898446945291
 21
514.08646779294531
 31
0.0
  0
ARC
  5
229
100
AcDbEntity
  8
ADF70-1602
370
              15
390
0
  6
Continuous
 62
               7
100
AcDbCircle
 10
444.88898446663552
 20
514.08628390401418
 30
0.0
 40
6.0000000000000862
100
AcDbArc
 50
179.99824399005755
 51
271.00000000002791
  0
ARC
  5
22A
100
AcDbEntity
  8
ADF70-1602
370
              15
390
0
  6
STYLE_13
 62
               7
100
AcDbCircle
 10
448.94713358083004
 20
896.37188363917267
 30
0.0
 40
9.9999999999997726
100
AcDbArc
 50
180.0
 51
259.93261525563861
  0
ARC
  5
22B
100
AcDbEntity
  8
ADF70-1602
370
              15
390
0
  6
Continuous
 62
               7
100
AcDbCircle
 10
532.91465265572265
 20
515.62277765760473
 30
0.0
 40
5.9999999999996749
100
AcDbArc
 50
271.00000000002791
 51
0.0
  0
LINE
  5
22C
100
AcDbEntity
  8
ADF70-1602
370
              15
390
0
  6
STYLE_13
 62
               7
100
AcDbLine
 10
550.98305392719703
 20
772.25743631851128
 30
0.0
 11
550.98305392719703
 21
795.25743631851128
 31
0.0
  0
LINE
  5
22D
100
AcDbEntity
  8
ADF70-1602
370
              15
390
0
  6
STYLE_13
 62
               7
100
AcDbLine
 10
444.45922307671185
 20
569.75665099471871
 30
0.0
 11
518.73763628588858
 21
593.45085092913587
 31
0.0
  0
ARC
  5
22E
100
AcDbEntity
  8
ADF70-1602
370
              15
390
0
  6
STYLE_13
 62
               7
100
AcDbCircle
 10
446.89045707301034
 20
562.13503034978703
 30
0.0
 40
8.0000000000001688
100
AcDbArc
 50
107.69225308272804
 51
179.99824399005755
  0
LINE
  5
22F
100
AcDbEntity
  8
ADF70-1602
370
              15
390
0
  6
Continuous
 62
               7
100
AcDbLine
 10
438.89066897771932
 20
562.19325775270363
 30
0.0
 11
438.94713358083004
 21
896.37188363917267
 31
0.0
  0
LINE
  5
230
100
AcDbEntity
  8
ADF70-1602
370
              15
390
0
  6
Continuous
 62
               7
100
AcDbLine
 10
531.94077887870026
 20
1057.980636279814
 30
0.0
 11
593.86372644791118
 21
1057.9806362798158
 31
0.0
  0
LINE
  5
231
100
AcDbEntity
  8
ADF70-1602
370
              15
390
0
  6
Continuous
 62
               7
100
AcDbLine
 10
598.86372644791118
 20
1034.729174409993
 30
0.0
 11
598.86372644791209
 21
1052.9806362798158
 31
0.0
  0
LINE
  5
232
100
AcDbEntity
  8
ADF70-1602
370
              15
390
0
  6
Continuous
 62
               7
100
AcDbLine
 10
598.86372644790845
 20
866.99675614161833
 30
0.0
 11
598.86372644791118
 21
1034.3232009211038
 31
0.0
  0
LINE
  5
233
100
AcDbEntity
  8
ADF70-1602
370
              15
390
0
  6
Continuous
 62
               7
100
AcDbLine
 10
598.86372644791118
 20
705.05552080728967
 30
0.0
 11
598.86372644790481
 21
685.86376814873665
 31
0.0
  0
ARC
  5
234
100
AcDbEntity
  8
ADF70-1602
370
              15
390
0
  6
Continuous
 62
               7
100
AcDbCircle
 10
592.86372644790504
 20
685.86376814873938
 30
0.0
 40
6.0000000000001483
100
AcDbArc
 50
318.85522362781313
 51
0.0
  0
LINE
  5
235
100
AcDbEntity
  8
ADF70-1602
370
              15
390
0
  6
Continuous
 62
               7
100
AcDbLine
 10
598.86372644791481
 20
705.05552080729422
 30
0.0
 11
598.86372644790845
 21
866.99675614161833
 31
0.0
  0
ARC
  5
236
100
AcDbEntity
  8
ADF70-1602
370
              15
390
0
  6
Continuous
 62
               7
100
AcDbCircle
 10
593.86372644791118
 20
1052.9806362798158
 30
0.0
 40
5.0
100
AcDbArc
 50
0.0
 51
90.0
  0
LINE
  5
237
100
AcDbEntity
  8
ADF70-1602
370
              15
390
0
  6
STYLE_13
 62
               7
100
AcDbLine
 10
447.1990708250521
 20
886.52585517070565
 30
0.0
 11
517.14615847133337
 21
874.19569898943746
 31
0.0
  0
ARC
  5
238
100
AcDbEntity
  8
ADF70-1602
370
              15
390
0
  6
STYLE_13
 62
               7
100
AcDbCircle
 10
514.54213273990899
 20
859.42345982301322
 30
0.0
 40
14.999999999999778
100
AcDbArc
 50
12.985867411560845
 51
80.002703145980718
  0
LINE
  5
239
100
AcDbEntity
  8
ADF70-1602
370
              15
390
0
  6
STYLE_13
 62
               7
100
AcDbLine
 10
536.60826047663886
 20
839.03310689804357
 30
0.0
 11
529.15851556414691
 21
862.79412046083144
 31
0.0
  0
ARC
  5
23A
100
AcDbEntity
  8
ADF70-1602
370
              15
390
0
  6
STYLE_13
 62
               7
100
AcDbCircle
 10
514.17907254283023
 20
607.74138963838277
 30
0.0
 40
15.000000000000101
100
AcDbArc
 50
287.6922530827261
 51
356.99999999999443
  0
ARC
  5
23B
100
AcDbEntity
  8
ADF70-1602
370
              15
390
0
  6
STYLE_13
 62
               7
100
AcDbCircle
 10
544.82942214655236
 20
752.52862327771527
 30
0.0
 40
7.9999999999997202
100
AcDbArc
 50
139.99999999998153
 51
178.13160487940823
  0
ARC
  5
23C
100
AcDbEntity
  8
ADF70-1602
370
              15
390
0
  6
STYLE_13
 62
               7
100
AcDbCircle
 10
544.83195020632229
 20
837.90875193546162
 30
0.0
 40
7.9999999999999876
100
AcDbArc
 50
181.18989882308767
 51
220.00000000002092
  0
LINE
  5
23D
100
AcDbEntity
  8
ADF70-1602
370
              15
390
0
  6
STYLE_13
 62
               7
100
AcDbLine
 10
550.91827780359927
 20
818.20955854081922
 30
0.0
 11
538.70359466137143
 21
832.76645105796888
 31
0.0
  0
LINE
  5
23E
100
AcDbEntity
  8
ADF70-1602
370
              15
390
0
  6
STYLE_13
 62
               7
100
AcDbLine
 10
550.94060357799208
 20
772.25743631851128
 30
0.0
 11
538.70106660160036
 21
757.67092415520801
 31
0.0
  0
LINE
  5
23F
100
AcDbEntity
  8
ADF70-1602
370
              15
390
0
  6
STYLE_13
 62
               7
100
AcDbLine
 10
550.94060357799208
 20
818.25743631851537
 30
0.0
 11
583.86372644791481
 21
818.25743631851537
 31
0.0
  0
LINE
  5
240
100
AcDbEntity
  8
ADF70-1602
370
              15
390
0
  6
STYLE_13
 62
               7
100
AcDbLine
 10
550.94060357799208
 20
772.25743631851128
 30
0.0
 11
583.86372644791481
 21
772.25743631851128
 31
0.0
  0
LINE
  5
241
100
AcDbEntity
  8
ADF70-1602
370
              15
390
0
  6
STYLE_13
 62
               7
100
AcDbLine
 10
583.86372644791481
 20
772.25743631851128
 30
0.0
 11
583.86372644791481
 21
818.25743631851537
 31
0.0
  0
LINE
  5
242
100
AcDbEntity
  8
ADF70-1602
370
              15
390
0
  6
STYLE_13
 62
               7
100
AcDbLine
 10
538.94060357799208
 20
757.95639320738201
 30
0.0
 11
538.94060357799208
 21
832.48399483010917
 31
0.0
  0
LINE
  5
243
100
AcDbEntity
  8
ADF70-1602
370
              15
390
0
  6
STYLE_13
 62
               7
100
AcDbLine
 10
550.94060357799208
 20
818.25743631851265
 30
0.0
 11
550.94060357799208
 21
772.2574363185131
 31
0.0
  0
ARC
  5
244
100
AcDbEntity
  8
ADF70-1602
370
              15
390
0
  6
STYLE_13
 62
               7
100
AcDbCircle
 10
531.79928496015964
 20
837.52817166131354
 30
0.0
 40
5.0389558030275765
100
AcDbArc
 50
2.4391659297559358
 51
17.377145688420768
  0
LINE
  5
245
100
AcDbEntity
  8
ADF70-1602
370
              15
390
0
  6
Continuous
 62
               7
100
AcDbLine
 10
544.02026178579126
 20
620.84266328508193
 30
0.0
 11
597.38202300806188
 21
681.91598444209239
 31
0.0
  0
ARC
  5
246
100
AcDbEntity
  8
ADF70-1602
370
              15
390
0
  6
Continuous
 62
               7
100
AcDbCircle
 10
451.67448625281509
 20
616.97622639771862
 30
0.0
 40
90.38033289505276
100
AcDbArc
 50
344.75366803149893
 51
359.22377150703187
  0
ARC
  5
247
100
AcDbEntity
  8
ADF70-1602
370
              15
390
0
  6
Continuous
 62
               7
100
AcDbCircle
 10
550.04465719933273
 20
615.57895167621837
 30
0.0
 40
8.0000000000000124
100
AcDbArc
 50
138.85522362781632
 51
178.76186603692361
  0
LINE
  5
248
100
AcDbEntity
  8
ADF70-1602
370
              15
390
0
  6
Continuous
 62
               7
100
AcDbLine
 10
441.94630848828069
 20
1057.9806362798122
 30
0.0
 11
531.94077887870026
 21
1057.980636279814
 31
0.0
  0
ARC
  5
249
100
AcDbEntity
  8
ADF70-1602
370
              15
390
0
  6
Continuous
 62
               7
100
AcDbCircle
 10
441.94630848828069
 20
1054.9806362798131
 30
0.0
 40
2.9999999999990905
100
AcDbArc
 50
90.0
 51
180.97346916686095
  0
LINE
  5
24A
100
AcDbEntity
  8
ADF70-1602
370
              15
390
0
  6
Continuous
 62
               7
100
AcDbLine
 10
438.98514472520492
 20
897.24183331789391
 30
0.0
 11
438.94674148035733
 21
1054.929668005665
 31
0.0
  0
LINE
  5
24B
100
AcDbEntity
  8
ADF70-1602
370
              15
390
0
  6
Continuous
 62
               7
100
AcDbLine
 10
453.96486245496476
 20
975.52300628725925
 30
0.0
 11
438.96486245496476
 21
975.52300628725925
 31
0.0
  0
LWPOLYLINE
  5
24C
100
AcDbEntity
  8
ADF70-1602
370
              15
390
0
  6
Continuous
 62
               7
100
AcDbPolyline
 90
        8
 70
             129
 10
441.93677665228483
 20
-897.55838262016005
 42
-0.414213562373095
 10
438.93677665228483
 20
-894.55838262016005
 10
438.93677665228483
 20
-50.558382620158227
 42
-0.414213562373095
 10
441.93677665228483
 20
-47.558382620158227
 10
535.93677665228506
 20
-47.558382620158227
 42
-0.4142135623731173
 10
538.93677665228506
 20
-50.558382620158227
 10
538.93677665228506
 20
-894.55838262016005
 42
-0.414213562373095
 10
535.93677665228506
 20
-897.55838262016005
  0
LINE
  5
24D
100
AcDbEntity
  8
ADF70-1602
370
              15
390
0
  6
Continuous
 62
               7
100
AcDbLine
 10
538.93677665228506
 20
-821.71558053987701
 30
0.0
 11
598.96384288994068
 21
-725.05838262016005
 31
0.0
  0
LINE
  5
24E
100
AcDbEntity
  8
ADF70-1602
370
              15
390
0
  6
Continuous
 62
               7
100
AcDbLine
 10
598.93677665228506
 20
-725.03639981471315
 30
0.0
 11
598.93677665228506
 21
-220.03639981471406
 31
0.0
  0
LINE
  5
24F
100
AcDbEntity
  8
ADF70-1602
370
              15
390
0
  6
Continuous
 62
               7
100
AcDbLine
 10
538.93677665228506
 20
-123.40118470044399
 30
0.0
 11
598.96384288994068
 21
-220.05838262016096
 31
0.0
  0
LINE
  5
250
100
AcDbEntity
  8
ADF70-1602
370
              15
390
0
  6
STYLE_13
 62
               7
100
AcDbLine
 10
498.93677665228506
 20
-772.55838262016005
 30
0.0
 11
458.93677665228506
 21
-772.55838262016005
 31
0.0
  0
LWPOLYLINE
  5
251
100
AcDbEntity
  8
ADF70-1602
370
               5
390
0
  6
STYLE_13
 62
               7
100
AcDbPolyline
 90
        9
 70
             129
 10
-110.86424284225291
 20
343.7227997352893
 10
-110.86424284225109
 20
1093.7227997352925
 42
0.4142135623731057
 10
-160.864242842252
 20
1143.7227997352916
 10
-657.86424284225291
 20
1143.7227997352916
 42
0.4142135623729619
 10
-660.86424284225291
 20
1140.7227997352934
 10
-660.86424284225291
 20
296.72279973528748
 42
0.414213562373095
 10
-657.86424284225291
 20
293.72279973528748
 10
-160.864242842252
 20
293.7227997352893
 42
0.4142135623731004
 10
-110.86424284225291
 20
343.7227997352893
  0
CIRCLE
  5
252
100
AcDbEntity
  8
ADF70-1602
370
               5
390
0
  6
STYLE_13
 62
               7
100
AcDbCircle
 10
-398.14104288095064
 20
718.72279973528748
 30
0.0
 40
23.043551013696288
  0
LINE
  5
253
100
AcDbEntity
  8
ADF70-1602
370
               5
390
0
  6
Continuous
 62
               7
100
AcDbLine
 10
-660.86424284225291
 20
243.68063627981564
 30
0.0
 11
-660.86424284225291
 21
1193.6806362798156
 31
0.0
  0
INSERT
  5
254
100
AcDbEntity
  8
ADF70-1602
390
0
 62
               7
100
AcDbBlockReference
  2
グループ-2
 10
1691.2029908304464
 20
4231.1322226150514
 30
0.0
  0
LINE
  5
255
100
AcDbEntity
  8
ADF70-1602
370
              15
390
0
  6
STYLE_13
 62
               7
100
AcDbLine
 10
536.90808070403295
 20
-430.06391275111946
 30
0.0
 11
529.23292094234534
 21
-152.34068366513748
 31
0.0
  0
LINE
  5
256
100
AcDbEntity
  8
ADF70-1602
370
              15
390
0
  6
STYLE_13
 62
               7
100
AcDbLine
 10
536.90808070403295
 20
-515.01708119397335
 30
0.0
 11
529.23292094234625
 21
-791.12796508797692
 31
0.0
  0
INSERT
  5
257
100
AcDbEntity
  8
ADF70-1602
390
0
 62
               7
100
AcDbBlockReference
  2
グループ-3
 10
1691.2029908304464
 20
4231.1322226150514
 30
0.0
  0
INSERT
  5
258
100
AcDbEntity
  8
ADF70-1602
390
0
 62
               7
100
AcDbBlockReference
  2
グループ-4
 10
1691.2029908304464
 20
4231.1322226150514
 30
0.0
  0
INSERT
  5
259
100
AcDbEntity
  8
ADF70-1602
390
0
 62
               7
100
AcDbBlockReference
  2
グループ-5
 10
1691.2029908304464
 20
4231.1322226150514
 30
0.0
  0
POLYLINE
  5
25A
100
AcDbEntity
  8
ADF70-1602
370
              15
390
0
  6
Continuous
 62
               7
100
AcDb2dPolyline
 66
               1
 10
0.0
 20
0.0
 30
0.0
 70
               1
 75
               5
  0
VERTEX
  5
25B
100
AcDbEntity
  8
ADF70-1602
370
              15
390
0
  6
Continuous
 62
               7
100
AcDbVertex
100
AcDb2dVertex
 10
-660.86424284225291
 20
893.68063627981564
 30
0.0
  0
VERTEX
  5
25C
100
AcDbEntity
  8
ADF70-1602
370
              15
390
0
  6
Continuous
 62
               7
100
AcDbVertex
100
AcDb2dVertex
 10
-360.864242842252
 20
893.68063627981564
 30
0.0
  0
VERTEX
  5
25D
100
AcDbEntity
  8
ADF70-1602
370
              15
390
0
  6
Continuous
 62
               7
100
AcDbVertex
100
AcDb2dVertex
 10
-360.864242842252
 20
543.68063627981564
 30
0.0
  0
VERTEX
  5
25E
100
AcDbEntity
  8
ADF70-1602
370
              15
390
0
  6
Continuous
 62
               7
100
AcDbVertex
100
AcDb2dVertex
 10
-660.86424284225291
 20
543.68063627981564
 30
0.0
  0
SEQEND
  5
25F
100
AcDbEntity
  8
ADF70-1602
370
              15
390
0
  6
Continuous
 62
               7
  0
POLYLINE
  5
260
100
AcDbEntity
  8
ADF70-1602
370
              15
390
0
  6
Continuous
 62
               7
100
AcDb2dPolyline
 66
               1
 10
0.0
 20
0.0
 30
0.0
 70
               1
 75
               5
  0
VERTEX
  5
261
100
AcDbEntity
  8
ADF70-1602
370
              15
390
0
  6
Continuous
 62
               7
100
AcDbVertex
100
AcDb2dVertex
 10
-660.86424284225291
 20
1093.6806362798156
 30
0.0
  0
VERTEX
  5
262
100
AcDbEntity
  8
ADF70-1602
370
              15
390
0
  6
Continuous
 62
               7
100
AcDbVertex
100
AcDb2dVertex
 10
-180.864242842252
 20
1093.6806362798156
 30
0.0
  0
VERTEX
  5
263
100
AcDbEntity
  8
ADF70-1602
370
              15
390
0
  6
Continuous
 62
               7
100
AcDbVertex
100
AcDb2dVertex
 10
-180.864242842252
 20
343.68063627981564
 30
0.0
  0
VERTEX
  5
264
100
AcDbEntity
  8
ADF70-1602
370
              15
390
0
  6
Continuous
 62
               7
100
AcDbVertex
100
AcDb2dVertex
 10
-660.86424284225291
 20
343.68063627981564
 30
0.0
  0
SEQEND
  5
265
100
AcDbEntity
  8
ADF70-1602
370
              15
390
0
  6
Continuous
 62
               7
  0
LINE
  5
266
100
AcDbEntity
  8
ADF70-1602
370
              15
390
0
  6
STYLE_13
 62
               7
100
AcDbLine
 10
478.93677665228506
 20
-752.55838262016005
 30
0.0
 11
478.93677665228506
 21
-792.55838262016005
 31
0.0
  0
CIRCLE
  5
267
100
AcDbEntity
  8
ADF70-1602
370
              15
390
0
  6
STYLE_13
 62
               7
100
AcDbCircle
 10
478.93677665228506
 20
-772.55838262016005
 30
0.0
 40
10.0
  0
LINE
  5
268
100
AcDbEntity
  8
ADF70-1602
370
              15
390
0
  6
STYLE_13
 62
               7
100
AcDbLine
 10
498.93677665228506
 20
-612.55838262016005
 30
0.0
 11
458.93677665228506
 21
-612.55838262016005
 31
0.0
  0
LINE
  5
269
100
AcDbEntity
  8
ADF70-1602
370
              15
390
0
  6
STYLE_13
 62
               7
100
AcDbLine
 10
478.93677665228506
 20
-592.55838262016005
 30
0.0
 11
478.93677665228506
 21
-632.55838262016005
 31
0.0
  0
CIRCLE
  5
26A
100
AcDbEntity
  8
ADF70-1602
370
              15
390
0
  6
STYLE_13
 62
               7
100
AcDbCircle
 10
478.93677665228506
 20
-612.55838262016005
 30
0.0
 40
10.0
  0
LINE
  5
26B
100
AcDbEntity
  8
ADF70-1602
370
              15
390
0
  6
STYLE_13
 62
               7
100
AcDbLine
 10
498.93677665228506
 20
-332.55838262016005
 30
0.0
 11
458.93677665228506
 21
-332.55838262016005
 31
0.0
  0
LINE
  5
26C
100
AcDbEntity
  8
ADF70-1602
370
              15
390
0
  6
STYLE_13
 62
               7
100
AcDbLine
 10
478.93677665228506
 20
-312.55838262016005
 30
0.0
 11
478.93677665228506
 21
-352.55838262016005
 31
0.0
  0
CIRCLE
  5
26D
100
AcDbEntity
  8
ADF70-1602
370
              15
390
0
  6
STYLE_13
 62
               7
100
AcDbCircle
 10
478.93677665228506
 20
-332.55838262016005
 30
0.0
 40
10.0
  0
LINE
  5
26E
100
AcDbEntity
  8
ADF70-1602
370
              15
390
0
  6
STYLE_13
 62
               7
100
AcDbLine
 10
498.93677665228506
 20
-172.55838262016005
 30
0.0
 11
458.93677665228506
 21
-172.55838262016005
 31
0.0
  0
LINE
  5
26F
100
AcDbEntity
  8
ADF70-1602
370
              15
390
0
  6
STYLE_13
 62
               7
100
AcDbLine
 10
478.93677665228506
 20
-152.55838262016005
 30
0.0
 11
478.93677665228506
 21
-192.55838262016005
 31
0.0
  0
CIRCLE
  5
270
100
AcDbEntity
  8
ADF70-1602
370
              15
390
0
  6
STYLE_13
 62
               7
100
AcDbCircle
 10
478.93677665228506
 20
-172.55838262016005
 30
0.0
 40
10.0
  0
LINE
  5
271
100
AcDbEntity
  8
ADF70-1602
370
              15
390
0
  6
Continuous
 62
               7
100
AcDbLine
 10
538.91465265572265
 20
515.62277765760473
 30
0.0
 11
538.93677665228506
 21
1057.980636279814
 31
0.0
  0
LINE
  5
272
100
AcDbEntity
  8
ADF70-1602
370
              15
390
0
  6
STYLE_13
 62
               7
100
AcDbLine
 10
550.98305392719703
 20
-495.55838262016186
 30
0.0
 11
550.98305392719703
 21
-472.55838262016186
 31
0.0
  0
ARC
  5
273
100
AcDbEntity
  8
ADF70-1602
370
              15
390
0
  6
STYLE_13
 62
               7
100
AcDbCircle
 10
544.82942214655236
 20
-515.28719566095788
 30
0.0
 40
7.999999999999428
100
AcDbArc
 50
139.99999999998403
 51
178.1316048794082
  0
ARC
  5
274
100
AcDbEntity
  8
ADF70-1602
370
              15
390
0
  6
STYLE_13
 62
               7
100
AcDbCircle
 10
544.83195020632229
 20
-429.90706700321243
 30
0.0
 40
7.9999999999999876
100
AcDbArc
 50
181.18989882308767
 51
220.00000000002092
  0
LINE
  5
275
100
AcDbEntity
  8
ADF70-1602
370
              15
390
0
  6
STYLE_13
 62
               7
100
AcDbLine
 10
550.91827780359927
 20
-449.60626039785438
 30
0.0
 11
538.70359466137143
 21
-435.04936788070518
 31
0.0
  0
LINE
  5
276
100
AcDbEntity
  8
ADF70-1602
370
              15
390
0
  6
STYLE_13
 62
               7
100
AcDbLine
 10
550.94060357799208
 20
-495.55838262016186
 30
0.0
 11
538.70106660160036
 21
-510.14489478346513
 31
0.0
  0
LINE
  5
277
100
AcDbEntity
  8
ADF70-1602
370
              15
390
0
  6
STYLE_13
 62
               7
100
AcDbLine
 10
550.94060357799208
 20
-449.55838262015823
 30
0.0
 11
583.93677665228506
 21
-449.55838262015823
 31
0.0
  0
LINE
  5
278
100
AcDbEntity
  8
ADF70-1602
370
              15
390
0
  6
STYLE_13
 62
               7
100
AcDbLine
 10
550.94060357799208
 20
-495.55838262016186
 30
0.0
 11
583.93677665228506
 21
-495.55838262016186
 31
0.0
  0
LINE
  5
279
100
AcDbEntity
  8
ADF70-1602
370
              15
390
0
  6
STYLE_13
 62
               7
100
AcDbLine
 10
583.93677665228506
 20
-495.55838262016186
 30
0.0
 11
583.93677665228506
 21
-449.55838262015823
 31
0.0
  0
LINE
  5
27A
100
AcDbEntity
  8
ADF70-1602
370
              15
390
0
  6
STYLE_13
 62
               7
100
AcDbLine
 10
538.94060357799208
 20
-509.85942573129159
 30
0.0
 11
538.94060357799208
 21
-435.33182410856443
 31
0.0
  0
LINE
  5
27B
100
AcDbEntity
  8
ADF70-1602
370
              15
390
0
  6
STYLE_13
 62
               7
100
AcDbLine
 10
550.94060357799208
 20
-449.55838262016096
 30
0.0
 11
550.94060357799208
 21
-495.55838262016005
 31
0.0
  0
ENDSEC
  0
SECTION
  2
OBJECTS
  0
DICTIONARY
  5
19
100
AcDbDictionary
280
               0
281
               1
  3
ACAD_GROUP
350
1A
  3
ACAD_MLINESTYLE
350
1B
  3
ACAD_LAYOUT
350
1E
  3
ACAD_PLOTSETTINGS
350
22
  3
ACAD_PLOTSTYLENAME
350
1F
  0
DICTIONARY
  5
1A
102
{ACAD_REACTORS
330
19
102
}
100
AcDbDictionary
280
               0
281
               1
  0
DICTIONARY
  5
1B
102
{ACAD_REACTORS
330
19
102
}
100
AcDbDictionary
280
               0
281
               1
  3
Standard
350
1C
  0
MLINESTYLE
  5
1C
102
{ACAD_REACTORS
330
1B
102
}
100
AcDbMlineStyle
  2
Standard
 70
               0
  3

 62
               0
 51
90.0
 52
90.0
 71
               2
 49
0.5
 62
             256
  6
ByLayer
 49
-0.5
 62
             256
  6
ByLayer
  0
ACDBDICTIONARYWDFLT
  5
1F
102
{ACAD_REACTORS
330
19
102
}
100
AcDbDictionary
281
               1
  3
Normal
350
1D
100
AcDbDictionaryWithDefault
340
1D
  0
ACDBPLACEHOLDER
  5
1D
102
{ACAD_REACTORS
330
1F
102
}
  0
LAYOUT
  5
20
102
{ACAD_REACTORS
330
1E
102
}
100
AcDbPlotSettings
  1

  2

  4

  6

 40
0.0
 41
0.0
 42
0.0
 43
0.0
 44
0.0
 45
0.0
 46
0.0
 47
0.0
 48
0.0
 49
0.0
140
0.0
141
0.0
142
1.0
143
1.0
 70
            1024
 72
               0
 73
               0
 74
               0
  7

 75
               0
147
1.0
148
0.0
149
0.0
100
AcDbLayout
  1
Model
 70
               0
 71
               0
 10
0.0
 20
0.0
 11
0.0
 21
0.0
 12
0.0
 22
0.0
 32
0.0
 14
0.0
 24
0.0
 34
0.0
 15
0.0
 25
0.0
 35
0.0
146
0.0
 13
0.0
 23
0.0
 33
0.0
 16
0.0
 26
0.0
 36
0.0
 17
0.0
 27
0.0
 37
0.0
 76
               0
330
A
331
0
345
0
346
0
  0
LAYOUT
  5
21
102
{ACAD_REACTORS
330
1E
102
}
100
AcDbPlotSettings
  1

  2

  4

  6

 40
0.0
 41
0.0
 42
0.0
 43
0.0
 44
0.0
 45
0.0
 46
0.0
 47
0.0
 48
0.0
 49
0.0
140
0.0
141
0.0
142
1.0
143
1.0
 70
               0
 72
               0
 73
               0
 74
               0
  7

 75
               0
147
1.0
148
0.0
149
0.0
100
AcDbLayout
  1
Layout1
 70
               0
 71
               0
 10
0.0
 20
0.0
 11
0.0
 21
0.0
 12
0.0
 22
0.0
 32
0.0
 14
0.0
 24
0.0
 34
0.0
 15
0.0
 25
0.0
 35
0.0
146
0.0
 13
0.0
 23
0.0
 33
0.0
 16
0.0
 26
0.0
 36
0.0
 17
0.0
 27
0.0
 37
0.0
 76
               0
330
B
331
0
345
0
346
0
  0
DICTIONARY
  5
1E
102
{ACAD_REACTORS
330
19
102
}
100
AcDbDictionary
280
               0
281
               1
  3
Layout1
350
21
  3
Model
350
20
  0
DICTIONARY
  5
22
102
{ACAD_REACTORS
330
19
102
}
100
AcDbDictionary
280
               0
281
               1
  0
ENDSEC
  0
EOF
