  0
SECTION
  2
HEADER
  9
$ACADVER
  1
AC1021
  9
$ACADMAINTVER
 70
    25
  9
$DWGCODEPAGE
  3
ANSI_932
  9
$LASTSAVEDBY
  1
howeNelson
  9
$INSBASE
 10
0.0
 20
0.0
 30
0.0
  9
$EXTMIN
 10
0.0
 20
0.0
 30
-0.0000000000000426
  9
$EXTMAX
 10
2100.0
 20
2970.0
 30
0.0000000032947938
  9
$LIMMIN
 10
0.0
 20
0.0
  9
$LIMMAX
 10
2100.0
 20
2970.0
  9
$ORTHOMODE
 70
     0
  9
$REGENMODE
 70
     1
  9
$FILLMODE
 70
     1
  9
$QTEXTMODE
 70
     0
  9
$MIRRTEXT
 70
     1
  9
$LTSCALE
 40
5.0
  9
$ATTMODE
 70
     1
  9
$TEXTSIZE
 40
2.5
  9
$TRACEWID
 40
1.0
  9
$TEXTSTYLE
  7
ＭＳ ゴシック
  9
$CLAYER
  8
DIM
  9
$CELTYPE
  6
ByLayer
  9
$CECOLOR
 62
   256
  9
$CELTSCALE
 40
1.0
  9
$DISPSILH
 70
     0
  9
$DIMSCALE
 40
1.0
  9
$DIMASZ
 40
10.0
  9
$DIMEXO
 40
30.0
  9
$DIMDLI
 40
0.9999999999999999
  9
$DIMRND
 40
0.0
  9
$DIMDLE
 40
0.0
  9
$DIMEXE
 40
0.0
  9
$DIMTP
 40
0.0
  9
$DIMTM
 40
0.0
  9
$DIMTXT
 40
24.0
  9
$DIMCEN
 40
0.0
  9
$DIMTSZ
 40
0.0
  9
$DIMTOL
 70
     0
  9
$DIMLIM
 70
     0
  9
$DIMTIH
 70
     0
  9
$DIMTOH
 70
     0
  9
$DIMSE1
 70
     0
  9
$DIMSE2
 70
     0
  9
$DIMTAD
 70
     1
  9
$DIMZIN
 70
    11
  9
$DIMBLK
  1
DOT
  9
$DIMASO
 70
     1
  9
$DIMSHO
 70
     1
  9
$DIMPOST
  1
<>
  9
$DIMAPOST
  1
[]
  9
$DIMALT
 70
     0
  9
$DIMALTD
 70
     1
  9
$DIMALTF
 40
1.0
  9
$DIMLFAC
 40
1.0
  9
$DIMTOFL
 70
     0
  9
$DIMTVP
 40
0.0
  9
$DIMTIX
 70
     1
  9
$DIMSOXD
 70
     0
  9
$DIMSAH
 70
     0
  9
$DIMBLK1
  1

  9
$DIMBLK2
  1

  9
$DIMSTYLE
  2
tfrom線あり
  9
$DIMCLRD
 70
     0
  9
$DIMCLRE
 70
     0
  9
$DIMCLRT
 70
     0
  9
$DIMTFAC
 40
1.0
  9
$DIMGAP
 40
20.0
  9
$DIMJUST
 70
     0
  9
$DIMSD1
 70
     0
  9
$DIMSD2
 70
     0
  9
$DIMTOLJ
 70
     1
  9
$DIMTZIN
 70
    11
  9
$DIMALTZ
 70
    11
  9
$DIMALTTZ
 70
    11
  9
$DIMUPT
 70
     0
  9
$DIMDEC
 70
     0
  9
$DIMTDEC
 70
     1
  9
$DIMALTU
 70
     2
  9
$DIMALTTD
 70
     2
  9
$DIMTXSTY
  7
ＭＳ ゴシック
  9
$DIMAUNIT
 70
     0
  9
$DIMADEC
 70
     2
  9
$DIMALTRND
 40
0.0
  9
$DIMAZIN
 70
     0
  9
$DIMDSEP
 70
    46
  9
$DIMATFIT
 70
     0
  9
$DIMFRAC
 70
     2
  9
$DIMLDRBLK
  1
DOT
  9
$DIMLUNIT
 70
     2
  9
$DIMLWD
 70
    -2
  9
$DIMLWE
 70
    -2
  9
$DIMTMOVE
 70
     0
  9
$DIMFXL
 40
1.0
  9
$DIMFXLON
 70
     0
  9
$DIMJOGANG
 40
0.7853981633974483
  9
$DIMTFILL
 70
     0
  9
$DIMTFILLCLR
 70
     0
  9
$DIMARCSYM
 70
     0
  9
$DIMLTYPE
  6

  9
$DIMLTEX1
  6

  9
$DIMLTEX2
  6

  9
$LUNITS
 70
     2
  9
$LUPREC
 70
     0
  9
$SKETCHINC
 40
0.1
  9
$FILLETRAD
 40
0.0
  9
$AUNITS
 70
     0
  9
$AUPREC
 70
     0
  9
$MENU
  1
acad
  9
$ELEVATION
 40
0.0
  9
$PELEVATION
 40
0.0
  9
$THICKNESS
 40
0.0
  9
$LIMCHECK
 70
     0
  9
$CHAMFERA
 40
0.0
  9
$CHAMFERB
 40
0.0
  9
$CHAMFERC
 40
0.0
  9
$CHAMFERD
 40
0.0
  9
$SKPOLY
 70
     0
  9
$TDCREATE
 40
2447893.375
  9
$TDUCREATE
 40
0.0
  9
$TDUPDATE
 40
2458031.453365833
  9
$TDUUPDATE
 40
2458031.078365833
  9
$TDINDWG
 40
0.1655909606
  9
$TDUSRTIMER
 40
2458031.06605419
  9
$USRTIMER
 70
     1
  9
$ANGBASE
 50
0.0
  9
$ANGDIR
 70
     0
  9
$PDMODE
 70
     1
  9
$PDSIZE
 40
-2.0
  9
$PLINEWID
 40
0.0
  9
$SPLFRAME
 70
     0
  9
$SPLINETYPE
 70
     6
  9
$SPLINESEGS
 70
     8
  9
$HANDSEED
  5
3A45
  9
$SURFTAB1
 70
     6
  9
$SURFTAB2
 70
     6
  9
$SURFTYPE
 70
     6
  9
$SURFU
 70
     6
  9
$SURFV
 70
     6
  9
$UCSBASE
  2

  9
$UCSNAME
  2

  9
$UCSORG
 10
0.0
 20
0.0
 30
0.0
  9
$UCSXDIR
 10
1.0
 20
0.0
 30
0.0
  9
$UCSYDIR
 10
0.0
 20
1.0
 30
0.0
  9
$UCSORTHOREF
  2

  9
$UCSORTHOVIEW
 70
     0
  9
$UCSORGTOP
 10
0.0
 20
0.0
 30
0.0
  9
$UCSORGBOTTOM
 10
0.0
 20
0.0
 30
0.0
  9
$UCSORGLEFT
 10
0.0
 20
0.0
 30
0.0
  9
$UCSORGRIGHT
 10
0.0
 20
0.0
 30
0.0
  9
$UCSORGFRONT
 10
0.0
 20
0.0
 30
0.0
  9
$UCSORGBACK
 10
0.0
 20
0.0
 30
0.0
  9
$PUCSBASE
  2

  9
$PUCSNAME
  2

  9
$PUCSORG
 10
0.0
 20
0.0
 30
0.0
  9
$PUCSXDIR
 10
1.0
 20
0.0
 30
0.0
  9
$PUCSYDIR
 10
0.0
 20
1.0
 30
0.0
  9
$PUCSORTHOREF
  2

  9
$PUCSORTHOVIEW
 70
     0
  9
$PUCSORGTOP
 10
0.0
 20
0.0
 30
0.0
  9
$PUCSORGBOTTOM
 10
0.0
 20
0.0
 30
0.0
  9
$PUCSORGLEFT
 10
0.0
 20
0.0
 30
0.0
  9
$PUCSORGRIGHT
 10
0.0
 20
0.0
 30
0.0
  9
$PUCSORGFRONT
 10
0.0
 20
0.0
 30
0.0
  9
$PUCSORGBACK
 10
0.0
 20
0.0
 30
0.0
  9
$USERI1
 70
     0
  9
$USERI2
 70
     0
  9
$USERI3
 70
     0
  9
$USERI4
 70
     0
  9
$USERI5
 70
     0
  9
$USERR1
 40
0.0
  9
$USERR2
 40
0.0
  9
$USERR3
 40
0.0
  9
$USERR4
 40
0.0
  9
$USERR5
 40
0.0
  9
$WORLDVIEW
 70
     1
  9
$SHADEDGE
 70
     3
  9
$SHADEDIF
 70
    70
  9
$TILEMODE
 70
     1
  9
$MAXACTVP
 70
    64
  9
$PINSBASE
 10
0.0
 20
0.0
 30
0.0
  9
$PLIMCHECK
 70
     0
  9
$PEXTMIN
 10
0.0
 20
0.0
 30
0.0
  9
$PEXTMAX
 10
0.0
 20
0.0
 30
0.0
  9
$PLIMMIN
 10
-7.5
 20
-20.0
  9
$PLIMMAX
 10
412.5
 20
277.0
  9
$UNITMODE
 70
     0
  9
$VISRETAIN
 70
     0
  9
$PLINEGEN
 70
     1
  9
$PSLTSCALE
 70
     0
  9
$TREEDEPTH
 70
  3020
  9
$CMLSTYLE
  2
Standard
  9
$CMLJUST
 70
     0
  9
$CMLSCALE
 40
1.0
  9
$PROXYGRAPHICS
 70
     0
  9
$MEASUREMENT
 70
     1
  9
$CELWEIGHT
370
    -1
  9
$ENDCAPS
280
     0
  9
$JOINSTYLE
280
     0
  9
$LWDISPLAY
290
     1
  9
$INSUNITS
 70
     4
  9
$HYPERLINKBASE
  1

  9
$STYLESHEET
  1

  9
$XEDIT
290
     1
  9
$CEPSNTYPE
380
     0
  9
$PSTYLEMODE
290
     1
  9
$FINGERPRINTGUID
  2

  9
$VERSIONGUID
  2

  9
$EXTNAMES
290
     1
  9
$PSVPSCALE
 40
0.0
  9
$OLESTARTUP
290
     0
  9
$SORTENTS
280
   127
  9
$INDEXCTL
280
     0
  9
$HIDETEXT
280
     1
  9
$XCLIPFRAME
290
     0
  9
$HALOGAP
280
     0
  9
$OBSCOLOR
 70
   257
  9
$OBSLTYPE
280
     0
  9
$INTERSECTIONDISPLAY
280
     0
  9
$INTERSECTIONCOLOR
 70
   257
  9
$DIMASSOC
280
     2
  9
$PROJECTNAME
  1

  9
$CAMERADISPLAY
290
     0
  9
$LENSLENGTH
 40
50.0
  9
$CAMERAHEIGHT
 40
0.0
  9
$STEPSPERSEC
 40
2.0
  9
$STEPSIZE
 40
6.0
  9
$3DDWFPREC
 40
2.0
  9
$PSOLWIDTH
 40
0.25
  9
$PSOLHEIGHT
 40
4.0
  9
$LOFTANG1
 40
1.570796326794897
  9
$LOFTANG2
 40
1.570796326794897
  9
$LOFTMAG1
 40
0.0
  9
$LOFTMAG2
 40
0.0
  9
$LOFTPARAM
 70
     7
  9
$LOFTNORMALS
280
     1
  9
$LATITUDE
 40
37.795
  9
$LONGITUDE
 40
-122.394
  9
$NORTHDIRECTION
 40
0.0
  9
$TIMEZONE
 70
 -8000
  9
$LIGHTGLYPHDISPLAY
280
     1
  9
$TILEMODELIGHTSYNCH
280
     1
  9
$SOLIDHIST
280
     1
  9
$SHOWHIST
280
     1
  9
$DWFFRAME
280
     2
  9
$DGNFRAME
280
     2
  9
$REALWORLDSCALE
290
     1
  9
$INTERFERECOLOR
 62
   256
  9
$CSHADOW
280
     0
  9
$SHADOWPLANELOCATION
 40
0.0
  0
ENDSEC
  0
SECTION
  2
CLASSES
  0
CLASS
  1
LWPOLYLINE
  2
AcDbPolyline
  3
ObjectDBX Classes
 90
        0
 91
        1
280
     0
281
     1
  0
CLASS
  1
IMAGE
  2
AcDbRasterImage
  3
ISM
 90
      127
 91
        5
280
     0
281
     1
  0
CLASS
  1
OLE2FRAME
  2
AcDbOle2Frame
  3
ObjectDBX Classes
 90
        0
 91
        1
280
     0
281
     1
  0
CLASS
  1
HATCH
  2
AcDbHatch
  3
ObjectDBX Classes
 90
        0
 91
        1
280
     0
281
     1
  0
CLASS
  1
DICTIONARYVAR
  2
AcDbDictionaryVar
  3
ObjectDBX Classes
 90
        0
 91
        4
280
     0
281
     0
  0
CLASS
  1
RASTERVARIABLES
  2
AcDbRasterVariables
  3
ISM
 90
        0
 91
        4
280
     0
281
     0
  0
CLASS
  1
IMAGEDEF
  2
AcDbRasterImageDef
  3
ISM
 90
        0
 91
        4
280
     0
281
     0
  0
CLASS
  1
IMAGEDEF_REACTOR
  2
AcDbRasterImageDefReactor
  3
ISM
 90
        1
 91
        4
280
     0
281
     0
  0
CLASS
  1
IDBUFFER
  2
AcDbIdBuffer
  3
ObjectDBX Classes
 90
        0
 91
        4
280
     0
281
     0
  0
CLASS
  1
SPATIAL_FILTER
  2
AcDbSpatialFilter
  3
ObjectDBX Classes
 90
        0
 91
        4
280
     0
281
     0
  0
CLASS
  1
XRECORD
  2
AcDbXrecord
  3
ObjectDBX Classes
 90
        0
 91
        1
280
     0
281
     0
  0
CLASS
  1
SORTENTSTABLE
  2
AcDbSortentsTable
  3
ObjectDBX Classes
 90
        0
 91
        4
280
     0
281
     0
  0
CLASS
  1
LAYER_INDEX
  2
AcDbLayerIndex
  3
ObjectDBX Classes
 90
        0
 91
        4
280
     0
281
     0
  0
CLASS
  1
SPATIAL_INDEX
  2
AcDbSpatialIndex
  3
AutoCAD 2000
 90
        0
 91
        4
280
     0
281
     0
  0
CLASS
  1
OBJECT_PTR
  2
CAseDLPNTableRecord
  3
ASE-LPNTableRecord
 90
        1
 91
        4
280
     0
281
     0
  0
CLASS
  1
LAYOUT
  2
AcDbLayout
  3
ObjectDBX Classes
 90
        0
 91
        1
280
     0
281
     0
  0
CLASS
  1
PLOTSETTINGS
  2
AcDbPlotSettings
  3
ObjectDBX Classes
 90
        0
 91
        4
280
     0
281
     0
  0
CLASS
  1
ACDBDICTIONARYWDFLT
  2
AcDbDictionaryWithDefault
  3
ObjectDBX Classes
 90
        0
 91
        4
280
     0
281
     0
  0
CLASS
  1
ACDBPLACEHOLDER
  2
AcDbPlaceHolder
  3
ObjectDBX Classes
 90
        0
 91
        1
280
     0
281
     0
  0
CLASS
  1
SCALE
  2
AcDbScale
  3
ObjectDBX Classes
 90
     1153
 91
        4
280
     0
281
     0
  0
CLASS
  1
MATERIAL
  2
AcDbMaterial
  3
ObjectDBX Classes
 90
     1153
 91
        4
280
     0
281
     0
  0
CLASS
  1
VISUALSTYLE
  2
AcDbVisualStyle
  3
ObjectDBX Classes
 90
     4095
 91
        4
280
     0
281
     0
  0
CLASS
  1
TABLESTYLE
  2
AcDbTableStyle
  3
ObjectDBX Classes
 90
     4095
 91
        4
280
     0
281
     0
  0
CLASS
  1
DIMASSOC
  2
AcDbDimAssoc
  3
"AcDbDimAssoc|Product Desc:     AcDim ARX App For Dimension|Company:          Autodesk, Inc.|WEB Address:      www.autodesk.com"
 90
        0
 91
        4
280
     0
281
     0
  0
CLASS
  1
CELLSTYLEMAP
  2
AcDbCellStyleMap
  3
ObjectDBX Classes
 90
     1152
 91
        4
280
     0
281
     0
  0
CLASS
  1
SUN
  2
AcDbSun
  3
SCENEOE
 90
     1153
 91
        4
280
     0
281
     0
  0
CLASS
  1
MLEADERSTYLE
  2
AcDbMLeaderStyle
  3
ACDB_MLEADERSTYLE_CLASS
 90
     4095
 91
        4
280
     0
281
     0
  0
CLASS
  1
FIELD
  2
AcDbField
  3
ObjectDBX Classes
 90
     1152
 91
        4
280
     0
281
     0
  0
CLASS
  1
FIELDLIST
  2
AcDbFieldList
  3
ObjectDBX Classes
 90
     1152
 91
        4
280
     0
281
     0
  0
CLASS
  1
MULTILEADER
  2
AcDbMLeader
  3
ACDB_MLEADER_CLASS
 90
     1025
 91
        4
280
     0
281
     1
  0
CLASS
  1
WIPEOUT
  2
AcDbWipeout
  3
WipeOut|AutoCAD Express Tool|expresstools@autodesk.com
 90
      127
 91
        4
280
     0
281
     1
  0
ENDSEC
  0
SECTION
  2
TABLES
  0
TABLE
  2
VPORT
  5
7
330
0
100
AcDbSymbolTable
 70
     1
  0
VPORT
  5
15
330
7
100
AcDbSymbolTableRecord
100
AcDbViewportTableRecord
  2
*ACTIVE
 70
     0
 10
0.0
 20
0.0
 11
1.0
 21
1.0
 12
1141.020135670902
 22
1411.401285469834
 13
0.0
 23
0.0
 14
1.0
 24
1.0
 15
0.0
 25
0.0
 16
0.0
 26
0.0
 36
1.0
 17
-91.02013567090216
 27
73.59871453016603
 37
-46.86809886248109
 40
3029.4
 41
2.178082191780822
 42
50.0
 43
0.0
 44
0.0
 50
0.0
 51
0.0
 71
    16
 72
  2000
 73
     1
 74
     1
 75
     0
 76
     0
 77
     0
 78
     0
281
     0
 65
     1
110
0.0
120
0.0
130
0.0
111
1.0
121
0.0
131
0.0
112
0.0
122
1.0
132
0.0
 79
     0
146
0.0
348
26C
 60
     3
 61
     5
292
     1
282
     1
141
0.0
142
0.0
 63
   256
361
904
  0
ENDTAB
  0
TABLE
  2
LTYPE
  5
4
330
0
100
AcDbSymbolTable
 70
     6
  0
LTYPE
  5
11
330
4
100
AcDbSymbolTableRecord
100
AcDbLinetypeTableRecord
  2
ByBlock
 70
     0
  3

 72
    65
 73
     0
 40
0.0
  0
LTYPE
  5
12
330
4
100
AcDbSymbolTableRecord
100
AcDbLinetypeTableRecord
  2
ByLayer
 70
     0
  3

 72
    65
 73
     0
 40
0.0
  0
LTYPE
  5
13
330
4
100
AcDbSymbolTableRecord
100
AcDbLinetypeTableRecord
  2
Continuous
 70
     0
  3
Solid line
 72
    65
 73
     0
 40
0.0
  0
LTYPE
  5
DAF
330
4
100
AcDbSymbolTableRecord
100
AcDbLinetypeTableRecord
  2
BORDER
 70
     0
  3
Border __  __  . __  __  . __  __  . __  __  . 
 72
    65
 73
     6
 40
44.45
 49
12.7
 74
     0
 49
-6.35
 74
     0
 49
12.7
 74
     0
 49
-6.35
 74
     0
 49
0.0
 74
     0
 49
-6.35
 74
     0
  0
LTYPE
  5
33DD
330
4
100
AcDbSymbolTableRecord
100
AcDbLinetypeTableRecord
  2
HIDDEN
 70
     0
  3
Hidden _ _ _ _ _ _ _ _ _ _ _ _ _ _ _ _ _ _ _ _ 
 72
    65
 73
     2
 40
9.524999999999999
 49
6.35
 74
     0
 49
-3.175
 74
     0
  0
ENDTAB
  0
TABLE
  2
LAYER
  5
2
102
{ACAD_XDICTIONARY
360
2E1
102
}
330
0
100
AcDbSymbolTable
 70
    17
  0
LAYER
  5
14
330
2
100
AcDbSymbolTableRecord
100
AcDbLayerTableRecord
  2
0
 70
     0
 62
     7
  6
Continuous
370
    -3
390
1D
347
266
  0
LAYER
  5
4B
330
2
100
AcDbSymbolTableRecord
100
AcDbLayerTableRecord
  2
TEMPLATE
 70
     0
 62
     7
  6
Continuous
370
    20
390
1D
347
266
  0
LAYER
  5
4C
330
2
100
AcDbSymbolTableRecord
100
AcDbLayerTableRecord
  2
DIM
 70
     0
 62
     3
  6
Continuous
370
    13
390
1D
347
266
  0
LAYER
  5
4D
330
2
100
AcDbSymbolTableRecord
100
AcDbLayerTableRecord
  2
MODEL
 70
     0
 62
     7
  6
Continuous
370
    20
390
1D
347
266
  0
LAYER
  5
667
330
2
100
AcDbSymbolTableRecord
100
AcDbLayerTableRecord
  2
LOGO
 70
     0
 62
     7
  6
Continuous
370
    -3
390
1D
347
266
  0
LAYER
  5
D5D
330
2
100
AcDbSymbolTableRecord
100
AcDbLayerTableRecord
  2
Defpoints
 70
     0
 62
     7
  6
Continuous
290
     0
370
    -3
390
1D
347
266
  0
LAYER
  5
DAE
330
2
100
AcDbSymbolTableRecord
100
AcDbLayerTableRecord
  2
BORDER
 70
     0
 62
     4
  6
BORDER
290
     0
370
    20
390
1D
347
266
1001
AcAecLayerStandard
1000

1000

  0
LAYER
  5
157B
330
2
100
AcDbSymbolTableRecord
100
AcDbLayerTableRecord
  2
Layer3
 70
     0
 62
     7
  6
Continuous
370
    -3
390
1D
347
266
  0
LAYER
  5
157F
330
2
100
AcDbSymbolTableRecord
100
AcDbLayerTableRecord
  2
Layer9
 70
     0
 62
     7
  6
Continuous
370
    -3
390
1D
347
266
  0
LAYER
  5
1582
330
2
100
AcDbSymbolTableRecord
100
AcDbLayerTableRecord
  2
Standard
 70
     0
 62
     7
  6
Continuous
370
    -3
390
1D
347
266
  0
LAYER
  5
33DC
330
2
100
AcDbSymbolTableRecord
100
AcDbLayerTableRecord
  2
HIDDEN
 70
     0
 62
     8
  6
HIDDEN
370
    20
390
1D
347
266
1001
AcAecLayerStandard
1000

1000

  0
LAYER
  5
365D
330
2
100
AcDbSymbolTableRecord
100
AcDbLayerTableRecord
  2
ADF70-1705
 70
     0
 62
     7
  6
Continuous
370
    -3
390
1D
347
266
  0
ENDTAB
  0
TABLE
  2
STYLE
  5
3
330
0
100
AcDbSymbolTable
 70
     7
  0
STYLE
  5
17
330
3
100
AcDbSymbolTableRecord
100
AcDbTextStyleTableRecord
  2
Standard
 70
     0
 40
0.0
 41
1.0
 50
0.0
 71
     0
 42
2.5
  3
txt
  4
BIGFONT.SHX
  0
STYLE
  5
39
330
3
100
AcDbSymbolTableRecord
100
AcDbTextStyleTableRecord
  2
ＭＳ ゴシック
 70
     0
 40
0.0
 41
1.0
 50
0.0
 71
     0
 42
2.5
  3
msgothic.ttc
  4
ＭＳ ゴシック
1001
ACAD
1000
ＭＳ ゴシック
1071
        0
  0
STYLE
  5
384
330
3
100
AcDbSymbolTableRecord
100
AcDbTextStyleTableRecord
  2
ARIAL
 70
     0
 40
0.0
 41
1.0
 50
0.0
 71
     0
 42
12.0
  3
ARIAL.TTF
  4

1001
ACAD
1000
Arial
1071
       34
  0
STYLE
  5
385
330
3
100
AcDbSymbolTableRecord
100
AcDbTextStyleTableRecord
  2
ROMANS
 70
     0
 40
0.0
 41
1.0
 50
0.0
 71
     0
 42
5.0
  3
romans.shx
  4

  0
STYLE
  5
158C
330
3
100
AcDbSymbolTableRecord
100
AcDbTextStyleTableRecord
  2
SEACAD_Arial
 70
     0
 40
0.0
 41
1.0
 50
0.0
 71
     0
 42
2.5
  3
arial.ttf
  4

1001
ACAD
1000
Arial
1071
        0
  0
STYLE
  5
158D
330
3
100
AcDbSymbolTableRecord
100
AcDbTextStyleTableRecord
  2
SEACAD_Solid_Edge_ANSI1_Symbols
 70
     0
 40
0.0
 41
1.0
 50
0.0
 71
     0
 42
2.5
  3
semeca1.ttf
  4

1001
ACAD
1000
Solid Edge ANSI1 Symbols
1071
        0
  0
STYLE
  5
3661
330
3
100
AcDbSymbolTableRecord
100
AcDbTextStyleTableRecord
  2
‚l‚r ƒSƒVƒbƒN
 70
     0
 40
0.0
 41
1.0
 50
0.0
 71
     0
 42
2.5
  3

  4
‚l‚r ƒSƒVƒbƒN
1001
ACAD
1000
‚l‚r ƒSƒVƒbƒN
1071
        0
  0
ENDTAB
  0
TABLE
  2
VIEW
  5
5
330
0
100
AcDbSymbolTable
 70
     0
  0
ENDTAB
  0
TABLE
  2
UCS
  5
6
330
0
100
AcDbSymbolTable
 70
     0
  0
ENDTAB
  0
TABLE
  2
APPID
  5
8
330
0
100
AcDbSymbolTable
 70
     3
  0
APPID
  5
16
330
8
100
AcDbSymbolTableRecord
100
AcDbRegAppTableRecord
  2
ACAD
 70
     0
  0
APPID
  5
7AC
330
8
100
AcDbSymbolTableRecord
100
AcDbRegAppTableRecord
  2
AcAecLayerStandard
 70
     0
  0
APPID
  5
F3A
330
8
100
AcDbSymbolTableRecord
100
AcDbRegAppTableRecord
  2
ACAD_MLEADERVER
 70
     0
  0
ENDTAB
  0
TABLE
  2
DIMSTYLE
  5
9
330
0
100
AcDbSymbolTable
 70
     5
100
AcDbDimStyleTable
  0
DIMSTYLE
105
18
330
9
100
AcDbSymbolTableRecord
100
AcDbDimStyleTableRecord
  2
Standard
 70
     0
178
     0
340
17
  0
DIMSTYLE
105
57
102
{ACAD_REACTORS
330
386E
330
3870
330
3871
330
3872
330
3873
330
3874
330
3875
330
3876
330
3877
330
3878
330
3879
330
387A
330
387B
330
387C
330
387D
330
387E
330
3880
330
3881
330
387F
330
386F
102
}
330
9
100
AcDbSymbolTableRecord
100
AcDbDimStyleTableRecord
  2
tfrom線あり
 70
     0
  3
<>
  4
[]
 41
10.0
 42
30.0
 43
0.9999999999999999
 44
0.0
 73
     0
 74
     0
 77
     1
 78
    11
140
24.0
141
0.0
143
1.0
147
20.0
171
     1
174
     1
178
     0
179
     2
271
     0
272
     1
276
     2
284
    11
285
    11
286
    11
289
     0
340
39
341
4E
342
4E
  0
ENDTAB
  0
TABLE
  2
BLOCK_RECORD
  5
1
330
0
100
AcDbSymbolTable
 70
   212
  0
BLOCK_RECORD
  5
A
102
{ACAD_XDICTIONARY
360
3A20
102
}
330
1
100
AcDbSymbolTableRecord
100
AcDbBlockTableRecord
  2
*MODEL_SPACE
340
20
 70
     0
280
     1
281
     0
  0
BLOCK_RECORD
  5
B
330
1
100
AcDbSymbolTableRecord
100
AcDbBlockTableRecord
  2
*PAPER_SPACE
340
21
 70
     0
280
     1
281
     0
  0
BLOCK_RECORD
  5
4E
330
1
100
AcDbSymbolTableRecord
100
AcDbBlockTableRecord
  2
_DOT
340
0
102
{BLKREFS
331
3106
331
3107
331
313D
331
313E
331
3216
331
3217
331
3225
331
3226
331
3449
331
344A
331
3458
331
3459
331
3465
331
3466
331
3472
331
3473
331
347F
331
3480
331
348C
331
348D
331
3499
331
349A
331
34BB
331
34BC
331
34CF
331
34D0
331
34DE
331
34DF
331
34ED
331
34EE
331
34FC
331
34FD
331
3509
331
350A
331
3516
331
3517
331
35B5
331
35B6
331
35C1
331
35C2
331
35CD
331
35CE
331
35D9
331
35DA
331
35E5
331
35E6
331
35F1
331
35F2
331
35FD
331
35FE
331
3609
331
360A
331
3615
331
3616
331
3621
331
3622
331
362D
331
362E
331
3639
331
363A
331
3645
331
3646
331
3651
331
3652
331
36A1
331
36A2
331
3853
331
3854
331
36C2
331
36C3
331
36D2
331
36D3
331
3860
331
3861
331
36F2
331
36F3
331
3702
331
3703
331
3712
331
3713
331
3722
331
3723
331
3732
331
3733
331
3742
331
3743
331
3752
331
3753
331
3762
331
3763
331
3772
331
3773
331
3782
331
3783
331
3794
331
3795
331
37A2
331
37A3
331
37B2
331
37B3
331
37C2
331
37C3
331
37D2
331
37D3
331
0
331
38E9
331
0
331
0
331
3900
331
3901
331
390C
331
390D
331
3919
331
0
331
3925
331
3926
331
3931
331
3932
331
393D
331
393E
331
3949
331
394A
331
3955
331
3956
331
3961
331
3962
331
396D
331
396E
331
3979
331
397A
331
3985
331
3986
331
3991
331
3992
331
0
331
0
331
39AB
331
39AC
331
39B7
331
39B8
331
39C3
331
39C4
331
39CF
331
39D0
331
0
331
3918
331
399E
331
38F6
331
38F7
102
}
 70
     0
280
     1
281
     0
  0
BLOCK_RECORD
  5
68A
330
1
100
AcDbSymbolTableRecord
100
AcDbBlockTableRecord
  2
名称未設定-1
340
0
102
{BLKREFS
331
6B5
102
}
 70
     1
280
     1
281
     0
  0
BLOCK_RECORD
  5
68D
330
1
100
AcDbSymbolTableRecord
100
AcDbBlockTableRecord
  2
block 2
340
0
102
{BLKREFS
331
68C
102
}
 70
     0
280
     1
281
     0
  0
BLOCK_RECORD
  5
690
330
1
100
AcDbSymbolTableRecord
100
AcDbBlockTableRecord
  2
block 3
340
0
102
{BLKREFS
331
68F
102
}
 70
     0
280
     1
281
     0
  0
BLOCK_RECORD
  5
693
330
1
100
AcDbSymbolTableRecord
100
AcDbBlockTableRecord
  2
block 4
340
0
102
{BLKREFS
331
692
102
}
 70
     0
280
     1
281
     0
  0
BLOCK_RECORD
  5
6A2
330
1
100
AcDbSymbolTableRecord
100
AcDbBlockTableRecord
  2
block 5
340
0
102
{BLKREFS
331
6A1
102
}
 70
     0
280
     1
281
     0
  0
BLOCK_RECORD
  5
199A
330
1
100
AcDbSymbolTableRecord
100
AcDbBlockTableRecord
  2
SEANNOT_GROUP
340
0
102
{BLKREFS
331
28CA
102
}
 70
     0
280
     1
281
     0
  0
BLOCK_RECORD
  5
1F2F
330
1
100
AcDbSymbolTableRecord
100
AcDbBlockTableRecord
  2
SEANNOT_GROUP1
340
0
102
{BLKREFS
331
2B9B
102
}
 70
     0
280
     1
281
     0
  0
BLOCK_RECORD
  5
3818
330
1
100
AcDbSymbolTableRecord
100
AcDbBlockTableRecord
  2
ƒOƒ‹[ƒv-1
340
0
102
{BLKREFS
331
3817
331
38BD
102
}
 70
     0
280
     1
281
     0
  0
BLOCK_RECORD
  5
38E2
330
1
100
AcDbSymbolTableRecord
100
AcDbBlockTableRecord
  2
*D191
340
0
 70
     0
280
     1
281
     0
  0
BLOCK_RECORD
  5
38EE
330
1
100
AcDbSymbolTableRecord
100
AcDbBlockTableRecord
  2
*D192
340
0
 70
     0
280
     1
281
     0
  0
BLOCK_RECORD
  5
38FA
330
1
100
AcDbSymbolTableRecord
100
AcDbBlockTableRecord
  2
*D193
340
0
 70
     0
280
     1
281
     0
  0
BLOCK_RECORD
  5
3906
330
1
100
AcDbSymbolTableRecord
100
AcDbBlockTableRecord
  2
*D194
340
0
 70
     0
280
     1
281
     0
  0
BLOCK_RECORD
  5
3912
330
1
100
AcDbSymbolTableRecord
100
AcDbBlockTableRecord
  2
*D195
340
0
 70
     0
280
     1
281
     0
  0
BLOCK_RECORD
  5
391F
330
1
100
AcDbSymbolTableRecord
100
AcDbBlockTableRecord
  2
*D196
340
0
 70
     0
280
     1
281
     0
  0
BLOCK_RECORD
  5
392B
330
1
100
AcDbSymbolTableRecord
100
AcDbBlockTableRecord
  2
*D197
340
0
 70
     0
280
     1
281
     0
  0
BLOCK_RECORD
  5
3937
330
1
100
AcDbSymbolTableRecord
100
AcDbBlockTableRecord
  2
*D198
340
0
 70
     0
280
     1
281
     0
  0
BLOCK_RECORD
  5
3943
330
1
100
AcDbSymbolTableRecord
100
AcDbBlockTableRecord
  2
*D199
340
0
 70
     0
280
     1
281
     0
  0
BLOCK_RECORD
  5
394F
330
1
100
AcDbSymbolTableRecord
100
AcDbBlockTableRecord
  2
*D200
340
0
 70
     0
280
     1
281
     0
  0
BLOCK_RECORD
  5
395B
330
1
100
AcDbSymbolTableRecord
100
AcDbBlockTableRecord
  2
*D201
340
0
 70
     0
280
     1
281
     0
  0
BLOCK_RECORD
  5
3967
330
1
100
AcDbSymbolTableRecord
100
AcDbBlockTableRecord
  2
*D202
340
0
 70
     0
280
     1
281
     0
  0
BLOCK_RECORD
  5
3973
330
1
100
AcDbSymbolTableRecord
100
AcDbBlockTableRecord
  2
*D203
340
0
 70
     0
280
     1
281
     0
  0
BLOCK_RECORD
  5
397F
330
1
100
AcDbSymbolTableRecord
100
AcDbBlockTableRecord
  2
*D204
340
0
 70
     0
280
     1
281
     0
  0
BLOCK_RECORD
  5
398B
330
1
100
AcDbSymbolTableRecord
100
AcDbBlockTableRecord
  2
*D205
340
0
 70
     0
280
     1
281
     0
  0
BLOCK_RECORD
  5
3997
330
1
100
AcDbSymbolTableRecord
100
AcDbBlockTableRecord
  2
*D206
340
0
 70
     0
280
     1
281
     0
  0
BLOCK_RECORD
  5
39A5
330
1
100
AcDbSymbolTableRecord
100
AcDbBlockTableRecord
  2
*D207
340
0
 70
     0
280
     1
281
     0
  0
BLOCK_RECORD
  5
39B1
330
1
100
AcDbSymbolTableRecord
100
AcDbBlockTableRecord
  2
*D208
340
0
 70
     0
280
     1
281
     0
  0
BLOCK_RECORD
  5
39BD
330
1
100
AcDbSymbolTableRecord
100
AcDbBlockTableRecord
  2
*D209
340
0
 70
     0
280
     1
281
     0
  0
BLOCK_RECORD
  5
39C9
330
1
100
AcDbSymbolTableRecord
100
AcDbBlockTableRecord
  2
*D210
340
0
 70
     0
280
     1
281
     0
  0
ENDTAB
  0
ENDSEC
  0
SECTION
  2
BLOCKS
  0
BLOCK
  5
D
330
A
100
AcDbEntity
  8
0
390
1D
100
AcDbBlockBegin
  2
*MODEL_SPACE
 70
     0
 10
0.0
 20
0.0
 30
0.0
  3
*MODEL_SPACE
  1
*MODEL_SPACE
  0
ENDBLK
  5
E
330
A
100
AcDbEntity
  8
0
390
1D
100
AcDbBlockEnd
  0
BLOCK
  5
F
330
B
100
AcDbEntity
 67
     1
  8
0
390
1D
100
AcDbBlockBegin
  2
*PAPER_SPACE
 70
     0
 10
0.0
 20
0.0
 30
0.0
  3
*PAPER_SPACE
  1
*PAPER_SPACE
  0
ENDBLK
  5
10
330
B
100
AcDbEntity
 67
     1
  8
0
390
1D
100
AcDbBlockEnd
  0
BLOCK
  5
EC4
330
4E
100
AcDbEntity
  8
0
390
1D
100
AcDbBlockBegin
  2
_DOT
 70
     0
 10
0.0
 20
0.0
 30
0.0
  3
_DOT
  1
_DOT
  0
POLYLINE
  5
EC6
330
4E
100
AcDbEntity
  8
0
  6
ByBlock
 62
     0
370
    -2
390
1D
100
AcDb2dPolyline
 66
     1
 10
0.0
 20
0.0
 30
0.0
 70
     1
 40
0.5
 41
0.5
  0
VERTEX
  5
EC7
330
EC6
100
AcDbEntity
  8
0
  6
ByBlock
 62
     0
370
    -2
390
1D
100
AcDbVertex
100
AcDb2dVertex
 10
-0.25
 20
0.0
 30
0.0
 42
1.0
  0
VERTEX
  5
EC8
330
EC6
100
AcDbEntity
  8
0
  6
ByBlock
 62
     0
370
    -2
390
1D
100
AcDbVertex
100
AcDb2dVertex
 10
0.25
 20
0.0
 30
0.0
 42
1.0
  0
SEQEND
  5
EC9
330
EC6
100
AcDbEntity
  8
0
390
1D
  0
LINE
  5
ECA
330
4E
100
AcDbEntity
  8
0
  6
ByBlock
 62
     0
370
    -2
390
1D
100
AcDbLine
 10
-0.5
 20
0.0
 30
0.0
 11
-1.0
 21
0.0
 31
0.0
  0
ENDBLK
  5
ECB
330
4E
100
AcDbEntity
  8
0
390
1D
100
AcDbBlockEnd
  0
BLOCK
  5
68B
330
68A
100
AcDbEntity
  8
0
100
AcDbBlockBegin
  2
名称未設定-1
 70
     0
 10
0.0
 20
0.0
 30
0.0
  3
名称未設定-1
  1
名称未設定-1
  0
INSERT
  5
68F
330
68A
100
AcDbEntity
  8
LOGO
100
AcDbBlockReference
  2
block 3
 10
0.0
 20
0.0
 30
0.0
  0
ENDBLK
  5
6B1
330
68A
100
AcDbEntity
  8
0
100
AcDbBlockEnd
  0
BLOCK
  5
68E
330
68D
100
AcDbEntity
  8
0
100
AcDbBlockBegin
  2
block 2
 70
     0
 10
0.0
 20
0.0
 30
0.0
  3
block 2
  1
block 2
  0
ENDBLK
  5
6B0
330
68D
100
AcDbEntity
  8
0
100
AcDbBlockEnd
  0
BLOCK
  5
691
330
690
100
AcDbEntity
  8
0
100
AcDbBlockBegin
  2
block 3
 70
     0
 10
0.0
 20
0.0
 30
0.0
  3
block 3
  1
block 3
  0
INSERT
  5
692
330
690
100
AcDbEntity
  8
LOGO
100
AcDbBlockReference
  2
block 4
 10
0.0
 20
0.0
 30
0.0
  0
INSERT
  5
6A1
330
690
100
AcDbEntity
  8
LOGO
100
AcDbBlockReference
  2
block 5
 10
0.0
 20
0.0
 30
0.0
  0
ENDBLK
  5
6AF
330
690
100
AcDbEntity
  8
0
100
AcDbBlockEnd
  0
BLOCK
  5
694
330
693
100
AcDbEntity
  8
0
100
AcDbBlockBegin
  2
block 4
 70
     0
 10
0.0
 20
0.0
 30
0.0
  3
block 4
  1
block 4
  0
POLYLINE
  5
695
330
693
100
AcDbEntity
  8
LOGO
370
     0
100
AcDb2dPolyline
 66
     1
 10
0.0
 20
0.0
 30
0.0
  0
VERTEX
  5
696
330
695
100
AcDbEntity
  8
LOGO
370
     0
100
AcDbVertex
100
AcDb2dVertex
 10
83.79545727667795
 20
167.6444858234922
 30
0.0
  0
VERTEX
  5
697
330
695
100
AcDbEntity
  8
LOGO
370
     0
100
AcDbVertex
100
AcDb2dVertex
 10
83.79545727667795
 20
159.7968976406313
 30
0.0
  0
VERTEX
  5
698
330
695
100
AcDbEntity
  8
LOGO
370
     0
100
AcDbVertex
100
AcDb2dVertex
 10
71.3631329975216
 20
159.7968976406313
 30
0.0
  0
VERTEX
  5
699
330
695
100
AcDbEntity
  8
LOGO
370
     0
100
AcDbVertex
100
AcDb2dVertex
 10
71.3631329975216
 20
127.8027915271048
 30
0.0
  0
VERTEX
  5
69A
330
695
100
AcDbEntity
  8
LOGO
370
     0
100
AcDbVertex
100
AcDb2dVertex
 10
60.43011526263018
 20
127.8027915271048
 30
0.0
  0
VERTEX
  5
69B
330
695
100
AcDbEntity
  8
LOGO
370
     0
100
AcDbVertex
100
AcDb2dVertex
 10
60.43011526263018
 20
159.7968976406313
 30
0.0
  0
VERTEX
  5
69C
330
695
100
AcDbEntity
  8
LOGO
370
     0
100
AcDbVertex
100
AcDb2dVertex
 10
48.21793273020759
 20
159.7968976406313
 30
0.0
  0
VERTEX
  5
69D
330
695
100
AcDbEntity
  8
LOGO
370
     0
100
AcDbVertex
100
AcDb2dVertex
 10
48.21793273020759
 20
167.6444858234922
 30
0.0
  0
VERTEX
  5
69E
330
695
100
AcDbEntity
  8
LOGO
370
     0
100
AcDbVertex
100
AcDb2dVertex
 10
83.79545727667795
 20
167.6444858234922
 30
0.0
  0
SEQEND
  5
69F
330
695
100
AcDbEntity
  8
LOGO
370
     0
  0
HATCH
  5
6A0
330
693
100
AcDbEntity
  8
LOGO
 62
   250
420
  2234388
100
AcDbHatch
 10
0.0
 20
0.0
 30
0.0
210
0.0
220
0.0
230
1.0
  2
SOLID
 70
     1
 71
     0
 91
        1
 92
        1
 93
        8
 72
     1
 10
83.79545727667795
 20
167.6444858234922
 11
83.79545727667795
 21
159.7968976406313
 72
     1
 10
83.79545727667795
 20
159.7968976406313
 11
71.3631329975216
 21
159.7968976406313
 72
     1
 10
71.3631329975216
 20
159.7968976406313
 11
71.3631329975216
 21
127.8027915271048
 72
     1
 10
71.3631329975216
 20
127.8027915271048
 11
60.43011526263018
 21
127.8027915271048
 72
     1
 10
60.43011526263018
 20
127.8027915271048
 11
60.43011526263018
 21
159.7968976406313
 72
     1
 10
60.43011526263018
 20
159.7968976406313
 11
48.21793273020759
 21
159.7968976406313
 72
     1
 10
48.21793273020759
 20
159.7968976406313
 11
48.21793273020759
 21
167.6444858234922
 72
     1
 10
48.21793273020759
 20
167.6444858234922
 11
83.79545727667795
 21
167.6444858234922
 97
        0
 75
     2
 76
     1
 98
        0
  0
ENDBLK
  5
6AE
330
693
100
AcDbEntity
  8
0
100
AcDbBlockEnd
  0
BLOCK
  5
6A3
330
6A2
100
AcDbEntity
  8
0
100
AcDbBlockBegin
  2
block 5
 70
     0
 10
0.0
 20
0.0
 30
0.0
  3
block 5
  1
block 5
  0
SPLINE
  5
6A4
330
6A2
100
AcDbEntity
  8
LOGO
370
     0
100
AcDbSpline
210
0.0
220
0.0
230
1.0
 70
    11
 71
     3
 72
    56
 73
    52
 74
     0
 42
0.000000001
 43
0.0000000001
 40
0.0
 40
0.0
 40
0.0
 40
0.0
 40
1.0
 40
1.0
 40
1.0
 40
2.0
 40
2.0
 40
2.0
 40
3.0
 40
3.0
 40
3.0
 40
4.0
 40
4.0
 40
4.0
 40
5.0
 40
5.0
 40
5.0
 40
6.0
 40
6.0
 40
6.0
 40
7.0
 40
7.0
 40
7.0
 40
8.0
 40
8.0
 40
8.0
 40
9.0
 40
9.0
 40
9.0
 40
10.0
 40
10.0
 40
10.0
 40
11.0
 40
11.0
 40
11.0
 40
12.0
 40
12.0
 40
12.0
 40
13.0
 40
13.0
 40
13.0
 40
14.0
 40
14.0
 40
14.0
 40
15.0
 40
15.0
 40
15.0
 40
16.0
 40
16.0
 40
16.0
 40
17.0
 40
17.0
 40
17.0
 40
17.0
 10
100.4504378777679
 20
166.69157178364
 30
0.0
 10
101.9848844191641
 20
167.1313385124438
 30
0.0
 10
103.9637485713373
 20
166.7649523658846
 30
0.0
 10
103.9637485713373
 20
166.7649523658846
 30
0.0
 10
103.9637485713373
 20
166.7649523658846
 30
0.0
 10
103.0132460999156
 20
163.911205638077
 30
0.0
 10
103.0132460999156
 20
163.911205638077
 30
0.0
 10
103.0132460999156
 20
163.911205638077
 30
0.0
 10
101.0674548862189
 20
164.3601018759394
 30
0.0
 10
99.57090442016032
 20
163.1805004036133
 30
0.0
 10
98.40508333886608
 20
162.258247733807
 30
0.0
 10
97.65301849830304
 20
159.804132345923
 30
0.0
 10
97.3598406791005
 20
158.8699940888517
 30
0.0
 10
97.3598406791005
 20
158.8699940888517
 30
0.0
 10
96.07137411762282
 20
154.9119212747295
 30
0.0
 10
96.07137411762282
 20
154.9119212747295
 30
0.0
 10
96.07137411762282
 20
154.9119212747295
 30
0.0
 10
100.3012651448482
 20
154.9119212747295
 30
0.0
 10
100.3012651448482
 20
154.9119212747295
 30
0.0
 10
100.3012651448482
 20
154.9119212747295
 30
0.0
 10
99.64152892419852
 20
152.4199098115079
 30
0.0
 10
99.64152892419852
 20
152.4199098115079
 30
0.0
 10
99.64152892419852
 20
152.4199098115079
 30
0.0
 10
95.38097652692731
 20
152.4199098115079
 30
0.0
 10
95.38097652692731
 20
152.4199098115079
 30
0.0
 10
95.38097652692731
 20
152.4199098115079
 30
0.0
 10
87.75353009080013
 20
127.8027915271048
 30
0.0
 10
87.75353009080013
 20
127.8027915271048
 30
0.0
 10
87.75353009080013
 20
127.8027915271048
 30
0.0
 10
85.36538832498108
 20
127.8027915271048
 30
0.0
 10
85.36538832498108
 20
127.8027915271048
 30
0.0
 10
85.36538832498108
 20
127.8027915271048
 30
0.0
 10
93.00006946639998
 20
152.4199098115079
 30
0.0
 10
93.00006946639998
 20
152.4199098115079
 30
0.0
 10
93.00006946639998
 20
152.4199098115079
 30
0.0
 10
89.85297266450198
 20
152.4199098115079
 30
0.0
 10
89.85297266450198
 20
152.4199098115079
 30
0.0
 10
89.85297266450198
 20
152.4199098115079
 30
0.0
 10
90.51270888515164
 20
154.9119212747295
 30
0.0
 10
90.51270888515164
 20
154.9119212747295
 30
0.0
 10
90.51270888515164
 20
154.9119212747295
 30
0.0
 10
93.6904670570955
 20
154.9119212747295
 30
0.0
 10
93.6904670570955
 20
154.9119212747295
 30
0.0
 10
93.6904670570955
 20
154.9119212747295
 30
0.0
 10
94.81598049462158
 20
158.3616699146644
 30
0.0
 10
94.81598049462158
 20
158.3616699146644
 30
0.0
 10
95.7237637538445
 20
161.2605474231013
 30
0.0
 10
96.4968436907311
 20
162.8139420021662
 30
0.0
 10
97.15657991138076
 20
163.9844139654337
 30
0.0
 10
97.81183750494507
 20
165.1523021053827
 30
0.0
 10
99.1047826935081
 20
166.3084769129547
 30
0.0
 10
100.4504378777679
 20
166.69157178364
 30
0.0
  0
HATCH
  5
6A5
330
6A2
100
AcDbEntity
  8
LOGO
 62
   250
420
  2234388
100
AcDbHatch
 10
0.0
 20
0.0
 30
0.0
210
0.0
220
0.0
230
1.0
  2
SOLID
 70
     1
 71
     0
 91
        1
 92
        1
 93
        1
 72
     4
 94
        3
 73
     0
 74
     1
 95
       56
 96
       52
 40
0.0
 40
0.0
 40
0.0
 40
0.0
 40
1.0
 40
1.0
 40
1.0
 40
2.0
 40
2.0
 40
2.0
 40
3.0
 40
3.0
 40
3.0
 40
4.0
 40
4.0
 40
4.0
 40
5.0
 40
5.0
 40
5.0
 40
6.0
 40
6.0
 40
6.0
 40
7.0
 40
7.0
 40
7.0
 40
8.0
 40
8.0
 40
8.0
 40
9.0
 40
9.0
 40
9.0
 40
10.0
 40
10.0
 40
10.0
 40
11.0
 40
11.0
 40
11.0
 40
12.0
 40
12.0
 40
12.0
 40
13.0
 40
13.0
 40
13.0
 40
14.0
 40
14.0
 40
14.0
 40
15.0
 40
15.0
 40
15.0
 40
16.0
 40
16.0
 40
16.0
 40
17.0
 40
17.0
 40
17.0
 40
17.0
 10
100.4504378777679
 20
166.69157178364
 10
101.9848844191641
 20
167.1313385124438
 10
103.9637485713373
 20
166.7649523658846
 10
103.9637485713373
 20
166.7649523658846
 10
103.9637485713373
 20
166.7649523658846
 10
103.0132460999156
 20
163.911205638077
 10
103.0132460999156
 20
163.911205638077
 10
103.0132460999156
 20
163.911205638077
 10
101.0674548862189
 20
164.3601018759394
 10
99.57090442016032
 20
163.1805004036133
 10
98.40508333886608
 20
162.258247733807
 10
97.65301849830304
 20
159.804132345923
 10
97.3598406791005
 20
158.8699940888517
 10
97.3598406791005
 20
158.8699940888517
 10
96.07137411762282
 20
154.9119212747295
 10
96.07137411762282
 20
154.9119212747295
 10
96.07137411762282
 20
154.9119212747295
 10
100.3012651448482
 20
154.9119212747295
 10
100.3012651448482
 20
154.9119212747295
 10
100.3012651448482
 20
154.9119212747295
 10
99.64152892419852
 20
152.4199098115079
 10
99.64152892419852
 20
152.4199098115079
 10
99.64152892419852
 20
152.4199098115079
 10
95.38097652692731
 20
152.4199098115079
 10
95.38097652692731
 20
152.4199098115079
 10
95.38097652692731
 20
152.4199098115079
 10
87.75353009080013
 20
127.8027915271048
 10
87.75353009080013
 20
127.8027915271048
 10
87.75353009080013
 20
127.8027915271048
 10
85.36538832498108
 20
127.8027915271048
 10
85.36538832498108
 20
127.8027915271048
 10
85.36538832498108
 20
127.8027915271048
 10
93.00006946639998
 20
152.4199098115079
 10
93.00006946639998
 20
152.4199098115079
 10
93.00006946639998
 20
152.4199098115079
 10
89.85297266450198
 20
152.4199098115079
 10
89.85297266450198
 20
152.4199098115079
 10
89.85297266450198
 20
152.4199098115079
 10
90.51270888515164
 20
154.9119212747295
 10
90.51270888515164
 20
154.9119212747295
 10
90.51270888515164
 20
154.9119212747295
 10
93.6904670570955
 20
154.9119212747295
 10
93.6904670570955
 20
154.9119212747295
 10
93.6904670570955
 20
154.9119212747295
 10
94.81598049462158
 20
158.3616699146644
 10
94.81598049462158
 20
158.3616699146644
 10
95.7237637538445
 20
161.2605474231013
 10
96.4968436907311
 20
162.8139420021662
 10
97.15657991138076
 20
163.9844139654337
 10
97.81183750494507
 20
165.1523021053827
 10
99.1047826935081
 20
166.3084769129547
 10
100.4504378777679
 20
166.69157178364
 97
        0
 75
     2
 76
     1
 98
        0
  0
SPLINE
  5
6A6
330
6A2
100
AcDbEntity
  8
LOGO
370
     0
100
AcDbSpline
210
0.0
220
0.0
230
1.0
 70
    11
 71
     3
 72
    38
 73
    34
 74
     0
 42
0.000000001
 43
0.0000000001
 40
0.0
 40
0.0
 40
0.0
 40
0.0
 40
1.0
 40
1.0
 40
1.0
 40
2.0
 40
2.0
 40
2.0
 40
3.0
 40
3.0
 40
3.0
 40
4.0
 40
4.0
 40
4.0
 40
5.0
 40
5.0
 40
5.0
 40
6.0
 40
6.0
 40
6.0
 40
7.0
 40
7.0
 40
7.0
 40
8.0
 40
8.0
 40
8.0
 40
9.0
 40
9.0
 40
9.0
 40
10.0
 40
10.0
 40
10.0
 40
11.0
 40
11.0
 40
11.0
 40
11.0
 10
126.377554584636
 20
154.8151140277308
 30
0.0
 10
126.377554584636
 20
154.8151140277308
 30
0.0
 10
128.8311532078563
 20
154.8151140277308
 30
0.0
 10
128.8311532078563
 20
154.8151140277308
 30
0.0
 10
128.8311532078563
 20
154.8151140277308
 30
0.0
 10
127.7345785914971
 20
151.3062819612468
 30
0.0
 10
127.7345785914971
 20
151.3062819612468
 30
0.0
 10
128.571392836906
 20
152.2922689395754
 30
0.0
 10
129.8860421413442
 20
153.604506675583
 30
0.0
 10
131.0163787157314
 20
154.2664822097754
 30
0.0
 10
132.7044766171327
 20
155.2500576196734
 30
0.0
 10
133.6642808525008
 20
155.3847609420097
 30
0.0
 10
134.7284715499351
 20
155.3565111403944
 30
0.0
 10
134.7284715499351
 20
155.3565111403944
 30
0.0
 10
133.6877075172549
 20
152.0345756272799
 30
0.0
 10
133.6877075172549
 20
152.0345756272799
 30
0.0
 10
133.011434827367
 20
152.3184516825359
 30
0.0
 10
130.930940291334
 20
151.7768823149844
 30
0.0
 10
129.739280976855
 20
150.9162968950455
 30
0.0
 10
128.66613302525
 20
150.1454562717016
 30
0.0
 10
127.9192358313239
 20
149.4857200510519
 30
0.0
 10
127.0393578639405
 20
147.8282835196966
 30
0.0
 10
126.164647543194
 20
146.1699857139017
 30
0.0
 10
125.4742499524985
 20
143.5262176944419
 30
0.0
 10
124.2822461282437
 20
139.6959580071401
 30
0.0
 10
124.2822461282437
 20
139.6959580071401
 30
0.0
 10
120.5753209406769
 20
127.8027915271048
 30
0.0
 10
120.5753209406769
 20
127.8027915271048
 30
0.0
 10
120.5753209406769
 20
127.8027915271048
 30
0.0
 10
118.1964809388044
 20
127.8027915271048
 30
0.0
 10
118.1964809388044
 20
127.8027915271048
 30
0.0
 10
118.1964809388044
 20
127.8027915271048
 30
0.0
 10
126.377554584636
 20
154.8151140277308
 30
0.0
 10
126.377554584636
 20
154.8151140277308
 30
0.0
  0
HATCH
  5
6A7
330
6A2
100
AcDbEntity
  8
LOGO
 62
   250
420
  2234388
100
AcDbHatch
 10
0.0
 20
0.0
 30
0.0
210
0.0
220
0.0
230
1.0
  2
SOLID
 70
     1
 71
     0
 91
        1
 92
        1
 93
        1
 72
     4
 94
        3
 73
     0
 74
     1
 95
       38
 96
       34
 40
0.0
 40
0.0
 40
0.0
 40
0.0
 40
1.0
 40
1.0
 40
1.0
 40
2.0
 40
2.0
 40
2.0
 40
3.0
 40
3.0
 40
3.0
 40
4.0
 40
4.0
 40
4.0
 40
5.0
 40
5.0
 40
5.0
 40
6.0
 40
6.0
 40
6.0
 40
7.0
 40
7.0
 40
7.0
 40
8.0
 40
8.0
 40
8.0
 40
9.0
 40
9.0
 40
9.0
 40
10.0
 40
10.0
 40
10.0
 40
11.0
 40
11.0
 40
11.0
 40
11.0
 10
126.377554584636
 20
154.8151140277308
 10
126.377554584636
 20
154.8151140277308
 10
128.8311532078563
 20
154.8151140277308
 10
128.8311532078563
 20
154.8151140277308
 10
128.8311532078563
 20
154.8151140277308
 10
127.7345785914971
 20
151.3062819612468
 10
127.7345785914971
 20
151.3062819612468
 10
128.571392836906
 20
152.2922689395754
 10
129.8860421413442
 20
153.604506675583
 10
131.0163787157314
 20
154.2664822097754
 10
132.7044766171327
 20
155.2500576196734
 10
133.6642808525008
 20
155.3847609420097
 10
134.7284715499351
 20
155.3565111403944
 10
134.7284715499351
 20
155.3565111403944
 10
133.6877075172549
 20
152.0345756272799
 10
133.6877075172549
 20
152.0345756272799
 10
133.011434827367
 20
152.3184516825359
 10
130.930940291334
 20
151.7768823149844
 10
129.739280976855
 20
150.9162968950455
 10
128.66613302525
 20
150.1454562717016
 10
127.9192358313239
 20
149.4857200510519
 10
127.0393578639405
 20
147.8282835196966
 10
126.164647543194
 20
146.1699857139017
 10
125.4742499524985
 20
143.5262176944419
 10
124.2822461282437
 20
139.6959580071401
 10
124.2822461282437
 20
139.6959580071401
 10
120.5753209406769
 20
127.8027915271048
 10
120.5753209406769
 20
127.8027915271048
 10
120.5753209406769
 20
127.8027915271048
 10
118.1964809388044
 20
127.8027915271048
 10
118.1964809388044
 20
127.8027915271048
 10
118.1964809388044
 20
127.8027915271048
 10
126.377554584636
 20
154.8151140277308
 10
126.377554584636
 20
154.8151140277308
 97
        0
 75
     2
 76
     1
 98
        0
  0
SPLINE
  5
6A8
330
6A2
100
AcDbEntity
  8
LOGO
370
     0
100
AcDbSpline
210
0.0
220
0.0
230
1.0
 70
    11
 71
     3
 72
   104
 73
   100
 74
     0
 42
0.000000001
 43
0.0000000001
 40
0.0
 40
0.0
 40
0.0
 40
0.0
 40
1.0
 40
1.0
 40
1.0
 40
2.0
 40
2.0
 40
2.0
 40
3.0
 40
3.0
 40
3.0
 40
4.0
 40
4.0
 40
4.0
 40
5.0
 40
5.0
 40
5.0
 40
6.0
 40
6.0
 40
6.0
 40
7.0
 40
7.0
 40
7.0
 40
8.0
 40
8.0
 40
8.0
 40
9.0
 40
9.0
 40
9.0
 40
10.0
 40
10.0
 40
10.0
 40
11.0
 40
11.0
 40
11.0
 40
12.0
 40
12.0
 40
12.0
 40
13.0
 40
13.0
 40
13.0
 40
14.0
 40
14.0
 40
14.0
 40
15.0
 40
15.0
 40
15.0
 40
16.0
 40
16.0
 40
16.0
 40
17.0
 40
17.0
 40
17.0
 40
18.0
 40
18.0
 40
18.0
 40
19.0
 40
19.0
 40
19.0
 40
20.0
 40
20.0
 40
20.0
 40
21.0
 40
21.0
 40
21.0
 40
22.0
 40
22.0
 40
22.0
 40
23.0
 40
23.0
 40
23.0
 40
24.0
 40
24.0
 40
24.0
 40
25.0
 40
25.0
 40
25.0
 40
26.0
 40
26.0
 40
26.0
 40
27.0
 40
27.0
 40
27.0
 40
28.0
 40
28.0
 40
28.0
 40
29.0
 40
29.0
 40
29.0
 40
30.0
 40
30.0
 40
30.0
 40
31.0
 40
31.0
 40
31.0
 40
32.0
 40
32.0
 40
32.0
 40
33.0
 40
33.0
 40
33.0
 40
33.0
 10
139.8926730891197
 20
154.8294111834263
 30
0.0
 10
139.8926730891197
 20
154.8294111834263
 30
0.0
 10
142.0344903652445
 20
154.8294111834263
 30
0.0
 10
142.0344903652445
 20
154.8294111834263
 30
0.0
 10
142.0344903652445
 20
154.8294111834263
 30
0.0
 10
140.9516961399171
 20
151.3157559800812
 30
0.0
 10
140.9516961399171
 20
151.3157559800812
 30
0.0
 10
141.8928968473923
 20
152.7887075264977
 30
0.0
 10
142.7341897198865
 20
153.4484437471474
 30
0.0
 10
143.8552245303272
 20
154.2926649527359
 30
0.0
 10
144.9803934580775
 20
155.1296514530327
 30
0.0
 10
146.3139908001845
 20
155.3044901642492
 30
0.0
 10
147.241066606852
 20
155.3044901642492
 30
0.0
 10
148.3855280820469
 20
155.3044901642492
 30
0.0
 10
149.4969166187653
 20
155.0752189084569
 30
0.0
 10
150.0784491203092
 20
153.8172414621372
 30
0.0
 10
150.5228667310863
 20
152.833838307127
 30
0.0
 10
150.5414702589793
 20
152.7201500811143
 30
0.0
 10
150.4140016419347
 20
150.7765981809602
 30
0.0
 10
151.5818897818837
 20
152.7699317437168
 30
0.0
 10
152.4424752018226
 20
153.6256940267945
 30
0.0
 10
153.9038856707499
 20
154.4507949398263
 30
0.0
 10
155.4455669174378
 20
155.3044901642492
 30
0.0
 10
156.339225275853
 20
155.3659851592288
 30
0.0
 10
157.3748216618963
 20
155.2147453676543
 30
0.0
 10
158.911679771723
 20
154.9877134254046
 30
0.0
 10
159.8859534176746
 20
154.4390816074493
 30
0.0
 10
160.3965169054045
 20
152.7816450760939
 30
0.0
 10
160.9070803931344
 20
151.1219692311958
 30
0.0
 10
160.6328506116007
 20
150.2303779314354
 30
0.0
 10
159.9992971339115
 20
147.597634224801
 30
0.0
 10
159.7105979417943
 20
146.4014962832367
 30
0.0
 10
159.2947746424084
 20
144.9400858143094
 30
0.0
 10
158.7463150793409
 20
143.2092687007094
 30
0.0
 10
158.7463150793409
 20
143.2092687007094
 30
0.0
 10
153.9038856707499
 20
127.8027915271048
 30
0.0
 10
153.9038856707499
 20
127.8027915271048
 30
0.0
 10
153.9038856707499
 20
127.8027915271048
 30
0.0
 10
151.3882752878863
 20
127.8027915271048
 30
0.0
 10
151.3882752878863
 20
127.8027915271048
 30
0.0
 10
151.3882752878863
 20
127.8027915271048
 30
0.0
 10
155.6250565106276
 20
141.2751908193897
 30
0.0
 10
155.6250565106276
 20
141.2751908193897
 30
0.0
 10
156.5094131050963
 20
144.0936252951782
 30
0.0
 10
157.109893644309
 20
146.1506931664571
 30
0.0
 10
157.4220195011804
 20
147.4415712963654
 30
0.0
 10
157.8095929989511
 20
149.0530157726519
 30
0.0
 10
157.9656559273867
 20
149.5826995529385
 30
0.0
 10
157.7816877071116
 20
150.7529992613181
 30
0.0
 10
157.6111553680925
 20
151.8430281919372
 30
0.0
 10
157.0582171779396
 20
152.5547853887321
 30
0.0
 10
156.1170164704645
 20
152.5547853887321
 30
0.0
 10
155.1096698860365
 20
152.5547853887321
 30
0.0
 10
154.2962823053817
 20
152.4412694176073
 30
0.0
 10
153.156643967048
 20
151.2945686288697
 30
0.0
 10
152.0170056287143
 20
150.1476955852443
 30
0.0
 10
151.076149431015
 20
148.7930831468137
 30
0.0
 10
150.3337308641742
 20
147.2290087646991
 30
0.0
 10
149.5957909244188
 20
145.6683794803425
 30
0.0
 10
148.8530278478023
 20
143.6822806228776
 30
0.0
 10
148.0964843801539
 20
141.2751908193897
 30
0.0
 10
148.0964843801539
 20
141.2751908193897
 30
0.0
 10
143.8552245303272
 20
127.8027915271048
 30
0.0
 10
143.8552245303272
 20
127.8027915271048
 30
0.0
 10
143.8552245303272
 20
127.8027915271048
 30
0.0
 10
141.486030802177
 20
127.8027915271048
 30
0.0
 10
141.486030802177
 20
127.8027915271048
 30
0.0
 10
141.486030802177
 20
127.8027915271048
 30
0.0
 10
146.3329388378533
 20
143.2092687007094
 30
0.0
 10
146.3329388378533
 20
143.2092687007094
 30
0.0
 10
146.8483254624444
 20
144.8408669988801
 30
0.0
 10
147.2314203331297
 20
146.1837661049335
 30
0.0
 10
147.4867020769946
 20
147.224185627838
 30
0.0
 10
147.9169947869641
 20
149.0197705792876
 30
0.0
 10
148.0306830129768
 20
150.2400242051577
 30
0.0
 10
147.709255392159
 20
151.3157559800812
 30
0.0
 10
147.3874832615654
 20
152.3916600098926
 30
0.0
 10
146.8245542879144
 20
152.6683013598569
 30
0.0
 10
145.8840425999909
 20
152.6683013598569
 30
0.0
 10
145.0989048209514
 20
152.6683013598569
 30
0.0
 10
144.3282364524954
 20
152.3275811915945
 30
0.0
 10
143.4531816219731
 20
151.6538923250251
 30
0.0
 10
142.34627171234
 20
150.8074318058939
 30
0.0
 10
141.901854101563
 20
150.1097995099067
 30
0.0
 10
141.3578731655808
 20
149.289521733736
 30
0.0
 10
140.6299240093235
 20
148.192602607601
 30
0.0
 10
140.2850697237515
 20
147.455696197173
 30
0.0
 10
139.6652966370942
 20
145.8385673095858
 30
0.0
 10
139.0506911970739
 20
144.2214384219986
 30
0.0
 10
138.463991048893
 20
142.3252566160164
 30
0.0
 10
138.0571250036777
 20
141.0154304484394
 30
0.0
 10
138.0571250036777
 20
141.0154304484394
 30
0.0
 10
133.9009590684727
 20
127.8027915271048
 30
0.0
 10
133.9009590684727
 20
127.8027915271048
 30
0.0
 10
133.9009590684727
 20
127.8027915271048
 30
0.0
 10
131.4180771143097
 20
127.8027915271048
 30
0.0
 10
131.4180771143097
 20
127.8027915271048
 30
0.0
 10
131.4180771143097
 20
127.8027915271048
 30
0.0
 10
139.8926730891197
 20
154.8294111834263
 30
0.0
 10
139.8926730891197
 20
154.8294111834263
 30
0.0
  0
HATCH
  5
6A9
330
6A2
100
AcDbEntity
  8
LOGO
 62
   250
420
  2234388
100
AcDbHatch
 10
0.0
 20
0.0
 30
0.0
210
0.0
220
0.0
230
1.0
  2
SOLID
 70
     1
 71
     0
 91
        1
 92
        1
 93
        1
 72
     4
 94
        3
 73
     0
 74
     1
 95
      104
 96
      100
 40
0.0
 40
0.0
 40
0.0
 40
0.0
 40
1.0
 40
1.0
 40
1.0
 40
2.0
 40
2.0
 40
2.0
 40
3.0
 40
3.0
 40
3.0
 40
4.0
 40
4.0
 40
4.0
 40
5.0
 40
5.0
 40
5.0
 40
6.0
 40
6.0
 40
6.0
 40
7.0
 40
7.0
 40
7.0
 40
8.0
 40
8.0
 40
8.0
 40
9.0
 40
9.0
 40
9.0
 40
10.0
 40
10.0
 40
10.0
 40
11.0
 40
11.0
 40
11.0
 40
12.0
 40
12.0
 40
12.0
 40
13.0
 40
13.0
 40
13.0
 40
14.0
 40
14.0
 40
14.0
 40
15.0
 40
15.0
 40
15.0
 40
16.0
 40
16.0
 40
16.0
 40
17.0
 40
17.0
 40
17.0
 40
18.0
 40
18.0
 40
18.0
 40
19.0
 40
19.0
 40
19.0
 40
20.0
 40
20.0
 40
20.0
 40
21.0
 40
21.0
 40
21.0
 40
22.0
 40
22.0
 40
22.0
 40
23.0
 40
23.0
 40
23.0
 40
24.0
 40
24.0
 40
24.0
 40
25.0
 40
25.0
 40
25.0
 40
26.0
 40
26.0
 40
26.0
 40
27.0
 40
27.0
 40
27.0
 40
28.0
 40
28.0
 40
28.0
 40
29.0
 40
29.0
 40
29.0
 40
30.0
 40
30.0
 40
30.0
 40
31.0
 40
31.0
 40
31.0
 40
32.0
 40
32.0
 40
32.0
 40
33.0
 40
33.0
 40
33.0
 40
33.0
 10
139.8926730891197
 20
154.8294111834263
 10
139.8926730891197
 20
154.8294111834263
 10
142.0344903652445
 20
154.8294111834263
 10
142.0344903652445
 20
154.8294111834263
 10
142.0344903652445
 20
154.8294111834263
 10
140.9516961399171
 20
151.3157559800812
 10
140.9516961399171
 20
151.3157559800812
 10
141.8928968473923
 20
152.7887075264977
 10
142.7341897198865
 20
153.4484437471474
 10
143.8552245303272
 20
154.2926649527359
 10
144.9803934580775
 20
155.1296514530327
 10
146.3139908001845
 20
155.3044901642492
 10
147.241066606852
 20
155.3044901642492
 10
148.3855280820469
 20
155.3044901642492
 10
149.4969166187653
 20
155.0752189084569
 10
150.0784491203092
 20
153.8172414621372
 10
150.5228667310863
 20
152.833838307127
 10
150.5414702589793
 20
152.7201500811143
 10
150.4140016419347
 20
150.7765981809602
 10
151.5818897818837
 20
152.7699317437168
 10
152.4424752018226
 20
153.6256940267945
 10
153.9038856707499
 20
154.4507949398263
 10
155.4455669174378
 20
155.3044901642492
 10
156.339225275853
 20
155.3659851592288
 10
157.3748216618963
 20
155.2147453676543
 10
158.911679771723
 20
154.9877134254046
 10
159.8859534176746
 20
154.4390816074493
 10
160.3965169054045
 20
152.7816450760939
 10
160.9070803931344
 20
151.1219692311958
 10
160.6328506116007
 20
150.2303779314354
 10
159.9992971339115
 20
147.597634224801
 10
159.7105979417943
 20
146.4014962832367
 10
159.2947746424084
 20
144.9400858143094
 10
158.7463150793409
 20
143.2092687007094
 10
158.7463150793409
 20
143.2092687007094
 10
153.9038856707499
 20
127.8027915271048
 10
153.9038856707499
 20
127.8027915271048
 10
153.9038856707499
 20
127.8027915271048
 10
151.3882752878863
 20
127.8027915271048
 10
151.3882752878863
 20
127.8027915271048
 10
151.3882752878863
 20
127.8027915271048
 10
155.6250565106276
 20
141.2751908193897
 10
155.6250565106276
 20
141.2751908193897
 10
156.5094131050963
 20
144.0936252951782
 10
157.109893644309
 20
146.1506931664571
 10
157.4220195011804
 20
147.4415712963654
 10
157.8095929989511
 20
149.0530157726519
 10
157.9656559273867
 20
149.5826995529385
 10
157.7816877071116
 20
150.7529992613181
 10
157.6111553680925
 20
151.8430281919372
 10
157.0582171779396
 20
152.5547853887321
 10
156.1170164704645
 20
152.5547853887321
 10
155.1096698860365
 20
152.5547853887321
 10
154.2962823053817
 20
152.4412694176073
 10
153.156643967048
 20
151.2945686288697
 10
152.0170056287143
 20
150.1476955852443
 10
151.076149431015
 20
148.7930831468137
 10
150.3337308641742
 20
147.2290087646991
 10
149.5957909244188
 20
145.6683794803425
 10
148.8530278478023
 20
143.6822806228776
 10
148.0964843801539
 20
141.2751908193897
 10
148.0964843801539
 20
141.2751908193897
 10
143.8552245303272
 20
127.8027915271048
 10
143.8552245303272
 20
127.8027915271048
 10
143.8552245303272
 20
127.8027915271048
 10
141.486030802177
 20
127.8027915271048
 10
141.486030802177
 20
127.8027915271048
 10
141.486030802177
 20
127.8027915271048
 10
146.3329388378533
 20
143.2092687007094
 10
146.3329388378533
 20
143.2092687007094
 10
146.8483254624444
 20
144.8408669988801
 10
147.2314203331297
 20
146.1837661049335
 10
147.4867020769946
 20
147.224185627838
 10
147.9169947869641
 20
149.0197705792876
 10
148.0306830129768
 20
150.2400242051577
 10
147.709255392159
 20
151.3157559800812
 10
147.3874832615654
 20
152.3916600098926
 10
146.8245542879144
 20
152.6683013598569
 10
145.8840425999909
 20
152.6683013598569
 10
145.0989048209514
 20
152.6683013598569
 10
144.3282364524954
 20
152.3275811915945
 10
143.4531816219731
 20
151.6538923250251
 10
142.34627171234
 20
150.8074318058939
 10
141.901854101563
 20
150.1097995099067
 10
141.3578731655808
 20
149.289521733736
 10
140.6299240093235
 20
148.192602607601
 10
140.2850697237515
 20
147.455696197173
 10
139.6652966370942
 20
145.8385673095858
 10
139.0506911970739
 20
144.2214384219986
 10
138.463991048893
 20
142.3252566160164
 10
138.0571250036777
 20
141.0154304484394
 10
138.0571250036777
 20
141.0154304484394
 10
133.9009590684727
 20
127.8027915271048
 10
133.9009590684727
 20
127.8027915271048
 10
133.9009590684727
 20
127.8027915271048
 10
131.4180771143097
 20
127.8027915271048
 10
131.4180771143097
 20
127.8027915271048
 10
131.4180771143097
 20
127.8027915271048
 10
139.8926730891197
 20
154.8294111834263
 10
139.8926730891197
 20
154.8294111834263
 97
        0
 75
     2
 76
     1
 98
        0
  0
SPLINE
  5
6AA
330
6A2
100
AcDbEntity
  8
LOGO
370
     0
100
AcDbSpline
210
0.0
220
0.0
230
1.0
 70
    11
 71
     3
 72
    29
 73
    25
 74
     0
 42
0.000000001
 43
0.0000000001
 40
0.0
 40
0.0
 40
0.0
 40
0.0
 40
1.0
 40
1.0
 40
1.0
 40
2.0
 40
2.0
 40
2.0
 40
3.0
 40
3.0
 40
3.0
 40
4.0
 40
4.0
 40
4.0
 40
5.0
 40
5.0
 40
5.0
 40
6.0
 40
6.0
 40
6.0
 40
7.0
 40
7.0
 40
7.0
 40
8.0
 40
8.0
 40
8.0
 40
8.0
 10
101.6420971922469
 20
132.8388354296931
 30
0.0
 10
101.630039350094
 20
134.7164137077823
 30
0.0
 10
102.2236296937908
 20
138.0598810818841
 30
0.0
 10
103.7487744712405
 20
142.5378191476827
 30
0.0
 10
105.819967243327
 20
148.5896501242061
 30
0.0
 10
107.0602024361932
 20
150.8074318058939
 30
0.0
 10
108.1522984254671
 20
151.8833358357054
 30
0.0
 10
109.741177511439
 20
153.4532668840085
 30
0.0
 10
111.8740375333931
 20
153.5290590346837
 30
0.0
 10
112.5075910110823
 20
153.4532668840085
 30
0.0
 10
113.4012493694975
 20
153.3490526768302
 30
0.0
 10
114.6683563248758
 20
152.7580461564518
 30
0.0
 10
114.7493161221879
 20
150.7838328862519
 30
0.0
 10
114.8106388622796
 20
149.0909118479895
 30
0.0
 10
114.3186789024427
 20
145.9191825971221
 30
0.0
 10
112.6164561002338
 20
140.9489400617108
 30
0.0
 10
110.6444821435766
 20
135.1746117095912
 30
0.0
 10
109.4669477299053
 20
132.8960240524753
 30
0.0
 10
108.5212683953448
 20
131.9072809959403
 30
0.0
 10
106.7346406980658
 20
130.0538184021569
 30
0.0
 10
104.8222669326213
 20
130.2336525051225
 30
0.0
 10
104.5408024457958
 20
130.2336525051225
 30
0.0
 10
104.1721769856939
 20
130.2336525051225
 30
0.0
 10
101.6465758193322
 20
130.6305277668397
 30
0.0
 10
101.6420971922469
 20
132.8388354296931
 30
0.0
  0
SPLINE
  5
6AB
330
6A2
100
AcDbEntity
  8
LOGO
370
     0
100
AcDbSpline
210
0.0
220
0.0
230
1.0
 70
    11
 71
     3
 72
    32
 73
    28
 74
     0
 42
0.000000001
 43
0.0000000001
 40
0.0
 40
0.0
 40
0.0
 40
0.0
 40
1.0
 40
1.0
 40
1.0
 40
2.0
 40
2.0
 40
2.0
 40
3.0
 40
3.0
 40
3.0
 40
4.0
 40
4.0
 40
4.0
 40
5.0
 40
5.0
 40
5.0
 40
6.0
 40
6.0
 40
6.0
 40
7.0
 40
7.0
 40
7.0
 40
8.0
 40
8.0
 40
8.0
 40
9.0
 40
9.0
 40
9.0
 40
9.0
 10
106.2595617172429
 20
153.4105476718098
 30
0.0
 10
104.8222669326213
 20
151.5474388043041
 30
0.0
 10
103.7177685914188
 20
149.8758773721411
 30
0.0
 10
101.9232171692965
 20
144.6141795664062
 30
0.0
 10
100.2754269116635
 20
139.7999999594306
 30
0.0
 10
99.22777268346732
 20
136.3052927937542
 30
0.0
 10
99.06964269637689
 20
132.039572749846
 30
0.0
 10
98.94665270641765
 20
128.8673267343149
 30
0.0
 10
100.8807305877373
 20
127.8027915271048
 30
0.0
 10
103.7129454545577
 20
127.8027915271048
 30
0.0
 10
104.9352661390825
 20
127.8027915271048
 30
0.0
 10
108.0151835347002
 20
127.8827177950895
 30
0.0
 10
110.2045431598849
 20
130.5926316915021
 30
0.0
 10
111.7417457794874
 20
132.4984597712065
 30
0.0
 10
113.155269389579
 20
134.475256864725
 30
0.0
 10
115.0562743324223
 20
140.9489400617108
 30
0.0
 10
116.6361961642235
 20
146.3680788349845
 30
0.0
 10
117.7282921534974
 20
149.8639917848761
 30
0.0
 10
117.6480213757369
 20
151.8595646611754
 30
0.0
 10
117.6480213757369
 20
151.8595646611754
 30
0.0
 10
117.6480213757369
 20
151.8595646611754
 30
0.0
 10
117.6480213757369
 20
151.8595646611754
 30
0.0
 10
117.13229024137
 20
155.18150017429
 30
0.0
 10
114.7162431837115
 20
155.886194920681
 30
0.0
 10
113.3351034925446
 20
155.886194920681
 30
0.0
 10
111.9829026225447
 20
155.886194920681
 30
0.0
 10
108.3414342923792
 20
156.1251124501957
 30
0.0
 10
106.2595617172429
 20
153.4105476718098
 30
0.0
  0
HATCH
  5
6AC
330
6A2
100
AcDbEntity
  8
LOGO
 62
   250
420
  2234388
100
AcDbHatch
 10
0.0
 20
0.0
 30
0.0
210
0.0
220
0.0
230
1.0
  2
SOLID
 70
     1
 71
     0
 91
        2
 92
        1
 93
        1
 72
     4
 94
        3
 73
     0
 74
     1
 95
       29
 96
       25
 40
0.0
 40
0.0
 40
0.0
 40
0.0
 40
1.0
 40
1.0
 40
1.0
 40
2.0
 40
2.0
 40
2.0
 40
3.0
 40
3.0
 40
3.0
 40
4.0
 40
4.0
 40
4.0
 40
5.0
 40
5.0
 40
5.0
 40
6.0
 40
6.0
 40
6.0
 40
7.0
 40
7.0
 40
7.0
 40
8.0
 40
8.0
 40
8.0
 40
8.0
 10
101.6420971922469
 20
132.8388354296931
 10
101.630039350094
 20
134.7164137077823
 10
102.2236296937908
 20
138.0598810818841
 10
103.7487744712405
 20
142.5378191476827
 10
105.819967243327
 20
148.5896501242061
 10
107.0602024361932
 20
150.8074318058939
 10
108.1522984254671
 20
151.8833358357054
 10
109.741177511439
 20
153.4532668840085
 10
111.8740375333931
 20
153.5290590346837
 10
112.5075910110823
 20
153.4532668840085
 10
113.4012493694975
 20
153.3490526768302
 10
114.6683563248758
 20
152.7580461564518
 10
114.7493161221879
 20
150.7838328862519
 10
114.8106388622796
 20
149.0909118479895
 10
114.3186789024427
 20
145.9191825971221
 10
112.6164561002338
 20
140.9489400617108
 10
110.6444821435766
 20
135.1746117095912
 10
109.4669477299053
 20
132.8960240524753
 10
108.5212683953448
 20
131.9072809959403
 10
106.7346406980658
 20
130.0538184021569
 10
104.8222669326213
 20
130.2336525051225
 10
104.5408024457958
 20
130.2336525051225
 10
104.1721769856939
 20
130.2336525051225
 10
101.6465758193322
 20
130.6305277668397
 10
101.6420971922469
 20
132.8388354296931
 97
        0
 92
        1
 93
        1
 72
     4
 94
        3
 73
     0
 74
     1
 95
       32
 96
       28
 40
0.0
 40
0.0
 40
0.0
 40
0.0
 40
1.0
 40
1.0
 40
1.0
 40
2.0
 40
2.0
 40
2.0
 40
3.0
 40
3.0
 40
3.0
 40
4.0
 40
4.0
 40
4.0
 40
5.0
 40
5.0
 40
5.0
 40
6.0
 40
6.0
 40
6.0
 40
7.0
 40
7.0
 40
7.0
 40
8.0
 40
8.0
 40
8.0
 40
9.0
 40
9.0
 40
9.0
 40
9.0
 10
106.2595617172429
 20
153.4105476718098
 10
104.8222669326213
 20
151.5474388043041
 10
103.7177685914188
 20
149.8758773721411
 10
101.9232171692965
 20
144.6141795664062
 10
100.2754269116635
 20
139.7999999594306
 10
99.22777268346732
 20
136.3052927937542
 10
99.06964269637689
 20
132.039572749846
 10
98.94665270641765
 20
128.8673267343149
 10
100.8807305877373
 20
127.8027915271048
 10
103.7129454545577
 20
127.8027915271048
 10
104.9352661390825
 20
127.8027915271048
 10
108.0151835347002
 20
127.8827177950895
 10
110.2045431598849
 20
130.5926316915021
 10
111.7417457794874
 20
132.4984597712065
 10
113.155269389579
 20
134.475256864725
 10
115.0562743324223
 20
140.9489400617108
 10
116.6361961642235
 20
146.3680788349845
 10
117.7282921534974
 20
149.8639917848761
 10
117.6480213757369
 20
151.8595646611754
 10
117.6480213757369
 20
151.8595646611754
 10
117.6480213757369
 20
151.8595646611754
 10
117.6480213757369
 20
151.8595646611754
 10
117.13229024137
 20
155.18150017429
 10
114.7162431837115
 20
155.886194920681
 10
113.3351034925446
 20
155.886194920681
 10
111.9829026225447
 20
155.886194920681
 10
108.3414342923792
 20
156.1251124501957
 10
106.2595617172429
 20
153.4105476718098
 97
        0
 75
     2
 76
     1
 98
        0
  0
ENDBLK
  5
6AD
330
6A2
100
AcDbEntity
  8
0
100
AcDbBlockEnd
  0
BLOCK
  5
199B
330
199A
100
AcDbEntity
  8
0
100
AcDbBlockBegin
  2
SEANNOT_GROUP
 70
     0
 10
0.0
 20
0.0
 30
0.0
  3
SEANNOT_GROUP
  1
SEANNOT_GROUP
  0
ENDBLK
  5
199C
330
199A
100
AcDbEntity
  8
0
100
AcDbBlockEnd
  0
BLOCK
  5
1F30
330
1F2F
100
AcDbEntity
  8
0
100
AcDbBlockBegin
  2
SEANNOT_GROUP1
 70
     0
 10
0.0
 20
0.0
 30
0.0
  3
SEANNOT_GROUP1
  1
SEANNOT_GROUP1
  0
ENDBLK
  5
1F31
330
1F2F
100
AcDbEntity
  8
0
100
AcDbBlockEnd
  0
BLOCK
  5
3819
330
3818
100
AcDbEntity
  8
ADF70-1705
390
1D
100
AcDbBlockBegin
  2
ƒOƒ‹[ƒv-1
 70
     0
 10
0.0
 20
0.0
 30
0.0
  3
ƒOƒ‹[ƒv-1
  1

  0
LINE
  5
381A
330
3818
100
AcDbEntity
  8
0
  6
Continuous
 62
     7
370
    15
390
1D
100
AcDbLine
 10
-4359.613878306024
 20
-2362.061815719423
 30
0.0
 11
-4337.513878306024
 21
-2362.061815719423
 31
0.0
  0
LINE
  5
381B
330
3818
100
AcDbEntity
  8
0
  6
Continuous
 62
     7
370
    15
390
1D
100
AcDbLine
 10
-4334.570379760076
 20
-2359.128570786954
 30
0.0
 11
-4334.570379760076
 21
-2284.835921033447
 31
0.0
  0
ARC
  5
381C
330
3818
100
AcDbEntity
  8
0
  6
Continuous
 62
     7
370
    15
390
1D
100
AcDbCircle
 10
-4337.503624692545
 20
-2359.128570786954
 30
0.0
 40
2.933244932469279
100
AcDbArc
 50
270.0
 51
0.0
  0
LINE
  5
381D
330
3818
100
AcDbEntity
  8
0
  6
Continuous
 62
     7
370
    15
390
1D
100
AcDbLine
 10
-4359.613878306024
 20
-2281.902676100978
 30
0.0
 11
-4337.513878306024
 21
-2281.902676100978
 31
0.0
  0
ARC
  5
381E
330
3818
100
AcDbEntity
  8
0
  6
Continuous
 62
     7
370
    15
390
1D
100
AcDbCircle
 10
-4337.503624692545
 20
-2284.835921033448
 30
0.0
 40
2.933244932468369
100
AcDbArc
 50
0.0
 51
90.0
  0
ENDBLK
  5
381F
330
3818
100
AcDbEntity
  8
ADF70-1705
390
1D
100
AcDbBlockEnd
  0
BLOCK
  5
38E3
330
38E2
100
AcDbEntity
  8
0
100
AcDbBlockBegin
  2
*D191
 70
     1
 10
0.0
 20
0.0
 30
0.0
  3
*D191
  1

  0
LINE
  5
38E5
330
38E2
100
AcDbEntity
  8
DIM
 62
     0
370
    -2
100
AcDbLine
 10
1484.041973609388
 20
2436.071562394003
 30
0.0
 11
1424.867821530414
 21
2436.071562394003
 31
0.0
  0
LINE
  5
38E6
330
38E2
100
AcDbEntity
  8
DIM
 62
     0
370
    -2
100
AcDbLine
 10
1484.041973609388
 20
2496.071562394003
 30
0.0
 11
1424.867821530414
 21
2496.071562394003
 31
0.0
  0
LINE
  5
38E7
330
38E2
100
AcDbEntity
  8
DIM
 62
     0
370
    -2
100
AcDbLine
 10
1424.867821530414
 20
2446.071562394003
 30
0.0
 11
1424.867821530414
 21
2486.071562394003
 31
0.0
  0
INSERT
  5
38E8
330
38E2
100
AcDbEntity
  8
DIM
 62
     0
370
    -2
100
AcDbBlockReference
  2
_DOT
 10
1424.867821530414
 20
2436.071562394003
 30
0.0
 41
10.0
 42
10.0
 43
10.0
 50
270.0
  0
INSERT
  5
38E9
330
38E2
100
AcDbEntity
  8
DIM
 62
     0
370
    -2
100
AcDbBlockReference
  2
_DOT
 10
1424.867821530414
 20
2496.071562394003
 30
0.0
 41
10.0
 42
10.0
 43
10.0
 50
90.0
  0
MTEXT
  5
38EA
330
38E2
100
AcDbEntity
  8
DIM
 62
     0
100
AcDbMText
 10
1392.867821530414
 20
2466.071562394003
 30
0.0
 40
24.0
 41
0.0
 46
0.0
 71
     5
 72
     1
  1
\A1;60
  7
ＭＳ ゴシック
 11
0.0
 21
1.0
 31
0.0
 73
     1
 44
1.0
  0
POINT
  5
38EB
330
38E2
100
AcDbEntity
  8
Defpoints
 62
     0
100
AcDbPoint
 10
1514.041973609388
 20
2436.071562394003
 30
0.0
  0
POINT
  5
38EC
330
38E2
100
AcDbEntity
  8
Defpoints
 62
     0
100
AcDbPoint
 10
1514.041973609388
 20
2496.071562394003
 30
0.0
  0
POINT
  5
38ED
330
38E2
100
AcDbEntity
  8
Defpoints
 62
     0
100
AcDbPoint
 10
1424.867821530414
 20
2496.071562394003
 30
0.0
  0
ENDBLK
  5
38E4
330
38E2
100
AcDbEntity
  8
0
100
AcDbBlockEnd
  0
BLOCK
  5
38EF
330
38EE
100
AcDbEntity
  8
0
100
AcDbBlockBegin
  2
*D192
 70
     1
 10
0.0
 20
0.0
 30
0.0
  3
*D192
  1

  0
LINE
  5
38F1
330
38EE
100
AcDbEntity
  8
DIM
 62
     0
370
    -2
100
AcDbLine
 10
1614.041973609388
 20
2259.300331338633
 30
0.0
 11
1614.041973609388
 21
2287.779100283262
 31
0.0
  0
LINE
  5
38F2
330
38EE
100
AcDbEntity
  8
DIM
 62
     0
370
    -2
100
AcDbLine
 10
1514.041973609388
 20
2259.300331338633
 30
0.0
 11
1514.041973609388
 21
2287.779100283262
 31
0.0
  0
LINE
  5
38F3
330
38EE
100
AcDbEntity
  8
DIM
 62
     0
370
    -2
100
AcDbLine
 10
1614.041973609388
 20
2287.779100283262
 30
0.0
 11
1324.009973609388
 21
2287.779100283262
 31
0.0
  0
LINE
  5
38F4
330
38EE
100
AcDbEntity
  8
DIM
 62
     0
370
    -2
100
AcDbLine
 10
1604.041973609388
 20
2287.779100283262
 30
0.0
 11
1524.041973609388
 21
2287.779100283262
 31
0.0
  0
LINE
  5
38F5
330
38EE
100
AcDbEntity
  8
DIM
 62
     0
370
    -2
100
AcDbLine
 10
1524.041973609388
 20
2287.779100283262
 30
0.0
 11
1534.041973609388
 21
2287.779100283262
 31
0.0
  0
INSERT
  5
38F6
330
38EE
100
AcDbEntity
  8
DIM
 62
     0
370
    -2
100
AcDbBlockReference
  2
_DOT
 10
1614.041973609388
 20
2287.779100283262
 30
0.0
 41
10.0
 42
10.0
 43
10.0
  0
INSERT
  5
38F7
330
38EE
100
AcDbEntity
  8
DIM
 62
     0
370
    -2
100
AcDbBlockReference
  2
_DOT
 10
1514.041973609388
 20
2287.779100283262
 30
0.0
 41
10.0
 42
10.0
 43
10.0
 50
180.0
  0
MTEXT
  5
38F8
330
38EE
100
AcDbEntity
  8
DIM
 62
     0
100
AcDbMText
 10
1409.025973609388
 20
2321.903100283262
 30
0.0
 40
24.0
 41
0.0
 46
0.0
 71
     5
 72
     1
  1
\A1;100(深さ)
  7
ＭＳ ゴシック
 73
     1
 44
1.0
  0
POINT
  5
38F9
330
38EE
100
AcDbEntity
  8
Defpoints
 62
     0
100
AcDbPoint
 10
1614.041973609388
 20
2289.300331338633
 30
0.0
  0
POINT
  5
3A18
330
38EE
100
AcDbEntity
  8
Defpoints
 62
     0
100
AcDbPoint
 10
1514.041973609388
 20
2289.300331338633
 30
0.0
  0
POINT
  5
3A19
330
38EE
100
AcDbEntity
  8
Defpoints
 62
     0
100
AcDbPoint
 10
1514.041973609388
 20
2287.779100283262
 30
0.0
  0
ENDBLK
  5
38F0
330
38EE
100
AcDbEntity
  8
0
100
AcDbBlockEnd
  0
BLOCK
  5
38FB
330
38FA
100
AcDbEntity
  8
0
100
AcDbBlockBegin
  2
*D193
 70
     1
 10
0.0
 20
0.0
 30
0.0
  3
*D193
  1

  0
LINE
  5
38FD
330
38FA
100
AcDbEntity
  8
DIM
 62
     0
370
    -2
100
AcDbLine
 10
1644.047314720306
 20
2116.071562423332
 30
0.0
 11
1644.047314720306
 21
1976.51288005715
 31
0.0
  0
LINE
  5
38FE
330
38FA
100
AcDbEntity
  8
DIM
 62
     0
370
    -2
100
AcDbLine
 10
1514.041973609388
 20
2052.529100283263
 30
0.0
 11
1514.041973609388
 21
1976.51288005715
 31
0.0
  0
LINE
  5
38FF
330
38FA
100
AcDbEntity
  8
DIM
 62
     0
370
    -2
100
AcDbLine
 10
1634.047314720306
 20
1976.51288005715
 30
0.0
 11
1524.041973609388
 21
1976.51288005715
 31
0.0
  0
INSERT
  5
3900
330
38FA
100
AcDbEntity
  8
DIM
 62
     0
370
    -2
100
AcDbBlockReference
  2
_DOT
 10
1644.047314720306
 20
1976.51288005715
 30
0.0
 41
10.0
 42
10.0
 43
10.0
  0
INSERT
  5
3901
330
38FA
100
AcDbEntity
  8
DIM
 62
     0
370
    -2
100
AcDbBlockReference
  2
_DOT
 10
1514.041973609388
 20
1976.51288005715
 30
0.0
 41
10.0
 42
10.0
 43
10.0
 50
180.0
  0
MTEXT
  5
3902
330
38FA
100
AcDbEntity
  8
DIM
 62
     0
100
AcDbMText
 10
1579.044644164847
 20
2008.51288005715
 30
0.0
 40
24.0
 41
0.0
 46
0.0
 71
     5
 72
     1
  1
\A1;130
  7
ＭＳ ゴシック
 73
     1
 44
1.0
  0
POINT
  5
3903
330
38FA
100
AcDbEntity
  8
Defpoints
 62
     0
100
AcDbPoint
 10
1644.047314720306
 20
2146.071562423332
 30
0.0
  0
POINT
  5
3904
330
38FA
100
AcDbEntity
  8
Defpoints
 62
     0
100
AcDbPoint
 10
1514.041973609388
 20
2082.529100283263
 30
0.0
  0
POINT
  5
3905
330
38FA
100
AcDbEntity
  8
Defpoints
 62
     0
100
AcDbPoint
 10
1514.041973609388
 20
1976.51288005715
 30
0.0
  0
ENDBLK
  5
38FC
330
38FA
100
AcDbEntity
  8
0
100
AcDbBlockEnd
  0
BLOCK
  5
3907
330
3906
100
AcDbEntity
  8
0
100
AcDbBlockBegin
  2
*D194
 70
     1
 10
0.0
 20
0.0
 30
0.0
  3
*D194
  1

  0
LINE
  5
3909
330
3906
100
AcDbEntity
  8
DIM
 62
     0
370
    -2
100
AcDbLine
 10
1704.080164870698
 20
2286.071562423332
 30
0.0
 11
1773.869829513368
 21
2286.071562423332
 31
0.0
  0
LINE
  5
390A
330
3906
100
AcDbEntity
  8
DIM
 62
     0
370
    -2
100
AcDbLine
 10
1679.047314720306
 20
2496.071562423332
 30
0.0
 11
1773.869829513368
 21
2496.071562423332
 31
0.0
  0
LINE
  5
390B
330
3906
100
AcDbEntity
  8
DIM
 62
     0
370
    -2
100
AcDbLine
 10
1773.869829513368
 20
2296.071562423332
 30
0.0
 11
1773.869829513368
 21
2486.071562423332
 31
0.0
  0
INSERT
  5
390C
330
3906
100
AcDbEntity
  8
DIM
 62
     0
370
    -2
100
AcDbBlockReference
  2
_DOT
 10
1773.869829513368
 20
2286.071562423332
 30
0.0
 41
10.0
 42
10.0
 43
10.0
 50
270.0
  0
INSERT
  5
390D
330
3906
100
AcDbEntity
  8
DIM
 62
     0
370
    -2
100
AcDbBlockReference
  2
_DOT
 10
1773.869829513368
 20
2496.071562423332
 30
0.0
 41
10.0
 42
10.0
 43
10.0
 50
90.0
  0
MTEXT
  5
390E
330
3906
100
AcDbEntity
  8
DIM
 62
     0
100
AcDbMText
 10
1741.869829513368
 20
2391.071562423332
 30
0.0
 40
24.0
 41
0.0
 46
0.0
 71
     5
 72
     1
  1
\A1;210
  7
ＭＳ ゴシック
 11
0.0
 21
1.0
 31
0.0
 73
     1
 44
1.0
  0
POINT
  5
390F
330
3906
100
AcDbEntity
  8
Defpoints
 62
     0
100
AcDbPoint
 10
1674.080164870698
 20
2286.071562423332
 30
0.0
  0
POINT
  5
3910
330
3906
100
AcDbEntity
  8
Defpoints
 62
     0
100
AcDbPoint
 10
1649.047314720306
 20
2496.071562423332
 30
0.0
  0
POINT
  5
3911
330
3906
100
AcDbEntity
  8
Defpoints
 62
     0
100
AcDbPoint
 10
1773.869829513368
 20
2496.071562423332
 30
0.0
  0
ENDBLK
  5
3908
330
3906
100
AcDbEntity
  8
0
100
AcDbBlockEnd
  0
BLOCK
  5
3913
330
3912
100
AcDbEntity
  8
0
100
AcDbBlockBegin
  2
*D195
 70
     1
 10
0.0
 20
0.0
 30
0.0
  3
*D195
  1

  0
LINE
  5
3915
330
3912
100
AcDbEntity
  8
DIM
 62
     0
370
    -2
100
AcDbLine
 10
1679.047314720306
 20
2146.071562225995
 30
0.0
 11
1866.386271290184
 21
2146.071562225995
 31
0.0
  0
LINE
  5
3916
330
3912
100
AcDbEntity
  8
DIM
 62
     0
370
    -2
100
AcDbLine
 10
1679.047314720305
 20
2496.071562225995
 30
0.0
 11
1866.386271290184
 21
2496.071562225995
 31
0.0
  0
LINE
  5
3917
330
3912
100
AcDbEntity
  8
DIM
 62
     0
370
    -2
100
AcDbLine
 10
1866.386271290184
 20
2156.071562225995
 30
0.0
 11
1866.386271290184
 21
2486.071562225995
 31
0.0
  0
INSERT
  5
3918
330
3912
100
AcDbEntity
  8
DIM
 62
     0
370
    -2
100
AcDbBlockReference
  2
_DOT
 10
1866.386271290184
 20
2146.071562225995
 30
0.0
 41
10.0
 42
10.0
 43
10.0
 50
270.0
  0
INSERT
  5
3919
330
3912
100
AcDbEntity
  8
DIM
 62
     0
370
    -2
100
AcDbBlockReference
  2
_DOT
 10
1866.386271290184
 20
2496.071562225995
 30
0.0
 41
10.0
 42
10.0
 43
10.0
 50
90.0
  0
MTEXT
  5
391A
330
3912
100
AcDbEntity
  8
DIM
 62
     0
100
AcDbMText
 10
1834.386271290184
 20
2325.353806622863
 30
0.0
 40
24.0
 41
0.0
 46
0.0
 71
     5
 72
     1
  1
\A1;350
  7
ＭＳ ゴシック
 11
0.0
 21
1.0
 31
0.0
 73
     1
 44
1.0
  0
POINT
  5
391B
330
3912
100
AcDbEntity
  8
Defpoints
 62
     0
100
AcDbPoint
 10
1649.047314720306
 20
2146.071562225995
 30
0.0
  0
POINT
  5
391C
330
3912
100
AcDbEntity
  8
Defpoints
 62
     0
100
AcDbPoint
 10
1649.047314720305
 20
2496.071562225995
 30
0.0
  0
POINT
  5
391D
330
3912
100
AcDbEntity
  8
Defpoints
 62
     0
100
AcDbPoint
 10
1866.386271290184
 20
2496.071562225995
 30
0.0
  0
ENDBLK
  5
3914
330
3912
100
AcDbEntity
  8
0
100
AcDbBlockEnd
  0
BLOCK
  5
3920
330
391F
100
AcDbEntity
  8
0
100
AcDbBlockBegin
  2
*D196
 70
     1
 10
0.0
 20
0.0
 30
0.0
  3
*D196
  1

  0
LINE
  5
3922
330
391F
100
AcDbEntity
  8
DIM
 62
     0
370
    -2
100
AcDbLine
 10
415.0590937587563
 20
2541.024264650969
 30
0.0
 11
415.0590937587563
 21
2585.624264650969
 31
0.0
  0
LINE
  5
3923
330
391F
100
AcDbEntity
  8
DIM
 62
     0
370
    -2
100
AcDbLine
 10
685.0590937587563
 20
2541.024264650969
 30
0.0
 11
685.0590937587563
 21
2585.624264650969
 31
0.0
  0
LINE
  5
3924
330
391F
100
AcDbEntity
  8
DIM
 62
     0
370
    -2
100
AcDbLine
 10
425.0590937587563
 20
2585.624264650969
 30
0.0
 11
675.0590937587563
 21
2585.624264650969
 31
0.0
  0
INSERT
  5
3925
330
391F
100
AcDbEntity
  8
DIM
 62
     0
370
    -2
100
AcDbBlockReference
  2
_DOT
 10
415.0590937587563
 20
2585.624264650969
 30
0.0
 41
10.0
 42
10.0
 43
10.0
 50
180.0
  0
INSERT
  5
3926
330
391F
100
AcDbEntity
  8
DIM
 62
     0
370
    -2
100
AcDbBlockReference
  2
_DOT
 10
685.0590937587563
 20
2585.624264650969
 30
0.0
 41
10.0
 42
10.0
 43
10.0
  0
MTEXT
  5
3927
330
391F
100
AcDbEntity
  8
DIM
 62
     0
100
AcDbMText
 10
550.0590937587563
 20
2617.624264650969
 30
0.0
 40
24.0
 41
0.0
 46
0.0
 71
     5
 72
     1
  1
\A1;270
  7
ＭＳ ゴシック
 73
     1
 44
1.0
  0
POINT
  5
3928
330
391F
100
AcDbEntity
  8
Defpoints
 62
     0
100
AcDbPoint
 10
415.0590937587563
 20
2511.024264650969
 30
0.0
  0
POINT
  5
3929
330
391F
100
AcDbEntity
  8
Defpoints
 62
     0
100
AcDbPoint
 10
685.0590937587563
 20
2511.024264650969
 30
0.0
  0
POINT
  5
392A
330
391F
100
AcDbEntity
  8
Defpoints
 62
     0
100
AcDbPoint
 10
685.0590937587563
 20
2585.624264650969
 30
0.0
  0
ENDBLK
  5
3921
330
391F
100
AcDbEntity
  8
0
100
AcDbBlockEnd
  0
BLOCK
  5
392C
330
392B
100
AcDbEntity
  8
0
100
AcDbBlockBegin
  2
*D197
 70
     1
 10
0.0
 20
0.0
 30
0.0
  3
*D197
  1

  0
LINE
  5
392E
330
392B
100
AcDbEntity
  8
DIM
 62
     0
370
    -2
100
AcDbLine
 10
715.0590937587563
 20
2061.024264650969
 30
0.0
 11
794.6129992300962
 21
2061.024264650969
 31
0.0
  0
LINE
  5
392F
330
392B
100
AcDbEntity
  8
DIM
 62
     0
370
    -2
100
AcDbLine
 10
715.0590937587563
 20
2511.024264650969
 30
0.0
 11
794.6129992300962
 21
2511.024264650969
 31
0.0
  0
LINE
  5
3930
330
392B
100
AcDbEntity
  8
DIM
 62
     0
370
    -2
100
AcDbLine
 10
794.6129992300962
 20
2071.024264650969
 30
0.0
 11
794.6129992300962
 21
2501.024264650969
 31
0.0
  0
INSERT
  5
3931
330
392B
100
AcDbEntity
  8
DIM
 62
     0
370
    -2
100
AcDbBlockReference
  2
_DOT
 10
794.6129992300962
 20
2061.024264650969
 30
0.0
 41
10.0
 42
10.0
 43
10.0
 50
270.0
  0
INSERT
  5
3932
330
392B
100
AcDbEntity
  8
DIM
 62
     0
370
    -2
100
AcDbBlockReference
  2
_DOT
 10
794.6129992300962
 20
2511.024264650969
 30
0.0
 41
10.0
 42
10.0
 43
10.0
 50
90.0
  0
MTEXT
  5
3933
330
392B
100
AcDbEntity
  8
DIM
 62
     0
100
AcDbMText
 10
762.6129992300962
 20
2286.024264650969
 30
0.0
 40
24.0
 41
0.0
 46
0.0
 71
     5
 72
     1
  1
\A1;450
  7
ＭＳ ゴシック
 11
0.0
 21
1.0
 31
0.0
 73
     1
 44
1.0
  0
POINT
  5
3934
330
392B
100
AcDbEntity
  8
Defpoints
 62
     0
100
AcDbPoint
 10
685.0590937587563
 20
2061.024264650969
 30
0.0
  0
POINT
  5
3935
330
392B
100
AcDbEntity
  8
Defpoints
 62
     0
100
AcDbPoint
 10
685.0590937587563
 20
2511.024264650969
 30
0.0
  0
POINT
  5
3936
330
392B
100
AcDbEntity
  8
Defpoints
 62
     0
100
AcDbPoint
 10
794.6129992300962
 20
2511.024264650969
 30
0.0
  0
ENDBLK
  5
392D
330
392B
100
AcDbEntity
  8
0
100
AcDbBlockEnd
  0
BLOCK
  5
3938
330
3937
100
AcDbEntity
  8
0
100
AcDbBlockBegin
  2
*D198
 70
     1
 10
0.0
 20
0.0
 30
0.0
  3
*D198
  1

  0
LINE
  5
393A
330
3937
100
AcDbEntity
  8
DIM
 62
     0
370
    -2
100
AcDbLine
 10
390.0590937587563
 20
1421.694266418897
 30
0.0
 11
265.0590937587563
 21
1421.694266418897
 31
0.0
  0
LINE
  5
393B
330
3937
100
AcDbEntity
  8
DIM
 62
     0
370
    -2
100
AcDbLine
 10
390.0590937587563
 20
621.6942664188966
 30
0.0
 11
265.0590937587563
 21
621.6942664188966
 31
0.0
  0
LINE
  5
393C
330
3937
100
AcDbEntity
  8
DIM
 62
     0
370
    -2
100
AcDbLine
 10
265.0590937587563
 20
1411.694266418897
 30
0.0
 11
265.0590937587563
 21
631.6942664188966
 31
0.0
  0
INSERT
  5
393D
330
3937
100
AcDbEntity
  8
DIM
 62
     0
370
    -2
100
AcDbBlockReference
  2
_DOT
 10
265.0590937587563
 20
1421.694266418897
 30
0.0
 41
10.0
 42
10.0
 43
10.0
 50
90.0
  0
INSERT
  5
393E
330
3937
100
AcDbEntity
  8
DIM
 62
     0
370
    -2
100
AcDbBlockReference
  2
_DOT
 10
265.0590937587563
 20
621.6942664188966
 30
0.0
 41
10.0
 42
10.0
 43
10.0
 50
270.0
  0
MTEXT
  5
393F
330
3937
100
AcDbEntity
  8
DIM
 62
     0
100
AcDbMText
 10
233.0590937587563
 20
1021.694266418897
 30
0.0
 40
24.0
 41
0.0
 46
0.0
 71
     5
 72
     1
  1
\A1;800
  7
ＭＳ ゴシック
 11
7.105427357601002E-17
 21
1.0
 31
0.0
 73
     1
 44
1.0
  0
POINT
  5
3940
330
3937
100
AcDbEntity
  8
Defpoints
 62
     0
100
AcDbPoint
 10
420.0590937587563
 20
1421.694266418897
 30
0.0
  0
POINT
  5
3941
330
3937
100
AcDbEntity
  8
Defpoints
 62
     0
100
AcDbPoint
 10
420.0590937587563
 20
621.6942664188966
 30
0.0
  0
POINT
  5
3942
330
3937
100
AcDbEntity
  8
Defpoints
 62
     0
100
AcDbPoint
 10
265.0590937587563
 20
621.6942664188966
 30
0.0
  0
ENDBLK
  5
3939
330
3937
100
AcDbEntity
  8
0
100
AcDbBlockEnd
  0
BLOCK
  5
3944
330
3943
100
AcDbEntity
  8
0
100
AcDbBlockBegin
  2
*D199
 70
     1
 10
0.0
 20
0.0
 30
0.0
  3
*D199
  1

  0
LINE
  5
3946
330
3943
100
AcDbEntity
  8
DIM
 62
     0
370
    -2
100
AcDbLine
 10
425.9828885465045
 20
1021.694266418895
 30
0.0
 11
349.8208513318532
 21
1021.694266418895
 31
0.0
  0
LINE
  5
3947
330
3943
100
AcDbEntity
  8
DIM
 62
     0
370
    -2
100
AcDbLine
 10
428.4828885465045
 20
921.6942664188985
 30
0.0
 11
349.8208513318532
 21
921.6942664188985
 31
0.0
  0
LINE
  5
3948
330
3943
100
AcDbEntity
  8
DIM
 62
     0
370
    -2
100
AcDbLine
 10
349.8208513318532
 20
1011.694266418895
 30
0.0
 11
349.8208513318532
 21
931.6942664188985
 31
0.0
  0
INSERT
  5
3949
330
3943
100
AcDbEntity
  8
DIM
 62
     0
370
    -2
100
AcDbBlockReference
  2
_DOT
 10
349.8208513318532
 20
1021.694266418895
 30
0.0
 41
10.0
 42
10.0
 43
10.0
 50
90.0
  0
INSERT
  5
394A
330
3943
100
AcDbEntity
  8
DIM
 62
     0
370
    -2
100
AcDbBlockReference
  2
_DOT
 10
349.8208513318532
 20
921.6942664188985
 30
0.0
 41
10.0
 42
10.0
 43
10.0
 50
270.0
  0
MTEXT
  5
394B
330
3943
100
AcDbEntity
  8
DIM
 62
     0
100
AcDbMText
 10
317.8208513318532
 20
971.6942664188966
 30
0.0
 40
24.0
 41
0.0
 46
0.0
 71
     5
 72
     1
  1
\A1;100
  7
ＭＳ ゴシック
 11
0.0
 21
1.0
 31
0.0
 73
     1
 44
1.0
  0
POINT
  5
394C
330
3943
100
AcDbEntity
  8
Defpoints
 62
     0
100
AcDbPoint
 10
455.9828885465045
 20
1021.694266418895
 30
0.0
  0
POINT
  5
394D
330
3943
100
AcDbEntity
  8
Defpoints
 62
     0
100
AcDbPoint
 10
458.4828885465045
 20
921.6942664188985
 30
0.0
  0
POINT
  5
394E
330
3943
100
AcDbEntity
  8
Defpoints
 62
     0
100
AcDbPoint
 10
349.8208513318532
 20
921.6942664188985
 30
0.0
  0
ENDBLK
  5
3945
330
3943
100
AcDbEntity
  8
0
100
AcDbBlockEnd
  0
BLOCK
  5
3950
330
394F
100
AcDbEntity
  8
0
100
AcDbBlockBegin
  2
*D200
 70
     1
 10
0.0
 20
0.0
 30
0.0
  3
*D200
  1

  0
LINE
  5
3952
330
394F
100
AcDbEntity
  8
DIM
 62
     0
370
    -2
100
AcDbLine
 10
428.4828885465045
 20
1121.694266418898
 30
0.0
 11
349.8208513318532
 21
1121.694266418898
 31
0.0
  0
LINE
  5
3953
330
394F
100
AcDbEntity
  8
DIM
 62
     0
370
    -2
100
AcDbLine
 10
425.9828885465045
 20
1021.694266418895
 30
0.0
 11
349.8208513318532
 21
1021.694266418895
 31
0.0
  0
LINE
  5
3954
330
394F
100
AcDbEntity
  8
DIM
 62
     0
370
    -2
100
AcDbLine
 10
349.8208513318532
 20
1111.694266418898
 30
0.0
 11
349.8208513318532
 21
1031.694266418895
 31
0.0
  0
INSERT
  5
3955
330
394F
100
AcDbEntity
  8
DIM
 62
     0
370
    -2
100
AcDbBlockReference
  2
_DOT
 10
349.8208513318532
 20
1121.694266418898
 30
0.0
 41
10.0
 42
10.0
 43
10.0
 50
90.0
  0
INSERT
  5
3956
330
394F
100
AcDbEntity
  8
DIM
 62
     0
370
    -2
100
AcDbBlockReference
  2
_DOT
 10
349.8208513318532
 20
1021.694266418895
 30
0.0
 41
10.0
 42
10.0
 43
10.0
 50
270.0
  0
MTEXT
  5
3957
330
394F
100
AcDbEntity
  8
DIM
 62
     0
100
AcDbMText
 10
317.8208513318532
 20
1071.694266418897
 30
0.0
 40
24.0
 41
0.0
 46
0.0
 71
     5
 72
     1
  1
\A1;100
  7
ＭＳ ゴシック
 11
0.0
 21
1.0
 31
0.0
 73
     1
 44
1.0
  0
POINT
  5
3958
330
394F
100
AcDbEntity
  8
Defpoints
 62
     0
100
AcDbPoint
 10
458.4828885465045
 20
1121.694266418898
 30
0.0
  0
POINT
  5
3959
330
394F
100
AcDbEntity
  8
Defpoints
 62
     0
100
AcDbPoint
 10
455.9828885465045
 20
1021.694266418895
 30
0.0
  0
POINT
  5
395A
330
394F
100
AcDbEntity
  8
Defpoints
 62
     0
100
AcDbPoint
 10
349.8208513318532
 20
1021.694266418895
 30
0.0
  0
ENDBLK
  5
3951
330
394F
100
AcDbEntity
  8
0
100
AcDbBlockEnd
  0
BLOCK
  5
395C
330
395B
100
AcDbEntity
  8
0
100
AcDbBlockBegin
  2
*D201
 70
     1
 10
0.0
 20
0.0
 30
0.0
  3
*D201
  1

  0
LINE
  5
395E
330
395B
100
AcDbEntity
  8
DIM
 62
     0
370
    -2
100
AcDbLine
 10
851.6894372003385
 20
636.6942664188975
 30
0.0
 11
938.0590937587563
 21
636.6942664188975
 31
0.0
  0
LINE
  5
395F
330
395B
100
AcDbEntity
  8
DIM
 62
     0
370
    -2
100
AcDbLine
 10
851.6894372003567
 20
1406.694266418898
 30
0.0
 11
938.0590937587563
 21
1406.694266418898
 31
0.0
  0
LINE
  5
3960
330
395B
100
AcDbEntity
  8
DIM
 62
     0
370
    -2
100
AcDbLine
 10
938.0590937587563
 20
646.6942664188975
 30
0.0
 11
938.0590937587563
 21
1396.694266418898
 31
0.0
  0
INSERT
  5
3961
330
395B
100
AcDbEntity
  8
DIM
 62
     0
370
    -2
100
AcDbBlockReference
  2
_DOT
 10
938.0590937587563
 20
636.6942664188975
 30
0.0
 41
10.0
 42
10.0
 43
10.0
 50
270.0
  0
INSERT
  5
3962
330
395B
100
AcDbEntity
  8
DIM
 62
     0
370
    -2
100
AcDbBlockReference
  2
_DOT
 10
938.0590937587563
 20
1406.694266418898
 30
0.0
 41
10.0
 42
10.0
 43
10.0
 50
90.0
  0
MTEXT
  5
3963
330
395B
100
AcDbEntity
  8
DIM
 62
     0
100
AcDbMText
 10
906.0590937587563
 20
1021.694266418898
 30
0.0
 40
24.0
 41
0.0
 46
0.0
 71
     5
 72
     1
  1
\A1;770
  7
ＭＳ ゴシック
 11
0.0
 21
1.0
 31
0.0
 73
     1
 44
1.0
  0
POINT
  5
3964
330
395B
100
AcDbEntity
  8
Defpoints
 62
     0
100
AcDbPoint
 10
821.6894372003385
 20
636.6942664188975
 30
0.0
  0
POINT
  5
3965
330
395B
100
AcDbEntity
  8
Defpoints
 62
     0
100
AcDbPoint
 10
821.6894372003567
 20
1406.694266418898
 30
0.0
  0
POINT
  5
3966
330
395B
100
AcDbEntity
  8
Defpoints
 62
     0
100
AcDbPoint
 10
938.0590937587563
 20
1406.694266418898
 30
0.0
  0
ENDBLK
  5
395D
330
395B
100
AcDbEntity
  8
0
100
AcDbBlockEnd
  0
BLOCK
  5
3968
330
3967
100
AcDbEntity
  8
0
100
AcDbBlockBegin
  2
*D202
 70
     1
 10
0.0
 20
0.0
 30
0.0
  3
*D202
  1

  0
LINE
  5
396A
330
3967
100
AcDbEntity
  8
DIM
 62
     0
370
    -2
100
AcDbLine
 10
535.0590937587563
 20
591.6942664188966
 30
0.0
 11
535.0590937587563
 21
523.6942664188962
 31
0.0
  0
LINE
  5
396B
330
3967
100
AcDbEntity
  8
DIM
 62
     0
370
    -2
100
AcDbLine
 10
820.0129992300958
 20
603.2371744184768
 30
0.0
 11
820.0129992300958
 21
523.6942664188962
 31
0.0
  0
LINE
  5
396C
330
3967
100
AcDbEntity
  8
DIM
 62
     0
370
    -2
100
AcDbLine
 10
545.0590937587563
 20
523.6942664188962
 30
0.0
 11
810.0129992300958
 21
523.6942664188962
 31
0.0
  0
INSERT
  5
396D
330
3967
100
AcDbEntity
  8
DIM
 62
     0
370
    -2
100
AcDbBlockReference
  2
_DOT
 10
535.0590937587563
 20
523.6942664188962
 30
0.0
 41
10.0
 42
10.0
 43
10.0
 50
180.0
  0
INSERT
  5
396E
330
3967
100
AcDbEntity
  8
DIM
 62
     0
370
    -2
100
AcDbBlockReference
  2
_DOT
 10
820.0129992300958
 20
523.6942664188962
 30
0.0
 41
10.0
 42
10.0
 43
10.0
  0
MTEXT
  5
396F
330
3967
100
AcDbEntity
  8
DIM
 62
     0
100
AcDbMText
 10
677.536046494426
 20
555.6942664188962
 30
0.0
 40
24.0
 41
0.0
 46
0.0
 71
     5
 72
     1
  1
\A1;285
  7
ＭＳ ゴシック
 73
     1
 44
1.0
  0
POINT
  5
3970
330
3967
100
AcDbEntity
  8
Defpoints
 62
     0
100
AcDbPoint
 10
535.0590937587563
 20
621.6942664188966
 30
0.0
  0
POINT
  5
3971
330
3967
100
AcDbEntity
  8
Defpoints
 62
     0
100
AcDbPoint
 10
820.0129992300958
 20
633.2371744184768
 30
0.0
  0
POINT
  5
3972
330
3967
100
AcDbEntity
  8
Defpoints
 62
     0
100
AcDbPoint
 10
820.0129992300958
 20
523.6942664188962
 30
0.0
  0
ENDBLK
  5
3969
330
3967
100
AcDbEntity
  8
0
100
AcDbBlockEnd
  0
BLOCK
  5
3974
330
3973
100
AcDbEntity
  8
0
100
AcDbBlockBegin
  2
*D203
 70
     1
 10
0.0
 20
0.0
 30
0.0
  3
*D203
  1

  0
LINE
  5
3976
330
3973
100
AcDbEntity
  8
DIM
 62
     0
370
    -2
100
AcDbLine
 10
415.0590937587563
 20
596.6942664188966
 30
0.0
 11
415.0590937587563
 21
523.6942664188966
 31
0.0
  0
LINE
  5
3977
330
3973
100
AcDbEntity
  8
DIM
 62
     0
370
    -2
100
AcDbLine
 10
535.0590937587563
 20
591.6942664188966
 30
0.0
 11
535.0590937587563
 21
523.6942664188966
 31
0.0
  0
LINE
  5
3978
330
3973
100
AcDbEntity
  8
DIM
 62
     0
370
    -2
100
AcDbLine
 10
425.0590937587563
 20
523.6942664188966
 30
0.0
 11
525.0590937587563
 21
523.6942664188966
 31
0.0
  0
INSERT
  5
3979
330
3973
100
AcDbEntity
  8
DIM
 62
     0
370
    -2
100
AcDbBlockReference
  2
_DOT
 10
415.0590937587563
 20
523.6942664188966
 30
0.0
 41
10.0
 42
10.0
 43
10.0
 50
180.0
  0
INSERT
  5
397A
330
3973
100
AcDbEntity
  8
DIM
 62
     0
370
    -2
100
AcDbBlockReference
  2
_DOT
 10
535.0590937587563
 20
523.6942664188966
 30
0.0
 41
10.0
 42
10.0
 43
10.0
  0
MTEXT
  5
397B
330
3973
100
AcDbEntity
  8
DIM
 62
     0
100
AcDbMText
 10
475.0590937587563
 20
555.6942664188966
 30
0.0
 40
24.0
 41
0.0
 46
0.0
 71
     5
 72
     1
  1
\A1;120
  7
ＭＳ ゴシック
 73
     1
 44
1.0
  0
POINT
  5
397C
330
3973
100
AcDbEntity
  8
Defpoints
 62
     0
100
AcDbPoint
 10
415.0590937587563
 20
626.6942664188966
 30
0.0
  0
POINT
  5
397D
330
3973
100
AcDbEntity
  8
Defpoints
 62
     0
100
AcDbPoint
 10
535.0590937587563
 20
621.6942664188966
 30
0.0
  0
POINT
  5
397E
330
3973
100
AcDbEntity
  8
Defpoints
 62
     0
100
AcDbPoint
 10
535.0590937587563
 20
523.6942664188966
 30
0.0
  0
ENDBLK
  5
3975
330
3973
100
AcDbEntity
  8
0
100
AcDbBlockEnd
  0
BLOCK
  5
3980
330
397F
100
AcDbEntity
  8
0
100
AcDbBlockBegin
  2
*D204
 70
     1
 10
0.0
 20
0.0
 30
0.0
  3
*D204
  1

  0
LINE
  5
3982
330
397F
100
AcDbEntity
  8
DIM
 62
     0
370
    -2
100
AcDbLine
 10
835.0590937587563
 20
1418.752988528128
 30
0.0
 11
835.0590937587563
 21
1521.694266418897
 31
0.0
  0
LINE
  5
3983
330
397F
100
AcDbEntity
  8
DIM
 62
     0
370
    -2
100
AcDbLine
 10
415.0590937587563
 20
1446.694266418897
 30
0.0
 11
415.0590937587563
 21
1521.694266418897
 31
0.0
  0
LINE
  5
3984
330
397F
100
AcDbEntity
  8
DIM
 62
     0
370
    -2
100
AcDbLine
 10
825.0590937587563
 20
1521.694266418897
 30
0.0
 11
425.0590937587563
 21
1521.694266418897
 31
0.0
  0
INSERT
  5
3985
330
397F
100
AcDbEntity
  8
DIM
 62
     0
370
    -2
100
AcDbBlockReference
  2
_DOT
 10
835.0590937587563
 20
1521.694266418897
 30
0.0
 41
10.0
 42
10.0
 43
10.0
  0
INSERT
  5
3986
330
397F
100
AcDbEntity
  8
DIM
 62
     0
370
    -2
100
AcDbBlockReference
  2
_DOT
 10
415.0590937587563
 20
1521.694266418897
 30
0.0
 41
10.0
 42
10.0
 43
10.0
 50
180.0
  0
MTEXT
  5
3987
330
397F
100
AcDbEntity
  8
DIM
 62
     0
100
AcDbMText
 10
625.0590937587563
 20
1553.694266418897
 30
0.0
 40
24.0
 41
0.0
 46
0.0
 71
     5
 72
     1
  1
\A1;420
  7
ＭＳ ゴシック
 73
     1
 44
1.0
  0
POINT
  5
3988
330
397F
100
AcDbEntity
  8
Defpoints
 62
     0
100
AcDbPoint
 10
835.0590937587563
 20
1388.752988528128
 30
0.0
  0
POINT
  5
3989
330
397F
100
AcDbEntity
  8
Defpoints
 62
     0
100
AcDbPoint
 10
415.0590937587563
 20
1416.694266418897
 30
0.0
  0
POINT
  5
398A
330
397F
100
AcDbEntity
  8
Defpoints
 62
     0
100
AcDbPoint
 10
415.0590937587563
 20
1521.694266418897
 30
0.0
  0
ENDBLK
  5
3981
330
397F
100
AcDbEntity
  8
0
100
AcDbBlockEnd
  0
BLOCK
  5
398C
330
398B
100
AcDbEntity
  8
0
100
AcDbBlockBegin
  2
*D205
 70
     1
 10
0.0
 20
0.0
 30
0.0
  3
*D205
  1

  0
LINE
  5
398E
330
398B
100
AcDbEntity
  8
DIM
 62
     0
370
    -2
100
AcDbLine
 10
1504.019829513367
 20
886.4246559747282
 30
0.0
 11
1414.041973609388
 21
886.4246559747282
 31
0.0
  0
LINE
  5
398F
330
398B
100
AcDbEntity
  8
DIM
 62
     0
370
    -2
100
AcDbLine
 10
1504.019829513367
 20
1166.424655974728
 30
0.0
 11
1414.041973609388
 21
1166.424655974728
 31
0.0
  0
LINE
  5
3990
330
398B
100
AcDbEntity
  8
DIM
 62
     0
370
    -2
100
AcDbLine
 10
1414.041973609388
 20
896.4246559747282
 30
0.0
 11
1414.041973609388
 21
1156.424655974728
 31
0.0
  0
INSERT
  5
3991
330
398B
100
AcDbEntity
  8
DIM
 62
     0
370
    -2
100
AcDbBlockReference
  2
_DOT
 10
1414.041973609388
 20
886.4246559747282
 30
0.0
 41
10.0
 42
10.0
 43
10.0
 50
270.0
  0
INSERT
  5
3992
330
398B
100
AcDbEntity
  8
DIM
 62
     0
370
    -2
100
AcDbBlockReference
  2
_DOT
 10
1414.041973609388
 20
1166.424655974728
 30
0.0
 41
10.0
 42
10.0
 43
10.0
 50
90.0
  0
MTEXT
  5
3993
330
398B
100
AcDbEntity
  8
DIM
 62
     0
100
AcDbMText
 10
1382.041973609388
 20
1026.424655974728
 30
0.0
 40
24.0
 41
0.0
 46
0.0
 71
     5
 72
     1
  1
\A1;280
  7
ＭＳ ゴシック
 11
0.0
 21
1.0
 31
0.0
 73
     1
 44
1.0
  0
POINT
  5
3994
330
398B
100
AcDbEntity
  8
Defpoints
 62
     0
100
AcDbPoint
 10
1534.019829513367
 20
886.4246559747282
 30
0.0
  0
POINT
  5
3995
330
398B
100
AcDbEntity
  8
Defpoints
 62
     0
100
AcDbPoint
 10
1534.019829513367
 20
1166.424655974728
 30
0.0
  0
POINT
  5
3996
330
398B
100
AcDbEntity
  8
Defpoints
 62
     0
100
AcDbPoint
 10
1414.041973609388
 20
1166.424655974728
 30
0.0
  0
ENDBLK
  5
398D
330
398B
100
AcDbEntity
  8
0
100
AcDbBlockEnd
  0
BLOCK
  5
3998
330
3997
100
AcDbEntity
  8
0
100
AcDbBlockBegin
  2
*D206
 70
     1
 10
0.0
 20
0.0
 30
0.0
  3
*D206
  1

  0
LINE
  5
399A
330
3997
100
AcDbEntity
  8
DIM
 62
     0
370
    -2
100
AcDbLine
 10
1514.041973609388
 20
597.6933957075064
 30
0.0
 11
1514.041973609388
 21
523.6942664188962
 31
0.0
  0
LINE
  5
399B
330
3997
100
AcDbEntity
  8
DIM
 62
     0
370
    -2
100
AcDbLine
 10
1554.018116975716
 20
836.4229434370766
 30
0.0
 11
1554.018116975716
 21
523.6942664188962
 31
0.0
  0
LINE
  5
399C
330
3997
100
AcDbEntity
  8
DIM
 62
     0
370
    -2
100
AcDbLine
 10
1524.041973609388
 20
523.6942664188962
 30
0.0
 11
1544.018116975716
 21
523.6942664188962
 31
0.0
  0
INSERT
  5
399D
330
3997
100
AcDbEntity
  8
DIM
 62
     0
370
    -2
100
AcDbBlockReference
  2
_DOT
 10
1514.041973609388
 20
523.6942664188962
 30
0.0
 41
10.0
 42
10.0
 43
10.0
 50
180.0
  0
INSERT
  5
399E
330
3997
100
AcDbEntity
  8
DIM
 62
     0
370
    -2
100
AcDbBlockReference
  2
_DOT
 10
1554.018116975716
 20
523.6942664188962
 30
0.0
 41
10.0
 42
10.0
 43
10.0
  0
MTEXT
  5
399F
330
3997
100
AcDbEntity
  8
DIM
 62
     0
100
AcDbMText
 10
1534.030045292552
 20
555.6942664188962
 30
0.0
 40
24.0
 41
0.0
 46
0.0
 71
     5
 72
     1
  1
\A1;40
  7
ＭＳ ゴシック
 73
     1
 44
1.0
  0
POINT
  5
39A0
330
3997
100
AcDbEntity
  8
Defpoints
 62
     0
100
AcDbPoint
 10
1514.041973609388
 20
627.6933957075064
 30
0.0
  0
POINT
  5
39A1
330
3997
100
AcDbEntity
  8
Defpoints
 62
     0
100
AcDbPoint
 10
1554.018116975716
 20
866.4229434370766
 30
0.0
  0
POINT
  5
39A2
330
3997
100
AcDbEntity
  8
Defpoints
 62
     0
100
AcDbPoint
 10
1554.018116975716
 20
523.6942664188962
 30
0.0
  0
ENDBLK
  5
3999
330
3997
100
AcDbEntity
  8
0
100
AcDbBlockEnd
  0
BLOCK
  5
39A6
330
39A5
100
AcDbEntity
  8
0
100
AcDbBlockBegin
  2
*D207
 70
     1
 10
0.0
 20
0.0
 30
0.0
  3
*D207
  1

  0
LINE
  5
39A8
330
39A5
100
AcDbEntity
  8
DIM
 62
     0
370
    -2
100
AcDbLine
 10
1669.076143375361
 20
1093.56926831383
 30
0.0
 11
1669.076143375361
 21
1521.694266418897
 31
0.0
  0
LINE
  5
39A9
330
39A5
100
AcDbEntity
  8
DIM
 62
     0
370
    -2
100
AcDbLine
 10
1514.041973609388
 20
1441.672304661239
 30
0.0
 11
1514.041973609388
 21
1521.694266418897
 31
0.0
  0
LINE
  5
39AA
330
39A5
100
AcDbEntity
  8
DIM
 62
     0
370
    -2
100
AcDbLine
 10
1659.076143375361
 20
1521.694266418897
 30
0.0
 11
1524.041973609388
 21
1521.694266418897
 31
0.0
  0
INSERT
  5
39AB
330
39A5
100
AcDbEntity
  8
DIM
 62
     0
370
    -2
100
AcDbBlockReference
  2
_DOT
 10
1669.076143375361
 20
1521.694266418897
 30
0.0
 41
10.0
 42
10.0
 43
10.0
  0
INSERT
  5
39AC
330
39A5
100
AcDbEntity
  8
DIM
 62
     0
370
    -2
100
AcDbBlockReference
  2
_DOT
 10
1514.041973609388
 20
1521.694266418897
 30
0.0
 41
10.0
 42
10.0
 43
10.0
 50
180.0
  0
MTEXT
  5
39AD
330
39A5
100
AcDbEntity
  8
DIM
 62
     0
100
AcDbMText
 10
1591.559058492374
 20
1553.694266418897
 30
0.0
 40
24.0
 41
0.0
 46
0.0
 71
     5
 72
     1
  1
\A1;155
  7
ＭＳ ゴシック
 73
     1
 44
1.0
  0
POINT
  5
39AE
330
39A5
100
AcDbEntity
  8
Defpoints
 62
     0
100
AcDbPoint
 10
1669.076143375361
 20
1063.56926831383
 30
0.0
  0
POINT
  5
39AF
330
39A5
100
AcDbEntity
  8
Defpoints
 62
     0
100
AcDbPoint
 10
1514.041973609388
 20
1411.672304661239
 30
0.0
  0
POINT
  5
39B0
330
39A5
100
AcDbEntity
  8
Defpoints
 62
     0
100
AcDbPoint
 10
1514.041973609388
 20
1521.694266418897
 30
0.0
  0
ENDBLK
  5
39A7
330
39A5
100
AcDbEntity
  8
0
100
AcDbBlockEnd
  0
BLOCK
  5
39B2
330
39B1
100
AcDbEntity
  8
0
100
AcDbBlockBegin
  2
*D208
 70
     1
 10
0.0
 20
0.0
 30
0.0
  3
*D208
  1

  0
LINE
  5
39B4
330
39B1
100
AcDbEntity
  8
DIM
 62
     0
370
    -2
100
AcDbLine
 10
1674.032644829413
 20
1346.694266418897
 30
0.0
 11
1769.076143375361
 21
1346.694266418897
 31
0.0
  0
LINE
  5
39B5
330
39B1
100
AcDbEntity
  8
DIM
 62
     0
370
    -2
100
AcDbLine
 10
1674.032644829413
 20
696.6942664188966
 30
0.0
 11
1769.076143375361
 21
696.6942664188966
 31
0.0
  0
LINE
  5
39B6
330
39B1
100
AcDbEntity
  8
DIM
 62
     0
370
    -2
100
AcDbLine
 10
1769.076143375361
 20
1336.694266418897
 30
0.0
 11
1769.076143375361
 21
706.6942664188966
 31
0.0
  0
INSERT
  5
39B7
330
39B1
100
AcDbEntity
  8
DIM
 62
     0
370
    -2
100
AcDbBlockReference
  2
_DOT
 10
1769.076143375361
 20
1346.694266418897
 30
0.0
 41
10.0
 42
10.0
 43
10.0
 50
90.0
  0
INSERT
  5
39B8
330
39B1
100
AcDbEntity
  8
DIM
 62
     0
370
    -2
100
AcDbBlockReference
  2
_DOT
 10
1769.076143375361
 20
696.6942664188966
 30
0.0
 41
10.0
 42
10.0
 43
10.0
 50
270.0
  0
MTEXT
  5
39B9
330
39B1
100
AcDbEntity
  8
DIM
 62
     0
100
AcDbMText
 10
1737.076143375361
 20
1021.694266418897
 30
0.0
 40
24.0
 41
0.0
 46
0.0
 71
     5
 72
     1
  1
\A1;650
  7
ＭＳ ゴシック
 11
0.0
 21
1.0
 31
0.0
 73
     1
 44
1.0
  0
POINT
  5
39BA
330
39B1
100
AcDbEntity
  8
Defpoints
 62
     0
100
AcDbPoint
 10
1644.032644829413
 20
1346.694266418897
 30
0.0
  0
POINT
  5
39BB
330
39B1
100
AcDbEntity
  8
Defpoints
 62
     0
100
AcDbPoint
 10
1644.032644829413
 20
696.6942664188966
 30
0.0
  0
POINT
  5
39BC
330
39B1
100
AcDbEntity
  8
Defpoints
 62
     0
100
AcDbPoint
 10
1769.076143375361
 20
696.6942664188966
 30
0.0
  0
ENDBLK
  5
39B3
330
39B1
100
AcDbEntity
  8
0
100
AcDbBlockEnd
  0
BLOCK
  5
39BE
330
39BD
100
AcDbEntity
  8
0
100
AcDbBlockBegin
  2
*D209
 70
     1
 10
0.0
 20
0.0
 30
0.0
  3
*D209
  1

  0
LINE
  5
39C0
330
39BD
100
AcDbEntity
  8
DIM
 62
     0
370
    -2
100
AcDbLine
 10
425.9828885465045
 20
921.6942664188948
 30
0.0
 11
349.8208513318532
 21
921.6942664188948
 31
0.0
  0
LINE
  5
39C1
330
39BD
100
AcDbEntity
  8
DIM
 62
     0
370
    -2
100
AcDbLine
 10
428.4828885465045
 20
821.6942664188985
 30
0.0
 11
349.8208513318532
 21
821.6942664188985
 31
0.0
  0
LINE
  5
39C2
330
39BD
100
AcDbEntity
  8
DIM
 62
     0
370
    -2
100
AcDbLine
 10
349.8208513318532
 20
911.6942664188948
 30
0.0
 11
349.8208513318532
 21
831.6942664188985
 31
0.0
  0
INSERT
  5
39C3
330
39BD
100
AcDbEntity
  8
DIM
 62
     0
370
    -2
100
AcDbBlockReference
  2
_DOT
 10
349.8208513318532
 20
921.6942664188948
 30
0.0
 41
10.0
 42
10.0
 43
10.0
 50
90.0
  0
INSERT
  5
39C4
330
39BD
100
AcDbEntity
  8
DIM
 62
     0
370
    -2
100
AcDbBlockReference
  2
_DOT
 10
349.8208513318532
 20
821.6942664188985
 30
0.0
 41
10.0
 42
10.0
 43
10.0
 50
270.0
  0
MTEXT
  5
39C5
330
39BD
100
AcDbEntity
  8
DIM
 62
     0
100
AcDbMText
 10
317.8208513318532
 20
871.6942664188966
 30
0.0
 40
24.0
 41
0.0
 46
0.0
 71
     5
 72
     1
  1
\A1;100
  7
ＭＳ ゴシック
 11
0.0
 21
1.0
 31
0.0
 73
     1
 44
1.0
  0
POINT
  5
39C6
330
39BD
100
AcDbEntity
  8
Defpoints
 62
     0
100
AcDbPoint
 10
455.9828885465045
 20
921.6942664188948
 30
0.0
  0
POINT
  5
39C7
330
39BD
100
AcDbEntity
  8
Defpoints
 62
     0
100
AcDbPoint
 10
458.4828885465045
 20
821.6942664188985
 30
0.0
  0
POINT
  5
39C8
330
39BD
100
AcDbEntity
  8
Defpoints
 62
     0
100
AcDbPoint
 10
349.8208513318532
 20
821.6942664188985
 30
0.0
  0
ENDBLK
  5
39BF
330
39BD
100
AcDbEntity
  8
0
100
AcDbBlockEnd
  0
BLOCK
  5
39CA
330
39C9
100
AcDbEntity
  8
0
100
AcDbBlockBegin
  2
*D210
 70
     1
 10
0.0
 20
0.0
 30
0.0
  3
*D210
  1

  0
LINE
  5
39CC
330
39C9
100
AcDbEntity
  8
DIM
 62
     0
370
    -2
100
AcDbLine
 10
428.4828885465045
 20
1221.694266418898
 30
0.0
 11
349.8208513318532
 21
1221.694266418898
 31
0.0
  0
LINE
  5
39CD
330
39C9
100
AcDbEntity
  8
DIM
 62
     0
370
    -2
100
AcDbLine
 10
425.9828885465045
 20
1121.694266418895
 30
0.0
 11
349.8208513318532
 21
1121.694266418895
 31
0.0
  0
LINE
  5
39CE
330
39C9
100
AcDbEntity
  8
DIM
 62
     0
370
    -2
100
AcDbLine
 10
349.8208513318532
 20
1211.694266418898
 30
0.0
 11
349.8208513318532
 21
1131.694266418895
 31
0.0
  0
INSERT
  5
39CF
330
39C9
100
AcDbEntity
  8
DIM
 62
     0
370
    -2
100
AcDbBlockReference
  2
_DOT
 10
349.8208513318532
 20
1221.694266418898
 30
0.0
 41
10.0
 42
10.0
 43
10.0
 50
90.0
  0
INSERT
  5
39D0
330
39C9
100
AcDbEntity
  8
DIM
 62
     0
370
    -2
100
AcDbBlockReference
  2
_DOT
 10
349.8208513318532
 20
1121.694266418895
 30
0.0
 41
10.0
 42
10.0
 43
10.0
 50
270.0
  0
MTEXT
  5
39D1
330
39C9
100
AcDbEntity
  8
DIM
 62
     0
100
AcDbMText
 10
317.8208513318532
 20
1171.694266418897
 30
0.0
 40
24.0
 41
0.0
 46
0.0
 71
     5
 72
     1
  1
\A1;100
  7
ＭＳ ゴシック
 11
0.0
 21
1.0
 31
0.0
 73
     1
 44
1.0
  0
POINT
  5
39D2
330
39C9
100
AcDbEntity
  8
Defpoints
 62
     0
100
AcDbPoint
 10
458.4828885465045
 20
1221.694266418898
 30
0.0
  0
POINT
  5
39D3
330
39C9
100
AcDbEntity
  8
Defpoints
 62
     0
100
AcDbPoint
 10
455.9828885465045
 20
1121.694266418895
 30
0.0
  0
POINT
  5
39D4
330
39C9
100
AcDbEntity
  8
Defpoints
 62
     0
100
AcDbPoint
 10
349.8208513318532
 20
1121.694266418895
 30
0.0
  0
ENDBLK
  5
39CB
330
39C9
100
AcDbEntity
  8
0
100
AcDbBlockEnd
  0
ENDSEC
  0
SECTION
  2
ENTITIES
  0
MTEXT
  5
177
330
A
100
AcDbEntity
  8
TEMPLATE
390
1D
100
AcDbMText
 10
79.20214454773075
 20
343.7317516314282
 30
0.0
 40
16.28841145833333
 41
0.0
 46
0.0
 71
     1
 72
     1
  1
品名
  7
ＭＳ ゴシック
 73
     1
 44
0.7828267384257843
  0
MTEXT
  5
178
330
A
100
AcDbEntity
  8
TEMPLATE
390
1D
100
AcDbMText
 10
79.20214454773075
 20
258.731751631428
 30
0.0
 40
16.28841145833333
 41
0.0
 46
0.0
 71
     1
 72
     1
  1
仕様
  7
ＭＳ ゴシック
 73
     1
 44
0.7828267384257843
  0
LINE
  5
179
330
A
100
AcDbEntity
  8
TEMPLATE
390
1D
100
AcDbLine
 10
2022.202144547248
 20
267.1466735064284
 30
0.0
 11
72.20214454724874
 21
267.1466735064284
 31
0.0
  0
LWPOLYLINE
  5
17A
330
A
100
AcDbEntity
  8
TEMPLATE
390
1D
100
AcDbPolyline
 90
        5
 70
   128
 43
0.0
 10
2022.202144547248
 20
2897.146673506426
 10
72.20214454724874
 20
2897.146673506426
 10
72.20214454724874
 20
97.14667350642826
 10
2022.202144547248
 20
97.14667350642826
 10
2022.202144547248
 20
2897.146673506426
  0
LINE
  5
17B
330
A
100
AcDbEntity
  8
TEMPLATE
390
1D
100
AcDbLine
 10
2022.202144547248
 20
352.1466735064282
 30
0.0
 11
72.20214454724874
 21
352.1466735064282
 31
0.0
  0
LINE
  5
17C
330
A
100
AcDbEntity
  8
TEMPLATE
390
1D
100
AcDbLine
 10
2022.202144547732
 20
182.1466735064282
 30
0.0
 11
1269.20214454773
 21
182.1466735064282
 31
0.0
  0
MTEXT
  5
17E
330
A
100
AcDbEntity
  8
TEMPLATE
390
1D
100
AcDbMText
 10
1299.073550799991
 20
152.2362790331201
 30
0.0
 40
24.4326171875
 41
0.0
 46
0.0
 71
     1
 72
     1
  1
大洋金物株式会社 ティーフォルム事業部
  7
ＭＳ ゴシック
 73
     1
 44
0.7828267384257843
  0
MTEXT
  5
180
330
A
100
AcDbEntity
  8
TEMPLATE
390
1D
100
AcDbMText
 10
1831.20214454799
 20
230.1492906939282
 30
0.0
 40
24.4326171875
 41
0.0
 46
24.4326171875
 71
     1
 72
     1
  1
{1:10}
  7
ＭＳ ゴシック
 73
     1
 44
0.7828267384257843
1001
ACAD
1000
ACAD_MTEXT_DEFINED_HEIGHT_BEGIN
1070
    46
1040
24.4326171875
1000
ACAD_MTEXT_DEFINED_HEIGHT_END
  0
MTEXT
  5
181
330
A
100
AcDbEntity
  8
TEMPLATE
390
1D
100
AcDbMText
 10
1778.20214454799
 20
258.731751631428
 30
0.0
 40
16.28841145833333
 41
0.0
 46
0.0
 71
     1
 72
     1
  1
縮尺
  7
ＭＳ ゴシック
 73
     1
 44
0.7828267384257843
  0
LINE
  5
182
330
A
100
AcDbEntity
  8
TEMPLATE
390
1D
100
AcDbLine
 10
1771.20214454799
 20
182.1466735064282
 30
0.0
 11
1771.20214454799
 21
267.1466735064284
 31
0.0
  0
MTEXT
  5
183
330
A
100
AcDbEntity
  8
TEMPLATE
390
1D
100
AcDbMText
 10
1527.20214454799
 20
258.731751631428
 30
0.0
 40
16.28841145833333
 41
0.0
 46
0.0
 71
     1
 72
     1
  1
容量
  7
ＭＳ ゴシック
 73
     1
 44
0.7828267384257843
  0
LINE
  5
184
330
A
100
AcDbEntity
  8
TEMPLATE
390
1D
100
AcDbLine
 10
1520.20214454799
 20
182.1466735064282
 30
0.0
 11
1520.20214454799
 21
267.1466735064284
 31
0.0
  0
MTEXT
  5
185
330
A
100
AcDbEntity
  8
TEMPLATE
390
1D
100
AcDbMText
 10
1276.20214454799
 20
343.7317516314282
 30
0.0
 40
16.28841145833333
 41
0.0
 46
0.0
 71
     1
 72
     1
  1
品番
  7
ＭＳ ゴシック
 73
     1
 44
0.7828267384257843
  0
MTEXT
  5
186
330
A
100
AcDbEntity
  8
TEMPLATE
390
1D
100
AcDbMText
 10
1276.20214454799
 20
258.731751631428
 30
0.0
 40
16.28841145833333
 41
0.0
 46
0.0
 71
     1
 72
     1
  1
重量
  7
ＭＳ ゴシック
 73
     1
 44
0.7828267384257843
  0
MTEXT
  5
187
330
A
100
AcDbEntity
  8
TEMPLATE
390
1D
100
AcDbMText
 10
1329.20214454799
 20
315.1492906939282
 30
0.0
 40
24.4326171875
 41
0.0
 46
24.4326171875
 71
     1
 72
     1
  1
{ADF70-1705}
  7
ＭＳ ゴシック
 73
     1
 44
0.7828267384257843
1001
ACAD
1000
ACAD_MTEXT_DEFINED_HEIGHT_BEGIN
1070
    46
1040
24.4326171875
1000
ACAD_MTEXT_DEFINED_HEIGHT_END
  0
LINE
  5
188
330
A
100
AcDbEntity
  8
TEMPLATE
390
1D
100
AcDbLine
 10
1269.20214454799
 20
97.14667350642826
 30
0.0
 11
1269.20214454799
 21
352.1466735064282
 31
0.0
  0
MTEXT
  5
189
330
A
100
AcDbEntity
  8
TEMPLATE
390
1D
100
AcDbMText
 10
132.2021445477307
 20
315.1492906939282
 30
0.0
 40
24.4326171875
 41
0.0
 46
27.5355595703125
 71
     1
 72
     1
  1
{洗面器　-CATALANO, Proiezion-}
  7
ＭＳ ゴシック
 73
     1
 44
0.7828267384257843
1001
ACAD
1000
ACAD_MTEXT_DEFINED_HEIGHT_BEGIN
1070
    46
1040
27.5355595703125
1000
ACAD_MTEXT_DEFINED_HEIGHT_END
  0
INSERT
  5
6B5
330
A
100
AcDbEntity
  8
TEMPLATE
100
AcDbBlockReference
  2
名称未設定-1
 10
1870.75074808845
 20
25.94676575665382
 30
0.0
 41
0.7619999999999998
 42
0.7619999999999998
 43
0.7619999999999998
  0
MTEXT
  5
7D9
330
A
100
AcDbEntity
  8
TEMPLATE
390
1D
100
AcDbMText
 10
125.2543452760364
 20
226.8119760293952
 30
0.0
 40
24.0
 41
0.0
 46
66.38782940964867
 71
     1
 72
     1
  1
{\fＭＳ ゴシック|b0|i0|c1|p0;壁掛け,カウンタートップ/オーバーフロー付き/壁取付ボルト付属/陶器/\Pホワイト}
  7
ＭＳ ゴシック
 73
     1
 44
0.9331787841240657
1001
ACAD
1000
ACAD_MTEXT_DEFINED_HEIGHT_BEGIN
1070
    46
1040
66.38782940964867
1000
ACAD_MTEXT_DEFINED_HEIGHT_END
  0
INSERT
  5
68C
330
A
100
AcDbEntity
  8
TEMPLATE
100
AcDbBlockReference
  2
block 2
 10
919.2743017702577
 20
8.373076514336368
 30
0.0
 41
0.3809999999999999
 42
0.3809999999999999
 43
0.3809999999999999
  0
LWPOLYLINE
  5
DAC
330
A
100
AcDbEntity
  8
BORDER
100
AcDbPolyline
 90
        4
 70
     1
 43
0.0
 10
0.0
 20
0.0
 10
0.0
 20
2970.0
 10
2100.0
 20
2970.0
 10
2100.0
 20
0.0
  0
MTEXT
  5
121B
330
A
100
AcDbEntity
  8
TEMPLATE
390
1D
100
AcDbMText
 10
1329.20214454799
 20
227.1688729773101
 30
0.0
 40
24.4326171875
 41
0.0
 46
28.390701171875
 71
     1
 72
     1
  1
{20kg}
  7
ＭＳ ゴシック
 73
     1
 44
0.7828267384257843
1001
ACAD
1000
ACAD_MTEXT_DEFINED_HEIGHT_BEGIN
1070
    46
1040
28.390701171875
1000
ACAD_MTEXT_DEFINED_HEIGHT_END
  0
MTEXT
  5
1466
102
{ACAD_XDICTIONARY
360
1468
102
}
330
A
100
AcDbEntity
  8
TEMPLATE
 48
0.05
100
AcDbMText
 10
74.728656548571
 20
83.86172105142839
 30
0.0
 40
22.0
 41
0.0
 46
22.0
 71
     1
 72
     1
  1
{20171004N}
  7
ＭＳ ゴシック
 73
     1
 44
1.0
1001
ACAD
1000
ACAD_MTEXT_DEFINED_HEIGHT_BEGIN
1070
    46
1040
22.0
1000
ACAD_MTEXT_DEFINED_HEIGHT_END
  0
MTEXT
  5
146D
330
A
100
AcDbEntity
  8
TEMPLATE
390
1D
100
AcDbMText
 10
1583.904999862276
 20
227.1688729773101
 30
0.0
 40
24.4326171875
 41
0.0
 46
24.4326171875
 71
     1
 72
     1
  1
{6L}
  7
ＭＳ ゴシック
 73
     1
 44
0.7828267384257843
1001
ACAD
1000
ACAD_MTEXT_DEFINED_HEIGHT_BEGIN
1070
    46
1040
24.4326171875
1000
ACAD_MTEXT_DEFINED_HEIGHT_END
  0
POINT
  5
262A
330
A
100
AcDbEntity
  8
Layer9
  6
Continuous
 62
     7
100
AcDbPoint
 10
1037.460145007193
 20
1010.220672371878
 30
0.0
  0
POINT
  5
262B
330
A
100
AcDbEntity
  8
Layer9
  6
Continuous
 62
     7
100
AcDbPoint
 10
1037.460146257193
 20
1010.220672788578
 30
0.0
  0
POINT
  5
262C
330
A
100
AcDbEntity
  8
Layer9
  6
Continuous
 62
     7
100
AcDbPoint
 10
1037.853693340493
 20
1015.267975288578
 30
0.0
  0
POINT
  5
2812
330
A
100
AcDbEntity
  8
Layer9
  6
Continuous
 62
     7
100
AcDbPoint
 10
925.7934783404928
 20
1010.220672371878
 30
0.0
  0
POINT
  5
2813
330
A
100
AcDbEntity
  8
Layer9
  6
Continuous
 62
     7
100
AcDbPoint
 10
925.7934795904928
 20
1010.220672788578
 30
0.0
  0
POINT
  5
2814
330
A
100
AcDbEntity
  8
Layer9
  6
Continuous
 62
     7
100
AcDbPoint
 10
926.1870266737928
 20
1015.267975288578
 30
0.0
  0
INSERT
  5
28CA
330
A
100
AcDbEntity
  8
Layer3
100
AcDbBlockReference
  2
SEANNOT_GROUP
 10
859.7083018867928
 20
826.1905269541776
 30
0.0
  0
POINT
  5
2A52
330
A
100
AcDbEntity
  8
Standard
  6
Continuous
 62
     7
100
AcDbPoint
 10
1036.111241014893
 20
1018.794321538578
 30
0.0
  0
INSERT
  5
2B9B
330
A
100
AcDbEntity
  8
Layer3
100
AcDbBlockReference
  2
SEANNOT_GROUP1
 10
859.7083018867928
 20
826.1905269541776
 30
0.0
  0
MTEXT
  5
356E
330
A
100
AcDbEntity
  8
DIM
390
1D
100
AcDbMText
 10
1016.416102798544
 20
1900.436522253761
 30
0.0
 40
24.0
 41
949.7161250932047
 46
111.8331968503937
 71
     1
 72
     1
  1
{※陶器製品には寸法公差があります。\P  洗面器の収め方をご確認の上、必ず現物を合わせて\P  カウンターに切込を行ってください。}
  7
ＭＳ ゴシック
 11
6.123233995736766E-17
 21
1.0
 31
0.0
 73
     1
 44
0.9822934569727008
1001
ACAD
1000
ACAD_MTEXT_DEFINED_HEIGHT_BEGIN
1070
    46
1040
111.8331968503937
1000
ACAD_MTEXT_DEFINED_HEIGHT_END
  0
DIMENSION
  5
386E
330
A
100
AcDbEntity
  8
DIM
390
1D
100
AcDbDimension
  2
*D191
 10
1424.867821530414
 20
2496.071562394003
 30
0.0
 11
1424.867821530414
 21
2466.071562394003
 31
0.0
 70
   160
 71
     5
 42
60.0
 73
     0
 74
     0
 75
     0
  3
tfrom線あり
100
AcDbAlignedDimension
 13
1514.041973609388
 23
2436.071562394003
 33
0.0
 14
1514.041973609388
 24
2496.071562394003
 34
0.0
 50
90.0
100
AcDbRotatedDimension
  0
DIMENSION
  5
386F
330
A
100
AcDbEntity
  8
DIM
390
1D
100
AcDbDimension
  2
*D192
 10
1514.041973609388
 20
2287.779100283262
 30
0.0
 11
1409.025973609388
 21
2287.779100283262
 31
0.0
 70
   160
 71
     5
 42
100.0
 73
     0
 74
     1
 75
     1
  3
tfrom線あり
100
AcDbAlignedDimension
 13
1614.041973609388
 23
2289.300331338633
 33
0.0
 14
1514.041973609388
 24
2289.300331338633
 34
0.0
100
AcDbRotatedDimension
1001
ACAD
1000
DSTYLE
1002
{
1070
     3
1000
<>(深さ)
1070
   172
1070
     1
1002
}
  0
DIMENSION
  5
3870
330
A
100
AcDbEntity
  8
DIM
390
1D
100
AcDbDimension
  2
*D193
 10
1514.041973609388
 20
1976.51288005715
 30
0.0
 11
1579.044644164847
 21
2008.51288005715
 31
0.0
 70
    32
 71
     5
 42
130.0053411109184
 73
     0
 74
     0
 75
     0
  3
tfrom線あり
100
AcDbAlignedDimension
 13
1644.047314720306
 23
2146.071562423332
 33
0.0
 14
1514.041973609388
 24
2082.529100283263
 34
0.0
100
AcDbRotatedDimension
  0
DIMENSION
  5
3871
330
A
100
AcDbEntity
  8
DIM
390
1D
100
AcDbDimension
  2
*D194
 10
1773.869829513368
 20
2496.071562423332
 30
0.0
 11
1741.869829513368
 21
2391.071562423332
 31
0.0
 70
    32
 71
     5
 42
210.0
 73
     0
 74
     0
 75
     0
  3
tfrom線あり
100
AcDbAlignedDimension
 13
1674.080164870698
 23
2286.071562423332
 33
0.0
 14
1649.047314720306
 24
2496.071562423332
 34
0.0
 50
90.0
100
AcDbRotatedDimension
  0
DIMENSION
  5
3872
330
A
100
AcDbEntity
  8
DIM
390
1D
100
AcDbDimension
  2
*D195
 10
1866.386271290184
 20
2496.071562225995
 30
0.0
 11
1866.386271290184
 21
2325.353806622863
 31
0.0
 70
   160
 71
     5
 42
350.0
 73
     0
 74
     0
 75
     0
  3
tfrom線あり
100
AcDbAlignedDimension
 13
1649.047314720306
 23
2146.071562225995
 33
0.0
 14
1649.047314720305
 24
2496.071562225995
 34
0.0
 50
90.0
100
AcDbRotatedDimension
  0
DIMENSION
  5
3873
330
A
100
AcDbEntity
  8
DIM
390
1D
100
AcDbDimension
  2
*D196
 10
685.0590937587563
 20
2585.624264650969
 30
0.0
 11
550.0590937587563
 21
2617.624264650969
 31
0.0
 70
    32
 71
     5
 42
270.0
 73
     0
 74
     0
 75
     0
  3
tfrom線あり
100
AcDbAlignedDimension
 13
415.0590937587563
 23
2511.024264650969
 33
0.0
 14
685.0590937587563
 24
2511.024264650969
 34
0.0
100
AcDbRotatedDimension
  0
DIMENSION
  5
3874
330
A
100
AcDbEntity
  8
DIM
390
1D
100
AcDbDimension
  2
*D197
 10
794.6129992300962
 20
2511.024264650969
 30
0.0
 11
762.6129992300962
 21
2286.024264650969
 31
0.0
 70
    32
 71
     5
 42
449.9999999999995
 73
     0
 74
     0
 75
     0
  3
tfrom線あり
100
AcDbAlignedDimension
 13
685.0590937587563
 23
2061.024264650969
 33
0.0
 14
685.0590937587563
 24
2511.024264650969
 34
0.0
 50
90.0
100
AcDbRotatedDimension
  0
DIMENSION
  5
3875
330
A
100
AcDbEntity
  8
DIM
390
1D
100
AcDbDimension
  2
*D198
 10
265.0590937587563
 20
621.6942664188966
 30
0.0
 11
233.0590937587563
 21
1021.694266418897
 31
0.0
 70
    32
 71
     5
 42
800.0
 73
     0
 74
     0
 75
     0
  3
tfrom線あり
100
AcDbAlignedDimension
 13
420.0590937587563
 23
1421.694266418897
 33
0.0
 14
420.0590937587563
 24
621.6942664188966
 34
0.0
 50
90.0
100
AcDbRotatedDimension
  0
DIMENSION
  5
3876
330
A
100
AcDbEntity
  8
DIM
390
1D
100
AcDbDimension
  2
*D199
 10
349.8208513318532
 20
921.6942664188985
 30
0.0
 11
317.8208513318532
 21
971.6942664188966
 31
0.0
 70
    32
 71
     5
 42
99.99999999999636
 73
     0
 74
     0
 75
     0
  3
tfrom線あり
100
AcDbAlignedDimension
 13
455.9828885465045
 23
1021.694266418895
 33
0.0
 14
458.4828885465045
 24
921.6942664188985
 34
0.0
 50
90.0
100
AcDbRotatedDimension
  0
DIMENSION
  5
3877
330
A
100
AcDbEntity
  8
DIM
390
1D
100
AcDbDimension
  2
*D200
 10
349.8208513318532
 20
1021.694266418895
 30
0.0
 11
317.8208513318532
 21
1071.694266418897
 31
0.0
 70
    32
 71
     5
 42
100.0000000000036
 73
     0
 74
     0
 75
     0
  3
tfrom線あり
100
AcDbAlignedDimension
 13
458.4828885465045
 23
1121.694266418898
 33
0.0
 14
455.9828885465045
 24
1021.694266418895
 34
0.0
 50
90.0
100
AcDbRotatedDimension
  0
DIMENSION
  5
3878
330
A
100
AcDbEntity
  8
DIM
390
1D
100
AcDbDimension
  2
*D201
 10
938.0590937587563
 20
1406.694266418898
 30
0.0
 11
906.0590937587563
 21
1021.694266418898
 31
0.0
 70
    32
 71
     5
 42
770.0
 73
     0
 74
     0
 75
     0
  3
tfrom線あり
100
AcDbAlignedDimension
 13
821.6894372003385
 23
636.6942664188975
 33
0.0
 14
821.6894372003567
 24
1406.694266418898
 34
0.0
 50
90.0
100
AcDbRotatedDimension
  0
DIMENSION
  5
3879
330
A
100
AcDbEntity
  8
DIM
390
1D
100
AcDbDimension
  2
*D202
 10
820.0129992300958
 20
523.6942664188962
 30
0.0
 11
677.536046494426
 21
555.6942664188962
 31
0.0
 70
    32
 71
     5
 42
284.9539054713396
 73
     0
 74
     0
 75
     0
  3
tfrom線あり
100
AcDbAlignedDimension
 13
535.0590937587563
 23
621.6942664188966
 33
0.0
 14
820.0129992300958
 24
633.2371744184768
 34
0.0
100
AcDbRotatedDimension
  0
DIMENSION
  5
387A
330
A
100
AcDbEntity
  8
DIM
390
1D
100
AcDbDimension
  2
*D203
 10
535.0590937587563
 20
523.6942664188966
 30
0.0
 11
475.0590937587563
 21
555.6942664188966
 31
0.0
 70
    32
 71
     5
 42
120.0
 73
     0
 74
     0
 75
     0
  3
tfrom線あり
100
AcDbAlignedDimension
 13
415.0590937587563
 23
626.6942664188966
 33
0.0
 14
535.0590937587563
 24
621.6942664188966
 34
0.0
100
AcDbRotatedDimension
  0
DIMENSION
  5
387B
330
A
100
AcDbEntity
  8
DIM
390
1D
100
AcDbDimension
  2
*D204
 10
415.0590937587563
 20
1521.694266418897
 30
0.0
 11
625.0590937587563
 21
1553.694266418897
 31
0.0
 70
    32
 71
     5
 42
420.0
 73
     0
 74
     0
 75
     0
  3
tfrom線あり
100
AcDbAlignedDimension
 13
835.0590937587563
 23
1388.752988528128
 33
0.0
 14
415.0590937587563
 24
1416.694266418897
 34
0.0
100
AcDbRotatedDimension
  0
DIMENSION
  5
387C
330
A
100
AcDbEntity
  8
DIM
390
1D
100
AcDbDimension
  2
*D205
 10
1414.041973609388
 20
1166.424655974728
 30
0.0
 11
1382.041973609388
 21
1026.424655974728
 31
0.0
 70
    32
 71
     5
 42
280.0
 73
     0
 74
     0
 75
     0
  3
tfrom線あり
100
AcDbAlignedDimension
 13
1534.019829513367
 23
886.4246559747282
 33
0.0
 14
1534.019829513367
 24
1166.424655974728
 34
0.0
 50
90.0
100
AcDbRotatedDimension
  0
DIMENSION
  5
387D
330
A
100
AcDbEntity
  8
DIM
390
1D
100
AcDbDimension
  2
*D206
 10
1554.018116975716
 20
523.6942664188962
 30
0.0
 11
1534.030045292552
 21
523.6942664188962
 31
0.0
 70
   160
 71
     5
 42
39.97614336632796
 73
     0
 74
     0
 75
     0
  3
tfrom線あり
100
AcDbAlignedDimension
 13
1514.041973609388
 23
627.6933957075064
 33
0.0
 14
1554.018116975716
 24
866.4229434370766
 34
0.0
100
AcDbRotatedDimension
  0
DIMENSION
  5
387E
330
A
100
AcDbEntity
  8
DIM
390
1D
100
AcDbDimension
  2
*D207
 10
1514.041973609388
 20
1521.694266418897
 30
0.0
 11
1591.559058492374
 21
1553.694266418897
 31
0.0
 70
    32
 71
     5
 42
155.0341697659733
 73
     0
 74
     0
 75
     0
  3
tfrom線あり
100
AcDbAlignedDimension
 13
1669.076143375361
 23
1063.56926831383
 33
0.0
 14
1514.041973609388
 24
1411.672304661239
 34
0.0
100
AcDbRotatedDimension
  0
DIMENSION
  5
387F
330
A
100
AcDbEntity
  8
DIM
390
1D
100
AcDbDimension
  2
*D208
 10
1769.076143375361
 20
696.6942664188966
 30
0.0
 11
1737.076143375361
 21
1021.694266418897
 31
0.0
 70
    32
 71
     5
 42
650.0
 73
     0
 74
     0
 75
     0
  3
tfrom線あり
100
AcDbAlignedDimension
 13
1644.032644829413
 23
1346.694266418897
 33
0.0
 14
1644.032644829413
 24
696.6942664188966
 34
0.0
 50
90.0
100
AcDbRotatedDimension
  0
DIMENSION
  5
3880
330
A
100
AcDbEntity
  8
DIM
390
1D
100
AcDbDimension
  2
*D209
 10
349.8208513318532
 20
821.6942664188985
 30
0.0
 11
317.8208513318532
 21
871.6942664188966
 31
0.0
 70
    32
 71
     5
 42
99.99999999999636
 73
     0
 74
     0
 75
     0
  3
tfrom線あり
100
AcDbAlignedDimension
 13
455.9828885465045
 23
921.6942664188948
 33
0.0
 14
458.4828885465045
 24
821.6942664188985
 34
0.0
 50
90.0
100
AcDbRotatedDimension
  0
DIMENSION
  5
3881
330
A
100
AcDbEntity
  8
DIM
390
1D
100
AcDbDimension
  2
*D210
 10
349.8208513318532
 20
1121.694266418895
 30
0.0
 11
317.8208513318532
 21
1171.694266418897
 31
0.0
 70
    32
 71
     5
 42
100.0000000000036
 73
     0
 74
     0
 75
     0
  3
tfrom線あり
100
AcDbAlignedDimension
 13
458.4828885465045
 23
1221.694266418898
 33
0.0
 14
455.9828885465045
 24
1121.694266418895
 34
0.0
 50
90.0
100
AcDbRotatedDimension
  0
LINE
  5
3885
330
A
100
AcDbEntity
  8
MODEL
390
1D
100
AcDbLine
 10
1554.924848904441
 20
1167.906080298463
 30
0.0
 11
1457.588807150636
 21
1265.242122052269
 31
0.0
  0
LWPOLYLINE
  5
3886
330
A
100
AcDbEntity
  8
MODEL
390
1D
100
AcDbPolyline
 90
        8
 70
   129
 43
0.0
 10
838.0590937587563
 20
671.6942664188966
 10
838.0590937587563
 20
1371.694266418897
 42
0.414213562373095
 10
788.0590937587563
 20
1421.694266418897
 10
420.0590937587563
 20
1421.694266418897
 42
0.414213562373095
 10
415.0590937587563
 20
1416.694266418897
 10
415.0590937587563
 20
626.6942664188966
 42
0.414213562373095
 10
420.0590937587563
 20
621.6942664188966
 10
788.0590937587563
 20
621.6942664188966
 42
0.414213562373095
  0
LWPOLYLINE
  5
3887
330
A
100
AcDbEntity
  8
MODEL
390
1D
100
AcDbPolyline
 90
        8
 70
   129
 43
0.0
 10
820.0129992300958
 20
673.7242646509692
 10
820.0129992300958
 20
1369.724264650969
 42
0.414213562373095
 10
783.0129992300958
 20
1406.724264650969
 10
572.0590937587563
 20
1406.675795634723
 42
0.414213562373095
 10
535.0590937587563
 20
1369.675795634723
 10
535.0590937587563
 20
673.6942664188975
 42
0.414213562373095
 10
572.0590937587563
 20
636.6942664188975
 10
783.0129992300958
 20
636.7242646509692
 42
0.4142135623730914
  0
CIRCLE
  5
3888
330
A
100
AcDbEntity
  8
HIDDEN
 48
0.5
390
1D
100
AcDbCircle
 10
473.4828885465045
 20
1021.694266418895
 30
0.0
 40
17.5
  0
CIRCLE
  5
3889
330
A
100
AcDbEntity
  8
MODEL
390
1D
100
AcDbCircle
 10
633.1565654876845
 20
1021.694266418898
 30
0.0
 40
22.49999999999818
  0
CIRCLE
  5
388A
330
A
100
AcDbEntity
  8
MODEL
390
1D
100
AcDbCircle
 10
633.1565654876845
 20
1021.694266418898
 30
0.0
 40
38.0
  0
LWPOLYLINE
  5
388B
330
A
100
AcDbEntity
  8
MODEL
390
1D
100
AcDbPolyline
 90
        8
 70
   129
 43
0.0
 10
728.2783948320298
 20
773.7083682418618
 10
728.2783948320298
 20
1269.680164595932
 42
0.4142135623730803
 10
692.2783948320307
 20
1305.680164595932
 10
583.9071722092817
 20
1305.680164595934
 42
0.414213562373095
 10
547.9071722092817
 20
1269.680164595934
 10
547.9071722092817
 20
773.7083682418618
 42
0.414213562373095
 10
583.9071722092817
 20
737.7083682418618
 10
692.2783948320298
 20
737.7083682418618
 42
0.414213562373095
  0
POLYLINE
  5
388C
330
A
100
AcDbEntity
  8
MODEL
390
1D
100
AcDb3dPolyline
 66
     1
 10
0.0
 20
0.0
 30
0.0
 70
     8
  0
VERTEX
  5
388D
330
388C
100
AcDbEntity
  8
MODEL
390
1D
100
AcDbVertex
100
AcDb3dPolylineVertex
 10
724.3533574953212
 20
740.7567073026946
 30
0.0000000032947961
 70
    32
  0
VERTEX
  5
388E
330
388C
100
AcDbEntity
  8
MODEL
390
1D
100
AcDbVertex
100
AcDb3dPolylineVertex
 10
804.6029261220824
 20
653.0271323314462
 30
0.0000000017752788
 70
    32
  0
SEQEND
  5
388F
330
388C
100
AcDbEntity
  8
MODEL
390
1D
  0
POLYLINE
  5
3890
330
A
100
AcDbEntity
  8
MODEL
390
1D
100
AcDb3dPolyline
 66
     1
 10
0.0
 20
0.0
 30
0.0
 70
     8
  0
VERTEX
  5
3891
330
3890
100
AcDbEntity
  8
MODEL
390
1D
100
AcDbVertex
100
AcDb3dPolylineVertex
 10
724.3533574953212
 20
1302.6318255351
 30
0.0000000032947961
 70
    32
  0
VERTEX
  5
3892
330
3890
100
AcDbEntity
  8
MODEL
390
1D
100
AcDbVertex
100
AcDb3dPolylineVertex
 10
804.6029261220824
 20
1390.361400506348
 30
0.0000000017752788
 70
    32
  0
SEQEND
  5
3893
330
3890
100
AcDbEntity
  8
MODEL
390
1D
  0
LINE
  5
3894
330
A
100
AcDbEntity
  8
MODEL
390
1D
100
AcDbLine
 10
557.5040521702845
 20
1305.091041030924
 30
0.0
 11
546.843418771135
 21
1387.902185010523
 31
0.0
  0
LINE
  5
3895
330
A
100
AcDbEntity
  8
MODEL
390
1D
100
AcDbLine
 10
557.5040521702845
 20
738.2974918068714
 30
0.0
 11
546.843418771135
 21
655.4863478272721
 31
0.0
  0
SPLINE
  5
3896
330
A
100
AcDbEntity
  8
MODEL
390
1D
100
AcDbSpline
210
0.0
220
0.0
230
1.0
 70
    11
 71
     2
 72
    26
 73
    23
 74
     0
 42
0.000000001
 43
0.000001
 40
0.0
 40
0.0
 40
0.0
 40
1.0
 40
2.0
 40
3.0
 40
4.0
 40
4.0
 40
5.0
 40
6.0
 40
7.0
 40
8.0
 40
9.0
 40
9.0
 40
10.0
 40
11.0
 40
12.0
 40
13.0
 40
13.0
 40
14.0
 40
15.0
 40
16.0
 40
17.0
 40
18.0
 40
18.0
 40
18.0
 10
537.621970798918
 20
1009.091462305001
 30
0.0
 10
537.8503891465339
 20
1009.24174475565
 30
0.0
 10
538.1411646561651
 20
1010.415958798297
 30
0.0
 10
538.3389924160078
 20
1012.05987589485
 30
0.0
 10
538.743793885264
 20
1017.182915925748
 30
0.0
 10
538.7204004902046
 20
1021.591462305001
 30
0.0
 10
538.7227020049772
 20
1024.142462188499
 30
0.0
 10
538.558439795574
 20
1028.545565796949
 30
0.0
 10
538.3389924160069
 20
1031.123048715154
 30
0.0
 10
538.1436116627642
 20
1032.759240892448
 30
0.0
 10
537.8503891465339
 20
1033.941179854354
 30
0.0
 10
537.621970798918
 20
1034.091462305002
 30
0.0
 10
537.3935524513022
 20
1033.941179854354
 30
0.0
 10
537.102776941671
 20
1032.766965811706
 30
0.0
 10
536.90494918183
 20
1031.123048715154
 30
0.0
 10
536.5001477125711
 20
1026.000008684255
 30
0.0
 10
536.5235411076324
 20
1021.591462305001
 30
0.0
 10
536.5212395928597
 20
1019.040462421504
 30
0.0
 10
536.6855018022638
 20
1014.63735881306
 30
0.0
 10
536.9049491818291
 20
1012.059875894847
 30
0.0
 10
537.1003299350737
 20
1010.423683717557
 30
0.0
 10
537.3935524513013
 20
1009.241744755649
 30
0.0
 10
537.621970798918
 20
1009.091462305001
 30
0.0
  0
CIRCLE
  5
3897
330
A
100
AcDbEntity
  8
HIDDEN
 48
0.5
390
1D
100
AcDbCircle
 10
473.4828885465045
 20
921.6942664188985
 30
0.0
 40
15.0
  0
CIRCLE
  5
3898
330
A
100
AcDbEntity
  8
HIDDEN
 48
0.5
390
1D
100
AcDbCircle
 10
473.4828885465045
 20
1121.694266418898
 30
0.0
 40
15.0
  0
ARC
  5
3899
330
A
100
AcDbEntity
  8
HIDDEN
 48
0.5
390
1D
100
AcDbCircle
 10
-1067.349348864118
 20
4752.127981430807
 30
0.0
 40
3711.447584552796
100
AcDbArc
 50
314.1160738118327
 51
315.8775522161054
  0
LINE
  5
389A
330
A
100
AcDbEntity
  8
MODEL
390
1D
100
AcDbLine
 10
1644.047314720306
 20
2146.071562423332
 30
0.0
 11
1644.047314720306
 21
2496.071562423332
 31
0.0
  0
LINE
  5
389B
330
A
100
AcDbEntity
  8
MODEL
390
1D
100
AcDbLine
 10
1514.503452640677
 20
2496.071562533803
 30
0.0
 11
1644.503452640677
 21
2496.071562237434
 31
0.0
  0
LINE
  5
389C
330
A
100
AcDbEntity
  8
HIDDEN
 48
0.5
390
1D
100
AcDbLine
 10
1627.747337721965
 20
2266.208840559645
 30
0.0
 11
1669.080164870698
 21
2266.917244764213
 31
0.0
  0
LINE
  5
389D
330
A
100
AcDbEntity
  8
HIDDEN
 48
0.5
390
1D
100
AcDbLine
 10
1625.517893729796
 20
2265.145883260661
 30
0.0
 11
1614.755417009417
 21
2252.319655003069
 31
0.0
  0
ARC
  5
389E
330
A
100
AcDbEntity
  8
HIDDEN
 48
0.5
390
1D
100
AcDbCircle
 10
1627.805611577549
 20
2263.217080715234
 30
0.0
 40
2.992312184611966
100
AcDbArc
 50
91.11587857742664
 51
139.8653576439746
  0
ARC
  5
389F
330
A
100
AcDbEntity
  8
HIDDEN
 48
0.5
390
1D
100
AcDbCircle
 10
1627.200123190641
 20
2242.305744174268
 30
0.0
 40
15.97338793193783
100
AcDbArc
 50
141.17732844594
 51
172.4706398471044
  0
LINE
  5
38A0
330
A
100
AcDbEntity
  8
HIDDEN
 48
0.5
390
1D
100
AcDbLine
 10
1611.364460277407
 20
2244.398804642244
 30
0.0
 11
1604.99065139605
 21
2185.992463529374
 31
0.0
  0
ARC
  5
38A1
330
A
100
AcDbEntity
  8
HIDDEN
 48
0.5
390
1D
100
AcDbCircle
 10
1578.340848568581
 20
2187.39040677168
 30
0.0
 40
26.68644292616982
100
AcDbArc
 50
314.1429108996672
 51
356.9972421898461
  0
LINE
  5
38A2
330
A
100
AcDbEntity
  8
MODEL
390
1D
100
AcDbLine
 10
1644.047314720306
 20
2251.842021320836
 30
0.0
 11
1666.362690506428
 21
2253.204564456139
 31
0.0
  0
LINE
  5
38A3
330
A
100
AcDbEntity
  8
MODEL
390
1D
100
AcDbLine
 10
1669.080164870698
 20
2256.33155340843
 30
0.0
 11
1669.080164870698
 21
2316.11016151006
 31
0.0
  0
ARC
  5
38A4
330
A
100
AcDbEntity
  8
MODEL
390
1D
100
AcDbCircle
 10
1666.094112207413
 20
2256.182259036626
 30
0.0
 40
2.989782486630238
100
AcDbArc
 50
275.1539453042196
 51
2.8622471040718
  0
LINE
  5
38A5
330
A
100
AcDbEntity
  8
MODEL
390
1D
100
AcDbLine
 10
1514.041973609388
 20
2082.529100283263
 30
0.0
 11
1514.041973609388
 21
2496.071562394003
 31
0.0
  0
ARC
  5
38A6
330
A
100
AcDbEntity
  8
MODEL
390
1D
100
AcDbCircle
 10
1520.041973609389
 20
2082.065772131832
 30
0.0
 40
6.0
100
AcDbArc
 50
180.0
 51
270.983671227153
  0
ARC
  5
38A7
330
A
100
AcDbEntity
  8
MODEL
390
1D
100
AcDbCircle
 10
1521.541973609389
 20
2082.256662982583
 30
0.0
 40
7.500000000000061
100
AcDbArc
 50
134.1177686434028
 51
180.0
  0
LINE
  5
38A8
330
A
100
AcDbEntity
  8
HIDDEN
 48
0.5
390
1D
100
AcDbLine
 10
1611.364460372745
 20
2327.744319625812
 30
0.0
 11
1605.742895100627
 21
2355.622480693952
 31
0.0
  0
ARC
  5
38A9
330
A
100
AcDbEntity
  8
HIDDEN
 48
0.5
390
1D
100
AcDbCircle
 10
1591.739103261907
 20
2352.537733134296
 30
0.0
 40
14.33952068128659
100
AcDbArc
 50
12.42268974827719
 51
88.0844105955438
  0
LINE
  5
38AA
330
A
100
AcDbEntity
  8
HIDDEN
 48
0.5
390
1D
100
AcDbLine
 10
1592.218432054501
 20
2366.869240287336
 30
0.0
 11
1520.431883813585
 21
2373.149745267205
 31
0.0
  0
ARC
  5
38AB
330
A
100
AcDbEntity
  8
HIDDEN
 48
0.5
390
1D
100
AcDbCircle
 10
1521.041973609389
 20
2380.123108189143
 30
0.0
 40
7.0
100
AcDbArc
 50
180.0
 51
265.0000033147442
  0
LINE
  5
38AC
330
A
100
AcDbEntity
  8
HIDDEN
 48
0.5
390
1D
100
AcDbLine
 10
1627.747337817303
 20
2305.93428370841
 30
0.0
 11
1669.080164870698
 21
2305.225879505477
 31
0.0
  0
LINE
  5
38AD
330
A
100
AcDbEntity
  8
HIDDEN
 48
0.5
390
1D
100
AcDbLine
 10
1625.517893825134
 20
2306.997241007394
 30
0.0
 11
1614.755417104755
 21
2319.823469264987
 31
0.0
  0
ARC
  5
38AE
330
A
100
AcDbEntity
  8
HIDDEN
 48
0.5
390
1D
100
AcDbCircle
 10
1627.805611672888
 20
2308.926043552821
 30
0.0
 40
2.992312184611564
100
AcDbArc
 50
220.134642356031
 51
268.8841214225733
  0
ARC
  5
38AF
330
A
100
AcDbEntity
  8
HIDDEN
 48
0.5
390
1D
100
AcDbCircle
 10
1627.20012328598
 20
2329.837380093788
 30
0.0
 40
15.97338793193794
100
AcDbArc
 50
187.5293601528956
 51
218.82267155406
  0
LINE
  5
38B0
330
A
100
AcDbEntity
  8
MODEL
390
1D
100
AcDbLine
 10
1644.047314720306
 20
2320.301102956429
 30
0.0
 11
1666.375100747928
 21
2319.187350324354
 31
0.0
  0
ARC
  5
38B1
330
A
100
AcDbEntity
  8
MODEL
390
1D
100
AcDbCircle
 10
1666.094112302751
 20
2315.960865231429
 30
0.0
 40
2.989782486631313
100
AcDbArc
 50
357.1377528959291
 51
84.84605469578192
  0
LINE
  5
38B2
330
A
100
AcDbEntity
  8
MODEL
390
1D
100
AcDbLine
 10
1514.041973609388
 20
2453.571562394003
 30
0.0
 11
1529.041973609388
 21
2453.571562502361
 31
0.0
  0
LINE
  5
38B3
330
A
100
AcDbEntity
  8
MODEL
390
1D
100
AcDbLine
 10
1514.041973609388
 20
2418.571562394003
 30
0.0
 11
1529.041973609388
 21
2418.571562502361
 31
0.0
  0
LINE
  5
38B4
330
A
100
AcDbEntity
  8
MODEL
390
1D
100
AcDbLine
 10
1644.032644829413
 20
696.6942664188966
 30
0.0
 11
1644.032644829413
 21
1346.694266418897
 31
0.0
  0
LINE
  5
38B5
330
A
100
AcDbEntity
  8
HIDDEN
 48
0.5
390
1D
100
AcDbLine
 10
1554.042237834065
 20
1186.422942238233
 30
0.0
 11
1554.042240231752
 21
1146.422942238233
 31
0.0
  0
ARC
  5
38B6
330
A
100
AcDbEntity
  8
MODEL
390
1D
100
AcDbCircle
 10
1520.041973609388
 20
1415.695137130289
 30
0.0
 40
5.999999999999903
100
AcDbArc
 50
89.0238773944589
 51
180.0
  0
LINE
  5
38B7
330
A
100
AcDbEntity
  8
HIDDEN
 48
0.5
390
1D
100
AcDbLine
 10
1534.042239032909
 20
1166.422941039389
 30
0.0
 11
1574.042239032909
 21
1166.422943437077
 31
0.0
  0
CIRCLE
  5
38B8
330
A
100
AcDbEntity
  8
HIDDEN
 48
0.5
390
1D
100
AcDbCircle
 10
1554.042239032909
 20
1166.422942238233
 30
0.0
 40
10.00000000000002
  0
LINE
  5
38B9
330
A
100
AcDbEntity
  8
HIDDEN
 48
0.5
390
1D
100
AcDbLine
 10
1554.042237834065
 20
906.4229422382334
 30
0.0
 11
1554.042240231752
 21
866.422942238233
 31
0.0
  0
LINE
  5
38BA
330
A
100
AcDbEntity
  8
HIDDEN
 48
0.5
390
1D
100
AcDbLine
 10
1534.042239032909
 20
886.4229410393893
 30
0.0
 11
1574.042239032909
 21
886.4229434370766
 31
0.0
  0
CIRCLE
  5
38BB
330
A
100
AcDbEntity
  8
HIDDEN
 48
0.5
390
1D
100
AcDbCircle
 10
1554.042239032909
 20
886.422942238233
 30
0.0
 40
10.00000000000047
  0
LINE
  5
38BC
330
A
100
AcDbEntity
  8
MODEL
390
1D
100
AcDbLine
 10
1644.032644829413
 20
1346.694266418897
 30
0.0
 11
1520.144187984919
 21
1421.694266418897
 31
0.0
  0
INSERT
  5
38BD
330
A
100
AcDbEntity
  8
MODEL
390
1D
100
AcDbBlockReference
  2
ƒOƒ‹[ƒv-1
 10
6003.646523135438
 20
3343.658041544923
 30
0.0
  0
LINE
  5
38BE
330
A
100
AcDbEntity
  8
HIDDEN
 48
0.5
390
1D
100
AcDbLine
 10
1603.050384296377
 20
721.3696242576323
 30
0.0
 11
1611.549387533974
 21
974.3254115358925
 31
0.0
  0
LINE
  5
38BF
330
A
100
AcDbEntity
  8
HIDDEN
 48
0.5
390
1D
100
AcDbLine
 10
1516.648259064631
 20
1405.988858703509
 30
0.0
 11
1594.436385087083
 21
1339.009619953529
 31
0.0
  0
ARC
  5
38C0
330
A
100
AcDbEntity
  8
HIDDEN
 48
0.5
390
1D
100
AcDbCircle
 10
1578.124003271227
 20
1320.064800094428
 30
0.0
 40
25.00000000000112
100
AcDbArc
 50
4.398140922672923
 51
49.26999999999943
  0
LINE
  5
38C1
330
A
100
AcDbEntity
  8
HIDDEN
 48
0.5
390
1D
100
AcDbLine
 10
1603.050384296377
 20
1321.981967011814
 30
0.0
 11
1611.549387533974
 21
1078.483533769914
 31
0.0
  0
LINE
  5
38C2
330
A
100
AcDbEntity
  8
HIDDEN
 48
0.5
390
1D
100
AcDbLine
 10
1625.577720201166
 20
993.5757956347236
 30
0.0
 11
1615.10318860158
 21
981.0927277901867
 31
0.0
  0
LINE
  5
38C3
330
A
100
AcDbEntity
  8
HIDDEN
 48
0.5
390
1D
100
AcDbLine
 10
1625.577720201166
 20
1049.775795634723
 30
0.0
 11
1615.10318860158
 21
1062.25886347926
 31
0.0
  0
ARC
  5
38C4
330
A
100
AcDbEntity
  8
HIDDEN
 48
0.5
390
1D
100
AcDbCircle
 10
1629.591537154494
 20
1077.78731979599
 30
0.0
 40
18.05557744373502
100
AcDbArc
 50
177.7901557515247
 51
216.6371577698655
  0
ARC
  5
38C6
330
A
100
AcDbEntity
  8
MODEL
390
1D
100
AcDbCircle
 10
1520.041973609388
 20
627.6933957075064
 30
0.0
 40
6.0
100
AcDbArc
 50
180.0
 51
270.9761226055411
  0
LINE
  5
38C7
330
A
100
AcDbEntity
  8
MODEL
390
1D
100
AcDbLine
 10
1644.032644829413
 20
696.6942664188985
 30
0.0
 11
1520.144187984919
 21
621.6942664188985
 31
0.0
  0
LINE
  5
38C8
330
A
100
AcDbEntity
  8
HIDDEN
 48
0.5
390
1D
100
AcDbLine
 10
1516.648259064631
 20
637.3996741342864
 30
0.0
 11
1594.436385087083
 21
704.3789128842661
 31
0.0
  0
ARC
  5
38C9
330
A
100
AcDbEntity
  8
HIDDEN
 48
0.5
390
1D
100
AcDbCircle
 10
1578.124003271227
 20
723.3237327433674
 30
0.0
 40
25.00000000000106
100
AcDbArc
 50
310.7300000000006
 51
355.601859077327
  0
ARC
  5
38CA
330
A
100
AcDbEntity
  8
HIDDEN
 48
0.5
390
1D
100
AcDbCircle
 10
1521.541973609388
 20
1411.672304661239
 30
0.0
 40
7.5
100
AcDbArc
 50
180.0
 51
229.2700000000018
  0
LINE
  5
38CB
330
A
100
AcDbEntity
  8
MODEL
390
1D
100
AcDbLine
 10
1514.041973609388
 20
627.6933957075064
 30
0.0
 11
1514.041973609388
 21
1415.695137130289
 31
0.0
  0
ARC
  5
38CC
330
A
100
AcDbEntity
  8
HIDDEN
 48
0.5
390
1D
100
AcDbCircle
 10
1521.541973609388
 20
631.7162281765566
 30
0.0
 40
7.499999999999642
100
AcDbArc
 50
130.7300000000004
 51
180.0
  0
LINE
  5
38CD
330
A
100
AcDbEntity
  8
MODEL
390
1D
100
AcDbLine
 10
1644.047314720306
 20
2146.071562423332
 30
0.0
 11
1520.144978359121
 21
2076.06665636186
 31
0.0
  0
LWPOLYLINE
  5
38CE
330
A
100
AcDbEntity
  8
MODEL
390
1D
100
AcDbPolyline
 90
        4
 70
   128
 43
0.0
 10
1660.612999230096
 20
2319.474774958567
 10
1655.201755750507
 20
2352.937782379776
 42
0.0679446997889238
 10
1653.623496637301
 20
2358.113076522757
 10
1644.047314720306
 20
2378.901102956428
  0
LWPOLYLINE
  5
38CF
330
A
100
AcDbEntity
  8
HIDDEN
 48
0.5
390
1D
100
AcDbPolyline
 90
        8
 70
   129
 43
0.0
 10
838.0590937587563
 20
1936.071562423331
 10
838.0590937587563
 20
2636.071562423331
 42
0.414213562373095
 10
788.0590937587563
 20
2686.071562423331
 10
420.0590937587563
 20
2686.071562423331
 42
0.4142135623730684
 10
415.0590937587563
 20
2681.071562423331
 10
415.0590937587563
 20
1891.071562423331
 42
0.414213562373095
 10
420.0590937587563
 20
1886.071562423331
 10
788.0590937587563
 20
1886.071562423331
 42
0.4142135623730977
  0
CIRCLE
  5
38D0
330
A
100
AcDbEntity
  8
HIDDEN
 48
0.5
390
1D
100
AcDbCircle
 10
473.4828885465045
 20
2286.071562423329
 30
0.0
 40
17.5
  0
CIRCLE
  5
38D1
330
A
100
AcDbEntity
  8
HIDDEN
 48
0.5
390
1D
100
AcDbCircle
 10
633.1565654876845
 20
2286.071562423332
 30
0.0
 40
22.49999999999818
  0
CIRCLE
  5
38D2
330
A
100
AcDbEntity
  8
HIDDEN
 48
0.5
390
1D
100
AcDbCircle
 10
473.4828885465045
 20
2186.071562423333
 30
0.0
 40
15.0
  0
CIRCLE
  5
38D3
330
A
100
AcDbEntity
  8
HIDDEN
 48
0.5
390
1D
100
AcDbCircle
 10
473.4828885465045
 20
2386.071562423333
 30
0.0
 40
15.0
  0
POLYLINE
  5
38D4
102
{ACAD_REACTORS
330
3A22
102
}
330
A
100
AcDbEntity
  8
MODEL
390
1D
100
AcDb2dPolyline
 66
     1
 10
0.0
 20
0.0
 30
0.0
 70
     1
 75
     5
  0
VERTEX
  5
38D5
330
38D4
100
AcDbEntity
  8
MODEL
390
1D
100
AcDbVertex
100
AcDb2dVertex
 10
415.0590937587563
 20
2511.024264650969
 30
0.0
  0
VERTEX
  5
38D6
330
38D4
100
AcDbEntity
  8
MODEL
390
1D
100
AcDbVertex
100
AcDb2dVertex
 10
685.0590937587563
 20
2511.024264650969
 30
0.0
  0
VERTEX
  5
38D7
330
38D4
100
AcDbEntity
  8
MODEL
390
1D
100
AcDbVertex
100
AcDb2dVertex
 10
685.0590937587563
 20
2061.024264650969
 30
0.0
  0
VERTEX
  5
38D8
330
38D4
100
AcDbEntity
  8
MODEL
390
1D
100
AcDbVertex
100
AcDb2dVertex
 10
415.0590937587563
 20
2061.024264650969
 30
0.0
  0
SEQEND
  5
38D9
330
38D4
100
AcDbEntity
  8
MODEL
390
1D
  0
LINE
  5
38DA
330
A
100
AcDbEntity
  8
MODEL
390
1D
100
AcDbLine
 10
415.0129992300958
 20
2646.124264650969
 30
0.0
 11
378.0129992300958
 21
2683.124264650969
 31
0.0
  0
LINE
  5
38DB
330
A
100
AcDbEntity
  8
MODEL
390
1D
100
AcDbLine
 10
415.0129992300958
 20
2666.124264650969
 30
0.0
 11
378.0129992300958
 21
2703.124264650969
 31
0.0
  0
LINE
  5
38DC
330
A
100
AcDbEntity
  8
MODEL
390
1D
100
AcDbLine
 10
415.0129992300958
 20
2686.124264650969
 30
0.0
 11
378.0129992300958
 21
2723.124264650969
 31
0.0
  0
LINE
  5
38DD
330
A
100
AcDbEntity
  8
MODEL
390
1D
100
AcDbLine
 10
415.0590937587563
 20
2736.071562423331
 30
0.0
 11
415.0590937587563
 21
1836.071562423331
 31
0.0
  0
CIRCLE
  5
38DE
330
A
100
AcDbEntity
  8
HIDDEN
 48
0.5
390
1D
100
AcDbCircle
 10
473.4828885465045
 20
2486.071562423333
 30
0.0
 40
15.0
  0
CIRCLE
  5
38DF
330
A
100
AcDbEntity
  8
HIDDEN
 48
0.5
390
1D
100
AcDbCircle
 10
473.4828885465045
 20
2086.071562423333
 30
0.0
 40
15.0
  0
CIRCLE
  5
38E0
330
A
100
AcDbEntity
  8
HIDDEN
 48
0.5
390
1D
100
AcDbCircle
 10
473.4828885465045
 20
1221.694266418898
 30
0.0
 40
15.0
  0
CIRCLE
  5
38E1
330
A
100
AcDbEntity
  8
HIDDEN
 48
0.5
390
1D
100
AcDbCircle
 10
473.4828885465045
 20
821.6942664188985
 30
0.0
 40
15.0
  0
MTEXT
  5
39D5
330
A
100
AcDbEntity
  8
DIM
390
1D
100
AcDbMText
 10
1016.416102798544
 20
664.6156762105959
 30
0.0
 40
24.0
 41
949.7161250932047
 46
70.44327974739198
 71
     1
 72
     1
  1
{\fＭＳ ゴシック|b0|i0|c1|p0;＝φ30もしくはφ35の水栓取付用穴あけ加工を承ります。\P必要な場合、ご注文の際にご指示ください。}
  7
ＭＳ ゴシック
 11
6.123233995736766E-17
 21
1.0
 31
0.0
 73
     1
 44
0.9822934569727008
1001
ACAD
1000
ACAD_MTEXT_DEFINED_HEIGHT_BEGIN
1070
    46
1040
70.44327974739198
1000
ACAD_MTEXT_DEFINED_HEIGHT_END
  0
CIRCLE
  5
3A08
330
A
100
AcDbEntity
  8
HIDDEN
 48
0.5
390
1D
100
AcDbCircle
 10
1030.490195751959
 20
637.9387752957791
 30
0.0
 40
15.0
  0
LINE
  5
3A09
330
A
100
AcDbEntity
  8
HIDDEN
 48
0.5
390
1D
100
AcDbLine
 10
1627.809601456579
 20
994.614718408204
 30
0.0
 11
1669.109601456578
 21
995.3552047439719
 31
0.0
  0
ARC
  5
3A0A
330
A
100
AcDbEntity
  8
HIDDEN
390
1D
100
AcDbCircle
 10
1627.916334417689
 20
991.5182261971142
 30
0.0
 40
3.0983311537547
100
AcDbArc
 50
91.97414610148289
 51
139.0077242313072
  0
LINE
  5
3A0B
330
A
100
AcDbEntity
  8
HIDDEN
 48
0.5
390
1D
100
AcDbLine
 10
1627.809601456579
 20
1048.736872861242
 30
0.0
 11
1669.109601456578
 21
1047.996386525474
 31
0.0
  0
ARC
  5
3A0C
330
A
100
AcDbEntity
  8
HIDDEN
390
1D
100
AcDbCircle
 10
1627.916334417689
 20
1051.833365072332
 30
0.0
 40
3.098331153754939
100
AcDbArc
 50
220.9922757686944
 51
268.0258538985173
  0
MTEXT
  5
3A0E
330
A
100
AcDbEntity
  8
DIM
390
1D
100
AcDbMText
 10
1416.342234827321
 20
1263.36222816225
 30
0.0
 40
24.0
 41
949.7161250932047
 46
26.568
 71
     1
 72
     1
  1
{\fＭＳ ゴシック|b0|i0|c1|p0;壁取付ボルト穴(2ヶ所）}
  7
ＭＳ ゴシック
 11
6.123233995736766E-17
 21
1.0
 31
0.0
 73
     1
 44
0.9822934569727008
1001
ACAD
1000
ACAD_MTEXT_DEFINED_HEIGHT_BEGIN
1070
    46
1040
26.568
1000
ACAD_MTEXT_DEFINED_HEIGHT_END
  0
MTEXT
  5
3A17
330
A
100
AcDbEntity
  8
DIM
390
1D
100
AcDbMText
 10
273.6682466834363
 20
2113.148349591891
 30
0.0
 40
24.0
 41
949.7161250932045
 46
26.928
 71
     1
 72
     1
  1
{カウンター切込み寸法}
  7
ＭＳ ゴシック
 11
6.123233995736766E-17
 21
1.0
 31
0.0
 73
     1
 44
0.9822934569727008
1001
ACAD
1000
ACAD_MTEXT_DEFINED_HEIGHT_BEGIN
1070
    46
1040
26.928
1000
ACAD_MTEXT_DEFINED_HEIGHT_END
  0
HATCH
  5
3A22
330
A
100
AcDbEntity
  8
DIM
100
AcDbHatch
 10
0.0
 20
0.0
 30
0.0
210
0.0
220
0.0
230
1.0
  2
ANSI31
 70
     0
 71
     1
 91
        1
 92
        1
 93
        4
 72
     1
 10
415.0590937587563
 20
2511.024264650969
 11
685.0590937587563
 21
2511.024264650969
 72
     1
 10
685.0590937587563
 20
2511.024264650969
 11
685.0590937587563
 21
2061.024264650969
 72
     1
 10
685.0590937587563
 20
2061.024264650969
 11
415.0590937587563
 21
2061.024264650969
 72
     1
 10
415.0590937587563
 20
2061.024264650969
 11
415.0590937587563
 21
2511.024264650969
 97
        1
330
38D4
 75
     0
 76
     1
 52
0.0
 41
8.0
 77
     0
 78
     1
 53
45.0
 43
-2314.548776978415
 44
122.0477697841727
 45
-17.9605122421383
 46
17.96051224213831
 79
     0
 98
        1
 10
-2314.548776978415
 20
122.0477697841727
1001
ACAD
1010
0.0
1020
0.0
1030
0.0
  0
MTEXT
  5
3A23
330
A
100
AcDbEntity
  8
DIM
390
1D
100
AcDbMText
 10
1152.105326165451
 20
1900.436522253761
 30
0.0
 40
24.0
 41
949.7161250932047
 46
26.688
 71
     1
 72
     1
  1
{※カウンタートップ置きの場合も壁固定が必要です。}
  7
ＭＳ ゴシック
 11
6.123233995736766E-17
 21
1.0
 31
0.0
 73
     1
 44
0.9822934569727008
1001
ACAD
1000
ACAD_MTEXT_DEFINED_HEIGHT_BEGIN
1070
    46
1040
26.688
1000
ACAD_MTEXT_DEFINED_HEIGHT_END
  0
VIEWPORT
  5
349
330
B
100
AcDbEntity
 67
     1
  8
0
100
AcDbViewport
 10
202.5
 20
128.5
 30
0.0
 40
486.0
 41
308.4
 68
     1
 69
     1
 12
202.5
 22
128.5
 13
0.0
 23
0.0
 14
0.5
 24
0.5
 15
0.0
 25
0.0
 16
0.0
 26
0.0
 36
1.0
 17
0.0
 27
0.0
 37
0.0
 42
50.0
 43
0.0
 44
0.0
 45
308.4
 50
0.0
 51
0.0
 72
   100
 90
   557152
  1

281
     0
 71
     1
 74
     0
110
0.0
120
0.0
130
0.0
111
1.0
121
0.0
131
0.0
112
0.0
122
1.0
132
0.0
 79
     0
146
0.0
170
     0
 61
     5
348
26C
292
     1
282
     1
141
0.0
142
0.0
 63
   256
  0
VIEWPORT
  5
34A
330
B
100
AcDbEntity
 67
     1
  8
0
100
AcDbViewport
 10
202.5
 20
128.5
 30
0.0
 40
324.0
 41
205.6
 68
     2
 69
     2
 12
986.6781359294573
 22
1427.077061889956
 13
0.0
 23
0.0
 14
0.5
 24
0.5
 15
0.0
 25
0.0
 16
0.0
 26
0.0
 36
1.0
 17
0.0
 27
0.0
 37
0.0
 42
50.0
 43
0.0
 44
0.0
 45
2890.021615685494
 50
0.0
 51
0.0
 72
   100
 90
   557152
  1

281
     0
 71
     1
 74
     0
110
0.0
120
0.0
130
0.0
111
1.0
121
0.0
131
0.0
112
0.0
122
1.0
132
0.0
 79
     0
146
0.0
170
     0
 61
     5
348
26C
292
     1
282
     1
141
0.0
142
0.0
 63
   256
  0
ENDSEC
  0
SECTION
  2
OBJECTS
  0
DICTIONARY
  5
19
330
0
100
AcDbDictionary
281
     1
  3
ACAD_COLOR
350
674
  3
ACAD_DETAILVIEWSTYLE
350
BBF
  3
ACAD_FIELDLIST
350
146A
  3
ACAD_GROUP
350
1A
  3
ACAD_IMAGE_VARS
350
27B
  3
ACAD_LAYOUT
350
1E
  3
ACAD_MATERIAL
350
263
  3
ACAD_MLEADERSTYLE
350
336
  3
ACAD_MLINESTYLE
350
1B
  3
ACAD_PLOTSETTINGS
350
22
  3
ACAD_PLOTSTYLENAME
350
1F
  3
ACAD_SCALELIST
350
241
  3
ACAD_SECTIONVIEWSTYLE
350
BC0
  3
ACAD_TABLESTYLE
350
278
  3
ACAD_VISUALSTYLE
350
267
  3
ACDB_RECOMPOSE_DATA
350
3A44
  3
AcDbVariableDictionary
350
330
  3
APPDATA
350
27A
  3
DimOffsetDictionary
350
E3E
  0
SUN
  5
904
330
15
100
AcDbSun
 90
        1
290
     0
 63
     7
421
 16777215
 40
1.0
291
     1
 91
  2455826
 92
 54000000
292
     0
 70
     2
 71
   256
280
     1
  0
DICTIONARY
  5
2E1
330
2
100
AcDbDictionary
280
     1
281
     1
  3
ACAD_LAYERSTATES
360
2E2
  3
ACLYDICTIONARY
360
DF9
  0
DICTIONARY
  5
3A20
330
A
100
AcDbDictionary
280
     1
281
     1
  3
ACAD_SORTENTS
360
3A21
  0
DICTIONARY
  5
1468
330
1466
100
AcDbDictionary
280
     1
281
     1
  3
ACAD_FIELD
360
146C
  0
DICTIONARY
  5
674
102
{ACAD_REACTORS
330
19
102
}
330
19
100
AcDbDictionary
281
     1
  0
DICTIONARY
  5
BBF
102
{ACAD_REACTORS
330
19
102
}
330
19
100
AcDbDictionary
281
     1
  0
FIELDLIST
  5
146A
102
{ACAD_REACTORS
330
19
102
}
330
19
100
AcDbIdSet
 90
        2
330
146B
330
1467
100
AcDbFieldList
  0
DICTIONARY
  5
1A
102
{ACAD_REACTORS
330
19
102
}
330
19
100
AcDbDictionary
281
     1
  0
RASTERVARIABLES
  5
27B
102
{ACAD_REACTORS
330
19
102
}
330
19
100
AcDbRasterVariables
 90
        0
 70
     1
 71
     1
 72
     1
  0
DICTIONARY
  5
1E
102
{ACAD_REACTORS
330
19
102
}
330
19
100
AcDbDictionary
281
     1
  3
Layout1
350
21
  3
Model
350
20
  0
DICTIONARY
  5
263
102
{ACAD_REACTORS
330
19
102
}
330
19
100
AcDbDictionary
281
     1
  3
ByBlock
350
265
  3
ByLayer
350
264
  3
Global
350
266
  0
DICTIONARY
  5
336
102
{ACAD_REACTORS
330
19
102
}
330
19
100
AcDbDictionary
281
     1
  3
Standard
350
DAB
  0
DICTIONARY
  5
1B
102
{ACAD_REACTORS
330
19
102
}
330
19
100
AcDbDictionary
281
     1
  3
Standard
350
1C
  0
DICTIONARY
  5
22
102
{ACAD_REACTORS
330
19
102
}
330
19
100
AcDbDictionary
281
     1
  0
ACDBDICTIONARYWDFLT
  5
1F
102
{ACAD_REACTORS
330
19
102
}
330
19
100
AcDbDictionary
281
     1
  3
Normal
350
1D
100
AcDbDictionaryWithDefault
340
1D
  0
DICTIONARY
  5
241
102
{ACAD_REACTORS
330
19
102
}
330
19
100
AcDbDictionary
281
     1
  3
A0
350
242
  3
A1
350
243
  3
A2
350
244
  3
A3
350
245
  3
A4
350
246
  3
A5
350
247
  3
A6
350
248
  3
A7
350
249
  3
A8
350
24A
  3
A9
350
24B
  3
B0
350
24C
  3
B1
350
24D
  3
B2
350
24E
  3
B3
350
24F
  3
B4
350
250
  3
B5
350
251
  3
B6
350
252
  3
B7
350
253
  3
B8
350
254
  3
B9
350
255
  3
C0
350
256
  3
C1
350
257
  3
C2
350
258
  3
C3
350
259
  3
C4
350
25A
  3
C5
350
25B
  3
C6
350
25C
  3
C7
350
25D
  3
C8
350
25E
  3
C9
350
25F
  3
D0
350
260
  3
D1
350
261
  3
D2
350
262
  0
DICTIONARY
  5
BC0
102
{ACAD_REACTORS
330
19
102
}
330
19
100
AcDbDictionary
281
     1
  0
DICTIONARY
  5
278
102
{ACAD_REACTORS
330
19
102
}
330
19
100
AcDbDictionary
281
     1
  3
Standard
350
279
  0
DICTIONARY
  5
267
102
{ACAD_REACTORS
330
19
102
}
330
19
100
AcDbDictionary
281
     1
  3
2dWireframe
350
26C
  3
3D Hidden
350
26E
  3
3dWireframe
350
26D
  3
Basic
350
26F
  3
Brighten
350
273
  3
ColorChange
350
277
  3
Conceptual
350
271
  3
Dim
350
272
  3
EdgeColorOff
350
8FE
  3
Facepattern
350
276
  3
Flat
350
268
  3
FlatWithEdges
350
269
  3
Gouraud
350
26A
  3
GouraudWithEdges
350
26B
  3
Hidden
350
8FB
  3
JitterOff
350
8FC
  3
Linepattern
350
275
  3
OverhangOff
350
8FD
  3
Realistic
350
270
  3
Shaded
350
903
  3
Shaded with edges
350
902
  3
Shades of Gray
350
8FF
  3
Sketchy
350
900
  3
Thicken
350
274
  3
Wireframe
350
8FA
  3
X-Ray
350
901
  0
XRECORD
  5
3A44
102
{ACAD_REACTORS
330
19
102
}
330
19
100
AcDbXrecord
280
     1
 90
        1
330
279
  0
DICTIONARY
  5
330
102
{ACAD_REACTORS
330
19
102
}
330
19
100
AcDbDictionary
281
     1
  3
CANNOSCALE
350
331
  3
CMLEADERSTYLE
350
DB1
  3
CTABLESTYLE
350
335
  3
HPTRANSPARENCY
350
D52
  3
XCLIPFRAME
350
896
  0
DICTIONARY
  5
27A
102
{ACAD_REACTORS
330
19
102
}
330
19
100
AcDbDictionary
281
     1
  0
DICTIONARY
  5
E3E
102
{ACAD_REACTORS
330
19
102
}
330
19
100
AcDbDictionary
281
     1
  3
DIMRAILANGLE
350
ECE
  3
DIMRAILFIRSTOFFSET
350
ECC
  3
DIMRAILOFFSET
350
ECD
  3
DIMRAILSENABLED
350
ECF
  0
DICTIONARY
  5
2E2
102
{ACAD_REACTORS
330
2E1
102
}
330
2E1
100
AcDbDictionary
281
     1
  0
DICTIONARY
  5
DF9
102
{ACAD_REACTORS
330
2E1
102
}
330
2E1
100
AcDbDictionary
281
     1
1001
ACAD
1000
<All
  0
SORTENTSTABLE
  5
3A21
102
{ACAD_REACTORS
330
3A20
102
}
330
3A20
100
AcDbSortentsTable
330
A
331
38D4
  5
38DB
331
38DA
  5
38DC
331
38DB
  5
38DD
331
38DC
  5
38DE
331
38DD
  5
38DF
331
38DE
  5
38E0
331
38DF
  5
38E1
331
38E0
  5
39D5
331
38E1
  5
3A07
331
39D5
  5
3A08
331
0
  5
3A09
331
3A08
  5
3A0A
331
3A09
  5
3A0B
331
3A0A
  5
3A0C
331
3A0B
  5
3A0E
331
3A0C
  5
3A0F
331
3A0E
  5
3A17
331
0
  5
3A1F
331
3A17
  5
3A22
331
0
  5
38D4
331
3A22
  5
38DA
  0
DICTIONARY
  5
146C
102
{ACAD_REACTORS
330
1468
102
}
330
1468
100
AcDbDictionary
280
     1
281
     1
  3
TEXT
360
1467
  0
LAYOUT
  5
21
102
{ACAD_REACTORS
330
1E
102
}
330
1E
100
AcDbPlotSettings
  1

  2
none_device
  4
ISO_A3_(420.00_x_297.00_MM)
  6

 40
7.5
 41
20.0
 42
7.5
 43
20.0
 44
420.0
 45
297.0
 46
0.0
 47
0.0
 48
0.0
 49
0.0
140
0.0
141
0.0
142
1.0
143
1.0
 70
     0
 72
     1
 73
     0
 74
     0
  7

 75
     0
 76
     0
 77
     2
 78
   300
147
1.0
148
0.0
149
0.0
100
AcDbLayout
  1
Layout1
 70
     0
 71
     0
 10
-7.5
 20
-20.0
 11
412.5
 21
277.0
 12
0.0
 22
0.0
 32
0.0
 14
0.0
 24
0.0
 34
0.0
 15
0.0
 25
0.0
 35
0.0
146
0.0
 13
0.0
 23
0.0
 33
0.0
 16
0.0
 26
0.0
 36
0.0
 17
0.0
 27
0.0
 37
0.0
 76
     0
330
B
331
349
  0
LAYOUT
  5
20
102
{ACAD_REACTORS
330
1E
102
}
330
1E
100
AcDbPlotSettings
  1

  2
none_device
  4
ISO_A3_(420.00_x_297.00_MM)
  6

 40
7.5
 41
20.0
 42
7.5
 43
20.0
 44
420.0
 45
297.0
 46
0.0
 47
0.0
 48
0.0
 49
0.0
140
0.0
141
0.0
142
1.0
143
1.0
 70
  1024
 72
     1
 73
     0
 74
     0
  7

 75
     0
 76
     0
 77
     2
 78
   300
147
1.0
148
0.0
149
0.0
100
AcDbLayout
  1
Model
 70
     0
 71
     1
 10
0.0
 20
0.0
 11
2100.0
 21
2970.0
 12
0.0
 22
0.0
 32
0.0
 14
0.0
 24
0.0
 34
-0.0000000000000426
 15
2100.0
 25
2970.0
 35
0.0000000032947938
146
0.0
 13
0.0
 23
0.0
 33
0.0
 16
0.0
 26
0.0
 36
0.0
 17
0.0
 27
0.0
 37
0.0
 76
     0
330
A
331
15
  0
MATERIAL
  5
265
102
{ACAD_REACTORS
330
263
102
}
330
263
100
AcDbMaterial
  1
ByBlock
 72
     1
 94
      127
  0
MATERIAL
  5
264
102
{ACAD_REACTORS
330
263
102
}
330
263
100
AcDbMaterial
  1
ByLayer
 72
     1
 94
      127
  0
MATERIAL
  5
266
102
{ACAD_REACTORS
330
263
102
}
330
263
100
AcDbMaterial
  1
Global
 72
     1
 94
      127
  0
MLEADERSTYLE
  5
DAB
102
{ACAD_REACTORS
330
336
102
}
330
336
100
AcDbMLeaderStyle
170
     2
171
     1
172
     0
 90
        2
 40
0.0
 41
0.0
173
     1
 91
-1056964608
340
11
 92
       -2
290
     1
 42
2.0
291
     1
 43
8.0
  3
Standard
341
0
 44
4.0
300

342
17
174
     1
178
     6
175
     1
176
     0
 93
-1056964608
 45
4.0
292
     0
297
     0
 46
4.0
343
0
 94
-1056964608
 47
1.0
 49
1.0
140
1.0
293
     1
141
0.0
294
     1
177
     0
142
1.0
295
     0
296
     0
143
3.75
1001
ACAD_MLEADERVER
1070
     2
  0
MLINESTYLE
  5
1C
102
{ACAD_REACTORS
330
1B
102
}
330
1B
100
AcDbMlineStyle
  2
Standard
 70
     0
  3

 62
     0
 51
90.0
 52
90.0
 71
     2
 49
0.5
 62
   256
  6
BYLAYER
 49
-0.5
 62
   256
  6
BYLAYER
  0
ACDBPLACEHOLDER
  5
1D
102
{ACAD_REACTORS
330
1F
102
}
330
1F
  0
SCALE
  5
242
102
{ACAD_REACTORS
330
241
102
}
330
241
100
AcDbScale
 70
     0
300
1:1
140
1.0
141
1.0
290
     1
  0
SCALE
  5
243
102
{ACAD_REACTORS
330
241
102
}
330
241
100
AcDbScale
 70
     0
300
1:2
140
1.0
141
2.0
290
     0
  0
SCALE
  5
244
102
{ACAD_REACTORS
330
241
102
}
330
241
100
AcDbScale
 70
     0
300
1:4
140
1.0
141
4.0
290
     0
  0
SCALE
  5
245
102
{ACAD_REACTORS
330
241
102
}
330
241
100
AcDbScale
 70
     0
300
1:5
140
1.0
141
5.0
290
     0
  0
SCALE
  5
246
102
{ACAD_REACTORS
330
241
102
}
330
241
100
AcDbScale
 70
     0
300
1:8
140
1.0
141
8.0
290
     0
  0
SCALE
  5
247
102
{ACAD_REACTORS
330
241
102
}
330
241
100
AcDbScale
 70
     0
300
1:10
140
1.0
141
10.0
290
     0
  0
SCALE
  5
248
102
{ACAD_REACTORS
330
241
102
}
330
241
100
AcDbScale
 70
     0
300
1:16
140
1.0
141
16.0
290
     0
  0
SCALE
  5
249
102
{ACAD_REACTORS
330
241
102
}
330
241
100
AcDbScale
 70
     0
300
1:20
140
1.0
141
20.0
290
     0
  0
SCALE
  5
24A
102
{ACAD_REACTORS
330
241
102
}
330
241
100
AcDbScale
 70
     0
300
1:30
140
1.0
141
30.0
290
     0
  0
SCALE
  5
24B
102
{ACAD_REACTORS
330
241
102
}
330
241
100
AcDbScale
 70
     0
300
1:40
140
1.0
141
40.0
290
     0
  0
SCALE
  5
24C
102
{ACAD_REACTORS
330
241
102
}
330
241
100
AcDbScale
 70
     0
300
1:50
140
1.0
141
50.0
290
     0
  0
SCALE
  5
24D
102
{ACAD_REACTORS
330
241
102
}
330
241
100
AcDbScale
 70
     0
300
1:100
140
1.0
141
100.0
290
     0
  0
SCALE
  5
24E
102
{ACAD_REACTORS
330
241
102
}
330
241
100
AcDbScale
 70
     0
300
2:1
140
2.0
141
1.0
290
     0
  0
SCALE
  5
24F
102
{ACAD_REACTORS
330
241
102
}
330
241
100
AcDbScale
 70
     0
300
4:1
140
4.0
141
1.0
290
     0
  0
SCALE
  5
250
102
{ACAD_REACTORS
330
241
102
}
330
241
100
AcDbScale
 70
     0
300
8:1
140
8.0
141
1.0
290
     0
  0
SCALE
  5
251
102
{ACAD_REACTORS
330
241
102
}
330
241
100
AcDbScale
 70
     0
300
10:1
140
10.0
141
1.0
290
     0
  0
SCALE
  5
252
102
{ACAD_REACTORS
330
241
102
}
330
241
100
AcDbScale
 70
     0
300
100:1
140
100.0
141
1.0
290
     0
  0
SCALE
  5
253
102
{ACAD_REACTORS
330
241
102
}
330
241
100
AcDbScale
 70
     0
300
1/128" = 1'-0"
140
0.0078125
141
12.0
290
     0
  0
SCALE
  5
254
102
{ACAD_REACTORS
330
241
102
}
330
241
100
AcDbScale
 70
     0
300
1/64" = 1'-0"
140
0.015625
141
12.0
290
     0
  0
SCALE
  5
255
102
{ACAD_REACTORS
330
241
102
}
330
241
100
AcDbScale
 70
     0
300
1/32" = 1'-0"
140
0.03125
141
12.0
290
     0
  0
SCALE
  5
256
102
{ACAD_REACTORS
330
241
102
}
330
241
100
AcDbScale
 70
     0
300
1/16" = 1'-0"
140
0.0625
141
12.0
290
     0
  0
SCALE
  5
257
102
{ACAD_REACTORS
330
241
102
}
330
241
100
AcDbScale
 70
     0
300
3/32" = 1'-0"
140
0.09375
141
12.0
290
     0
  0
SCALE
  5
258
102
{ACAD_REACTORS
330
241
102
}
330
241
100
AcDbScale
 70
     0
300
1/8" = 1'-0"
140
0.125
141
12.0
290
     0
  0
SCALE
  5
259
102
{ACAD_REACTORS
330
241
102
}
330
241
100
AcDbScale
 70
     0
300
3/16" = 1'-0"
140
0.1875
141
12.0
290
     0
  0
SCALE
  5
25A
102
{ACAD_REACTORS
330
241
102
}
330
241
100
AcDbScale
 70
     0
300
1/4" = 1'-0"
140
0.25
141
12.0
290
     0
  0
SCALE
  5
25B
102
{ACAD_REACTORS
330
241
102
}
330
241
100
AcDbScale
 70
     0
300
3/8" = 1'-0"
140
0.375
141
12.0
290
     0
  0
SCALE
  5
25C
102
{ACAD_REACTORS
330
241
102
}
330
241
100
AcDbScale
 70
     0
300
1/2" = 1'-0"
140
0.5
141
12.0
290
     0
  0
SCALE
  5
25D
102
{ACAD_REACTORS
330
241
102
}
330
241
100
AcDbScale
 70
     0
300
3/4" = 1'-0"
140
0.75
141
12.0
290
     0
  0
SCALE
  5
25E
102
{ACAD_REACTORS
330
241
102
}
330
241
100
AcDbScale
 70
     0
300
1" = 1'-0"
140
1.0
141
12.0
290
     0
  0
SCALE
  5
25F
102
{ACAD_REACTORS
330
241
102
}
330
241
100
AcDbScale
 70
     0
300
1-1/2" = 1'-0"
140
1.5
141
12.0
290
     0
  0
SCALE
  5
260
102
{ACAD_REACTORS
330
241
102
}
330
241
100
AcDbScale
 70
     0
300
3" = 1'-0"
140
3.0
141
12.0
290
     0
  0
SCALE
  5
261
102
{ACAD_REACTORS
330
241
102
}
330
241
100
AcDbScale
 70
     0
300
6" = 1'-0"
140
6.0
141
12.0
290
     0
  0
SCALE
  5
262
102
{ACAD_REACTORS
330
241
102
}
330
241
100
AcDbScale
 70
     0
300
1'-0" = 1'-0"
140
12.0
141
12.0
290
     0
  0
TABLESTYLE
  5
279
102
{ACAD_REACTORS
330
278
102
}
102
{ACAD_XDICTIONARY
360
3A42
102
}
330
278
100
AcDbTableStyle
  3
Standard
 70
     0
 71
     0
 40
0.06
 41
0.06
280
     0
281
     0
  7
Standard
140
4.5
170
     2
 62
     0
 63
   257
283
     0
 90
        4
 91
        0
  1

274
    -2
284
     1
 64
     0
275
    -2
285
     1
 65
     0
276
    -2
286
     1
 66
     0
277
    -2
287
     1
 67
     0
278
    -2
288
     1
 68
     0
279
    -2
289
     1
 69
     0
  7
Standard
140
6.0
170
     5
 62
     0
 63
   257
283
     0
 90
        4
 91
        0
  1

274
    -2
284
     1
 64
     0
275
    -2
285
     1
 65
     0
276
    -2
286
     1
 66
     0
277
    -2
287
     1
 67
     0
278
    -2
288
     1
 68
     0
279
    -2
289
     1
 69
     0
  7
Standard
140
4.5
170
     5
 62
     0
 63
   257
283
     0
 90
        4
 91
        0
  1

274
    -2
284
     1
 64
     0
275
    -2
285
     1
 65
     0
276
    -2
286
     1
 66
     0
277
    -2
287
     1
 67
     0
278
    -2
288
     1
 68
     0
279
    -2
289
     1
 69
     0
  0
VISUALSTYLE
  5
26C
102
{ACAD_REACTORS
330
267
102
}
330
267
100
AcDbVisualStyle
  2
2dWireframe
 70
     4
 71
     0
 72
     2
 73
     0
 90
        0
 40
-0.6
 41
-30.0
 62
     5
 63
     7
421
 16777215
 74
     1
 91
        4
 64
     7
 65
   257
 75
     1
175
     1
 42
1.0
 92
        0
 66
   257
 43
1.0
 76
     1
 77
     6
 78
     2
 67
     7
 79
     5
170
     0
171
     0
290
     0
174
     0
 93
        1
 44
0.0
173
     0
291
     0
 45
0.0
  0
VISUALSTYLE
  5
26E
102
{ACAD_REACTORS
330
267
102
}
330
267
100
AcDbVisualStyle
  2
3D Hidden
 70
     6
 71
     1
 72
     2
 73
     2
 90
        0
 40
-0.6
 41
-30.0
 62
     5
 63
     7
421
 16777215
 74
     2
 91
        2
 64
     7
 65
   257
 75
     2
175
     1
 42
40.0
 92
        0
 66
   257
 43
1.0
 76
     1
 77
     6
 78
     2
 67
     7
 79
     3
170
     0
171
     0
290
     0
174
     0
 93
        1
 44
0.0
173
     0
291
     0
 45
0.0
  0
VISUALSTYLE
  5
26D
102
{ACAD_REACTORS
330
267
102
}
330
267
100
AcDbVisualStyle
  2
3dWireframe
 70
     5
 71
     0
 72
     2
 73
     0
 90
        0
 40
-0.6
 41
-30.0
 62
     5
 63
     7
421
 16777215
 74
     1
 91
        4
 64
     7
 65
   257
 75
     1
175
     1
 42
1.0
 92
        0
 66
   257
 43
1.0
 76
     1
 77
     6
 78
     2
 67
     7
 79
     5
170
     0
171
     0
290
     0
174
     0
 93
        1
 44
0.0
173
     0
291
     0
 45
0.0
  0
VISUALSTYLE
  5
26F
102
{ACAD_REACTORS
330
267
102
}
330
267
100
AcDbVisualStyle
  2
Basic
 70
     7
 71
     1
 72
     0
 73
     1
 90
        0
 40
-0.6
 41
-30.0
 62
     5
 63
     7
421
 16777215
 74
     0
 91
        4
 64
     7
 65
   257
 75
     1
175
     1
 42
1.0
 92
        8
 66
     7
 43
1.0
 76
     1
 77
     6
 78
     2
 67
     7
 79
     5
170
     0
171
     0
290
     0
174
     0
 93
        1
 44
0.0
173
     0
291
     1
 45
0.0
  0
VISUALSTYLE
  5
273
102
{ACAD_REACTORS
330
267
102
}
330
267
100
AcDbVisualStyle
  2
Brighten
 70
    12
 71
     2
 72
     2
 73
     0
 90
        0
 40
-0.6
 41
-30.0
 62
     5
 63
     7
421
 16777215
 74
     1
 91
        4
 64
     7
 65
   257
 75
     1
175
     1
 42
1.0
 92
        8
 66
     7
 43
1.0
 76
     1
 77
     6
 78
     2
 67
     7
 79
     5
170
     0
171
     0
290
     0
174
     0
 93
        1
 44
50.0
173
     0
291
     1
 45
0.0
  0
VISUALSTYLE
  5
277
102
{ACAD_REACTORS
330
267
102
}
330
267
100
AcDbVisualStyle
  2
ColorChange
 70
    16
 71
     2
 72
     2
 73
     3
 90
        0
 40
-0.6
 41
-30.0
 62
     5
 63
     8
421
  8421504
 74
     1
 91
        4
 64
     7
 65
   257
 75
     1
175
     1
 42
1.0
 92
        8
 66
     8
424
  8421504
 43
1.0
 76
     1
 77
     6
 78
     2
 67
     7
 79
     5
170
     0
171
     0
290
     0
174
     0
 93
        1
 44
0.0
173
     0
291
     1
 45
0.0
  0
VISUALSTYLE
  5
271
102
{ACAD_REACTORS
330
267
102
}
330
267
100
AcDbVisualStyle
  2
Conceptual
 70
     9
 71
     3
 72
     2
 73
     0
 90
        0
 40
-0.6
 41
-30.0
 62
     5
 63
     7
421
 16777215
 74
     2
 91
        2
 64
     7
 65
   257
 75
     1
175
     1
 42
40.0
 92
        8
 66
     7
 43
1.0
 76
     1
 77
     6
 78
     2
 67
     7
 79
     3
170
     0
171
     0
290
     0
174
     0
 93
        1
 44
0.0
173
     0
291
     0
 45
0.0
  0
VISUALSTYLE
  5
272
102
{ACAD_REACTORS
330
267
102
}
330
267
100
AcDbVisualStyle
  2
Dim
 70
    11
 71
     2
 72
     2
 73
     0
 90
        0
 40
-0.6
 41
-30.0
 62
     5
 63
     7
421
 16777215
 74
     1
 91
        4
 64
     7
 65
   257
 75
     1
175
     1
 42
1.0
 92
        8
 66
     7
 43
1.0
 76
     1
 77
     6
 78
     2
 67
     7
 79
     5
170
     0
171
     0
290
     0
174
     0
 93
        1
 44
-50.0
173
     0
291
     1
 45
0.0
  0
VISUALSTYLE
  5
8FE
102
{ACAD_REACTORS
330
267
102
}
330
267
100
AcDbVisualStyle
  2
EdgeColorOff
 70
    22
 71
     2
 72
     2
 73
     0
 90
        0
 40
0.6
 41
30.0
 62
     5
 63
     7
421
 16777215
 74
     1
 91
        4
 64
     7
 65
   257
 75
     1
175
     1
 42
1.0
 92
        8
 66
     7
 43
1.0
 76
     1
 77
     6
 78
     2
 67
     7
 79
     5
170
     0
171
     0
290
     0
174
     0
 93
        1
 44
0.0
173
     0
291
     1
 45
0.0
  0
VISUALSTYLE
  5
276
102
{ACAD_REACTORS
330
267
102
}
330
267
100
AcDbVisualStyle
  2
Facepattern
 70
    15
 71
     2
 72
     2
 73
     0
 90
        0
 40
-0.6
 41
-30.0
 62
     5
 63
     7
421
 16777215
 74
     1
 91
        4
 64
     7
 65
   257
 75
     1
175
     1
 42
1.0
 92
        8
 66
     7
 43
1.0
 76
     1
 77
     6
 78
     2
 67
     7
 79
     5
170
     0
171
     0
290
     0
174
     0
 93
        1
 44
0.0
173
     0
291
     1
 45
0.0
  0
VISUALSTYLE
  5
268
102
{ACAD_REACTORS
330
267
102
}
330
267
100
AcDbVisualStyle
  2
Flat
 70
     0
 71
     2
 72
     1
 73
     1
 90
        2
 40
-0.6
 41
30.0
 62
     5
 63
     7
421
 16777215
 74
     0
 91
        4
 64
     7
 65
   257
 75
     1
175
     1
 42
1.0
 92
        8
 66
     7
 43
1.0
 76
     1
 77
     6
 78
     2
 67
     7
 79
     5
170
     0
171
     0
290
     0
174
     0
 93
       13
 44
0.0
173
     0
291
     1
 45
0.0
  0
VISUALSTYLE
  5
269
102
{ACAD_REACTORS
330
267
102
}
330
267
100
AcDbVisualStyle
  2
FlatWithEdges
 70
     1
 71
     2
 72
     1
 73
     1
 90
        2
 40
-0.6
 41
30.0
 62
     5
 63
     7
421
 16777215
 74
     1
 91
        4
 64
     7
 65
   257
 75
     1
175
     1
 42
1.0
 92
        0
 66
   257
 43
1.0
 76
     1
 77
     6
 78
     2
 67
     7
 79
     5
170
     0
171
     0
290
     0
174
     0
 93
       13
 44
0.0
173
     0
291
     1
 45
0.0
  0
VISUALSTYLE
  5
26A
102
{ACAD_REACTORS
330
267
102
}
330
267
100
AcDbVisualStyle
  2
Gouraud
 70
     2
 71
     2
 72
     2
 73
     1
 90
        2
 40
-0.6
 41
30.0
 62
     5
 63
     7
421
 16777215
 74
     0
 91
        4
 64
     7
 65
   257
 75
     1
175
     1
 42
1.0
 92
        0
 66
     7
 43
1.0
 76
     1
 77
     6
 78
     2
 67
     7
 79
     5
170
     0
171
     0
290
     0
174
     0
 93
       13
 44
0.0
173
     0
291
     1
 45
0.0
  0
VISUALSTYLE
  5
26B
102
{ACAD_REACTORS
330
267
102
}
330
267
100
AcDbVisualStyle
  2
GouraudWithEdges
 70
     3
 71
     2
 72
     2
 73
     1
 90
        2
 40
-0.6
 41
30.0
 62
     5
 63
     7
421
 16777215
 74
     1
 91
        4
 64
     7
 65
   257
 75
     1
175
     1
 42
1.0
 92
        0
 66
   257
 43
1.0
 76
     1
 77
     6
 78
     2
 67
     7
 79
     5
170
     0
171
     0
290
     0
174
     0
 93
       13
 44
0.0
173
     0
291
     1
 45
0.0
  0
VISUALSTYLE
  5
8FB
102
{ACAD_REACTORS
330
267
102
}
330
267
100
AcDbVisualStyle
  2
Hidden
 70
     6
 71
     1
 72
     2
 73
     2
 90
        0
 40
0.6
 41
30.0
 62
     5
 63
     7
421
 16777215
 74
     2
 91
        2
 64
     7
 65
   257
 75
     2
175
     1
 42
40.0
 92
        0
 66
   257
 43
1.0
 76
     1
 77
     6
 78
     2
 67
     7
 79
     3
170
     0
171
     0
290
     0
174
     0
 93
        1
 44
0.0
173
     0
291
     0
 45
0.0
  0
VISUALSTYLE
  5
8FC
102
{ACAD_REACTORS
330
267
102
}
330
267
100
AcDbVisualStyle
  2
JitterOff
 70
    20
 71
     2
 72
     2
 73
     0
 90
        0
 40
0.6
 41
30.0
 62
     5
 63
     7
421
 16777215
 74
     1
 91
        4
 64
     7
 65
   257
 75
     1
175
     1
 42
1.0
 92
       10
 66
     7
 43
1.0
 76
     1
 77
     6
 78
     2
 67
     7
 79
     5
170
     0
171
     0
290
     0
174
     0
 93
        1
 44
0.0
173
     0
291
     1
 45
0.0
  0
VISUALSTYLE
  5
275
102
{ACAD_REACTORS
330
267
102
}
330
267
100
AcDbVisualStyle
  2
Linepattern
 70
    14
 71
     2
 72
     2
 73
     0
 90
        0
 40
-0.6
 41
-30.0
 62
     5
 63
     7
421
 16777215
 74
     1
 91
        4
 64
     7
 65
   257
 75
     7
175
     7
 42
1.0
 92
        8
 66
     7
 43
1.0
 76
     1
 77
     6
 78
     2
 67
     7
 79
     5
170
     0
171
     0
290
     0
174
     0
 93
        1
 44
0.0
173
     0
291
     1
 45
0.0
  0
VISUALSTYLE
  5
8FD
102
{ACAD_REACTORS
330
267
102
}
330
267
100
AcDbVisualStyle
  2
OverhangOff
 70
    21
 71
     2
 72
     2
 73
     0
 90
        0
 40
0.6
 41
30.0
 62
     5
 63
     7
421
 16777215
 74
     1
 91
        4
 64
     7
 65
   257
 75
     1
175
     1
 42
1.0
 92
        9
 66
     7
 43
1.0
 76
     1
 77
     6
 78
     2
 67
     7
 79
     5
170
     0
171
     0
290
     0
174
     0
 93
        1
 44
0.0
173
     0
291
     1
 45
0.0
  0
VISUALSTYLE
  5
270
102
{ACAD_REACTORS
330
267
102
}
330
267
100
AcDbVisualStyle
  2
Realistic
 70
     8
 71
     2
 72
     2
 73
     0
 90
        0
 40
-0.6
 41
-30.0
 62
     5
 63
     7
421
 16777215
 74
     1
 91
        0
 64
     7
 65
   257
 75
     1
175
     1
 42
1.0
 92
        8
 66
     8
424
  7895160
 43
1.0
 76
     1
 77
     6
 78
     2
 67
     7
 79
     5
170
     0
171
     0
290
     0
174
     0
 93
       13
 44
0.0
173
     0
291
     0
 45
0.0
  0
VISUALSTYLE
  5
903
102
{ACAD_REACTORS
330
267
102
}
330
267
100
AcDbVisualStyle
  2
Shaded
 70
    27
 71
     2
 72
     2
 73
     1
 90
        2
 40
0.6
 41
30.0
 62
     5
 63
     7
421
 16777215
 74
     0
 91
        4
 64
     7
 65
   257
 75
     1
175
     1
 42
1.0
 92
        8
 66
   257
 43
1.0
 76
     1
 77
     6
 78
     2
 67
     8
425
  7895160
 79
     3
170
     0
171
     0
290
     0
174
     0
 93
        5
 44
0.0
173
     0
291
     0
 45
0.0
  0
VISUALSTYLE
  5
902
102
{ACAD_REACTORS
330
267
102
}
330
267
100
AcDbVisualStyle
  2
Shaded with edges
 70
    26
 71
     2
 72
     2
 73
     1
 90
        2
 40
0.6
 41
30.0
 62
     5
 63
     7
421
 16777215
 74
     1
 91
       10
 64
     7
 65
   257
 75
     2
175
     1
 42
1.0
 92
        8
 66
   257
 43
1.0
 76
     1
 77
     6
 78
     2
 67
     7
 79
     3
170
     0
171
     0
290
     0
174
     0
 93
        5
 44
0.0
173
     0
291
     0
 45
0.0
  0
VISUALSTYLE
  5
8FF
102
{ACAD_REACTORS
330
267
102
}
330
267
100
AcDbVisualStyle
  2
Shades of Gray
 70
    23
 71
     2
 72
     2
 73
     3
 90
        0
 40
0.6
 41
30.0
 62
     5
 63
     7
421
 16777215
 74
     2
 91
        2
 64
     7
 65
     7
 75
     1
175
     1
 42
40.0
 92
        8
 66
     7
 43
1.0
 76
     1
 77
     6
 78
     2
 67
     7
 79
     3
170
     0
171
     0
290
     0
174
     0
 93
        1
 44
0.0
173
     0
291
     0
 45
0.0
  0
VISUALSTYLE
  5
900
102
{ACAD_REACTORS
330
267
102
}
330
267
100
AcDbVisualStyle
  2
Sketchy
 70
    24
 71
     1
 72
     2
 73
     2
 90
        0
 40
0.6
 41
30.0
 62
     5
 63
     7
421
 16777215
 74
     2
 91
        2
 64
     7
 65
     7
 75
     1
175
     1
 42
40.0
 92
       11
 66
     7
 43
1.0
 76
     1
 77
     6
 78
     2
 67
     7
 79
     6
170
     0
171
     0
290
     0
174
     0
 93
        1
 44
0.0
173
     0
291
     0
 45
0.0
  0
VISUALSTYLE
  5
274
102
{ACAD_REACTORS
330
267
102
}
330
267
100
AcDbVisualStyle
  2
Thicken
 70
    13
 71
     2
 72
     2
 73
     0
 90
        0
 40
-0.6
 41
-30.0
 62
     5
 63
     7
421
 16777215
 74
     1
 91
        4
 64
     7
 65
   257
 75
     1
175
     1
 42
1.0
 92
       12
 66
     7
 43
1.0
 76
     1
 77
     6
 78
     2
 67
     7
 79
     5
170
     0
171
     0
290
     0
174
     0
 93
        1
 44
0.0
173
     0
291
     1
 45
0.0
  0
VISUALSTYLE
  5
8FA
102
{ACAD_REACTORS
330
267
102
}
330
267
100
AcDbVisualStyle
  2
Wireframe
 70
     5
 71
     0
 72
     2
 73
     0
 90
        0
 40
0.6
 41
30.0
 62
     5
 63
     7
421
 16777215
 74
     1
 91
        4
 64
     7
 65
   257
 75
     1
175
     1
 42
1.0
 92
        0
 66
   257
 43
1.0
 76
     1
 77
     6
 78
     2
 67
     7
 79
     3
170
     0
171
     0
290
     0
174
     0
 93
        1
 44
0.0
173
     0
291
     0
 45
0.0
  0
VISUALSTYLE
  5
901
102
{ACAD_REACTORS
330
267
102
}
330
267
100
AcDbVisualStyle
  2
X-Ray
 70
    25
 71
     2
 72
     2
 73
     1
 90
        1
 40
0.5
 41
30.0
 62
     5
 63
     7
421
 16777215
 74
     1
 91
        0
 64
     7
 65
   257
 75
     1
175
     1
 42
1.0
 92
        8
 66
     7
 43
1.0
 76
     1
 77
     6
 78
     2
 67
     7
 79
     3
170
     0
171
     0
290
     0
174
     0
 93
       13
 44
0.0
173
     0
291
     0
 45
0.0
  0
DICTIONARYVAR
  5
331
102
{ACAD_REACTORS
330
330
102
}
330
330
100
DictionaryVariables
280
     0
  1
1:1
  0
DICTIONARYVAR
  5
DB1
102
{ACAD_REACTORS
330
330
102
}
330
330
100
DictionaryVariables
280
     0
  1
Standard
  0
DICTIONARYVAR
  5
335
102
{ACAD_REACTORS
330
330
102
}
330
330
100
DictionaryVariables
280
     0
  1
Standard
  0
DICTIONARYVAR
  5
D52
102
{ACAD_REACTORS
330
330
102
}
330
330
100
DictionaryVariables
280
     0
  1
ByLayer
  0
DICTIONARYVAR
  5
896
102
{ACAD_REACTORS
330
330
102
}
330
330
100
DictionaryVariables
280
     0
  1
0
  0
DICTIONARYVAR
  5
ECE
102
{ACAD_REACTORS
330
E3E
102
}
330
E3E
100
DictionaryVariables
280
     0
  1
0.261799
  0
DICTIONARYVAR
  5
ECC
102
{ACAD_REACTORS
330
E3E
102
}
330
E3E
100
DictionaryVariables
280
     0
  1
0.400000
  0
DICTIONARYVAR
  5
ECD
102
{ACAD_REACTORS
330
E3E
102
}
330
E3E
100
DictionaryVariables
280
     0
  1
0.250000
  0
DICTIONARYVAR
  5
ECF
102
{ACAD_REACTORS
330
E3E
102
}
330
E3E
100
DictionaryVariables
280
     0
  1
1
  0
FIELD
  5
1467
102
{ACAD_REACTORS
330
146C
102
}
330
146C
100
AcDbField
  1
_text
  2
{%<\_FldIdx 0>%N}
 90
        1
360
146B
 97
        0
 91
       63
 92
        0
 94
        8
 95
        2
 96
        0
300

 93
        1
  6
ACFD_FIELDTEXT_CHECKSUM
 93
        2
 90
        2
140
4475.0
 94
        0
300

302

304
ACVALUE_END
  7
ACFD_FIELD_VALUE
 93
        6
 90
        4
  1
{20171004N}
 94
        0
300

302

304
ACVALUE_END
301
{20171004N}
 98
       11
  0
DICTIONARY
  5
3A42
330
279
100
AcDbDictionary
280
     1
281
     1
  3
ACAD_ROUNDTRIP_2008_TABLESTYLE_CELLSTYLEMAP
360
3A43
  0
FIELD
  5
146B
330
1467
100
AcDbField
  1
AcVar
  2
\AcVar Date \f "yyyyMMdd"
 90
        0
 97
        0
 91
       63
 92
        0
 94
        8
 95
        2
 96
        0
300

 93
        1
  6
Variable
 93
        2
 90
        4
  1
Date
 94
        0
300

302

304
ACVALUE_END
  7
ACFD_FIELD_VALUE
 93
        6
 90
        8
 92
       16
310
E1070A00000004000A00340032000000
 94
        0
300
yyyyMMdd
302

304
ACVALUE_END
301
20171004
 98
        8
  0
CELLSTYLEMAP
  5
3A43
102
{ACAD_REACTORS
330
3A42
102
}
330
3A42
100
AcDbCellStyleMap
 90
        3
300
CELLSTYLE
  1
TABLEFORMAT_BEGIN
 90
        5
170
     1
 91
        0
 92
    32768
 62
   257
 93
        1
300
CONTENTFORMAT
  1
CONTENTFORMAT_BEGIN
 90
        0
 91
        0
 92
        4
 93
        0
300

 40
0.0
140
1.0
 94
        5
 62
     0
340
17
144
6.0
309
CONTENTFORMAT_END
171
     1
301
MARGIN
  1
CELLMARGIN_BEGIN
 40
0.06
 40
0.06
 40
0.06
 40
0.06
 40
0.18
 40
0.18
309
CELLMARGIN_END
 94
        6
 95
        1
302
GRIDFORMAT
  1
GRIDFORMAT_BEGIN
 90
        0
 91
        1
 62
     0
 92
       -2
340
0
 93
        0
 40
0.045
309
GRIDFORMAT_END
 95
        2
302
GRIDFORMAT
  1
GRIDFORMAT_BEGIN
 90
        0
 91
        1
 62
     0
 92
       -2
340
0
 93
        0
 40
0.045
309
GRIDFORMAT_END
 95
        4
302
GRIDFORMAT
  1
GRIDFORMAT_BEGIN
 90
        0
 91
        1
 62
     0
 92
       -2
340
0
 93
        0
 40
0.045
309
GRIDFORMAT_END
 95
        8
302
GRIDFORMAT
  1
GRIDFORMAT_BEGIN
 90
        0
 91
        1
 62
     0
 92
       -2
340
0
 93
        0
 40
0.045
309
GRIDFORMAT_END
 95
       16
302
GRIDFORMAT
  1
GRIDFORMAT_BEGIN
 90
        0
 91
        1
 62
     0
 92
       -2
340
0
 93
        0
 40
0.045
309
GRIDFORMAT_END
 95
       32
302
GRIDFORMAT
  1
GRIDFORMAT_BEGIN
 90
        0
 91
        1
 62
     0
 92
       -2
340
0
 93
        0
 40
0.045
309
GRIDFORMAT_END
309
TABLEFORMAT_END
  1
CELLSTYLE_BEGIN
 90
        1
 91
        1
300
_TITLE
309
CELLSTYLE_END
300
CELLSTYLE
  1
TABLEFORMAT_BEGIN
 90
        5
170
     1
 91
        0
 92
        0
 62
   257
 93
        1
300
CONTENTFORMAT
  1
CONTENTFORMAT_BEGIN
 90
        0
 91
        0
 92
        4
 93
        0
300

 40
0.0
140
1.0
 94
        5
 62
     0
340
17
144
4.5
309
CONTENTFORMAT_END
171
     1
301
MARGIN
  1
CELLMARGIN_BEGIN
 40
0.06
 40
0.06
 40
0.06
 40
0.06
 40
0.18
 40
0.18
309
CELLMARGIN_END
 94
        6
 95
        1
302
GRIDFORMAT
  1
GRIDFORMAT_BEGIN
 90
        0
 91
        1
 62
     0
 92
       -2
340
0
 93
        0
 40
0.045
309
GRIDFORMAT_END
 95
        2
302
GRIDFORMAT
  1
GRIDFORMAT_BEGIN
 90
        0
 91
        1
 62
     0
 92
       -2
340
0
 93
        0
 40
0.045
309
GRIDFORMAT_END
 95
        4
302
GRIDFORMAT
  1
GRIDFORMAT_BEGIN
 90
        0
 91
        1
 62
     0
 92
       -2
340
0
 93
        0
 40
0.045
309
GRIDFORMAT_END
 95
        8
302
GRIDFORMAT
  1
GRIDFORMAT_BEGIN
 90
        0
 91
        1
 62
     0
 92
       -2
340
0
 93
        0
 40
0.045
309
GRIDFORMAT_END
 95
       16
302
GRIDFORMAT
  1
GRIDFORMAT_BEGIN
 90
        0
 91
        1
 62
     0
 92
       -2
340
0
 93
        0
 40
0.045
309
GRIDFORMAT_END
 95
       32
302
GRIDFORMAT
  1
GRIDFORMAT_BEGIN
 90
        0
 91
        1
 62
     0
 92
       -2
340
0
 93
        0
 40
0.045
309
GRIDFORMAT_END
309
TABLEFORMAT_END
  1
CELLSTYLE_BEGIN
 90
        2
 91
        1
300
_HEADER
309
CELLSTYLE_END
300
CELLSTYLE
  1
TABLEFORMAT_BEGIN
 90
        5
170
     1
 91
        0
 92
        0
 62
   257
 93
        1
300
CONTENTFORMAT
  1
CONTENTFORMAT_BEGIN
 90
        0
 91
        0
 92
        4
 93
        0
300

 40
0.0
140
1.0
 94
        2
 62
     0
340
17
144
4.5
309
CONTENTFORMAT_END
171
     1
301
MARGIN
  1
CELLMARGIN_BEGIN
 40
0.06
 40
0.06
 40
0.06
 40
0.06
 40
0.18
 40
0.18
309
CELLMARGIN_END
 94
        6
 95
        1
302
GRIDFORMAT
  1
GRIDFORMAT_BEGIN
 90
        0
 91
        1
 62
     0
 92
       -2
340
0
 93
        0
 40
0.045
309
GRIDFORMAT_END
 95
        2
302
GRIDFORMAT
  1
GRIDFORMAT_BEGIN
 90
        0
 91
        1
 62
     0
 92
       -2
340
0
 93
        0
 40
0.045
309
GRIDFORMAT_END
 95
        4
302
GRIDFORMAT
  1
GRIDFORMAT_BEGIN
 90
        0
 91
        1
 62
     0
 92
       -2
340
0
 93
        0
 40
0.045
309
GRIDFORMAT_END
 95
        8
302
GRIDFORMAT
  1
GRIDFORMAT_BEGIN
 90
        0
 91
        1
 62
     0
 92
       -2
340
0
 93
        0
 40
0.045
309
GRIDFORMAT_END
 95
       16
302
GRIDFORMAT
  1
GRIDFORMAT_BEGIN
 90
        0
 91
        1
 62
     0
 92
       -2
340
0
 93
        0
 40
0.045
309
GRIDFORMAT_END
 95
       32
302
GRIDFORMAT
  1
GRIDFORMAT_BEGIN
 90
        0
 91
        1
 62
     0
 92
       -2
340
0
 93
        0
 40
0.045
309
GRIDFORMAT_END
309
TABLEFORMAT_END
  1
CELLSTYLE_BEGIN
 90
        3
 91
        2
300
_DATA
309
CELLSTYLE_END
  0
ENDSEC
  0
EOF
