  0
SECTION
  2
HEADER
  9
$ACADVER
  1
AC1021
  9
$ACADMAINTVER
 70
    25
  9
$DWGCODEPAGE
  3
ANSI_932
  9
$LASTSAVEDBY
  1
howeNelson
  9
$INSBASE
 10
0.0
 20
0.0
 30
0.0
  9
$EXTMIN
 10
72.20214454724874
 20
63.79214832457114
 30
0.0
  9
$EXTMAX
 10
2022.202144547732
 20
2897.146673506426
 30
0.0
  9
$LIMMIN
 10
0.0
 20
0.0
  9
$LIMMAX
 10
2100.0
 20
2970.0
  9
$ORTHOMODE
 70
     0
  9
$REGENMODE
 70
     1
  9
$FILLMODE
 70
     1
  9
$QTEXTMODE
 70
     0
  9
$MIRRTEXT
 70
     1
  9
$LTSCALE
 40
50.8
  9
$ATTMODE
 70
     1
  9
$TEXTSIZE
 40
2.5
  9
$TRACEWID
 40
1.0
  9
$TEXTSTYLE
  7
ＭＳ ゴシック
  9
$CLAYER
  8
DIM
  9
$CELTYPE
  6
Continuous
  9
$CECOLOR
 62
   256
  9
$CELTSCALE
 40
1.0
  9
$DISPSILH
 70
     0
  9
$DIMSCALE
 40
1.0
  9
$DIMASZ
 40
9.0
  9
$DIMEXO
 40
10.0
  9
$DIMDLI
 40
0.9999999999999999
  9
$DIMRND
 40
0.0
  9
$DIMDLE
 40
0.0
  9
$DIMEXE
 40
0.0
  9
$DIMTP
 40
0.0
  9
$DIMTM
 40
0.0
  9
$DIMTXT
 40
24.0
  9
$DIMCEN
 40
0.0
  9
$DIMTSZ
 40
0.0
  9
$DIMTOL
 70
     0
  9
$DIMLIM
 70
     0
  9
$DIMTIH
 70
     0
  9
$DIMTOH
 70
     0
  9
$DIMSE1
 70
     0
  9
$DIMSE2
 70
     0
  9
$DIMTAD
 70
     1
  9
$DIMZIN
 70
    11
  9
$DIMBLK
  1
DOT
  9
$DIMASO
 70
     1
  9
$DIMSHO
 70
     1
  9
$DIMPOST
  1
<>
  9
$DIMAPOST
  1
[]
  9
$DIMALT
 70
     0
  9
$DIMALTD
 70
     1
  9
$DIMALTF
 40
1.0
  9
$DIMLFAC
 40
1.0
  9
$DIMTOFL
 70
     0
  9
$DIMTVP
 40
0.0
  9
$DIMTIX
 70
     1
  9
$DIMSOXD
 70
     0
  9
$DIMSAH
 70
     0
  9
$DIMBLK1
  1

  9
$DIMBLK2
  1

  9
$DIMSTYLE
  2
tfrom線あり
  9
$DIMCLRD
 70
     0
  9
$DIMCLRE
 70
     0
  9
$DIMCLRT
 70
     0
  9
$DIMTFAC
 40
1.0
  9
$DIMGAP
 40
20.0
  9
$DIMJUST
 70
     0
  9
$DIMSD1
 70
     0
  9
$DIMSD2
 70
     0
  9
$DIMTOLJ
 70
     1
  9
$DIMTZIN
 70
    11
  9
$DIMALTZ
 70
    11
  9
$DIMALTTZ
 70
    11
  9
$DIMUPT
 70
     0
  9
$DIMDEC
 70
     0
  9
$DIMTDEC
 70
     1
  9
$DIMALTU
 70
     2
  9
$DIMALTTD
 70
     2
  9
$DIMTXSTY
  7
ＭＳ ゴシック
  9
$DIMAUNIT
 70
     0
  9
$DIMADEC
 70
     2
  9
$DIMALTRND
 40
0.0
  9
$DIMAZIN
 70
     0
  9
$DIMDSEP
 70
    46
  9
$DIMATFIT
 70
     0
  9
$DIMFRAC
 70
     2
  9
$DIMLDRBLK
  1
DOT
  9
$DIMLUNIT
 70
     2
  9
$DIMLWD
 70
    -2
  9
$DIMLWE
 70
    -2
  9
$DIMTMOVE
 70
     0
  9
$DIMFXL
 40
1.0
  9
$DIMFXLON
 70
     0
  9
$DIMJOGANG
 40
0.7853981633974483
  9
$DIMTFILL
 70
     0
  9
$DIMTFILLCLR
 70
     0
  9
$DIMARCSYM
 70
     0
  9
$DIMLTYPE
  6

  9
$DIMLTEX1
  6

  9
$DIMLTEX2
  6

  9
$LUNITS
 70
     2
  9
$LUPREC
 70
     0
  9
$SKETCHINC
 40
0.1
  9
$FILLETRAD
 40
0.0
  9
$AUNITS
 70
     0
  9
$AUPREC
 70
     0
  9
$MENU
  1
acad
  9
$ELEVATION
 40
0.0
  9
$PELEVATION
 40
0.0
  9
$THICKNESS
 40
0.0
  9
$LIMCHECK
 70
     0
  9
$CHAMFERA
 40
0.0
  9
$CHAMFERB
 40
0.0
  9
$CHAMFERC
 40
0.0
  9
$CHAMFERD
 40
0.0
  9
$SKPOLY
 70
     0
  9
$TDCREATE
 40
2447893.375
  9
$TDUCREATE
 40
0.0
  9
$TDUPDATE
 40
2457345.600104792
  9
$TDUUPDATE
 40
2457345.225104792
  9
$TDINDWG
 40
0.1631063194
  9
$TDUSRTIMER
 40
2457345.220080787
  9
$USRTIMER
 70
     1
  9
$ANGBASE
 50
0.0
  9
$ANGDIR
 70
     0
  9
$PDMODE
 70
     1
  9
$PDSIZE
 40
-2.0
  9
$PLINEWID
 40
0.0
  9
$SPLFRAME
 70
     0
  9
$SPLINETYPE
 70
     6
  9
$SPLINESEGS
 70
     8
  9
$HANDSEED
  5
1DDD
  9
$SURFTAB1
 70
     6
  9
$SURFTAB2
 70
     6
  9
$SURFTYPE
 70
     6
  9
$SURFU
 70
     6
  9
$SURFV
 70
     6
  9
$UCSBASE
  2

  9
$UCSNAME
  2

  9
$UCSORG
 10
0.0
 20
0.0
 30
0.0
  9
$UCSXDIR
 10
1.0
 20
0.0
 30
0.0
  9
$UCSYDIR
 10
0.0
 20
1.0
 30
0.0
  9
$UCSORTHOREF
  2

  9
$UCSORTHOVIEW
 70
     0
  9
$UCSORGTOP
 10
0.0
 20
0.0
 30
0.0
  9
$UCSORGBOTTOM
 10
0.0
 20
0.0
 30
0.0
  9
$UCSORGLEFT
 10
0.0
 20
0.0
 30
0.0
  9
$UCSORGRIGHT
 10
0.0
 20
0.0
 30
0.0
  9
$UCSORGFRONT
 10
0.0
 20
0.0
 30
0.0
  9
$UCSORGBACK
 10
0.0
 20
0.0
 30
0.0
  9
$PUCSBASE
  2

  9
$PUCSNAME
  2

  9
$PUCSORG
 10
0.0
 20
0.0
 30
0.0
  9
$PUCSXDIR
 10
1.0
 20
0.0
 30
0.0
  9
$PUCSYDIR
 10
0.0
 20
1.0
 30
0.0
  9
$PUCSORTHOREF
  2

  9
$PUCSORTHOVIEW
 70
     0
  9
$PUCSORGTOP
 10
0.0
 20
0.0
 30
0.0
  9
$PUCSORGBOTTOM
 10
0.0
 20
0.0
 30
0.0
  9
$PUCSORGLEFT
 10
0.0
 20
0.0
 30
0.0
  9
$PUCSORGRIGHT
 10
0.0
 20
0.0
 30
0.0
  9
$PUCSORGFRONT
 10
0.0
 20
0.0
 30
0.0
  9
$PUCSORGBACK
 10
0.0
 20
0.0
 30
0.0
  9
$USERI1
 70
     0
  9
$USERI2
 70
     0
  9
$USERI3
 70
     0
  9
$USERI4
 70
     0
  9
$USERI5
 70
     0
  9
$USERR1
 40
0.0
  9
$USERR2
 40
0.0
  9
$USERR3
 40
0.0
  9
$USERR4
 40
0.0
  9
$USERR5
 40
0.0
  9
$WORLDVIEW
 70
     1
  9
$SHADEDGE
 70
     3
  9
$SHADEDIF
 70
    70
  9
$TILEMODE
 70
     1
  9
$MAXACTVP
 70
    64
  9
$PINSBASE
 10
0.0
 20
0.0
 30
0.0
  9
$PLIMCHECK
 70
     0
  9
$PEXTMIN
 10
0.0
 20
0.0
 30
0.0
  9
$PEXTMAX
 10
0.0
 20
0.0
 30
0.0
  9
$PLIMMIN
 10
-95.87226993865028
 20
-25.69999999999999
  9
$PLIMMAX
 10
201.1277300613497
 20
184.3
  9
$UNITMODE
 70
     0
  9
$VISRETAIN
 70
     0
  9
$PLINEGEN
 70
     1
  9
$PSLTSCALE
 70
     0
  9
$TREEDEPTH
 70
  3020
  9
$CMLSTYLE
  2
Standard
  9
$CMLJUST
 70
     0
  9
$CMLSCALE
 40
1.0
  9
$PROXYGRAPHICS
 70
     0
  9
$MEASUREMENT
 70
     1
  9
$CELWEIGHT
370
    -1
  9
$ENDCAPS
280
     0
  9
$JOINSTYLE
280
     0
  9
$LWDISPLAY
290
     1
  9
$INSUNITS
 70
     4
  9
$HYPERLINKBASE
  1

  9
$STYLESHEET
  1

  9
$XEDIT
290
     1
  9
$CEPSNTYPE
380
     0
  9
$PSTYLEMODE
290
     1
  9
$FINGERPRINTGUID
  2

  9
$VERSIONGUID
  2

  9
$EXTNAMES
290
     1
  9
$PSVPSCALE
 40
0.0
  9
$OLESTARTUP
290
     0
  9
$SORTENTS
280
   127
  9
$INDEXCTL
280
     0
  9
$HIDETEXT
280
     1
  9
$XCLIPFRAME
290
     0
  9
$HALOGAP
280
     0
  9
$OBSCOLOR
 70
   257
  9
$OBSLTYPE
280
     0
  9
$INTERSECTIONDISPLAY
280
     0
  9
$INTERSECTIONCOLOR
 70
   257
  9
$DIMASSOC
280
     2
  9
$PROJECTNAME
  1

  9
$CAMERADISPLAY
290
     0
  9
$LENSLENGTH
 40
50.0
  9
$CAMERAHEIGHT
 40
0.0
  9
$STEPSPERSEC
 40
2.0
  9
$STEPSIZE
 40
6.0
  9
$3DDWFPREC
 40
2.0
  9
$PSOLWIDTH
 40
0.25
  9
$PSOLHEIGHT
 40
4.0
  9
$LOFTANG1
 40
1.570796326794897
  9
$LOFTANG2
 40
1.570796326794897
  9
$LOFTMAG1
 40
0.0
  9
$LOFTMAG2
 40
0.0
  9
$LOFTPARAM
 70
     7
  9
$LOFTNORMALS
280
     1
  9
$LATITUDE
 40
37.795
  9
$LONGITUDE
 40
-122.394
  9
$NORTHDIRECTION
 40
0.0
  9
$TIMEZONE
 70
 -8000
  9
$LIGHTGLYPHDISPLAY
280
     1
  9
$TILEMODELIGHTSYNCH
280
     1
  9
$SOLIDHIST
280
     1
  9
$SHOWHIST
280
     1
  9
$DWFFRAME
280
     2
  9
$DGNFRAME
280
     2
  9
$REALWORLDSCALE
290
     1
  9
$INTERFERECOLOR
 62
   256
  9
$CSHADOW
280
     0
  9
$SHADOWPLANELOCATION
 40
0.0
  0
ENDSEC
  0
SECTION
  2
CLASSES
  0
CLASS
  1
LWPOLYLINE
  2
AcDbPolyline
  3
ObjectDBX Classes
 90
        0
 91
        1
280
     0
281
     1
  0
CLASS
  1
IMAGE
  2
AcDbRasterImage
  3
ISM
 90
      127
 91
        6
280
     0
281
     1
  0
CLASS
  1
OLE2FRAME
  2
AcDbOle2Frame
  3
ObjectDBX Classes
 90
        0
 91
        1
280
     0
281
     1
  0
CLASS
  1
HATCH
  2
AcDbHatch
  3
ObjectDBX Classes
 90
        0
 91
        1
280
     0
281
     1
  0
CLASS
  1
DICTIONARYVAR
  2
AcDbDictionaryVar
  3
ObjectDBX Classes
 90
        0
 91
        5
280
     0
281
     0
  0
CLASS
  1
RASTERVARIABLES
  2
AcDbRasterVariables
  3
ISM
 90
        0
 91
        7
280
     0
281
     0
  0
CLASS
  1
IMAGEDEF
  2
AcDbRasterImageDef
  3
ISM
 90
        0
 91
        5
280
     0
281
     0
  0
CLASS
  1
IMAGEDEF_REACTOR
  2
AcDbRasterImageDefReactor
  3
ISM
 90
        1
 91
        5
280
     0
281
     0
  0
CLASS
  1
IDBUFFER
  2
AcDbIdBuffer
  3
ObjectDBX Classes
 90
        0
 91
        4
280
     0
281
     0
  0
CLASS
  1
SPATIAL_FILTER
  2
AcDbSpatialFilter
  3
ObjectDBX Classes
 90
        0
 91
        4
280
     0
281
     0
  0
CLASS
  1
XRECORD
  2
AcDbXrecord
  3
ObjectDBX Classes
 90
        0
 91
        1
280
     0
281
     0
  0
CLASS
  1
SORTENTSTABLE
  2
AcDbSortentsTable
  3
ObjectDBX Classes
 90
        0
 91
        5
280
     0
281
     0
  0
CLASS
  1
LAYER_INDEX
  2
AcDbLayerIndex
  3
ObjectDBX Classes
 90
        0
 91
        4
280
     0
281
     0
  0
CLASS
  1
SPATIAL_INDEX
  2
AcDbSpatialIndex
  3
AutoCAD 2000
 90
        0
 91
        4
280
     0
281
     0
  0
CLASS
  1
OBJECT_PTR
  2
CAseDLPNTableRecord
  3
ASE-LPNTableRecord
 90
        1
 91
        4
280
     0
281
     0
  0
CLASS
  1
LAYOUT
  2
AcDbLayout
  3
ObjectDBX Classes
 90
        0
 91
        1
280
     0
281
     0
  0
CLASS
  1
PLOTSETTINGS
  2
AcDbPlotSettings
  3
ObjectDBX Classes
 90
        0
 91
        4
280
     0
281
     0
  0
CLASS
  1
ACDBDICTIONARYWDFLT
  2
AcDbDictionaryWithDefault
  3
ObjectDBX Classes
 90
        0
 91
        7
280
     0
281
     0
  0
CLASS
  1
ACDBPLACEHOLDER
  2
AcDbPlaceHolder
  3
ObjectDBX Classes
 90
        0
 91
        1
280
     0
281
     0
  0
CLASS
  1
SCALE
  2
AcDbScale
  3
ObjectDBX Classes
 90
     1153
 91
        7
280
     0
281
     0
  0
CLASS
  1
MATERIAL
  2
AcDbMaterial
  3
ObjectDBX Classes
 90
     1153
 91
        7
280
     0
281
     0
  0
CLASS
  1
VISUALSTYLE
  2
AcDbVisualStyle
  3
ObjectDBX Classes
 90
     4095
 91
        7
280
     0
281
     0
  0
CLASS
  1
TABLESTYLE
  2
AcDbTableStyle
  3
ObjectDBX Classes
 90
     4095
 91
        7
280
     0
281
     0
  0
CLASS
  1
DIMASSOC
  2
AcDbDimAssoc
  3
"AcDbDimAssoc|Product Desc:     AcDim ARX App For Dimension|Company:          Autodesk, Inc.|WEB Address:      www.autodesk.com"
 90
        0
 91
        5
280
     0
281
     0
  0
CLASS
  1
CELLSTYLEMAP
  2
AcDbCellStyleMap
  3
ObjectDBX Classes
 90
     1152
 91
        5
280
     0
281
     0
  0
CLASS
  1
SUN
  2
AcDbSun
  3
SCENEOE
 90
     1153
 91
        7
280
     0
281
     0
  0
ENDSEC
  0
SECTION
  2
TABLES
  0
TABLE
  2
VPORT
  5
7
330
0
100
AcDbSymbolTable
 70
     1
  0
VPORT
  5
15
330
7
100
AcDbSymbolTableRecord
100
AcDbViewportTableRecord
  2
*ACTIVE
 70
     0
 10
0.0
 20
0.0
 11
1.0
 21
1.0
 12
1138.222280218392
 22
1406.870696385329
 13
0.0
 23
0.0
 14
1.0
 24
1.0
 15
0.0
 25
0.0
 16
0.0
 26
0.0
 36
1.0
 17
-91.02013567090171
 27
73.59871453016967
 37
-46.86809886248109
 40
2890.021615685492
 41
1.934969325153374
 42
50.0
 43
0.0
 44
0.0
 50
0.0
 51
0.0
 71
    16
 72
  2000
 73
     1
 74
     1
 75
     0
 76
     0
 77
     0
 78
     0
281
     0
 65
     1
110
0.0
120
0.0
130
0.0
111
1.0
121
0.0
131
0.0
112
0.0
122
1.0
132
0.0
 79
     0
146
0.0
348
26C
 60
     3
 61
     5
292
     1
282
     1
141
0.0
142
0.0
 63
   256
361
904
  0
ENDTAB
  0
TABLE
  2
LTYPE
  5
4
330
0
100
AcDbSymbolTable
 70
     3
  0
LTYPE
  5
11
330
4
100
AcDbSymbolTableRecord
100
AcDbLinetypeTableRecord
  2
ByBlock
 70
     0
  3

 72
    65
 73
     0
 40
0.0
  0
LTYPE
  5
12
330
4
100
AcDbSymbolTableRecord
100
AcDbLinetypeTableRecord
  2
ByLayer
 70
     0
  3

 72
    65
 73
     0
 40
0.0
  0
LTYPE
  5
13
330
4
100
AcDbSymbolTableRecord
100
AcDbLinetypeTableRecord
  2
Continuous
 70
     0
  3
Solid line
 72
    65
 73
     0
 40
0.0
  0
LTYPE
  5
45
330
4
100
AcDbSymbolTableRecord
100
AcDbLinetypeTableRecord
  2
STYLE_12
 70
     0
  3

 72
    65
 73
     2
 40
0.3937007874015748
 49
0.1968503937007874
 74
     0
 49
-0.1968503937007874
 74
     0
  0
LTYPE
  5
1791
330
4
100
AcDbSymbolTableRecord
100
AcDbLinetypeTableRecord
  2
HIDDEN
 70
     0
  3
Hidden __ __ __ __ __ __ __ __ __ __ __ __ __ _
 72
    65
 73
     2
 40
9.524999999999999
 49
6.35
 74
     0
 49
-3.175
 74
     0
  0
ENDTAB
  0
TABLE
  2
LAYER
  5
2
102
{ACAD_XDICTIONARY
360
2E1
102
}
330
0
100
AcDbSymbolTable
 70
     9
  0
LAYER
  5
14
330
2
100
AcDbSymbolTableRecord
100
AcDbLayerTableRecord
  2
0
 70
     0
 62
     7
  6
Continuous
370
    -3
390
1D
347
266
  0
LAYER
  5
4B
330
2
100
AcDbSymbolTableRecord
100
AcDbLayerTableRecord
  2
TEMPLATE
 70
     0
 62
     7
  6
Continuous
370
    20
390
1D
347
266
  0
LAYER
  5
4C
330
2
100
AcDbSymbolTableRecord
100
AcDbLayerTableRecord
  2
DIM
 70
     0
 62
     7
  6
Continuous
370
    13
390
1D
347
266
  0
LAYER
  5
4D
330
2
100
AcDbSymbolTableRecord
100
AcDbLayerTableRecord
  2
MODEL
 70
     0
 62
     7
  6
Continuous
370
    20
390
1D
347
266
  0
LAYER
  5
667
330
2
100
AcDbSymbolTableRecord
100
AcDbLayerTableRecord
  2
LOGO
 70
     0
 62
     7
  6
Continuous
370
    -3
390
1D
347
266
  0
LAYER
  5
88C
330
2
100
AcDbSymbolTableRecord
100
AcDbLayerTableRecord
  2
HIDDEN
 70
     0
 62
     7
  6
STYLE_12
370
    20
390
1D
347
266
1001
AcAecLayerStandard
1000

1000

  0
LAYER
  5
D5D
330
2
100
AcDbSymbolTableRecord
100
AcDbLayerTableRecord
  2
Defpoints
 70
     0
 62
     7
  6
Continuous
290
     0
370
    -3
390
1D
347
266
  0
LAYER
  5
178B
102
{ACAD_XDICTIONARY
360
178C
102
}
330
2
100
AcDbSymbolTableRecord
100
AcDbLayerTableRecord
  2
Retino
 70
     0
 62
   253
  6
Continuous
370
     0
390
1D
347
266
  0
LAYER
  5
178F
330
2
100
AcDbSymbolTableRecord
100
AcDbLayerTableRecord
  2
Quote
 70
     0
 62
     5
  6
Continuous
370
    -3
390
1D
347
266
1001
AcAecLayerStandard
1000

1000

  0
ENDTAB
  0
TABLE
  2
STYLE
  5
3
330
0
100
AcDbSymbolTable
 70
     2
  0
STYLE
  5
17
330
3
100
AcDbSymbolTableRecord
100
AcDbTextStyleTableRecord
  2
Standard
 70
     0
 40
0.0
 41
1.0
 50
0.0
 71
     0
 42
2.5
  3
txt
  4
BIGFONT.SHX
  0
STYLE
  5
39
330
3
100
AcDbSymbolTableRecord
100
AcDbTextStyleTableRecord
  2
ＭＳ ゴシック
 70
     0
 40
0.0
 41
1.0
 50
0.0
 71
     0
 42
2.5
  3
msgothic.ttc
  4
ＭＳ ゴシック
1001
ACAD
1000
ＭＳ ゴシック
1071
        0
  0
ENDTAB
  0
TABLE
  2
VIEW
  5
5
330
0
100
AcDbSymbolTable
 70
     0
  0
ENDTAB
  0
TABLE
  2
UCS
  5
6
330
0
100
AcDbSymbolTable
 70
     0
  0
ENDTAB
  0
TABLE
  2
APPID
  5
8
330
0
100
AcDbSymbolTable
 70
    10
  0
APPID
  5
16
330
8
100
AcDbSymbolTableRecord
100
AcDbRegAppTableRecord
  2
ACAD
 70
     0
  0
APPID
  5
7AC
330
8
100
AcDbSymbolTableRecord
100
AcDbRegAppTableRecord
  2
AcAecLayerStandard
 70
     0
  0
APPID
  5
1212
330
8
100
AcDbSymbolTableRecord
100
AcDbRegAppTableRecord
  2
ACAD_DSTYLE_DIMJAG
 70
     0
  0
APPID
  5
1213
330
8
100
AcDbSymbolTableRecord
100
AcDbRegAppTableRecord
  2
ACAD_DSTYLE_DIMTALN
 70
     0
  0
APPID
  5
1218
330
8
100
AcDbSymbolTableRecord
100
AcDbRegAppTableRecord
  2
ACAD_PSEXT
 70
     0
  0
APPID
  5
1219
330
8
100
AcDbSymbolTableRecord
100
AcDbRegAppTableRecord
  2
ACAD_DSTYLE_DIMRADIAL_EXTENSION
 70
     0
  0
APPID
  5
121A
330
8
100
AcDbSymbolTableRecord
100
AcDbRegAppTableRecord
  2
ACAD_NAV_VCDISPLAY
 70
     0
  0
APPID
  5
121B
330
8
100
AcDbSymbolTableRecord
100
AcDbRegAppTableRecord
  2
GradientColor1ACI
 70
     0
  0
APPID
  5
121C
330
8
100
AcDbSymbolTableRecord
100
AcDbRegAppTableRecord
  2
GradientColor2ACI
 70
     0
  0
APPID
  5
121D
330
8
100
AcDbSymbolTableRecord
100
AcDbRegAppTableRecord
  2
AcLayerTools
 70
     0
  0
ENDTAB
  0
TABLE
  2
DIMSTYLE
  5
9
330
0
100
AcDbSymbolTable
 70
     2
100
AcDbDimStyleTable
  0
DIMSTYLE
105
18
102
{ACAD_REACTORS
330
18AE
330
18B9
330
18C4
330
18CF
330
18DA
330
18E5
330
18F0
330
18FB
330
1906
330
1911
330
191C
330
1927
330
1932
330
193E
330
1948
330
1953
102
}
330
9
100
AcDbSymbolTableRecord
100
AcDbDimStyleTableRecord
  2
Standard
 70
     0
178
     0
340
17
  0
DIMSTYLE
105
57
102
{ACAD_REACTORS
330
1B94
330
1BA3
330
1BB2
330
1BC1
330
1CA5
330
1CA8
330
1CAC
330
1CAF
330
1CB3
330
1D32
330
1D44
330
1D7C
330
1D8F
330
1DA0
330
1DB6
102
}
330
9
100
AcDbSymbolTableRecord
100
AcDbDimStyleTableRecord
  2
tfrom線あり
 70
     0
  3
<>
  4
[]
 41
9.0
 42
10.0
 43
0.9999999999999999
 44
0.0
 73
     0
 74
     0
 77
     1
 78
    11
140
24.0
141
0.0
143
1.0
147
20.0
171
     1
174
     1
178
     0
179
     2
271
     0
272
     1
276
     2
284
    11
285
    11
286
    11
289
     0
340
39
341
4E
342
4E
  0
ENDTAB
  0
TABLE
  2
BLOCK_RECORD
  5
1
330
0
100
AcDbSymbolTable
 70
    74
  0
BLOCK_RECORD
  5
A
330
1
100
AcDbSymbolTableRecord
100
AcDbBlockTableRecord
  2
*MODEL_SPACE
340
20
 70
     0
280
     1
281
     0
  0
BLOCK_RECORD
  5
B
330
1
100
AcDbSymbolTableRecord
100
AcDbBlockTableRecord
  2
*PAPER_SPACE
340
21
 70
     0
280
     1
281
     0
  0
BLOCK_RECORD
  5
4E
330
1
100
AcDbSymbolTableRecord
100
AcDbBlockTableRecord
  2
_DOT
340
0
102
{BLKREFS
331
15FF
331
1600
331
160E
331
160F
331
163D
331
163E
331
1649
331
164A
331
165C
331
165D
331
166B
331
166C
331
167A
331
167B
331
169B
331
169C
331
16A8
331
16A9
331
16B6
331
16F8
331
16F9
331
1712
331
1713
331
1722
331
1723
331
1732
331
1733
331
1741
331
1742
331
1750
331
1751
331
1B9E
331
1B9D
331
1BAD
331
1BAC
331
1BBC
331
1BBB
331
1BCB
331
1BCA
331
1CBD
331
1CBE
331
1CC9
331
1CCA
331
1CD5
331
1CD6
331
1CE1
331
1CE2
331
1CED
331
1CEE
331
1D4C
331
1D4D
331
1D77
331
1D76
331
1D84
331
1D83
331
1D97
331
1D96
331
1DAA
331
1DA9
331
1DC0
331
1DBF
102
}
 70
     0
280
     1
281
     0
  0
BLOCK_RECORD
  5
68A
330
1
100
AcDbSymbolTableRecord
100
AcDbBlockTableRecord
  2
名称未設定-1
340
0
102
{BLKREFS
331
6B5
102
}
 70
     1
280
     1
281
     0
  0
BLOCK_RECORD
  5
68D
330
1
100
AcDbSymbolTableRecord
100
AcDbBlockTableRecord
  2
block 2
340
0
102
{BLKREFS
331
68C
102
}
 70
     0
280
     1
281
     0
  0
BLOCK_RECORD
  5
690
330
1
100
AcDbSymbolTableRecord
100
AcDbBlockTableRecord
  2
block 3
340
0
102
{BLKREFS
331
68F
102
}
 70
     0
280
     1
281
     0
  0
BLOCK_RECORD
  5
693
330
1
100
AcDbSymbolTableRecord
100
AcDbBlockTableRecord
  2
block 4
340
0
102
{BLKREFS
331
692
102
}
 70
     0
280
     1
281
     0
  0
BLOCK_RECORD
  5
6A2
330
1
100
AcDbSymbolTableRecord
100
AcDbBlockTableRecord
  2
block 5
340
0
102
{BLKREFS
331
6A1
102
}
 70
     0
280
     1
281
     0
  0
BLOCK_RECORD
  5
15F9
330
1
100
AcDbSymbolTableRecord
100
AcDbBlockTableRecord
  2
*D6
340
0
 70
     0
280
     1
281
     0
  0
BLOCK_RECORD
  5
1608
330
1
100
AcDbSymbolTableRecord
100
AcDbBlockTableRecord
  2
*D7
340
0
 70
     0
280
     1
281
     0
  0
BLOCK_RECORD
  5
1636
330
1
100
AcDbSymbolTableRecord
100
AcDbBlockTableRecord
  2
*D8
340
0
 70
     0
280
     1
281
     0
  0
BLOCK_RECORD
  5
1643
330
1
100
AcDbSymbolTableRecord
100
AcDbBlockTableRecord
  2
*D9
340
0
 70
     0
280
     1
281
     0
  0
BLOCK_RECORD
  5
1656
330
1
100
AcDbSymbolTableRecord
100
AcDbBlockTableRecord
  2
*D10
340
0
 70
     0
280
     1
281
     0
  0
BLOCK_RECORD
  5
1665
330
1
100
AcDbSymbolTableRecord
100
AcDbBlockTableRecord
  2
*D11
340
0
 70
     0
280
     1
281
     0
  0
BLOCK_RECORD
  5
1674
330
1
100
AcDbSymbolTableRecord
100
AcDbBlockTableRecord
  2
*D12
340
0
 70
     0
280
     1
281
     0
  0
BLOCK_RECORD
  5
1695
330
1
100
AcDbSymbolTableRecord
100
AcDbBlockTableRecord
  2
*D13
340
0
 70
     0
280
     1
281
     0
  0
BLOCK_RECORD
  5
16A2
330
1
100
AcDbSymbolTableRecord
100
AcDbBlockTableRecord
  2
*D14
340
0
 70
     0
280
     1
281
     0
  0
BLOCK_RECORD
  5
16B1
330
1
100
AcDbSymbolTableRecord
100
AcDbBlockTableRecord
  2
*D15
340
0
 70
     0
280
     1
281
     0
  0
BLOCK_RECORD
  5
16F2
330
1
100
AcDbSymbolTableRecord
100
AcDbBlockTableRecord
  2
*D16
340
0
 70
     0
280
     1
281
     0
  0
BLOCK_RECORD
  5
170C
330
1
100
AcDbSymbolTableRecord
100
AcDbBlockTableRecord
  2
*D17
340
0
 70
     0
280
     1
281
     0
  0
BLOCK_RECORD
  5
171C
330
1
100
AcDbSymbolTableRecord
100
AcDbBlockTableRecord
  2
*D18
340
0
 70
     0
280
     1
281
     0
  0
BLOCK_RECORD
  5
172C
330
1
100
AcDbSymbolTableRecord
100
AcDbBlockTableRecord
  2
*D19
340
0
 70
     0
280
     1
281
     0
  0
BLOCK_RECORD
  5
173B
330
1
100
AcDbSymbolTableRecord
100
AcDbBlockTableRecord
  2
*D20
340
0
 70
     0
280
     1
281
     0
  0
BLOCK_RECORD
  5
174A
330
1
100
AcDbSymbolTableRecord
100
AcDbBlockTableRecord
  2
*D21
340
0
 70
     0
280
     1
281
     0
  0
BLOCK_RECORD
  5
1794
330
1
100
AcDbSymbolTableRecord
100
AcDbBlockTableRecord
  2
_None
340
0
 70
     0
280
     1
281
     0
  0
BLOCK_RECORD
  5
18AF
330
1
100
AcDbSymbolTableRecord
100
AcDbBlockTableRecord
  2
*D24
340
0
 70
     0
280
     1
281
     0
  0
BLOCK_RECORD
  5
18BA
330
1
100
AcDbSymbolTableRecord
100
AcDbBlockTableRecord
  2
*D25
340
0
 70
     0
280
     1
281
     0
  0
BLOCK_RECORD
  5
18C5
330
1
100
AcDbSymbolTableRecord
100
AcDbBlockTableRecord
  2
*D26
340
0
 70
     0
280
     1
281
     0
  0
BLOCK_RECORD
  5
18D0
330
1
100
AcDbSymbolTableRecord
100
AcDbBlockTableRecord
  2
*D27
340
0
 70
     0
280
     1
281
     0
  0
BLOCK_RECORD
  5
18DB
330
1
100
AcDbSymbolTableRecord
100
AcDbBlockTableRecord
  2
*D28
340
0
 70
     0
280
     1
281
     0
  0
BLOCK_RECORD
  5
18E6
330
1
100
AcDbSymbolTableRecord
100
AcDbBlockTableRecord
  2
*D29
340
0
 70
     0
280
     1
281
     0
  0
BLOCK_RECORD
  5
18F1
330
1
100
AcDbSymbolTableRecord
100
AcDbBlockTableRecord
  2
*D30
340
0
 70
     0
280
     1
281
     0
  0
BLOCK_RECORD
  5
18FC
330
1
100
AcDbSymbolTableRecord
100
AcDbBlockTableRecord
  2
*D31
340
0
 70
     0
280
     1
281
     0
  0
BLOCK_RECORD
  5
1907
330
1
100
AcDbSymbolTableRecord
100
AcDbBlockTableRecord
  2
*D32
340
0
 70
     0
280
     1
281
     0
  0
BLOCK_RECORD
  5
1912
330
1
100
AcDbSymbolTableRecord
100
AcDbBlockTableRecord
  2
*D33
340
0
 70
     0
280
     1
281
     0
  0
BLOCK_RECORD
  5
191D
330
1
100
AcDbSymbolTableRecord
100
AcDbBlockTableRecord
  2
*D34
340
0
 70
     0
280
     1
281
     0
  0
BLOCK_RECORD
  5
1928
330
1
100
AcDbSymbolTableRecord
100
AcDbBlockTableRecord
  2
*D35
340
0
 70
     0
280
     1
281
     0
  0
BLOCK_RECORD
  5
1933
330
1
100
AcDbSymbolTableRecord
100
AcDbBlockTableRecord
  2
*D36
340
0
 70
     0
280
     1
281
     0
  0
BLOCK_RECORD
  5
193F
330
1
100
AcDbSymbolTableRecord
100
AcDbBlockTableRecord
  2
*D37
340
0
 70
     0
280
     1
281
     0
  0
BLOCK_RECORD
  5
1949
330
1
100
AcDbSymbolTableRecord
100
AcDbBlockTableRecord
  2
*D38
340
0
 70
     0
280
     1
281
     0
  0
BLOCK_RECORD
  5
1954
330
1
100
AcDbSymbolTableRecord
100
AcDbBlockTableRecord
  2
*D39
340
0
 70
     0
280
     1
281
     0
  0
BLOCK_RECORD
  5
1A94
330
1
100
AcDbSymbolTableRecord
100
AcDbBlockTableRecord
  2
*D40
340
0
 70
     0
280
     1
281
     0
  0
BLOCK_RECORD
  5
1AA1
330
1
100
AcDbSymbolTableRecord
100
AcDbBlockTableRecord
  2
*D41
340
0
 70
     0
280
     1
281
     0
  0
BLOCK_RECORD
  5
1AAE
330
1
100
AcDbSymbolTableRecord
100
AcDbBlockTableRecord
  2
*D42
340
0
 70
     0
280
     1
281
     0
  0
BLOCK_RECORD
  5
1ABB
330
1
100
AcDbSymbolTableRecord
100
AcDbBlockTableRecord
  2
*D43
340
0
 70
     0
280
     1
281
     0
  0
BLOCK_RECORD
  5
1AC8
330
1
100
AcDbSymbolTableRecord
100
AcDbBlockTableRecord
  2
*D44
340
0
 70
     0
280
     1
281
     0
  0
BLOCK_RECORD
  5
1AD5
330
1
100
AcDbSymbolTableRecord
100
AcDbBlockTableRecord
  2
*D45
340
0
 70
     0
280
     1
281
     0
  0
BLOCK_RECORD
  5
1AE2
330
1
100
AcDbSymbolTableRecord
100
AcDbBlockTableRecord
  2
*D46
340
0
 70
     0
280
     1
281
     0
  0
BLOCK_RECORD
  5
1AEF
330
1
100
AcDbSymbolTableRecord
100
AcDbBlockTableRecord
  2
*D47
340
0
 70
     0
280
     1
281
     0
  0
BLOCK_RECORD
  5
1AFC
330
1
100
AcDbSymbolTableRecord
100
AcDbBlockTableRecord
  2
*D48
340
0
 70
     0
280
     1
281
     0
  0
BLOCK_RECORD
  5
1B09
330
1
100
AcDbSymbolTableRecord
100
AcDbBlockTableRecord
  2
*D49
340
0
 70
     0
280
     1
281
     0
  0
BLOCK_RECORD
  5
1B16
330
1
100
AcDbSymbolTableRecord
100
AcDbBlockTableRecord
  2
*D50
340
0
 70
     0
280
     1
281
     0
  0
BLOCK_RECORD
  5
1B23
330
1
100
AcDbSymbolTableRecord
100
AcDbBlockTableRecord
  2
*D51
340
0
 70
     0
280
     1
281
     0
  0
BLOCK_RECORD
  5
1B30
330
1
100
AcDbSymbolTableRecord
100
AcDbBlockTableRecord
  2
*D52
340
0
 70
     0
280
     1
281
     0
  0
BLOCK_RECORD
  5
1B3D
330
1
100
AcDbSymbolTableRecord
100
AcDbBlockTableRecord
  2
*D53
340
0
 70
     0
280
     1
281
     0
  0
BLOCK_RECORD
  5
1B48
330
1
100
AcDbSymbolTableRecord
100
AcDbBlockTableRecord
  2
*D54
340
0
 70
     0
280
     1
281
     0
  0
BLOCK_RECORD
  5
1B55
330
1
100
AcDbSymbolTableRecord
100
AcDbBlockTableRecord
  2
*D55
340
0
 70
     0
280
     1
281
     0
  0
BLOCK_RECORD
  5
1B7F
330
1
100
AcDbSymbolTableRecord
100
AcDbBlockTableRecord
  2
*D56
340
0
 70
     0
280
     1
281
     0
  0
BLOCK_RECORD
  5
1B97
330
1
100
AcDbSymbolTableRecord
100
AcDbBlockTableRecord
  2
*D57
340
0
 70
     0
280
     1
281
     0
  0
BLOCK_RECORD
  5
1BA6
330
1
100
AcDbSymbolTableRecord
100
AcDbBlockTableRecord
  2
*D58
340
0
 70
     0
280
     1
281
     0
  0
BLOCK_RECORD
  5
1BB5
330
1
100
AcDbSymbolTableRecord
100
AcDbBlockTableRecord
  2
*D59
340
0
 70
     0
280
     1
281
     0
  0
BLOCK_RECORD
  5
1BC4
330
1
100
AcDbSymbolTableRecord
100
AcDbBlockTableRecord
  2
*D60
340
0
 70
     0
280
     1
281
     0
  0
BLOCK_RECORD
  5
1CB7
330
1
100
AcDbSymbolTableRecord
100
AcDbBlockTableRecord
  2
*D61
340
0
 70
     0
280
     1
281
     0
  0
BLOCK_RECORD
  5
1CC3
330
1
100
AcDbSymbolTableRecord
100
AcDbBlockTableRecord
  2
*D62
340
0
 70
     0
280
     1
281
     0
  0
BLOCK_RECORD
  5
1CCF
330
1
100
AcDbSymbolTableRecord
100
AcDbBlockTableRecord
  2
*D63
340
0
 70
     0
280
     1
281
     0
  0
BLOCK_RECORD
  5
1CDB
330
1
100
AcDbSymbolTableRecord
100
AcDbBlockTableRecord
  2
*D64
340
0
 70
     0
280
     1
281
     0
  0
BLOCK_RECORD
  5
1CE7
330
1
100
AcDbSymbolTableRecord
100
AcDbBlockTableRecord
  2
*D65
340
0
 70
     0
280
     1
281
     0
  0
BLOCK_RECORD
  5
1D33
330
1
100
AcDbSymbolTableRecord
100
AcDbBlockTableRecord
  2
*D67
340
0
 70
     0
280
     1
281
     0
  0
BLOCK_RECORD
  5
1D45
330
1
100
AcDbSymbolTableRecord
100
AcDbBlockTableRecord
  2
*D68
340
0
 70
     0
280
     1
281
     0
  0
BLOCK_RECORD
  5
1D70
330
1
100
AcDbSymbolTableRecord
100
AcDbBlockTableRecord
  2
*D69
340
0
 70
     0
280
     1
281
     0
  0
BLOCK_RECORD
  5
1D7D
330
1
100
AcDbSymbolTableRecord
100
AcDbBlockTableRecord
  2
*D70
340
0
 70
     0
280
     1
281
     0
  0
BLOCK_RECORD
  5
1D90
330
1
100
AcDbSymbolTableRecord
100
AcDbBlockTableRecord
  2
*D71
340
0
 70
     0
280
     1
281
     0
  0
BLOCK_RECORD
  5
1DA3
330
1
100
AcDbSymbolTableRecord
100
AcDbBlockTableRecord
  2
*D72
340
0
 70
     0
280
     1
281
     0
  0
BLOCK_RECORD
  5
1DB9
330
1
100
AcDbSymbolTableRecord
100
AcDbBlockTableRecord
  2
*D73
340
0
 70
     0
280
     1
281
     0
  0
ENDTAB
  0
ENDSEC
  0
SECTION
  2
BLOCKS
  0
BLOCK
  5
D
330
A
100
AcDbEntity
  8
0
390
1D
100
AcDbBlockBegin
  2
*MODEL_SPACE
 70
     0
 10
0.0
 20
0.0
 30
0.0
  3
*MODEL_SPACE
  1
*MODEL_SPACE
  0
ENDBLK
  5
E
330
A
100
AcDbEntity
  8
0
390
1D
100
AcDbBlockEnd
  0
BLOCK
  5
F
330
B
100
AcDbEntity
 67
     1
  8
0
390
1D
100
AcDbBlockBegin
  2
*PAPER_SPACE
 70
     0
 10
0.0
 20
0.0
 30
0.0
  3
*PAPER_SPACE
  1
*PAPER_SPACE
  0
ENDBLK
  5
10
330
B
100
AcDbEntity
 67
     1
  8
0
390
1D
100
AcDbBlockEnd
  0
BLOCK
  5
1760
330
4E
100
AcDbEntity
  8
0
390
1D
100
AcDbBlockBegin
  2
_DOT
 70
     0
 10
0.0
 20
0.0
 30
0.0
  3
_DOT
  1
_DOT
  0
POLYLINE
  5
1762
330
4E
100
AcDbEntity
  8
0
  6
ByBlock
 62
     0
370
    -2
390
1D
100
AcDb2dPolyline
 66
     1
 10
0.0
 20
0.0
 30
0.0
 70
     1
 40
0.5
 41
0.5
  0
VERTEX
  5
1763
330
1762
100
AcDbEntity
  8
0
  6
ByBlock
 62
     0
370
    -2
390
1D
100
AcDbVertex
100
AcDb2dVertex
 10
-0.25
 20
0.0
 30
0.0
 42
1.0
  0
VERTEX
  5
1764
330
1762
100
AcDbEntity
  8
0
  6
ByBlock
 62
     0
370
    -2
390
1D
100
AcDbVertex
100
AcDb2dVertex
 10
0.25
 20
0.0
 30
0.0
 42
1.0
  0
SEQEND
  5
1765
330
1762
100
AcDbEntity
  8
0
390
1D
  0
LINE
  5
1766
330
4E
100
AcDbEntity
  8
0
  6
ByBlock
 62
     0
370
    -2
390
1D
100
AcDbLine
 10
-0.5
 20
0.0
 30
0.0
 11
-1.0
 21
0.0
 31
0.0
  0
ENDBLK
  5
1767
330
4E
100
AcDbEntity
  8
0
390
1D
100
AcDbBlockEnd
  0
BLOCK
  5
68B
330
68A
100
AcDbEntity
  8
0
100
AcDbBlockBegin
  2
名称未設定-1
 70
     0
 10
0.0
 20
0.0
 30
0.0
  3
名称未設定-1
  1
名称未設定-1
  0
INSERT
  5
68F
330
68A
100
AcDbEntity
  8
LOGO
100
AcDbBlockReference
  2
block 3
 10
0.0
 20
0.0
 30
0.0
  0
ENDBLK
  5
6B1
330
68A
100
AcDbEntity
  8
0
100
AcDbBlockEnd
  0
BLOCK
  5
68E
330
68D
100
AcDbEntity
  8
0
100
AcDbBlockBegin
  2
block 2
 70
     0
 10
0.0
 20
0.0
 30
0.0
  3
block 2
  1
block 2
  0
ENDBLK
  5
6B0
330
68D
100
AcDbEntity
  8
0
100
AcDbBlockEnd
  0
BLOCK
  5
691
330
690
100
AcDbEntity
  8
0
100
AcDbBlockBegin
  2
block 3
 70
     0
 10
0.0
 20
0.0
 30
0.0
  3
block 3
  1
block 3
  0
INSERT
  5
692
330
690
100
AcDbEntity
  8
LOGO
100
AcDbBlockReference
  2
block 4
 10
0.0
 20
0.0
 30
0.0
  0
INSERT
  5
6A1
330
690
100
AcDbEntity
  8
LOGO
100
AcDbBlockReference
  2
block 5
 10
0.0
 20
0.0
 30
0.0
  0
ENDBLK
  5
6AF
330
690
100
AcDbEntity
  8
0
100
AcDbBlockEnd
  0
BLOCK
  5
694
330
693
100
AcDbEntity
  8
0
100
AcDbBlockBegin
  2
block 4
 70
     0
 10
0.0
 20
0.0
 30
0.0
  3
block 4
  1
block 4
  0
POLYLINE
  5
695
330
693
100
AcDbEntity
  8
LOGO
370
     0
100
AcDb2dPolyline
 66
     1
 10
0.0
 20
0.0
 30
0.0
  0
VERTEX
  5
696
330
695
100
AcDbEntity
  8
LOGO
370
     0
100
AcDbVertex
100
AcDb2dVertex
 10
83.79545727667795
 20
167.6444858234922
 30
0.0
  0
VERTEX
  5
697
330
695
100
AcDbEntity
  8
LOGO
370
     0
100
AcDbVertex
100
AcDb2dVertex
 10
83.79545727667795
 20
159.7968976406313
 30
0.0
  0
VERTEX
  5
698
330
695
100
AcDbEntity
  8
LOGO
370
     0
100
AcDbVertex
100
AcDb2dVertex
 10
71.3631329975216
 20
159.7968976406313
 30
0.0
  0
VERTEX
  5
699
330
695
100
AcDbEntity
  8
LOGO
370
     0
100
AcDbVertex
100
AcDb2dVertex
 10
71.3631329975216
 20
127.8027915271048
 30
0.0
  0
VERTEX
  5
69A
330
695
100
AcDbEntity
  8
LOGO
370
     0
100
AcDbVertex
100
AcDb2dVertex
 10
60.43011526263018
 20
127.8027915271048
 30
0.0
  0
VERTEX
  5
69B
330
695
100
AcDbEntity
  8
LOGO
370
     0
100
AcDbVertex
100
AcDb2dVertex
 10
60.43011526263018
 20
159.7968976406313
 30
0.0
  0
VERTEX
  5
69C
330
695
100
AcDbEntity
  8
LOGO
370
     0
100
AcDbVertex
100
AcDb2dVertex
 10
48.21793273020759
 20
159.7968976406313
 30
0.0
  0
VERTEX
  5
69D
330
695
100
AcDbEntity
  8
LOGO
370
     0
100
AcDbVertex
100
AcDb2dVertex
 10
48.21793273020759
 20
167.6444858234922
 30
0.0
  0
VERTEX
  5
69E
330
695
100
AcDbEntity
  8
LOGO
370
     0
100
AcDbVertex
100
AcDb2dVertex
 10
83.79545727667795
 20
167.6444858234922
 30
0.0
  0
SEQEND
  5
69F
330
695
100
AcDbEntity
  8
LOGO
370
     0
  0
HATCH
  5
6A0
330
693
100
AcDbEntity
  8
LOGO
 62
   250
420
  2234388
100
AcDbHatch
 10
0.0
 20
0.0
 30
0.0
210
0.0
220
0.0
230
1.0
  2
SOLID
 70
     1
 71
     0
 91
        1
 92
        1
 93
        8
 72
     1
 10
83.79545727667795
 20
167.6444858234922
 11
83.79545727667795
 21
159.7968976406313
 72
     1
 10
83.79545727667795
 20
159.7968976406313
 11
71.3631329975216
 21
159.7968976406313
 72
     1
 10
71.3631329975216
 20
159.7968976406313
 11
71.3631329975216
 21
127.8027915271048
 72
     1
 10
71.3631329975216
 20
127.8027915271048
 11
60.43011526263018
 21
127.8027915271048
 72
     1
 10
60.43011526263018
 20
127.8027915271048
 11
60.43011526263018
 21
159.7968976406313
 72
     1
 10
60.43011526263018
 20
159.7968976406313
 11
48.21793273020759
 21
159.7968976406313
 72
     1
 10
48.21793273020759
 20
159.7968976406313
 11
48.21793273020759
 21
167.6444858234922
 72
     1
 10
48.21793273020759
 20
167.6444858234922
 11
83.79545727667795
 21
167.6444858234922
 97
        0
 75
     2
 76
     1
 98
        0
  0
ENDBLK
  5
6AE
330
693
100
AcDbEntity
  8
0
100
AcDbBlockEnd
  0
BLOCK
  5
6A3
330
6A2
100
AcDbEntity
  8
0
100
AcDbBlockBegin
  2
block 5
 70
     0
 10
0.0
 20
0.0
 30
0.0
  3
block 5
  1
block 5
  0
SPLINE
  5
6A4
330
6A2
100
AcDbEntity
  8
LOGO
370
     0
100
AcDbSpline
210
0.0
220
0.0
230
1.0
 70
    11
 71
     3
 72
    56
 73
    52
 74
     0
 42
0.000000001
 43
0.0000000001
 40
0.0
 40
0.0
 40
0.0
 40
0.0
 40
1.0
 40
1.0
 40
1.0
 40
2.0
 40
2.0
 40
2.0
 40
3.0
 40
3.0
 40
3.0
 40
4.0
 40
4.0
 40
4.0
 40
5.0
 40
5.0
 40
5.0
 40
6.0
 40
6.0
 40
6.0
 40
7.0
 40
7.0
 40
7.0
 40
8.0
 40
8.0
 40
8.0
 40
9.0
 40
9.0
 40
9.0
 40
10.0
 40
10.0
 40
10.0
 40
11.0
 40
11.0
 40
11.0
 40
12.0
 40
12.0
 40
12.0
 40
13.0
 40
13.0
 40
13.0
 40
14.0
 40
14.0
 40
14.0
 40
15.0
 40
15.0
 40
15.0
 40
16.0
 40
16.0
 40
16.0
 40
17.0
 40
17.0
 40
17.0
 40
17.0
 10
100.4504378777679
 20
166.69157178364
 30
0.0
 10
101.9848844191641
 20
167.1313385124438
 30
0.0
 10
103.9637485713373
 20
166.7649523658846
 30
0.0
 10
103.9637485713373
 20
166.7649523658846
 30
0.0
 10
103.9637485713373
 20
166.7649523658846
 30
0.0
 10
103.0132460999156
 20
163.911205638077
 30
0.0
 10
103.0132460999156
 20
163.911205638077
 30
0.0
 10
103.0132460999156
 20
163.911205638077
 30
0.0
 10
101.0674548862189
 20
164.3601018759394
 30
0.0
 10
99.57090442016032
 20
163.1805004036133
 30
0.0
 10
98.40508333886608
 20
162.258247733807
 30
0.0
 10
97.65301849830304
 20
159.804132345923
 30
0.0
 10
97.3598406791005
 20
158.8699940888517
 30
0.0
 10
97.3598406791005
 20
158.8699940888517
 30
0.0
 10
96.07137411762282
 20
154.9119212747295
 30
0.0
 10
96.07137411762282
 20
154.9119212747295
 30
0.0
 10
96.07137411762282
 20
154.9119212747295
 30
0.0
 10
100.3012651448482
 20
154.9119212747295
 30
0.0
 10
100.3012651448482
 20
154.9119212747295
 30
0.0
 10
100.3012651448482
 20
154.9119212747295
 30
0.0
 10
99.64152892419852
 20
152.4199098115079
 30
0.0
 10
99.64152892419852
 20
152.4199098115079
 30
0.0
 10
99.64152892419852
 20
152.4199098115079
 30
0.0
 10
95.38097652692731
 20
152.4199098115079
 30
0.0
 10
95.38097652692731
 20
152.4199098115079
 30
0.0
 10
95.38097652692731
 20
152.4199098115079
 30
0.0
 10
87.75353009080013
 20
127.8027915271048
 30
0.0
 10
87.75353009080013
 20
127.8027915271048
 30
0.0
 10
87.75353009080013
 20
127.8027915271048
 30
0.0
 10
85.36538832498108
 20
127.8027915271048
 30
0.0
 10
85.36538832498108
 20
127.8027915271048
 30
0.0
 10
85.36538832498108
 20
127.8027915271048
 30
0.0
 10
93.00006946639998
 20
152.4199098115079
 30
0.0
 10
93.00006946639998
 20
152.4199098115079
 30
0.0
 10
93.00006946639998
 20
152.4199098115079
 30
0.0
 10
89.85297266450198
 20
152.4199098115079
 30
0.0
 10
89.85297266450198
 20
152.4199098115079
 30
0.0
 10
89.85297266450198
 20
152.4199098115079
 30
0.0
 10
90.51270888515164
 20
154.9119212747295
 30
0.0
 10
90.51270888515164
 20
154.9119212747295
 30
0.0
 10
90.51270888515164
 20
154.9119212747295
 30
0.0
 10
93.6904670570955
 20
154.9119212747295
 30
0.0
 10
93.6904670570955
 20
154.9119212747295
 30
0.0
 10
93.6904670570955
 20
154.9119212747295
 30
0.0
 10
94.81598049462158
 20
158.3616699146644
 30
0.0
 10
94.81598049462158
 20
158.3616699146644
 30
0.0
 10
95.7237637538445
 20
161.2605474231013
 30
0.0
 10
96.4968436907311
 20
162.8139420021662
 30
0.0
 10
97.15657991138076
 20
163.9844139654337
 30
0.0
 10
97.81183750494507
 20
165.1523021053827
 30
0.0
 10
99.1047826935081
 20
166.3084769129547
 30
0.0
 10
100.4504378777679
 20
166.69157178364
 30
0.0
  0
HATCH
  5
6A5
330
6A2
100
AcDbEntity
  8
LOGO
 62
   250
420
  2234388
100
AcDbHatch
 10
0.0
 20
0.0
 30
0.0
210
0.0
220
0.0
230
1.0
  2
SOLID
 70
     1
 71
     0
 91
        1
 92
        1
 93
        1
 72
     4
 94
        3
 73
     0
 74
     1
 95
       56
 96
       52
 40
0.0
 40
0.0
 40
0.0
 40
0.0
 40
1.0
 40
1.0
 40
1.0
 40
2.0
 40
2.0
 40
2.0
 40
3.0
 40
3.0
 40
3.0
 40
4.0
 40
4.0
 40
4.0
 40
5.0
 40
5.0
 40
5.0
 40
6.0
 40
6.0
 40
6.0
 40
7.0
 40
7.0
 40
7.0
 40
8.0
 40
8.0
 40
8.0
 40
9.0
 40
9.0
 40
9.0
 40
10.0
 40
10.0
 40
10.0
 40
11.0
 40
11.0
 40
11.0
 40
12.0
 40
12.0
 40
12.0
 40
13.0
 40
13.0
 40
13.0
 40
14.0
 40
14.0
 40
14.0
 40
15.0
 40
15.0
 40
15.0
 40
16.0
 40
16.0
 40
16.0
 40
17.0
 40
17.0
 40
17.0
 40
17.0
 10
100.4504378777679
 20
166.69157178364
 10
101.9848844191641
 20
167.1313385124438
 10
103.9637485713373
 20
166.7649523658846
 10
103.9637485713373
 20
166.7649523658846
 10
103.9637485713373
 20
166.7649523658846
 10
103.0132460999156
 20
163.911205638077
 10
103.0132460999156
 20
163.911205638077
 10
103.0132460999156
 20
163.911205638077
 10
101.0674548862189
 20
164.3601018759394
 10
99.57090442016032
 20
163.1805004036133
 10
98.40508333886608
 20
162.258247733807
 10
97.65301849830304
 20
159.804132345923
 10
97.3598406791005
 20
158.8699940888517
 10
97.3598406791005
 20
158.8699940888517
 10
96.07137411762282
 20
154.9119212747295
 10
96.07137411762282
 20
154.9119212747295
 10
96.07137411762282
 20
154.9119212747295
 10
100.3012651448482
 20
154.9119212747295
 10
100.3012651448482
 20
154.9119212747295
 10
100.3012651448482
 20
154.9119212747295
 10
99.64152892419852
 20
152.4199098115079
 10
99.64152892419852
 20
152.4199098115079
 10
99.64152892419852
 20
152.4199098115079
 10
95.38097652692731
 20
152.4199098115079
 10
95.38097652692731
 20
152.4199098115079
 10
95.38097652692731
 20
152.4199098115079
 10
87.75353009080013
 20
127.8027915271048
 10
87.75353009080013
 20
127.8027915271048
 10
87.75353009080013
 20
127.8027915271048
 10
85.36538832498108
 20
127.8027915271048
 10
85.36538832498108
 20
127.8027915271048
 10
85.36538832498108
 20
127.8027915271048
 10
93.00006946639998
 20
152.4199098115079
 10
93.00006946639998
 20
152.4199098115079
 10
93.00006946639998
 20
152.4199098115079
 10
89.85297266450198
 20
152.4199098115079
 10
89.85297266450198
 20
152.4199098115079
 10
89.85297266450198
 20
152.4199098115079
 10
90.51270888515164
 20
154.9119212747295
 10
90.51270888515164
 20
154.9119212747295
 10
90.51270888515164
 20
154.9119212747295
 10
93.6904670570955
 20
154.9119212747295
 10
93.6904670570955
 20
154.9119212747295
 10
93.6904670570955
 20
154.9119212747295
 10
94.81598049462158
 20
158.3616699146644
 10
94.81598049462158
 20
158.3616699146644
 10
95.7237637538445
 20
161.2605474231013
 10
96.4968436907311
 20
162.8139420021662
 10
97.15657991138076
 20
163.9844139654337
 10
97.81183750494507
 20
165.1523021053827
 10
99.1047826935081
 20
166.3084769129547
 10
100.4504378777679
 20
166.69157178364
 97
        0
 75
     2
 76
     1
 98
        0
  0
SPLINE
  5
6A6
330
6A2
100
AcDbEntity
  8
LOGO
370
     0
100
AcDbSpline
210
0.0
220
0.0
230
1.0
 70
    11
 71
     3
 72
    38
 73
    34
 74
     0
 42
0.000000001
 43
0.0000000001
 40
0.0
 40
0.0
 40
0.0
 40
0.0
 40
1.0
 40
1.0
 40
1.0
 40
2.0
 40
2.0
 40
2.0
 40
3.0
 40
3.0
 40
3.0
 40
4.0
 40
4.0
 40
4.0
 40
5.0
 40
5.0
 40
5.0
 40
6.0
 40
6.0
 40
6.0
 40
7.0
 40
7.0
 40
7.0
 40
8.0
 40
8.0
 40
8.0
 40
9.0
 40
9.0
 40
9.0
 40
10.0
 40
10.0
 40
10.0
 40
11.0
 40
11.0
 40
11.0
 40
11.0
 10
126.377554584636
 20
154.8151140277308
 30
0.0
 10
126.377554584636
 20
154.8151140277308
 30
0.0
 10
128.8311532078563
 20
154.8151140277308
 30
0.0
 10
128.8311532078563
 20
154.8151140277308
 30
0.0
 10
128.8311532078563
 20
154.8151140277308
 30
0.0
 10
127.7345785914971
 20
151.3062819612468
 30
0.0
 10
127.7345785914971
 20
151.3062819612468
 30
0.0
 10
128.571392836906
 20
152.2922689395754
 30
0.0
 10
129.8860421413442
 20
153.604506675583
 30
0.0
 10
131.0163787157314
 20
154.2664822097754
 30
0.0
 10
132.7044766171327
 20
155.2500576196734
 30
0.0
 10
133.6642808525008
 20
155.3847609420097
 30
0.0
 10
134.7284715499351
 20
155.3565111403944
 30
0.0
 10
134.7284715499351
 20
155.3565111403944
 30
0.0
 10
133.6877075172549
 20
152.0345756272799
 30
0.0
 10
133.6877075172549
 20
152.0345756272799
 30
0.0
 10
133.011434827367
 20
152.3184516825359
 30
0.0
 10
130.930940291334
 20
151.7768823149844
 30
0.0
 10
129.739280976855
 20
150.9162968950455
 30
0.0
 10
128.66613302525
 20
150.1454562717016
 30
0.0
 10
127.9192358313239
 20
149.4857200510519
 30
0.0
 10
127.0393578639405
 20
147.8282835196966
 30
0.0
 10
126.164647543194
 20
146.1699857139017
 30
0.0
 10
125.4742499524985
 20
143.5262176944419
 30
0.0
 10
124.2822461282437
 20
139.6959580071401
 30
0.0
 10
124.2822461282437
 20
139.6959580071401
 30
0.0
 10
120.5753209406769
 20
127.8027915271048
 30
0.0
 10
120.5753209406769
 20
127.8027915271048
 30
0.0
 10
120.5753209406769
 20
127.8027915271048
 30
0.0
 10
118.1964809388044
 20
127.8027915271048
 30
0.0
 10
118.1964809388044
 20
127.8027915271048
 30
0.0
 10
118.1964809388044
 20
127.8027915271048
 30
0.0
 10
126.377554584636
 20
154.8151140277308
 30
0.0
 10
126.377554584636
 20
154.8151140277308
 30
0.0
  0
HATCH
  5
6A7
330
6A2
100
AcDbEntity
  8
LOGO
 62
   250
420
  2234388
100
AcDbHatch
 10
0.0
 20
0.0
 30
0.0
210
0.0
220
0.0
230
1.0
  2
SOLID
 70
     1
 71
     0
 91
        1
 92
        1
 93
        1
 72
     4
 94
        3
 73
     0
 74
     1
 95
       38
 96
       34
 40
0.0
 40
0.0
 40
0.0
 40
0.0
 40
1.0
 40
1.0
 40
1.0
 40
2.0
 40
2.0
 40
2.0
 40
3.0
 40
3.0
 40
3.0
 40
4.0
 40
4.0
 40
4.0
 40
5.0
 40
5.0
 40
5.0
 40
6.0
 40
6.0
 40
6.0
 40
7.0
 40
7.0
 40
7.0
 40
8.0
 40
8.0
 40
8.0
 40
9.0
 40
9.0
 40
9.0
 40
10.0
 40
10.0
 40
10.0
 40
11.0
 40
11.0
 40
11.0
 40
11.0
 10
126.377554584636
 20
154.8151140277308
 10
126.377554584636
 20
154.8151140277308
 10
128.8311532078563
 20
154.8151140277308
 10
128.8311532078563
 20
154.8151140277308
 10
128.8311532078563
 20
154.8151140277308
 10
127.7345785914971
 20
151.3062819612468
 10
127.7345785914971
 20
151.3062819612468
 10
128.571392836906
 20
152.2922689395754
 10
129.8860421413442
 20
153.604506675583
 10
131.0163787157314
 20
154.2664822097754
 10
132.7044766171327
 20
155.2500576196734
 10
133.6642808525008
 20
155.3847609420097
 10
134.7284715499351
 20
155.3565111403944
 10
134.7284715499351
 20
155.3565111403944
 10
133.6877075172549
 20
152.0345756272799
 10
133.6877075172549
 20
152.0345756272799
 10
133.011434827367
 20
152.3184516825359
 10
130.930940291334
 20
151.7768823149844
 10
129.739280976855
 20
150.9162968950455
 10
128.66613302525
 20
150.1454562717016
 10
127.9192358313239
 20
149.4857200510519
 10
127.0393578639405
 20
147.8282835196966
 10
126.164647543194
 20
146.1699857139017
 10
125.4742499524985
 20
143.5262176944419
 10
124.2822461282437
 20
139.6959580071401
 10
124.2822461282437
 20
139.6959580071401
 10
120.5753209406769
 20
127.8027915271048
 10
120.5753209406769
 20
127.8027915271048
 10
120.5753209406769
 20
127.8027915271048
 10
118.1964809388044
 20
127.8027915271048
 10
118.1964809388044
 20
127.8027915271048
 10
118.1964809388044
 20
127.8027915271048
 10
126.377554584636
 20
154.8151140277308
 10
126.377554584636
 20
154.8151140277308
 97
        0
 75
     2
 76
     1
 98
        0
  0
SPLINE
  5
6A8
330
6A2
100
AcDbEntity
  8
LOGO
370
     0
100
AcDbSpline
210
0.0
220
0.0
230
1.0
 70
    11
 71
     3
 72
   104
 73
   100
 74
     0
 42
0.000000001
 43
0.0000000001
 40
0.0
 40
0.0
 40
0.0
 40
0.0
 40
1.0
 40
1.0
 40
1.0
 40
2.0
 40
2.0
 40
2.0
 40
3.0
 40
3.0
 40
3.0
 40
4.0
 40
4.0
 40
4.0
 40
5.0
 40
5.0
 40
5.0
 40
6.0
 40
6.0
 40
6.0
 40
7.0
 40
7.0
 40
7.0
 40
8.0
 40
8.0
 40
8.0
 40
9.0
 40
9.0
 40
9.0
 40
10.0
 40
10.0
 40
10.0
 40
11.0
 40
11.0
 40
11.0
 40
12.0
 40
12.0
 40
12.0
 40
13.0
 40
13.0
 40
13.0
 40
14.0
 40
14.0
 40
14.0
 40
15.0
 40
15.0
 40
15.0
 40
16.0
 40
16.0
 40
16.0
 40
17.0
 40
17.0
 40
17.0
 40
18.0
 40
18.0
 40
18.0
 40
19.0
 40
19.0
 40
19.0
 40
20.0
 40
20.0
 40
20.0
 40
21.0
 40
21.0
 40
21.0
 40
22.0
 40
22.0
 40
22.0
 40
23.0
 40
23.0
 40
23.0
 40
24.0
 40
24.0
 40
24.0
 40
25.0
 40
25.0
 40
25.0
 40
26.0
 40
26.0
 40
26.0
 40
27.0
 40
27.0
 40
27.0
 40
28.0
 40
28.0
 40
28.0
 40
29.0
 40
29.0
 40
29.0
 40
30.0
 40
30.0
 40
30.0
 40
31.0
 40
31.0
 40
31.0
 40
32.0
 40
32.0
 40
32.0
 40
33.0
 40
33.0
 40
33.0
 40
33.0
 10
139.8926730891197
 20
154.8294111834263
 30
0.0
 10
139.8926730891197
 20
154.8294111834263
 30
0.0
 10
142.0344903652445
 20
154.8294111834263
 30
0.0
 10
142.0344903652445
 20
154.8294111834263
 30
0.0
 10
142.0344903652445
 20
154.8294111834263
 30
0.0
 10
140.9516961399171
 20
151.3157559800812
 30
0.0
 10
140.9516961399171
 20
151.3157559800812
 30
0.0
 10
141.8928968473923
 20
152.7887075264977
 30
0.0
 10
142.7341897198865
 20
153.4484437471474
 30
0.0
 10
143.8552245303272
 20
154.2926649527359
 30
0.0
 10
144.9803934580775
 20
155.1296514530327
 30
0.0
 10
146.3139908001845
 20
155.3044901642492
 30
0.0
 10
147.241066606852
 20
155.3044901642492
 30
0.0
 10
148.3855280820469
 20
155.3044901642492
 30
0.0
 10
149.4969166187653
 20
155.0752189084569
 30
0.0
 10
150.0784491203092
 20
153.8172414621372
 30
0.0
 10
150.5228667310863
 20
152.833838307127
 30
0.0
 10
150.5414702589793
 20
152.7201500811143
 30
0.0
 10
150.4140016419347
 20
150.7765981809602
 30
0.0
 10
151.5818897818837
 20
152.7699317437168
 30
0.0
 10
152.4424752018226
 20
153.6256940267945
 30
0.0
 10
153.9038856707499
 20
154.4507949398263
 30
0.0
 10
155.4455669174378
 20
155.3044901642492
 30
0.0
 10
156.339225275853
 20
155.3659851592288
 30
0.0
 10
157.3748216618963
 20
155.2147453676543
 30
0.0
 10
158.911679771723
 20
154.9877134254046
 30
0.0
 10
159.8859534176746
 20
154.4390816074493
 30
0.0
 10
160.3965169054045
 20
152.7816450760939
 30
0.0
 10
160.9070803931344
 20
151.1219692311958
 30
0.0
 10
160.6328506116007
 20
150.2303779314354
 30
0.0
 10
159.9992971339115
 20
147.597634224801
 30
0.0
 10
159.7105979417943
 20
146.4014962832367
 30
0.0
 10
159.2947746424084
 20
144.9400858143094
 30
0.0
 10
158.7463150793409
 20
143.2092687007094
 30
0.0
 10
158.7463150793409
 20
143.2092687007094
 30
0.0
 10
153.9038856707499
 20
127.8027915271048
 30
0.0
 10
153.9038856707499
 20
127.8027915271048
 30
0.0
 10
153.9038856707499
 20
127.8027915271048
 30
0.0
 10
151.3882752878863
 20
127.8027915271048
 30
0.0
 10
151.3882752878863
 20
127.8027915271048
 30
0.0
 10
151.3882752878863
 20
127.8027915271048
 30
0.0
 10
155.6250565106276
 20
141.2751908193897
 30
0.0
 10
155.6250565106276
 20
141.2751908193897
 30
0.0
 10
156.5094131050963
 20
144.0936252951782
 30
0.0
 10
157.109893644309
 20
146.1506931664571
 30
0.0
 10
157.4220195011804
 20
147.4415712963654
 30
0.0
 10
157.8095929989511
 20
149.0530157726519
 30
0.0
 10
157.9656559273867
 20
149.5826995529385
 30
0.0
 10
157.7816877071116
 20
150.7529992613181
 30
0.0
 10
157.6111553680925
 20
151.8430281919372
 30
0.0
 10
157.0582171779396
 20
152.5547853887321
 30
0.0
 10
156.1170164704645
 20
152.5547853887321
 30
0.0
 10
155.1096698860365
 20
152.5547853887321
 30
0.0
 10
154.2962823053817
 20
152.4412694176073
 30
0.0
 10
153.156643967048
 20
151.2945686288697
 30
0.0
 10
152.0170056287143
 20
150.1476955852443
 30
0.0
 10
151.076149431015
 20
148.7930831468137
 30
0.0
 10
150.3337308641742
 20
147.2290087646991
 30
0.0
 10
149.5957909244188
 20
145.6683794803425
 30
0.0
 10
148.8530278478023
 20
143.6822806228776
 30
0.0
 10
148.0964843801539
 20
141.2751908193897
 30
0.0
 10
148.0964843801539
 20
141.2751908193897
 30
0.0
 10
143.8552245303272
 20
127.8027915271048
 30
0.0
 10
143.8552245303272
 20
127.8027915271048
 30
0.0
 10
143.8552245303272
 20
127.8027915271048
 30
0.0
 10
141.486030802177
 20
127.8027915271048
 30
0.0
 10
141.486030802177
 20
127.8027915271048
 30
0.0
 10
141.486030802177
 20
127.8027915271048
 30
0.0
 10
146.3329388378533
 20
143.2092687007094
 30
0.0
 10
146.3329388378533
 20
143.2092687007094
 30
0.0
 10
146.8483254624444
 20
144.8408669988801
 30
0.0
 10
147.2314203331297
 20
146.1837661049335
 30
0.0
 10
147.4867020769946
 20
147.224185627838
 30
0.0
 10
147.9169947869641
 20
149.0197705792876
 30
0.0
 10
148.0306830129768
 20
150.2400242051577
 30
0.0
 10
147.709255392159
 20
151.3157559800812
 30
0.0
 10
147.3874832615654
 20
152.3916600098926
 30
0.0
 10
146.8245542879144
 20
152.6683013598569
 30
0.0
 10
145.8840425999909
 20
152.6683013598569
 30
0.0
 10
145.0989048209514
 20
152.6683013598569
 30
0.0
 10
144.3282364524954
 20
152.3275811915945
 30
0.0
 10
143.4531816219731
 20
151.6538923250251
 30
0.0
 10
142.34627171234
 20
150.8074318058939
 30
0.0
 10
141.901854101563
 20
150.1097995099067
 30
0.0
 10
141.3578731655808
 20
149.289521733736
 30
0.0
 10
140.6299240093235
 20
148.192602607601
 30
0.0
 10
140.2850697237515
 20
147.455696197173
 30
0.0
 10
139.6652966370942
 20
145.8385673095858
 30
0.0
 10
139.0506911970739
 20
144.2214384219986
 30
0.0
 10
138.463991048893
 20
142.3252566160164
 30
0.0
 10
138.0571250036777
 20
141.0154304484394
 30
0.0
 10
138.0571250036777
 20
141.0154304484394
 30
0.0
 10
133.9009590684727
 20
127.8027915271048
 30
0.0
 10
133.9009590684727
 20
127.8027915271048
 30
0.0
 10
133.9009590684727
 20
127.8027915271048
 30
0.0
 10
131.4180771143097
 20
127.8027915271048
 30
0.0
 10
131.4180771143097
 20
127.8027915271048
 30
0.0
 10
131.4180771143097
 20
127.8027915271048
 30
0.0
 10
139.8926730891197
 20
154.8294111834263
 30
0.0
 10
139.8926730891197
 20
154.8294111834263
 30
0.0
  0
HATCH
  5
6A9
330
6A2
100
AcDbEntity
  8
LOGO
 62
   250
420
  2234388
100
AcDbHatch
 10
0.0
 20
0.0
 30
0.0
210
0.0
220
0.0
230
1.0
  2
SOLID
 70
     1
 71
     0
 91
        1
 92
        1
 93
        1
 72
     4
 94
        3
 73
     0
 74
     1
 95
      104
 96
      100
 40
0.0
 40
0.0
 40
0.0
 40
0.0
 40
1.0
 40
1.0
 40
1.0
 40
2.0
 40
2.0
 40
2.0
 40
3.0
 40
3.0
 40
3.0
 40
4.0
 40
4.0
 40
4.0
 40
5.0
 40
5.0
 40
5.0
 40
6.0
 40
6.0
 40
6.0
 40
7.0
 40
7.0
 40
7.0
 40
8.0
 40
8.0
 40
8.0
 40
9.0
 40
9.0
 40
9.0
 40
10.0
 40
10.0
 40
10.0
 40
11.0
 40
11.0
 40
11.0
 40
12.0
 40
12.0
 40
12.0
 40
13.0
 40
13.0
 40
13.0
 40
14.0
 40
14.0
 40
14.0
 40
15.0
 40
15.0
 40
15.0
 40
16.0
 40
16.0
 40
16.0
 40
17.0
 40
17.0
 40
17.0
 40
18.0
 40
18.0
 40
18.0
 40
19.0
 40
19.0
 40
19.0
 40
20.0
 40
20.0
 40
20.0
 40
21.0
 40
21.0
 40
21.0
 40
22.0
 40
22.0
 40
22.0
 40
23.0
 40
23.0
 40
23.0
 40
24.0
 40
24.0
 40
24.0
 40
25.0
 40
25.0
 40
25.0
 40
26.0
 40
26.0
 40
26.0
 40
27.0
 40
27.0
 40
27.0
 40
28.0
 40
28.0
 40
28.0
 40
29.0
 40
29.0
 40
29.0
 40
30.0
 40
30.0
 40
30.0
 40
31.0
 40
31.0
 40
31.0
 40
32.0
 40
32.0
 40
32.0
 40
33.0
 40
33.0
 40
33.0
 40
33.0
 10
139.8926730891197
 20
154.8294111834263
 10
139.8926730891197
 20
154.8294111834263
 10
142.0344903652445
 20
154.8294111834263
 10
142.0344903652445
 20
154.8294111834263
 10
142.0344903652445
 20
154.8294111834263
 10
140.9516961399171
 20
151.3157559800812
 10
140.9516961399171
 20
151.3157559800812
 10
141.8928968473923
 20
152.7887075264977
 10
142.7341897198865
 20
153.4484437471474
 10
143.8552245303272
 20
154.2926649527359
 10
144.9803934580775
 20
155.1296514530327
 10
146.3139908001845
 20
155.3044901642492
 10
147.241066606852
 20
155.3044901642492
 10
148.3855280820469
 20
155.3044901642492
 10
149.4969166187653
 20
155.0752189084569
 10
150.0784491203092
 20
153.8172414621372
 10
150.5228667310863
 20
152.833838307127
 10
150.5414702589793
 20
152.7201500811143
 10
150.4140016419347
 20
150.7765981809602
 10
151.5818897818837
 20
152.7699317437168
 10
152.4424752018226
 20
153.6256940267945
 10
153.9038856707499
 20
154.4507949398263
 10
155.4455669174378
 20
155.3044901642492
 10
156.339225275853
 20
155.3659851592288
 10
157.3748216618963
 20
155.2147453676543
 10
158.911679771723
 20
154.9877134254046
 10
159.8859534176746
 20
154.4390816074493
 10
160.3965169054045
 20
152.7816450760939
 10
160.9070803931344
 20
151.1219692311958
 10
160.6328506116007
 20
150.2303779314354
 10
159.9992971339115
 20
147.597634224801
 10
159.7105979417943
 20
146.4014962832367
 10
159.2947746424084
 20
144.9400858143094
 10
158.7463150793409
 20
143.2092687007094
 10
158.7463150793409
 20
143.2092687007094
 10
153.9038856707499
 20
127.8027915271048
 10
153.9038856707499
 20
127.8027915271048
 10
153.9038856707499
 20
127.8027915271048
 10
151.3882752878863
 20
127.8027915271048
 10
151.3882752878863
 20
127.8027915271048
 10
151.3882752878863
 20
127.8027915271048
 10
155.6250565106276
 20
141.2751908193897
 10
155.6250565106276
 20
141.2751908193897
 10
156.5094131050963
 20
144.0936252951782
 10
157.109893644309
 20
146.1506931664571
 10
157.4220195011804
 20
147.4415712963654
 10
157.8095929989511
 20
149.0530157726519
 10
157.9656559273867
 20
149.5826995529385
 10
157.7816877071116
 20
150.7529992613181
 10
157.6111553680925
 20
151.8430281919372
 10
157.0582171779396
 20
152.5547853887321
 10
156.1170164704645
 20
152.5547853887321
 10
155.1096698860365
 20
152.5547853887321
 10
154.2962823053817
 20
152.4412694176073
 10
153.156643967048
 20
151.2945686288697
 10
152.0170056287143
 20
150.1476955852443
 10
151.076149431015
 20
148.7930831468137
 10
150.3337308641742
 20
147.2290087646991
 10
149.5957909244188
 20
145.6683794803425
 10
148.8530278478023
 20
143.6822806228776
 10
148.0964843801539
 20
141.2751908193897
 10
148.0964843801539
 20
141.2751908193897
 10
143.8552245303272
 20
127.8027915271048
 10
143.8552245303272
 20
127.8027915271048
 10
143.8552245303272
 20
127.8027915271048
 10
141.486030802177
 20
127.8027915271048
 10
141.486030802177
 20
127.8027915271048
 10
141.486030802177
 20
127.8027915271048
 10
146.3329388378533
 20
143.2092687007094
 10
146.3329388378533
 20
143.2092687007094
 10
146.8483254624444
 20
144.8408669988801
 10
147.2314203331297
 20
146.1837661049335
 10
147.4867020769946
 20
147.224185627838
 10
147.9169947869641
 20
149.0197705792876
 10
148.0306830129768
 20
150.2400242051577
 10
147.709255392159
 20
151.3157559800812
 10
147.3874832615654
 20
152.3916600098926
 10
146.8245542879144
 20
152.6683013598569
 10
145.8840425999909
 20
152.6683013598569
 10
145.0989048209514
 20
152.6683013598569
 10
144.3282364524954
 20
152.3275811915945
 10
143.4531816219731
 20
151.6538923250251
 10
142.34627171234
 20
150.8074318058939
 10
141.901854101563
 20
150.1097995099067
 10
141.3578731655808
 20
149.289521733736
 10
140.6299240093235
 20
148.192602607601
 10
140.2850697237515
 20
147.455696197173
 10
139.6652966370942
 20
145.8385673095858
 10
139.0506911970739
 20
144.2214384219986
 10
138.463991048893
 20
142.3252566160164
 10
138.0571250036777
 20
141.0154304484394
 10
138.0571250036777
 20
141.0154304484394
 10
133.9009590684727
 20
127.8027915271048
 10
133.9009590684727
 20
127.8027915271048
 10
133.9009590684727
 20
127.8027915271048
 10
131.4180771143097
 20
127.8027915271048
 10
131.4180771143097
 20
127.8027915271048
 10
131.4180771143097
 20
127.8027915271048
 10
139.8926730891197
 20
154.8294111834263
 10
139.8926730891197
 20
154.8294111834263
 97
        0
 75
     2
 76
     1
 98
        0
  0
SPLINE
  5
6AA
330
6A2
100
AcDbEntity
  8
LOGO
370
     0
100
AcDbSpline
210
0.0
220
0.0
230
1.0
 70
    11
 71
     3
 72
    29
 73
    25
 74
     0
 42
0.000000001
 43
0.0000000001
 40
0.0
 40
0.0
 40
0.0
 40
0.0
 40
1.0
 40
1.0
 40
1.0
 40
2.0
 40
2.0
 40
2.0
 40
3.0
 40
3.0
 40
3.0
 40
4.0
 40
4.0
 40
4.0
 40
5.0
 40
5.0
 40
5.0
 40
6.0
 40
6.0
 40
6.0
 40
7.0
 40
7.0
 40
7.0
 40
8.0
 40
8.0
 40
8.0
 40
8.0
 10
101.6420971922469
 20
132.8388354296931
 30
0.0
 10
101.630039350094
 20
134.7164137077823
 30
0.0
 10
102.2236296937908
 20
138.0598810818841
 30
0.0
 10
103.7487744712405
 20
142.5378191476827
 30
0.0
 10
105.819967243327
 20
148.5896501242061
 30
0.0
 10
107.0602024361932
 20
150.8074318058939
 30
0.0
 10
108.1522984254671
 20
151.8833358357054
 30
0.0
 10
109.741177511439
 20
153.4532668840085
 30
0.0
 10
111.8740375333931
 20
153.5290590346837
 30
0.0
 10
112.5075910110823
 20
153.4532668840085
 30
0.0
 10
113.4012493694975
 20
153.3490526768302
 30
0.0
 10
114.6683563248758
 20
152.7580461564518
 30
0.0
 10
114.7493161221879
 20
150.7838328862519
 30
0.0
 10
114.8106388622796
 20
149.0909118479895
 30
0.0
 10
114.3186789024427
 20
145.9191825971221
 30
0.0
 10
112.6164561002338
 20
140.9489400617108
 30
0.0
 10
110.6444821435766
 20
135.1746117095912
 30
0.0
 10
109.4669477299053
 20
132.8960240524753
 30
0.0
 10
108.5212683953448
 20
131.9072809959403
 30
0.0
 10
106.7346406980658
 20
130.0538184021569
 30
0.0
 10
104.8222669326213
 20
130.2336525051225
 30
0.0
 10
104.5408024457958
 20
130.2336525051225
 30
0.0
 10
104.1721769856939
 20
130.2336525051225
 30
0.0
 10
101.6465758193322
 20
130.6305277668397
 30
0.0
 10
101.6420971922469
 20
132.8388354296931
 30
0.0
  0
SPLINE
  5
6AB
330
6A2
100
AcDbEntity
  8
LOGO
370
     0
100
AcDbSpline
210
0.0
220
0.0
230
1.0
 70
    11
 71
     3
 72
    32
 73
    28
 74
     0
 42
0.000000001
 43
0.0000000001
 40
0.0
 40
0.0
 40
0.0
 40
0.0
 40
1.0
 40
1.0
 40
1.0
 40
2.0
 40
2.0
 40
2.0
 40
3.0
 40
3.0
 40
3.0
 40
4.0
 40
4.0
 40
4.0
 40
5.0
 40
5.0
 40
5.0
 40
6.0
 40
6.0
 40
6.0
 40
7.0
 40
7.0
 40
7.0
 40
8.0
 40
8.0
 40
8.0
 40
9.0
 40
9.0
 40
9.0
 40
9.0
 10
106.2595617172429
 20
153.4105476718098
 30
0.0
 10
104.8222669326213
 20
151.5474388043041
 30
0.0
 10
103.7177685914188
 20
149.8758773721411
 30
0.0
 10
101.9232171692965
 20
144.6141795664062
 30
0.0
 10
100.2754269116635
 20
139.7999999594306
 30
0.0
 10
99.22777268346732
 20
136.3052927937542
 30
0.0
 10
99.06964269637689
 20
132.039572749846
 30
0.0
 10
98.94665270641765
 20
128.8673267343149
 30
0.0
 10
100.8807305877373
 20
127.8027915271048
 30
0.0
 10
103.7129454545577
 20
127.8027915271048
 30
0.0
 10
104.9352661390825
 20
127.8027915271048
 30
0.0
 10
108.0151835347002
 20
127.8827177950895
 30
0.0
 10
110.2045431598849
 20
130.5926316915021
 30
0.0
 10
111.7417457794874
 20
132.4984597712065
 30
0.0
 10
113.155269389579
 20
134.475256864725
 30
0.0
 10
115.0562743324223
 20
140.9489400617108
 30
0.0
 10
116.6361961642235
 20
146.3680788349845
 30
0.0
 10
117.7282921534974
 20
149.8639917848761
 30
0.0
 10
117.6480213757369
 20
151.8595646611754
 30
0.0
 10
117.6480213757369
 20
151.8595646611754
 30
0.0
 10
117.6480213757369
 20
151.8595646611754
 30
0.0
 10
117.6480213757369
 20
151.8595646611754
 30
0.0
 10
117.13229024137
 20
155.18150017429
 30
0.0
 10
114.7162431837115
 20
155.886194920681
 30
0.0
 10
113.3351034925446
 20
155.886194920681
 30
0.0
 10
111.9829026225447
 20
155.886194920681
 30
0.0
 10
108.3414342923792
 20
156.1251124501957
 30
0.0
 10
106.2595617172429
 20
153.4105476718098
 30
0.0
  0
HATCH
  5
6AC
330
6A2
100
AcDbEntity
  8
LOGO
 62
   250
420
  2234388
100
AcDbHatch
 10
0.0
 20
0.0
 30
0.0
210
0.0
220
0.0
230
1.0
  2
SOLID
 70
     1
 71
     0
 91
        2
 92
        1
 93
        1
 72
     4
 94
        3
 73
     0
 74
     1
 95
       29
 96
       25
 40
0.0
 40
0.0
 40
0.0
 40
0.0
 40
1.0
 40
1.0
 40
1.0
 40
2.0
 40
2.0
 40
2.0
 40
3.0
 40
3.0
 40
3.0
 40
4.0
 40
4.0
 40
4.0
 40
5.0
 40
5.0
 40
5.0
 40
6.0
 40
6.0
 40
6.0
 40
7.0
 40
7.0
 40
7.0
 40
8.0
 40
8.0
 40
8.0
 40
8.0
 10
101.6420971922469
 20
132.8388354296931
 10
101.630039350094
 20
134.7164137077823
 10
102.2236296937908
 20
138.0598810818841
 10
103.7487744712405
 20
142.5378191476827
 10
105.819967243327
 20
148.5896501242061
 10
107.0602024361932
 20
150.8074318058939
 10
108.1522984254671
 20
151.8833358357054
 10
109.741177511439
 20
153.4532668840085
 10
111.8740375333931
 20
153.5290590346837
 10
112.5075910110823
 20
153.4532668840085
 10
113.4012493694975
 20
153.3490526768302
 10
114.6683563248758
 20
152.7580461564518
 10
114.7493161221879
 20
150.7838328862519
 10
114.8106388622796
 20
149.0909118479895
 10
114.3186789024427
 20
145.9191825971221
 10
112.6164561002338
 20
140.9489400617108
 10
110.6444821435766
 20
135.1746117095912
 10
109.4669477299053
 20
132.8960240524753
 10
108.5212683953448
 20
131.9072809959403
 10
106.7346406980658
 20
130.0538184021569
 10
104.8222669326213
 20
130.2336525051225
 10
104.5408024457958
 20
130.2336525051225
 10
104.1721769856939
 20
130.2336525051225
 10
101.6465758193322
 20
130.6305277668397
 10
101.6420971922469
 20
132.8388354296931
 97
        0
 92
        1
 93
        1
 72
     4
 94
        3
 73
     0
 74
     1
 95
       32
 96
       28
 40
0.0
 40
0.0
 40
0.0
 40
0.0
 40
1.0
 40
1.0
 40
1.0
 40
2.0
 40
2.0
 40
2.0
 40
3.0
 40
3.0
 40
3.0
 40
4.0
 40
4.0
 40
4.0
 40
5.0
 40
5.0
 40
5.0
 40
6.0
 40
6.0
 40
6.0
 40
7.0
 40
7.0
 40
7.0
 40
8.0
 40
8.0
 40
8.0
 40
9.0
 40
9.0
 40
9.0
 40
9.0
 10
106.2595617172429
 20
153.4105476718098
 10
104.8222669326213
 20
151.5474388043041
 10
103.7177685914188
 20
149.8758773721411
 10
101.9232171692965
 20
144.6141795664062
 10
100.2754269116635
 20
139.7999999594306
 10
99.22777268346732
 20
136.3052927937542
 10
99.06964269637689
 20
132.039572749846
 10
98.94665270641765
 20
128.8673267343149
 10
100.8807305877373
 20
127.8027915271048
 10
103.7129454545577
 20
127.8027915271048
 10
104.9352661390825
 20
127.8027915271048
 10
108.0151835347002
 20
127.8827177950895
 10
110.2045431598849
 20
130.5926316915021
 10
111.7417457794874
 20
132.4984597712065
 10
113.155269389579
 20
134.475256864725
 10
115.0562743324223
 20
140.9489400617108
 10
116.6361961642235
 20
146.3680788349845
 10
117.7282921534974
 20
149.8639917848761
 10
117.6480213757369
 20
151.8595646611754
 10
117.6480213757369
 20
151.8595646611754
 10
117.6480213757369
 20
151.8595646611754
 10
117.6480213757369
 20
151.8595646611754
 10
117.13229024137
 20
155.18150017429
 10
114.7162431837115
 20
155.886194920681
 10
113.3351034925446
 20
155.886194920681
 10
111.9829026225447
 20
155.886194920681
 10
108.3414342923792
 20
156.1251124501957
 10
106.2595617172429
 20
153.4105476718098
 97
        0
 75
     2
 76
     1
 98
        0
  0
ENDBLK
  5
6AD
330
6A2
100
AcDbEntity
  8
0
100
AcDbBlockEnd
  0
BLOCK
  5
15FA
330
15F9
100
AcDbEntity
  8
0
100
AcDbBlockBegin
  2
*D6
 70
     1
 10
0.0
 20
0.0
 30
0.0
  3
*D6
  1
*D43
  0
LINE
  5
15FC
330
15F9
100
AcDbEntity
  8
DIM
  6
Continuous
 62
     0
370
    -2
100
AcDbLine
 10
2194.120118369177
 20
2033.765840299484
 30
0.0
 11
2194.120118369177
 21
2333.765831238008
 31
0.0
  0
LINE
  5
15FD
330
15F9
100
AcDbEntity
  8
DIM
  6
Continuous
 62
     0
370
    -2
100
AcDbLine
 10
2614.120100246225
 20
2033.765840299484
 30
0.0
 11
2614.120100246225
 21
2333.765831238008
 31
0.0
  0
LINE
  5
15FE
330
15F9
100
AcDbEntity
  8
DIM
  6
Continuous
 62
     0
370
    -2
100
AcDbLine
 10
2203.120118369177
 20
2333.765831238008
 30
0.0
 11
2605.120100246225
 21
2333.765831238008
 31
0.0
  0
INSERT
  5
15FF
330
15F9
100
AcDbEntity
  8
DIM
 62
     0
370
    -2
100
AcDbBlockReference
  2
_DOT
 10
2194.120118369177
 20
2333.765831238008
 30
0.0
 41
9.0
 42
9.0
 43
9.0
 50
180.0
  0
INSERT
  5
1600
330
15F9
100
AcDbEntity
  8
DIM
 62
     0
370
    -2
100
AcDbBlockReference
  2
_DOT
 10
2614.120100246225
 20
2333.765831238008
 30
0.0
 41
9.0
 42
9.0
 43
9.0
  0
MTEXT
  5
1601
330
15F9
100
AcDbEntity
  8
DIM
  6
Continuous
 62
     0
100
AcDbMText
 10
2404.120109307701
 20
2365.765831238008
 30
0.0
 40
24.0
 41
0.0
 46
0.0
 71
     5
 72
     1
  1
\A1;Φ420
  7
ＭＳ ゴシック
 73
     1
 44
1.0
  0
POINT
  5
1602
330
15F9
100
AcDbEntity
  8
Defpoints
 62
     0
100
AcDbPoint
 10
2194.120118369177
 20
2023.765840299484
 30
0.0
  0
POINT
  5
1603
330
15F9
100
AcDbEntity
  8
Defpoints
 62
     0
100
AcDbPoint
 10
2614.120100246225
 20
2023.765840299484
 30
0.0
  0
POINT
  5
1604
330
15F9
100
AcDbEntity
  8
Defpoints
 62
     0
100
AcDbPoint
 10
2614.120100246225
 20
2333.765831238008
 30
0.0
  0
ENDBLK
  5
15FB
330
15F9
100
AcDbEntity
  8
0
100
AcDbBlockEnd
  0
BLOCK
  5
1609
330
1608
100
AcDbEntity
  8
0
100
AcDbBlockBegin
  2
*D7
 70
     1
 10
0.0
 20
0.0
 30
0.0
  3
*D7
  1
*D44
  0
LINE
  5
160B
330
1608
100
AcDbEntity
  8
DIM
  6
Continuous
 62
     0
370
    -2
100
AcDbLine
 10
2224.120117001095
 20
1905.599306825393
 30
0.0
 11
2224.120117001095
 21
1713.76584936096
 31
0.0
  0
LINE
  5
160C
330
1608
100
AcDbEntity
  8
DIM
  6
Continuous
 62
     0
370
    -2
100
AcDbLine
 10
2584.120101123472
 20
1905.599306008592
 30
0.0
 11
2584.120101123472
 21
1713.76584936096
 31
0.0
  0
LINE
  5
160D
330
1608
100
AcDbEntity
  8
DIM
  6
Continuous
 62
     0
370
    -2
100
AcDbLine
 10
2233.120117001095
 20
1713.76584936096
 30
0.0
 11
2575.120101123472
 21
1713.76584936096
 31
0.0
  0
INSERT
  5
160E
330
1608
100
AcDbEntity
  8
DIM
 62
     0
370
    -2
100
AcDbBlockReference
  2
_DOT
 10
2224.120117001095
 20
1713.76584936096
 30
0.0
 41
9.0
 42
9.0
 43
9.0
 50
180.0
  0
INSERT
  5
160F
330
1608
100
AcDbEntity
  8
DIM
 62
     0
370
    -2
100
AcDbBlockReference
  2
_DOT
 10
2584.120101123472
 20
1713.76584936096
 30
0.0
 41
9.0
 42
9.0
 43
9.0
  0
MTEXT
  5
1610
330
1608
100
AcDbEntity
  8
DIM
  6
Continuous
 62
     0
100
AcDbMText
 10
2404.120109062283
 20
1745.76584936096
 30
0.0
 40
24.0
 41
0.0
 46
0.0
 71
     5
 72
     1
  1
\A1;Φ360
  7
ＭＳ ゴシック
 73
     1
 44
1.0
  0
POINT
  5
1611
330
1608
100
AcDbEntity
  8
Defpoints
 62
     0
100
AcDbPoint
 10
2224.120117001095
 20
1915.599306825393
 30
0.0
  0
POINT
  5
1612
330
1608
100
AcDbEntity
  8
Defpoints
 62
     0
100
AcDbPoint
 10
2584.120101123472
 20
1915.599306008592
 30
0.0
  0
POINT
  5
1613
330
1608
100
AcDbEntity
  8
Defpoints
 62
     0
100
AcDbPoint
 10
2584.120101123472
 20
1713.76584936096
 30
0.0
  0
ENDBLK
  5
160A
330
1608
100
AcDbEntity
  8
0
100
AcDbBlockEnd
  0
BLOCK
  5
1637
330
1636
100
AcDbEntity
  8
0
100
AcDbBlockBegin
  2
*D8
 70
     1
 10
0.0
 20
0.0
 30
0.0
  3
*D8
  1
*D46
  0
LINE
  5
1639
330
1636
100
AcDbEntity
  8
DIM
  6
Continuous
 62
     0
370
    -2
100
AcDbLine
 10
3327.018767431051
 20
1163.099149256807
 30
0.0
 11
3317.470503148374
 21
1163.099149256807
 31
0.0
  0
LINE
  5
163A
330
1636
100
AcDbEntity
  8
DIM
  6
Continuous
 62
     0
370
    -2
100
AcDbLine
 10
3327.018767431051
 20
1038.099149256807
 30
0.0
 11
3317.470503148374
 21
1038.099149256807
 31
0.0
  0
LINE
  5
163B
330
1636
100
AcDbEntity
  8
DIM
  6
Continuous
 62
     0
370
    -2
100
AcDbLine
 10
3317.470503148374
 20
1163.099149256807
 30
0.0
 11
3317.470503148374
 21
1357.131149256807
 31
0.0
  0
LINE
  5
163C
330
1636
100
AcDbEntity
  8
DIM
  6
Continuous
 62
     0
370
    -2
100
AcDbLine
 10
3317.470503148374
 20
1154.099149256807
 30
0.0
 11
3317.470503148374
 21
1047.099149256807
 31
0.0
  0
INSERT
  5
163D
330
1636
100
AcDbEntity
  8
DIM
 62
     0
370
    -2
100
AcDbBlockReference
  2
_DOT
 10
3317.470503148374
 20
1163.099149256807
 30
0.0
 41
9.0
 42
9.0
 43
9.0
 50
90.0
  0
INSERT
  5
163E
330
1636
100
AcDbEntity
  8
DIM
 62
     0
370
    -2
100
AcDbBlockReference
  2
_DOT
 10
3317.470503148374
 20
1038.099149256807
 30
0.0
 41
9.0
 42
9.0
 43
9.0
 50
270.0
  0
MTEXT
  5
163F
330
1636
100
AcDbEntity
  8
DIM
  6
Continuous
 62
     0
100
AcDbMText
 10
3283.346503148374
 20
1272.115149256807
 30
0.0
 40
24.0
 41
0.0
 46
0.0
 71
     5
 72
     1
  1
\A1;125(深さ)
  7
ＭＳ ゴシック
 11
0.0
 21
1.0
 31
0.0
 73
     1
 44
1.0
  0
POINT
  5
1640
330
1636
100
AcDbEntity
  8
Defpoints
 62
     0
100
AcDbPoint
 10
3317.018767431051
 20
1163.099149256807
 30
0.0
  0
POINT
  5
1641
330
1636
100
AcDbEntity
  8
Defpoints
 62
     0
100
AcDbPoint
 10
3317.018767431051
 20
1038.099149256807
 30
0.0
  0
POINT
  5
1650
330
1636
100
AcDbEntity
  8
Defpoints
 62
     0
100
AcDbPoint
 10
3317.470503148374
 20
1038.099149256807
 30
0.0
  0
ENDBLK
  5
1638
330
1636
100
AcDbEntity
  8
0
100
AcDbBlockEnd
  0
BLOCK
  5
1644
330
1643
100
AcDbEntity
  8
0
100
AcDbBlockBegin
  2
*D9
 70
     1
 10
0.0
 20
0.0
 30
0.0
  3
*D9
  1
*D47
  0
LINE
  5
1646
330
1643
100
AcDbEntity
  8
DIM
  6
Continuous
 62
     0
370
    -2
100
AcDbLine
 10
774.7041160375643
 20
1167.099167091052
 30
0.0
 11
774.7041160375643
 21
1263.099165492038
 31
0.0
  0
LINE
  5
1647
330
1643
100
AcDbEntity
  8
DIM
  6
Continuous
 62
     0
370
    -2
100
AcDbLine
 10
744.7041160375643
 20
1167.099167091052
 30
0.0
 11
744.7041160375643
 21
1263.099165492038
 31
0.0
  0
LINE
  5
1648
330
1643
100
AcDbEntity
  8
DIM
  6
Continuous
 62
     0
370
    -2
100
AcDbLine
 10
765.7041160375643
 20
1263.099165492038
 30
0.0
 11
753.7041160375643
 21
1263.099165492038
 31
0.0
  0
INSERT
  5
1649
330
1643
100
AcDbEntity
  8
DIM
 62
     0
370
    -2
100
AcDbBlockReference
  2
_DOT
 10
774.7041160375643
 20
1263.099165492038
 30
0.0
 41
9.0
 42
9.0
 43
9.0
  0
INSERT
  5
164A
330
1643
100
AcDbEntity
  8
DIM
 62
     0
370
    -2
100
AcDbBlockReference
  2
_DOT
 10
744.7041160375643
 20
1263.099165492038
 30
0.0
 41
9.0
 42
9.0
 43
9.0
 50
180.0
  0
MTEXT
  5
164B
330
1643
100
AcDbEntity
  8
DIM
  6
Continuous
 62
     0
100
AcDbMText
 10
759.7041160375643
 20
1295.099165492038
 30
0.0
 40
24.0
 41
0.0
 46
0.0
 71
     5
 72
     1
  1
\A1;30
  7
ＭＳ ゴシック
 73
     1
 44
1.0
  0
POINT
  5
164C
330
1643
100
AcDbEntity
  8
Defpoints
 62
     0
100
AcDbPoint
 10
774.7041160375643
 20
1157.099167091052
 30
0.0
  0
POINT
  5
164D
330
1643
100
AcDbEntity
  8
Defpoints
 62
     0
100
AcDbPoint
 10
744.7041160375643
 20
1157.099167091052
 30
0.0
  0
POINT
  5
1756
330
1643
100
AcDbEntity
  8
Defpoints
 62
     0
100
AcDbPoint
 10
744.7041160375643
 20
1263.099165492038
 30
0.0
  0
ENDBLK
  5
1645
330
1643
100
AcDbEntity
  8
0
100
AcDbBlockEnd
  0
BLOCK
  5
1657
330
1656
100
AcDbEntity
  8
0
100
AcDbBlockBegin
  2
*D10
 70
     1
 10
0.0
 20
0.0
 30
0.0
  3
*D10
  1
*D48
  0
LINE
  5
1659
330
1656
100
AcDbEntity
  8
DIM
  6
Continuous
 62
     0
370
    -2
100
AcDbLine
 10
2618.134723601398
 20
1163.099149256807
 30
0.0
 11
2714.120094499607
 21
1163.099149256807
 31
0.0
  0
LINE
  5
165A
330
1656
100
AcDbEntity
  8
DIM
  6
Continuous
 62
     0
370
    -2
100
AcDbLine
 10
2445.371115824475
 20
988.2700226499519
 30
0.0
 11
2714.120094499607
 21
988.2700226499519
 31
0.0
  0
LINE
  5
165B
330
1656
100
AcDbEntity
  8
DIM
  6
Continuous
 62
     0
370
    -2
100
AcDbLine
 10
2714.120094499607
 20
1154.099149256807
 30
0.0
 11
2714.120094499607
 21
997.2700226499519
 31
0.0
  0
INSERT
  5
165C
330
1656
100
AcDbEntity
  8
DIM
 62
     0
370
    -2
100
AcDbBlockReference
  2
_DOT
 10
2714.120094499607
 20
1163.099149256807
 30
0.0
 41
9.0
 42
9.0
 43
9.0
 50
90.0
  0
INSERT
  5
165D
330
1656
100
AcDbEntity
  8
DIM
 62
     0
370
    -2
100
AcDbBlockReference
  2
_DOT
 10
2714.120094499607
 20
988.2700226499519
 30
0.0
 41
9.0
 42
9.0
 43
9.0
 50
270.0
  0
MTEXT
  5
165E
330
1656
100
AcDbEntity
  8
DIM
  6
Continuous
 62
     0
100
AcDbMText
 10
2682.120094499607
 20
1075.68458595338
 30
0.0
 40
24.0
 41
0.0
 46
0.0
 71
     5
 72
     1
  1
\A1;175
  7
ＭＳ ゴシック
 11
0.0
 21
1.0
 31
0.0
 73
     1
 44
1.0
  0
POINT
  5
165F
330
1656
100
AcDbEntity
  8
Defpoints
 62
     0
100
AcDbPoint
 10
2608.134723601398
 20
1163.099149256807
 30
0.0
  0
POINT
  5
1660
330
1656
100
AcDbEntity
  8
Defpoints
 62
     0
100
AcDbPoint
 10
2435.371115824475
 20
988.2700226499519
 30
0.0
  0
POINT
  5
1661
330
1656
100
AcDbEntity
  8
Defpoints
 62
     0
100
AcDbPoint
 10
2714.120094499607
 20
988.2700226499519
 30
0.0
  0
ENDBLK
  5
1658
330
1656
100
AcDbEntity
  8
0
100
AcDbBlockEnd
  0
BLOCK
  5
1666
330
1665
100
AcDbEntity
  8
0
100
AcDbBlockBegin
  2
*D11
 70
     1
 10
0.0
 20
0.0
 30
0.0
  3
*D11
  1
*D49
  0
LINE
  5
1668
330
1665
100
AcDbEntity
  8
DIM
  6
Continuous
 62
     0
370
    -2
100
AcDbLine
 10
3101.592291001969
 20
1163.099165845623
 30
0.0
 11
3005.846131543398
 21
1163.099165845623
 31
0.0
  0
LINE
  5
1669
330
1665
100
AcDbEntity
  8
DIM
  6
Continuous
 62
     0
370
    -2
100
AcDbLine
 10
3160.88358614533
 20
1013.099156717185
 30
0.0
 11
3005.846131543398
 21
1013.099156717185
 31
0.0
  0
LINE
  5
166A
330
1665
100
AcDbEntity
  8
DIM
  6
Continuous
 62
     0
370
    -2
100
AcDbLine
 10
3005.846131543398
 20
1154.099165845623
 30
0.0
 11
3005.846131543398
 21
1022.099156717185
 31
0.0
  0
INSERT
  5
166B
330
1665
100
AcDbEntity
  8
DIM
 62
     0
370
    -2
100
AcDbBlockReference
  2
_DOT
 10
3005.846131543398
 20
1163.099165845623
 30
0.0
 41
9.0
 42
9.0
 43
9.0
 50
90.0
  0
INSERT
  5
166C
330
1665
100
AcDbEntity
  8
DIM
 62
     0
370
    -2
100
AcDbBlockReference
  2
_DOT
 10
3005.846131543398
 20
1013.099156717185
 30
0.0
 41
9.0
 42
9.0
 43
9.0
 50
270.0
  0
MTEXT
  5
166D
330
1665
100
AcDbEntity
  8
DIM
  6
Continuous
 62
     0
100
AcDbMText
 10
2973.846131543398
 20
1088.099161281404
 30
0.0
 40
24.0
 41
0.0
 46
0.0
 71
     5
 72
     1
  1
\A1;150
  7
ＭＳ ゴシック
 11
0.0
 21
1.0
 31
0.0
 73
     1
 44
1.0
  0
POINT
  5
166E
330
1665
100
AcDbEntity
  8
Defpoints
 62
     0
100
AcDbPoint
 10
3111.592291001969
 20
1163.099165845623
 30
0.0
  0
POINT
  5
166F
330
1665
100
AcDbEntity
  8
Defpoints
 62
     0
100
AcDbPoint
 10
3170.88358614533
 20
1013.099156717185
 30
0.0
  0
POINT
  5
1670
330
1665
100
AcDbEntity
  8
Defpoints
 62
     0
100
AcDbPoint
 10
3005.846131543398
 20
1013.099156717185
 30
0.0
  0
ENDBLK
  5
1667
330
1665
100
AcDbEntity
  8
0
100
AcDbBlockEnd
  0
BLOCK
  5
1675
330
1674
100
AcDbEntity
  8
0
100
AcDbBlockBegin
  2
*D12
 70
     1
 10
0.0
 20
0.0
 30
0.0
  3
*D12
  1
*D50
  0
LINE
  5
1677
330
1674
100
AcDbEntity
  8
DIM
  6
Continuous
 62
     0
370
    -2
100
AcDbLine
 10
2253.203750377979
 20
1003.971341243568
 30
0.0
 11
2253.203750377979
 21
913.0991505956263
 31
0.0
  0
LINE
  5
1678
330
1674
100
AcDbEntity
  8
DIM
  6
Continuous
 62
     0
370
    -2
100
AcDbLine
 10
2552.838775203512
 20
1003.908889810284
 30
0.0
 11
2552.838775203512
 21
913.0991505956263
 31
0.0
  0
LINE
  5
1679
330
1674
100
AcDbEntity
  8
DIM
  6
Continuous
 62
     0
370
    -2
100
AcDbLine
 10
2262.203750377979
 20
913.0991505956263
 30
0.0
 11
2543.838775203512
 21
913.0991505956263
 31
0.0
  0
INSERT
  5
167A
330
1674
100
AcDbEntity
  8
DIM
 62
     0
370
    -2
100
AcDbBlockReference
  2
_DOT
 10
2253.203750377979
 20
913.0991505956263
 30
0.0
 41
9.0
 42
9.0
 43
9.0
 50
180.0
  0
INSERT
  5
167B
330
1674
100
AcDbEntity
  8
DIM
 62
     0
370
    -2
100
AcDbBlockReference
  2
_DOT
 10
2552.838775203512
 20
913.0991505956263
 30
0.0
 41
9.0
 42
9.0
 43
9.0
  0
MTEXT
  5
167C
330
1674
100
AcDbEntity
  8
DIM
  6
Continuous
 62
     0
100
AcDbMText
 10
2403.021262790746
 20
945.0991505956263
 30
0.0
 40
24.0
 41
0.0
 46
0.0
 71
     5
 72
     1
  1
\A1;300
  7
ＭＳ ゴシック
 73
     1
 44
1.0
  0
POINT
  5
167D
330
1674
100
AcDbEntity
  8
Defpoints
 62
     0
100
AcDbPoint
 10
2253.203750377979
 20
1013.971341243568
 30
0.0
  0
POINT
  5
167E
330
1674
100
AcDbEntity
  8
Defpoints
 62
     0
100
AcDbPoint
 10
2552.838775203512
 20
1013.908889810284
 30
0.0
  0
POINT
  5
167F
330
1674
100
AcDbEntity
  8
Defpoints
 62
     0
100
AcDbPoint
 10
2552.838775203512
 20
913.0991505956263
 30
0.0
  0
ENDBLK
  5
1676
330
1674
100
AcDbEntity
  8
0
100
AcDbBlockEnd
  0
BLOCK
  5
1696
330
1695
100
AcDbEntity
  8
0
100
AcDbBlockBegin
  2
*D13
 70
     1
 10
0.0
 20
0.0
 30
0.0
  3
*D13
  1
*D52
  0
LINE
  5
1698
330
1695
100
AcDbEntity
  8
DIM
  6
Continuous
 62
     0
370
    -2
100
AcDbLine
 10
1476.176303216167
 20
2293.910346952812
 30
0.0
 11
1200.192956526426
 21
2293.910346952812
 31
0.0
  0
LINE
  5
1699
330
1695
100
AcDbEntity
  8
DIM
  6
Continuous
 62
     0
370
    -2
100
AcDbLine
 10
1476.176303216167
 20
2188.910346952812
 30
0.0
 11
1200.192956526426
 21
2188.910346952812
 31
0.0
  0
LINE
  5
169A
330
1695
100
AcDbEntity
  8
DIM
  6
Continuous
 62
     0
370
    -2
100
AcDbLine
 10
1200.192956526426
 20
2281.910346952812
 30
0.0
 11
1200.192956526426
 21
2200.910346952812
 31
0.0
  0
INSERT
  5
169B
330
1695
100
AcDbEntity
  8
DIM
 62
     0
370
    -2
100
AcDbBlockReference
  2
_DOT
 10
1200.192956526426
 20
2293.910346952812
 30
0.0
 41
12.0
 42
12.0
 43
12.0
 50
90.0
  0
INSERT
  5
169C
330
1695
100
AcDbEntity
  8
DIM
 62
     0
370
    -2
100
AcDbBlockReference
  2
_DOT
 10
1200.192956526426
 20
2188.910346952812
 30
0.0
 41
12.0
 42
12.0
 43
12.0
 50
270.0
  0
MTEXT
  5
169D
330
1695
100
AcDbEntity
  8
DIM
  6
Continuous
 62
     0
100
AcDbMText
 10
1168.192956526426
 20
2241.410346952812
 30
0.0
 40
24.0
 41
0.0
 46
0.0
 71
     5
 72
     1
  1
\A1;105
  7
ＭＳ ゴシック
 11
0.0
 21
1.0
 31
0.0
 73
     1
 44
1.0
  0
POINT
  5
169E
330
1695
100
AcDbEntity
  8
Defpoints
 62
     0
100
AcDbPoint
 10
1486.176303216167
 20
2293.910346952812
 30
0.0
  0
POINT
  5
169F
330
1695
100
AcDbEntity
  8
Defpoints
 62
     0
100
AcDbPoint
 10
1486.176303216167
 20
2188.910346952812
 30
0.0
  0
POINT
  5
16A0
330
1695
100
AcDbEntity
  8
Defpoints
 62
     0
100
AcDbPoint
 10
1200.192956526426
 20
2188.910346952812
 30
0.0
  0
ENDBLK
  5
1697
330
1695
100
AcDbEntity
  8
0
100
AcDbBlockEnd
  0
BLOCK
  5
16A3
330
16A2
100
AcDbEntity
  8
0
100
AcDbBlockBegin
  2
*D14
 70
     1
 10
0.0
 20
0.0
 30
0.0
  3
*D14
  1
*D53
  0
LINE
  5
16A5
330
16A2
100
AcDbEntity
  8
DIM
  6
Continuous
 62
     0
370
    -2
100
AcDbLine
 10
1476.176303216167
 20
2188.910346952812
 30
0.0
 11
1200.192956526426
 21
2188.910346952812
 31
0.0
  0
LINE
  5
16A6
330
16A2
100
AcDbEntity
  8
DIM
  6
Continuous
 62
     0
370
    -2
100
AcDbLine
 10
1476.176303216167
 20
2083.910346952812
 30
0.0
 11
1200.192956526426
 21
2083.910346952812
 31
0.0
  0
LINE
  5
16A7
330
16A2
100
AcDbEntity
  8
DIM
  6
Continuous
 62
     0
370
    -2
100
AcDbLine
 10
1200.192956526426
 20
2176.910346952812
 30
0.0
 11
1200.192956526426
 21
2095.910346952812
 31
0.0
  0
INSERT
  5
16A8
330
16A2
100
AcDbEntity
  8
DIM
 62
     0
370
    -2
100
AcDbBlockReference
  2
_DOT
 10
1200.192956526426
 20
2188.910346952812
 30
0.0
 41
12.0
 42
12.0
 43
12.0
 50
90.0
  0
INSERT
  5
16A9
330
16A2
100
AcDbEntity
  8
DIM
 62
     0
370
    -2
100
AcDbBlockReference
  2
_DOT
 10
1200.192956526426
 20
2083.910346952812
 30
0.0
 41
12.0
 42
12.0
 43
12.0
 50
270.0
  0
MTEXT
  5
16AA
330
16A2
100
AcDbEntity
  8
DIM
  6
Continuous
 62
     0
100
AcDbMText
 10
1168.192956526426
 20
2136.410346952812
 30
0.0
 40
24.0
 41
0.0
 46
0.0
 71
     5
 72
     1
  1
\A1;105
  7
ＭＳ ゴシック
 11
0.0
 21
1.0
 31
0.0
 73
     1
 44
1.0
  0
POINT
  5
16AB
330
16A2
100
AcDbEntity
  8
Defpoints
 62
     0
100
AcDbPoint
 10
1486.176303216167
 20
2188.910346952812
 30
0.0
  0
POINT
  5
16AC
330
16A2
100
AcDbEntity
  8
Defpoints
 62
     0
100
AcDbPoint
 10
1486.176303216167
 20
2083.910346952812
 30
0.0
  0
POINT
  5
16AD
330
16A2
100
AcDbEntity
  8
Defpoints
 62
     0
100
AcDbPoint
 10
1200.192956526426
 20
2083.910346952812
 30
0.0
  0
ENDBLK
  5
16A4
330
16A2
100
AcDbEntity
  8
0
100
AcDbBlockEnd
  0
BLOCK
  5
16B2
330
16B1
100
AcDbEntity
  8
0
100
AcDbBlockBegin
  2
*D15
 70
     1
 10
0.0
 20
0.0
 30
0.0
  3
*D15
  1
*D54
  0
LINE
  5
16B4
330
16B1
100
AcDbEntity
  8
DIM
  6
Continuous
 62
     0
370
    -2
100
AcDbLine
 10
1568.298430119221
 20
2141.79089195552
 30
0.0
 11
1767.520048247229
 21
2211.468260556993
 31
0.0
  0
MTEXT
  5
16B5
330
16B1
100
AcDbEntity
  8
DIM
  6
Continuous
 62
     0
100
AcDbMText
 10
1709.57212054803
 20
2225.228944092649
 30
0.0
 40
24.0
 41
0.0
 46
0.0
 71
     5
 72
     1
  1
\A1;%%c150
  7
ＭＳ ゴシック
 11
0.9439324926922127
 21
0.3301385303775762
 31
0.0
 73
     1
 44
1.0
  0
INSERT
  5
16B6
330
16B1
100
AcDbEntity
  8
DIM
 62
     0
370
    -2
100
AcDbBlockReference
  2
_DOT
 10
1556.971240206914
 20
2137.829229590989
 30
0.0
 41
12.0
 42
12.0
 43
12.0
 50
199.2771839342136
  0
POINT
  5
16B7
330
16B1
100
AcDbEntity
  8
Defpoints
 62
     0
100
AcDbPoint
 10
1556.971240206914
 20
2137.829229590989
 30
0.0
  0
POINT
  5
16B8
330
16B1
100
AcDbEntity
  8
Defpoints
 62
     0
100
AcDbPoint
 10
1415.381366303083
 20
2088.308450034353
 30
0.0
  0
ENDBLK
  5
16B3
330
16B1
100
AcDbEntity
  8
0
100
AcDbBlockEnd
  0
BLOCK
  5
16F3
330
16F2
100
AcDbEntity
  8
0
100
AcDbBlockBegin
  2
*D16
 70
     1
 10
0.0
 20
0.0
 30
0.0
  3
*D16
  1
*D56
  0
LINE
  5
16F5
330
16F2
100
AcDbEntity
  8
MODEL
  6
Continuous
 62
     0
370
    -2
100
AcDbLine
 10
3525.53529580867
 20
1147.099148013866
 30
0.0
 11
3525.53529580867
 21
914.0803490782747
 31
0.0
  0
LINE
  5
16F6
330
16F2
100
AcDbEntity
  8
MODEL
  6
Continuous
 62
     0
370
    -2
100
AcDbLine
 10
3315.756787243577
 20
978.2512260734912
 30
0.0
 11
3315.756787243577
 21
914.0803490782747
 31
0.0
  0
LINE
  5
16F7
330
16F2
100
AcDbEntity
  8
MODEL
  6
Continuous
 62
     0
370
    -2
100
AcDbLine
 10
3516.53529580867
 20
914.0803490782747
 30
0.0
 11
3324.756787243577
 21
914.0803490782747
 31
0.0
  0
INSERT
  5
16F8
330
16F2
100
AcDbEntity
  8
MODEL
 62
     0
370
    -2
100
AcDbBlockReference
  2
_DOT
 10
3525.53529580867
 20
914.0803490782747
 30
0.0
 41
9.0
 42
9.0
 43
9.0
  0
INSERT
  5
16F9
330
16F2
100
AcDbEntity
  8
MODEL
 62
     0
370
    -2
100
AcDbBlockReference
  2
_DOT
 10
3315.756787243577
 20
914.0803490782747
 30
0.0
 41
9.0
 42
9.0
 43
9.0
 50
180.0
  0
MTEXT
  5
16FA
330
16F2
100
AcDbEntity
  8
MODEL
  6
Continuous
 62
     0
100
AcDbMText
 10
3420.646041526123
 20
946.0803490782747
 30
0.0
 40
24.0
 41
0.0
 46
0.0
 71
     5
 72
     1
  1
\A1;210
  7
ＭＳ ゴシック
 73
     1
 44
1.0
  0
POINT
  5
16FB
330
16F2
100
AcDbEntity
  8
Defpoints
 62
     0
100
AcDbPoint
 10
3525.53529580867
 20
1157.099148013866
 30
0.0
  0
POINT
  5
16FC
330
16F2
100
AcDbEntity
  8
Defpoints
 62
     0
100
AcDbPoint
 10
3315.756787243577
 20
988.2512260734912
 30
0.0
  0
POINT
  5
16FD
330
16F2
100
AcDbEntity
  8
Defpoints
 62
     0
100
AcDbPoint
 10
3315.756787243577
 20
914.0803490782747
 30
0.0
  0
ENDBLK
  5
16F4
330
16F2
100
AcDbEntity
  8
0
100
AcDbBlockEnd
  0
BLOCK
  5
170D
330
170C
100
AcDbEntity
  8
0
100
AcDbBlockBegin
  2
*D17
 70
     1
 10
0.0
 20
0.0
 30
0.0
  3
*D17
  1
*D17
  0
LINE
  5
170F
330
170C
100
AcDbEntity
  8
DIM
  6
Continuous
 62
     0
370
    -2
100
AcDbLine
 10
3255.592281432791
 20
2023.765831314708
 30
0.0
 11
3198.974315074332
 21
2023.765831314708
 31
0.0
  0
LINE
  5
1710
330
170C
100
AcDbEntity
  8
DIM
  6
Continuous
 62
     0
370
    -2
100
AcDbLine
 10
3255.592281432791
 20
1973.765831314708
 30
0.0
 11
3198.974315074332
 21
1973.765831314708
 31
0.0
  0
LINE
  5
1711
330
170C
100
AcDbEntity
  8
DIM
  6
Continuous
 62
     0
370
    -2
100
AcDbLine
 10
3198.974315074332
 20
2014.765831314708
 30
0.0
 11
3198.974315074332
 21
1982.765831314708
 31
0.0
  0
INSERT
  5
1712
330
170C
100
AcDbEntity
  8
DIM
 62
     0
370
    -2
100
AcDbBlockReference
  2
_DOT
 10
3198.974315074332
 20
2023.765831314708
 30
0.0
 41
9.0
 42
9.0
 43
9.0
 50
90.0
  0
INSERT
  5
1713
330
170C
100
AcDbEntity
  8
DIM
 62
     0
370
    -2
100
AcDbBlockReference
  2
_DOT
 10
3198.974315074332
 20
1973.765831314708
 30
0.0
 41
9.0
 42
9.0
 43
9.0
 50
270.0
  0
MTEXT
  5
1714
330
170C
100
AcDbEntity
  8
DIM
  6
Continuous
 62
     0
100
AcDbMText
 10
3166.974315074332
 20
1998.765831314708
 30
0.0
 40
24.0
 41
0.0
 46
0.0
 71
     5
 72
     1
  1
\A1;50
  7
ＭＳ ゴシック
 11
0.0
 21
1.0
 31
0.0
 73
     1
 44
1.0
  0
POINT
  5
1715
330
170C
100
AcDbEntity
  8
Defpoints
 62
     0
100
AcDbPoint
 10
3265.592281432791
 20
2023.765831314708
 30
0.0
  0
POINT
  5
1716
330
170C
100
AcDbEntity
  8
Defpoints
 62
     0
100
AcDbPoint
 10
3265.592281432791
 20
1973.765831314708
 30
0.0
  0
POINT
  5
1728
330
170C
100
AcDbEntity
  8
Defpoints
 62
     0
100
AcDbPoint
 10
3198.974315074332
 20
1973.765831314708
 30
0.0
  0
ENDBLK
  5
170E
330
170C
100
AcDbEntity
  8
0
100
AcDbBlockEnd
  0
BLOCK
  5
171D
330
171C
100
AcDbEntity
  8
0
100
AcDbBlockBegin
  2
*D18
 70
     1
 10
0.0
 20
0.0
 30
0.0
  3
*D18
  1
*D18
  0
LINE
  5
171F
330
171C
100
AcDbEntity
  8
DIM
  6
Continuous
 62
     0
370
    -2
100
AcDbLine
 10
3255.592281432791
 20
2023.765831314708
 30
0.0
 11
3198.974315074332
 21
2023.765831314708
 31
0.0
  0
LINE
  5
1720
330
171C
100
AcDbEntity
  8
DIM
  6
Continuous
 62
     0
370
    -2
100
AcDbLine
 10
3255.592281432791
 20
2133.765831314708
 30
0.0
 11
3198.974315074332
 21
2133.765831314708
 31
0.0
  0
LINE
  5
1721
330
171C
100
AcDbEntity
  8
DIM
  6
Continuous
 62
     0
370
    -2
100
AcDbLine
 10
3198.974315074332
 20
2032.765831314708
 30
0.0
 11
3198.974315074332
 21
2124.765831314708
 31
0.0
  0
INSERT
  5
1722
330
171C
100
AcDbEntity
  8
DIM
 62
     0
370
    -2
100
AcDbBlockReference
  2
_DOT
 10
3198.974315074332
 20
2023.765831314708
 30
0.0
 41
9.0
 42
9.0
 43
9.0
 50
270.0
  0
INSERT
  5
1723
330
171C
100
AcDbEntity
  8
DIM
 62
     0
370
    -2
100
AcDbBlockReference
  2
_DOT
 10
3198.974315074332
 20
2133.765831314708
 30
0.0
 41
9.0
 42
9.0
 43
9.0
 50
90.0
  0
MTEXT
  5
1724
330
171C
100
AcDbEntity
  8
DIM
  6
Continuous
 62
     0
100
AcDbMText
 10
3166.974315074332
 20
2078.765831314708
 30
0.0
 40
24.0
 41
0.0
 46
0.0
 71
     5
 72
     1
  1
\A1;110
  7
ＭＳ ゴシック
 11
0.0
 21
1.0
 31
0.0
 73
     1
 44
1.0
  0
POINT
  5
1725
330
171C
100
AcDbEntity
  8
Defpoints
 62
     0
100
AcDbPoint
 10
3265.592281432791
 20
2023.765831314708
 30
0.0
  0
POINT
  5
1726
330
171C
100
AcDbEntity
  8
Defpoints
 62
     0
100
AcDbPoint
 10
3265.592281432791
 20
2133.765831314708
 30
0.0
  0
POINT
  5
1727
330
171C
100
AcDbEntity
  8
Defpoints
 62
     0
100
AcDbPoint
 10
3198.974315074332
 20
2133.765831314708
 30
0.0
  0
ENDBLK
  5
171E
330
171C
100
AcDbEntity
  8
0
100
AcDbBlockEnd
  0
BLOCK
  5
172D
330
172C
100
AcDbEntity
  8
0
100
AcDbBlockBegin
  2
*D19
 70
     1
 10
0.0
 20
0.0
 30
0.0
  3
*D19
  1
*D19
  0
LINE
  5
172F
330
172C
100
AcDbEntity
  8
DIM
  6
Continuous
 62
     0
370
    -2
100
AcDbLine
 10
3265.592281432791
 20
1963.765831314708
 30
0.0
 11
3265.592281432791
 21
1907.693180604883
 31
0.0
  0
LINE
  5
1730
330
172C
100
AcDbEntity
  8
DIM
  6
Continuous
 62
     0
370
    -2
100
AcDbLine
 10
3365.592281432791
 20
1963.765831314708
 30
0.0
 11
3365.592281432791
 21
1907.693180604883
 31
0.0
  0
LINE
  5
1731
330
172C
100
AcDbEntity
  8
DIM
  6
Continuous
 62
     0
370
    -2
100
AcDbLine
 10
3274.592281432791
 20
1907.693180604883
 30
0.0
 11
3356.592281432791
 21
1907.693180604883
 31
0.0
  0
INSERT
  5
1732
330
172C
100
AcDbEntity
  8
DIM
 62
     0
370
    -2
100
AcDbBlockReference
  2
_DOT
 10
3265.592281432791
 20
1907.693180604883
 30
0.0
 41
9.0
 42
9.0
 43
9.0
 50
180.0
  0
INSERT
  5
1733
330
172C
100
AcDbEntity
  8
DIM
 62
     0
370
    -2
100
AcDbBlockReference
  2
_DOT
 10
3365.592281432791
 20
1907.693180604883
 30
0.0
 41
9.0
 42
9.0
 43
9.0
  0
MTEXT
  5
1734
330
172C
100
AcDbEntity
  8
DIM
  6
Continuous
 62
     0
100
AcDbMText
 10
3315.592281432791
 20
1939.693180604883
 30
0.0
 40
24.0
 41
0.0
 46
0.0
 71
     5
 72
     1
  1
\A1;100
  7
ＭＳ ゴシック
 73
     1
 44
1.0
  0
POINT
  5
1735
330
172C
100
AcDbEntity
  8
Defpoints
 62
     0
100
AcDbPoint
 10
3265.592281432791
 20
1973.765831314708
 30
0.0
  0
POINT
  5
1736
330
172C
100
AcDbEntity
  8
Defpoints
 62
     0
100
AcDbPoint
 10
3365.592281432791
 20
1973.765831314708
 30
0.0
  0
POINT
  5
1737
330
172C
100
AcDbEntity
  8
Defpoints
 62
     0
100
AcDbPoint
 10
3365.592281432791
 20
1907.693180604883
 30
0.0
  0
ENDBLK
  5
172E
330
172C
100
AcDbEntity
  8
0
100
AcDbBlockEnd
  0
BLOCK
  5
173C
330
173B
100
AcDbEntity
  8
0
100
AcDbBlockBegin
  2
*D20
 70
     1
 10
0.0
 20
0.0
 30
0.0
  3
*D20
  1
*D20
  0
LINE
  5
173E
330
173B
100
AcDbEntity
  8
DIM
  6
Continuous
 62
     0
370
    -2
100
AcDbLine
 10
3375.592281432791
 20
1973.765831314708
 30
0.0
 11
3434.573061223851
 21
1973.765831314708
 31
0.0
  0
LINE
  5
173F
330
173B
100
AcDbEntity
  8
DIM
  6
Continuous
 62
     0
370
    -2
100
AcDbLine
 10
3375.592281432791
 20
2133.765831314708
 30
0.0
 11
3434.573061223851
 21
2133.765831314708
 31
0.0
  0
LINE
  5
1740
330
173B
100
AcDbEntity
  8
DIM
  6
Continuous
 62
     0
370
    -2
100
AcDbLine
 10
3434.573061223851
 20
1982.765831314708
 30
0.0
 11
3434.573061223851
 21
2124.765831314708
 31
0.0
  0
INSERT
  5
1741
330
173B
100
AcDbEntity
  8
DIM
 62
     0
370
    -2
100
AcDbBlockReference
  2
_DOT
 10
3434.573061223851
 20
1973.765831314708
 30
0.0
 41
9.0
 42
9.0
 43
9.0
 50
270.0
  0
INSERT
  5
1742
330
173B
100
AcDbEntity
  8
DIM
 62
     0
370
    -2
100
AcDbBlockReference
  2
_DOT
 10
3434.573061223851
 20
2133.765831314708
 30
0.0
 41
9.0
 42
9.0
 43
9.0
 50
90.0
  0
MTEXT
  5
1743
330
173B
100
AcDbEntity
  8
DIM
  6
Continuous
 62
     0
100
AcDbMText
 10
3402.573061223851
 20
2053.765831314708
 30
0.0
 40
24.0
 41
0.0
 46
0.0
 71
     5
 72
     1
  1
\A1;160
  7
ＭＳ ゴシック
 11
0.0
 21
1.0
 31
0.0
 73
     1
 44
1.0
  0
POINT
  5
1744
330
173B
100
AcDbEntity
  8
Defpoints
 62
     0
100
AcDbPoint
 10
3365.592281432791
 20
1973.765831314708
 30
0.0
  0
POINT
  5
1745
330
173B
100
AcDbEntity
  8
Defpoints
 62
     0
100
AcDbPoint
 10
3365.592281432791
 20
2133.765831314708
 30
0.0
  0
POINT
  5
1746
330
173B
100
AcDbEntity
  8
Defpoints
 62
     0
100
AcDbPoint
 10
3434.573061223851
 20
2133.765831314708
 30
0.0
  0
ENDBLK
  5
173D
330
173B
100
AcDbEntity
  8
0
100
AcDbBlockEnd
  0
BLOCK
  5
174B
330
174A
100
AcDbEntity
  8
0
100
AcDbBlockBegin
  2
*D21
 70
     1
 10
0.0
 20
0.0
 30
0.0
  3
*D21
  1
*D21
  0
LINE
  5
174D
330
174A
100
AcDbEntity
  8
DIM
  6
Continuous
 62
     0
370
    -2
100
AcDbLine
 10
3255.592281432791
 20
2023.765831314708
 30
0.0
 11
3087.611248279387
 21
2023.765831314708
 31
0.0
  0
LINE
  5
174E
330
174A
100
AcDbEntity
  8
DIM
  6
Continuous
 62
     0
370
    -2
100
AcDbLine
 10
3305.592281678209
 20
2233.765831314708
 30
0.0
 11
3087.611248279387
 21
2233.765831314708
 31
0.0
  0
LINE
  5
174F
330
174A
100
AcDbEntity
  8
DIM
  6
Continuous
 62
     0
370
    -2
100
AcDbLine
 10
3087.611248279387
 20
2032.765831314708
 30
0.0
 11
3087.611248279387
 21
2224.765831314708
 31
0.0
  0
INSERT
  5
1750
330
174A
100
AcDbEntity
  8
DIM
 62
     0
370
    -2
100
AcDbBlockReference
  2
_DOT
 10
3087.611248279387
 20
2023.765831314708
 30
0.0
 41
9.0
 42
9.0
 43
9.0
 50
270.0
  0
INSERT
  5
1751
330
174A
100
AcDbEntity
  8
DIM
 62
     0
370
    -2
100
AcDbBlockReference
  2
_DOT
 10
3087.611248279387
 20
2233.765831314708
 30
0.0
 41
9.0
 42
9.0
 43
9.0
 50
90.0
  0
MTEXT
  5
1752
330
174A
100
AcDbEntity
  8
DIM
  6
Continuous
 62
     0
100
AcDbMText
 10
3055.611248279387
 20
2128.765831314708
 30
0.0
 40
24.0
 41
0.0
 46
0.0
 71
     5
 72
     1
  1
\A1;210
  7
ＭＳ ゴシック
 11
0.0
 21
1.0
 31
0.0
 73
     1
 44
1.0
  0
POINT
  5
1753
330
174A
100
AcDbEntity
  8
Defpoints
 62
     0
100
AcDbPoint
 10
3265.592281432791
 20
2023.765831314708
 30
0.0
  0
POINT
  5
1754
330
174A
100
AcDbEntity
  8
Defpoints
 62
     0
100
AcDbPoint
 10
3315.592281678209
 20
2233.765831314708
 30
0.0
  0
POINT
  5
1755
330
174A
100
AcDbEntity
  8
Defpoints
 62
     0
100
AcDbPoint
 10
3087.611248279387
 20
2233.765831314708
 30
0.0
  0
ENDBLK
  5
174C
330
174A
100
AcDbEntity
  8
0
100
AcDbBlockEnd
  0
BLOCK
  5
1795
330
1794
100
AcDbEntity
  8
0
100
AcDbBlockBegin
  2
_None
 70
     0
 10
0.0
 20
0.0
 30
0.0
  3
_None
  1
_None
  0
ENDBLK
  5
1796
330
1794
100
AcDbEntity
  8
0
100
AcDbBlockEnd
  0
BLOCK
  5
18B0
330
18AF
100
AcDbEntity
  8
0
 48
0.5
100
AcDbBlockBegin
  2
*D24
 70
     1
 10
0.0
 20
0.0
 30
0.0
  3
*D24
  1
*D24
  0
LINE
  5
18B1
330
18AF
100
AcDbEntity
  8
Quote
 62
     0
370
    -2
100
AcDbLine
 10
83.50267635365162
 20
425.6345736058868
 30
0.0
 11
83.50267635365162
 21
401.1788099489968
 31
0.0
  0
LINE
  5
18B2
330
18AF
100
AcDbEntity
  8
Quote
 62
     0
370
    -2
100
AcDbLine
 10
783.5026763536516
 20
425.6345736058868
 30
0.0
 11
783.5026763536516
 21
401.1788099489968
 31
0.0
  0
LINE
  5
18B3
330
18AF
100
AcDbEntity
  8
Quote
 62
     0
370
    -2
100
AcDbLine
 10
83.68267635365163
 20
401.3588099489968
 30
0.0
 11
432.8726763536516
 21
401.3588099489968
 31
0.0
  0
LINE
  5
18B4
330
18AF
100
AcDbEntity
  8
Quote
 62
     0
370
    -2
100
AcDbLine
 10
783.3226763536517
 20
401.3588099489968
 30
0.0
 11
434.1326763536516
 21
401.3588099489968
 31
0.0
  0
SOLID
  5
18B5
330
18AF
100
AcDbEntity
  8
Quote
 62
     0
100
AcDbTrace
 10
83.68267635365163
 20
401.3888099489968
 30
0.0
 11
83.68267635365163
 21
401.3288099489969
 31
0.0
 12
83.50267635365162
 22
401.3588099489968
 32
0.0
 13
83.50267635365162
 23
401.3588099489968
 33
0.0
  0
SOLID
  5
18B6
330
18AF
100
AcDbEntity
  8
Quote
 62
     0
100
AcDbTrace
 10
783.3226763536517
 20
401.3288099489969
 30
0.0
 11
783.3226763536517
 21
401.3888099489968
 31
0.0
 12
783.5026763536516
 22
401.3588099489968
 32
0.0
 13
783.5026763536516
 23
401.3588099489968
 33
0.0
  0
MTEXT
  5
18B7
330
18AF
100
AcDbEntity
  8
Quote
  6
Continuous
 62
     0
100
AcDbMText
 10
433.5026763536516
 20
401.3588099489968
 30
0.0
 40
0.18
 41
0.0
 46
0.0
 71
     5
 72
     1
  1
\A1;700.0000
 73
     1
 44
1.0
  0
POINT
  5
1960
330
18AF
100
AcDbEntity
  8
Defpoints
 62
     0
100
AcDbPoint
 10
83.50267635365162
 20
425.6970736058868
 30
0.0
  0
POINT
  5
1961
330
18AF
100
AcDbEntity
  8
Defpoints
 62
     0
100
AcDbPoint
 10
783.5026763536516
 20
425.6970736058868
 30
0.0
  0
POINT
  5
1962
330
18AF
100
AcDbEntity
  8
Defpoints
 62
     0
100
AcDbPoint
 10
783.5026763536516
 20
401.3588099489968
 30
0.0
  0
ENDBLK
  5
18B8
330
18AF
100
AcDbEntity
  8
0
 48
0.5
100
AcDbBlockEnd
  0
BLOCK
  5
18BB
330
18BA
100
AcDbEntity
  8
0
 48
0.5
100
AcDbBlockBegin
  2
*D25
 70
     1
 10
0.0
 20
0.0
 30
0.0
  3
*D25
  1
*D25
  0
LINE
  5
18BC
330
18BA
100
AcDbEntity
  8
Quote
 62
     0
370
    -2
100
AcDbLine
 10
834.2951305909519
 20
853.6739244616726
 30
0.0
 11
857.9477807319414
 21
853.6739244616726
 31
0.0
  0
LINE
  5
18BD
330
18BA
100
AcDbEntity
  8
Quote
 62
     0
370
    -2
100
AcDbLine
 10
834.2951305909519
 20
433.6739244616726
 30
0.0
 11
857.9477807319414
 21
433.6739244616726
 31
0.0
  0
LINE
  5
18BE
330
18BA
100
AcDbEntity
  8
Quote
 62
     0
370
    -2
100
AcDbLine
 10
857.7677807319415
 20
853.4939244616727
 30
0.0
 11
857.7677807319415
 21
643.8539244616727
 31
0.0
  0
LINE
  5
18BF
330
18BA
100
AcDbEntity
  8
Quote
 62
     0
370
    -2
100
AcDbLine
 10
857.7677807319415
 20
433.8539244616726
 30
0.0
 11
857.7677807319415
 21
643.4939244616726
 31
0.0
  0
SOLID
  5
18C0
330
18BA
100
AcDbEntity
  8
Quote
 62
     0
100
AcDbTrace
 10
857.7977807319414
 20
853.4939244616727
 30
0.0
 11
857.7377807319415
 21
853.4939244616727
 31
0.0
 12
857.7677807319415
 22
853.6739244616726
 32
0.0
 13
857.7677807319415
 23
853.6739244616726
 33
0.0
  0
SOLID
  5
18C1
330
18BA
100
AcDbEntity
  8
Quote
 62
     0
100
AcDbTrace
 10
857.7377807319415
 20
433.8539244616726
 30
0.0
 11
857.7977807319414
 21
433.8539244616726
 31
0.0
 12
857.7677807319415
 22
433.6739244616726
 32
0.0
 13
857.7677807319415
 23
433.6739244616726
 33
0.0
  0
MTEXT
  5
18C2
330
18BA
100
AcDbEntity
  8
Quote
  6
Continuous
 62
     0
100
AcDbMText
 10
857.7677807319415
 20
643.6739244616726
 30
0.0
 40
0.18
 41
0.0
 46
0.0
 71
     5
 72
     1
  1
\A1;420.0000
 73
     1
 44
1.0
  0
POINT
  5
1963
330
18BA
100
AcDbEntity
  8
Defpoints
 62
     0
100
AcDbPoint
 10
834.2326305909519
 20
853.6739244616726
 30
0.0
  0
POINT
  5
1964
330
18BA
100
AcDbEntity
  8
Defpoints
 62
     0
100
AcDbPoint
 10
834.2326305909519
 20
433.6739244616726
 30
0.0
  0
POINT
  5
1965
330
18BA
100
AcDbEntity
  8
Defpoints
 62
     0
100
AcDbPoint
 10
857.7677807319415
 20
433.6739244616726
 30
0.0
  0
ENDBLK
  5
18C3
330
18BA
100
AcDbEntity
  8
0
 48
0.5
100
AcDbBlockEnd
  0
BLOCK
  5
18C6
330
18C5
100
AcDbEntity
  8
0
100
AcDbBlockBegin
  2
*D26
 70
     1
 10
0.0
 20
0.0
 30
0.0
  3
*D26
  1
*D26
  0
LINE
  5
18C7
330
18C5
100
AcDbEntity
  8
Quote
 62
     0
 48
0.2
370
    -2
100
AcDbLine
 10
1054.097321871319
 20
889.6583836206103
 30
0.0
 11
1054.097321871319
 21
909.3466219143851
 31
0.0
  0
LINE
  5
18C8
330
18C5
100
AcDbEntity
  8
Quote
 62
     0
 48
0.2
370
    -2
100
AcDbLine
 10
1229.926438774972
 20
889.6583836206103
 30
0.0
 11
1229.926438774972
 21
909.3466219143851
 31
0.0
  0
LINE
  5
18C9
330
18C5
100
AcDbEntity
  8
Quote
 62
     0
 48
0.2
370
    -2
100
AcDbLine
 10
1054.277321871319
 20
909.1666219143851
 30
0.0
 11
1141.711880323145
 21
909.1666219143851
 31
0.0
  0
LINE
  5
18CA
330
18C5
100
AcDbEntity
  8
Quote
 62
     0
 48
0.2
370
    -2
100
AcDbLine
 10
1229.746438774972
 20
909.1666219143851
 30
0.0
 11
1142.311880323145
 21
909.1666219143851
 31
0.0
  0
SOLID
  5
18CB
330
18C5
100
AcDbEntity
  8
Quote
 62
     0
100
AcDbTrace
 10
1054.277321871319
 20
909.1966219143851
 30
0.0
 11
1054.277321871319
 21
909.1366219143852
 31
0.0
 12
1054.097321871319
 22
909.1666219143851
 32
0.0
 13
1054.097321871319
 23
909.1666219143851
 33
0.0
  0
SOLID
  5
18CC
330
18C5
100
AcDbEntity
  8
Quote
 62
     0
100
AcDbTrace
 10
1229.746438774972
 20
909.1366219143852
 30
0.0
 11
1229.746438774972
 21
909.1966219143851
 31
0.0
 12
1229.926438774972
 22
909.1666219143851
 32
0.0
 13
1229.926438774972
 23
909.1666219143851
 33
0.0
  0
MTEXT
  5
18CD
330
18C5
100
AcDbEntity
  8
Quote
  6
Continuous
 62
     0
100
AcDbMText
 10
1142.011880323145
 20
909.1666219143851
 30
0.0
 40
0.18
 41
0.0
 46
0.0
 71
     5
 72
     1
  1
\A1;175
 73
     1
 44
1.0
  0
POINT
  5
1966
330
18C5
100
AcDbEntity
  8
Defpoints
 62
     0
100
AcDbPoint
 10
1054.097321871319
 20
889.5958836206103
 30
0.0
  0
POINT
  5
1967
330
18C5
100
AcDbEntity
  8
Defpoints
 62
     0
100
AcDbPoint
 10
1229.926438774972
 20
889.5958836206103
 30
0.0
  0
POINT
  5
1968
330
18C5
100
AcDbEntity
  8
Defpoints
 62
     0
100
AcDbPoint
 10
1229.926438774972
 20
909.1666219143851
 30
0.0
  0
ENDBLK
  5
18CE
330
18C5
100
AcDbEntity
  8
0
100
AcDbBlockEnd
  0
BLOCK
  5
18D1
330
18D0
100
AcDbEntity
  8
0
100
AcDbBlockBegin
  2
*D27
 70
     1
 10
0.0
 20
0.0
 30
0.0
  3
*D27
  1
*D27
  0
LINE
  5
18D2
330
18D0
100
AcDbEntity
  8
Quote
 62
     0
370
    -2
100
AcDbLine
 10
1273.906855112189
 20
791.2742987166813
 30
0.0
 11
1284.969119730216
 21
791.2742987166813
 31
0.0
  0
LINE
  5
18D3
330
18D0
100
AcDbEntity
  8
Quote
 62
     0
370
    -2
100
AcDbLine
 10
1271.244658399373
 20
495.8935522757968
 30
0.0
 11
1284.969119730216
 21
495.8935522757968
 31
0.0
  0
LINE
  5
18D4
330
18D0
100
AcDbEntity
  8
Quote
 62
     0
370
    -2
100
AcDbLine
 10
1284.789119730216
 20
791.0942987166814
 30
0.0
 11
1284.789119730216
 21
643.7639254962392
 31
0.0
  0
LINE
  5
18D5
330
18D0
100
AcDbEntity
  8
Quote
 62
     0
370
    -2
100
AcDbLine
 10
1284.789119730216
 20
496.0735522757968
 30
0.0
 11
1284.789119730216
 21
643.403925496239
 31
0.0
  0
SOLID
  5
18D6
330
18D0
100
AcDbEntity
  8
Quote
 62
     0
100
AcDbTrace
 10
1284.819119730216
 20
791.0942987166814
 30
0.0
 11
1284.759119730216
 21
791.0942987166814
 31
0.0
 12
1284.789119730216
 22
791.2742987166813
 32
0.0
 13
1284.789119730216
 23
791.2742987166813
 33
0.0
  0
SOLID
  5
18D7
330
18D0
100
AcDbEntity
  8
Quote
 62
     0
100
AcDbTrace
 10
1284.759119730216
 20
496.0735522757968
 30
0.0
 11
1284.819119730216
 21
496.0735522757968
 31
0.0
 12
1284.789119730216
 22
495.8935522757968
 32
0.0
 13
1284.789119730216
 23
495.8935522757968
 33
0.0
  0
MTEXT
  5
18D8
330
18D0
100
AcDbEntity
  8
Quote
  6
Continuous
 62
     0
100
AcDbMText
 10
1284.789119730216
 20
643.5839254962391
 30
0.0
 40
0.18
 41
0.0
 46
0.0
 71
     5
 72
     1
  1
\A1;300
 73
     1
 44
1.0
  0
POINT
  5
1969
330
18D0
100
AcDbEntity
  8
Defpoints
 62
     0
100
AcDbPoint
 10
1273.844355112189
 20
791.2742987166813
 30
0.0
  0
POINT
  5
196A
330
18D0
100
AcDbEntity
  8
Defpoints
 62
     0
100
AcDbPoint
 10
1271.182158399373
 20
495.8935522757968
 30
0.0
  0
POINT
  5
196B
330
18D0
100
AcDbEntity
  8
Defpoints
 62
     0
100
AcDbPoint
 10
1284.789119730216
 20
495.8935522757968
 30
0.0
  0
ENDBLK
  5
18D9
330
18D0
100
AcDbEntity
  8
0
100
AcDbBlockEnd
  0
BLOCK
  5
18DC
330
18DB
100
AcDbEntity
  8
0
100
AcDbBlockBegin
  2
*D28
 70
     1
 10
0.0
 20
0.0
 30
0.0
  3
*D28
  1
*D28
  0
LINE
  5
18DD
330
18DB
100
AcDbEntity
  8
Quote
 62
     0
370
    -2
100
AcDbLine
 10
1204.097313343016
 20
415.9267556033622
 30
0.0
 11
1204.097313343016
 21
404.0275855423757
 31
0.0
  0
LINE
  5
18DE
330
18DB
100
AcDbEntity
  8
Quote
 62
     0
370
    -2
100
AcDbLine
 10
1054.097321871319
 20
415.9267632528761
 30
0.0
 11
1054.097321871319
 21
404.0275855423757
 31
0.0
  0
LINE
  5
18DF
330
18DB
100
AcDbEntity
  8
Quote
 62
     0
370
    -2
100
AcDbLine
 10
1203.917313343016
 20
404.2075855423757
 30
0.0
 11
1129.712317607168
 21
404.2075855423757
 31
0.0
  0
LINE
  5
18E0
330
18DB
100
AcDbEntity
  8
Quote
 62
     0
370
    -2
100
AcDbLine
 10
1054.277321871319
 20
404.2075855423757
 30
0.0
 11
1128.482317607167
 21
404.2075855423757
 31
0.0
  0
SOLID
  5
18E1
330
18DB
100
AcDbEntity
  8
Quote
 62
     0
100
AcDbTrace
 10
1203.917313343016
 20
404.1775855423757
 30
0.0
 11
1203.917313343016
 21
404.2375855423757
 31
0.0
 12
1204.097313343016
 22
404.2075855423757
 32
0.0
 13
1204.097313343016
 23
404.2075855423757
 33
0.0
  0
SOLID
  5
18E2
330
18DB
100
AcDbEntity
  8
Quote
 62
     0
100
AcDbTrace
 10
1054.277321871319
 20
404.2375855423757
 30
0.0
 11
1054.277321871319
 21
404.1775855423757
 31
0.0
 12
1054.097321871319
 22
404.2075855423757
 32
0.0
 13
1054.097321871319
 23
404.2075855423757
 33
0.0
  0
MTEXT
  5
18E3
330
18DB
100
AcDbEntity
  8
Quote
  6
Continuous
 62
     0
100
AcDbMText
 10
1129.097317607167
 20
404.2075855423757
 30
0.0
 40
0.18
 41
0.0
 46
0.0
 71
     5
 72
     1
  1
\A1;150.0000
 73
     1
 44
1.0
  0
POINT
  5
196C
330
18DB
100
AcDbEntity
  8
Defpoints
 62
     0
100
AcDbPoint
 10
1204.097313343016
 20
415.9892556033622
 30
0.0
  0
POINT
  5
196D
330
18DB
100
AcDbEntity
  8
Defpoints
 62
     0
100
AcDbPoint
 10
1054.097321871319
 20
415.9892632528761
 30
0.0
  0
POINT
  5
196E
330
18DB
100
AcDbEntity
  8
Defpoints
 62
     0
100
AcDbPoint
 10
1054.097321871319
 20
404.2075855423757
 30
0.0
  0
ENDBLK
  5
18E4
330
18DB
100
AcDbEntity
  8
0
100
AcDbBlockEnd
  0
BLOCK
  5
18E7
330
18E6
100
AcDbEntity
  8
0
100
AcDbBlockBegin
  2
*D29
 70
     1
 10
0.0
 20
0.0
 30
0.0
  3
*D29
  1
*D29
  0
LINE
  5
18E8
330
18E6
100
AcDbEntity
  8
Quote
 62
     0
370
    -2
100
AcDbLine
 10
155.6355918532499
 20
35.57108694327258
 30
0.0
 11
155.6355918532499
 21
15.75000000000006
 31
0.0
  0
LINE
  5
18E9
330
18E6
100
AcDbEntity
  8
Quote
 62
     0
370
    -2
100
AcDbLine
 10
711.1739989711787
 20
35.57113550998872
 30
0.0
 11
711.1739989711787
 21
15.75000000000006
 31
0.0
  0
LINE
  5
18EA
330
18E6
100
AcDbEntity
  8
Quote
 62
     0
370
    -2
100
AcDbLine
 10
155.8155918532499
 20
15.93000000000006
 30
0.0
 11
433.0897954122142
 21
15.93000000000006
 31
0.0
  0
LINE
  5
18EB
330
18E6
100
AcDbEntity
  8
Quote
 62
     0
370
    -2
100
AcDbLine
 10
710.9939989711787
 20
15.93000000000006
 30
0.0
 11
433.7197954122143
 21
15.93000000000006
 31
0.0
  0
SOLID
  5
18EC
330
18E6
100
AcDbEntity
  8
Quote
 62
     0
100
AcDbTrace
 10
155.8155918532499
 20
15.96000000000006
 30
0.0
 11
155.8155918532499
 21
15.90000000000006
 31
0.0
 12
155.6355918532499
 22
15.93000000000006
 32
0.0
 13
155.6355918532499
 23
15.93000000000006
 33
0.0
  0
SOLID
  5
18ED
330
18E6
100
AcDbEntity
  8
Quote
 62
     0
100
AcDbTrace
 10
710.9939989711787
 20
15.90000000000006
 30
0.0
 11
710.9939989711787
 21
15.96000000000006
 31
0.0
 12
711.1739989711787
 22
15.93000000000006
 32
0.0
 13
711.1739989711787
 23
15.93000000000006
 33
0.0
  0
MTEXT
  5
18EE
330
18E6
100
AcDbEntity
  8
Quote
  6
Continuous
 62
     0
100
AcDbMText
 10
433.4047954122143
 20
15.93000000000006
 30
0.0
 40
0.18
 41
0.0
 46
0.0
 71
     5
 72
     1
  1
\A1;560
 73
     1
 44
1.0
  0
POINT
  5
196F
330
18E6
100
AcDbEntity
  8
Defpoints
 62
     0
100
AcDbPoint
 10
155.6355918532499
 20
35.63358694327258
 30
0.0
  0
POINT
  5
1970
330
18E6
100
AcDbEntity
  8
Defpoints
 62
     0
100
AcDbPoint
 10
711.1739989711787
 20
35.63363550998872
 30
0.0
  0
POINT
  5
1971
330
18E6
100
AcDbEntity
  8
Defpoints
 62
     0
100
AcDbPoint
 10
711.1739989711787
 20
15.93000000000006
 30
0.0
  0
ENDBLK
  5
18EF
330
18E6
100
AcDbEntity
  8
0
100
AcDbBlockEnd
  0
BLOCK
  5
18F2
330
18F1
100
AcDbEntity
  8
0
100
AcDbBlockBegin
  2
*D30
 70
     1
 10
0.0
 20
0.0
 30
0.0
  3
*D30
  1
*D30
  0
LINE
  5
18F3
330
18F1
100
AcDbEntity
  8
Quote
 62
     0
370
    -2
100
AcDbLine
 10
754.7403569202797
 20
257.7182325713204
 30
0.0
 11
754.7403569202797
 21
272.0171046056366
 31
0.0
  0
LINE
  5
18F4
330
18F1
100
AcDbEntity
  8
Quote
 62
     0
370
    -2
100
AcDbLine
 10
784.6911260272464
 20
258.4254624844223
 30
0.0
 11
784.6911260272464
 21
272.0171046056366
 31
0.0
  0
LINE
  5
18F5
330
18F1
100
AcDbEntity
  8
Quote
 62
     0
370
    -2
100
AcDbLine
 10
754.9203569202797
 20
271.8371046056366
 30
0.0
 11
769.100741473763
 21
271.8371046056366
 31
0.0
  0
LINE
  5
18F6
330
18F1
100
AcDbEntity
  8
Quote
 62
     0
370
    -2
100
AcDbLine
 10
784.5111260272464
 20
271.8371046056366
 30
0.0
 11
770.330741473763
 21
271.8371046056366
 31
0.0
  0
SOLID
  5
18F7
330
18F1
100
AcDbEntity
  8
Quote
 62
     0
100
AcDbTrace
 10
754.9203569202797
 20
271.8671046056365
 30
0.0
 11
754.9203569202797
 21
271.8071046056366
 31
0.0
 12
754.7403569202797
 22
271.8371046056366
 32
0.0
 13
754.7403569202797
 23
271.8371046056366
 33
0.0
  0
SOLID
  5
18F8
330
18F1
100
AcDbEntity
  8
Quote
 62
     0
100
AcDbTrace
 10
784.5111260272464
 20
271.8071046056366
 30
0.0
 11
784.5111260272464
 21
271.8671046056365
 31
0.0
 12
784.6911260272464
 22
271.8371046056366
 32
0.0
 13
784.6911260272464
 23
271.8371046056366
 33
0.0
  0
MTEXT
  5
18F9
330
18F1
100
AcDbEntity
  8
Quote
  6
Continuous
 62
     0
100
AcDbMText
 10
769.715741473763
 20
271.8371046056366
 30
0.0
 40
0.18
 41
0.0
 46
0.0
 71
     5
 72
     1
  1
\A1;29.9508
 73
     1
 44
1.0
  0
POINT
  5
1972
330
18F1
100
AcDbEntity
  8
Defpoints
 62
     0
100
AcDbPoint
 10
754.7403569202797
 20
257.6557325713204
 30
0.0
  0
POINT
  5
1973
330
18F1
100
AcDbEntity
  8
Defpoints
 62
     0
100
AcDbPoint
 10
784.6911260272464
 20
258.3629624844223
 30
0.0
  0
POINT
  5
1974
330
18F1
100
AcDbEntity
  8
Defpoints
 62
     0
100
AcDbPoint
 10
784.6911260272464
 20
271.8371046056366
 30
0.0
  0
ENDBLK
  5
18FA
330
18F1
100
AcDbEntity
  8
0
100
AcDbBlockEnd
  0
BLOCK
  5
18FD
330
18FC
100
AcDbEntity
  8
0
100
AcDbBlockBegin
  2
*D31
 70
     1
 10
0.0
 20
0.0
 30
0.0
  3
*D31
  1
*D31
  0
LINE
  5
18FE
330
18FC
100
AcDbEntity
  8
Quote
 62
     0
370
    -2
100
AcDbLine
 10
754.7403569202797
 20
264.4123402488674
 30
0.0
 11
754.7403569202797
 21
272.0171046056366
 31
0.0
  0
LINE
  5
18FF
330
18FC
100
AcDbEntity
  8
Quote
 62
     0
370
    -2
100
AcDbLine
 10
111.2010014519838
 20
260.2535532212035
 30
0.0
 11
111.2010014519838
 21
272.0171046056366
 31
0.0
  0
LINE
  5
1900
330
18FC
100
AcDbEntity
  8
Quote
 62
     0
370
    -2
100
AcDbLine
 10
754.5603569202798
 20
271.8371046056366
 30
0.0
 11
433.2856791861317
 21
271.8371046056366
 31
0.0
  0
LINE
  5
1901
330
18FC
100
AcDbEntity
  8
Quote
 62
     0
370
    -2
100
AcDbLine
 10
111.3810014519838
 20
271.8371046056366
 30
0.0
 11
432.6556791861317
 21
271.8371046056366
 31
0.0
  0
SOLID
  5
1902
330
18FC
100
AcDbEntity
  8
Quote
 62
     0
100
AcDbTrace
 10
754.5603569202798
 20
271.8071046056366
 30
0.0
 11
754.5603569202798
 21
271.8671046056365
 31
0.0
 12
754.7403569202797
 22
271.8371046056366
 32
0.0
 13
754.7403569202797
 23
271.8371046056366
 33
0.0
  0
SOLID
  5
1903
330
18FC
100
AcDbEntity
  8
Quote
 62
     0
100
AcDbTrace
 10
111.3810014519838
 20
271.8671046056365
 30
0.0
 11
111.3810014519838
 21
271.8071046056366
 31
0.0
 12
111.2010014519838
 22
271.8371046056366
 32
0.0
 13
111.2010014519838
 23
271.8371046056366
 33
0.0
  0
MTEXT
  5
1904
330
18FC
100
AcDbEntity
  8
Quote
  6
Continuous
 62
     0
100
AcDbMText
 10
432.9706791861317
 20
271.8371046056366
 30
0.0
 40
0.18
 41
0.0
 46
0.0
 71
     5
 72
     1
  1
\A1;640
 73
     1
 44
1.0
  0
POINT
  5
1975
330
18FC
100
AcDbEntity
  8
Defpoints
 62
     0
100
AcDbPoint
 10
754.7403569202797
 20
264.3498402488674
 30
0.0
  0
POINT
  5
1976
330
18FC
100
AcDbEntity
  8
Defpoints
 62
     0
100
AcDbPoint
 10
111.2010014519838
 20
260.1910532212035
 30
0.0
  0
POINT
  5
1977
330
18FC
100
AcDbEntity
  8
Defpoints
 62
     0
100
AcDbPoint
 10
111.2010014519838
 20
271.8371046056366
 30
0.0
  0
ENDBLK
  5
1905
330
18FC
100
AcDbEntity
  8
0
100
AcDbBlockEnd
  0
BLOCK
  5
1908
330
1907
100
AcDbEntity
  8
0
100
AcDbBlockBegin
  2
*D32
 70
     1
 10
0.0
 20
0.0
 30
0.0
  3
*D32
  1
*D32
  0
LINE
  5
1909
330
1907
100
AcDbEntity
  8
Quote
 62
     0
370
    -2
100
AcDbLine
 10
81.25023234501714
 20
257.7182325713205
 30
0.0
 11
81.25023234501714
 21
272.0171046056366
 31
0.0
  0
LINE
  5
190A
330
1907
100
AcDbEntity
  8
Quote
 62
     0
370
    -2
100
AcDbLine
 10
111.2010014519838
 20
258.4254624844223
 30
0.0
 11
111.2010014519838
 21
272.0171046056366
 31
0.0
  0
LINE
  5
190B
330
1907
100
AcDbEntity
  8
Quote
 62
     0
370
    -2
100
AcDbLine
 10
81.43023234501715
 20
271.8371046056366
 30
0.0
 11
95.61061689850044
 21
271.8371046056366
 31
0.0
  0
LINE
  5
190C
330
1907
100
AcDbEntity
  8
Quote
 62
     0
370
    -2
100
AcDbLine
 10
111.0210014519838
 20
271.8371046056366
 30
0.0
 11
96.84061689850046
 21
271.8371046056366
 31
0.0
  0
SOLID
  5
190D
330
1907
100
AcDbEntity
  8
Quote
 62
     0
100
AcDbTrace
 10
81.43023234501715
 20
271.8671046056366
 30
0.0
 11
81.43023234501715
 21
271.8071046056367
 31
0.0
 12
81.25023234501714
 22
271.8371046056366
 32
0.0
 13
81.25023234501714
 23
271.8371046056366
 33
0.0
  0
SOLID
  5
190E
330
1907
100
AcDbEntity
  8
Quote
 62
     0
100
AcDbTrace
 10
111.0210014519838
 20
271.8071046056367
 30
0.0
 11
111.0210014519838
 21
271.8671046056366
 31
0.0
 12
111.2010014519838
 22
271.8371046056366
 32
0.0
 13
111.2010014519838
 23
271.8371046056366
 33
0.0
  0
MTEXT
  5
190F
330
1907
100
AcDbEntity
  8
Quote
  6
Continuous
 62
     0
100
AcDbMText
 10
96.22561689850045
 20
271.8371046056366
 30
0.0
 40
0.18
 41
0.0
 46
0.0
 71
     5
 72
     1
  1
\A1;29.9508
 73
     1
 44
1.0
  0
POINT
  5
1978
330
1907
100
AcDbEntity
  8
Defpoints
 62
     0
100
AcDbPoint
 10
81.25023234501714
 20
257.6557325713205
 30
0.0
  0
POINT
  5
1979
330
1907
100
AcDbEntity
  8
Defpoints
 62
     0
100
AcDbPoint
 10
111.2010014519838
 20
258.3629624844223
 30
0.0
  0
POINT
  5
197A
330
1907
100
AcDbEntity
  8
Defpoints
 62
     0
100
AcDbPoint
 10
111.2010014519838
 20
271.8371046056366
 30
0.0
  0
ENDBLK
  5
1910
330
1907
100
AcDbEntity
  8
0
100
AcDbBlockEnd
  0
BLOCK
  5
1913
330
1912
100
AcDbEntity
  8
0
100
AcDbBlockBegin
  2
*D33
 70
     1
 10
0.0
 20
0.0
 30
0.0
  3
*D33
  1
*D33
  0
LINE
  5
1914
330
1912
100
AcDbEntity
  8
Quote
 62
     0
370
    -2
100
AcDbLine
 10
805.1091677658769
 20
87.39697835732466
 30
0.0
 11
824.3758117256435
 21
87.39697835732466
 31
0.0
  0
LINE
  5
1915
330
1912
100
AcDbEntity
  8
Quote
 62
     0
370
    -2
100
AcDbLine
 10
805.1091677658769
 20
237.3969717489874
 30
0.0
 11
824.3758117256435
 21
237.3969717489874
 31
0.0
  0
LINE
  5
1916
330
1912
100
AcDbEntity
  8
Quote
 62
     0
370
    -2
100
AcDbLine
 10
824.1958117256436
 20
87.57697835732466
 30
0.0
 11
824.1958117256436
 21
162.216975053156
 31
0.0
  0
LINE
  5
1917
330
1912
100
AcDbEntity
  8
Quote
 62
     0
370
    -2
100
AcDbLine
 10
824.1958117256436
 20
237.2169717489874
 30
0.0
 11
824.1958117256436
 21
162.576975053156
 31
0.0
  0
SOLID
  5
1918
330
1912
100
AcDbEntity
  8
Quote
 62
     0
100
AcDbTrace
 10
824.1658117256436
 20
87.57697835732466
 30
0.0
 11
824.2258117256436
 21
87.57697835732466
 31
0.0
 12
824.1958117256436
 22
87.39697835732466
 32
0.0
 13
824.1958117256436
 23
87.39697835732466
 33
0.0
  0
SOLID
  5
1919
330
1912
100
AcDbEntity
  8
Quote
 62
     0
100
AcDbTrace
 10
824.2258117256436
 20
237.2169717489874
 30
0.0
 11
824.1658117256436
 21
237.2169717489874
 31
0.0
 12
824.1958117256436
 22
237.3969717489874
 32
0.0
 13
824.1958117256436
 23
237.3969717489874
 33
0.0
  0
MTEXT
  5
191A
330
1912
100
AcDbEntity
  8
Quote
  6
Continuous
 62
     0
100
AcDbMText
 10
824.1958117256436
 20
162.396975053156
 30
0.0
 40
0.18
 41
0.0
 46
0.0
 71
     5
 72
     1
  1
\A1;150.0000
 73
     1
 44
1.0
  0
POINT
  5
197B
330
1912
100
AcDbEntity
  8
Defpoints
 62
     0
100
AcDbPoint
 10
805.0466677658769
 20
87.39697835732466
 30
0.0
  0
POINT
  5
197C
330
1912
100
AcDbEntity
  8
Defpoints
 62
     0
100
AcDbPoint
 10
805.0466677658769
 20
237.3969717489874
 30
0.0
  0
POINT
  5
197D
330
1912
100
AcDbEntity
  8
Defpoints
 62
     0
100
AcDbPoint
 10
824.1958117256436
 20
237.3969717489874
 30
0.0
  0
ENDBLK
  5
191B
330
1912
100
AcDbEntity
  8
0
100
AcDbBlockEnd
  0
BLOCK
  5
191E
330
191D
100
AcDbEntity
  8
0
100
AcDbBlockBegin
  2
*D34
 70
     1
 10
0.0
 20
0.0
 30
0.0
  3
*D34
  1
*D34
  0
LINE
  5
191F
330
191D
100
AcDbEntity
  8
Quote
 62
     0
370
    -2
100
AcDbLine
 10
1047.102286319445
 20
823.6046651828185
 30
0.0
 11
1032.803414285125
 21
823.6046651828185
 31
0.0
  0
LINE
  5
1920
330
191D
100
AcDbEntity
  8
Quote
 62
     0
370
    -2
100
AcDbLine
 10
1046.395056406342
 20
853.5554342897851
 30
0.0
 11
1032.803414285125
 21
853.5554342897851
 31
0.0
  0
LINE
  5
1921
330
191D
100
AcDbEntity
  8
Quote
 62
     0
370
    -2
100
AcDbLine
 10
1032.983414285125
 20
823.7846651828185
 30
0.0
 11
1032.983414285125
 21
838.4000497363018
 31
0.0
  0
LINE
  5
1922
330
191D
100
AcDbEntity
  8
Quote
 62
     0
370
    -2
100
AcDbLine
 10
1032.983414285125
 20
853.3754342897852
 30
0.0
 11
1032.983414285125
 21
838.7600497363019
 31
0.0
  0
SOLID
  5
1923
330
191D
100
AcDbEntity
  8
Quote
 62
     0
100
AcDbTrace
 10
1032.953414285125
 20
823.7846651828185
 30
0.0
 11
1033.013414285125
 21
823.7846651828185
 31
0.0
 12
1032.983414285125
 22
823.6046651828185
 32
0.0
 13
1032.983414285125
 23
823.6046651828185
 33
0.0
  0
SOLID
  5
1924
330
191D
100
AcDbEntity
  8
Quote
 62
     0
100
AcDbTrace
 10
1033.013414285125
 20
853.3754342897852
 30
0.0
 11
1032.953414285125
 21
853.3754342897852
 31
0.0
 12
1032.983414285125
 22
853.5554342897851
 32
0.0
 13
1032.983414285125
 23
853.5554342897851
 33
0.0
  0
MTEXT
  5
1925
330
191D
100
AcDbEntity
  8
Quote
  6
Continuous
 62
     0
100
AcDbMText
 10
1032.983414285125
 20
838.5800497363018
 30
0.0
 40
0.18
 41
0.0
 46
0.0
 71
     5
 72
     1
  1
\A1;29.9508
 73
     1
 44
1.0
  0
POINT
  5
197E
330
191D
100
AcDbEntity
  8
Defpoints
 62
     0
100
AcDbPoint
 10
1047.164786319445
 20
823.6046651828185
 30
0.0
  0
POINT
  5
197F
330
191D
100
AcDbEntity
  8
Defpoints
 62
     0
100
AcDbPoint
 10
1046.457556406342
 20
853.5554342897851
 30
0.0
  0
POINT
  5
1980
330
191D
100
AcDbEntity
  8
Defpoints
 62
     0
100
AcDbPoint
 10
1032.983414285125
 20
853.5554342897851
 30
0.0
  0
ENDBLK
  5
1926
330
191D
100
AcDbEntity
  8
0
100
AcDbBlockEnd
  0
BLOCK
  5
1929
330
1928
100
AcDbEntity
  8
0
100
AcDbBlockBegin
  2
*D35
 70
     1
 10
0.0
 20
0.0
 30
0.0
  3
*D35
  1
*D35
  0
LINE
  5
192A
330
1928
100
AcDbEntity
  8
Quote
 62
     0
370
    -2
100
AcDbLine
 10
1040.408178641897
 20
823.6046651828185
 30
0.0
 11
1032.803414285125
 21
823.6046651828185
 31
0.0
  0
LINE
  5
192B
330
1928
100
AcDbEntity
  8
Quote
 62
     0
370
    -2
100
AcDbLine
 10
1046.395056406342
 20
463.5631983277673
 30
0.0
 11
1032.803414285125
 21
463.5631983277673
 31
0.0
  0
LINE
  5
192C
330
1928
100
AcDbEntity
  8
Quote
 62
     0
370
    -2
100
AcDbLine
 10
1032.983414285125
 20
823.4246651828186
 30
0.0
 11
1032.983414285125
 21
643.763931755293
 31
0.0
  0
LINE
  5
192D
330
1928
100
AcDbEntity
  8
Quote
 62
     0
370
    -2
100
AcDbLine
 10
1032.983414285125
 20
463.7431983277673
 30
0.0
 11
1032.983414285125
 21
643.4039317552929
 31
0.0
  0
SOLID
  5
192E
330
1928
100
AcDbEntity
  8
Quote
 62
     0
100
AcDbTrace
 10
1033.013414285125
 20
823.4246651828186
 30
0.0
 11
1032.953414285125
 21
823.4246651828186
 31
0.0
 12
1032.983414285125
 22
823.6046651828185
 32
0.0
 13
1032.983414285125
 23
823.6046651828185
 33
0.0
  0
SOLID
  5
192F
330
1928
100
AcDbEntity
  8
Quote
 62
     0
100
AcDbTrace
 10
1032.953414285125
 20
463.7431983277673
 30
0.0
 11
1033.013414285125
 21
463.7431983277673
 31
0.0
 12
1032.983414285125
 22
463.5631983277673
 32
0.0
 13
1032.983414285125
 23
463.5631983277673
 33
0.0
  0
MTEXT
  5
1930
330
1928
100
AcDbEntity
  8
Quote
  6
Continuous
 62
     0
100
AcDbMText
 10
1032.983414285125
 20
643.583931755293
 30
0.0
 40
0.18
 41
0.0
 46
0.0
 71
     5
 72
     1
  1
\A1;360.0415
 73
     1
 44
1.0
  0
POINT
  5
1981
330
1928
100
AcDbEntity
  8
Defpoints
 62
     0
100
AcDbPoint
 10
1040.470678641897
 20
823.6046651828185
 30
0.0
  0
POINT
  5
1982
330
1928
100
AcDbEntity
  8
Defpoints
 62
     0
100
AcDbPoint
 10
1046.457556406342
 20
463.5631983277673
 30
0.0
  0
POINT
  5
1983
330
1928
100
AcDbEntity
  8
Defpoints
 62
     0
100
AcDbPoint
 10
1032.983414285125
 20
463.5631983277673
 30
0.0
  0
ENDBLK
  5
1931
330
1928
100
AcDbEntity
  8
0
100
AcDbBlockEnd
  0
BLOCK
  5
1934
330
1933
100
AcDbEntity
  8
0
100
AcDbBlockBegin
  2
*D36
 70
     1
 10
0.0
 20
0.0
 30
0.0
  3
*D36
  1
*D36
  0
LINE
  5
1935
330
1933
100
AcDbEntity
  8
Quote
 62
     0
370
    -2
100
AcDbLine
 10
1047.102286319445
 20
433.6124292208007
 30
0.0
 11
1032.803414285125
 21
433.6124292208007
 31
0.0
  0
LINE
  5
1936
330
1933
100
AcDbEntity
  8
Quote
 62
     0
370
    -2
100
AcDbLine
 10
1046.395056406342
 20
463.5631983277673
 30
0.0
 11
1032.803414285125
 21
463.5631983277673
 31
0.0
  0
LINE
  5
1937
330
1933
100
AcDbEntity
  8
Quote
 62
     0
370
    -2
100
AcDbLine
 10
1032.983414285125
 20
433.7924292208007
 30
0.0
 11
1032.983414285125
 21
448.407813774284
 31
0.0
  0
LINE
  5
1938
330
1933
100
AcDbEntity
  8
Quote
 62
     0
370
    -2
100
AcDbLine
 10
1032.983414285125
 20
463.3831983277673
 30
0.0
 11
1032.983414285125
 21
448.7678137742839
 31
0.0
  0
SOLID
  5
1939
330
1933
100
AcDbEntity
  8
Quote
 62
     0
100
AcDbTrace
 10
1032.953414285125
 20
433.7924292208007
 30
0.0
 11
1033.013414285125
 21
433.7924292208007
 31
0.0
 12
1032.983414285125
 22
433.6124292208007
 32
0.0
 13
1032.983414285125
 23
433.6124292208007
 33
0.0
  0
SOLID
  5
193A
330
1933
100
AcDbEntity
  8
Quote
 62
     0
100
AcDbTrace
 10
1033.013414285125
 20
463.3831983277673
 30
0.0
 11
1032.953414285125
 21
463.3831983277673
 31
0.0
 12
1032.983414285125
 22
463.5631983277673
 32
0.0
 13
1032.983414285125
 23
463.5631983277673
 33
0.0
  0
MTEXT
  5
193B
330
1933
100
AcDbEntity
  8
Quote
  6
Continuous
 62
     0
100
AcDbMText
 10
1032.983414285125
 20
448.587813774284
 30
0.0
 40
0.18
 41
0.0
 46
0.0
 71
     5
 72
     1
  1
\A1;29.9508
 73
     1
 44
1.0
  0
POINT
  5
1984
330
1933
100
AcDbEntity
  8
Defpoints
 62
     0
100
AcDbPoint
 10
1047.164786319445
 20
433.6124292208007
 30
0.0
  0
POINT
  5
1985
330
1933
100
AcDbEntity
  8
Defpoints
 62
     0
100
AcDbPoint
 10
1046.457556406342
 20
463.5631983277673
 30
0.0
  0
POINT
  5
1986
330
1933
100
AcDbEntity
  8
Defpoints
 62
     0
100
AcDbPoint
 10
1032.983414285125
 20
463.5631983277673
 30
0.0
  0
ENDBLK
  5
193C
330
1933
100
AcDbEntity
  8
0
100
AcDbBlockEnd
  0
BLOCK
  5
1940
330
193F
100
AcDbEntity
  8
0
100
AcDbBlockBegin
  2
*D37
 70
     1
 10
0.0
 20
0.0
 30
0.0
  3
*D37
  1
*D37
  0
LINE
  5
1941
330
193F
100
AcDbEntity
  8
Quote
 62
     0
370
    -2
100
AcDbLine
 10
574.6124647983426
 20
751.9706601483806
 30
0.0
 11
574.4324647983426
 21
751.9706601483806
 31
0.0
  0
LINE
  5
1942
330
193F
100
AcDbEntity
  8
Quote
 62
     0
370
    -2
100
AcDbLine
 10
574.4324647983426
 20
751.9706601483806
 30
0.0
 11
499.1164173324663
 21
710.1081005604389
 31
0.0
  0
MTEXT
  5
1943
330
193F
100
AcDbEntity
  8
Quote
  6
Continuous
 62
     0
100
AcDbMText
 10
575.3174647983426
 20
751.9706601483806
 30
0.0
 40
0.18
 41
0.0
 46
0.0
 71
     5
 72
     1
  1
\A1;%%c150.0000
 73
     1
 44
1.0
  0
SOLID
  5
1944
330
193F
100
AcDbEntity
  8
Quote
 62
     0
100
AcDbTrace
 10
499.1018426412307
 20
710.1343222761606
 30
0.0
 11
499.1309920237018
 21
710.0818788447172
 31
0.0
 12
498.9590870381362
 22
710.0206524130256
 32
0.0
 13
498.9590870381362
 23
710.0206524130256
 33
0.0
  0
LINE
  5
1945
330
193F
100
AcDbEntity
  8
Quote
 62
     0
100
AcDbLine
 10
433.3147977339433
 20
673.5839243241637
 30
0.0
 11
433.4947977339432
 21
673.5839243241637
 31
0.0
  0
LINE
  5
1987
330
193F
100
AcDbEntity
  8
Quote
 62
     0
100
AcDbLine
 10
433.4047977339433
 20
673.4939243241637
 30
0.0
 11
433.4047977339433
 21
673.6739243241637
 31
0.0
  0
POINT
  5
1988
330
193F
100
AcDbEntity
  8
Defpoints
 62
     0
100
AcDbPoint
 10
498.9590870381362
 20
710.0206524130256
 30
0.0
  0
POINT
  5
1989
330
193F
100
AcDbEntity
  8
Defpoints
 62
     0
100
AcDbPoint
 10
367.8505084297503
 20
637.1471962353019
 30
0.0
  0
ENDBLK
  5
1946
330
193F
100
AcDbEntity
  8
0
100
AcDbBlockEnd
  0
BLOCK
  5
194A
330
1949
100
AcDbEntity
  8
0
100
AcDbBlockBegin
  2
*D38
 70
     1
 10
0.0
 20
0.0
 30
0.0
  3
*D38
  1
*D38
  0
LINE
  5
194B
330
1949
100
AcDbEntity
  8
Quote
 62
     0
370
    -2
100
AcDbLine
 10
74.3606511353646
 20
853.5839243241658
 30
0.0
 11
15.74999999999302
 21
853.5839243241658
 31
0.0
  0
LINE
  5
194C
330
1949
100
AcDbEntity
  8
Quote
 62
     0
370
    -2
100
AcDbLine
 10
67.71370329370984
 20
748.5839243241658
 30
0.0
 11
15.74999999999302
 21
748.5839243241658
 31
0.0
  0
LINE
  5
194D
330
1949
100
AcDbEntity
  8
Quote
 62
     0
370
    -2
100
AcDbLine
 10
15.92999999999302
 20
853.4039243241658
 30
0.0
 11
15.92999999999302
 21
801.2639243241658
 31
0.0
  0
LINE
  5
194E
330
1949
100
AcDbEntity
  8
Quote
 62
     0
370
    -2
100
AcDbLine
 10
15.92999999999302
 20
748.7639243241657
 30
0.0
 11
15.92999999999302
 21
800.9039243241657
 31
0.0
  0
SOLID
  5
194F
330
1949
100
AcDbEntity
  8
Quote
 62
     0
100
AcDbTrace
 10
15.95999999999302
 20
853.4039243241658
 30
0.0
 11
15.89999999999302
 21
853.4039243241658
 31
0.0
 12
15.92999999999302
 22
853.5839243241658
 32
0.0
 13
15.92999999999302
 23
853.5839243241658
 33
0.0
  0
SOLID
  5
1950
330
1949
100
AcDbEntity
  8
Quote
 62
     0
100
AcDbTrace
 10
15.89999999999302
 20
748.7639243241657
 30
0.0
 11
15.95999999999301
 21
748.7639243241657
 31
0.0
 12
15.92999999999302
 22
748.5839243241658
 32
0.0
 13
15.92999999999302
 23
748.5839243241658
 33
0.0
  0
MTEXT
  5
1951
330
1949
100
AcDbEntity
  8
Quote
  6
Continuous
 62
     0
100
AcDbMText
 10
15.92999999999302
 20
801.0839243241658
 30
0.0
 40
0.18
 41
0.0
 46
0.0
 71
     5
 72
     1
  1
\A1;105.0000
 73
     1
 44
1.0
  0
POINT
  5
198A
330
1949
100
AcDbEntity
  8
Defpoints
 62
     0
100
AcDbPoint
 10
74.4231511353646
 20
853.5839243241658
 30
0.0
  0
POINT
  5
198B
330
1949
100
AcDbEntity
  8
Defpoints
 62
     0
100
AcDbPoint
 10
67.77620329370984
 20
748.5839243241658
 30
0.0
  0
POINT
  5
198C
330
1949
100
AcDbEntity
  8
Defpoints
 62
     0
100
AcDbPoint
 10
15.92999999999302
 20
748.5839243241658
 30
0.0
  0
ENDBLK
  5
1952
330
1949
100
AcDbEntity
  8
0
100
AcDbBlockEnd
  0
BLOCK
  5
1955
330
1954
100
AcDbEntity
  8
0
100
AcDbBlockBegin
  2
*D39
 70
     1
 10
0.0
 20
0.0
 30
0.0
  3
*D39
  1
*D39
  0
LINE
  5
1956
330
1954
100
AcDbEntity
  8
Quote
 62
     0
370
    -2
100
AcDbLine
 10
74.3606511353646
 20
748.5839243241658
 30
0.0
 11
15.74999999999302
 21
748.5839243241658
 31
0.0
  0
LINE
  5
1957
330
1954
100
AcDbEntity
  8
Quote
 62
     0
370
    -2
100
AcDbLine
 10
67.71370329370984
 20
643.5839243241659
 30
0.0
 11
15.74999999999302
 21
643.5839243241659
 31
0.0
  0
LINE
  5
1958
330
1954
100
AcDbEntity
  8
Quote
 62
     0
370
    -2
100
AcDbLine
 10
15.92999999999302
 20
748.4039243241658
 30
0.0
 11
15.92999999999302
 21
696.2639243241658
 31
0.0
  0
LINE
  5
1959
330
1954
100
AcDbEntity
  8
Quote
 62
     0
370
    -2
100
AcDbLine
 10
15.92999999999302
 20
643.7639243241658
 30
0.0
 11
15.92999999999302
 21
695.9039243241657
 31
0.0
  0
SOLID
  5
195A
330
1954
100
AcDbEntity
  8
Quote
 62
     0
100
AcDbTrace
 10
15.95999999999302
 20
748.4039243241658
 30
0.0
 11
15.89999999999302
 21
748.4039243241658
 31
0.0
 12
15.92999999999302
 22
748.5839243241658
 32
0.0
 13
15.92999999999302
 23
748.5839243241658
 33
0.0
  0
SOLID
  5
195B
330
1954
100
AcDbEntity
  8
Quote
 62
     0
100
AcDbTrace
 10
15.89999999999302
 20
643.7639243241658
 30
0.0
 11
15.95999999999301
 21
643.7639243241658
 31
0.0
 12
15.92999999999302
 22
643.5839243241659
 32
0.0
 13
15.92999999999302
 23
643.5839243241659
 33
0.0
  0
MTEXT
  5
195C
330
1954
100
AcDbEntity
  8
Quote
  6
Continuous
 62
     0
100
AcDbMText
 10
15.92999999999302
 20
696.0839243241658
 30
0.0
 40
0.18
 41
0.0
 46
0.0
 71
     5
 72
     1
  1
\A1;105.0000
 73
     1
 44
1.0
  0
POINT
  5
198D
330
1954
100
AcDbEntity
  8
Defpoints
 62
     0
100
AcDbPoint
 10
74.4231511353646
 20
748.5839243241658
 30
0.0
  0
POINT
  5
198E
330
1954
100
AcDbEntity
  8
Defpoints
 62
     0
100
AcDbPoint
 10
67.77620329370984
 20
643.5839243241659
 30
0.0
  0
POINT
  5
198F
330
1954
100
AcDbEntity
  8
Defpoints
 62
     0
100
AcDbPoint
 10
15.92999999999302
 20
643.5839243241659
 30
0.0
  0
ENDBLK
  5
195D
330
1954
100
AcDbEntity
  8
0
100
AcDbBlockEnd
  0
BLOCK
  5
1A95
330
1A94
100
AcDbEntity
  8
0
100
AcDbBlockBegin
  2
*D40
 70
     1
 10
0.0
 20
0.0
 30
0.0
  3
*D40
  1
*D40
  0
LINE
  5
1A97
330
1A94
100
AcDbEntity
  8
Quote
 62
     0
370
    -2
100
AcDbLine
 10
2350.907574108364
 20
1382.434469298197
 30
0.0
 11
2350.907574108364
 21
1357.978705641307
 31
0.0
  0
LINE
  5
1A98
330
1A94
100
AcDbEntity
  8
Quote
 62
     0
370
    -2
100
AcDbLine
 10
3050.907574108364
 20
1382.434469298197
 30
0.0
 11
3050.907574108364
 21
1357.978705641307
 31
0.0
  0
LINE
  5
1A99
330
1A94
100
AcDbEntity
  8
Quote
 62
     0
370
    -2
100
AcDbLine
 10
2351.087574108364
 20
1358.158705641307
 30
0.0
 11
2700.277574108364
 21
1358.158705641307
 31
0.0
  0
LINE
  5
1A9A
330
1A94
100
AcDbEntity
  8
Quote
 62
     0
370
    -2
100
AcDbLine
 10
3050.727574108364
 20
1358.158705641307
 30
0.0
 11
2701.537574108364
 21
1358.158705641307
 31
0.0
  0
SOLID
  5
1A9B
330
1A94
100
AcDbEntity
  8
Quote
 62
     0
100
AcDbTrace
 10
2351.087574108364
 20
1358.188705641307
 30
0.0
 11
2351.087574108364
 21
1358.128705641307
 31
0.0
 12
2350.907574108364
 22
1358.158705641307
 32
0.0
 13
2350.907574108364
 23
1358.158705641307
 33
0.0
  0
SOLID
  5
1A9C
330
1A94
100
AcDbEntity
  8
Quote
 62
     0
100
AcDbTrace
 10
3050.727574108364
 20
1358.128705641307
 30
0.0
 11
3050.727574108364
 21
1358.188705641307
 31
0.0
 12
3050.907574108364
 22
1358.158705641307
 32
0.0
 13
3050.907574108364
 23
1358.158705641307
 33
0.0
  0
MTEXT
  5
1A9D
330
1A94
100
AcDbEntity
  8
Quote
  6
Continuous
 62
     0
100
AcDbMText
 10
2700.907574108364
 20
1358.158705641307
 30
0.0
 40
0.18
 41
0.0
 46
0.0
 71
     5
 72
     1
  1
\A1;700.0000
 73
     1
 44
1.0
  0
POINT
  5
1A9E
330
1A94
100
AcDbEntity
  8
Defpoints
 62
     0
100
AcDbPoint
 10
2350.907574108364
 20
1382.496969298197
 30
0.0
  0
POINT
  5
1A9F
330
1A94
100
AcDbEntity
  8
Defpoints
 62
     0
100
AcDbPoint
 10
3050.907574108364
 20
1382.496969298197
 30
0.0
  0
POINT
  5
1AA0
330
1A94
100
AcDbEntity
  8
Defpoints
 62
     0
100
AcDbPoint
 10
3050.907574108364
 20
1358.158705641307
 30
0.0
  0
ENDBLK
  5
1A96
330
1A94
100
AcDbEntity
  8
0
100
AcDbBlockEnd
  0
BLOCK
  5
1AA2
330
1AA1
100
AcDbEntity
  8
0
100
AcDbBlockBegin
  2
*D41
 70
     1
 10
0.0
 20
0.0
 30
0.0
  3
*D41
  1
*D41
  0
LINE
  5
1AA4
330
1AA1
100
AcDbEntity
  8
Quote
 62
     0
370
    -2
100
AcDbLine
 10
3101.700028345665
 20
1810.473820153983
 30
0.0
 11
3125.352678486654
 21
1810.473820153983
 31
0.0
  0
LINE
  5
1AA5
330
1AA1
100
AcDbEntity
  8
Quote
 62
     0
370
    -2
100
AcDbLine
 10
3101.700028345665
 20
1390.473820153983
 30
0.0
 11
3125.352678486654
 21
1390.473820153983
 31
0.0
  0
LINE
  5
1AA6
330
1AA1
100
AcDbEntity
  8
Quote
 62
     0
370
    -2
100
AcDbLine
 10
3125.172678486654
 20
1810.293820153983
 30
0.0
 11
3125.172678486654
 21
1600.653820153982
 31
0.0
  0
LINE
  5
1AA7
330
1AA1
100
AcDbEntity
  8
Quote
 62
     0
370
    -2
100
AcDbLine
 10
3125.172678486654
 20
1390.653820153983
 30
0.0
 11
3125.172678486654
 21
1600.293820153983
 31
0.0
  0
SOLID
  5
1AA8
330
1AA1
100
AcDbEntity
  8
Quote
 62
     0
100
AcDbTrace
 10
3125.202678486654
 20
1810.293820153983
 30
0.0
 11
3125.142678486654
 21
1810.293820153983
 31
0.0
 12
3125.172678486654
 22
1810.473820153983
 32
0.0
 13
3125.172678486654
 23
1810.473820153983
 33
0.0
  0
SOLID
  5
1AA9
330
1AA1
100
AcDbEntity
  8
Quote
 62
     0
100
AcDbTrace
 10
3125.142678486654
 20
1390.653820153983
 30
0.0
 11
3125.202678486654
 21
1390.653820153983
 31
0.0
 12
3125.172678486654
 22
1390.473820153983
 32
0.0
 13
3125.172678486654
 23
1390.473820153983
 33
0.0
  0
MTEXT
  5
1AAA
330
1AA1
100
AcDbEntity
  8
Quote
  6
Continuous
 62
     0
100
AcDbMText
 10
3125.172678486654
 20
1600.473820153983
 30
0.0
 40
0.18
 41
0.0
 46
0.0
 71
     5
 72
     1
  1
\A1;420.0000
 73
     1
 44
1.0
  0
POINT
  5
1AAB
330
1AA1
100
AcDbEntity
  8
Defpoints
 62
     0
100
AcDbPoint
 10
3101.637528345665
 20
1810.473820153983
 30
0.0
  0
POINT
  5
1AAC
330
1AA1
100
AcDbEntity
  8
Defpoints
 62
     0
100
AcDbPoint
 10
3101.637528345665
 20
1390.473820153983
 30
0.0
  0
POINT
  5
1AAD
330
1AA1
100
AcDbEntity
  8
Defpoints
 62
     0
100
AcDbPoint
 10
3125.172678486654
 20
1390.473820153983
 30
0.0
  0
ENDBLK
  5
1AA3
330
1AA1
100
AcDbEntity
  8
0
100
AcDbBlockEnd
  0
BLOCK
  5
1AAF
330
1AAE
100
AcDbEntity
  8
0
100
AcDbBlockBegin
  2
*D42
 70
     1
 10
0.0
 20
0.0
 30
0.0
  3
*D42
  1
*D42
  0
LINE
  5
1AB1
330
1AAE
100
AcDbEntity
  8
Quote
 62
     0
 48
0.2
370
    -2
100
AcDbLine
 10
3321.502219626032
 20
1846.45827931292
 30
0.0
 11
3321.502219626032
 21
1866.146517606695
 31
0.0
  0
LINE
  5
1AB2
330
1AAE
100
AcDbEntity
  8
Quote
 62
     0
 48
0.2
370
    -2
100
AcDbLine
 10
3497.331336529684
 20
1846.45827931292
 30
0.0
 11
3497.331336529684
 21
1866.146517606695
 31
0.0
  0
LINE
  5
1AB3
330
1AAE
100
AcDbEntity
  8
Quote
 62
     0
 48
0.2
370
    -2
100
AcDbLine
 10
3321.682219626031
 20
1865.966517606695
 30
0.0
 11
3409.116778077858
 21
1865.966517606695
 31
0.0
  0
LINE
  5
1AB4
330
1AAE
100
AcDbEntity
  8
Quote
 62
     0
 48
0.2
370
    -2
100
AcDbLine
 10
3497.151336529685
 20
1865.966517606695
 30
0.0
 11
3409.716778077858
 21
1865.966517606695
 31
0.0
  0
SOLID
  5
1AB5
330
1AAE
100
AcDbEntity
  8
Quote
 62
     0
100
AcDbTrace
 10
3321.682219626031
 20
1865.996517606695
 30
0.0
 11
3321.682219626031
 21
1865.936517606695
 31
0.0
 12
3321.502219626032
 22
1865.966517606695
 32
0.0
 13
3321.502219626032
 23
1865.966517606695
 33
0.0
  0
SOLID
  5
1AB6
330
1AAE
100
AcDbEntity
  8
Quote
 62
     0
100
AcDbTrace
 10
3497.151336529685
 20
1865.936517606695
 30
0.0
 11
3497.151336529685
 21
1865.996517606695
 31
0.0
 12
3497.331336529684
 22
1865.966517606695
 32
0.0
 13
3497.331336529684
 23
1865.966517606695
 33
0.0
  0
MTEXT
  5
1AB7
330
1AAE
100
AcDbEntity
  8
Quote
  6
Continuous
 62
     0
100
AcDbMText
 10
3409.416778077858
 20
1865.966517606695
 30
0.0
 40
0.18
 41
0.0
 46
0.0
 71
     5
 72
     1
  1
\A1;175
 73
     1
 44
1.0
  0
POINT
  5
1AB8
330
1AAE
100
AcDbEntity
  8
Defpoints
 62
     0
100
AcDbPoint
 10
3321.502219626032
 20
1846.39577931292
 30
0.0
  0
POINT
  5
1AB9
330
1AAE
100
AcDbEntity
  8
Defpoints
 62
     0
100
AcDbPoint
 10
3497.331336529684
 20
1846.39577931292
 30
0.0
  0
POINT
  5
1ABA
330
1AAE
100
AcDbEntity
  8
Defpoints
 62
     0
100
AcDbPoint
 10
3497.331336529684
 20
1865.966517606695
 30
0.0
  0
ENDBLK
  5
1AB0
330
1AAE
100
AcDbEntity
  8
0
100
AcDbBlockEnd
  0
BLOCK
  5
1ABC
330
1ABB
100
AcDbEntity
  8
0
100
AcDbBlockBegin
  2
*D43
 70
     1
 10
0.0
 20
0.0
 30
0.0
  3
*D43
  1
*D43
  0
LINE
  5
1ABE
330
1ABB
100
AcDbEntity
  8
Quote
 62
     0
370
    -2
100
AcDbLine
 10
3541.311752866902
 20
1748.074194408991
 30
0.0
 11
3552.374017484929
 21
1748.074194408991
 31
0.0
  0
LINE
  5
1ABF
330
1ABB
100
AcDbEntity
  8
Quote
 62
     0
370
    -2
100
AcDbLine
 10
3538.649556154086
 20
1452.693447968107
 30
0.0
 11
3552.374017484929
 21
1452.693447968107
 31
0.0
  0
LINE
  5
1AC0
330
1ABB
100
AcDbEntity
  8
Quote
 62
     0
370
    -2
100
AcDbLine
 10
3552.194017484929
 20
1747.894194408991
 30
0.0
 11
3552.194017484929
 21
1600.563821188549
 31
0.0
  0
LINE
  5
1AC1
330
1ABB
100
AcDbEntity
  8
Quote
 62
     0
370
    -2
100
AcDbLine
 10
3552.194017484929
 20
1452.873447968107
 30
0.0
 11
3552.194017484929
 21
1600.203821188549
 31
0.0
  0
SOLID
  5
1AC2
330
1ABB
100
AcDbEntity
  8
Quote
 62
     0
100
AcDbTrace
 10
3552.224017484929
 20
1747.894194408991
 30
0.0
 11
3552.164017484929
 21
1747.894194408991
 31
0.0
 12
3552.194017484929
 22
1748.074194408991
 32
0.0
 13
3552.194017484929
 23
1748.074194408991
 33
0.0
  0
SOLID
  5
1AC3
330
1ABB
100
AcDbEntity
  8
Quote
 62
     0
100
AcDbTrace
 10
3552.164017484929
 20
1452.873447968107
 30
0.0
 11
3552.224017484929
 21
1452.873447968107
 31
0.0
 12
3552.194017484929
 22
1452.693447968107
 32
0.0
 13
3552.194017484929
 23
1452.693447968107
 33
0.0
  0
MTEXT
  5
1AC4
330
1ABB
100
AcDbEntity
  8
Quote
  6
Continuous
 62
     0
100
AcDbMText
 10
3552.194017484929
 20
1600.383821188549
 30
0.0
 40
0.18
 41
0.0
 46
0.0
 71
     5
 72
     1
  1
\A1;300
 73
     1
 44
1.0
  0
POINT
  5
1AC5
330
1ABB
100
AcDbEntity
  8
Defpoints
 62
     0
100
AcDbPoint
 10
3541.249252866902
 20
1748.074194408991
 30
0.0
  0
POINT
  5
1AC6
330
1ABB
100
AcDbEntity
  8
Defpoints
 62
     0
100
AcDbPoint
 10
3538.587056154086
 20
1452.693447968107
 30
0.0
  0
POINT
  5
1AC7
330
1ABB
100
AcDbEntity
  8
Defpoints
 62
     0
100
AcDbPoint
 10
3552.194017484929
 20
1452.693447968107
 30
0.0
  0
ENDBLK
  5
1ABD
330
1ABB
100
AcDbEntity
  8
0
100
AcDbBlockEnd
  0
BLOCK
  5
1AC9
330
1AC8
100
AcDbEntity
  8
0
100
AcDbBlockBegin
  2
*D44
 70
     1
 10
0.0
 20
0.0
 30
0.0
  3
*D44
  1
*D44
  0
LINE
  5
1ACB
330
1AC8
100
AcDbEntity
  8
Quote
 62
     0
370
    -2
100
AcDbLine
 10
3471.502211097729
 20
1372.726651295672
 30
0.0
 11
3471.502211097729
 21
1360.827481234686
 31
0.0
  0
LINE
  5
1ACC
330
1AC8
100
AcDbEntity
  8
Quote
 62
     0
370
    -2
100
AcDbLine
 10
3321.502219626032
 20
1372.726658945186
 30
0.0
 11
3321.502219626032
 21
1360.827481234686
 31
0.0
  0
LINE
  5
1ACD
330
1AC8
100
AcDbEntity
  8
Quote
 62
     0
370
    -2
100
AcDbLine
 10
3471.322211097729
 20
1361.007481234686
 30
0.0
 11
3397.11721536188
 21
1361.007481234686
 31
0.0
  0
LINE
  5
1ACE
330
1AC8
100
AcDbEntity
  8
Quote
 62
     0
370
    -2
100
AcDbLine
 10
3321.682219626031
 20
1361.007481234686
 30
0.0
 11
3395.88721536188
 21
1361.007481234686
 31
0.0
  0
SOLID
  5
1ACF
330
1AC8
100
AcDbEntity
  8
Quote
 62
     0
100
AcDbTrace
 10
3471.322211097729
 20
1360.977481234686
 30
0.0
 11
3471.322211097729
 21
1361.037481234686
 31
0.0
 12
3471.502211097729
 22
1361.007481234686
 32
0.0
 13
3471.502211097729
 23
1361.007481234686
 33
0.0
  0
SOLID
  5
1AD0
330
1AC8
100
AcDbEntity
  8
Quote
 62
     0
100
AcDbTrace
 10
3321.682219626031
 20
1361.037481234686
 30
0.0
 11
3321.682219626031
 21
1360.977481234686
 31
0.0
 12
3321.502219626032
 22
1361.007481234686
 32
0.0
 13
3321.502219626032
 23
1361.007481234686
 33
0.0
  0
MTEXT
  5
1AD1
330
1AC8
100
AcDbEntity
  8
Quote
  6
Continuous
 62
     0
100
AcDbMText
 10
3396.50221536188
 20
1361.007481234686
 30
0.0
 40
0.18
 41
0.0
 46
0.0
 71
     5
 72
     1
  1
\A1;150.0000
 73
     1
 44
1.0
  0
POINT
  5
1AD2
330
1AC8
100
AcDbEntity
  8
Defpoints
 62
     0
100
AcDbPoint
 10
3471.502211097729
 20
1372.789151295672
 30
0.0
  0
POINT
  5
1AD3
330
1AC8
100
AcDbEntity
  8
Defpoints
 62
     0
100
AcDbPoint
 10
3321.502219626032
 20
1372.789158945186
 30
0.0
  0
POINT
  5
1AD4
330
1AC8
100
AcDbEntity
  8
Defpoints
 62
     0
100
AcDbPoint
 10
3321.502219626032
 20
1361.007481234686
 30
0.0
  0
ENDBLK
  5
1ACA
330
1AC8
100
AcDbEntity
  8
0
100
AcDbBlockEnd
  0
BLOCK
  5
1AD6
330
1AD5
100
AcDbEntity
  8
0
100
AcDbBlockBegin
  2
*D45
 70
     1
 10
0.0
 20
0.0
 30
0.0
  3
*D45
  1
*D45
  0
LINE
  5
1AD8
330
1AD5
100
AcDbEntity
  8
Quote
 62
     0
370
    -2
100
AcDbLine
 10
2423.040489607963
 20
992.3709826355825
 30
0.0
 11
2423.040489607963
 21
972.5498956923101
 31
0.0
  0
LINE
  5
1AD9
330
1AD5
100
AcDbEntity
  8
Quote
 62
     0
370
    -2
100
AcDbLine
 10
2978.578896725891
 20
992.3710312022987
 30
0.0
 11
2978.578896725891
 21
972.5498956923101
 31
0.0
  0
LINE
  5
1ADA
330
1AD5
100
AcDbEntity
  8
Quote
 62
     0
370
    -2
100
AcDbLine
 10
2423.220489607962
 20
972.72989569231
 30
0.0
 11
2700.494693166927
 21
972.72989569231
 31
0.0
  0
LINE
  5
1ADB
330
1AD5
100
AcDbEntity
  8
Quote
 62
     0
370
    -2
100
AcDbLine
 10
2978.398896725892
 20
972.72989569231
 30
0.0
 11
2701.124693166927
 21
972.72989569231
 31
0.0
  0
SOLID
  5
1ADC
330
1AD5
100
AcDbEntity
  8
Quote
 62
     0
100
AcDbTrace
 10
2423.220489607962
 20
972.75989569231
 30
0.0
 11
2423.220489607962
 21
972.6998956923101
 31
0.0
 12
2423.040489607963
 22
972.72989569231
 32
0.0
 13
2423.040489607963
 23
972.72989569231
 33
0.0
  0
SOLID
  5
1ADD
330
1AD5
100
AcDbEntity
  8
Quote
 62
     0
100
AcDbTrace
 10
2978.398896725892
 20
972.6998956923101
 30
0.0
 11
2978.398896725892
 21
972.75989569231
 31
0.0
 12
2978.578896725891
 22
972.72989569231
 32
0.0
 13
2978.578896725891
 23
972.72989569231
 33
0.0
  0
MTEXT
  5
1ADE
330
1AD5
100
AcDbEntity
  8
Quote
  6
Continuous
 62
     0
100
AcDbMText
 10
2700.809693166927
 20
972.72989569231
 30
0.0
 40
0.18
 41
0.0
 46
0.0
 71
     5
 72
     1
  1
\A1;560
 73
     1
 44
1.0
  0
POINT
  5
1ADF
330
1AD5
100
AcDbEntity
  8
Defpoints
 62
     0
100
AcDbPoint
 10
2423.040489607963
 20
992.4334826355825
 30
0.0
  0
POINT
  5
1AE0
330
1AD5
100
AcDbEntity
  8
Defpoints
 62
     0
100
AcDbPoint
 10
2978.578896725891
 20
992.4335312022987
 30
0.0
  0
POINT
  5
1AE1
330
1AD5
100
AcDbEntity
  8
Defpoints
 62
     0
100
AcDbPoint
 10
2978.578896725891
 20
972.72989569231
 30
0.0
  0
ENDBLK
  5
1AD7
330
1AD5
100
AcDbEntity
  8
0
100
AcDbBlockEnd
  0
BLOCK
  5
1AE3
330
1AE2
100
AcDbEntity
  8
0
100
AcDbBlockBegin
  2
*D46
 70
     1
 10
0.0
 20
0.0
 30
0.0
  3
*D46
  1
*D46
  0
LINE
  5
1AE5
330
1AE2
100
AcDbEntity
  8
Quote
 62
     0
370
    -2
100
AcDbLine
 10
3022.145254674992
 20
1214.51812826363
 30
0.0
 11
3022.145254674992
 21
1228.817000297947
 31
0.0
  0
LINE
  5
1AE6
330
1AE2
100
AcDbEntity
  8
Quote
 62
     0
370
    -2
100
AcDbLine
 10
3052.096023781959
 20
1215.225358176732
 30
0.0
 11
3052.096023781959
 21
1228.817000297947
 31
0.0
  0
LINE
  5
1AE7
330
1AE2
100
AcDbEntity
  8
Quote
 62
     0
370
    -2
100
AcDbLine
 10
3022.325254674992
 20
1228.637000297947
 30
0.0
 11
3036.505639228476
 21
1228.637000297947
 31
0.0
  0
LINE
  5
1AE8
330
1AE2
100
AcDbEntity
  8
Quote
 62
     0
370
    -2
100
AcDbLine
 10
3051.916023781959
 20
1228.637000297947
 30
0.0
 11
3037.735639228476
 21
1228.637000297947
 31
0.0
  0
SOLID
  5
1AE9
330
1AE2
100
AcDbEntity
  8
Quote
 62
     0
100
AcDbTrace
 10
3022.325254674992
 20
1228.667000297947
 30
0.0
 11
3022.325254674992
 21
1228.607000297947
 31
0.0
 12
3022.145254674992
 22
1228.637000297947
 32
0.0
 13
3022.145254674992
 23
1228.637000297947
 33
0.0
  0
SOLID
  5
1AEA
330
1AE2
100
AcDbEntity
  8
Quote
 62
     0
100
AcDbTrace
 10
3051.916023781959
 20
1228.607000297947
 30
0.0
 11
3051.916023781959
 21
1228.667000297947
 31
0.0
 12
3052.096023781959
 22
1228.637000297947
 32
0.0
 13
3052.096023781959
 23
1228.637000297947
 33
0.0
  0
MTEXT
  5
1AEB
330
1AE2
100
AcDbEntity
  8
Quote
  6
Continuous
 62
     0
100
AcDbMText
 10
3037.120639228476
 20
1228.637000297947
 30
0.0
 40
0.18
 41
0.0
 46
0.0
 71
     5
 72
     1
  1
\A1;29.9508
 73
     1
 44
1.0
  0
POINT
  5
1AEC
330
1AE2
100
AcDbEntity
  8
Defpoints
 62
     0
100
AcDbPoint
 10
3022.145254674992
 20
1214.45562826363
 30
0.0
  0
POINT
  5
1AED
330
1AE2
100
AcDbEntity
  8
Defpoints
 62
     0
100
AcDbPoint
 10
3052.096023781959
 20
1215.162858176732
 30
0.0
  0
POINT
  5
1AEE
330
1AE2
100
AcDbEntity
  8
Defpoints
 62
     0
100
AcDbPoint
 10
3052.096023781959
 20
1228.637000297947
 30
0.0
  0
ENDBLK
  5
1AE4
330
1AE2
100
AcDbEntity
  8
0
100
AcDbBlockEnd
  0
BLOCK
  5
1AF0
330
1AEF
100
AcDbEntity
  8
0
100
AcDbBlockBegin
  2
*D47
 70
     1
 10
0.0
 20
0.0
 30
0.0
  3
*D47
  1
*D47
  0
LINE
  5
1AF2
330
1AEF
100
AcDbEntity
  8
Quote
 62
     0
370
    -2
100
AcDbLine
 10
3022.145254674992
 20
1221.212235941177
 30
0.0
 11
3022.145254674992
 21
1228.817000297947
 31
0.0
  0
LINE
  5
1AF3
330
1AEF
100
AcDbEntity
  8
Quote
 62
     0
370
    -2
100
AcDbLine
 10
2378.605899206696
 20
1217.053448913513
 30
0.0
 11
2378.605899206696
 21
1228.817000297947
 31
0.0
  0
LINE
  5
1AF4
330
1AEF
100
AcDbEntity
  8
Quote
 62
     0
370
    -2
100
AcDbLine
 10
3021.965254674993
 20
1228.637000297947
 30
0.0
 11
2700.690576940844
 21
1228.637000297947
 31
0.0
  0
LINE
  5
1AF5
330
1AEF
100
AcDbEntity
  8
Quote
 62
     0
370
    -2
100
AcDbLine
 10
2378.785899206696
 20
1228.637000297947
 30
0.0
 11
2700.060576940844
 21
1228.637000297947
 31
0.0
  0
SOLID
  5
1AF6
330
1AEF
100
AcDbEntity
  8
Quote
 62
     0
100
AcDbTrace
 10
3021.965254674993
 20
1228.607000297947
 30
0.0
 11
3021.965254674993
 21
1228.667000297947
 31
0.0
 12
3022.145254674992
 22
1228.637000297947
 32
0.0
 13
3022.145254674992
 23
1228.637000297947
 33
0.0
  0
SOLID
  5
1AF7
330
1AEF
100
AcDbEntity
  8
Quote
 62
     0
100
AcDbTrace
 10
2378.785899206696
 20
1228.667000297947
 30
0.0
 11
2378.785899206696
 21
1228.607000297947
 31
0.0
 12
2378.605899206696
 22
1228.637000297947
 32
0.0
 13
2378.605899206696
 23
1228.637000297947
 33
0.0
  0
MTEXT
  5
1AF8
330
1AEF
100
AcDbEntity
  8
Quote
  6
Continuous
 62
     0
100
AcDbMText
 10
2700.375576940844
 20
1228.637000297947
 30
0.0
 40
0.18
 41
0.0
 46
0.0
 71
     5
 72
     1
  1
\A1;640
 73
     1
 44
1.0
  0
POINT
  5
1AF9
330
1AEF
100
AcDbEntity
  8
Defpoints
 62
     0
100
AcDbPoint
 10
3022.145254674992
 20
1221.149735941177
 30
0.0
  0
POINT
  5
1AFA
330
1AEF
100
AcDbEntity
  8
Defpoints
 62
     0
100
AcDbPoint
 10
2378.605899206696
 20
1216.990948913513
 30
0.0
  0
POINT
  5
1AFB
330
1AEF
100
AcDbEntity
  8
Defpoints
 62
     0
100
AcDbPoint
 10
2378.605899206696
 20
1228.637000297947
 30
0.0
  0
ENDBLK
  5
1AF1
330
1AEF
100
AcDbEntity
  8
0
100
AcDbBlockEnd
  0
BLOCK
  5
1AFD
330
1AFC
100
AcDbEntity
  8
0
100
AcDbBlockBegin
  2
*D48
 70
     1
 10
0.0
 20
0.0
 30
0.0
  3
*D48
  1
*D48
  0
LINE
  5
1AFF
330
1AFC
100
AcDbEntity
  8
Quote
 62
     0
370
    -2
100
AcDbLine
 10
2348.65513009973
 20
1214.51812826363
 30
0.0
 11
2348.65513009973
 21
1228.817000297947
 31
0.0
  0
LINE
  5
1B00
330
1AFC
100
AcDbEntity
  8
Quote
 62
     0
370
    -2
100
AcDbLine
 10
2378.605899206696
 20
1215.225358176732
 30
0.0
 11
2378.605899206696
 21
1228.817000297947
 31
0.0
  0
LINE
  5
1B01
330
1AFC
100
AcDbEntity
  8
Quote
 62
     0
370
    -2
100
AcDbLine
 10
2348.83513009973
 20
1228.637000297947
 30
0.0
 11
2363.015514653213
 21
1228.637000297947
 31
0.0
  0
LINE
  5
1B02
330
1AFC
100
AcDbEntity
  8
Quote
 62
     0
370
    -2
100
AcDbLine
 10
2378.425899206697
 20
1228.637000297947
 30
0.0
 11
2364.245514653213
 21
1228.637000297947
 31
0.0
  0
SOLID
  5
1B03
330
1AFC
100
AcDbEntity
  8
Quote
 62
     0
100
AcDbTrace
 10
2348.83513009973
 20
1228.667000297947
 30
0.0
 11
2348.83513009973
 21
1228.607000297947
 31
0.0
 12
2348.65513009973
 22
1228.637000297947
 32
0.0
 13
2348.65513009973
 23
1228.637000297947
 33
0.0
  0
SOLID
  5
1B04
330
1AFC
100
AcDbEntity
  8
Quote
 62
     0
100
AcDbTrace
 10
2378.425899206697
 20
1228.607000297947
 30
0.0
 11
2378.425899206697
 21
1228.667000297947
 31
0.0
 12
2378.605899206696
 22
1228.637000297947
 32
0.0
 13
2378.605899206696
 23
1228.637000297947
 33
0.0
  0
MTEXT
  5
1B05
330
1AFC
100
AcDbEntity
  8
Quote
  6
Continuous
 62
     0
100
AcDbMText
 10
2363.630514653213
 20
1228.637000297947
 30
0.0
 40
0.18
 41
0.0
 46
0.0
 71
     5
 72
     1
  1
\A1;29.9508
 73
     1
 44
1.0
  0
POINT
  5
1B06
330
1AFC
100
AcDbEntity
  8
Defpoints
 62
     0
100
AcDbPoint
 10
2348.65513009973
 20
1214.45562826363
 30
0.0
  0
POINT
  5
1B07
330
1AFC
100
AcDbEntity
  8
Defpoints
 62
     0
100
AcDbPoint
 10
2378.605899206696
 20
1215.162858176732
 30
0.0
  0
POINT
  5
1B08
330
1AFC
100
AcDbEntity
  8
Defpoints
 62
     0
100
AcDbPoint
 10
2378.605899206696
 20
1228.637000297947
 30
0.0
  0
ENDBLK
  5
1AFE
330
1AFC
100
AcDbEntity
  8
0
100
AcDbBlockEnd
  0
BLOCK
  5
1B0A
330
1B09
100
AcDbEntity
  8
0
100
AcDbBlockBegin
  2
*D49
 70
     1
 10
0.0
 20
0.0
 30
0.0
  3
*D49
  1
*D49
  0
LINE
  5
1B0C
330
1B09
100
AcDbEntity
  8
Quote
 62
     0
370
    -2
100
AcDbLine
 10
3072.51406552059
 20
1044.196874049635
 30
0.0
 11
3091.780709480356
 21
1044.196874049635
 31
0.0
  0
LINE
  5
1B0D
330
1B09
100
AcDbEntity
  8
Quote
 62
     0
370
    -2
100
AcDbLine
 10
3072.51406552059
 20
1194.196867441297
 30
0.0
 11
3091.780709480356
 21
1194.196867441297
 31
0.0
  0
LINE
  5
1B0E
330
1B09
100
AcDbEntity
  8
Quote
 62
     0
370
    -2
100
AcDbLine
 10
3091.600709480356
 20
1044.376874049635
 30
0.0
 11
3091.600709480356
 21
1119.016870745466
 31
0.0
  0
LINE
  5
1B0F
330
1B09
100
AcDbEntity
  8
Quote
 62
     0
370
    -2
100
AcDbLine
 10
3091.600709480356
 20
1194.016867441297
 30
0.0
 11
3091.600709480356
 21
1119.376870745466
 31
0.0
  0
SOLID
  5
1B10
330
1B09
100
AcDbEntity
  8
Quote
 62
     0
100
AcDbTrace
 10
3091.570709480356
 20
1044.376874049635
 30
0.0
 11
3091.630709480356
 21
1044.376874049635
 31
0.0
 12
3091.600709480356
 22
1044.196874049635
 32
0.0
 13
3091.600709480356
 23
1044.196874049635
 33
0.0
  0
SOLID
  5
1B11
330
1B09
100
AcDbEntity
  8
Quote
 62
     0
100
AcDbTrace
 10
3091.630709480356
 20
1194.016867441297
 30
0.0
 11
3091.570709480356
 21
1194.016867441297
 31
0.0
 12
3091.600709480356
 22
1194.196867441297
 32
0.0
 13
3091.600709480356
 23
1194.196867441297
 33
0.0
  0
MTEXT
  5
1B12
330
1B09
100
AcDbEntity
  8
Quote
  6
Continuous
 62
     0
100
AcDbMText
 10
3091.600709480356
 20
1119.196870745466
 30
0.0
 40
0.18
 41
0.0
 46
0.0
 71
     5
 72
     1
  1
\A1;150.0000
 73
     1
 44
1.0
  0
POINT
  5
1B13
330
1B09
100
AcDbEntity
  8
Defpoints
 62
     0
100
AcDbPoint
 10
3072.45156552059
 20
1044.196874049635
 30
0.0
  0
POINT
  5
1B14
330
1B09
100
AcDbEntity
  8
Defpoints
 62
     0
100
AcDbPoint
 10
3072.45156552059
 20
1194.196867441297
 30
0.0
  0
POINT
  5
1B15
330
1B09
100
AcDbEntity
  8
Defpoints
 62
     0
100
AcDbPoint
 10
3091.600709480356
 20
1194.196867441297
 30
0.0
  0
ENDBLK
  5
1B0B
330
1B09
100
AcDbEntity
  8
0
100
AcDbBlockEnd
  0
BLOCK
  5
1B17
330
1B16
100
AcDbEntity
  8
0
100
AcDbBlockBegin
  2
*D50
 70
     1
 10
0.0
 20
0.0
 30
0.0
  3
*D50
  1
*D50
  0
LINE
  5
1B19
330
1B16
100
AcDbEntity
  8
Quote
 62
     0
370
    -2
100
AcDbLine
 10
3314.507184074158
 20
1780.404560875128
 30
0.0
 11
3300.208312039838
 21
1780.404560875128
 31
0.0
  0
LINE
  5
1B1A
330
1B16
100
AcDbEntity
  8
Quote
 62
     0
370
    -2
100
AcDbLine
 10
3313.799954161054
 20
1810.355329982095
 30
0.0
 11
3300.208312039838
 21
1810.355329982095
 31
0.0
  0
LINE
  5
1B1B
330
1B16
100
AcDbEntity
  8
Quote
 62
     0
370
    -2
100
AcDbLine
 10
3300.388312039838
 20
1780.584560875129
 30
0.0
 11
3300.388312039838
 21
1795.199945428612
 31
0.0
  0
LINE
  5
1B1C
330
1B16
100
AcDbEntity
  8
Quote
 62
     0
370
    -2
100
AcDbLine
 10
3300.388312039838
 20
1810.175329982095
 30
0.0
 11
3300.388312039838
 21
1795.559945428612
 31
0.0
  0
SOLID
  5
1B1D
330
1B16
100
AcDbEntity
  8
Quote
 62
     0
100
AcDbTrace
 10
3300.358312039838
 20
1780.584560875129
 30
0.0
 11
3300.418312039838
 21
1780.584560875129
 31
0.0
 12
3300.388312039838
 22
1780.404560875128
 32
0.0
 13
3300.388312039838
 23
1780.404560875128
 33
0.0
  0
SOLID
  5
1B1E
330
1B16
100
AcDbEntity
  8
Quote
 62
     0
100
AcDbTrace
 10
3300.418312039838
 20
1810.175329982095
 30
0.0
 11
3300.358312039838
 21
1810.175329982095
 31
0.0
 12
3300.388312039838
 22
1810.355329982095
 32
0.0
 13
3300.388312039838
 23
1810.355329982095
 33
0.0
  0
MTEXT
  5
1B1F
330
1B16
100
AcDbEntity
  8
Quote
  6
Continuous
 62
     0
100
AcDbMText
 10
3300.388312039838
 20
1795.379945428612
 30
0.0
 40
0.18
 41
0.0
 46
0.0
 71
     5
 72
     1
  1
\A1;29.9508
 73
     1
 44
1.0
  0
POINT
  5
1B20
330
1B16
100
AcDbEntity
  8
Defpoints
 62
     0
100
AcDbPoint
 10
3314.569684074158
 20
1780.404560875128
 30
0.0
  0
POINT
  5
1B21
330
1B16
100
AcDbEntity
  8
Defpoints
 62
     0
100
AcDbPoint
 10
3313.862454161054
 20
1810.355329982095
 30
0.0
  0
POINT
  5
1B22
330
1B16
100
AcDbEntity
  8
Defpoints
 62
     0
100
AcDbPoint
 10
3300.388312039838
 20
1810.355329982095
 30
0.0
  0
ENDBLK
  5
1B18
330
1B16
100
AcDbEntity
  8
0
100
AcDbBlockEnd
  0
BLOCK
  5
1B24
330
1B23
100
AcDbEntity
  8
0
100
AcDbBlockBegin
  2
*D51
 70
     1
 10
0.0
 20
0.0
 30
0.0
  3
*D51
  1
*D51
  0
LINE
  5
1B26
330
1B23
100
AcDbEntity
  8
Quote
 62
     0
370
    -2
100
AcDbLine
 10
3307.81307639661
 20
1780.404560875128
 30
0.0
 11
3300.208312039838
 21
1780.404560875128
 31
0.0
  0
LINE
  5
1B27
330
1B23
100
AcDbEntity
  8
Quote
 62
     0
370
    -2
100
AcDbLine
 10
3313.799954161054
 20
1420.363094020077
 30
0.0
 11
3300.208312039838
 21
1420.363094020077
 31
0.0
  0
LINE
  5
1B28
330
1B23
100
AcDbEntity
  8
Quote
 62
     0
370
    -2
100
AcDbLine
 10
3300.388312039838
 20
1780.224560875128
 30
0.0
 11
3300.388312039838
 21
1600.563827447603
 31
0.0
  0
LINE
  5
1B29
330
1B23
100
AcDbEntity
  8
Quote
 62
     0
370
    -2
100
AcDbLine
 10
3300.388312039838
 20
1420.543094020077
 30
0.0
 11
3300.388312039838
 21
1600.203827447603
 31
0.0
  0
SOLID
  5
1B2A
330
1B23
100
AcDbEntity
  8
Quote
 62
     0
100
AcDbTrace
 10
3300.418312039838
 20
1780.224560875128
 30
0.0
 11
3300.358312039838
 21
1780.224560875128
 31
0.0
 12
3300.388312039838
 22
1780.404560875128
 32
0.0
 13
3300.388312039838
 23
1780.404560875128
 33
0.0
  0
SOLID
  5
1B2B
330
1B23
100
AcDbEntity
  8
Quote
 62
     0
100
AcDbTrace
 10
3300.358312039838
 20
1420.543094020077
 30
0.0
 11
3300.418312039838
 21
1420.543094020077
 31
0.0
 12
3300.388312039838
 22
1420.363094020077
 32
0.0
 13
3300.388312039838
 23
1420.363094020077
 33
0.0
  0
MTEXT
  5
1B2C
330
1B23
100
AcDbEntity
  8
Quote
  6
Continuous
 62
     0
100
AcDbMText
 10
3300.388312039838
 20
1600.383827447603
 30
0.0
 40
0.18
 41
0.0
 46
0.0
 71
     5
 72
     1
  1
\A1;360.0415
 73
     1
 44
1.0
  0
POINT
  5
1B2D
330
1B23
100
AcDbEntity
  8
Defpoints
 62
     0
100
AcDbPoint
 10
3307.87557639661
 20
1780.404560875128
 30
0.0
  0
POINT
  5
1B2E
330
1B23
100
AcDbEntity
  8
Defpoints
 62
     0
100
AcDbPoint
 10
3313.862454161054
 20
1420.363094020077
 30
0.0
  0
POINT
  5
1B2F
330
1B23
100
AcDbEntity
  8
Defpoints
 62
     0
100
AcDbPoint
 10
3300.388312039838
 20
1420.363094020077
 30
0.0
  0
ENDBLK
  5
1B25
330
1B23
100
AcDbEntity
  8
0
100
AcDbBlockEnd
  0
BLOCK
  5
1B31
330
1B30
100
AcDbEntity
  8
0
100
AcDbBlockBegin
  2
*D52
 70
     1
 10
0.0
 20
0.0
 30
0.0
  3
*D52
  1
*D52
  0
LINE
  5
1B33
330
1B30
100
AcDbEntity
  8
Quote
 62
     0
370
    -2
100
AcDbLine
 10
3314.507184074158
 20
1390.412324913111
 30
0.0
 11
3300.208312039838
 21
1390.412324913111
 31
0.0
  0
LINE
  5
1B34
330
1B30
100
AcDbEntity
  8
Quote
 62
     0
370
    -2
100
AcDbLine
 10
3313.799954161054
 20
1420.363094020077
 30
0.0
 11
3300.208312039838
 21
1420.363094020077
 31
0.0
  0
LINE
  5
1B35
330
1B30
100
AcDbEntity
  8
Quote
 62
     0
370
    -2
100
AcDbLine
 10
3300.388312039838
 20
1390.592324913111
 30
0.0
 11
3300.388312039838
 21
1405.207709466594
 31
0.0
  0
LINE
  5
1B36
330
1B30
100
AcDbEntity
  8
Quote
 62
     0
370
    -2
100
AcDbLine
 10
3300.388312039838
 20
1420.183094020077
 30
0.0
 11
3300.388312039838
 21
1405.567709466594
 31
0.0
  0
SOLID
  5
1B37
330
1B30
100
AcDbEntity
  8
Quote
 62
     0
100
AcDbTrace
 10
3300.358312039838
 20
1390.592324913111
 30
0.0
 11
3300.418312039838
 21
1390.592324913111
 31
0.0
 12
3300.388312039838
 22
1390.412324913111
 32
0.0
 13
3300.388312039838
 23
1390.412324913111
 33
0.0
  0
SOLID
  5
1B38
330
1B30
100
AcDbEntity
  8
Quote
 62
     0
100
AcDbTrace
 10
3300.418312039838
 20
1420.183094020077
 30
0.0
 11
3300.358312039838
 21
1420.183094020077
 31
0.0
 12
3300.388312039838
 22
1420.363094020077
 32
0.0
 13
3300.388312039838
 23
1420.363094020077
 33
0.0
  0
MTEXT
  5
1B39
330
1B30
100
AcDbEntity
  8
Quote
  6
Continuous
 62
     0
100
AcDbMText
 10
3300.388312039838
 20
1405.387709466594
 30
0.0
 40
0.18
 41
0.0
 46
0.0
 71
     5
 72
     1
  1
\A1;29.9508
 73
     1
 44
1.0
  0
POINT
  5
1B3A
330
1B30
100
AcDbEntity
  8
Defpoints
 62
     0
100
AcDbPoint
 10
3314.569684074158
 20
1390.412324913111
 30
0.0
  0
POINT
  5
1B3B
330
1B30
100
AcDbEntity
  8
Defpoints
 62
     0
100
AcDbPoint
 10
3313.862454161054
 20
1420.363094020077
 30
0.0
  0
POINT
  5
1B3C
330
1B30
100
AcDbEntity
  8
Defpoints
 62
     0
100
AcDbPoint
 10
3300.388312039838
 20
1420.363094020077
 30
0.0
  0
ENDBLK
  5
1B32
330
1B30
100
AcDbEntity
  8
0
100
AcDbBlockEnd
  0
BLOCK
  5
1B3E
330
1B3D
100
AcDbEntity
  8
0
100
AcDbBlockBegin
  2
*D53
 70
     1
 10
0.0
 20
0.0
 30
0.0
  3
*D53
  1
*D53
  0
LINE
  5
1B40
330
1B3D
100
AcDbEntity
  8
MODEL
 62
     0
370
    -2
100
AcDbLine
 10
740.9379202758789
 20
2132.152576074054
 30
0.0
 11
740.7579202758787
 21
2132.152576074054
 31
0.0
  0
LINE
  5
1B41
330
1B3D
100
AcDbEntity
  8
MODEL
 62
     0
370
    -2
100
AcDbLine
 10
740.7579202758787
 20
2132.152576074054
 30
0.0
 11
648.0194173574728
 21
2086.796057725074
 31
0.0
  0
MTEXT
  5
1B42
330
1B3D
100
AcDbEntity
  8
MODEL
  6
Continuous
 62
     0
100
AcDbMText
 10
772.6945869425456
 20
2132.152576074054
 30
0.0
 40
20.0
 41
0.0
 46
0.0
 71
     5
 72
     1
  1
\A1;%%c150
 73
     1
 44
1.0
  0
SOLID
  5
1B43
330
1B3D
100
AcDbEntity
  8
MODEL
 62
     0
100
AcDbTrace
 10
648.006236903572
 20
2086.823007226646
 30
0.0
 11
648.0325978113735
 21
2086.769108223502
 31
0.0
 12
647.8577203480418
 22
2086.716975001669
 32
0.0
 13
647.8577203480418
 23
2086.716975001669
 33
0.0
  0
LINE
  5
1B44
330
1B3D
100
AcDbEntity
  8
MODEL
 62
     0
100
AcDbLine
 10
580.393966418443
 20
2053.765840249837
 30
0.0
 11
580.5739664184431
 21
2053.765840249837
 31
0.0
  0
LINE
  5
1B45
330
1B3D
100
AcDbEntity
  8
MODEL
 62
     0
100
AcDbLine
 10
580.4839664184431
 20
2053.675840249837
 30
0.0
 11
580.4839664184431
 21
2053.855840249837
 31
0.0
  0
POINT
  5
1B46
330
1B3D
100
AcDbEntity
  8
Defpoints
 62
     0
100
AcDbPoint
 10
647.8577203480418
 20
2086.716975001669
 30
0.0
  0
POINT
  5
1B47
330
1B3D
100
AcDbEntity
  8
Defpoints
 62
     0
100
AcDbPoint
 10
513.1102124888444
 20
2020.814705498005
 30
0.0
  0
ENDBLK
  5
1B3F
330
1B3D
100
AcDbEntity
  8
0
100
AcDbBlockEnd
  0
BLOCK
  5
1B49
330
1B48
100
AcDbEntity
  8
0
100
AcDbBlockBegin
  2
*D54
 70
     1
 10
0.0
 20
0.0
 30
0.0
  3
*D54
  1
*D54
  0
LINE
  5
1B4B
330
1B48
100
AcDbEntity
  8
Quote
 62
     0
370
    -2
100
AcDbLine
 10
2341.765548890077
 20
1810.383820016476
 30
0.0
 11
2283.154897754706
 21
1810.383820016476
 31
0.0
  0
LINE
  5
1B4C
330
1B48
100
AcDbEntity
  8
Quote
 62
     0
370
    -2
100
AcDbLine
 10
2335.118601048423
 20
1705.383820016476
 30
0.0
 11
2283.154897754706
 21
1705.383820016476
 31
0.0
  0
LINE
  5
1B4D
330
1B48
100
AcDbEntity
  8
Quote
 62
     0
370
    -2
100
AcDbLine
 10
2283.334897754706
 20
1810.203820016476
 30
0.0
 11
2283.334897754706
 21
1758.063820016476
 31
0.0
  0
LINE
  5
1B4E
330
1B48
100
AcDbEntity
  8
Quote
 62
     0
370
    -2
100
AcDbLine
 10
2283.334897754706
 20
1705.563820016476
 30
0.0
 11
2283.334897754706
 21
1757.703820016476
 31
0.0
  0
SOLID
  5
1B4F
330
1B48
100
AcDbEntity
  8
Quote
 62
     0
100
AcDbTrace
 10
2283.364897754706
 20
1810.203820016476
 30
0.0
 11
2283.304897754706
 21
1810.203820016476
 31
0.0
 12
2283.334897754706
 22
1810.383820016476
 32
0.0
 13
2283.334897754706
 23
1810.383820016476
 33
0.0
  0
SOLID
  5
1B50
330
1B48
100
AcDbEntity
  8
Quote
 62
     0
100
AcDbTrace
 10
2283.304897754706
 20
1705.563820016476
 30
0.0
 11
2283.364897754706
 21
1705.563820016476
 31
0.0
 12
2283.334897754706
 22
1705.383820016476
 32
0.0
 13
2283.334897754706
 23
1705.383820016476
 33
0.0
  0
MTEXT
  5
1B51
330
1B48
100
AcDbEntity
  8
Quote
  6
Continuous
 62
     0
100
AcDbMText
 10
2283.334897754706
 20
1757.883820016476
 30
0.0
 40
0.18
 41
0.0
 46
0.0
 71
     5
 72
     1
  1
\A1;105.0000
 73
     1
 44
1.0
  0
POINT
  5
1B52
330
1B48
100
AcDbEntity
  8
Defpoints
 62
     0
100
AcDbPoint
 10
2341.828048890077
 20
1810.383820016476
 30
0.0
  0
POINT
  5
1B53
330
1B48
100
AcDbEntity
  8
Defpoints
 62
     0
100
AcDbPoint
 10
2335.181101048423
 20
1705.383820016476
 30
0.0
  0
POINT
  5
1B54
330
1B48
100
AcDbEntity
  8
Defpoints
 62
     0
100
AcDbPoint
 10
2283.334897754706
 20
1705.383820016476
 30
0.0
  0
ENDBLK
  5
1B4A
330
1B48
100
AcDbEntity
  8
0
100
AcDbBlockEnd
  0
BLOCK
  5
1B56
330
1B55
100
AcDbEntity
  8
0
100
AcDbBlockBegin
  2
*D55
 70
     1
 10
0.0
 20
0.0
 30
0.0
  3
*D55
  1
*D55
  0
LINE
  5
1B58
330
1B55
100
AcDbEntity
  8
Quote
 62
     0
370
    -2
100
AcDbLine
 10
2341.765548890077
 20
1705.383820016476
 30
0.0
 11
2283.154897754706
 21
1705.383820016476
 31
0.0
  0
LINE
  5
1B59
330
1B55
100
AcDbEntity
  8
Quote
 62
     0
370
    -2
100
AcDbLine
 10
2335.118601048423
 20
1600.383820016476
 30
0.0
 11
2283.154897754706
 21
1600.383820016476
 31
0.0
  0
LINE
  5
1B5A
330
1B55
100
AcDbEntity
  8
Quote
 62
     0
370
    -2
100
AcDbLine
 10
2283.334897754706
 20
1705.203820016476
 30
0.0
 11
2283.334897754706
 21
1653.063820016476
 31
0.0
  0
LINE
  5
1B5B
330
1B55
100
AcDbEntity
  8
Quote
 62
     0
370
    -2
100
AcDbLine
 10
2283.334897754706
 20
1600.563820016476
 30
0.0
 11
2283.334897754706
 21
1652.703820016476
 31
0.0
  0
SOLID
  5
1B5C
330
1B55
100
AcDbEntity
  8
Quote
 62
     0
100
AcDbTrace
 10
2283.364897754706
 20
1705.203820016476
 30
0.0
 11
2283.304897754706
 21
1705.203820016476
 31
0.0
 12
2283.334897754706
 22
1705.383820016476
 32
0.0
 13
2283.334897754706
 23
1705.383820016476
 33
0.0
  0
SOLID
  5
1B5D
330
1B55
100
AcDbEntity
  8
Quote
 62
     0
100
AcDbTrace
 10
2283.304897754706
 20
1600.563820016476
 30
0.0
 11
2283.364897754706
 21
1600.563820016476
 31
0.0
 12
2283.334897754706
 22
1600.383820016476
 32
0.0
 13
2283.334897754706
 23
1600.383820016476
 33
0.0
  0
MTEXT
  5
1B5E
330
1B55
100
AcDbEntity
  8
Quote
  6
Continuous
 62
     0
100
AcDbMText
 10
2283.334897754706
 20
1652.883820016476
 30
0.0
 40
0.18
 41
0.0
 46
0.0
 71
     5
 72
     1
  1
\A1;105.0000
 73
     1
 44
1.0
  0
POINT
  5
1B5F
330
1B55
100
AcDbEntity
  8
Defpoints
 62
     0
100
AcDbPoint
 10
2341.828048890077
 20
1705.383820016476
 30
0.0
  0
POINT
  5
1B60
330
1B55
100
AcDbEntity
  8
Defpoints
 62
     0
100
AcDbPoint
 10
2335.181101048423
 20
1600.383820016476
 30
0.0
  0
POINT
  5
1B61
330
1B55
100
AcDbEntity
  8
Defpoints
 62
     0
100
AcDbPoint
 10
2283.334897754706
 20
1600.383820016476
 30
0.0
  0
ENDBLK
  5
1B57
330
1B55
100
AcDbEntity
  8
0
100
AcDbBlockEnd
  0
BLOCK
  5
1B80
330
1B7F
100
AcDbEntity
  8
0
100
AcDbBlockBegin
  2
*D56
 70
     1
 10
0.0
 20
0.0
 30
0.0
  3
*D56
  1
*D56
  0
LINE
  5
1B82
330
1B7F
100
AcDbEntity
  8
MODEL
 62
     0
370
    -2
100
AcDbLine
 10
1673.524883801382
 20
2132.152576074054
 30
0.0
 11
1673.344883801382
 21
2132.152576074054
 31
0.0
  0
LINE
  5
1B83
330
1B7F
100
AcDbEntity
  8
MODEL
 62
     0
370
    -2
100
AcDbLine
 10
1673.344883801382
 20
2132.152576074054
 30
0.0
 11
1580.606380882976
 21
2086.796057725074
 31
0.0
  0
MTEXT
  5
1B84
330
1B7F
100
AcDbEntity
  8
MODEL
  6
Continuous
 62
     0
100
AcDbMText
 10
1705.281550468049
 20
2132.152576074054
 30
0.0
 40
20.0
 41
0.0
 46
0.0
 71
     5
 72
     1
  1
\A1;%%c150
 73
     1
 44
1.0
  0
SOLID
  5
1B85
330
1B7F
100
AcDbEntity
  8
MODEL
 62
     0
100
AcDbTrace
 10
1580.593200429075
 20
2086.823007226646
 30
0.0
 11
1580.619561336877
 21
2086.769108223502
 31
0.0
 12
1580.444683873545
 22
2086.716975001669
 32
0.0
 13
1580.444683873545
 23
2086.716975001669
 33
0.0
  0
LINE
  5
1B86
330
1B7F
100
AcDbEntity
  8
MODEL
 62
     0
100
AcDbLine
 10
1512.980929943946
 20
2053.765840249837
 30
0.0
 11
1513.160929943946
 21
2053.765840249837
 31
0.0
  0
LINE
  5
1B87
330
1B7F
100
AcDbEntity
  8
MODEL
 62
     0
100
AcDbLine
 10
1513.070929943946
 20
2053.675840249837
 30
0.0
 11
1513.070929943946
 21
2053.855840249837
 31
0.0
  0
POINT
  5
1B88
330
1B7F
100
AcDbEntity
  8
Defpoints
 62
     0
100
AcDbPoint
 10
1580.444683873545
 20
2086.716975001669
 30
0.0
  0
POINT
  5
1B89
330
1B7F
100
AcDbEntity
  8
Defpoints
 62
     0
100
AcDbPoint
 10
1445.697176014347
 20
2020.814705498005
 30
0.0
  0
ENDBLK
  5
1B81
330
1B7F
100
AcDbEntity
  8
0
100
AcDbBlockEnd
  0
BLOCK
  5
1B98
330
1B97
100
AcDbEntity
  8
0
100
AcDbBlockBegin
  2
*D57
 70
     1
 10
0.0
 20
0.0
 30
0.0
  3
*D57
  1
*D57
  0
LINE
  5
1B9A
330
1B97
100
AcDbEntity
  8
DIM
  6
Continuous
 62
     0
370
    -2
100
AcDbLine
 10
230.4837112689597
 20
2105.037293335487
 30
0.0
 11
230.4837112689597
 21
2410.147961816257
 31
0.0
  0
LINE
  5
1B9B
330
1B97
100
AcDbEntity
  8
DIM
  6
Continuous
 62
     0
370
    -2
100
AcDbLine
 10
930.4842215679123
 20
2105.037293335487
 30
0.0
 11
930.4842215679123
 21
2410.147961816257
 31
0.0
  0
LINE
  5
1B9C
330
1B97
100
AcDbEntity
  8
DIM
  6
Continuous
 62
     0
370
    -2
100
AcDbLine
 10
239.4837112689597
 20
2410.147961816257
 30
0.0
 11
921.4842215679123
 21
2410.147961816257
 31
0.0
  0
INSERT
  5
1B9D
330
1B97
100
AcDbEntity
  8
DIM
 62
     0
370
    -2
100
AcDbBlockReference
  2
_DOT
 10
230.4837112689597
 20
2410.147961816257
 30
0.0
 41
9.0
 42
9.0
 43
9.0
 50
180.0
  0
INSERT
  5
1B9E
330
1B97
100
AcDbEntity
  8
DIM
 62
     0
370
    -2
100
AcDbBlockReference
  2
_DOT
 10
930.4842215679123
 20
2410.147961816257
 30
0.0
 41
9.0
 42
9.0
 43
9.0
  0
MTEXT
  5
1B9F
330
1B97
100
AcDbEntity
  8
DIM
  6
Continuous
 62
     0
100
AcDbMText
 10
580.483966418436
 20
2442.147961816257
 30
0.0
 40
24.0
 41
0.0
 46
0.0
 71
     5
 72
     1
  1
\A1;700
  7
ＭＳ ゴシック
 73
     1
 44
1.0
  0
POINT
  5
1BA0
330
1B97
100
AcDbEntity
  8
Defpoints
 62
     0
100
AcDbPoint
 10
230.4837112689597
 20
2095.037293335487
 30
0.0
  0
POINT
  5
1BA1
330
1B97
100
AcDbEntity
  8
Defpoints
 62
     0
100
AcDbPoint
 10
930.4842215679123
 20
2095.037293335487
 30
0.0
  0
POINT
  5
1BA2
330
1B97
100
AcDbEntity
  8
Defpoints
 62
     0
100
AcDbPoint
 10
930.4842215679123
 20
2410.147961816257
 30
0.0
  0
ENDBLK
  5
1B99
330
1B97
100
AcDbEntity
  8
0
100
AcDbBlockEnd
  0
BLOCK
  5
1BA7
330
1BA6
100
AcDbEntity
  8
0
100
AcDbBlockBegin
  2
*D58
 70
     1
 10
0.0
 20
0.0
 30
0.0
  3
*D58
  1
*D58
  0
LINE
  5
1BA9
330
1BA6
100
AcDbEntity
  8
DIM
  6
Continuous
 62
     0
370
    -2
100
AcDbLine
 10
260.4840093206908
 20
1888.328082840233
 30
0.0
 11
260.4840093206908
 21
1570.774704538548
 31
0.0
  0
LINE
  5
1BAA
330
1BA6
100
AcDbEntity
  8
DIM
  6
Continuous
 62
     0
370
    -2
100
AcDbLine
 10
900.4839235161812
 20
1888.328082840233
 30
0.0
 11
900.4839235161812
 21
1570.774704538548
 31
0.0
  0
LINE
  5
1BAB
330
1BA6
100
AcDbEntity
  8
DIM
  6
Continuous
 62
     0
370
    -2
100
AcDbLine
 10
269.4840093206908
 20
1570.774704538548
 30
0.0
 11
891.4839235161812
 21
1570.774704538548
 31
0.0
  0
INSERT
  5
1BAC
330
1BA6
100
AcDbEntity
  8
DIM
 62
     0
370
    -2
100
AcDbBlockReference
  2
_DOT
 10
260.4840093206908
 20
1570.774704538548
 30
0.0
 41
9.0
 42
9.0
 43
9.0
 50
180.0
  0
INSERT
  5
1BAD
330
1BA6
100
AcDbEntity
  8
DIM
 62
     0
370
    -2
100
AcDbBlockReference
  2
_DOT
 10
900.4839235161812
 20
1570.774704538548
 30
0.0
 41
9.0
 42
9.0
 43
9.0
  0
MTEXT
  5
1BAE
330
1BA6
100
AcDbEntity
  8
DIM
  6
Continuous
 62
     0
100
AcDbMText
 10
580.483966418436
 20
1602.774704538548
 30
0.0
 40
24.0
 41
0.0
 46
0.0
 71
     5
 72
     1
  1
\A1;640
  7
ＭＳ ゴシック
 73
     1
 44
1.0
  0
POINT
  5
1BAF
330
1BA6
100
AcDbEntity
  8
Defpoints
 62
     0
100
AcDbPoint
 10
260.4840093206908
 20
1898.328082840233
 30
0.0
  0
POINT
  5
1BB0
330
1BA6
100
AcDbEntity
  8
Defpoints
 62
     0
100
AcDbPoint
 10
900.4839235161812
 20
1898.328082840233
 30
0.0
  0
POINT
  5
1BB1
330
1BA6
100
AcDbEntity
  8
Defpoints
 62
     0
100
AcDbPoint
 10
900.4839235161812
 20
1570.774704538548
 30
0.0
  0
ENDBLK
  5
1BA8
330
1BA6
100
AcDbEntity
  8
0
100
AcDbBlockEnd
  0
BLOCK
  5
1BB6
330
1BB5
100
AcDbEntity
  8
0
100
AcDbBlockBegin
  2
*D59
 70
     1
 10
0.0
 20
0.0
 30
0.0
  3
*D59
  1
*D59
  0
LINE
  5
1BB8
330
1BB5
100
AcDbEntity
  8
DIM
  6
Continuous
 62
     0
370
    -2
100
AcDbLine
 10
356.0994355598413
 20
2203.765740896703
 30
0.0
 11
156.2938337704395
 21
2203.765740896703
 31
0.0
  0
LINE
  5
1BB9
330
1BB5
100
AcDbEntity
  8
DIM
  6
Continuous
 62
     0
370
    -2
100
AcDbLine
 10
356.0994355598413
 20
1843.765939618288
 30
0.0
 11
156.2938337704395
 21
1843.765939618288
 31
0.0
  0
LINE
  5
1BBA
330
1BB5
100
AcDbEntity
  8
DIM
  6
Continuous
 62
     0
370
    -2
100
AcDbLine
 10
156.2938337704395
 20
2194.765740896703
 30
0.0
 11
156.2938337704395
 21
1852.765939618288
 31
0.0
  0
INSERT
  5
1BBB
330
1BB5
100
AcDbEntity
  8
DIM
 62
     0
370
    -2
100
AcDbBlockReference
  2
_DOT
 10
156.2938337704395
 20
2203.765740896703
 30
0.0
 41
9.0
 42
9.0
 43
9.0
 50
90.0
  0
INSERT
  5
1BBC
330
1BB5
100
AcDbEntity
  8
DIM
 62
     0
370
    -2
100
AcDbBlockReference
  2
_DOT
 10
156.2938337704395
 20
1843.765939618288
 30
0.0
 41
9.0
 42
9.0
 43
9.0
 50
270.0
  0
MTEXT
  5
1BBD
330
1BB5
100
AcDbEntity
  8
DIM
  6
Continuous
 62
     0
100
AcDbMText
 10
124.2938337704395
 20
2023.765840257496
 30
0.0
 40
24.0
 41
0.0
 46
0.0
 71
     5
 72
     1
  1
\A1;360
  7
ＭＳ ゴシック
 11
7.894923644255944E-17
 21
1.0
 31
0.0
 73
     1
 44
1.0
  0
POINT
  5
1BBE
330
1BB5
100
AcDbEntity
  8
Defpoints
 62
     0
100
AcDbPoint
 10
366.0994355598413
 20
2203.765740896703
 30
0.0
  0
POINT
  5
1BBF
330
1BB5
100
AcDbEntity
  8
Defpoints
 62
     0
100
AcDbPoint
 10
366.0994355598413
 20
1843.765939618288
 30
0.0
  0
POINT
  5
1BC0
330
1BB5
100
AcDbEntity
  8
Defpoints
 62
     0
100
AcDbPoint
 10
156.2938337704395
 20
1843.765939618288
 30
0.0
  0
ENDBLK
  5
1BB7
330
1BB5
100
AcDbEntity
  8
0
100
AcDbBlockEnd
  0
BLOCK
  5
1BC5
330
1BC4
100
AcDbEntity
  8
0
100
AcDbBlockBegin
  2
*D60
 70
     1
 10
0.0
 20
0.0
 30
0.0
  3
*D60
  1
*D60
  0
LINE
  5
1BC7
330
1BC4
100
AcDbEntity
  8
DIM
  6
Continuous
 62
     0
370
    -2
100
AcDbLine
 10
686.2727993552548
 20
2233.765840249839
 30
0.0
 11
1048.042254682254
 21
2233.765840249839
 31
0.0
  0
LINE
  5
1BC8
330
1BC4
100
AcDbEntity
  8
DIM
  6
Continuous
 62
     0
370
    -2
100
AcDbLine
 10
686.2727993552548
 20
1813.765840265153
 30
0.0
 11
1048.042254682254
 21
1813.765840265153
 31
0.0
  0
LINE
  5
1BC9
330
1BC4
100
AcDbEntity
  8
DIM
  6
Continuous
 62
     0
370
    -2
100
AcDbLine
 10
1048.042254682254
 20
2224.765840249839
 30
0.0
 11
1048.042254682254
 21
1822.765840265153
 31
0.0
  0
INSERT
  5
1BCA
330
1BC4
100
AcDbEntity
  8
DIM
 62
     0
370
    -2
100
AcDbBlockReference
  2
_DOT
 10
1048.042254682254
 20
2233.765840249839
 30
0.0
 41
9.0
 42
9.0
 43
9.0
 50
90.0
  0
INSERT
  5
1BCB
330
1BC4
100
AcDbEntity
  8
DIM
 62
     0
370
    -2
100
AcDbBlockReference
  2
_DOT
 10
1048.042254682254
 20
1813.765840265153
 30
0.0
 41
9.0
 42
9.0
 43
9.0
 50
270.0
  0
MTEXT
  5
1BCC
330
1BC4
100
AcDbEntity
  8
DIM
  6
Continuous
 62
     0
100
AcDbMText
 10
1016.042254682254
 20
2023.765840257496
 30
0.0
 40
24.0
 41
0.0
 46
0.0
 71
     5
 72
     1
  1
\A1;420
  7
ＭＳ ゴシック
 11
0.0
 21
1.0
 31
0.0
 73
     1
 44
1.0
  0
POINT
  5
1BCD
330
1BC4
100
AcDbEntity
  8
Defpoints
 62
     0
100
AcDbPoint
 10
676.2727993552548
 20
2233.765840249839
 30
0.0
  0
POINT
  5
1BCE
330
1BC4
100
AcDbEntity
  8
Defpoints
 62
     0
100
AcDbPoint
 10
676.2727993552548
 20
1813.765840265153
 30
0.0
  0
POINT
  5
1BCF
330
1BC4
100
AcDbEntity
  8
Defpoints
 62
     0
100
AcDbPoint
 10
1048.042254682254
 20
1813.765840265153
 30
0.0
  0
ENDBLK
  5
1BC6
330
1BC4
100
AcDbEntity
  8
0
100
AcDbBlockEnd
  0
BLOCK
  5
1CB8
330
1CB7
100
AcDbEntity
  8
0
100
AcDbBlockBegin
  2
*D61
 70
     1
 10
0.0
 20
0.0
 30
0.0
  3
*D61
  1
*D61
  0
LINE
  5
1CBA
330
1CB7
100
AcDbEntity
  8
DIM
  6
Continuous
 62
     0
370
    -2
100
AcDbLine
 10
1512.938950284033
 20
2023.765840249839
 30
0.0
 11
1456.320983925573
 21
2023.765840249839
 31
0.0
  0
LINE
  5
1CBB
330
1CB7
100
AcDbEntity
  8
DIM
  6
Continuous
 62
     0
370
    -2
100
AcDbLine
 10
1512.938950284033
 20
2133.765840249839
 30
0.0
 11
1456.320983925573
 21
2133.765840249839
 31
0.0
  0
LINE
  5
1CBC
330
1CB7
100
AcDbEntity
  8
DIM
  6
Continuous
 62
     0
370
    -2
100
AcDbLine
 10
1456.320983925573
 20
2032.765840249839
 30
0.0
 11
1456.320983925573
 21
2124.765840249839
 31
0.0
  0
INSERT
  5
1CBD
330
1CB7
100
AcDbEntity
  8
DIM
 62
     0
370
    -2
100
AcDbBlockReference
  2
_DOT
 10
1456.320983925573
 20
2023.765840249839
 30
0.0
 41
9.0
 42
9.0
 43
9.0
 50
270.0
  0
INSERT
  5
1CBE
330
1CB7
100
AcDbEntity
  8
DIM
 62
     0
370
    -2
100
AcDbBlockReference
  2
_DOT
 10
1456.320983925573
 20
2133.765840249839
 30
0.0
 41
9.0
 42
9.0
 43
9.0
 50
90.0
  0
MTEXT
  5
1CBF
330
1CB7
100
AcDbEntity
  8
DIM
  6
Continuous
 62
     0
100
AcDbMText
 10
1424.320983925573
 20
2078.765840249839
 30
0.0
 40
24.0
 41
0.0
 46
0.0
 71
     5
 72
     1
  1
\A1;110
  7
ＭＳ ゴシック
 11
0.0
 21
1.0
 31
0.0
 73
     1
 44
1.0
  0
POINT
  5
1CC0
330
1CB7
100
AcDbEntity
  8
Defpoints
 62
     0
100
AcDbPoint
 10
1522.938950284033
 20
2023.765840249839
 30
0.0
  0
POINT
  5
1CC1
330
1CB7
100
AcDbEntity
  8
Defpoints
 62
     0
100
AcDbPoint
 10
1522.938950284033
 20
2133.765840249839
 30
0.0
  0
POINT
  5
1CC2
330
1CB7
100
AcDbEntity
  8
Defpoints
 62
     0
100
AcDbPoint
 10
1456.320983925573
 20
2133.765840249839
 30
0.0
  0
ENDBLK
  5
1CB9
330
1CB7
100
AcDbEntity
  8
0
100
AcDbBlockEnd
  0
BLOCK
  5
1CC4
330
1CC3
100
AcDbEntity
  8
0
100
AcDbBlockBegin
  2
*D62
 70
     1
 10
0.0
 20
0.0
 30
0.0
  3
*D62
  1
*D62
  0
LINE
  5
1CC6
330
1CC3
100
AcDbEntity
  8
DIM
  6
Continuous
 62
     0
370
    -2
100
AcDbLine
 10
1632.938950284033
 20
1973.765840249839
 30
0.0
 11
1691.919730075093
 21
1973.765840249839
 31
0.0
  0
LINE
  5
1CC7
330
1CC3
100
AcDbEntity
  8
DIM
  6
Continuous
 62
     0
370
    -2
100
AcDbLine
 10
1632.938950284033
 20
2133.765840249839
 30
0.0
 11
1691.919730075093
 21
2133.765840249839
 31
0.0
  0
LINE
  5
1CC8
330
1CC3
100
AcDbEntity
  8
DIM
  6
Continuous
 62
     0
370
    -2
100
AcDbLine
 10
1691.919730075093
 20
1982.765840249839
 30
0.0
 11
1691.919730075093
 21
2124.765840249839
 31
0.0
  0
INSERT
  5
1CC9
330
1CC3
100
AcDbEntity
  8
DIM
 62
     0
370
    -2
100
AcDbBlockReference
  2
_DOT
 10
1691.919730075093
 20
1973.765840249839
 30
0.0
 41
9.0
 42
9.0
 43
9.0
 50
270.0
  0
INSERT
  5
1CCA
330
1CC3
100
AcDbEntity
  8
DIM
 62
     0
370
    -2
100
AcDbBlockReference
  2
_DOT
 10
1691.919730075093
 20
2133.765840249839
 30
0.0
 41
9.0
 42
9.0
 43
9.0
 50
90.0
  0
MTEXT
  5
1CCB
330
1CC3
100
AcDbEntity
  8
DIM
  6
Continuous
 62
     0
100
AcDbMText
 10
1659.919730075093
 20
2053.765840249839
 30
0.0
 40
24.0
 41
0.0
 46
0.0
 71
     5
 72
     1
  1
\A1;160
  7
ＭＳ ゴシック
 11
0.0
 21
1.0
 31
0.0
 73
     1
 44
1.0
  0
POINT
  5
1CCC
330
1CC3
100
AcDbEntity
  8
Defpoints
 62
     0
100
AcDbPoint
 10
1622.938950284033
 20
1973.765840249839
 30
0.0
  0
POINT
  5
1CCD
330
1CC3
100
AcDbEntity
  8
Defpoints
 62
     0
100
AcDbPoint
 10
1622.938950284033
 20
2133.765840249839
 30
0.0
  0
POINT
  5
1CCE
330
1CC3
100
AcDbEntity
  8
Defpoints
 62
     0
100
AcDbPoint
 10
1691.919730075093
 20
2133.765840249839
 30
0.0
  0
ENDBLK
  5
1CC5
330
1CC3
100
AcDbEntity
  8
0
100
AcDbBlockEnd
  0
BLOCK
  5
1CD0
330
1CCF
100
AcDbEntity
  8
0
100
AcDbBlockBegin
  2
*D63
 70
     1
 10
0.0
 20
0.0
 30
0.0
  3
*D63
  1
*D63
  0
LINE
  5
1CD2
330
1CCF
100
AcDbEntity
  8
DIM
  6
Continuous
 62
     0
370
    -2
100
AcDbLine
 10
1512.938950284033
 20
2023.765840249839
 30
0.0
 11
1185.923848957118
 21
2023.765840249839
 31
0.0
  0
LINE
  5
1CD3
330
1CCF
100
AcDbEntity
  8
DIM
  6
Continuous
 62
     0
370
    -2
100
AcDbLine
 10
1562.938950529451
 20
2233.765840249839
 30
0.0
 11
1185.923848957118
 21
2233.765840249839
 31
0.0
  0
LINE
  5
1CD4
330
1CCF
100
AcDbEntity
  8
DIM
  6
Continuous
 62
     0
370
    -2
100
AcDbLine
 10
1185.923848957118
 20
2032.765840249839
 30
0.0
 11
1185.923848957118
 21
2224.765840249839
 31
0.0
  0
INSERT
  5
1CD5
330
1CCF
100
AcDbEntity
  8
DIM
 62
     0
370
    -2
100
AcDbBlockReference
  2
_DOT
 10
1185.923848957118
 20
2023.765840249839
 30
0.0
 41
9.0
 42
9.0
 43
9.0
 50
270.0
  0
INSERT
  5
1CD6
330
1CCF
100
AcDbEntity
  8
DIM
 62
     0
370
    -2
100
AcDbBlockReference
  2
_DOT
 10
1185.923848957118
 20
2233.765840249839
 30
0.0
 41
9.0
 42
9.0
 43
9.0
 50
90.0
  0
MTEXT
  5
1CD7
330
1CCF
100
AcDbEntity
  8
DIM
  6
Continuous
 62
     0
100
AcDbMText
 10
1153.923848957118
 20
2128.765840249839
 30
0.0
 40
24.0
 41
0.0
 46
0.0
 71
     5
 72
     1
  1
\A1;210
  7
ＭＳ ゴシック
 11
0.0
 21
1.0
 31
0.0
 73
     1
 44
1.0
  0
POINT
  5
1CD8
330
1CCF
100
AcDbEntity
  8
Defpoints
 62
     0
100
AcDbPoint
 10
1522.938950284033
 20
2023.765840249839
 30
0.0
  0
POINT
  5
1CD9
330
1CCF
100
AcDbEntity
  8
Defpoints
 62
     0
100
AcDbPoint
 10
1572.938950529451
 20
2233.765840249839
 30
0.0
  0
POINT
  5
1CDA
330
1CCF
100
AcDbEntity
  8
Defpoints
 62
     0
100
AcDbPoint
 10
1185.923848957118
 20
2233.765840249839
 30
0.0
  0
ENDBLK
  5
1CD1
330
1CCF
100
AcDbEntity
  8
0
100
AcDbBlockEnd
  0
BLOCK
  5
1CDC
330
1CDB
100
AcDbEntity
  8
0
100
AcDbBlockBegin
  2
*D64
 70
     1
 10
0.0
 20
0.0
 30
0.0
  3
*D64
  1
*D64
  0
LINE
  5
1CDE
330
1CDB
100
AcDbEntity
  8
DIM
  6
Continuous
 62
     0
370
    -2
100
AcDbLine
 10
1522.938950284033
 20
1963.765840249839
 30
0.0
 11
1522.938950284033
 21
1907.693189540014
 31
0.0
  0
LINE
  5
1CDF
330
1CDB
100
AcDbEntity
  8
DIM
  6
Continuous
 62
     0
370
    -2
100
AcDbLine
 10
1622.938950284033
 20
1963.765840249839
 30
0.0
 11
1622.938950284033
 21
1907.693189540014
 31
0.0
  0
LINE
  5
1CE0
330
1CDB
100
AcDbEntity
  8
DIM
  6
Continuous
 62
     0
370
    -2
100
AcDbLine
 10
1531.938950284033
 20
1907.693189540014
 30
0.0
 11
1613.938950284033
 21
1907.693189540014
 31
0.0
  0
INSERT
  5
1CE1
330
1CDB
100
AcDbEntity
  8
DIM
 62
     0
370
    -2
100
AcDbBlockReference
  2
_DOT
 10
1522.938950284033
 20
1907.693189540014
 30
0.0
 41
9.0
 42
9.0
 43
9.0
 50
180.0
  0
INSERT
  5
1CE2
330
1CDB
100
AcDbEntity
  8
DIM
 62
     0
370
    -2
100
AcDbBlockReference
  2
_DOT
 10
1622.938950284033
 20
1907.693189540014
 30
0.0
 41
9.0
 42
9.0
 43
9.0
  0
MTEXT
  5
1CE3
330
1CDB
100
AcDbEntity
  8
DIM
  6
Continuous
 62
     0
100
AcDbMText
 10
1572.938950284033
 20
1939.693189540014
 30
0.0
 40
24.0
 41
0.0
 46
0.0
 71
     5
 72
     1
  1
\A1;100
  7
ＭＳ ゴシック
 73
     1
 44
1.0
  0
POINT
  5
1CE4
330
1CDB
100
AcDbEntity
  8
Defpoints
 62
     0
100
AcDbPoint
 10
1522.938950284033
 20
1973.765840249839
 30
0.0
  0
POINT
  5
1CE5
330
1CDB
100
AcDbEntity
  8
Defpoints
 62
     0
100
AcDbPoint
 10
1622.938950284033
 20
1973.765840249839
 30
0.0
  0
POINT
  5
1CE6
330
1CDB
100
AcDbEntity
  8
Defpoints
 62
     0
100
AcDbPoint
 10
1622.938950284033
 20
1907.693189540014
 30
0.0
  0
ENDBLK
  5
1CDD
330
1CDB
100
AcDbEntity
  8
0
100
AcDbBlockEnd
  0
BLOCK
  5
1CE8
330
1CE7
100
AcDbEntity
  8
0
100
AcDbBlockBegin
  2
*D65
 70
     1
 10
0.0
 20
0.0
 30
0.0
  3
*D65
  1
*D65
  0
LINE
  5
1CEA
330
1CE7
100
AcDbEntity
  8
DIM
  6
Continuous
 62
     0
370
    -2
100
AcDbLine
 10
1512.938950284033
 20
2023.765840249839
 30
0.0
 11
1456.320983925573
 21
2023.765840249839
 31
0.0
  0
LINE
  5
1CEB
330
1CE7
100
AcDbEntity
  8
DIM
  6
Continuous
 62
     0
370
    -2
100
AcDbLine
 10
1512.938950284033
 20
1973.765840249839
 30
0.0
 11
1456.320983925573
 21
1973.765840249839
 31
0.0
  0
LINE
  5
1CEC
330
1CE7
100
AcDbEntity
  8
DIM
  6
Continuous
 62
     0
370
    -2
100
AcDbLine
 10
1456.320983925573
 20
2014.765840249839
 30
0.0
 11
1456.320983925573
 21
1982.765840249839
 31
0.0
  0
INSERT
  5
1CED
330
1CE7
100
AcDbEntity
  8
DIM
 62
     0
370
    -2
100
AcDbBlockReference
  2
_DOT
 10
1456.320983925573
 20
2023.765840249839
 30
0.0
 41
9.0
 42
9.0
 43
9.0
 50
90.0
  0
INSERT
  5
1CEE
330
1CE7
100
AcDbEntity
  8
DIM
 62
     0
370
    -2
100
AcDbBlockReference
  2
_DOT
 10
1456.320983925573
 20
1973.765840249839
 30
0.0
 41
9.0
 42
9.0
 43
9.0
 50
270.0
  0
MTEXT
  5
1CEF
330
1CE7
100
AcDbEntity
  8
DIM
  6
Continuous
 62
     0
100
AcDbMText
 10
1424.320983925573
 20
1998.765840249839
 30
0.0
 40
24.0
 41
0.0
 46
0.0
 71
     5
 72
     1
  1
\A1;50
  7
ＭＳ ゴシック
 11
0.0
 21
1.0
 31
0.0
 73
     1
 44
1.0
  0
POINT
  5
1CF0
330
1CE7
100
AcDbEntity
  8
Defpoints
 62
     0
100
AcDbPoint
 10
1522.938950284033
 20
2023.765840249839
 30
0.0
  0
POINT
  5
1CF1
330
1CE7
100
AcDbEntity
  8
Defpoints
 62
     0
100
AcDbPoint
 10
1522.938950284033
 20
1973.765840249839
 30
0.0
  0
POINT
  5
1CF2
330
1CE7
100
AcDbEntity
  8
Defpoints
 62
     0
100
AcDbPoint
 10
1456.320983925573
 20
1973.765840249839
 30
0.0
  0
ENDBLK
  5
1CE9
330
1CE7
100
AcDbEntity
  8
0
100
AcDbBlockEnd
  0
BLOCK
  5
1D34
330
1D33
100
AcDbEntity
  8
0
100
AcDbBlockBegin
  2
*D67
 70
     1
 10
0.0
 20
0.0
 30
0.0
  3
*D67
  1
*D46
  0
LINE
  5
1D35
330
1D33
100
AcDbEntity
  8
DIM
  6
Continuous
 62
     0
370
    -2
100
AcDbLine
 10
158.2503741372529
 20
127.25
 30
0.0
 11
148.7021098545756
 21
127.25
 31
0.0
  0
LINE
  5
1D36
330
1D33
100
AcDbEntity
  8
DIM
  6
Continuous
 62
     0
370
    -2
100
AcDbLine
 10
158.2503741372529
 20
2.25
 30
0.0
 11
148.7021098545756
 21
2.25
 31
0.0
  0
LINE
  5
1D37
330
1D33
100
AcDbEntity
  8
DIM
  6
Continuous
 62
     0
370
    -2
100
AcDbLine
 10
148.7021098545756
 20
127.25
 30
0.0
 11
148.7021098545756
 21
321.2819999999999
 31
0.0
  0
LINE
  5
1D38
330
1D33
100
AcDbEntity
  8
DIM
  6
Continuous
 62
     0
370
    -2
100
AcDbLine
 10
148.7021098545756
 20
118.25
 30
0.0
 11
148.7021098545756
 21
11.25
 31
0.0
  0
INSERT
  5
1D39
330
1D33
100
AcDbEntity
  8
DIM
 62
     0
370
    -2
100
AcDbBlockReference
  2
_DOT
 10
148.7021098545756
 20
127.25
 30
0.0
 41
9.0
 42
9.0
 43
9.0
 50
90.0
  0
INSERT
  5
1D3A
330
1D33
100
AcDbEntity
  8
DIM
 62
     0
370
    -2
100
AcDbBlockReference
  2
_DOT
 10
148.7021098545756
 20
2.25
 30
0.0
 41
9.0
 42
9.0
 43
9.0
 50
270.0
  0
MTEXT
  5
1D3B
330
1D33
100
AcDbEntity
  8
DIM
  6
Continuous
 62
     0
100
AcDbMText
 10
114.5781098545756
 20
236.2659999999998
 30
0.0
 40
24.0
 41
0.0
 46
0.0
 71
     5
 72
     1
  1
\A1;125(深さ)
  7
ＭＳ ゴシック
 11
0.0
 21
1.0
 31
0.0
 73
     1
 44
1.0
  0
POINT
  5
1D3C
330
1D33
100
AcDbEntity
  8
Defpoints
 62
     0
100
AcDbPoint
 10
148.2503741372529
 20
127.25
 30
0.0
  0
POINT
  5
1D3D
330
1D33
100
AcDbEntity
  8
Defpoints
 62
     0
100
AcDbPoint
 10
148.2503741372529
 20
2.25
 30
0.0
  0
POINT
  5
1D3E
330
1D33
100
AcDbEntity
  8
Defpoints
 62
     0
100
AcDbPoint
 10
148.7021098545756
 20
2.25
 30
0.0
  0
ENDBLK
  5
1D3F
330
1D33
100
AcDbEntity
  8
0
100
AcDbBlockEnd
  0
BLOCK
  5
1D46
330
1D45
100
AcDbEntity
  8
0
100
AcDbBlockBegin
  2
*D68
 70
     1
 10
0.0
 20
0.0
 30
0.0
  3
*D68
  1
*D68
  0
LINE
  5
1D48
330
1D45
100
AcDbEntity
  8
DIM
  6
Continuous
 62
     0
370
    -2
100
AcDbLine
 10
1503.070973750093
 20
1163.099144101106
 30
0.0
 11
1513.070973750093
 21
1163.099144101106
 31
0.0
  0
LINE
  5
1D49
330
1D45
100
AcDbEntity
  8
DIM
  6
Continuous
 62
     0
370
    -2
100
AcDbLine
 10
1522.619194563035
 20
1038.370471710666
 30
0.0
 11
1513.070973750093
 21
1038.370471710666
 31
0.0
  0
LINE
  5
1D4A
330
1D45
100
AcDbEntity
  8
DIM
  6
Continuous
 62
     0
370
    -2
100
AcDbLine
 10
1513.070973750093
 20
1163.099144101106
 30
0.0
 11
1513.070973750093
 21
1357.131144101106
 31
0.0
  0
LINE
  5
1D4B
330
1D45
100
AcDbEntity
  8
DIM
  6
Continuous
 62
     0
370
    -2
100
AcDbLine
 10
1513.070973750093
 20
1154.099144101106
 30
0.0
 11
1513.070973750093
 21
1047.370471710666
 31
0.0
  0
INSERT
  5
1D4C
330
1D45
100
AcDbEntity
  8
DIM
 62
     0
370
    -2
100
AcDbBlockReference
  2
_DOT
 10
1513.070973750093
 20
1163.099144101106
 30
0.0
 41
9.0
 42
9.0
 43
9.0
 50
90.0
  0
INSERT
  5
1D4D
330
1D45
100
AcDbEntity
  8
DIM
 62
     0
370
    -2
100
AcDbBlockReference
  2
_DOT
 10
1513.070973750093
 20
1038.370471710666
 30
0.0
 41
9.0
 42
9.0
 43
9.0
 50
270.0
  0
MTEXT
  5
1D4E
330
1D45
100
AcDbEntity
  8
DIM
  6
Continuous
 62
     0
100
AcDbMText
 10
1478.946973750093
 20
1272.115144101106
 30
0.0
 40
24.0
 41
0.0
 46
0.0
 71
     5
 72
     1
  1
\A1;125(深さ)
  7
ＭＳ ゴシック
 11
0.0
 21
1.0
 31
0.0
 73
     1
 44
1.0
  0
POINT
  5
1D4F
330
1D45
100
AcDbEntity
  8
Defpoints
 62
     0
100
AcDbPoint
 10
1513.070973750093
 20
1163.099144101106
 30
0.0
  0
POINT
  5
1D50
330
1D45
100
AcDbEntity
  8
Defpoints
 62
     0
100
AcDbPoint
 10
1512.619194563035
 20
1038.370471710666
 30
0.0
  0
POINT
  5
1D51
330
1D45
100
AcDbEntity
  8
Defpoints
 62
     0
100
AcDbPoint
 10
1513.070973750093
 20
1038.370471710666
 30
0.0
  0
ENDBLK
  5
1D47
330
1D45
100
AcDbEntity
  8
0
100
AcDbBlockEnd
  0
BLOCK
  5
1D71
330
1D70
100
AcDbEntity
  8
0
100
AcDbBlockBegin
  2
*D69
 70
     1
 10
0.0
 20
0.0
 30
0.0
  3
*D69
  1
*D69
  0
LINE
  5
1D73
330
1D70
100
AcDbEntity
  8
DIM
  6
Continuous
 62
     0
370
    -2
100
AcDbLine
 10
1523.070929943946
 20
987.2700268086479
 30
0.0
 11
1862.863482361067
 21
987.2700268086479
 31
0.0
  0
LINE
  5
1D74
330
1D70
100
AcDbEntity
  8
DIM
  6
Continuous
 62
     0
370
    -2
100
AcDbLine
 10
1727.054337848755
 20
1163.099135434895
 30
0.0
 11
1862.863482361067
 21
1163.099135434895
 31
0.0
  0
LINE
  5
1D75
330
1D70
100
AcDbEntity
  8
DIM
  6
Continuous
 62
     0
370
    -2
100
AcDbLine
 10
1862.863482361067
 20
996.2700268086479
 30
0.0
 11
1862.863482361067
 21
1154.099135434895
 31
0.0
  0
INSERT
  5
1D76
330
1D70
100
AcDbEntity
  8
DIM
 62
     0
370
    -2
100
AcDbBlockReference
  2
_DOT
 10
1862.863482361067
 20
987.2700268086479
 30
0.0
 41
9.0
 42
9.0
 43
9.0
 50
270.0
  0
INSERT
  5
1D77
330
1D70
100
AcDbEntity
  8
DIM
 62
     0
370
    -2
100
AcDbBlockReference
  2
_DOT
 10
1862.863482361067
 20
1163.099135434895
 30
0.0
 41
9.0
 42
9.0
 43
9.0
 50
90.0
  0
MTEXT
  5
1D78
330
1D70
100
AcDbEntity
  8
DIM
  6
Continuous
 62
     0
100
AcDbMText
 10
1830.863482361067
 20
1075.184581121771
 30
0.0
 40
24.0
 41
0.0
 46
0.0
 71
     5
 72
     1
  1
\A1;176
  7
ＭＳ ゴシック
 11
0.0
 21
1.0
 31
0.0
 73
     1
 44
1.0
  0
POINT
  5
1D79
330
1D70
100
AcDbEntity
  8
Defpoints
 62
     0
100
AcDbPoint
 10
1513.070929943946
 20
987.2700268086479
 30
0.0
  0
POINT
  5
1D7A
330
1D70
100
AcDbEntity
  8
Defpoints
 62
     0
100
AcDbPoint
 10
1717.054337848755
 20
1163.099135434895
 30
0.0
  0
POINT
  5
1D7B
330
1D70
100
AcDbEntity
  8
Defpoints
 62
     0
100
AcDbPoint
 10
1862.863482361067
 20
1163.099135434895
 30
0.0
  0
ENDBLK
  5
1D72
330
1D70
100
AcDbEntity
  8
0
100
AcDbBlockEnd
  0
BLOCK
  5
1D7E
330
1D7D
100
AcDbEntity
  8
0
100
AcDbBlockBegin
  2
*D70
 70
     1
 10
0.0
 20
0.0
 30
0.0
  3
*D70
  1
*D70
  0
LINE
  5
1D80
330
1D7D
100
AcDbEntity
  8
DIM
  6
Continuous
 62
     0
370
    -2
100
AcDbLine
 10
676.0340361440346
 20
987.2700268086479
 30
0.0
 11
1000.875210277883
 21
987.2700268086479
 31
0.0
  0
LINE
  5
1D81
330
1D7D
100
AcDbEntity
  8
DIM
  6
Continuous
 62
     0
370
    -2
100
AcDbLine
 10
952.6723523578502
 20
1162.270026808648
 30
0.0
 11
1000.875210277883
 21
1162.270026808648
 31
0.0
  0
LINE
  5
1D82
330
1D7D
100
AcDbEntity
  8
DIM
  6
Continuous
 62
     0
370
    -2
100
AcDbLine
 10
1000.875210277883
 20
996.2700268086479
 30
0.0
 11
1000.875210277883
 21
1153.270026808648
 31
0.0
  0
INSERT
  5
1D83
330
1D7D
100
AcDbEntity
  8
DIM
 62
     0
370
    -2
100
AcDbBlockReference
  2
_DOT
 10
1000.875210277883
 20
987.2700268086479
 30
0.0
 41
9.0
 42
9.0
 43
9.0
 50
270.0
  0
INSERT
  5
1D84
330
1D7D
100
AcDbEntity
  8
DIM
 62
     0
370
    -2
100
AcDbBlockReference
  2
_DOT
 10
1000.875210277883
 20
1162.270026808648
 30
0.0
 41
9.0
 42
9.0
 43
9.0
 50
90.0
  0
MTEXT
  5
1D85
330
1D7D
100
AcDbEntity
  8
DIM
  6
Continuous
 62
     0
100
AcDbMText
 10
968.8752102778834
 20
1074.770026808648
 30
0.0
 40
24.0
 41
0.0
 46
0.0
 71
     5
 72
     1
  1
\A1;175
  7
ＭＳ ゴシック
 11
0.0
 21
1.0
 31
0.0
 73
     1
 44
1.0
  0
POINT
  5
1D86
330
1D7D
100
AcDbEntity
  8
Defpoints
 62
     0
100
AcDbPoint
 10
666.0340361440346
 20
987.2700268086479
 30
0.0
  0
POINT
  5
1D87
330
1D7D
100
AcDbEntity
  8
Defpoints
 62
     0
100
AcDbPoint
 10
942.6723523578502
 20
1162.270026808648
 30
0.0
  0
POINT
  5
1D88
330
1D7D
100
AcDbEntity
  8
Defpoints
 62
     0
100
AcDbPoint
 10
1000.875210277883
 20
1162.270026808648
 30
0.0
  0
ENDBLK
  5
1D7F
330
1D7D
100
AcDbEntity
  8
0
100
AcDbBlockEnd
  0
BLOCK
  5
1D91
330
1D90
100
AcDbEntity
  8
0
100
AcDbBlockBegin
  2
*D71
 70
     1
 10
0.0
 20
0.0
 30
0.0
  3
*D71
  1
*D71
  0
LINE
  5
1D93
330
1D90
100
AcDbEntity
  8
DIM
  6
Continuous
 62
     0
370
    -2
100
AcDbLine
 10
304.2578506804962
 20
972.4232042846295
 30
0.0
 11
304.2578506804962
 21
880.8748476880849
 31
0.0
  0
LINE
  5
1D94
330
1D90
100
AcDbEntity
  8
DIM
  6
Continuous
 62
     0
370
    -2
100
AcDbLine
 10
864.2578506804962
 20
972.4232042846295
 30
0.0
 11
864.2578506804962
 21
880.8748476880849
 31
0.0
  0
LINE
  5
1D95
330
1D90
100
AcDbEntity
  8
DIM
  6
Continuous
 62
     0
370
    -2
100
AcDbLine
 10
313.2578506804962
 20
880.8748476880849
 30
0.0
 11
855.2578506804962
 21
880.8748476880849
 31
0.0
  0
INSERT
  5
1D96
330
1D90
100
AcDbEntity
  8
DIM
 62
     0
370
    -2
100
AcDbBlockReference
  2
_DOT
 10
304.2578506804962
 20
880.8748476880849
 30
0.0
 41
9.0
 42
9.0
 43
9.0
 50
180.0
  0
INSERT
  5
1D97
330
1D90
100
AcDbEntity
  8
DIM
 62
     0
370
    -2
100
AcDbBlockReference
  2
_DOT
 10
864.2578506804962
 20
880.8748476880849
 30
0.0
 41
9.0
 42
9.0
 43
9.0
  0
MTEXT
  5
1D98
330
1D90
100
AcDbEntity
  8
DIM
  6
Continuous
 62
     0
100
AcDbMText
 10
584.2578506804962
 20
912.8748476880849
 30
0.0
 40
24.0
 41
0.0
 46
0.0
 71
     5
 72
     1
  1
\A1;560
  7
ＭＳ ゴシック
 73
     1
 44
1.0
  0
POINT
  5
1D99
330
1D90
100
AcDbEntity
  8
Defpoints
 62
     0
100
AcDbPoint
 10
304.2578506804962
 20
982.4232042846295
 30
0.0
  0
POINT
  5
1D9A
330
1D90
100
AcDbEntity
  8
Defpoints
 62
     0
100
AcDbPoint
 10
864.2578506804962
 20
982.4232042846295
 30
0.0
  0
POINT
  5
1D9B
330
1D90
100
AcDbEntity
  8
Defpoints
 62
     0
100
AcDbPoint
 10
864.2578506804962
 20
880.8748476880849
 30
0.0
  0
ENDBLK
  5
1D92
330
1D90
100
AcDbEntity
  8
0
100
AcDbBlockEnd
  0
BLOCK
  5
1DA4
330
1DA3
100
AcDbEntity
  8
0
100
AcDbBlockBegin
  2
*D72
 70
     1
 10
0.0
 20
0.0
 30
0.0
  3
*D72
  1
*D72
  0
LINE
  5
1DA6
330
1DA3
100
AcDbEntity
  8
DIM
  6
Continuous
 62
     0
370
    -2
100
AcDbLine
 10
1513.070929943946
 20
947.0669005943358
 30
0.0
 11
1513.070929943946
 21
880.8748476880849
 31
0.0
  0
LINE
  5
1DA7
330
1DA3
100
AcDbEntity
  8
DIM
  6
Continuous
 62
     0
370
    -2
100
AcDbLine
 10
1722.788598947273
 20
1095.324581836611
 30
0.0
 11
1722.788598947273
 21
880.8748476880849
 31
0.0
  0
LINE
  5
1DA8
330
1DA3
100
AcDbEntity
  8
DIM
  6
Continuous
 62
     0
370
    -2
100
AcDbLine
 10
1522.070929943946
 20
880.8748476880849
 30
0.0
 11
1713.788598947273
 21
880.8748476880849
 31
0.0
  0
INSERT
  5
1DA9
330
1DA3
100
AcDbEntity
  8
DIM
 62
     0
370
    -2
100
AcDbBlockReference
  2
_DOT
 10
1513.070929943946
 20
880.8748476880849
 30
0.0
 41
9.0
 42
9.0
 43
9.0
 50
180.0
  0
INSERT
  5
1DAA
330
1DA3
100
AcDbEntity
  8
DIM
 62
     0
370
    -2
100
AcDbBlockReference
  2
_DOT
 10
1722.788598947273
 20
880.8748476880849
 30
0.0
 41
9.0
 42
9.0
 43
9.0
  0
MTEXT
  5
1DAB
330
1DA3
100
AcDbEntity
  8
DIM
  6
Continuous
 62
     0
100
AcDbMText
 10
1617.92976444561
 20
912.8748476880849
 30
0.0
 40
24.0
 41
0.0
 46
0.0
 71
     5
 72
     1
  1
\A1;210
  7
ＭＳ ゴシック
 73
     1
 44
1.0
  0
POINT
  5
1DAC
330
1DA3
100
AcDbEntity
  8
Defpoints
 62
     0
100
AcDbPoint
 10
1513.070929943946
 20
957.0669005943358
 30
0.0
  0
POINT
  5
1DAD
330
1DA3
100
AcDbEntity
  8
Defpoints
 62
     0
100
AcDbPoint
 10
1722.788598947273
 20
1105.324581836611
 30
0.0
  0
POINT
  5
1DAE
330
1DA3
100
AcDbEntity
  8
Defpoints
 62
     0
100
AcDbPoint
 10
1722.788598947273
 20
880.8748476880849
 30
0.0
  0
ENDBLK
  5
1DA5
330
1DA3
100
AcDbEntity
  8
0
100
AcDbBlockEnd
  0
BLOCK
  5
1DBA
330
1DB9
100
AcDbEntity
  8
0
100
AcDbBlockBegin
  2
*D73
 70
     1
 10
0.0
 20
0.0
 30
0.0
  3
*D73
  1
*D73
  0
LINE
  5
1DBC
330
1DB9
100
AcDbEntity
  8
DIM
  6
Continuous
 62
     0
370
    -2
100
AcDbLine
 10
1331.157152314058
 20
1013.099155934986
 30
0.0
 11
1228.959912600728
 21
1013.099155934986
 31
0.0
  0
LINE
  5
1DBD
330
1DB9
100
AcDbEntity
  8
DIM
  6
Continuous
 62
     0
370
    -2
100
AcDbLine
 10
1271.865857170712
 20
1163.099165063431
 30
0.0
 11
1228.959912600728
 21
1163.099165063431
 31
0.0
  0
LINE
  5
1DBE
330
1DB9
100
AcDbEntity
  8
DIM
  6
Continuous
 62
     0
370
    -2
100
AcDbLine
 10
1228.959912600728
 20
1022.099155934986
 30
0.0
 11
1228.959912600728
 21
1154.099165063431
 31
0.0
  0
INSERT
  5
1DBF
330
1DB9
100
AcDbEntity
  8
DIM
 62
     0
370
    -2
100
AcDbBlockReference
  2
_DOT
 10
1228.959912600728
 20
1013.099155934986
 30
0.0
 41
9.0
 42
9.0
 43
9.0
 50
270.0
  0
INSERT
  5
1DC0
330
1DB9
100
AcDbEntity
  8
DIM
 62
     0
370
    -2
100
AcDbBlockReference
  2
_DOT
 10
1228.959912600728
 20
1163.099165063431
 30
0.0
 41
9.0
 42
9.0
 43
9.0
 50
90.0
  0
MTEXT
  5
1DC1
330
1DB9
100
AcDbEntity
  8
DIM
  6
Continuous
 62
     0
100
AcDbMText
 10
1196.959912600728
 20
1088.099160499208
 30
0.0
 40
24.0
 41
0.0
 46
0.0
 71
     5
 72
     1
  1
\A1;150
  7
ＭＳ ゴシック
 11
0.0
 21
1.0
 31
0.0
 73
     1
 44
1.0
  0
POINT
  5
1DC2
330
1DB9
100
AcDbEntity
  8
Defpoints
 62
     0
100
AcDbPoint
 10
1341.157152314058
 20
1013.099155934986
 30
0.0
  0
POINT
  5
1DC3
330
1DB9
100
AcDbEntity
  8
Defpoints
 62
     0
100
AcDbPoint
 10
1281.865857170712
 20
1163.099165063431
 30
0.0
  0
POINT
  5
1DC4
330
1DB9
100
AcDbEntity
  8
Defpoints
 62
     0
100
AcDbPoint
 10
1228.959912600728
 20
1163.099165063431
 30
0.0
  0
ENDBLK
  5
1DBB
330
1DB9
100
AcDbEntity
  8
0
100
AcDbBlockEnd
  0
ENDSEC
  0
SECTION
  2
ENTITIES
  0
MTEXT
  5
177
330
A
100
AcDbEntity
  8
TEMPLATE
390
1D
100
AcDbMText
 10
79.20214454773075
 20
343.7317516314282
 30
0.0
 40
16.28841145833333
 41
0.0
 46
0.0
 71
     1
 72
     1
  1
品名
  7
ＭＳ ゴシック
 73
     1
 44
0.7828267384257843
  0
MTEXT
  5
178
330
A
100
AcDbEntity
  8
TEMPLATE
390
1D
100
AcDbMText
 10
79.20214454773075
 20
258.731751631428
 30
0.0
 40
16.28841145833333
 41
0.0
 46
0.0
 71
     1
 72
     1
  1
仕様
  7
ＭＳ ゴシック
 73
     1
 44
0.7828267384257843
  0
LINE
  5
179
330
A
100
AcDbEntity
  8
TEMPLATE
390
1D
100
AcDbLine
 10
2022.202144547248
 20
267.1466735064284
 30
0.0
 11
72.20214454724874
 21
267.1466735064284
 31
0.0
  0
LWPOLYLINE
  5
17A
330
A
100
AcDbEntity
  8
TEMPLATE
390
1D
100
AcDbPolyline
 90
        5
 70
   128
 43
0.0
 10
2022.202144547248
 20
2897.146673506426
 10
72.20214454724874
 20
2897.146673506426
 10
72.20214454724874
 20
97.14667350642826
 10
2022.202144547248
 20
97.14667350642826
 10
2022.202144547248
 20
2897.146673506426
  0
LINE
  5
17B
330
A
100
AcDbEntity
  8
TEMPLATE
390
1D
100
AcDbLine
 10
2022.202144547248
 20
352.1466735064282
 30
0.0
 11
72.20214454724874
 21
352.1466735064282
 31
0.0
  0
LINE
  5
17C
330
A
100
AcDbEntity
  8
TEMPLATE
390
1D
100
AcDbLine
 10
2022.202144547732
 20
182.1466735064282
 30
0.0
 11
1269.20214454773
 21
182.1466735064282
 31
0.0
  0
MTEXT
  5
17D
330
A
100
AcDbEntity
  8
TEMPLATE
390
1D
100
AcDbMText
 10
72.2021445479345
 20
85.29285144957115
 30
0.0
 40
21.71788194444444
 41
0.0
 46
21.71788194444444
 71
     1
 72
     1
  1
{150518SO}
  7
ＭＳ ゴシック
 73
     1
 44
0.7828267384257843
1001
ACAD
1000
ACAD_MTEXT_DEFINED_HEIGHT_BEGIN
1070
    46
1040
21.71788194444444
1000
ACAD_MTEXT_DEFINED_HEIGHT_END
  0
MTEXT
  5
17E
330
A
100
AcDbEntity
  8
TEMPLATE
390
1D
100
AcDbMText
 10
1299.073550799991
 20
152.2362790331201
 30
0.0
 40
24.4326171875
 41
0.0
 46
0.0
 71
     1
 72
     1
  1
大洋金物株式会社 ティーフォルム事業部
  7
ＭＳ ゴシック
 73
     1
 44
0.7828267384257843
  0
MTEXT
  5
180
330
A
100
AcDbEntity
  8
TEMPLATE
390
1D
100
AcDbMText
 10
1831.20214454799
 20
230.1492906939282
 30
0.0
 40
24.4326171875
 41
0.0
 46
24.4326171875
 71
     1
 72
     1
  1
{1:10}
  7
ＭＳ ゴシック
 73
     1
 44
0.7828267384257843
1001
ACAD
1000
ACAD_MTEXT_DEFINED_HEIGHT_BEGIN
1070
    46
1040
24.4326171875
1000
ACAD_MTEXT_DEFINED_HEIGHT_END
  0
MTEXT
  5
181
330
A
100
AcDbEntity
  8
TEMPLATE
390
1D
100
AcDbMText
 10
1778.20214454799
 20
258.731751631428
 30
0.0
 40
16.28841145833333
 41
0.0
 46
0.0
 71
     1
 72
     1
  1
縮尺
  7
ＭＳ ゴシック
 73
     1
 44
0.7828267384257843
  0
LINE
  5
182
330
A
100
AcDbEntity
  8
TEMPLATE
390
1D
100
AcDbLine
 10
1771.20214454799
 20
182.1466735064282
 30
0.0
 11
1771.20214454799
 21
267.1466735064284
 31
0.0
  0
MTEXT
  5
183
330
A
100
AcDbEntity
  8
TEMPLATE
390
1D
100
AcDbMText
 10
1527.20214454799
 20
258.731751631428
 30
0.0
 40
16.28841145833333
 41
0.0
 46
0.0
 71
     1
 72
     1
  1
容量
  7
ＭＳ ゴシック
 73
     1
 44
0.7828267384257843
  0
LINE
  5
184
330
A
100
AcDbEntity
  8
TEMPLATE
390
1D
100
AcDbLine
 10
1520.20214454799
 20
182.1466735064282
 30
0.0
 11
1520.20214454799
 21
267.1466735064284
 31
0.0
  0
MTEXT
  5
185
330
A
100
AcDbEntity
  8
TEMPLATE
390
1D
100
AcDbMText
 10
1276.20214454799
 20
343.7317516314282
 30
0.0
 40
16.28841145833333
 41
0.0
 46
0.0
 71
     1
 72
     1
  1
品番
  7
ＭＳ ゴシック
 73
     1
 44
0.7828267384257843
  0
MTEXT
  5
186
330
A
100
AcDbEntity
  8
TEMPLATE
390
1D
100
AcDbMText
 10
1276.20214454799
 20
258.731751631428
 30
0.0
 40
16.28841145833333
 41
0.0
 46
0.0
 71
     1
 72
     1
  1
重量
  7
ＭＳ ゴシック
 73
     1
 44
0.7828267384257843
  0
MTEXT
  5
187
330
A
100
AcDbEntity
  8
TEMPLATE
390
1D
100
AcDbMText
 10
1329.20214454799
 20
315.1492906939282
 30
0.0
 40
24.4326171875
 41
0.0
 46
24.4326171875
 71
     1
 72
     1
  1
{ADF70-2104}
  7
ＭＳ ゴシック
 73
     1
 44
0.7828267384257843
1001
ACAD
1000
ACAD_MTEXT_DEFINED_HEIGHT_BEGIN
1070
    46
1040
24.4326171875
1000
ACAD_MTEXT_DEFINED_HEIGHT_END
  0
LINE
  5
188
330
A
100
AcDbEntity
  8
TEMPLATE
390
1D
100
AcDbLine
 10
1269.20214454799
 20
97.14667350642826
 30
0.0
 11
1269.20214454799
 21
352.1466735064282
 31
0.0
  0
MTEXT
  5
189
330
A
100
AcDbEntity
  8
TEMPLATE
390
1D
100
AcDbMText
 10
132.2021445477307
 20
315.1492906939282
 30
0.0
 40
24.4326171875
 41
0.0
 46
24.4326171875
 71
     1
 72
     1
  1
{洗面器　-CATALANO,Velis-}
  7
ＭＳ ゴシック
 73
     1
 44
0.7828267384257843
1001
ACAD
1000
ACAD_MTEXT_DEFINED_HEIGHT_BEGIN
1070
    46
1040
24.4326171875
1000
ACAD_MTEXT_DEFINED_HEIGHT_END
  0
INSERT
  5
6B5
330
A
100
AcDbEntity
  8
TEMPLATE
100
AcDbBlockReference
  2
名称未設定-1
 10
1870.75074808845
 20
25.94676575665382
 30
0.0
 41
0.7619999999999998
 42
0.7619999999999998
 43
0.7619999999999998
  0
MTEXT
  5
7D9
330
A
100
AcDbEntity
  8
TEMPLATE
390
1D
100
AcDbMText
 10
125.2543452760364
 20
226.8119760293952
 30
0.0
 40
24.4326171875
 41
0.0
 46
58.04484304797314
 71
     1
 72
     1
  1
{カウンター置き/オーバーフロー付き/\P陶器/ホワイト}
  7
ＭＳ ゴシック
 73
     1
 44
1.1
1001
ACAD
1000
ACAD_MTEXT_DEFINED_HEIGHT_BEGIN
1070
    46
1040
58.04484304797314
1000
ACAD_MTEXT_DEFINED_HEIGHT_END
  0
INSERT
  5
68C
330
A
100
AcDbEntity
  8
TEMPLATE
100
AcDbBlockReference
  2
block 2
 10
919.2743017702577
 20
8.373076514336368
 30
0.0
 41
0.3809999999999999
 42
0.3809999999999999
 43
0.3809999999999999
  0
MTEXT
  5
1680
330
A
100
AcDbEntity
  8
TEMPLATE
390
1D
100
AcDbMText
 10
1329.20214454799
 20
226.3922307078679
 30
0.0
 40
24.4326171875
 41
0.0
 46
24.4326171875
 71
     1
 72
     1
  1
{13.5kg}
  7
ＭＳ ゴシック
 73
     1
 44
0.7828267384257843
1001
ACAD
1000
ACAD_MTEXT_DEFINED_HEIGHT_BEGIN
1070
    46
1040
24.4326171875
1000
ACAD_MTEXT_DEFINED_HEIGHT_END
  0
MTEXT
  5
1681
330
A
100
AcDbEntity
  8
TEMPLATE
390
1D
100
AcDbMText
 10
1580.075137543694
 20
226.3922307078679
 30
0.0
 40
24.4326171875
 41
0.0
 46
24.4326171875
 71
     1
 72
     1
  1
{8L}
  7
ＭＳ ゴシック
 73
     1
 44
0.7828267384257843
1001
ACAD
1000
ACAD_MTEXT_DEFINED_HEIGHT_BEGIN
1070
    46
1040
24.4326171875
1000
ACAD_MTEXT_DEFINED_HEIGHT_END
  0
MTEXT
  5
16EE
330
A
100
AcDbEntity
  8
MODEL
390
1D
100
AcDbMText
 10
1132.734414598928
 20
1670.474820337784
 30
0.0
 40
24.4326171875
 41
0.0
 46
118.0991272786459
 71
     1
 72
     1
  1
{\fメイリオ|b0|i0|c0|p0;※\fＭＳ ゴシック|b0|i0|c0|p0;陶器製品には寸法公差があります。\P  洗面器の収め方をご確認の上、必ず現物を合わせて\P  カウンターに切込を行ってください。}
  7
ＭＳ ゴシック
 73
     1
 44
1.1
1001
ACAD
1000
ACAD_MTEXT_DEFINED_HEIGHT_BEGIN
1070
    46
1040
118.0991272786459
1000
ACAD_MTEXT_DEFINED_HEIGHT_END
  0
CIRCLE
  5
1992
330
A
100
AcDbEntity
  8
MODEL
100
AcDbCircle
 10
580.483966418436
 20
2023.765840257496
 30
0.0
 40
21.90000000000146
  0
SPLINE
  5
1993
330
A
100
AcDbEntity
  8
MODEL
100
AcDbSpline
210
0.0
220
0.0
230
1.0
 70
     8
 71
     3
 72
    31
 73
    27
 74
     0
 42
0.000000001
 43
0.0000000001
 40
0.0
 40
0.0
 40
0.0
 40
0.0
 40
17.20622303609974
 40
39.74124777123195
 40
65.56718878179062
 40
83.9488451111911
 40
101.5076771439692
 40
119.9170922850861
 40
137.5046880154095
 40
155.1082624905364
 40
173.5690313935199
 40
191.2108442769423
 40
209.7169191259669
 40
227.4085024108466
 40
245.1307381944814
 40
263.7361196511791
 40
281.375345133498
 40
296.4293276530935
 40
310.8405653104624
 40
325.9883741135029
 40
340.5019590885989
 40
355.0733981972704
 40
369.0053851434498
 40
382.1665584468071
 40
395.9888411969375
 40
409.199185432121
 40
409.199185432121
 40
409.199185432121
 40
409.199185432121
 10
580.483966418436
 20
1843.765939618288
 30
0.0
 10
586.1617825324533
 20
1843.765939618288
 30
0.0
 10
599.275970733022
 20
1843.963494481858
 30
0.0
 10
620.8888288425837
 20
1845.043066167718
 30
0.0
 10
642.8199975053972
 20
1847.083364036038
 30
0.0
 10
663.0158915352108
 20
1849.784211235827
 30
0.0
 10
680.691701669904
 20
1852.754717334023
 30
0.0
 10
697.9911456947552
 20
1856.282541957338
 30
0.0
 10
715.157753425719
 20
1860.43472172932
 30
0.0
 10
732.1654244527122
 20
1865.221401301077
 30
0.0
 10
748.9729823394769
 20
1870.687132000302
 30
0.0
 10
765.7941063171634
 20
1876.96562251375
 30
0.0
 10
782.0585065624869
 20
1883.905495944894
 30
0.0
 10
797.9561889220381
 20
1891.654068812573
 30
0.0
 10
813.4177422470052
 20
1900.248856654702
 30
0.0
 10
828.2820537832117
 20
1909.744166148709
 30
0.0
 10
841.725698951584
 20
1919.692079366609
 30
0.0
 10
853.3675542721717
 20
1929.63763400147
 30
0.0
 10
863.6717181661984
 20
1939.779937929091
 30
0.0
 10
872.996538638235
 20
1950.536637505334
 30
0.0
 10
881.3200468739847
 20
1962.079832695102
 30
0.0
 10
888.243894213239
 20
1973.997374578596
 30
0.0
 10
893.6495262008207
 20
1986.141530022057
 30
0.0
 10
897.577698781151
 20
1998.53861856076
 30
0.0
 10
899.9523535591611
 20
2011.05644600058
 30
0.0
 10
900.4839235161812
 20
2019.593851849015
 30
0.0
 10
900.4839235161812
 20
2023.765840257496
 30
0.0
  0
SPLINE
  5
1994
330
A
100
AcDbEntity
  8
MODEL
100
AcDbSpline
210
0.0
220
0.0
230
1.0
 70
     8
 71
     3
 72
    31
 73
    27
 74
     0
 42
0.000000001
 43
0.0000000001
 40
0.0
 40
0.0
 40
0.0
 40
0.0
 40
17.20622303609974
 40
39.74124777123195
 40
65.56718878179062
 40
83.9488451111911
 40
101.5076771439692
 40
119.9170922850861
 40
137.5046880154095
 40
155.1082624905364
 40
173.5690313935199
 40
191.2108442769423
 40
209.716919125967
 40
227.4085024108466
 40
245.1307381944815
 40
263.7361196511793
 40
281.3753451334979
 40
296.4293276530933
 40
310.8405653104621
 40
325.9883741135028
 40
340.5019590885987
 40
355.0733981972703
 40
369.0053851434496
 40
382.166558446807
 40
395.9888411969374
 40
409.1991854321209
 40
409.1991854321209
 40
409.1991854321209
 40
409.1991854321209
 10
580.483966418436
 20
1843.765939618288
 30
0.0
 10
574.8061503044187
 20
1843.765939618288
 30
0.0
 10
561.6919621038501
 20
1843.963494481858
 30
0.0
 10
540.0791039942883
 20
1845.043066167718
 30
0.0
 10
518.1479353314749
 20
1847.083364036038
 30
0.0
 10
497.9520413016685
 20
1849.784211235827
 30
0.0
 10
480.276231166968
 20
1852.754717334023
 30
0.0
 10
462.9767871421241
 20
1856.282541957338
 30
0.0
 10
445.8101794111531
 20
1860.43472172932
 30
0.0
 10
428.8025083841599
 20
1865.221401301077
 30
0.0
 10
411.9949504973952
 20
1870.687132000302
 30
0.0
 10
395.1738265197087
 20
1876.96562251375
 30
0.0
 10
378.9094262743924
 20
1883.905495944894
 30
0.0
 10
363.0117439148412
 20
1891.654068812573
 30
0.0
 10
347.5501905898741
 20
1900.248856654703
 30
0.0
 10
332.6858790536603
 20
1909.744166148709
 30
0.0
 10
319.242233885288
 20
1919.692079366609
 30
0.0
 10
307.6003785647003
 20
1929.63763400147
 30
0.0
 10
297.2962146706736
 20
1939.779937929091
 30
0.0
 10
287.971394198637
 20
1950.536637505334
 30
0.0
 10
279.6478859628946
 20
1962.079832695102
 30
0.0
 10
272.7240386236331
 20
1973.997374578596
 30
0.0
 10
267.3184066360513
 20
1986.141530022057
 30
0.0
 10
263.3902340557211
 20
1998.538618560759
 30
0.0
 10
261.0155792777109
 20
2011.05644600058
 30
0.0
 10
260.4840093206908
 20
2019.593851849015
 30
0.0
 10
260.4840093206908
 20
2023.765840257496
 30
0.0
  0
SPLINE
  5
1995
330
A
100
AcDbEntity
  8
MODEL
100
AcDbSpline
210
0.0
220
0.0
230
1.0
 70
     8
 71
     3
 72
    31
 73
    27
 74
     0
 42
0.000000001
 43
0.0000000001
 40
0.0
 40
0.0
 40
0.0
 40
0.0
 40
17.20622303609974
 40
39.74124777123195
 40
65.56718878179063
 40
83.94884511119112
 40
101.5076771439692
 40
119.9170922850861
 40
137.5046880154095
 40
155.1082624905365
 40
173.5690313935199
 40
191.2108442769423
 40
209.716919125967
 40
227.4085024108466
 40
245.1307381944815
 40
263.736119651179
 40
281.3753451334978
 40
296.4293276530933
 40
310.840565310462
 40
325.9883741135026
 40
340.5019590885986
 40
355.0733981972702
 40
369.0053851434494
 40
382.1665584468067
 40
395.9888411969371
 40
409.1991854321206
 40
409.1991854321206
 40
409.1991854321206
 40
409.1991854321206
 10
580.483966418436
 20
2203.765740896703
 30
0.0
 10
586.1617825324533
 20
2203.765740896703
 30
0.0
 10
599.275970733022
 20
2203.568186033133
 30
0.0
 10
620.8888288425837
 20
2202.488614347274
 30
0.0
 10
642.8199975053972
 20
2200.448316478954
 30
0.0
 10
663.0158915352108
 20
2197.747469279165
 30
0.0
 10
680.691701669904
 20
2194.776963180969
 30
0.0
 10
697.9911456947552
 20
2191.249138557654
 30
0.0
 10
715.157753425719
 20
2187.096958785672
 30
0.0
 10
732.1654244527122
 20
2182.310279213915
 30
0.0
 10
748.9729823394769
 20
2176.844548514689
 30
0.0
 10
765.7941063171634
 20
2170.566058001242
 30
0.0
 10
782.0585065624869
 20
2163.626184570098
 30
0.0
 10
797.9561889220381
 20
2155.877611702419
 30
0.0
 10
813.4177422470052
 20
2147.28282386029
 30
0.0
 10
828.2820537832117
 20
2137.787514366283
 30
0.0
 10
841.725698951584
 20
2127.839601148383
 30
0.0
 10
853.3675542721717
 20
2117.894046513522
 30
0.0
 10
863.6717181662057
 20
2107.751742585901
 30
0.0
 10
872.996538638235
 20
2096.995043009658
 30
0.0
 10
881.3200468739847
 20
2085.45184781989
 30
0.0
 10
888.243894213239
 20
2073.534305936396
 30
0.0
 10
893.6495262008207
 20
2061.390150492935
 30
0.0
 10
897.577698781151
 20
2048.993061954232
 30
0.0
 10
899.9523535591611
 20
2036.475234514412
 30
0.0
 10
900.4839235161812
 20
2027.937828665977
 30
0.0
 10
900.4839235161812
 20
2023.765840257496
 30
0.0
  0
SPLINE
  5
1996
330
A
100
AcDbEntity
  8
MODEL
100
AcDbSpline
210
0.0
220
0.0
230
1.0
 70
     8
 71
     3
 72
    31
 73
    27
 74
     0
 42
0.000000001
 43
0.0000000001
 40
0.0
 40
0.0
 40
0.0
 40
0.0
 40
17.20622303609974
 40
39.74124777123195
 40
65.56718878179063
 40
83.94884511119112
 40
101.5076771439692
 40
119.9170922850861
 40
137.5046880154095
 40
155.1082624905365
 40
173.5690313935199
 40
191.2108442769423
 40
209.7169191259671
 40
227.4085024108466
 40
245.1307381944814
 40
263.7361196511792
 40
281.375345133498
 40
296.4293276530935
 40
310.8405653104621
 40
325.9883741135027
 40
340.5019590885986
 40
355.0733981972705
 40
369.0053851434498
 40
382.1665584468072
 40
395.9888411969376
 40
409.1991854321211
 40
409.1991854321211
 40
409.1991854321211
 40
409.1991854321211
 10
580.483966418436
 20
2203.765740896703
 30
0.0
 10
574.8061503044187
 20
2203.765740896703
 30
0.0
 10
561.6919621038501
 20
2203.568186033133
 30
0.0
 10
540.0791039942883
 20
2202.488614347274
 30
0.0
 10
518.1479353314749
 20
2200.448316478954
 30
0.0
 10
497.9520413016685
 20
2197.747469279165
 30
0.0
 10
480.276231166968
 20
2194.776963180969
 30
0.0
 10
462.9767871421241
 20
2191.249138557654
 30
0.0
 10
445.8101794111531
 20
2187.096958785672
 30
0.0
 10
428.8025083841599
 20
2182.310279213915
 30
0.0
 10
411.9949504973952
 20
2176.844548514689
 30
0.0
 10
395.1738265197087
 20
2170.566058001242
 30
0.0
 10
378.9094262743924
 20
2163.626184570098
 30
0.0
 10
363.0117439148412
 20
2155.877611702419
 30
0.0
 10
347.5501905898741
 20
2147.28282386029
 30
0.0
 10
332.6858790536603
 20
2137.787514366282
 30
0.0
 10
319.242233885288
 20
2127.839601148383
 30
0.0
 10
307.6003785647003
 20
2117.894046513522
 30
0.0
 10
297.2962146706736
 20
2107.751742585901
 30
0.0
 10
287.971394198637
 20
2096.995043009658
 30
0.0
 10
279.6478859628946
 20
2085.45184781989
 30
0.0
 10
272.7240386236331
 20
2073.534305936396
 30
0.0
 10
267.3184066360513
 20
2061.390150492935
 30
0.0
 10
263.3902340557211
 20
2048.993061954233
 30
0.0
 10
261.0155792777109
 20
2036.475234514412
 30
0.0
 10
260.4840093206908
 20
2027.937828665977
 30
0.0
 10
260.4840093206908
 20
2023.765840257496
 30
0.0
  0
SPLINE
  5
1997
330
A
100
AcDbEntity
  8
MODEL
100
AcDbSpline
210
0.0
220
0.0
230
1.0
 70
     8
 71
     3
 72
    21
 73
    17
 74
     0
 42
0.000000001
 43
0.0000000001
 40
0.0
 40
0.0
 40
0.0
 40
0.0
 40
7.703248485263469
 40
12.14127869254335
 40
16.53636877176768
 40
20.98372138006774
 40
25.79641386307836
 40
32.81524804656405
 40
37.35468934817564
 40
42.04077606815402
 40
46.81619953090485
 40
51.42390561991456
 40
56.22695997824268
 40
60.83549292495458
 40
65.21799422271896
 40
69.82764148488673
 40
69.82764148488673
 40
69.82764148488673
 40
69.82764148488673
 10
580.483966418436
 20
1981.043494407326
 30
0.0
 10
578.0105153758664
 20
1981.043494407326
 30
0.0
 10
574.1092508650431
 20
1981.367794869948
 30
0.0
 10
568.9101378200826
 20
1982.497684313415
 30
0.0
 10
564.8408479944806
 20
1983.800330357269
 30
0.0
 10
560.804968783395
 20
1985.53783071942
 30
0.0
 10
556.2267981828877
 20
1988.092021186824
 30
0.0
 10
551.9888475121074
 20
1991.256849114047
 30
0.0
 10
548.2299592539453
 20
1994.924264570511
 30
0.0
 10
545.3352222023927
 20
1998.416783066328
 30
0.0
 10
542.8189190458393
 20
2002.22957706723
 30
0.0
 10
540.7068538067938
 20
2006.332271558503
 30
0.0
 10
539.0669234195916
 20
2010.595554305424
 30
0.0
 10
537.9141809490279
 20
2014.944584093593
 30
0.0
 10
537.2248699930892
 20
2019.329711458245
 30
0.0
 10
537.0698841754015
 20
2022.262282045131
 30
0.0
 10
537.0698841754015
 20
2023.765840257496
 30
0.0
  0
SPLINE
  5
1998
330
A
100
AcDbEntity
  8
MODEL
100
AcDbSpline
210
0.0
220
0.0
230
1.0
 70
     8
 71
     3
 72
    21
 73
    17
 74
     0
 42
0.000000001
 43
0.0000000001
 40
0.0
 40
0.0
 40
0.0
 40
0.0
 40
7.703248485263404
 40
12.14127869254317
 40
16.53636877176736
 40
20.98372138006738
 40
25.79641386307803
 40
32.8152480465637
 40
37.35468934817517
 40
42.04077606815353
 40
46.81619953090436
 40
51.42390561991416
 40
56.22695997824234
 40
60.83549292495433
 40
65.21799422271879
 40
69.82764148488664
 40
69.82764148488664
 40
69.82764148488664
 40
69.82764148488664
 10
580.483966418436
 20
1981.043494407326
 30
0.0
 10
582.9574174610057
 20
1981.043494407326
 30
0.0
 10
586.8586819718289
 20
1981.367794869948
 30
0.0
 10
592.0577950167894
 20
1982.497684313414
 30
0.0
 10
596.1270848423915
 20
1983.800330357269
 30
0.0
 10
600.162964053477
 20
1985.537830719419
 30
0.0
 10
604.7411346539916
 20
1988.092021186824
 30
0.0
 10
608.9790853247646
 20
1991.256849114046
 30
0.0
 10
612.7379735829268
 20
1994.924264570511
 30
0.0
 10
615.6327106344866
 20
1998.416783066328
 30
0.0
 10
618.1490137910328
 20
2002.229577067229
 30
0.0
 10
620.2610790300782
 20
2006.332271558503
 30
0.0
 10
621.9010094172877
 20
2010.595554305424
 30
0.0
 10
623.0537518878441
 20
2014.944584093592
 30
0.0
 10
623.7430628437828
 20
2019.329711458245
 30
0.0
 10
623.8980486614778
 20
2022.262282045131
 30
0.0
 10
623.8980486614778
 20
2023.765840257496
 30
0.0
  0
SPLINE
  5
1999
330
A
100
AcDbEntity
  8
MODEL
100
AcDbSpline
210
0.0
220
0.0
230
1.0
 70
     8
 71
     3
 72
    21
 73
    17
 74
     0
 42
0.000000001
 43
0.0000000001
 40
0.0
 40
0.0
 40
0.0
 40
0.0
 40
5.627416019528443
 40
10.01072957355115
 40
14.59142782311457
 40
18.97559777456549
 40
23.610185749363
 40
28.0621012183788
 40
32.74577814252546
 40
37.43688596589551
 40
41.98599101312033
 40
47.17409026285429
 40
51.66426755830735
 40
56.44499336511397
 40
62.28431806492387
 40
69.8276848052392
 40
69.8276848052392
 40
69.8276848052392
 40
69.8276848052392
 10
623.8980486614778
 20
2023.765840257496
 30
0.0
 10
623.8980486614778
 20
2025.601370633106
 30
0.0
 10
623.6872747892953
 20
2028.866024898161
 30
0.0
 10
622.8381491683353
 20
2033.551342358101
 30
0.0
 10
621.6261637495877
 20
2037.731929188479
 30
0.0
 10
619.9621717880032
 20
2041.836279044214
 30
0.0
 10
617.9047784879399
 20
2045.703909583355
 30
0.0
 10
615.4055763466126
 20
2049.409294449825
 30
0.0
 10
612.5256127158896
 20
2052.839899123695
 30
0.0
 10
609.2789007805873
 20
2055.957332665083
 30
0.0
 10
605.6015975760342
 20
2058.811344094283
 30
0.0
 10
601.6938006275409
 20
2061.209059128786
 30
0.0
 10
597.4892154517397
 20
2063.203096697195
 30
0.0
 10
592.906867635425
 20
2064.829557706677
 30
0.0
 10
587.2062012599013
 20
2066.138195697004
 30
0.0
 10
582.9060807204764
 20
2066.488186107666
 30
0.0
 10
580.483966418436
 20
2066.488186107666
 30
0.0
  0
SPLINE
  5
199A
330
A
100
AcDbEntity
  8
MODEL
100
AcDbSpline
210
0.0
220
0.0
230
1.0
 70
     8
 71
     3
 72
    21
 73
    17
 74
     0
 42
0.000000001
 43
0.0000000001
 40
0.0
 40
0.0
 40
0.0
 40
0.0
 40
7.703248485263613
 40
12.14127869254371
 40
16.53636877176823
 40
20.9837213800683
 40
25.79641386307894
 40
32.81524804656459
 40
37.35468934817613
 40
42.04077606815448
 40
46.81619953090534
 40
51.42390561991511
 40
56.22695997824335
 40
60.83549292495509
 40
65.21799422271924
 40
69.82764148488675
 40
69.82764148488675
 40
69.82764148488675
 40
69.82764148488675
 10
580.483966418436
 20
2066.488186107666
 30
0.0
 10
578.0105153758664
 20
2066.488186107666
 30
0.0
 10
574.1092508650431
 20
2066.163885645044
 30
0.0
 10
568.9101378200826
 20
2065.033996201577
 30
0.0
 10
564.8408479944806
 20
2063.731350157723
 30
0.0
 10
560.804968783395
 20
2061.993849795572
 30
0.0
 10
556.2267981828877
 20
2059.439659328168
 30
0.0
 10
551.9888475121074
 20
2056.274831400945
 30
0.0
 10
548.2299592539453
 20
2052.607415944481
 30
0.0
 10
545.3352222023927
 20
2049.114897448664
 30
0.0
 10
542.8189190458393
 20
2045.302103447762
 30
0.0
 10
540.7068538067938
 20
2041.199408956488
 30
0.0
 10
539.0669234195916
 20
2036.936126209567
 30
0.0
 10
537.9141809490279
 20
2032.587096421399
 30
0.0
 10
537.2248699930892
 20
2028.201969056746
 30
0.0
 10
537.0698841754015
 20
2025.269398469861
 30
0.0
 10
537.0698841754015
 20
2023.765840257496
 30
0.0
  0
SPLINE
  5
199B
330
A
100
AcDbEntity
  8
MODEL
100
AcDbSpline
210
0.0
220
0.0
230
1.0
 70
     8
 71
     3
 72
    22
 73
    18
 74
     0
 42
0.000000001
 43
0.0000000001
 40
0.0
 40
0.0
 40
0.0
 40
0.0
 40
4.046693966857047
 40
7.381235003802101
 40
10.37151048652065
 40
13.22639439929616
 40
16.21730513147056
 40
19.20821654150411
 40
22.06289716480049
 40
25.05329174780147
 40
27.90762996170516
 40
30.89790158499994
 40
33.88834613178816
 40
36.74297498365738
 40
39.73366866466782
 40
42.58835432515792
 40
45.55393332928434
 40
45.55393332928434
 40
45.55393332928434
 40
45.55393332928434
 10
580.483966418436
 20
2186.068734490502
 30
0.0
 10
579.141211067868
 20
2186.068734490502
 30
0.0
 10
576.6921557135752
 20
2186.209348131178
 30
0.0
 10
573.4934324402889
 20
2186.751089508703
 30
0.0
 10
570.987309574582
 20
2187.464236032015
 30
0.0
 10
568.9637469713011
 20
2188.327093557759
 30
0.0
 10
567.4089189828915
 20
2189.329462367077
 30
0.0
 10
566.3999617529512
 20
2190.42947217726
 30
0.0
 10
565.9661050506797
 20
2191.577631285611
 30
0.0
 10
566.1220635291425
 20
2192.710231353483
 30
0.0
 10
566.8661055286971
 20
2193.815618625256
 30
0.0
 10
568.1663347747194
 20
2194.833876704136
 30
0.0
 10
569.980848121962
 20
2195.722125247345
 30
0.0
 10
572.2227672628173
 20
2196.44921639065
 30
0.0
 10
574.7636962423453
 20
2196.980517571606
 30
0.0
 10
577.5681988595711
 20
2197.311508215902
 30
0.0
 10
579.4997695540183
 20
2197.386244836939
 30
0.0
 10
580.483966418436
 20
2197.386244836939
 30
0.0
  0
SPLINE
  5
199C
330
A
100
AcDbEntity
  8
MODEL
100
AcDbSpline
210
0.0
220
0.0
230
1.0
 70
     8
 71
     3
 72
    14
 73
    10
 74
     0
 42
0.000000001
 43
0.0000000001
 40
0.0
 40
0.0
 40
0.0
 40
0.0
 40
4.213343068063896
 40
7.764930243968658
 40
10.89123228210959
 40
13.88206091836861
 40
17.00895457356195
 40
19.99932493149225
 40
22.77730974210642
 40
22.77730974210642
 40
22.77730974210642
 40
22.77730974210642
 10
580.483966418436
 20
2186.068734490502
 30
0.0
 10
581.8820185060863
 20
2186.068734490502
 30
0.0
 10
584.4583552672079
 20
2186.22284144508
 30
0.0
 10
587.7932012550259
 20
2186.817990018511
 30
0.0
 10
590.3750882471099
 20
2187.601888972571
 30
0.0
 10
592.4005517421715
 20
2188.537671863292
 30
0.0
 10
593.8730966239123
 20
2189.600161809944
 30
0.0
 10
594.7351502021952
 20
2190.725440270108
 30
0.0
 10
594.9192123864518
 20
2191.478004381092
 30
0.0
 10
594.9192877620621
 20
2191.839062843198
 30
0.0
  0
SPLINE
  5
199D
330
A
100
AcDbEntity
  8
MODEL
100
AcDbSpline
210
0.0
220
0.0
230
1.0
 70
     8
 71
     3
 72
    14
 73
    10
 74
     0
 42
0.000000001
 43
0.0000000001
 40
0.0
 40
0.0
 40
0.0
 40
0.0
 40
4.421318128365902
 40
8.069854632729982
 40
11.33211879476032
 40
14.59458809227436
 40
17.85716031536547
 40
20.14215001182316
 40
22.77657919240668
 40
22.77657919240668
 40
22.77657919240668
 40
22.77657919240668
 10
594.9192877620621
 20
2191.839062843198
 30
0.0
 10
594.9194077265524
 20
2192.413707570487
 30
0.0
 10
594.5079734037677
 20
2193.455981502935
 30
0.0
 10
592.9252298621609
 20
2194.782818677812
 30
0.0
 10
590.8181410251523
 20
2195.801629331025
 30
0.0
 10
588.2700153004075
 20
2196.579515625337
 30
0.0
 10
585.6228813294251
 20
2197.065375003968
 30
0.0
 10
582.9908937404939
 20
2197.330153283767
 30
0.0
 10
581.358263456375
 20
2197.386244836939
 30
0.0
 10
580.483966418436
 20
2197.386244836939
 30
0.0
  0
LINE
  5
199E
330
A
100
AcDbEntity
  8
MODEL
100
AcDbLine
 10
580.483966418436
 20
2197.223987726221
 30
0.0
 11
580.483966418436
 21
2197.386244836939
 31
0.0
  0
SPLINE
  5
199F
330
A
100
AcDbEntity
  8
MODEL
100
AcDbSpline
210
0.0
220
0.0
230
1.0
 70
     8
 71
     3
 72
    31
 73
    27
 74
     0
 42
0.000000001
 43
0.0000000001
 40
0.0
 40
0.0
 40
0.0
 40
0.0
 40
7.907572888958867
 40
19.32300193001834
 40
28.09426070902252
 40
39.47854836926928
 40
48.2186443167361
 40
57.99649670110609
 40
74.01061857214141
 40
86.77941476765237
 40
100.253681324527
 40
118.2846247920112
 40
137.0735569133303
 40
155.2837692420338
 40
181.7418344987892
 40
200.4758025565788
 40
220.8803294886346
 40
239.5599163481757
 40
258.2205249220839
 40
276.863996749707
 40
297.1873924304913
 40
334.4162197434308
 40
371.6179790189031
 40
410.4993369707404
 40
431.9929972076335
 40
446.5887169967711
 40
446.5887169967711
 40
446.5887169967711
 40
446.5887169967711
 10
930.4842215679123
 20
2023.765840257496
 30
0.0
 10
930.4842215679123
 20
2026.401266919832
 30
0.0
 10
930.2806765959426
 20
2032.843033789887
 30
0.0
 10
929.2657180094861
 20
2042.161811065203
 30
0.0
 10
927.3056860596657
 20
2052.507600256623
 30
0.0
 10
924.7908520022934
 20
2061.814365583312
 30
0.0
 10
921.4914098394688
 20
2071.224946971257
 30
0.0
 10
916.9857799984343
 20
2081.824349945422
 30
0.0
 10
910.9558957083168
 20
2093.194617959923
 30
0.0
 10
903.2956872530299
 20
2105.026689827509
 30
0.0
 10
894.3858606560348
 20
2116.803822393523
 30
0.0
 10
883.2193603192604
 20
2129.329823615967
 30
0.0
 10
869.9011509866355
 20
2141.964863844988
 30
0.0
 10
853.5012920008917
 20
2155.344800175954
 30
0.0
 10
836.0812348450377
 20
2167.348390837799
 30
0.0
 10
817.2339670580218
 20
2178.450024880808
 30
0.0
 10
800.0972011649751
 20
2187.285388754089
 30
0.0
 10
782.5537893867327
 20
2195.218175664905
 30
0.0
 10
765.2123369690266
 20
2202.123689919526
 30
0.0
 10
747.0749149293147
 20
2208.462756812204
 30
0.0
 10
722.7606691738506
 20
2215.825372699366
 30
0.0
 10
692.0242063071232
 20
2223.187897895801
 30
0.0
 10
654.7430013569424
 20
2229.383832377969
 30
0.0
 10
622.3494372650707
 20
2232.517296952196
 30
0.0
 10
597.379099327623
 20
2233.613887089444
 30
0.0
 10
585.3490784533892
 20
2233.765840249839
 30
0.0
 10
580.483966418436
 20
2233.765840249839
 30
0.0
  0
SPLINE
  5
19A0
330
A
100
AcDbEntity
  8
MODEL
100
AcDbSpline
210
0.0
220
0.0
230
1.0
 70
     8
 71
     3
 72
    31
 73
    27
 74
     0
 42
0.000000001
 43
0.0000000001
 40
0.0
 40
0.0
 40
0.0
 40
0.0
 40
7.907572888958875
 40
19.32300193001837
 40
28.09426070902255
 40
39.47854836926933
 40
48.21864431673614
 40
57.99649670110618
 40
74.01061857214209
 40
86.77941476765346
 40
100.2536813245284
 40
118.2846247920124
 40
137.0735569133314
 40
155.2837692420349
 40
181.7418344987902
 40
200.4758025565798
 40
220.8803294886355
 40
239.5599163481766
 40
258.220524922085
 40
276.8639967497076
 40
297.1873924304916
 40
334.4162197434315
 40
371.6179790189033
 40
410.4993369707405
 40
431.9929972076337
 40
446.5887169967713
 40
446.5887169967713
 40
446.5887169967713
 40
446.5887169967713
 10
930.4842215679123
 20
2023.765840257496
 30
0.0
 10
930.4842215679123
 20
2021.13041359516
 30
0.0
 10
930.2806765959426
 20
2014.688646725105
 30
0.0
 10
929.2657180094861
 20
2005.369869449789
 30
0.0
 10
927.3056860596657
 20
1995.024080258369
 30
0.0
 10
924.7908520022934
 20
1985.71731493168
 30
0.0
 10
921.4914098394688
 20
1976.306733543735
 30
0.0
 10
916.9857799984343
 20
1965.707330569569
 30
0.0
 10
910.9558957083168
 20
1954.337062555069
 30
0.0
 10
903.2956872530299
 20
1942.504990687482
 30
0.0
 10
894.3858606560348
 20
1930.727858121468
 30
0.0
 10
883.2193603192604
 20
1918.201856899024
 30
0.0
 10
869.9011509866282
 20
1905.566816670004
 30
0.0
 10
853.5012920008917
 20
1892.186880339037
 30
0.0
 10
836.0812348450304
 20
1880.183289677192
 30
0.0
 10
817.2339670580218
 20
1869.081655634184
 30
0.0
 10
800.0972011649751
 20
1860.246291760903
 30
0.0
 10
782.5537893867327
 20
1852.313504850086
 30
0.0
 10
765.2123369690266
 20
1845.407990595465
 30
0.0
 10
747.0749149293147
 20
1839.068923702787
 30
0.0
 10
722.7606691738506
 20
1831.706307815626
 30
0.0
 10
692.0242063071232
 20
1824.343782619191
 30
0.0
 10
654.7430013569424
 20
1818.147848137022
 30
0.0
 10
622.3494372650707
 20
1815.014383562796
 30
0.0
 10
597.379099327623
 20
1813.917793425548
 30
0.0
 10
585.3490784533892
 20
1813.765840265153
 30
0.0
 10
580.483966418436
 20
1813.765840265153
 30
0.0
  0
SPLINE
  5
19A1
330
A
100
AcDbEntity
  8
MODEL
100
AcDbSpline
210
0.0
220
0.0
230
1.0
 70
     8
 71
     3
 72
    31
 73
    27
 74
     0
 42
0.000000001
 43
0.0000000001
 40
0.0
 40
0.0
 40
0.0
 40
0.0
 40
7.907572888958857
 40
19.32300193001836
 40
28.09426070902253
 40
39.47854836926932
 40
48.21864431673613
 40
57.996496701106
 40
74.0106185721414
 40
86.77941476765243
 40
100.2536813245272
 40
118.2846247920113
 40
137.0735569133306
 40
155.2837692420341
 40
181.7418344987895
 40
200.475802556579
 40
220.8803294886347
 40
239.5599163481756
 40
258.2205249220838
 40
276.8639967497068
 40
297.1873924304911
 40
334.4162197434308
 40
371.617979018903
 40
410.4993369707402
 40
431.9929972076334
 40
446.588716996771
 40
446.588716996771
 40
446.588716996771
 40
446.588716996771
 10
230.4837112689597
 20
2023.765840257496
 30
0.0
 10
230.4837112689597
 20
2021.13041359516
 30
0.0
 10
230.6872562409294
 20
2014.688646725105
 30
0.0
 10
231.7022148273859
 20
2005.369869449789
 30
0.0
 10
233.6622467772063
 20
1995.024080258369
 30
0.0
 10
236.1770808345786
 20
1985.71731493168
 30
0.0
 10
239.4765229974032
 20
1976.306733543735
 30
0.0
 10
243.9821528384377
 20
1965.70733056957
 30
0.0
 10
250.0120371285552
 20
1954.337062555069
 30
0.0
 10
257.6722455838421
 20
1942.504990687483
 30
0.0
 10
266.5820721808373
 20
1930.727858121469
 30
0.0
 10
277.7485725176116
 20
1918.201856899025
 30
0.0
 10
291.0667818502438
 20
1905.566816670004
 30
0.0
 10
307.4666408359803
 20
1892.186880339037
 30
0.0
 10
324.8866979918416
 20
1880.183289677192
 30
0.0
 10
343.7339657788502
 20
1869.081655634184
 30
0.0
 10
360.8707316718969
 20
1860.246291760903
 30
0.0
 10
378.4141434501394
 20
1852.313504850087
 30
0.0
 10
395.7555958678454
 20
1845.407990595465
 30
0.0
 10
413.8930179075574
 20
1839.068923702788
 30
0.0
 10
438.2072636630214
 20
1831.706307815626
 30
0.0
 10
468.9437265297488
 20
1824.343782619191
 30
0.0
 10
506.2249314799296
 20
1818.147848137022
 30
0.0
 10
538.6184955718013
 20
1815.014383562796
 30
0.0
 10
563.5888335092491
 20
1813.917793425548
 30
0.0
 10
575.6188543834828
 20
1813.765840265153
 30
0.0
 10
580.483966418436
 20
1813.765840265153
 30
0.0
  0
SPLINE
  5
19A2
330
A
100
AcDbEntity
  8
MODEL
100
AcDbSpline
210
0.0
220
0.0
230
1.0
 70
     8
 71
     3
 72
    31
 73
    27
 74
     0
 42
0.000000001
 43
0.0000000001
 40
0.0
 40
0.0
 40
0.0
 40
0.0
 40
7.90757288895886
 40
19.32300193001837
 40
28.09426070902252
 40
39.47854836926933
 40
48.21864431673608
 40
57.99649670110608
 40
74.01061857214184
 40
86.77941476765307
 40
100.2536813245279
 40
118.2846247920118
 40
137.0735569133307
 40
155.283769242034
 40
181.7418344987892
 40
200.4758025565789
 40
220.8803294886348
 40
239.559916348176
 40
258.2205249220845
 40
276.8639967497075
 40
297.1873924304917
 40
334.4162197434314
 40
371.6179790189038
 40
410.4993369707408
 40
431.9929972076337
 40
446.5887169967709
 40
446.5887169967709
 40
446.5887169967709
 40
446.5887169967709
 10
230.4837112689597
 20
2023.765840257496
 30
0.0
 10
230.4837112689597
 20
2026.401266919832
 30
0.0
 10
230.6872562409294
 20
2032.843033789887
 30
0.0
 10
231.7022148273859
 20
2042.161811065203
 30
0.0
 10
233.6622467772063
 20
2052.507600256623
 30
0.0
 10
236.1770808345786
 20
2061.814365583312
 30
0.0
 10
239.4765229974032
 20
2071.224946971257
 30
0.0
 10
243.9821528384377
 20
2081.824349945422
 30
0.0
 10
250.0120371285552
 20
2093.194617959924
 30
0.0
 10
257.6722455838421
 20
2105.026689827509
 30
0.0
 10
266.5820721808373
 20
2116.803822393524
 30
0.0
 10
277.7485725176116
 20
2129.329823615968
 30
0.0
 10
291.0667818502438
 20
2141.964863844988
 30
0.0
 10
307.4666408359803
 20
2155.344800175954
 30
0.0
 10
324.8866979918416
 20
2167.3483908378
 30
0.0
 10
343.7339657788502
 20
2178.450024880808
 30
0.0
 10
360.8707316718969
 20
2187.28538875409
 30
0.0
 10
378.4141434501394
 20
2195.218175664905
 30
0.0
 10
395.7555958678454
 20
2202.123689919527
 30
0.0
 10
413.8930179075574
 20
2208.462756812205
 30
0.0
 10
438.2072636630214
 20
2215.825372699366
 30
0.0
 10
468.9437265297488
 20
2223.187897895801
 30
0.0
 10
506.2249314799296
 20
2229.383832377969
 30
0.0
 10
538.6184955718013
 20
2232.517296952196
 30
0.0
 10
563.5888335092491
 20
2233.613887089444
 30
0.0
 10
575.6188543834828
 20
2233.765840249839
 30
0.0
 10
580.483966418436
 20
2233.765840249839
 30
0.0
  0
ARC
  5
19AD
330
A
100
AcDbEntity
  8
MODEL
100
AcDbCircle
 10
855.3879112008685
 20
1019.099154524519
 30
0.0
 40
6.00000000000001
100
AcDbArc
 50
270.0000050092501
 51
327.0500695070674
  0
ARC
  5
19AE
330
A
100
AcDbEntity
  8
MODEL
100
AcDbCircle
 10
305.5800160708272
 20
1019.099106458782
 30
0.0
 40
6.000000000000077
100
AcDbArc
 50
212.9499405107719
 51
270.0000050088332
  0
LINE
  5
19AF
330
A
100
AcDbEntity
  8
MODEL
100
AcDbLine
 10
544.2242091476423
 20
1013.099122506575
 30
0.0
 11
546.2443756067983
 21
990.0085374679163
 31
0.0
  0
ARC
  5
19B0
330
A
100
AcDbEntity
  8
MODEL
100
AcDbCircle
 10
549.2329596782179
 20
990.2700049574294
 30
0.0
 40
2.999999999999996
100
AcDbArc
 50
185.0000050091476
 51
270.0000050088332
  0
ARC
  5
19B1
330
A
100
AcDbEntity
  8
MODEL
  6
HIDDEN
 48
0.05
100
AcDbCircle
 10
339.7702750167332
 20
1100.986702471473
 30
0.0
 40
40.22432364068786
100
AcDbArc
 50
220.2010949595947
 51
261.2400813651273
  0
ARC
  5
19B3
330
A
100
AcDbEntity
  8
MODEL
  6
HIDDEN
 48
0.05
100
AcDbCircle
 10
821.197637937275
 20
1100.986744559193
 30
0.0
 40
40.22432364068786
100
AcDbArc
 50
278.7599286526716
 51
319.798915058305
  0
ARC
  5
19B4
330
A
100
AcDbEntity
  8
MODEL
100
AcDbCircle
 10
270.1354904342766
 20
1398.43190967867
 30
0.0
 40
703.4336779548413
100
AcDbArc
 50
327.0506091063922
 51
339.7553391801055
  0
LINE
  5
19B5
330
A
100
AcDbEntity
  8
MODEL
100
AcDbLine
 10
906.0661223291713
 20
1163.099149256807
 30
0.0
 11
254.8878220354777
 21
1163.09910856386
 31
0.0
  0
ARC
  5
19B6
330
A
100
AcDbEntity
  8
MODEL
100
AcDbCircle
 10
890.8323705127582
 20
1398.431963941714
 30
0.0
 40
703.4336779548388
100
AcDbArc
 50
200.2446708379119
 51
212.9494009116931
  0
SPLINE
  5
19BA
330
A
100
AcDbEntity
  8
MODEL
  6
HIDDEN
 48
0.05
100
AcDbSpline
210
0.0
220
0.0
230
1.0
 70
     8
 71
     7
 72
    16
 73
     8
 74
     0
 42
0.000000001
 43
0.0000000001
 40
0.0349598464017667
 40
0.0349598464017667
 40
0.0349598464017667
 40
0.0349598464017667
 40
0.0349598464017667
 40
0.0349598464017667
 40
0.0349598464017667
 40
0.0349598464017667
 40
0.8670471736455261
 40
0.8670471736455261
 40
0.8670471736455261
 40
0.8670471736455261
 40
0.8670471736455261
 40
0.8670471736455261
 40
0.8670471736455261
 40
0.8670471736455261
 10
900.4839084800656
 20
1159.263156665342
 30
0.0
 10
895.4507123348772
 20
1146.247099938787
 30
0.0
 10
889.8533654166927
 20
1133.449197863185
 30
0.0
 10
883.6455279140023
 20
1120.921109325412
 30
0.0
 10
876.7812030613163
 20
1108.727272605715
 30
0.0
 10
869.2167536537195
 20
1096.948467607498
 30
0.0
 10
860.9280918816689
 20
1085.681907173432
 30
0.0
 10
851.920324950875
 20
1075.023063868369
 30
0.0
  0
SPLINE
  5
19BB
330
A
100
AcDbEntity
  8
MODEL
  6
HIDDEN
 48
0.05
100
AcDbSpline
210
0.0
220
0.0
230
1.0
 70
     8
 71
     7
 72
    16
 73
     8
 74
     0
 42
0.000000001
 43
0.0000000001
 40
0.034959846401767
 40
0.034959846401767
 40
0.034959846401767
 40
0.034959846401767
 40
0.034959846401767
 40
0.034959846401767
 40
0.034959846401767
 40
0.034959846401767
 40
0.8670471736455261
 40
0.8670471736455261
 40
0.8670471736455261
 40
0.8670471736455261
 40
0.8670471736455261
 40
0.8670471736455261
 40
0.8670471736455261
 40
0.8670471736455261
 10
260.4839942845751
 20
1159.263100714767
 30
0.0
 10
265.5171927055667
 20
1146.247044868245
 30
0.0
 10
271.1145418614065
 20
1133.449143771315
 30
0.0
 10
277.3223815545748
 20
1120.921056318955
 30
0.0
 10
284.1867085392983
 20
1108.727220799454
 30
0.0
 10
291.7511600063694
 20
1096.948417123848
 30
0.0
 10
300.0398237483273
 20
1085.681858139019
 30
0.0
 10
309.0475925427704
 20
1075.023016408924
 30
0.0
  0
ARC
  5
19BD
330
A
100
AcDbEntity
  8
MODEL
  6
HIDDEN
 48
0.05
100
AcDbCircle
 10
254.887822560016
 20
1157.09910856386
 30
0.0
 40
6.000000000000028
100
AcDbArc
 50
21.14106358318642
 51
90.00000500883318
  0
ARC
  5
19BE
330
A
100
AcDbEntity
  8
MODEL
  6
HIDDEN
 48
0.05
100
AcDbCircle
 10
906.080080582989
 20
1157.0991654929
 30
0.0
 40
6.000000000000028
100
AcDbArc
 50
90.00000500883318
 51
158.8589464347258
  0
ARC
  5
19BF
330
A
100
AcDbEntity
  8
MODEL
100
AcDbCircle
 10
236.4836964220262
 20
1157.09910695492
 30
0.0
 40
6.0
100
AcDbArc
 50
90.00000500883318
 51
200.2444089910026
  0
ARC
  5
19C0
330
A
100
AcDbEntity
  8
MODEL
100
AcDbCircle
 10
924.4842067209788
 20
1157.09916710184
 30
0.0
 40
6.0
100
AcDbArc
 50
339.7556010268823
 51
90.00000500883318
  0
SPLINE
  5
19C1
330
A
100
AcDbEntity
  8
MODEL
  6
HIDDEN
 48
0.05
100
AcDbSpline
210
0.0
220
0.0
230
1.0
 70
     8
 71
     7
 72
    16
 73
     8
 74
     0
 42
0.000000001
 43
0.0000000001
 40
0.0222006578536269
 40
0.0222006578536269
 40
0.0222006578536269
 40
0.0222006578536269
 40
0.0222006578536269
 40
0.0222006578536269
 40
0.0222006578536269
 40
0.0222006578536269
 40
0.936138745104095
 40
0.936138745104095
 40
0.936138745104095
 40
0.936138745104095
 40
0.936138745104095
 40
0.936138745104095
 40
0.936138745104095
 40
0.936138745104095
 10
537.0698797081818
 20
1038.369012050711
 30
0.0
 10
507.8612431753022
 20
1040.011673966418
 30
0.0
 10
478.694992096101
 20
1042.408245846849
 30
0.0
 10
449.5838268617258
 20
1045.368957013183
 30
0.0
 10
420.524805382865
 20
1048.797367489088
 30
0.0
 10
391.5171023878606
 20
1052.617542715476
 30
0.0
 10
362.557866237566
 20
1056.776246586925
 30
0.0
 10
333.6443324851821
 20
1061.231589083999
 30
0.0
  0
SPLINE
  5
19C3
330
A
100
AcDbEntity
  8
MODEL
  6
HIDDEN
 48
0.05
100
AcDbSpline
210
0.0
220
0.0
230
1.0
 70
     8
 71
     7
 72
    16
 73
     8
 74
     0
 42
0.000000001
 43
0.0000000001
 40
0.0222006578536269
 40
0.0222006578536269
 40
0.0222006578536269
 40
0.0222006578536269
 40
0.0222006578536269
 40
0.0222006578536269
 40
0.0222006578536269
 40
0.0222006578536269
 40
0.936138745104095
 40
0.936138745104095
 40
0.936138745104095
 40
0.936138745104095
 40
0.936138745104095
 40
0.936138745104095
 40
0.936138745104095
 40
0.936138745104095
 10
623.8980441942581
 20
1038.369019641471
 30
0.0
 10
653.1066804399193
 20
1040.011686664179
 30
0.0
 10
682.2729311000908
 20
1042.408263644199
 30
0.0
 10
711.3840958168034
 20
1045.368979900491
 30
0.0
 10
740.4431166962199
 20
1048.797395457237
 30
0.0
 10
769.4508190232841
 20
1052.617575755493
 30
0.0
 10
798.4100544464486
 20
1056.776284690336
 30
0.0
 10
827.3235874198322
 20
1061.231632242814
 30
0.0
  0
ARC
  5
19C4
330
A
100
AcDbEntity
  8
MODEL
  6
HIDDEN
 48
0.05
100
AcDbCircle
 10
536.2276269338577
 20
1023.392677042969
 30
0.0
 40
14.99999999999998
100
AcDbArc
 50
50.00015701850499
 51
86.7811384418979
  0
ARC
  5
19C5
330
A
100
AcDbEntity
  8
MODEL
  6
HIDDEN
 48
0.05
100
AcDbCircle
 10
624.7402995871266
 20
1023.392684780993
 30
0.0
 40
15.00000000000001
100
AcDbArc
 50
93.21887157573154
 51
129.9998529995506
  0
LINE
  5
19C6
330
A
100
AcDbEntity
  8
MODEL
  6
HIDDEN
 48
0.05
100
AcDbLine
 10
545.869409589071
 20
1034.883370113
 30
0.0
 11
556.8864748484516
 21
1025.639006167163
 31
0.0
  0
LINE
  5
19C7
330
A
100
AcDbEntity
  8
MODEL
  6
HIDDEN
 48
0.05
100
AcDbLine
 10
558.5839664184346
 20
987.2700057749204
 30
0.0
 11
557.9576675087769
 21
1023.392873788855
 31
0.0
  0
ARC
  5
19C8
330
A
100
AcDbEntity
  8
MODEL
  6
HIDDEN
 48
0.05
100
AcDbCircle
 10
554.9581183174118
 20
1023.340867553157
 30
0.0
 40
2.999999999999995
100
AcDbArc
 50
0.9932956924801214
 51
50.00015701851522
  0
LINE
  5
19C9
330
A
100
AcDbEntity
  8
MODEL
100
AcDbLine
 10
616.7437289738477
 20
1013.099128846433
 30
0.0
 11
819.2397789532802
 21
1013.099151244184
 31
0.0
  0
SPLINE
  5
19CA
330
A
100
AcDbEntity
  8
MODEL
100
AcDbSpline
210
0.0
220
0.0
230
1.0
 70
     8
 71
     3
 72
    32
 73
    28
 74
     0
 42
0.000000001
 43
0.0000000001
 40
815.8293877725599
 40
815.8293877725599
 40
815.8293877725599
 40
815.8293877725599
 40
817.6319176691095
 40
822.0991266203785
 40
826.866097769157
 40
831.6330689179356
 40
836.9695446844635
 40
842.3060204509912
 40
848.2561356099939
 40
854.2062507689964
 40
860.6851404250475
 40
867.1640300810986
 40
874.0552979943463
 40
880.946565907594
 40
888.1538935952717
 40
895.3612212829494
 40
910.2578945447674
 40
925.5202482284009
 40
941.0616610841785
 40
956.8201639176453
 40
972.748528677947
 40
988.809879988973
 40
1004.975656189636
 40
1021.223053507715
 40
1037.532909100321
 40
1053.888964064236
 40
1060.223342836221
 40
1060.223342836221
 40
1060.223342836221
 40
1060.223342836221
 10
341.728149357175
 20
1013.099109498788
 30
0.0
 10
341.7281220279215
 20
1013.099109472481
 30
0.0
 10
341.7757141089783
 20
1013.099109385109
 30
0.0
 10
342.1533414070177
 20
1013.099109257327
 30
0.0
 10
343.1451407448944
 20
1013.099109144217
 30
0.0
 10
344.7012477670391
 20
1013.09910907365
 30
0.0
 10
346.7863559374923
 20
1013.099109049768
 30
0.0
 10
349.4748470340087
 20
1013.099109072356
 30
0.0
 10
352.6626728538208
 20
1013.099109141426
 30
0.0
 10
356.4226152539736
 20
1013.09910925843
 30
0.0
 10
360.6177647451
 20
1013.099109418976
 30
0.0
 10
365.3072841778226
 20
1013.099109624678
 30
0.0
 10
370.3497610919035
 20
1013.099109868707
 30
0.0
 10
375.7986005773305
 20
1013.099110152917
 30
0.0
 10
381.5284513230758
 20
1013.099110470059
 30
0.0
 10
389.6455263674902
 20
1013.099110941677
 30
0.0
 10
400.3872632560774
 20
1013.099111604157
 30
0.0
 10
414.0094961331883
 20
1013.099112496053
 30
0.0
 10
428.2746081606633
 20
1013.099113474927
 30
0.0
 10
443.0515553863256
 20
1013.099114528611
 30
0.0
 10
458.2381438407424
 20
1013.099115647231
 30
0.0
 10
473.752604347344
 20
1013.099116822683
 30
0.0
 10
489.5284345075665
 20
1013.099118048243
 30
0.0
 10
505.510944061501
 20
1013.099119318317
 30
0.0
 10
521.6526224090953
 20
1013.099120628081
 30
0.0
 10
534.5832441977941
 20
1013.099121697956
 30
0.0
 10
542.1191575898733
 20
1013.099122329531
 30
0.0
 10
544.2242181268552
 20
1013.099122506576
 30
0.0
  0
LINE
  5
19CB
330
A
100
AcDbEntity
  8
MODEL
100
AcDbLine
 10
823.3902162695917
 20
1013.099148940777
 30
0.0
 11
852.6415079145113
 21
1013.09915428442
 31
0.0
  0
LINE
  5
19CC
330
A
100
AcDbEntity
  8
MODEL
100
AcDbLine
 10
308.3262251525698
 20
1013.099106698863
 30
0.0
 11
337.5768492105522
 21
1013.099106469664
 31
0.0
  0
LINE
  5
19CD
330
A
100
AcDbEntity
  8
MODEL
100
AcDbLine
 10
602.3839664184375
 20
987.2700096040383
 30
0.0
 11
558.5839664184346
 21
987.2700057749205
 31
0.0
  0
LINE
  5
19CE
330
A
100
AcDbEntity
  8
MODEL
  6
HIDDEN
 48
0.05
100
AcDbLine
 10
556.8864748484516
 20
1025.639006167163
 30
0.0
 11
604.0814512797765
 21
1025.639010293079
 31
0.0
  0
LINE
  5
19D4
330
A
100
AcDbEntity
  8
MODEL
100
AcDbLine
 10
341.728149357175
 20
1013.099109498788
 30
0.0
 11
337.5776912761244
 21
1013.099109135944
 31
0.0
  0
LINE
  5
19D5
330
A
100
AcDbEntity
  8
MODEL
100
AcDbLine
 10
823.3902106967685
 20
1013.099151607027
 30
0.0
 11
819.2397789532802
 21
1013.099151244184
 31
0.0
  0
LINE
  5
19E6
330
A
100
AcDbEntity
  8
MODEL
100
AcDbLine
 10
308.3262251525698
 20
1013.099106698863
 30
0.0
 11
305.5800165953656
 21
1013.099106458781
 31
0.0
  0
LINE
  5
19E7
330
A
100
AcDbEntity
  8
MODEL
100
AcDbLine
 10
855.3879117254069
 20
1013.099154524518
 30
0.0
 11
852.6415079145113
 21
1013.09915428442
 31
0.0
  0
LINE
  5
19EA
330
A
100
AcDbEntity
  8
MODEL
100
AcDbLine
 10
614.7235567512503
 20
990.008543454557
 30
0.0
 11
616.7437289738477
 21
1013.099128846433
 31
0.0
  0
LINE
  5
19EB
330
A
100
AcDbEntity
  8
MODEL
100
AcDbLine
 10
549.232959940487
 20
987.2700049574294
 30
0.0
 11
558.5839664184346
 21
987.2700057749204
 31
0.0
  0
LINE
  5
19EC
330
A
100
AcDbEntity
  8
MODEL
100
AcDbLine
 10
602.3839664184375
 20
987.2700096040384
 30
0.0
 11
611.734972896385
 21
987.2700104215294
 31
0.0
  0
ARC
  5
19ED
330
A
100
AcDbEntity
  8
MODEL
100
AcDbCircle
 10
611.7349560476537
 20
990.2700285224732
 30
0.0
 40
3.000018100991869
100
AcDbArc
 50
270.0003217851234
 51
354.9996882325836
  0
LINE
  5
19EE
330
A
100
AcDbEntity
  8
MODEL
100
AcDbLine
 10
236.4836958974879
 20
1163.09910695492
 30
0.0
 11
254.8878220354777
 21
1163.09910856386
 31
0.0
  0
LINE
  5
19F0
330
A
100
AcDbEntity
  8
MODEL
100
AcDbLine
 10
906.080080058458
 20
1163.0991654929
 30
0.0
 11
924.4842061964405
 21
1163.09916710184
 31
0.0
  0
LINE
  5
19F1
330
A
100
AcDbEntity
  8
MODEL
  6
HIDDEN
 48
0.05
100
AcDbLine
 10
615.0985149228177
 20
1034.883376165201
 30
0.0
 11
604.0814512797765
 21
1025.639010293079
 31
0.0
  0
LINE
  5
19F2
330
A
100
AcDbEntity
  8
MODEL
  6
HIDDEN
 48
0.05
100
AcDbLine
 10
602.3839664184375
 20
987.2700096040384
 30
0.0
 11
603.010259012171
 21
1023.392877727478
 31
0.0
  0
ARC
  5
19F3
330
A
100
AcDbEntity
  8
MODEL
  6
HIDDEN
 48
0.05
100
AcDbCircle
 10
606.009809462575
 20
1023.340871420134
 30
0.0
 40
3.000001260086832
100
AcDbArc
 50
129.9998639685591
 51
179.0067033562465
  0
LINE
  5
19F4
330
A
100
AcDbEntity
  8
MODEL
100
AcDbLine
 10
308.3266702531796
 20
1013.099106731931
 30
0.0
 11
308.4632108579713
 21
1013.10226378303
 31
0.0
  0
CIRCLE
  5
19F6
330
A
100
AcDbEntity
  8
MODEL
  6
HIDDEN
 48
0.005
100
AcDbCircle
 10
580.4839664184433
 20
1128.099121402658
 30
0.0
 40
12.0
  0
LINE
  5
19F7
330
A
100
AcDbEntity
  8
MODEL
  6
HIDDEN
 48
0.05
100
AcDbLine
 10
621.7872955701055
 20
1038.099138033748
 30
0.0
 11
539.1805924139658
 21
1038.099138033748
 31
0.0
  0
ARC
  5
1A0A
330
A
100
AcDbEntity
  8
MODEL
  6
HIDDEN
 48
0.05
100
AcDbCircle
 10
1614.042310274619
 20
1101.140465667231
 30
0.0
 40
46.3451829731763
100
AcDbArc
 50
292.1061279338601
 51
324.2057780930165
  0
ARC
  5
1A0D
330
A
100
AcDbEntity
  8
MODEL
  6
HIDDEN
 48
0.05
100
AcDbCircle
 10
1412.099559568151
 20
1101.140474494437
 30
0.0
 40
46.3451829731763
100
AcDbArc
 50
215.7942168978488
 51
247.8938670572992
  0
SPLINE
  5
1A0F
102
{ACAD_REACTORS
330
1D6F
102
}
330
A
100
AcDbEntity
  8
MODEL
100
AcDbSpline
210
0.0
220
0.0
230
1.0
 70
     8
 71
     3
 72
    41
 73
    37
 74
     0
 42
0.000000001
 43
0.0000000001
 40
0.0
 40
0.0
 40
0.0
 40
0.0
 40
15.39455987668175
 40
35.55736381164589
 40
58.66697527252038
 40
74.37132038993124
 40
90.83763341976703
 40
106.5700332531399
 40
122.3177298444023
 40
138.8330131437602
 40
154.6159233521528
 40
170.4182724543061
 40
186.9962365859786
 40
202.8451907348031
 40
218.7209596751381
 40
235.3850138241556
 40
251.3261695903357
 40
262.8644284990689
 40
274.9744983430379
 40
286.5564973760721
 40
298.1608695834076
 40
310.3415238816653
 40
321.9896841005083
 40
336.3153263956997
 40
351.3429290644362
 40
360.2272934569166
 40
365.6945447009955
 40
365.6945447009955
 40
365.6945447009955
 40
365.6945928716264
 40
365.6945928716264
 40
365.6945928716264
 40
551.3781293807135
 40
551.3781293807135
 40
551.3781293807135
 40
569.6939829597686
 40
569.6939829597686
 40
569.6939829597686
 40
569.6939829597686
 10
1327.390043105594
 20
1163.09916426392
 30
0.0
 10
1327.390042881298
 20
1163.099164039631
 30
0.0
 10
1327.614649054411
 20
1163.099163511702
 30
0.0
 10
1328.840986884408
 20
1163.099162604725
 30
0.0
 10
1331.126309974932
 20
1163.099161650963
 30
0.0
 10
1334.166408428208
 20
1163.099160723497
 30
0.0
 10
1337.455634299337
 20
1163.099159896541
 30
0.0
 10
1341.416905597753
 20
1163.099159046432
 30
0.0
 10
1346.052208668798
 20
1163.099158174307
 30
0.0
 10
1351.398218319335
 20
1163.099157280514
 30
0.0
 10
1357.480308419186
 20
1163.09915636597
 30
0.0
 10
1364.309162162956
 20
1163.0991554321
 30
0.0
 10
1371.93307101292
 20
1163.099154479838
 30
0.0
 10
1380.387327938237
 20
1163.099153510957
 30
0.0
 10
1389.68866040297
 20
1163.099152527931
 30
0.0
 10
1399.891931010365
 20
1163.099151533526
 30
0.0
 10
1410.012702693841
 20
1163.099150623595
 30
0.0
 10
1419.726889834658
 20
1163.099149808149
 30
0.0
 10
1428.859713172822
 20
1163.099149085792
 30
0.0
 10
1438.492848358923
 20
1163.099148368906
 30
0.0
 10
1448.603395541677
 20
1163.099147661276
 30
0.0
 10
1459.176268076784
 20
1163.099146968023
 30
0.0
 10
1470.991962327671
 20
1163.099146244589
 30
0.0
 10
1484.120925654503
 20
1163.099145501655
 30
0.0
 10
1496.696159332036
 20
1163.099144855361
 30
0.0
 10
1506.464525214751
 20
1163.099144394473
 30
0.0
 10
1511.248651545224
 20
1163.099144180763
 30
0.0
 10
1513.070925583246
 20
1163.099144101106
 30
0.0
 10
1513.070941638862
 20
1163.099144101106
 30
0.0
 10
1513.070957694478
 20
1163.099144101106
 30
0.0
 10
1513.070973750093
 20
1163.099144101106
 30
0.0
 10
1574.960623548386
 20
1163.099141471735
 30
0.0
 10
1636.85027334668
 20
1163.099138842357
 30
0.0
 10
1698.739923144973
 20
1163.099136212986
 30
0.0
 10
1704.844728046234
 20
1163.09913595362
 30
0.0
 10
1710.949532947494
 20
1163.099135694261
 30
0.0
 10
1717.054337848755
 20
1163.099135434895
 30
0.0
  0
SPLINE
  5
1A10
330
A
100
AcDbEntity
  8
MODEL
  6
HIDDEN
 48
0.05
100
AcDbSpline
210
0.0
220
0.0
230
1.0
 70
     8
 71
     7
 72
    16
 73
     8
 74
     0
 42
0.000000001
 43
0.0000000001
 40
0.1186007593006308
 40
0.1186007593006308
 40
0.1186007593006308
 40
0.1186007593006308
 40
0.1186007593006308
 40
0.1186007593006308
 40
0.1186007593006308
 40
0.1186007593006308
 40
0.9612699988107102
 40
0.9612699988107102
 40
0.9612699988107102
 40
0.9612699988107102
 40
0.9612699988107102
 40
0.9612699988107102
 40
0.9612699988107102
 40
0.9612699988107102
 10
1374.507922343166
 20
1074.034298158359
 30
0.0
 10
1366.582682681276
 20
1085.025252050087
 30
0.0
 10
1359.402675778523
 20
1096.553590023795
 30
0.0
 10
1352.937653300416
 20
1108.505420108333
 30
0.0
 10
1347.132107273841
 20
1120.782827773444
 30
0.0
 10
1341.926319791817
 20
1133.315753223876
 30
0.0
 10
1337.26545852165
 20
1146.0498750779
 30
0.0
 10
1333.099429842032
 20
1158.943859387516
 30
0.0
  0
ARC
  5
1A12
330
A
100
AcDbEntity
  8
MODEL
  6
HIDDEN
 48
0.05
100
AcDbCircle
 10
1327.390042843325
 20
1157.09916426392
 30
0.0
 40
6.0
100
AcDbArc
 50
17.90557372263897
 51
89.99999749537496
  0
ARC
  5
1A13
330
A
100
AcDbEntity
  8
MODEL
  6
HIDDEN
 48
0.05
100
AcDbCircle
 10
1698.751831891508
 20
1157.099148031185
 30
0.0
 40
6.0
100
AcDbArc
 50
89.99999749537496
 51
162.0944212685489
  0
ARC
  5
1A14
330
A
100
AcDbEntity
  8
MODEL
100
AcDbCircle
 10
1309.099434832924
 20
1157.099165063431
 30
0.0
 40
6.000000000000042
100
AcDbArc
 50
89.99999749537496
 51
196.7257604543808
  0
ARC
  5
1A15
330
A
100
AcDbEntity
  8
MODEL
100
AcDbCircle
 10
1717.042439901909
 20
1157.099147231674
 30
0.0
 40
6.000000000000042
100
AcDbArc
 50
343.2742345366482
 51
89.99999749537496
  0
SPLINE
  5
1A16
330
A
100
AcDbEntity
  8
MODEL
  6
HIDDEN
 48
0.05
100
AcDbSpline
210
0.0
220
0.0
230
1.0
 70
     8
 71
     7
 72
    16
 73
     8
 74
     0
 42
0.000000001
 43
0.0000000001
 40
0.1369567847846957
 40
0.1369567847846957
 40
0.1369567847846957
 40
0.1369567847846957
 40
0.1369567847846957
 40
0.1369567847846957
 40
0.1369567847846957
 40
0.1369567847846957
 40
0.9550116963081758
 40
0.9550116963081758
 40
0.9550116963081758
 40
0.9550116963081758
 40
0.9550116963081758
 40
0.9550116963081758
 40
0.9550116963081758
 40
0.9550116963081758
 10
1394.658781039731
 20
1058.20220218243
 30
0.0
 10
1405.033288083787
 20
1053.98825807256
 30
0.0
 10
1415.613591474952
 20
1050.280841689316
 30
0.0
 10
1426.359253667657
 20
1047.066268212431
 30
0.0
 10
1437.233605331201
 20
1044.322594798366
 30
0.0
 10
1448.20590814603
 20
1042.023307779229
 30
0.0
 10
1459.251039808069
 20
1040.14107439899
 30
0.0
 10
1470.34862345323
 20
1038.648947763249
 30
0.0
  0
SPLINE
  5
1A18
330
A
100
AcDbEntity
  8
MODEL
  6
HIDDEN
 48
0.05
100
AcDbSpline
210
0.0
220
0.0
230
1.0
 70
     8
 71
     3
 72
    16
 73
    12
 74
     0
 42
0.000000001
 43
0.0000000001
 40
0.0
 40
0.0
 40
0.0
 40
0.0
 40
7.588795413178041
 40
16.93556544114414
 40
26.2836930300527
 40
35.66487303875809
 40
44.67872134507342
 40
49.4970431866089
 40
54.29098070277081
 40
60.75068492398829
 40
69.85004091432067
 40
69.85004091432067
 40
69.85004091432067
 40
69.85004091432067
 10
1470.34862345323
 20
1038.648947763249
 30
0.0
 10
1470.348623346856
 20
1038.648947656889
 30
0.0
 10
1470.794667698783
 20
1038.64156200509
 30
0.0
 10
1473.018735830925
 20
1038.604535129088
 30
0.0
 10
1477.130114974154
 20
1038.545807516515
 30
0.0
 10
1482.779642148269
 20
1038.484396872612
 30
0.0
 10
1488.637738965676
 20
1038.440180225959
 30
0.0
 10
1493.876988645401
 20
1038.412022610289
 30
0.0
 10
1498.665350355563
 20
1038.392525843424
 30
0.0
 10
1505.039234677597
 20
1038.375361377322
 30
0.0
 10
1510.107013459876
 20
1038.370471840222
 30
0.0
 10
1513.070930280357
 20
1038.370471710666
 30
0.0
  0
SPLINE
  5
1A19
330
A
100
AcDbEntity
  8
MODEL
  6
HIDDEN
 48
0.05
100
AcDbSpline
210
0.0
220
0.0
230
1.0
 70
     8
 71
     7
 72
    16
 73
     8
 74
     0
 42
0.000000001
 43
0.0000000001
 40
0.1369567847846957
 40
0.1369567847846957
 40
0.1369567847846957
 40
0.1369567847846957
 40
0.1369567847846957
 40
0.1369567847846957
 40
0.1369567847846957
 40
0.1369567847846957
 40
0.955011696308176
 40
0.955011696308176
 40
0.955011696308176
 40
0.955011696308176
 40
0.955011696308176
 40
0.955011696308176
 40
0.955011696308176
 40
0.955011696308176
 10
1631.483085049249
 20
1058.202191830503
 30
0.0
 10
1621.108577636804
 20
1053.988248627611
 30
0.0
 10
1610.528273921524
 20
1050.280833169315
 30
0.0
 10
1599.782611447792
 20
1047.066260631858
 30
0.0
 10
1588.908259544389
 20
1044.322588168455
 30
0.0
 10
1577.935956528547
 20
1042.023302108551
 30
0.0
 10
1566.890824701963
 20
1040.141069693905
 30
0.0
 10
1555.793240926358
 20
1038.648944028354
 30
0.0
  0
SPLINE
  5
1A1B
330
A
100
AcDbEntity
  8
MODEL
  6
HIDDEN
 48
0.05
100
AcDbSpline
210
0.0
220
0.0
230
1.0
 70
     8
 71
     3
 72
    20
 73
    16
 74
     0
 42
0.000000001
 43
0.0000000001
 40
0.0
 40
0.0
 40
0.0
 40
0.0
 40
5.874697630218674
 40
10.69856179143204
 40
15.31013760930727
 40
20.14605909227019
 40
25.01059710878736
 40
29.91237098835842
 40
34.58391825594373
 40
39.49234519108781
 40
44.46220991425603
 40
51.0145499096494
 40
55.69812083472367
 40
61.83427354968384
 40
69.85014342868416
 40
69.85014342868416
 40
69.85014342868416
 40
69.85014342868416
 10
1513.070930280357
 20
1038.370471710666
 30
0.0
 10
1514.984484947292
 20
1038.370471627022
 30
0.0
 10
1518.469243900165
 20
1038.372637474785
 30
0.0
 10
1523.370527414822
 20
1038.381352091622
 30
0.0
 10
1527.812233370494
 20
1038.394017839418
 30
0.0
 10
1532.086472609326
 20
1038.411166846119
 30
0.0
 10
1536.204068275567
 20
1038.433091225502
 30
0.0
 10
1539.982773565569
 20
1038.458747494478
 30
0.0
 10
1543.440935731449
 20
1038.487663416024
 30
0.0
 10
1546.544786935503
 20
1038.518851076987
 30
0.0
 10
1549.581019021023
 20
1038.554770755719
 30
0.0
 10
1552.001165860702
 20
1038.588397932566
 30
0.0
 10
1553.959255982836
 20
1038.618570883503
 30
0.0
 10
1555.399300505988
 20
1038.642373687987
 30
0.0
 10
1555.793240813995
 20
1038.648943915999
 30
0.0
 10
1555.793240926358
 20
1038.648944028354
 30
0.0
  0
ARC
  5
1A1C
330
A
100
AcDbEntity
  8
MODEL
 48
0.05
100
AcDbCircle
 10
1468.349783820906
 20
1023.782722952492
 30
0.0
 40
15.0
100
AcDbArc
 50
50.00014950488836
 51
82.34221652460968
  0
ARC
  5
1A1D
330
A
100
AcDbEntity
  8
MODEL
  6
HIDDEN
 48
0.05
100
AcDbCircle
 10
1557.792079259029
 20
1023.782719042843
 30
0.0
 40
14.99999999999999
100
AcDbArc
 50
97.65777846649262
 51
129.9998454862959
  0
ARC
  5
1A1F
330
A
100
AcDbEntity
  8
MODEL
100
AcDbCircle
 10
1084.129545291942
 20
1347.29119303605
 30
0.0
 40
666.8719591954294
100
AcDbArc
 50
330.2243859286538
 51
343.2743331298205
  0
ARC
  5
1A22
330
A
100
AcDbEntity
  8
MODEL
100
AcDbCircle
 10
1942.012346070011
 20
1347.291155536797
 30
0.0
 40
666.8719591954408
100
AcDbArc
 50
196.7256618611974
 51
209.7756090623596
  0
ARC
  5
1A25
330
A
100
AcDbEntity
  8
MODEL
100
AcDbCircle
 10
1368.390730500838
 20
1019.099155934986
 30
0.0
 40
6.0
100
AcDbArc
 50
209.7755372160395
 51
269.999997495375
  0
ARC
  5
1A26
330
A
100
AcDbEntity
  8
MODEL
100
AcDbCircle
 10
1657.75113216965
 20
1019.09914328665
 30
0.0
 40
6.0
100
AcDbArc
 50
269.999997495375
 51
330.2244577749353
  0
SPLINE
  5
1A29
330
A
100
AcDbEntity
  8
MODEL
100
AcDbSpline
210
0.0
220
0.0
230
1.0
 70
     8
 71
     3
 72
    12
 73
     8
 74
     0
 42
0.000000001
 43
0.0000000001
 40
6.633048961249121
 40
6.633048961249121
 40
6.633048961249121
 40
6.633048961249121
 40
23.90458310525554
 40
36.65126788343171
 40
45.03383961349738
 40
52.62244590855227
 40
54.60340353864288
 40
54.60340353864288
 40
54.60340353864288
 40
54.60340353864288
 10
1612.582003773065
 20
1012.105315331959
 30
0.0
 10
1607.027566895877
 20
1010.388902674029
 30
0.0
 10
1597.355024986288
 20
1007.468622147273
 30
0.0
 10
1584.932674958907
 20
1003.853378635547
 30
0.0
 10
1575.601957009151
 20
1001.218474358051
 30
0.0
 10
1569.74019107293
 20
999.6101182253111
 30
0.0
 10
1566.601803824799
 20
998.7684258265432
 30
0.0
 10
1565.951442397773
 20
998.5949487088288
 30
0.0
  0
SPLINE
  5
1A2C
330
A
100
AcDbEntity
  8
MODEL
  6
HIDDEN
 48
0.05
100
AcDbSpline
210
0.0
220
0.0
230
1.0
 70
     8
 71
     7
 72
    16
 73
     8
 74
     0
 42
0.000000001
 43
0.0000000001
 40
0.1186007593006308
 40
0.1186007593006308
 40
0.1186007593006308
 40
0.1186007593006308
 40
0.1186007593006308
 40
0.1186007593006308
 40
0.1186007593006308
 40
0.1186007593006308
 40
0.5340910017102859
 40
0.5340910017102859
 40
0.5340910017102859
 40
0.5340910017102859
 40
0.5340910017102859
 40
0.5340910017102859
 40
0.5340910017102859
 40
0.5340910017102859
 10
1651.633945129905
 20
1074.034286044792
 30
0.0
 10
1655.54159951327
 20
1079.453534303545
 30
0.0
 10
1659.268078472616
 20
1085.003427391922
 30
0.0
 10
1662.817007879274
 20
1090.670313061469
 30
0.0
 10
1666.193506543035
 20
1096.441483389622
 30
0.0
 10
1669.403572783011
 20
1102.305520907197
 30
0.0
 10
1672.453642766485
 20
1108.252299964988
 30
0.0
 10
1686.666883190809
 20
1140.739833619351
 30
0.0
  0
ARC
  5
1A2E
330
A
100
AcDbEntity
  8
MODEL
  6
HIDDEN
 48
0.05
100
AcDbCircle
 10
1323.674243520005
 20
1278.088632625098
 30
0.0
 40
388.1086819996424
100
AcDbArc
 50
339.2744090122345
 51
342.1221806492495
  0
LINE
  5
1A36
330
A
100
AcDbEntity
  8
MODEL
  6
HIDDEN
 48
0.05
100
AcDbLine
 10
1536.668419836771
 20
1025.63902631781
 30
0.0
 11
1489.473443405454
 21
1025.639028380763
 31
0.0
  0
LINE
  5
1A37
102
{ACAD_REACTORS
330
1D6F
102
}
330
A
100
AcDbEntity
  8
MODEL
100
AcDbLine
 10
1491.170929943945
 20
987.2700277659238
 30
0.0
 11
1534.970929943948
 21
987.270025851372
 31
0.0
  0
LINE
  5
1A38
330
A
100
AcDbEntity
  8
MODEL
100
AcDbLine
 10
1400.170219701328
 20
1013.099148656743
 30
0.0
 11
1370.919462318727
 21
1013.099155824464
 31
0.0
  0
SPLINE
  5
1A39
330
A
100
AcDbEntity
  8
MODEL
100
AcDbSpline
210
0.0
220
0.0
230
1.0
 70
     8
 71
     3
 72
    17
 73
    13
 74
     0
 42
0.000000001
 43
0.0000000001
 40
289.4721628208882
 40
289.4721628208882
 40
289.4721628208882
 40
289.4721628208882
 40
296.9793043020009
 40
311.7859761314098
 40
327.1566595630237
 40
343.2063621445141
 40
360.0489105777004
 40
376.0768351431183
 40
392.8887528734468
 40
408.8791736249823
 40
423.9910204669372
 40
428.5053214361572
 40
428.5053214361572
 40
428.5053214361572
 40
428.5053214361572
 10
1655.222405736362
 20
1013.099143397186
 30
0.0
 10
1655.222406207859
 20
1013.0991432878
 30
0.0
 10
1655.141548233956
 20
1013.099142966217
 30
0.0
 10
1654.599062409854
 20
1013.099142441227
 30
0.0
 10
1653.256232106824
 20
1013.099141828766
 30
0.0
 10
1651.108849666131
 20
1013.099141225502
 30
0.0
 10
1648.125676779679
 20
1013.099140654892
 30
0.0
 10
1644.254219253575
 20
1013.099140120037
 30
0.0
 10
1639.59448551302
 20
1013.099139641715
 30
0.0
 10
1634.148288143179
 20
1013.099139223173
 30
0.0
 10
1629.454654179563
 20
1013.099138951416
 30
0.0
 10
1626.632680894092
 20
1013.099138816767
 30
0.0
 10
1625.970920825441
 20
1013.099138786616
 30
0.0
  0
LINE
  5
1A3A
330
A
100
AcDbEntity
  8
MODEL
100
AcDbLine
 10
1476.8111679091
 20
1013.099143335239
 30
0.0
 11
1404.321906190713
 21
1013.099154217641
 31
0.0
  0
ARC
  5
1A3B
330
A
100
AcDbEntity
  8
MODEL
100
AcDbCircle
 10
1550.405490282405
 20
990.961605115204
 30
0.0
 40
3.000128863520708
100
AcDbArc
 50
106.1874070164511
 51
174.9984712166294
  0
LINE
  5
1A3C
330
A
100
AcDbEntity
  8
MODEL
100
AcDbLine
 10
1717.042440164178
 20
1163.099147231674
 30
0.0
 11
1698.751832153778
 21
1163.099148031185
 31
0.0
  0
LINE
  5
1A3E
330
A
100
AcDbEntity
  8
MODEL
100
AcDbLine
 10
1327.390043105594
 20
1163.09916426392
 30
0.0
 11
1309.099435095193
 21
1163.099165063431
 31
0.0
  0
LINE
  5
1A40
330
A
100
AcDbEntity
  8
MODEL
  6
HIDDEN
 48
0.05
100
AcDbLine
 10
1477.991567982941
 20
1035.273414758157
 30
0.0
 11
1489.473443405454
 21
1025.639028380763
 31
0.0
  0
LINE
  5
1A41
330
A
100
AcDbEntity
  8
MODEL
  6
HIDDEN
 48
0.05
100
AcDbLine
 10
1536.668419836771
 20
1025.63902631781
 30
0.0
 11
1548.150296101541
 21
1035.273411691414
 31
0.0
  0
LINE
  5
1A44
330
A
100
AcDbEntity
  8
MODEL
  6
HIDDEN
 48
0.05
100
AcDbLine
 10
1491.170929943945
 20
987.2700277659238
 30
0.0
 11
1490.544635771234
 21
1023.392895861987
 31
0.0
  0
LINE
  5
1A45
330
A
100
AcDbEntity
  8
MODEL
  6
HIDDEN
 48
0.05
100
AcDbLine
 10
1535.597227274628
 20
1023.392893892676
 30
0.0
 11
1535.46964443138
 21
1016.034315170982
 31
0.0
  0
LINE
  5
1A46
330
A
100
AcDbEntity
  8
MODEL
  6
HIDDEN
 48
0.05
100
AcDbLine
 10
1535.261588748783
 20
1004.034315170982
 30
0.0
 11
1534.970929943948
 21
987.270025851372
 31
0.0
  0
ARC
  5
1A48
330
A
100
AcDbEntity
  8
MODEL
  6
HIDDEN
 48
0.05
100
AcDbCircle
 10
1538.596777718251
 20
1023.340887191974
 30
0.0
 40
3.000001260130151
100
AcDbArc
 50
129.9998564554678
 51
179.0066958425365
  0
ARC
  5
1A49
330
A
100
AcDbEntity
  8
MODEL
  6
HIDDEN
 48
0.05
100
AcDbCircle
 10
1487.545085323056
 20
1023.34088942351
 30
0.0
 40
3.000001260131097
100
AcDbArc
 50
0.9932991487131456
 51
50.00013853572704
  0
LINE
  5
1A5B
330
A
100
AcDbEntity
  8
MODEL
100
AcDbLine
 10
1655.222405736362
 20
1013.099143397186
 30
0.0
 11
1657.751131907388
 21
1013.09914328665
 31
0.0
  0
LINE
  5
1A5C
330
A
100
AcDbEntity
  8
MODEL
100
AcDbLine
 10
1368.390730238569
 20
1013.099155934986
 30
0.0
 11
1370.919462318727
 21
1013.099155824464
 31
0.0
  0
LINE
  5
1A63
330
A
100
AcDbEntity
  8
MODEL
100
AcDbLine
 10
1615.117448798845
 20
1012.868825280129
 30
0.0
 11
1549.569114245953
 21
993.8427938149176
 31
0.0
  0
LINE
  5
1A65
330
A
100
AcDbEntity
  8
MODEL
100
AcDbLine
 10
1619.976259781483
 20
1013.099144817672
 30
0.0
 11
1625.970926714623
 21
1013.099144555635
 31
0.0
  0
LINE
  5
1A66
330
A
100
AcDbEntity
  8
MODEL
100
AcDbLine
 10
1400.170929185637
 20
1013.099154425675
 30
0.0
 11
1404.321311459729
 21
1013.099154244257
 31
0.0
  0
ARC
  5
1A67
330
A
100
AcDbEntity
  8
MODEL
100
AcDbCircle
 10
1617.905033943882
 20
1003.265484238996
 30
0.0
 40
9.999739501270813
100
AcDbArc
 50
80.83086593192064
 51
106.1865561943262
  0
ARC
  5
1A6C
330
A
100
AcDbEntity
  8
MODEL
100
AcDbCircle
 10
1619.976408421293
 20
1016.099774195921
 30
0.0
 40
3.000629381930696
100
AcDbArc
 50
260.8352424125976
 51
269.9971617845951
  0
LINE
  5
1A6D
330
A
100
AcDbEntity
  8
MODEL
100
AcDbLine
 10
1478.831339491428
 20
990.008561077069
 30
0.0
 11
1476.8111679091
 21
1013.099143335239
 31
0.0
  0
LINE
  5
1A6E
330
A
100
AcDbEntity
  8
MODEL
100
AcDbLine
 10
1547.416784877582
 20
991.223163312861
 30
0.0
 11
1547.31052063588
 21
990.00855808374
 31
0.0
  0
LINE
  5
1A6F
330
A
100
AcDbEntity
  8
MODEL
100
AcDbLine
 10
1544.321936421902
 20
987.2700254426233
 30
0.0
 11
1534.970929943948
 21
987.270025851372
 31
0.0
  0
LINE
  5
1A70
330
A
100
AcDbEntity
  8
MODEL
100
AcDbLine
 10
1491.170929943945
 20
987.2700277659238
 30
0.0
 11
1481.819923465997
 21
987.2700281746726
 31
0.0
  0
ARC
  5
1A71
330
A
100
AcDbEntity
  8
MODEL
100
AcDbCircle
 10
1544.321919966691
 20
990.270043543445
 30
0.0
 40
3.000018100859389
100
AcDbArc
 50
270.000314269574
 51
354.9996807214372
  0
ARC
  5
1A72
330
A
100
AcDbEntity
  8
MODEL
100
AcDbCircle
 10
1481.81994018347
 20
990.2700462754798
 30
0.0
 40
3.000018100859311
100
AcDbArc
 50
185.0003142693167
 51
269.9996807220052
  0
SPLINE
  5
1A76
330
A
100
AcDbEntity
  8
MODEL
100
AcDbSpline
210
0.0
220
0.0
230
1.0
 70
     8
 71
     3
 72
    10
 73
     6
 74
     0
 42
0.000000001
 43
0.0000000001
 40
0.2191256956044443
 40
0.2191256956044443
 40
0.2191256956044443
 40
0.2191256956044443
 40
0.2244201643379941
 40
0.3366302469071519
 40
0.4488403297444917
 40
0.4488403297444917
 40
0.4488403297444917
 40
0.4488403297444917
 10
1404.540857141639
 20
1013.107130390468
 30
0.0
 10
1404.542533829668
 20
1013.107274829999
 30
0.0
 10
1404.579835583403
 20
1013.110546608695
 30
0.0
 10
1404.657857412391
 20
1013.119899798774
 30
0.0
 10
1404.733127113037
 20
1013.121695223431
 30
0.0
 10
1404.768866812241
 20
1013.132726329939
 30
0.0
  0
LINE
  5
1A77
330
A
100
AcDbEntity
  8
MODEL
100
AcDbLine
 10
1404.321677978884
 20
1013.099154266594
 30
0.0
 11
1404.434814741812
 21
1013.101295405991
 31
0.0
  0
SPLINE
  5
1A78
330
A
100
AcDbEntity
  8
MODEL
100
AcDbSpline
210
0.0
220
0.0
230
1.0
 70
     8
 71
     3
 72
    27
 73
    23
 74
     0
 42
0.000000001
 43
0.0000000001
 40
0.0
 40
0.0
 40
0.0
 40
0.0
 40
0.4771193103563767
 40
0.951212209089021
 40
1.421419607931999
 40
1.891208743812182
 40
2.356596555066425
 40
2.821608293092488
 40
3.282920224621721
 40
3.743890727111406
 40
4.20154215005565
 40
4.658883549865862
 40
5.113501108994233
 40
5.567833506230817
 40
6.019770251000623
 40
6.471443832444686
 40
6.921049495312533
 40
7.370410940025233
 40
8.031294696367235
 40
8.691688946807941
 40
9.348906166364007
 40
10.00567775099757
 40
10.00567775099757
 40
10.00567775099757
 40
10.00567775099757
 10
1612.27024043643
 20
1012.009270944727
 30
0.0
 10
1612.334343865083
 20
1012.029059719796
 30
0.0
 10
1612.459643066503
 20
1012.06769202723
 30
0.0
 10
1612.642471768572
 20
1012.123918823628
 30
0.0
 10
1612.811481838651
 20
1012.175770016787
 30
0.0
 10
1612.985029480542
 20
1012.228876586428
 30
0.0
 10
1613.139699894853
 20
1012.276087595521
 30
0.0
 10
1613.300178898555
 20
1012.324947655179
 30
0.0
 10
1613.44292406873
 20
1012.368298378474
 30
0.0
 10
1613.591375608745
 20
1012.413268727999
 30
0.0
 10
1613.72269555729
 20
1012.452949604303
 30
0.0
 10
1613.859416698759
 20
1012.494160870286
 30
0.0
 10
1613.98076254178
 20
1012.530647696032
 30
0.0
 10
1614.107116526537
 20
1012.5685489682
 30
0.0
 10
1614.218920970152
 20
1012.602005984088
 30
0.0
 10
1614.33549198196
 20
1012.636808440998
 30
0.0
 10
1614.438437674135
 20
1012.66747292679
 30
0.0
 10
1614.563007018957
 20
1012.704495660531
 30
0.0
 10
1614.683264596939
 20
1012.740141690876
 30
0.0
 10
1614.830800910908
 20
1012.783746491703
 30
0.0
 10
1614.939653252701
 20
1012.815793562862
 30
0.0
 10
1615.050996902906
 20
1012.848606119667
 30
0.0
 10
1615.071910834258
 20
1012.854678392737
 30
0.0
  0
SPLINE
  5
1A79
330
A
100
AcDbEntity
  8
MODEL
100
AcDbSpline
210
0.0
220
0.0
230
1.0
 70
     8
 71
     3
 72
    15
 73
    11
 74
     0
 42
0.000000001
 43
0.0000000001
 40
4.371153050211449
 40
4.371153050211449
 40
4.371153050211449
 40
4.371153050211449
 40
4.578831669779744
 40
5.045473400334554
 40
5.513821698046487
 40
5.984026583541366
 40
6.455961865674919
 40
6.930013240882918
 40
7.40583218619147
 40
9.913232985457135
 40
9.913232985457135
 40
9.913232985457135
 40
9.913232985457135
 10
1566.033879414825
 20
998.6180940209084
 30
0.0
 10
1566.033879451496
 20
998.6180939081456
 30
0.0
 10
1566.033061372326
 20
998.617865799322
 30
0.0
 10
1566.023688145315
 20
998.6152546491863
 30
0.0
 10
1566.012215414629
 20
998.6120469423983
 30
0.0
 10
1565.986624565825
 20
998.6048658111027
 30
0.0
 10
1565.961274833744
 20
998.5977271708031
 30
0.0
 10
1565.920995035549
 20
998.5863526435347
 30
0.0
 10
1565.81505748967
 20
998.5563026564265
 30
0.0
 10
1565.727029081702
 20
998.5314070544479
 30
0.0
 10
1565.567774434994
 20
998.4856141382112
 30
0.0
  0
SPLINE
  5
1A7A
330
A
100
AcDbEntity
  8
MODEL
100
AcDbSpline
210
0.0
220
0.0
230
1.0
 70
     8
 71
     3
 72
     9
 73
     5
 74
     0
 42
0.000000001
 43
0.0000000001
 40
0.0
 40
0.0
 40
0.0
 40
0.0
 40
0.1339496870539277
 40
0.2678993745613412
 40
0.2678993745613412
 40
0.2678993745613412
 40
0.2678993745613412
 10
1400.170484126944
 20
1013.099154458665
 30
0.0
 10
1400.140233361233
 20
1013.099158947145
 30
0.0
 10
1400.029602909343
 20
1013.103212326379
 30
0.0
 10
1399.946834113309
 20
1013.103075358471
 30
0.0
 10
1399.90292038286
 20
1013.111149853859
 30
0.0
  0
ARC
  5
1A81
330
A
100
AcDbEntity
  8
MODEL
  6
HIDDEN
 48
0.05
100
AcDbCircle
 10
1541.647263954574
 20
1009.924984810335
 30
0.0
 40
8.688320142276414
100
AcDbArc
 50
135.3125549149954
 51
222.6874450732406
  0
LINE
  5
1A91
330
A
100
AcDbEntity
  8
MODEL
100
AcDbLine
 10
813.2395238264903
 20
2023.765840249839
 30
0.0
 11
813.2395238264903
 21
2023.765840249839
 31
0.0
  0
CIRCLE
  5
1B6B
330
A
100
AcDbEntity
  8
MODEL
  6
HIDDEN
 48
0.05
100
AcDbCircle
 10
1572.938950529451
 20
2023.765840257496
 30
0.0
 40
21.90000000000146
  0
SPLINE
  5
1B6C
330
A
100
AcDbEntity
  8
MODEL
  6
HIDDEN
 48
0.05
100
AcDbSpline
210
0.0
220
0.0
230
1.0
 70
     8
 71
     3
 72
    31
 73
    27
 74
     0
 42
0.000000001
 43
0.0000000001
 40
0.0
 40
0.0
 40
0.0
 40
0.0
 40
17.20622303609974
 40
39.74124777123195
 40
65.56718878179062
 40
83.9488451111911
 40
101.5076771439692
 40
119.9170922850861
 40
137.5046880154095
 40
155.1082624905364
 40
173.5690313935199
 40
191.2108442769423
 40
209.7169191259669
 40
227.4085024108466
 40
245.1307381944814
 40
263.7361196511791
 40
281.375345133498
 40
296.4293276530935
 40
310.8405653104624
 40
325.9883741135029
 40
340.5019590885989
 40
355.0733981972704
 40
369.0053851434498
 40
382.1665584468071
 40
395.9888411969375
 40
409.199185432121
 40
409.199185432121
 40
409.199185432121
 40
409.199185432121
 10
1572.938950529451
 20
1843.765939618288
 30
0.0
 10
1578.616766643468
 20
1843.765939618288
 30
0.0
 10
1591.730954844037
 20
1843.963494481858
 30
0.0
 10
1613.343812953599
 20
1845.043066167718
 30
0.0
 10
1635.274981616412
 20
1847.083364036038
 30
0.0
 10
1655.470875646226
 20
1849.784211235827
 30
0.0
 10
1673.146685780919
 20
1852.754717334023
 30
0.0
 10
1690.44612980577
 20
1856.282541957338
 30
0.0
 10
1707.612737536734
 20
1860.43472172932
 30
0.0
 10
1724.620408563727
 20
1865.221401301077
 30
0.0
 10
1741.427966450492
 20
1870.687132000302
 30
0.0
 10
1758.249090428178
 20
1876.96562251375
 30
0.0
 10
1774.513490673502
 20
1883.905495944894
 30
0.0
 10
1790.411173033053
 20
1891.654068812573
 30
0.0
 10
1805.87272635802
 20
1900.248856654702
 30
0.0
 10
1820.737037894227
 20
1909.744166148709
 30
0.0
 10
1834.180683062599
 20
1919.692079366609
 30
0.0
 10
1845.822538383187
 20
1929.63763400147
 30
0.0
 10
1856.126702277213
 20
1939.779937929091
 30
0.0
 10
1865.45152274925
 20
1950.536637505334
 30
0.0
 10
1873.775030985
 20
1962.079832695102
 30
0.0
 10
1880.698878324254
 20
1973.997374578596
 30
0.0
 10
1886.104510311836
 20
1986.141530022057
 30
0.0
 10
1890.032682892166
 20
1998.53861856076
 30
0.0
 10
1892.407337670176
 20
2011.05644600058
 30
0.0
 10
1892.938907627196
 20
2019.593851849015
 30
0.0
 10
1892.938907627196
 20
2023.765840257496
 30
0.0
  0
SPLINE
  5
1B6D
330
A
100
AcDbEntity
  8
MODEL
  6
HIDDEN
 48
0.05
100
AcDbSpline
210
0.0
220
0.0
230
1.0
 70
     8
 71
     3
 72
    31
 73
    27
 74
     0
 42
0.000000001
 43
0.0000000001
 40
0.0
 40
0.0
 40
0.0
 40
0.0
 40
17.20622303609974
 40
39.74124777123195
 40
65.56718878179062
 40
83.9488451111911
 40
101.5076771439692
 40
119.9170922850861
 40
137.5046880154095
 40
155.1082624905364
 40
173.5690313935199
 40
191.2108442769423
 40
209.716919125967
 40
227.4085024108466
 40
245.1307381944815
 40
263.7361196511793
 40
281.3753451334979
 40
296.4293276530933
 40
310.8405653104621
 40
325.9883741135028
 40
340.5019590885987
 40
355.0733981972703
 40
369.0053851434496
 40
382.166558446807
 40
395.9888411969374
 40
409.1991854321209
 40
409.1991854321209
 40
409.1991854321209
 40
409.1991854321209
 10
1572.938950529451
 20
1843.765939618288
 30
0.0
 10
1567.261134415434
 20
1843.765939618288
 30
0.0
 10
1554.146946214865
 20
1843.963494481858
 30
0.0
 10
1532.534088105303
 20
1845.043066167718
 30
0.0
 10
1510.60291944249
 20
1847.083364036038
 30
0.0
 10
1490.407025412683
 20
1849.784211235827
 30
0.0
 10
1472.731215277983
 20
1852.754717334023
 30
0.0
 10
1455.431771253139
 20
1856.282541957338
 30
0.0
 10
1438.265163522168
 20
1860.43472172932
 30
0.0
 10
1421.257492495175
 20
1865.221401301077
 30
0.0
 10
1404.44993460841
 20
1870.687132000302
 30
0.0
 10
1387.628810630724
 20
1876.96562251375
 30
0.0
 10
1371.364410385407
 20
1883.905495944894
 30
0.0
 10
1355.466728025856
 20
1891.654068812573
 30
0.0
 10
1340.005174700889
 20
1900.248856654703
 30
0.0
 10
1325.140863164675
 20
1909.744166148709
 30
0.0
 10
1311.697217996303
 20
1919.692079366609
 30
0.0
 10
1300.055362675715
 20
1929.63763400147
 30
0.0
 10
1289.751198781689
 20
1939.779937929091
 30
0.0
 10
1280.426378309652
 20
1950.536637505334
 30
0.0
 10
1272.10287007391
 20
1962.079832695102
 30
0.0
 10
1265.179022734648
 20
1973.997374578596
 30
0.0
 10
1259.773390747066
 20
1986.141530022057
 30
0.0
 10
1255.845218166736
 20
1998.538618560759
 30
0.0
 10
1253.470563388726
 20
2011.05644600058
 30
0.0
 10
1252.938993431706
 20
2019.593851849015
 30
0.0
 10
1252.938993431706
 20
2023.765840257496
 30
0.0
  0
SPLINE
  5
1B6E
330
A
100
AcDbEntity
  8
MODEL
  6
HIDDEN
 48
0.05
100
AcDbSpline
210
0.0
220
0.0
230
1.0
 70
     8
 71
     3
 72
    31
 73
    27
 74
     0
 42
0.000000001
 43
0.0000000001
 40
0.0
 40
0.0
 40
0.0
 40
0.0
 40
17.20622303609974
 40
39.74124777123195
 40
65.56718878179063
 40
83.94884511119112
 40
101.5076771439692
 40
119.9170922850861
 40
137.5046880154095
 40
155.1082624905365
 40
173.5690313935199
 40
191.2108442769423
 40
209.716919125967
 40
227.4085024108466
 40
245.1307381944815
 40
263.736119651179
 40
281.3753451334978
 40
296.4293276530933
 40
310.840565310462
 40
325.9883741135026
 40
340.5019590885986
 40
355.0733981972702
 40
369.0053851434494
 40
382.1665584468067
 40
395.9888411969371
 40
409.1991854321206
 40
409.1991854321206
 40
409.1991854321206
 40
409.1991854321206
 10
1572.938950529451
 20
2203.765740896703
 30
0.0
 10
1578.616766643468
 20
2203.765740896703
 30
0.0
 10
1591.730954844037
 20
2203.568186033133
 30
0.0
 10
1613.343812953599
 20
2202.488614347274
 30
0.0
 10
1635.274981616412
 20
2200.448316478954
 30
0.0
 10
1655.470875646226
 20
2197.747469279165
 30
0.0
 10
1673.146685780919
 20
2194.776963180969
 30
0.0
 10
1690.44612980577
 20
2191.249138557654
 30
0.0
 10
1707.612737536734
 20
2187.096958785672
 30
0.0
 10
1724.620408563727
 20
2182.310279213915
 30
0.0
 10
1741.427966450492
 20
2176.844548514689
 30
0.0
 10
1758.249090428178
 20
2170.566058001242
 30
0.0
 10
1774.513490673502
 20
2163.626184570098
 30
0.0
 10
1790.411173033053
 20
2155.877611702419
 30
0.0
 10
1805.87272635802
 20
2147.28282386029
 30
0.0
 10
1820.737037894227
 20
2137.787514366283
 30
0.0
 10
1834.180683062599
 20
2127.839601148383
 30
0.0
 10
1845.822538383187
 20
2117.894046513522
 30
0.0
 10
1856.126702277221
 20
2107.751742585901
 30
0.0
 10
1865.45152274925
 20
2096.995043009658
 30
0.0
 10
1873.775030985
 20
2085.45184781989
 30
0.0
 10
1880.698878324254
 20
2073.534305936396
 30
0.0
 10
1886.104510311836
 20
2061.390150492935
 30
0.0
 10
1890.032682892166
 20
2048.993061954232
 30
0.0
 10
1892.407337670176
 20
2036.475234514412
 30
0.0
 10
1892.938907627196
 20
2027.937828665977
 30
0.0
 10
1892.938907627196
 20
2023.765840257496
 30
0.0
  0
SPLINE
  5
1B6F
330
A
100
AcDbEntity
  8
MODEL
  6
HIDDEN
 48
0.05
100
AcDbSpline
210
0.0
220
0.0
230
1.0
 70
     8
 71
     3
 72
    31
 73
    27
 74
     0
 42
0.000000001
 43
0.0000000001
 40
0.0
 40
0.0
 40
0.0
 40
0.0
 40
17.20622303609974
 40
39.74124777123195
 40
65.56718878179063
 40
83.94884511119112
 40
101.5076771439692
 40
119.9170922850861
 40
137.5046880154095
 40
155.1082624905365
 40
173.5690313935199
 40
191.2108442769423
 40
209.7169191259671
 40
227.4085024108466
 40
245.1307381944814
 40
263.7361196511792
 40
281.375345133498
 40
296.4293276530935
 40
310.8405653104621
 40
325.9883741135027
 40
340.5019590885986
 40
355.0733981972705
 40
369.0053851434498
 40
382.1665584468072
 40
395.9888411969376
 40
409.1991854321211
 40
409.1991854321211
 40
409.1991854321211
 40
409.1991854321211
 10
1572.938950529451
 20
2203.765740896703
 30
0.0
 10
1567.261134415434
 20
2203.765740896703
 30
0.0
 10
1554.146946214865
 20
2203.568186033133
 30
0.0
 10
1532.534088105303
 20
2202.488614347274
 30
0.0
 10
1510.60291944249
 20
2200.448316478954
 30
0.0
 10
1490.407025412683
 20
2197.747469279165
 30
0.0
 10
1472.731215277983
 20
2194.776963180969
 30
0.0
 10
1455.431771253139
 20
2191.249138557654
 30
0.0
 10
1438.265163522168
 20
2187.096958785672
 30
0.0
 10
1421.257492495175
 20
2182.310279213915
 30
0.0
 10
1404.44993460841
 20
2176.844548514689
 30
0.0
 10
1387.628810630724
 20
2170.566058001242
 30
0.0
 10
1371.364410385407
 20
2163.626184570098
 30
0.0
 10
1355.466728025856
 20
2155.877611702419
 30
0.0
 10
1340.005174700889
 20
2147.28282386029
 30
0.0
 10
1325.140863164675
 20
2137.787514366282
 30
0.0
 10
1311.697217996303
 20
2127.839601148383
 30
0.0
 10
1300.055362675715
 20
2117.894046513522
 30
0.0
 10
1289.751198781689
 20
2107.751742585901
 30
0.0
 10
1280.426378309652
 20
2096.995043009658
 30
0.0
 10
1272.10287007391
 20
2085.45184781989
 30
0.0
 10
1265.179022734648
 20
2073.534305936396
 30
0.0
 10
1259.773390747066
 20
2061.390150492935
 30
0.0
 10
1255.845218166736
 20
2048.993061954233
 30
0.0
 10
1253.470563388726
 20
2036.475234514412
 30
0.0
 10
1252.938993431706
 20
2027.937828665977
 30
0.0
 10
1252.938993431706
 20
2023.765840257496
 30
0.0
  0
SPLINE
  5
1B70
330
A
100
AcDbEntity
  8
MODEL
  6
HIDDEN
 48
0.05
100
AcDbSpline
210
0.0
220
0.0
230
1.0
 70
     8
 71
     3
 72
    21
 73
    17
 74
     0
 42
0.000000001
 43
0.0000000001
 40
0.0
 40
0.0
 40
0.0
 40
0.0
 40
7.703248485263469
 40
12.14127869254335
 40
16.53636877176768
 40
20.98372138006774
 40
25.79641386307836
 40
32.81524804656405
 40
37.35468934817564
 40
42.04077606815402
 40
46.81619953090485
 40
51.42390561991456
 40
56.22695997824268
 40
60.83549292495458
 40
65.21799422271896
 40
69.82764148488673
 40
69.82764148488673
 40
69.82764148488673
 40
69.82764148488673
 10
1572.938950529451
 20
1981.043494407326
 30
0.0
 10
1570.465499486881
 20
1981.043494407326
 30
0.0
 10
1566.564234976058
 20
1981.367794869948
 30
0.0
 10
1561.365121931098
 20
1982.497684313415
 30
0.0
 10
1557.295832105495
 20
1983.800330357269
 30
0.0
 10
1553.25995289441
 20
1985.53783071942
 30
0.0
 10
1548.681782293903
 20
1988.092021186824
 30
0.0
 10
1544.443831623122
 20
1991.256849114047
 30
0.0
 10
1540.68494336496
 20
1994.924264570511
 30
0.0
 10
1537.790206313408
 20
1998.416783066328
 30
0.0
 10
1535.273903156854
 20
2002.22957706723
 30
0.0
 10
1533.161837917809
 20
2006.332271558503
 30
0.0
 10
1531.521907530607
 20
2010.595554305424
 30
0.0
 10
1530.369165060043
 20
2014.944584093593
 30
0.0
 10
1529.679854104104
 20
2019.329711458245
 30
0.0
 10
1529.524868286416
 20
2022.262282045131
 30
0.0
 10
1529.524868286416
 20
2023.765840257496
 30
0.0
  0
SPLINE
  5
1B71
330
A
100
AcDbEntity
  8
MODEL
  6
HIDDEN
 48
0.05
100
AcDbSpline
210
0.0
220
0.0
230
1.0
 70
     8
 71
     3
 72
    21
 73
    17
 74
     0
 42
0.000000001
 43
0.0000000001
 40
0.0
 40
0.0
 40
0.0
 40
0.0
 40
7.703248485263404
 40
12.14127869254317
 40
16.53636877176736
 40
20.98372138006738
 40
25.79641386307803
 40
32.8152480465637
 40
37.35468934817517
 40
42.04077606815353
 40
46.81619953090436
 40
51.42390561991416
 40
56.22695997824234
 40
60.83549292495433
 40
65.21799422271879
 40
69.82764148488664
 40
69.82764148488664
 40
69.82764148488664
 40
69.82764148488664
 10
1572.938950529451
 20
1981.043494407326
 30
0.0
 10
1575.412401572021
 20
1981.043494407326
 30
0.0
 10
1579.313666082844
 20
1981.367794869948
 30
0.0
 10
1584.512779127804
 20
1982.497684313414
 30
0.0
 10
1588.582068953406
 20
1983.800330357269
 30
0.0
 10
1592.617948164492
 20
1985.537830719419
 30
0.0
 10
1597.196118765007
 20
1988.092021186824
 30
0.0
 10
1601.43406943578
 20
1991.256849114046
 30
0.0
 10
1605.192957693942
 20
1994.924264570511
 30
0.0
 10
1608.087694745501
 20
1998.416783066328
 30
0.0
 10
1610.603997902048
 20
2002.229577067229
 30
0.0
 10
1612.716063141093
 20
2006.332271558503
 30
0.0
 10
1614.355993528303
 20
2010.595554305424
 30
0.0
 10
1615.508735998859
 20
2014.944584093592
 30
0.0
 10
1616.198046954798
 20
2019.329711458245
 30
0.0
 10
1616.353032772493
 20
2022.262282045131
 30
0.0
 10
1616.353032772493
 20
2023.765840257496
 30
0.0
  0
SPLINE
  5
1B72
330
A
100
AcDbEntity
  8
MODEL
  6
HIDDEN
 48
0.05
100
AcDbSpline
210
0.0
220
0.0
230
1.0
 70
     8
 71
     3
 72
    21
 73
    17
 74
     0
 42
0.000000001
 43
0.0000000001
 40
0.0
 40
0.0
 40
0.0
 40
0.0
 40
5.627416019528443
 40
10.01072957355115
 40
14.59142782311457
 40
18.97559777456549
 40
23.610185749363
 40
28.0621012183788
 40
32.74577814252546
 40
37.43688596589551
 40
41.98599101312033
 40
47.17409026285429
 40
51.66426755830735
 40
56.44499336511397
 40
62.28431806492387
 40
69.8276848052392
 40
69.8276848052392
 40
69.8276848052392
 40
69.8276848052392
 10
1616.353032772493
 20
2023.765840257496
 30
0.0
 10
1616.353032772493
 20
2025.601370633106
 30
0.0
 10
1616.14225890031
 20
2028.866024898161
 30
0.0
 10
1615.29313327935
 20
2033.551342358101
 30
0.0
 10
1614.081147860603
 20
2037.731929188479
 30
0.0
 10
1612.417155899018
 20
2041.836279044214
 30
0.0
 10
1610.359762598955
 20
2045.703909583355
 30
0.0
 10
1607.860560457628
 20
2049.409294449825
 30
0.0
 10
1604.980596826905
 20
2052.839899123695
 30
0.0
 10
1601.733884891602
 20
2055.957332665083
 30
0.0
 10
1598.056581687049
 20
2058.811344094283
 30
0.0
 10
1594.148784738556
 20
2061.209059128786
 30
0.0
 10
1589.944199562755
 20
2063.203096697195
 30
0.0
 10
1585.36185174644
 20
2064.829557706677
 30
0.0
 10
1579.661185370916
 20
2066.138195697004
 30
0.0
 10
1575.361064831491
 20
2066.488186107666
 30
0.0
 10
1572.938950529451
 20
2066.488186107666
 30
0.0
  0
SPLINE
  5
1B73
330
A
100
AcDbEntity
  8
MODEL
  6
HIDDEN
 48
0.05
100
AcDbSpline
210
0.0
220
0.0
230
1.0
 70
     8
 71
     3
 72
    21
 73
    17
 74
     0
 42
0.000000001
 43
0.0000000001
 40
0.0
 40
0.0
 40
0.0
 40
0.0
 40
7.703248485263613
 40
12.14127869254371
 40
16.53636877176823
 40
20.9837213800683
 40
25.79641386307894
 40
32.81524804656459
 40
37.35468934817613
 40
42.04077606815448
 40
46.81619953090534
 40
51.42390561991511
 40
56.22695997824335
 40
60.83549292495509
 40
65.21799422271924
 40
69.82764148488675
 40
69.82764148488675
 40
69.82764148488675
 40
69.82764148488675
 10
1572.938950529451
 20
2066.488186107666
 30
0.0
 10
1570.465499486881
 20
2066.488186107666
 30
0.0
 10
1566.564234976058
 20
2066.163885645044
 30
0.0
 10
1561.365121931098
 20
2065.033996201577
 30
0.0
 10
1557.295832105495
 20
2063.731350157723
 30
0.0
 10
1553.25995289441
 20
2061.993849795572
 30
0.0
 10
1548.681782293903
 20
2059.439659328168
 30
0.0
 10
1544.443831623122
 20
2056.274831400945
 30
0.0
 10
1540.68494336496
 20
2052.607415944481
 30
0.0
 10
1537.790206313408
 20
2049.114897448664
 30
0.0
 10
1535.273903156854
 20
2045.302103447762
 30
0.0
 10
1533.161837917809
 20
2041.199408956488
 30
0.0
 10
1531.521907530607
 20
2036.936126209567
 30
0.0
 10
1530.369165060043
 20
2032.587096421399
 30
0.0
 10
1529.679854104104
 20
2028.201969056746
 30
0.0
 10
1529.524868286416
 20
2025.269398469861
 30
0.0
 10
1529.524868286416
 20
2023.765840257496
 30
0.0
  0
SPLINE
  5
1B74
330
A
100
AcDbEntity
  8
MODEL
100
AcDbSpline
210
0.0
220
0.0
230
1.0
 70
     8
 71
     3
 72
    22
 73
    18
 74
     0
 42
0.000000001
 43
0.0000000001
 40
0.0
 40
0.0
 40
0.0
 40
0.0
 40
4.046693966857047
 40
7.381235003802101
 40
10.37151048652065
 40
13.22639439929616
 40
16.21730513147056
 40
19.20821654150411
 40
22.06289716480049
 40
25.05329174780147
 40
27.90762996170516
 40
30.89790158499994
 40
33.88834613178816
 40
36.74297498365738
 40
39.73366866466782
 40
42.58835432515792
 40
45.55393332928434
 40
45.55393332928434
 40
45.55393332928434
 40
45.55393332928434
 10
1572.938950529451
 20
2186.068734490502
 30
0.0
 10
1571.596195178883
 20
2186.068734490502
 30
0.0
 10
1569.14713982459
 20
2186.209348131178
 30
0.0
 10
1565.948416551304
 20
2186.751089508703
 30
0.0
 10
1563.442293685597
 20
2187.464236032015
 30
0.0
 10
1561.418731082316
 20
2188.327093557759
 30
0.0
 10
1559.863903093906
 20
2189.329462367077
 30
0.0
 10
1558.854945863966
 20
2190.42947217726
 30
0.0
 10
1558.421089161695
 20
2191.577631285611
 30
0.0
 10
1558.577047640157
 20
2192.710231353483
 30
0.0
 10
1559.321089639712
 20
2193.815618625256
 30
0.0
 10
1560.621318885734
 20
2194.833876704136
 30
0.0
 10
1562.435832232977
 20
2195.722125247345
 30
0.0
 10
1564.677751373832
 20
2196.44921639065
 30
0.0
 10
1567.21868035336
 20
2196.980517571606
 30
0.0
 10
1570.023182970586
 20
2197.311508215902
 30
0.0
 10
1571.954753665033
 20
2197.386244836939
 30
0.0
 10
1572.938950529451
 20
2197.386244836939
 30
0.0
  0
SPLINE
  5
1B75
330
A
100
AcDbEntity
  8
MODEL
100
AcDbSpline
210
0.0
220
0.0
230
1.0
 70
     8
 71
     3
 72
    14
 73
    10
 74
     0
 42
0.000000001
 43
0.0000000001
 40
0.0
 40
0.0
 40
0.0
 40
0.0
 40
4.213343068063896
 40
7.764930243968658
 40
10.89123228210959
 40
13.88206091836861
 40
17.00895457356195
 40
19.99932493149225
 40
22.77730974210642
 40
22.77730974210642
 40
22.77730974210642
 40
22.77730974210642
 10
1572.938950529451
 20
2186.068734490502
 30
0.0
 10
1574.337002617101
 20
2186.068734490502
 30
0.0
 10
1576.913339378223
 20
2186.22284144508
 30
0.0
 10
1580.248185366041
 20
2186.817990018511
 30
0.0
 10
1582.830072358125
 20
2187.601888972571
 30
0.0
 10
1584.855535853186
 20
2188.537671863292
 30
0.0
 10
1586.328080734927
 20
2189.600161809944
 30
0.0
 10
1587.19013431321
 20
2190.725440270108
 30
0.0
 10
1587.374196497467
 20
2191.478004381092
 30
0.0
 10
1587.374271873077
 20
2191.839062843198
 30
0.0
  0
SPLINE
  5
1B76
330
A
100
AcDbEntity
  8
MODEL
100
AcDbSpline
210
0.0
220
0.0
230
1.0
 70
     8
 71
     3
 72
    14
 73
    10
 74
     0
 42
0.000000001
 43
0.0000000001
 40
0.0
 40
0.0
 40
0.0
 40
0.0
 40
4.421318128365902
 40
8.069854632729982
 40
11.33211879476032
 40
14.59458809227436
 40
17.85716031536547
 40
20.14215001182316
 40
22.77657919240668
 40
22.77657919240668
 40
22.77657919240668
 40
22.77657919240668
 10
1587.374271873077
 20
2191.839062843198
 30
0.0
 10
1587.374391837567
 20
2192.413707570487
 30
0.0
 10
1586.962957514783
 20
2193.455981502935
 30
0.0
 10
1585.380213973176
 20
2194.782818677812
 30
0.0
 10
1583.273125136167
 20
2195.801629331025
 30
0.0
 10
1580.724999411422
 20
2196.579515625337
 30
0.0
 10
1578.07786544044
 20
2197.065375003968
 30
0.0
 10
1575.445877851509
 20
2197.330153283767
 30
0.0
 10
1573.81324756739
 20
2197.386244836939
 30
0.0
 10
1572.938950529451
 20
2197.386244836939
 30
0.0
  0
LINE
  5
1B77
330
A
100
AcDbEntity
  8
MODEL
100
AcDbLine
 10
1572.938950529451
 20
2197.223987726221
 30
0.0
 11
1572.938950529451
 21
2197.386244836939
 31
0.0
  0
SPLINE
  5
1B78
330
A
100
AcDbEntity
  8
MODEL
  6
HIDDEN
 48
0.05
100
AcDbSpline
210
0.0
220
0.0
230
1.0
 70
     8
 71
     3
 72
    31
 73
    27
 74
     0
 42
0.000000001
 43
0.0000000001
 40
0.0
 40
0.0
 40
0.0
 40
0.0
 40
7.907572888958867
 40
19.32300193001834
 40
28.09426070902252
 40
39.47854836926928
 40
48.2186443167361
 40
57.99649670110609
 40
74.01061857214141
 40
86.77941476765237
 40
100.253681324527
 40
118.2846247920112
 40
137.0735569133303
 40
155.2837692420338
 40
181.7418344987892
 40
200.4758025565788
 40
220.8803294886346
 40
239.5599163481757
 40
258.2205249220839
 40
276.863996749707
 40
297.1873924304913
 40
334.4162197434308
 40
371.6179790189031
 40
410.4993369707404
 40
431.9929972076335
 40
446.5887169967711
 40
446.5887169967711
 40
446.5887169967711
 40
446.5887169967711
 10
1922.939205678927
 20
2023.765840257496
 30
0.0
 10
1922.939205678927
 20
2026.401266919832
 30
0.0
 10
1922.735660706958
 20
2032.843033789887
 30
0.0
 10
1921.720702120501
 20
2042.161811065203
 30
0.0
 10
1919.760670170681
 20
2052.507600256623
 30
0.0
 10
1917.245836113308
 20
2061.814365583312
 30
0.0
 10
1913.946393950484
 20
2071.224946971257
 30
0.0
 10
1909.440764109449
 20
2081.824349945422
 30
0.0
 10
1903.410879819332
 20
2093.194617959923
 30
0.0
 10
1895.750671364045
 20
2105.026689827509
 30
0.0
 10
1886.84084476705
 20
2116.803822393523
 30
0.0
 10
1875.674344430275
 20
2129.329823615967
 30
0.0
 10
1862.35613509765
 20
2141.964863844988
 30
0.0
 10
1845.956276111907
 20
2155.344800175954
 30
0.0
 10
1828.536218956053
 20
2167.348390837799
 30
0.0
 10
1809.688951169037
 20
2178.450024880808
 30
0.0
 10
1792.55218527599
 20
2187.285388754089
 30
0.0
 10
1775.008773497748
 20
2195.218175664905
 30
0.0
 10
1757.667321080042
 20
2202.123689919526
 30
0.0
 10
1739.52989904033
 20
2208.462756812204
 30
0.0
 10
1715.215653284866
 20
2215.825372699366
 30
0.0
 10
1684.479190418138
 20
2223.187897895801
 30
0.0
 10
1647.197985467957
 20
2229.383832377969
 30
0.0
 10
1614.804421376086
 20
2232.517296952196
 30
0.0
 10
1589.834083438638
 20
2233.613887089444
 30
0.0
 10
1577.804062564404
 20
2233.765840249839
 30
0.0
 10
1572.938950529451
 20
2233.765840249839
 30
0.0
  0
SPLINE
  5
1B79
330
A
100
AcDbEntity
  8
MODEL
  6
HIDDEN
 48
0.05
100
AcDbSpline
210
0.0
220
0.0
230
1.0
 70
     8
 71
     3
 72
    31
 73
    27
 74
     0
 42
0.000000001
 43
0.0000000001
 40
0.0
 40
0.0
 40
0.0
 40
0.0
 40
7.907572888958875
 40
19.32300193001837
 40
28.09426070902255
 40
39.47854836926933
 40
48.21864431673614
 40
57.99649670110618
 40
74.01061857214209
 40
86.77941476765346
 40
100.2536813245284
 40
118.2846247920124
 40
137.0735569133314
 40
155.2837692420349
 40
181.7418344987902
 40
200.4758025565798
 40
220.8803294886355
 40
239.5599163481766
 40
258.220524922085
 40
276.8639967497076
 40
297.1873924304916
 40
334.4162197434315
 40
371.6179790189033
 40
410.4993369707405
 40
431.9929972076337
 40
446.5887169967713
 40
446.5887169967713
 40
446.5887169967713
 40
446.5887169967713
 10
1922.939205678927
 20
2023.765840257496
 30
0.0
 10
1922.939205678927
 20
2021.13041359516
 30
0.0
 10
1922.735660706958
 20
2014.688646725105
 30
0.0
 10
1921.720702120501
 20
2005.369869449789
 30
0.0
 10
1919.760670170681
 20
1995.024080258369
 30
0.0
 10
1917.245836113308
 20
1985.71731493168
 30
0.0
 10
1913.946393950484
 20
1976.306733543735
 30
0.0
 10
1909.440764109449
 20
1965.707330569569
 30
0.0
 10
1903.410879819332
 20
1954.337062555069
 30
0.0
 10
1895.750671364045
 20
1942.504990687482
 30
0.0
 10
1886.84084476705
 20
1930.727858121468
 30
0.0
 10
1875.674344430275
 20
1918.201856899024
 30
0.0
 10
1862.356135097643
 20
1905.566816670004
 30
0.0
 10
1845.956276111907
 20
1892.186880339037
 30
0.0
 10
1828.536218956045
 20
1880.183289677192
 30
0.0
 10
1809.688951169037
 20
1869.081655634184
 30
0.0
 10
1792.55218527599
 20
1860.246291760903
 30
0.0
 10
1775.008773497748
 20
1852.313504850086
 30
0.0
 10
1757.667321080042
 20
1845.407990595465
 30
0.0
 10
1739.52989904033
 20
1839.068923702787
 30
0.0
 10
1715.215653284866
 20
1831.706307815626
 30
0.0
 10
1684.479190418138
 20
1824.343782619191
 30
0.0
 10
1647.197985467957
 20
1818.147848137022
 30
0.0
 10
1614.804421376086
 20
1815.014383562796
 30
0.0
 10
1589.834083438638
 20
1813.917793425548
 30
0.0
 10
1577.804062564404
 20
1813.765840265153
 30
0.0
 10
1572.938950529451
 20
1813.765840265153
 30
0.0
  0
SPLINE
  5
1B7A
330
A
100
AcDbEntity
  8
MODEL
  6
HIDDEN
 48
0.05
100
AcDbSpline
210
0.0
220
0.0
230
1.0
 70
     8
 71
     3
 72
    31
 73
    27
 74
     0
 42
0.000000001
 43
0.0000000001
 40
0.0
 40
0.0
 40
0.0
 40
0.0
 40
7.907572888958857
 40
19.32300193001836
 40
28.09426070902253
 40
39.47854836926932
 40
48.21864431673613
 40
57.996496701106
 40
74.0106185721414
 40
86.77941476765243
 40
100.2536813245272
 40
118.2846247920113
 40
137.0735569133306
 40
155.2837692420341
 40
181.7418344987895
 40
200.475802556579
 40
220.8803294886347
 40
239.5599163481756
 40
258.2205249220838
 40
276.8639967497068
 40
297.1873924304911
 40
334.4162197434308
 40
371.617979018903
 40
410.4993369707402
 40
431.9929972076334
 40
446.588716996771
 40
446.588716996771
 40
446.588716996771
 40
446.588716996771
 10
1222.938695379975
 20
2023.765840257496
 30
0.0
 10
1222.938695379975
 20
2021.13041359516
 30
0.0
 10
1223.142240351944
 20
2014.688646725105
 30
0.0
 10
1224.157198938401
 20
2005.369869449789
 30
0.0
 10
1226.117230888221
 20
1995.024080258369
 30
0.0
 10
1228.632064945594
 20
1985.71731493168
 30
0.0
 10
1231.931507108418
 20
1976.306733543735
 30
0.0
 10
1236.437136949453
 20
1965.70733056957
 30
0.0
 10
1242.46702123957
 20
1954.337062555069
 30
0.0
 10
1250.127229694857
 20
1942.504990687483
 30
0.0
 10
1259.037056291852
 20
1930.727858121469
 30
0.0
 10
1270.203556628627
 20
1918.201856899025
 30
0.0
 10
1283.521765961259
 20
1905.566816670004
 30
0.0
 10
1299.921624946995
 20
1892.186880339037
 30
0.0
 10
1317.341682102857
 20
1880.183289677192
 30
0.0
 10
1336.188949889865
 20
1869.081655634184
 30
0.0
 10
1353.325715782912
 20
1860.246291760903
 30
0.0
 10
1370.869127561154
 20
1852.313504850087
 30
0.0
 10
1388.21057997886
 20
1845.407990595465
 30
0.0
 10
1406.348002018572
 20
1839.068923702788
 30
0.0
 10
1430.662247774036
 20
1831.706307815626
 30
0.0
 10
1461.398710640764
 20
1824.343782619191
 30
0.0
 10
1498.679915590945
 20
1818.147848137022
 30
0.0
 10
1531.073479682816
 20
1815.014383562796
 30
0.0
 10
1556.043817620264
 20
1813.917793425548
 30
0.0
 10
1568.073838494498
 20
1813.765840265153
 30
0.0
 10
1572.938950529451
 20
1813.765840265153
 30
0.0
  0
SPLINE
  5
1B7B
330
A
100
AcDbEntity
  8
MODEL
  6
HIDDEN
 48
0.05
100
AcDbSpline
210
0.0
220
0.0
230
1.0
 70
     8
 71
     3
 72
    31
 73
    27
 74
     0
 42
0.000000001
 43
0.0000000001
 40
0.0
 40
0.0
 40
0.0
 40
0.0
 40
7.90757288895886
 40
19.32300193001837
 40
28.09426070902252
 40
39.47854836926933
 40
48.21864431673608
 40
57.99649670110608
 40
74.01061857214184
 40
86.77941476765307
 40
100.2536813245279
 40
118.2846247920118
 40
137.0735569133307
 40
155.283769242034
 40
181.7418344987892
 40
200.4758025565789
 40
220.8803294886348
 40
239.559916348176
 40
258.2205249220845
 40
276.8639967497075
 40
297.1873924304917
 40
334.4162197434314
 40
371.6179790189038
 40
410.4993369707408
 40
431.9929972076337
 40
446.5887169967709
 40
446.5887169967709
 40
446.5887169967709
 40
446.5887169967709
 10
1222.938695379975
 20
2023.765840257496
 30
0.0
 10
1222.938695379975
 20
2026.401266919832
 30
0.0
 10
1223.142240351944
 20
2032.843033789887
 30
0.0
 10
1224.157198938401
 20
2042.161811065203
 30
0.0
 10
1226.117230888221
 20
2052.507600256623
 30
0.0
 10
1228.632064945594
 20
2061.814365583312
 30
0.0
 10
1231.931507108418
 20
2071.224946971257
 30
0.0
 10
1236.437136949453
 20
2081.824349945422
 30
0.0
 10
1242.46702123957
 20
2093.194617959924
 30
0.0
 10
1250.127229694857
 20
2105.026689827509
 30
0.0
 10
1259.037056291852
 20
2116.803822393524
 30
0.0
 10
1270.203556628627
 20
2129.329823615968
 30
0.0
 10
1283.521765961259
 20
2141.964863844988
 30
0.0
 10
1299.921624946995
 20
2155.344800175954
 30
0.0
 10
1317.341682102857
 20
2167.3483908378
 30
0.0
 10
1336.188949889865
 20
2178.450024880808
 30
0.0
 10
1353.325715782912
 20
2187.28538875409
 30
0.0
 10
1370.869127561154
 20
2195.218175664905
 30
0.0
 10
1388.21057997886
 20
2202.123689919527
 30
0.0
 10
1406.348002018572
 20
2208.462756812205
 30
0.0
 10
1430.662247774036
 20
2215.825372699366
 30
0.0
 10
1461.398710640764
 20
2223.187897895801
 30
0.0
 10
1498.679915590945
 20
2229.383832377969
 30
0.0
 10
1531.073479682816
 20
2232.517296952196
 30
0.0
 10
1556.043817620264
 20
2233.613887089444
 30
0.0
 10
1568.073838494498
 20
2233.765840249839
 30
0.0
 10
1572.938950529451
 20
2233.765840249839
 30
0.0
  0
DIMENSION
  5
1B94
102
{ACAD_XDICTIONARY
360
1B95
102
}
330
A
100
AcDbEntity
  8
DIM
  6
Continuous
100
AcDbDimension
  2
*D57
 10
930.4842215679123
 20
2410.147961816257
 30
0.0
 11
580.483966418436
 21
2442.147961816257
 31
0.0
 70
    32
 71
     5
 42
700.0005102989526
 73
     0
 74
     0
 75
     0
  3
tfrom線あり
100
AcDbAlignedDimension
 13
230.4837112689597
 23
2095.037293335487
 33
0.0
 14
930.4842215679123
 24
2095.037293335487
 34
0.0
100
AcDbRotatedDimension
  0
DIMENSION
  5
1BA3
102
{ACAD_XDICTIONARY
360
1BA4
102
}
330
A
100
AcDbEntity
  8
DIM
  6
Continuous
100
AcDbDimension
  2
*D58
 10
900.4839235161812
 20
1570.774704538548
 30
0.0
 11
580.483966418436
 21
1602.774704538548
 31
0.0
 70
    32
 71
     5
 42
639.9999141954904
 73
     0
 74
     0
 75
     0
  3
tfrom線あり
100
AcDbAlignedDimension
 13
260.4840093206908
 23
1898.328082840233
 33
0.0
 14
900.4839235161812
 24
1898.328082840233
 34
0.0
100
AcDbRotatedDimension
  0
DIMENSION
  5
1BB2
102
{ACAD_XDICTIONARY
360
1BB3
102
}
330
A
100
AcDbEntity
  8
DIM
  6
Continuous
100
AcDbDimension
  2
*D59
 10
156.2938337704395
 20
1843.765939618288
 30
0.0
 11
156.2938337704395
 21
2023.765840257496
 31
0.0
 70
   160
 71
     5
 42
359.9998012784151
 73
     0
 74
     0
 75
     0
  3
tfrom線あり
100
AcDbAlignedDimension
 13
366.0994355598413
 23
2203.765740896703
 33
0.0
 14
366.0994355598413
 24
1843.765939618288
 34
0.0
 50
90.0
100
AcDbRotatedDimension
  0
DIMENSION
  5
1BC1
102
{ACAD_XDICTIONARY
360
1BC2
102
}
330
A
100
AcDbEntity
  8
DIM
  6
Continuous
100
AcDbDimension
  2
*D60
 10
1048.042254682254
 20
1813.765840265153
 30
0.0
 11
1048.042254682254
 21
2023.765840257496
 31
0.0
 70
   160
 71
     5
 42
419.9999999846864
 73
     0
 74
     0
 75
     0
  3
tfrom線あり
100
AcDbAlignedDimension
 13
676.2727993552548
 23
2233.765840249839
 33
0.0
 14
676.2727993552548
 24
1813.765840265153
 34
0.0
 50
90.0
100
AcDbRotatedDimension
  0
LINE
  5
1CA3
102
{ACAD_REACTORS
330
1CA7
330
1CB1
330
1CAB
102
}
330
A
100
AcDbEntity
  8
MODEL
  6
Continuous
100
AcDbLine
 10
1522.938950284033
 20
1973.765840249839
 30
0.0
 11
1522.938950284033
 21
2133.765840249839
 31
0.0
  0
LINE
  5
1CA4
102
{ACAD_REACTORS
330
1CAB
102
}
330
A
100
AcDbEntity
  8
MODEL
  6
Continuous
100
AcDbLine
 10
1622.938950284033
 20
1973.765840249839
 30
0.0
 11
1622.938950284033
 21
2133.765840249839
 31
0.0
  0
DIMENSION
  5
1CA5
102
{ACAD_REACTORS
330
1CA7
102
}
102
{ACAD_XDICTIONARY
360
1CA6
102
}
330
A
100
AcDbEntity
  8
DIM
  6
Continuous
100
AcDbDimension
  2
*D61
 10
1456.320983925573
 20
2133.765840249839
 30
0.0
 11
1424.320983925573
 21
2078.765840249839
 31
0.0
 70
    32
 71
     5
 42
110.0
 73
     0
 74
     0
 75
     0
  3
tfrom線あり
100
AcDbAlignedDimension
 13
1522.938950284033
 23
2023.765840249839
 33
0.0
 14
1522.938950284033
 24
2133.765840249839
 34
0.0
 50
90.0
100
AcDbRotatedDimension
  0
DIMENSION
  5
1CA8
102
{ACAD_REACTORS
330
1CAA
102
}
102
{ACAD_XDICTIONARY
360
1CA9
102
}
330
A
100
AcDbEntity
  8
DIM
  6
Continuous
100
AcDbDimension
  2
*D62
 10
1691.919730075093
 20
2133.765840249839
 30
0.0
 11
1659.919730075093
 21
2053.765840249839
 31
0.0
 70
    32
 71
     5
 42
160.0
 73
     0
 74
     0
 75
     0
  3
tfrom線あり
100
AcDbAlignedDimension
 13
1622.938950284033
 23
1973.765840249839
 33
0.0
 14
1622.938950284033
 24
2133.765840249839
 34
0.0
 50
90.0
100
AcDbRotatedDimension
  0
HATCH
  5
1CAB
330
A
100
AcDbEntity
  8
MODEL
  6
Continuous
100
AcDbHatch
 10
0.0
 20
0.0
 30
0.0
210
0.0
220
0.0
230
1.0
  2
ANSI31
 70
     0
 71
     1
 91
        1
 92
        1
 93
        4
 72
     1
 10
1522.938950284033
 20
2133.765840249839
 11
1622.938950284033
 21
2133.765840249839
 72
     1
 10
1522.938950284033
 20
1973.765840249839
 11
1522.938950284033
 21
2133.765840249839
 72
     1
 10
1622.938950284033
 20
1973.765840249839
 11
1622.938950284033
 21
2133.765840249839
 72
     1
 10
1522.938950284033
 20
1973.765840249839
 11
1622.938950284033
 21
1973.765840249839
 97
        4
330
1CB6
330
1CA3
330
1CA4
330
1CB2
 75
     0
 76
     1
 52
0.0
 41
10.0
 77
     0
 78
     1
 53
45.0
 43
96.76264731328388
 44
0.0000089351310635
 45
-22.45064030267288
 46
22.45064030267288
 79
     0
 98
        1
 10
96.76264731328388
 20
0.0000089351310635
1001
ACAD
1010
0.0
1020
0.0
1030
0.0
  0
DIMENSION
  5
1CAC
102
{ACAD_XDICTIONARY
360
1CAD
102
}
330
A
100
AcDbEntity
  8
DIM
  6
Continuous
100
AcDbDimension
  2
*D63
 10
1185.923848957118
 20
2233.765840249839
 30
0.0
 11
1185.923848957118
 21
2128.765840249839
 31
0.0
 70
   160
 71
     5
 42
210.0
 73
     0
 74
     0
 75
     0
  3
tfrom線あり
100
AcDbAlignedDimension
 13
1522.938950284033
 23
2023.765840249839
 33
0.0
 14
1572.938950529451
 24
2233.765840249839
 34
0.0
 50
90.0
100
AcDbRotatedDimension
  0
DIMENSION
  5
1CAF
102
{ACAD_REACTORS
330
1CB1
102
}
102
{ACAD_XDICTIONARY
360
1CB0
102
}
330
A
100
AcDbEntity
  8
DIM
  6
Continuous
100
AcDbDimension
  2
*D64
 10
1622.938950284033
 20
1907.693189540014
 30
0.0
 11
1572.938950284033
 21
1939.693189540014
 31
0.0
 70
    32
 71
     5
 42
100.0
 73
     0
 74
     0
 75
     0
  3
tfrom線あり
100
AcDbAlignedDimension
 13
1522.938950284033
 23
1973.765840249839
 33
0.0
 14
1622.938950284033
 24
1973.765840249839
 34
0.0
100
AcDbRotatedDimension
  0
LINE
  5
1CB2
102
{ACAD_REACTORS
330
1CB1
330
1CAA
330
1CAB
102
}
330
A
100
AcDbEntity
  8
MODEL
  6
Continuous
100
AcDbLine
 10
1522.938950284033
 20
1973.765840249839
 30
0.0
 11
1622.938950284033
 21
1973.765840249839
 31
0.0
  0
DIMENSION
  5
1CB3
102
{ACAD_REACTORS
330
1CB5
102
}
102
{ACAD_XDICTIONARY
360
1CB4
102
}
330
A
100
AcDbEntity
  8
DIM
  6
Continuous
100
AcDbDimension
  2
*D65
 10
1456.320983925573
 20
1973.765840249839
 30
0.0
 11
1424.320983925573
 21
1998.765840249839
 31
0.0
 70
    32
 71
     5
 42
50.0
 73
     0
 74
     1
 75
     1
  3
tfrom線あり
100
AcDbAlignedDimension
 13
1522.938950284033
 23
2023.765840249839
 33
0.0
 14
1522.938950284033
 24
1973.765840249839
 34
0.0
 50
90.0
100
AcDbRotatedDimension
1001
ACAD
1000
DSTYLE
1002
{
1070
   172
1070
     1
1002
}
  0
LINE
  5
1CB6
102
{ACAD_REACTORS
330
1CAA
330
1CAB
102
}
330
A
100
AcDbEntity
  8
MODEL
  6
Continuous
100
AcDbLine
 10
1522.938950284033
 20
2133.765840249839
 30
0.0
 11
1622.938950284033
 21
2133.765840249839
 31
0.0
  0
MTEXT
  5
1D43
330
A
100
AcDbEntity
  8
TEMPLATE
390
1D
100
AcDbMText
 10
1426.270874275812
 20
2406.260404473489
 30
0.0
 40
24.4326171875
 41
0.0
 46
24.4326171875
 71
     1
 72
     1
  1
{カウンター切込寸法}
  7
ＭＳ ゴシック
 73
     1
 44
0.7828267384257843
1001
ACAD
1000
ACAD_MTEXT_DEFINED_HEIGHT_BEGIN
1070
    46
1040
24.4326171875
1000
ACAD_MTEXT_DEFINED_HEIGHT_END
  0
DIMENSION
  5
1D44
330
A
100
AcDbEntity
  8
DIM
  6
Continuous
100
AcDbDimension
  2
*D68
 10
1513.070973750093
 20
1038.370471710666
 30
0.0
 11
1513.070973750093
 21
1272.115144101106
 31
0.0
 70
   160
 71
     5
 42
124.7286723904399
 73
     0
 74
     1
 75
     1
  3
tfrom線あり
100
AcDbAlignedDimension
 13
1513.070973750093
 23
1163.099144101106
 33
0.0
 14
1512.619194563035
 24
1038.370471710666
 34
0.0
 50
90.0
100
AcDbRotatedDimension
1001
ACAD
1000
DSTYLE
1002
{
1070
     3
1000
<>(深さ)
1070
   172
1070
     1
1002
}
  0
DIMENSION
  5
1D7C
330
A
100
AcDbEntity
  8
DIM
  6
Continuous
100
AcDbDimension
  2
*D70
 10
1000.875210277883
 20
1162.270026808648
 30
0.0
 11
968.8752102778834
 21
1074.770026808648
 31
0.0
 70
    32
 71
     5
 42
174.9999999999999
 73
     0
 74
     0
 75
     0
  3
tfrom線あり
100
AcDbAlignedDimension
 13
666.0340361440346
 23
987.2700268086479
 33
0.0
 14
942.6723523578502
 24
1162.270026808648
 34
0.0
 50
90.0
100
AcDbRotatedDimension
  0
DIMENSION
  5
1D8F
330
A
100
AcDbEntity
  8
DIM
  6
Continuous
100
AcDbDimension
  2
*D71
 10
864.2578506804962
 20
880.8748476880849
 30
0.0
 11
584.2578506804962
 21
880.8748476880849
 31
0.0
 70
   160
 71
     5
 42
560.0
 73
     0
 74
     0
 75
     0
  3
tfrom線あり
100
AcDbAlignedDimension
 13
304.2578506804962
 23
982.4232042846295
 33
0.0
 14
864.2578506804962
 24
982.4232042846295
 34
0.0
100
AcDbRotatedDimension
  0
DIMENSION
  5
1DA0
102
{ACAD_XDICTIONARY
360
1DA1
102
}
330
A
100
AcDbEntity
  8
DIM
  6
Continuous
100
AcDbDimension
  2
*D72
 10
1722.788598947273
 20
880.8748476880849
 30
0.0
 11
1617.92976444561
 21
912.8748476880849
 31
0.0
 70
    32
 71
     5
 42
209.7176690033268
 73
     0
 74
     0
 75
     0
  3
tfrom線あり
100
AcDbAlignedDimension
 13
1513.070929943946
 23
957.0669005943358
 33
0.0
 14
1722.788598947273
 24
1105.324581836611
 34
0.0
100
AcDbRotatedDimension
  0
DIMENSION
  5
1DB6
102
{ACAD_XDICTIONARY
360
1DB7
102
}
330
A
100
AcDbEntity
  8
DIM
  6
Continuous
100
AcDbDimension
  2
*D73
 10
1228.959912600728
 20
1163.099165063431
 30
0.0
 11
1196.959912600728
 21
1088.099160499208
 31
0.0
 70
    32
 71
     5
 42
150.0000091284454
 73
     0
 74
     0
 75
     0
  3
tfrom線あり
100
AcDbAlignedDimension
 13
1341.157152314058
 23
1013.099155934986
 33
0.0
 14
1281.865857170712
 24
1163.099165063431
 34
0.0
 50
90.0
100
AcDbRotatedDimension
  0
VIEWPORT
  5
349
330
B
100
AcDbEntity
 67
     1
  8
0
100
AcDbViewport
 10
202.5
 20
128.5
 30
0.0
 40
486.0
 41
308.4
 68
     1
 69
     1
 12
202.5
 22
128.5
 13
0.0
 23
0.0
 14
0.5
 24
0.5
 15
0.0
 25
0.0
 16
0.0
 26
0.0
 36
1.0
 17
0.0
 27
0.0
 37
0.0
 42
50.0
 43
0.0
 44
0.0
 45
308.4
 50
0.0
 51
0.0
 72
   100
 90
   557152
  1

281
     0
 71
     1
 74
     0
110
0.0
120
0.0
130
0.0
111
1.0
121
0.0
131
0.0
112
0.0
122
1.0
132
0.0
 79
     0
146
0.0
170
     0
 61
     5
348
26C
292
     1
282
     1
141
0.0
142
0.0
 63
   256
  0
VIEWPORT
  5
34A
330
B
100
AcDbEntity
 67
     1
  8
0
100
AcDbViewport
 10
202.5
 20
128.5
 30
0.0
 40
324.0
 41
205.6
 68
     2
 69
     2
 12
986.6781359294573
 22
1427.077061889956
 13
0.0
 23
0.0
 14
0.5
 24
0.5
 15
0.0
 25
0.0
 16
0.0
 26
0.0
 36
1.0
 17
0.0
 27
0.0
 37
0.0
 42
50.0
 43
0.0
 44
0.0
 45
2890.021615685494
 50
0.0
 51
0.0
 72
   100
 90
   557152
  1

281
     0
 71
     1
 74
     0
110
0.0
120
0.0
130
0.0
111
1.0
121
0.0
131
0.0
112
0.0
122
1.0
132
0.0
 79
     0
146
0.0
170
     0
 61
     5
348
26C
292
     1
282
     1
141
0.0
142
0.0
 63
   256
  0
ENDSEC
  0
SECTION
  2
OBJECTS
  0
DICTIONARY
  5
19
330
0
100
AcDbDictionary
281
     1
  3
ACAD_COLOR
350
674
  3
ACAD_DETAILVIEWSTYLE
350
BBF
  3
ACAD_GROUP
350
1A
  3
ACAD_IMAGE_VARS
350
27B
  3
ACAD_LAYOUT
350
1E
  3
ACAD_MATERIAL
350
263
  3
ACAD_MLEADERSTYLE
350
336
  3
ACAD_MLINESTYLE
350
1B
  3
ACAD_PLOTSETTINGS
350
22
  3
ACAD_PLOTSTYLENAME
350
1F
  3
ACAD_SCALELIST
350
241
  3
ACAD_SECTIONVIEWSTYLE
350
BC0
  3
ACAD_TABLESTYLE
350
278
  3
ACAD_VISUALSTYLE
350
267
  3
ACDB_RECOMPOSE_DATA
350
1DDC
  3
AcDbVariableDictionary
350
330
  3
APPDATA
350
27A
  0
SUN
  5
904
330
15
100
AcDbSun
 90
        1
290
     0
 63
     7
421
 16777215
 40
1.0
291
     1
 91
  2455826
 92
 54000000
292
     0
 70
     2
 71
   256
280
     1
  0
DICTIONARY
  5
2E1
330
2
100
AcDbDictionary
280
     1
281
     1
  3
ACAD_LAYERSTATES
360
2E2
  3
ACLYDICTIONARY
360
D22
  0
DICTIONARY
  5
178C
330
178B
100
AcDbDictionary
280
     1
281
     1
  3
ADSK_XREC_LAYER_RECONCILED
360
178D
  0
DICTIONARY
  5
1B95
330
1B94
100
AcDbDictionary
280
     1
281
     1
  0
DICTIONARY
  5
1BA4
330
1BA3
100
AcDbDictionary
280
     1
281
     1
  0
DICTIONARY
  5
1BB3
330
1BB2
100
AcDbDictionary
280
     1
281
     1
  0
DICTIONARY
  5
1BC2
330
1BC1
100
AcDbDictionary
280
     1
281
     1
  0
DICTIONARY
  5
1CA6
330
1CA5
100
AcDbDictionary
280
     1
281
     1
  3
ACAD_DIMASSOC
360
1CA7
  0
DICTIONARY
  5
1CA9
330
1CA8
100
AcDbDictionary
280
     1
281
     1
  3
ACAD_DIMASSOC
360
1CAA
  0
DICTIONARY
  5
1CAD
330
1CAC
100
AcDbDictionary
280
     1
281
     1
  0
DICTIONARY
  5
1CB0
330
1CAF
100
AcDbDictionary
280
     1
281
     1
  3
ACAD_DIMASSOC
360
1CB1
  0
DICTIONARY
  5
1CB4
330
1CB3
100
AcDbDictionary
280
     1
281
     1
  3
ACAD_DIMASSOC
360
1CB5
  0
DICTIONARY
  5
1DA1
330
1DA0
100
AcDbDictionary
280
     1
281
     1
  0
DICTIONARY
  5
1DB7
330
1DB6
100
AcDbDictionary
280
     1
281
     1
  0
DICTIONARY
  5
674
102
{ACAD_REACTORS
330
19
102
}
330
19
100
AcDbDictionary
281
     1
  0
DICTIONARY
  5
BBF
102
{ACAD_REACTORS
330
19
102
}
330
19
100
AcDbDictionary
281
     1
  0
DICTIONARY
  5
1A
102
{ACAD_REACTORS
330
19
102
}
330
19
100
AcDbDictionary
281
     1
  0
RASTERVARIABLES
  5
27B
102
{ACAD_REACTORS
330
19
102
}
330
19
100
AcDbRasterVariables
 90
        0
 70
     1
 71
     1
 72
     1
  0
DICTIONARY
  5
1E
102
{ACAD_REACTORS
330
19
102
}
330
19
100
AcDbDictionary
281
     1
  3
Layout1
350
21
  3
Model
350
20
  0
DICTIONARY
  5
263
102
{ACAD_REACTORS
330
19
102
}
330
19
100
AcDbDictionary
281
     1
  3
ByBlock
350
16CF
  3
ByLayer
350
264
  3
Global
350
266
  0
DICTIONARY
  5
336
102
{ACAD_REACTORS
330
19
102
}
330
19
100
AcDbDictionary
281
     1
  0
DICTIONARY
  5
1B
102
{ACAD_REACTORS
330
19
102
}
330
19
100
AcDbDictionary
281
     1
  3
Standard
350
1C
  0
DICTIONARY
  5
22
102
{ACAD_REACTORS
330
19
102
}
330
19
100
AcDbDictionary
281
     1
  0
ACDBDICTIONARYWDFLT
  5
1F
102
{ACAD_REACTORS
330
19
102
}
330
19
100
AcDbDictionary
281
     1
  3
Normal
350
1D
100
AcDbDictionaryWithDefault
340
1D
  0
DICTIONARY
  5
241
102
{ACAD_REACTORS
330
19
102
}
330
19
100
AcDbDictionary
281
     1
  3
A0
350
242
  3
A1
350
243
  3
A2
350
244
  3
A3
350
245
  3
A4
350
246
  3
A5
350
247
  3
A6
350
248
  3
A7
350
249
  3
A8
350
24A
  3
A9
350
24B
  3
B0
350
24C
  3
B1
350
24D
  3
B2
350
24E
  3
B3
350
24F
  3
B4
350
250
  3
B5
350
251
  3
B6
350
252
  3
B7
350
253
  3
B8
350
254
  3
B9
350
255
  3
C0
350
256
  3
C1
350
257
  3
C2
350
258
  3
C3
350
259
  3
C4
350
25A
  3
C5
350
25B
  3
C6
350
25C
  3
C7
350
25D
  3
C8
350
25E
  3
C9
350
25F
  3
D0
350
260
  3
D1
350
261
  3
D2
350
262
  0
DICTIONARY
  5
BC0
102
{ACAD_REACTORS
330
19
102
}
330
19
100
AcDbDictionary
281
     1
  0
DICTIONARY
  5
278
102
{ACAD_REACTORS
330
19
102
}
330
19
100
AcDbDictionary
281
     1
  3
Standard
350
279
  0
DICTIONARY
  5
267
102
{ACAD_REACTORS
330
19
102
}
330
19
100
AcDbDictionary
281
     1
  3
2dWireframe
350
26C
  3
3D Hidden
350
26E
  3
3dWireframe
350
26D
  3
Basic
350
26F
  3
Brighten
350
273
  3
ColorChange
350
277
  3
Conceptual
350
271
  3
Dim
350
272
  3
EdgeColorOff
350
8FE
  3
Facepattern
350
276
  3
Flat
350
268
  3
FlatWithEdges
350
269
  3
Gouraud
350
26A
  3
GouraudWithEdges
350
26B
  3
Hidden
350
8FB
  3
JitterOff
350
8FC
  3
Linepattern
350
275
  3
OverhangOff
350
8FD
  3
Realistic
350
270
  3
Shaded
350
903
  3
Shaded with edges
350
902
  3
Shades of Gray
350
8FF
  3
Sketchy
350
900
  3
Thicken
350
274
  3
Wireframe
350
8FA
  3
X-Ray
350
901
  0
XRECORD
  5
1DDC
102
{ACAD_REACTORS
330
19
102
}
330
19
100
AcDbXrecord
280
     1
 90
        1
330
279
  0
DICTIONARY
  5
330
102
{ACAD_REACTORS
330
19
102
}
330
19
100
AcDbDictionary
281
     1
  3
CANNOSCALE
350
331
  3
CTABLESTYLE
350
335
  3
HPTRANSPARENCY
350
D52
  3
XCLIPFRAME
350
896
  0
DICTIONARY
  5
27A
102
{ACAD_REACTORS
330
19
102
}
330
19
100
AcDbDictionary
281
     1
  0
DICTIONARY
  5
2E2
102
{ACAD_REACTORS
330
2E1
102
}
330
2E1
100
AcDbDictionary
281
     1
  3
ARGON_LAYERP_2
350
88B
  3
ARGON_LAYERP_3
350
88F
  3
ARGON_LAYERP_4
350
892
  3
ARGON_LAYERP_5
350
8F6
  3
ARGON_LAYERP_6
350
BC1
  3
ARGON_LAYERP_7
350
C9E
  3
ARGON_LAYERP_8
350
C9F
  3
ARGON_LAYERP_9
350
7AA
  0
DICTIONARY
  5
D22
102
{ACAD_REACTORS
330
2E1
102
}
330
2E1
100
AcDbDictionary
281
     1
1001
ACAD
1000
<All
  0
XRECORD
  5
178D
102
{ACAD_REACTORS
330
178C
102
}
330
178C
100
AcDbXrecord
280
     1
290
     1
  0
DIMASSOC
  5
1CA7
102
{ACAD_REACTORS
330
1CA6
102
}
330
1CA6
100
AcDbDimAssoc
330
1CA5
 90
        2
 70
     0
 71
     1
  1
AcDbOsnapPointRef
 72
     1
331
1CA3
 73
     0
 91
        0
 40
0.0
 10
0.0
 20
0.0
 30
0.0
 75
     0
  0
DIMASSOC
  5
1CAA
102
{ACAD_REACTORS
330
1CA9
102
}
330
1CA9
100
AcDbDimAssoc
330
1CA8
 90
        3
 70
     0
 71
     1
  1
AcDbOsnapPointRef
 72
     1
331
1CB2
 73
     0
 91
        0
 40
0.0
 10
0.0
 20
0.0
 30
0.0
 75
     0
  1
AcDbOsnapPointRef
 72
     1
331
1CB6
 73
     0
 91
        0
 40
0.0
 10
0.0
 20
0.0
 30
0.0
 75
     0
  0
DIMASSOC
  5
1CB1
102
{ACAD_REACTORS
330
1CB0
102
}
330
1CB0
100
AcDbDimAssoc
330
1CAF
 90
        3
 70
     0
 71
     1
  1
AcDbOsnapPointRef
 72
    13
331
1CA3
 73
     0
 91
        0
 40
0.0
 10
0.0
 20
0.0
 30
0.0
 75
     0
  1
AcDbOsnapPointRef
 72
     1
331
1CB2
 73
     0
 91
        0
 40
0.0
 10
0.0
 20
0.0
 30
0.0
 75
     0
  0
DIMASSOC
  5
1CB5
102
{ACAD_REACTORS
330
1CB4
102
}
330
1CB4
100
AcDbDimAssoc
330
1CB3
 90
        2
 70
     0
 71
     1
  1
AcDbOsnapPointRef
 72
    13
331
1CA3
 73
     0
 91
        0
 40
0.0
 10
0.0
 20
0.0
 30
0.0
 75
     0
  0
LAYOUT
  5
21
102
{ACAD_REACTORS
330
1E
102
}
330
1E
100
AcDbPlotSettings
  1

  2
none_device
  4
ISO_A3_(420.00_x_297.00_MM)
  6

 40
7.5
 41
20.0
 42
7.5
 43
20.0
 44
420.0
 45
297.0
 46
0.0
 47
0.0
 48
0.0
 49
0.0
140
0.0
141
0.0
142
1.0
143
1.0
 70
     0
 72
     1
 73
     0
 74
     0
  7

 75
     0
 76
     0
 77
     2
 78
   300
147
1.0
148
0.0
149
0.0
100
AcDbLayout
  1
Layout1
 70
     0
 71
     0
 10
-7.5
 20
-20.0
 11
412.5
 21
277.0
 12
0.0
 22
0.0
 32
0.0
 14
0.0
 24
0.0
 34
0.0
 15
0.0
 25
0.0
 35
0.0
146
0.0
 13
0.0
 23
0.0
 33
0.0
 16
0.0
 26
0.0
 36
0.0
 17
0.0
 27
0.0
 37
0.0
 76
     0
330
B
331
349
  0
LAYOUT
  5
20
102
{ACAD_REACTORS
330
1E
102
}
330
1E
100
AcDbPlotSettings
  1

  2
none_device
  4
ISO_A3_(420.00_x_297.00_MM)
  6

 40
7.5
 41
20.0
 42
7.5
 43
20.0
 44
420.0
 45
297.0
 46
0.0
 47
0.0
 48
0.0
 49
0.0
140
0.0
141
0.0
142
1.0
143
1.0
 70
  1024
 72
     1
 73
     0
 74
     0
  7

 75
     0
 76
     0
 77
     2
 78
   300
147
1.0
148
0.0
149
0.0
100
AcDbLayout
  1
Model
 70
     0
 71
     1
 10
0.0
 20
0.0
 11
2100.0
 21
2970.0
 12
0.0
 22
0.0
 32
0.0
 14
72.20214454724874
 24
63.79214832457114
 34
0.0
 15
2022.202144547732
 25
2897.146673506426
 35
0.0
146
0.0
 13
0.0
 23
0.0
 33
0.0
 16
0.0
 26
0.0
 36
0.0
 17
0.0
 27
0.0
 37
0.0
 76
     0
330
A
331
15
  0
MATERIAL
  5
16CF
102
{ACAD_REACTORS
330
263
330
263
102
}
330
263
100
AcDbMaterial
  1
ByBlock
 72
     1
 94
      127
  0
MATERIAL
  5
264
102
{ACAD_REACTORS
330
263
102
}
330
263
100
AcDbMaterial
  1
ByLayer
 72
     1
 94
      127
  0
MATERIAL
  5
266
102
{ACAD_REACTORS
330
263
102
}
330
263
100
AcDbMaterial
  1
Global
 72
     1
 94
      127
  0
MLINESTYLE
  5
1C
102
{ACAD_REACTORS
330
1B
102
}
330
1B
100
AcDbMlineStyle
  2
Standard
 70
     0
  3

 62
     0
 51
90.0
 52
90.0
 71
     2
 49
0.5
 62
   256
  6
BYLAYER
 49
-0.5
 62
   256
  6
BYLAYER
  0
ACDBPLACEHOLDER
  5
1D
102
{ACAD_REACTORS
330
1F
102
}
330
1F
  0
SCALE
  5
242
102
{ACAD_REACTORS
330
241
102
}
330
241
100
AcDbScale
 70
     0
300
1:1
140
1.0
141
1.0
290
     1
  0
SCALE
  5
243
102
{ACAD_REACTORS
330
241
102
}
330
241
100
AcDbScale
 70
     0
300
1:2
140
1.0
141
2.0
290
     0
  0
SCALE
  5
244
102
{ACAD_REACTORS
330
241
102
}
330
241
100
AcDbScale
 70
     0
300
1:4
140
1.0
141
4.0
290
     0
  0
SCALE
  5
245
102
{ACAD_REACTORS
330
241
102
}
330
241
100
AcDbScale
 70
     0
300
1:5
140
1.0
141
5.0
290
     0
  0
SCALE
  5
246
102
{ACAD_REACTORS
330
241
102
}
330
241
100
AcDbScale
 70
     0
300
1:8
140
1.0
141
8.0
290
     0
  0
SCALE
  5
247
102
{ACAD_REACTORS
330
241
102
}
330
241
100
AcDbScale
 70
     0
300
1:10
140
1.0
141
10.0
290
     0
  0
SCALE
  5
248
102
{ACAD_REACTORS
330
241
102
}
330
241
100
AcDbScale
 70
     0
300
1:16
140
1.0
141
16.0
290
     0
  0
SCALE
  5
249
102
{ACAD_REACTORS
330
241
102
}
330
241
100
AcDbScale
 70
     0
300
1:20
140
1.0
141
20.0
290
     0
  0
SCALE
  5
24A
102
{ACAD_REACTORS
330
241
102
}
330
241
100
AcDbScale
 70
     0
300
1:30
140
1.0
141
30.0
290
     0
  0
SCALE
  5
24B
102
{ACAD_REACTORS
330
241
102
}
330
241
100
AcDbScale
 70
     0
300
1:40
140
1.0
141
40.0
290
     0
  0
SCALE
  5
24C
102
{ACAD_REACTORS
330
241
102
}
330
241
100
AcDbScale
 70
     0
300
1:50
140
1.0
141
50.0
290
     0
  0
SCALE
  5
24D
102
{ACAD_REACTORS
330
241
102
}
330
241
100
AcDbScale
 70
     0
300
1:100
140
1.0
141
100.0
290
     0
  0
SCALE
  5
24E
102
{ACAD_REACTORS
330
241
102
}
330
241
100
AcDbScale
 70
     0
300
2:1
140
2.0
141
1.0
290
     0
  0
SCALE
  5
24F
102
{ACAD_REACTORS
330
241
102
}
330
241
100
AcDbScale
 70
     0
300
4:1
140
4.0
141
1.0
290
     0
  0
SCALE
  5
250
102
{ACAD_REACTORS
330
241
102
}
330
241
100
AcDbScale
 70
     0
300
8:1
140
8.0
141
1.0
290
     0
  0
SCALE
  5
251
102
{ACAD_REACTORS
330
241
102
}
330
241
100
AcDbScale
 70
     0
300
10:1
140
10.0
141
1.0
290
     0
  0
SCALE
  5
252
102
{ACAD_REACTORS
330
241
102
}
330
241
100
AcDbScale
 70
     0
300
100:1
140
100.0
141
1.0
290
     0
  0
SCALE
  5
253
102
{ACAD_REACTORS
330
241
102
}
330
241
100
AcDbScale
 70
     0
300
1/128" = 1'-0"
140
0.0078125
141
12.0
290
     0
  0
SCALE
  5
254
102
{ACAD_REACTORS
330
241
102
}
330
241
100
AcDbScale
 70
     0
300
1/64" = 1'-0"
140
0.015625
141
12.0
290
     0
  0
SCALE
  5
255
102
{ACAD_REACTORS
330
241
102
}
330
241
100
AcDbScale
 70
     0
300
1/32" = 1'-0"
140
0.03125
141
12.0
290
     0
  0
SCALE
  5
256
102
{ACAD_REACTORS
330
241
102
}
330
241
100
AcDbScale
 70
     0
300
1/16" = 1'-0"
140
0.0625
141
12.0
290
     0
  0
SCALE
  5
257
102
{ACAD_REACTORS
330
241
102
}
330
241
100
AcDbScale
 70
     0
300
3/32" = 1'-0"
140
0.09375
141
12.0
290
     0
  0
SCALE
  5
258
102
{ACAD_REACTORS
330
241
102
}
330
241
100
AcDbScale
 70
     0
300
1/8" = 1'-0"
140
0.125
141
12.0
290
     0
  0
SCALE
  5
259
102
{ACAD_REACTORS
330
241
102
}
330
241
100
AcDbScale
 70
     0
300
3/16" = 1'-0"
140
0.1875
141
12.0
290
     0
  0
SCALE
  5
25A
102
{ACAD_REACTORS
330
241
102
}
330
241
100
AcDbScale
 70
     0
300
1/4" = 1'-0"
140
0.25
141
12.0
290
     0
  0
SCALE
  5
25B
102
{ACAD_REACTORS
330
241
102
}
330
241
100
AcDbScale
 70
     0
300
3/8" = 1'-0"
140
0.375
141
12.0
290
     0
  0
SCALE
  5
25C
102
{ACAD_REACTORS
330
241
102
}
330
241
100
AcDbScale
 70
     0
300
1/2" = 1'-0"
140
0.5
141
12.0
290
     0
  0
SCALE
  5
25D
102
{ACAD_REACTORS
330
241
102
}
330
241
100
AcDbScale
 70
     0
300
3/4" = 1'-0"
140
0.75
141
12.0
290
     0
  0
SCALE
  5
25E
102
{ACAD_REACTORS
330
241
102
}
330
241
100
AcDbScale
 70
     0
300
1" = 1'-0"
140
1.0
141
12.0
290
     0
  0
SCALE
  5
25F
102
{ACAD_REACTORS
330
241
102
}
330
241
100
AcDbScale
 70
     0
300
1-1/2" = 1'-0"
140
1.5
141
12.0
290
     0
  0
SCALE
  5
260
102
{ACAD_REACTORS
330
241
102
}
330
241
100
AcDbScale
 70
     0
300
3" = 1'-0"
140
3.0
141
12.0
290
     0
  0
SCALE
  5
261
102
{ACAD_REACTORS
330
241
102
}
330
241
100
AcDbScale
 70
     0
300
6" = 1'-0"
140
6.0
141
12.0
290
     0
  0
SCALE
  5
262
102
{ACAD_REACTORS
330
241
102
}
330
241
100
AcDbScale
 70
     0
300
1'-0" = 1'-0"
140
12.0
141
12.0
290
     0
  0
TABLESTYLE
  5
279
102
{ACAD_REACTORS
330
278
102
}
102
{ACAD_XDICTIONARY
360
1DDA
102
}
330
278
100
AcDbTableStyle
  3
Standard
 70
     0
 71
     0
 40
0.06
 41
0.06
280
     0
281
     0
  7
Standard
140
4.5
170
     2
 62
     0
 63
   257
283
     0
 90
        4
 91
        0
  1

274
    -2
284
     1
 64
     0
275
    -2
285
     1
 65
     0
276
    -2
286
     1
 66
     0
277
    -2
287
     1
 67
     0
278
    -2
288
     1
 68
     0
279
    -2
289
     1
 69
     0
  7
Standard
140
6.0
170
     5
 62
     0
 63
   257
283
     0
 90
        4
 91
        0
  1

274
    -2
284
     1
 64
     0
275
    -2
285
     1
 65
     0
276
    -2
286
     1
 66
     0
277
    -2
287
     1
 67
     0
278
    -2
288
     1
 68
     0
279
    -2
289
     1
 69
     0
  7
Standard
140
4.5
170
     5
 62
     0
 63
   257
283
     0
 90
        4
 91
        0
  1

274
    -2
284
     1
 64
     0
275
    -2
285
     1
 65
     0
276
    -2
286
     1
 66
     0
277
    -2
287
     1
 67
     0
278
    -2
288
     1
 68
     0
279
    -2
289
     1
 69
     0
  0
VISUALSTYLE
  5
26C
102
{ACAD_REACTORS
330
267
102
}
330
267
100
AcDbVisualStyle
  2
2dWireframe
 70
     4
 71
     0
 72
     2
 73
     0
 90
        0
 40
-0.6
 41
-30.0
 62
     5
 63
     7
421
 16777215
 74
     1
 91
        4
 64
     7
 65
   257
 75
     1
175
     1
 42
1.0
 92
        0
 66
   257
 43
1.0
 76
     1
 77
     6
 78
     2
 67
     7
 79
     5
170
     0
171
     0
290
     0
174
     0
 93
        1
 44
0.0
173
     0
291
     0
 45
0.0
  0
VISUALSTYLE
  5
26E
102
{ACAD_REACTORS
330
267
102
}
330
267
100
AcDbVisualStyle
  2
3D Hidden
 70
     6
 71
     1
 72
     2
 73
     2
 90
        0
 40
-0.6
 41
-30.0
 62
     5
 63
     7
421
 16777215
 74
     2
 91
        2
 64
     7
 65
   257
 75
     2
175
     1
 42
40.0
 92
        0
 66
   257
 43
1.0
 76
     1
 77
     6
 78
     2
 67
     7
 79
     3
170
     0
171
     0
290
     0
174
     0
 93
        1
 44
0.0
173
     0
291
     0
 45
0.0
  0
VISUALSTYLE
  5
26D
102
{ACAD_REACTORS
330
267
102
}
330
267
100
AcDbVisualStyle
  2
3dWireframe
 70
     5
 71
     0
 72
     2
 73
     0
 90
        0
 40
-0.6
 41
-30.0
 62
     5
 63
     7
421
 16777215
 74
     1
 91
        4
 64
     7
 65
   257
 75
     1
175
     1
 42
1.0
 92
        0
 66
   257
 43
1.0
 76
     1
 77
     6
 78
     2
 67
     7
 79
     5
170
     0
171
     0
290
     0
174
     0
 93
        1
 44
0.0
173
     0
291
     0
 45
0.0
  0
VISUALSTYLE
  5
26F
102
{ACAD_REACTORS
330
267
102
}
330
267
100
AcDbVisualStyle
  2
Basic
 70
     7
 71
     1
 72
     0
 73
     1
 90
        0
 40
-0.6
 41
-30.0
 62
     5
 63
     7
421
 16777215
 74
     0
 91
        4
 64
     7
 65
   257
 75
     1
175
     1
 42
1.0
 92
        8
 66
     7
 43
1.0
 76
     1
 77
     6
 78
     2
 67
     7
 79
     5
170
     0
171
     0
290
     0
174
     0
 93
        1
 44
0.0
173
     0
291
     1
 45
0.0
  0
VISUALSTYLE
  5
273
102
{ACAD_REACTORS
330
267
102
}
330
267
100
AcDbVisualStyle
  2
Brighten
 70
    12
 71
     2
 72
     2
 73
     0
 90
        0
 40
-0.6
 41
-30.0
 62
     5
 63
     7
421
 16777215
 74
     1
 91
        4
 64
     7
 65
   257
 75
     1
175
     1
 42
1.0
 92
        8
 66
     7
 43
1.0
 76
     1
 77
     6
 78
     2
 67
     7
 79
     5
170
     0
171
     0
290
     0
174
     0
 93
        1
 44
50.0
173
     0
291
     1
 45
0.0
  0
VISUALSTYLE
  5
277
102
{ACAD_REACTORS
330
267
102
}
330
267
100
AcDbVisualStyle
  2
ColorChange
 70
    16
 71
     2
 72
     2
 73
     3
 90
        0
 40
-0.6
 41
-30.0
 62
     5
 63
     8
421
  8421504
 74
     1
 91
        4
 64
     7
 65
   257
 75
     1
175
     1
 42
1.0
 92
        8
 66
     8
424
  8421504
 43
1.0
 76
     1
 77
     6
 78
     2
 67
     7
 79
     5
170
     0
171
     0
290
     0
174
     0
 93
        1
 44
0.0
173
     0
291
     1
 45
0.0
  0
VISUALSTYLE
  5
271
102
{ACAD_REACTORS
330
267
102
}
330
267
100
AcDbVisualStyle
  2
Conceptual
 70
     9
 71
     3
 72
     2
 73
     0
 90
        0
 40
-0.6
 41
-30.0
 62
     5
 63
     7
421
 16777215
 74
     2
 91
        2
 64
     7
 65
   257
 75
     1
175
     1
 42
40.0
 92
        8
 66
     7
 43
1.0
 76
     1
 77
     6
 78
     2
 67
     7
 79
     3
170
     0
171
     0
290
     0
174
     0
 93
        1
 44
0.0
173
     0
291
     0
 45
0.0
  0
VISUALSTYLE
  5
272
102
{ACAD_REACTORS
330
267
102
}
330
267
100
AcDbVisualStyle
  2
Dim
 70
    11
 71
     2
 72
     2
 73
     0
 90
        0
 40
-0.6
 41
-30.0
 62
     5
 63
     7
421
 16777215
 74
     1
 91
        4
 64
     7
 65
   257
 75
     1
175
     1
 42
1.0
 92
        8
 66
     7
 43
1.0
 76
     1
 77
     6
 78
     2
 67
     7
 79
     5
170
     0
171
     0
290
     0
174
     0
 93
        1
 44
-50.0
173
     0
291
     1
 45
0.0
  0
VISUALSTYLE
  5
8FE
102
{ACAD_REACTORS
330
267
102
}
330
267
100
AcDbVisualStyle
  2
EdgeColorOff
 70
    22
 71
     2
 72
     2
 73
     0
 90
        0
 40
0.6
 41
30.0
 62
     5
 63
     7
421
 16777215
 74
     1
 91
        4
 64
     7
 65
   257
 75
     1
175
     1
 42
1.0
 92
        8
 66
     7
 43
1.0
 76
     1
 77
     6
 78
     2
 67
     7
 79
     5
170
     0
171
     0
290
     0
174
     0
 93
        1
 44
0.0
173
     0
291
     1
 45
0.0
  0
VISUALSTYLE
  5
276
102
{ACAD_REACTORS
330
267
102
}
330
267
100
AcDbVisualStyle
  2
Facepattern
 70
    15
 71
     2
 72
     2
 73
     0
 90
        0
 40
-0.6
 41
-30.0
 62
     5
 63
     7
421
 16777215
 74
     1
 91
        4
 64
     7
 65
   257
 75
     1
175
     1
 42
1.0
 92
        8
 66
     7
 43
1.0
 76
     1
 77
     6
 78
     2
 67
     7
 79
     5
170
     0
171
     0
290
     0
174
     0
 93
        1
 44
0.0
173
     0
291
     1
 45
0.0
  0
VISUALSTYLE
  5
268
102
{ACAD_REACTORS
330
267
102
}
330
267
100
AcDbVisualStyle
  2
Flat
 70
     0
 71
     2
 72
     1
 73
     1
 90
        2
 40
-0.6
 41
30.0
 62
     5
 63
     7
421
 16777215
 74
     0
 91
        4
 64
     7
 65
   257
 75
     1
175
     1
 42
1.0
 92
        8
 66
     7
 43
1.0
 76
     1
 77
     6
 78
     2
 67
     7
 79
     5
170
     0
171
     0
290
     0
174
     0
 93
       13
 44
0.0
173
     0
291
     1
 45
0.0
  0
VISUALSTYLE
  5
269
102
{ACAD_REACTORS
330
267
102
}
330
267
100
AcDbVisualStyle
  2
FlatWithEdges
 70
     1
 71
     2
 72
     1
 73
     1
 90
        2
 40
-0.6
 41
30.0
 62
     5
 63
     7
421
 16777215
 74
     1
 91
        4
 64
     7
 65
   257
 75
     1
175
     1
 42
1.0
 92
        0
 66
   257
 43
1.0
 76
     1
 77
     6
 78
     2
 67
     7
 79
     5
170
     0
171
     0
290
     0
174
     0
 93
       13
 44
0.0
173
     0
291
     1
 45
0.0
  0
VISUALSTYLE
  5
26A
102
{ACAD_REACTORS
330
267
102
}
330
267
100
AcDbVisualStyle
  2
Gouraud
 70
     2
 71
     2
 72
     2
 73
     1
 90
        2
 40
-0.6
 41
30.0
 62
     5
 63
     7
421
 16777215
 74
     0
 91
        4
 64
     7
 65
   257
 75
     1
175
     1
 42
1.0
 92
        0
 66
     7
 43
1.0
 76
     1
 77
     6
 78
     2
 67
     7
 79
     5
170
     0
171
     0
290
     0
174
     0
 93
       13
 44
0.0
173
     0
291
     1
 45
0.0
  0
VISUALSTYLE
  5
26B
102
{ACAD_REACTORS
330
267
102
}
330
267
100
AcDbVisualStyle
  2
GouraudWithEdges
 70
     3
 71
     2
 72
     2
 73
     1
 90
        2
 40
-0.6
 41
30.0
 62
     5
 63
     7
421
 16777215
 74
     1
 91
        4
 64
     7
 65
   257
 75
     1
175
     1
 42
1.0
 92
        0
 66
   257
 43
1.0
 76
     1
 77
     6
 78
     2
 67
     7
 79
     5
170
     0
171
     0
290
     0
174
     0
 93
       13
 44
0.0
173
     0
291
     1
 45
0.0
  0
VISUALSTYLE
  5
8FB
102
{ACAD_REACTORS
330
267
102
}
330
267
100
AcDbVisualStyle
  2
Hidden
 70
     6
 71
     1
 72
     2
 73
     2
 90
        0
 40
0.6
 41
30.0
 62
     5
 63
     7
421
 16777215
 74
     2
 91
        2
 64
     7
 65
   257
 75
     2
175
     1
 42
40.0
 92
        0
 66
   257
 43
1.0
 76
     1
 77
     6
 78
     2
 67
     7
 79
     3
170
     0
171
     0
290
     0
174
     0
 93
        1
 44
0.0
173
     0
291
     0
 45
0.0
  0
VISUALSTYLE
  5
8FC
102
{ACAD_REACTORS
330
267
102
}
330
267
100
AcDbVisualStyle
  2
JitterOff
 70
    20
 71
     2
 72
     2
 73
     0
 90
        0
 40
0.6
 41
30.0
 62
     5
 63
     7
421
 16777215
 74
     1
 91
        4
 64
     7
 65
   257
 75
     1
175
     1
 42
1.0
 92
       10
 66
     7
 43
1.0
 76
     1
 77
     6
 78
     2
 67
     7
 79
     5
170
     0
171
     0
290
     0
174
     0
 93
        1
 44
0.0
173
     0
291
     1
 45
0.0
  0
VISUALSTYLE
  5
275
102
{ACAD_REACTORS
330
267
102
}
330
267
100
AcDbVisualStyle
  2
Linepattern
 70
    14
 71
     2
 72
     2
 73
     0
 90
        0
 40
-0.6
 41
-30.0
 62
     5
 63
     7
421
 16777215
 74
     1
 91
        4
 64
     7
 65
   257
 75
     7
175
     7
 42
1.0
 92
        8
 66
     7
 43
1.0
 76
     1
 77
     6
 78
     2
 67
     7
 79
     5
170
     0
171
     0
290
     0
174
     0
 93
        1
 44
0.0
173
     0
291
     1
 45
0.0
  0
VISUALSTYLE
  5
8FD
102
{ACAD_REACTORS
330
267
102
}
330
267
100
AcDbVisualStyle
  2
OverhangOff
 70
    21
 71
     2
 72
     2
 73
     0
 90
        0
 40
0.6
 41
30.0
 62
     5
 63
     7
421
 16777215
 74
     1
 91
        4
 64
     7
 65
   257
 75
     1
175
     1
 42
1.0
 92
        9
 66
     7
 43
1.0
 76
     1
 77
     6
 78
     2
 67
     7
 79
     5
170
     0
171
     0
290
     0
174
     0
 93
        1
 44
0.0
173
     0
291
     1
 45
0.0
  0
VISUALSTYLE
  5
270
102
{ACAD_REACTORS
330
267
102
}
330
267
100
AcDbVisualStyle
  2
Realistic
 70
     8
 71
     2
 72
     2
 73
     0
 90
        0
 40
-0.6
 41
-30.0
 62
     5
 63
     7
421
 16777215
 74
     1
 91
        0
 64
     7
 65
   257
 75
     1
175
     1
 42
1.0
 92
        8
 66
     8
424
  7895160
 43
1.0
 76
     1
 77
     6
 78
     2
 67
     7
 79
     5
170
     0
171
     0
290
     0
174
     0
 93
       13
 44
0.0
173
     0
291
     0
 45
0.0
  0
VISUALSTYLE
  5
903
102
{ACAD_REACTORS
330
267
102
}
330
267
100
AcDbVisualStyle
  2
Shaded
 70
    27
 71
     2
 72
     2
 73
     1
 90
        2
 40
0.6
 41
30.0
 62
     5
 63
     7
421
 16777215
 74
     0
 91
        4
 64
     7
 65
   257
 75
     1
175
     1
 42
1.0
 92
        8
 66
   257
 43
1.0
 76
     1
 77
     6
 78
     2
 67
     8
425
  7895160
 79
     3
170
     0
171
     0
290
     0
174
     0
 93
        5
 44
0.0
173
     0
291
     0
 45
0.0
  0
VISUALSTYLE
  5
902
102
{ACAD_REACTORS
330
267
102
}
330
267
100
AcDbVisualStyle
  2
Shaded with edges
 70
    26
 71
     2
 72
     2
 73
     1
 90
        2
 40
0.6
 41
30.0
 62
     5
 63
     7
421
 16777215
 74
     1
 91
       10
 64
     7
 65
   257
 75
     2
175
     1
 42
1.0
 92
        8
 66
   257
 43
1.0
 76
     1
 77
     6
 78
     2
 67
     7
 79
     3
170
     0
171
     0
290
     0
174
     0
 93
        5
 44
0.0
173
     0
291
     0
 45
0.0
  0
VISUALSTYLE
  5
8FF
102
{ACAD_REACTORS
330
267
102
}
330
267
100
AcDbVisualStyle
  2
Shades of Gray
 70
    23
 71
     2
 72
     2
 73
     3
 90
        0
 40
0.6
 41
30.0
 62
     5
 63
     7
421
 16777215
 74
     2
 91
        2
 64
     7
 65
     7
 75
     1
175
     1
 42
40.0
 92
        8
 66
     7
 43
1.0
 76
     1
 77
     6
 78
     2
 67
     7
 79
     3
170
     0
171
     0
290
     0
174
     0
 93
        1
 44
0.0
173
     0
291
     0
 45
0.0
  0
VISUALSTYLE
  5
900
102
{ACAD_REACTORS
330
267
102
}
330
267
100
AcDbVisualStyle
  2
Sketchy
 70
    24
 71
     1
 72
     2
 73
     2
 90
        0
 40
0.6
 41
30.0
 62
     5
 63
     7
421
 16777215
 74
     2
 91
        2
 64
     7
 65
     7
 75
     1
175
     1
 42
40.0
 92
       11
 66
     7
 43
1.0
 76
     1
 77
     6
 78
     2
 67
     7
 79
     6
170
     0
171
     0
290
     0
174
     0
 93
        1
 44
0.0
173
     0
291
     0
 45
0.0
  0
VISUALSTYLE
  5
274
102
{ACAD_REACTORS
330
267
102
}
330
267
100
AcDbVisualStyle
  2
Thicken
 70
    13
 71
     2
 72
     2
 73
     0
 90
        0
 40
-0.6
 41
-30.0
 62
     5
 63
     7
421
 16777215
 74
     1
 91
        4
 64
     7
 65
   257
 75
     1
175
     1
 42
1.0
 92
       12
 66
     7
 43
1.0
 76
     1
 77
     6
 78
     2
 67
     7
 79
     5
170
     0
171
     0
290
     0
174
     0
 93
        1
 44
0.0
173
     0
291
     1
 45
0.0
  0
VISUALSTYLE
  5
8FA
102
{ACAD_REACTORS
330
267
102
}
330
267
100
AcDbVisualStyle
  2
Wireframe
 70
     5
 71
     0
 72
     2
 73
     0
 90
        0
 40
0.6
 41
30.0
 62
     5
 63
     7
421
 16777215
 74
     1
 91
        4
 64
     7
 65
   257
 75
     1
175
     1
 42
1.0
 92
        0
 66
   257
 43
1.0
 76
     1
 77
     6
 78
     2
 67
     7
 79
     3
170
     0
171
     0
290
     0
174
     0
 93
        1
 44
0.0
173
     0
291
     0
 45
0.0
  0
VISUALSTYLE
  5
901
102
{ACAD_REACTORS
330
267
102
}
330
267
100
AcDbVisualStyle
  2
X-Ray
 70
    25
 71
     2
 72
     2
 73
     1
 90
        1
 40
0.5
 41
30.0
 62
     5
 63
     7
421
 16777215
 74
     1
 91
        0
 64
     7
 65
   257
 75
     1
175
     1
 42
1.0
 92
        8
 66
     7
 43
1.0
 76
     1
 77
     6
 78
     2
 67
     7
 79
     3
170
     0
171
     0
290
     0
174
     0
 93
       13
 44
0.0
173
     0
291
     0
 45
0.0
  0
DICTIONARYVAR
  5
331
102
{ACAD_REACTORS
330
330
102
}
330
330
100
DictionaryVariables
280
     0
  1
1:1
  0
DICTIONARYVAR
  5
335
102
{ACAD_REACTORS
330
330
102
}
330
330
100
DictionaryVariables
280
     0
  1
Standard
  0
DICTIONARYVAR
  5
D52
102
{ACAD_REACTORS
330
330
102
}
330
330
100
DictionaryVariables
280
     0
  1
ByLayer
  0
DICTIONARYVAR
  5
896
102
{ACAD_REACTORS
330
330
102
}
330
330
100
DictionaryVariables
280
     0
  1
0
  0
XRECORD
  5
88B
102
{ACAD_REACTORS
330
2E2
102
}
330
2E2
100
AcDbXrecord
280
     1
 91
     1023
301

290
     0
302
MODEL
330
14
 90
        8
 62
     7
370
    -3
331
13
  1
Color_7
330
0
 90
        0
 62
     7
370
    -3
331
13
  1
Color_7
330
4B
 90
        8
 62
     7
370
    -3
331
13
  1
Color_7
330
4C
 90
        8
 62
     7
370
    -3
331
13
  1
Color_7
330
4D
 90
        8
 62
     7
370
    -3
331
13
  1
Color_7
330
0
 90
        9
 62
     1
370
    -3
331
13
  1
Color_1
330
0
 90
        8
 62
     4
370
    -3
331
13
  1
Color_4
330
667
 90
        8
 62
     7
370
    -3
331
13
  1
Color_7
330
0
 90
        9
 62
     1
370
    -3
331
13
  1
Color_1
  0
XRECORD
  5
88F
102
{ACAD_REACTORS
330
2E2
102
}
330
2E2
100
AcDbXrecord
280
     1
 91
     1023
301

290
     0
302
MODEL
330
14
 90
        8
 62
     7
370
    -3
331
13
  1
Color_7
330
0
 90
        0
 62
     7
370
    -3
331
13
  1
Color_7
330
4B
 90
        8
 62
     7
370
     0
331
13
  1
Color_7
330
4C
 90
        8
 62
     7
370
     9
331
13
  1
Color_7
330
4D
 90
        8
 62
     7
370
    -3
331
13
  1
Color_7
330
667
 90
        8
 62
     7
370
    -3
331
13
  1
Color_7
330
88C
 90
        8
 62
     7
370
     9
331
45
  1
Color_7
  0
XRECORD
  5
892
102
{ACAD_REACTORS
330
2E2
102
}
330
2E2
100
AcDbXrecord
280
     1
 91
     1023
301

290
     0
302
MODEL
330
14
 90
        8
 62
     7
370
    -3
331
13
  1
Color_7
330
0
 90
        0
 62
     7
370
    -3
331
13
  1
Color_7
330
4B
 90
        8
 62
     7
370
     0
331
13
  1
Color_7
330
4C
 90
        8
 62
     7
370
     9
331
13
  1
Color_7
330
4D
 90
        8
 62
     7
370
    -3
331
13
  1
Color_7
330
667
 90
        8
 62
     3
370
    -3
331
13
  1
Color_3
330
88C
 90
        8
 62
     7
370
     9
331
45
  1
Color_7
  0
XRECORD
  5
8F6
102
{ACAD_REACTORS
330
2E2
102
}
330
2E2
100
AcDbXrecord
280
     1
 91
     1023
301

290
     0
302
MODEL
330
14
 90
        8
 62
     7
370
    -3
331
13
  1
Color_7
330
0
 90
        0
 62
     7
370
    -3
331
13
  1
Color_7
330
4B
 90
        8
 62
     7
370
     0
331
13
  1
Color_7
330
4C
 90
        8
 62
     7
370
     9
331
13
  1
Color_7
330
4D
 90
        8
 62
     7
370
    -3
331
13
  1
Color_7
330
667
 90
        8
 62
     7
370
    -3
331
13
  1
Color_7
330
88C
 90
        8
 62
     7
370
     9
331
45
  1
Color_7
  0
XRECORD
  5
BC1
102
{ACAD_REACTORS
330
2E2
102
}
330
2E2
100
AcDbXrecord
280
     1
 91
     1023
301

290
     0
302
MODEL
330
14
 90
        8
 62
     7
370
    -3
331
13
  1
Color_7
330
0
 90
        0
 62
     7
370
    -3
331
13
  1
Color_7
330
4B
 90
        8
 62
     7
370
     0
331
13
  1
Color_7
330
4C
 90
        8
 62
     7
370
     9
331
13
  1
Color_7
330
4D
 90
        8
 62
     7
370
    -3
331
13
  1
Color_7
330
667
 90
        8
 62
     7
370
    -3
331
13
  1
Color_7
330
88C
 90
        8
 62
     7
370
     9
331
45
  1
Color_7
330
0
 90
        8
 62
     7
370
    -3
331
13
  1
Color_7
  0
XRECORD
  5
C9E
102
{ACAD_REACTORS
330
2E2
102
}
330
2E2
100
AcDbXrecord
280
     1
 91
     1023
301

290
     0
302
DIM
330
14
 90
        8
 62
     7
370
    -3
331
13
  1
Color_7
330
0
 90
        0
 62
     7
370
    -3
331
13
  1
Color_7
330
4B
 90
        8
 62
     7
370
     0
331
13
  1
Color_7
330
4C
 90
        8
 62
     7
370
     9
331
13
  1
Color_7
330
4D
 90
        8
 62
     7
370
    -3
331
13
  1
Color_7
330
667
 90
        8
 62
     7
370
    -3
331
13
  1
Color_7
330
88C
 90
        8
 62
     7
370
     9
331
45
  1
Color_7
330
0
 90
        8
 62
     7
370
    -3
331
13
  1
Color_7
  0
XRECORD
  5
C9F
102
{ACAD_REACTORS
330
2E2
102
}
330
2E2
100
AcDbXrecord
280
     1
 91
     1023
301

290
     0
302
MODEL
330
14
 90
        8
 62
     7
370
    -3
331
13
  1
Color_7
330
0
 90
        0
 62
     7
370
    -3
331
13
  1
Color_7
330
4B
 90
        8
 62
     7
370
     0
331
13
  1
Color_7
330
4C
 90
        8
 62
     7
370
     9
331
13
  1
Color_7
330
4D
 90
        8
 62
     7
370
    -3
331
13
  1
Color_7
330
667
 90
        8
 62
     7
370
    -3
331
13
  1
Color_7
330
88C
 90
        8
 62
     7
370
     9
331
45
  1
Color_7
330
0
 90
        8
 62
     7
370
    -3
331
13
  1
Color_7
  0
XRECORD
  5
7AA
102
{ACAD_REACTORS
330
2E2
102
}
330
2E2
100
AcDbXrecord
280
     1
 91
     1023
301

290
     0
302
MODEL
330
14
 90
        8
 62
     7
370
    -3
331
13
  1
Color_7
330
4B
 90
        8
 62
     7
370
    20
331
13
  1
Color_7
330
4C
 90
        8
 62
     7
370
    13
331
13
  1
Color_7
330
4D
 90
        8
 62
     7
370
    20
331
13
  1
Color_7
330
667
 90
        8
 62
     7
370
    -3
331
13
  1
Color_7
330
88C
 90
        8
 62
     7
370
    20
331
45
  1
Color_7
330
D5D
 90
        0
 62
     7
370
    -3
331
13
  1
Color_7
330
178B
 90
        8
 62
   253
370
     0
331
13
  1
Color_253
330
178F
 90
        8
 62
     5
370
    -3
331
13
  1
Color_5
  0
DICTIONARY
  5
1DDA
330
279
100
AcDbDictionary
280
     1
281
     1
  3
ACAD_ROUNDTRIP_2008_TABLESTYLE_CELLSTYLEMAP
360
1DDB
  0
CELLSTYLEMAP
  5
1DDB
102
{ACAD_REACTORS
330
1DDA
102
}
330
1DDA
100
AcDbCellStyleMap
 90
        3
300
CELLSTYLE
  1
TABLEFORMAT_BEGIN
 90
        5
170
     1
 91
        0
 92
    32768
 62
   257
 93
        1
300
CONTENTFORMAT
  1
CONTENTFORMAT_BEGIN
 90
        0
 91
        0
 92
        4
 93
        0
300

 40
0.0
140
1.0
 94
        5
 62
     0
340
17
144
6.0
309
CONTENTFORMAT_END
171
     1
301
MARGIN
  1
CELLMARGIN_BEGIN
 40
0.06
 40
0.06
 40
0.06
 40
0.06
 40
0.18
 40
0.18
309
CELLMARGIN_END
 94
        6
 95
        1
302
GRIDFORMAT
  1
GRIDFORMAT_BEGIN
 90
        0
 91
        1
 62
     0
 92
       -2
340
0
 93
        0
 40
0.045
309
GRIDFORMAT_END
 95
        2
302
GRIDFORMAT
  1
GRIDFORMAT_BEGIN
 90
        0
 91
        1
 62
     0
 92
       -2
340
0
 93
        0
 40
0.045
309
GRIDFORMAT_END
 95
        4
302
GRIDFORMAT
  1
GRIDFORMAT_BEGIN
 90
        0
 91
        1
 62
     0
 92
       -2
340
0
 93
        0
 40
0.045
309
GRIDFORMAT_END
 95
        8
302
GRIDFORMAT
  1
GRIDFORMAT_BEGIN
 90
        0
 91
        1
 62
     0
 92
       -2
340
0
 93
        0
 40
0.045
309
GRIDFORMAT_END
 95
       16
302
GRIDFORMAT
  1
GRIDFORMAT_BEGIN
 90
        0
 91
        1
 62
     0
 92
       -2
340
0
 93
        0
 40
0.045
309
GRIDFORMAT_END
 95
       32
302
GRIDFORMAT
  1
GRIDFORMAT_BEGIN
 90
        0
 91
        1
 62
     0
 92
       -2
340
0
 93
        0
 40
0.045
309
GRIDFORMAT_END
309
TABLEFORMAT_END
  1
CELLSTYLE_BEGIN
 90
        1
 91
        1
300
_TITLE
309
CELLSTYLE_END
300
CELLSTYLE
  1
TABLEFORMAT_BEGIN
 90
        5
170
     1
 91
        0
 92
        0
 62
   257
 93
        1
300
CONTENTFORMAT
  1
CONTENTFORMAT_BEGIN
 90
        0
 91
        0
 92
        4
 93
        0
300

 40
0.0
140
1.0
 94
        5
 62
     0
340
17
144
4.5
309
CONTENTFORMAT_END
171
     1
301
MARGIN
  1
CELLMARGIN_BEGIN
 40
0.06
 40
0.06
 40
0.06
 40
0.06
 40
0.18
 40
0.18
309
CELLMARGIN_END
 94
        6
 95
        1
302
GRIDFORMAT
  1
GRIDFORMAT_BEGIN
 90
        0
 91
        1
 62
     0
 92
       -2
340
0
 93
        0
 40
0.045
309
GRIDFORMAT_END
 95
        2
302
GRIDFORMAT
  1
GRIDFORMAT_BEGIN
 90
        0
 91
        1
 62
     0
 92
       -2
340
0
 93
        0
 40
0.045
309
GRIDFORMAT_END
 95
        4
302
GRIDFORMAT
  1
GRIDFORMAT_BEGIN
 90
        0
 91
        1
 62
     0
 92
       -2
340
0
 93
        0
 40
0.045
309
GRIDFORMAT_END
 95
        8
302
GRIDFORMAT
  1
GRIDFORMAT_BEGIN
 90
        0
 91
        1
 62
     0
 92
       -2
340
0
 93
        0
 40
0.045
309
GRIDFORMAT_END
 95
       16
302
GRIDFORMAT
  1
GRIDFORMAT_BEGIN
 90
        0
 91
        1
 62
     0
 92
       -2
340
0
 93
        0
 40
0.045
309
GRIDFORMAT_END
 95
       32
302
GRIDFORMAT
  1
GRIDFORMAT_BEGIN
 90
        0
 91
        1
 62
     0
 92
       -2
340
0
 93
        0
 40
0.045
309
GRIDFORMAT_END
309
TABLEFORMAT_END
  1
CELLSTYLE_BEGIN
 90
        2
 91
        1
300
_HEADER
309
CELLSTYLE_END
300
CELLSTYLE
  1
TABLEFORMAT_BEGIN
 90
        5
170
     1
 91
        0
 92
        0
 62
   257
 93
        1
300
CONTENTFORMAT
  1
CONTENTFORMAT_BEGIN
 90
        0
 91
        0
 92
        4
 93
        0
300

 40
0.0
140
1.0
 94
        2
 62
     0
340
17
144
4.5
309
CONTENTFORMAT_END
171
     1
301
MARGIN
  1
CELLMARGIN_BEGIN
 40
0.06
 40
0.06
 40
0.06
 40
0.06
 40
0.18
 40
0.18
309
CELLMARGIN_END
 94
        6
 95
        1
302
GRIDFORMAT
  1
GRIDFORMAT_BEGIN
 90
        0
 91
        1
 62
     0
 92
       -2
340
0
 93
        0
 40
0.045
309
GRIDFORMAT_END
 95
        2
302
GRIDFORMAT
  1
GRIDFORMAT_BEGIN
 90
        0
 91
        1
 62
     0
 92
       -2
340
0
 93
        0
 40
0.045
309
GRIDFORMAT_END
 95
        4
302
GRIDFORMAT
  1
GRIDFORMAT_BEGIN
 90
        0
 91
        1
 62
     0
 92
       -2
340
0
 93
        0
 40
0.045
309
GRIDFORMAT_END
 95
        8
302
GRIDFORMAT
  1
GRIDFORMAT_BEGIN
 90
        0
 91
        1
 62
     0
 92
       -2
340
0
 93
        0
 40
0.045
309
GRIDFORMAT_END
 95
       16
302
GRIDFORMAT
  1
GRIDFORMAT_BEGIN
 90
        0
 91
        1
 62
     0
 92
       -2
340
0
 93
        0
 40
0.045
309
GRIDFORMAT_END
 95
       32
302
GRIDFORMAT
  1
GRIDFORMAT_BEGIN
 90
        0
 91
        1
 62
     0
 92
       -2
340
0
 93
        0
 40
0.045
309
GRIDFORMAT_END
309
TABLEFORMAT_END
  1
CELLSTYLE_BEGIN
 90
        3
 91
        2
300
_DATA
309
CELLSTYLE_END
  0
ENDSEC
  0
EOF
