  0
SECTION
  2
HEADER
  9
$ACADVER
  1
AC1021
  9
$ACADMAINTVER
 70
    25
  9
$DWGCODEPAGE
  3
ANSI_932
  9
$LASTSAVEDBY
  1
Shimosaki
  9
$INSBASE
 10
0.0
 20
0.0
 30
0.0
  9
$EXTMIN
 10
72.20214454724874
 20
63.79214832457114
 30
0.0
  9
$EXTMAX
 10
2022.202144547732
 20
2897.146673506426
 30
0.0
  9
$LIMMIN
 10
0.0
 20
0.0
  9
$LIMMAX
 10
2100.0
 20
2970.0
  9
$ORTHOMODE
 70
     1
  9
$REGENMODE
 70
     1
  9
$FILLMODE
 70
     1
  9
$QTEXTMODE
 70
     0
  9
$MIRRTEXT
 70
     1
  9
$LTSCALE
 40
50.8
  9
$ATTMODE
 70
     1
  9
$TEXTSIZE
 40
2.5
  9
$TRACEWID
 40
1.0
  9
$TEXTSTYLE
  7
ＭＳ ゴシック
  9
$CLAYER
  8
MODEL
  9
$CELTYPE
  6
Continuous
  9
$CECOLOR
 62
   256
  9
$CELTSCALE
 40
1.0
  9
$DISPSILH
 70
     0
  9
$DIMSCALE
 40
1.0
  9
$DIMASZ
 40
9.0
  9
$DIMEXO
 40
10.0
  9
$DIMDLI
 40
0.9999999999999999
  9
$DIMRND
 40
0.0
  9
$DIMDLE
 40
0.0
  9
$DIMEXE
 40
0.0
  9
$DIMTP
 40
0.0
  9
$DIMTM
 40
0.0
  9
$DIMTXT
 40
24.0
  9
$DIMCEN
 40
0.0
  9
$DIMTSZ
 40
0.0
  9
$DIMTOL
 70
     0
  9
$DIMLIM
 70
     0
  9
$DIMTIH
 70
     0
  9
$DIMTOH
 70
     0
  9
$DIMSE1
 70
     0
  9
$DIMSE2
 70
     0
  9
$DIMTAD
 70
     1
  9
$DIMZIN
 70
    11
  9
$DIMBLK
  1
DOT
  9
$DIMASO
 70
     1
  9
$DIMSHO
 70
     1
  9
$DIMPOST
  1
<>
  9
$DIMAPOST
  1
[]
  9
$DIMALT
 70
     0
  9
$DIMALTD
 70
     1
  9
$DIMALTF
 40
1.0
  9
$DIMLFAC
 40
1.0
  9
$DIMTOFL
 70
     0
  9
$DIMTVP
 40
0.0
  9
$DIMTIX
 70
     1
  9
$DIMSOXD
 70
     0
  9
$DIMSAH
 70
     0
  9
$DIMBLK1
  1

  9
$DIMBLK2
  1

  9
$DIMSTYLE
  2
tfrom線あり
  9
$DIMCLRD
 70
     0
  9
$DIMCLRE
 70
     0
  9
$DIMCLRT
 70
     0
  9
$DIMTFAC
 40
1.0
  9
$DIMGAP
 40
20.0
  9
$DIMJUST
 70
     0
  9
$DIMSD1
 70
     0
  9
$DIMSD2
 70
     0
  9
$DIMTOLJ
 70
     1
  9
$DIMTZIN
 70
    11
  9
$DIMALTZ
 70
    11
  9
$DIMALTTZ
 70
    11
  9
$DIMUPT
 70
     0
  9
$DIMDEC
 70
     0
  9
$DIMTDEC
 70
     1
  9
$DIMALTU
 70
     2
  9
$DIMALTTD
 70
     2
  9
$DIMTXSTY
  7
ＭＳ ゴシック
  9
$DIMAUNIT
 70
     0
  9
$DIMADEC
 70
     2
  9
$DIMALTRND
 40
0.0
  9
$DIMAZIN
 70
     0
  9
$DIMDSEP
 70
    46
  9
$DIMATFIT
 70
     0
  9
$DIMFRAC
 70
     2
  9
$DIMLDRBLK
  1
DOT
  9
$DIMLUNIT
 70
     2
  9
$DIMLWD
 70
    -2
  9
$DIMLWE
 70
    -2
  9
$DIMTMOVE
 70
     0
  9
$DIMFXL
 40
1.0
  9
$DIMFXLON
 70
     0
  9
$DIMJOGANG
 40
0.7853981633974483
  9
$DIMTFILL
 70
     0
  9
$DIMTFILLCLR
 70
     0
  9
$DIMARCSYM
 70
     0
  9
$DIMLTYPE
  6

  9
$DIMLTEX1
  6

  9
$DIMLTEX2
  6

  9
$LUNITS
 70
     2
  9
$LUPREC
 70
     0
  9
$SKETCHINC
 40
0.1
  9
$FILLETRAD
 40
0.0
  9
$AUNITS
 70
     0
  9
$AUPREC
 70
     0
  9
$MENU
  1
acad
  9
$ELEVATION
 40
0.0
  9
$PELEVATION
 40
0.0
  9
$THICKNESS
 40
0.0
  9
$LIMCHECK
 70
     0
  9
$CHAMFERA
 40
0.0
  9
$CHAMFERB
 40
0.0
  9
$CHAMFERC
 40
0.0
  9
$CHAMFERD
 40
0.0
  9
$SKPOLY
 70
     0
  9
$TDCREATE
 40
2447893.375
  9
$TDUCREATE
 40
0.0
  9
$TDUPDATE
 40
2457163.590512662
  9
$TDUUPDATE
 40
2457163.215512662
  9
$TDINDWG
 40
0.1281993519
  9
$TDUSRTIMER
 40
2457163.21433441
  9
$USRTIMER
 70
     1
  9
$ANGBASE
 50
0.0
  9
$ANGDIR
 70
     0
  9
$PDMODE
 70
     1
  9
$PDSIZE
 40
-2.0
  9
$PLINEWID
 40
0.0
  9
$SPLFRAME
 70
     0
  9
$SPLINETYPE
 70
     6
  9
$SPLINESEGS
 70
     8
  9
$HANDSEED
  5
12C9
  9
$SURFTAB1
 70
     6
  9
$SURFTAB2
 70
     6
  9
$SURFTYPE
 70
     6
  9
$SURFU
 70
     6
  9
$SURFV
 70
     6
  9
$UCSBASE
  2

  9
$UCSNAME
  2

  9
$UCSORG
 10
0.0
 20
0.0
 30
0.0
  9
$UCSXDIR
 10
1.0
 20
0.0
 30
0.0
  9
$UCSYDIR
 10
0.0
 20
1.0
 30
0.0
  9
$UCSORTHOREF
  2

  9
$UCSORTHOVIEW
 70
     0
  9
$UCSORGTOP
 10
0.0
 20
0.0
 30
0.0
  9
$UCSORGBOTTOM
 10
0.0
 20
0.0
 30
0.0
  9
$UCSORGLEFT
 10
0.0
 20
0.0
 30
0.0
  9
$UCSORGRIGHT
 10
0.0
 20
0.0
 30
0.0
  9
$UCSORGFRONT
 10
0.0
 20
0.0
 30
0.0
  9
$UCSORGBACK
 10
0.0
 20
0.0
 30
0.0
  9
$PUCSBASE
  2

  9
$PUCSNAME
  2

  9
$PUCSORG
 10
0.0
 20
0.0
 30
0.0
  9
$PUCSXDIR
 10
1.0
 20
0.0
 30
0.0
  9
$PUCSYDIR
 10
0.0
 20
1.0
 30
0.0
  9
$PUCSORTHOREF
  2

  9
$PUCSORTHOVIEW
 70
     0
  9
$PUCSORGTOP
 10
0.0
 20
0.0
 30
0.0
  9
$PUCSORGBOTTOM
 10
0.0
 20
0.0
 30
0.0
  9
$PUCSORGLEFT
 10
0.0
 20
0.0
 30
0.0
  9
$PUCSORGRIGHT
 10
0.0
 20
0.0
 30
0.0
  9
$PUCSORGFRONT
 10
0.0
 20
0.0
 30
0.0
  9
$PUCSORGBACK
 10
0.0
 20
0.0
 30
0.0
  9
$USERI1
 70
     0
  9
$USERI2
 70
     0
  9
$USERI3
 70
     0
  9
$USERI4
 70
     0
  9
$USERI5
 70
     0
  9
$USERR1
 40
0.0
  9
$USERR2
 40
0.0
  9
$USERR3
 40
0.0
  9
$USERR4
 40
0.0
  9
$USERR5
 40
0.0
  9
$WORLDVIEW
 70
     1
  9
$SHADEDGE
 70
     3
  9
$SHADEDIF
 70
    70
  9
$TILEMODE
 70
     1
  9
$MAXACTVP
 70
    64
  9
$PINSBASE
 10
0.0
 20
0.0
 30
0.0
  9
$PLIMCHECK
 70
     0
  9
$PEXTMIN
 10
0.0
 20
0.0
 30
0.0
  9
$PEXTMAX
 10
0.0
 20
0.0
 30
0.0
  9
$PLIMMIN
 10
-7.5
 20
-20.0
  9
$PLIMMAX
 10
412.5
 20
277.0
  9
$UNITMODE
 70
     0
  9
$VISRETAIN
 70
     0
  9
$PLINEGEN
 70
     1
  9
$PSLTSCALE
 70
     0
  9
$TREEDEPTH
 70
  3020
  9
$CMLSTYLE
  2
Standard
  9
$CMLJUST
 70
     0
  9
$CMLSCALE
 40
1.0
  9
$PROXYGRAPHICS
 70
     0
  9
$MEASUREMENT
 70
     1
  9
$CELWEIGHT
370
    -1
  9
$ENDCAPS
280
     0
  9
$JOINSTYLE
280
     0
  9
$LWDISPLAY
290
     1
  9
$INSUNITS
 70
     4
  9
$HYPERLINKBASE
  1

  9
$STYLESHEET
  1

  9
$XEDIT
290
     1
  9
$CEPSNTYPE
380
     0
  9
$PSTYLEMODE
290
     1
  9
$FINGERPRINTGUID
  2

  9
$VERSIONGUID
  2

  9
$EXTNAMES
290
     1
  9
$PSVPSCALE
 40
0.0
  9
$OLESTARTUP
290
     0
  9
$SORTENTS
280
   127
  9
$INDEXCTL
280
     0
  9
$HIDETEXT
280
     1
  9
$XCLIPFRAME
290
     0
  9
$HALOGAP
280
     0
  9
$OBSCOLOR
 70
   257
  9
$OBSLTYPE
280
     0
  9
$INTERSECTIONDISPLAY
280
     0
  9
$INTERSECTIONCOLOR
 70
   257
  9
$DIMASSOC
280
     2
  9
$PROJECTNAME
  1

  9
$CAMERADISPLAY
290
     0
  9
$LENSLENGTH
 40
50.0
  9
$CAMERAHEIGHT
 40
0.0
  9
$STEPSPERSEC
 40
2.0
  9
$STEPSIZE
 40
6.0
  9
$3DDWFPREC
 40
2.0
  9
$PSOLWIDTH
 40
0.25
  9
$PSOLHEIGHT
 40
4.0
  9
$LOFTANG1
 40
1.570796326794897
  9
$LOFTANG2
 40
1.570796326794897
  9
$LOFTMAG1
 40
0.0
  9
$LOFTMAG2
 40
0.0
  9
$LOFTPARAM
 70
     7
  9
$LOFTNORMALS
280
     1
  9
$LATITUDE
 40
37.795
  9
$LONGITUDE
 40
-122.394
  9
$NORTHDIRECTION
 40
0.0
  9
$TIMEZONE
 70
 -8000
  9
$LIGHTGLYPHDISPLAY
280
     1
  9
$TILEMODELIGHTSYNCH
280
     1
  9
$SOLIDHIST
280
     1
  9
$SHOWHIST
280
     1
  9
$DWFFRAME
280
     2
  9
$DGNFRAME
280
     2
  9
$REALWORLDSCALE
290
     1
  9
$INTERFERECOLOR
 62
   256
  9
$CSHADOW
280
     0
  9
$SHADOWPLANELOCATION
 40
0.0
  0
ENDSEC
  0
SECTION
  2
CLASSES
  0
CLASS
  1
LWPOLYLINE
  2
AcDbPolyline
  3
ObjectDBX Classes
 90
        0
 91
        1
280
     0
281
     1
  0
CLASS
  1
IMAGE
  2
AcDbRasterImage
  3
ISM
 90
      127
 91
        5
280
     0
281
     1
  0
CLASS
  1
OLE2FRAME
  2
AcDbOle2Frame
  3
ObjectDBX Classes
 90
        0
 91
        1
280
     0
281
     1
  0
CLASS
  1
HATCH
  2
AcDbHatch
  3
ObjectDBX Classes
 90
        0
 91
        1
280
     0
281
     1
  0
CLASS
  1
DICTIONARYVAR
  2
AcDbDictionaryVar
  3
ObjectDBX Classes
 90
        0
 91
        4
280
     0
281
     0
  0
CLASS
  1
RASTERVARIABLES
  2
AcDbRasterVariables
  3
ISM
 90
        0
 91
        5
280
     0
281
     0
  0
CLASS
  1
IMAGEDEF
  2
AcDbRasterImageDef
  3
ISM
 90
        0
 91
        4
280
     0
281
     0
  0
CLASS
  1
IMAGEDEF_REACTOR
  2
AcDbRasterImageDefReactor
  3
ISM
 90
        1
 91
        4
280
     0
281
     0
  0
CLASS
  1
IDBUFFER
  2
AcDbIdBuffer
  3
ObjectDBX Classes
 90
        0
 91
        4
280
     0
281
     0
  0
CLASS
  1
SPATIAL_FILTER
  2
AcDbSpatialFilter
  3
ObjectDBX Classes
 90
        0
 91
        4
280
     0
281
     0
  0
CLASS
  1
XRECORD
  2
AcDbXrecord
  3
ObjectDBX Classes
 90
        0
 91
        1
280
     0
281
     0
  0
CLASS
  1
SORTENTSTABLE
  2
AcDbSortentsTable
  3
ObjectDBX Classes
 90
        0
 91
        4
280
     0
281
     0
  0
CLASS
  1
LAYER_INDEX
  2
AcDbLayerIndex
  3
ObjectDBX Classes
 90
        0
 91
        4
280
     0
281
     0
  0
CLASS
  1
SPATIAL_INDEX
  2
AcDbSpatialIndex
  3
AutoCAD 2000
 90
        0
 91
        4
280
     0
281
     0
  0
CLASS
  1
OBJECT_PTR
  2
CAseDLPNTableRecord
  3
ASE-LPNTableRecord
 90
        1
 91
        4
280
     0
281
     0
  0
CLASS
  1
LAYOUT
  2
AcDbLayout
  3
ObjectDBX Classes
 90
        0
 91
        1
280
     0
281
     0
  0
CLASS
  1
PLOTSETTINGS
  2
AcDbPlotSettings
  3
ObjectDBX Classes
 90
        0
 91
        4
280
     0
281
     0
  0
CLASS
  1
ACDBDICTIONARYWDFLT
  2
AcDbDictionaryWithDefault
  3
ObjectDBX Classes
 90
        0
 91
        5
280
     0
281
     0
  0
CLASS
  1
ACDBPLACEHOLDER
  2
AcDbPlaceHolder
  3
ObjectDBX Classes
 90
        0
 91
        1
280
     0
281
     0
  0
CLASS
  1
SCALE
  2
AcDbScale
  3
ObjectDBX Classes
 90
     1153
 91
        5
280
     0
281
     0
  0
CLASS
  1
MATERIAL
  2
AcDbMaterial
  3
ObjectDBX Classes
 90
     1153
 91
        5
280
     0
281
     0
  0
CLASS
  1
VISUALSTYLE
  2
AcDbVisualStyle
  3
ObjectDBX Classes
 90
     4095
 91
        5
280
     0
281
     0
  0
CLASS
  1
TABLESTYLE
  2
AcDbTableStyle
  3
ObjectDBX Classes
 90
     4095
 91
        5
280
     0
281
     0
  0
CLASS
  1
DIMASSOC
  2
AcDbDimAssoc
  3
"AcDbDimAssoc|Product Desc:     AcDim ARX App For Dimension|Company:          Autodesk, Inc.|WEB Address:      www.autodesk.com"
 90
        0
 91
        4
280
     0
281
     0
  0
CLASS
  1
CELLSTYLEMAP
  2
AcDbCellStyleMap
  3
ObjectDBX Classes
 90
     1152
 91
        4
280
     0
281
     0
  0
CLASS
  1
SUN
  2
AcDbSun
  3
SCENEOE
 90
     1153
 91
        5
280
     0
281
     0
  0
ENDSEC
  0
SECTION
  2
TABLES
  0
TABLE
  2
VPORT
  5
7
330
0
100
AcDbSymbolTable
 70
     1
  0
VPORT
  5
15
330
7
100
AcDbSymbolTableRecord
100
AcDbViewportTableRecord
  2
*ACTIVE
 70
     0
 10
0.0
 20
0.0
 11
1.0
 21
1.0
 12
998.435398939884
 22
1429.46808538916
 13
0.0
 23
0.0
 14
1.0
 24
1.0
 15
0.0
 25
0.0
 16
0.0
 26
0.0
 36
1.0
 17
-91.02013567089898
 27
73.59871453016603
 37
-46.86809886248109
 40
2625.811814710944
 41
2.184105960264901
 42
50.0
 43
0.0
 44
0.0
 50
0.0
 51
0.0
 71
    16
 72
  2000
 73
     1
 74
     1
 75
     0
 76
     0
 77
     0
 78
     0
281
     0
 65
     1
110
0.0
120
0.0
130
0.0
111
1.0
121
0.0
131
0.0
112
0.0
122
1.0
132
0.0
 79
     0
146
0.0
348
26C
 60
     3
 61
     5
292
     1
282
     1
141
0.0
142
0.0
 63
   256
361
904
  0
ENDTAB
  0
TABLE
  2
LTYPE
  5
4
330
0
100
AcDbSymbolTable
 70
     3
  0
LTYPE
  5
11
330
4
100
AcDbSymbolTableRecord
100
AcDbLinetypeTableRecord
  2
ByBlock
 70
     0
  3

 72
    65
 73
     0
 40
0.0
  0
LTYPE
  5
12
330
4
100
AcDbSymbolTableRecord
100
AcDbLinetypeTableRecord
  2
ByLayer
 70
     0
  3

 72
    65
 73
     0
 40
0.0
  0
LTYPE
  5
13
330
4
100
AcDbSymbolTableRecord
100
AcDbLinetypeTableRecord
  2
Continuous
 70
     0
  3
Solid line
 72
    65
 73
     0
 40
0.0
  0
LTYPE
  5
3F
330
4
100
AcDbSymbolTableRecord
100
AcDbLinetypeTableRecord
  2
STYLE_06
 70
     0
  3

 72
    65
 73
     4
 40
1.04164
 49
0.625
 74
     0
 49
-0.20828
 74
     0
 49
0.06943
 74
     0
 49
-0.13893
 74
     0
  0
LTYPE
  5
45
330
4
100
AcDbSymbolTableRecord
100
AcDbLinetypeTableRecord
  2
STYLE_12
 70
     0
  3

 72
    65
 73
     2
 40
0.3937007874015748
 49
0.1968503937007874
 74
     0
 49
-0.1968503937007874
 74
     0
  0
ENDTAB
  0
TABLE
  2
LAYER
  5
2
102
{ACAD_XDICTIONARY
360
2E1
102
}
330
0
100
AcDbSymbolTable
 70
     7
  0
LAYER
  5
14
330
2
100
AcDbSymbolTableRecord
100
AcDbLayerTableRecord
  2
0
 70
     0
 62
     7
  6
Continuous
370
    -3
390
1D
347
266
  0
LAYER
  5
4B
330
2
100
AcDbSymbolTableRecord
100
AcDbLayerTableRecord
  2
TEMPLATE
 70
     0
 62
     7
  6
Continuous
370
    20
390
1D
347
266
  0
LAYER
  5
4C
330
2
100
AcDbSymbolTableRecord
100
AcDbLayerTableRecord
  2
DIM
 70
     0
 62
     7
  6
Continuous
370
    13
390
1D
347
266
  0
LAYER
  5
4D
330
2
100
AcDbSymbolTableRecord
100
AcDbLayerTableRecord
  2
MODEL
 70
     0
 62
     7
  6
Continuous
370
    20
390
1D
347
266
  0
LAYER
  5
667
330
2
100
AcDbSymbolTableRecord
100
AcDbLayerTableRecord
  2
LOGO
 70
     0
 62
     7
  6
Continuous
370
    -3
390
1D
347
266
  0
LAYER
  5
88C
330
2
100
AcDbSymbolTableRecord
100
AcDbLayerTableRecord
  2
HIDDEN
 70
     0
 62
     7
  6
STYLE_12
370
    20
390
1D
347
266
1001
AcAecLayerStandard
1000

1000

  0
LAYER
  5
D5D
330
2
100
AcDbSymbolTableRecord
100
AcDbLayerTableRecord
  2
Defpoints
 70
     0
 62
     7
  6
Continuous
290
     0
370
    -3
390
1D
347
266
  0
ENDTAB
  0
TABLE
  2
STYLE
  5
3
330
0
100
AcDbSymbolTable
 70
     2
  0
STYLE
  5
17
330
3
100
AcDbSymbolTableRecord
100
AcDbTextStyleTableRecord
  2
Standard
 70
     0
 40
0.0
 41
1.0
 50
0.0
 71
     0
 42
2.5
  3
txt
  4
BIGFONT.SHX
  0
STYLE
  5
39
330
3
100
AcDbSymbolTableRecord
100
AcDbTextStyleTableRecord
  2
ＭＳ ゴシック
 70
     0
 40
0.0
 41
1.0
 50
0.0
 71
     0
 42
2.5
  3
msgothic.ttc
  4
ＭＳ ゴシック
1001
ACAD
1000
ＭＳ ゴシック
1071
        0
  0
ENDTAB
  0
TABLE
  2
VIEW
  5
5
330
0
100
AcDbSymbolTable
 70
     0
  0
ENDTAB
  0
TABLE
  2
UCS
  5
6
330
0
100
AcDbSymbolTable
 70
     0
  0
ENDTAB
  0
TABLE
  2
APPID
  5
8
330
0
100
AcDbSymbolTable
 70
     9
  0
APPID
  5
16
330
8
100
AcDbSymbolTableRecord
100
AcDbRegAppTableRecord
  2
ACAD
 70
     0
  0
APPID
  5
7AC
330
8
100
AcDbSymbolTableRecord
100
AcDbRegAppTableRecord
  2
AcAecLayerStandard
 70
     0
  0
APPID
  5
DB8
330
8
100
AcDbSymbolTableRecord
100
AcDbRegAppTableRecord
  2
ACAD_DSTYLE_DIMJAG
 70
     0
  0
APPID
  5
DB9
330
8
100
AcDbSymbolTableRecord
100
AcDbRegAppTableRecord
  2
ACAD_DSTYLE_DIMTALN
 70
     0
  0
APPID
  5
DBE
330
8
100
AcDbSymbolTableRecord
100
AcDbRegAppTableRecord
  2
ACAD_PSEXT
 70
     0
  0
APPID
  5
DBF
330
8
100
AcDbSymbolTableRecord
100
AcDbRegAppTableRecord
  2
ACAD_DSTYLE_DIMRADIAL_EXTENSION
 70
     0
  0
APPID
  5
DC0
330
8
100
AcDbSymbolTableRecord
100
AcDbRegAppTableRecord
  2
ACAD_NAV_VCDISPLAY
 70
     0
  0
APPID
  5
DC1
330
8
100
AcDbSymbolTableRecord
100
AcDbRegAppTableRecord
  2
GradientColor1ACI
 70
     0
  0
APPID
  5
DC2
330
8
100
AcDbSymbolTableRecord
100
AcDbRegAppTableRecord
  2
GradientColor2ACI
 70
     0
  0
ENDTAB
  0
TABLE
  2
DIMSTYLE
  5
9
330
0
100
AcDbSymbolTable
 70
     2
100
AcDbDimStyleTable
  0
DIMSTYLE
105
18
102
{ACAD_REACTORS
102
}
330
9
100
AcDbSymbolTableRecord
100
AcDbDimStyleTableRecord
  2
Standard
 70
     0
178
     0
340
17
  0
DIMSTYLE
105
57
102
{ACAD_REACTORS
330
11AB
330
11BA
330
11C9
330
11D8
330
11E8
330
11F7
330
1206
330
1215
330
1224
330
124A
330
1259
330
1268
330
1278
330
1287
330
1297
102
}
330
9
100
AcDbSymbolTableRecord
100
AcDbDimStyleTableRecord
  2
tfrom線あり
 70
     0
  3
<>
  4
[]
 41
9.0
 42
10.0
 43
0.9999999999999999
 44
0.0
 73
     0
 74
     0
 77
     1
 78
    11
140
24.0
141
0.0
143
1.0
147
20.0
171
     1
174
     1
178
     0
179
     2
271
     0
272
     1
276
     2
284
    11
285
    11
286
    11
289
     0
340
39
341
4E
342
4E
  0
ENDTAB
  0
TABLE
  2
BLOCK_RECORD
  5
1
330
0
100
AcDbSymbolTable
 70
    21
  0
BLOCK_RECORD
  5
A
330
1
100
AcDbSymbolTableRecord
100
AcDbBlockTableRecord
  2
*MODEL_SPACE
340
20
 70
     0
280
     1
281
     0
  0
BLOCK_RECORD
  5
B
330
1
100
AcDbSymbolTableRecord
100
AcDbBlockTableRecord
  2
*PAPER_SPACE
340
21
 70
     0
280
     1
281
     0
  0
BLOCK_RECORD
  5
4E
330
1
100
AcDbSymbolTableRecord
100
AcDbBlockTableRecord
  2
_DOT
340
0
102
{BLKREFS
331
11B4
331
11B5
331
11C3
331
11C4
331
11D2
331
11D3
331
11E1
331
11E2
331
11F1
331
11F2
331
1200
331
1201
331
120F
331
1210
331
121E
331
121F
331
122D
331
122E
331
1253
331
1254
331
1262
331
1263
331
1271
331
1272
331
1281
331
1282
331
1290
331
1291
331
129F
331
12A0
102
}
 70
     0
280
     1
281
     0
  0
BLOCK_RECORD
  5
68A
330
1
100
AcDbSymbolTableRecord
100
AcDbBlockTableRecord
  2
名称未設定-1
340
0
102
{BLKREFS
331
6B5
102
}
 70
     1
280
     1
281
     0
  0
BLOCK_RECORD
  5
68D
330
1
100
AcDbSymbolTableRecord
100
AcDbBlockTableRecord
  2
block 2
340
0
102
{BLKREFS
331
68C
102
}
 70
     0
280
     1
281
     0
  0
BLOCK_RECORD
  5
690
330
1
100
AcDbSymbolTableRecord
100
AcDbBlockTableRecord
  2
block 3
340
0
102
{BLKREFS
331
68F
102
}
 70
     0
280
     1
281
     0
  0
BLOCK_RECORD
  5
693
330
1
100
AcDbSymbolTableRecord
100
AcDbBlockTableRecord
  2
block 4
340
0
102
{BLKREFS
331
692
102
}
 70
     0
280
     1
281
     0
  0
BLOCK_RECORD
  5
6A2
330
1
100
AcDbSymbolTableRecord
100
AcDbBlockTableRecord
  2
block 5
340
0
102
{BLKREFS
331
6A1
102
}
 70
     0
280
     1
281
     0
  0
BLOCK_RECORD
  5
11AE
330
1
100
AcDbSymbolTableRecord
100
AcDbBlockTableRecord
  2
*D6
340
0
 70
     0
280
     1
281
     0
  0
BLOCK_RECORD
  5
11BD
330
1
100
AcDbSymbolTableRecord
100
AcDbBlockTableRecord
  2
*D7
340
0
 70
     0
280
     1
281
     0
  0
BLOCK_RECORD
  5
11CC
330
1
100
AcDbSymbolTableRecord
100
AcDbBlockTableRecord
  2
*D8
340
0
 70
     0
280
     1
281
     0
  0
BLOCK_RECORD
  5
11DB
330
1
100
AcDbSymbolTableRecord
100
AcDbBlockTableRecord
  2
*D9
340
0
 70
     0
280
     1
281
     0
  0
BLOCK_RECORD
  5
11EB
330
1
100
AcDbSymbolTableRecord
100
AcDbBlockTableRecord
  2
*D10
340
0
 70
     0
280
     1
281
     0
  0
BLOCK_RECORD
  5
11FA
330
1
100
AcDbSymbolTableRecord
100
AcDbBlockTableRecord
  2
*D11
340
0
 70
     0
280
     1
281
     0
  0
BLOCK_RECORD
  5
1209
330
1
100
AcDbSymbolTableRecord
100
AcDbBlockTableRecord
  2
*D12
340
0
 70
     0
280
     1
281
     0
  0
BLOCK_RECORD
  5
1218
330
1
100
AcDbSymbolTableRecord
100
AcDbBlockTableRecord
  2
*D13
340
0
 70
     0
280
     1
281
     0
  0
BLOCK_RECORD
  5
1227
330
1
100
AcDbSymbolTableRecord
100
AcDbBlockTableRecord
  2
*D14
340
0
 70
     0
280
     1
281
     0
  0
BLOCK_RECORD
  5
124D
330
1
100
AcDbSymbolTableRecord
100
AcDbBlockTableRecord
  2
*D15
340
0
 70
     0
280
     1
281
     0
  0
BLOCK_RECORD
  5
125C
330
1
100
AcDbSymbolTableRecord
100
AcDbBlockTableRecord
  2
*D16
340
0
 70
     0
280
     1
281
     0
  0
BLOCK_RECORD
  5
126B
330
1
100
AcDbSymbolTableRecord
100
AcDbBlockTableRecord
  2
*D17
340
0
 70
     0
280
     1
281
     0
  0
BLOCK_RECORD
  5
127B
330
1
100
AcDbSymbolTableRecord
100
AcDbBlockTableRecord
  2
*D18
340
0
 70
     0
280
     1
281
     0
  0
BLOCK_RECORD
  5
128A
330
1
100
AcDbSymbolTableRecord
100
AcDbBlockTableRecord
  2
*D19
340
0
 70
     0
280
     1
281
     0
  0
BLOCK_RECORD
  5
1298
330
1
100
AcDbSymbolTableRecord
100
AcDbBlockTableRecord
  2
*D20
340
0
 70
     0
280
     1
281
     0
  0
ENDTAB
  0
ENDSEC
  0
SECTION
  2
BLOCKS
  0
BLOCK
  5
D
330
A
100
AcDbEntity
  8
0
390
1D
100
AcDbBlockBegin
  2
*MODEL_SPACE
 70
     0
 10
0.0
 20
0.0
 30
0.0
  3
*MODEL_SPACE
  1
*MODEL_SPACE
  0
ENDBLK
  5
E
330
A
100
AcDbEntity
  8
0
390
1D
100
AcDbBlockEnd
  0
BLOCK
  5
F
330
B
100
AcDbEntity
 67
     1
  8
0
390
1D
100
AcDbBlockBegin
  2
*PAPER_SPACE
 70
     0
 10
0.0
 20
0.0
 30
0.0
  3
*PAPER_SPACE
  1
*PAPER_SPACE
  0
ENDBLK
  5
10
330
B
100
AcDbEntity
 67
     1
  8
0
390
1D
100
AcDbBlockEnd
  0
BLOCK
  5
12BA
330
4E
100
AcDbEntity
  8
0
390
1D
100
AcDbBlockBegin
  2
_DOT
 70
     0
 10
0.0
 20
0.0
 30
0.0
  3
_DOT
  1
_DOT
  0
POLYLINE
  5
12BC
330
4E
100
AcDbEntity
  8
0
  6
ByBlock
 62
     0
370
    -2
390
1D
100
AcDb2dPolyline
 66
     1
 10
0.0
 20
0.0
 30
0.0
 70
     1
 40
0.5
 41
0.5
  0
VERTEX
  5
12BD
330
12BC
100
AcDbEntity
  8
0
  6
ByBlock
 62
     0
370
    -2
390
1D
100
AcDbVertex
100
AcDb2dVertex
 10
-0.25
 20
0.0
 30
0.0
 42
1.0
  0
VERTEX
  5
12BE
330
12BC
100
AcDbEntity
  8
0
  6
ByBlock
 62
     0
370
    -2
390
1D
100
AcDbVertex
100
AcDb2dVertex
 10
0.25
 20
0.0
 30
0.0
 42
1.0
  0
SEQEND
  5
12BF
330
12BC
100
AcDbEntity
  8
0
390
1D
  0
LINE
  5
12C0
330
4E
100
AcDbEntity
  8
0
  6
ByBlock
 62
     0
370
    -2
390
1D
100
AcDbLine
 10
-0.5
 20
0.0
 30
0.0
 11
-1.0
 21
0.0
 31
0.0
  0
ENDBLK
  5
12C1
330
4E
100
AcDbEntity
  8
0
390
1D
100
AcDbBlockEnd
  0
BLOCK
  5
68B
330
68A
100
AcDbEntity
  8
0
100
AcDbBlockBegin
  2
名称未設定-1
 70
     0
 10
0.0
 20
0.0
 30
0.0
  3
名称未設定-1
  1
名称未設定-1
  0
INSERT
  5
68F
330
68A
100
AcDbEntity
  8
LOGO
100
AcDbBlockReference
  2
block 3
 10
0.0
 20
0.0
 30
0.0
  0
ENDBLK
  5
6B1
330
68A
100
AcDbEntity
  8
0
100
AcDbBlockEnd
  0
BLOCK
  5
68E
330
68D
100
AcDbEntity
  8
0
100
AcDbBlockBegin
  2
block 2
 70
     0
 10
0.0
 20
0.0
 30
0.0
  3
block 2
  1
block 2
  0
ENDBLK
  5
6B0
330
68D
100
AcDbEntity
  8
0
100
AcDbBlockEnd
  0
BLOCK
  5
691
330
690
100
AcDbEntity
  8
0
100
AcDbBlockBegin
  2
block 3
 70
     0
 10
0.0
 20
0.0
 30
0.0
  3
block 3
  1
block 3
  0
INSERT
  5
692
330
690
100
AcDbEntity
  8
LOGO
100
AcDbBlockReference
  2
block 4
 10
0.0
 20
0.0
 30
0.0
  0
INSERT
  5
6A1
330
690
100
AcDbEntity
  8
LOGO
100
AcDbBlockReference
  2
block 5
 10
0.0
 20
0.0
 30
0.0
  0
ENDBLK
  5
6AF
330
690
100
AcDbEntity
  8
0
100
AcDbBlockEnd
  0
BLOCK
  5
694
330
693
100
AcDbEntity
  8
0
100
AcDbBlockBegin
  2
block 4
 70
     0
 10
0.0
 20
0.0
 30
0.0
  3
block 4
  1
block 4
  0
POLYLINE
  5
695
330
693
100
AcDbEntity
  8
LOGO
370
     0
100
AcDb2dPolyline
 66
     1
 10
0.0
 20
0.0
 30
0.0
  0
VERTEX
  5
696
330
695
100
AcDbEntity
  8
LOGO
370
     0
100
AcDbVertex
100
AcDb2dVertex
 10
83.79545727667795
 20
167.6444858234922
 30
0.0
  0
VERTEX
  5
697
330
695
100
AcDbEntity
  8
LOGO
370
     0
100
AcDbVertex
100
AcDb2dVertex
 10
83.79545727667795
 20
159.7968976406313
 30
0.0
  0
VERTEX
  5
698
330
695
100
AcDbEntity
  8
LOGO
370
     0
100
AcDbVertex
100
AcDb2dVertex
 10
71.3631329975216
 20
159.7968976406313
 30
0.0
  0
VERTEX
  5
699
330
695
100
AcDbEntity
  8
LOGO
370
     0
100
AcDbVertex
100
AcDb2dVertex
 10
71.3631329975216
 20
127.8027915271048
 30
0.0
  0
VERTEX
  5
69A
330
695
100
AcDbEntity
  8
LOGO
370
     0
100
AcDbVertex
100
AcDb2dVertex
 10
60.43011526263018
 20
127.8027915271048
 30
0.0
  0
VERTEX
  5
69B
330
695
100
AcDbEntity
  8
LOGO
370
     0
100
AcDbVertex
100
AcDb2dVertex
 10
60.43011526263018
 20
159.7968976406313
 30
0.0
  0
VERTEX
  5
69C
330
695
100
AcDbEntity
  8
LOGO
370
     0
100
AcDbVertex
100
AcDb2dVertex
 10
48.21793273020759
 20
159.7968976406313
 30
0.0
  0
VERTEX
  5
69D
330
695
100
AcDbEntity
  8
LOGO
370
     0
100
AcDbVertex
100
AcDb2dVertex
 10
48.21793273020759
 20
167.6444858234922
 30
0.0
  0
VERTEX
  5
69E
330
695
100
AcDbEntity
  8
LOGO
370
     0
100
AcDbVertex
100
AcDb2dVertex
 10
83.79545727667795
 20
167.6444858234922
 30
0.0
  0
SEQEND
  5
69F
330
695
100
AcDbEntity
  8
LOGO
370
     0
  0
HATCH
  5
6A0
330
693
100
AcDbEntity
  8
LOGO
 62
   250
420
  2234388
100
AcDbHatch
 10
0.0
 20
0.0
 30
0.0
210
0.0
220
0.0
230
1.0
  2
SOLID
 70
     1
 71
     0
 91
        1
 92
        1
 93
        8
 72
     1
 10
83.79545727667795
 20
167.6444858234922
 11
83.79545727667795
 21
159.7968976406313
 72
     1
 10
83.79545727667795
 20
159.7968976406313
 11
71.3631329975216
 21
159.7968976406313
 72
     1
 10
71.3631329975216
 20
159.7968976406313
 11
71.3631329975216
 21
127.8027915271048
 72
     1
 10
71.3631329975216
 20
127.8027915271048
 11
60.43011526263018
 21
127.8027915271048
 72
     1
 10
60.43011526263018
 20
127.8027915271048
 11
60.43011526263018
 21
159.7968976406313
 72
     1
 10
60.43011526263018
 20
159.7968976406313
 11
48.21793273020759
 21
159.7968976406313
 72
     1
 10
48.21793273020759
 20
159.7968976406313
 11
48.21793273020759
 21
167.6444858234922
 72
     1
 10
48.21793273020759
 20
167.6444858234922
 11
83.79545727667795
 21
167.6444858234922
 97
        0
 75
     2
 76
     1
 98
        0
  0
ENDBLK
  5
6AE
330
693
100
AcDbEntity
  8
0
100
AcDbBlockEnd
  0
BLOCK
  5
6A3
330
6A2
100
AcDbEntity
  8
0
100
AcDbBlockBegin
  2
block 5
 70
     0
 10
0.0
 20
0.0
 30
0.0
  3
block 5
  1
block 5
  0
SPLINE
  5
6A4
330
6A2
100
AcDbEntity
  8
LOGO
370
     0
100
AcDbSpline
210
0.0
220
0.0
230
1.0
 70
    11
 71
     3
 72
    56
 73
    52
 74
     0
 42
0.000000001
 43
0.0000000001
 40
0.0
 40
0.0
 40
0.0
 40
0.0
 40
1.0
 40
1.0
 40
1.0
 40
2.0
 40
2.0
 40
2.0
 40
3.0
 40
3.0
 40
3.0
 40
4.0
 40
4.0
 40
4.0
 40
5.0
 40
5.0
 40
5.0
 40
6.0
 40
6.0
 40
6.0
 40
7.0
 40
7.0
 40
7.0
 40
8.0
 40
8.0
 40
8.0
 40
9.0
 40
9.0
 40
9.0
 40
10.0
 40
10.0
 40
10.0
 40
11.0
 40
11.0
 40
11.0
 40
12.0
 40
12.0
 40
12.0
 40
13.0
 40
13.0
 40
13.0
 40
14.0
 40
14.0
 40
14.0
 40
15.0
 40
15.0
 40
15.0
 40
16.0
 40
16.0
 40
16.0
 40
17.0
 40
17.0
 40
17.0
 40
17.0
 10
100.4504378777679
 20
166.69157178364
 30
0.0
 10
101.9848844191641
 20
167.1313385124438
 30
0.0
 10
103.9637485713373
 20
166.7649523658846
 30
0.0
 10
103.9637485713373
 20
166.7649523658846
 30
0.0
 10
103.9637485713373
 20
166.7649523658846
 30
0.0
 10
103.0132460999156
 20
163.911205638077
 30
0.0
 10
103.0132460999156
 20
163.911205638077
 30
0.0
 10
103.0132460999156
 20
163.911205638077
 30
0.0
 10
101.0674548862189
 20
164.3601018759394
 30
0.0
 10
99.57090442016032
 20
163.1805004036133
 30
0.0
 10
98.40508333886608
 20
162.258247733807
 30
0.0
 10
97.65301849830304
 20
159.804132345923
 30
0.0
 10
97.3598406791005
 20
158.8699940888517
 30
0.0
 10
97.3598406791005
 20
158.8699940888517
 30
0.0
 10
96.07137411762282
 20
154.9119212747295
 30
0.0
 10
96.07137411762282
 20
154.9119212747295
 30
0.0
 10
96.07137411762282
 20
154.9119212747295
 30
0.0
 10
100.3012651448482
 20
154.9119212747295
 30
0.0
 10
100.3012651448482
 20
154.9119212747295
 30
0.0
 10
100.3012651448482
 20
154.9119212747295
 30
0.0
 10
99.64152892419852
 20
152.4199098115079
 30
0.0
 10
99.64152892419852
 20
152.4199098115079
 30
0.0
 10
99.64152892419852
 20
152.4199098115079
 30
0.0
 10
95.38097652692731
 20
152.4199098115079
 30
0.0
 10
95.38097652692731
 20
152.4199098115079
 30
0.0
 10
95.38097652692731
 20
152.4199098115079
 30
0.0
 10
87.75353009080013
 20
127.8027915271048
 30
0.0
 10
87.75353009080013
 20
127.8027915271048
 30
0.0
 10
87.75353009080013
 20
127.8027915271048
 30
0.0
 10
85.36538832498108
 20
127.8027915271048
 30
0.0
 10
85.36538832498108
 20
127.8027915271048
 30
0.0
 10
85.36538832498108
 20
127.8027915271048
 30
0.0
 10
93.00006946639998
 20
152.4199098115079
 30
0.0
 10
93.00006946639998
 20
152.4199098115079
 30
0.0
 10
93.00006946639998
 20
152.4199098115079
 30
0.0
 10
89.85297266450198
 20
152.4199098115079
 30
0.0
 10
89.85297266450198
 20
152.4199098115079
 30
0.0
 10
89.85297266450198
 20
152.4199098115079
 30
0.0
 10
90.51270888515164
 20
154.9119212747295
 30
0.0
 10
90.51270888515164
 20
154.9119212747295
 30
0.0
 10
90.51270888515164
 20
154.9119212747295
 30
0.0
 10
93.6904670570955
 20
154.9119212747295
 30
0.0
 10
93.6904670570955
 20
154.9119212747295
 30
0.0
 10
93.6904670570955
 20
154.9119212747295
 30
0.0
 10
94.81598049462158
 20
158.3616699146644
 30
0.0
 10
94.81598049462158
 20
158.3616699146644
 30
0.0
 10
95.7237637538445
 20
161.2605474231013
 30
0.0
 10
96.4968436907311
 20
162.8139420021662
 30
0.0
 10
97.15657991138076
 20
163.9844139654337
 30
0.0
 10
97.81183750494507
 20
165.1523021053827
 30
0.0
 10
99.1047826935081
 20
166.3084769129547
 30
0.0
 10
100.4504378777679
 20
166.69157178364
 30
0.0
  0
HATCH
  5
6A5
330
6A2
100
AcDbEntity
  8
LOGO
 62
   250
420
  2234388
100
AcDbHatch
 10
0.0
 20
0.0
 30
0.0
210
0.0
220
0.0
230
1.0
  2
SOLID
 70
     1
 71
     0
 91
        1
 92
        1
 93
        1
 72
     4
 94
        3
 73
     0
 74
     1
 95
       56
 96
       52
 40
0.0
 40
0.0
 40
0.0
 40
0.0
 40
1.0
 40
1.0
 40
1.0
 40
2.0
 40
2.0
 40
2.0
 40
3.0
 40
3.0
 40
3.0
 40
4.0
 40
4.0
 40
4.0
 40
5.0
 40
5.0
 40
5.0
 40
6.0
 40
6.0
 40
6.0
 40
7.0
 40
7.0
 40
7.0
 40
8.0
 40
8.0
 40
8.0
 40
9.0
 40
9.0
 40
9.0
 40
10.0
 40
10.0
 40
10.0
 40
11.0
 40
11.0
 40
11.0
 40
12.0
 40
12.0
 40
12.0
 40
13.0
 40
13.0
 40
13.0
 40
14.0
 40
14.0
 40
14.0
 40
15.0
 40
15.0
 40
15.0
 40
16.0
 40
16.0
 40
16.0
 40
17.0
 40
17.0
 40
17.0
 40
17.0
 10
100.4504378777679
 20
166.69157178364
 10
101.9848844191641
 20
167.1313385124438
 10
103.9637485713373
 20
166.7649523658846
 10
103.9637485713373
 20
166.7649523658846
 10
103.9637485713373
 20
166.7649523658846
 10
103.0132460999156
 20
163.911205638077
 10
103.0132460999156
 20
163.911205638077
 10
103.0132460999156
 20
163.911205638077
 10
101.0674548862189
 20
164.3601018759394
 10
99.57090442016032
 20
163.1805004036133
 10
98.40508333886608
 20
162.258247733807
 10
97.65301849830304
 20
159.804132345923
 10
97.3598406791005
 20
158.8699940888517
 10
97.3598406791005
 20
158.8699940888517
 10
96.07137411762282
 20
154.9119212747295
 10
96.07137411762282
 20
154.9119212747295
 10
96.07137411762282
 20
154.9119212747295
 10
100.3012651448482
 20
154.9119212747295
 10
100.3012651448482
 20
154.9119212747295
 10
100.3012651448482
 20
154.9119212747295
 10
99.64152892419852
 20
152.4199098115079
 10
99.64152892419852
 20
152.4199098115079
 10
99.64152892419852
 20
152.4199098115079
 10
95.38097652692731
 20
152.4199098115079
 10
95.38097652692731
 20
152.4199098115079
 10
95.38097652692731
 20
152.4199098115079
 10
87.75353009080013
 20
127.8027915271048
 10
87.75353009080013
 20
127.8027915271048
 10
87.75353009080013
 20
127.8027915271048
 10
85.36538832498108
 20
127.8027915271048
 10
85.36538832498108
 20
127.8027915271048
 10
85.36538832498108
 20
127.8027915271048
 10
93.00006946639998
 20
152.4199098115079
 10
93.00006946639998
 20
152.4199098115079
 10
93.00006946639998
 20
152.4199098115079
 10
89.85297266450198
 20
152.4199098115079
 10
89.85297266450198
 20
152.4199098115079
 10
89.85297266450198
 20
152.4199098115079
 10
90.51270888515164
 20
154.9119212747295
 10
90.51270888515164
 20
154.9119212747295
 10
90.51270888515164
 20
154.9119212747295
 10
93.6904670570955
 20
154.9119212747295
 10
93.6904670570955
 20
154.9119212747295
 10
93.6904670570955
 20
154.9119212747295
 10
94.81598049462158
 20
158.3616699146644
 10
94.81598049462158
 20
158.3616699146644
 10
95.7237637538445
 20
161.2605474231013
 10
96.4968436907311
 20
162.8139420021662
 10
97.15657991138076
 20
163.9844139654337
 10
97.81183750494507
 20
165.1523021053827
 10
99.1047826935081
 20
166.3084769129547
 10
100.4504378777679
 20
166.69157178364
 97
        0
 75
     2
 76
     1
 98
        0
  0
SPLINE
  5
6A6
330
6A2
100
AcDbEntity
  8
LOGO
370
     0
100
AcDbSpline
210
0.0
220
0.0
230
1.0
 70
    11
 71
     3
 72
    38
 73
    34
 74
     0
 42
0.000000001
 43
0.0000000001
 40
0.0
 40
0.0
 40
0.0
 40
0.0
 40
1.0
 40
1.0
 40
1.0
 40
2.0
 40
2.0
 40
2.0
 40
3.0
 40
3.0
 40
3.0
 40
4.0
 40
4.0
 40
4.0
 40
5.0
 40
5.0
 40
5.0
 40
6.0
 40
6.0
 40
6.0
 40
7.0
 40
7.0
 40
7.0
 40
8.0
 40
8.0
 40
8.0
 40
9.0
 40
9.0
 40
9.0
 40
10.0
 40
10.0
 40
10.0
 40
11.0
 40
11.0
 40
11.0
 40
11.0
 10
126.377554584636
 20
154.8151140277308
 30
0.0
 10
126.377554584636
 20
154.8151140277308
 30
0.0
 10
128.8311532078563
 20
154.8151140277308
 30
0.0
 10
128.8311532078563
 20
154.8151140277308
 30
0.0
 10
128.8311532078563
 20
154.8151140277308
 30
0.0
 10
127.7345785914971
 20
151.3062819612468
 30
0.0
 10
127.7345785914971
 20
151.3062819612468
 30
0.0
 10
128.571392836906
 20
152.2922689395754
 30
0.0
 10
129.8860421413442
 20
153.604506675583
 30
0.0
 10
131.0163787157314
 20
154.2664822097754
 30
0.0
 10
132.7044766171327
 20
155.2500576196734
 30
0.0
 10
133.6642808525008
 20
155.3847609420097
 30
0.0
 10
134.7284715499351
 20
155.3565111403944
 30
0.0
 10
134.7284715499351
 20
155.3565111403944
 30
0.0
 10
133.6877075172549
 20
152.0345756272799
 30
0.0
 10
133.6877075172549
 20
152.0345756272799
 30
0.0
 10
133.011434827367
 20
152.3184516825359
 30
0.0
 10
130.930940291334
 20
151.7768823149844
 30
0.0
 10
129.739280976855
 20
150.9162968950455
 30
0.0
 10
128.66613302525
 20
150.1454562717016
 30
0.0
 10
127.9192358313239
 20
149.4857200510519
 30
0.0
 10
127.0393578639405
 20
147.8282835196966
 30
0.0
 10
126.164647543194
 20
146.1699857139017
 30
0.0
 10
125.4742499524985
 20
143.5262176944419
 30
0.0
 10
124.2822461282437
 20
139.6959580071401
 30
0.0
 10
124.2822461282437
 20
139.6959580071401
 30
0.0
 10
120.5753209406769
 20
127.8027915271048
 30
0.0
 10
120.5753209406769
 20
127.8027915271048
 30
0.0
 10
120.5753209406769
 20
127.8027915271048
 30
0.0
 10
118.1964809388044
 20
127.8027915271048
 30
0.0
 10
118.1964809388044
 20
127.8027915271048
 30
0.0
 10
118.1964809388044
 20
127.8027915271048
 30
0.0
 10
126.377554584636
 20
154.8151140277308
 30
0.0
 10
126.377554584636
 20
154.8151140277308
 30
0.0
  0
HATCH
  5
6A7
330
6A2
100
AcDbEntity
  8
LOGO
 62
   250
420
  2234388
100
AcDbHatch
 10
0.0
 20
0.0
 30
0.0
210
0.0
220
0.0
230
1.0
  2
SOLID
 70
     1
 71
     0
 91
        1
 92
        1
 93
        1
 72
     4
 94
        3
 73
     0
 74
     1
 95
       38
 96
       34
 40
0.0
 40
0.0
 40
0.0
 40
0.0
 40
1.0
 40
1.0
 40
1.0
 40
2.0
 40
2.0
 40
2.0
 40
3.0
 40
3.0
 40
3.0
 40
4.0
 40
4.0
 40
4.0
 40
5.0
 40
5.0
 40
5.0
 40
6.0
 40
6.0
 40
6.0
 40
7.0
 40
7.0
 40
7.0
 40
8.0
 40
8.0
 40
8.0
 40
9.0
 40
9.0
 40
9.0
 40
10.0
 40
10.0
 40
10.0
 40
11.0
 40
11.0
 40
11.0
 40
11.0
 10
126.377554584636
 20
154.8151140277308
 10
126.377554584636
 20
154.8151140277308
 10
128.8311532078563
 20
154.8151140277308
 10
128.8311532078563
 20
154.8151140277308
 10
128.8311532078563
 20
154.8151140277308
 10
127.7345785914971
 20
151.3062819612468
 10
127.7345785914971
 20
151.3062819612468
 10
128.571392836906
 20
152.2922689395754
 10
129.8860421413442
 20
153.604506675583
 10
131.0163787157314
 20
154.2664822097754
 10
132.7044766171327
 20
155.2500576196734
 10
133.6642808525008
 20
155.3847609420097
 10
134.7284715499351
 20
155.3565111403944
 10
134.7284715499351
 20
155.3565111403944
 10
133.6877075172549
 20
152.0345756272799
 10
133.6877075172549
 20
152.0345756272799
 10
133.011434827367
 20
152.3184516825359
 10
130.930940291334
 20
151.7768823149844
 10
129.739280976855
 20
150.9162968950455
 10
128.66613302525
 20
150.1454562717016
 10
127.9192358313239
 20
149.4857200510519
 10
127.0393578639405
 20
147.8282835196966
 10
126.164647543194
 20
146.1699857139017
 10
125.4742499524985
 20
143.5262176944419
 10
124.2822461282437
 20
139.6959580071401
 10
124.2822461282437
 20
139.6959580071401
 10
120.5753209406769
 20
127.8027915271048
 10
120.5753209406769
 20
127.8027915271048
 10
120.5753209406769
 20
127.8027915271048
 10
118.1964809388044
 20
127.8027915271048
 10
118.1964809388044
 20
127.8027915271048
 10
118.1964809388044
 20
127.8027915271048
 10
126.377554584636
 20
154.8151140277308
 10
126.377554584636
 20
154.8151140277308
 97
        0
 75
     2
 76
     1
 98
        0
  0
SPLINE
  5
6A8
330
6A2
100
AcDbEntity
  8
LOGO
370
     0
100
AcDbSpline
210
0.0
220
0.0
230
1.0
 70
    11
 71
     3
 72
   104
 73
   100
 74
     0
 42
0.000000001
 43
0.0000000001
 40
0.0
 40
0.0
 40
0.0
 40
0.0
 40
1.0
 40
1.0
 40
1.0
 40
2.0
 40
2.0
 40
2.0
 40
3.0
 40
3.0
 40
3.0
 40
4.0
 40
4.0
 40
4.0
 40
5.0
 40
5.0
 40
5.0
 40
6.0
 40
6.0
 40
6.0
 40
7.0
 40
7.0
 40
7.0
 40
8.0
 40
8.0
 40
8.0
 40
9.0
 40
9.0
 40
9.0
 40
10.0
 40
10.0
 40
10.0
 40
11.0
 40
11.0
 40
11.0
 40
12.0
 40
12.0
 40
12.0
 40
13.0
 40
13.0
 40
13.0
 40
14.0
 40
14.0
 40
14.0
 40
15.0
 40
15.0
 40
15.0
 40
16.0
 40
16.0
 40
16.0
 40
17.0
 40
17.0
 40
17.0
 40
18.0
 40
18.0
 40
18.0
 40
19.0
 40
19.0
 40
19.0
 40
20.0
 40
20.0
 40
20.0
 40
21.0
 40
21.0
 40
21.0
 40
22.0
 40
22.0
 40
22.0
 40
23.0
 40
23.0
 40
23.0
 40
24.0
 40
24.0
 40
24.0
 40
25.0
 40
25.0
 40
25.0
 40
26.0
 40
26.0
 40
26.0
 40
27.0
 40
27.0
 40
27.0
 40
28.0
 40
28.0
 40
28.0
 40
29.0
 40
29.0
 40
29.0
 40
30.0
 40
30.0
 40
30.0
 40
31.0
 40
31.0
 40
31.0
 40
32.0
 40
32.0
 40
32.0
 40
33.0
 40
33.0
 40
33.0
 40
33.0
 10
139.8926730891197
 20
154.8294111834263
 30
0.0
 10
139.8926730891197
 20
154.8294111834263
 30
0.0
 10
142.0344903652445
 20
154.8294111834263
 30
0.0
 10
142.0344903652445
 20
154.8294111834263
 30
0.0
 10
142.0344903652445
 20
154.8294111834263
 30
0.0
 10
140.9516961399171
 20
151.3157559800812
 30
0.0
 10
140.9516961399171
 20
151.3157559800812
 30
0.0
 10
141.8928968473923
 20
152.7887075264977
 30
0.0
 10
142.7341897198865
 20
153.4484437471474
 30
0.0
 10
143.8552245303272
 20
154.2926649527359
 30
0.0
 10
144.9803934580775
 20
155.1296514530327
 30
0.0
 10
146.3139908001845
 20
155.3044901642492
 30
0.0
 10
147.241066606852
 20
155.3044901642492
 30
0.0
 10
148.3855280820469
 20
155.3044901642492
 30
0.0
 10
149.4969166187653
 20
155.0752189084569
 30
0.0
 10
150.0784491203092
 20
153.8172414621372
 30
0.0
 10
150.5228667310863
 20
152.833838307127
 30
0.0
 10
150.5414702589793
 20
152.7201500811143
 30
0.0
 10
150.4140016419347
 20
150.7765981809602
 30
0.0
 10
151.5818897818837
 20
152.7699317437168
 30
0.0
 10
152.4424752018226
 20
153.6256940267945
 30
0.0
 10
153.9038856707499
 20
154.4507949398263
 30
0.0
 10
155.4455669174378
 20
155.3044901642492
 30
0.0
 10
156.339225275853
 20
155.3659851592288
 30
0.0
 10
157.3748216618963
 20
155.2147453676543
 30
0.0
 10
158.911679771723
 20
154.9877134254046
 30
0.0
 10
159.8859534176746
 20
154.4390816074493
 30
0.0
 10
160.3965169054045
 20
152.7816450760939
 30
0.0
 10
160.9070803931344
 20
151.1219692311958
 30
0.0
 10
160.6328506116007
 20
150.2303779314354
 30
0.0
 10
159.9992971339115
 20
147.597634224801
 30
0.0
 10
159.7105979417943
 20
146.4014962832367
 30
0.0
 10
159.2947746424084
 20
144.9400858143094
 30
0.0
 10
158.7463150793409
 20
143.2092687007094
 30
0.0
 10
158.7463150793409
 20
143.2092687007094
 30
0.0
 10
153.9038856707499
 20
127.8027915271048
 30
0.0
 10
153.9038856707499
 20
127.8027915271048
 30
0.0
 10
153.9038856707499
 20
127.8027915271048
 30
0.0
 10
151.3882752878863
 20
127.8027915271048
 30
0.0
 10
151.3882752878863
 20
127.8027915271048
 30
0.0
 10
151.3882752878863
 20
127.8027915271048
 30
0.0
 10
155.6250565106276
 20
141.2751908193897
 30
0.0
 10
155.6250565106276
 20
141.2751908193897
 30
0.0
 10
156.5094131050963
 20
144.0936252951782
 30
0.0
 10
157.109893644309
 20
146.1506931664571
 30
0.0
 10
157.4220195011804
 20
147.4415712963654
 30
0.0
 10
157.8095929989511
 20
149.0530157726519
 30
0.0
 10
157.9656559273867
 20
149.5826995529385
 30
0.0
 10
157.7816877071116
 20
150.7529992613181
 30
0.0
 10
157.6111553680925
 20
151.8430281919372
 30
0.0
 10
157.0582171779396
 20
152.5547853887321
 30
0.0
 10
156.1170164704645
 20
152.5547853887321
 30
0.0
 10
155.1096698860365
 20
152.5547853887321
 30
0.0
 10
154.2962823053817
 20
152.4412694176073
 30
0.0
 10
153.156643967048
 20
151.2945686288697
 30
0.0
 10
152.0170056287143
 20
150.1476955852443
 30
0.0
 10
151.076149431015
 20
148.7930831468137
 30
0.0
 10
150.3337308641742
 20
147.2290087646991
 30
0.0
 10
149.5957909244188
 20
145.6683794803425
 30
0.0
 10
148.8530278478023
 20
143.6822806228776
 30
0.0
 10
148.0964843801539
 20
141.2751908193897
 30
0.0
 10
148.0964843801539
 20
141.2751908193897
 30
0.0
 10
143.8552245303272
 20
127.8027915271048
 30
0.0
 10
143.8552245303272
 20
127.8027915271048
 30
0.0
 10
143.8552245303272
 20
127.8027915271048
 30
0.0
 10
141.486030802177
 20
127.8027915271048
 30
0.0
 10
141.486030802177
 20
127.8027915271048
 30
0.0
 10
141.486030802177
 20
127.8027915271048
 30
0.0
 10
146.3329388378533
 20
143.2092687007094
 30
0.0
 10
146.3329388378533
 20
143.2092687007094
 30
0.0
 10
146.8483254624444
 20
144.8408669988801
 30
0.0
 10
147.2314203331297
 20
146.1837661049335
 30
0.0
 10
147.4867020769946
 20
147.224185627838
 30
0.0
 10
147.9169947869641
 20
149.0197705792876
 30
0.0
 10
148.0306830129768
 20
150.2400242051577
 30
0.0
 10
147.709255392159
 20
151.3157559800812
 30
0.0
 10
147.3874832615654
 20
152.3916600098926
 30
0.0
 10
146.8245542879144
 20
152.6683013598569
 30
0.0
 10
145.8840425999909
 20
152.6683013598569
 30
0.0
 10
145.0989048209514
 20
152.6683013598569
 30
0.0
 10
144.3282364524954
 20
152.3275811915945
 30
0.0
 10
143.4531816219731
 20
151.6538923250251
 30
0.0
 10
142.34627171234
 20
150.8074318058939
 30
0.0
 10
141.901854101563
 20
150.1097995099067
 30
0.0
 10
141.3578731655808
 20
149.289521733736
 30
0.0
 10
140.6299240093235
 20
148.192602607601
 30
0.0
 10
140.2850697237515
 20
147.455696197173
 30
0.0
 10
139.6652966370942
 20
145.8385673095858
 30
0.0
 10
139.0506911970739
 20
144.2214384219986
 30
0.0
 10
138.463991048893
 20
142.3252566160164
 30
0.0
 10
138.0571250036777
 20
141.0154304484394
 30
0.0
 10
138.0571250036777
 20
141.0154304484394
 30
0.0
 10
133.9009590684727
 20
127.8027915271048
 30
0.0
 10
133.9009590684727
 20
127.8027915271048
 30
0.0
 10
133.9009590684727
 20
127.8027915271048
 30
0.0
 10
131.4180771143097
 20
127.8027915271048
 30
0.0
 10
131.4180771143097
 20
127.8027915271048
 30
0.0
 10
131.4180771143097
 20
127.8027915271048
 30
0.0
 10
139.8926730891197
 20
154.8294111834263
 30
0.0
 10
139.8926730891197
 20
154.8294111834263
 30
0.0
  0
HATCH
  5
6A9
330
6A2
100
AcDbEntity
  8
LOGO
 62
   250
420
  2234388
100
AcDbHatch
 10
0.0
 20
0.0
 30
0.0
210
0.0
220
0.0
230
1.0
  2
SOLID
 70
     1
 71
     0
 91
        1
 92
        1
 93
        1
 72
     4
 94
        3
 73
     0
 74
     1
 95
      104
 96
      100
 40
0.0
 40
0.0
 40
0.0
 40
0.0
 40
1.0
 40
1.0
 40
1.0
 40
2.0
 40
2.0
 40
2.0
 40
3.0
 40
3.0
 40
3.0
 40
4.0
 40
4.0
 40
4.0
 40
5.0
 40
5.0
 40
5.0
 40
6.0
 40
6.0
 40
6.0
 40
7.0
 40
7.0
 40
7.0
 40
8.0
 40
8.0
 40
8.0
 40
9.0
 40
9.0
 40
9.0
 40
10.0
 40
10.0
 40
10.0
 40
11.0
 40
11.0
 40
11.0
 40
12.0
 40
12.0
 40
12.0
 40
13.0
 40
13.0
 40
13.0
 40
14.0
 40
14.0
 40
14.0
 40
15.0
 40
15.0
 40
15.0
 40
16.0
 40
16.0
 40
16.0
 40
17.0
 40
17.0
 40
17.0
 40
18.0
 40
18.0
 40
18.0
 40
19.0
 40
19.0
 40
19.0
 40
20.0
 40
20.0
 40
20.0
 40
21.0
 40
21.0
 40
21.0
 40
22.0
 40
22.0
 40
22.0
 40
23.0
 40
23.0
 40
23.0
 40
24.0
 40
24.0
 40
24.0
 40
25.0
 40
25.0
 40
25.0
 40
26.0
 40
26.0
 40
26.0
 40
27.0
 40
27.0
 40
27.0
 40
28.0
 40
28.0
 40
28.0
 40
29.0
 40
29.0
 40
29.0
 40
30.0
 40
30.0
 40
30.0
 40
31.0
 40
31.0
 40
31.0
 40
32.0
 40
32.0
 40
32.0
 40
33.0
 40
33.0
 40
33.0
 40
33.0
 10
139.8926730891197
 20
154.8294111834263
 10
139.8926730891197
 20
154.8294111834263
 10
142.0344903652445
 20
154.8294111834263
 10
142.0344903652445
 20
154.8294111834263
 10
142.0344903652445
 20
154.8294111834263
 10
140.9516961399171
 20
151.3157559800812
 10
140.9516961399171
 20
151.3157559800812
 10
141.8928968473923
 20
152.7887075264977
 10
142.7341897198865
 20
153.4484437471474
 10
143.8552245303272
 20
154.2926649527359
 10
144.9803934580775
 20
155.1296514530327
 10
146.3139908001845
 20
155.3044901642492
 10
147.241066606852
 20
155.3044901642492
 10
148.3855280820469
 20
155.3044901642492
 10
149.4969166187653
 20
155.0752189084569
 10
150.0784491203092
 20
153.8172414621372
 10
150.5228667310863
 20
152.833838307127
 10
150.5414702589793
 20
152.7201500811143
 10
150.4140016419347
 20
150.7765981809602
 10
151.5818897818837
 20
152.7699317437168
 10
152.4424752018226
 20
153.6256940267945
 10
153.9038856707499
 20
154.4507949398263
 10
155.4455669174378
 20
155.3044901642492
 10
156.339225275853
 20
155.3659851592288
 10
157.3748216618963
 20
155.2147453676543
 10
158.911679771723
 20
154.9877134254046
 10
159.8859534176746
 20
154.4390816074493
 10
160.3965169054045
 20
152.7816450760939
 10
160.9070803931344
 20
151.1219692311958
 10
160.6328506116007
 20
150.2303779314354
 10
159.9992971339115
 20
147.597634224801
 10
159.7105979417943
 20
146.4014962832367
 10
159.2947746424084
 20
144.9400858143094
 10
158.7463150793409
 20
143.2092687007094
 10
158.7463150793409
 20
143.2092687007094
 10
153.9038856707499
 20
127.8027915271048
 10
153.9038856707499
 20
127.8027915271048
 10
153.9038856707499
 20
127.8027915271048
 10
151.3882752878863
 20
127.8027915271048
 10
151.3882752878863
 20
127.8027915271048
 10
151.3882752878863
 20
127.8027915271048
 10
155.6250565106276
 20
141.2751908193897
 10
155.6250565106276
 20
141.2751908193897
 10
156.5094131050963
 20
144.0936252951782
 10
157.109893644309
 20
146.1506931664571
 10
157.4220195011804
 20
147.4415712963654
 10
157.8095929989511
 20
149.0530157726519
 10
157.9656559273867
 20
149.5826995529385
 10
157.7816877071116
 20
150.7529992613181
 10
157.6111553680925
 20
151.8430281919372
 10
157.0582171779396
 20
152.5547853887321
 10
156.1170164704645
 20
152.5547853887321
 10
155.1096698860365
 20
152.5547853887321
 10
154.2962823053817
 20
152.4412694176073
 10
153.156643967048
 20
151.2945686288697
 10
152.0170056287143
 20
150.1476955852443
 10
151.076149431015
 20
148.7930831468137
 10
150.3337308641742
 20
147.2290087646991
 10
149.5957909244188
 20
145.6683794803425
 10
148.8530278478023
 20
143.6822806228776
 10
148.0964843801539
 20
141.2751908193897
 10
148.0964843801539
 20
141.2751908193897
 10
143.8552245303272
 20
127.8027915271048
 10
143.8552245303272
 20
127.8027915271048
 10
143.8552245303272
 20
127.8027915271048
 10
141.486030802177
 20
127.8027915271048
 10
141.486030802177
 20
127.8027915271048
 10
141.486030802177
 20
127.8027915271048
 10
146.3329388378533
 20
143.2092687007094
 10
146.3329388378533
 20
143.2092687007094
 10
146.8483254624444
 20
144.8408669988801
 10
147.2314203331297
 20
146.1837661049335
 10
147.4867020769946
 20
147.224185627838
 10
147.9169947869641
 20
149.0197705792876
 10
148.0306830129768
 20
150.2400242051577
 10
147.709255392159
 20
151.3157559800812
 10
147.3874832615654
 20
152.3916600098926
 10
146.8245542879144
 20
152.6683013598569
 10
145.8840425999909
 20
152.6683013598569
 10
145.0989048209514
 20
152.6683013598569
 10
144.3282364524954
 20
152.3275811915945
 10
143.4531816219731
 20
151.6538923250251
 10
142.34627171234
 20
150.8074318058939
 10
141.901854101563
 20
150.1097995099067
 10
141.3578731655808
 20
149.289521733736
 10
140.6299240093235
 20
148.192602607601
 10
140.2850697237515
 20
147.455696197173
 10
139.6652966370942
 20
145.8385673095858
 10
139.0506911970739
 20
144.2214384219986
 10
138.463991048893
 20
142.3252566160164
 10
138.0571250036777
 20
141.0154304484394
 10
138.0571250036777
 20
141.0154304484394
 10
133.9009590684727
 20
127.8027915271048
 10
133.9009590684727
 20
127.8027915271048
 10
133.9009590684727
 20
127.8027915271048
 10
131.4180771143097
 20
127.8027915271048
 10
131.4180771143097
 20
127.8027915271048
 10
131.4180771143097
 20
127.8027915271048
 10
139.8926730891197
 20
154.8294111834263
 10
139.8926730891197
 20
154.8294111834263
 97
        0
 75
     2
 76
     1
 98
        0
  0
SPLINE
  5
6AA
330
6A2
100
AcDbEntity
  8
LOGO
370
     0
100
AcDbSpline
210
0.0
220
0.0
230
1.0
 70
    11
 71
     3
 72
    29
 73
    25
 74
     0
 42
0.000000001
 43
0.0000000001
 40
0.0
 40
0.0
 40
0.0
 40
0.0
 40
1.0
 40
1.0
 40
1.0
 40
2.0
 40
2.0
 40
2.0
 40
3.0
 40
3.0
 40
3.0
 40
4.0
 40
4.0
 40
4.0
 40
5.0
 40
5.0
 40
5.0
 40
6.0
 40
6.0
 40
6.0
 40
7.0
 40
7.0
 40
7.0
 40
8.0
 40
8.0
 40
8.0
 40
8.0
 10
101.6420971922469
 20
132.8388354296931
 30
0.0
 10
101.630039350094
 20
134.7164137077823
 30
0.0
 10
102.2236296937908
 20
138.0598810818841
 30
0.0
 10
103.7487744712405
 20
142.5378191476827
 30
0.0
 10
105.819967243327
 20
148.5896501242061
 30
0.0
 10
107.0602024361932
 20
150.8074318058939
 30
0.0
 10
108.1522984254671
 20
151.8833358357054
 30
0.0
 10
109.741177511439
 20
153.4532668840085
 30
0.0
 10
111.8740375333931
 20
153.5290590346837
 30
0.0
 10
112.5075910110823
 20
153.4532668840085
 30
0.0
 10
113.4012493694975
 20
153.3490526768302
 30
0.0
 10
114.6683563248758
 20
152.7580461564518
 30
0.0
 10
114.7493161221879
 20
150.7838328862519
 30
0.0
 10
114.8106388622796
 20
149.0909118479895
 30
0.0
 10
114.3186789024427
 20
145.9191825971221
 30
0.0
 10
112.6164561002338
 20
140.9489400617108
 30
0.0
 10
110.6444821435766
 20
135.1746117095912
 30
0.0
 10
109.4669477299053
 20
132.8960240524753
 30
0.0
 10
108.5212683953448
 20
131.9072809959403
 30
0.0
 10
106.7346406980658
 20
130.0538184021569
 30
0.0
 10
104.8222669326213
 20
130.2336525051225
 30
0.0
 10
104.5408024457958
 20
130.2336525051225
 30
0.0
 10
104.1721769856939
 20
130.2336525051225
 30
0.0
 10
101.6465758193322
 20
130.6305277668397
 30
0.0
 10
101.6420971922469
 20
132.8388354296931
 30
0.0
  0
SPLINE
  5
6AB
330
6A2
100
AcDbEntity
  8
LOGO
370
     0
100
AcDbSpline
210
0.0
220
0.0
230
1.0
 70
    11
 71
     3
 72
    32
 73
    28
 74
     0
 42
0.000000001
 43
0.0000000001
 40
0.0
 40
0.0
 40
0.0
 40
0.0
 40
1.0
 40
1.0
 40
1.0
 40
2.0
 40
2.0
 40
2.0
 40
3.0
 40
3.0
 40
3.0
 40
4.0
 40
4.0
 40
4.0
 40
5.0
 40
5.0
 40
5.0
 40
6.0
 40
6.0
 40
6.0
 40
7.0
 40
7.0
 40
7.0
 40
8.0
 40
8.0
 40
8.0
 40
9.0
 40
9.0
 40
9.0
 40
9.0
 10
106.2595617172429
 20
153.4105476718098
 30
0.0
 10
104.8222669326213
 20
151.5474388043041
 30
0.0
 10
103.7177685914188
 20
149.8758773721411
 30
0.0
 10
101.9232171692965
 20
144.6141795664062
 30
0.0
 10
100.2754269116635
 20
139.7999999594306
 30
0.0
 10
99.22777268346732
 20
136.3052927937542
 30
0.0
 10
99.06964269637689
 20
132.039572749846
 30
0.0
 10
98.94665270641765
 20
128.8673267343149
 30
0.0
 10
100.8807305877373
 20
127.8027915271048
 30
0.0
 10
103.7129454545577
 20
127.8027915271048
 30
0.0
 10
104.9352661390825
 20
127.8027915271048
 30
0.0
 10
108.0151835347002
 20
127.8827177950895
 30
0.0
 10
110.2045431598849
 20
130.5926316915021
 30
0.0
 10
111.7417457794874
 20
132.4984597712065
 30
0.0
 10
113.155269389579
 20
134.475256864725
 30
0.0
 10
115.0562743324223
 20
140.9489400617108
 30
0.0
 10
116.6361961642235
 20
146.3680788349845
 30
0.0
 10
117.7282921534974
 20
149.8639917848761
 30
0.0
 10
117.6480213757369
 20
151.8595646611754
 30
0.0
 10
117.6480213757369
 20
151.8595646611754
 30
0.0
 10
117.6480213757369
 20
151.8595646611754
 30
0.0
 10
117.6480213757369
 20
151.8595646611754
 30
0.0
 10
117.13229024137
 20
155.18150017429
 30
0.0
 10
114.7162431837115
 20
155.886194920681
 30
0.0
 10
113.3351034925446
 20
155.886194920681
 30
0.0
 10
111.9829026225447
 20
155.886194920681
 30
0.0
 10
108.3414342923792
 20
156.1251124501957
 30
0.0
 10
106.2595617172429
 20
153.4105476718098
 30
0.0
  0
HATCH
  5
6AC
330
6A2
100
AcDbEntity
  8
LOGO
 62
   250
420
  2234388
100
AcDbHatch
 10
0.0
 20
0.0
 30
0.0
210
0.0
220
0.0
230
1.0
  2
SOLID
 70
     1
 71
     0
 91
        2
 92
        1
 93
        1
 72
     4
 94
        3
 73
     0
 74
     1
 95
       29
 96
       25
 40
0.0
 40
0.0
 40
0.0
 40
0.0
 40
1.0
 40
1.0
 40
1.0
 40
2.0
 40
2.0
 40
2.0
 40
3.0
 40
3.0
 40
3.0
 40
4.0
 40
4.0
 40
4.0
 40
5.0
 40
5.0
 40
5.0
 40
6.0
 40
6.0
 40
6.0
 40
7.0
 40
7.0
 40
7.0
 40
8.0
 40
8.0
 40
8.0
 40
8.0
 10
101.6420971922469
 20
132.8388354296931
 10
101.630039350094
 20
134.7164137077823
 10
102.2236296937908
 20
138.0598810818841
 10
103.7487744712405
 20
142.5378191476827
 10
105.819967243327
 20
148.5896501242061
 10
107.0602024361932
 20
150.8074318058939
 10
108.1522984254671
 20
151.8833358357054
 10
109.741177511439
 20
153.4532668840085
 10
111.8740375333931
 20
153.5290590346837
 10
112.5075910110823
 20
153.4532668840085
 10
113.4012493694975
 20
153.3490526768302
 10
114.6683563248758
 20
152.7580461564518
 10
114.7493161221879
 20
150.7838328862519
 10
114.8106388622796
 20
149.0909118479895
 10
114.3186789024427
 20
145.9191825971221
 10
112.6164561002338
 20
140.9489400617108
 10
110.6444821435766
 20
135.1746117095912
 10
109.4669477299053
 20
132.8960240524753
 10
108.5212683953448
 20
131.9072809959403
 10
106.7346406980658
 20
130.0538184021569
 10
104.8222669326213
 20
130.2336525051225
 10
104.5408024457958
 20
130.2336525051225
 10
104.1721769856939
 20
130.2336525051225
 10
101.6465758193322
 20
130.6305277668397
 10
101.6420971922469
 20
132.8388354296931
 97
        0
 92
        1
 93
        1
 72
     4
 94
        3
 73
     0
 74
     1
 95
       32
 96
       28
 40
0.0
 40
0.0
 40
0.0
 40
0.0
 40
1.0
 40
1.0
 40
1.0
 40
2.0
 40
2.0
 40
2.0
 40
3.0
 40
3.0
 40
3.0
 40
4.0
 40
4.0
 40
4.0
 40
5.0
 40
5.0
 40
5.0
 40
6.0
 40
6.0
 40
6.0
 40
7.0
 40
7.0
 40
7.0
 40
8.0
 40
8.0
 40
8.0
 40
9.0
 40
9.0
 40
9.0
 40
9.0
 10
106.2595617172429
 20
153.4105476718098
 10
104.8222669326213
 20
151.5474388043041
 10
103.7177685914188
 20
149.8758773721411
 10
101.9232171692965
 20
144.6141795664062
 10
100.2754269116635
 20
139.7999999594306
 10
99.22777268346732
 20
136.3052927937542
 10
99.06964269637689
 20
132.039572749846
 10
98.94665270641765
 20
128.8673267343149
 10
100.8807305877373
 20
127.8027915271048
 10
103.7129454545577
 20
127.8027915271048
 10
104.9352661390825
 20
127.8027915271048
 10
108.0151835347002
 20
127.8827177950895
 10
110.2045431598849
 20
130.5926316915021
 10
111.7417457794874
 20
132.4984597712065
 10
113.155269389579
 20
134.475256864725
 10
115.0562743324223
 20
140.9489400617108
 10
116.6361961642235
 20
146.3680788349845
 10
117.7282921534974
 20
149.8639917848761
 10
117.6480213757369
 20
151.8595646611754
 10
117.6480213757369
 20
151.8595646611754
 10
117.6480213757369
 20
151.8595646611754
 10
117.6480213757369
 20
151.8595646611754
 10
117.13229024137
 20
155.18150017429
 10
114.7162431837115
 20
155.886194920681
 10
113.3351034925446
 20
155.886194920681
 10
111.9829026225447
 20
155.886194920681
 10
108.3414342923792
 20
156.1251124501957
 10
106.2595617172429
 20
153.4105476718098
 97
        0
 75
     2
 76
     1
 98
        0
  0
ENDBLK
  5
6AD
330
6A2
100
AcDbEntity
  8
0
100
AcDbBlockEnd
  0
BLOCK
  5
11AF
330
11AE
100
AcDbEntity
  8
0
100
AcDbBlockBegin
  2
*D6
 70
     1
 10
0.0
 20
0.0
 30
0.0
  3
*D6
  1
*D43
  0
LINE
  5
11B1
330
11AE
100
AcDbEntity
  8
DIM
  6
Continuous
 62
     0
370
    -2
100
AcDbLine
 10
275.4804116457299
 20
2080.897870544447
 30
0.0
 11
275.4804116457299
 21
2321.618033985224
 31
0.0
  0
LINE
  5
11B2
330
11AE
100
AcDbEntity
  8
DIM
  6
Continuous
 62
     0
370
    -2
100
AcDbLine
 10
875.4679217657604
 20
2080.897870544447
 30
0.0
 11
875.4679217657604
 21
2321.618033985224
 31
0.0
  0
LINE
  5
11B3
330
11AE
100
AcDbEntity
  8
DIM
  6
Continuous
 62
     0
370
    -2
100
AcDbLine
 10
284.4804116457299
 20
2321.618033985224
 30
0.0
 11
866.4679217657604
 21
2321.618033985224
 31
0.0
  0
INSERT
  5
11B4
330
11AE
100
AcDbEntity
  8
DIM
 62
     0
370
    -2
100
AcDbBlockReference
  2
_DOT
 10
275.4804116457299
 20
2321.618033985224
 30
0.0
 41
9.0
 42
9.0
 43
9.0
 50
180.0
  0
INSERT
  5
11B5
330
11AE
100
AcDbEntity
  8
DIM
 62
     0
370
    -2
100
AcDbBlockReference
  2
_DOT
 10
875.4679217657604
 20
2321.618033985224
 30
0.0
 41
9.0
 42
9.0
 43
9.0
  0
MTEXT
  5
11B6
330
11AE
100
AcDbEntity
  8
DIM
  6
Continuous
 62
     0
100
AcDbMText
 10
575.4741667057451
 20
2353.618033985224
 30
0.0
 40
24.0
 41
0.0
 46
0.0
 71
     5
 72
     1
  1
\A1;600
  7
ＭＳ ゴシック
 73
     1
 44
1.0
  0
POINT
  5
11B7
330
11AE
100
AcDbEntity
  8
Defpoints
 62
     0
100
AcDbPoint
 10
275.4804116457299
 20
2070.897870544447
 30
0.0
  0
POINT
  5
11B8
330
11AE
100
AcDbEntity
  8
Defpoints
 62
     0
100
AcDbPoint
 10
875.4679217657604
 20
2070.897870544447
 30
0.0
  0
POINT
  5
11B9
330
11AE
100
AcDbEntity
  8
Defpoints
 62
     0
100
AcDbPoint
 10
875.4679217657604
 20
2321.618033985224
 30
0.0
  0
ENDBLK
  5
11B0
330
11AE
100
AcDbEntity
  8
0
100
AcDbBlockEnd
  0
BLOCK
  5
11BE
330
11BD
100
AcDbEntity
  8
0
100
AcDbBlockBegin
  2
*D7
 70
     1
 10
0.0
 20
0.0
 30
0.0
  3
*D7
  1
*D44
  0
LINE
  5
11C0
330
11BD
100
AcDbEntity
  8
DIM
  6
Continuous
 62
     0
370
    -2
100
AcDbLine
 10
685.4741667057451
 20
2224.950430983243
 30
0.0
 11
981.3494728762078
 21
2224.950430983243
 31
0.0
  0
LINE
  5
11C1
330
11BD
100
AcDbEntity
  8
DIM
  6
Continuous
 62
     0
370
    -2
100
AcDbLine
 10
685.4741667057451
 20
1805.007425914255
 30
0.0
 11
981.3494728762078
 21
1805.007425914255
 31
0.0
  0
LINE
  5
11C2
330
11BD
100
AcDbEntity
  8
DIM
  6
Continuous
 62
     0
370
    -2
100
AcDbLine
 10
981.3494728762078
 20
2215.950430983243
 30
0.0
 11
981.3494728762078
 21
1814.007425914255
 31
0.0
  0
INSERT
  5
11C3
330
11BD
100
AcDbEntity
  8
DIM
 62
     0
370
    -2
100
AcDbBlockReference
  2
_DOT
 10
981.3494728762078
 20
2224.950430983243
 30
0.0
 41
9.0
 42
9.0
 43
9.0
 50
90.0
  0
INSERT
  5
11C4
330
11BD
100
AcDbEntity
  8
DIM
 62
     0
370
    -2
100
AcDbBlockReference
  2
_DOT
 10
981.3494728762078
 20
1805.007425914255
 30
0.0
 41
9.0
 42
9.0
 43
9.0
 50
270.0
  0
MTEXT
  5
11C5
330
11BD
100
AcDbEntity
  8
DIM
  6
Continuous
 62
     0
100
AcDbMText
 10
949.3494728762078
 20
2014.978928448749
 30
0.0
 40
24.0
 41
0.0
 46
0.0
 71
     5
 72
     1
  1
\A1;420
  7
ＭＳ ゴシック
 11
0.0
 21
1.0
 31
0.0
 73
     1
 44
1.0
  0
POINT
  5
11C6
330
11BD
100
AcDbEntity
  8
Defpoints
 62
     0
100
AcDbPoint
 10
675.4741667057451
 20
2224.950430983243
 30
0.0
  0
POINT
  5
11C7
330
11BD
100
AcDbEntity
  8
Defpoints
 62
     0
100
AcDbPoint
 10
675.4741667057451
 20
1805.007425914255
 30
0.0
  0
POINT
  5
11C8
330
11BD
100
AcDbEntity
  8
Defpoints
 62
     0
100
AcDbPoint
 10
981.3494728762078
 20
1805.007425914255
 30
0.0
  0
ENDBLK
  5
11BF
330
11BD
100
AcDbEntity
  8
0
100
AcDbBlockEnd
  0
BLOCK
  5
11CD
330
11CC
100
AcDbEntity
  8
0
100
AcDbBlockBegin
  2
*D8
 70
     1
 10
0.0
 20
0.0
 30
0.0
  3
*D8
  1
*D45
  0
LINE
  5
11CF
330
11CC
100
AcDbEntity
  8
DIM
  6
Continuous
 62
     0
370
    -2
100
AcDbLine
 10
305.4799747735224
 20
1898.527758178913
 30
0.0
 11
305.4799747735224
 21
1694.817625383283
 31
0.0
  0
LINE
  5
11D0
330
11CC
100
AcDbEntity
  8
DIM
  6
Continuous
 62
     0
370
    -2
100
AcDbLine
 10
845.4683586379679
 20
1898.527758178913
 30
0.0
 11
845.4683586379679
 21
1694.817625383283
 31
0.0
  0
LINE
  5
11D1
330
11CC
100
AcDbEntity
  8
DIM
  6
Continuous
 62
     0
370
    -2
100
AcDbLine
 10
314.4799747735224
 20
1694.817625383283
 30
0.0
 11
836.4683586379679
 21
1694.817625383283
 31
0.0
  0
INSERT
  5
11D2
330
11CC
100
AcDbEntity
  8
DIM
 62
     0
370
    -2
100
AcDbBlockReference
  2
_DOT
 10
305.4799747735224
 20
1694.817625383283
 30
0.0
 41
9.0
 42
9.0
 43
9.0
 50
180.0
  0
INSERT
  5
11D3
330
11CC
100
AcDbEntity
  8
DIM
 62
     0
370
    -2
100
AcDbBlockReference
  2
_DOT
 10
845.4683586379679
 20
1694.817625383283
 30
0.0
 41
9.0
 42
9.0
 43
9.0
  0
MTEXT
  5
11D4
330
11CC
100
AcDbEntity
  8
DIM
  6
Continuous
 62
     0
100
AcDbMText
 10
575.4741667057451
 20
1726.817625383283
 30
0.0
 40
24.0
 41
0.0
 46
0.0
 71
     5
 72
     1
  1
\A1;540
  7
ＭＳ ゴシック
 73
     1
 44
1.0
  0
POINT
  5
11D5
330
11CC
100
AcDbEntity
  8
Defpoints
 62
     0
100
AcDbPoint
 10
305.4799747735224
 20
1908.527758178913
 30
0.0
  0
POINT
  5
11D6
330
11CC
100
AcDbEntity
  8
Defpoints
 62
     0
100
AcDbPoint
 10
845.4683586379679
 20
1908.527758178913
 30
0.0
  0
POINT
  5
11D7
330
11CC
100
AcDbEntity
  8
Defpoints
 62
     0
100
AcDbPoint
 10
845.4683586379679
 20
1694.817625383283
 30
0.0
  0
ENDBLK
  5
11CE
330
11CC
100
AcDbEntity
  8
0
100
AcDbBlockEnd
  0
BLOCK
  5
11DC
330
11DB
100
AcDbEntity
  8
0
100
AcDbBlockBegin
  2
*D9
 70
     1
 10
0.0
 20
0.0
 30
0.0
  3
*D9
  1
*D46
  0
LINE
  5
11DE
330
11DB
100
AcDbEntity
  8
DIM
  6
Continuous
 62
     0
370
    -2
100
AcDbLine
 10
374.4380457386592
 20
2194.95043605477
 30
0.0
 11
179.1687348909323
 21
2194.95043605477
 31
0.0
  0
LINE
  5
11DF
330
11DB
100
AcDbEntity
  8
DIM
  6
Continuous
 62
     0
370
    -2
100
AcDbLine
 10
374.4380457386592
 20
1835.007420842728
 30
0.0
 11
179.1687348909322
 21
1835.007420842728
 31
0.0
  0
LINE
  5
11E0
330
11DB
100
AcDbEntity
  8
DIM
  6
Continuous
 62
     0
370
    -2
100
AcDbLine
 10
179.1687348909323
 20
2185.95043605477
 30
0.0
 11
179.1687348909322
 21
1844.007420842728
 31
0.0
  0
INSERT
  5
11E1
330
11DB
100
AcDbEntity
  8
DIM
 62
     0
370
    -2
100
AcDbBlockReference
  2
_DOT
 10
179.1687348909323
 20
2194.95043605477
 30
0.0
 41
9.0
 42
9.0
 43
9.0
 50
90.0
  0
INSERT
  5
11E2
330
11DB
100
AcDbEntity
  8
DIM
 62
     0
370
    -2
100
AcDbBlockReference
  2
_DOT
 10
179.1687348909322
 20
1835.007420842728
 30
0.0
 41
9.0
 42
9.0
 43
9.0
 50
270.0
  0
MTEXT
  5
11E3
330
11DB
100
AcDbEntity
  8
DIM
  6
Continuous
 62
     0
100
AcDbMText
 10
147.1687348909322
 20
2014.978928448749
 30
0.0
 40
24.0
 41
0.0
 46
0.0
 71
     5
 72
     1
  1
\A1;360
  7
ＭＳ ゴシック
 11
7.896169179352131E-17
 21
1.0
 31
0.0
 73
     1
 44
1.0
  0
POINT
  5
11E4
330
11DB
100
AcDbEntity
  8
Defpoints
 62
     0
100
AcDbPoint
 10
384.4380457386592
 20
2194.95043605477
 30
0.0
  0
POINT
  5
11E5
330
11DB
100
AcDbEntity
  8
Defpoints
 62
     0
100
AcDbPoint
 10
384.4380457386592
 20
1835.007420842728
 30
0.0
  0
POINT
  5
11E6
330
11DB
100
AcDbEntity
  8
Defpoints
 62
     0
100
AcDbPoint
 10
179.1687348909322
 20
1835.007420842728
 30
0.0
  0
ENDBLK
  5
11DD
330
11DB
100
AcDbEntity
  8
0
100
AcDbBlockEnd
  0
BLOCK
  5
11EC
330
11EB
100
AcDbEntity
  8
0
100
AcDbBlockBegin
  2
*D10
 70
     1
 10
0.0
 20
0.0
 30
0.0
  3
*D10
  1
*D47
  0
LINE
  5
11EE
330
11EB
100
AcDbEntity
  8
DIM
  6
Continuous
 62
     0
370
    -2
100
AcDbLine
 10
345.7109706488473
 20
1091.867755492754
 30
0.0
 11
345.7109706488473
 21
983.8363785137749
 31
0.0
  0
LINE
  5
11EF
330
11EB
100
AcDbEntity
  8
DIM
  6
Continuous
 62
     0
370
    -2
100
AcDbLine
 10
805.2373581191632
 20
1091.93030405947
 30
0.0
 11
805.2373581191632
 21
983.8363785137749
 31
0.0
  0
LINE
  5
11F0
330
11EB
100
AcDbEntity
  8
DIM
  6
Continuous
 62
     0
370
    -2
100
AcDbLine
 10
354.7109706488473
 20
983.8363785137749
 30
0.0
 11
796.2373581191632
 21
983.8363785137749
 31
0.0
  0
INSERT
  5
11F1
330
11EB
100
AcDbEntity
  8
DIM
 62
     0
370
    -2
100
AcDbBlockReference
  2
_DOT
 10
345.7109706488473
 20
983.8363785137749
 30
0.0
 41
9.0
 42
9.0
 43
9.0
 50
180.0
  0
INSERT
  5
11F2
330
11EB
100
AcDbEntity
  8
DIM
 62
     0
370
    -2
100
AcDbBlockReference
  2
_DOT
 10
805.2373581191632
 20
983.8363785137749
 30
0.0
 41
9.0
 42
9.0
 43
9.0
  0
MTEXT
  5
11F3
330
11EB
100
AcDbEntity
  8
DIM
  6
Continuous
 62
     0
100
AcDbMText
 10
575.4741643840052
 20
1015.836378513775
 30
0.0
 40
24.0
 41
0.0
 46
0.0
 71
     5
 72
     1
  1
\A1;460
  7
ＭＳ ゴシック
 73
     1
 44
1.0
  0
POINT
  5
11F4
330
11EB
100
AcDbEntity
  8
Defpoints
 62
     0
100
AcDbPoint
 10
345.7109706488473
 20
1101.867755492754
 30
0.0
  0
POINT
  5
11F5
330
11EB
100
AcDbEntity
  8
Defpoints
 62
     0
100
AcDbPoint
 10
805.2373581191632
 20
1101.93030405947
 30
0.0
  0
POINT
  5
11F6
330
11EB
100
AcDbEntity
  8
Defpoints
 62
     0
100
AcDbPoint
 10
805.2373581191632
 20
983.8363785137749
 30
0.0
  0
ENDBLK
  5
11ED
330
11EB
100
AcDbEntity
  8
0
100
AcDbBlockEnd
  0
BLOCK
  5
11FB
330
11FA
100
AcDbEntity
  8
0
100
AcDbBlockBegin
  2
*D11
 70
     1
 10
0.0
 20
0.0
 30
0.0
  3
*D11
  1
*D48
  0
LINE
  5
11FD
330
11FA
100
AcDbEntity
  8
DIM
  6
Continuous
 62
     0
370
    -2
100
AcDbLine
 10
879.4679063942813
 20
1251.139460670559
 30
0.0
 11
984.3494728762078
 21
1251.139460670559
 31
0.0
  0
LINE
  5
11FE
330
11FA
100
AcDbEntity
  8
DIM
  6
Continuous
 62
     0
370
    -2
100
AcDbLine
 10
612.0496699447203
 20
1076.31030795321
 30
0.0
 11
984.3494728762078
 21
1076.31030795321
 31
0.0
  0
LINE
  5
11FF
330
11FA
100
AcDbEntity
  8
DIM
  6
Continuous
 62
     0
370
    -2
100
AcDbLine
 10
984.3494728762078
 20
1242.139460670559
 30
0.0
 11
984.3494728762078
 21
1085.31030795321
 31
0.0
  0
INSERT
  5
1200
330
11FA
100
AcDbEntity
  8
DIM
 62
     0
370
    -2
100
AcDbBlockReference
  2
_DOT
 10
984.3494728762078
 20
1251.139460670559
 30
0.0
 41
9.0
 42
9.0
 43
9.0
 50
90.0
  0
INSERT
  5
1201
330
11FA
100
AcDbEntity
  8
DIM
 62
     0
370
    -2
100
AcDbBlockReference
  2
_DOT
 10
984.3494728762078
 20
1076.31030795321
 30
0.0
 41
9.0
 42
9.0
 43
9.0
 50
270.0
  0
MTEXT
  5
1202
330
11FA
100
AcDbEntity
  8
DIM
  6
Continuous
 62
     0
100
AcDbMText
 10
952.3494728762078
 20
1163.224884311885
 30
0.0
 40
24.0
 41
0.0
 46
0.0
 71
     5
 72
     1
  1
\A1;175
  7
ＭＳ ゴシック
 11
0.0
 21
1.0
 31
0.0
 73
     1
 44
1.0
  0
POINT
  5
1203
330
11FA
100
AcDbEntity
  8
Defpoints
 62
     0
100
AcDbPoint
 10
869.4679063942813
 20
1251.139460670559
 30
0.0
  0
POINT
  5
1204
330
11FA
100
AcDbEntity
  8
Defpoints
 62
     0
100
AcDbPoint
 10
602.0496699447203
 20
1076.31030795321
 30
0.0
  0
POINT
  5
1205
330
11FA
100
AcDbEntity
  8
Defpoints
 62
     0
100
AcDbPoint
 10
984.3494728762078
 20
1076.31030795321
 30
0.0
  0
ENDBLK
  5
11FC
330
11FA
100
AcDbEntity
  8
0
100
AcDbBlockEnd
  0
BLOCK
  5
120A
330
1209
100
AcDbEntity
  8
0
100
AcDbBlockBegin
  2
*D12
 70
     1
 10
0.0
 20
0.0
 30
0.0
  3
*D12
  1
*D49
  0
LINE
  5
120C
330
1209
100
AcDbEntity
  8
DIM
  6
Continuous
 62
     0
370
    -2
100
AcDbLine
 10
1275.719215348961
 20
1251.139443440849
 30
0.0
 11
1171.278601818849
 21
1251.139443440849
 31
0.0
  0
LINE
  5
120D
330
1209
100
AcDbEntity
  8
DIM
  6
Continuous
 62
     0
370
    -2
100
AcDbLine
 10
1336.274876532401
 20
1101.139434257146
 30
0.0
 11
1171.278601818849
 21
1101.139434257146
 31
0.0
  0
LINE
  5
120E
330
1209
100
AcDbEntity
  8
DIM
  6
Continuous
 62
     0
370
    -2
100
AcDbLine
 10
1171.278601818849
 20
1242.139443440849
 30
0.0
 11
1171.278601818849
 21
1110.139434257146
 31
0.0
  0
INSERT
  5
120F
330
1209
100
AcDbEntity
  8
DIM
 62
     0
370
    -2
100
AcDbBlockReference
  2
_DOT
 10
1171.278601818849
 20
1251.139443440849
 30
0.0
 41
9.0
 42
9.0
 43
9.0
 50
90.0
  0
INSERT
  5
1210
330
1209
100
AcDbEntity
  8
DIM
 62
     0
370
    -2
100
AcDbBlockReference
  2
_DOT
 10
1171.278601818849
 20
1101.139434257146
 30
0.0
 41
9.0
 42
9.0
 43
9.0
 50
270.0
  0
MTEXT
  5
1211
330
1209
100
AcDbEntity
  8
DIM
  6
Continuous
 62
     0
100
AcDbMText
 10
1139.278601818849
 20
1176.139438848997
 30
0.0
 40
24.0
 41
0.0
 46
0.0
 71
     5
 72
     1
  1
\A1;150
  7
ＭＳ ゴシック
 11
0.0
 21
1.0
 31
0.0
 73
     1
 44
1.0
  0
POINT
  5
1212
330
1209
100
AcDbEntity
  8
Defpoints
 62
     0
100
AcDbPoint
 10
1285.719215348961
 20
1251.139443440849
 30
0.0
  0
POINT
  5
1213
330
1209
100
AcDbEntity
  8
Defpoints
 62
     0
100
AcDbPoint
 10
1346.274876532401
 20
1101.139434257146
 30
0.0
  0
POINT
  5
1214
330
1209
100
AcDbEntity
  8
Defpoints
 62
     0
100
AcDbPoint
 10
1171.278601818849
 20
1101.139434257146
 30
0.0
  0
ENDBLK
  5
120B
330
1209
100
AcDbEntity
  8
0
100
AcDbBlockEnd
  0
BLOCK
  5
1219
330
1218
100
AcDbEntity
  8
0
100
AcDbBlockBegin
  2
*D13
 70
     1
 10
0.0
 20
0.0
 30
0.0
  3
*D13
  1
*D50
  0
LINE
  5
121B
330
1218
100
AcDbEntity
  8
DIM
  6
Continuous
 62
     0
370
    -2
100
AcDbLine
 10
1339.500338141674
 20
1094.68875385283
 30
0.0
 11
1339.500338141674
 21
940.3903231095753
 31
0.0
  0
LINE
  5
121C
330
1218
100
AcDbEntity
  8
DIM
  6
Continuous
 62
     0
370
    -2
100
AcDbLine
 10
1639.881084582558
 20
1091.964057140014
 30
0.0
 11
1639.881084582558
 21
940.3903231095753
 31
0.0
  0
LINE
  5
121D
330
1218
100
AcDbEntity
  8
DIM
  6
Continuous
 62
     0
370
    -2
100
AcDbLine
 10
1348.500338141674
 20
940.3903231095753
 30
0.0
 11
1630.881084582558
 21
940.3903231095753
 31
0.0
  0
INSERT
  5
121E
330
1218
100
AcDbEntity
  8
DIM
 62
     0
370
    -2
100
AcDbBlockReference
  2
_DOT
 10
1339.500338141674
 20
940.3903231095753
 30
0.0
 41
9.0
 42
9.0
 43
9.0
 50
180.0
  0
INSERT
  5
121F
330
1218
100
AcDbEntity
  8
DIM
 62
     0
370
    -2
100
AcDbBlockReference
  2
_DOT
 10
1639.881084582558
 20
940.3903231095753
 30
0.0
 41
9.0
 42
9.0
 43
9.0
  0
MTEXT
  5
1220
330
1218
100
AcDbEntity
  8
DIM
  6
Continuous
 62
     0
100
AcDbMText
 10
1489.690711362115
 20
972.3903231095753
 30
0.0
 40
24.0
 41
0.0
 46
0.0
 71
     5
 72
     1
  1
\A1;300
  7
ＭＳ ゴシック
 73
     1
 44
1.0
  0
POINT
  5
1221
330
1218
100
AcDbEntity
  8
Defpoints
 62
     0
100
AcDbPoint
 10
1339.500338141674
 20
1104.68875385283
 30
0.0
  0
POINT
  5
1222
330
1218
100
AcDbEntity
  8
Defpoints
 62
     0
100
AcDbPoint
 10
1639.881084582558
 20
1101.964057140014
 30
0.0
  0
POINT
  5
1223
330
1218
100
AcDbEntity
  8
Defpoints
 62
     0
100
AcDbPoint
 10
1639.881084582558
 20
940.3903231095753
 30
0.0
  0
ENDBLK
  5
121A
330
1218
100
AcDbEntity
  8
0
100
AcDbBlockEnd
  0
BLOCK
  5
1228
330
1227
100
AcDbEntity
  8
0
100
AcDbBlockBegin
  2
*D14
 70
     1
 10
0.0
 20
0.0
 30
0.0
  3
*D14
  1
*D51
  0
LINE
  5
122A
330
1227
100
AcDbEntity
  8
DIM
  6
Continuous
 62
     0
370
    -2
100
AcDbLine
 10
1489.6907101977
 20
1066.310305186069
 30
0.0
 11
1489.6907101977
 21
1014.02258689384
 31
0.0
  0
LINE
  5
122B
330
1227
100
AcDbEntity
  8
DIM
  6
Continuous
 62
     0
370
    -2
100
AcDbLine
 10
1699.662220155662
 20
1236.139425609092
 30
0.0
 11
1699.662220155662
 21
1014.02258689384
 31
0.0
  0
LINE
  5
122C
330
1227
100
AcDbEntity
  8
DIM
  6
Continuous
 62
     0
370
    -2
100
AcDbLine
 10
1498.6907101977
 20
1014.02258689384
 30
0.0
 11
1690.662220155662
 21
1014.02258689384
 31
0.0
  0
INSERT
  5
122D
330
1227
100
AcDbEntity
  8
DIM
 62
     0
370
    -2
100
AcDbBlockReference
  2
_DOT
 10
1489.6907101977
 20
1014.02258689384
 30
0.0
 41
9.0
 42
9.0
 43
9.0
 50
180.0
  0
INSERT
  5
122E
330
1227
100
AcDbEntity
  8
DIM
 62
     0
370
    -2
100
AcDbBlockReference
  2
_DOT
 10
1699.662220155662
 20
1014.02258689384
 30
0.0
 41
9.0
 42
9.0
 43
9.0
  0
MTEXT
  5
122F
330
1227
100
AcDbEntity
  8
DIM
  6
Continuous
 62
     0
100
AcDbMText
 10
1594.676465176681
 20
1046.02258689384
 30
0.0
 40
24.0
 41
0.0
 46
0.0
 71
     5
 72
     1
  1
\A1;210
  7
ＭＳ ゴシック
 73
     1
 44
1.0
  0
POINT
  5
1230
330
1227
100
AcDbEntity
  8
Defpoints
 62
     0
100
AcDbPoint
 10
1489.6907101977
 20
1076.310305186069
 30
0.0
  0
POINT
  5
1231
330
1227
100
AcDbEntity
  8
Defpoints
 62
     0
100
AcDbPoint
 10
1699.662220155662
 20
1246.139425609092
 30
0.0
  0
POINT
  5
1232
330
1227
100
AcDbEntity
  8
Defpoints
 62
     0
100
AcDbPoint
 10
1699.662220155662
 20
1014.02258689384
 30
0.0
  0
ENDBLK
  5
1229
330
1227
100
AcDbEntity
  8
0
100
AcDbBlockEnd
  0
BLOCK
  5
124E
330
124D
100
AcDbEntity
  8
0
100
AcDbBlockBegin
  2
*D15
 70
     1
 10
0.0
 20
0.0
 30
0.0
  3
*D15
  1
*D52
  0
LINE
  5
1250
330
124D
100
AcDbEntity
  8
DIM
  6
Continuous
 62
     0
370
    -2
100
AcDbLine
 10
1486.696071040295
 20
2224.950430983243
 30
0.0
 11
1359.290167558322
 21
2224.950430983243
 31
0.0
  0
LINE
  5
1251
330
124D
100
AcDbEntity
  8
DIM
  6
Continuous
 62
     0
370
    -2
100
AcDbLine
 10
1436.696071040295
 20
2124.978928448749
 30
0.0
 11
1359.290167558322
 21
2124.978928448749
 31
0.0
  0
LINE
  5
1252
330
124D
100
AcDbEntity
  8
DIM
  6
Continuous
 62
     0
370
    -2
100
AcDbLine
 10
1359.290167558322
 20
2215.950430983243
 30
0.0
 11
1359.290167558322
 21
2133.978928448749
 31
0.0
  0
INSERT
  5
1253
330
124D
100
AcDbEntity
  8
DIM
 62
     0
370
    -2
100
AcDbBlockReference
  2
_DOT
 10
1359.290167558322
 20
2224.950430983243
 30
0.0
 41
9.0
 42
9.0
 43
9.0
 50
90.0
  0
INSERT
  5
1254
330
124D
100
AcDbEntity
  8
DIM
 62
     0
370
    -2
100
AcDbBlockReference
  2
_DOT
 10
1359.290167558322
 20
2124.978928448749
 30
0.0
 41
9.0
 42
9.0
 43
9.0
 50
270.0
  0
MTEXT
  5
1255
330
124D
100
AcDbEntity
  8
DIM
  6
Continuous
 62
     0
100
AcDbMText
 10
1327.290167558322
 20
2174.964679715996
 30
0.0
 40
24.0
 41
0.0
 46
0.0
 71
     5
 72
     1
  1
\A1;100
  7
ＭＳ ゴシック
 11
0.0
 21
1.0
 31
0.0
 73
     1
 44
1.0
  0
POINT
  5
1256
330
124D
100
AcDbEntity
  8
Defpoints
 62
     0
100
AcDbPoint
 10
1496.696071040295
 20
2224.950430983243
 30
0.0
  0
POINT
  5
1257
330
124D
100
AcDbEntity
  8
Defpoints
 62
     0
100
AcDbPoint
 10
1446.696071040295
 20
2124.978928448749
 30
0.0
  0
POINT
  5
1258
330
124D
100
AcDbEntity
  8
Defpoints
 62
     0
100
AcDbPoint
 10
1359.290167558322
 20
2124.978928448749
 30
0.0
  0
ENDBLK
  5
124F
330
124D
100
AcDbEntity
  8
0
100
AcDbBlockEnd
  0
BLOCK
  5
125D
330
125C
100
AcDbEntity
  8
0
100
AcDbBlockBegin
  2
*D16
 70
     1
 10
0.0
 20
0.0
 30
0.0
  3
*D16
  1
*D53
  0
LINE
  5
125F
330
125C
100
AcDbEntity
  8
DIM
  6
Continuous
 62
     0
370
    -2
100
AcDbLine
 10
1436.696071040295
 20
2124.978928448749
 30
0.0
 11
1359.290167558322
 21
2124.978928448749
 31
0.0
  0
LINE
  5
1260
330
125C
100
AcDbEntity
  8
DIM
  6
Continuous
 62
     0
370
    -2
100
AcDbLine
 10
1436.696071040295
 20
1964.978928448749
 30
0.0
 11
1359.290167558322
 21
1964.978928448749
 31
0.0
  0
LINE
  5
1261
330
125C
100
AcDbEntity
  8
DIM
  6
Continuous
 62
     0
370
    -2
100
AcDbLine
 10
1359.290167558322
 20
2115.978928448749
 30
0.0
 11
1359.290167558322
 21
1973.978928448749
 31
0.0
  0
INSERT
  5
1262
330
125C
100
AcDbEntity
  8
DIM
 62
     0
370
    -2
100
AcDbBlockReference
  2
_DOT
 10
1359.290167558322
 20
2124.978928448749
 30
0.0
 41
9.0
 42
9.0
 43
9.0
 50
90.0
  0
INSERT
  5
1263
330
125C
100
AcDbEntity
  8
DIM
 62
     0
370
    -2
100
AcDbBlockReference
  2
_DOT
 10
1359.290167558322
 20
1964.978928448749
 30
0.0
 41
9.0
 42
9.0
 43
9.0
 50
270.0
  0
MTEXT
  5
1264
330
125C
100
AcDbEntity
  8
DIM
  6
Continuous
 62
     0
100
AcDbMText
 10
1327.290167558322
 20
2044.978928448749
 30
0.0
 40
24.0
 41
0.0
 46
0.0
 71
     5
 72
     1
  1
\A1;160
  7
ＭＳ ゴシック
 11
0.0
 21
1.0
 31
0.0
 73
     1
 44
1.0
  0
POINT
  5
1265
330
125C
100
AcDbEntity
  8
Defpoints
 62
     0
100
AcDbPoint
 10
1446.696071040295
 20
2124.978928448749
 30
0.0
  0
POINT
  5
1266
330
125C
100
AcDbEntity
  8
Defpoints
 62
     0
100
AcDbPoint
 10
1446.696071040295
 20
1964.978928448749
 30
0.0
  0
POINT
  5
1267
330
125C
100
AcDbEntity
  8
Defpoints
 62
     0
100
AcDbPoint
 10
1359.290167558322
 20
1964.978928448749
 30
0.0
  0
ENDBLK
  5
125E
330
125C
100
AcDbEntity
  8
0
100
AcDbBlockEnd
  0
BLOCK
  5
126C
330
126B
100
AcDbEntity
  8
0
100
AcDbBlockBegin
  2
*D17
 70
     1
 10
0.0
 20
0.0
 30
0.0
  3
*D17
  1
*D54
  0
LINE
  5
126E
330
126B
100
AcDbEntity
  8
DIM
  6
Continuous
 62
     0
370
    -2
100
AcDbLine
 10
1556.696071040295
 20
2014.978928448749
 30
0.0
 11
1603.190742553509
 21
2014.978928448749
 31
0.0
  0
LINE
  5
126F
330
126B
100
AcDbEntity
  8
DIM
  6
Continuous
 62
     0
370
    -2
100
AcDbLine
 10
1556.696071040295
 20
1964.978928448749
 30
0.0
 11
1603.190742553509
 21
1964.978928448749
 31
0.0
  0
LINE
  5
1270
330
126B
100
AcDbEntity
  8
DIM
  6
Continuous
 62
     0
370
    -2
100
AcDbLine
 10
1603.190742553509
 20
2005.978928448749
 30
0.0
 11
1603.190742553509
 21
1973.978928448749
 31
0.0
  0
INSERT
  5
1271
330
126B
100
AcDbEntity
  8
DIM
 62
     0
370
    -2
100
AcDbBlockReference
  2
_DOT
 10
1603.190742553509
 20
2014.978928448749
 30
0.0
 41
9.0
 42
9.0
 43
9.0
 50
90.0
  0
INSERT
  5
1272
330
126B
100
AcDbEntity
  8
DIM
 62
     0
370
    -2
100
AcDbBlockReference
  2
_DOT
 10
1603.190742553509
 20
1964.978928448749
 30
0.0
 41
9.0
 42
9.0
 43
9.0
 50
270.0
  0
MTEXT
  5
1273
330
126B
100
AcDbEntity
  8
DIM
  6
Continuous
 62
     0
100
AcDbMText
 10
1571.190742553509
 20
1989.978928448749
 30
0.0
 40
24.0
 41
0.0
 46
0.0
 71
     5
 72
     1
  1
\A1;50
  7
ＭＳ ゴシック
 11
0.0
 21
1.0
 31
0.0
 73
     1
 44
1.0
  0
POINT
  5
1274
330
126B
100
AcDbEntity
  8
Defpoints
 62
     0
100
AcDbPoint
 10
1546.696071040295
 20
2014.978928448749
 30
0.0
  0
POINT
  5
1275
330
126B
100
AcDbEntity
  8
Defpoints
 62
     0
100
AcDbPoint
 10
1546.696071040295
 20
1964.978928448749
 30
0.0
  0
POINT
  5
1296
330
126B
100
AcDbEntity
  8
Defpoints
 62
     0
100
AcDbPoint
 10
1603.190742553509
 20
1964.978928448749
 30
0.0
  0
ENDBLK
  5
126D
330
126B
100
AcDbEntity
  8
0
100
AcDbBlockEnd
  0
BLOCK
  5
127C
330
127B
100
AcDbEntity
  8
0
100
AcDbBlockBegin
  2
*D18
 70
     1
 10
0.0
 20
0.0
 30
0.0
  3
*D18
  1
*D55
  0
LINE
  5
127E
330
127B
100
AcDbEntity
  8
DIM
  6
Continuous
 62
     0
370
    -2
100
AcDbLine
 10
1556.696071040295
 20
2014.978928448749
 30
0.0
 11
1603.190742553509
 21
2014.978928448749
 31
0.0
  0
LINE
  5
127F
330
127B
100
AcDbEntity
  8
DIM
  6
Continuous
 62
     0
370
    -2
100
AcDbLine
 10
1556.696071040295
 20
2124.978928448749
 30
0.0
 11
1603.190742553509
 21
2124.978928448749
 31
0.0
  0
LINE
  5
1280
330
127B
100
AcDbEntity
  8
DIM
  6
Continuous
 62
     0
370
    -2
100
AcDbLine
 10
1603.190742553509
 20
2023.978928448749
 30
0.0
 11
1603.190742553509
 21
2115.978928448749
 31
0.0
  0
INSERT
  5
1281
330
127B
100
AcDbEntity
  8
DIM
 62
     0
370
    -2
100
AcDbBlockReference
  2
_DOT
 10
1603.190742553509
 20
2014.978928448749
 30
0.0
 41
9.0
 42
9.0
 43
9.0
 50
270.0
  0
INSERT
  5
1282
330
127B
100
AcDbEntity
  8
DIM
 62
     0
370
    -2
100
AcDbBlockReference
  2
_DOT
 10
1603.190742553509
 20
2124.978928448749
 30
0.0
 41
9.0
 42
9.0
 43
9.0
 50
90.0
  0
MTEXT
  5
1283
330
127B
100
AcDbEntity
  8
DIM
  6
Continuous
 62
     0
100
AcDbMText
 10
1571.190742553509
 20
2069.978928448749
 30
0.0
 40
24.0
 41
0.0
 46
0.0
 71
     5
 72
     1
  1
\A1;110
  7
ＭＳ ゴシック
 11
0.0
 21
1.0
 31
0.0
 73
     1
 44
1.0
  0
POINT
  5
1284
330
127B
100
AcDbEntity
  8
Defpoints
 62
     0
100
AcDbPoint
 10
1546.696071040295
 20
2014.978928448749
 30
0.0
  0
POINT
  5
1285
330
127B
100
AcDbEntity
  8
Defpoints
 62
     0
100
AcDbPoint
 10
1546.696071040295
 20
2124.978928448749
 30
0.0
  0
POINT
  5
1286
330
127B
100
AcDbEntity
  8
Defpoints
 62
     0
100
AcDbPoint
 10
1603.190742553509
 20
2124.978928448749
 30
0.0
  0
ENDBLK
  5
127D
330
127B
100
AcDbEntity
  8
0
100
AcDbBlockEnd
  0
BLOCK
  5
128B
330
128A
100
AcDbEntity
  8
0
100
AcDbBlockBegin
  2
*D19
 70
     1
 10
0.0
 20
0.0
 30
0.0
  3
*D19
  1
*D56
  0
LINE
  5
128D
330
128A
100
AcDbEntity
  8
DIM
  6
Continuous
 62
     0
370
    -2
100
AcDbLine
 10
1446.696071040295
 20
1954.978928448749
 30
0.0
 11
1446.696071040295
 21
1887.913028293793
 31
0.0
  0
LINE
  5
128E
330
128A
100
AcDbEntity
  8
DIM
  6
Continuous
 62
     0
370
    -2
100
AcDbLine
 10
1546.696071040295
 20
1954.978928448749
 30
0.0
 11
1546.696071040295
 21
1887.913028293793
 31
0.0
  0
LINE
  5
128F
330
128A
100
AcDbEntity
  8
DIM
  6
Continuous
 62
     0
370
    -2
100
AcDbLine
 10
1455.696071040295
 20
1887.913028293793
 30
0.0
 11
1537.696071040295
 21
1887.913028293793
 31
0.0
  0
INSERT
  5
1290
330
128A
100
AcDbEntity
  8
DIM
 62
     0
370
    -2
100
AcDbBlockReference
  2
_DOT
 10
1446.696071040295
 20
1887.913028293793
 30
0.0
 41
9.0
 42
9.0
 43
9.0
 50
180.0
  0
INSERT
  5
1291
330
128A
100
AcDbEntity
  8
DIM
 62
     0
370
    -2
100
AcDbBlockReference
  2
_DOT
 10
1546.696071040295
 20
1887.913028293793
 30
0.0
 41
9.0
 42
9.0
 43
9.0
  0
MTEXT
  5
1292
330
128A
100
AcDbEntity
  8
DIM
  6
Continuous
 62
     0
100
AcDbMText
 10
1496.696071040295
 20
1919.913028293793
 30
0.0
 40
24.0
 41
0.0
 46
0.0
 71
     5
 72
     1
  1
\A1;100
  7
ＭＳ ゴシック
 73
     1
 44
1.0
  0
POINT
  5
1293
330
128A
100
AcDbEntity
  8
Defpoints
 62
     0
100
AcDbPoint
 10
1446.696071040295
 20
1964.978928448749
 30
0.0
  0
POINT
  5
1294
330
128A
100
AcDbEntity
  8
Defpoints
 62
     0
100
AcDbPoint
 10
1546.696071040295
 20
1964.978928448749
 30
0.0
  0
POINT
  5
1295
330
128A
100
AcDbEntity
  8
Defpoints
 62
     0
100
AcDbPoint
 10
1546.696071040295
 20
1887.913028293793
 30
0.0
  0
ENDBLK
  5
128C
330
128A
100
AcDbEntity
  8
0
100
AcDbBlockEnd
  0
BLOCK
  5
1299
330
1298
100
AcDbEntity
  8
0
100
AcDbBlockBegin
  2
*D20
 70
     1
 10
0.0
 20
0.0
 30
0.0
  3
*D20
  1
*D57
  0
LINE
  5
129B
330
1298
100
AcDbEntity
  8
DIM
  6
Continuous
 62
     0
370
    -2
100
AcDbLine
 10
1479.690710534111
 20
1126.410750088084
 30
0.0
 11
1479.690710534111
 21
1126.410750088084
 31
0.0
  0
LINE
  5
129C
330
1298
100
AcDbEntity
  8
DIM
  6
Continuous
 62
     0
370
    -2
100
AcDbLine
 10
1479.690710534111
 20
1251.410750088084
 30
0.0
 11
1479.690710534111
 21
1251.410750088084
 31
0.0
  0
LINE
  5
129D
330
1298
100
AcDbEntity
  8
DIM
  6
Continuous
 62
     0
370
    -2
100
AcDbLine
 10
1479.690710534111
 20
1251.410750088084
 30
0.0
 11
1479.690710534111
 21
1445.442750088084
 31
0.0
  0
LINE
  5
129E
330
1298
100
AcDbEntity
  8
DIM
  6
Continuous
 62
     0
370
    -2
100
AcDbLine
 10
1479.690710534111
 20
1135.410750088084
 30
0.0
 11
1479.690710534111
 21
1242.410750088084
 31
0.0
  0
INSERT
  5
129F
330
1298
100
AcDbEntity
  8
DIM
 62
     0
370
    -2
100
AcDbBlockReference
  2
_DOT
 10
1479.690710534111
 20
1126.410750088084
 30
0.0
 41
9.0
 42
9.0
 43
9.0
 50
270.0
  0
INSERT
  5
12A0
330
1298
100
AcDbEntity
  8
DIM
 62
     0
370
    -2
100
AcDbBlockReference
  2
_DOT
 10
1479.690710534111
 20
1251.410750088084
 30
0.0
 41
9.0
 42
9.0
 43
9.0
 50
90.0
  0
MTEXT
  5
12A1
330
1298
100
AcDbEntity
  8
DIM
  6
Continuous
 62
     0
100
AcDbMText
 10
1445.566710534111
 20
1360.426750088084
 30
0.0
 40
24.0
 41
0.0
 46
0.0
 71
     5
 72
     1
  1
\A1;125(深さ)
  7
ＭＳ ゴシック
 11
0.0
 21
1.0
 31
0.0
 73
     1
 44
1.0
  0
POINT
  5
12A2
330
1298
100
AcDbEntity
  8
Defpoints
 62
     0
100
AcDbPoint
 10
1489.690710534111
 20
1126.410750088084
 30
0.0
  0
POINT
  5
12A3
330
1298
100
AcDbEntity
  8
Defpoints
 62
     0
100
AcDbPoint
 10
1489.690710534111
 20
1251.410750088084
 30
0.0
  0
POINT
  5
12A4
330
1298
100
AcDbEntity
  8
Defpoints
 62
     0
100
AcDbPoint
 10
1479.690710534111
 20
1251.410750088084
 30
0.0
  0
ENDBLK
  5
129A
330
1298
100
AcDbEntity
  8
0
100
AcDbBlockEnd
  0
ENDSEC
  0
SECTION
  2
ENTITIES
  0
MTEXT
  5
177
330
A
100
AcDbEntity
  8
TEMPLATE
390
1D
100
AcDbMText
 10
79.20214454773075
 20
343.7317516314282
 30
0.0
 40
16.28841145833333
 41
0.0
 46
0.0
 71
     1
 72
     1
  1
品名
  7
ＭＳ ゴシック
 73
     1
 44
0.7828267384257843
  0
MTEXT
  5
178
330
A
100
AcDbEntity
  8
TEMPLATE
390
1D
100
AcDbMText
 10
79.20214454773075
 20
258.731751631428
 30
0.0
 40
16.28841145833333
 41
0.0
 46
0.0
 71
     1
 72
     1
  1
仕様
  7
ＭＳ ゴシック
 73
     1
 44
0.7828267384257843
  0
LINE
  5
179
330
A
100
AcDbEntity
  8
TEMPLATE
390
1D
100
AcDbLine
 10
2022.202144547248
 20
267.1466735064284
 30
0.0
 11
72.20214454724874
 21
267.1466735064284
 31
0.0
  0
LWPOLYLINE
  5
17A
330
A
100
AcDbEntity
  8
TEMPLATE
390
1D
100
AcDbPolyline
 90
        5
 70
   128
 43
0.0
 10
2022.202144547248
 20
2897.146673506426
 10
72.20214454724874
 20
2897.146673506426
 10
72.20214454724874
 20
97.14667350642826
 10
2022.202144547248
 20
97.14667350642826
 10
2022.202144547248
 20
2897.146673506426
  0
LINE
  5
17B
330
A
100
AcDbEntity
  8
TEMPLATE
390
1D
100
AcDbLine
 10
2022.202144547248
 20
352.1466735064282
 30
0.0
 11
72.20214454724874
 21
352.1466735064282
 31
0.0
  0
LINE
  5
17C
330
A
100
AcDbEntity
  8
TEMPLATE
390
1D
100
AcDbLine
 10
2022.202144547732
 20
182.1466735064282
 30
0.0
 11
1269.20214454773
 21
182.1466735064282
 31
0.0
  0
MTEXT
  5
17D
330
A
100
AcDbEntity
  8
TEMPLATE
390
1D
100
AcDbMText
 10
72.2021445479345
 20
85.29285144957115
 30
0.0
 40
21.71788194444444
 41
0.0
 46
21.71788194444444
 71
     1
 72
     1
  1
{150520SO}
  7
ＭＳ ゴシック
 73
     1
 44
0.7828267384257843
1001
ACAD
1000
ACAD_MTEXT_DEFINED_HEIGHT_BEGIN
1070
    46
1040
21.71788194444444
1000
ACAD_MTEXT_DEFINED_HEIGHT_END
  0
MTEXT
  5
17E
330
A
100
AcDbEntity
  8
TEMPLATE
390
1D
100
AcDbMText
 10
1299.073550799991
 20
152.2362790331201
 30
0.0
 40
24.4326171875
 41
0.0
 46
0.0
 71
     1
 72
     1
  1
大洋金物株式会社 ティーフォルム事業部
  7
ＭＳ ゴシック
 73
     1
 44
0.7828267384257843
  0
MTEXT
  5
180
330
A
100
AcDbEntity
  8
TEMPLATE
390
1D
100
AcDbMText
 10
1831.20214454799
 20
230.1492906939282
 30
0.0
 40
24.4326171875
 41
0.0
 46
24.4326171875
 71
     1
 72
     1
  1
{1:10}
  7
ＭＳ ゴシック
 73
     1
 44
0.7828267384257843
1001
ACAD
1000
ACAD_MTEXT_DEFINED_HEIGHT_BEGIN
1070
    46
1040
24.4326171875
1000
ACAD_MTEXT_DEFINED_HEIGHT_END
  0
MTEXT
  5
181
330
A
100
AcDbEntity
  8
TEMPLATE
390
1D
100
AcDbMText
 10
1778.20214454799
 20
258.731751631428
 30
0.0
 40
16.28841145833333
 41
0.0
 46
0.0
 71
     1
 72
     1
  1
縮尺
  7
ＭＳ ゴシック
 73
     1
 44
0.7828267384257843
  0
LINE
  5
182
330
A
100
AcDbEntity
  8
TEMPLATE
390
1D
100
AcDbLine
 10
1771.20214454799
 20
182.1466735064282
 30
0.0
 11
1771.20214454799
 21
267.1466735064284
 31
0.0
  0
MTEXT
  5
183
330
A
100
AcDbEntity
  8
TEMPLATE
390
1D
100
AcDbMText
 10
1527.20214454799
 20
258.731751631428
 30
0.0
 40
16.28841145833333
 41
0.0
 46
0.0
 71
     1
 72
     1
  1
容量
  7
ＭＳ ゴシック
 73
     1
 44
0.7828267384257843
  0
LINE
  5
184
330
A
100
AcDbEntity
  8
TEMPLATE
390
1D
100
AcDbLine
 10
1520.20214454799
 20
182.1466735064282
 30
0.0
 11
1520.20214454799
 21
267.1466735064284
 31
0.0
  0
MTEXT
  5
185
330
A
100
AcDbEntity
  8
TEMPLATE
390
1D
100
AcDbMText
 10
1276.20214454799
 20
343.7317516314282
 30
0.0
 40
16.28841145833333
 41
0.0
 46
0.0
 71
     1
 72
     1
  1
品番
  7
ＭＳ ゴシック
 73
     1
 44
0.7828267384257843
  0
MTEXT
  5
186
330
A
100
AcDbEntity
  8
TEMPLATE
390
1D
100
AcDbMText
 10
1276.20214454799
 20
258.731751631428
 30
0.0
 40
16.28841145833333
 41
0.0
 46
0.0
 71
     1
 72
     1
  1
重量
  7
ＭＳ ゴシック
 73
     1
 44
0.7828267384257843
  0
MTEXT
  5
187
330
A
100
AcDbEntity
  8
TEMPLATE
390
1D
100
AcDbMText
 10
1329.20214454799
 20
315.1492906939282
 30
0.0
 40
24.4326171875
 41
0.0
 46
24.4326171875
 71
     1
 72
     1
  1
{ADF70-2105}
  7
ＭＳ ゴシック
 73
     1
 44
0.7828267384257843
1001
ACAD
1000
ACAD_MTEXT_DEFINED_HEIGHT_BEGIN
1070
    46
1040
24.4326171875
1000
ACAD_MTEXT_DEFINED_HEIGHT_END
  0
LINE
  5
188
330
A
100
AcDbEntity
  8
TEMPLATE
390
1D
100
AcDbLine
 10
1269.20214454799
 20
97.14667350642826
 30
0.0
 11
1269.20214454799
 21
352.1466735064282
 31
0.0
  0
MTEXT
  5
189
330
A
100
AcDbEntity
  8
TEMPLATE
390
1D
100
AcDbMText
 10
132.2021445477307
 20
315.1492906939282
 30
0.0
 40
24.4326171875
 41
0.0
 46
24.4326171875
 71
     1
 72
     1
  1
{洗面器　-CATAlANO,Velis-}
  7
ＭＳ ゴシック
 73
     1
 44
0.7828267384257843
1001
ACAD
1000
ACAD_MTEXT_DEFINED_HEIGHT_BEGIN
1070
    46
1040
24.4326171875
1000
ACAD_MTEXT_DEFINED_HEIGHT_END
  0
INSERT
  5
6B5
330
A
100
AcDbEntity
  8
TEMPLATE
100
AcDbBlockReference
  2
名称未設定-1
 10
1870.75074808845
 20
25.94676575665382
 30
0.0
 41
0.7619999999999998
 42
0.7619999999999998
 43
0.7619999999999998
  0
MTEXT
  5
7D9
330
A
100
AcDbEntity
  8
TEMPLATE
390
1D
100
AcDbMText
 10
125.2543452760364
 20
226.8119760293952
 30
0.0
 40
24.4326171875
 41
0.0
 46
58.04484304797314
 71
     1
 72
     1
  1
{カウンター置き/オーバーフロー付き/\P陶器/ホワイト}
  7
ＭＳ ゴシック
 73
     1
 44
1.1
1001
ACAD
1000
ACAD_MTEXT_DEFINED_HEIGHT_BEGIN
1070
    46
1040
58.04484304797314
1000
ACAD_MTEXT_DEFINED_HEIGHT_END
  0
INSERT
  5
68C
330
A
100
AcDbEntity
  8
TEMPLATE
100
AcDbBlockReference
  2
block 2
 10
919.2743017702577
 20
8.373076514336368
 30
0.0
 41
0.3809999999999999
 42
0.3809999999999999
 43
0.3809999999999999
  0
SPLINE
  5
FCB
330
A
100
AcDbEntity
  8
MODEL
100
AcDbSpline
210
0.0
220
0.0
230
1.0
 70
     8
 71
     3
 72
    31
 73
    27
 74
     0
 42
0.000000001
 43
0.0000000001
 40
0.0
 40
0.0
 40
0.0
 40
0.0
 40
15.39455987668175
 40
35.55736381164589
 40
58.66697527252038
 40
74.37132038993124
 40
90.83763341976703
 40
106.5700332531399
 40
122.3177298444023
 40
138.8330131437602
 40
154.6159233521528
 40
170.4182724543061
 40
186.9962365859786
 40
202.8451907348031
 40
218.7209596751381
 40
235.3850138241556
 40
251.3261695903357
 40
262.8644284990689
 40
274.9744983430379
 40
286.5564973760721
 40
298.1608695834076
 40
310.3415238816653
 40
321.9896841005083
 40
336.3153263956997
 40
351.3429290644362
 40
365.6945447009955
 40
365.6945447009955
 40
365.6945447009955
 40
365.6945447009955
 10
575.4741667057451
 20
1835.007420842728
 30
0.0
 10
580.5335380161623
 20
1835.007420842728
 30
0.0
 10
592.2195153224884
 20
1835.227834161735
 30
0.0
 10
611.4679099346968
 20
1836.431891747023
 30
0.0
 10
630.7239276505998
 20
1838.676519350636
 30
0.0
 10
648.6383960213489
 20
1841.662915425103
 30
0.0
 10
664.035959896114
 20
1844.894038556786
 30
0.0
 10
679.2873497166356
 20
1848.784876624445
 30
0.0
 10
694.3625907456872
 20
1853.336675222177
 30
0.0
 10
709.2166722510874
 20
1858.584358835601
 30
0.0
 10
723.8016509075524
 20
1864.551255012298
 30
0.0
 10
738.0731789213814
 20
1871.245904597085
 30
0.0
 10
751.9605763187565
 20
1878.712847254958
 30
0.0
 10
765.3869815557764
 20
1886.982953064134
 30
0.0
 10
778.2792868825918
 20
1896.068374037214
 30
0.0
 10
790.5193194095182
 20
1906.016781639553
 30
0.0
 10
800.9300134551586
 20
1915.863292979316
 30
0.0
 10
809.6126994042997
 20
1925.293955275934
 30
0.0
 10
816.7768023258386
 20
1934.142507286476
 30
0.0
 10
823.3194175334129
 20
1943.455631211507
 30
0.0
 10
829.1822091967251
 20
1953.208699503569
 30
0.0
 10
834.2690906700145
 20
1963.384288271159
 30
0.0
 10
838.813891658704
 20
1974.730594370658
 30
0.0
 10
842.5167869702846
 20
1987.310192244784
 30
0.0
 10
844.9301565415508
 20
2001.054915244013
 30
0.0
 10
845.4683586379679
 20
2010.409428941433
 30
0.0
 10
845.4683586379679
 20
2014.978928448749
 30
0.0
  0
SPLINE
  5
FCC
330
A
100
AcDbEntity
  8
MODEL
100
AcDbSpline
210
0.0
220
0.0
230
1.0
 70
     8
 71
     3
 72
    31
 73
    27
 74
     0
 42
0.000000001
 43
0.0000000001
 40
0.0
 40
0.0
 40
0.0
 40
0.0
 40
15.39455987668175
 40
35.55736381164589
 40
58.6669752725204
 40
74.37132038993123
 40
90.83763341976702
 40
106.5700332531399
 40
122.3177298444023
 40
138.8330131437601
 40
154.6159233521528
 40
170.4182724543061
 40
186.9962365859786
 40
202.8451907348031
 40
218.7209596751382
 40
235.3850138241556
 40
251.3261695903357
 40
262.864428499069
 40
274.9744983430379
 40
286.556497376072
 40
298.1608695834074
 40
310.341523881665
 40
321.9896841005078
 40
336.3153263956992
 40
351.3429290644355
 40
365.6945447009948
 40
365.6945447009948
 40
365.6945447009948
 40
365.6945447009948
 10
575.4741667057451
 20
1835.007420842728
 30
0.0
 10
570.4147953953279
 20
1835.007420842728
 30
0.0
 10
558.7288180890018
 20
1835.227834161735
 30
0.0
 10
539.4804234767935
 20
1836.431891747023
 30
0.0
 10
520.2244057608832
 20
1838.676519350636
 30
0.0
 10
502.3099373901414
 20
1841.662915425103
 30
0.0
 10
486.9123735153689
 20
1844.894038556786
 30
0.0
 10
471.6609836948546
 20
1848.784876624445
 30
0.0
 10
456.5857426657958
 20
1853.336675222177
 30
0.0
 10
441.7316611603956
 20
1858.584358835601
 30
0.0
 10
427.1466825039379
 20
1864.551255012298
 30
0.0
 10
412.8751544901015
 20
1871.245904597086
 30
0.0
 10
398.9877570927265
 20
1878.712847254958
 30
0.0
 10
385.5613518557066
 20
1886.982953064134
 30
0.0
 10
372.6690465288912
 20
1896.068374037214
 30
0.0
 10
360.4290140019648
 20
1906.016781639553
 30
0.0
 10
350.0183199563244
 20
1915.863292979316
 30
0.0
 10
341.3356340071905
 20
1925.293955275934
 30
0.0
 10
334.1715310856516
 20
1934.142507286476
 30
0.0
 10
327.6289158780701
 20
1943.455631211507
 30
0.0
 10
321.7661242147578
 20
1953.208699503569
 30
0.0
 10
316.6792427414684
 20
1963.384288271159
 30
0.0
 10
312.1344417527789
 20
1974.730594370658
 30
0.0
 10
308.4315464411984
 20
1987.310192244784
 30
0.0
 10
306.0181768699322
 20
2001.054915244014
 30
0.0
 10
305.4799747735224
 20
2010.409428941433
 30
0.0
 10
305.4799747735224
 20
2014.978928448749
 30
0.0
  0
SPLINE
  5
FCD
330
A
100
AcDbEntity
  8
MODEL
100
AcDbSpline
210
0.0
220
0.0
230
1.0
 70
     8
 71
     3
 72
    31
 73
    27
 74
     0
 42
0.000000001
 43
0.0000000001
 40
0.0
 40
0.0
 40
0.0
 40
0.0
 40
15.39455987668174
 40
35.55736381164589
 40
58.66697527252035
 40
74.3713203899312
 40
90.83763341976697
 40
106.5700332531398
 40
122.3177298444022
 40
138.8330131437602
 40
154.6159233521529
 40
170.4182724543061
 40
186.9962365859786
 40
202.8451907348032
 40
218.7209596751383
 40
235.3850138241557
 40
251.3261695903358
 40
262.8644284990689
 40
274.9744983430378
 40
286.5564973760719
 40
298.1608695834074
 40
310.341523881665
 40
321.989684100508
 40
336.3153263956993
 40
351.3429290644357
 40
365.6945447009949
 40
365.6945447009949
 40
365.6945447009949
 40
365.6945447009949
 10
575.4741667057451
 20
2194.95043605477
 30
0.0
 10
580.5335380161623
 20
2194.95043605477
 30
0.0
 10
592.2195153224884
 20
2194.730022735763
 30
0.0
 10
611.4679099346968
 20
2193.525965150475
 30
0.0
 10
630.7239276505998
 20
2191.281337546862
 30
0.0
 10
648.6383960213489
 20
2188.294941472395
 30
0.0
 10
664.035959896114
 20
2185.063818340712
 30
0.0
 10
679.2873497166356
 20
2181.172980273053
 30
0.0
 10
694.3625907456872
 20
2176.621181675321
 30
0.0
 10
709.2166722510874
 20
2171.373498061897
 30
0.0
 10
723.8016509075524
 20
2165.4066018852
 30
0.0
 10
738.0731789213814
 20
2158.711952300412
 30
0.0
 10
751.9605763187565
 20
2151.24500964254
 30
0.0
 10
765.3869815557764
 20
2142.974903833364
 30
0.0
 10
778.2792868825918
 20
2133.889482860285
 30
0.0
 10
790.5193194095182
 20
2123.941075257945
 30
0.0
 10
800.9300134551586
 20
2114.094563918182
 30
0.0
 10
809.6126994042997
 20
2104.663901621564
 30
0.0
 10
816.7768023258386
 20
2095.815349611022
 30
0.0
 10
823.3194175334129
 20
2086.502225685991
 30
0.0
 10
829.1822091967251
 20
2076.74915739393
 30
0.0
 10
834.2690906700145
 20
2066.573568626339
 30
0.0
 10
838.813891658704
 20
2055.22726252684
 30
0.0
 10
842.5167869702846
 20
2042.647664652714
 30
0.0
 10
844.9301565415508
 20
2028.902941653485
 30
0.0
 10
845.4683586379679
 20
2019.548427956065
 30
0.0
 10
845.4683586379679
 20
2014.978928448749
 30
0.0
  0
SPLINE
  5
FCE
330
A
100
AcDbEntity
  8
MODEL
100
AcDbSpline
210
0.0
220
0.0
230
1.0
 70
     8
 71
     3
 72
    31
 73
    27
 74
     0
 42
0.000000001
 43
0.0000000001
 40
0.0
 40
0.0
 40
0.0
 40
0.0
 40
15.39455987668174
 40
35.55736381164589
 40
58.66697527252038
 40
74.37132038993121
 40
90.83763341976695
 40
106.5700332531398
 40
122.3177298444023
 40
138.8330131437601
 40
154.6159233521528
 40
170.4182724543061
 40
186.9962365859786
 40
202.8451907348032
 40
218.7209596751383
 40
235.3850138241558
 40
251.3261695903358
 40
262.864428499069
 40
274.9744983430377
 40
286.5564973760718
 40
298.1608695834072
 40
310.3415238816649
 40
321.9896841005079
 40
336.3153263956993
 40
351.3429290644356
 40
365.6945447009949
 40
365.6945447009949
 40
365.6945447009949
 40
365.6945447009949
 10
575.4741667057451
 20
2194.95043605477
 30
0.0
 10
570.4147953953279
 20
2194.95043605477
 30
0.0
 10
558.7288180890018
 20
2194.730022735763
 30
0.0
 10
539.4804234767935
 20
2193.525965150475
 30
0.0
 10
520.2244057608832
 20
2191.281337546862
 30
0.0
 10
502.3099373901414
 20
2188.294941472395
 30
0.0
 10
486.9123735153689
 20
2185.063818340712
 30
0.0
 10
471.6609836948546
 20
2181.172980273053
 30
0.0
 10
456.5857426657958
 20
2176.621181675321
 30
0.0
 10
441.7316611603956
 20
2171.373498061897
 30
0.0
 10
427.1466825039379
 20
2165.4066018852
 30
0.0
 10
412.8751544901015
 20
2158.711952300412
 30
0.0
 10
398.9877570927265
 20
2151.24500964254
 30
0.0
 10
385.5613518557066
 20
2142.974903833364
 30
0.0
 10
372.6690465288912
 20
2133.889482860284
 30
0.0
 10
360.4290140019648
 20
2123.941075257945
 30
0.0
 10
350.0183199563244
 20
2114.094563918182
 30
0.0
 10
341.3356340071905
 20
2104.663901621563
 30
0.0
 10
334.1715310856516
 20
2095.815349611022
 30
0.0
 10
327.6289158780701
 20
2086.502225685991
 30
0.0
 10
321.7661242147578
 20
2076.749157393929
 30
0.0
 10
316.6792427414684
 20
2066.573568626339
 30
0.0
 10
312.1344417527789
 20
2055.22726252684
 30
0.0
 10
308.4315464411984
 20
2042.647664652714
 30
0.0
 10
306.0181768699322
 20
2028.902941653485
 30
0.0
 10
305.4799747735224
 20
2019.548427956065
 30
0.0
 10
305.4799747735224
 20
2014.978928448749
 30
0.0
  0
SPLINE
  5
FCF
330
A
100
AcDbEntity
  8
MODEL
100
AcDbSpline
210
0.0
220
0.0
230
1.0
 70
     8
 71
     3
 72
    16
 73
    12
 74
     0
 42
0.000000001
 43
0.0000000001
 40
0.0
 40
0.0
 40
0.0
 40
0.0
 40
7.588795413178041
 40
16.93556544114414
 40
26.2836930300527
 40
35.66487303875809
 40
44.67872134507342
 40
49.4970431866089
 40
54.29098070277081
 40
60.75068492398829
 40
69.85004091432067
 40
69.85004091432067
 40
69.85004091432067
 40
69.85004091432067
 10
575.4741667057451
 20
1972.256619712186
 30
0.0
 10
577.9076694687019
 20
1972.256619712186
 30
0.0
 10
583.3405303110039
 20
1972.702664301913
 30
0.0
 10
591.5255923811847
 20
1974.926732793454
 30
0.0
 10
599.6132674467217
 20
1979.038112292774
 30
0.0
 10
606.6062102356727
 20
1984.687639775244
 30
0.0
 10
611.3643633325255
 20
1990.545736802571
 30
0.0
 10
614.3882076762375
 20
1995.784986615702
 30
0.0
 10
616.4870474593909
 20
2000.573348418455
 30
0.0
 10
618.3457843372807
 20
2006.947232822493
 30
0.0
 10
618.8785140227765
 20
2012.015011628268
 30
0.0
 10
618.8785140227765
 20
2014.978928448749
 30
0.0
  0
SPLINE
  5
FD0
330
A
100
AcDbEntity
  8
MODEL
100
AcDbSpline
210
0.0
220
0.0
230
1.0
 70
     8
 71
     3
 72
    20
 73
    16
 74
     0
 42
0.000000001
 43
0.0000000001
 40
0.0
 40
0.0
 40
0.0
 40
0.0
 40
5.874697630218674
 40
10.69856179143204
 40
15.31013760930727
 40
20.14605909227019
 40
25.01059710878736
 40
29.91237098835842
 40
34.58391825594373
 40
39.49234519108781
 40
44.46220991425603
 40
51.0145499096494
 40
55.69812083472367
 40
61.83427354968384
 40
69.85014342868416
 40
69.85014342868416
 40
69.85014342868416
 40
69.85014342868416
 10
618.8785140227765
 20
2014.978928448749
 30
0.0
 10
618.8785140227765
 20
2016.892483115688
 30
0.0
 10
618.642655829156
 20
2020.37724205815
 30
0.0
 10
617.6966388133869
 20
2025.27852553108
 30
0.0
 10
616.3265391246232
 20
2029.720231426311
 30
0.0
 10
614.4797701663038
 20
2033.994470583667
 30
0.0
 10
612.1261523064159
 20
2038.112066146068
 30
0.0
 10
609.3639510469502
 20
2041.890771314206
 30
0.0
 10
606.2030058004739
 20
2045.348933340653
 30
0.0
 10
602.6748149334007
 20
2048.452784389124
 30
0.0
 10
598.3330556631108
 20
2051.489016283292
 30
0.0
 10
593.7039026306511
 20
2053.909162919154
 30
0.0
 10
588.4709573474529
 20
2055.867252811226
 30
0.0
 10
582.5846092271013
 20
2057.30729707604
 30
0.0
 10
578.0446196480107
 20
2057.701237185312
 30
0.0
 10
575.4741667057451
 20
2057.701237185312
 30
0.0
  0
SPLINE
  5
FD1
330
A
100
AcDbEntity
  8
MODEL
100
AcDbSpline
210
0.0
220
0.0
230
1.0
 70
     8
 71
     3
 72
    16
 73
    12
 74
     0
 42
0.000000001
 43
0.0000000001
 40
0.0
 40
0.0
 40
0.0
 40
0.0
 40
7.588795413178138
 40
16.93556544114442
 40
26.28369303005298
 40
35.66487303875834
 40
44.67872134507363
 40
49.49704318660923
 40
54.29098070277114
 40
60.75068492398855
 40
69.85004091432072
 40
69.85004091432072
 40
69.85004091432072
 40
69.85004091432072
 10
575.4741667057451
 20
2057.701237185312
 30
0.0
 10
573.0406639427883
 20
2057.701237185312
 30
0.0
 10
567.607803100479
 20
2057.255192595585
 30
0.0
 10
559.4227410302983
 20
2055.031124104044
 30
0.0
 10
551.3350659647685
 20
2050.919744604724
 30
0.0
 10
544.3421231758102
 20
2045.270217122254
 30
0.0
 10
539.5839700789575
 20
2039.412120094927
 30
0.0
 10
536.5601257352528
 20
2034.172870281795
 30
0.0
 10
534.4612859520921
 20
2029.384508479042
 30
0.0
 10
532.6025490742022
 20
2023.010624075005
 30
0.0
 10
532.0698193887138
 20
2017.94284526923
 30
0.0
 10
532.0698193887138
 20
2014.978928448749
 30
0.0
  0
SPLINE
  5
FD2
330
A
100
AcDbEntity
  8
MODEL
100
AcDbSpline
210
0.0
220
0.0
230
1.0
 70
     8
 71
     3
 72
    20
 73
    16
 74
     0
 42
0.000000001
 43
0.0000000001
 40
0.0
 40
0.0
 40
0.0
 40
0.0
 40
5.87469763021868
 40
10.69856179143207
 40
15.31013760930731
 40
20.14605909227021
 40
25.01059710878736
 40
29.9123709883584
 40
34.58391825594371
 40
39.49234519108775
 40
44.46220991425595
 40
51.0145499096494
 40
55.69812083472372
 40
61.83427354968384
 40
69.85014342868415
 40
69.85014342868415
 40
69.85014342868415
 40
69.85014342868415
 10
532.0698193887138
 20
2014.978928448749
 30
0.0
 10
532.0698193887138
 20
2013.06537378181
 30
0.0
 10
532.305677582327
 20
2009.580614839347
 30
0.0
 10
533.251694598096
 20
2004.679331366418
 30
0.0
 10
534.621794286867
 20
2000.237625471187
 30
0.0
 10
536.4685632451792
 20
1995.963386313831
 30
0.0
 10
538.8221811050744
 20
1991.84579075143
 30
0.0
 10
541.5843823645328
 20
1988.067085583292
 30
0.0
 10
544.7453276110164
 20
1984.608923556845
 30
0.0
 10
548.2735184780822
 20
1981.505072508374
 30
0.0
 10
552.6152777483721
 20
1978.468840614206
 30
0.0
 10
557.2444307808319
 20
1976.048693978344
 30
0.0
 10
562.4773760640301
 20
1974.090604086272
 30
0.0
 10
568.3637241843817
 20
1972.650559821457
 30
0.0
 10
572.9037137634796
 20
1972.256619712186
 30
0.0
 10
575.4741667057451
 20
1972.256619712186
 30
0.0
  0
CIRCLE
  5
FD3
330
A
100
AcDbEntity
  8
MODEL
100
AcDbCircle
 10
575.4741667057451
 20
2014.978928448749
 30
0.0
 40
21.90000000000146
  0
SPLINE
  5
FD4
330
A
100
AcDbEntity
  8
MODEL
100
AcDbSpline
210
0.0
220
0.0
230
1.0
 70
     8
 71
     3
 72
    22
 73
    18
 74
     0
 42
0.000000001
 43
0.0000000001
 40
0.0
 40
0.0
 40
0.0
 40
0.0
 40
4.046739631852435
 40
7.381430900384258
 40
10.37196221244943
 40
13.22668336339378
 40
16.217380320328
 40
19.20809608157027
 40
22.06284047911499
 40
25.05348009135163
 40
27.90814854448416
 40
30.8987237464029
 40
33.88930401069205
 40
36.74395571941403
 40
39.73456262643541
 40
42.58923779079269
 40
45.55320370067558
 40
45.55320370067558
 40
45.55320370067558
 40
45.55320370067558
 10
575.4741667057451
 20
2177.258294356612
 30
0.0
 10
574.1340626263836
 20
2177.258294356612
 30
0.0
 10
571.6897845800477
 20
2177.395215858931
 30
0.0
 10
568.4971026459307
 20
2177.923932911776
 30
0.0
 10
565.9956741078267
 20
2178.622049532682
 30
0.0
 10
563.9759474543816
 20
2179.469744097011
 30
0.0
 10
562.4241062498468
 20
2180.458642431659
 30
0.0
 10
561.4170120197005
 20
2181.549246749774
 30
0.0
 10
560.9838694717319
 20
2182.693508203407
 30
0.0
 10
561.1394697788483
 20
2183.828254257437
 30
0.0
 10
561.8821730324262
 20
2184.941436829534
 30
0.0
 10
563.1801551560557
 20
2185.971790316202
 30
0.0
 10
564.991535074324
 20
2186.874477804982
 30
0.0
 10
567.2295045078417
 20
2187.615966405655
 30
0.0
 10
569.7658925792048
 20
2188.159275133237
 30
0.0
 10
572.5648131040716
 20
2188.498272890534
 30
0.0
 10
574.4923090732473
 20
2188.574874987625
 30
0.0
 10
575.4741667057451
 20
2188.574874987625
 30
0.0
  0
SPLINE
  5
FD5
330
A
100
AcDbEntity
  8
MODEL
100
AcDbSpline
210
0.0
220
0.0
230
1.0
 70
     8
 71
     3
 72
    14
 73
    10
 74
     0
 42
0.000000001
 43
0.0000000001
 40
0.0
 40
0.0
 40
0.0
 40
0.0
 40
4.213380882443496
 40
7.765156105430443
 40
10.89164479990186
 40
13.88230568933291
 40
17.00895777098102
 40
19.99905608400598
 40
22.77671875179868
 40
22.77671875179868
 40
22.77671875179868
 40
22.77671875179868
 10
575.4741667057451
 20
2177.258294356612
 30
0.0
 10
576.8694551161961
 20
2177.258294356612
 30
0.0
 10
579.4407740933593
 20
2177.408348405444
 30
0.0
 10
582.7693156569503
 20
2177.989269911403
 30
0.0
 10
585.3463658735845
 20
2178.757004287838
 30
0.0
 10
587.3679803500409
 20
2179.677053101593
 30
0.0
 10
588.837694783585
 20
2180.72643830148
 30
0.0
 10
589.6981430594014
 20
2181.84355803033
 30
0.0
 10
589.881950070564
 20
2182.594489688624
 30
0.0
 10
589.8820900518322
 20
2182.95565384183
 30
0.0
  0
SPLINE
  5
FD6
330
A
100
AcDbEntity
  8
MODEL
100
AcDbSpline
210
0.0
220
0.0
230
1.0
 70
     8
 71
     3
 72
    14
 73
    10
 74
     0
 42
0.000000001
 43
0.0000000001
 40
0.0
 40
0.0
 40
0.0
 40
0.0
 40
4.424319627288447
 40
8.074053192149528
 40
11.33650410933805
 40
14.59896591174395
 40
17.86145011915468
 40
20.14503729857783
 40
22.7764406266804
 40
22.7764406266804
 40
22.7764406266804
 40
22.7764406266804
 10
589.8820900518322
 20
2182.95565384183
 30
0.0
 10
589.8823130169467
 20
2183.530923715395
 30
0.0
 10
589.4713521802105
 20
2184.578396489974
 30
0.0
 10
587.8903136777944
 20
2185.920631428711
 30
0.0
 10
585.7861720232604
 20
2186.956097504733
 30
0.0
 10
583.2421348346825
 20
2187.749621909994
 30
0.0
 10
580.5999190247376
 20
2188.246492021256
 30
0.0
 10
577.9740313067587
 20
2188.517456130422
 30
0.0
 10
576.3458580545694
 20
2188.574874987625
 30
0.0
 10
575.4741667057451
 20
2188.574874987625
 30
0.0
  0
SPLINE
  5
FD7
330
A
100
AcDbEntity
  8
MODEL
100
AcDbSpline
210
0.0
220
0.0
230
1.0
 70
     8
 71
     3
 72
    28
 73
    24
 74
     0
 42
0.000000001
 43
0.0000000001
 40
0.0
 40
0.0
 40
0.0
 40
0.0
 40
6.291744038320658
 40
16.5133577479463
 40
33.01190813293826
 40
50.26830791488273
 40
65.28271594357096
 40
80.2653334521178
 40
95.21506001261777
 40
111.4762164662487
 40
127.767862641699
 40
144.7993150656978
 40
159.4771005631346
 40
176.4446594439077
 40
191.8470988698254
 40
208.7636256502803
 40
241.0049871531016
 40
273.1875291739646
 40
305.332473780123
 40
338.9821696707517
 40
371.0987255097059
 40
390.9773545896106
 40
403.487408177537
 40
403.487408177537
 40
403.487408177537
 40
403.487408177537
 10
875.4679217657604
 20
2014.978928448749
 30
0.0
 10
875.4679217657604
 20
2012.88184056416
 30
0.0
 10
875.3489904825101
 20
2007.37710109919
 30
0.0
 10
874.4893086187212
 20
1996.400161758392
 30
0.0
 10
872.0213525555655
 20
1981.927609780141
 30
0.0
 10
867.5198033222832
 20
1966.280739788087
 30
0.0
 10
861.650707028034
 20
1951.646030187583
 30
0.0
 10
854.851201090255
 20
1938.279847141421
 30
0.0
 10
846.7396806949537
 20
1925.176933671382
 30
0.0
 10
837.3256886404333
 20
1912.428543599004
 30
0.0
 10
826.4790569895113
 20
1899.941490862718
 30
0.0
 10
815.1013550555208
 20
1888.676238097604
 30
0.0
 10
802.8357658872037
 20
1878.043379768215
 30
0.0
 10
790.3658806096564
 20
1868.519709392524
 30
0.0
 10
776.7383128699939
 20
1859.333022233133
 30
0.0
 10
758.2457603238063
 20
1848.309252394176
 30
0.0
 10
733.8981169864483
 20
1836.302937137531
 30
0.0
 10
703.788477622139
 20
1824.828384271385
 30
0.0
 10
672.3512678117104
 20
1815.873512633701
 30
0.0
 10
640.3000845609049
 20
1809.569646529225
 30
0.0
 10
611.9178750202691
 20
1806.304883127276
 30
0.0
 10
590.4405343664612
 20
1805.166722148932
 30
0.0
 10
579.6440356610174
 20
1805.007425914255
 30
0.0
 10
575.4741667057451
 20
1805.007425914255
 30
0.0
  0
SPLINE
  5
FD8
330
A
100
AcDbEntity
  8
MODEL
100
AcDbSpline
210
0.0
220
0.0
230
1.0
 70
     8
 71
     3
 72
    28
 73
    24
 74
     0
 42
0.000000001
 43
0.0000000001
 40
0.0
 40
0.0
 40
0.0
 40
0.0
 40
6.291744038320665
 40
16.51335774794631
 40
33.01190813293827
 40
50.26830791488276
 40
65.28271594357108
 40
80.26533345211807
 40
95.21506001261804
 40
111.4762164662491
 40
127.7678626416994
 40
144.7993150656982
 40
159.4771005631349
 40
176.444659443908
 40
191.8470988698256
 40
208.7636256502804
 40
241.0049871531011
 40
273.1875291739644
 40
305.3324737801226
 40
338.9821696707513
 40
371.098725509705
 40
390.9773545896097
 40
403.4874081775365
 40
403.4874081775365
 40
403.4874081775365
 40
403.4874081775365
 10
875.4679217657604
 20
2014.978928448749
 30
0.0
 10
875.4679217657604
 20
2017.076016333338
 30
0.0
 10
875.3489904825101
 20
2022.580755798308
 30
0.0
 10
874.4893086187212
 20
2033.557695139106
 30
0.0
 10
872.0213525555655
 20
2048.030247117356
 30
0.0
 10
867.5198033222832
 20
2063.677117109411
 30
0.0
 10
861.650707028034
 20
2078.311826709916
 30
0.0
 10
854.851201090255
 20
2091.678009756078
 30
0.0
 10
846.7396806949537
 20
2104.780923226116
 30
0.0
 10
837.3256886404333
 20
2117.529313298494
 30
0.0
 10
826.4790569895113
 20
2130.01636603478
 30
0.0
 10
815.1013550555208
 20
2141.281618799894
 30
0.0
 10
802.8357658872037
 20
2151.914477129283
 30
0.0
 10
790.3658806096564
 20
2161.438147504974
 30
0.0
 10
776.7383128699939
 20
2170.624834664365
 30
0.0
 10
758.2457603238063
 20
2181.648604503322
 30
0.0
 10
733.8981169864483
 20
2193.654919759967
 30
0.0
 10
703.7884776221463
 20
2205.129472626113
 30
0.0
 10
672.3512678117104
 20
2214.084344263797
 30
0.0
 10
640.3000845609049
 20
2220.388210368273
 30
0.0
 10
611.9178750202691
 20
2223.652973770222
 30
0.0
 10
590.4405343664612
 20
2224.791134748566
 30
0.0
 10
579.6440356610174
 20
2224.950430983243
 30
0.0
 10
575.4741667057451
 20
2224.950430983243
 30
0.0
  0
SPLINE
  5
FD9
330
A
100
AcDbEntity
  8
MODEL
100
AcDbSpline
210
0.0
220
0.0
230
1.0
 70
     8
 71
     3
 72
    28
 73
    24
 74
     0
 42
0.000000001
 43
0.0000000001
 40
0.0
 40
0.0
 40
0.0
 40
0.0
 40
6.29174403832066
 40
16.51335774794631
 40
33.01190813293825
 40
50.26830791488272
 40
65.28271594357115
 40
80.2653334521183
 40
95.21506001261848
 40
111.4762164662494
 40
127.7678626416997
 40
144.7993150656985
 40
159.4771005631355
 40
176.4446594439087
 40
191.8470988698263
 40
208.763625650281
 40
241.0049871531017
 40
273.1875291739651
 40
305.3324737801237
 40
338.9821696707527
 40
371.0987255097066
 40
390.9773545896114
 40
403.4874081775368
 40
403.4874081775368
 40
403.4874081775368
 40
403.4874081775368
 10
275.4804116457299
 20
2014.978928448749
 30
0.0
 10
275.4804116457299
 20
2017.076016333338
 30
0.0
 10
275.5993429289729
 20
2022.580755798308
 30
0.0
 10
276.4590247927617
 20
2033.557695139106
 30
0.0
 10
278.9269808559175
 20
2048.030247117356
 30
0.0
 10
283.428530089207
 20
2063.677117109411
 30
0.0
 10
289.2976263834489
 20
2078.311826709916
 30
0.0
 10
296.0971323212352
 20
2091.678009756078
 30
0.0
 10
304.2086527165366
 20
2104.780923226117
 30
0.0
 10
313.6226447710496
 20
2117.529313298494
 30
0.0
 10
324.4692764219717
 20
2130.01636603478
 30
0.0
 10
335.8469783559694
 20
2141.281618799895
 30
0.0
 10
348.1125675242793
 20
2151.914477129283
 30
0.0
 10
360.5824528018265
 20
2161.438147504974
 30
0.0
 10
374.2100205414963
 20
2170.624834664366
 30
0.0
 10
392.7025730876767
 20
2181.648604503322
 30
0.0
 10
417.0502164250347
 20
2193.654919759967
 30
0.0
 10
447.159855789344
 20
2205.129472626113
 30
0.0
 10
478.5970655997799
 20
2214.084344263797
 30
0.0
 10
510.6482488505781
 20
2220.388210368273
 30
0.0
 10
539.0304583912211
 20
2223.652973770222
 30
0.0
 10
560.5077990450291
 20
2224.791134748566
 30
0.0
 10
571.3042977504729
 20
2224.950430983243
 30
0.0
 10
575.4741667057451
 20
2224.950430983243
 30
0.0
  0
SPLINE
  5
FDA
330
A
100
AcDbEntity
  8
MODEL
100
AcDbSpline
210
0.0
220
0.0
230
1.0
 70
     8
 71
     3
 72
    28
 73
    24
 74
     0
 42
0.000000001
 43
0.0000000001
 40
0.0
 40
0.0
 40
0.0
 40
0.0
 40
6.291744038320673
 40
16.51335774794634
 40
33.01190813293832
 40
50.2683079148828
 40
65.28271594357163
 40
80.26533345211917
 40
95.21506001261973
 40
111.4762164662507
 40
127.7678626417011
 40
144.7993150656999
 40
159.4771005631368
 40
176.4446594439098
 40
191.8470988698272
 40
208.7636256502821
 40
241.0049871531031
 40
273.1875291739665
 40
305.3324737801246
 40
338.9821696707534
 40
371.0987255097074
 40
390.977354589612
 40
403.4874081775368
 40
403.4874081775368
 40
403.4874081775368
 40
403.4874081775368
 10
275.4804116457299
 20
2014.978928448749
 30
0.0
 10
275.4804116457299
 20
2012.88184056416
 30
0.0
 10
275.5993429289729
 20
2007.37710109919
 30
0.0
 10
276.4590247927617
 20
1996.400161758392
 30
0.0
 10
278.9269808559175
 20
1981.927609780141
 30
0.0
 10
283.428530089207
 20
1966.280739788086
 30
0.0
 10
289.2976263834489
 20
1951.646030187582
 30
0.0
 10
296.0971323212352
 20
1938.279847141419
 30
0.0
 10
304.2086527165366
 20
1925.176933671381
 30
0.0
 10
313.6226447710496
 20
1912.428543599003
 30
0.0
 10
324.4692764219717
 20
1899.941490862717
 30
0.0
 10
335.8469783559694
 20
1888.676238097602
 30
0.0
 10
348.1125675242865
 20
1878.043379768214
 30
0.0
 10
360.5824528018265
 20
1868.519709392523
 30
0.0
 10
374.2100205414963
 20
1859.333022233131
 30
0.0
 10
392.7025730876767
 20
1848.309252394175
 30
0.0
 10
417.0502164250347
 20
1836.302937137531
 30
0.0
 10
447.159855789344
 20
1824.828384271385
 30
0.0
 10
478.5970655997799
 20
1815.873512633701
 30
0.0
 10
510.6482488505781
 20
1809.569646529225
 30
0.0
 10
539.0304583912211
 20
1806.304883127276
 30
0.0
 10
560.5077990450291
 20
1805.166722148932
 30
0.0
 10
571.3042977504729
 20
1805.007425914255
 30
0.0
 10
575.4741667057451
 20
1805.007425914255
 30
0.0
  0
ARC
  5
FDC
330
A
100
AcDbEntity
  8
HIDDEN
100
AcDbCircle
 10
1590.662090528373
 20
1189.180744044656
 30
0.0
 40
46.3451829731763
100
AcDbArc
 50
292.1061279338601
 51
324.2057780930163
  0
ARC
  5
FDD
330
A
100
AcDbEntity
  8
HIDDEN
100
AcDbCircle
 10
1590.662090528373
 20
1189.180744044656
 30
0.0
 40
56.34518297317311
100
AcDbArc
 50
292.1061279338608
 51
324.2057780930194
  0
ARC
  5
FDF
330
A
100
AcDbEntity
  8
HIDDEN
100
AcDbCircle
 10
1388.719339821904
 20
1189.180752871855
 30
0.0
 40
46.3451829731763
100
AcDbArc
 50
215.794216897848
 51
247.8938670572986
  0
SPLINE
  5
FE1
330
A
100
AcDbEntity
  8
MODEL
100
AcDbSpline
210
0.0
220
0.0
230
1.0
 70
     8
 71
     3
 72
    41
 73
    37
 74
     0
 42
0.000000001
 43
0.0000000001
 40
0.0
 40
0.0
 40
0.0
 40
0.0
 40
15.39455987668175
 40
35.55736381164589
 40
58.66697527252038
 40
74.37132038993124
 40
90.83763341976703
 40
106.5700332531399
 40
122.3177298444023
 40
138.8330131437602
 40
154.6159233521528
 40
170.4182724543061
 40
186.9962365859786
 40
202.8451907348031
 40
218.7209596751381
 40
235.3850138241556
 40
251.3261695903357
 40
262.8644284990689
 40
274.9744983430379
 40
286.5564973760721
 40
298.1608695834076
 40
310.3415238816653
 40
321.9896841005083
 40
336.3153263956997
 40
351.3429290644362
 40
360.2272934569166
 40
365.6945447009955
 40
365.6945447009955
 40
365.6945447009955
 40
365.6945928716264
 40
365.6945928716264
 40
365.6945928716264
 40
551.3781293807135
 40
551.3781293807135
 40
551.3781293807135
 40
569.6939829597686
 40
569.6939829597686
 40
569.6939829597686
 40
569.6939829597686
 10
1304.009823359347
 20
1251.139442641337
 30
0.0
 10
1304.009823135051
 20
1251.139442417049
 30
0.0
 10
1304.234429308164
 20
1251.13944188912
 30
0.0
 10
1305.460767138162
 20
1251.139440982143
 30
0.0
 10
1307.746090228686
 20
1251.139440028388
 30
0.0
 10
1310.786188681961
 20
1251.139439100915
 30
0.0
 10
1314.07541455309
 20
1251.139438273966
 30
0.0
 10
1318.036685851506
 20
1251.13943742385
 30
0.0
 10
1322.671988922551
 20
1251.139436551732
 30
0.0
 10
1328.017998573088
 20
1251.139435657939
 30
0.0
 10
1334.10008867294
 20
1251.139434743387
 30
0.0
 10
1340.928942416709
 20
1251.139433809518
 30
0.0
 10
1348.552851266673
 20
1251.139432857255
 30
0.0
 10
1357.00710819199
 20
1251.139431888374
 30
0.0
 10
1366.308440656723
 20
1251.139430905349
 30
0.0
 10
1376.511711264118
 20
1251.139429910951
 30
0.0
 10
1386.632482947594
 20
1251.139429001012
 30
0.0
 10
1396.346670088411
 20
1251.139428185574
 30
0.0
 10
1405.479493426576
 20
1251.13942746321
 30
0.0
 10
1415.112628612676
 20
1251.139426746331
 30
0.0
 10
1425.223175795431
 20
1251.139426038701
 30
0.0
 10
1435.796048330538
 20
1251.139425345448
 30
0.0
 10
1447.611742581425
 20
1251.139424622006
 30
0.0
 10
1460.740705908256
 20
1251.139423879073
 30
0.0
 10
1473.315939585789
 20
1251.139423232786
 30
0.0
 10
1483.084305468505
 20
1251.13942277189
 30
0.0
 10
1487.868431798978
 20
1251.139422558188
 30
0.0
 10
1489.690705837
 20
1251.139422478531
 30
0.0
 10
1489.690721892616
 20
1251.139422478524
 30
0.0
 10
1489.690737948231
 20
1251.139422478524
 30
0.0
 10
1489.690754003847
 20
1251.139422478524
 30
0.0
 10
1551.58040380214
 20
1251.139419849153
 30
0.0
 10
1613.470053600433
 20
1251.139417219774
 30
0.0
 10
1675.359703398727
 20
1251.139414590403
 30
0.0
 10
1681.464508299987
 20
1251.139414331037
 30
0.0
 10
1687.569313201248
 20
1251.139414071679
 30
0.0
 10
1693.674118102509
 20
1251.139413812313
 30
0.0
  0
SPLINE
  5
FE2
330
A
100
AcDbEntity
  8
HIDDEN
100
AcDbSpline
210
0.0
220
0.0
230
1.0
 70
     8
 71
     7
 72
    16
 73
     8
 74
     0
 42
0.000000001
 43
0.0000000001
 40
0.1186007593006308
 40
0.1186007593006308
 40
0.1186007593006308
 40
0.1186007593006308
 40
0.1186007593006308
 40
0.1186007593006308
 40
0.1186007593006308
 40
0.1186007593006308
 40
0.9612699988107102
 40
0.9612699988107102
 40
0.9612699988107102
 40
0.9612699988107102
 40
0.9612699988107102
 40
0.9612699988107102
 40
0.9612699988107102
 40
0.9612699988107102
 10
1351.127702596919
 20
1162.074576535777
 30
0.0
 10
1343.202462935029
 20
1173.065530427504
 30
0.0
 10
1336.022456032277
 20
1184.59386840122
 30
0.0
 10
1329.55743355417
 20
1196.54569848575
 30
0.0
 10
1323.751887527595
 20
1208.823106150862
 30
0.0
 10
1318.546100045571
 20
1221.356031601294
 30
0.0
 10
1313.885238775403
 20
1234.090153455325
 30
0.0
 10
1309.719210095785
 20
1246.984137764934
 30
0.0
  0
ARC
  5
FE4
330
A
100
AcDbEntity
  8
HIDDEN
100
AcDbCircle
 10
1304.009823097078
 20
1245.139442641345
 30
0.0
 40
6.0
100
AcDbArc
 50
17.90557372263417
 51
89.99999749537496
  0
ARC
  5
FE5
330
A
100
AcDbEntity
  8
HIDDEN
100
AcDbCircle
 10
1675.371612145262
 20
1245.139426408603
 30
0.0
 40
6.0
100
AcDbArc
 50
89.99999749537496
 51
162.094421268553
  0
ARC
  5
FE6
102
{ACAD_REACTORS
330
1208
102
}
330
A
100
AcDbEntity
  8
MODEL
100
AcDbCircle
 10
1285.719215086678
 20
1245.139443440849
 30
0.0
 40
6.000000000000042
100
AcDbArc
 50
89.99999749537496
 51
196.7257604543808
  0
ARC
  5
FE7
330
A
100
AcDbEntity
  8
MODEL
100
AcDbCircle
 10
1693.662220155662
 20
1245.139425609092
 30
0.0
 40
6.000000000000042
100
AcDbArc
 50
343.274234536651
 51
89.99999749537496
  0
SPLINE
  5
FE8
330
A
100
AcDbEntity
  8
HIDDEN
100
AcDbSpline
210
0.0
220
0.0
230
1.0
 70
     8
 71
     7
 72
    16
 73
     8
 74
     0
 42
0.000000001
 43
0.0000000001
 40
0.1369567847846957
 40
0.1369567847846957
 40
0.1369567847846957
 40
0.1369567847846957
 40
0.1369567847846957
 40
0.1369567847846957
 40
0.1369567847846957
 40
0.1369567847846957
 40
0.9550116963081758
 40
0.9550116963081758
 40
0.9550116963081758
 40
0.9550116963081758
 40
0.9550116963081758
 40
0.9550116963081758
 40
0.9550116963081758
 40
0.9550116963081758
 10
1371.278561293484
 20
1146.242480559848
 30
0.0
 10
1381.65306833754
 20
1142.028536449985
 30
0.0
 10
1392.233371728706
 20
1138.321120066734
 30
0.0
 10
1402.979033921411
 20
1135.106546589856
 30
0.0
 10
1413.853385584955
 20
1132.362873175784
 30
0.0
 10
1424.825688399784
 20
1130.063586156654
 30
0.0
 10
1435.870820061822
 20
1128.181352776408
 30
0.0
 10
1446.968403706984
 20
1126.689226140674
 30
0.0
  0
SPLINE
  5
FEA
330
A
100
AcDbEntity
  8
HIDDEN
100
AcDbSpline
210
0.0
220
0.0
230
1.0
 70
     8
 71
     3
 72
    16
 73
    12
 74
     0
 42
0.000000001
 43
0.0000000001
 40
0.0
 40
0.0
 40
0.0
 40
0.0
 40
7.588795413178041
 40
16.93556544114414
 40
26.2836930300527
 40
35.66487303875809
 40
44.67872134507342
 40
49.4970431866089
 40
54.29098070277081
 40
60.75068492398829
 40
69.85004091432067
 40
69.85004091432067
 40
69.85004091432067
 40
69.85004091432067
 10
1446.968403706984
 20
1126.689226140674
 30
0.0
 10
1446.968403600609
 20
1126.689226034307
 30
0.0
 10
1447.414447952537
 20
1126.681840382508
 30
0.0
 10
1449.638516084678
 20
1126.644813506513
 30
0.0
 10
1453.749895227907
 20
1126.58608589394
 30
0.0
 10
1459.399422402023
 20
1126.524675250037
 30
0.0
 10
1465.257519219429
 20
1126.480458603384
 30
0.0
 10
1470.496768899155
 20
1126.452300987714
 30
0.0
 10
1475.285130609316
 20
1126.432804220849
 30
0.0
 10
1481.659014931351
 20
1126.415639754747
 30
0.0
 10
1486.72679371363
 20
1126.41075021764
 30
0.0
 10
1489.690710534111
 20
1126.410750088084
 30
0.0
  0
SPLINE
  5
FEB
330
A
100
AcDbEntity
  8
HIDDEN
100
AcDbSpline
210
0.0
220
0.0
230
1.0
 70
     8
 71
     7
 72
    16
 73
     8
 74
     0
 42
0.000000001
 43
0.0000000001
 40
0.1369567847846957
 40
0.1369567847846957
 40
0.1369567847846957
 40
0.1369567847846957
 40
0.1369567847846957
 40
0.1369567847846957
 40
0.1369567847846957
 40
0.1369567847846957
 40
0.955011696308176
 40
0.955011696308176
 40
0.955011696308176
 40
0.955011696308176
 40
0.955011696308176
 40
0.955011696308176
 40
0.955011696308176
 40
0.955011696308176
 10
1608.102865303003
 20
1146.242470207928
 30
0.0
 10
1597.728357890558
 20
1142.028527005036
 30
0.0
 10
1587.148054175278
 20
1138.32111154674
 30
0.0
 10
1576.402391701546
 20
1135.106539009276
 30
0.0
 10
1565.528039798143
 20
1132.362866545873
 30
0.0
 10
1554.555736782301
 20
1130.063580485976
 30
0.0
 10
1543.510604955717
 20
1128.18134807133
 30
0.0
 10
1532.413021180112
 20
1126.689222405772
 30
0.0
  0
SPLINE
  5
FEC
330
A
100
AcDbEntity
  8
HIDDEN
100
AcDbSpline
210
0.0
220
0.0
230
1.0
 70
     8
 71
     3
 72
    12
 73
     8
 74
     0
 42
0.000000001
 43
0.0000000001
 40
0.1369567847846958
 40
0.1369567847846958
 40
0.1369567847846958
 40
0.1369567847846958
 40
0.3279181360170076
 40
0.3279181360170076
 40
0.6734305912700085
 40
0.6734305912700085
 40
0.955011696308176
 40
0.955011696308176
 40
0.955011696308176
 40
0.955011696308176
 10
1611.866098859495
 20
1136.977586333893
 30
0.0
 10
1606.004137695929
 20
1134.596560380682
 30
0.0
 10
1600.067228378337
 20
1132.418798210134
 30
0.0
 10
1583.230436846194
 20
1126.847644612621
 30
0.0
 10
1572.204399466117
 20
1123.897602387666
 30
0.0
 10
1552.023049723789
 20
1119.574026590983
 30
0.0
 10
1542.8984652206
 20
1118.009056954054
 30
0.0
 10
1533.745580068566
 20
1116.778405748764
 30
0.0
  0
SPLINE
  5
FED
330
A
100
AcDbEntity
  8
HIDDEN
100
AcDbSpline
210
0.0
220
0.0
230
1.0
 70
     8
 71
     3
 72
    20
 73
    16
 74
     0
 42
0.000000001
 43
0.0000000001
 40
0.0
 40
0.0
 40
0.0
 40
0.0
 40
5.874697630218674
 40
10.69856179143204
 40
15.31013760930727
 40
20.14605909227019
 40
25.01059710878736
 40
29.91237098835842
 40
34.58391825594373
 40
39.49234519108781
 40
44.46220991425603
 40
51.0145499096494
 40
55.69812083472367
 40
61.83427354968384
 40
69.85014342868416
 40
69.85014342868416
 40
69.85014342868416
 40
69.85014342868416
 10
1489.690710534111
 20
1126.410750088084
 30
0.0
 10
1491.604265201046
 20
1126.410750004439
 30
0.0
 10
1495.089024153919
 20
1126.412915852203
 30
0.0
 10
1499.990307668575
 20
1126.421630469047
 30
0.0
 10
1504.432013624248
 20
1126.434296216836
 30
0.0
 10
1508.70625286308
 20
1126.451445223536
 30
0.0
 10
1512.823848529321
 20
1126.47336960292
 30
0.0
 10
1516.602553819323
 20
1126.499025871896
 30
0.0
 10
1520.060715985203
 20
1126.527941793442
 30
0.0
 10
1523.164567189257
 20
1126.559129454412
 30
0.0
 10
1526.200799274777
 20
1126.595049133144
 30
0.0
 10
1528.620946114456
 20
1126.628676309991
 30
0.0
 10
1530.57903623659
 20
1126.658849260921
 30
0.0
 10
1532.019080759741
 20
1126.682652065405
 30
0.0
 10
1532.413021067749
 20
1126.689222293417
 30
0.0
 10
1532.413021180112
 20
1126.689222405772
 30
0.0
  0
ARC
  5
FEE
330
A
100
AcDbEntity
  8
HIDDEN
100
AcDbCircle
 10
1444.96956407466
 20
1111.823001329909
 30
0.0
 40
15.0
100
AcDbArc
 50
50.00014950488999
 51
82.34221652461135
  0
ARC
  5
FEF
330
A
100
AcDbEntity
  8
HIDDEN
100
AcDbCircle
 10
1534.411859512782
 20
1111.822997420261
 30
0.0
 40
14.99999999999999
100
AcDbArc
 50
97.65777846649598
 51
129.9998454862987
  0
ARC
  5
FF0
330
A
100
AcDbEntity
  8
HIDDEN
100
AcDbCircle
 10
1534.411859512782
 20
1111.822997420261
 30
0.0
 40
5.000000000003189
100
AcDbArc
 50
97.65777846648767
 51
129.9998454863202
  0
ARC
  5
FF1
330
A
100
AcDbEntity
  8
MODEL
100
AcDbCircle
 10
1060.749325545696
 20
1435.331471413467
 30
0.0
 40
666.8719591954294
100
AcDbArc
 50
330.2243859286538
 51
343.2743331298205
  0
ARC
  5
FF2
330
A
100
AcDbEntity
  8
HIDDEN
100
AcDbCircle
 10
1060.749325545696
 20
1435.331471413467
 30
0.0
 40
656.8719591954326
100
AcDbArc
 50
331.2203769353142
 51
342.4477181468105
  0
ARC
  5
FF3
330
A
100
AcDbEntity
  8
HIDDEN
100
AcDbCircle
 10
1684.178420356761
 20
1238.139426023647
 30
0.0
 40
3.0
100
AcDbArc
 50
342.4477181468021
 51
89.99999749537496
  0
ARC
  5
FF4
330
A
100
AcDbEntity
  8
MODEL
100
AcDbCircle
 10
1918.632126323765
 20
1435.331433914222
 30
0.0
 40
666.8719591954408
100
AcDbArc
 50
196.7256618611975
 51
209.7756090623596
  0
ARC
  5
FF7
330
A
100
AcDbEntity
  8
MODEL
100
AcDbCircle
 10
1345.010510754591
 20
1107.13943431241
 30
0.0
 40
6.0
100
AcDbArc
 50
209.7755372160464
 51
269.999997495375
  0
ARC
  5
FF8
330
A
100
AcDbEntity
  8
MODEL
100
AcDbCircle
 10
1634.370912423403
 20
1107.139421664068
 30
0.0
 40
6.0
100
AcDbArc
 50
269.999997495375
 51
330.2244577749353
  0
SPLINE
  5
FFB
330
A
100
AcDbEntity
  8
MODEL
100
AcDbSpline
210
0.0
220
0.0
230
1.0
 70
     8
 71
     3
 72
    12
 73
     8
 74
     0
 42
0.000000001
 43
0.0000000001
 40
6.633048961249121
 40
6.633048961249121
 40
6.633048961249121
 40
6.633048961249121
 40
23.90458310525554
 40
36.65126788343171
 40
45.03383961349738
 40
52.62244590855227
 40
54.60340353864288
 40
54.60340353864288
 40
54.60340353864288
 40
54.60340353864288
 10
1589.201784026819
 20
1100.145593709376
 30
0.0
 10
1583.647347149631
 20
1098.429181051453
 30
0.0
 10
1573.974805240041
 20
1095.50890052469
 30
0.0
 10
1561.552455212661
 20
1091.893657012965
 30
0.0
 10
1552.221737262904
 20
1089.258752735468
 30
0.0
 10
1546.359971326684
 20
1087.650396602736
 30
0.0
 10
1543.221584078552
 20
1086.808704203961
 30
0.0
 10
1542.571222651527
 20
1086.635227086246
 30
0.0
  0
SPLINE
  5
1002
330
A
100
AcDbEntity
  8
HIDDEN
100
AcDbSpline
210
0.0
220
0.0
230
1.0
 70
     8
 71
     7
 72
    16
 73
     8
 74
     0
 42
0.000000001
 43
0.0000000001
 40
0.1186007593006308
 40
0.1186007593006308
 40
0.1186007593006308
 40
0.1186007593006308
 40
0.1186007593006308
 40
0.1186007593006308
 40
0.1186007593006308
 40
0.1186007593006308
 40
0.5340910017102859
 40
0.5340910017102859
 40
0.5340910017102859
 40
0.5340910017102859
 40
0.5340910017102859
 40
0.5340910017102859
 40
0.5340910017102859
 40
0.5340910017102859
 10
1628.253725383659
 20
1162.07456442221
 30
0.0
 10
1632.161379767024
 20
1167.493812680963
 30
0.0
 10
1635.88785872637
 20
1173.043705769347
 30
0.0
 10
1639.436788133028
 20
1178.710591438894
 30
0.0
 10
1642.813286796789
 20
1184.481761767047
 30
0.0
 10
1646.023353036765
 20
1190.345799284614
 30
0.0
 10
1649.073423020238
 20
1196.292578342405
 30
0.0
 10
1651.970081657035
 20
1202.313158057716
 30
0.0
  0
SPLINE
  5
1003
330
A
100
AcDbEntity
  8
HIDDEN
100
AcDbSpline
210
0.0
220
0.0
230
1.0
 70
     8
 71
     3
 72
    13
 73
     9
 74
     0
 42
0.000000001
 43
0.0000000001
 40
0.1186007593006307
 40
0.1186007593006307
 40
0.1186007593006307
 40
0.1186007593006307
 40
0.2701361001095172
 40
0.2701361001095172
 40
0.5340910017102859
 40
0.5340910017102859
 40
0.5340910017102859
 40
0.5361942029112748
 40
0.5361942029112748
 40
0.5361942029112748
 40
0.5361942029112748
 10
1636.364953443119
 20
1156.225805633598
 30
0.0
 10
1639.833000341578
 20
1161.0353935019
 30
0.0
 10
1643.118464964422
 20
1165.962726764416
 30
0.0
 10
1651.65185683915
 20
1179.730938487568
 30
0.0
 10
1656.547174641225
 20
1188.761360666618
 30
0.0
 10
1660.981349361866
 20
1197.97760107483
 30
0.0
 10
1661.016681009586
 20
1198.051036376766
 30
0.0
 10
1661.051983379543
 20
1198.124483476209
 30
0.0
 10
1661.087256473179
 20
1198.197942372592
 30
0.0
  0
ARC
  5
1004
330
A
100
AcDbEntity
  8
HIDDEN
100
AcDbCircle
 10
1300.294023773758
 20
1366.128911002516
 30
0.0
 40
388.1086819996424
100
AcDbArc
 50
339.2744090122343
 51
342.1221806492528
  0
ARC
  5
1005
330
A
100
AcDbEntity
  8
HIDDEN
100
AcDbCircle
 10
1300.294023773758
 20
1366.128911002516
 30
0.0
 40
398.1086819996392
100
AcDbArc
 50
339.2465271883411
 51
341.3921420095448
  0
ARC
  5
1006
330
A
100
AcDbEntity
  8
HIDDEN
100
AcDbCircle
 10
1670.233135474681
 20
1225.945877409808
 30
0.0
 40
2.5
100
AcDbArc
 50
247.0837464577345
 51
339.2465271883979
  0
ARC
  5
1007
330
A
100
AcDbEntity
  8
HIDDEN
100
AcDbCircle
 10
1680.434611651896
 20
1238.13942618729
 30
0.0
 40
3.0
100
AcDbArc
 50
89.99999749537496
 51
161.3921420095152
  0
ARC
  5
1008
330
A
100
AcDbEntity
  8
HIDDEN
100
AcDbCircle
 10
-282.4598587956698
 20
2044.261087470549
 30
0.0
 40
2109.714556607698
100
AcDbArc
 50
336.4792324088299
 51
336.8700108072892
  0
ARC
  5
1009
330
A
100
AcDbEntity
  8
HIDDEN
100
AcDbCircle
 10
-706.9303695458348
 20
2225.853348992495
 30
0.0
 40
2571.397251186743
100
AcDbArc
 50
336.864322661748
 51
337.1850926298135
  0
ARC
  5
100A
330
A
100
AcDbEntity
  8
HIDDEN
100
AcDbCircle
 10
1665.624435191154
 20
1227.894209484728
 30
0.0
 40
2.49999999999996
100
AcDbArc
 50
159.2457130435821
 51
247.0837464577324
  0
ARC
  5
100B
330
A
100
AcDbEntity
  8
HIDDEN
100
AcDbCircle
 10
1654.222898583243
 20
1201.229268811998
 30
0.0
 40
2.499999999999999
100
AcDbArc
 50
67.08374645773443
 51
154.306573728069
  0
LINE
  5
100C
330
A
100
AcDbEntity
  8
HIDDEN
100
AcDbLine
 10
1513.288200090525
 20
1113.679304695235
 30
0.0
 11
1466.093223659207
 21
1113.679306758188
 31
0.0
  0
LINE
  5
100D
102
{ACAD_REACTORS
330
1226
102
}
330
A
100
AcDbEntity
  8
MODEL
100
AcDbLine
 10
1467.790710197698
 20
1076.310306143349
 30
0.0
 11
1511.590710197701
 21
1076.31030422879
 31
0.0
  0
SPLINE
  5
100F
330
A
100
AcDbEntity
  8
MODEL
100
AcDbSpline
210
0.0
220
0.0
230
1.0
 70
     8
 71
     3
 72
    17
 73
    13
 74
     0
 42
0.000000001
 43
0.0000000001
 40
289.4721628208882
 40
289.4721628208882
 40
289.4721628208882
 40
289.4721628208882
 40
296.9793043020009
 40
311.7859761314098
 40
327.1566595630237
 40
343.2063621445141
 40
360.0489105777004
 40
376.0768351431183
 40
392.8887528734468
 40
408.8791736249823
 40
423.9910204669372
 40
428.5053214361572
 40
428.5053214361572
 40
428.5053214361572
 40
428.5053214361572
 10
1631.842185990116
 20
1101.139421774604
 30
0.0
 10
1631.842186461613
 20
1101.139421665217
 30
0.0
 10
1631.76132848771
 20
1101.139421343634
 30
0.0
 10
1631.218842663608
 20
1101.139420818652
 30
0.0
 10
1629.876012360578
 20
1101.139420206184
 30
0.0
 10
1627.728629919884
 20
1101.139419602927
 30
0.0
 10
1624.745457033433
 20
1101.139419032317
 30
0.0
 10
1620.873999507329
 20
1101.139418497454
 30
0.0
 10
1616.214265766774
 20
1101.139418019133
 30
0.0
 10
1610.768068396932
 20
1101.139417600591
 30
0.0
 10
1606.074434433317
 20
1101.139417328841
 30
0.0
 10
1603.252461147846
 20
1101.139417194185
 30
0.0
 10
1602.590701079195
 20
1101.139417164041
 30
0.0
  0
LINE
  5
1011
330
A
100
AcDbEntity
  8
MODEL
100
AcDbLine
 10
1453.430956541249
 20
1101.139422160496
 30
0.0
 11
1345.010510492308
 21
1101.13943431241
 31
0.0
  0
ARC
  5
1014
330
A
100
AcDbEntity
  8
MODEL
100
AcDbCircle
 10
1527.025270536159
 20
1079.001883492622
 30
0.0
 40
3.000128863520708
100
AcDbArc
 50
106.187407016469
 51
174.9984712166294
  0
LINE
  5
1015
330
A
100
AcDbEntity
  8
MODEL
100
AcDbLine
 10
1693.662220417932
 20
1251.139425609092
 30
0.0
 11
1675.371612407531
 21
1251.139426408603
 31
0.0
  0
LINE
  5
1016
330
A
100
AcDbEntity
  8
HIDDEN
100
AcDbLine
 10
1684.178420487895
 20
1241.139426023647
 30
0.0
 11
1680.434611783045
 21
1241.13942618729
 31
0.0
  0
LINE
  5
1017
330
A
100
AcDbEntity
  8
MODEL
100
AcDbLine
 10
1304.009823359347
 20
1251.139442641337
 30
0.0
 11
1285.719215348947
 21
1251.139443440849
 31
0.0
  0
LINE
  5
1019
330
A
100
AcDbEntity
  8
HIDDEN
100
AcDbLine
 10
1454.611348236695
 20
1123.313693135575
 30
0.0
 11
1466.093223659207
 21
1113.679306758188
 31
0.0
  0
LINE
  5
101A
330
A
100
AcDbEntity
  8
HIDDEN
100
AcDbLine
 10
1513.288200090525
 20
1113.679304695235
 30
0.0
 11
1524.770076355295
 21
1123.313690068839
 31
0.0
  0
LINE
  5
101B
330
A
100
AcDbEntity
  8
HIDDEN
100
AcDbLine
 10
1523.207683042436
 20
1108.948650242475
 30
0.0
 11
1531.197931793615
 21
1115.653228303118
 31
0.0
  0
ARC
  5
101C
330
A
100
AcDbEntity
  8
HIDDEN
100
AcDbCircle
 10
1525.136039673935
 20
1106.650511712766
 30
0.0
 40
3.0
100
AcDbArc
 50
129.9998454859757
 51
179.0067068118742
  0
LINE
  5
101D
330
A
100
AcDbEntity
  8
HIDDEN
100
AcDbLine
 10
1467.773372311583
 20
1076.310306144107
 30
0.0
 11
1467.164416024987
 21
1111.433174239412
 31
0.0
  0
LINE
  5
101E
330
A
100
AcDbEntity
  8
HIDDEN
100
AcDbLine
 10
1512.217007528382
 20
1111.433172270101
 30
0.0
 11
1512.089424685134
 21
1104.074593548399
 31
0.0
  0
LINE
  5
101F
330
A
100
AcDbEntity
  8
HIDDEN
100
AcDbLine
 10
1511.881369002537
 20
1092.074593548399
 30
0.0
 11
1511.608048171239
 21
1076.310304228032
 31
0.0
  0
LINE
  5
1020
330
A
100
AcDbEntity
  8
HIDDEN
100
AcDbLine
 10
1522.136490480293
 20
1106.702517817348
 30
0.0
 11
1522.090927598833
 21
1104.074593548399
 31
0.0
  0
ARC
  5
1021
330
A
100
AcDbEntity
  8
HIDDEN
100
AcDbCircle
 10
1515.216557972004
 20
1111.381165569392
 30
0.0
 40
3.000001260130151
100
AcDbArc
 50
129.9998564554787
 51
179.0066958425365
  0
ARC
  5
1022
330
A
100
AcDbEntity
  8
HIDDEN
100
AcDbCircle
 10
1464.164865576809
 20
1111.381167800935
 30
0.0
 40
3.000001260131097
100
AcDbArc
 50
0.9932991487131456
 51
50.0001385357162
  0
LINE
  5
1024
330
A
100
AcDbEntity
  8
HIDDEN
100
AcDbLine
 10
1623.27924078757
 20
1121.123556701712
 30
0.0
 11
1612.303963027358
 21
1121.506822326808
 31
0.0
  0
ARC
  5
102B
330
A
100
AcDbEntity
  8
HIDDEN
100
AcDbCircle
 10
1622.720847245737
 20
1105.133302393069
 30
0.0
 40
16.00000113133005
100
AcDbArc
 50
54.13066093399996
 51
87.9999893152789
  0
ARC
  5
102C
330
A
100
AcDbEntity
  8
HIDDEN
100
AcDbCircle
 10
1633.853684952267
 20
1120.530054245019
 30
0.0
 40
3.0
100
AcDbArc
 50
234.1306609340224
 51
331.2203769352561
  0
ARC
  5
102E
330
A
100
AcDbEntity
  8
HIDDEN
100
AcDbCircle
 10
1611.745698607078
 20
1105.516424188607
 30
0.0
 40
16.000140368474
100
AcDbArc
 50
88.00126948777724
 51
152.4566617278645
  0
LINE
  5
1034
330
A
100
AcDbEntity
  8
MODEL
100
AcDbLine
 10
1631.842185990116
 20
1101.139421774604
 30
0.0
 11
1634.370912161141
 21
1101.139421664068
 31
0.0
  0
LINE
  5
103C
330
A
100
AcDbEntity
  8
MODEL
100
AcDbLine
 10
1591.737229052599
 20
1100.909103657554
 30
0.0
 11
1526.188894499707
 21
1081.883072192343
 31
0.0
  0
LINE
  5
103D
330
A
100
AcDbEntity
  8
HIDDEN
100
AcDbLine
 10
1588.949685190727
 20
1110.51272793269
 30
0.0
 11
1521.882871916214
 21
1092.074593548399
 31
0.0
  0
LINE
  5
103E
330
A
100
AcDbEntity
  8
MODEL
100
AcDbLine
 10
1592.709900824903
 20
1101.139423152692
 30
0.0
 11
1602.590706968377
 21
1101.13942293306
 31
0.0
  0
ARC
  5
1040
330
A
100
AcDbEntity
  8
MODEL
100
AcDbCircle
 10
1594.524814197636
 20
1091.305762616414
 30
0.0
 40
9.999739501270813
100
AcDbArc
 50
100.4569135084938
 51
106.1865561943314
  0
ARC
  5
1041
330
A
100
AcDbEntity
  8
HIDDEN
100
AcDbCircle
 10
1594.524814197636
 20
1091.305762616414
 30
0.0
 40
19.99973950126762
100
AcDbArc
 50
89.06778342801594
 51
106.1865561943374
  0
ARC
  5
1042
330
A
100
AcDbEntity
  8
HIDDEN
100
AcDbCircle
 10
1594.89900916516
 20
1114.302457927965
 30
0.0
 40
3.0
100
AcDbArc
 50
269.0677834280146
 51
332.4566617278883
  0
LINE
  5
1046
330
A
100
AcDbEntity
  8
MODEL
100
AcDbLine
 10
1455.451119745179
 20
1079.048839454487
 30
0.0
 11
1453.430956541249
 21
1101.139422160496
 31
0.0
  0
LINE
  5
1047
330
A
100
AcDbEntity
  8
MODEL
100
AcDbLine
 10
1524.036565131335
 20
1079.263441690286
 30
0.0
 11
1523.930300889629
 21
1079.048836461158
 31
0.0
  0
LINE
  5
1048
330
A
100
AcDbEntity
  8
MODEL
100
AcDbLine
 10
1520.941716675656
 20
1076.310303820048
 30
0.0
 11
1511.590710197701
 21
1076.31030422879
 31
0.0
  0
LINE
  5
1049
330
A
100
AcDbEntity
  8
MODEL
100
AcDbLine
 10
1467.790710197698
 20
1076.310306143349
 30
0.0
 11
1458.43970371975
 21
1076.310306552097
 31
0.0
  0
ARC
  5
104A
330
A
100
AcDbEntity
  8
MODEL
100
AcDbCircle
 10
1520.941700220445
 20
1079.310321920863
 30
0.0
 40
3.000018100859389
100
AcDbArc
 50
270.000314269574
 51
354.9996807214372
  0
ARC
  5
104B
330
A
100
AcDbEntity
  8
MODEL
100
AcDbCircle
 10
1458.439720437224
 20
1079.310324652905
 30
0.0
 40
3.000018100859311
100
AcDbArc
 50
185.0003142693167
 51
269.9996807220139
  0
LINE
  5
104C
330
A
100
AcDbEntity
  8
HIDDEN
100
AcDbLine
 10
1670.075103645739
 20
1223.298465655082
 30
0.0
 11
1660.729857541266
 21
1201.192666071102
 31
0.0
  0
LINE
  5
104D
330
A
100
AcDbEntity
  8
HIDDEN
100
AcDbLine
 10
1655.196361719131
 20
1203.531956268662
 30
0.0
 11
1659.807065463947
 21
1201.582777228721
 31
0.0
  0
LINE
  5
104E
330
A
100
AcDbEntity
  8
HIDDEN
100
AcDbLine
 10
1669.259672338793
 20
1223.643189953136
 30
0.0
 11
1664.650972055274
 21
1225.591522028064
 31
0.0
  0
ARC
  5
1055
330
A
100
AcDbEntity
  8
MODEL
100
AcDbCircle
 10
1594.262801187188
 20
1092.229906741936
 30
0.0
 40
9.03832416432158
100
AcDbArc
 50
99.68460254334855
 51
106.2286723820653
  0
SPLINE
  5
1056
330
A
100
AcDbEntity
  8
MODEL
100
AcDbSpline
210
0.0
220
0.0
230
1.0
 70
     8
 71
     3
 72
    27
 73
    23
 74
     0
 42
0.000000001
 43
0.0000000001
 40
0.0
 40
0.0
 40
0.0
 40
0.0
 40
0.4771193103563767
 40
0.951212209089021
 40
1.421419607931999
 40
1.891208743812182
 40
2.356596555066425
 40
2.821608293092488
 40
3.282920224621721
 40
3.743890727111406
 40
4.20154215005565
 40
4.658883549865862
 40
5.113501108994233
 40
5.567833506230817
 40
6.019770251000623
 40
6.471443832444686
 40
6.921049495312533
 40
7.370410940025233
 40
8.031294696367235
 40
8.691688946807941
 40
9.348906166364007
 40
10.00567775099757
 40
10.00567775099757
 40
10.00567775099757
 40
10.00567775099757
 10
1588.890020690184
 20
1100.049549322144
 30
0.0
 10
1588.954124118837
 20
1100.069338097221
 30
0.0
 10
1589.079423320256
 20
1100.107970404648
 30
0.0
 10
1589.262252022325
 20
1100.164197201053
 30
0.0
 10
1589.431262092405
 20
1100.216048394205
 30
0.0
 10
1589.604809734296
 20
1100.269154963853
 30
0.0
 10
1589.759480148607
 20
1100.316365972946
 30
0.0
 10
1589.919959152309
 20
1100.365226032604
 30
0.0
 10
1590.062704322484
 20
1100.408576755899
 30
0.0
 10
1590.211155862499
 20
1100.453547105417
 30
0.0
 10
1590.342475811044
 20
1100.493227981721
 30
0.0
 10
1590.479196952513
 20
1100.534439247704
 30
0.0
 10
1590.600542795534
 20
1100.57092607345
 30
0.0
 10
1590.726896780291
 20
1100.608827345617
 30
0.0
 10
1590.838701223906
 20
1100.642284361513
 30
0.0
 10
1590.955272235713
 20
1100.677086818416
 30
0.0
 10
1591.058217927889
 20
1100.707751304208
 30
0.0
 10
1591.18278727271
 20
1100.744774037949
 30
0.0
 10
1591.303044850693
 20
1100.780420068301
 30
0.0
 10
1591.450581164662
 20
1100.824024869127
 30
0.0
 10
1591.559433506455
 20
1100.85607194028
 30
0.0
 10
1591.67077715666
 20
1100.888884497085
 30
0.0
 10
1591.691691088012
 20
1100.894956770155
 30
0.0
  0
SPLINE
  5
1057
330
A
100
AcDbEntity
  8
MODEL
100
AcDbSpline
210
0.0
220
0.0
230
1.0
 70
     8
 71
     3
 72
    15
 73
    11
 74
     0
 42
0.000000001
 43
0.0000000001
 40
4.371153050211449
 40
4.371153050211449
 40
4.371153050211449
 40
4.371153050211449
 40
4.578831669779744
 40
5.045473400334554
 40
5.513821698046487
 40
5.984026583541366
 40
6.455961865674919
 40
6.930013240882918
 40
7.40583218619147
 40
9.913232985457135
 40
9.913232985457135
 40
9.913232985457135
 40
9.913232985457135
 10
1542.653659668579
 20
1086.658372398333
 30
0.0
 10
1542.65365970525
 20
1086.658372285571
 30
0.0
 10
1542.652841626079
 20
1086.658144176747
 30
0.0
 10
1542.643468399069
 20
1086.655533026611
 30
0.0
 10
1542.631995668382
 20
1086.652325319823
 30
0.0
 10
1542.606404819579
 20
1086.64514418852
 30
0.0
 10
1542.581055087498
 20
1086.638005548221
 30
0.0
 10
1542.540775289303
 20
1086.626631020952
 30
0.0
 10
1542.434837743424
 20
1086.596581033851
 30
0.0
 10
1542.346809335455
 20
1086.571685431873
 30
0.0
 10
1542.187554688748
 20
1086.525892515629
 30
0.0
  0
SPLINE
  5
1058
330
A
100
AcDbEntity
  8
MODEL
100
AcDbSpline
210
0.0
220
0.0
230
1.0
 70
     8
 71
     3
 72
    11
 73
     7
 74
     0
 42
0.000000001
 43
0.0000000001
 40
0.1950319293507427
 40
0.1950319293507427
 40
0.1950319293507427
 40
0.1950319293507427
 40
13.31295798893526
 40
24.00263468139515
 40
34.6932549883182
 40
48.42085461914728
 40
48.42085461914728
 40
48.42085461914728
 40
48.42085461914728
 10
1542.571172992592
 20
1086.635213069609
 30
0.0
 10
1546.79572677125
 20
1087.76192549939
 30
0.0
 10
1554.446843620021
 20
1089.866727557366
 30
0.0
 10
1565.50184524507
 20
1093.02872122274
 30
0.0
 10
1576.726635529888
 20
1096.334517038775
 30
0.0
 10
1584.514389588325
 20
1098.698331457205
 30
0.0
 10
1588.886079643921
 20
1100.048078412778
 30
0.0
  0
ARC
  5
105B
330
A
100
AcDbEntity
  8
HIDDEN
100
AcDbCircle
 10
386.6800493878318
 20
1188.675893214751
 30
0.0
 40
41.4537741736927
100
AcDbArc
 50
220.6335594087373
 51
256.5208625477462
  0
ARC
  5
105D
330
A
100
AcDbEntity
  8
HIDDEN
100
AcDbCircle
 10
764.2682642021819
 20
1188.675926224564
 30
0.0
 40
41.4537741736927
100
AcDbArc
 50
283.4791474703078
 51
319.36645060914
  0
LINE
  5
105E
330
A
100
AcDbEntity
  8
MODEL
100
AcDbLine
 10
851.0505588074002
 20
1251.139442828136
 30
0.0
 11
299.8837872259528
 21
1251.13941087593
 31
0.0
  0
SPLINE
  5
105F
330
A
100
AcDbEntity
  8
HIDDEN
100
AcDbSpline
210
0.0
220
0.0
230
1.0
 70
     8
 71
     7
 72
    16
 73
     8
 74
     0
 42
0.000000001
 43
0.0000000001
 40
0.0349598548750839
 40
0.0349598548750839
 40
0.0349598548750839
 40
0.0349598548750839
 40
0.0349598548750839
 40
0.0349598548750839
 40
0.0349598548750839
 40
0.0349598548750839
 40
0.8825190508272973
 40
0.8825190508272973
 40
0.8825190508272973
 40
0.8825190508272973
 40
0.8825190508272973
 40
0.8825190508272973
 40
0.8825190508272973
 40
0.8825190508272973
 10
845.4683436018449
 20
1247.303449555678
 30
0.0
 10
840.3415620469814
 20
1234.045372249061
 30
0.0
 10
834.6294610550531
 20
1221.013635507659
 30
0.0
 10
828.2830556243489
 20
1208.262838220359
 30
0.0
 10
821.2537463414546
 20
1195.861329879661
 30
0.0
 10
813.4955111407025
 20
1183.89512371027
 30
0.0
 10
804.9840666228984
 20
1172.467923984608
 30
0.0
 10
795.7271237799278
 20
1161.680453505768
 30
0.0
  0
SPLINE
  5
1060
330
A
100
AcDbEntity
  8
HIDDEN
100
AcDbSpline
210
0.0
220
0.0
230
1.0
 70
     8
 71
     7
 72
    16
 73
     8
 74
     0
 42
0.000000001
 43
0.0000000001
 40
0.0349598548750842
 40
0.0349598548750842
 40
0.0349598548750842
 40
0.0349598548750842
 40
0.0349598548750842
 40
0.0349598548750842
 40
0.0349598548750842
 40
0.0349598548750842
 40
0.8825190508272973
 40
0.8825190508272973
 40
0.8825190508272973
 40
0.8825190508272973
 40
0.8825190508272973
 40
0.8825190508272973
 40
0.8825190508272973
 40
0.8825190508272973
 10
305.4799597374067
 20
1247.30340234839
 30
0.0
 10
310.6067436103904
 20
1234.045325938169
 30
0.0
 10
316.3188468808503
 20
1221.013590195502
 30
0.0
 10
322.6652545409806
 20
1208.262794017843
 30
0.0
 10
329.6945659922267
 20
1195.861286906189
 30
0.0
 10
337.4528032852095
 20
1183.895082093291
 30
0.0
 10
345.9642498010135
 20
1172.467883855819
 30
0.0
 10
355.2211945301233
 20
1161.680414995514
 30
0.0
  0
ARC
  5
1062
330
A
100
AcDbEntity
  8
HIDDEN
100
AcDbCircle
 10
851.0645159671249
 20
1245.139459061683
 30
0.0
 40
6.0
100
AcDbArc
 50
90.00000500883318
 51
158.8589533809863
  0
ARC
  5
1063
330
A
100
AcDbEntity
  8
MODEL
100
AcDbCircle
 10
281.4803967987964
 20
1245.139409267054
 30
0.0
 40
6.000000000000012
100
AcDbArc
 50
90.00000500925007
 51
200.2440033329864
  0
ARC
  5
1064
330
A
100
AcDbEntity
  8
MODEL
100
AcDbCircle
 10
869.4679069188196
 20
1245.139460670559
 30
0.0
 40
5.999999999999958
100
AcDbArc
 50
339.7560066850407
 51
90.00000500883318
  0
SPLINE
  5
1065
330
A
100
AcDbEntity
  8
HIDDEN
100
AcDbSpline
210
0.0
220
0.0
230
1.0
 70
     8
 71
     7
 72
    16
 73
     8
 74
     0
 42
0.000000001
 43
0.0000000001
 40
0.0284242018008211
 40
0.0284242018008211
 40
0.0284242018008211
 40
0.0284242018008211
 40
0.0284242018008211
 40
0.0284242018008211
 40
0.0284242018008211
 40
0.0284242018008211
 40
0.9261604255864363
 40
0.9261604255864363
 40
0.9261604255864363
 40
0.9261604255864363
 40
0.9261604255864363
 40
0.9261604255864363
 40
0.9261604255864363
 40
0.9261604255864363
 10
618.8785095554331
 20
1126.410756223713
 30
0.0
 10
641.2429550937877
 20
1127.686907052243
 30
0.0
 10
663.5760526425429
 20
1129.512439438816
 30
0.0
 10
685.8593204220588
 20
1131.926545964609
 30
0.0
 10
708.0696054848731
 20
1134.971886901322
 30
0.0
 10
730.1778474159937
 20
1138.694402313449
 30
0.0
 10
752.1469925434349
 20
1143.142562330226
 30
0.0
 10
773.9307849027891
 20
1148.364003832375
 30
0.0
  0
SPLINE
  5
1066
330
A
100
AcDbEntity
  8
HIDDEN
100
AcDbSpline
210
0.0
220
0.0
230
1.0
 70
     8
 71
     3
 72
    20
 73
    16
 74
     0
 42
0.000000001
 43
0.0000000001
 40
0.0
 40
0.0
 40
0.0
 40
0.0
 40
5.874697630218674
 40
10.69856179143204
 40
15.31013760930727
 40
20.14605909227019
 40
25.01059710878736
 40
29.91237098835842
 40
34.58391825594373
 40
39.49234519108781
 40
44.46220991425603
 40
51.0145499096494
 40
55.69812083472367
 40
61.83427354968384
 40
69.85014342868416
 40
69.85014342868416
 40
69.85014342868416
 40
69.85014342868416
 10
618.8785095554331
 20
1126.410756223713
 30
0.0
 10
618.8785097227146
 20
1126.410756140069
 30
0.0
 10
618.6426518335566
 20
1126.412921956907
 30
0.0
 10
617.696635245512
 20
1126.421636449695
 30
0.0
 10
616.3265359439456
 20
1126.434302017811
 30
0.0
 10
614.4797673577987
 20
1126.451450782338
 30
0.0
 10
612.1261498559606
 20
1126.473374853085
 30
0.0
 10
609.363948924597
 20
1126.49903075984
 30
0.0
 10
606.203003977912
 20
1126.527946266881
 30
0.0
 10
602.6748133794672
 20
1126.559133465183
 30
0.0
 10
598.3330543714683
 20
1126.59505257456
 30
0.0
 10
593.7039015476466
 20
1126.62867914437
 30
0.0
 10
588.4709564329887
 20
1126.658851409078
 30
0.0
 10
582.5846084364521
 20
1126.682653441665
 30
0.0
 10
578.0446188912238
 20
1126.689223074327
 30
0.0
 10
575.4741659489582
 20
1126.68922284961
 30
0.0
  0
SPLINE
  5
1067
330
A
100
AcDbEntity
  8
HIDDEN
100
AcDbSpline
210
0.0
220
0.0
230
1.0
 70
     8
 71
     3
 72
    16
 73
    12
 74
     0
 42
0.000000001
 43
0.0000000001
 40
0.0
 40
0.0
 40
0.0
 40
0.0
 40
7.588795413178138
 40
16.93556544114442
 40
26.28369303005298
 40
35.66487303875834
 40
44.67872134507363
 40
49.49704318660923
 40
54.29098070277114
 40
60.75068492398855
 40
69.85004091432072
 40
69.85004091432072
 40
69.85004091432072
 40
69.85004091432072
 10
575.4741659489582
 20
1126.68922284961
 30
0.0
 10
573.0406631860014
 20
1126.689222636867
 30
0.0
 10
567.6078023053478
 20
1126.681836786584
 30
0.0
 10
559.4227400439695
 20
1126.644809747245
 30
0.0
 10
551.335064624137
 20
1126.586082140573
 30
0.0
 10
544.3421213466563
 20
1126.524671684902
 30
0.0
 10
539.5839677415343
 20
1126.480455342391
 30
0.0
 10
536.56012294226
 20
1126.452298052575
 30
0.0
 10
534.4612827422015
 20
1126.432801612578
 30
0.0
 10
532.6025453085886
 20
1126.415637622452
 30
0.0
 10
532.0698151804818
 20
1126.410748505099
 30
0.0
 10
532.0698149213704
 20
1126.410748634656
 30
0.0
  0
SPLINE
  5
1068
330
A
100
AcDbEntity
  8
HIDDEN
100
AcDbSpline
210
0.0
220
0.0
230
1.0
 70
     8
 71
     7
 72
    16
 73
     8
 74
     0
 42
0.000000001
 43
0.0000000001
 40
0.0284242018008211
 40
0.0284242018008211
 40
0.0284242018008211
 40
0.0284242018008211
 40
0.0284242018008211
 40
0.0284242018008211
 40
0.0284242018008211
 40
0.0284242018008211
 40
0.9261604255864363
 40
0.9261604255864363
 40
0.9261604255864363
 40
0.9261604255864363
 40
0.9261604255864363
 40
0.9261604255864363
 40
0.9261604255864363
 40
0.9261604255864363
 10
532.0698149213704
 20
1126.410748634656
 30
0.0
 10
509.705369159884
 20
1127.686895552861
 30
0.0
 10
487.3722712919398
 20
1129.512424034591
 30
0.0
 10
465.0890030903311
 20
1131.926526664254
 30
0.0
 10
442.8787174950476
 20
1134.971863717597
 30
0.0
 10
420.7704749130635
 20
1138.694375264195
 30
0.0
 10
398.8013290078807
 20
1143.142531439764
 30
0.0
 10
377.0175357355829
 20
1148.363969133114
 30
0.0
  0
ARC
  5
106A
330
A
100
AcDbEntity
  8
HIDDEN
100
AcDbCircle
 10
531.2152837464737
 20
1111.43510920019
 30
0.0
 40
14.99999999999999
100
AcDbArc
 50
50.00015701850688
 51
86.73416320866724
  0
ARC
  5
106B
330
A
100
AcDbEntity
  8
HIDDEN
100
AcDbCircle
 10
619.7330433487505
 20
1111.435116938659
 30
0.0
 40
15.0
100
AcDbArc
 50
93.2658468090099
 51
129.9998529995506
  0
LINE
  5
106C
330
A
100
AcDbEntity
  8
HIDDEN
100
AcDbLine
 10
540.857066401687
 20
1122.925802270221
 30
0.0
 11
551.8766751357534
 21
1113.67930410759
 31
0.0
  0
LINE
  5
106D
330
A
100
AcDbEntity
  8
HIDDEN
100
AcDbLine
 10
553.5568286884946
 20
1076.310303713831
 30
0.0
 11
552.947867796086
 21
1111.433171729281
 31
0.0
  0
ARC
  5
106E
330
A
100
AcDbEntity
  8
HIDDEN
100
AcDbCircle
 10
549.9483186047137
 20
1111.381165493584
 30
0.0
 40
2.999999999999995
100
AcDbArc
 50
0.9932956924801216
 51
50.00015701850744
  0
ARC
  5
106F
330
A
100
AcDbEntity
  8
MODEL
100
AcDbCircle
 10
935.770386627074
 20
1486.440791182678
 30
0.0
 40
703.3677277476135
100
AcDbArc
 50
200.2439159855659
 51
212.9498281303742
  0
ARC
  5
1073
330
A
100
AcDbEntity
  8
MODEL
100
AcDbCircle
 10
215.177874900065
 20
1486.440728186485
 30
0.0
 40
703.3677277476284
100
AcDbArc
 50
327.0501818876967
 51
339.7560940323447
  0
ARC
  5
1074
330
A
100
AcDbEntity
  8
MODEL
100
AcDbCircle
 10
350.576223118579
 20
1107.139408770873
 30
0.0
 40
6.000000000000004
100
AcDbArc
 50
212.9500070997565
 51
270.0000050088332
  0
ARC
  5
1075
330
A
100
AcDbEntity
  8
MODEL
100
AcDbCircle
 10
800.3721047277204
 20
1107.139448093281
 30
0.0
 40
6.0
100
AcDbArc
 50
270.0000050088332
 51
327.0500029180832
  0
LINE
  5
1086
330
A
100
AcDbEntity
  8
MODEL
100
AcDbLine
 10
350.576223118579
 20
1101.139408770873
 30
0.0
 11
539.2144094526611
 21
1101.139420244579
 31
0.0
  0
LINE
  5
1087
330
A
100
AcDbEntity
  8
MODEL
100
AcDbLine
 10
538.3360931177003
 20
1101.13942040912
 30
0.0
 11
539.2144183438277
 21
1101.13942048217
 31
0.0
  0
LINE
  5
1088
330
A
100
AcDbEntity
  8
MODEL
100
AcDbLine
 10
612.6122544019881
 20
1101.139426902549
 30
0.0
 11
611.7339291908129
 21
1101.139426822028
 31
0.0
  0
LINE
  5
108C
330
A
100
AcDbEntity
  8
MODEL
100
AcDbLine
 10
539.2144094318746
 20
1101.139420482169
 30
0.0
 11
541.2345758941074
 21
1079.553270815802
 31
0.0
  0
ARC
  5
108D
330
A
100
AcDbEntity
  8
MODEL
100
AcDbCircle
 10
544.223159965527
 20
1079.310302897856
 30
0.0
 40
2.999999999999996
100
AcDbArc
 50
185.0000050091521
 51
270.0000050088332
  0
LINE
  5
108E
330
A
100
AcDbEntity
  8
HIDDEN
100
AcDbLine
 10
551.8766751357534
 20
1113.67930410759
 30
0.0
 11
599.0716515670783
 21
1113.679308233506
 31
0.0
  0
LINE
  5
108F
330
A
100
AcDbEntity
  8
MODEL
100
AcDbLine
 10
597.3741667057466
 20
1076.310307544465
 30
0.0
 11
553.5741667057437
 21
1076.310303715347
 31
0.0
  0
LINE
  5
1094
330
A
100
AcDbEntity
  8
MODEL
100
AcDbLine
 10
611.7339195094387
 20
1101.139427347053
 30
0.0
 11
800.3721052522442
 21
1101.139448093281
 31
0.0
  0
LINE
  5
1095
330
A
100
AcDbEntity
  8
MODEL
100
AcDbLine
 10
281.4803962742581
 20
1251.139409267054
 30
0.0
 11
299.8837872259528
 21
1251.13941087593
 31
0.0
  0
LINE
  5
1097
102
{ACAD_REACTORS
330
11F9
102
}
330
A
100
AcDbEntity
  8
MODEL
100
AcDbLine
 10
851.0645154425865
 20
1251.139459061683
 30
0.0
 11
869.4679063942813
 21
1251.139460670559
 31
0.0
  0
LINE
  5
1098
330
A
100
AcDbEntity
  8
HIDDEN
100
AcDbLine
 10
610.0912586844415
 20
1122.925808322866
 30
0.0
 11
599.0716515670783
 21
1113.679308233506
 31
0.0
  0
LINE
  5
1099
330
A
100
AcDbEntity
  8
HIDDEN
100
AcDbLine
 10
597.39150454815
 20
1076.310307545981
 30
0.0
 11
598.0004592994801
 21
1111.433175667905
 31
0.0
  0
ARC
  5
109A
330
A
100
AcDbEntity
  8
HIDDEN
100
AcDbCircle
 10
601.0000097499205
 20
1111.381169360541
 30
0.0
 40
3.000001260129915
100
AcDbArc
 50
129.9998639690935
 51
179.0067033558699
  0
LINE
  5
10AA
330
A
100
AcDbEntity
  8
MODEL
100
AcDbLine
 10
609.7137570385531
 20
1079.048841394973
 30
0.0
 11
611.7339195094387
 21
1101.139427347053
 31
0.0
  0
LINE
  5
10AB
330
A
100
AcDbEntity
  8
MODEL
100
AcDbLine
 10
544.2231602277889
 20
1076.310302897856
 30
0.0
 11
553.5741667057437
 21
1076.310303715347
 31
0.0
  0
LINE
  5
10AC
330
A
100
AcDbEntity
  8
MODEL
100
AcDbLine
 10
597.3741667057466
 20
1076.310307544465
 30
0.0
 11
606.7251731836941
 21
1076.310308361956
 31
0.0
  0
ARC
  5
10AD
330
A
100
AcDbEntity
  8
MODEL
100
AcDbCircle
 10
606.7251563350792
 20
1079.310326462768
 30
0.0
 40
3.000018100859464
100
AcDbArc
 50
270.0003217826221
 51
354.9996882349233
  0
ARC
  5
10AE
330
A
100
AcDbEntity
  8
HIDDEN
100
AcDbCircle
 10
583.4741666835462
 20
1098.074593993645
 30
0.0
 40
6.0
100
AcDbArc
 50
270.0000002126097
 51
89.99999978780724
  0
ARC
  5
10AF
330
A
100
AcDbEntity
  8
HIDDEN
100
AcDbCircle
 10
567.4741667232802
 20
1098.074593993645
 30
0.0
 40
6.0
100
AcDbArc
 50
90.0
 51
269.9999998319967
  0
LINE
  5
10B0
330
A
100
AcDbEntity
  8
HIDDEN
100
AcDbLine
 10
567.4741667232802
 20
1104.074593992243
 30
0.0
 11
583.4741666835462
 21
1104.074593992243
 31
0.0
  0
LINE
  5
10B1
330
A
100
AcDbEntity
  8
HIDDEN
100
AcDbLine
 10
567.4741667232802
 20
1092.074593992243
 30
0.0
 11
583.4741666835462
 21
1092.074593992243
 31
0.0
  0
ARC
  5
10B4
330
A
100
AcDbEntity
  8
HIDDEN
100
AcDbCircle
 10
1658.833602328045
 20
1199.280089772057
 30
0.0
 40
2.5
100
AcDbArc
 50
334.3508657835766
 51
67.08374645755244
  0
LINE
  5
10B5
330
A
100
AcDbEntity
  8
HIDDEN
100
AcDbLine
 10
1511.881369002537
 20
1092.074593548399
 30
0.0
 11
1521.882871916214
 21
1092.074593548399
 31
0.0
  0
LINE
  5
10B6
330
A
100
AcDbEntity
  8
HIDDEN
100
AcDbLine
 10
1512.089424685134
 20
1104.074593548399
 30
0.0
 11
1522.090927598833
 21
1104.074593548399
 31
0.0
  0
ARC
  5
10B7
330
A
100
AcDbEntity
  8
HIDDEN
100
AcDbCircle
 10
1518.267044208328
 20
1097.965263187753
 30
0.0
 40
8.688320142276414
100
AcDbArc
 50
135.3125549149954
 51
222.6874450732353
  0
CIRCLE
  5
10B8
330
A
100
AcDbEntity
  8
MODEL
100
AcDbCircle
 10
575.4741667057451
 20
1216.139419343084
 30
0.0
 40
12.0
  0
ARC
  5
10BC
330
A
100
AcDbEntity
  8
HIDDEN
100
AcDbCircle
 10
299.8837877504911
 20
1245.139410875968
 30
0.0
 40
6.0
100
AcDbArc
 50
21.14105663651589
 51
90.00000500897215
  0
DIMENSION
  5
11AB
330
A
100
AcDbEntity
  8
DIM
  6
Continuous
100
AcDbDimension
  2
*D6
 10
875.4679217657604
 20
2321.618033985224
 30
0.0
 11
575.4741667057451
 21
2321.618033985224
 31
0.0
 70
   160
 71
     5
 42
599.9875101200305
 73
     0
 74
     0
 75
     0
  3
tfrom線あり
100
AcDbAlignedDimension
 13
275.4804116457299
 23
2070.897870544447
 33
0.0
 14
875.4679217657604
 24
2070.897870544447
 34
0.0
100
AcDbRotatedDimension
  0
DIMENSION
  5
11BA
330
A
100
AcDbEntity
  8
DIM
  6
Continuous
100
AcDbDimension
  2
*D7
 10
981.3494728762078
 20
1805.007425914255
 30
0.0
 11
981.3494728762078
 21
2014.978928448749
 31
0.0
 70
   160
 71
     5
 42
419.9430050689884
 73
     0
 74
     0
 75
     0
  3
tfrom線あり
100
AcDbAlignedDimension
 13
675.4741667057451
 23
2224.950430983243
 33
0.0
 14
675.4741667057451
 24
1805.007425914255
 34
0.0
 50
90.0
100
AcDbRotatedDimension
  0
DIMENSION
  5
11C9
330
A
100
AcDbEntity
  8
DIM
  6
Continuous
100
AcDbDimension
  2
*D8
 10
845.4683586379679
 20
1694.817625383283
 30
0.0
 11
575.4741667057451
 21
1694.817625383283
 31
0.0
 70
   160
 71
     5
 42
539.9883838644455
 73
     0
 74
     0
 75
     0
  3
tfrom線あり
100
AcDbAlignedDimension
 13
305.4799747735224
 23
1908.527758178913
 33
0.0
 14
845.4683586379679
 24
1908.527758178913
 34
0.0
100
AcDbRotatedDimension
  0
DIMENSION
  5
11D8
330
A
100
AcDbEntity
  8
DIM
  6
Continuous
100
AcDbDimension
  2
*D9
 10
179.1687348909322
 20
1835.007420842728
 30
0.0
 11
147.1687348909322
 21
2014.978928448749
 31
0.0
 70
    32
 71
     5
 42
359.9430152120419
 73
     0
 74
     0
 75
     0
  3
tfrom線あり
100
AcDbAlignedDimension
 13
384.4380457386592
 23
2194.95043605477
 33
0.0
 14
384.4380457386592
 24
1835.007420842728
 34
0.0
 50
90.0
100
AcDbRotatedDimension
  0
DIMENSION
  5
11E8
330
A
100
AcDbEntity
  8
DIM
  6
Continuous
100
AcDbDimension
  2
*D10
 10
805.2373581191632
 20
983.8363785137749
 30
0.0
 11
575.4741643840052
 21
1015.836378513775
 31
0.0
 70
    32
 71
     5
 42
459.526387470316
 73
     0
 74
     0
 75
     0
  3
tfrom線あり
100
AcDbAlignedDimension
 13
345.7109706488473
 23
1101.867755492754
 33
0.0
 14
805.2373581191632
 24
1101.93030405947
 34
0.0
100
AcDbRotatedDimension
  0
DIMENSION
  5
11F7
102
{ACAD_REACTORS
330
11F9
102
}
102
{ACAD_XDICTIONARY
360
11F8
102
}
330
A
100
AcDbEntity
  8
DIM
  6
Continuous
100
AcDbDimension
  2
*D11
 10
984.3494728762078
 20
1076.31030795321
 30
0.0
 11
984.3494728762078
 21
1163.224884311885
 31
0.0
 70
   160
 71
     5
 42
174.829152717349
 73
     0
 74
     0
 75
     0
  3
tfrom線あり
100
AcDbAlignedDimension
 13
869.4679063942813
 23
1251.139460670559
 33
0.0
 14
602.0496699447203
 24
1076.31030795321
 34
0.0
 50
90.0
100
AcDbRotatedDimension
  0
DIMENSION
  5
1206
102
{ACAD_REACTORS
330
1208
102
}
102
{ACAD_XDICTIONARY
360
1207
102
}
330
A
100
AcDbEntity
  8
DIM
  6
Continuous
100
AcDbDimension
  2
*D12
 10
1171.278601818849
 20
1101.139434257146
 30
0.0
 11
1139.278601818849
 21
1176.139438848997
 31
0.0
 70
    32
 71
     5
 42
150.0000091837028
 73
     0
 74
     0
 75
     0
  3
tfrom線あり
100
AcDbAlignedDimension
 13
1285.719215348961
 23
1251.139443440849
 33
0.0
 14
1346.274876532401
 24
1101.139434257146
 34
0.0
 50
90.0
100
AcDbRotatedDimension
  0
DIMENSION
  5
1215
330
A
100
AcDbEntity
  8
DIM
  6
Continuous
100
AcDbDimension
  2
*D13
 10
1639.881084582558
 20
940.3903231095753
 30
0.0
 11
1489.690711362115
 21
940.3903231095753
 31
0.0
 70
   160
 71
     5
 42
300.3807464408842
 73
     0
 74
     0
 75
     0
  3
tfrom線あり
100
AcDbAlignedDimension
 13
1339.500338141674
 23
1104.68875385283
 33
0.0
 14
1639.881084582558
 24
1101.964057140014
 34
0.0
100
AcDbRotatedDimension
  0
DIMENSION
  5
1224
102
{ACAD_REACTORS
330
1226
102
}
102
{ACAD_XDICTIONARY
360
1225
102
}
330
A
100
AcDbEntity
  8
DIM
  6
Continuous
100
AcDbDimension
  2
*D14
 10
1699.662220155662
 20
1014.02258689384
 30
0.0
 11
1594.676465176681
 21
1046.02258689384
 31
0.0
 70
    32
 71
     5
 42
209.9715099579621
 73
     0
 74
     0
 75
     0
  3
tfrom線あり
100
AcDbAlignedDimension
 13
1489.6907101977
 23
1076.310305186069
 33
0.0
 14
1699.662220155662
 24
1246.139425609092
 34
0.0
100
AcDbRotatedDimension
  0
SPLINE
  5
1233
330
A
100
AcDbEntity
  8
HIDDEN
100
AcDbSpline
210
0.0
220
0.0
230
1.0
 70
     8
 71
     3
 72
    31
 73
    27
 74
     0
 42
0.000000001
 43
0.0000000001
 40
0.0
 40
0.0
 40
0.0
 40
0.0
 40
15.39455987668175
 40
35.55736381164589
 40
58.66697527252038
 40
74.37132038993124
 40
90.83763341976703
 40
106.5700332531399
 40
122.3177298444023
 40
138.8330131437602
 40
154.6159233521528
 40
170.4182724543061
 40
186.9962365859786
 40
202.8451907348031
 40
218.7209596751381
 40
235.3850138241556
 40
251.3261695903357
 40
262.8644284990689
 40
274.9744983430379
 40
286.5564973760721
 40
298.1608695834076
 40
310.3415238816653
 40
321.9896841005083
 40
336.3153263956997
 40
351.3429290644362
 40
365.6945447009955
 40
365.6945447009955
 40
365.6945447009955
 40
365.6945447009955
 10
1496.696071040295
 20
1835.007420842728
 30
0.0
 10
1501.755442350712
 20
1835.007420842728
 30
0.0
 10
1513.441419657038
 20
1835.227834161735
 30
0.0
 10
1532.689814269247
 20
1836.431891747023
 30
0.0
 10
1551.94583198515
 20
1838.676519350636
 30
0.0
 10
1569.860300355899
 20
1841.662915425103
 30
0.0
 10
1585.257864230664
 20
1844.894038556786
 30
0.0
 10
1600.509254051186
 20
1848.784876624445
 30
0.0
 10
1615.584495080237
 20
1853.336675222177
 30
0.0
 10
1630.438576585637
 20
1858.584358835601
 30
0.0
 10
1645.023555242102
 20
1864.551255012298
 30
0.0
 10
1659.295083255931
 20
1871.245904597085
 30
0.0
 10
1673.182480653306
 20
1878.712847254958
 30
0.0
 10
1686.608885890326
 20
1886.982953064134
 30
0.0
 10
1699.501191217142
 20
1896.068374037214
 30
0.0
 10
1711.741223744068
 20
1906.016781639553
 30
0.0
 10
1722.151917789708
 20
1915.863292979316
 30
0.0
 10
1730.83460373885
 20
1925.293955275934
 30
0.0
 10
1737.998706660389
 20
1934.142507286476
 30
0.0
 10
1744.541321867963
 20
1943.455631211507
 30
0.0
 10
1750.404113531275
 20
1953.208699503569
 30
0.0
 10
1755.490995004564
 20
1963.384288271159
 30
0.0
 10
1760.035795993254
 20
1974.730594370658
 30
0.0
 10
1763.738691304834
 20
1987.310192244784
 30
0.0
 10
1766.152060876101
 20
2001.054915244013
 30
0.0
 10
1766.690262972518
 20
2010.409428941433
 30
0.0
 10
1766.690262972518
 20
2014.978928448749
 30
0.0
  0
SPLINE
  5
1234
330
A
100
AcDbEntity
  8
HIDDEN
100
AcDbSpline
210
0.0
220
0.0
230
1.0
 70
     8
 71
     3
 72
    31
 73
    27
 74
     0
 42
0.000000001
 43
0.0000000001
 40
0.0
 40
0.0
 40
0.0
 40
0.0
 40
15.39455987668175
 40
35.55736381164589
 40
58.6669752725204
 40
74.37132038993123
 40
90.83763341976702
 40
106.5700332531399
 40
122.3177298444023
 40
138.8330131437601
 40
154.6159233521528
 40
170.4182724543061
 40
186.9962365859786
 40
202.8451907348031
 40
218.7209596751382
 40
235.3850138241556
 40
251.3261695903357
 40
262.864428499069
 40
274.9744983430379
 40
286.556497376072
 40
298.1608695834074
 40
310.341523881665
 40
321.9896841005078
 40
336.3153263956992
 40
351.3429290644355
 40
365.6945447009948
 40
365.6945447009948
 40
365.6945447009948
 40
365.6945447009948
 10
1496.696071040295
 20
1835.007420842728
 30
0.0
 10
1491.636699729878
 20
1835.007420842728
 30
0.0
 10
1479.950722423552
 20
1835.227834161735
 30
0.0
 10
1460.702327811343
 20
1836.431891747023
 30
0.0
 10
1441.446310095433
 20
1838.676519350636
 30
0.0
 10
1423.531841724691
 20
1841.662915425103
 30
0.0
 10
1408.134277849919
 20
1844.894038556786
 30
0.0
 10
1392.882888029405
 20
1848.784876624445
 30
0.0
 10
1377.807647000346
 20
1853.336675222177
 30
0.0
 10
1362.953565494945
 20
1858.584358835601
 30
0.0
 10
1348.368586838488
 20
1864.551255012298
 30
0.0
 10
1334.097058824651
 20
1871.245904597086
 30
0.0
 10
1320.209661427276
 20
1878.712847254958
 30
0.0
 10
1306.783256190256
 20
1886.982953064134
 30
0.0
 10
1293.890950863441
 20
1896.068374037214
 30
0.0
 10
1281.650918336515
 20
1906.016781639553
 30
0.0
 10
1271.240224290874
 20
1915.863292979316
 30
0.0
 10
1262.55753834174
 20
1925.293955275934
 30
0.0
 10
1255.393435420202
 20
1934.142507286476
 30
0.0
 10
1248.85082021262
 20
1943.455631211507
 30
0.0
 10
1242.988028549308
 20
1953.208699503569
 30
0.0
 10
1237.901147076018
 20
1963.384288271159
 30
0.0
 10
1233.356346087329
 20
1974.730594370658
 30
0.0
 10
1229.653450775748
 20
1987.310192244784
 30
0.0
 10
1227.240081204482
 20
2001.054915244014
 30
0.0
 10
1226.701879108072
 20
2010.409428941433
 30
0.0
 10
1226.701879108072
 20
2014.978928448749
 30
0.0
  0
SPLINE
  5
1235
330
A
100
AcDbEntity
  8
HIDDEN
100
AcDbSpline
210
0.0
220
0.0
230
1.0
 70
     8
 71
     3
 72
    31
 73
    27
 74
     0
 42
0.000000001
 43
0.0000000001
 40
0.0
 40
0.0
 40
0.0
 40
0.0
 40
15.39455987668174
 40
35.55736381164589
 40
58.66697527252035
 40
74.3713203899312
 40
90.83763341976697
 40
106.5700332531398
 40
122.3177298444022
 40
138.8330131437602
 40
154.6159233521529
 40
170.4182724543061
 40
186.9962365859786
 40
202.8451907348032
 40
218.7209596751383
 40
235.3850138241557
 40
251.3261695903358
 40
262.8644284990689
 40
274.9744983430378
 40
286.5564973760719
 40
298.1608695834074
 40
310.341523881665
 40
321.989684100508
 40
336.3153263956993
 40
351.3429290644357
 40
365.6945447009949
 40
365.6945447009949
 40
365.6945447009949
 40
365.6945447009949
 10
1496.696071040295
 20
2194.95043605477
 30
0.0
 10
1501.755442350712
 20
2194.95043605477
 30
0.0
 10
1513.441419657038
 20
2194.730022735763
 30
0.0
 10
1532.689814269247
 20
2193.525965150475
 30
0.0
 10
1551.94583198515
 20
2191.281337546862
 30
0.0
 10
1569.860300355899
 20
2188.294941472395
 30
0.0
 10
1585.257864230664
 20
2185.063818340712
 30
0.0
 10
1600.509254051186
 20
2181.172980273053
 30
0.0
 10
1615.584495080237
 20
2176.621181675321
 30
0.0
 10
1630.438576585637
 20
2171.373498061897
 30
0.0
 10
1645.023555242102
 20
2165.4066018852
 30
0.0
 10
1659.295083255931
 20
2158.711952300412
 30
0.0
 10
1673.182480653306
 20
2151.24500964254
 30
0.0
 10
1686.608885890326
 20
2142.974903833364
 30
0.0
 10
1699.501191217142
 20
2133.889482860285
 30
0.0
 10
1711.741223744068
 20
2123.941075257945
 30
0.0
 10
1722.151917789708
 20
2114.094563918182
 30
0.0
 10
1730.83460373885
 20
2104.663901621564
 30
0.0
 10
1737.998706660389
 20
2095.815349611022
 30
0.0
 10
1744.541321867963
 20
2086.502225685991
 30
0.0
 10
1750.404113531275
 20
2076.74915739393
 30
0.0
 10
1755.490995004564
 20
2066.573568626339
 30
0.0
 10
1760.035795993254
 20
2055.22726252684
 30
0.0
 10
1763.738691304834
 20
2042.647664652714
 30
0.0
 10
1766.152060876101
 20
2028.902941653485
 30
0.0
 10
1766.690262972518
 20
2019.548427956065
 30
0.0
 10
1766.690262972518
 20
2014.978928448749
 30
0.0
  0
SPLINE
  5
1236
330
A
100
AcDbEntity
  8
HIDDEN
100
AcDbSpline
210
0.0
220
0.0
230
1.0
 70
     8
 71
     3
 72
    31
 73
    27
 74
     0
 42
0.000000001
 43
0.0000000001
 40
0.0
 40
0.0
 40
0.0
 40
0.0
 40
15.39455987668174
 40
35.55736381164589
 40
58.66697527252038
 40
74.37132038993121
 40
90.83763341976695
 40
106.5700332531398
 40
122.3177298444023
 40
138.8330131437601
 40
154.6159233521528
 40
170.4182724543061
 40
186.9962365859786
 40
202.8451907348032
 40
218.7209596751383
 40
235.3850138241558
 40
251.3261695903358
 40
262.864428499069
 40
274.9744983430377
 40
286.5564973760718
 40
298.1608695834072
 40
310.3415238816649
 40
321.9896841005079
 40
336.3153263956993
 40
351.3429290644356
 40
365.6945447009949
 40
365.6945447009949
 40
365.6945447009949
 40
365.6945447009949
 10
1496.696071040295
 20
2194.95043605477
 30
0.0
 10
1491.636699729878
 20
2194.95043605477
 30
0.0
 10
1479.950722423552
 20
2194.730022735763
 30
0.0
 10
1460.702327811343
 20
2193.525965150475
 30
0.0
 10
1441.446310095433
 20
2191.281337546862
 30
0.0
 10
1423.531841724691
 20
2188.294941472395
 30
0.0
 10
1408.134277849919
 20
2185.063818340712
 30
0.0
 10
1392.882888029405
 20
2181.172980273053
 30
0.0
 10
1377.807647000346
 20
2176.621181675321
 30
0.0
 10
1362.953565494945
 20
2171.373498061897
 30
0.0
 10
1348.368586838488
 20
2165.4066018852
 30
0.0
 10
1334.097058824651
 20
2158.711952300412
 30
0.0
 10
1320.209661427276
 20
2151.24500964254
 30
0.0
 10
1306.783256190256
 20
2142.974903833364
 30
0.0
 10
1293.890950863441
 20
2133.889482860284
 30
0.0
 10
1281.650918336515
 20
2123.941075257945
 30
0.0
 10
1271.240224290874
 20
2114.094563918182
 30
0.0
 10
1262.55753834174
 20
2104.663901621563
 30
0.0
 10
1255.393435420202
 20
2095.815349611022
 30
0.0
 10
1248.85082021262
 20
2086.502225685991
 30
0.0
 10
1242.988028549308
 20
2076.749157393929
 30
0.0
 10
1237.901147076018
 20
2066.573568626339
 30
0.0
 10
1233.356346087329
 20
2055.22726252684
 30
0.0
 10
1229.653450775748
 20
2042.647664652714
 30
0.0
 10
1227.240081204482
 20
2028.902941653485
 30
0.0
 10
1226.701879108072
 20
2019.548427956065
 30
0.0
 10
1226.701879108072
 20
2014.978928448749
 30
0.0
  0
SPLINE
  5
1237
330
A
100
AcDbEntity
  8
HIDDEN
100
AcDbSpline
210
0.0
220
0.0
230
1.0
 70
     8
 71
     3
 72
    16
 73
    12
 74
     0
 42
0.000000001
 43
0.0000000001
 40
0.0
 40
0.0
 40
0.0
 40
0.0
 40
7.588795413178041
 40
16.93556544114414
 40
26.2836930300527
 40
35.66487303875809
 40
44.67872134507342
 40
49.4970431866089
 40
54.29098070277081
 40
60.75068492398829
 40
69.85004091432067
 40
69.85004091432067
 40
69.85004091432067
 40
69.85004091432067
 10
1496.696071040295
 20
1972.256619712186
 30
0.0
 10
1499.129573803252
 20
1972.256619712186
 30
0.0
 10
1504.562434645554
 20
1972.702664301913
 30
0.0
 10
1512.747496715735
 20
1974.926732793454
 30
0.0
 10
1520.835171781272
 20
1979.038112292774
 30
0.0
 10
1527.828114570223
 20
1984.687639775244
 30
0.0
 10
1532.586267667075
 20
1990.545736802571
 30
0.0
 10
1535.610112010787
 20
1995.784986615702
 30
0.0
 10
1537.708951793941
 20
2000.573348418455
 30
0.0
 10
1539.567688671831
 20
2006.947232822493
 30
0.0
 10
1540.100418357326
 20
2012.015011628268
 30
0.0
 10
1540.100418357326
 20
2014.978928448749
 30
0.0
  0
SPLINE
  5
1238
330
A
100
AcDbEntity
  8
HIDDEN
100
AcDbSpline
210
0.0
220
0.0
230
1.0
 70
     8
 71
     3
 72
    20
 73
    16
 74
     0
 42
0.000000001
 43
0.0000000001
 40
0.0
 40
0.0
 40
0.0
 40
0.0
 40
5.874697630218674
 40
10.69856179143204
 40
15.31013760930727
 40
20.14605909227019
 40
25.01059710878736
 40
29.91237098835842
 40
34.58391825594373
 40
39.49234519108781
 40
44.46220991425603
 40
51.0145499096494
 40
55.69812083472367
 40
61.83427354968384
 40
69.85014342868416
 40
69.85014342868416
 40
69.85014342868416
 40
69.85014342868416
 10
1540.100418357326
 20
2014.978928448749
 30
0.0
 10
1540.100418357326
 20
2016.892483115688
 30
0.0
 10
1539.864560163706
 20
2020.37724205815
 30
0.0
 10
1538.918543147937
 20
2025.27852553108
 30
0.0
 10
1537.548443459173
 20
2029.720231426311
 30
0.0
 10
1535.701674500854
 20
2033.994470583667
 30
0.0
 10
1533.348056640966
 20
2038.112066146068
 30
0.0
 10
1530.5858553815
 20
2041.890771314206
 30
0.0
 10
1527.424910135024
 20
2045.348933340653
 30
0.0
 10
1523.896719267951
 20
2048.452784389124
 30
0.0
 10
1519.554959997661
 20
2051.489016283292
 30
0.0
 10
1514.925806965201
 20
2053.909162919154
 30
0.0
 10
1509.692861682003
 20
2055.867252811226
 30
0.0
 10
1503.806513561651
 20
2057.30729707604
 30
0.0
 10
1499.266523982561
 20
2057.701237185312
 30
0.0
 10
1496.696071040295
 20
2057.701237185312
 30
0.0
  0
SPLINE
  5
1239
330
A
100
AcDbEntity
  8
HIDDEN
100
AcDbSpline
210
0.0
220
0.0
230
1.0
 70
     8
 71
     3
 72
    16
 73
    12
 74
     0
 42
0.000000001
 43
0.0000000001
 40
0.0
 40
0.0
 40
0.0
 40
0.0
 40
7.588795413178138
 40
16.93556544114442
 40
26.28369303005298
 40
35.66487303875834
 40
44.67872134507363
 40
49.49704318660923
 40
54.29098070277114
 40
60.75068492398855
 40
69.85004091432072
 40
69.85004091432072
 40
69.85004091432072
 40
69.85004091432072
 10
1496.696071040295
 20
2057.701237185312
 30
0.0
 10
1494.262568277338
 20
2057.701237185312
 30
0.0
 10
1488.829707435029
 20
2057.255192595585
 30
0.0
 10
1480.644645364848
 20
2055.031124104044
 30
0.0
 10
1472.556970299318
 20
2050.919744604724
 30
0.0
 10
1465.56402751036
 20
2045.270217122254
 30
0.0
 10
1460.805874413507
 20
2039.412120094927
 30
0.0
 10
1457.782030069803
 20
2034.172870281795
 30
0.0
 10
1455.683190286642
 20
2029.384508479042
 30
0.0
 10
1453.824453408752
 20
2023.010624075005
 30
0.0
 10
1453.291723723264
 20
2017.94284526923
 30
0.0
 10
1453.291723723264
 20
2014.978928448749
 30
0.0
  0
SPLINE
  5
123A
330
A
100
AcDbEntity
  8
HIDDEN
100
AcDbSpline
210
0.0
220
0.0
230
1.0
 70
     8
 71
     3
 72
    20
 73
    16
 74
     0
 42
0.000000001
 43
0.0000000001
 40
0.0
 40
0.0
 40
0.0
 40
0.0
 40
5.87469763021868
 40
10.69856179143207
 40
15.31013760930731
 40
20.14605909227021
 40
25.01059710878736
 40
29.9123709883584
 40
34.58391825594371
 40
39.49234519108775
 40
44.46220991425595
 40
51.0145499096494
 40
55.69812083472372
 40
61.83427354968384
 40
69.85014342868415
 40
69.85014342868415
 40
69.85014342868415
 40
69.85014342868415
 10
1453.291723723264
 20
2014.978928448749
 30
0.0
 10
1453.291723723264
 20
2013.06537378181
 30
0.0
 10
1453.527581916877
 20
2009.580614839347
 30
0.0
 10
1454.473598932646
 20
2004.679331366418
 30
0.0
 10
1455.843698621417
 20
2000.237625471187
 30
0.0
 10
1457.690467579729
 20
1995.963386313831
 30
0.0
 10
1460.044085439624
 20
1991.84579075143
 30
0.0
 10
1462.806286699083
 20
1988.067085583292
 30
0.0
 10
1465.967231945566
 20
1984.608923556845
 30
0.0
 10
1469.495422812632
 20
1981.505072508374
 30
0.0
 10
1473.837182082922
 20
1978.468840614206
 30
0.0
 10
1478.466335115382
 20
1976.048693978344
 30
0.0
 10
1483.69928039858
 20
1974.090604086272
 30
0.0
 10
1489.585628518932
 20
1972.650559821457
 30
0.0
 10
1494.125618098029
 20
1972.256619712186
 30
0.0
 10
1496.696071040295
 20
1972.256619712186
 30
0.0
  0
CIRCLE
  5
123B
330
A
100
AcDbEntity
  8
HIDDEN
100
AcDbCircle
 10
1496.696071040295
 20
2014.978928448749
 30
0.0
 40
21.90000000000146
  0
SPLINE
  5
123C
330
A
100
AcDbEntity
  8
HIDDEN
100
AcDbSpline
210
0.0
220
0.0
230
1.0
 70
     8
 71
     3
 72
    22
 73
    18
 74
     0
 42
0.000000001
 43
0.0000000001
 40
0.0
 40
0.0
 40
0.0
 40
0.0
 40
4.046739631852435
 40
7.381430900384258
 40
10.37196221244943
 40
13.22668336339378
 40
16.217380320328
 40
19.20809608157027
 40
22.06284047911499
 40
25.05348009135163
 40
27.90814854448416
 40
30.8987237464029
 40
33.88930401069205
 40
36.74395571941403
 40
39.73456262643541
 40
42.58923779079269
 40
45.55320370067558
 40
45.55320370067558
 40
45.55320370067558
 40
45.55320370067558
 10
1496.696071040295
 20
2177.258294356612
 30
0.0
 10
1495.355966960934
 20
2177.258294356612
 30
0.0
 10
1492.911688914598
 20
2177.395215858931
 30
0.0
 10
1489.719006980481
 20
2177.923932911776
 30
0.0
 10
1487.217578442377
 20
2178.622049532682
 30
0.0
 10
1485.197851788932
 20
2179.469744097011
 30
0.0
 10
1483.646010584397
 20
2180.458642431659
 30
0.0
 10
1482.63891635425
 20
2181.549246749774
 30
0.0
 10
1482.205773806282
 20
2182.693508203407
 30
0.0
 10
1482.361374113398
 20
2183.828254257437
 30
0.0
 10
1483.104077366976
 20
2184.941436829534
 30
0.0
 10
1484.402059490606
 20
2185.971790316202
 30
0.0
 10
1486.213439408874
 20
2186.874477804982
 30
0.0
 10
1488.451408842392
 20
2187.615966405655
 30
0.0
 10
1490.987796913755
 20
2188.159275133237
 30
0.0
 10
1493.786717438622
 20
2188.498272890534
 30
0.0
 10
1495.714213407797
 20
2188.574874987625
 30
0.0
 10
1496.696071040295
 20
2188.574874987625
 30
0.0
  0
SPLINE
  5
123D
330
A
100
AcDbEntity
  8
HIDDEN
100
AcDbSpline
210
0.0
220
0.0
230
1.0
 70
     8
 71
     3
 72
    14
 73
    10
 74
     0
 42
0.000000001
 43
0.0000000001
 40
0.0
 40
0.0
 40
0.0
 40
0.0
 40
4.213380882443496
 40
7.765156105430443
 40
10.89164479990186
 40
13.88230568933291
 40
17.00895777098102
 40
19.99905608400598
 40
22.77671875179868
 40
22.77671875179868
 40
22.77671875179868
 40
22.77671875179868
 10
1496.696071040295
 20
2177.258294356612
 30
0.0
 10
1498.091359450746
 20
2177.258294356612
 30
0.0
 10
1500.662678427909
 20
2177.408348405444
 30
0.0
 10
1503.9912199915
 20
2177.989269911403
 30
0.0
 10
1506.568270208134
 20
2178.757004287838
 30
0.0
 10
1508.589884684591
 20
2179.677053101593
 30
0.0
 10
1510.059599118135
 20
2180.72643830148
 30
0.0
 10
1510.920047393951
 20
2181.84355803033
 30
0.0
 10
1511.103854405114
 20
2182.594489688624
 30
0.0
 10
1511.103994386382
 20
2182.95565384183
 30
0.0
  0
SPLINE
  5
123E
330
A
100
AcDbEntity
  8
HIDDEN
100
AcDbSpline
210
0.0
220
0.0
230
1.0
 70
     8
 71
     3
 72
    14
 73
    10
 74
     0
 42
0.000000001
 43
0.0000000001
 40
0.0
 40
0.0
 40
0.0
 40
0.0
 40
4.424319627288447
 40
8.074053192149528
 40
11.33650410933805
 40
14.59896591174395
 40
17.86145011915468
 40
20.14503729857783
 40
22.7764406266804
 40
22.7764406266804
 40
22.7764406266804
 40
22.7764406266804
 10
1511.103994386382
 20
2182.95565384183
 30
0.0
 10
1511.104217351497
 20
2183.530923715395
 30
0.0
 10
1510.69325651476
 20
2184.578396489974
 30
0.0
 10
1509.112218012344
 20
2185.920631428711
 30
0.0
 10
1507.00807635781
 20
2186.956097504733
 30
0.0
 10
1504.464039169232
 20
2187.749621909994
 30
0.0
 10
1501.821823359287
 20
2188.246492021256
 30
0.0
 10
1499.195935641309
 20
2188.517456130422
 30
0.0
 10
1497.567762389119
 20
2188.574874987625
 30
0.0
 10
1496.696071040295
 20
2188.574874987625
 30
0.0
  0
SPLINE
  5
123F
330
A
100
AcDbEntity
  8
HIDDEN
100
AcDbSpline
210
0.0
220
0.0
230
1.0
 70
     8
 71
     3
 72
    28
 73
    24
 74
     0
 42
0.000000001
 43
0.0000000001
 40
0.0
 40
0.0
 40
0.0
 40
0.0
 40
6.291744038320658
 40
16.5133577479463
 40
33.01190813293826
 40
50.26830791488273
 40
65.28271594357096
 40
80.2653334521178
 40
95.21506001261777
 40
111.4762164662487
 40
127.767862641699
 40
144.7993150656978
 40
159.4771005631346
 40
176.4446594439077
 40
191.8470988698254
 40
208.7636256502803
 40
241.0049871531016
 40
273.1875291739646
 40
305.332473780123
 40
338.9821696707517
 40
371.0987255097059
 40
390.9773545896106
 40
403.487408177537
 40
403.487408177537
 40
403.487408177537
 40
403.487408177537
 10
1796.68982610031
 20
2014.978928448749
 30
0.0
 10
1796.68982610031
 20
2012.88184056416
 30
0.0
 10
1796.57089481706
 20
2007.37710109919
 30
0.0
 10
1795.711212953271
 20
1996.400161758392
 30
0.0
 10
1793.243256890115
 20
1981.927609780141
 30
0.0
 10
1788.741707656833
 20
1966.280739788087
 30
0.0
 10
1782.872611362584
 20
1951.646030187583
 30
0.0
 10
1776.073105424805
 20
1938.279847141421
 30
0.0
 10
1767.961585029504
 20
1925.176933671382
 30
0.0
 10
1758.547592974983
 20
1912.428543599004
 30
0.0
 10
1747.700961324061
 20
1899.941490862718
 30
0.0
 10
1736.323259390071
 20
1888.676238097604
 30
0.0
 10
1724.057670221754
 20
1878.043379768215
 30
0.0
 10
1711.587784944206
 20
1868.519709392524
 30
0.0
 10
1697.960217204544
 20
1859.333022233133
 30
0.0
 10
1679.467664658356
 20
1848.309252394176
 30
0.0
 10
1655.120021320998
 20
1836.302937137531
 30
0.0
 10
1625.010381956689
 20
1824.828384271385
 30
0.0
 10
1593.57317214626
 20
1815.873512633701
 30
0.0
 10
1561.521988895455
 20
1809.569646529225
 30
0.0
 10
1533.139779354819
 20
1806.304883127276
 30
0.0
 10
1511.662438701011
 20
1805.166722148932
 30
0.0
 10
1500.865939995567
 20
1805.007425914255
 30
0.0
 10
1496.696071040295
 20
1805.007425914255
 30
0.0
  0
SPLINE
  5
1240
330
A
100
AcDbEntity
  8
HIDDEN
100
AcDbSpline
210
0.0
220
0.0
230
1.0
 70
     8
 71
     3
 72
    28
 73
    24
 74
     0
 42
0.000000001
 43
0.0000000001
 40
0.0
 40
0.0
 40
0.0
 40
0.0
 40
6.291744038320665
 40
16.51335774794631
 40
33.01190813293827
 40
50.26830791488276
 40
65.28271594357108
 40
80.26533345211807
 40
95.21506001261804
 40
111.4762164662491
 40
127.7678626416994
 40
144.7993150656982
 40
159.4771005631349
 40
176.444659443908
 40
191.8470988698256
 40
208.7636256502804
 40
241.0049871531011
 40
273.1875291739644
 40
305.3324737801226
 40
338.9821696707513
 40
371.098725509705
 40
390.9773545896097
 40
403.4874081775365
 40
403.4874081775365
 40
403.4874081775365
 40
403.4874081775365
 10
1796.68982610031
 20
2014.978928448749
 30
0.0
 10
1796.68982610031
 20
2017.076016333338
 30
0.0
 10
1796.57089481706
 20
2022.580755798308
 30
0.0
 10
1795.711212953271
 20
2033.557695139106
 30
0.0
 10
1793.243256890115
 20
2048.030247117356
 30
0.0
 10
1788.741707656833
 20
2063.677117109411
 30
0.0
 10
1782.872611362584
 20
2078.311826709916
 30
0.0
 10
1776.073105424805
 20
2091.678009756078
 30
0.0
 10
1767.961585029504
 20
2104.780923226116
 30
0.0
 10
1758.547592974983
 20
2117.529313298494
 30
0.0
 10
1747.700961324061
 20
2130.01636603478
 30
0.0
 10
1736.323259390071
 20
2141.281618799894
 30
0.0
 10
1724.057670221754
 20
2151.914477129283
 30
0.0
 10
1711.587784944206
 20
2161.438147504974
 30
0.0
 10
1697.960217204544
 20
2170.624834664365
 30
0.0
 10
1679.467664658356
 20
2181.648604503322
 30
0.0
 10
1655.120021320998
 20
2193.654919759967
 30
0.0
 10
1625.010381956696
 20
2205.129472626113
 30
0.0
 10
1593.57317214626
 20
2214.084344263797
 30
0.0
 10
1561.521988895455
 20
2220.388210368273
 30
0.0
 10
1533.139779354819
 20
2223.652973770222
 30
0.0
 10
1511.662438701011
 20
2224.791134748566
 30
0.0
 10
1500.865939995567
 20
2224.950430983243
 30
0.0
 10
1496.696071040295
 20
2224.950430983243
 30
0.0
  0
SPLINE
  5
1241
102
{ACAD_REACTORS
330
124C
102
}
330
A
100
AcDbEntity
  8
HIDDEN
100
AcDbSpline
210
0.0
220
0.0
230
1.0
 70
     8
 71
     3
 72
    28
 73
    24
 74
     0
 42
0.000000001
 43
0.0000000001
 40
0.0
 40
0.0
 40
0.0
 40
0.0
 40
6.29174403832066
 40
16.51335774794631
 40
33.01190813293825
 40
50.26830791488272
 40
65.28271594357115
 40
80.2653334521183
 40
95.21506001261848
 40
111.4762164662494
 40
127.7678626416997
 40
144.7993150656985
 40
159.4771005631355
 40
176.4446594439087
 40
191.8470988698263
 40
208.763625650281
 40
241.0049871531017
 40
273.1875291739651
 40
305.3324737801237
 40
338.9821696707527
 40
371.0987255097066
 40
390.9773545896114
 40
403.4874081775368
 40
403.4874081775368
 40
403.4874081775368
 40
403.4874081775368
 10
1196.70231598028
 20
2014.978928448749
 30
0.0
 10
1196.70231598028
 20
2017.076016333338
 30
0.0
 10
1196.821247263523
 20
2022.580755798308
 30
0.0
 10
1197.680929127312
 20
2033.557695139106
 30
0.0
 10
1200.148885190467
 20
2048.030247117356
 30
0.0
 10
1204.650434423757
 20
2063.677117109411
 30
0.0
 10
1210.519530717999
 20
2078.311826709916
 30
0.0
 10
1217.319036655785
 20
2091.678009756078
 30
0.0
 10
1225.430557051086
 20
2104.780923226117
 30
0.0
 10
1234.8445491056
 20
2117.529313298494
 30
0.0
 10
1245.691180756522
 20
2130.01636603478
 30
0.0
 10
1257.068882690519
 20
2141.281618799895
 30
0.0
 10
1269.334471858829
 20
2151.914477129283
 30
0.0
 10
1281.804357136376
 20
2161.438147504974
 30
0.0
 10
1295.431924876046
 20
2170.624834664366
 30
0.0
 10
1313.924477422227
 20
2181.648604503322
 30
0.0
 10
1338.272120759585
 20
2193.654919759967
 30
0.0
 10
1368.381760123894
 20
2205.129472626113
 30
0.0
 10
1399.81896993433
 20
2214.084344263797
 30
0.0
 10
1431.870153185128
 20
2220.388210368273
 30
0.0
 10
1460.252362725771
 20
2223.652973770222
 30
0.0
 10
1481.729703379579
 20
2224.791134748566
 30
0.0
 10
1492.526202085023
 20
2224.950430983243
 30
0.0
 10
1496.696071040295
 20
2224.950430983243
 30
0.0
  0
SPLINE
  5
1242
330
A
100
AcDbEntity
  8
HIDDEN
100
AcDbSpline
210
0.0
220
0.0
230
1.0
 70
     8
 71
     3
 72
    28
 73
    24
 74
     0
 42
0.000000001
 43
0.0000000001
 40
0.0
 40
0.0
 40
0.0
 40
0.0
 40
6.291744038320673
 40
16.51335774794634
 40
33.01190813293832
 40
50.2683079148828
 40
65.28271594357163
 40
80.26533345211917
 40
95.21506001261973
 40
111.4762164662507
 40
127.7678626417011
 40
144.7993150656999
 40
159.4771005631368
 40
176.4446594439098
 40
191.8470988698272
 40
208.7636256502821
 40
241.0049871531031
 40
273.1875291739665
 40
305.3324737801246
 40
338.9821696707534
 40
371.0987255097074
 40
390.977354589612
 40
403.4874081775368
 40
403.4874081775368
 40
403.4874081775368
 40
403.4874081775368
 10
1196.70231598028
 20
2014.978928448749
 30
0.0
 10
1196.70231598028
 20
2012.88184056416
 30
0.0
 10
1196.821247263523
 20
2007.37710109919
 30
0.0
 10
1197.680929127312
 20
1996.400161758392
 30
0.0
 10
1200.148885190467
 20
1981.927609780141
 30
0.0
 10
1204.650434423757
 20
1966.280739788086
 30
0.0
 10
1210.519530717999
 20
1951.646030187582
 30
0.0
 10
1217.319036655785
 20
1938.279847141419
 30
0.0
 10
1225.430557051086
 20
1925.176933671381
 30
0.0
 10
1234.8445491056
 20
1912.428543599003
 30
0.0
 10
1245.691180756522
 20
1899.941490862717
 30
0.0
 10
1257.068882690519
 20
1888.676238097602
 30
0.0
 10
1269.334471858836
 20
1878.043379768214
 30
0.0
 10
1281.804357136376
 20
1868.519709392523
 30
0.0
 10
1295.431924876046
 20
1859.333022233131
 30
0.0
 10
1313.924477422227
 20
1848.309252394175
 30
0.0
 10
1338.272120759585
 20
1836.302937137531
 30
0.0
 10
1368.381760123894
 20
1824.828384271385
 30
0.0
 10
1399.81896993433
 20
1815.873512633701
 30
0.0
 10
1431.870153185128
 20
1809.569646529225
 30
0.0
 10
1460.252362725771
 20
1806.304883127276
 30
0.0
 10
1481.729703379579
 20
1805.166722148932
 30
0.0
 10
1492.526202085023
 20
1805.007425914255
 30
0.0
 10
1496.696071040295
 20
1805.007425914255
 30
0.0
  0
LINE
  5
1243
102
{ACAD_REACTORS
330
126A
102
}
330
A
100
AcDbEntity
  8
MODEL
  6
STYLE_06
100
AcDbLine
 10
1404.749518675427
 20
2014.978928448749
 30
0.0
 11
1588.642623405164
 21
2014.978928448749
 31
0.0
  0
LINE
  5
1244
330
A
100
AcDbEntity
  8
MODEL
  6
STYLE_06
100
AcDbLine
 10
1496.696071040295
 20
1953.847872730291
 30
0.0
 11
1496.696071040295
 21
2237.487451176203
 31
0.0
  0
LINE
  5
1245
102
{ACAD_REACTORS
330
1249
330
126A
102
}
330
A
100
AcDbEntity
  8
MODEL
  6
Continuous
100
AcDbLine
 10
1546.696071040295
 20
1964.978928448749
 30
0.0
 11
1546.696071040295
 21
2124.978928448749
 31
0.0
  0
LINE
  5
1246
102
{ACAD_REACTORS
330
1249
102
}
330
A
100
AcDbEntity
  8
MODEL
  6
Continuous
100
AcDbLine
 10
1446.696071040295
 20
1964.978928448749
 30
0.0
 11
1446.696071040295
 21
2124.978928448749
 31
0.0
  0
LINE
  5
1247
102
{ACAD_REACTORS
330
1249
330
125B
330
126A
330
1289
102
}
330
A
100
AcDbEntity
  8
MODEL
  6
Continuous
100
AcDbLine
 10
1446.696071040295
 20
1964.978928448749
 30
0.0
 11
1546.696071040295
 21
1964.978928448749
 31
0.0
  0
LINE
  5
1248
102
{ACAD_REACTORS
330
1249
330
124C
330
125B
330
127A
102
}
330
A
100
AcDbEntity
  8
MODEL
  6
Continuous
100
AcDbLine
 10
1446.696071040295
 20
2124.978928448749
 30
0.0
 11
1546.696071040295
 21
2124.978928448749
 31
0.0
  0
HATCH
  5
1249
330
A
100
AcDbEntity
  8
MODEL
  6
Continuous
100
AcDbHatch
 10
0.0
 20
0.0
 30
0.0
210
0.0
220
0.0
230
1.0
  2
ANSI31
 70
     0
 71
     1
 91
        1
 92
        1
 93
        4
 72
     1
 10
1446.696071040295
 20
1964.978928448749
 11
1446.696071040295
 21
2124.978928448749
 72
     1
 10
1446.696071040295
 20
2124.978928448749
 11
1546.696071040295
 21
2124.978928448749
 72
     1
 10
1546.696071040295
 20
1964.978928448749
 11
1546.696071040295
 21
2124.978928448749
 72
     1
 10
1446.696071040295
 20
1964.978928448749
 11
1546.696071040295
 21
1964.978928448749
 97
        4
330
1246
330
1248
330
1245
330
1247
 75
     0
 76
     1
 52
0.0
 41
2.0
 77
     0
 78
     1
 53
45.0
 43
-2609.676127685806
 44
160.5995453396649
 45
-4.490128060534576
 46
4.490128060534577
 79
     0
 98
        1
 10
-2609.676127685806
 20
160.5995453396649
1001
ACAD
1010
0.0
1020
0.0
1030
0.0
  0
DIMENSION
  5
124A
102
{ACAD_REACTORS
330
124C
102
}
102
{ACAD_XDICTIONARY
360
124B
102
}
330
A
100
AcDbEntity
  8
DIM
  6
Continuous
100
AcDbDimension
  2
*D15
 10
1359.290167558322
 20
2124.978928448749
 30
0.0
 11
1327.290167558322
 21
2174.964679715996
 31
0.0
 70
    32
 71
     5
 42
99.97150253449445
 73
     0
 74
     0
 75
     0
  3
tfrom線あり
100
AcDbAlignedDimension
 13
1496.696071040295
 23
2224.950430983243
 33
0.0
 14
1446.696071040295
 24
2124.978928448749
 34
0.0
 50
90.0
100
AcDbRotatedDimension
  0
DIMENSION
  5
1259
102
{ACAD_REACTORS
330
125B
102
}
102
{ACAD_XDICTIONARY
360
125A
102
}
330
A
100
AcDbEntity
  8
DIM
  6
Continuous
100
AcDbDimension
  2
*D16
 10
1359.290167558322
 20
1964.978928448749
 30
0.0
 11
1327.290167558322
 21
2044.978928448749
 31
0.0
 70
    32
 71
     5
 42
159.9999999999998
 73
     0
 74
     0
 75
     0
  3
tfrom線あり
100
AcDbAlignedDimension
 13
1446.696071040295
 23
2124.978928448749
 33
0.0
 14
1446.696071040295
 24
1964.978928448749
 34
0.0
 50
90.0
100
AcDbRotatedDimension
  0
DIMENSION
  5
1268
102
{ACAD_REACTORS
330
126A
102
}
102
{ACAD_XDICTIONARY
360
1269
102
}
330
A
100
AcDbEntity
  8
DIM
  6
Continuous
100
AcDbDimension
  2
*D17
 10
1603.190742553509
 20
1964.978928448749
 30
0.0
 11
1571.190742553509
 21
1989.978928448749
 31
0.0
 70
    32
 71
     5
 42
50.0
 73
     0
 74
     1
 75
     1
  3
tfrom線あり
100
AcDbAlignedDimension
 13
1546.696071040295
 23
2014.978928448749
 33
0.0
 14
1546.696071040295
 24
1964.978928448749
 34
0.0
 50
90.0
100
AcDbRotatedDimension
1001
ACAD
1000
DSTYLE
1002
{
1070
   172
1070
     1
1002
}
  0
DIMENSION
  5
1278
102
{ACAD_REACTORS
330
127A
102
}
102
{ACAD_XDICTIONARY
360
1279
102
}
330
A
100
AcDbEntity
  8
DIM
  6
Continuous
100
AcDbDimension
  2
*D18
 10
1603.190742553509
 20
2124.978928448749
 30
0.0
 11
1571.190742553509
 21
2069.978928448749
 31
0.0
 70
    32
 71
     5
 42
109.9999999999998
 73
     0
 74
     0
 75
     0
  3
tfrom線あり
100
AcDbAlignedDimension
 13
1546.696071040295
 23
2014.978928448749
 33
0.0
 14
1546.696071040295
 24
2124.978928448749
 34
0.0
 50
90.0
100
AcDbRotatedDimension
  0
DIMENSION
  5
1287
102
{ACAD_REACTORS
330
1289
102
}
102
{ACAD_XDICTIONARY
360
1288
102
}
330
A
100
AcDbEntity
  8
DIM
  6
Continuous
100
AcDbDimension
  2
*D19
 10
1546.696071040295
 20
1887.913028293793
 30
0.0
 11
1496.696071040295
 21
1919.913028293793
 31
0.0
 70
    32
 71
     5
 42
100.0
 73
     0
 74
     0
 75
     0
  3
tfrom線あり
100
AcDbAlignedDimension
 13
1446.696071040295
 23
1964.978928448749
 33
0.0
 14
1546.696071040295
 24
1964.978928448749
 34
0.0
100
AcDbRotatedDimension
  0
DIMENSION
  5
1297
330
A
100
AcDbEntity
  8
DIM
  6
Continuous
100
AcDbDimension
  2
*D20
 10
1479.690710534111
 20
1251.410750088084
 30
0.0
 11
1479.690710534111
 21
1360.426750088084
 31
0.0
 70
   160
 71
     5
 42
125.0
 73
     0
 74
     1
 75
     1
  3
tfrom線あり
100
AcDbAlignedDimension
 13
1489.690710534111
 23
1126.410750088084
 33
0.0
 14
1489.690710534111
 24
1251.410750088084
 34
0.0
 50
90.0
100
AcDbRotatedDimension
1001
ACAD
1000
DSTYLE
1002
{
1070
     3
1000
<>(深さ)
1070
   172
1070
     1
1002
}
  0
MTEXT
  5
12A7
330
A
100
AcDbEntity
  8
DIM
390
1D
100
AcDbMText
 10
1164.899347655809
 20
1718.375363489688
 30
0.0
 40
24.4326171875
 41
0.0
 46
118.0991272786459
 71
     1
 72
     1
  1
{\fメイリオ|b0|i0|c0|p0;※\fＭＳ ゴシック|b0|i0|c0|p0;陶器製品には寸法公差があります。\P  洗面器の収め方をご確認の上、必ず現物を合わせて\P  カウンターの切込を行ってください。}
  7
ＭＳ ゴシック
 73
     1
 44
1.1
1001
ACAD
1000
ACAD_MTEXT_DEFINED_HEIGHT_BEGIN
1070
    46
1040
118.0991272786459
1000
ACAD_MTEXT_DEFINED_HEIGHT_END
  0
MTEXT
  5
12A8
330
A
100
AcDbEntity
  8
DIM
390
1D
100
AcDbMText
 10
1354.959432490675
 20
2410.476755711512
 30
0.0
 40
24.4326171875
 41
290.6074621699909
 46
24.4326171875
 71
     1
 72
     1
  1
{カウンター切込寸法}
  7
ＭＳ ゴシック
 73
     1
 44
0.7828267384257843
1001
ACAD
1000
ACAD_MTEXT_DEFINED_HEIGHT_BEGIN
1070
    46
1040
24.4326171875
1000
ACAD_MTEXT_DEFINED_HEIGHT_END
  0
MTEXT
  5
12A9
330
A
100
AcDbEntity
  8
TEMPLATE
390
1D
100
AcDbMText
 10
1329.20214454799
 20
229.6056510389022
 30
0.0
 40
24.4326171875
 41
0.0
 46
24.4326171875
 71
     1
 72
     1
  1
{12.5kg}
  7
ＭＳ ゴシック
 73
     1
 44
0.7828267384257843
1001
ACAD
1000
ACAD_MTEXT_DEFINED_HEIGHT_BEGIN
1070
    46
1040
24.4326171875
1000
ACAD_MTEXT_DEFINED_HEIGHT_END
  0
MTEXT
  5
12AA
330
A
100
AcDbEntity
  8
TEMPLATE
390
1D
100
AcDbMText
 10
1579.922307988766
 20
229.6056510389022
 30
0.0
 40
24.4326171875
 41
0.0
 46
24.4326171875
 71
     1
 72
     1
  1
{7L}
  7
ＭＳ ゴシック
 73
     1
 44
0.7828267384257843
1001
ACAD
1000
ACAD_MTEXT_DEFINED_HEIGHT_BEGIN
1070
    46
1040
24.4326171875
1000
ACAD_MTEXT_DEFINED_HEIGHT_END
  0
VIEWPORT
  5
349
330
B
100
AcDbEntity
 67
     1
  8
0
100
AcDbViewport
 10
202.5
 20
128.5
 30
0.0
 40
486.0
 41
308.4
 68
     1
 69
     1
 12
202.5
 22
128.5
 13
0.0
 23
0.0
 14
0.5
 24
0.5
 15
0.0
 25
0.0
 16
0.0
 26
0.0
 36
1.0
 17
0.0
 27
0.0
 37
0.0
 42
50.0
 43
0.0
 44
0.0
 45
308.4
 50
0.0
 51
0.0
 72
   100
 90
   557152
  1

281
     0
 71
     1
 74
     0
110
0.0
120
0.0
130
0.0
111
1.0
121
0.0
131
0.0
112
0.0
122
1.0
132
0.0
 79
     0
146
0.0
170
     0
 61
     5
348
26C
292
     1
282
     1
141
0.0
142
0.0
 63
   256
  0
VIEWPORT
  5
34A
330
B
100
AcDbEntity
 67
     1
  8
0
100
AcDbViewport
 10
202.5
 20
128.5
 30
0.0
 40
324.0
 41
205.6
 68
     2
 69
     2
 12
986.6781359294573
 22
1427.077061889956
 13
0.0
 23
0.0
 14
0.5
 24
0.5
 15
0.0
 25
0.0
 16
0.0
 26
0.0
 36
1.0
 17
0.0
 27
0.0
 37
0.0
 42
50.0
 43
0.0
 44
0.0
 45
2890.021615685494
 50
0.0
 51
0.0
 72
   100
 90
   557152
  1

281
     0
 71
     1
 74
     0
110
0.0
120
0.0
130
0.0
111
1.0
121
0.0
131
0.0
112
0.0
122
1.0
132
0.0
 79
     0
146
0.0
170
     0
 61
     5
348
26C
292
     1
282
     1
141
0.0
142
0.0
 63
   256
  0
ENDSEC
  0
SECTION
  2
OBJECTS
  0
DICTIONARY
  5
19
330
0
100
AcDbDictionary
281
     1
  3
ACAD_COLOR
350
674
  3
ACAD_DETAILVIEWSTYLE
350
BBF
  3
ACAD_GROUP
350
1A
  3
ACAD_IMAGE_VARS
350
27B
  3
ACAD_LAYOUT
350
1E
  3
ACAD_MATERIAL
350
263
  3
ACAD_MLEADERSTYLE
350
336
  3
ACAD_MLINESTYLE
350
1B
  3
ACAD_PLOTSETTINGS
350
22
  3
ACAD_PLOTSTYLENAME
350
1F
  3
ACAD_SCALELIST
350
241
  3
ACAD_SECTIONVIEWSTYLE
350
BC0
  3
ACAD_TABLESTYLE
350
278
  3
ACAD_VISUALSTYLE
350
267
  3
ACDB_RECOMPOSE_DATA
350
12C8
  3
AcDbVariableDictionary
350
330
  3
APPDATA
350
27A
  0
SUN
  5
904
330
15
100
AcDbSun
 90
        1
290
     0
 63
     7
421
 16777215
 40
1.0
291
     1
 91
  2455826
 92
 54000000
292
     0
 70
     2
 71
   256
280
     1
  0
DICTIONARY
  5
2E1
330
2
100
AcDbDictionary
280
     1
281
     1
  3
ACAD_LAYERSTATES
360
2E2
  3
ACLYDICTIONARY
360
D22
  0
DICTIONARY
  5
11F8
330
11F7
100
AcDbDictionary
280
     1
281
     1
  3
ACAD_DIMASSOC
360
11F9
  0
DICTIONARY
  5
1207
330
1206
100
AcDbDictionary
280
     1
281
     1
  3
ACAD_DIMASSOC
360
1208
  0
DICTIONARY
  5
1225
330
1224
100
AcDbDictionary
280
     1
281
     1
  3
ACAD_DIMASSOC
360
1226
  0
DICTIONARY
  5
124B
330
124A
100
AcDbDictionary
280
     1
281
     1
  3
ACAD_DIMASSOC
360
124C
  0
DICTIONARY
  5
125A
330
1259
100
AcDbDictionary
280
     1
281
     1
  3
ACAD_DIMASSOC
360
125B
  0
DICTIONARY
  5
1269
330
1268
100
AcDbDictionary
280
     1
281
     1
  3
ACAD_DIMASSOC
360
126A
  0
DICTIONARY
  5
1279
330
1278
100
AcDbDictionary
280
     1
281
     1
  3
ACAD_DIMASSOC
360
127A
  0
DICTIONARY
  5
1288
330
1287
100
AcDbDictionary
280
     1
281
     1
  3
ACAD_DIMASSOC
360
1289
  0
DICTIONARY
  5
674
102
{ACAD_REACTORS
330
19
102
}
330
19
100
AcDbDictionary
281
     1
  0
DICTIONARY
  5
BBF
102
{ACAD_REACTORS
330
19
102
}
330
19
100
AcDbDictionary
281
     1
  0
DICTIONARY
  5
1A
102
{ACAD_REACTORS
330
19
102
}
330
19
100
AcDbDictionary
281
     1
  0
RASTERVARIABLES
  5
27B
102
{ACAD_REACTORS
330
19
102
}
330
19
100
AcDbRasterVariables
 90
        0
 70
     1
 71
     1
 72
     1
  0
DICTIONARY
  5
1E
102
{ACAD_REACTORS
330
19
102
}
330
19
100
AcDbDictionary
281
     1
  3
Layout1
350
21
  3
Model
350
20
  0
DICTIONARY
  5
263
102
{ACAD_REACTORS
330
19
102
}
330
19
100
AcDbDictionary
281
     1
  3
ByBlock
350
12C5
  3
ByLayer
350
264
  3
Global
350
266
  0
DICTIONARY
  5
336
102
{ACAD_REACTORS
330
19
102
}
330
19
100
AcDbDictionary
281
     1
  0
DICTIONARY
  5
1B
102
{ACAD_REACTORS
330
19
102
}
330
19
100
AcDbDictionary
281
     1
  3
Standard
350
1C
  0
DICTIONARY
  5
22
102
{ACAD_REACTORS
330
19
102
}
330
19
100
AcDbDictionary
281
     1
  0
ACDBDICTIONARYWDFLT
  5
1F
102
{ACAD_REACTORS
330
19
102
}
330
19
100
AcDbDictionary
281
     1
  3
Normal
350
1D
100
AcDbDictionaryWithDefault
340
1D
  0
DICTIONARY
  5
241
102
{ACAD_REACTORS
330
19
102
}
330
19
100
AcDbDictionary
281
     1
  3
A0
350
242
  3
A1
350
243
  3
A2
350
244
  3
A3
350
245
  3
A4
350
246
  3
A5
350
247
  3
A6
350
248
  3
A7
350
249
  3
A8
350
24A
  3
A9
350
24B
  3
B0
350
24C
  3
B1
350
24D
  3
B2
350
24E
  3
B3
350
24F
  3
B4
350
250
  3
B5
350
251
  3
B6
350
252
  3
B7
350
253
  3
B8
350
254
  3
B9
350
255
  3
C0
350
256
  3
C1
350
257
  3
C2
350
258
  3
C3
350
259
  3
C4
350
25A
  3
C5
350
25B
  3
C6
350
25C
  3
C7
350
25D
  3
C8
350
25E
  3
C9
350
25F
  3
D0
350
260
  3
D1
350
261
  3
D2
350
262
  0
DICTIONARY
  5
BC0
102
{ACAD_REACTORS
330
19
102
}
330
19
100
AcDbDictionary
281
     1
  0
DICTIONARY
  5
278
102
{ACAD_REACTORS
330
19
102
}
330
19
100
AcDbDictionary
281
     1
  3
Standard
350
279
  0
DICTIONARY
  5
267
102
{ACAD_REACTORS
330
19
102
}
330
19
100
AcDbDictionary
281
     1
  3
2dWireframe
350
26C
  3
3D Hidden
350
26E
  3
3dWireframe
350
26D
  3
Basic
350
26F
  3
Brighten
350
273
  3
ColorChange
350
277
  3
Conceptual
350
271
  3
Dim
350
272
  3
EdgeColorOff
350
8FE
  3
Facepattern
350
276
  3
Flat
350
268
  3
FlatWithEdges
350
269
  3
Gouraud
350
26A
  3
GouraudWithEdges
350
26B
  3
Hidden
350
8FB
  3
JitterOff
350
8FC
  3
Linepattern
350
275
  3
OverhangOff
350
8FD
  3
Realistic
350
270
  3
Shaded
350
903
  3
Shaded with edges
350
902
  3
Shades of Gray
350
8FF
  3
Sketchy
350
900
  3
Thicken
350
274
  3
Wireframe
350
8FA
  3
X-Ray
350
901
  0
XRECORD
  5
12C8
102
{ACAD_REACTORS
330
19
102
}
330
19
100
AcDbXrecord
280
     1
 90
        1
330
279
  0
DICTIONARY
  5
330
102
{ACAD_REACTORS
330
19
102
}
330
19
100
AcDbDictionary
281
     1
  3
CANNOSCALE
350
331
  3
CTABLESTYLE
350
335
  3
HPTRANSPARENCY
350
D52
  3
XCLIPFRAME
350
896
  0
DICTIONARY
  5
27A
102
{ACAD_REACTORS
330
19
102
}
330
19
100
AcDbDictionary
281
     1
  0
DICTIONARY
  5
2E2
102
{ACAD_REACTORS
330
2E1
102
}
330
2E1
100
AcDbDictionary
281
     1
  3
ARGON_LAYERP_2
350
88B
  3
ARGON_LAYERP_3
350
88F
  3
ARGON_LAYERP_4
350
892
  3
ARGON_LAYERP_5
350
8F6
  3
ARGON_LAYERP_6
350
BC1
  3
ARGON_LAYERP_7
350
C9E
  3
ARGON_LAYERP_8
350
C9F
  3
ARGON_LAYERP_9
350
7AA
  0
DICTIONARY
  5
D22
102
{ACAD_REACTORS
330
2E1
102
}
330
2E1
100
AcDbDictionary
281
     1
1001
ACAD
1000
<All
  0
DIMASSOC
  5
11F9
102
{ACAD_REACTORS
330
11F8
102
}
330
11F8
100
AcDbDimAssoc
330
11F7
 90
        1
 70
     0
 71
     1
  1
AcDbOsnapPointRef
 72
     1
331
1097
 73
     0
 91
        0
 40
0.0
 10
0.0
 20
0.0
 30
0.0
 75
     0
  0
DIMASSOC
  5
1208
102
{ACAD_REACTORS
330
1207
102
}
330
1207
100
AcDbDimAssoc
330
1206
 90
        1
 70
     0
 71
     1
  1
AcDbOsnapPointRef
 72
    13
331
FE6
 73
     0
 91
        0
 40
0.0
 10
0.0
 20
0.0
 30
0.0
 75
     0
  0
DIMASSOC
  5
1226
102
{ACAD_REACTORS
330
1225
102
}
330
1225
100
AcDbDimAssoc
330
1224
 90
        1
 70
     0
 71
     1
  1
AcDbOsnapPointRef
 72
     2
331
100D
 73
     0
 91
        0
 40
0.5
 10
0.0
 20
0.0
 30
0.0
 75
     0
  0
DIMASSOC
  5
124C
102
{ACAD_REACTORS
330
124B
102
}
330
124B
100
AcDbDimAssoc
330
124A
 90
        3
 70
     0
 71
     1
  1
AcDbOsnapPointRef
 72
     1
331
1241
 73
     0
 91
        0
 40
0.0
 10
0.0
 20
0.0
 30
0.0
 75
     0
  1
AcDbOsnapPointRef
 72
    13
331
1248
 73
     0
 91
        0
 40
0.0
 10
0.0
 20
0.0
 30
0.0
 75
     0
  0
DIMASSOC
  5
125B
102
{ACAD_REACTORS
330
125A
102
}
330
125A
100
AcDbDimAssoc
330
1259
 90
        3
 70
     0
 71
     1
  1
AcDbOsnapPointRef
 72
    13
331
1248
 73
     0
 91
        0
 40
0.0
 10
0.0
 20
0.0
 30
0.0
 75
     0
  1
AcDbOsnapPointRef
 72
    13
331
1247
 73
     0
 91
        0
 40
0.0
 10
0.0
 20
0.0
 30
0.0
 75
     0
  0
DIMASSOC
  5
126A
102
{ACAD_REACTORS
330
1269
102
}
330
1269
100
AcDbDimAssoc
330
1268
 90
        3
 70
     0
 71
     1
  1
AcDbOsnapPointRef
 72
     6
331
1245
 73
     0
 91
        0
 40
0.3125
 10
0.0
 20
0.0
 30
0.0
332
1243
 74
     0
 92
        0
 75
     0
  1
AcDbOsnapPointRef
 72
     1
331
1247
 73
     0
 91
        0
 40
0.0
 10
0.0
 20
0.0
 30
0.0
 75
     0
  0
DIMASSOC
  5
127A
102
{ACAD_REACTORS
330
1279
102
}
330
1279
100
AcDbDimAssoc
330
1278
 90
        2
 70
     0
 71
     1
  1
AcDbOsnapPointRef
 72
     1
331
1248
 73
     0
 91
        0
 40
0.0
 10
0.0
 20
0.0
 30
0.0
 75
     0
  0
DIMASSOC
  5
1289
102
{ACAD_REACTORS
330
1288
102
}
330
1288
100
AcDbDimAssoc
330
1287
 90
        3
 70
     0
 71
     1
  1
AcDbOsnapPointRef
 72
    13
331
1247
 73
     0
 91
        0
 40
0.0
 10
0.0
 20
0.0
 30
0.0
 75
     0
  1
AcDbOsnapPointRef
 72
     1
331
1247
 73
     0
 91
        0
 40
0.0
 10
0.0
 20
0.0
 30
0.0
 75
     0
  0
LAYOUT
  5
21
102
{ACAD_REACTORS
330
1E
102
}
330
1E
100
AcDbPlotSettings
  1

  2
none_device
  4
ISO_A3_(420.00_x_297.00_MM)
  6

 40
7.5
 41
20.0
 42
7.5
 43
20.0
 44
420.0
 45
297.0
 46
0.0
 47
0.0
 48
0.0
 49
0.0
140
0.0
141
0.0
142
1.0
143
1.0
 70
     0
 72
     1
 73
     0
 74
     0
  7

 75
     0
 76
     0
 77
     2
 78
   300
147
1.0
148
0.0
149
0.0
100
AcDbLayout
  1
Layout1
 70
     0
 71
     0
 10
-7.5
 20
-20.0
 11
412.5
 21
277.0
 12
0.0
 22
0.0
 32
0.0
 14
0.0
 24
0.0
 34
0.0
 15
0.0
 25
0.0
 35
0.0
146
0.0
 13
0.0
 23
0.0
 33
0.0
 16
0.0
 26
0.0
 36
0.0
 17
0.0
 27
0.0
 37
0.0
 76
     0
330
B
331
349
  0
LAYOUT
  5
20
102
{ACAD_REACTORS
330
1E
102
}
330
1E
100
AcDbPlotSettings
  1

  2
none_device
  4
ISO_A3_(420.00_x_297.00_MM)
  6

 40
7.5
 41
20.0
 42
7.5
 43
20.0
 44
420.0
 45
297.0
 46
0.0
 47
0.0
 48
0.0
 49
0.0
140
0.0
141
0.0
142
1.0
143
1.0
 70
  1024
 72
     1
 73
     0
 74
     0
  7

 75
     0
 76
     0
 77
     2
 78
   300
147
1.0
148
0.0
149
0.0
100
AcDbLayout
  1
Model
 70
     0
 71
     1
 10
0.0
 20
0.0
 11
2100.0
 21
2970.0
 12
0.0
 22
0.0
 32
0.0
 14
72.20214454724874
 24
63.79214832457114
 34
0.0
 15
2022.202144547732
 25
2897.146673506426
 35
0.0
146
0.0
 13
0.0
 23
0.0
 33
0.0
 16
0.0
 26
0.0
 36
0.0
 17
0.0
 27
0.0
 37
0.0
 76
     0
330
A
331
15
  0
MATERIAL
  5
12C5
102
{ACAD_REACTORS
330
263
102
}
330
263
100
AcDbMaterial
  1
ByBlock
 72
     1
 94
      127
  0
MATERIAL
  5
264
102
{ACAD_REACTORS
330
263
102
}
330
263
100
AcDbMaterial
  1
ByLayer
 72
     1
 94
      127
  0
MATERIAL
  5
266
102
{ACAD_REACTORS
330
263
102
}
330
263
100
AcDbMaterial
  1
Global
 72
     1
 94
      127
  0
MLINESTYLE
  5
1C
102
{ACAD_REACTORS
330
1B
102
}
330
1B
100
AcDbMlineStyle
  2
Standard
 70
     0
  3

 62
     0
 51
90.0
 52
90.0
 71
     2
 49
0.5
 62
   256
  6
BYLAYER
 49
-0.5
 62
   256
  6
BYLAYER
  0
ACDBPLACEHOLDER
  5
1D
102
{ACAD_REACTORS
330
1F
102
}
330
1F
  0
SCALE
  5
242
102
{ACAD_REACTORS
330
241
102
}
330
241
100
AcDbScale
 70
     0
300
1:1
140
1.0
141
1.0
290
     1
  0
SCALE
  5
243
102
{ACAD_REACTORS
330
241
102
}
330
241
100
AcDbScale
 70
     0
300
1:2
140
1.0
141
2.0
290
     0
  0
SCALE
  5
244
102
{ACAD_REACTORS
330
241
102
}
330
241
100
AcDbScale
 70
     0
300
1:4
140
1.0
141
4.0
290
     0
  0
SCALE
  5
245
102
{ACAD_REACTORS
330
241
102
}
330
241
100
AcDbScale
 70
     0
300
1:5
140
1.0
141
5.0
290
     0
  0
SCALE
  5
246
102
{ACAD_REACTORS
330
241
102
}
330
241
100
AcDbScale
 70
     0
300
1:8
140
1.0
141
8.0
290
     0
  0
SCALE
  5
247
102
{ACAD_REACTORS
330
241
102
}
330
241
100
AcDbScale
 70
     0
300
1:10
140
1.0
141
10.0
290
     0
  0
SCALE
  5
248
102
{ACAD_REACTORS
330
241
102
}
330
241
100
AcDbScale
 70
     0
300
1:16
140
1.0
141
16.0
290
     0
  0
SCALE
  5
249
102
{ACAD_REACTORS
330
241
102
}
330
241
100
AcDbScale
 70
     0
300
1:20
140
1.0
141
20.0
290
     0
  0
SCALE
  5
24A
102
{ACAD_REACTORS
330
241
102
}
330
241
100
AcDbScale
 70
     0
300
1:30
140
1.0
141
30.0
290
     0
  0
SCALE
  5
24B
102
{ACAD_REACTORS
330
241
102
}
330
241
100
AcDbScale
 70
     0
300
1:40
140
1.0
141
40.0
290
     0
  0
SCALE
  5
24C
102
{ACAD_REACTORS
330
241
102
}
330
241
100
AcDbScale
 70
     0
300
1:50
140
1.0
141
50.0
290
     0
  0
SCALE
  5
24D
102
{ACAD_REACTORS
330
241
102
}
330
241
100
AcDbScale
 70
     0
300
1:100
140
1.0
141
100.0
290
     0
  0
SCALE
  5
24E
102
{ACAD_REACTORS
330
241
102
}
330
241
100
AcDbScale
 70
     0
300
2:1
140
2.0
141
1.0
290
     0
  0
SCALE
  5
24F
102
{ACAD_REACTORS
330
241
102
}
330
241
100
AcDbScale
 70
     0
300
4:1
140
4.0
141
1.0
290
     0
  0
SCALE
  5
250
102
{ACAD_REACTORS
330
241
102
}
330
241
100
AcDbScale
 70
     0
300
8:1
140
8.0
141
1.0
290
     0
  0
SCALE
  5
251
102
{ACAD_REACTORS
330
241
102
}
330
241
100
AcDbScale
 70
     0
300
10:1
140
10.0
141
1.0
290
     0
  0
SCALE
  5
252
102
{ACAD_REACTORS
330
241
102
}
330
241
100
AcDbScale
 70
     0
300
100:1
140
100.0
141
1.0
290
     0
  0
SCALE
  5
253
102
{ACAD_REACTORS
330
241
102
}
330
241
100
AcDbScale
 70
     0
300
1/128" = 1'-0"
140
0.0078125
141
12.0
290
     0
  0
SCALE
  5
254
102
{ACAD_REACTORS
330
241
102
}
330
241
100
AcDbScale
 70
     0
300
1/64" = 1'-0"
140
0.015625
141
12.0
290
     0
  0
SCALE
  5
255
102
{ACAD_REACTORS
330
241
102
}
330
241
100
AcDbScale
 70
     0
300
1/32" = 1'-0"
140
0.03125
141
12.0
290
     0
  0
SCALE
  5
256
102
{ACAD_REACTORS
330
241
102
}
330
241
100
AcDbScale
 70
     0
300
1/16" = 1'-0"
140
0.0625
141
12.0
290
     0
  0
SCALE
  5
257
102
{ACAD_REACTORS
330
241
102
}
330
241
100
AcDbScale
 70
     0
300
3/32" = 1'-0"
140
0.09375
141
12.0
290
     0
  0
SCALE
  5
258
102
{ACAD_REACTORS
330
241
102
}
330
241
100
AcDbScale
 70
     0
300
1/8" = 1'-0"
140
0.125
141
12.0
290
     0
  0
SCALE
  5
259
102
{ACAD_REACTORS
330
241
102
}
330
241
100
AcDbScale
 70
     0
300
3/16" = 1'-0"
140
0.1875
141
12.0
290
     0
  0
SCALE
  5
25A
102
{ACAD_REACTORS
330
241
102
}
330
241
100
AcDbScale
 70
     0
300
1/4" = 1'-0"
140
0.25
141
12.0
290
     0
  0
SCALE
  5
25B
102
{ACAD_REACTORS
330
241
102
}
330
241
100
AcDbScale
 70
     0
300
3/8" = 1'-0"
140
0.375
141
12.0
290
     0
  0
SCALE
  5
25C
102
{ACAD_REACTORS
330
241
102
}
330
241
100
AcDbScale
 70
     0
300
1/2" = 1'-0"
140
0.5
141
12.0
290
     0
  0
SCALE
  5
25D
102
{ACAD_REACTORS
330
241
102
}
330
241
100
AcDbScale
 70
     0
300
3/4" = 1'-0"
140
0.75
141
12.0
290
     0
  0
SCALE
  5
25E
102
{ACAD_REACTORS
330
241
102
}
330
241
100
AcDbScale
 70
     0
300
1" = 1'-0"
140
1.0
141
12.0
290
     0
  0
SCALE
  5
25F
102
{ACAD_REACTORS
330
241
102
}
330
241
100
AcDbScale
 70
     0
300
1-1/2" = 1'-0"
140
1.5
141
12.0
290
     0
  0
SCALE
  5
260
102
{ACAD_REACTORS
330
241
102
}
330
241
100
AcDbScale
 70
     0
300
3" = 1'-0"
140
3.0
141
12.0
290
     0
  0
SCALE
  5
261
102
{ACAD_REACTORS
330
241
102
}
330
241
100
AcDbScale
 70
     0
300
6" = 1'-0"
140
6.0
141
12.0
290
     0
  0
SCALE
  5
262
102
{ACAD_REACTORS
330
241
102
}
330
241
100
AcDbScale
 70
     0
300
1'-0" = 1'-0"
140
12.0
141
12.0
290
     0
  0
TABLESTYLE
  5
279
102
{ACAD_REACTORS
330
278
102
}
102
{ACAD_XDICTIONARY
360
12C6
102
}
330
278
100
AcDbTableStyle
  3
Standard
 70
     0
 71
     0
 40
0.06
 41
0.06
280
     0
281
     0
  7
Standard
140
4.5
170
     2
 62
     0
 63
   257
283
     0
 90
        4
 91
        0
  1

274
    -2
284
     1
 64
     0
275
    -2
285
     1
 65
     0
276
    -2
286
     1
 66
     0
277
    -2
287
     1
 67
     0
278
    -2
288
     1
 68
     0
279
    -2
289
     1
 69
     0
  7
Standard
140
6.0
170
     5
 62
     0
 63
   257
283
     0
 90
        4
 91
        0
  1

274
    -2
284
     1
 64
     0
275
    -2
285
     1
 65
     0
276
    -2
286
     1
 66
     0
277
    -2
287
     1
 67
     0
278
    -2
288
     1
 68
     0
279
    -2
289
     1
 69
     0
  7
Standard
140
4.5
170
     5
 62
     0
 63
   257
283
     0
 90
        4
 91
        0
  1

274
    -2
284
     1
 64
     0
275
    -2
285
     1
 65
     0
276
    -2
286
     1
 66
     0
277
    -2
287
     1
 67
     0
278
    -2
288
     1
 68
     0
279
    -2
289
     1
 69
     0
  0
VISUALSTYLE
  5
26C
102
{ACAD_REACTORS
330
267
102
}
330
267
100
AcDbVisualStyle
  2
2dWireframe
 70
     4
 71
     0
 72
     2
 73
     0
 90
        0
 40
-0.6
 41
-30.0
 62
     5
 63
     7
421
 16777215
 74
     1
 91
        4
 64
     7
 65
   257
 75
     1
175
     1
 42
1.0
 92
        0
 66
   257
 43
1.0
 76
     1
 77
     6
 78
     2
 67
     7
 79
     5
170
     0
171
     0
290
     0
174
     0
 93
        1
 44
0.0
173
     0
291
     0
 45
0.0
  0
VISUALSTYLE
  5
26E
102
{ACAD_REACTORS
330
267
102
}
330
267
100
AcDbVisualStyle
  2
3D Hidden
 70
     6
 71
     1
 72
     2
 73
     2
 90
        0
 40
-0.6
 41
-30.0
 62
     5
 63
     7
421
 16777215
 74
     2
 91
        2
 64
     7
 65
   257
 75
     2
175
     1
 42
40.0
 92
        0
 66
   257
 43
1.0
 76
     1
 77
     6
 78
     2
 67
     7
 79
     3
170
     0
171
     0
290
     0
174
     0
 93
        1
 44
0.0
173
     0
291
     0
 45
0.0
  0
VISUALSTYLE
  5
26D
102
{ACAD_REACTORS
330
267
102
}
330
267
100
AcDbVisualStyle
  2
3dWireframe
 70
     5
 71
     0
 72
     2
 73
     0
 90
        0
 40
-0.6
 41
-30.0
 62
     5
 63
     7
421
 16777215
 74
     1
 91
        4
 64
     7
 65
   257
 75
     1
175
     1
 42
1.0
 92
        0
 66
   257
 43
1.0
 76
     1
 77
     6
 78
     2
 67
     7
 79
     5
170
     0
171
     0
290
     0
174
     0
 93
        1
 44
0.0
173
     0
291
     0
 45
0.0
  0
VISUALSTYLE
  5
26F
102
{ACAD_REACTORS
330
267
102
}
330
267
100
AcDbVisualStyle
  2
Basic
 70
     7
 71
     1
 72
     0
 73
     1
 90
        0
 40
-0.6
 41
-30.0
 62
     5
 63
     7
421
 16777215
 74
     0
 91
        4
 64
     7
 65
   257
 75
     1
175
     1
 42
1.0
 92
        8
 66
     7
 43
1.0
 76
     1
 77
     6
 78
     2
 67
     7
 79
     5
170
     0
171
     0
290
     0
174
     0
 93
        1
 44
0.0
173
     0
291
     1
 45
0.0
  0
VISUALSTYLE
  5
273
102
{ACAD_REACTORS
330
267
102
}
330
267
100
AcDbVisualStyle
  2
Brighten
 70
    12
 71
     2
 72
     2
 73
     0
 90
        0
 40
-0.6
 41
-30.0
 62
     5
 63
     7
421
 16777215
 74
     1
 91
        4
 64
     7
 65
   257
 75
     1
175
     1
 42
1.0
 92
        8
 66
     7
 43
1.0
 76
     1
 77
     6
 78
     2
 67
     7
 79
     5
170
     0
171
     0
290
     0
174
     0
 93
        1
 44
50.0
173
     0
291
     1
 45
0.0
  0
VISUALSTYLE
  5
277
102
{ACAD_REACTORS
330
267
102
}
330
267
100
AcDbVisualStyle
  2
ColorChange
 70
    16
 71
     2
 72
     2
 73
     3
 90
        0
 40
-0.6
 41
-30.0
 62
     5
 63
     8
421
  8421504
 74
     1
 91
        4
 64
     7
 65
   257
 75
     1
175
     1
 42
1.0
 92
        8
 66
     8
424
  8421504
 43
1.0
 76
     1
 77
     6
 78
     2
 67
     7
 79
     5
170
     0
171
     0
290
     0
174
     0
 93
        1
 44
0.0
173
     0
291
     1
 45
0.0
  0
VISUALSTYLE
  5
271
102
{ACAD_REACTORS
330
267
102
}
330
267
100
AcDbVisualStyle
  2
Conceptual
 70
     9
 71
     3
 72
     2
 73
     0
 90
        0
 40
-0.6
 41
-30.0
 62
     5
 63
     7
421
 16777215
 74
     2
 91
        2
 64
     7
 65
   257
 75
     1
175
     1
 42
40.0
 92
        8
 66
     7
 43
1.0
 76
     1
 77
     6
 78
     2
 67
     7
 79
     3
170
     0
171
     0
290
     0
174
     0
 93
        1
 44
0.0
173
     0
291
     0
 45
0.0
  0
VISUALSTYLE
  5
272
102
{ACAD_REACTORS
330
267
102
}
330
267
100
AcDbVisualStyle
  2
Dim
 70
    11
 71
     2
 72
     2
 73
     0
 90
        0
 40
-0.6
 41
-30.0
 62
     5
 63
     7
421
 16777215
 74
     1
 91
        4
 64
     7
 65
   257
 75
     1
175
     1
 42
1.0
 92
        8
 66
     7
 43
1.0
 76
     1
 77
     6
 78
     2
 67
     7
 79
     5
170
     0
171
     0
290
     0
174
     0
 93
        1
 44
-50.0
173
     0
291
     1
 45
0.0
  0
VISUALSTYLE
  5
8FE
102
{ACAD_REACTORS
330
267
102
}
330
267
100
AcDbVisualStyle
  2
EdgeColorOff
 70
    22
 71
     2
 72
     2
 73
     0
 90
        0
 40
0.6
 41
30.0
 62
     5
 63
     7
421
 16777215
 74
     1
 91
        4
 64
     7
 65
   257
 75
     1
175
     1
 42
1.0
 92
        8
 66
     7
 43
1.0
 76
     1
 77
     6
 78
     2
 67
     7
 79
     5
170
     0
171
     0
290
     0
174
     0
 93
        1
 44
0.0
173
     0
291
     1
 45
0.0
  0
VISUALSTYLE
  5
276
102
{ACAD_REACTORS
330
267
102
}
330
267
100
AcDbVisualStyle
  2
Facepattern
 70
    15
 71
     2
 72
     2
 73
     0
 90
        0
 40
-0.6
 41
-30.0
 62
     5
 63
     7
421
 16777215
 74
     1
 91
        4
 64
     7
 65
   257
 75
     1
175
     1
 42
1.0
 92
        8
 66
     7
 43
1.0
 76
     1
 77
     6
 78
     2
 67
     7
 79
     5
170
     0
171
     0
290
     0
174
     0
 93
        1
 44
0.0
173
     0
291
     1
 45
0.0
  0
VISUALSTYLE
  5
268
102
{ACAD_REACTORS
330
267
102
}
330
267
100
AcDbVisualStyle
  2
Flat
 70
     0
 71
     2
 72
     1
 73
     1
 90
        2
 40
-0.6
 41
30.0
 62
     5
 63
     7
421
 16777215
 74
     0
 91
        4
 64
     7
 65
   257
 75
     1
175
     1
 42
1.0
 92
        8
 66
     7
 43
1.0
 76
     1
 77
     6
 78
     2
 67
     7
 79
     5
170
     0
171
     0
290
     0
174
     0
 93
       13
 44
0.0
173
     0
291
     1
 45
0.0
  0
VISUALSTYLE
  5
269
102
{ACAD_REACTORS
330
267
102
}
330
267
100
AcDbVisualStyle
  2
FlatWithEdges
 70
     1
 71
     2
 72
     1
 73
     1
 90
        2
 40
-0.6
 41
30.0
 62
     5
 63
     7
421
 16777215
 74
     1
 91
        4
 64
     7
 65
   257
 75
     1
175
     1
 42
1.0
 92
        0
 66
   257
 43
1.0
 76
     1
 77
     6
 78
     2
 67
     7
 79
     5
170
     0
171
     0
290
     0
174
     0
 93
       13
 44
0.0
173
     0
291
     1
 45
0.0
  0
VISUALSTYLE
  5
26A
102
{ACAD_REACTORS
330
267
102
}
330
267
100
AcDbVisualStyle
  2
Gouraud
 70
     2
 71
     2
 72
     2
 73
     1
 90
        2
 40
-0.6
 41
30.0
 62
     5
 63
     7
421
 16777215
 74
     0
 91
        4
 64
     7
 65
   257
 75
     1
175
     1
 42
1.0
 92
        0
 66
     7
 43
1.0
 76
     1
 77
     6
 78
     2
 67
     7
 79
     5
170
     0
171
     0
290
     0
174
     0
 93
       13
 44
0.0
173
     0
291
     1
 45
0.0
  0
VISUALSTYLE
  5
26B
102
{ACAD_REACTORS
330
267
102
}
330
267
100
AcDbVisualStyle
  2
GouraudWithEdges
 70
     3
 71
     2
 72
     2
 73
     1
 90
        2
 40
-0.6
 41
30.0
 62
     5
 63
     7
421
 16777215
 74
     1
 91
        4
 64
     7
 65
   257
 75
     1
175
     1
 42
1.0
 92
        0
 66
   257
 43
1.0
 76
     1
 77
     6
 78
     2
 67
     7
 79
     5
170
     0
171
     0
290
     0
174
     0
 93
       13
 44
0.0
173
     0
291
     1
 45
0.0
  0
VISUALSTYLE
  5
8FB
102
{ACAD_REACTORS
330
267
102
}
330
267
100
AcDbVisualStyle
  2
Hidden
 70
     6
 71
     1
 72
     2
 73
     2
 90
        0
 40
0.6
 41
30.0
 62
     5
 63
     7
421
 16777215
 74
     2
 91
        2
 64
     7
 65
   257
 75
     2
175
     1
 42
40.0
 92
        0
 66
   257
 43
1.0
 76
     1
 77
     6
 78
     2
 67
     7
 79
     3
170
     0
171
     0
290
     0
174
     0
 93
        1
 44
0.0
173
     0
291
     0
 45
0.0
  0
VISUALSTYLE
  5
8FC
102
{ACAD_REACTORS
330
267
102
}
330
267
100
AcDbVisualStyle
  2
JitterOff
 70
    20
 71
     2
 72
     2
 73
     0
 90
        0
 40
0.6
 41
30.0
 62
     5
 63
     7
421
 16777215
 74
     1
 91
        4
 64
     7
 65
   257
 75
     1
175
     1
 42
1.0
 92
       10
 66
     7
 43
1.0
 76
     1
 77
     6
 78
     2
 67
     7
 79
     5
170
     0
171
     0
290
     0
174
     0
 93
        1
 44
0.0
173
     0
291
     1
 45
0.0
  0
VISUALSTYLE
  5
275
102
{ACAD_REACTORS
330
267
102
}
330
267
100
AcDbVisualStyle
  2
Linepattern
 70
    14
 71
     2
 72
     2
 73
     0
 90
        0
 40
-0.6
 41
-30.0
 62
     5
 63
     7
421
 16777215
 74
     1
 91
        4
 64
     7
 65
   257
 75
     7
175
     7
 42
1.0
 92
        8
 66
     7
 43
1.0
 76
     1
 77
     6
 78
     2
 67
     7
 79
     5
170
     0
171
     0
290
     0
174
     0
 93
        1
 44
0.0
173
     0
291
     1
 45
0.0
  0
VISUALSTYLE
  5
8FD
102
{ACAD_REACTORS
330
267
102
}
330
267
100
AcDbVisualStyle
  2
OverhangOff
 70
    21
 71
     2
 72
     2
 73
     0
 90
        0
 40
0.6
 41
30.0
 62
     5
 63
     7
421
 16777215
 74
     1
 91
        4
 64
     7
 65
   257
 75
     1
175
     1
 42
1.0
 92
        9
 66
     7
 43
1.0
 76
     1
 77
     6
 78
     2
 67
     7
 79
     5
170
     0
171
     0
290
     0
174
     0
 93
        1
 44
0.0
173
     0
291
     1
 45
0.0
  0
VISUALSTYLE
  5
270
102
{ACAD_REACTORS
330
267
102
}
330
267
100
AcDbVisualStyle
  2
Realistic
 70
     8
 71
     2
 72
     2
 73
     0
 90
        0
 40
-0.6
 41
-30.0
 62
     5
 63
     7
421
 16777215
 74
     1
 91
        0
 64
     7
 65
   257
 75
     1
175
     1
 42
1.0
 92
        8
 66
     8
424
  7895160
 43
1.0
 76
     1
 77
     6
 78
     2
 67
     7
 79
     5
170
     0
171
     0
290
     0
174
     0
 93
       13
 44
0.0
173
     0
291
     0
 45
0.0
  0
VISUALSTYLE
  5
903
102
{ACAD_REACTORS
330
267
102
}
330
267
100
AcDbVisualStyle
  2
Shaded
 70
    27
 71
     2
 72
     2
 73
     1
 90
        2
 40
0.6
 41
30.0
 62
     5
 63
     7
421
 16777215
 74
     0
 91
        4
 64
     7
 65
   257
 75
     1
175
     1
 42
1.0
 92
        8
 66
   257
 43
1.0
 76
     1
 77
     6
 78
     2
 67
     8
425
  7895160
 79
     3
170
     0
171
     0
290
     0
174
     0
 93
        5
 44
0.0
173
     0
291
     0
 45
0.0
  0
VISUALSTYLE
  5
902
102
{ACAD_REACTORS
330
267
102
}
330
267
100
AcDbVisualStyle
  2
Shaded with edges
 70
    26
 71
     2
 72
     2
 73
     1
 90
        2
 40
0.6
 41
30.0
 62
     5
 63
     7
421
 16777215
 74
     1
 91
       10
 64
     7
 65
   257
 75
     2
175
     1
 42
1.0
 92
        8
 66
   257
 43
1.0
 76
     1
 77
     6
 78
     2
 67
     7
 79
     3
170
     0
171
     0
290
     0
174
     0
 93
        5
 44
0.0
173
     0
291
     0
 45
0.0
  0
VISUALSTYLE
  5
8FF
102
{ACAD_REACTORS
330
267
102
}
330
267
100
AcDbVisualStyle
  2
Shades of Gray
 70
    23
 71
     2
 72
     2
 73
     3
 90
        0
 40
0.6
 41
30.0
 62
     5
 63
     7
421
 16777215
 74
     2
 91
        2
 64
     7
 65
     7
 75
     1
175
     1
 42
40.0
 92
        8
 66
     7
 43
1.0
 76
     1
 77
     6
 78
     2
 67
     7
 79
     3
170
     0
171
     0
290
     0
174
     0
 93
        1
 44
0.0
173
     0
291
     0
 45
0.0
  0
VISUALSTYLE
  5
900
102
{ACAD_REACTORS
330
267
102
}
330
267
100
AcDbVisualStyle
  2
Sketchy
 70
    24
 71
     1
 72
     2
 73
     2
 90
        0
 40
0.6
 41
30.0
 62
     5
 63
     7
421
 16777215
 74
     2
 91
        2
 64
     7
 65
     7
 75
     1
175
     1
 42
40.0
 92
       11
 66
     7
 43
1.0
 76
     1
 77
     6
 78
     2
 67
     7
 79
     6
170
     0
171
     0
290
     0
174
     0
 93
        1
 44
0.0
173
     0
291
     0
 45
0.0
  0
VISUALSTYLE
  5
274
102
{ACAD_REACTORS
330
267
102
}
330
267
100
AcDbVisualStyle
  2
Thicken
 70
    13
 71
     2
 72
     2
 73
     0
 90
        0
 40
-0.6
 41
-30.0
 62
     5
 63
     7
421
 16777215
 74
     1
 91
        4
 64
     7
 65
   257
 75
     1
175
     1
 42
1.0
 92
       12
 66
     7
 43
1.0
 76
     1
 77
     6
 78
     2
 67
     7
 79
     5
170
     0
171
     0
290
     0
174
     0
 93
        1
 44
0.0
173
     0
291
     1
 45
0.0
  0
VISUALSTYLE
  5
8FA
102
{ACAD_REACTORS
330
267
102
}
330
267
100
AcDbVisualStyle
  2
Wireframe
 70
     5
 71
     0
 72
     2
 73
     0
 90
        0
 40
0.6
 41
30.0
 62
     5
 63
     7
421
 16777215
 74
     1
 91
        4
 64
     7
 65
   257
 75
     1
175
     1
 42
1.0
 92
        0
 66
   257
 43
1.0
 76
     1
 77
     6
 78
     2
 67
     7
 79
     3
170
     0
171
     0
290
     0
174
     0
 93
        1
 44
0.0
173
     0
291
     0
 45
0.0
  0
VISUALSTYLE
  5
901
102
{ACAD_REACTORS
330
267
102
}
330
267
100
AcDbVisualStyle
  2
X-Ray
 70
    25
 71
     2
 72
     2
 73
     1
 90
        1
 40
0.5
 41
30.0
 62
     5
 63
     7
421
 16777215
 74
     1
 91
        0
 64
     7
 65
   257
 75
     1
175
     1
 42
1.0
 92
        8
 66
     7
 43
1.0
 76
     1
 77
     6
 78
     2
 67
     7
 79
     3
170
     0
171
     0
290
     0
174
     0
 93
       13
 44
0.0
173
     0
291
     0
 45
0.0
  0
DICTIONARYVAR
  5
331
102
{ACAD_REACTORS
330
330
102
}
330
330
100
DictionaryVariables
280
     0
  1
1:1
  0
DICTIONARYVAR
  5
335
102
{ACAD_REACTORS
330
330
102
}
330
330
100
DictionaryVariables
280
     0
  1
Standard
  0
DICTIONARYVAR
  5
D52
102
{ACAD_REACTORS
330
330
102
}
330
330
100
DictionaryVariables
280
     0
  1
ByLayer
  0
DICTIONARYVAR
  5
896
102
{ACAD_REACTORS
330
330
102
}
330
330
100
DictionaryVariables
280
     0
  1
0
  0
XRECORD
  5
88B
102
{ACAD_REACTORS
330
2E2
102
}
330
2E2
100
AcDbXrecord
280
     1
 91
     1023
301

290
     0
302
MODEL
330
14
 90
        8
 62
     7
370
    -3
331
13
  1
Color_7
330
0
 90
        0
 62
     7
370
    -3
331
13
  1
Color_7
330
4B
 90
        8
 62
     7
370
    -3
331
13
  1
Color_7
330
4C
 90
        8
 62
     7
370
    -3
331
13
  1
Color_7
330
4D
 90
        8
 62
     7
370
    -3
331
13
  1
Color_7
330
0
 90
        9
 62
     1
370
    -3
331
13
  1
Color_1
330
0
 90
        8
 62
     4
370
    -3
331
13
  1
Color_4
330
667
 90
        8
 62
     7
370
    -3
331
13
  1
Color_7
330
0
 90
        9
 62
     1
370
    -3
331
13
  1
Color_1
  0
XRECORD
  5
88F
102
{ACAD_REACTORS
330
2E2
102
}
330
2E2
100
AcDbXrecord
280
     1
 91
     1023
301

290
     0
302
MODEL
330
14
 90
        8
 62
     7
370
    -3
331
13
  1
Color_7
330
0
 90
        0
 62
     7
370
    -3
331
13
  1
Color_7
330
4B
 90
        8
 62
     7
370
     0
331
13
  1
Color_7
330
4C
 90
        8
 62
     7
370
     9
331
13
  1
Color_7
330
4D
 90
        8
 62
     7
370
    -3
331
13
  1
Color_7
330
667
 90
        8
 62
     7
370
    -3
331
13
  1
Color_7
330
88C
 90
        8
 62
     7
370
     9
331
45
  1
Color_7
  0
XRECORD
  5
892
102
{ACAD_REACTORS
330
2E2
102
}
330
2E2
100
AcDbXrecord
280
     1
 91
     1023
301

290
     0
302
MODEL
330
14
 90
        8
 62
     7
370
    -3
331
13
  1
Color_7
330
0
 90
        0
 62
     7
370
    -3
331
13
  1
Color_7
330
4B
 90
        8
 62
     7
370
     0
331
13
  1
Color_7
330
4C
 90
        8
 62
     7
370
     9
331
13
  1
Color_7
330
4D
 90
        8
 62
     7
370
    -3
331
13
  1
Color_7
330
667
 90
        8
 62
     3
370
    -3
331
13
  1
Color_3
330
88C
 90
        8
 62
     7
370
     9
331
45
  1
Color_7
  0
XRECORD
  5
8F6
102
{ACAD_REACTORS
330
2E2
102
}
330
2E2
100
AcDbXrecord
280
     1
 91
     1023
301

290
     0
302
MODEL
330
14
 90
        8
 62
     7
370
    -3
331
13
  1
Color_7
330
0
 90
        0
 62
     7
370
    -3
331
13
  1
Color_7
330
4B
 90
        8
 62
     7
370
     0
331
13
  1
Color_7
330
4C
 90
        8
 62
     7
370
     9
331
13
  1
Color_7
330
4D
 90
        8
 62
     7
370
    -3
331
13
  1
Color_7
330
667
 90
        8
 62
     7
370
    -3
331
13
  1
Color_7
330
88C
 90
        8
 62
     7
370
     9
331
45
  1
Color_7
  0
XRECORD
  5
BC1
102
{ACAD_REACTORS
330
2E2
102
}
330
2E2
100
AcDbXrecord
280
     1
 91
     1023
301

290
     0
302
MODEL
330
14
 90
        8
 62
     7
370
    -3
331
13
  1
Color_7
330
0
 90
        0
 62
     7
370
    -3
331
13
  1
Color_7
330
4B
 90
        8
 62
     7
370
     0
331
13
  1
Color_7
330
4C
 90
        8
 62
     7
370
     9
331
13
  1
Color_7
330
4D
 90
        8
 62
     7
370
    -3
331
13
  1
Color_7
330
667
 90
        8
 62
     7
370
    -3
331
13
  1
Color_7
330
88C
 90
        8
 62
     7
370
     9
331
45
  1
Color_7
330
0
 90
        8
 62
     7
370
    -3
331
13
  1
Color_7
  0
XRECORD
  5
C9E
102
{ACAD_REACTORS
330
2E2
102
}
330
2E2
100
AcDbXrecord
280
     1
 91
     1023
301

290
     0
302
DIM
330
14
 90
        8
 62
     7
370
    -3
331
13
  1
Color_7
330
0
 90
        0
 62
     7
370
    -3
331
13
  1
Color_7
330
4B
 90
        8
 62
     7
370
     0
331
13
  1
Color_7
330
4C
 90
        8
 62
     7
370
     9
331
13
  1
Color_7
330
4D
 90
        8
 62
     7
370
    -3
331
13
  1
Color_7
330
667
 90
        8
 62
     7
370
    -3
331
13
  1
Color_7
330
88C
 90
        8
 62
     7
370
     9
331
45
  1
Color_7
330
0
 90
        8
 62
     7
370
    -3
331
13
  1
Color_7
  0
XRECORD
  5
C9F
102
{ACAD_REACTORS
330
2E2
102
}
330
2E2
100
AcDbXrecord
280
     1
 91
     1023
301

290
     0
302
MODEL
330
14
 90
        8
 62
     7
370
    -3
331
13
  1
Color_7
330
0
 90
        0
 62
     7
370
    -3
331
13
  1
Color_7
330
4B
 90
        8
 62
     7
370
     0
331
13
  1
Color_7
330
4C
 90
        8
 62
     7
370
     9
331
13
  1
Color_7
330
4D
 90
        8
 62
     7
370
    -3
331
13
  1
Color_7
330
667
 90
        8
 62
     7
370
    -3
331
13
  1
Color_7
330
88C
 90
        8
 62
     7
370
     9
331
45
  1
Color_7
330
0
 90
        8
 62
     7
370
    -3
331
13
  1
Color_7
  0
XRECORD
  5
7AA
102
{ACAD_REACTORS
330
2E2
102
}
330
2E2
100
AcDbXrecord
280
     1
 91
     1023
301

290
     0
302
MODEL
330
14
 90
        8
 62
     7
370
    -3
331
13
  1
Color_7
330
4B
 90
        8
 62
     7
370
    20
331
13
  1
Color_7
330
4C
 90
        8
 62
     7
370
    13
331
13
  1
Color_7
330
4D
 90
        8
 62
     7
370
    20
331
13
  1
Color_7
330
667
 90
        8
 62
     7
370
    -3
331
13
  1
Color_7
330
88C
 90
        9
 62
     7
370
    20
331
45
  1
Color_7
330
D5D
 90
        0
 62
     7
370
    -3
331
13
  1
Color_7
330
0
 90
        8
 62
    42
370
    35
331
13
  1
Color_42
330
0
 90
        8
 62
   253
370
     0
331
13
  1
Color_253
330
0
 90
        8
 62
     5
370
    -3
331
13
  1
Color_5
  0
DICTIONARY
  5
12C6
330
279
100
AcDbDictionary
280
     1
281
     1
  3
ACAD_ROUNDTRIP_2008_TABLESTYLE_CELLSTYLEMAP
360
12C7
  0
CELLSTYLEMAP
  5
12C7
102
{ACAD_REACTORS
330
12C6
102
}
330
12C6
100
AcDbCellStyleMap
 90
        3
300
CELLSTYLE
  1
TABLEFORMAT_BEGIN
 90
        5
170
     1
 91
        0
 92
    32768
 62
   257
 93
        1
300
CONTENTFORMAT
  1
CONTENTFORMAT_BEGIN
 90
        0
 91
        0
 92
        4
 93
        0
300

 40
0.0
140
1.0
 94
        5
 62
     0
340
17
144
6.0
309
CONTENTFORMAT_END
171
     1
301
MARGIN
  1
CELLMARGIN_BEGIN
 40
0.06
 40
0.06
 40
0.06
 40
0.06
 40
0.18
 40
0.18
309
CELLMARGIN_END
 94
        6
 95
        1
302
GRIDFORMAT
  1
GRIDFORMAT_BEGIN
 90
        0
 91
        1
 62
     0
 92
       -2
340
0
 93
        0
 40
0.045
309
GRIDFORMAT_END
 95
        2
302
GRIDFORMAT
  1
GRIDFORMAT_BEGIN
 90
        0
 91
        1
 62
     0
 92
       -2
340
0
 93
        0
 40
0.045
309
GRIDFORMAT_END
 95
        4
302
GRIDFORMAT
  1
GRIDFORMAT_BEGIN
 90
        0
 91
        1
 62
     0
 92
       -2
340
0
 93
        0
 40
0.045
309
GRIDFORMAT_END
 95
        8
302
GRIDFORMAT
  1
GRIDFORMAT_BEGIN
 90
        0
 91
        1
 62
     0
 92
       -2
340
0
 93
        0
 40
0.045
309
GRIDFORMAT_END
 95
       16
302
GRIDFORMAT
  1
GRIDFORMAT_BEGIN
 90
        0
 91
        1
 62
     0
 92
       -2
340
0
 93
        0
 40
0.045
309
GRIDFORMAT_END
 95
       32
302
GRIDFORMAT
  1
GRIDFORMAT_BEGIN
 90
        0
 91
        1
 62
     0
 92
       -2
340
0
 93
        0
 40
0.045
309
GRIDFORMAT_END
309
TABLEFORMAT_END
  1
CELLSTYLE_BEGIN
 90
        1
 91
        1
300
_TITLE
309
CELLSTYLE_END
300
CELLSTYLE
  1
TABLEFORMAT_BEGIN
 90
        5
170
     1
 91
        0
 92
        0
 62
   257
 93
        1
300
CONTENTFORMAT
  1
CONTENTFORMAT_BEGIN
 90
        0
 91
        0
 92
        4
 93
        0
300

 40
0.0
140
1.0
 94
        5
 62
     0
340
17
144
4.5
309
CONTENTFORMAT_END
171
     1
301
MARGIN
  1
CELLMARGIN_BEGIN
 40
0.06
 40
0.06
 40
0.06
 40
0.06
 40
0.18
 40
0.18
309
CELLMARGIN_END
 94
        6
 95
        1
302
GRIDFORMAT
  1
GRIDFORMAT_BEGIN
 90
        0
 91
        1
 62
     0
 92
       -2
340
0
 93
        0
 40
0.045
309
GRIDFORMAT_END
 95
        2
302
GRIDFORMAT
  1
GRIDFORMAT_BEGIN
 90
        0
 91
        1
 62
     0
 92
       -2
340
0
 93
        0
 40
0.045
309
GRIDFORMAT_END
 95
        4
302
GRIDFORMAT
  1
GRIDFORMAT_BEGIN
 90
        0
 91
        1
 62
     0
 92
       -2
340
0
 93
        0
 40
0.045
309
GRIDFORMAT_END
 95
        8
302
GRIDFORMAT
  1
GRIDFORMAT_BEGIN
 90
        0
 91
        1
 62
     0
 92
       -2
340
0
 93
        0
 40
0.045
309
GRIDFORMAT_END
 95
       16
302
GRIDFORMAT
  1
GRIDFORMAT_BEGIN
 90
        0
 91
        1
 62
     0
 92
       -2
340
0
 93
        0
 40
0.045
309
GRIDFORMAT_END
 95
       32
302
GRIDFORMAT
  1
GRIDFORMAT_BEGIN
 90
        0
 91
        1
 62
     0
 92
       -2
340
0
 93
        0
 40
0.045
309
GRIDFORMAT_END
309
TABLEFORMAT_END
  1
CELLSTYLE_BEGIN
 90
        2
 91
        1
300
_HEADER
309
CELLSTYLE_END
300
CELLSTYLE
  1
TABLEFORMAT_BEGIN
 90
        5
170
     1
 91
        0
 92
        0
 62
   257
 93
        1
300
CONTENTFORMAT
  1
CONTENTFORMAT_BEGIN
 90
        0
 91
        0
 92
        4
 93
        0
300

 40
0.0
140
1.0
 94
        2
 62
     0
340
17
144
4.5
309
CONTENTFORMAT_END
171
     1
301
MARGIN
  1
CELLMARGIN_BEGIN
 40
0.06
 40
0.06
 40
0.06
 40
0.06
 40
0.18
 40
0.18
309
CELLMARGIN_END
 94
        6
 95
        1
302
GRIDFORMAT
  1
GRIDFORMAT_BEGIN
 90
        0
 91
        1
 62
     0
 92
       -2
340
0
 93
        0
 40
0.045
309
GRIDFORMAT_END
 95
        2
302
GRIDFORMAT
  1
GRIDFORMAT_BEGIN
 90
        0
 91
        1
 62
     0
 92
       -2
340
0
 93
        0
 40
0.045
309
GRIDFORMAT_END
 95
        4
302
GRIDFORMAT
  1
GRIDFORMAT_BEGIN
 90
        0
 91
        1
 62
     0
 92
       -2
340
0
 93
        0
 40
0.045
309
GRIDFORMAT_END
 95
        8
302
GRIDFORMAT
  1
GRIDFORMAT_BEGIN
 90
        0
 91
        1
 62
     0
 92
       -2
340
0
 93
        0
 40
0.045
309
GRIDFORMAT_END
 95
       16
302
GRIDFORMAT
  1
GRIDFORMAT_BEGIN
 90
        0
 91
        1
 62
     0
 92
       -2
340
0
 93
        0
 40
0.045
309
GRIDFORMAT_END
 95
       32
302
GRIDFORMAT
  1
GRIDFORMAT_BEGIN
 90
        0
 91
        1
 62
     0
 92
       -2
340
0
 93
        0
 40
0.045
309
GRIDFORMAT_END
309
TABLEFORMAT_END
  1
CELLSTYLE_BEGIN
 90
        3
 91
        2
300
_DATA
309
CELLSTYLE_END
  0
ENDSEC
  0
EOF
