  0
SECTION
  2
HEADER
  9
$ACADVER
  1
AC1021
  9
$ACADMAINTVER
 70
    25
  9
$DWGCODEPAGE
  3
ANSI_932
  9
$LASTSAVEDBY
  1
Shimosaki
  9
$INSBASE
 10
0.0
 20
0.0
 30
0.0
  9
$EXTMIN
 10
72.20214454724874
 20
63.79214832457114
 30
0.0
  9
$EXTMAX
 10
2022.202144547732
 20
2897.146673506426
 30
0.0
  9
$LIMMIN
 10
0.0
 20
0.0
  9
$LIMMAX
 10
2100.0
 20
2970.0
  9
$ORTHOMODE
 70
     0
  9
$REGENMODE
 70
     1
  9
$FILLMODE
 70
     1
  9
$QTEXTMODE
 70
     0
  9
$MIRRTEXT
 70
     1
  9
$LTSCALE
 40
50.8
  9
$ATTMODE
 70
     1
  9
$TEXTSIZE
 40
2.5
  9
$TRACEWID
 40
1.0
  9
$TEXTSTYLE
  7
ＭＳ ゴシック
  9
$CLAYER
  8
MODEL
  9
$CELTYPE
  6
Continuous
  9
$CECOLOR
 62
   256
  9
$CELTSCALE
 40
1.0
  9
$DISPSILH
 70
     0
  9
$DIMSCALE
 40
1.0
  9
$DIMASZ
 40
9.0
  9
$DIMEXO
 40
10.0
  9
$DIMDLI
 40
0.9999999999999999
  9
$DIMRND
 40
0.0
  9
$DIMDLE
 40
0.0
  9
$DIMEXE
 40
0.0
  9
$DIMTP
 40
0.0
  9
$DIMTM
 40
0.0
  9
$DIMTXT
 40
24.0
  9
$DIMCEN
 40
0.0
  9
$DIMTSZ
 40
0.0
  9
$DIMTOL
 70
     0
  9
$DIMLIM
 70
     0
  9
$DIMTIH
 70
     0
  9
$DIMTOH
 70
     0
  9
$DIMSE1
 70
     0
  9
$DIMSE2
 70
     0
  9
$DIMTAD
 70
     1
  9
$DIMZIN
 70
    11
  9
$DIMBLK
  1
DOT
  9
$DIMASO
 70
     1
  9
$DIMSHO
 70
     1
  9
$DIMPOST
  1
<>
  9
$DIMAPOST
  1
[]
  9
$DIMALT
 70
     0
  9
$DIMALTD
 70
     1
  9
$DIMALTF
 40
1.0
  9
$DIMLFAC
 40
1.0
  9
$DIMTOFL
 70
     0
  9
$DIMTVP
 40
0.0
  9
$DIMTIX
 70
     1
  9
$DIMSOXD
 70
     0
  9
$DIMSAH
 70
     0
  9
$DIMBLK1
  1

  9
$DIMBLK2
  1

  9
$DIMSTYLE
  2
tfrom線あり
  9
$DIMCLRD
 70
     0
  9
$DIMCLRE
 70
     0
  9
$DIMCLRT
 70
     0
  9
$DIMTFAC
 40
1.0
  9
$DIMGAP
 40
20.0
  9
$DIMJUST
 70
     0
  9
$DIMSD1
 70
     0
  9
$DIMSD2
 70
     0
  9
$DIMTOLJ
 70
     1
  9
$DIMTZIN
 70
    11
  9
$DIMALTZ
 70
    11
  9
$DIMALTTZ
 70
    11
  9
$DIMUPT
 70
     0
  9
$DIMDEC
 70
     0
  9
$DIMTDEC
 70
     1
  9
$DIMALTU
 70
     2
  9
$DIMALTTD
 70
     2
  9
$DIMTXSTY
  7
ＭＳ ゴシック
  9
$DIMAUNIT
 70
     0
  9
$DIMADEC
 70
     2
  9
$DIMALTRND
 40
0.0
  9
$DIMAZIN
 70
     0
  9
$DIMDSEP
 70
    46
  9
$DIMATFIT
 70
     0
  9
$DIMFRAC
 70
     2
  9
$DIMLDRBLK
  1
DOT
  9
$DIMLUNIT
 70
     2
  9
$DIMLWD
 70
    -2
  9
$DIMLWE
 70
    -2
  9
$DIMTMOVE
 70
     0
  9
$DIMFXL
 40
1.0
  9
$DIMFXLON
 70
     0
  9
$DIMJOGANG
 40
0.7853981633974483
  9
$DIMTFILL
 70
     0
  9
$DIMTFILLCLR
 70
     0
  9
$DIMARCSYM
 70
     0
  9
$DIMLTYPE
  6

  9
$DIMLTEX1
  6

  9
$DIMLTEX2
  6

  9
$LUNITS
 70
     2
  9
$LUPREC
 70
     0
  9
$SKETCHINC
 40
0.1
  9
$FILLETRAD
 40
0.0
  9
$AUNITS
 70
     0
  9
$AUPREC
 70
     0
  9
$MENU
  1
acad
  9
$ELEVATION
 40
0.0
  9
$PELEVATION
 40
0.0
  9
$THICKNESS
 40
0.0
  9
$LIMCHECK
 70
     0
  9
$CHAMFERA
 40
0.0
  9
$CHAMFERB
 40
0.0
  9
$CHAMFERC
 40
0.0
  9
$CHAMFERD
 40
0.0
  9
$SKPOLY
 70
     0
  9
$TDCREATE
 40
2447893.375
  9
$TDUCREATE
 40
0.0
  9
$TDUPDATE
 40
2457162.437242269
  9
$TDUUPDATE
 40
2457162.062242269
  9
$TDINDWG
 40
0.1246209606
  9
$TDUSRTIMER
 40
2457162.062037488
  9
$USRTIMER
 70
     1
  9
$ANGBASE
 50
0.0
  9
$ANGDIR
 70
     0
  9
$PDMODE
 70
     1
  9
$PDSIZE
 40
-2.0
  9
$PLINEWID
 40
0.0
  9
$SPLFRAME
 70
     0
  9
$SPLINETYPE
 70
     6
  9
$SPLINESEGS
 70
     8
  9
$HANDSEED
  5
178A
  9
$SURFTAB1
 70
     6
  9
$SURFTAB2
 70
     6
  9
$SURFTYPE
 70
     6
  9
$SURFU
 70
     6
  9
$SURFV
 70
     6
  9
$UCSBASE
  2

  9
$UCSNAME
  2

  9
$UCSORG
 10
0.0
 20
0.0
 30
0.0
  9
$UCSXDIR
 10
1.0
 20
0.0
 30
0.0
  9
$UCSYDIR
 10
0.0
 20
1.0
 30
0.0
  9
$UCSORTHOREF
  2

  9
$UCSORTHOVIEW
 70
     0
  9
$UCSORGTOP
 10
0.0
 20
0.0
 30
0.0
  9
$UCSORGBOTTOM
 10
0.0
 20
0.0
 30
0.0
  9
$UCSORGLEFT
 10
0.0
 20
0.0
 30
0.0
  9
$UCSORGRIGHT
 10
0.0
 20
0.0
 30
0.0
  9
$UCSORGFRONT
 10
0.0
 20
0.0
 30
0.0
  9
$UCSORGBACK
 10
0.0
 20
0.0
 30
0.0
  9
$PUCSBASE
  2

  9
$PUCSNAME
  2

  9
$PUCSORG
 10
0.0
 20
0.0
 30
0.0
  9
$PUCSXDIR
 10
1.0
 20
0.0
 30
0.0
  9
$PUCSYDIR
 10
0.0
 20
1.0
 30
0.0
  9
$PUCSORTHOREF
  2

  9
$PUCSORTHOVIEW
 70
     0
  9
$PUCSORGTOP
 10
0.0
 20
0.0
 30
0.0
  9
$PUCSORGBOTTOM
 10
0.0
 20
0.0
 30
0.0
  9
$PUCSORGLEFT
 10
0.0
 20
0.0
 30
0.0
  9
$PUCSORGRIGHT
 10
0.0
 20
0.0
 30
0.0
  9
$PUCSORGFRONT
 10
0.0
 20
0.0
 30
0.0
  9
$PUCSORGBACK
 10
0.0
 20
0.0
 30
0.0
  9
$USERI1
 70
     0
  9
$USERI2
 70
     0
  9
$USERI3
 70
     0
  9
$USERI4
 70
     0
  9
$USERI5
 70
     0
  9
$USERR1
 40
0.0
  9
$USERR2
 40
0.0
  9
$USERR3
 40
0.0
  9
$USERR4
 40
0.0
  9
$USERR5
 40
0.0
  9
$WORLDVIEW
 70
     1
  9
$SHADEDGE
 70
     3
  9
$SHADEDIF
 70
    70
  9
$TILEMODE
 70
     1
  9
$MAXACTVP
 70
    64
  9
$PINSBASE
 10
0.0
 20
0.0
 30
0.0
  9
$PLIMCHECK
 70
     0
  9
$PEXTMIN
 10
0.0
 20
0.0
 30
0.0
  9
$PEXTMAX
 10
0.0
 20
0.0
 30
0.0
  9
$PLIMMIN
 10
-7.5
 20
-20.0
  9
$PLIMMAX
 10
412.5
 20
277.0
  9
$UNITMODE
 70
     0
  9
$VISRETAIN
 70
     0
  9
$PLINEGEN
 70
     1
  9
$PSLTSCALE
 70
     0
  9
$TREEDEPTH
 70
  3020
  9
$CMLSTYLE
  2
Standard
  9
$CMLJUST
 70
     0
  9
$CMLSCALE
 40
1.0
  9
$PROXYGRAPHICS
 70
     0
  9
$MEASUREMENT
 70
     1
  9
$CELWEIGHT
370
    -1
  9
$ENDCAPS
280
     0
  9
$JOINSTYLE
280
     0
  9
$LWDISPLAY
290
     1
  9
$INSUNITS
 70
     4
  9
$HYPERLINKBASE
  1

  9
$STYLESHEET
  1

  9
$XEDIT
290
     1
  9
$CEPSNTYPE
380
     0
  9
$PSTYLEMODE
290
     1
  9
$FINGERPRINTGUID
  2

  9
$VERSIONGUID
  2

  9
$EXTNAMES
290
     1
  9
$PSVPSCALE
 40
0.0
  9
$OLESTARTUP
290
     0
  9
$SORTENTS
280
   127
  9
$INDEXCTL
280
     0
  9
$HIDETEXT
280
     1
  9
$XCLIPFRAME
290
     0
  9
$HALOGAP
280
     0
  9
$OBSCOLOR
 70
   257
  9
$OBSLTYPE
280
     0
  9
$INTERSECTIONDISPLAY
280
     0
  9
$INTERSECTIONCOLOR
 70
   257
  9
$DIMASSOC
280
     2
  9
$PROJECTNAME
  1

  9
$CAMERADISPLAY
290
     0
  9
$LENSLENGTH
 40
50.0
  9
$CAMERAHEIGHT
 40
0.0
  9
$STEPSPERSEC
 40
2.0
  9
$STEPSIZE
 40
6.0
  9
$3DDWFPREC
 40
2.0
  9
$PSOLWIDTH
 40
0.25
  9
$PSOLHEIGHT
 40
4.0
  9
$LOFTANG1
 40
1.570796326794897
  9
$LOFTANG2
 40
1.570796326794897
  9
$LOFTMAG1
 40
0.0
  9
$LOFTMAG2
 40
0.0
  9
$LOFTPARAM
 70
     7
  9
$LOFTNORMALS
280
     1
  9
$LATITUDE
 40
37.795
  9
$LONGITUDE
 40
-122.394
  9
$NORTHDIRECTION
 40
0.0
  9
$TIMEZONE
 70
 -8000
  9
$LIGHTGLYPHDISPLAY
280
     1
  9
$TILEMODELIGHTSYNCH
280
     1
  9
$SOLIDHIST
280
     1
  9
$SHOWHIST
280
     1
  9
$DWFFRAME
280
     2
  9
$DGNFRAME
280
     2
  9
$REALWORLDSCALE
290
     1
  9
$INTERFERECOLOR
 62
   256
  9
$CSHADOW
280
     0
  9
$SHADOWPLANELOCATION
 40
0.0
  0
ENDSEC
  0
SECTION
  2
CLASSES
  0
CLASS
  1
LWPOLYLINE
  2
AcDbPolyline
  3
ObjectDBX Classes
 90
        0
 91
        1
280
     0
281
     1
  0
CLASS
  1
IMAGE
  2
AcDbRasterImage
  3
ISM
 90
      127
 91
        5
280
     0
281
     1
  0
CLASS
  1
OLE2FRAME
  2
AcDbOle2Frame
  3
ObjectDBX Classes
 90
        0
 91
        1
280
     0
281
     1
  0
CLASS
  1
HATCH
  2
AcDbHatch
  3
ObjectDBX Classes
 90
        0
 91
        1
280
     0
281
     1
  0
CLASS
  1
DICTIONARYVAR
  2
AcDbDictionaryVar
  3
ObjectDBX Classes
 90
        0
 91
        4
280
     0
281
     0
  0
CLASS
  1
RASTERVARIABLES
  2
AcDbRasterVariables
  3
ISM
 90
        0
 91
        5
280
     0
281
     0
  0
CLASS
  1
IMAGEDEF
  2
AcDbRasterImageDef
  3
ISM
 90
        0
 91
        4
280
     0
281
     0
  0
CLASS
  1
IMAGEDEF_REACTOR
  2
AcDbRasterImageDefReactor
  3
ISM
 90
        1
 91
        4
280
     0
281
     0
  0
CLASS
  1
IDBUFFER
  2
AcDbIdBuffer
  3
ObjectDBX Classes
 90
        0
 91
        4
280
     0
281
     0
  0
CLASS
  1
SPATIAL_FILTER
  2
AcDbSpatialFilter
  3
ObjectDBX Classes
 90
        0
 91
        4
280
     0
281
     0
  0
CLASS
  1
XRECORD
  2
AcDbXrecord
  3
ObjectDBX Classes
 90
        0
 91
        1
280
     0
281
     0
  0
CLASS
  1
SORTENTSTABLE
  2
AcDbSortentsTable
  3
ObjectDBX Classes
 90
        0
 91
        4
280
     0
281
     0
  0
CLASS
  1
LAYER_INDEX
  2
AcDbLayerIndex
  3
ObjectDBX Classes
 90
        0
 91
        4
280
     0
281
     0
  0
CLASS
  1
SPATIAL_INDEX
  2
AcDbSpatialIndex
  3
AutoCAD 2000
 90
        0
 91
        4
280
     0
281
     0
  0
CLASS
  1
OBJECT_PTR
  2
CAseDLPNTableRecord
  3
ASE-LPNTableRecord
 90
        1
 91
        4
280
     0
281
     0
  0
CLASS
  1
LAYOUT
  2
AcDbLayout
  3
ObjectDBX Classes
 90
        0
 91
        1
280
     0
281
     0
  0
CLASS
  1
PLOTSETTINGS
  2
AcDbPlotSettings
  3
ObjectDBX Classes
 90
        0
 91
        4
280
     0
281
     0
  0
CLASS
  1
ACDBDICTIONARYWDFLT
  2
AcDbDictionaryWithDefault
  3
ObjectDBX Classes
 90
        0
 91
        5
280
     0
281
     0
  0
CLASS
  1
ACDBPLACEHOLDER
  2
AcDbPlaceHolder
  3
ObjectDBX Classes
 90
        0
 91
        1
280
     0
281
     0
  0
CLASS
  1
SCALE
  2
AcDbScale
  3
ObjectDBX Classes
 90
     1153
 91
        5
280
     0
281
     0
  0
CLASS
  1
MATERIAL
  2
AcDbMaterial
  3
ObjectDBX Classes
 90
     1153
 91
        5
280
     0
281
     0
  0
CLASS
  1
VISUALSTYLE
  2
AcDbVisualStyle
  3
ObjectDBX Classes
 90
     4095
 91
        5
280
     0
281
     0
  0
CLASS
  1
TABLESTYLE
  2
AcDbTableStyle
  3
ObjectDBX Classes
 90
     4095
 91
        5
280
     0
281
     0
  0
CLASS
  1
DIMASSOC
  2
AcDbDimAssoc
  3
"AcDbDimAssoc|Product Desc:     AcDim ARX App For Dimension|Company:          Autodesk, Inc.|WEB Address:      www.autodesk.com"
 90
        0
 91
        4
280
     0
281
     0
  0
CLASS
  1
CELLSTYLEMAP
  2
AcDbCellStyleMap
  3
ObjectDBX Classes
 90
     1152
 91
        4
280
     0
281
     0
  0
CLASS
  1
SUN
  2
AcDbSun
  3
SCENEOE
 90
     1153
 91
        5
280
     0
281
     0
  0
ENDSEC
  0
SECTION
  2
TABLES
  0
TABLE
  2
VPORT
  5
7
330
0
100
AcDbSymbolTable
 70
     1
  0
VPORT
  5
15
330
7
100
AcDbSymbolTableRecord
100
AcDbViewportTableRecord
  2
*ACTIVE
 70
     0
 10
0.0
 20
0.0
 11
1.0
 21
1.0
 12
1939.510867958442
 22
1181.006902357821
 13
0.0
 23
0.0
 14
1.0
 24
1.0
 15
0.0
 25
0.0
 16
0.0
 26
0.0
 36
1.0
 17
-91.02013567090216
 27
73.59871453016967
 37
-46.86809886248109
 40
4474.207915436044
 41
1.9625520110957
 42
50.0
 43
0.0
 44
0.0
 50
0.0
 51
0.0
 71
    16
 72
  2000
 73
     1
 74
     1
 75
     0
 76
     0
 77
     0
 78
     0
281
     0
 65
     1
110
0.0
120
0.0
130
0.0
111
1.0
121
0.0
131
0.0
112
0.0
122
1.0
132
0.0
 79
     0
146
0.0
348
26C
 60
     3
 61
     5
292
     1
282
     1
141
0.0
142
0.0
 63
   256
361
904
  0
ENDTAB
  0
TABLE
  2
LTYPE
  5
4
330
0
100
AcDbSymbolTable
 70
     2
  0
LTYPE
  5
11
330
4
100
AcDbSymbolTableRecord
100
AcDbLinetypeTableRecord
  2
ByBlock
 70
     0
  3

 72
    65
 73
     0
 40
0.0
  0
LTYPE
  5
12
330
4
100
AcDbSymbolTableRecord
100
AcDbLinetypeTableRecord
  2
ByLayer
 70
     0
  3

 72
    65
 73
     0
 40
0.0
  0
LTYPE
  5
13
330
4
100
AcDbSymbolTableRecord
100
AcDbLinetypeTableRecord
  2
Continuous
 70
     0
  3
Solid line
 72
    65
 73
     0
 40
0.0
  0
LTYPE
  5
45
330
4
100
AcDbSymbolTableRecord
100
AcDbLinetypeTableRecord
  2
STYLE_12
 70
     0
  3

 72
    65
 73
     2
 40
0.3937007874015748
 49
0.1968503937007874
 74
     0
 49
-0.1968503937007874
 74
     0
  0
ENDTAB
  0
TABLE
  2
LAYER
  5
2
102
{ACAD_XDICTIONARY
360
2E1
102
}
330
0
100
AcDbSymbolTable
 70
     7
  0
LAYER
  5
14
330
2
100
AcDbSymbolTableRecord
100
AcDbLayerTableRecord
  2
0
 70
     0
 62
     7
  6
Continuous
370
    -3
390
1D
347
266
  0
LAYER
  5
4B
330
2
100
AcDbSymbolTableRecord
100
AcDbLayerTableRecord
  2
TEMPLATE
 70
     0
 62
     7
  6
Continuous
370
    20
390
1D
347
266
  0
LAYER
  5
4C
330
2
100
AcDbSymbolTableRecord
100
AcDbLayerTableRecord
  2
DIM
 70
     0
 62
     7
  6
Continuous
370
    13
390
1D
347
266
  0
LAYER
  5
4D
330
2
100
AcDbSymbolTableRecord
100
AcDbLayerTableRecord
  2
MODEL
 70
     0
 62
     7
  6
Continuous
370
    20
390
1D
347
266
  0
LAYER
  5
667
330
2
100
AcDbSymbolTableRecord
100
AcDbLayerTableRecord
  2
LOGO
 70
     0
 62
     7
  6
Continuous
370
    -3
390
1D
347
266
  0
LAYER
  5
88C
330
2
100
AcDbSymbolTableRecord
100
AcDbLayerTableRecord
  2
HIDDEN
 70
     0
 62
     7
  6
STYLE_12
370
    20
390
1D
347
266
1001
AcAecLayerStandard
1000

1000

  0
LAYER
  5
D5D
330
2
100
AcDbSymbolTableRecord
100
AcDbLayerTableRecord
  2
Defpoints
 70
     0
 62
     7
  6
Continuous
290
     0
370
    -3
390
1D
347
266
  0
ENDTAB
  0
TABLE
  2
STYLE
  5
3
330
0
100
AcDbSymbolTable
 70
     2
  0
STYLE
  5
17
330
3
100
AcDbSymbolTableRecord
100
AcDbTextStyleTableRecord
  2
Standard
 70
     0
 40
0.0
 41
1.0
 50
0.0
 71
     0
 42
2.5
  3
txt
  4
BIGFONT.SHX
  0
STYLE
  5
39
330
3
100
AcDbSymbolTableRecord
100
AcDbTextStyleTableRecord
  2
ＭＳ ゴシック
 70
     0
 40
0.0
 41
1.0
 50
0.0
 71
     0
 42
2.5
  3
msgothic.ttc
  4
ＭＳ ゴシック
1001
ACAD
1000
ＭＳ ゴシック
1071
        0
  0
ENDTAB
  0
TABLE
  2
VIEW
  5
5
330
0
100
AcDbSymbolTable
 70
     0
  0
ENDTAB
  0
TABLE
  2
UCS
  5
6
330
0
100
AcDbSymbolTable
 70
     0
  0
ENDTAB
  0
TABLE
  2
APPID
  5
8
330
0
100
AcDbSymbolTable
 70
    10
  0
APPID
  5
16
330
8
100
AcDbSymbolTableRecord
100
AcDbRegAppTableRecord
  2
ACAD
 70
     0
  0
APPID
  5
7AC
330
8
100
AcDbSymbolTableRecord
100
AcDbRegAppTableRecord
  2
AcAecLayerStandard
 70
     0
  0
APPID
  5
1212
330
8
100
AcDbSymbolTableRecord
100
AcDbRegAppTableRecord
  2
ACAD_DSTYLE_DIMJAG
 70
     0
  0
APPID
  5
1213
330
8
100
AcDbSymbolTableRecord
100
AcDbRegAppTableRecord
  2
ACAD_DSTYLE_DIMTALN
 70
     0
  0
APPID
  5
1218
330
8
100
AcDbSymbolTableRecord
100
AcDbRegAppTableRecord
  2
ACAD_PSEXT
 70
     0
  0
APPID
  5
1219
330
8
100
AcDbSymbolTableRecord
100
AcDbRegAppTableRecord
  2
ACAD_DSTYLE_DIMRADIAL_EXTENSION
 70
     0
  0
APPID
  5
121A
330
8
100
AcDbSymbolTableRecord
100
AcDbRegAppTableRecord
  2
ACAD_NAV_VCDISPLAY
 70
     0
  0
APPID
  5
121B
330
8
100
AcDbSymbolTableRecord
100
AcDbRegAppTableRecord
  2
GradientColor1ACI
 70
     0
  0
APPID
  5
121C
330
8
100
AcDbSymbolTableRecord
100
AcDbRegAppTableRecord
  2
GradientColor2ACI
 70
     0
  0
APPID
  5
121D
330
8
100
AcDbSymbolTableRecord
100
AcDbRegAppTableRecord
  2
AcLayerTools
 70
     0
  0
ENDTAB
  0
TABLE
  2
DIMSTYLE
  5
9
330
0
100
AcDbSymbolTable
 70
     2
100
AcDbDimStyleTable
  0
DIMSTYLE
105
18
330
9
100
AcDbSymbolTableRecord
100
AcDbDimStyleTableRecord
  2
Standard
 70
     0
178
     0
340
17
  0
DIMSTYLE
105
57
102
{ACAD_REACTORS
330
15F6
330
1605
330
1635
330
1653
330
1662
330
1671
330
16EF
330
1709
330
1719
330
1729
330
1738
330
1747
102
}
330
9
100
AcDbSymbolTableRecord
100
AcDbDimStyleTableRecord
  2
tfrom線あり
 70
     0
  3
<>
  4
[]
 41
9.0
 42
10.0
 43
0.9999999999999999
 44
0.0
 73
     0
 74
     0
 77
     1
 78
    11
140
24.0
141
0.0
143
1.0
147
20.0
171
     1
174
     1
178
     0
179
     2
271
     0
272
     1
276
     2
284
    11
285
    11
286
    11
289
     0
340
39
341
4E
342
4E
  0
ENDTAB
  0
TABLE
  2
BLOCK_RECORD
  5
1
330
0
100
AcDbSymbolTable
 70
    22
  0
BLOCK_RECORD
  5
A
330
1
100
AcDbSymbolTableRecord
100
AcDbBlockTableRecord
  2
*MODEL_SPACE
340
20
 70
     0
280
     1
281
     0
  0
BLOCK_RECORD
  5
B
330
1
100
AcDbSymbolTableRecord
100
AcDbBlockTableRecord
  2
*PAPER_SPACE
340
21
 70
     0
280
     1
281
     0
  0
BLOCK_RECORD
  5
4E
330
1
100
AcDbSymbolTableRecord
100
AcDbBlockTableRecord
  2
_DOT
340
0
102
{BLKREFS
331
15FF
331
1600
331
160E
331
160F
331
163D
331
163E
331
1649
331
164A
331
165C
331
165D
331
166B
331
166C
331
167A
331
167B
331
169B
331
169C
331
16A8
331
16A9
331
16B6
331
16F8
331
16F9
331
1712
331
1713
331
1722
331
1723
331
1732
331
1733
331
1741
331
1742
331
1750
331
1751
102
}
 70
     0
280
     1
281
     0
  0
BLOCK_RECORD
  5
68A
330
1
100
AcDbSymbolTableRecord
100
AcDbBlockTableRecord
  2
名称未設定-1
340
0
102
{BLKREFS
331
6B5
102
}
 70
     1
280
     1
281
     0
  0
BLOCK_RECORD
  5
68D
330
1
100
AcDbSymbolTableRecord
100
AcDbBlockTableRecord
  2
block 2
340
0
102
{BLKREFS
331
68C
102
}
 70
     0
280
     1
281
     0
  0
BLOCK_RECORD
  5
690
330
1
100
AcDbSymbolTableRecord
100
AcDbBlockTableRecord
  2
block 3
340
0
102
{BLKREFS
331
68F
102
}
 70
     0
280
     1
281
     0
  0
BLOCK_RECORD
  5
693
330
1
100
AcDbSymbolTableRecord
100
AcDbBlockTableRecord
  2
block 4
340
0
102
{BLKREFS
331
692
102
}
 70
     0
280
     1
281
     0
  0
BLOCK_RECORD
  5
6A2
330
1
100
AcDbSymbolTableRecord
100
AcDbBlockTableRecord
  2
block 5
340
0
102
{BLKREFS
331
6A1
102
}
 70
     0
280
     1
281
     0
  0
BLOCK_RECORD
  5
15F9
330
1
100
AcDbSymbolTableRecord
100
AcDbBlockTableRecord
  2
*D6
340
0
 70
     0
280
     1
281
     0
  0
BLOCK_RECORD
  5
1608
330
1
100
AcDbSymbolTableRecord
100
AcDbBlockTableRecord
  2
*D7
340
0
 70
     0
280
     1
281
     0
  0
BLOCK_RECORD
  5
1636
330
1
100
AcDbSymbolTableRecord
100
AcDbBlockTableRecord
  2
*D8
340
0
 70
     0
280
     1
281
     0
  0
BLOCK_RECORD
  5
1643
330
1
100
AcDbSymbolTableRecord
100
AcDbBlockTableRecord
  2
*D9
340
0
 70
     0
280
     1
281
     0
  0
BLOCK_RECORD
  5
1656
330
1
100
AcDbSymbolTableRecord
100
AcDbBlockTableRecord
  2
*D10
340
0
 70
     0
280
     1
281
     0
  0
BLOCK_RECORD
  5
1665
330
1
100
AcDbSymbolTableRecord
100
AcDbBlockTableRecord
  2
*D11
340
0
 70
     0
280
     1
281
     0
  0
BLOCK_RECORD
  5
1674
330
1
100
AcDbSymbolTableRecord
100
AcDbBlockTableRecord
  2
*D12
340
0
 70
     0
280
     1
281
     0
  0
BLOCK_RECORD
  5
1695
330
1
100
AcDbSymbolTableRecord
100
AcDbBlockTableRecord
  2
*D13
340
0
 70
     0
280
     1
281
     0
  0
BLOCK_RECORD
  5
16A2
330
1
100
AcDbSymbolTableRecord
100
AcDbBlockTableRecord
  2
*D14
340
0
 70
     0
280
     1
281
     0
  0
BLOCK_RECORD
  5
16B1
330
1
100
AcDbSymbolTableRecord
100
AcDbBlockTableRecord
  2
*D15
340
0
 70
     0
280
     1
281
     0
  0
BLOCK_RECORD
  5
16F2
330
1
100
AcDbSymbolTableRecord
100
AcDbBlockTableRecord
  2
*D16
340
0
 70
     0
280
     1
281
     0
  0
BLOCK_RECORD
  5
170C
330
1
100
AcDbSymbolTableRecord
100
AcDbBlockTableRecord
  2
*D17
340
0
 70
     0
280
     1
281
     0
  0
BLOCK_RECORD
  5
171C
330
1
100
AcDbSymbolTableRecord
100
AcDbBlockTableRecord
  2
*D18
340
0
 70
     0
280
     1
281
     0
  0
BLOCK_RECORD
  5
172C
330
1
100
AcDbSymbolTableRecord
100
AcDbBlockTableRecord
  2
*D19
340
0
 70
     0
280
     1
281
     0
  0
BLOCK_RECORD
  5
173B
330
1
100
AcDbSymbolTableRecord
100
AcDbBlockTableRecord
  2
*D20
340
0
 70
     0
280
     1
281
     0
  0
BLOCK_RECORD
  5
174A
330
1
100
AcDbSymbolTableRecord
100
AcDbBlockTableRecord
  2
*D21
340
0
 70
     0
280
     1
281
     0
  0
ENDTAB
  0
ENDSEC
  0
SECTION
  2
BLOCKS
  0
BLOCK
  5
D
330
A
100
AcDbEntity
  8
0
390
1D
100
AcDbBlockBegin
  2
*MODEL_SPACE
 70
     0
 10
0.0
 20
0.0
 30
0.0
  3
*MODEL_SPACE
  1
*MODEL_SPACE
  0
ENDBLK
  5
E
330
A
100
AcDbEntity
  8
0
390
1D
100
AcDbBlockEnd
  0
BLOCK
  5
F
330
B
100
AcDbEntity
 67
     1
  8
0
390
1D
100
AcDbBlockBegin
  2
*PAPER_SPACE
 70
     0
 10
0.0
 20
0.0
 30
0.0
  3
*PAPER_SPACE
  1
*PAPER_SPACE
  0
ENDBLK
  5
10
330
B
100
AcDbEntity
 67
     1
  8
0
390
1D
100
AcDbBlockEnd
  0
BLOCK
  5
1760
330
4E
100
AcDbEntity
  8
0
390
1D
100
AcDbBlockBegin
  2
_DOT
 70
     0
 10
0.0
 20
0.0
 30
0.0
  3
_DOT
  1
_DOT
  0
POLYLINE
  5
1762
330
4E
100
AcDbEntity
  8
0
  6
ByBlock
 62
     0
370
    -2
390
1D
100
AcDb2dPolyline
 66
     1
 10
0.0
 20
0.0
 30
0.0
 70
     1
 40
0.5
 41
0.5
  0
VERTEX
  5
1763
330
1762
100
AcDbEntity
  8
0
  6
ByBlock
 62
     0
370
    -2
390
1D
100
AcDbVertex
100
AcDb2dVertex
 10
-0.25
 20
0.0
 30
0.0
 42
1.0
  0
VERTEX
  5
1764
330
1762
100
AcDbEntity
  8
0
  6
ByBlock
 62
     0
370
    -2
390
1D
100
AcDbVertex
100
AcDb2dVertex
 10
0.25
 20
0.0
 30
0.0
 42
1.0
  0
SEQEND
  5
1765
330
1762
100
AcDbEntity
  8
0
390
1D
  0
LINE
  5
1766
330
4E
100
AcDbEntity
  8
0
  6
ByBlock
 62
     0
370
    -2
390
1D
100
AcDbLine
 10
-0.5
 20
0.0
 30
0.0
 11
-1.0
 21
0.0
 31
0.0
  0
ENDBLK
  5
1767
330
4E
100
AcDbEntity
  8
0
390
1D
100
AcDbBlockEnd
  0
BLOCK
  5
68B
330
68A
100
AcDbEntity
  8
0
100
AcDbBlockBegin
  2
名称未設定-1
 70
     0
 10
0.0
 20
0.0
 30
0.0
  3
名称未設定-1
  1
名称未設定-1
  0
INSERT
  5
68F
330
68A
100
AcDbEntity
  8
LOGO
100
AcDbBlockReference
  2
block 3
 10
0.0
 20
0.0
 30
0.0
  0
ENDBLK
  5
6B1
330
68A
100
AcDbEntity
  8
0
100
AcDbBlockEnd
  0
BLOCK
  5
68E
330
68D
100
AcDbEntity
  8
0
100
AcDbBlockBegin
  2
block 2
 70
     0
 10
0.0
 20
0.0
 30
0.0
  3
block 2
  1
block 2
  0
ENDBLK
  5
6B0
330
68D
100
AcDbEntity
  8
0
100
AcDbBlockEnd
  0
BLOCK
  5
691
330
690
100
AcDbEntity
  8
0
100
AcDbBlockBegin
  2
block 3
 70
     0
 10
0.0
 20
0.0
 30
0.0
  3
block 3
  1
block 3
  0
INSERT
  5
692
330
690
100
AcDbEntity
  8
LOGO
100
AcDbBlockReference
  2
block 4
 10
0.0
 20
0.0
 30
0.0
  0
INSERT
  5
6A1
330
690
100
AcDbEntity
  8
LOGO
100
AcDbBlockReference
  2
block 5
 10
0.0
 20
0.0
 30
0.0
  0
ENDBLK
  5
6AF
330
690
100
AcDbEntity
  8
0
100
AcDbBlockEnd
  0
BLOCK
  5
694
330
693
100
AcDbEntity
  8
0
100
AcDbBlockBegin
  2
block 4
 70
     0
 10
0.0
 20
0.0
 30
0.0
  3
block 4
  1
block 4
  0
POLYLINE
  5
695
330
693
100
AcDbEntity
  8
LOGO
370
     0
100
AcDb2dPolyline
 66
     1
 10
0.0
 20
0.0
 30
0.0
  0
VERTEX
  5
696
330
695
100
AcDbEntity
  8
LOGO
370
     0
100
AcDbVertex
100
AcDb2dVertex
 10
83.79545727667795
 20
167.6444858234922
 30
0.0
  0
VERTEX
  5
697
330
695
100
AcDbEntity
  8
LOGO
370
     0
100
AcDbVertex
100
AcDb2dVertex
 10
83.79545727667795
 20
159.7968976406313
 30
0.0
  0
VERTEX
  5
698
330
695
100
AcDbEntity
  8
LOGO
370
     0
100
AcDbVertex
100
AcDb2dVertex
 10
71.3631329975216
 20
159.7968976406313
 30
0.0
  0
VERTEX
  5
699
330
695
100
AcDbEntity
  8
LOGO
370
     0
100
AcDbVertex
100
AcDb2dVertex
 10
71.3631329975216
 20
127.8027915271048
 30
0.0
  0
VERTEX
  5
69A
330
695
100
AcDbEntity
  8
LOGO
370
     0
100
AcDbVertex
100
AcDb2dVertex
 10
60.43011526263018
 20
127.8027915271048
 30
0.0
  0
VERTEX
  5
69B
330
695
100
AcDbEntity
  8
LOGO
370
     0
100
AcDbVertex
100
AcDb2dVertex
 10
60.43011526263018
 20
159.7968976406313
 30
0.0
  0
VERTEX
  5
69C
330
695
100
AcDbEntity
  8
LOGO
370
     0
100
AcDbVertex
100
AcDb2dVertex
 10
48.21793273020759
 20
159.7968976406313
 30
0.0
  0
VERTEX
  5
69D
330
695
100
AcDbEntity
  8
LOGO
370
     0
100
AcDbVertex
100
AcDb2dVertex
 10
48.21793273020759
 20
167.6444858234922
 30
0.0
  0
VERTEX
  5
69E
330
695
100
AcDbEntity
  8
LOGO
370
     0
100
AcDbVertex
100
AcDb2dVertex
 10
83.79545727667795
 20
167.6444858234922
 30
0.0
  0
SEQEND
  5
69F
330
695
100
AcDbEntity
  8
LOGO
370
     0
  0
HATCH
  5
6A0
330
693
100
AcDbEntity
  8
LOGO
 62
   250
420
  2234388
100
AcDbHatch
 10
0.0
 20
0.0
 30
0.0
210
0.0
220
0.0
230
1.0
  2
SOLID
 70
     1
 71
     0
 91
        1
 92
        1
 93
        8
 72
     1
 10
83.79545727667795
 20
167.6444858234922
 11
83.79545727667795
 21
159.7968976406313
 72
     1
 10
83.79545727667795
 20
159.7968976406313
 11
71.3631329975216
 21
159.7968976406313
 72
     1
 10
71.3631329975216
 20
159.7968976406313
 11
71.3631329975216
 21
127.8027915271048
 72
     1
 10
71.3631329975216
 20
127.8027915271048
 11
60.43011526263018
 21
127.8027915271048
 72
     1
 10
60.43011526263018
 20
127.8027915271048
 11
60.43011526263018
 21
159.7968976406313
 72
     1
 10
60.43011526263018
 20
159.7968976406313
 11
48.21793273020759
 21
159.7968976406313
 72
     1
 10
48.21793273020759
 20
159.7968976406313
 11
48.21793273020759
 21
167.6444858234922
 72
     1
 10
48.21793273020759
 20
167.6444858234922
 11
83.79545727667795
 21
167.6444858234922
 97
        0
 75
     2
 76
     1
 98
        0
  0
ENDBLK
  5
6AE
330
693
100
AcDbEntity
  8
0
100
AcDbBlockEnd
  0
BLOCK
  5
6A3
330
6A2
100
AcDbEntity
  8
0
100
AcDbBlockBegin
  2
block 5
 70
     0
 10
0.0
 20
0.0
 30
0.0
  3
block 5
  1
block 5
  0
SPLINE
  5
6A4
330
6A2
100
AcDbEntity
  8
LOGO
370
     0
100
AcDbSpline
210
0.0
220
0.0
230
1.0
 70
    11
 71
     3
 72
    56
 73
    52
 74
     0
 42
0.000000001
 43
0.0000000001
 40
0.0
 40
0.0
 40
0.0
 40
0.0
 40
1.0
 40
1.0
 40
1.0
 40
2.0
 40
2.0
 40
2.0
 40
3.0
 40
3.0
 40
3.0
 40
4.0
 40
4.0
 40
4.0
 40
5.0
 40
5.0
 40
5.0
 40
6.0
 40
6.0
 40
6.0
 40
7.0
 40
7.0
 40
7.0
 40
8.0
 40
8.0
 40
8.0
 40
9.0
 40
9.0
 40
9.0
 40
10.0
 40
10.0
 40
10.0
 40
11.0
 40
11.0
 40
11.0
 40
12.0
 40
12.0
 40
12.0
 40
13.0
 40
13.0
 40
13.0
 40
14.0
 40
14.0
 40
14.0
 40
15.0
 40
15.0
 40
15.0
 40
16.0
 40
16.0
 40
16.0
 40
17.0
 40
17.0
 40
17.0
 40
17.0
 10
100.4504378777679
 20
166.69157178364
 30
0.0
 10
101.9848844191641
 20
167.1313385124438
 30
0.0
 10
103.9637485713373
 20
166.7649523658846
 30
0.0
 10
103.9637485713373
 20
166.7649523658846
 30
0.0
 10
103.9637485713373
 20
166.7649523658846
 30
0.0
 10
103.0132460999156
 20
163.911205638077
 30
0.0
 10
103.0132460999156
 20
163.911205638077
 30
0.0
 10
103.0132460999156
 20
163.911205638077
 30
0.0
 10
101.0674548862189
 20
164.3601018759394
 30
0.0
 10
99.57090442016032
 20
163.1805004036133
 30
0.0
 10
98.40508333886608
 20
162.258247733807
 30
0.0
 10
97.65301849830304
 20
159.804132345923
 30
0.0
 10
97.3598406791005
 20
158.8699940888517
 30
0.0
 10
97.3598406791005
 20
158.8699940888517
 30
0.0
 10
96.07137411762282
 20
154.9119212747295
 30
0.0
 10
96.07137411762282
 20
154.9119212747295
 30
0.0
 10
96.07137411762282
 20
154.9119212747295
 30
0.0
 10
100.3012651448482
 20
154.9119212747295
 30
0.0
 10
100.3012651448482
 20
154.9119212747295
 30
0.0
 10
100.3012651448482
 20
154.9119212747295
 30
0.0
 10
99.64152892419852
 20
152.4199098115079
 30
0.0
 10
99.64152892419852
 20
152.4199098115079
 30
0.0
 10
99.64152892419852
 20
152.4199098115079
 30
0.0
 10
95.38097652692731
 20
152.4199098115079
 30
0.0
 10
95.38097652692731
 20
152.4199098115079
 30
0.0
 10
95.38097652692731
 20
152.4199098115079
 30
0.0
 10
87.75353009080013
 20
127.8027915271048
 30
0.0
 10
87.75353009080013
 20
127.8027915271048
 30
0.0
 10
87.75353009080013
 20
127.8027915271048
 30
0.0
 10
85.36538832498108
 20
127.8027915271048
 30
0.0
 10
85.36538832498108
 20
127.8027915271048
 30
0.0
 10
85.36538832498108
 20
127.8027915271048
 30
0.0
 10
93.00006946639998
 20
152.4199098115079
 30
0.0
 10
93.00006946639998
 20
152.4199098115079
 30
0.0
 10
93.00006946639998
 20
152.4199098115079
 30
0.0
 10
89.85297266450198
 20
152.4199098115079
 30
0.0
 10
89.85297266450198
 20
152.4199098115079
 30
0.0
 10
89.85297266450198
 20
152.4199098115079
 30
0.0
 10
90.51270888515164
 20
154.9119212747295
 30
0.0
 10
90.51270888515164
 20
154.9119212747295
 30
0.0
 10
90.51270888515164
 20
154.9119212747295
 30
0.0
 10
93.6904670570955
 20
154.9119212747295
 30
0.0
 10
93.6904670570955
 20
154.9119212747295
 30
0.0
 10
93.6904670570955
 20
154.9119212747295
 30
0.0
 10
94.81598049462158
 20
158.3616699146644
 30
0.0
 10
94.81598049462158
 20
158.3616699146644
 30
0.0
 10
95.7237637538445
 20
161.2605474231013
 30
0.0
 10
96.4968436907311
 20
162.8139420021662
 30
0.0
 10
97.15657991138076
 20
163.9844139654337
 30
0.0
 10
97.81183750494507
 20
165.1523021053827
 30
0.0
 10
99.1047826935081
 20
166.3084769129547
 30
0.0
 10
100.4504378777679
 20
166.69157178364
 30
0.0
  0
HATCH
  5
6A5
330
6A2
100
AcDbEntity
  8
LOGO
 62
   250
420
  2234388
100
AcDbHatch
 10
0.0
 20
0.0
 30
0.0
210
0.0
220
0.0
230
1.0
  2
SOLID
 70
     1
 71
     0
 91
        1
 92
        1
 93
        1
 72
     4
 94
        3
 73
     0
 74
     1
 95
       56
 96
       52
 40
0.0
 40
0.0
 40
0.0
 40
0.0
 40
1.0
 40
1.0
 40
1.0
 40
2.0
 40
2.0
 40
2.0
 40
3.0
 40
3.0
 40
3.0
 40
4.0
 40
4.0
 40
4.0
 40
5.0
 40
5.0
 40
5.0
 40
6.0
 40
6.0
 40
6.0
 40
7.0
 40
7.0
 40
7.0
 40
8.0
 40
8.0
 40
8.0
 40
9.0
 40
9.0
 40
9.0
 40
10.0
 40
10.0
 40
10.0
 40
11.0
 40
11.0
 40
11.0
 40
12.0
 40
12.0
 40
12.0
 40
13.0
 40
13.0
 40
13.0
 40
14.0
 40
14.0
 40
14.0
 40
15.0
 40
15.0
 40
15.0
 40
16.0
 40
16.0
 40
16.0
 40
17.0
 40
17.0
 40
17.0
 40
17.0
 10
100.4504378777679
 20
166.69157178364
 10
101.9848844191641
 20
167.1313385124438
 10
103.9637485713373
 20
166.7649523658846
 10
103.9637485713373
 20
166.7649523658846
 10
103.9637485713373
 20
166.7649523658846
 10
103.0132460999156
 20
163.911205638077
 10
103.0132460999156
 20
163.911205638077
 10
103.0132460999156
 20
163.911205638077
 10
101.0674548862189
 20
164.3601018759394
 10
99.57090442016032
 20
163.1805004036133
 10
98.40508333886608
 20
162.258247733807
 10
97.65301849830304
 20
159.804132345923
 10
97.3598406791005
 20
158.8699940888517
 10
97.3598406791005
 20
158.8699940888517
 10
96.07137411762282
 20
154.9119212747295
 10
96.07137411762282
 20
154.9119212747295
 10
96.07137411762282
 20
154.9119212747295
 10
100.3012651448482
 20
154.9119212747295
 10
100.3012651448482
 20
154.9119212747295
 10
100.3012651448482
 20
154.9119212747295
 10
99.64152892419852
 20
152.4199098115079
 10
99.64152892419852
 20
152.4199098115079
 10
99.64152892419852
 20
152.4199098115079
 10
95.38097652692731
 20
152.4199098115079
 10
95.38097652692731
 20
152.4199098115079
 10
95.38097652692731
 20
152.4199098115079
 10
87.75353009080013
 20
127.8027915271048
 10
87.75353009080013
 20
127.8027915271048
 10
87.75353009080013
 20
127.8027915271048
 10
85.36538832498108
 20
127.8027915271048
 10
85.36538832498108
 20
127.8027915271048
 10
85.36538832498108
 20
127.8027915271048
 10
93.00006946639998
 20
152.4199098115079
 10
93.00006946639998
 20
152.4199098115079
 10
93.00006946639998
 20
152.4199098115079
 10
89.85297266450198
 20
152.4199098115079
 10
89.85297266450198
 20
152.4199098115079
 10
89.85297266450198
 20
152.4199098115079
 10
90.51270888515164
 20
154.9119212747295
 10
90.51270888515164
 20
154.9119212747295
 10
90.51270888515164
 20
154.9119212747295
 10
93.6904670570955
 20
154.9119212747295
 10
93.6904670570955
 20
154.9119212747295
 10
93.6904670570955
 20
154.9119212747295
 10
94.81598049462158
 20
158.3616699146644
 10
94.81598049462158
 20
158.3616699146644
 10
95.7237637538445
 20
161.2605474231013
 10
96.4968436907311
 20
162.8139420021662
 10
97.15657991138076
 20
163.9844139654337
 10
97.81183750494507
 20
165.1523021053827
 10
99.1047826935081
 20
166.3084769129547
 10
100.4504378777679
 20
166.69157178364
 97
        0
 75
     2
 76
     1
 98
        0
  0
SPLINE
  5
6A6
330
6A2
100
AcDbEntity
  8
LOGO
370
     0
100
AcDbSpline
210
0.0
220
0.0
230
1.0
 70
    11
 71
     3
 72
    38
 73
    34
 74
     0
 42
0.000000001
 43
0.0000000001
 40
0.0
 40
0.0
 40
0.0
 40
0.0
 40
1.0
 40
1.0
 40
1.0
 40
2.0
 40
2.0
 40
2.0
 40
3.0
 40
3.0
 40
3.0
 40
4.0
 40
4.0
 40
4.0
 40
5.0
 40
5.0
 40
5.0
 40
6.0
 40
6.0
 40
6.0
 40
7.0
 40
7.0
 40
7.0
 40
8.0
 40
8.0
 40
8.0
 40
9.0
 40
9.0
 40
9.0
 40
10.0
 40
10.0
 40
10.0
 40
11.0
 40
11.0
 40
11.0
 40
11.0
 10
126.377554584636
 20
154.8151140277308
 30
0.0
 10
126.377554584636
 20
154.8151140277308
 30
0.0
 10
128.8311532078563
 20
154.8151140277308
 30
0.0
 10
128.8311532078563
 20
154.8151140277308
 30
0.0
 10
128.8311532078563
 20
154.8151140277308
 30
0.0
 10
127.7345785914971
 20
151.3062819612468
 30
0.0
 10
127.7345785914971
 20
151.3062819612468
 30
0.0
 10
128.571392836906
 20
152.2922689395754
 30
0.0
 10
129.8860421413442
 20
153.604506675583
 30
0.0
 10
131.0163787157314
 20
154.2664822097754
 30
0.0
 10
132.7044766171327
 20
155.2500576196734
 30
0.0
 10
133.6642808525008
 20
155.3847609420097
 30
0.0
 10
134.7284715499351
 20
155.3565111403944
 30
0.0
 10
134.7284715499351
 20
155.3565111403944
 30
0.0
 10
133.6877075172549
 20
152.0345756272799
 30
0.0
 10
133.6877075172549
 20
152.0345756272799
 30
0.0
 10
133.011434827367
 20
152.3184516825359
 30
0.0
 10
130.930940291334
 20
151.7768823149844
 30
0.0
 10
129.739280976855
 20
150.9162968950455
 30
0.0
 10
128.66613302525
 20
150.1454562717016
 30
0.0
 10
127.9192358313239
 20
149.4857200510519
 30
0.0
 10
127.0393578639405
 20
147.8282835196966
 30
0.0
 10
126.164647543194
 20
146.1699857139017
 30
0.0
 10
125.4742499524985
 20
143.5262176944419
 30
0.0
 10
124.2822461282437
 20
139.6959580071401
 30
0.0
 10
124.2822461282437
 20
139.6959580071401
 30
0.0
 10
120.5753209406769
 20
127.8027915271048
 30
0.0
 10
120.5753209406769
 20
127.8027915271048
 30
0.0
 10
120.5753209406769
 20
127.8027915271048
 30
0.0
 10
118.1964809388044
 20
127.8027915271048
 30
0.0
 10
118.1964809388044
 20
127.8027915271048
 30
0.0
 10
118.1964809388044
 20
127.8027915271048
 30
0.0
 10
126.377554584636
 20
154.8151140277308
 30
0.0
 10
126.377554584636
 20
154.8151140277308
 30
0.0
  0
HATCH
  5
6A7
330
6A2
100
AcDbEntity
  8
LOGO
 62
   250
420
  2234388
100
AcDbHatch
 10
0.0
 20
0.0
 30
0.0
210
0.0
220
0.0
230
1.0
  2
SOLID
 70
     1
 71
     0
 91
        1
 92
        1
 93
        1
 72
     4
 94
        3
 73
     0
 74
     1
 95
       38
 96
       34
 40
0.0
 40
0.0
 40
0.0
 40
0.0
 40
1.0
 40
1.0
 40
1.0
 40
2.0
 40
2.0
 40
2.0
 40
3.0
 40
3.0
 40
3.0
 40
4.0
 40
4.0
 40
4.0
 40
5.0
 40
5.0
 40
5.0
 40
6.0
 40
6.0
 40
6.0
 40
7.0
 40
7.0
 40
7.0
 40
8.0
 40
8.0
 40
8.0
 40
9.0
 40
9.0
 40
9.0
 40
10.0
 40
10.0
 40
10.0
 40
11.0
 40
11.0
 40
11.0
 40
11.0
 10
126.377554584636
 20
154.8151140277308
 10
126.377554584636
 20
154.8151140277308
 10
128.8311532078563
 20
154.8151140277308
 10
128.8311532078563
 20
154.8151140277308
 10
128.8311532078563
 20
154.8151140277308
 10
127.7345785914971
 20
151.3062819612468
 10
127.7345785914971
 20
151.3062819612468
 10
128.571392836906
 20
152.2922689395754
 10
129.8860421413442
 20
153.604506675583
 10
131.0163787157314
 20
154.2664822097754
 10
132.7044766171327
 20
155.2500576196734
 10
133.6642808525008
 20
155.3847609420097
 10
134.7284715499351
 20
155.3565111403944
 10
134.7284715499351
 20
155.3565111403944
 10
133.6877075172549
 20
152.0345756272799
 10
133.6877075172549
 20
152.0345756272799
 10
133.011434827367
 20
152.3184516825359
 10
130.930940291334
 20
151.7768823149844
 10
129.739280976855
 20
150.9162968950455
 10
128.66613302525
 20
150.1454562717016
 10
127.9192358313239
 20
149.4857200510519
 10
127.0393578639405
 20
147.8282835196966
 10
126.164647543194
 20
146.1699857139017
 10
125.4742499524985
 20
143.5262176944419
 10
124.2822461282437
 20
139.6959580071401
 10
124.2822461282437
 20
139.6959580071401
 10
120.5753209406769
 20
127.8027915271048
 10
120.5753209406769
 20
127.8027915271048
 10
120.5753209406769
 20
127.8027915271048
 10
118.1964809388044
 20
127.8027915271048
 10
118.1964809388044
 20
127.8027915271048
 10
118.1964809388044
 20
127.8027915271048
 10
126.377554584636
 20
154.8151140277308
 10
126.377554584636
 20
154.8151140277308
 97
        0
 75
     2
 76
     1
 98
        0
  0
SPLINE
  5
6A8
330
6A2
100
AcDbEntity
  8
LOGO
370
     0
100
AcDbSpline
210
0.0
220
0.0
230
1.0
 70
    11
 71
     3
 72
   104
 73
   100
 74
     0
 42
0.000000001
 43
0.0000000001
 40
0.0
 40
0.0
 40
0.0
 40
0.0
 40
1.0
 40
1.0
 40
1.0
 40
2.0
 40
2.0
 40
2.0
 40
3.0
 40
3.0
 40
3.0
 40
4.0
 40
4.0
 40
4.0
 40
5.0
 40
5.0
 40
5.0
 40
6.0
 40
6.0
 40
6.0
 40
7.0
 40
7.0
 40
7.0
 40
8.0
 40
8.0
 40
8.0
 40
9.0
 40
9.0
 40
9.0
 40
10.0
 40
10.0
 40
10.0
 40
11.0
 40
11.0
 40
11.0
 40
12.0
 40
12.0
 40
12.0
 40
13.0
 40
13.0
 40
13.0
 40
14.0
 40
14.0
 40
14.0
 40
15.0
 40
15.0
 40
15.0
 40
16.0
 40
16.0
 40
16.0
 40
17.0
 40
17.0
 40
17.0
 40
18.0
 40
18.0
 40
18.0
 40
19.0
 40
19.0
 40
19.0
 40
20.0
 40
20.0
 40
20.0
 40
21.0
 40
21.0
 40
21.0
 40
22.0
 40
22.0
 40
22.0
 40
23.0
 40
23.0
 40
23.0
 40
24.0
 40
24.0
 40
24.0
 40
25.0
 40
25.0
 40
25.0
 40
26.0
 40
26.0
 40
26.0
 40
27.0
 40
27.0
 40
27.0
 40
28.0
 40
28.0
 40
28.0
 40
29.0
 40
29.0
 40
29.0
 40
30.0
 40
30.0
 40
30.0
 40
31.0
 40
31.0
 40
31.0
 40
32.0
 40
32.0
 40
32.0
 40
33.0
 40
33.0
 40
33.0
 40
33.0
 10
139.8926730891197
 20
154.8294111834263
 30
0.0
 10
139.8926730891197
 20
154.8294111834263
 30
0.0
 10
142.0344903652445
 20
154.8294111834263
 30
0.0
 10
142.0344903652445
 20
154.8294111834263
 30
0.0
 10
142.0344903652445
 20
154.8294111834263
 30
0.0
 10
140.9516961399171
 20
151.3157559800812
 30
0.0
 10
140.9516961399171
 20
151.3157559800812
 30
0.0
 10
141.8928968473923
 20
152.7887075264977
 30
0.0
 10
142.7341897198865
 20
153.4484437471474
 30
0.0
 10
143.8552245303272
 20
154.2926649527359
 30
0.0
 10
144.9803934580775
 20
155.1296514530327
 30
0.0
 10
146.3139908001845
 20
155.3044901642492
 30
0.0
 10
147.241066606852
 20
155.3044901642492
 30
0.0
 10
148.3855280820469
 20
155.3044901642492
 30
0.0
 10
149.4969166187653
 20
155.0752189084569
 30
0.0
 10
150.0784491203092
 20
153.8172414621372
 30
0.0
 10
150.5228667310863
 20
152.833838307127
 30
0.0
 10
150.5414702589793
 20
152.7201500811143
 30
0.0
 10
150.4140016419347
 20
150.7765981809602
 30
0.0
 10
151.5818897818837
 20
152.7699317437168
 30
0.0
 10
152.4424752018226
 20
153.6256940267945
 30
0.0
 10
153.9038856707499
 20
154.4507949398263
 30
0.0
 10
155.4455669174378
 20
155.3044901642492
 30
0.0
 10
156.339225275853
 20
155.3659851592288
 30
0.0
 10
157.3748216618963
 20
155.2147453676543
 30
0.0
 10
158.911679771723
 20
154.9877134254046
 30
0.0
 10
159.8859534176746
 20
154.4390816074493
 30
0.0
 10
160.3965169054045
 20
152.7816450760939
 30
0.0
 10
160.9070803931344
 20
151.1219692311958
 30
0.0
 10
160.6328506116007
 20
150.2303779314354
 30
0.0
 10
159.9992971339115
 20
147.597634224801
 30
0.0
 10
159.7105979417943
 20
146.4014962832367
 30
0.0
 10
159.2947746424084
 20
144.9400858143094
 30
0.0
 10
158.7463150793409
 20
143.2092687007094
 30
0.0
 10
158.7463150793409
 20
143.2092687007094
 30
0.0
 10
153.9038856707499
 20
127.8027915271048
 30
0.0
 10
153.9038856707499
 20
127.8027915271048
 30
0.0
 10
153.9038856707499
 20
127.8027915271048
 30
0.0
 10
151.3882752878863
 20
127.8027915271048
 30
0.0
 10
151.3882752878863
 20
127.8027915271048
 30
0.0
 10
151.3882752878863
 20
127.8027915271048
 30
0.0
 10
155.6250565106276
 20
141.2751908193897
 30
0.0
 10
155.6250565106276
 20
141.2751908193897
 30
0.0
 10
156.5094131050963
 20
144.0936252951782
 30
0.0
 10
157.109893644309
 20
146.1506931664571
 30
0.0
 10
157.4220195011804
 20
147.4415712963654
 30
0.0
 10
157.8095929989511
 20
149.0530157726519
 30
0.0
 10
157.9656559273867
 20
149.5826995529385
 30
0.0
 10
157.7816877071116
 20
150.7529992613181
 30
0.0
 10
157.6111553680925
 20
151.8430281919372
 30
0.0
 10
157.0582171779396
 20
152.5547853887321
 30
0.0
 10
156.1170164704645
 20
152.5547853887321
 30
0.0
 10
155.1096698860365
 20
152.5547853887321
 30
0.0
 10
154.2962823053817
 20
152.4412694176073
 30
0.0
 10
153.156643967048
 20
151.2945686288697
 30
0.0
 10
152.0170056287143
 20
150.1476955852443
 30
0.0
 10
151.076149431015
 20
148.7930831468137
 30
0.0
 10
150.3337308641742
 20
147.2290087646991
 30
0.0
 10
149.5957909244188
 20
145.6683794803425
 30
0.0
 10
148.8530278478023
 20
143.6822806228776
 30
0.0
 10
148.0964843801539
 20
141.2751908193897
 30
0.0
 10
148.0964843801539
 20
141.2751908193897
 30
0.0
 10
143.8552245303272
 20
127.8027915271048
 30
0.0
 10
143.8552245303272
 20
127.8027915271048
 30
0.0
 10
143.8552245303272
 20
127.8027915271048
 30
0.0
 10
141.486030802177
 20
127.8027915271048
 30
0.0
 10
141.486030802177
 20
127.8027915271048
 30
0.0
 10
141.486030802177
 20
127.8027915271048
 30
0.0
 10
146.3329388378533
 20
143.2092687007094
 30
0.0
 10
146.3329388378533
 20
143.2092687007094
 30
0.0
 10
146.8483254624444
 20
144.8408669988801
 30
0.0
 10
147.2314203331297
 20
146.1837661049335
 30
0.0
 10
147.4867020769946
 20
147.224185627838
 30
0.0
 10
147.9169947869641
 20
149.0197705792876
 30
0.0
 10
148.0306830129768
 20
150.2400242051577
 30
0.0
 10
147.709255392159
 20
151.3157559800812
 30
0.0
 10
147.3874832615654
 20
152.3916600098926
 30
0.0
 10
146.8245542879144
 20
152.6683013598569
 30
0.0
 10
145.8840425999909
 20
152.6683013598569
 30
0.0
 10
145.0989048209514
 20
152.6683013598569
 30
0.0
 10
144.3282364524954
 20
152.3275811915945
 30
0.0
 10
143.4531816219731
 20
151.6538923250251
 30
0.0
 10
142.34627171234
 20
150.8074318058939
 30
0.0
 10
141.901854101563
 20
150.1097995099067
 30
0.0
 10
141.3578731655808
 20
149.289521733736
 30
0.0
 10
140.6299240093235
 20
148.192602607601
 30
0.0
 10
140.2850697237515
 20
147.455696197173
 30
0.0
 10
139.6652966370942
 20
145.8385673095858
 30
0.0
 10
139.0506911970739
 20
144.2214384219986
 30
0.0
 10
138.463991048893
 20
142.3252566160164
 30
0.0
 10
138.0571250036777
 20
141.0154304484394
 30
0.0
 10
138.0571250036777
 20
141.0154304484394
 30
0.0
 10
133.9009590684727
 20
127.8027915271048
 30
0.0
 10
133.9009590684727
 20
127.8027915271048
 30
0.0
 10
133.9009590684727
 20
127.8027915271048
 30
0.0
 10
131.4180771143097
 20
127.8027915271048
 30
0.0
 10
131.4180771143097
 20
127.8027915271048
 30
0.0
 10
131.4180771143097
 20
127.8027915271048
 30
0.0
 10
139.8926730891197
 20
154.8294111834263
 30
0.0
 10
139.8926730891197
 20
154.8294111834263
 30
0.0
  0
HATCH
  5
6A9
330
6A2
100
AcDbEntity
  8
LOGO
 62
   250
420
  2234388
100
AcDbHatch
 10
0.0
 20
0.0
 30
0.0
210
0.0
220
0.0
230
1.0
  2
SOLID
 70
     1
 71
     0
 91
        1
 92
        1
 93
        1
 72
     4
 94
        3
 73
     0
 74
     1
 95
      104
 96
      100
 40
0.0
 40
0.0
 40
0.0
 40
0.0
 40
1.0
 40
1.0
 40
1.0
 40
2.0
 40
2.0
 40
2.0
 40
3.0
 40
3.0
 40
3.0
 40
4.0
 40
4.0
 40
4.0
 40
5.0
 40
5.0
 40
5.0
 40
6.0
 40
6.0
 40
6.0
 40
7.0
 40
7.0
 40
7.0
 40
8.0
 40
8.0
 40
8.0
 40
9.0
 40
9.0
 40
9.0
 40
10.0
 40
10.0
 40
10.0
 40
11.0
 40
11.0
 40
11.0
 40
12.0
 40
12.0
 40
12.0
 40
13.0
 40
13.0
 40
13.0
 40
14.0
 40
14.0
 40
14.0
 40
15.0
 40
15.0
 40
15.0
 40
16.0
 40
16.0
 40
16.0
 40
17.0
 40
17.0
 40
17.0
 40
18.0
 40
18.0
 40
18.0
 40
19.0
 40
19.0
 40
19.0
 40
20.0
 40
20.0
 40
20.0
 40
21.0
 40
21.0
 40
21.0
 40
22.0
 40
22.0
 40
22.0
 40
23.0
 40
23.0
 40
23.0
 40
24.0
 40
24.0
 40
24.0
 40
25.0
 40
25.0
 40
25.0
 40
26.0
 40
26.0
 40
26.0
 40
27.0
 40
27.0
 40
27.0
 40
28.0
 40
28.0
 40
28.0
 40
29.0
 40
29.0
 40
29.0
 40
30.0
 40
30.0
 40
30.0
 40
31.0
 40
31.0
 40
31.0
 40
32.0
 40
32.0
 40
32.0
 40
33.0
 40
33.0
 40
33.0
 40
33.0
 10
139.8926730891197
 20
154.8294111834263
 10
139.8926730891197
 20
154.8294111834263
 10
142.0344903652445
 20
154.8294111834263
 10
142.0344903652445
 20
154.8294111834263
 10
142.0344903652445
 20
154.8294111834263
 10
140.9516961399171
 20
151.3157559800812
 10
140.9516961399171
 20
151.3157559800812
 10
141.8928968473923
 20
152.7887075264977
 10
142.7341897198865
 20
153.4484437471474
 10
143.8552245303272
 20
154.2926649527359
 10
144.9803934580775
 20
155.1296514530327
 10
146.3139908001845
 20
155.3044901642492
 10
147.241066606852
 20
155.3044901642492
 10
148.3855280820469
 20
155.3044901642492
 10
149.4969166187653
 20
155.0752189084569
 10
150.0784491203092
 20
153.8172414621372
 10
150.5228667310863
 20
152.833838307127
 10
150.5414702589793
 20
152.7201500811143
 10
150.4140016419347
 20
150.7765981809602
 10
151.5818897818837
 20
152.7699317437168
 10
152.4424752018226
 20
153.6256940267945
 10
153.9038856707499
 20
154.4507949398263
 10
155.4455669174378
 20
155.3044901642492
 10
156.339225275853
 20
155.3659851592288
 10
157.3748216618963
 20
155.2147453676543
 10
158.911679771723
 20
154.9877134254046
 10
159.8859534176746
 20
154.4390816074493
 10
160.3965169054045
 20
152.7816450760939
 10
160.9070803931344
 20
151.1219692311958
 10
160.6328506116007
 20
150.2303779314354
 10
159.9992971339115
 20
147.597634224801
 10
159.7105979417943
 20
146.4014962832367
 10
159.2947746424084
 20
144.9400858143094
 10
158.7463150793409
 20
143.2092687007094
 10
158.7463150793409
 20
143.2092687007094
 10
153.9038856707499
 20
127.8027915271048
 10
153.9038856707499
 20
127.8027915271048
 10
153.9038856707499
 20
127.8027915271048
 10
151.3882752878863
 20
127.8027915271048
 10
151.3882752878863
 20
127.8027915271048
 10
151.3882752878863
 20
127.8027915271048
 10
155.6250565106276
 20
141.2751908193897
 10
155.6250565106276
 20
141.2751908193897
 10
156.5094131050963
 20
144.0936252951782
 10
157.109893644309
 20
146.1506931664571
 10
157.4220195011804
 20
147.4415712963654
 10
157.8095929989511
 20
149.0530157726519
 10
157.9656559273867
 20
149.5826995529385
 10
157.7816877071116
 20
150.7529992613181
 10
157.6111553680925
 20
151.8430281919372
 10
157.0582171779396
 20
152.5547853887321
 10
156.1170164704645
 20
152.5547853887321
 10
155.1096698860365
 20
152.5547853887321
 10
154.2962823053817
 20
152.4412694176073
 10
153.156643967048
 20
151.2945686288697
 10
152.0170056287143
 20
150.1476955852443
 10
151.076149431015
 20
148.7930831468137
 10
150.3337308641742
 20
147.2290087646991
 10
149.5957909244188
 20
145.6683794803425
 10
148.8530278478023
 20
143.6822806228776
 10
148.0964843801539
 20
141.2751908193897
 10
148.0964843801539
 20
141.2751908193897
 10
143.8552245303272
 20
127.8027915271048
 10
143.8552245303272
 20
127.8027915271048
 10
143.8552245303272
 20
127.8027915271048
 10
141.486030802177
 20
127.8027915271048
 10
141.486030802177
 20
127.8027915271048
 10
141.486030802177
 20
127.8027915271048
 10
146.3329388378533
 20
143.2092687007094
 10
146.3329388378533
 20
143.2092687007094
 10
146.8483254624444
 20
144.8408669988801
 10
147.2314203331297
 20
146.1837661049335
 10
147.4867020769946
 20
147.224185627838
 10
147.9169947869641
 20
149.0197705792876
 10
148.0306830129768
 20
150.2400242051577
 10
147.709255392159
 20
151.3157559800812
 10
147.3874832615654
 20
152.3916600098926
 10
146.8245542879144
 20
152.6683013598569
 10
145.8840425999909
 20
152.6683013598569
 10
145.0989048209514
 20
152.6683013598569
 10
144.3282364524954
 20
152.3275811915945
 10
143.4531816219731
 20
151.6538923250251
 10
142.34627171234
 20
150.8074318058939
 10
141.901854101563
 20
150.1097995099067
 10
141.3578731655808
 20
149.289521733736
 10
140.6299240093235
 20
148.192602607601
 10
140.2850697237515
 20
147.455696197173
 10
139.6652966370942
 20
145.8385673095858
 10
139.0506911970739
 20
144.2214384219986
 10
138.463991048893
 20
142.3252566160164
 10
138.0571250036777
 20
141.0154304484394
 10
138.0571250036777
 20
141.0154304484394
 10
133.9009590684727
 20
127.8027915271048
 10
133.9009590684727
 20
127.8027915271048
 10
133.9009590684727
 20
127.8027915271048
 10
131.4180771143097
 20
127.8027915271048
 10
131.4180771143097
 20
127.8027915271048
 10
131.4180771143097
 20
127.8027915271048
 10
139.8926730891197
 20
154.8294111834263
 10
139.8926730891197
 20
154.8294111834263
 97
        0
 75
     2
 76
     1
 98
        0
  0
SPLINE
  5
6AA
330
6A2
100
AcDbEntity
  8
LOGO
370
     0
100
AcDbSpline
210
0.0
220
0.0
230
1.0
 70
    11
 71
     3
 72
    29
 73
    25
 74
     0
 42
0.000000001
 43
0.0000000001
 40
0.0
 40
0.0
 40
0.0
 40
0.0
 40
1.0
 40
1.0
 40
1.0
 40
2.0
 40
2.0
 40
2.0
 40
3.0
 40
3.0
 40
3.0
 40
4.0
 40
4.0
 40
4.0
 40
5.0
 40
5.0
 40
5.0
 40
6.0
 40
6.0
 40
6.0
 40
7.0
 40
7.0
 40
7.0
 40
8.0
 40
8.0
 40
8.0
 40
8.0
 10
101.6420971922469
 20
132.8388354296931
 30
0.0
 10
101.630039350094
 20
134.7164137077823
 30
0.0
 10
102.2236296937908
 20
138.0598810818841
 30
0.0
 10
103.7487744712405
 20
142.5378191476827
 30
0.0
 10
105.819967243327
 20
148.5896501242061
 30
0.0
 10
107.0602024361932
 20
150.8074318058939
 30
0.0
 10
108.1522984254671
 20
151.8833358357054
 30
0.0
 10
109.741177511439
 20
153.4532668840085
 30
0.0
 10
111.8740375333931
 20
153.5290590346837
 30
0.0
 10
112.5075910110823
 20
153.4532668840085
 30
0.0
 10
113.4012493694975
 20
153.3490526768302
 30
0.0
 10
114.6683563248758
 20
152.7580461564518
 30
0.0
 10
114.7493161221879
 20
150.7838328862519
 30
0.0
 10
114.8106388622796
 20
149.0909118479895
 30
0.0
 10
114.3186789024427
 20
145.9191825971221
 30
0.0
 10
112.6164561002338
 20
140.9489400617108
 30
0.0
 10
110.6444821435766
 20
135.1746117095912
 30
0.0
 10
109.4669477299053
 20
132.8960240524753
 30
0.0
 10
108.5212683953448
 20
131.9072809959403
 30
0.0
 10
106.7346406980658
 20
130.0538184021569
 30
0.0
 10
104.8222669326213
 20
130.2336525051225
 30
0.0
 10
104.5408024457958
 20
130.2336525051225
 30
0.0
 10
104.1721769856939
 20
130.2336525051225
 30
0.0
 10
101.6465758193322
 20
130.6305277668397
 30
0.0
 10
101.6420971922469
 20
132.8388354296931
 30
0.0
  0
SPLINE
  5
6AB
330
6A2
100
AcDbEntity
  8
LOGO
370
     0
100
AcDbSpline
210
0.0
220
0.0
230
1.0
 70
    11
 71
     3
 72
    32
 73
    28
 74
     0
 42
0.000000001
 43
0.0000000001
 40
0.0
 40
0.0
 40
0.0
 40
0.0
 40
1.0
 40
1.0
 40
1.0
 40
2.0
 40
2.0
 40
2.0
 40
3.0
 40
3.0
 40
3.0
 40
4.0
 40
4.0
 40
4.0
 40
5.0
 40
5.0
 40
5.0
 40
6.0
 40
6.0
 40
6.0
 40
7.0
 40
7.0
 40
7.0
 40
8.0
 40
8.0
 40
8.0
 40
9.0
 40
9.0
 40
9.0
 40
9.0
 10
106.2595617172429
 20
153.4105476718098
 30
0.0
 10
104.8222669326213
 20
151.5474388043041
 30
0.0
 10
103.7177685914188
 20
149.8758773721411
 30
0.0
 10
101.9232171692965
 20
144.6141795664062
 30
0.0
 10
100.2754269116635
 20
139.7999999594306
 30
0.0
 10
99.22777268346732
 20
136.3052927937542
 30
0.0
 10
99.06964269637689
 20
132.039572749846
 30
0.0
 10
98.94665270641765
 20
128.8673267343149
 30
0.0
 10
100.8807305877373
 20
127.8027915271048
 30
0.0
 10
103.7129454545577
 20
127.8027915271048
 30
0.0
 10
104.9352661390825
 20
127.8027915271048
 30
0.0
 10
108.0151835347002
 20
127.8827177950895
 30
0.0
 10
110.2045431598849
 20
130.5926316915021
 30
0.0
 10
111.7417457794874
 20
132.4984597712065
 30
0.0
 10
113.155269389579
 20
134.475256864725
 30
0.0
 10
115.0562743324223
 20
140.9489400617108
 30
0.0
 10
116.6361961642235
 20
146.3680788349845
 30
0.0
 10
117.7282921534974
 20
149.8639917848761
 30
0.0
 10
117.6480213757369
 20
151.8595646611754
 30
0.0
 10
117.6480213757369
 20
151.8595646611754
 30
0.0
 10
117.6480213757369
 20
151.8595646611754
 30
0.0
 10
117.6480213757369
 20
151.8595646611754
 30
0.0
 10
117.13229024137
 20
155.18150017429
 30
0.0
 10
114.7162431837115
 20
155.886194920681
 30
0.0
 10
113.3351034925446
 20
155.886194920681
 30
0.0
 10
111.9829026225447
 20
155.886194920681
 30
0.0
 10
108.3414342923792
 20
156.1251124501957
 30
0.0
 10
106.2595617172429
 20
153.4105476718098
 30
0.0
  0
HATCH
  5
6AC
330
6A2
100
AcDbEntity
  8
LOGO
 62
   250
420
  2234388
100
AcDbHatch
 10
0.0
 20
0.0
 30
0.0
210
0.0
220
0.0
230
1.0
  2
SOLID
 70
     1
 71
     0
 91
        2
 92
        1
 93
        1
 72
     4
 94
        3
 73
     0
 74
     1
 95
       29
 96
       25
 40
0.0
 40
0.0
 40
0.0
 40
0.0
 40
1.0
 40
1.0
 40
1.0
 40
2.0
 40
2.0
 40
2.0
 40
3.0
 40
3.0
 40
3.0
 40
4.0
 40
4.0
 40
4.0
 40
5.0
 40
5.0
 40
5.0
 40
6.0
 40
6.0
 40
6.0
 40
7.0
 40
7.0
 40
7.0
 40
8.0
 40
8.0
 40
8.0
 40
8.0
 10
101.6420971922469
 20
132.8388354296931
 10
101.630039350094
 20
134.7164137077823
 10
102.2236296937908
 20
138.0598810818841
 10
103.7487744712405
 20
142.5378191476827
 10
105.819967243327
 20
148.5896501242061
 10
107.0602024361932
 20
150.8074318058939
 10
108.1522984254671
 20
151.8833358357054
 10
109.741177511439
 20
153.4532668840085
 10
111.8740375333931
 20
153.5290590346837
 10
112.5075910110823
 20
153.4532668840085
 10
113.4012493694975
 20
153.3490526768302
 10
114.6683563248758
 20
152.7580461564518
 10
114.7493161221879
 20
150.7838328862519
 10
114.8106388622796
 20
149.0909118479895
 10
114.3186789024427
 20
145.9191825971221
 10
112.6164561002338
 20
140.9489400617108
 10
110.6444821435766
 20
135.1746117095912
 10
109.4669477299053
 20
132.8960240524753
 10
108.5212683953448
 20
131.9072809959403
 10
106.7346406980658
 20
130.0538184021569
 10
104.8222669326213
 20
130.2336525051225
 10
104.5408024457958
 20
130.2336525051225
 10
104.1721769856939
 20
130.2336525051225
 10
101.6465758193322
 20
130.6305277668397
 10
101.6420971922469
 20
132.8388354296931
 97
        0
 92
        1
 93
        1
 72
     4
 94
        3
 73
     0
 74
     1
 95
       32
 96
       28
 40
0.0
 40
0.0
 40
0.0
 40
0.0
 40
1.0
 40
1.0
 40
1.0
 40
2.0
 40
2.0
 40
2.0
 40
3.0
 40
3.0
 40
3.0
 40
4.0
 40
4.0
 40
4.0
 40
5.0
 40
5.0
 40
5.0
 40
6.0
 40
6.0
 40
6.0
 40
7.0
 40
7.0
 40
7.0
 40
8.0
 40
8.0
 40
8.0
 40
9.0
 40
9.0
 40
9.0
 40
9.0
 10
106.2595617172429
 20
153.4105476718098
 10
104.8222669326213
 20
151.5474388043041
 10
103.7177685914188
 20
149.8758773721411
 10
101.9232171692965
 20
144.6141795664062
 10
100.2754269116635
 20
139.7999999594306
 10
99.22777268346732
 20
136.3052927937542
 10
99.06964269637689
 20
132.039572749846
 10
98.94665270641765
 20
128.8673267343149
 10
100.8807305877373
 20
127.8027915271048
 10
103.7129454545577
 20
127.8027915271048
 10
104.9352661390825
 20
127.8027915271048
 10
108.0151835347002
 20
127.8827177950895
 10
110.2045431598849
 20
130.5926316915021
 10
111.7417457794874
 20
132.4984597712065
 10
113.155269389579
 20
134.475256864725
 10
115.0562743324223
 20
140.9489400617108
 10
116.6361961642235
 20
146.3680788349845
 10
117.7282921534974
 20
149.8639917848761
 10
117.6480213757369
 20
151.8595646611754
 10
117.6480213757369
 20
151.8595646611754
 10
117.6480213757369
 20
151.8595646611754
 10
117.6480213757369
 20
151.8595646611754
 10
117.13229024137
 20
155.18150017429
 10
114.7162431837115
 20
155.886194920681
 10
113.3351034925446
 20
155.886194920681
 10
111.9829026225447
 20
155.886194920681
 10
108.3414342923792
 20
156.1251124501957
 10
106.2595617172429
 20
153.4105476718098
 97
        0
 75
     2
 76
     1
 98
        0
  0
ENDBLK
  5
6AD
330
6A2
100
AcDbEntity
  8
0
100
AcDbBlockEnd
  0
BLOCK
  5
15FA
330
15F9
100
AcDbEntity
  8
0
100
AcDbBlockBegin
  2
*D6
 70
     1
 10
0.0
 20
0.0
 30
0.0
  3
*D6
  1
*D43
  0
LINE
  5
15FC
330
15F9
100
AcDbEntity
  8
DIM
  6
Continuous
 62
     0
370
    -2
100
AcDbLine
 10
354.704139907135
 20
2033.765840299484
 30
0.0
 11
354.704139907135
 21
2333.765831238008
 31
0.0
  0
LINE
  5
15FD
330
15F9
100
AcDbEntity
  8
DIM
  6
Continuous
 62
     0
370
    -2
100
AcDbLine
 10
774.7041217841825
 20
2033.765840299484
 30
0.0
 11
774.7041217841825
 21
2333.765831238008
 31
0.0
  0
LINE
  5
15FE
330
15F9
100
AcDbEntity
  8
DIM
  6
Continuous
 62
     0
370
    -2
100
AcDbLine
 10
363.704139907135
 20
2333.765831238008
 30
0.0
 11
765.7041217841825
 21
2333.765831238008
 31
0.0
  0
INSERT
  5
15FF
330
15F9
100
AcDbEntity
  8
DIM
 62
     0
370
    -2
100
AcDbBlockReference
  2
_DOT
 10
354.704139907135
 20
2333.765831238008
 30
0.0
 41
9.0
 42
9.0
 43
9.0
 50
180.0
  0
INSERT
  5
1600
330
15F9
100
AcDbEntity
  8
DIM
 62
     0
370
    -2
100
AcDbBlockReference
  2
_DOT
 10
774.7041217841825
 20
2333.765831238008
 30
0.0
 41
9.0
 42
9.0
 43
9.0
  0
MTEXT
  5
1601
330
15F9
100
AcDbEntity
  8
DIM
  6
Continuous
 62
     0
100
AcDbMText
 10
564.7041308456587
 20
2365.765831238008
 30
0.0
 40
24.0
 41
0.0
 46
0.0
 71
     5
 72
     1
  1
\A1;Φ420
  7
ＭＳ ゴシック
 73
     1
 44
1.0
  0
POINT
  5
1602
330
15F9
100
AcDbEntity
  8
Defpoints
 62
     0
100
AcDbPoint
 10
354.704139907135
 20
2023.765840299484
 30
0.0
  0
POINT
  5
1603
330
15F9
100
AcDbEntity
  8
Defpoints
 62
     0
100
AcDbPoint
 10
774.7041217841825
 20
2023.765840299484
 30
0.0
  0
POINT
  5
1604
330
15F9
100
AcDbEntity
  8
Defpoints
 62
     0
100
AcDbPoint
 10
774.7041217841825
 20
2333.765831238008
 30
0.0
  0
ENDBLK
  5
15FB
330
15F9
100
AcDbEntity
  8
0
100
AcDbBlockEnd
  0
BLOCK
  5
1609
330
1608
100
AcDbEntity
  8
0
100
AcDbBlockBegin
  2
*D7
 70
     1
 10
0.0
 20
0.0
 30
0.0
  3
*D7
  1
*D44
  0
LINE
  5
160B
330
1608
100
AcDbEntity
  8
DIM
  6
Continuous
 62
     0
370
    -2
100
AcDbLine
 10
384.7041385390521
 20
1905.599306825393
 30
0.0
 11
384.7041385390521
 21
1713.76584936096
 31
0.0
  0
LINE
  5
160C
330
1608
100
AcDbEntity
  8
DIM
  6
Continuous
 62
     0
370
    -2
100
AcDbLine
 10
744.7041226614292
 20
1905.599306008592
 30
0.0
 11
744.7041226614292
 21
1713.76584936096
 31
0.0
  0
LINE
  5
160D
330
1608
100
AcDbEntity
  8
DIM
  6
Continuous
 62
     0
370
    -2
100
AcDbLine
 10
393.7041385390521
 20
1713.76584936096
 30
0.0
 11
735.7041226614292
 21
1713.76584936096
 31
0.0
  0
INSERT
  5
160E
330
1608
100
AcDbEntity
  8
DIM
 62
     0
370
    -2
100
AcDbBlockReference
  2
_DOT
 10
384.7041385390521
 20
1713.76584936096
 30
0.0
 41
9.0
 42
9.0
 43
9.0
 50
180.0
  0
INSERT
  5
160F
330
1608
100
AcDbEntity
  8
DIM
 62
     0
370
    -2
100
AcDbBlockReference
  2
_DOT
 10
744.7041226614292
 20
1713.76584936096
 30
0.0
 41
9.0
 42
9.0
 43
9.0
  0
MTEXT
  5
1610
330
1608
100
AcDbEntity
  8
DIM
  6
Continuous
 62
     0
100
AcDbMText
 10
564.7041306002407
 20
1745.76584936096
 30
0.0
 40
24.0
 41
0.0
 46
0.0
 71
     5
 72
     1
  1
\A1;Φ360
  7
ＭＳ ゴシック
 73
     1
 44
1.0
  0
POINT
  5
1611
330
1608
100
AcDbEntity
  8
Defpoints
 62
     0
100
AcDbPoint
 10
384.7041385390521
 20
1915.599306825393
 30
0.0
  0
POINT
  5
1612
330
1608
100
AcDbEntity
  8
Defpoints
 62
     0
100
AcDbPoint
 10
744.7041226614292
 20
1915.599306008592
 30
0.0
  0
POINT
  5
1613
330
1608
100
AcDbEntity
  8
Defpoints
 62
     0
100
AcDbPoint
 10
744.7041226614292
 20
1713.76584936096
 30
0.0
  0
ENDBLK
  5
160A
330
1608
100
AcDbEntity
  8
0
100
AcDbBlockEnd
  0
BLOCK
  5
1637
330
1636
100
AcDbEntity
  8
0
100
AcDbBlockBegin
  2
*D8
 70
     1
 10
0.0
 20
0.0
 30
0.0
  3
*D8
  1
*D46
  0
LINE
  5
1639
330
1636
100
AcDbEntity
  8
DIM
  6
Continuous
 62
     0
370
    -2
100
AcDbLine
 10
1487.602788969008
 20
1163.099149256807
 30
0.0
 11
1478.054524686331
 21
1163.099149256807
 31
0.0
  0
LINE
  5
163A
330
1636
100
AcDbEntity
  8
DIM
  6
Continuous
 62
     0
370
    -2
100
AcDbLine
 10
1487.602788969008
 20
1038.099149256807
 30
0.0
 11
1478.054524686331
 21
1038.099149256807
 31
0.0
  0
LINE
  5
163B
330
1636
100
AcDbEntity
  8
DIM
  6
Continuous
 62
     0
370
    -2
100
AcDbLine
 10
1478.054524686331
 20
1163.099149256807
 30
0.0
 11
1478.054524686331
 21
1357.131149256807
 31
0.0
  0
LINE
  5
163C
330
1636
100
AcDbEntity
  8
DIM
  6
Continuous
 62
     0
370
    -2
100
AcDbLine
 10
1478.054524686331
 20
1154.099149256807
 30
0.0
 11
1478.054524686331
 21
1047.099149256807
 31
0.0
  0
INSERT
  5
163D
330
1636
100
AcDbEntity
  8
DIM
 62
     0
370
    -2
100
AcDbBlockReference
  2
_DOT
 10
1478.054524686331
 20
1163.099149256807
 30
0.0
 41
9.0
 42
9.0
 43
9.0
 50
90.0
  0
INSERT
  5
163E
330
1636
100
AcDbEntity
  8
DIM
 62
     0
370
    -2
100
AcDbBlockReference
  2
_DOT
 10
1478.054524686331
 20
1038.099149256807
 30
0.0
 41
9.0
 42
9.0
 43
9.0
 50
270.0
  0
MTEXT
  5
163F
330
1636
100
AcDbEntity
  8
DIM
  6
Continuous
 62
     0
100
AcDbMText
 10
1443.930524686331
 20
1272.115149256807
 30
0.0
 40
24.0
 41
0.0
 46
0.0
 71
     5
 72
     1
  1
\A1;125(深さ)
  7
ＭＳ ゴシック
 11
0.0
 21
1.0
 31
0.0
 73
     1
 44
1.0
  0
POINT
  5
1640
330
1636
100
AcDbEntity
  8
Defpoints
 62
     0
100
AcDbPoint
 10
1477.602788969008
 20
1163.099149256807
 30
0.0
  0
POINT
  5
1641
330
1636
100
AcDbEntity
  8
Defpoints
 62
     0
100
AcDbPoint
 10
1477.602788969008
 20
1038.099149256807
 30
0.0
  0
POINT
  5
1650
330
1636
100
AcDbEntity
  8
Defpoints
 62
     0
100
AcDbPoint
 10
1478.054524686331
 20
1038.099149256807
 30
0.0
  0
ENDBLK
  5
1638
330
1636
100
AcDbEntity
  8
0
100
AcDbBlockEnd
  0
BLOCK
  5
1644
330
1643
100
AcDbEntity
  8
0
100
AcDbBlockBegin
  2
*D9
 70
     1
 10
0.0
 20
0.0
 30
0.0
  3
*D9
  1
*D47
  0
LINE
  5
1646
330
1643
100
AcDbEntity
  8
DIM
  6
Continuous
 62
     0
370
    -2
100
AcDbLine
 10
774.7041160375643
 20
1167.099167091052
 30
0.0
 11
774.7041160375643
 21
1263.099165492038
 31
0.0
  0
LINE
  5
1647
330
1643
100
AcDbEntity
  8
DIM
  6
Continuous
 62
     0
370
    -2
100
AcDbLine
 10
744.7041160375643
 20
1167.099167091052
 30
0.0
 11
744.7041160375643
 21
1263.099165492038
 31
0.0
  0
LINE
  5
1648
330
1643
100
AcDbEntity
  8
DIM
  6
Continuous
 62
     0
370
    -2
100
AcDbLine
 10
765.7041160375643
 20
1263.099165492038
 30
0.0
 11
753.7041160375643
 21
1263.099165492038
 31
0.0
  0
INSERT
  5
1649
330
1643
100
AcDbEntity
  8
DIM
 62
     0
370
    -2
100
AcDbBlockReference
  2
_DOT
 10
774.7041160375643
 20
1263.099165492038
 30
0.0
 41
9.0
 42
9.0
 43
9.0
  0
INSERT
  5
164A
330
1643
100
AcDbEntity
  8
DIM
 62
     0
370
    -2
100
AcDbBlockReference
  2
_DOT
 10
744.7041160375643
 20
1263.099165492038
 30
0.0
 41
9.0
 42
9.0
 43
9.0
 50
180.0
  0
MTEXT
  5
164B
330
1643
100
AcDbEntity
  8
DIM
  6
Continuous
 62
     0
100
AcDbMText
 10
759.7041160375643
 20
1295.099165492038
 30
0.0
 40
24.0
 41
0.0
 46
0.0
 71
     5
 72
     1
  1
\A1;30
  7
ＭＳ ゴシック
 73
     1
 44
1.0
  0
POINT
  5
164C
330
1643
100
AcDbEntity
  8
Defpoints
 62
     0
100
AcDbPoint
 10
774.7041160375643
 20
1157.099167091052
 30
0.0
  0
POINT
  5
164D
330
1643
100
AcDbEntity
  8
Defpoints
 62
     0
100
AcDbPoint
 10
744.7041160375643
 20
1157.099167091052
 30
0.0
  0
POINT
  5
1756
330
1643
100
AcDbEntity
  8
Defpoints
 62
     0
100
AcDbPoint
 10
744.7041160375643
 20
1263.099165492038
 30
0.0
  0
ENDBLK
  5
1645
330
1643
100
AcDbEntity
  8
0
100
AcDbBlockEnd
  0
BLOCK
  5
1657
330
1656
100
AcDbEntity
  8
0
100
AcDbBlockBegin
  2
*D10
 70
     1
 10
0.0
 20
0.0
 30
0.0
  3
*D10
  1
*D48
  0
LINE
  5
1659
330
1656
100
AcDbEntity
  8
DIM
  6
Continuous
 62
     0
370
    -2
100
AcDbLine
 10
778.7187451393556
 20
1163.099149256807
 30
0.0
 11
874.7041160375643
 21
1163.099149256807
 31
0.0
  0
LINE
  5
165A
330
1656
100
AcDbEntity
  8
DIM
  6
Continuous
 62
     0
370
    -2
100
AcDbLine
 10
605.9551373624322
 20
988.2700226499519
 30
0.0
 11
874.7041160375643
 21
988.2700226499519
 31
0.0
  0
LINE
  5
165B
330
1656
100
AcDbEntity
  8
DIM
  6
Continuous
 62
     0
370
    -2
100
AcDbLine
 10
874.7041160375643
 20
1154.099149256807
 30
0.0
 11
874.7041160375643
 21
997.2700226499519
 31
0.0
  0
INSERT
  5
165C
330
1656
100
AcDbEntity
  8
DIM
 62
     0
370
    -2
100
AcDbBlockReference
  2
_DOT
 10
874.7041160375643
 20
1163.099149256807
 30
0.0
 41
9.0
 42
9.0
 43
9.0
 50
90.0
  0
INSERT
  5
165D
330
1656
100
AcDbEntity
  8
DIM
 62
     0
370
    -2
100
AcDbBlockReference
  2
_DOT
 10
874.7041160375643
 20
988.2700226499519
 30
0.0
 41
9.0
 42
9.0
 43
9.0
 50
270.0
  0
MTEXT
  5
165E
330
1656
100
AcDbEntity
  8
DIM
  6
Continuous
 62
     0
100
AcDbMText
 10
842.7041160375643
 20
1075.68458595338
 30
0.0
 40
24.0
 41
0.0
 46
0.0
 71
     5
 72
     1
  1
\A1;175
  7
ＭＳ ゴシック
 11
0.0
 21
1.0
 31
0.0
 73
     1
 44
1.0
  0
POINT
  5
165F
330
1656
100
AcDbEntity
  8
Defpoints
 62
     0
100
AcDbPoint
 10
768.7187451393556
 20
1163.099149256807
 30
0.0
  0
POINT
  5
1660
330
1656
100
AcDbEntity
  8
Defpoints
 62
     0
100
AcDbPoint
 10
595.9551373624322
 20
988.2700226499519
 30
0.0
  0
POINT
  5
1661
330
1656
100
AcDbEntity
  8
Defpoints
 62
     0
100
AcDbPoint
 10
874.7041160375643
 20
988.2700226499519
 30
0.0
  0
ENDBLK
  5
1658
330
1656
100
AcDbEntity
  8
0
100
AcDbBlockEnd
  0
BLOCK
  5
1666
330
1665
100
AcDbEntity
  8
0
100
AcDbBlockBegin
  2
*D11
 70
     1
 10
0.0
 20
0.0
 30
0.0
  3
*D11
  1
*D49
  0
LINE
  5
1668
330
1665
100
AcDbEntity
  8
DIM
  6
Continuous
 62
     0
370
    -2
100
AcDbLine
 10
1262.176312539927
 20
1163.099165845623
 30
0.0
 11
1166.430153081356
 21
1163.099165845623
 31
0.0
  0
LINE
  5
1669
330
1665
100
AcDbEntity
  8
DIM
  6
Continuous
 62
     0
370
    -2
100
AcDbLine
 10
1321.467607683287
 20
1013.099156717185
 30
0.0
 11
1166.430153081356
 21
1013.099156717185
 31
0.0
  0
LINE
  5
166A
330
1665
100
AcDbEntity
  8
DIM
  6
Continuous
 62
     0
370
    -2
100
AcDbLine
 10
1166.430153081356
 20
1154.099165845623
 30
0.0
 11
1166.430153081356
 21
1022.099156717185
 31
0.0
  0
INSERT
  5
166B
330
1665
100
AcDbEntity
  8
DIM
 62
     0
370
    -2
100
AcDbBlockReference
  2
_DOT
 10
1166.430153081356
 20
1163.099165845623
 30
0.0
 41
9.0
 42
9.0
 43
9.0
 50
90.0
  0
INSERT
  5
166C
330
1665
100
AcDbEntity
  8
DIM
 62
     0
370
    -2
100
AcDbBlockReference
  2
_DOT
 10
1166.430153081356
 20
1013.099156717185
 30
0.0
 41
9.0
 42
9.0
 43
9.0
 50
270.0
  0
MTEXT
  5
166D
330
1665
100
AcDbEntity
  8
DIM
  6
Continuous
 62
     0
100
AcDbMText
 10
1134.430153081356
 20
1088.099161281404
 30
0.0
 40
24.0
 41
0.0
 46
0.0
 71
     5
 72
     1
  1
\A1;150
  7
ＭＳ ゴシック
 11
0.0
 21
1.0
 31
0.0
 73
     1
 44
1.0
  0
POINT
  5
166E
330
1665
100
AcDbEntity
  8
Defpoints
 62
     0
100
AcDbPoint
 10
1272.176312539927
 20
1163.099165845623
 30
0.0
  0
POINT
  5
166F
330
1665
100
AcDbEntity
  8
Defpoints
 62
     0
100
AcDbPoint
 10
1331.467607683287
 20
1013.099156717185
 30
0.0
  0
POINT
  5
1670
330
1665
100
AcDbEntity
  8
Defpoints
 62
     0
100
AcDbPoint
 10
1166.430153081356
 20
1013.099156717185
 30
0.0
  0
ENDBLK
  5
1667
330
1665
100
AcDbEntity
  8
0
100
AcDbBlockEnd
  0
BLOCK
  5
1675
330
1674
100
AcDbEntity
  8
0
100
AcDbBlockBegin
  2
*D12
 70
     1
 10
0.0
 20
0.0
 30
0.0
  3
*D12
  1
*D50
  0
LINE
  5
1677
330
1674
100
AcDbEntity
  8
DIM
  6
Continuous
 62
     0
370
    -2
100
AcDbLine
 10
413.7877719159369
 20
1003.971341243568
 30
0.0
 11
413.7877719159369
 21
913.0991505956263
 31
0.0
  0
LINE
  5
1678
330
1674
100
AcDbEntity
  8
DIM
  6
Continuous
 62
     0
370
    -2
100
AcDbLine
 10
713.4227967414699
 20
1003.908889810284
 30
0.0
 11
713.4227967414699
 21
913.0991505956263
 31
0.0
  0
LINE
  5
1679
330
1674
100
AcDbEntity
  8
DIM
  6
Continuous
 62
     0
370
    -2
100
AcDbLine
 10
422.7877719159369
 20
913.0991505956263
 30
0.0
 11
704.4227967414699
 21
913.0991505956263
 31
0.0
  0
INSERT
  5
167A
330
1674
100
AcDbEntity
  8
DIM
 62
     0
370
    -2
100
AcDbBlockReference
  2
_DOT
 10
413.7877719159369
 20
913.0991505956263
 30
0.0
 41
9.0
 42
9.0
 43
9.0
 50
180.0
  0
INSERT
  5
167B
330
1674
100
AcDbEntity
  8
DIM
 62
     0
370
    -2
100
AcDbBlockReference
  2
_DOT
 10
713.4227967414699
 20
913.0991505956263
 30
0.0
 41
9.0
 42
9.0
 43
9.0
  0
MTEXT
  5
167C
330
1674
100
AcDbEntity
  8
DIM
  6
Continuous
 62
     0
100
AcDbMText
 10
563.6052843287034
 20
945.0991505956263
 30
0.0
 40
24.0
 41
0.0
 46
0.0
 71
     5
 72
     1
  1
\A1;300
  7
ＭＳ ゴシック
 73
     1
 44
1.0
  0
POINT
  5
167D
330
1674
100
AcDbEntity
  8
Defpoints
 62
     0
100
AcDbPoint
 10
413.7877719159369
 20
1013.971341243568
 30
0.0
  0
POINT
  5
167E
330
1674
100
AcDbEntity
  8
Defpoints
 62
     0
100
AcDbPoint
 10
713.4227967414699
 20
1013.908889810284
 30
0.0
  0
POINT
  5
167F
330
1674
100
AcDbEntity
  8
Defpoints
 62
     0
100
AcDbPoint
 10
713.4227967414699
 20
913.0991505956263
 30
0.0
  0
ENDBLK
  5
1676
330
1674
100
AcDbEntity
  8
0
100
AcDbBlockEnd
  0
BLOCK
  5
1696
330
1695
100
AcDbEntity
  8
0
100
AcDbBlockBegin
  2
*D13
 70
     1
 10
0.0
 20
0.0
 30
0.0
  3
*D13
  1
*D52
  0
LINE
  5
1698
330
1695
100
AcDbEntity
  8
DIM
  6
Continuous
 62
     0
370
    -2
100
AcDbLine
 10
1476.176303216167
 20
2293.910346952812
 30
0.0
 11
1200.192956526426
 21
2293.910346952812
 31
0.0
  0
LINE
  5
1699
330
1695
100
AcDbEntity
  8
DIM
  6
Continuous
 62
     0
370
    -2
100
AcDbLine
 10
1476.176303216167
 20
2188.910346952812
 30
0.0
 11
1200.192956526426
 21
2188.910346952812
 31
0.0
  0
LINE
  5
169A
330
1695
100
AcDbEntity
  8
DIM
  6
Continuous
 62
     0
370
    -2
100
AcDbLine
 10
1200.192956526426
 20
2281.910346952812
 30
0.0
 11
1200.192956526426
 21
2200.910346952812
 31
0.0
  0
INSERT
  5
169B
330
1695
100
AcDbEntity
  8
DIM
 62
     0
370
    -2
100
AcDbBlockReference
  2
_DOT
 10
1200.192956526426
 20
2293.910346952812
 30
0.0
 41
12.0
 42
12.0
 43
12.0
 50
90.0
  0
INSERT
  5
169C
330
1695
100
AcDbEntity
  8
DIM
 62
     0
370
    -2
100
AcDbBlockReference
  2
_DOT
 10
1200.192956526426
 20
2188.910346952812
 30
0.0
 41
12.0
 42
12.0
 43
12.0
 50
270.0
  0
MTEXT
  5
169D
330
1695
100
AcDbEntity
  8
DIM
  6
Continuous
 62
     0
100
AcDbMText
 10
1168.192956526426
 20
2241.410346952812
 30
0.0
 40
24.0
 41
0.0
 46
0.0
 71
     5
 72
     1
  1
\A1;105
  7
ＭＳ ゴシック
 11
0.0
 21
1.0
 31
0.0
 73
     1
 44
1.0
  0
POINT
  5
169E
330
1695
100
AcDbEntity
  8
Defpoints
 62
     0
100
AcDbPoint
 10
1486.176303216167
 20
2293.910346952812
 30
0.0
  0
POINT
  5
169F
330
1695
100
AcDbEntity
  8
Defpoints
 62
     0
100
AcDbPoint
 10
1486.176303216167
 20
2188.910346952812
 30
0.0
  0
POINT
  5
16A0
330
1695
100
AcDbEntity
  8
Defpoints
 62
     0
100
AcDbPoint
 10
1200.192956526426
 20
2188.910346952812
 30
0.0
  0
ENDBLK
  5
1697
330
1695
100
AcDbEntity
  8
0
100
AcDbBlockEnd
  0
BLOCK
  5
16A3
330
16A2
100
AcDbEntity
  8
0
100
AcDbBlockBegin
  2
*D14
 70
     1
 10
0.0
 20
0.0
 30
0.0
  3
*D14
  1
*D53
  0
LINE
  5
16A5
330
16A2
100
AcDbEntity
  8
DIM
  6
Continuous
 62
     0
370
    -2
100
AcDbLine
 10
1476.176303216167
 20
2188.910346952812
 30
0.0
 11
1200.192956526426
 21
2188.910346952812
 31
0.0
  0
LINE
  5
16A6
330
16A2
100
AcDbEntity
  8
DIM
  6
Continuous
 62
     0
370
    -2
100
AcDbLine
 10
1476.176303216167
 20
2083.910346952812
 30
0.0
 11
1200.192956526426
 21
2083.910346952812
 31
0.0
  0
LINE
  5
16A7
330
16A2
100
AcDbEntity
  8
DIM
  6
Continuous
 62
     0
370
    -2
100
AcDbLine
 10
1200.192956526426
 20
2176.910346952812
 30
0.0
 11
1200.192956526426
 21
2095.910346952812
 31
0.0
  0
INSERT
  5
16A8
330
16A2
100
AcDbEntity
  8
DIM
 62
     0
370
    -2
100
AcDbBlockReference
  2
_DOT
 10
1200.192956526426
 20
2188.910346952812
 30
0.0
 41
12.0
 42
12.0
 43
12.0
 50
90.0
  0
INSERT
  5
16A9
330
16A2
100
AcDbEntity
  8
DIM
 62
     0
370
    -2
100
AcDbBlockReference
  2
_DOT
 10
1200.192956526426
 20
2083.910346952812
 30
0.0
 41
12.0
 42
12.0
 43
12.0
 50
270.0
  0
MTEXT
  5
16AA
330
16A2
100
AcDbEntity
  8
DIM
  6
Continuous
 62
     0
100
AcDbMText
 10
1168.192956526426
 20
2136.410346952812
 30
0.0
 40
24.0
 41
0.0
 46
0.0
 71
     5
 72
     1
  1
\A1;105
  7
ＭＳ ゴシック
 11
0.0
 21
1.0
 31
0.0
 73
     1
 44
1.0
  0
POINT
  5
16AB
330
16A2
100
AcDbEntity
  8
Defpoints
 62
     0
100
AcDbPoint
 10
1486.176303216167
 20
2188.910346952812
 30
0.0
  0
POINT
  5
16AC
330
16A2
100
AcDbEntity
  8
Defpoints
 62
     0
100
AcDbPoint
 10
1486.176303216167
 20
2083.910346952812
 30
0.0
  0
POINT
  5
16AD
330
16A2
100
AcDbEntity
  8
Defpoints
 62
     0
100
AcDbPoint
 10
1200.192956526426
 20
2083.910346952812
 30
0.0
  0
ENDBLK
  5
16A4
330
16A2
100
AcDbEntity
  8
0
100
AcDbBlockEnd
  0
BLOCK
  5
16B2
330
16B1
100
AcDbEntity
  8
0
100
AcDbBlockBegin
  2
*D15
 70
     1
 10
0.0
 20
0.0
 30
0.0
  3
*D15
  1
*D54
  0
LINE
  5
16B4
330
16B1
100
AcDbEntity
  8
DIM
  6
Continuous
 62
     0
370
    -2
100
AcDbLine
 10
1568.298430119221
 20
2141.79089195552
 30
0.0
 11
1767.520048247229
 21
2211.468260556993
 31
0.0
  0
MTEXT
  5
16B5
330
16B1
100
AcDbEntity
  8
DIM
  6
Continuous
 62
     0
100
AcDbMText
 10
1709.57212054803
 20
2225.228944092649
 30
0.0
 40
24.0
 41
0.0
 46
0.0
 71
     5
 72
     1
  1
\A1;%%c150
  7
ＭＳ ゴシック
 11
0.9439324926922127
 21
0.3301385303775762
 31
0.0
 73
     1
 44
1.0
  0
INSERT
  5
16B6
330
16B1
100
AcDbEntity
  8
DIM
 62
     0
370
    -2
100
AcDbBlockReference
  2
_DOT
 10
1556.971240206914
 20
2137.829229590989
 30
0.0
 41
12.0
 42
12.0
 43
12.0
 50
199.2771839342136
  0
POINT
  5
16B7
330
16B1
100
AcDbEntity
  8
Defpoints
 62
     0
100
AcDbPoint
 10
1556.971240206914
 20
2137.829229590989
 30
0.0
  0
POINT
  5
16B8
330
16B1
100
AcDbEntity
  8
Defpoints
 62
     0
100
AcDbPoint
 10
1415.381366303083
 20
2088.308450034353
 30
0.0
  0
ENDBLK
  5
16B3
330
16B1
100
AcDbEntity
  8
0
100
AcDbBlockEnd
  0
BLOCK
  5
16F3
330
16F2
100
AcDbEntity
  8
0
100
AcDbBlockBegin
  2
*D16
 70
     1
 10
0.0
 20
0.0
 30
0.0
  3
*D16
  1
*D56
  0
LINE
  5
16F5
330
16F2
100
AcDbEntity
  8
MODEL
  6
Continuous
 62
     0
370
    -2
100
AcDbLine
 10
1686.119317346627
 20
1147.099148013866
 30
0.0
 11
1686.119317346627
 21
914.0803490782747
 31
0.0
  0
LINE
  5
16F6
330
16F2
100
AcDbEntity
  8
MODEL
  6
Continuous
 62
     0
370
    -2
100
AcDbLine
 10
1476.340808781534
 20
978.2512260734912
 30
0.0
 11
1476.340808781534
 21
914.0803490782747
 31
0.0
  0
LINE
  5
16F7
330
16F2
100
AcDbEntity
  8
MODEL
  6
Continuous
 62
     0
370
    -2
100
AcDbLine
 10
1677.119317346627
 20
914.0803490782747
 30
0.0
 11
1485.340808781534
 21
914.0803490782747
 31
0.0
  0
INSERT
  5
16F8
330
16F2
100
AcDbEntity
  8
MODEL
 62
     0
370
    -2
100
AcDbBlockReference
  2
_DOT
 10
1686.119317346627
 20
914.0803490782747
 30
0.0
 41
9.0
 42
9.0
 43
9.0
  0
INSERT
  5
16F9
330
16F2
100
AcDbEntity
  8
MODEL
 62
     0
370
    -2
100
AcDbBlockReference
  2
_DOT
 10
1476.340808781534
 20
914.0803490782747
 30
0.0
 41
9.0
 42
9.0
 43
9.0
 50
180.0
  0
MTEXT
  5
16FA
330
16F2
100
AcDbEntity
  8
MODEL
  6
Continuous
 62
     0
100
AcDbMText
 10
1581.23006306408
 20
946.0803490782747
 30
0.0
 40
24.0
 41
0.0
 46
0.0
 71
     5
 72
     1
  1
\A1;210
  7
ＭＳ ゴシック
 73
     1
 44
1.0
  0
POINT
  5
16FB
330
16F2
100
AcDbEntity
  8
Defpoints
 62
     0
100
AcDbPoint
 10
1686.119317346627
 20
1157.099148013866
 30
0.0
  0
POINT
  5
16FC
330
16F2
100
AcDbEntity
  8
Defpoints
 62
     0
100
AcDbPoint
 10
1476.340808781534
 20
988.2512260734912
 30
0.0
  0
POINT
  5
16FD
330
16F2
100
AcDbEntity
  8
Defpoints
 62
     0
100
AcDbPoint
 10
1476.340808781534
 20
914.0803490782747
 30
0.0
  0
ENDBLK
  5
16F4
330
16F2
100
AcDbEntity
  8
0
100
AcDbBlockEnd
  0
BLOCK
  5
170D
330
170C
100
AcDbEntity
  8
0
100
AcDbBlockBegin
  2
*D17
 70
     1
 10
0.0
 20
0.0
 30
0.0
  3
*D17
  1
*D17
  0
LINE
  5
170F
330
170C
100
AcDbEntity
  8
DIM
  6
Continuous
 62
     0
370
    -2
100
AcDbLine
 10
1416.176302970749
 20
2023.765831314708
 30
0.0
 11
1359.558336612289
 21
2023.765831314708
 31
0.0
  0
LINE
  5
1710
330
170C
100
AcDbEntity
  8
DIM
  6
Continuous
 62
     0
370
    -2
100
AcDbLine
 10
1416.176302970749
 20
1973.765831314708
 30
0.0
 11
1359.558336612289
 21
1973.765831314708
 31
0.0
  0
LINE
  5
1711
330
170C
100
AcDbEntity
  8
DIM
  6
Continuous
 62
     0
370
    -2
100
AcDbLine
 10
1359.558336612289
 20
2014.765831314708
 30
0.0
 11
1359.558336612289
 21
1982.765831314708
 31
0.0
  0
INSERT
  5
1712
330
170C
100
AcDbEntity
  8
DIM
 62
     0
370
    -2
100
AcDbBlockReference
  2
_DOT
 10
1359.558336612289
 20
2023.765831314708
 30
0.0
 41
9.0
 42
9.0
 43
9.0
 50
90.0
  0
INSERT
  5
1713
330
170C
100
AcDbEntity
  8
DIM
 62
     0
370
    -2
100
AcDbBlockReference
  2
_DOT
 10
1359.558336612289
 20
1973.765831314708
 30
0.0
 41
9.0
 42
9.0
 43
9.0
 50
270.0
  0
MTEXT
  5
1714
330
170C
100
AcDbEntity
  8
DIM
  6
Continuous
 62
     0
100
AcDbMText
 10
1327.558336612289
 20
1998.765831314708
 30
0.0
 40
24.0
 41
0.0
 46
0.0
 71
     5
 72
     1
  1
\A1;50
  7
ＭＳ ゴシック
 11
0.0
 21
1.0
 31
0.0
 73
     1
 44
1.0
  0
POINT
  5
1715
330
170C
100
AcDbEntity
  8
Defpoints
 62
     0
100
AcDbPoint
 10
1426.176302970749
 20
2023.765831314708
 30
0.0
  0
POINT
  5
1716
330
170C
100
AcDbEntity
  8
Defpoints
 62
     0
100
AcDbPoint
 10
1426.176302970749
 20
1973.765831314708
 30
0.0
  0
POINT
  5
1728
330
170C
100
AcDbEntity
  8
Defpoints
 62
     0
100
AcDbPoint
 10
1359.558336612289
 20
1973.765831314708
 30
0.0
  0
ENDBLK
  5
170E
330
170C
100
AcDbEntity
  8
0
100
AcDbBlockEnd
  0
BLOCK
  5
171D
330
171C
100
AcDbEntity
  8
0
100
AcDbBlockBegin
  2
*D18
 70
     1
 10
0.0
 20
0.0
 30
0.0
  3
*D18
  1
*D18
  0
LINE
  5
171F
330
171C
100
AcDbEntity
  8
DIM
  6
Continuous
 62
     0
370
    -2
100
AcDbLine
 10
1416.176302970749
 20
2023.765831314708
 30
0.0
 11
1359.558336612289
 21
2023.765831314708
 31
0.0
  0
LINE
  5
1720
330
171C
100
AcDbEntity
  8
DIM
  6
Continuous
 62
     0
370
    -2
100
AcDbLine
 10
1416.176302970749
 20
2133.765831314708
 30
0.0
 11
1359.558336612289
 21
2133.765831314708
 31
0.0
  0
LINE
  5
1721
330
171C
100
AcDbEntity
  8
DIM
  6
Continuous
 62
     0
370
    -2
100
AcDbLine
 10
1359.558336612289
 20
2032.765831314708
 30
0.0
 11
1359.558336612289
 21
2124.765831314708
 31
0.0
  0
INSERT
  5
1722
330
171C
100
AcDbEntity
  8
DIM
 62
     0
370
    -2
100
AcDbBlockReference
  2
_DOT
 10
1359.558336612289
 20
2023.765831314708
 30
0.0
 41
9.0
 42
9.0
 43
9.0
 50
270.0
  0
INSERT
  5
1723
330
171C
100
AcDbEntity
  8
DIM
 62
     0
370
    -2
100
AcDbBlockReference
  2
_DOT
 10
1359.558336612289
 20
2133.765831314708
 30
0.0
 41
9.0
 42
9.0
 43
9.0
 50
90.0
  0
MTEXT
  5
1724
330
171C
100
AcDbEntity
  8
DIM
  6
Continuous
 62
     0
100
AcDbMText
 10
1327.558336612289
 20
2078.765831314708
 30
0.0
 40
24.0
 41
0.0
 46
0.0
 71
     5
 72
     1
  1
\A1;110
  7
ＭＳ ゴシック
 11
0.0
 21
1.0
 31
0.0
 73
     1
 44
1.0
  0
POINT
  5
1725
330
171C
100
AcDbEntity
  8
Defpoints
 62
     0
100
AcDbPoint
 10
1426.176302970749
 20
2023.765831314708
 30
0.0
  0
POINT
  5
1726
330
171C
100
AcDbEntity
  8
Defpoints
 62
     0
100
AcDbPoint
 10
1426.176302970749
 20
2133.765831314708
 30
0.0
  0
POINT
  5
1727
330
171C
100
AcDbEntity
  8
Defpoints
 62
     0
100
AcDbPoint
 10
1359.558336612289
 20
2133.765831314708
 30
0.0
  0
ENDBLK
  5
171E
330
171C
100
AcDbEntity
  8
0
100
AcDbBlockEnd
  0
BLOCK
  5
172D
330
172C
100
AcDbEntity
  8
0
100
AcDbBlockBegin
  2
*D19
 70
     1
 10
0.0
 20
0.0
 30
0.0
  3
*D19
  1
*D19
  0
LINE
  5
172F
330
172C
100
AcDbEntity
  8
DIM
  6
Continuous
 62
     0
370
    -2
100
AcDbLine
 10
1426.176302970749
 20
1963.765831314708
 30
0.0
 11
1426.176302970749
 21
1907.693180604883
 31
0.0
  0
LINE
  5
1730
330
172C
100
AcDbEntity
  8
DIM
  6
Continuous
 62
     0
370
    -2
100
AcDbLine
 10
1526.176302970749
 20
1963.765831314708
 30
0.0
 11
1526.176302970749
 21
1907.693180604883
 31
0.0
  0
LINE
  5
1731
330
172C
100
AcDbEntity
  8
DIM
  6
Continuous
 62
     0
370
    -2
100
AcDbLine
 10
1435.176302970749
 20
1907.693180604883
 30
0.0
 11
1517.176302970749
 21
1907.693180604883
 31
0.0
  0
INSERT
  5
1732
330
172C
100
AcDbEntity
  8
DIM
 62
     0
370
    -2
100
AcDbBlockReference
  2
_DOT
 10
1426.176302970749
 20
1907.693180604883
 30
0.0
 41
9.0
 42
9.0
 43
9.0
 50
180.0
  0
INSERT
  5
1733
330
172C
100
AcDbEntity
  8
DIM
 62
     0
370
    -2
100
AcDbBlockReference
  2
_DOT
 10
1526.176302970749
 20
1907.693180604883
 30
0.0
 41
9.0
 42
9.0
 43
9.0
  0
MTEXT
  5
1734
330
172C
100
AcDbEntity
  8
DIM
  6
Continuous
 62
     0
100
AcDbMText
 10
1476.176302970749
 20
1939.693180604883
 30
0.0
 40
24.0
 41
0.0
 46
0.0
 71
     5
 72
     1
  1
\A1;100
  7
ＭＳ ゴシック
 73
     1
 44
1.0
  0
POINT
  5
1735
330
172C
100
AcDbEntity
  8
Defpoints
 62
     0
100
AcDbPoint
 10
1426.176302970749
 20
1973.765831314708
 30
0.0
  0
POINT
  5
1736
330
172C
100
AcDbEntity
  8
Defpoints
 62
     0
100
AcDbPoint
 10
1526.176302970749
 20
1973.765831314708
 30
0.0
  0
POINT
  5
1737
330
172C
100
AcDbEntity
  8
Defpoints
 62
     0
100
AcDbPoint
 10
1526.176302970749
 20
1907.693180604883
 30
0.0
  0
ENDBLK
  5
172E
330
172C
100
AcDbEntity
  8
0
100
AcDbBlockEnd
  0
BLOCK
  5
173C
330
173B
100
AcDbEntity
  8
0
100
AcDbBlockBegin
  2
*D20
 70
     1
 10
0.0
 20
0.0
 30
0.0
  3
*D20
  1
*D20
  0
LINE
  5
173E
330
173B
100
AcDbEntity
  8
DIM
  6
Continuous
 62
     0
370
    -2
100
AcDbLine
 10
1536.176302970749
 20
1973.765831314708
 30
0.0
 11
1595.157082761809
 21
1973.765831314708
 31
0.0
  0
LINE
  5
173F
330
173B
100
AcDbEntity
  8
DIM
  6
Continuous
 62
     0
370
    -2
100
AcDbLine
 10
1536.176302970749
 20
2133.765831314708
 30
0.0
 11
1595.157082761809
 21
2133.765831314708
 31
0.0
  0
LINE
  5
1740
330
173B
100
AcDbEntity
  8
DIM
  6
Continuous
 62
     0
370
    -2
100
AcDbLine
 10
1595.157082761809
 20
1982.765831314708
 30
0.0
 11
1595.157082761809
 21
2124.765831314708
 31
0.0
  0
INSERT
  5
1741
330
173B
100
AcDbEntity
  8
DIM
 62
     0
370
    -2
100
AcDbBlockReference
  2
_DOT
 10
1595.157082761809
 20
1973.765831314708
 30
0.0
 41
9.0
 42
9.0
 43
9.0
 50
270.0
  0
INSERT
  5
1742
330
173B
100
AcDbEntity
  8
DIM
 62
     0
370
    -2
100
AcDbBlockReference
  2
_DOT
 10
1595.157082761809
 20
2133.765831314708
 30
0.0
 41
9.0
 42
9.0
 43
9.0
 50
90.0
  0
MTEXT
  5
1743
330
173B
100
AcDbEntity
  8
DIM
  6
Continuous
 62
     0
100
AcDbMText
 10
1563.157082761809
 20
2053.765831314708
 30
0.0
 40
24.0
 41
0.0
 46
0.0
 71
     5
 72
     1
  1
\A1;160
  7
ＭＳ ゴシック
 11
0.0
 21
1.0
 31
0.0
 73
     1
 44
1.0
  0
POINT
  5
1744
330
173B
100
AcDbEntity
  8
Defpoints
 62
     0
100
AcDbPoint
 10
1526.176302970749
 20
1973.765831314708
 30
0.0
  0
POINT
  5
1745
330
173B
100
AcDbEntity
  8
Defpoints
 62
     0
100
AcDbPoint
 10
1526.176302970749
 20
2133.765831314708
 30
0.0
  0
POINT
  5
1746
330
173B
100
AcDbEntity
  8
Defpoints
 62
     0
100
AcDbPoint
 10
1595.157082761809
 20
2133.765831314708
 30
0.0
  0
ENDBLK
  5
173D
330
173B
100
AcDbEntity
  8
0
100
AcDbBlockEnd
  0
BLOCK
  5
174B
330
174A
100
AcDbEntity
  8
0
100
AcDbBlockBegin
  2
*D21
 70
     1
 10
0.0
 20
0.0
 30
0.0
  3
*D21
  1
*D21
  0
LINE
  5
174D
330
174A
100
AcDbEntity
  8
DIM
  6
Continuous
 62
     0
370
    -2
100
AcDbLine
 10
1416.176302970749
 20
2023.765831314708
 30
0.0
 11
1248.195269817345
 21
2023.765831314708
 31
0.0
  0
LINE
  5
174E
330
174A
100
AcDbEntity
  8
DIM
  6
Continuous
 62
     0
370
    -2
100
AcDbLine
 10
1466.176303216167
 20
2233.765831314708
 30
0.0
 11
1248.195269817345
 21
2233.765831314708
 31
0.0
  0
LINE
  5
174F
330
174A
100
AcDbEntity
  8
DIM
  6
Continuous
 62
     0
370
    -2
100
AcDbLine
 10
1248.195269817345
 20
2032.765831314708
 30
0.0
 11
1248.195269817345
 21
2224.765831314708
 31
0.0
  0
INSERT
  5
1750
330
174A
100
AcDbEntity
  8
DIM
 62
     0
370
    -2
100
AcDbBlockReference
  2
_DOT
 10
1248.195269817345
 20
2023.765831314708
 30
0.0
 41
9.0
 42
9.0
 43
9.0
 50
270.0
  0
INSERT
  5
1751
330
174A
100
AcDbEntity
  8
DIM
 62
     0
370
    -2
100
AcDbBlockReference
  2
_DOT
 10
1248.195269817345
 20
2233.765831314708
 30
0.0
 41
9.0
 42
9.0
 43
9.0
 50
90.0
  0
MTEXT
  5
1752
330
174A
100
AcDbEntity
  8
DIM
  6
Continuous
 62
     0
100
AcDbMText
 10
1216.195269817345
 20
2128.765831314708
 30
0.0
 40
24.0
 41
0.0
 46
0.0
 71
     5
 72
     1
  1
\A1;210
  7
ＭＳ ゴシック
 11
0.0
 21
1.0
 31
0.0
 73
     1
 44
1.0
  0
POINT
  5
1753
330
174A
100
AcDbEntity
  8
Defpoints
 62
     0
100
AcDbPoint
 10
1426.176302970749
 20
2023.765831314708
 30
0.0
  0
POINT
  5
1754
330
174A
100
AcDbEntity
  8
Defpoints
 62
     0
100
AcDbPoint
 10
1476.176303216167
 20
2233.765831314708
 30
0.0
  0
POINT
  5
1755
330
174A
100
AcDbEntity
  8
Defpoints
 62
     0
100
AcDbPoint
 10
1248.195269817345
 20
2233.765831314708
 30
0.0
  0
ENDBLK
  5
174C
330
174A
100
AcDbEntity
  8
0
100
AcDbBlockEnd
  0
ENDSEC
  0
SECTION
  2
ENTITIES
  0
MTEXT
  5
177
330
A
100
AcDbEntity
  8
TEMPLATE
390
1D
100
AcDbMText
 10
79.20214454773075
 20
343.7317516314282
 30
0.0
 40
16.28841145833333
 41
0.0
 46
0.0
 71
     1
 72
     1
  1
品名
  7
ＭＳ ゴシック
 73
     1
 44
0.7828267384257843
  0
MTEXT
  5
178
330
A
100
AcDbEntity
  8
TEMPLATE
390
1D
100
AcDbMText
 10
79.20214454773075
 20
258.731751631428
 30
0.0
 40
16.28841145833333
 41
0.0
 46
0.0
 71
     1
 72
     1
  1
仕様
  7
ＭＳ ゴシック
 73
     1
 44
0.7828267384257843
  0
LINE
  5
179
330
A
100
AcDbEntity
  8
TEMPLATE
390
1D
100
AcDbLine
 10
2022.202144547248
 20
267.1466735064284
 30
0.0
 11
72.20214454724874
 21
267.1466735064284
 31
0.0
  0
LWPOLYLINE
  5
17A
330
A
100
AcDbEntity
  8
TEMPLATE
390
1D
100
AcDbPolyline
 90
        5
 70
   128
 43
0.0
 10
2022.202144547248
 20
2897.146673506426
 10
72.20214454724874
 20
2897.146673506426
 10
72.20214454724874
 20
97.14667350642826
 10
2022.202144547248
 20
97.14667350642826
 10
2022.202144547248
 20
2897.146673506426
  0
LINE
  5
17B
330
A
100
AcDbEntity
  8
TEMPLATE
390
1D
100
AcDbLine
 10
2022.202144547248
 20
352.1466735064282
 30
0.0
 11
72.20214454724874
 21
352.1466735064282
 31
0.0
  0
LINE
  5
17C
330
A
100
AcDbEntity
  8
TEMPLATE
390
1D
100
AcDbLine
 10
2022.202144547732
 20
182.1466735064282
 30
0.0
 11
1269.20214454773
 21
182.1466735064282
 31
0.0
  0
MTEXT
  5
17D
330
A
100
AcDbEntity
  8
TEMPLATE
390
1D
100
AcDbMText
 10
72.2021445479345
 20
85.29285144957115
 30
0.0
 40
21.71788194444444
 41
0.0
 46
21.71788194444444
 71
     1
 72
     1
  1
{150518SO}
  7
ＭＳ ゴシック
 73
     1
 44
0.7828267384257843
1001
ACAD
1000
ACAD_MTEXT_DEFINED_HEIGHT_BEGIN
1070
    46
1040
21.71788194444444
1000
ACAD_MTEXT_DEFINED_HEIGHT_END
  0
MTEXT
  5
17E
330
A
100
AcDbEntity
  8
TEMPLATE
390
1D
100
AcDbMText
 10
1299.073550799991
 20
152.2362790331201
 30
0.0
 40
24.4326171875
 41
0.0
 46
0.0
 71
     1
 72
     1
  1
大洋金物株式会社 ティーフォルム事業部
  7
ＭＳ ゴシック
 73
     1
 44
0.7828267384257843
  0
MTEXT
  5
180
330
A
100
AcDbEntity
  8
TEMPLATE
390
1D
100
AcDbMText
 10
1831.20214454799
 20
230.1492906939282
 30
0.0
 40
24.4326171875
 41
0.0
 46
24.4326171875
 71
     1
 72
     1
  1
{1:10}
  7
ＭＳ ゴシック
 73
     1
 44
0.7828267384257843
1001
ACAD
1000
ACAD_MTEXT_DEFINED_HEIGHT_BEGIN
1070
    46
1040
24.4326171875
1000
ACAD_MTEXT_DEFINED_HEIGHT_END
  0
MTEXT
  5
181
330
A
100
AcDbEntity
  8
TEMPLATE
390
1D
100
AcDbMText
 10
1778.20214454799
 20
258.731751631428
 30
0.0
 40
16.28841145833333
 41
0.0
 46
0.0
 71
     1
 72
     1
  1
縮尺
  7
ＭＳ ゴシック
 73
     1
 44
0.7828267384257843
  0
LINE
  5
182
330
A
100
AcDbEntity
  8
TEMPLATE
390
1D
100
AcDbLine
 10
1771.20214454799
 20
182.1466735064282
 30
0.0
 11
1771.20214454799
 21
267.1466735064284
 31
0.0
  0
MTEXT
  5
183
330
A
100
AcDbEntity
  8
TEMPLATE
390
1D
100
AcDbMText
 10
1527.20214454799
 20
258.731751631428
 30
0.0
 40
16.28841145833333
 41
0.0
 46
0.0
 71
     1
 72
     1
  1
容量
  7
ＭＳ ゴシック
 73
     1
 44
0.7828267384257843
  0
LINE
  5
184
330
A
100
AcDbEntity
  8
TEMPLATE
390
1D
100
AcDbLine
 10
1520.20214454799
 20
182.1466735064282
 30
0.0
 11
1520.20214454799
 21
267.1466735064284
 31
0.0
  0
MTEXT
  5
185
330
A
100
AcDbEntity
  8
TEMPLATE
390
1D
100
AcDbMText
 10
1276.20214454799
 20
343.7317516314282
 30
0.0
 40
16.28841145833333
 41
0.0
 46
0.0
 71
     1
 72
     1
  1
品番
  7
ＭＳ ゴシック
 73
     1
 44
0.7828267384257843
  0
MTEXT
  5
186
330
A
100
AcDbEntity
  8
TEMPLATE
390
1D
100
AcDbMText
 10
1276.20214454799
 20
258.731751631428
 30
0.0
 40
16.28841145833333
 41
0.0
 46
0.0
 71
     1
 72
     1
  1
重量
  7
ＭＳ ゴシック
 73
     1
 44
0.7828267384257843
  0
MTEXT
  5
187
330
A
100
AcDbEntity
  8
TEMPLATE
390
1D
100
AcDbMText
 10
1329.20214454799
 20
315.1492906939282
 30
0.0
 40
24.4326171875
 41
0.0
 46
24.4326171875
 71
     1
 72
     1
  1
{ADF70-2106}
  7
ＭＳ ゴシック
 73
     1
 44
0.7828267384257843
1001
ACAD
1000
ACAD_MTEXT_DEFINED_HEIGHT_BEGIN
1070
    46
1040
24.4326171875
1000
ACAD_MTEXT_DEFINED_HEIGHT_END
  0
LINE
  5
188
330
A
100
AcDbEntity
  8
TEMPLATE
390
1D
100
AcDbLine
 10
1269.20214454799
 20
97.14667350642826
 30
0.0
 11
1269.20214454799
 21
352.1466735064282
 31
0.0
  0
MTEXT
  5
189
330
A
100
AcDbEntity
  8
TEMPLATE
390
1D
100
AcDbMText
 10
132.2021445477307
 20
315.1492906939282
 30
0.0
 40
24.4326171875
 41
0.0
 46
24.4326171875
 71
     1
 72
     1
  1
{手洗器　-CATALANO,Velis-}
  7
ＭＳ ゴシック
 73
     1
 44
0.7828267384257843
1001
ACAD
1000
ACAD_MTEXT_DEFINED_HEIGHT_BEGIN
1070
    46
1040
24.4326171875
1000
ACAD_MTEXT_DEFINED_HEIGHT_END
  0
INSERT
  5
6B5
330
A
100
AcDbEntity
  8
TEMPLATE
100
AcDbBlockReference
  2
名称未設定-1
 10
1870.75074808845
 20
25.94676575665382
 30
0.0
 41
0.7619999999999998
 42
0.7619999999999998
 43
0.7619999999999998
  0
MTEXT
  5
7D9
330
A
100
AcDbEntity
  8
TEMPLATE
390
1D
100
AcDbMText
 10
125.2543452760364
 20
226.8119760293952
 30
0.0
 40
24.4326171875
 41
0.0
 46
58.04484304797314
 71
     1
 72
     1
  1
{カウンター置き/オーバーフロー付き/\P陶器/ホワイト}
  7
ＭＳ ゴシック
 73
     1
 44
1.1
1001
ACAD
1000
ACAD_MTEXT_DEFINED_HEIGHT_BEGIN
1070
    46
1040
58.04484304797314
1000
ACAD_MTEXT_DEFINED_HEIGHT_END
  0
INSERT
  5
68C
330
A
100
AcDbEntity
  8
TEMPLATE
100
AcDbBlockReference
  2
block 2
 10
919.2743017702577
 20
8.373076514336368
 30
0.0
 41
0.3809999999999999
 42
0.3809999999999999
 43
0.3809999999999999
  0
CIRCLE
  5
141C
330
A
100
AcDbEntity
  8
MODEL
100
AcDbCircle
 10
564.7041308844905
 20
2023.765840257496
 30
0.0
 40
21.90000000000146
  0
CIRCLE
  5
141D
330
A
100
AcDbEntity
  8
MODEL
100
AcDbCircle
 10
564.7041306002407
 20
2023.765840376184
 30
0.0
 40
179.9999920611886
  0
ARC
  5
141E
330
A
100
AcDbEntity
  8
MODEL
100
AcDbCircle
 10
564.7041308844905
 20
2023.765840257496
 30
0.0
 40
42.72234576403497
100
AcDbArc
 50
0.0
 51
179.9999999995505
  0
ARC
  5
141F
330
A
100
AcDbEntity
  8
MODEL
100
AcDbCircle
 10
564.7041308844905
 20
2023.765840257496
 30
0.0
 40
42.72234576403498
100
AcDbArc
 50
180.0
 51
359.9999999995505
  0
SPLINE
  5
1420
330
A
100
AcDbEntity
  8
MODEL
100
AcDbSpline
210
0.0
220
0.0
230
1.0
 70
    11
 71
     3
 72
    81
 73
    77
 74
     0
 42
0.000000001
 43
0.0000000001
 40
0.0
 40
0.0
 40
0.0
 40
0.0
 40
1.224930108875405
 40
2.450127698796913
 40
3.675464742513272
 40
4.901113922651644
 40
6.126529199931045
 40
7.353080706252434
 40
8.579945170456355
 40
9.807247243600525
 40
11.03532768185562
 40
12.26350478070258
 40
13.49293231939903
 40
14.72240931312342
 40
15.95276470553387
 40
17.18345128945199
 40
18.41444225600304
 40
19.64619274371796
 40
20.87765523414513
 40
22.10989180211759
 40
23.34158924776354
 40
24.57365973602957
 40
25.80535285445011
 40
27.03674263598382
 40
28.26812554871368
 40
29.49849190000854
 40
30.72902782792486
 40
31.95850567364092
 40
33.18769876808076
 40
34.41619485128832
 40
35.64394462229612
 40
36.87152000449586
 40
38.09806599228414
 40
39.32465002169695
 40
40.55032398681983
 40
41.77597672374854
 40
43.00121089212455
 40
44.22619951518821
 40
45.45140596140311
 40
46.67611436856422
 40
47.90148371898101
 40
49.1266084849692
 40
50.35225619035982
 40
51.57818568427813
 40
52.80437787146186
 40
54.03144684132031
 40
55.25854843292962
 40
56.48675471851507
 40
57.71502170934929
 40
58.94421517882129
 40
60.17381657481386
 40
61.403849461394
 40
62.63473476747021
 40
63.86541657737983
 40
65.09710222145547
 40
66.32852446648107
 40
67.560359682459
 40
68.79220505126186
 40
70.02376463503876
 40
71.25566090242461
 40
72.48672817685866
 40
73.71806114093839
 40
74.9484493174105
 40
76.17869109552964
 40
77.40831119223235
 40
78.63723682774557
 40
79.86598561912756
 40
81.09356909855373
 40
82.32118252667838
 40
83.54786359797131
 40
84.77427585368928
 40
86.00024816986527
 40
87.22555092709
 40
88.45100457100408
 40
89.67613816818479
 40
90.90110704035992
 40
90.90110704035992
 40
90.90110704035992
 40
90.90110704035992
 10
579.0086840414056
 20
2191.496490248307
 30
0.0
 10
579.0084983880565
 20
2191.655315367239
 30
0.0
 10
578.9738623513526
 20
2191.97553840938
 30
0.0
 10
578.8194710842922
 20
2192.454611201564
 30
0.0
 10
578.5637045877861
 20
2192.930365362702
 30
0.0
 10
578.2084008221914
 20
2193.398759196836
 30
0.0
 10
577.7560282609534
 20
2193.85638119391
 30
0.0
 10
577.2097507105113
 20
2194.299632005876
 30
0.0
 10
576.5732987012939
 20
2194.725042034703
 30
0.0
 10
575.8512541633149
 20
2195.129096721128
 30
0.0
 10
575.0487792954787
 20
2195.508440492763
 30
0.0
 10
574.1713467783461
 20
2195.859995122526
 30
0.0
 10
573.2254793470397
 20
2196.180657038842
 30
0.0
 10
572.2175404257991
 20
2196.467782398397
 30
0.0
 10
571.1551564173328
 20
2196.718744301353
 30
0.0
 10
570.0457366058595
 20
2196.931383162183
 30
0.0
 10
568.8972936979239
 20
2197.103789576798
 30
0.0
 10
567.7184312932345
 20
2197.234372107407
 30
0.0
 10
566.5171992729715
 20
2197.321992933671
 30
0.0
 10
565.3030938090865
 20
2197.365800135004
 30
0.0
 10
564.0842463811182
 20
2197.365419846304
 30
0.0
 10
562.8702148408097
 20
2197.320851450401
 30
0.0
 10
561.6694704537053
 20
2197.232497955088
 30
0.0
 10
560.4908571005776
 20
2197.101164099265
 30
0.0
 10
559.3432112836285
 20
2196.928081618638
 30
0.0
 10
558.2343698002128
 20
2196.714736652035
 30
0.0
 10
557.1729259080798
 20
2196.463149096249
 30
0.0
 10
556.1660114976671
 20
2196.175429827567
 30
0.0
 10
555.2211985311856
 20
2195.854191791314
 30
0.0
 10
554.3450898110582
 20
2195.50216794762
 30
0.0
 10
553.5438630160475
 20
2195.12233119761
 30
0.0
 10
552.8233262061235
 20
2194.71792383463
 30
0.0
 10
552.1883860543653
 20
2194.292179299351
 30
0.0
 10
551.6436766333841
 20
2193.848649936505
 30
0.0
 10
551.1929074599079
 20
2193.390775759895
 30
0.0
 10
550.8392905525229
 20
2192.922188192997
 30
0.0
 10
550.5852808967006
 20
2192.446443185703
 30
0.0
 10
550.4326391958798
 20
2191.967106031104
 30
0.0
 10
550.3824530867037
 20
2191.487728803491
 30
0.0
 10
550.4350542134321
 20
2191.01172841108
 30
0.0
 10
550.5900702224585
 20
2190.542498692545
 30
0.0
 10
550.8464391546709
 20
2190.083235333185
 30
0.0
 10
551.2023207930301
 20
2189.637091944251
 30
0.0
 10
551.6552465823966
 20
2189.20699274729
 30
0.0
 10
552.2020355441541
 20
2188.795714329977
 30
0.0
 10
552.8387938801948
 20
2188.405905486695
 30
0.0
 10
553.561160910494
 20
2188.039919187082
 30
0.0
 10
554.3638064247402
 20
2187.700100203872
 30
0.0
 10
555.2413081836762
 20
2187.388379306673
 30
0.0
 10
556.1871468118529
 20
2187.106696470854
 30
0.0
 10
557.194764189187
 20
2186.856634253673
 30
0.0
 10
558.2569247633633
 20
2186.639643519957
 30
0.0
 10
559.3657459503643
 20
2186.457004985649
 30
0.0
 10
560.513705546085
 20
2186.309677514781
 30
0.0
 10
561.6918361526455
 20
2186.198570104781
 30
0.0
 10
562.892236215715
 20
2186.12424108353
 30
0.0
 10
564.1056553882495
 20
2186.087141317879
 30
0.0
 10
565.3234491689923
 20
2186.08746203686
 30
0.0
 10
566.5368832497165
 20
2186.125209269818
 30
0.0
 10
567.736673251396
 20
2186.200154063761
 30
0.0
 10
568.9147244619867
 20
2186.311923062781
 30
0.0
 10
570.0617570208683
 20
2186.45982355211
 30
0.0
 10
571.170080676498
 20
2186.643099536174
 30
0.0
 10
572.2312558057142
 20
2186.860646891152
 30
0.0
 10
573.2378517003067
 20
2187.11125909062
 30
0.0
 10
574.1826926201516
 20
2187.393506847088
 30
0.0
 10
575.0588078115447
 20
2187.705674579047
 30
0.0
 10
575.8602535485456
 20
2188.046014695338
 30
0.0
 10
576.5810844298517
 20
2188.412374464751
 30
0.0
 10
577.2163951409216
 20
2188.80260954408
 30
0.0
 10
577.7616013095371
 20
2189.214228895327
 30
0.0
 10
578.2128664264578
 20
2189.64461752752
 30
0.0
 10
578.5670650931183
 20
2190.091011095363
 30
0.0
 10
578.8217018078262
 20
2190.550449861501
 30
0.0
 10
578.97497792477
 20
2191.019871728816
 30
0.0
 10
579.0088702213156
 20
2191.337214657125
 30
0.0
 10
579.0086840414056
 20
2191.496490248307
 30
0.0
  0
CIRCLE
  5
1421
102
{ACAD_REACTORS
330
15F8
102
}
330
A
100
AcDbEntity
  8
MODEL
100
AcDbCircle
 10
564.7041308456587
 20
2023.765840299484
 30
0.0
 40
209.9999909385238
  0
LINE
  5
1428
330
A
100
AcDbEntity
  8
MODEL
100
AcDbLine
 10
528.4443736134922
 20
1013.099134737395
 30
0.0
 11
530.4645400728563
 21
991.0085496963293
 31
0.0
  0
ARC
  5
1429
330
A
100
AcDbEntity
  8
MODEL
100
AcDbCircle
 10
533.4531241442724
 20
991.2700171858528
 30
0.0
 40
2.999999999999996
100
AcDbArc
 50
185.0000050091521
 51
270.0000050088332
  0
LINE
  5
142A
330
A
100
AcDbEntity
  8
MODEL
100
AcDbLine
 10
600.9638837064131
 20
1013.099141843369
 30
0.0
 11
709.4126244019694
 21
1013.099155482641
 31
0.0
  0
ARC
  5
1435
330
A
100
AcDbEntity
  8
MODEL
100
AcDbCircle
 10
709.4126236151619
 20
1019.099155482641
 30
0.0
 40
5.999999999999996
100
AcDbArc
 50
270.0000075134582
 51
330.2244691098288
  0
LINE
  5
1436
330
A
100
AcDbEntity
  8
MODEL
100
AcDbLine
 10
750.4134983085073
 20
1163.099165492038
 30
0.0
 11
768.704115513026
 21
1163.099167091052
 31
0.0
  0
ARC
  5
1437
330
A
100
AcDbEntity
  8
MODEL
100
AcDbCircle
 10
135.7773478058275
 20
1347.297923147889
 30
0.0
 40
666.8871770202813
100
AcDbArc
 50
330.2244691099309
 51
343.2741230361851
  0
ARC
  5
1438
330
A
100
AcDbEntity
  8
MODEL
100
AcDbCircle
 10
768.7041160375643
 20
1157.099167091052
 30
0.0
 40
6.0
100
AcDbArc
 50
343.2741230367033
 51
90.00000500883318
  0
ARC
  5
1439
330
A
100
AcDbEntity
  8
MODEL
100
AcDbCircle
 10
750.4134988330384
 20
1157.099165492038
 30
0.0
 40
6.000000000000001
100
AcDbArc
 50
90.00000500925007
 51
162.0943002662337
  0
SPLINE
  5
143A
330
A
100
AcDbEntity
  8
HIDDEN
100
AcDbSpline
210
0.0
220
0.0
230
1.0
 70
     8
 71
     7
 72
    16
 73
     8
 74
     0
 42
0.000000001
 43
0.0000000001
 40
0.0990461375114887
 40
0.0990461375114887
 40
0.0990461375114887
 40
0.0990461375114887
 40
0.0990461375114887
 40
0.0990461375114887
 40
0.0990461375114887
 40
0.0990461375114887
 40
0.9612702865465486
 40
0.9612702865465486
 40
0.9612702865465486
 40
0.9612702865465486
 40
0.9612702865465486
 40
0.9612702865465486
 40
0.9612702865465486
 40
0.9612702865465486
 10
701.9989837520384
 20
1072.255039534997
 30
0.0
 10
710.214741150075
 20
1083.423473519962
 30
0.0
 10
717.6468275575949
 20
1095.168381839114
 30
0.0
 10
724.3247700315455
 20
1107.366447359635
 30
0.0
 10
730.3078910770178
 20
1119.910526765559
 30
0.0
 10
735.6604422115611
 20
1132.724764351787
 30
0.0
 10
740.4413615534409
 20
1145.750619216054
 30
0.0
 10
744.7041158914121
 20
1158.943873172357
 30
0.0
  0
ARC
  5
143B
330
A
100
AcDbEntity
  8
HIDDEN
100
AcDbCircle
 10
669.7780013061397
 20
1095.957536703208
 30
0.0
 40
40.00000102234596
100
AcDbArc
 50
292.5554240582186
 51
323.6609434903955
  0
SPLINE
  5
143C
330
A
100
AcDbEntity
  8
HIDDEN
100
AcDbSpline
210
0.0
220
0.0
230
1.0
 70
     8
 71
     7
 72
    16
 73
     8
 74
     0
 42
0.000000001
 43
0.0000000001
 40
0.0449761395072244
 40
0.0449761395072244
 40
0.0449761395072244
 40
0.0449761395072244
 40
0.0449761395072244
 40
0.0449761395072244
 40
0.0449761395072244
 40
0.0449761395072244
 40
0.8853945170246065
 40
0.8853945170246065
 40
0.8853945170246065
 40
0.8853945170246065
 40
0.8853945170246065
 40
0.8853945170246065
 40
0.8853945170246065
 40
0.8853945170246065
 10
607.4264721568375
 20
1038.648940992546
 30
0.0
 10
618.8306192677169
 20
1040.182250712425
 30
0.0
 10
630.1793952855564
 20
1042.12738717461
 30
0.0
 10
641.4507147413874
 20
1044.513476006291
 30
0.0
 10
652.6172239511775
 20
1047.370044197203
 30
0.0
 10
663.6452912300642
 20
1050.725635151233
 30
0.0
 10
674.4944809196509
 20
1054.603449705444
 30
0.0
 10
685.1210797660146
 20
1059.017179028143
 30
0.0
  0
SPLINE
  5
143D
330
A
100
AcDbEntity
  8
HIDDEN
100
AcDbSpline
210
0.0
220
0.0
230
1.0
 70
     8
 71
     3
 72
    81
 73
    77
 74
     0
 42
0.000000001
 43
0.0000000001
 40
0.0
 40
0.0
 40
0.0
 40
0.0
 40
1.898446597213175
 40
3.79689320023479
 40
5.695339814786397
 40
7.59378644125202
 40
9.492233073488373
 40
11.39067970217747
 40
13.2891263199507
 40
15.18757292544818
 40
17.08601952351702
 40
18.98446612017731
 40
20.88291272111983
 40
22.78135933247799
 40
24.679805956318
 40
26.57825258794512
 40
28.47669921837556
 40
30.37514583928272
 40
32.27359244758829
 40
34.17203904688196
 40
36.07048564334671
 40
37.96893224264039
 40
39.86737885094594
 40
41.76582547185309
 40
43.66427210228355
 40
45.56271873391068
 40
47.46116535775069
 40
49.35961196910885
 40
51.25805857005139
 40
53.15650516671168
 40
55.05495176478053
 40
56.95339837027797
 40
58.85184498805119
 40
60.75029161674031
 40
62.64873824897667
 40
64.5471848754423
 40
66.44563148999389
 40
68.3440780930155
 40
70.24252469022866
 40
72.14097128744183
 40
74.03941789046344
 40
75.93786450501507
 40
77.83631113148068
 40
79.73475776371704
 40
81.63320439240616
 40
83.53165101017937
 40
85.43009761567686
 40
87.32854421374566
 40
89.22699081040595
 40
91.12543741134849
 40
93.02388402270664
 40
94.92233064654665
 40
96.82077727817375
 40
98.71922390860419
 40
100.6176705295113
 40
102.5161171378169
 40
104.4145637371106
 40
106.3130103335754
 40
108.2114569328691
 40
110.1099035411746
 40
112.0083501620818
 40
113.9067967925122
 40
115.8052434241394
 40
117.7036900479793
 40
119.6021366593375
 40
121.50058326028
 40
123.3990298569403
 40
125.2974764550092
 40
127.1959230605066
 40
129.0943696782798
 40
130.992816306969
 40
132.8912629392053
 40
134.7897095656709
 40
136.6881561802226
 40
138.5866027832442
 40
140.4850493804574
 40
140.4850493804574
 40
140.4850493804574
 40
140.4850493804574
 10
607.4264721568375
 20
1038.648940992546
 30
0.0
 10
607.4264722263738
 20
1038.648940968362
 30
0.0
 10
607.4008017533829
 20
1038.648940917749
 30
0.0
 10
607.2853539196999
 20
1038.648940973248
 30
0.0
 10
607.0931718840634
 20
1038.648941086116
 30
0.0
 10
606.8246018768091
 20
1038.648941141761
 30
0.0
 10
606.4801277955316
 20
1038.648941053536
 30
0.0
 10
606.0603703998327
 20
1038.648940810927
 30
0.0
 10
605.5660861890187
 20
1038.648940485037
 30
0.0
 10
604.9981660002136
 20
1038.648940188346
 30
0.0
 10
604.3576333520227
 20
1038.648940022072
 30
0.0
 10
603.6456424375624
 20
1038.648939888529
 30
0.0
 10
602.8634763692221
 20
1038.648939856728
 30
0.0
 10
602.0125446489596
 20
1038.648939916562
 30
0.0
 10
601.0943806108749
 20
1038.648939948272
 30
0.0
 10
600.1106387726154
 20
1038.648939854271
 30
0.0
 10
599.0630918859729
 20
1038.648939602538
 30
0.0
 10
597.9536277501807
 20
1038.648939245984
 30
0.0
 10
596.7842457780039
 20
1038.648938891123
 30
0.0
 10
595.5570533551486
 20
1038.648938655023
 30
0.0
 10
594.274261922275
 20
1038.648938486805
 30
0.0
 10
592.9381831507685
 20
1038.648938386773
 30
0.0
 10
591.55122476928
 20
1038.64893840641
 30
0.0
 10
590.1158860937844
 20
1038.648938429254
 30
0.0
 10
588.6347536444496
 20
1038.648938349391
 30
0.0
 10
587.1104965046738
 20
1038.648938114507
 30
0.0
 10
585.5458615183284
 20
1038.648937757217
 30
0.0
 10
583.9436683175713
 20
1038.648937375695
 30
0.0
 10
582.3068042131977
 20
1038.648937090278
 30
0.0
 10
580.63821893864
 20
1038.648936911646
 30
0.0
 10
578.9409193644801
 20
1038.64893677135
 30
0.0
 10
577.2179641626403
 20
1038.64893676763
 30
0.0
 10
575.4724581756068
 20
1038.648936799804
 30
0.0
 10
573.7075468969829
 20
1038.648936755935
 30
0.0
 10
571.9264108126713
 20
1038.648936565396
 30
0.0
 10
570.1322596678779
 20
1038.648936239352
 30
0.0
 10
568.328326666689
 20
1038.648935864372
 30
0.0
 10
566.5178626299653
 20
1038.64893555764
 30
0.0
 10
564.7041301288314
 20
1038.648935385742
 30
0.0
 10
562.8903976209745
 20
1038.648935240517
 30
0.0
 10
561.07993356406
 20
1038.648935230697
 30
0.0
 10
559.2760005292707
 20
1038.648935290267
 30
0.0
 10
557.4818493375183
 20
1038.648935302612
 30
0.0
 10
555.7007131929763
 20
1038.648935181728
 30
0.0
 10
553.9358018409598
 20
1038.64893491701
 30
0.0
 10
552.1902957675024
 20
1038.648934579641
 30
0.0
 10
550.4673404663677
 20
1038.648934282111
 30
0.0
 10
548.770040780209
 20
1038.648934125642
 30
0.0
 10
547.1014553811597
 20
1038.648934012528
 30
0.0
 10
545.4645911400344
 20
1038.648934011747
 30
0.0
 10
543.8623977904913
 20
1038.648934113132
 30
0.0
 10
542.2977626436091
 20
1038.648934196853
 30
0.0
 10
540.7735053318297
 20
1038.648934165227
 30
0.0
 10
539.2923726993372
 20
1038.648933986121
 30
0.0
 10
537.8570338298646
 20
1038.648933712314
 30
0.0
 10
536.4700752439071
 20
1038.648933450174
 30
0.0
 10
535.1339962578327
 20
1038.648933316599
 30
0.0
 10
533.8512046006704
 20
1038.648933260526
 30
0.0
 10
532.6240119442059
 20
1038.648933282057
 30
0.0
 10
531.4546297295287
 20
1038.648933432456
 30
0.0
 10
530.3451653427742
 20
1038.648933595026
 30
0.0
 10
529.2976181971585
 20
1038.6489336636
 30
0.0
 10
528.313876092388
 20
1038.648933585598
 30
0.0
 10
527.3957117807345
 20
1038.648933393351
 30
0.0
 10
526.5447797803331
 20
1038.648933184735
 30
0.0
 10
525.7626134258003
 20
1038.648933079778
 30
0.0
 10
525.0506222195886
 20
1038.648933088833
 30
0.0
 10
524.4100892746405
 20
1038.648933143112
 30
0.0
 10
523.8421687845744
 20
1038.648933340504
 30
0.0
 10
523.3478842685777
 20
1038.648933579971
 30
0.0
 10
522.9281265642835
 20
1038.648933749187
 30
0.0
 10
522.5836521715805
 20
1038.648933777183
 30
0.0
 10
522.3150818506306
 20
1038.648933674579
 30
0.0
 10
522.1228994995886
 20
1038.64893352811
 30
0.0
 10
522.0074513493505
 20
1038.648933452425
 30
0.0
 10
521.9817806649421
 20
1038.648933498549
 30
0.0
 10
521.9817806287733
 20
1038.648933522734
 30
0.0
  0
ARC
  5
143E
330
A
100
AcDbEntity
  8
HIDDEN
100
AcDbCircle
 10
519.9829896496717
 20
1023.782702484985
 30
0.0
 40
14.99999968819536
100
AcDbArc
 50
50.00015701850424
 51
82.34240387870724
  0
ARC
  5
143F
330
A
100
AcDbEntity
  8
HIDDEN
100
AcDbCircle
 10
609.4252657352313
 20
1023.782710304277
 30
0.0
 40
14.99999968819536
100
AcDbArc
 50
97.6576061390846
 51
129.9998529995503
  0
LINE
  5
1440
330
A
100
AcDbEntity
  8
HIDDEN
100
AcDbLine
 10
529.6247721044615
 20
1035.273395316158
 30
0.0
 11
541.1066392939297
 21
1025.63901841285
 31
0.0
  0
LINE
  5
1441
330
A
100
AcDbEntity
  8
HIDDEN
100
AcDbLine
 10
542.7867928672403
 20
988.270018001827
 30
0.0
 11
542.1778319753043
 21
1023.392885990424
 31
0.0
  0
ARC
  5
1442
330
A
100
AcDbEntity
  8
HIDDEN
100
AcDbCircle
 10
539.1782827250113
 20
1023.340879753705
 30
0.0
 40
3.000000058924905
100
AcDbArc
 50
0.993295692473358
 51
50.00015701847794
  0
LINE
  5
1444
330
A
100
AcDbEntity
  8
MODEL
100
AcDbLine
 10
586.604130884492
 20
988.2700218324608
 30
0.0
 11
542.804130884489
 21
988.2700180033439
 31
0.0
  0
LINE
  5
1445
330
A
100
AcDbEntity
  8
MODEL
100
AcDbLine
 10
419.9956371942367
 20
1013.099130181003
 30
0.0
 11
528.4443736134922
 21
1013.099134737395
 31
0.0
  0
LINE
  5
144E
330
A
100
AcDbEntity
  8
MODEL
100
AcDbLine
 10
378.994733074132
 20
1163.099133021576
 30
0.0
 11
750.4134983085073
 21
1163.099165492038
 31
0.0
  0
LINE
  5
144F
330
A
100
AcDbEntity
  8
HIDDEN
100
AcDbLine
 10
541.1066392939297
 20
1025.63901841285
 30
0.0
 11
588.3016157664001
 21
1025.639022538766
 31
0.0
  0
LINE
  5
1453
330
A
100
AcDbEntity
  8
MODEL
100
AcDbLine
 10
598.9437212173057
 20
991.0085556829692
 30
0.0
 11
600.9638837064131
 21
1013.099141843369
 31
0.0
  0
LINE
  5
1454
330
A
100
AcDbEntity
  8
MODEL
100
AcDbLine
 10
533.4531244065415
 20
988.2700171858528
 30
0.0
 11
542.804130884489
 21
988.2700180033428
 31
0.0
  0
LINE
  5
1455
330
A
100
AcDbEntity
  8
MODEL
100
AcDbLine
 10
586.604130884492
 20
988.2700218324608
 30
0.0
 11
595.9551373624467
 21
988.2700226499528
 31
0.0
  0
ARC
  5
1456
330
A
100
AcDbEntity
  8
MODEL
100
AcDbCircle
 10
595.9551205138318
 20
991.2700407507639
 30
0.0
 40
3.000018100859388
100
AcDbArc
 50
270.0003217826221
 51
354.9996882349232
  0
ARC
  5
146A
330
A
100
AcDbEntity
  8
MODEL
100
AcDbCircle
 10
419.995638327016
 20
1019.099132323078
 30
0.0
 40
6.000002142075907
100
AcDbArc
 50
209.7755527967696
 51
269.9999891827584
  0
LINE
  5
146B
330
A
100
AcDbEntity
  8
MODEL
100
AcDbLine
 10
360.7041159033665
 20
1163.099131422556
 30
0.0
 11
378.994733074132
 21
1163.099133021576
 31
0.0
  0
ARC
  5
146D
330
A
100
AcDbEntity
  8
MODEL
100
AcDbCircle
 10
993.6324330844777
 20
1347.298694731809
 30
0.0
 40
666.8888922475871
100
AcDbArc
 50
196.7259051891132
 51
209.7755255460766
  0
ARC
  5
1470
330
A
100
AcDbEntity
  8
MODEL
100
AcDbCircle
 10
360.7041223616375
 20
1157.099127017169
 30
0.0
 40
6.000004405390808
100
AcDbArc
 50
90.00006167224683
 51
196.7258304147886
  0
ARC
  5
1471
330
A
100
AcDbEntity
  8
MODEL
100
AcDbCircle
 10
378.9948119211672
 20
1157.099240650569
 30
0.0
 40
5.999892371524676
100
AcDbArc
 50
17.90496172061683
 51
90.00075294709136
  0
ARC
  5
1472
330
A
100
AcDbEntity
  8
HIDDEN
100
AcDbCircle
 10
459.6307600769555
 20
1095.958179554811
 30
0.0
 40
40.00081059833349
100
AcDbArc
 50
216.3393892652865
 51
247.4442632217774
  0
SPLINE
  5
1474
330
A
100
AcDbEntity
  8
HIDDEN
100
AcDbSpline
210
0.0
220
0.0
230
1.0
 70
     8
 71
     3
 72
    13
 73
     9
 74
     0
 42
0.000000001
 43
0.0000000001
 40
0.0
 40
0.0
 40
0.0
 40
0.0
 40
8.180636044747853
 40
21.18784715094738
 40
37.01738068601978
 40
59.18009824678506
 40
72.64068530358988
 40
80.54732411794213
 40
80.54732411794213
 40
80.54732411794213
 40
80.54732411794213
 10
444.2871694582986
 20
1059.017157973771
 30
0.0
 10
446.8053707958875
 20
1057.971230320075
 30
0.0
 10
453.3695541526081
 20
1055.362345085062
 30
0.0
 10
465.0072371470501
 20
1051.251565305116
 30
0.0
 10
481.3069098175815
 20
1046.401071405493
 30
0.0
 10
498.0277650792682
 20
1042.538316902348
 30
0.0
 10
512.3208807190144
 20
1040.02428344947
 30
0.0
 10
519.3697885263805
 20
1039.000120467056
 30
0.0
 10
521.9817806287733
 20
1038.648933522734
 30
0.0
  0
LINE
  5
1476
330
A
100
AcDbEntity
  8
HIDDEN
100
AcDbLine
 10
599.7834812713459
 20
1035.273401449628
 30
0.0
 11
588.3016157664074
 21
1025.639022538766
 31
0.0
  0
LINE
  5
1477
330
A
100
AcDbEntity
  8
HIDDEN
100
AcDbLine
 10
586.6214687268954
 20
988.2700218339764
 30
0.0
 11
587.2304234777598
 21
1023.392889929047
 31
0.0
  0
ARC
  5
1478
330
A
100
AcDbEntity
  8
HIDDEN
100
AcDbCircle
 10
590.2299739871282
 20
1023.340883620661
 30
0.0
 40
3.000001319055568
100
AcDbArc
 50
129.9998639691208
 51
179.0067033558639
  0
SPLINE
  5
1479
330
A
100
AcDbEntity
  8
HIDDEN
100
AcDbSpline
210
0.0
220
0.0
230
1.0
 70
     8
 71
     3
 72
    14
 73
    10
 74
     0
 42
0.000000001
 43
0.0000000001
 40
0.0
 40
0.0
 40
0.0
 40
0.0
 40
8.008021840626824
 40
23.46131960098574
 40
45.79711683879152
 40
61.76547892869964
 40
81.28239435734258
 40
90.74514290829742
 40
97.05363728561771
 40
97.05363728561771
 40
97.05363728561771
 40
97.05363728561771
 10
384.704116207778
 20
1158.943841700341
 30
0.0
 10
385.5247954683632
 20
1156.403835269689
 30
0.0
 10
388.0015713201406
 20
1148.985464786438
 30
0.0
 10
393.2677567436526
 20
1134.653643431587
 30
0.0
 10
400.3334195795155
 20
1118.175223754194
 30
0.0
 10
409.0090842457989
 20
1100.956661142848
 30
0.0
 10
416.5852797556558
 20
1088.018853874516
 30
0.0
 10
423.1059855298495
 20
1078.226251358231
 30
0.0
 10
426.1632410161378
 20
1073.948847304333
 30
0.0
 10
427.4092631576982
 20
1072.2550155296
 30
0.0
  0
SPLINE
  5
147B
330
A
100
AcDbEntity
  8
MODEL
100
AcDbSpline
210
0.0
220
0.0
230
1.0
 70
     8
 71
     3
 72
    11
 73
     7
 74
     0
 42
0.000000001
 43
0.0000000001
 40
0.0
 40
0.0
 40
0.0
 40
0.0
 40
0.1693792023581227
 40
0.3387584047179026
 40
0.5081376070793592
 40
0.6775168094424646
 40
0.6775168094424646
 40
0.6775168094424646
 40
0.6775168094424646
 10
360.702998272694
 20
1163.09913131836
 30
0.0
 10
360.6481464369404
 20
1163.099121096756
 30
0.0
 10
360.5329058680122
 20
1163.097276745941
 30
0.0
 10
360.3644281821012
 20
1163.091103623732
 30
0.0
 10
360.1958436777836
 20
1163.075350878317
 30
0.0
 10
360.0818996271823
 20
1163.073570244967
 30
0.0
 10
360.0269051511473
 20
1163.060790996847
 30
0.0
  0
ARC
  5
1480
330
A
100
AcDbEntity
  8
HIDDEN
100
AcDbCircle
 10
1577.119187719338
 20
1101.14046644943
 30
0.0
 40
46.3451829731763
100
AcDbArc
 50
292.1061279338589
 51
324.2057780930243
  0
ARC
  5
1481
330
A
100
AcDbEntity
  8
HIDDEN
100
AcDbCircle
 10
1577.119187719338
 20
1101.14046644943
 30
0.0
 40
56.34518297317311
100
AcDbArc
 50
292.1061279338608
 51
324.2057780930198
  0
ARC
  5
1483
330
A
100
AcDbEntity
  8
HIDDEN
100
AcDbCircle
 10
1375.176437012869
 20
1101.140475276629
 30
0.0
 40
46.3451829731763
100
AcDbArc
 50
215.794216897848
 51
247.893867057298
  0
SPLINE
  5
1486
330
A
100
AcDbEntity
  8
HIDDEN
100
AcDbSpline
210
0.0
220
0.0
230
1.0
 70
     8
 71
     7
 72
    16
 73
     8
 74
     0
 42
0.000000001
 43
0.0000000001
 40
0.1186007593006308
 40
0.1186007593006308
 40
0.1186007593006308
 40
0.1186007593006308
 40
0.1186007593006308
 40
0.1186007593006308
 40
0.1186007593006308
 40
0.1186007593006308
 40
0.9612699988107102
 40
0.9612699988107102
 40
0.9612699988107102
 40
0.9612699988107102
 40
0.9612699988107102
 40
0.9612699988107102
 40
0.9612699988107102
 40
0.9612699988107102
 10
1337.584799787885
 20
1074.034298940551
 30
0.0
 10
1329.659560125994
 20
1085.025252832279
 30
0.0
 10
1322.479553223242
 20
1096.553590805994
 30
0.0
 10
1316.014530745135
 20
1108.505420890525
 30
0.0
 10
1310.20898471856
 20
1120.782828555636
 30
0.0
 10
1305.003197236536
 20
1133.315754006068
 30
0.0
 10
1300.342335966368
 20
1146.049875860099
 30
0.0
 10
1296.176307286751
 20
1158.943860169708
 30
0.0
  0
ARC
  5
1488
330
A
100
AcDbEntity
  8
HIDDEN
100
AcDbCircle
 10
1290.466920288043
 20
1157.099165046119
 30
0.0
 40
6.0
100
AcDbArc
 50
17.90557372264104
 51
89.99999749537496
  0
ARC
  5
1489
330
A
100
AcDbEntity
  8
HIDDEN
100
AcDbCircle
 10
1661.828709336227
 20
1157.099148813377
 30
0.0
 40
6.0
100
AcDbArc
 50
89.99999749537496
 51
162.0944212685489
  0
ARC
  5
148A
102
{ACAD_REACTORS
330
1664
102
}
330
A
100
AcDbEntity
  8
MODEL
100
AcDbCircle
 10
1272.176312277643
 20
1157.099165845623
 30
0.0
 40
6.000000000000042
100
AcDbArc
 50
89.99999749537496
 51
196.7257604543808
  0
ARC
  5
148B
102
{ACAD_REACTORS
330
16F1
102
}
330
A
100
AcDbEntity
  8
MODEL
100
AcDbCircle
 10
1680.119317346627
 20
1157.099148013866
 30
0.0
 40
6.000000000000042
100
AcDbArc
 50
343.2742345366482
 51
89.99999749537496
  0
SPLINE
  5
148C
330
A
100
AcDbEntity
  8
HIDDEN
100
AcDbSpline
210
0.0
220
0.0
230
1.0
 70
     8
 71
     7
 72
    16
 73
     8
 74
     0
 42
0.000000001
 43
0.0000000001
 40
0.1369567847846957
 40
0.1369567847846957
 40
0.1369567847846957
 40
0.1369567847846957
 40
0.1369567847846957
 40
0.1369567847846957
 40
0.1369567847846957
 40
0.1369567847846957
 40
0.9550116963081758
 40
0.9550116963081758
 40
0.9550116963081758
 40
0.9550116963081758
 40
0.9550116963081758
 40
0.9550116963081758
 40
0.9550116963081758
 40
0.9550116963081758
 10
1357.735658484449
 20
1058.202202964622
 30
0.0
 10
1368.110165528506
 20
1053.98825885476
 30
0.0
 10
1378.690468919671
 20
1050.280842471508
 30
0.0
 10
1389.436131112376
 20
1047.06626899463
 30
0.0
 10
1400.31048277592
 20
1044.322595580558
 30
0.0
 10
1411.282785590749
 20
1042.023308561428
 30
0.0
 10
1422.327917252787
 20
1040.141075181182
 30
0.0
 10
1433.425500897949
 20
1038.648948545448
 30
0.0
  0
SPLINE
  5
148E
330
A
100
AcDbEntity
  8
HIDDEN
100
AcDbSpline
210
0.0
220
0.0
230
1.0
 70
     8
 71
     3
 72
    16
 73
    12
 74
     0
 42
0.000000001
 43
0.0000000001
 40
0.0
 40
0.0
 40
0.0
 40
0.0
 40
7.588795413178041
 40
16.93556544114414
 40
26.2836930300527
 40
35.66487303875809
 40
44.67872134507342
 40
49.4970431866089
 40
54.29098070277081
 40
60.75068492398829
 40
69.85004091432067
 40
69.85004091432067
 40
69.85004091432067
 40
69.85004091432067
 10
1433.425500897949
 20
1038.648948545448
 30
0.0
 10
1433.425500791574
 20
1038.648948439081
 30
0.0
 10
1433.871545143502
 20
1038.641562787282
 30
0.0
 10
1436.095613275644
 20
1038.604535911287
 30
0.0
 10
1440.206992418873
 20
1038.545808298714
 30
0.0
 10
1445.856519592988
 20
1038.484397654812
 30
0.0
 10
1451.714616410394
 20
1038.440181008159
 30
0.0
 10
1456.95386609012
 20
1038.412023392488
 30
0.0
 10
1461.742227800281
 20
1038.392526625623
 30
0.0
 10
1468.116112122316
 20
1038.375362159521
 30
0.0
 10
1473.183890904595
 20
1038.370472622414
 30
0.0
 10
1476.147807725076
 20
1038.370472492858
 30
0.0
  0
SPLINE
  5
148F
330
A
100
AcDbEntity
  8
HIDDEN
100
AcDbSpline
210
0.0
220
0.0
230
1.0
 70
     8
 71
     7
 72
    16
 73
     8
 74
     0
 42
0.000000001
 43
0.0000000001
 40
0.1369567847846957
 40
0.1369567847846957
 40
0.1369567847846957
 40
0.1369567847846957
 40
0.1369567847846957
 40
0.1369567847846957
 40
0.1369567847846957
 40
0.1369567847846957
 40
0.955011696308176
 40
0.955011696308176
 40
0.955011696308176
 40
0.955011696308176
 40
0.955011696308176
 40
0.955011696308176
 40
0.955011696308176
 40
0.955011696308176
 10
1594.559962493968
 20
1058.202192612702
 30
0.0
 10
1584.185455081522
 20
1053.98824940981
 30
0.0
 10
1573.605151366242
 20
1050.280833951515
 30
0.0
 10
1562.859488892511
 20
1047.06626141405
 30
0.0
 10
1551.985136989108
 20
1044.322588950647
 30
0.0
 10
1541.012833973266
 20
1042.02330289075
 30
0.0
 10
1529.967702146681
 20
1040.141070476104
 30
0.0
 10
1518.870118371076
 20
1038.648944810546
 30
0.0
  0
SPLINE
  5
1490
330
A
100
AcDbEntity
  8
HIDDEN
100
AcDbSpline
210
0.0
220
0.0
230
1.0
 70
     8
 71
     3
 72
    12
 73
     8
 74
     0
 42
0.000000001
 43
0.0000000001
 40
0.1369567847846958
 40
0.1369567847846958
 40
0.1369567847846958
 40
0.1369567847846958
 40
0.3279181360170076
 40
0.3279181360170076
 40
0.6734305912700085
 40
0.6734305912700085
 40
0.955011696308176
 40
0.955011696308176
 40
0.955011696308176
 40
0.955011696308176
 10
1598.32319605046
 20
1048.937308738675
 30
0.0
 10
1592.461234886894
 20
1046.556282785463
 30
0.0
 10
1586.524325569302
 20
1044.378520614916
 30
0.0
 10
1569.687534037159
 20
1038.807367017402
 30
0.0
 10
1558.661496657081
 20
1035.857324792448
 30
0.0
 10
1538.480146914753
 20
1031.533748995764
 30
0.0
 10
1529.355562411565
 20
1029.968779358835
 30
0.0
 10
1520.202677259531
 20
1028.738128153546
 30
0.0
  0
SPLINE
  5
1491
330
A
100
AcDbEntity
  8
HIDDEN
100
AcDbSpline
210
0.0
220
0.0
230
1.0
 70
     8
 71
     3
 72
    20
 73
    16
 74
     0
 42
0.000000001
 43
0.0000000001
 40
0.0
 40
0.0
 40
0.0
 40
0.0
 40
5.874697630218674
 40
10.69856179143204
 40
15.31013760930727
 40
20.14605909227019
 40
25.01059710878736
 40
29.91237098835842
 40
34.58391825594373
 40
39.49234519108781
 40
44.46220991425603
 40
51.0145499096494
 40
55.69812083472367
 40
61.83427354968384
 40
69.85014342868416
 40
69.85014342868416
 40
69.85014342868416
 40
69.85014342868416
 10
1476.147807725076
 20
1038.370472492858
 30
0.0
 10
1478.061362392011
 20
1038.370472409214
 30
0.0
 10
1481.546121344883
 20
1038.372638256977
 30
0.0
 10
1486.44740485954
 20
1038.381352873822
 30
0.0
 10
1490.889110815213
 20
1038.39401862161
 30
0.0
 10
1495.163350054045
 20
1038.411167628311
 30
0.0
 10
1499.280945720286
 20
1038.433092007694
 30
0.0
 10
1503.059651010288
 20
1038.45874827667
 30
0.0
 10
1506.517813176168
 20
1038.487664198216
 30
0.0
 10
1509.621664380222
 20
1038.518851859186
 30
0.0
 10
1512.657896465742
 20
1038.554771537919
 30
0.0
 10
1515.078043305421
 20
1038.588398714765
 30
0.0
 10
1517.036133427555
 20
1038.618571665695
 30
0.0
 10
1518.476177950706
 20
1038.642374470179
 30
0.0
 10
1518.870118258714
 20
1038.648944698191
 30
0.0
 10
1518.870118371076
 20
1038.648944810546
 30
0.0
  0
ARC
  5
1492
330
A
100
AcDbEntity
  8
HIDDEN
100
AcDbCircle
 10
1431.426661265625
 20
1023.782723734683
 30
0.0
 40
15.0
100
AcDbArc
 50
50.00014950488807
 51
82.34221652460963
  0
ARC
  5
1493
330
A
100
AcDbEntity
  8
HIDDEN
100
AcDbCircle
 10
1520.868956703747
 20
1023.782719825035
 30
0.0
 40
14.99999999999999
100
AcDbArc
 50
97.65777846649253
 51
129.9998454862987
  0
ARC
  5
1494
330
A
100
AcDbEntity
  8
HIDDEN
100
AcDbCircle
 10
1520.868956703747
 20
1023.782719825035
 30
0.0
 40
5.000000000003189
100
AcDbArc
 50
97.65777846648767
 51
129.9998454863202
  0
ARC
  5
1495
330
A
100
AcDbEntity
  8
MODEL
100
AcDbCircle
 10
1047.206422736661
 20
1347.291193818241
 30
0.0
 40
666.8719591954294
100
AcDbArc
 50
330.2243859286546
 51
343.2743331298198
  0
ARC
  5
1496
330
A
100
AcDbEntity
  8
HIDDEN
100
AcDbCircle
 10
1047.206422736661
 20
1347.291193818241
 30
0.0
 40
656.8719591954326
100
AcDbArc
 50
331.2203769353142
 51
342.4477181468105
  0
ARC
  5
1497
330
A
100
AcDbEntity
  8
HIDDEN
100
AcDbCircle
 10
1670.635517547726
 20
1150.099148428428
 30
0.0
 40
3.0
100
AcDbArc
 50
342.4477181468063
 51
89.99999749537496
  0
ARC
  5
1498
330
A
100
AcDbEntity
  8
MODEL
100
AcDbCircle
 10
1905.089223514729
 20
1347.291156318996
 30
0.0
 40
666.8719591954408
100
AcDbArc
 50
196.7256618611975
 51
209.7756090623595
  0
ARC
  5
149B
330
A
100
AcDbEntity
  8
MODEL
100
AcDbCircle
 10
1331.467607945557
 20
1019.099156717185
 30
0.0
 40
6.0
100
AcDbArc
 50
209.7755372160386
 51
269.999997495375
  0
ARC
  5
149C
330
A
100
AcDbEntity
  8
MODEL
100
AcDbCircle
 10
1620.828009614368
 20
1019.099144068842
 30
0.0
 40
6.0
100
AcDbArc
 50
269.999997495375
 51
330.2244577749382
  0
SPLINE
  5
149F
330
A
100
AcDbEntity
  8
MODEL
100
AcDbSpline
210
0.0
220
0.0
230
1.0
 70
     8
 71
     3
 72
    12
 73
     8
 74
     0
 42
0.000000001
 43
0.0000000001
 40
6.633048961249121
 40
6.633048961249121
 40
6.633048961249121
 40
6.633048961249121
 40
23.90458310525554
 40
36.65126788343171
 40
45.03383961349738
 40
52.62244590855227
 40
54.60340353864288
 40
54.60340353864288
 40
54.60340353864288
 40
54.60340353864288
 10
1575.658881217783
 20
1012.105316114151
 30
0.0
 10
1570.104444340595
 20
1010.388903456228
 30
0.0
 10
1560.431902431006
 20
1007.468622929465
 30
0.0
 10
1548.009552403626
 20
1003.853379417739
 30
0.0
 10
1538.678834453869
 20
1001.218475140243
 30
0.0
 10
1532.817068517648
 20
999.6101190075099
 30
0.0
 10
1529.678681269517
 20
998.7684266087349
 30
0.0
 10
1529.028319842491
 20
998.5949494910208
 30
0.0
  0
LINE
  5
14A2
330
A
100
AcDbEntity
  8
MODEL
100
AcDbLine
 10
1582.649955157718
 20
1013.099144951197
 30
0.0
 11
1582.439106292066
 21
1013.099144640434
 31
0.0
  0
ELLIPSE
  5
14A3
330
A
100
AcDbEntity
  8
MODEL
100
AcDbEllipse
 10
1580.804553332146
 20
1003.231159614076
 30
0.0
 11
-1.192157051274551
 21
9.928683778079355
 31
0.0
210
0.0
220
0.0
230
1.0
 40
0.9995896894586755
 41
6.02113737373831
 42
6.283183973943911
  0
SPLINE
  5
14A4
330
A
100
AcDbEntity
  8
MODEL
100
AcDbSpline
210
0.0
220
0.0
230
1.0
 70
     8
 71
     3
 72
    10
 73
     6
 74
     0
 42
0.000000001
 43
0.0000000001
 40
0.0
 40
0.0
 40
0.0
 40
0.0
 40
1.201460633470799
 40
2.551618718059795
 40
3.964317541307294
 40
3.964317541307294
 40
3.964317541307294
 40
3.964317541307294
 10
1582.224154690008
 20
1013.129599785073
 30
0.0
 10
1582.204871552156
 20
1013.129215580299
 30
0.0
 10
1582.149765183578
 20
1013.131133879183
 30
0.0
 10
1582.02281755389
 20
1013.143326879527
 30
0.0
 10
1581.913829898393
 20
1013.159704187234
 30
0.0
 10
1581.855176826462
 20
1013.170487559885
 30
0.0
  0
ELLIPSE
  5
14A5
330
A
100
AcDbEntity
  8
MODEL
100
AcDbEllipse
 10
1582.649993152718
 20
1016.099144951197
 30
0.0
 11
-2.377599296502436E-6
 21
2.999999999999061
 31
0.0
210
0.0
220
0.0
230
1.0
 40
0.9986366611697816
 41
2.998958009124015
 42
3.141591816203658
  0
SPLINE
  5
14A6
330
A
100
AcDbEntity
  8
HIDDEN
100
AcDbSpline
210
0.0
220
0.0
230
1.0
 70
     8
 71
     7
 72
    16
 73
     8
 74
     0
 42
0.000000001
 43
0.0000000001
 40
0.1186007593006308
 40
0.1186007593006308
 40
0.1186007593006308
 40
0.1186007593006308
 40
0.1186007593006308
 40
0.1186007593006308
 40
0.1186007593006308
 40
0.1186007593006308
 40
0.5340910017102859
 40
0.5340910017102859
 40
0.5340910017102859
 40
0.5340910017102859
 40
0.5340910017102859
 40
0.5340910017102859
 40
0.5340910017102859
 40
0.5340910017102859
 10
1614.710822574623
 20
1074.034286826984
 30
0.0
 10
1618.618476957989
 20
1079.453535085737
 30
0.0
 10
1622.344955917335
 20
1085.003428174122
 30
0.0
 10
1625.893885323992
 20
1090.670313843668
 30
0.0
 10
1629.270383987754
 20
1096.441484171821
 30
0.0
 10
1632.480450227729
 20
1102.305521689389
 30
0.0
 10
1635.530520211203
 20
1108.25230074718
 30
0.0
 10
1638.427178848
 20
1114.27288046249
 30
0.0
  0
SPLINE
  5
14A7
330
A
100
AcDbEntity
  8
HIDDEN
100
AcDbSpline
210
0.0
220
0.0
230
1.0
 70
     8
 71
     3
 72
    13
 73
     9
 74
     0
 42
0.000000001
 43
0.0000000001
 40
0.1186007593006307
 40
0.1186007593006307
 40
0.1186007593006307
 40
0.1186007593006307
 40
0.2701361001095172
 40
0.2701361001095172
 40
0.5340910017102859
 40
0.5340910017102859
 40
0.5340910017102859
 40
0.5361942029112748
 40
0.5361942029112748
 40
0.5361942029112748
 40
0.5361942029112748
 10
1622.822050634084
 20
1068.185528038379
 30
0.0
 10
1626.290097532543
 20
1072.995115906681
 30
0.0
 10
1629.575562155387
 20
1077.922449169197
 30
0.0
 10
1638.108954030115
 20
1091.69066089235
 30
0.0
 10
1643.004271832189
 20
1100.7210830714
 30
0.0
 10
1647.438446552831
 20
1109.937323479612
 30
0.0
 10
1647.47377820055
 20
1110.010758781548
 30
0.0
 10
1647.509080570508
 20
1110.084205880991
 30
0.0
 10
1647.544353664143
 20
1110.157664777366
 30
0.0
  0
ARC
  5
14A8
330
A
100
AcDbEntity
  8
HIDDEN
100
AcDbCircle
 10
1286.751120964724
 20
1278.08863340729
 30
0.0
 40
388.1086819996424
100
AcDbArc
 50
339.2744090122343
 51
342.1221806492496
  0
ARC
  5
14A9
330
A
100
AcDbEntity
  8
HIDDEN
100
AcDbCircle
 10
1286.751120964724
 20
1278.08863340729
 30
0.0
 40
398.1086819996392
100
AcDbArc
 50
339.2465271883413
 51
341.3921420095448
  0
ARC
  5
14AA
330
A
100
AcDbEntity
  8
HIDDEN
100
AcDbCircle
 10
1656.690232665645
 20
1137.905599814589
 30
0.0
 40
2.5
100
AcDbArc
 50
247.0837464577557
 51
339.2465271883979
  0
ARC
  5
14AB
330
A
100
AcDbEntity
  8
HIDDEN
100
AcDbCircle
 10
1666.891708842861
 20
1150.099148592072
 30
0.0
 40
3.0
100
AcDbArc
 50
89.99999749537496
 51
161.3921420094836
  0
ARC
  5
14AE
330
A
100
AcDbEntity
  8
HIDDEN
100
AcDbCircle
 10
1652.081532382119
 20
1139.853931889502
 30
0.0
 40
2.49999999999996
100
AcDbArc
 50
159.2457130435724
 51
247.0837464577557
  0
ARC
  5
14AF
330
A
100
AcDbEntity
  8
HIDDEN
100
AcDbCircle
 10
1640.679995774208
 20
1113.188991216772
 30
0.0
 40
2.499999999999999
100
AcDbArc
 50
67.08374645775567
 51
154.3065737280784
  0
LINE
  5
14B0
330
A
100
AcDbEntity
  8
HIDDEN
100
AcDbLine
 10
1499.74529728149
 20
1025.63902710001
 30
0.0
 11
1452.550320850172
 21
1025.639029162962
 31
0.0
  0
LINE
  5
14B1
102
{ACAD_REACTORS
330
16F1
102
}
330
A
100
AcDbEntity
  8
MODEL
100
AcDbLine
 10
1454.440808781532
 20
988.2512270307707
 30
0.0
 11
1498.240808781535
 21
988.2512251162118
 31
0.0
  0
SPLINE
  5
14B3
330
A
100
AcDbEntity
  8
MODEL
100
AcDbSpline
210
0.0
220
0.0
230
1.0
 70
     8
 71
     3
 72
    17
 73
    13
 74
     0
 42
0.000000001
 43
0.0000000001
 40
289.4721628208882
 40
289.4721628208882
 40
289.4721628208882
 40
289.4721628208882
 40
296.9793043020009
 40
311.7859761314098
 40
327.1566595630237
 40
343.2063621445141
 40
360.0489105777004
 40
376.0768351431183
 40
392.8887528734468
 40
408.8791736249823
 40
423.9910204669372
 40
428.5053214361572
 40
428.5053214361572
 40
428.5053214361572
 40
428.5053214361572
 10
1618.299283181081
 20
1013.099144179378
 30
0.0
 10
1618.299283652577
 20
1013.099144069991
 30
0.0
 10
1618.218425678675
 20
1013.099143748409
 30
0.0
 10
1617.675939854573
 20
1013.099143223427
 30
0.0
 10
1616.333109551542
 20
1013.099142610958
 30
0.0
 10
1614.185727110849
 20
1013.099142007701
 30
0.0
 10
1611.202554224397
 20
1013.099141437092
 30
0.0
 10
1607.331096698294
 20
1013.099140902229
 30
0.0
 10
1602.671362957739
 20
1013.099140423907
 30
0.0
 10
1597.225165587897
 20
1013.099140005365
 30
0.0
 10
1592.531531624281
 20
1013.099139733615
 30
0.0
 10
1589.709558338811
 20
1013.099139598959
 30
0.0
 10
1589.04779827016
 20
1013.099139568815
 30
0.0
  0
LINE
  5
14B4
330
A
100
AcDbEntity
  8
MODEL
100
AcDbLine
 10
1583.042936407215
 20
1013.099145496276
 30
0.0
 11
1582.649993021583
 21
1013.099144951197
 31
0.0
  0
LINE
  5
14B5
330
A
100
AcDbEntity
  8
MODEL
100
AcDbLine
 10
1439.888053740194
 20
1013.099144474068
 30
0.0
 11
1331.467607683287
 21
1013.099156717185
 31
0.0
  0
LINE
  5
14B6
330
A
100
AcDbEntity
  8
MODEL
100
AcDbLine
 10
1582.433968607653
 20
1013.099143921897
 30
0.0
 11
1579.198340227817
 21
1013.099143192409
 31
0.0
  0
LINE
  5
14B7
330
A
100
AcDbEntity
  8
MODEL
100
AcDbLine
 10
1582.574780005034
 20
1013.137426377679
 30
0.0
 11
1582.224122424897
 21
1013.129609873399
 31
0.0
  0
ARC
  5
14B8
330
A
100
AcDbEntity
  8
MODEL
100
AcDbCircle
 10
1513.482367727123
 20
990.9616058973959
 30
0.0
 40
3.000128863520708
100
AcDbArc
 50
106.1874070164696
 51
174.9984712166294
  0
LINE
  5
14BA
330
A
100
AcDbEntity
  8
HIDDEN
100
AcDbLine
 10
1670.63551767886
 20
1153.099148428428
 30
0.0
 11
1666.89170897401
 21
1153.099148592072
 31
0.0
  0
LINE
  5
14BB
330
A
100
AcDbEntity
  8
MODEL
100
AcDbLine
 10
1680.119319499923
 20
1163.099148013866
 30
0.0
 11
1272.176312539912
 21
1163.099165845623
 31
0.0
  0
LINE
  5
14BD
330
A
100
AcDbEntity
  8
HIDDEN
100
AcDbLine
 10
1441.06844542766
 20
1035.273415540349
 30
0.0
 11
1452.550320850172
 21
1025.639029162962
 31
0.0
  0
LINE
  5
14BE
330
A
100
AcDbEntity
  8
HIDDEN
100
AcDbLine
 10
1499.74529728149
 20
1025.63902710001
 30
0.0
 11
1511.22717354626
 21
1035.273412473613
 31
0.0
  0
LINE
  5
14BF
330
A
100
AcDbEntity
  8
HIDDEN
100
AcDbLine
 10
1509.664780233401
 20
1020.908372647257
 30
0.0
 11
1517.65502898458
 21
1027.612950707899
 31
0.0
  0
ARC
  5
14C0
330
A
100
AcDbEntity
  8
HIDDEN
100
AcDbCircle
 10
1511.5931368649
 20
1018.610234117547
 30
0.0
 40
3.0
100
AcDbArc
 50
129.999845485954
 51
179.0067068118742
  0
LINE
  5
14C1
330
A
100
AcDbEntity
  8
HIDDEN
100
AcDbLine
 10
1454.230795480969
 20
988.2512270399508
 30
0.0
 11
1453.621513215952
 21
1023.392896644186
 31
0.0
  0
LINE
  5
14C2
330
A
100
AcDbEntity
  8
HIDDEN
100
AcDbLine
 10
1498.674104719346
 20
1023.392894674875
 30
0.0
 11
1498.546521876098
 21
1016.034315953181
 31
0.0
  0
LINE
  5
14C3
330
A
100
AcDbEntity
  8
HIDDEN
100
AcDbLine
 10
1498.338466193502
 20
1004.034315953181
 30
0.0
 11
1498.06481938214
 21
988.2512251239045
 31
0.0
  0
LINE
  5
14C4
330
A
100
AcDbEntity
  8
HIDDEN
100
AcDbLine
 10
1508.593587671257
 20
1018.66224022213
 30
0.0
 11
1508.548024789798
 21
1016.034315953181
 31
0.0
  0
ARC
  5
14C5
330
A
100
AcDbEntity
  8
HIDDEN
100
AcDbCircle
 10
1501.673655162969
 20
1023.340887974166
 30
0.0
 40
3.000001260130151
100
AcDbArc
 50
129.999856455457
 51
179.0066958425365
  0
ARC
  5
14C6
330
A
100
AcDbEntity
  8
HIDDEN
100
AcDbCircle
 10
1450.621962767775
 20
1023.34089020571
 30
0.0
 40
3.000001260131097
100
AcDbArc
 50
0.9932991487131456
 51
50.00013853572843
  0
ARC
  5
14CE
330
A
100
AcDbEntity
  8
HIDDEN
100
AcDbCircle
 10
1609.177944436702
 20
1017.093024797844
 30
0.0
 40
6.000001131333244
100
AcDbArc
 50
5.000007144490923
 51
87.99998931527391
  0
ARC
  5
14CF
330
A
100
AcDbEntity
  8
HIDDEN
100
AcDbCircle
 10
1609.177944436702
 20
1017.093024797844
 30
0.0
 40
16.00000113133005
100
AcDbArc
 50
54.13066093400403
 51
87.9999893152789
  0
ARC
  5
14D0
330
A
100
AcDbEntity
  8
HIDDEN
100
AcDbCircle
 10
1620.310782143231
 20
1032.4897766498
 30
0.0
 40
3.0
100
AcDbArc
 50
234.1306609340415
 51
331.2203769352561
  0
ARC
  5
14D1
330
A
100
AcDbEntity
  8
HIDDEN
100
AcDbCircle
 10
1598.202795798043
 20
1017.476146593381
 30
0.0
 40
6.000140368477192
100
AcDbArc
 50
88.0012694877786
 51
174.998725524806
  0
ARC
  5
14D2
330
A
100
AcDbEntity
  8
HIDDEN
100
AcDbCircle
 10
1598.202795798043
 20
1017.476146593381
 30
0.0
 40
16.000140368474
100
AcDbArc
 50
88.00126948777398
 51
152.4566617278645
  0
LINE
  5
14D7
330
A
100
AcDbEntity
  8
HIDDEN
100
AcDbLine
 10
1615.155113687073
 20
1017.61596009824
 30
0.0
 11
1615.310698882768
 21
1015.837677068372
 31
0.0
  0
LINE
  5
14D8
330
A
100
AcDbEntity
  8
MODEL
100
AcDbLine
 10
1618.299283181081
 20
1013.099144179378
 30
0.0
 11
1620.828009352106
 21
1013.099144068842
 31
0.0
  0
ARC
  5
14DB
330
A
100
AcDbEntity
  8
HIDDEN
100
AcDbCircle
 10
1618.299299722003
 20
1016.099162442097
 30
0.0
 40
3.000018262766277
100
AcDbArc
 50
185.0003173597945
 51
269.9996840937582
  0
LINE
  5
14DC
330
A
100
AcDbEntity
  8
HIDDEN
100
AcDbLine
 10
1592.036388373253
 20
1015.837677978944
 30
0.0
 11
1592.225499408949
 21
1017.999226241631
 31
0.0
  0
ARC
  5
14DE
330
A
100
AcDbEntity
  8
HIDDEN
100
AcDbCircle
 10
1589.047787704101
 20
1016.09916343862
 30
0.0
 40
3.00001810082598
100
AcDbArc
 50
270.0003142704078
 51
354.9996807219391
  0
LINE
  5
14E0
330
A
100
AcDbEntity
  8
MODEL
100
AcDbLine
 10
1578.194326243563
 20
1012.868826062328
 30
0.0
 11
1512.645991690672
 21
993.8427945971168
 31
0.0
  0
LINE
  5
14E1
330
A
100
AcDbEntity
  8
HIDDEN
100
AcDbLine
 10
1575.406782381691
 20
1022.472450337472
 30
0.0
 11
1508.339969107179
 21
1004.034315953181
 31
0.0
  0
LINE
  5
14E2
330
A
100
AcDbEntity
  8
MODEL
100
AcDbLine
 10
1583.053137226201
 20
1013.099145599871
 30
0.0
 11
1589.047804159341
 21
1013.099145337834
 31
0.0
  0
ARC
  5
14E4
330
A
100
AcDbEntity
  8
MODEL
100
AcDbCircle
 10
1580.981911388601
 20
1003.265485021188
 30
0.0
 40
9.999739501270813
100
AcDbArc
 50
80.8308659319259
 51
106.1865561943315
  0
ARC
  5
14E5
330
A
100
AcDbEntity
  8
MODEL
100
AcDbCircle
 10
1580.981911388601
 20
1003.265485021188
 30
0.0
 40
19.99973950126762
100
AcDbArc
 50
89.06778342801594
 51
106.1865561943346
  0
ARC
  5
14E6
330
A
100
AcDbEntity
  8
HIDDEN
100
AcDbCircle
 10
1581.356106356125
 20
1026.262180332746
 30
0.0
 40
3.0
100
AcDbArc
 50
269.0677834280146
 51
332.456661727904
  0
ARC
  5
14E9
330
A
100
AcDbEntity
  8
MODEL
100
AcDbCircle
 10
1583.053285866012
 20
1016.099774978121
 30
0.0
 40
3.000629381930696
100
AcDbArc
 50
260.8352424125976
 51
269.9971617845864
  0
LINE
  5
14EA
330
A
100
AcDbEntity
  8
MODEL
100
AcDbLine
 10
1442.101218329014
 20
990.9897603419085
 30
0.0
 11
1439.888053740194
 21
1013.099144474068
 31
0.0
  0
LINE
  5
14EB
330
A
100
AcDbEntity
  8
MODEL
100
AcDbLine
 10
1510.4936623223
 20
991.2231640950599
 30
0.0
 11
1510.404928561386
 21
990.2089330773666
 31
0.0
  0
LINE
  5
14EC
330
A
100
AcDbEntity
  8
MODEL
100
AcDbLine
 10
1507.59181525949
 20
988.2512247074696
 30
0.0
 11
1498.240808781535
 21
988.2512251162118
 31
0.0
  0
LINE
  5
14ED
330
A
100
AcDbEntity
  8
MODEL
100
AcDbLine
 10
1454.440808781532
 20
988.2512270307707
 30
0.0
 11
1445.089802303585
 21
988.2512274395197
 31
0.0
  0
ARC
  5
14EE
330
A
100
AcDbEntity
  8
MODEL
100
AcDbCircle
 10
1507.59179880428
 20
991.2512428082848
 30
0.0
 40
3.000018100859389
100
AcDbArc
 50
270.000314269574
 51
339.6695234529532
  0
ARC
  5
14EF
330
A
100
AcDbEntity
  8
MODEL
100
AcDbCircle
 10
1445.089819021058
 20
991.2512455403266
 30
0.0
 40
3.000018100859311
100
AcDbArc
 50
185.0003142693167
 51
269.9996807220052
  0
LINE
  5
14F0
330
A
100
AcDbEntity
  8
HIDDEN
100
AcDbLine
 10
1656.532200836704
 20
1135.258188059856
 30
0.0
 11
1647.186954732231
 21
1113.152388475876
 31
0.0
  0
LINE
  5
14F1
330
A
100
AcDbEntity
  8
HIDDEN
100
AcDbLine
 10
1641.653458910096
 20
1115.491678673436
 30
0.0
 11
1646.264162654912
 21
1113.542499633503
 31
0.0
  0
LINE
  5
14F2
330
A
100
AcDbEntity
  8
HIDDEN
100
AcDbLine
 10
1655.716769529758
 20
1135.602912357918
 30
0.0
 11
1651.108069246238
 21
1137.551244432838
 31
0.0
  0
LINE
  5
14F3
330
A
100
AcDbEntity
  8
MODEL
100
AcDbLine
 10
1582.434191903743
 20
1013.099146167046
 30
0.0
 11
1582.435369826093
 21
1013.099144572666
 31
0.0
  0
SPLINE
  5
14F4
330
A
100
AcDbEntity
  8
MODEL
100
AcDbSpline
210
0.0
220
0.0
230
1.0
 70
     8
 71
     3
 72
    16
 73
    12
 74
     0
 42
0.000000001
 43
0.0000000001
 40
0.920919275421558
 40
0.920919275421558
 40
0.920919275421558
 40
0.920919275421558
 40
1.035427028779526
 40
1.267063699131841
 40
1.380921658271564
 40
1.495023257945953
 40
1.608201106761857
 40
1.720593636779472
 40
1.832063911143177
 40
1.848631093345449
 40
1.863415236503669
 40
1.863415236503669
 40
1.863415236503669
 40
1.863415236503669
 10
1581.739430485828
 20
1013.183832939267
 30
0.0
 10
1581.767959221917
 20
1013.176782665793
 30
0.0
 10
1581.851783659997
 20
1013.1574556682
 30
0.0
 10
1581.965561085428
 20
1013.136431149553
 30
0.0
 10
1582.079302340393
 20
1013.120677174022
 30
0.0
 10
1582.162417009331
 20
1013.111640348205
 30
0.0
 10
1582.244264012177
 20
1013.105027132788
 30
0.0
 10
1582.328473572914
 20
1013.100805685831
 30
0.0
 10
1582.37858764824
 20
1013.099502034286
 30
0.0
 10
1582.420541614327
 20
1013.099167962177
 30
0.0
 10
1582.429583757479
 20
1013.099152543281
 30
0.0
 10
1582.43384373315
 20
1013.099146646204
 30
0.0
  0
LINE
  5
14F5
330
A
100
AcDbEntity
  8
MODEL
100
AcDbLine
 10
1582.435719228331
 20
1013.099144604643
 30
0.0
 11
1582.439106292066
 21
1013.099144640434
 31
0.0
  0
SPLINE
  5
14F8
330
A
100
AcDbEntity
  8
MODEL
100
AcDbSpline
210
0.0
220
0.0
230
1.0
 70
     8
 71
     3
 72
    18
 73
    14
 74
     0
 42
0.000000001
 43
0.0000000001
 40
2.438669170579179
 40
2.438669170579179
 40
2.438669170579179
 40
2.438669170579179
 40
2.689758367812044
 40
3.138847118978672
 40
3.592118189495467
 40
3.901370100994937
 40
4.301277472181047
 40
4.556298683728995
 40
4.927605253963649
 40
5.185206641280156
 40
5.582424391105399
 40
6.108835373727939
 40
6.503117788211145
 40
6.503117788211145
 40
6.503117788211145
 40
6.503117788211145
 10
1581.874984246253
 20
1013.167809861629
 30
0.0
 10
1581.874861946377
 20
1013.16782538212
 30
0.0
 10
1581.872257902822
 20
1013.168197579053
 30
0.0
 10
1581.85559894353
 20
1013.170499883371
 30
0.0
 10
1581.810201043878
 20
1013.176167616865
 30
0.0
 10
1581.726007755529
 20
1013.185438858495
 30
0.0
 10
1581.606001763259
 20
1013.197101220704
 30
0.0
 10
1581.402096458271
 20
1013.212596037029
 30
0.0
 10
1581.16606949965
 20
1013.225029884645
 30
0.0
 10
1580.856137545281
 20
1013.232126087973
 30
0.0
 10
1580.478329201589
 20
1013.229041292336
 30
0.0
 10
1580.046463457646
 20
1013.205798271582
 30
0.0
 10
1579.743501359259
 20
1013.175493803607
 30
0.0
 10
1579.613862886679
 20
1013.15994375818
 30
0.0
  0
ARC
  5
14F9
330
A
100
AcDbEntity
  8
MODEL
100
AcDbCircle
 10
1580.719898378153
 20
1004.18962914671
 30
0.0
 40
9.03832416432158
100
AcDbArc
 50
97.03828560790505
 51
106.2286723820593
  0
SPLINE
  5
14FA
330
A
100
AcDbEntity
  8
MODEL
100
AcDbSpline
210
0.0
220
0.0
230
1.0
 70
     8
 71
     3
 72
    27
 73
    23
 74
     0
 42
0.000000001
 43
0.0000000001
 40
0.0
 40
0.0
 40
0.0
 40
0.0
 40
0.4771193103563767
 40
0.951212209089021
 40
1.421419607931999
 40
1.891208743812182
 40
2.356596555066425
 40
2.821608293092488
 40
3.282920224621721
 40
3.743890727111406
 40
4.20154215005565
 40
4.658883549865862
 40
5.113501108994233
 40
5.567833506230817
 40
6.019770251000623
 40
6.471443832444686
 40
6.921049495312533
 40
7.370410940025233
 40
8.031294696367235
 40
8.691688946807941
 40
9.348906166364007
 40
10.00567775099757
 40
10.00567775099757
 40
10.00567775099757
 40
10.00567775099757
 10
1575.347117881149
 20
1012.009271726919
 30
0.0
 10
1575.411221309801
 20
1012.029060501995
 30
0.0
 10
1575.536520511221
 20
1012.067692809422
 30
0.0
 10
1575.71934921329
 20
1012.123919605827
 30
0.0
 10
1575.88835928337
 20
1012.175770798979
 30
0.0
 10
1576.061906925261
 20
1012.228877368627
 30
0.0
 10
1576.216577339572
 20
1012.27608837772
 30
0.0
 10
1576.377056343274
 20
1012.324948437378
 30
0.0
 10
1576.519801513448
 20
1012.368299160674
 30
0.0
 10
1576.668253053464
 20
1012.413269510191
 30
0.0
 10
1576.799573002008
 20
1012.452950386495
 30
0.0
 10
1576.936294143477
 20
1012.494161652478
 30
0.0
 10
1577.057639986499
 20
1012.530648478224
 30
0.0
 10
1577.183993971255
 20
1012.568549750392
 30
0.0
 10
1577.295798414871
 20
1012.602006766287
 30
0.0
 10
1577.412369426678
 20
1012.63680922319
 30
0.0
 10
1577.515315118853
 20
1012.667473708982
 30
0.0
 10
1577.639884463675
 20
1012.704496442723
 30
0.0
 10
1577.760142041658
 20
1012.740142473075
 30
0.0
 10
1577.907678355627
 20
1012.783747273902
 30
0.0
 10
1578.01653069742
 20
1012.815794345054
 30
0.0
 10
1578.127874347625
 20
1012.848606901859
 30
0.0
 10
1578.148788278977
 20
1012.854679174929
 30
0.0
  0
SPLINE
  5
14FB
330
A
100
AcDbEntity
  8
MODEL
100
AcDbSpline
210
0.0
220
0.0
230
1.0
 70
     8
 71
     3
 72
    15
 73
    11
 74
     0
 42
0.000000001
 43
0.0000000001
 40
4.371153050211449
 40
4.371153050211449
 40
4.371153050211449
 40
4.371153050211449
 40
4.578831669779744
 40
5.045473400334554
 40
5.513821698046487
 40
5.984026583541366
 40
6.455961865674919
 40
6.930013240882918
 40
7.40583218619147
 40
9.913232985457135
 40
9.913232985457135
 40
9.913232985457135
 40
9.913232985457135
 10
1529.110756859543
 20
998.6180948031079
 30
0.0
 10
1529.110756896214
 20
998.6180946903448
 30
0.0
 10
1529.109938817044
 20
998.6178665815207
 30
0.0
 10
1529.100565590034
 20
998.6152554313849
 30
0.0
 10
1529.089092859347
 20
998.6120477245968
 30
0.0
 10
1529.063502010544
 20
998.6048665932949
 30
0.0
 10
1529.038152278463
 20
998.5977279529948
 30
0.0
 10
1528.997872480268
 20
998.5863534257269
 30
0.0
 10
1528.891934934389
 20
998.556303438626
 30
0.0
 10
1528.80390652642
 20
998.5314078366468
 30
0.0
 10
1528.644651879713
 20
998.4856149204029
 30
0.0
  0
SPLINE
  5
14FC
330
A
100
AcDbEntity
  8
MODEL
100
AcDbSpline
210
0.0
220
0.0
230
1.0
 70
     8
 71
     3
 72
    11
 73
     7
 74
     0
 42
0.000000001
 43
0.0000000001
 40
0.1950319293507427
 40
0.1950319293507427
 40
0.1950319293507427
 40
0.1950319293507427
 40
13.31295798893526
 40
24.00263468139515
 40
34.6932549883182
 40
48.42085461914728
 40
48.42085461914728
 40
48.42085461914728
 40
48.42085461914728
 10
1529.028270183557
 20
998.5949354743827
 30
0.0
 10
1533.252823962215
 20
999.7216479041638
 30
0.0
 10
1540.903940810986
 20
1001.826449962141
 30
0.0
 10
1551.958942436035
 20
1004.988443627514
 30
0.0
 10
1563.183732720852
 20
1008.294239443549
 30
0.0
 10
1570.97148677929
 20
1010.658053861979
 30
0.0
 10
1575.343176834886
 20
1012.007800817552
 30
0.0
  0
ARC
  5
1501
330
A
100
AcDbEntity
  8
HIDDEN
100
AcDbCircle
 10
1645.29069951901
 20
1111.239812176839
 30
0.0
 40
2.5
100
AcDbArc
 50
334.3508657835719
 51
67.08374645755244
  0
LINE
  5
1502
330
A
100
AcDbEntity
  8
HIDDEN
100
AcDbLine
 10
1498.338466193502
 20
1004.034315953181
 30
0.0
 11
1508.339969107179
 21
1004.034315953181
 31
0.0
  0
LINE
  5
1503
330
A
100
AcDbEntity
  8
HIDDEN
100
AcDbLine
 10
1498.546521876098
 20
1016.034315953181
 30
0.0
 11
1508.548024789798
 21
1016.034315953181
 31
0.0
  0
ARC
  5
1504
330
A
100
AcDbEntity
  8
HIDDEN
100
AcDbCircle
 10
1504.724141399292
 20
1009.924985592534
 30
0.0
 40
8.688320142276414
100
AcDbArc
 50
135.3125549149954
 51
222.6874450732337
  0
CIRCLE
  5
1516
330
A
100
AcDbEntity
  8
MODEL
100
AcDbCircle
 10
564.7041308844978
 20
1128.099133631081
 30
0.0
 40
12.0
  0
DIMENSION
  5
15F6
102
{ACAD_REACTORS
330
15F8
102
}
102
{ACAD_XDICTIONARY
360
15F7
102
}
330
A
100
AcDbEntity
  8
DIM
  6
Continuous
100
AcDbDimension
  2
*D6
 10
774.7041217841825
 20
2333.765831238008
 30
0.0
 11
564.7041308456587
 21
2365.765831238008
 31
0.0
 70
    32
 71
     5
 42
419.9999818770474
 73
     0
 74
     0
 75
     0
  3
tfrom線あり
100
AcDbAlignedDimension
 13
354.704139907135
 23
2023.765840299484
 33
0.0
 14
774.7041217841825
 24
2023.765840299484
 34
0.0
100
AcDbRotatedDimension
1001
ACAD
1000
DSTYLE
1002
{
1070
     3
1000
Φ<>
1002
}
  0
DIMENSION
  5
1605
330
A
100
AcDbEntity
  8
DIM
  6
Continuous
100
AcDbDimension
  2
*D7
 10
744.7041226614292
 20
1713.76584936096
 30
0.0
 11
564.7041306002407
 21
1745.76584936096
 31
0.0
 70
    32
 71
     5
 42
359.9999841223771
 73
     0
 74
     0
 75
     0
  3
tfrom線あり
100
AcDbAlignedDimension
 13
384.7041385390521
 23
1915.599306825393
 33
0.0
 14
744.7041226614292
 24
1915.599306008592
 34
0.0
100
AcDbRotatedDimension
1001
ACAD
1000
DSTYLE
1002
{
1070
     3
1000
Φ<>
1002
}
  0
CIRCLE
  5
1615
330
A
100
AcDbEntity
  8
HIDDEN
100
AcDbCircle
 10
1476.176303254999
 20
2023.765840334196
 30
0.0
 40
21.90000000000146
  0
CIRCLE
  5
1616
330
A
100
AcDbEntity
  8
HIDDEN
100
AcDbCircle
 10
1476.176302970749
 20
2023.765840452884
 30
0.0
 40
179.9999920611886
  0
ARC
  5
1617
330
A
100
AcDbEntity
  8
HIDDEN
100
AcDbCircle
 10
1476.176303254999
 20
2023.765840334196
 30
0.0
 40
42.72234576403497
100
AcDbArc
 50
0.0
 51
179.9999999995499
  0
ARC
  5
1618
330
A
100
AcDbEntity
  8
HIDDEN
100
AcDbCircle
 10
1476.176303254999
 20
2023.765840334196
 30
0.0
 40
42.72234576403498
100
AcDbArc
 50
180.0
 51
359.9999999995512
  0
SPLINE
  5
1619
330
A
100
AcDbEntity
  8
HIDDEN
100
AcDbSpline
210
0.0
220
0.0
230
1.0
 70
    11
 71
     3
 72
    81
 73
    77
 74
     0
 42
0.000000001
 43
0.0000000001
 40
0.0
 40
0.0
 40
0.0
 40
0.0
 40
1.224930108875405
 40
2.450127698796913
 40
3.675464742513272
 40
4.901113922651644
 40
6.126529199931045
 40
7.353080706252434
 40
8.579945170456355
 40
9.807247243600525
 40
11.03532768185562
 40
12.26350478070258
 40
13.49293231939903
 40
14.72240931312342
 40
15.95276470553387
 40
17.18345128945199
 40
18.41444225600304
 40
19.64619274371796
 40
20.87765523414513
 40
22.10989180211759
 40
23.34158924776354
 40
24.57365973602957
 40
25.80535285445011
 40
27.03674263598382
 40
28.26812554871368
 40
29.49849190000854
 40
30.72902782792486
 40
31.95850567364092
 40
33.18769876808076
 40
34.41619485128832
 40
35.64394462229612
 40
36.87152000449586
 40
38.09806599228414
 40
39.32465002169695
 40
40.55032398681983
 40
41.77597672374854
 40
43.00121089212455
 40
44.22619951518821
 40
45.45140596140311
 40
46.67611436856422
 40
47.90148371898101
 40
49.1266084849692
 40
50.35225619035982
 40
51.57818568427813
 40
52.80437787146186
 40
54.03144684132031
 40
55.25854843292962
 40
56.48675471851507
 40
57.71502170934929
 40
58.94421517882129
 40
60.17381657481386
 40
61.403849461394
 40
62.63473476747021
 40
63.86541657737983
 40
65.09710222145547
 40
66.32852446648107
 40
67.560359682459
 40
68.79220505126186
 40
70.02376463503876
 40
71.25566090242461
 40
72.48672817685866
 40
73.71806114093839
 40
74.9484493174105
 40
76.17869109552964
 40
77.40831119223235
 40
78.63723682774557
 40
79.86598561912756
 40
81.09356909855373
 40
82.32118252667838
 40
83.54786359797131
 40
84.77427585368928
 40
86.00024816986527
 40
87.22555092709
 40
88.45100457100408
 40
89.67613816818479
 40
90.90110704035992
 40
90.90110704035992
 40
90.90110704035992
 40
90.90110704035992
 10
1490.480856411914
 20
2191.496490325007
 30
0.0
 10
1490.480670758565
 20
2191.655315443939
 30
0.0
 10
1490.446034721861
 20
2191.97553848608
 30
0.0
 10
1490.291643454801
 20
2192.454611278264
 30
0.0
 10
1490.035876958294
 20
2192.930365439402
 30
0.0
 10
1489.6805731927
 20
2193.398759273536
 30
0.0
 10
1489.228200631462
 20
2193.85638127061
 30
0.0
 10
1488.68192308102
 20
2194.299632082576
 30
0.0
 10
1488.045471071802
 20
2194.725042111403
 30
0.0
 10
1487.323426533823
 20
2195.129096797828
 30
0.0
 10
1486.520951665987
 20
2195.508440569463
 30
0.0
 10
1485.643519148854
 20
2195.859995199226
 30
0.0
 10
1484.697651717548
 20
2196.180657115541
 30
0.0
 10
1483.689712796308
 20
2196.467782475096
 30
0.0
 10
1482.627328787841
 20
2196.718744378053
 30
0.0
 10
1481.517908976368
 20
2196.931383238883
 30
0.0
 10
1480.369466068432
 20
2197.103789653497
 30
0.0
 10
1479.190603663743
 20
2197.234372184107
 30
0.0
 10
1477.98937164348
 20
2197.321993010371
 30
0.0
 10
1476.775266179595
 20
2197.365800211704
 30
0.0
 10
1475.556418751627
 20
2197.365419923003
 30
0.0
 10
1474.342387211318
 20
2197.320851527101
 30
0.0
 10
1473.141642824214
 20
2197.232498031787
 30
0.0
 10
1471.963029471086
 20
2197.101164175965
 30
0.0
 10
1470.815383654137
 20
2196.928081695338
 30
0.0
 10
1469.706542170721
 20
2196.714736728735
 30
0.0
 10
1468.645098278588
 20
2196.463149172949
 30
0.0
 10
1467.638183868175
 20
2196.175429904266
 30
0.0
 10
1466.693370901694
 20
2195.854191868013
 30
0.0
 10
1465.817262181567
 20
2195.502168024319
 30
0.0
 10
1465.016035386556
 20
2195.12233127431
 30
0.0
 10
1464.295498576632
 20
2194.717923911329
 30
0.0
 10
1463.660558424874
 20
2194.292179376051
 30
0.0
 10
1463.115849003892
 20
2193.848650013205
 30
0.0
 10
1462.665079830416
 20
2193.390775836595
 30
0.0
 10
1462.311462923031
 20
2192.922188269697
 30
0.0
 10
1462.057453267209
 20
2192.446443262403
 30
0.0
 10
1461.904811566388
 20
2191.967106107804
 30
0.0
 10
1461.854625457212
 20
2191.48772888019
 30
0.0
 10
1461.90722658394
 20
2191.01172848778
 30
0.0
 10
1462.062242592967
 20
2190.542498769245
 30
0.0
 10
1462.318611525179
 20
2190.083235409884
 30
0.0
 10
1462.674493163539
 20
2189.637092020951
 30
0.0
 10
1463.127418952905
 20
2189.206992823989
 30
0.0
 10
1463.674207914662
 20
2188.795714406677
 30
0.0
 10
1464.310966250703
 20
2188.405905563394
 30
0.0
 10
1465.033333281002
 20
2188.039919263782
 30
0.0
 10
1465.835978795249
 20
2187.700100280571
 30
0.0
 10
1466.713480554185
 20
2187.388379383373
 30
0.0
 10
1467.659319182361
 20
2187.106696547553
 30
0.0
 10
1468.666936559695
 20
2186.856634330373
 30
0.0
 10
1469.729097133872
 20
2186.639643596656
 30
0.0
 10
1470.837918320873
 20
2186.457005062349
 30
0.0
 10
1471.985877916593
 20
2186.309677591481
 30
0.0
 10
1473.164008523154
 20
2186.198570181481
 30
0.0
 10
1474.364408586223
 20
2186.12424116023
 30
0.0
 10
1475.577827758758
 20
2186.087141394579
 30
0.0
 10
1476.795621539501
 20
2186.087462113559
 30
0.0
 10
1478.009055620225
 20
2186.125209346518
 30
0.0
 10
1479.208845621904
 20
2186.200154140461
 30
0.0
 10
1480.386896832495
 20
2186.311923139481
 30
0.0
 10
1481.533929391377
 20
2186.459823628809
 30
0.0
 10
1482.642253047006
 20
2186.643099612874
 30
0.0
 10
1483.703428176223
 20
2186.860646967852
 30
0.0
 10
1484.710024070815
 20
2187.11125916732
 30
0.0
 10
1485.65486499066
 20
2187.393506923787
 30
0.0
 10
1486.530980182053
 20
2187.705674655747
 30
0.0
 10
1487.332425919054
 20
2188.046014772038
 30
0.0
 10
1488.05325680036
 20
2188.41237454145
 30
0.0
 10
1488.68856751143
 20
2188.80260962078
 30
0.0
 10
1489.233773680045
 20
2189.214228972027
 30
0.0
 10
1489.685038796966
 20
2189.64461760422
 30
0.0
 10
1490.039237463627
 20
2190.091011172063
 30
0.0
 10
1490.293874178335
 20
2190.550449938201
 30
0.0
 10
1490.447150295278
 20
2191.019871805515
 30
0.0
 10
1490.481042591824
 20
2191.337214733824
 30
0.0
 10
1490.480856411914
 20
2191.496490325007
 30
0.0
  0
CIRCLE
  5
161A
102
{ACAD_REACTORS
330
15F8
330
1749
102
}
330
A
100
AcDbEntity
  8
HIDDEN
100
AcDbCircle
 10
1476.176303216167
 20
2023.765840376184
 30
0.0
 40
209.9999909385238
  0
DIMENSION
  5
1635
330
A
100
AcDbEntity
  8
DIM
  6
Continuous
100
AcDbDimension
  2
*D8
 10
1478.054524686331
 20
1038.099149256807
 30
0.0
 11
1478.054524686331
 21
1272.115149256807
 31
0.0
 70
   160
 71
     5
 42
125.0
 73
     0
 74
     1
 75
     1
  3
tfrom線あり
100
AcDbAlignedDimension
 13
1477.602788969008
 23
1163.099149256807
 33
0.0
 14
1477.602788969008
 24
1038.099149256807
 34
0.0
 50
90.0
100
AcDbRotatedDimension
1001
ACAD
1000
DSTYLE
1002
{
1070
     3
1000
<>(深さ)
1070
   172
1070
     1
1002
}
  0
DIMENSION
  5
1653
330
A
100
AcDbEntity
  8
DIM
  6
Continuous
100
AcDbDimension
  2
*D10
 10
874.7041160375643
 20
988.2700226499519
 30
0.0
 11
842.7041160375643
 21
1075.68458595338
 31
0.0
 70
    32
 71
     5
 42
174.8291266068552
 73
     0
 74
     0
 75
     0
  3
tfrom線あり
100
AcDbAlignedDimension
 13
768.7187451393556
 23
1163.099149256807
 33
0.0
 14
595.9551373624322
 24
988.2700226499519
 34
0.0
 50
90.0
100
AcDbRotatedDimension
  0
DIMENSION
  5
1662
102
{ACAD_REACTORS
330
1664
102
}
102
{ACAD_XDICTIONARY
360
1663
102
}
330
A
100
AcDbEntity
  8
DIM
  6
Continuous
100
AcDbDimension
  2
*D11
 10
1166.430153081356
 20
1013.099156717185
 30
0.0
 11
1134.430153081356
 21
1088.099161281404
 31
0.0
 70
    32
 71
     5
 42
150.000009128438
 73
     0
 74
     0
 75
     0
  3
tfrom線あり
100
AcDbAlignedDimension
 13
1272.176312539927
 23
1163.099165845623
 33
0.0
 14
1331.467607683287
 24
1013.099156717185
 34
0.0
 50
90.0
100
AcDbRotatedDimension
  0
DIMENSION
  5
1671
330
A
100
AcDbEntity
  8
DIM
  6
Continuous
100
AcDbDimension
  2
*D12
 10
713.4227967414699
 20
913.0991505956263
 30
0.0
 11
563.6052843287034
 21
945.0991505956263
 31
0.0
 70
    32
 71
     5
 42
299.635024825533
 73
     0
 74
     0
 75
     0
  3
tfrom線あり
100
AcDbAlignedDimension
 13
413.7877719159369
 23
1013.971341243568
 33
0.0
 14
713.4227967414699
 24
1013.908889810284
 34
0.0
100
AcDbRotatedDimension
  0
MTEXT
  5
1680
330
A
100
AcDbEntity
  8
TEMPLATE
390
1D
100
AcDbMText
 10
1329.20214454799
 20
226.3922307078679
 30
0.0
 40
24.4326171875
 41
0.0
 46
24.4326171875
 71
     1
 72
     1
  1
{8kg}
  7
ＭＳ ゴシック
 73
     1
 44
0.7828267384257843
1001
ACAD
1000
ACAD_MTEXT_DEFINED_HEIGHT_BEGIN
1070
    46
1040
24.4326171875
1000
ACAD_MTEXT_DEFINED_HEIGHT_END
  0
MTEXT
  5
1681
330
A
100
AcDbEntity
  8
TEMPLATE
390
1D
100
AcDbMText
 10
1580.075137543694
 20
226.3922307078679
 30
0.0
 40
24.4326171875
 41
0.0
 46
24.4326171875
 71
     1
 72
     1
  1
{4L}
  7
ＭＳ ゴシック
 73
     1
 44
0.7828267384257843
1001
ACAD
1000
ACAD_MTEXT_DEFINED_HEIGHT_BEGIN
1070
    46
1040
24.4326171875
1000
ACAD_MTEXT_DEFINED_HEIGHT_END
  0
MTEXT
  5
16B9
330
A
100
AcDbEntity
  8
TEMPLATE
390
1D
100
AcDbMText
 10
1329.352414831756
 20
2383.710105052089
 30
0.0
 40
24.4326171875
 41
0.0
 46
24.4326171875
 71
     1
 72
     1
  1
{カウンター切込寸法}
  7
ＭＳ ゴシック
 73
     1
 44
0.7828267384257843
1001
ACAD
1000
ACAD_MTEXT_DEFINED_HEIGHT_BEGIN
1070
    46
1040
24.4326171875
1000
ACAD_MTEXT_DEFINED_HEIGHT_END
  0
MTEXT
  5
16EE
330
A
100
AcDbEntity
  8
DIM
390
1D
100
AcDbMText
 10
1123.825482964178
 20
1670.474820337784
 30
0.0
 40
24.4326171875
 41
0.0
 46
118.0991272786459
 71
     1
 72
     1
  1
{\fメイリオ|b0|i0|c0|p0;※\fＭＳ ゴシック|b0|i0|c0|p0;陶器製品には寸法公差があります。\P  洗面器の収め方をご確認の上、必ず現物を合わせて\P  カウンターに切込を行ってください。}
  7
ＭＳ ゴシック
 73
     1
 44
1.1
1001
ACAD
1000
ACAD_MTEXT_DEFINED_HEIGHT_BEGIN
1070
    46
1040
118.0991272786459
1000
ACAD_MTEXT_DEFINED_HEIGHT_END
  0
DIMENSION
  5
16EF
102
{ACAD_REACTORS
330
16F1
102
}
102
{ACAD_XDICTIONARY
360
16F0
102
}
330
A
100
AcDbEntity
  8
MODEL
  6
Continuous
100
AcDbDimension
  2
*D16
 10
1476.340808781534
 20
914.0803490782747
 30
0.0
 11
1581.23006306408
 21
946.0803490782747
 31
0.0
 70
    32
 71
     5
 42
209.778508565093
 73
     0
 74
     0
 75
     0
  3
tfrom線あり
100
AcDbAlignedDimension
 13
1686.119317346627
 23
1157.099148013866
 33
0.0
 14
1476.340808781534
 24
988.2512260734912
 34
0.0
100
AcDbRotatedDimension
  0
LINE
  5
1705
102
{ACAD_REACTORS
330
172B
330
173A
330
1780
102
}
330
A
100
AcDbEntity
  8
MODEL
  6
Continuous
100
AcDbLine
 10
1426.176302970749
 20
1973.765831314708
 30
0.0
 11
1526.176302970749
 21
1973.765831314708
 31
0.0
  0
LINE
  5
1706
102
{ACAD_REACTORS
330
173A
330
1780
102
}
330
A
100
AcDbEntity
  8
MODEL
  6
Continuous
100
AcDbLine
 10
1426.176302970749
 20
2133.765831314708
 30
0.0
 11
1526.176302970749
 21
2133.765831314708
 31
0.0
  0
LINE
  5
1707
102
{ACAD_REACTORS
330
171B
330
172B
330
1780
102
}
330
A
100
AcDbEntity
  8
MODEL
  6
Continuous
100
AcDbLine
 10
1426.176302970749
 20
1973.765831314708
 30
0.0
 11
1426.176302970749
 21
2133.765831314708
 31
0.0
  0
LINE
  5
1708
102
{ACAD_REACTORS
330
1780
102
}
330
A
100
AcDbEntity
  8
MODEL
  6
Continuous
100
AcDbLine
 10
1526.176302970749
 20
1973.765831314708
 30
0.0
 11
1526.176302970749
 21
2133.765831314708
 31
0.0
  0
DIMENSION
  5
1709
102
{ACAD_REACTORS
330
170B
102
}
102
{ACAD_XDICTIONARY
360
170A
102
}
330
A
100
AcDbEntity
  8
DIM
  6
Continuous
100
AcDbDimension
  2
*D17
 10
1359.558336612289
 20
1973.765831314708
 30
0.0
 11
1327.558336612289
 21
1998.765831314708
 31
0.0
 70
    32
 71
     5
 42
50.0
 73
     0
 74
     1
 75
     1
  3
tfrom線あり
100
AcDbAlignedDimension
 13
1426.176302970749
 23
2023.765831314708
 33
0.0
 14
1426.176302970749
 24
1973.765831314708
 34
0.0
 50
90.0
100
AcDbRotatedDimension
1001
ACAD
1000
DSTYLE
1002
{
1070
   172
1070
     1
1002
}
  0
DIMENSION
  5
1719
102
{ACAD_REACTORS
330
171B
102
}
102
{ACAD_XDICTIONARY
360
171A
102
}
330
A
100
AcDbEntity
  8
DIM
  6
Continuous
100
AcDbDimension
  2
*D18
 10
1359.558336612289
 20
2133.765831314708
 30
0.0
 11
1327.558336612289
 21
2078.765831314708
 31
0.0
 70
    32
 71
     5
 42
110.0
 73
     0
 74
     0
 75
     0
  3
tfrom線あり
100
AcDbAlignedDimension
 13
1426.176302970749
 23
2023.765831314708
 33
0.0
 14
1426.176302970749
 24
2133.765831314708
 34
0.0
 50
90.0
100
AcDbRotatedDimension
  0
DIMENSION
  5
1729
102
{ACAD_REACTORS
330
172B
102
}
102
{ACAD_XDICTIONARY
360
172A
102
}
330
A
100
AcDbEntity
  8
DIM
  6
Continuous
100
AcDbDimension
  2
*D19
 10
1526.176302970749
 20
1907.693180604883
 30
0.0
 11
1476.176302970749
 21
1939.693180604883
 31
0.0
 70
    32
 71
     5
 42
100.0
 73
     0
 74
     0
 75
     0
  3
tfrom線あり
100
AcDbAlignedDimension
 13
1426.176302970749
 23
1973.765831314708
 33
0.0
 14
1526.176302970749
 24
1973.765831314708
 34
0.0
100
AcDbRotatedDimension
  0
DIMENSION
  5
1738
102
{ACAD_REACTORS
330
173A
102
}
102
{ACAD_XDICTIONARY
360
1739
102
}
330
A
100
AcDbEntity
  8
DIM
  6
Continuous
100
AcDbDimension
  2
*D20
 10
1595.157082761809
 20
2133.765831314708
 30
0.0
 11
1563.157082761809
 21
2053.765831314708
 31
0.0
 70
    32
 71
     5
 42
160.0
 73
     0
 74
     0
 75
     0
  3
tfrom線あり
100
AcDbAlignedDimension
 13
1526.176302970749
 23
1973.765831314708
 33
0.0
 14
1526.176302970749
 24
2133.765831314708
 34
0.0
 50
90.0
100
AcDbRotatedDimension
  0
DIMENSION
  5
1747
102
{ACAD_REACTORS
330
1749
102
}
102
{ACAD_XDICTIONARY
360
1748
102
}
330
A
100
AcDbEntity
  8
DIM
  6
Continuous
100
AcDbDimension
  2
*D21
 10
1248.195269817345
 20
2233.765831314708
 30
0.0
 11
1216.195269817345
 21
2128.765831314708
 31
0.0
 70
    32
 71
     5
 42
210.0
 73
     0
 74
     0
 75
     0
  3
tfrom線あり
100
AcDbAlignedDimension
 13
1426.176302970749
 23
2023.765831314708
 33
0.0
 14
1476.176303216167
 24
2233.765831314708
 34
0.0
 50
90.0
100
AcDbRotatedDimension
  0
HATCH
  5
1780
330
A
100
AcDbEntity
  8
MODEL
  6
Continuous
100
AcDbHatch
 10
0.0
 20
0.0
 30
0.0
210
0.0
220
0.0
230
1.0
  2
ANSI31
 70
     0
 71
     1
 91
        1
 92
        1
 93
        4
 72
     1
 10
1426.176302970749
 20
2133.765831314708
 11
1526.176302970749
 21
2133.765831314708
 72
     1
 10
1426.176302970749
 20
1973.765831314708
 11
1426.176302970749
 21
2133.765831314708
 72
     1
 10
1526.176302970749
 20
1973.765831314708
 11
1526.176302970749
 21
2133.765831314708
 72
     1
 10
1426.176302970749
 20
1973.765831314708
 11
1526.176302970749
 21
1973.765831314708
 97
        4
330
1706
330
1707
330
1708
330
1705
 75
     0
 76
     1
 52
0.0
 41
10.0
 77
     0
 78
     1
 53
45.0
 43
0.0
 44
0.0
 45
-22.45064030267288
 46
22.45064030267288
 79
     0
 98
        1
 10
0.0
 20
0.0
1001
ACAD
1010
0.0
1020
0.0
1030
0.0
  0
VIEWPORT
  5
349
330
B
100
AcDbEntity
 67
     1
  8
0
100
AcDbViewport
 10
202.5
 20
128.5
 30
0.0
 40
486.0
 41
308.4
 68
     1
 69
     1
 12
202.5
 22
128.5
 13
0.0
 23
0.0
 14
0.5
 24
0.5
 15
0.0
 25
0.0
 16
0.0
 26
0.0
 36
1.0
 17
0.0
 27
0.0
 37
0.0
 42
50.0
 43
0.0
 44
0.0
 45
308.4
 50
0.0
 51
0.0
 72
   100
 90
   557152
  1

281
     0
 71
     1
 74
     0
110
0.0
120
0.0
130
0.0
111
1.0
121
0.0
131
0.0
112
0.0
122
1.0
132
0.0
 79
     0
146
0.0
170
     0
 61
     5
348
26C
292
     1
282
     1
141
0.0
142
0.0
 63
   256
  0
VIEWPORT
  5
34A
330
B
100
AcDbEntity
 67
     1
  8
0
100
AcDbViewport
 10
202.5
 20
128.5
 30
0.0
 40
324.0
 41
205.6
 68
     2
 69
     2
 12
986.6781359294573
 22
1427.077061889956
 13
0.0
 23
0.0
 14
0.5
 24
0.5
 15
0.0
 25
0.0
 16
0.0
 26
0.0
 36
1.0
 17
0.0
 27
0.0
 37
0.0
 42
50.0
 43
0.0
 44
0.0
 45
2890.021615685494
 50
0.0
 51
0.0
 72
   100
 90
   557152
  1

281
     0
 71
     1
 74
     0
110
0.0
120
0.0
130
0.0
111
1.0
121
0.0
131
0.0
112
0.0
122
1.0
132
0.0
 79
     0
146
0.0
170
     0
 61
     5
348
26C
292
     1
282
     1
141
0.0
142
0.0
 63
   256
  0
ENDSEC
  0
SECTION
  2
OBJECTS
  0
DICTIONARY
  5
19
330
0
100
AcDbDictionary
281
     1
  3
ACAD_COLOR
350
674
  3
ACAD_DETAILVIEWSTYLE
350
BBF
  3
ACAD_GROUP
350
1A
  3
ACAD_IMAGE_VARS
350
27B
  3
ACAD_LAYOUT
350
1E
  3
ACAD_MATERIAL
350
263
  3
ACAD_MLEADERSTYLE
350
336
  3
ACAD_MLINESTYLE
350
1B
  3
ACAD_PLOTSETTINGS
350
22
  3
ACAD_PLOTSTYLENAME
350
1F
  3
ACAD_SCALELIST
350
241
  3
ACAD_SECTIONVIEWSTYLE
350
BC0
  3
ACAD_TABLESTYLE
350
278
  3
ACAD_VISUALSTYLE
350
267
  3
ACDB_RECOMPOSE_DATA
350
1789
  3
AcDbVariableDictionary
350
330
  3
APPDATA
350
27A
  0
SUN
  5
904
330
15
100
AcDbSun
 90
        1
290
     0
 63
     7
421
 16777215
 40
1.0
291
     1
 91
  2455826
 92
 54000000
292
     0
 70
     2
 71
   256
280
     1
  0
DICTIONARY
  5
2E1
330
2
100
AcDbDictionary
280
     1
281
     1
  3
ACAD_LAYERSTATES
360
2E2
  3
ACLYDICTIONARY
360
D22
  0
DICTIONARY
  5
15F7
330
15F6
100
AcDbDictionary
280
     1
281
     1
  3
ACAD_DIMASSOC
360
15F8
  0
DICTIONARY
  5
1663
330
1662
100
AcDbDictionary
280
     1
281
     1
  3
ACAD_DIMASSOC
360
1664
  0
DICTIONARY
  5
16F0
330
16EF
100
AcDbDictionary
280
     1
281
     1
  3
ACAD_DIMASSOC
360
16F1
  0
DICTIONARY
  5
170A
330
1709
100
AcDbDictionary
280
     1
281
     1
  3
ACAD_DIMASSOC
360
170B
  0
DICTIONARY
  5
171A
330
1719
100
AcDbDictionary
280
     1
281
     1
  3
ACAD_DIMASSOC
360
171B
  0
DICTIONARY
  5
172A
330
1729
100
AcDbDictionary
280
     1
281
     1
  3
ACAD_DIMASSOC
360
172B
  0
DICTIONARY
  5
1739
330
1738
100
AcDbDictionary
280
     1
281
     1
  3
ACAD_DIMASSOC
360
173A
  0
DICTIONARY
  5
1748
330
1747
100
AcDbDictionary
280
     1
281
     1
  3
ACAD_DIMASSOC
360
1749
  0
DICTIONARY
  5
674
102
{ACAD_REACTORS
330
19
102
}
330
19
100
AcDbDictionary
281
     1
  0
DICTIONARY
  5
BBF
102
{ACAD_REACTORS
330
19
102
}
330
19
100
AcDbDictionary
281
     1
  0
DICTIONARY
  5
1A
102
{ACAD_REACTORS
330
19
102
}
330
19
100
AcDbDictionary
281
     1
  0
RASTERVARIABLES
  5
27B
102
{ACAD_REACTORS
330
19
102
}
330
19
100
AcDbRasterVariables
 90
        0
 70
     1
 71
     1
 72
     1
  0
DICTIONARY
  5
1E
102
{ACAD_REACTORS
330
19
102
}
330
19
100
AcDbDictionary
281
     1
  3
Layout1
350
21
  3
Model
350
20
  0
DICTIONARY
  5
263
102
{ACAD_REACTORS
330
19
102
}
330
19
100
AcDbDictionary
281
     1
  3
ByBlock
350
16CF
  3
ByLayer
350
264
  3
Global
350
266
  0
DICTIONARY
  5
336
102
{ACAD_REACTORS
330
19
102
}
330
19
100
AcDbDictionary
281
     1
  0
DICTIONARY
  5
1B
102
{ACAD_REACTORS
330
19
102
}
330
19
100
AcDbDictionary
281
     1
  3
Standard
350
1C
  0
DICTIONARY
  5
22
102
{ACAD_REACTORS
330
19
102
}
330
19
100
AcDbDictionary
281
     1
  0
ACDBDICTIONARYWDFLT
  5
1F
102
{ACAD_REACTORS
330
19
102
}
330
19
100
AcDbDictionary
281
     1
  3
Normal
350
1D
100
AcDbDictionaryWithDefault
340
1D
  0
DICTIONARY
  5
241
102
{ACAD_REACTORS
330
19
102
}
330
19
100
AcDbDictionary
281
     1
  3
A0
350
242
  3
A1
350
243
  3
A2
350
244
  3
A3
350
245
  3
A4
350
246
  3
A5
350
247
  3
A6
350
248
  3
A7
350
249
  3
A8
350
24A
  3
A9
350
24B
  3
B0
350
24C
  3
B1
350
24D
  3
B2
350
24E
  3
B3
350
24F
  3
B4
350
250
  3
B5
350
251
  3
B6
350
252
  3
B7
350
253
  3
B8
350
254
  3
B9
350
255
  3
C0
350
256
  3
C1
350
257
  3
C2
350
258
  3
C3
350
259
  3
C4
350
25A
  3
C5
350
25B
  3
C6
350
25C
  3
C7
350
25D
  3
C8
350
25E
  3
C9
350
25F
  3
D0
350
260
  3
D1
350
261
  3
D2
350
262
  0
DICTIONARY
  5
BC0
102
{ACAD_REACTORS
330
19
102
}
330
19
100
AcDbDictionary
281
     1
  0
DICTIONARY
  5
278
102
{ACAD_REACTORS
330
19
102
}
330
19
100
AcDbDictionary
281
     1
  3
Standard
350
279
  0
DICTIONARY
  5
267
102
{ACAD_REACTORS
330
19
102
}
330
19
100
AcDbDictionary
281
     1
  3
2dWireframe
350
26C
  3
3D Hidden
350
26E
  3
3dWireframe
350
26D
  3
Basic
350
26F
  3
Brighten
350
273
  3
ColorChange
350
277
  3
Conceptual
350
271
  3
Dim
350
272
  3
EdgeColorOff
350
8FE
  3
Facepattern
350
276
  3
Flat
350
268
  3
FlatWithEdges
350
269
  3
Gouraud
350
26A
  3
GouraudWithEdges
350
26B
  3
Hidden
350
8FB
  3
JitterOff
350
8FC
  3
Linepattern
350
275
  3
OverhangOff
350
8FD
  3
Realistic
350
270
  3
Shaded
350
903
  3
Shaded with edges
350
902
  3
Shades of Gray
350
8FF
  3
Sketchy
350
900
  3
Thicken
350
274
  3
Wireframe
350
8FA
  3
X-Ray
350
901
  0
XRECORD
  5
1789
102
{ACAD_REACTORS
330
19
102
}
330
19
100
AcDbXrecord
280
     1
 90
        1
330
279
  0
DICTIONARY
  5
330
102
{ACAD_REACTORS
330
19
102
}
330
19
100
AcDbDictionary
281
     1
  3
CANNOSCALE
350
331
  3
CTABLESTYLE
350
335
  3
HPTRANSPARENCY
350
D52
  3
XCLIPFRAME
350
896
  0
DICTIONARY
  5
27A
102
{ACAD_REACTORS
330
19
102
}
330
19
100
AcDbDictionary
281
     1
  0
DICTIONARY
  5
2E2
102
{ACAD_REACTORS
330
2E1
102
}
330
2E1
100
AcDbDictionary
281
     1
  3
ARGON_LAYERP_2
350
88B
  3
ARGON_LAYERP_3
350
88F
  3
ARGON_LAYERP_4
350
892
  3
ARGON_LAYERP_5
350
8F6
  3
ARGON_LAYERP_6
350
BC1
  3
ARGON_LAYERP_7
350
C9E
  3
ARGON_LAYERP_8
350
C9F
  3
ARGON_LAYERP_9
350
7AA
  0
DICTIONARY
  5
D22
102
{ACAD_REACTORS
330
2E1
102
}
330
2E1
100
AcDbDictionary
281
     1
1001
ACAD
1000
<All
  0
DIMASSOC
  5
15F8
102
{ACAD_REACTORS
330
15F7
102
}
330
15F7
100
AcDbDimAssoc
330
15F6
 90
        3
 70
     0
 71
     1
  1
AcDbOsnapPointRef
 72
     5
331
1421
 73
     0
 91
        0
 40
3.141592653589793
 10
0.0
 20
0.0
 30
0.0
 75
     0
  1
AcDbOsnapPointRef
 72
     5
331
1421
 73
     0
 91
        0
 40
0.0
 10
0.0
 20
0.0
 30
0.0
 75
     0
  0
DIMASSOC
  5
1664
102
{ACAD_REACTORS
330
1663
102
}
330
1663
100
AcDbDimAssoc
330
1662
 90
        1
 70
     0
 71
     1
  1
AcDbOsnapPointRef
 72
    13
331
148A
 73
     0
 91
        0
 40
0.0
 10
0.0
 20
0.0
 30
0.0
 75
     0
  0
DIMASSOC
  5
16F1
102
{ACAD_REACTORS
330
16F0
102
}
330
16F0
100
AcDbDimAssoc
330
16EF
 90
        3
 70
     0
 71
     1
  1
AcDbOsnapPointRef
 72
     5
331
148B
 73
     0
 91
        0
 40
6.283185307179586
 10
0.0
 20
0.0
 30
0.0
 75
     0
  1
AcDbOsnapPointRef
 72
     2
331
14B1
 73
     0
 91
        0
 40
0.5
 10
0.0
 20
0.0
 30
0.0
 75
     0
  0
DIMASSOC
  5
170B
102
{ACAD_REACTORS
330
170A
102
}
330
170A
100
AcDbDimAssoc
330
1709
 90
        2
 70
     0
 71
     1
  1
AcDbOsnapPointRef
 72
    13
331
1707
 73
     0
 91
        0
 40
0.0
 10
0.0
 20
0.0
 30
0.0
 75
     0
  0
DIMASSOC
  5
171B
102
{ACAD_REACTORS
330
171A
102
}
330
171A
100
AcDbDimAssoc
330
1719
 90
        2
 70
     0
 71
     1
  1
AcDbOsnapPointRef
 72
     1
331
1707
 73
     0
 91
        0
 40
0.0
 10
0.0
 20
0.0
 30
0.0
 75
     0
  0
DIMASSOC
  5
172B
102
{ACAD_REACTORS
330
172A
102
}
330
172A
100
AcDbDimAssoc
330
1729
 90
        3
 70
     0
 71
     1
  1
AcDbOsnapPointRef
 72
    13
331
1707
 73
     0
 91
        0
 40
0.0
 10
0.0
 20
0.0
 30
0.0
 75
     0
  1
AcDbOsnapPointRef
 72
     1
331
1705
 73
     0
 91
        0
 40
0.0
 10
0.0
 20
0.0
 30
0.0
 75
     0
  0
DIMASSOC
  5
173A
102
{ACAD_REACTORS
330
1739
102
}
330
1739
100
AcDbDimAssoc
330
1738
 90
        3
 70
     0
 71
     1
  1
AcDbOsnapPointRef
 72
     1
331
1705
 73
     0
 91
        0
 40
0.0
 10
0.0
 20
0.0
 30
0.0
 75
     0
  1
AcDbOsnapPointRef
 72
     1
331
1706
 73
     0
 91
        0
 40
0.0
 10
0.0
 20
0.0
 30
0.0
 75
     0
  0
DIMASSOC
  5
1749
102
{ACAD_REACTORS
330
1748
102
}
330
1748
100
AcDbDimAssoc
330
1747
 90
        2
 70
     0
 71
     1
  1
AcDbOsnapPointRef
 72
     5
331
161A
 73
     0
 91
        0
 40
1.570796326794897
 10
0.0
 20
0.0
 30
0.0
 75
     0
  0
LAYOUT
  5
21
102
{ACAD_REACTORS
330
1E
102
}
330
1E
100
AcDbPlotSettings
  1

  2
none_device
  4
ISO_A3_(420.00_x_297.00_MM)
  6

 40
7.5
 41
20.0
 42
7.5
 43
20.0
 44
420.0
 45
297.0
 46
0.0
 47
0.0
 48
0.0
 49
0.0
140
0.0
141
0.0
142
1.0
143
1.0
 70
     0
 72
     1
 73
     0
 74
     0
  7

 75
     0
 76
     0
 77
     2
 78
   300
147
1.0
148
0.0
149
0.0
100
AcDbLayout
  1
Layout1
 70
     0
 71
     0
 10
-7.5
 20
-20.0
 11
412.5
 21
277.0
 12
0.0
 22
0.0
 32
0.0
 14
0.0
 24
0.0
 34
0.0
 15
0.0
 25
0.0
 35
0.0
146
0.0
 13
0.0
 23
0.0
 33
0.0
 16
0.0
 26
0.0
 36
0.0
 17
0.0
 27
0.0
 37
0.0
 76
     0
330
B
331
349
  0
LAYOUT
  5
20
102
{ACAD_REACTORS
330
1E
102
}
330
1E
100
AcDbPlotSettings
  1

  2
none_device
  4
ISO_A3_(420.00_x_297.00_MM)
  6

 40
7.5
 41
20.0
 42
7.5
 43
20.0
 44
420.0
 45
297.0
 46
0.0
 47
0.0
 48
0.0
 49
0.0
140
0.0
141
0.0
142
1.0
143
1.0
 70
  1024
 72
     1
 73
     0
 74
     0
  7

 75
     0
 76
     0
 77
     2
 78
   300
147
1.0
148
0.0
149
0.0
100
AcDbLayout
  1
Model
 70
     0
 71
     1
 10
0.0
 20
0.0
 11
2100.0
 21
2970.0
 12
0.0
 22
0.0
 32
0.0
 14
72.20214454724874
 24
63.79214832457114
 34
0.0
 15
2022.202144547732
 25
2897.146673506426
 35
0.0
146
0.0
 13
0.0
 23
0.0
 33
0.0
 16
0.0
 26
0.0
 36
0.0
 17
0.0
 27
0.0
 37
0.0
 76
     0
330
A
331
15
  0
MATERIAL
  5
16CF
102
{ACAD_REACTORS
330
263
330
263
102
}
330
263
100
AcDbMaterial
  1
ByBlock
 72
     1
 94
      127
  0
MATERIAL
  5
264
102
{ACAD_REACTORS
330
263
102
}
330
263
100
AcDbMaterial
  1
ByLayer
 72
     1
 94
      127
  0
MATERIAL
  5
266
102
{ACAD_REACTORS
330
263
102
}
330
263
100
AcDbMaterial
  1
Global
 72
     1
 94
      127
  0
MLINESTYLE
  5
1C
102
{ACAD_REACTORS
330
1B
102
}
330
1B
100
AcDbMlineStyle
  2
Standard
 70
     0
  3

 62
     0
 51
90.0
 52
90.0
 71
     2
 49
0.5
 62
   256
  6
BYLAYER
 49
-0.5
 62
   256
  6
BYLAYER
  0
ACDBPLACEHOLDER
  5
1D
102
{ACAD_REACTORS
330
1F
102
}
330
1F
  0
SCALE
  5
242
102
{ACAD_REACTORS
330
241
102
}
330
241
100
AcDbScale
 70
     0
300
1:1
140
1.0
141
1.0
290
     1
  0
SCALE
  5
243
102
{ACAD_REACTORS
330
241
102
}
330
241
100
AcDbScale
 70
     0
300
1:2
140
1.0
141
2.0
290
     0
  0
SCALE
  5
244
102
{ACAD_REACTORS
330
241
102
}
330
241
100
AcDbScale
 70
     0
300
1:4
140
1.0
141
4.0
290
     0
  0
SCALE
  5
245
102
{ACAD_REACTORS
330
241
102
}
330
241
100
AcDbScale
 70
     0
300
1:5
140
1.0
141
5.0
290
     0
  0
SCALE
  5
246
102
{ACAD_REACTORS
330
241
102
}
330
241
100
AcDbScale
 70
     0
300
1:8
140
1.0
141
8.0
290
     0
  0
SCALE
  5
247
102
{ACAD_REACTORS
330
241
102
}
330
241
100
AcDbScale
 70
     0
300
1:10
140
1.0
141
10.0
290
     0
  0
SCALE
  5
248
102
{ACAD_REACTORS
330
241
102
}
330
241
100
AcDbScale
 70
     0
300
1:16
140
1.0
141
16.0
290
     0
  0
SCALE
  5
249
102
{ACAD_REACTORS
330
241
102
}
330
241
100
AcDbScale
 70
     0
300
1:20
140
1.0
141
20.0
290
     0
  0
SCALE
  5
24A
102
{ACAD_REACTORS
330
241
102
}
330
241
100
AcDbScale
 70
     0
300
1:30
140
1.0
141
30.0
290
     0
  0
SCALE
  5
24B
102
{ACAD_REACTORS
330
241
102
}
330
241
100
AcDbScale
 70
     0
300
1:40
140
1.0
141
40.0
290
     0
  0
SCALE
  5
24C
102
{ACAD_REACTORS
330
241
102
}
330
241
100
AcDbScale
 70
     0
300
1:50
140
1.0
141
50.0
290
     0
  0
SCALE
  5
24D
102
{ACAD_REACTORS
330
241
102
}
330
241
100
AcDbScale
 70
     0
300
1:100
140
1.0
141
100.0
290
     0
  0
SCALE
  5
24E
102
{ACAD_REACTORS
330
241
102
}
330
241
100
AcDbScale
 70
     0
300
2:1
140
2.0
141
1.0
290
     0
  0
SCALE
  5
24F
102
{ACAD_REACTORS
330
241
102
}
330
241
100
AcDbScale
 70
     0
300
4:1
140
4.0
141
1.0
290
     0
  0
SCALE
  5
250
102
{ACAD_REACTORS
330
241
102
}
330
241
100
AcDbScale
 70
     0
300
8:1
140
8.0
141
1.0
290
     0
  0
SCALE
  5
251
102
{ACAD_REACTORS
330
241
102
}
330
241
100
AcDbScale
 70
     0
300
10:1
140
10.0
141
1.0
290
     0
  0
SCALE
  5
252
102
{ACAD_REACTORS
330
241
102
}
330
241
100
AcDbScale
 70
     0
300
100:1
140
100.0
141
1.0
290
     0
  0
SCALE
  5
253
102
{ACAD_REACTORS
330
241
102
}
330
241
100
AcDbScale
 70
     0
300
1/128" = 1'-0"
140
0.0078125
141
12.0
290
     0
  0
SCALE
  5
254
102
{ACAD_REACTORS
330
241
102
}
330
241
100
AcDbScale
 70
     0
300
1/64" = 1'-0"
140
0.015625
141
12.0
290
     0
  0
SCALE
  5
255
102
{ACAD_REACTORS
330
241
102
}
330
241
100
AcDbScale
 70
     0
300
1/32" = 1'-0"
140
0.03125
141
12.0
290
     0
  0
SCALE
  5
256
102
{ACAD_REACTORS
330
241
102
}
330
241
100
AcDbScale
 70
     0
300
1/16" = 1'-0"
140
0.0625
141
12.0
290
     0
  0
SCALE
  5
257
102
{ACAD_REACTORS
330
241
102
}
330
241
100
AcDbScale
 70
     0
300
3/32" = 1'-0"
140
0.09375
141
12.0
290
     0
  0
SCALE
  5
258
102
{ACAD_REACTORS
330
241
102
}
330
241
100
AcDbScale
 70
     0
300
1/8" = 1'-0"
140
0.125
141
12.0
290
     0
  0
SCALE
  5
259
102
{ACAD_REACTORS
330
241
102
}
330
241
100
AcDbScale
 70
     0
300
3/16" = 1'-0"
140
0.1875
141
12.0
290
     0
  0
SCALE
  5
25A
102
{ACAD_REACTORS
330
241
102
}
330
241
100
AcDbScale
 70
     0
300
1/4" = 1'-0"
140
0.25
141
12.0
290
     0
  0
SCALE
  5
25B
102
{ACAD_REACTORS
330
241
102
}
330
241
100
AcDbScale
 70
     0
300
3/8" = 1'-0"
140
0.375
141
12.0
290
     0
  0
SCALE
  5
25C
102
{ACAD_REACTORS
330
241
102
}
330
241
100
AcDbScale
 70
     0
300
1/2" = 1'-0"
140
0.5
141
12.0
290
     0
  0
SCALE
  5
25D
102
{ACAD_REACTORS
330
241
102
}
330
241
100
AcDbScale
 70
     0
300
3/4" = 1'-0"
140
0.75
141
12.0
290
     0
  0
SCALE
  5
25E
102
{ACAD_REACTORS
330
241
102
}
330
241
100
AcDbScale
 70
     0
300
1" = 1'-0"
140
1.0
141
12.0
290
     0
  0
SCALE
  5
25F
102
{ACAD_REACTORS
330
241
102
}
330
241
100
AcDbScale
 70
     0
300
1-1/2" = 1'-0"
140
1.5
141
12.0
290
     0
  0
SCALE
  5
260
102
{ACAD_REACTORS
330
241
102
}
330
241
100
AcDbScale
 70
     0
300
3" = 1'-0"
140
3.0
141
12.0
290
     0
  0
SCALE
  5
261
102
{ACAD_REACTORS
330
241
102
}
330
241
100
AcDbScale
 70
     0
300
6" = 1'-0"
140
6.0
141
12.0
290
     0
  0
SCALE
  5
262
102
{ACAD_REACTORS
330
241
102
}
330
241
100
AcDbScale
 70
     0
300
1'-0" = 1'-0"
140
12.0
141
12.0
290
     0
  0
TABLESTYLE
  5
279
102
{ACAD_REACTORS
330
278
102
}
102
{ACAD_XDICTIONARY
360
1787
102
}
330
278
100
AcDbTableStyle
  3
Standard
 70
     0
 71
     0
 40
0.06
 41
0.06
280
     0
281
     0
  7
Standard
140
4.5
170
     2
 62
     0
 63
   257
283
     0
 90
        4
 91
        0
  1

274
    -2
284
     1
 64
     0
275
    -2
285
     1
 65
     0
276
    -2
286
     1
 66
     0
277
    -2
287
     1
 67
     0
278
    -2
288
     1
 68
     0
279
    -2
289
     1
 69
     0
  7
Standard
140
6.0
170
     5
 62
     0
 63
   257
283
     0
 90
        4
 91
        0
  1

274
    -2
284
     1
 64
     0
275
    -2
285
     1
 65
     0
276
    -2
286
     1
 66
     0
277
    -2
287
     1
 67
     0
278
    -2
288
     1
 68
     0
279
    -2
289
     1
 69
     0
  7
Standard
140
4.5
170
     5
 62
     0
 63
   257
283
     0
 90
        4
 91
        0
  1

274
    -2
284
     1
 64
     0
275
    -2
285
     1
 65
     0
276
    -2
286
     1
 66
     0
277
    -2
287
     1
 67
     0
278
    -2
288
     1
 68
     0
279
    -2
289
     1
 69
     0
  0
VISUALSTYLE
  5
26C
102
{ACAD_REACTORS
330
267
102
}
330
267
100
AcDbVisualStyle
  2
2dWireframe
 70
     4
 71
     0
 72
     2
 73
     0
 90
        0
 40
-0.6
 41
-30.0
 62
     5
 63
     7
421
 16777215
 74
     1
 91
        4
 64
     7
 65
   257
 75
     1
175
     1
 42
1.0
 92
        0
 66
   257
 43
1.0
 76
     1
 77
     6
 78
     2
 67
     7
 79
     5
170
     0
171
     0
290
     0
174
     0
 93
        1
 44
0.0
173
     0
291
     0
 45
0.0
  0
VISUALSTYLE
  5
26E
102
{ACAD_REACTORS
330
267
102
}
330
267
100
AcDbVisualStyle
  2
3D Hidden
 70
     6
 71
     1
 72
     2
 73
     2
 90
        0
 40
-0.6
 41
-30.0
 62
     5
 63
     7
421
 16777215
 74
     2
 91
        2
 64
     7
 65
   257
 75
     2
175
     1
 42
40.0
 92
        0
 66
   257
 43
1.0
 76
     1
 77
     6
 78
     2
 67
     7
 79
     3
170
     0
171
     0
290
     0
174
     0
 93
        1
 44
0.0
173
     0
291
     0
 45
0.0
  0
VISUALSTYLE
  5
26D
102
{ACAD_REACTORS
330
267
102
}
330
267
100
AcDbVisualStyle
  2
3dWireframe
 70
     5
 71
     0
 72
     2
 73
     0
 90
        0
 40
-0.6
 41
-30.0
 62
     5
 63
     7
421
 16777215
 74
     1
 91
        4
 64
     7
 65
   257
 75
     1
175
     1
 42
1.0
 92
        0
 66
   257
 43
1.0
 76
     1
 77
     6
 78
     2
 67
     7
 79
     5
170
     0
171
     0
290
     0
174
     0
 93
        1
 44
0.0
173
     0
291
     0
 45
0.0
  0
VISUALSTYLE
  5
26F
102
{ACAD_REACTORS
330
267
102
}
330
267
100
AcDbVisualStyle
  2
Basic
 70
     7
 71
     1
 72
     0
 73
     1
 90
        0
 40
-0.6
 41
-30.0
 62
     5
 63
     7
421
 16777215
 74
     0
 91
        4
 64
     7
 65
   257
 75
     1
175
     1
 42
1.0
 92
        8
 66
     7
 43
1.0
 76
     1
 77
     6
 78
     2
 67
     7
 79
     5
170
     0
171
     0
290
     0
174
     0
 93
        1
 44
0.0
173
     0
291
     1
 45
0.0
  0
VISUALSTYLE
  5
273
102
{ACAD_REACTORS
330
267
102
}
330
267
100
AcDbVisualStyle
  2
Brighten
 70
    12
 71
     2
 72
     2
 73
     0
 90
        0
 40
-0.6
 41
-30.0
 62
     5
 63
     7
421
 16777215
 74
     1
 91
        4
 64
     7
 65
   257
 75
     1
175
     1
 42
1.0
 92
        8
 66
     7
 43
1.0
 76
     1
 77
     6
 78
     2
 67
     7
 79
     5
170
     0
171
     0
290
     0
174
     0
 93
        1
 44
50.0
173
     0
291
     1
 45
0.0
  0
VISUALSTYLE
  5
277
102
{ACAD_REACTORS
330
267
102
}
330
267
100
AcDbVisualStyle
  2
ColorChange
 70
    16
 71
     2
 72
     2
 73
     3
 90
        0
 40
-0.6
 41
-30.0
 62
     5
 63
     8
421
  8421504
 74
     1
 91
        4
 64
     7
 65
   257
 75
     1
175
     1
 42
1.0
 92
        8
 66
     8
424
  8421504
 43
1.0
 76
     1
 77
     6
 78
     2
 67
     7
 79
     5
170
     0
171
     0
290
     0
174
     0
 93
        1
 44
0.0
173
     0
291
     1
 45
0.0
  0
VISUALSTYLE
  5
271
102
{ACAD_REACTORS
330
267
102
}
330
267
100
AcDbVisualStyle
  2
Conceptual
 70
     9
 71
     3
 72
     2
 73
     0
 90
        0
 40
-0.6
 41
-30.0
 62
     5
 63
     7
421
 16777215
 74
     2
 91
        2
 64
     7
 65
   257
 75
     1
175
     1
 42
40.0
 92
        8
 66
     7
 43
1.0
 76
     1
 77
     6
 78
     2
 67
     7
 79
     3
170
     0
171
     0
290
     0
174
     0
 93
        1
 44
0.0
173
     0
291
     0
 45
0.0
  0
VISUALSTYLE
  5
272
102
{ACAD_REACTORS
330
267
102
}
330
267
100
AcDbVisualStyle
  2
Dim
 70
    11
 71
     2
 72
     2
 73
     0
 90
        0
 40
-0.6
 41
-30.0
 62
     5
 63
     7
421
 16777215
 74
     1
 91
        4
 64
     7
 65
   257
 75
     1
175
     1
 42
1.0
 92
        8
 66
     7
 43
1.0
 76
     1
 77
     6
 78
     2
 67
     7
 79
     5
170
     0
171
     0
290
     0
174
     0
 93
        1
 44
-50.0
173
     0
291
     1
 45
0.0
  0
VISUALSTYLE
  5
8FE
102
{ACAD_REACTORS
330
267
102
}
330
267
100
AcDbVisualStyle
  2
EdgeColorOff
 70
    22
 71
     2
 72
     2
 73
     0
 90
        0
 40
0.6
 41
30.0
 62
     5
 63
     7
421
 16777215
 74
     1
 91
        4
 64
     7
 65
   257
 75
     1
175
     1
 42
1.0
 92
        8
 66
     7
 43
1.0
 76
     1
 77
     6
 78
     2
 67
     7
 79
     5
170
     0
171
     0
290
     0
174
     0
 93
        1
 44
0.0
173
     0
291
     1
 45
0.0
  0
VISUALSTYLE
  5
276
102
{ACAD_REACTORS
330
267
102
}
330
267
100
AcDbVisualStyle
  2
Facepattern
 70
    15
 71
     2
 72
     2
 73
     0
 90
        0
 40
-0.6
 41
-30.0
 62
     5
 63
     7
421
 16777215
 74
     1
 91
        4
 64
     7
 65
   257
 75
     1
175
     1
 42
1.0
 92
        8
 66
     7
 43
1.0
 76
     1
 77
     6
 78
     2
 67
     7
 79
     5
170
     0
171
     0
290
     0
174
     0
 93
        1
 44
0.0
173
     0
291
     1
 45
0.0
  0
VISUALSTYLE
  5
268
102
{ACAD_REACTORS
330
267
102
}
330
267
100
AcDbVisualStyle
  2
Flat
 70
     0
 71
     2
 72
     1
 73
     1
 90
        2
 40
-0.6
 41
30.0
 62
     5
 63
     7
421
 16777215
 74
     0
 91
        4
 64
     7
 65
   257
 75
     1
175
     1
 42
1.0
 92
        8
 66
     7
 43
1.0
 76
     1
 77
     6
 78
     2
 67
     7
 79
     5
170
     0
171
     0
290
     0
174
     0
 93
       13
 44
0.0
173
     0
291
     1
 45
0.0
  0
VISUALSTYLE
  5
269
102
{ACAD_REACTORS
330
267
102
}
330
267
100
AcDbVisualStyle
  2
FlatWithEdges
 70
     1
 71
     2
 72
     1
 73
     1
 90
        2
 40
-0.6
 41
30.0
 62
     5
 63
     7
421
 16777215
 74
     1
 91
        4
 64
     7
 65
   257
 75
     1
175
     1
 42
1.0
 92
        0
 66
   257
 43
1.0
 76
     1
 77
     6
 78
     2
 67
     7
 79
     5
170
     0
171
     0
290
     0
174
     0
 93
       13
 44
0.0
173
     0
291
     1
 45
0.0
  0
VISUALSTYLE
  5
26A
102
{ACAD_REACTORS
330
267
102
}
330
267
100
AcDbVisualStyle
  2
Gouraud
 70
     2
 71
     2
 72
     2
 73
     1
 90
        2
 40
-0.6
 41
30.0
 62
     5
 63
     7
421
 16777215
 74
     0
 91
        4
 64
     7
 65
   257
 75
     1
175
     1
 42
1.0
 92
        0
 66
     7
 43
1.0
 76
     1
 77
     6
 78
     2
 67
     7
 79
     5
170
     0
171
     0
290
     0
174
     0
 93
       13
 44
0.0
173
     0
291
     1
 45
0.0
  0
VISUALSTYLE
  5
26B
102
{ACAD_REACTORS
330
267
102
}
330
267
100
AcDbVisualStyle
  2
GouraudWithEdges
 70
     3
 71
     2
 72
     2
 73
     1
 90
        2
 40
-0.6
 41
30.0
 62
     5
 63
     7
421
 16777215
 74
     1
 91
        4
 64
     7
 65
   257
 75
     1
175
     1
 42
1.0
 92
        0
 66
   257
 43
1.0
 76
     1
 77
     6
 78
     2
 67
     7
 79
     5
170
     0
171
     0
290
     0
174
     0
 93
       13
 44
0.0
173
     0
291
     1
 45
0.0
  0
VISUALSTYLE
  5
8FB
102
{ACAD_REACTORS
330
267
102
}
330
267
100
AcDbVisualStyle
  2
Hidden
 70
     6
 71
     1
 72
     2
 73
     2
 90
        0
 40
0.6
 41
30.0
 62
     5
 63
     7
421
 16777215
 74
     2
 91
        2
 64
     7
 65
   257
 75
     2
175
     1
 42
40.0
 92
        0
 66
   257
 43
1.0
 76
     1
 77
     6
 78
     2
 67
     7
 79
     3
170
     0
171
     0
290
     0
174
     0
 93
        1
 44
0.0
173
     0
291
     0
 45
0.0
  0
VISUALSTYLE
  5
8FC
102
{ACAD_REACTORS
330
267
102
}
330
267
100
AcDbVisualStyle
  2
JitterOff
 70
    20
 71
     2
 72
     2
 73
     0
 90
        0
 40
0.6
 41
30.0
 62
     5
 63
     7
421
 16777215
 74
     1
 91
        4
 64
     7
 65
   257
 75
     1
175
     1
 42
1.0
 92
       10
 66
     7
 43
1.0
 76
     1
 77
     6
 78
     2
 67
     7
 79
     5
170
     0
171
     0
290
     0
174
     0
 93
        1
 44
0.0
173
     0
291
     1
 45
0.0
  0
VISUALSTYLE
  5
275
102
{ACAD_REACTORS
330
267
102
}
330
267
100
AcDbVisualStyle
  2
Linepattern
 70
    14
 71
     2
 72
     2
 73
     0
 90
        0
 40
-0.6
 41
-30.0
 62
     5
 63
     7
421
 16777215
 74
     1
 91
        4
 64
     7
 65
   257
 75
     7
175
     7
 42
1.0
 92
        8
 66
     7
 43
1.0
 76
     1
 77
     6
 78
     2
 67
     7
 79
     5
170
     0
171
     0
290
     0
174
     0
 93
        1
 44
0.0
173
     0
291
     1
 45
0.0
  0
VISUALSTYLE
  5
8FD
102
{ACAD_REACTORS
330
267
102
}
330
267
100
AcDbVisualStyle
  2
OverhangOff
 70
    21
 71
     2
 72
     2
 73
     0
 90
        0
 40
0.6
 41
30.0
 62
     5
 63
     7
421
 16777215
 74
     1
 91
        4
 64
     7
 65
   257
 75
     1
175
     1
 42
1.0
 92
        9
 66
     7
 43
1.0
 76
     1
 77
     6
 78
     2
 67
     7
 79
     5
170
     0
171
     0
290
     0
174
     0
 93
        1
 44
0.0
173
     0
291
     1
 45
0.0
  0
VISUALSTYLE
  5
270
102
{ACAD_REACTORS
330
267
102
}
330
267
100
AcDbVisualStyle
  2
Realistic
 70
     8
 71
     2
 72
     2
 73
     0
 90
        0
 40
-0.6
 41
-30.0
 62
     5
 63
     7
421
 16777215
 74
     1
 91
        0
 64
     7
 65
   257
 75
     1
175
     1
 42
1.0
 92
        8
 66
     8
424
  7895160
 43
1.0
 76
     1
 77
     6
 78
     2
 67
     7
 79
     5
170
     0
171
     0
290
     0
174
     0
 93
       13
 44
0.0
173
     0
291
     0
 45
0.0
  0
VISUALSTYLE
  5
903
102
{ACAD_REACTORS
330
267
102
}
330
267
100
AcDbVisualStyle
  2
Shaded
 70
    27
 71
     2
 72
     2
 73
     1
 90
        2
 40
0.6
 41
30.0
 62
     5
 63
     7
421
 16777215
 74
     0
 91
        4
 64
     7
 65
   257
 75
     1
175
     1
 42
1.0
 92
        8
 66
   257
 43
1.0
 76
     1
 77
     6
 78
     2
 67
     8
425
  7895160
 79
     3
170
     0
171
     0
290
     0
174
     0
 93
        5
 44
0.0
173
     0
291
     0
 45
0.0
  0
VISUALSTYLE
  5
902
102
{ACAD_REACTORS
330
267
102
}
330
267
100
AcDbVisualStyle
  2
Shaded with edges
 70
    26
 71
     2
 72
     2
 73
     1
 90
        2
 40
0.6
 41
30.0
 62
     5
 63
     7
421
 16777215
 74
     1
 91
       10
 64
     7
 65
   257
 75
     2
175
     1
 42
1.0
 92
        8
 66
   257
 43
1.0
 76
     1
 77
     6
 78
     2
 67
     7
 79
     3
170
     0
171
     0
290
     0
174
     0
 93
        5
 44
0.0
173
     0
291
     0
 45
0.0
  0
VISUALSTYLE
  5
8FF
102
{ACAD_REACTORS
330
267
102
}
330
267
100
AcDbVisualStyle
  2
Shades of Gray
 70
    23
 71
     2
 72
     2
 73
     3
 90
        0
 40
0.6
 41
30.0
 62
     5
 63
     7
421
 16777215
 74
     2
 91
        2
 64
     7
 65
     7
 75
     1
175
     1
 42
40.0
 92
        8
 66
     7
 43
1.0
 76
     1
 77
     6
 78
     2
 67
     7
 79
     3
170
     0
171
     0
290
     0
174
     0
 93
        1
 44
0.0
173
     0
291
     0
 45
0.0
  0
VISUALSTYLE
  5
900
102
{ACAD_REACTORS
330
267
102
}
330
267
100
AcDbVisualStyle
  2
Sketchy
 70
    24
 71
     1
 72
     2
 73
     2
 90
        0
 40
0.6
 41
30.0
 62
     5
 63
     7
421
 16777215
 74
     2
 91
        2
 64
     7
 65
     7
 75
     1
175
     1
 42
40.0
 92
       11
 66
     7
 43
1.0
 76
     1
 77
     6
 78
     2
 67
     7
 79
     6
170
     0
171
     0
290
     0
174
     0
 93
        1
 44
0.0
173
     0
291
     0
 45
0.0
  0
VISUALSTYLE
  5
274
102
{ACAD_REACTORS
330
267
102
}
330
267
100
AcDbVisualStyle
  2
Thicken
 70
    13
 71
     2
 72
     2
 73
     0
 90
        0
 40
-0.6
 41
-30.0
 62
     5
 63
     7
421
 16777215
 74
     1
 91
        4
 64
     7
 65
   257
 75
     1
175
     1
 42
1.0
 92
       12
 66
     7
 43
1.0
 76
     1
 77
     6
 78
     2
 67
     7
 79
     5
170
     0
171
     0
290
     0
174
     0
 93
        1
 44
0.0
173
     0
291
     1
 45
0.0
  0
VISUALSTYLE
  5
8FA
102
{ACAD_REACTORS
330
267
102
}
330
267
100
AcDbVisualStyle
  2
Wireframe
 70
     5
 71
     0
 72
     2
 73
     0
 90
        0
 40
0.6
 41
30.0
 62
     5
 63
     7
421
 16777215
 74
     1
 91
        4
 64
     7
 65
   257
 75
     1
175
     1
 42
1.0
 92
        0
 66
   257
 43
1.0
 76
     1
 77
     6
 78
     2
 67
     7
 79
     3
170
     0
171
     0
290
     0
174
     0
 93
        1
 44
0.0
173
     0
291
     0
 45
0.0
  0
VISUALSTYLE
  5
901
102
{ACAD_REACTORS
330
267
102
}
330
267
100
AcDbVisualStyle
  2
X-Ray
 70
    25
 71
     2
 72
     2
 73
     1
 90
        1
 40
0.5
 41
30.0
 62
     5
 63
     7
421
 16777215
 74
     1
 91
        0
 64
     7
 65
   257
 75
     1
175
     1
 42
1.0
 92
        8
 66
     7
 43
1.0
 76
     1
 77
     6
 78
     2
 67
     7
 79
     3
170
     0
171
     0
290
     0
174
     0
 93
       13
 44
0.0
173
     0
291
     0
 45
0.0
  0
DICTIONARYVAR
  5
331
102
{ACAD_REACTORS
330
330
102
}
330
330
100
DictionaryVariables
280
     0
  1
1:1
  0
DICTIONARYVAR
  5
335
102
{ACAD_REACTORS
330
330
102
}
330
330
100
DictionaryVariables
280
     0
  1
Standard
  0
DICTIONARYVAR
  5
D52
102
{ACAD_REACTORS
330
330
102
}
330
330
100
DictionaryVariables
280
     0
  1
ByLayer
  0
DICTIONARYVAR
  5
896
102
{ACAD_REACTORS
330
330
102
}
330
330
100
DictionaryVariables
280
     0
  1
0
  0
XRECORD
  5
88B
102
{ACAD_REACTORS
330
2E2
102
}
330
2E2
100
AcDbXrecord
280
     1
 91
     1023
301

290
     0
302
MODEL
330
14
 90
        8
 62
     7
370
    -3
331
13
  1
Color_7
330
0
 90
        0
 62
     7
370
    -3
331
13
  1
Color_7
330
4B
 90
        8
 62
     7
370
    -3
331
13
  1
Color_7
330
4C
 90
        8
 62
     7
370
    -3
331
13
  1
Color_7
330
4D
 90
        8
 62
     7
370
    -3
331
13
  1
Color_7
330
0
 90
        9
 62
     1
370
    -3
331
13
  1
Color_1
330
0
 90
        8
 62
     4
370
    -3
331
13
  1
Color_4
330
667
 90
        8
 62
     7
370
    -3
331
13
  1
Color_7
330
0
 90
        9
 62
     1
370
    -3
331
13
  1
Color_1
  0
XRECORD
  5
88F
102
{ACAD_REACTORS
330
2E2
102
}
330
2E2
100
AcDbXrecord
280
     1
 91
     1023
301

290
     0
302
MODEL
330
14
 90
        8
 62
     7
370
    -3
331
13
  1
Color_7
330
0
 90
        0
 62
     7
370
    -3
331
13
  1
Color_7
330
4B
 90
        8
 62
     7
370
     0
331
13
  1
Color_7
330
4C
 90
        8
 62
     7
370
     9
331
13
  1
Color_7
330
4D
 90
        8
 62
     7
370
    -3
331
13
  1
Color_7
330
667
 90
        8
 62
     7
370
    -3
331
13
  1
Color_7
330
88C
 90
        8
 62
     7
370
     9
331
45
  1
Color_7
  0
XRECORD
  5
892
102
{ACAD_REACTORS
330
2E2
102
}
330
2E2
100
AcDbXrecord
280
     1
 91
     1023
301

290
     0
302
MODEL
330
14
 90
        8
 62
     7
370
    -3
331
13
  1
Color_7
330
0
 90
        0
 62
     7
370
    -3
331
13
  1
Color_7
330
4B
 90
        8
 62
     7
370
     0
331
13
  1
Color_7
330
4C
 90
        8
 62
     7
370
     9
331
13
  1
Color_7
330
4D
 90
        8
 62
     7
370
    -3
331
13
  1
Color_7
330
667
 90
        8
 62
     3
370
    -3
331
13
  1
Color_3
330
88C
 90
        8
 62
     7
370
     9
331
45
  1
Color_7
  0
XRECORD
  5
8F6
102
{ACAD_REACTORS
330
2E2
102
}
330
2E2
100
AcDbXrecord
280
     1
 91
     1023
301

290
     0
302
MODEL
330
14
 90
        8
 62
     7
370
    -3
331
13
  1
Color_7
330
0
 90
        0
 62
     7
370
    -3
331
13
  1
Color_7
330
4B
 90
        8
 62
     7
370
     0
331
13
  1
Color_7
330
4C
 90
        8
 62
     7
370
     9
331
13
  1
Color_7
330
4D
 90
        8
 62
     7
370
    -3
331
13
  1
Color_7
330
667
 90
        8
 62
     7
370
    -3
331
13
  1
Color_7
330
88C
 90
        8
 62
     7
370
     9
331
45
  1
Color_7
  0
XRECORD
  5
BC1
102
{ACAD_REACTORS
330
2E2
102
}
330
2E2
100
AcDbXrecord
280
     1
 91
     1023
301

290
     0
302
MODEL
330
14
 90
        8
 62
     7
370
    -3
331
13
  1
Color_7
330
0
 90
        0
 62
     7
370
    -3
331
13
  1
Color_7
330
4B
 90
        8
 62
     7
370
     0
331
13
  1
Color_7
330
4C
 90
        8
 62
     7
370
     9
331
13
  1
Color_7
330
4D
 90
        8
 62
     7
370
    -3
331
13
  1
Color_7
330
667
 90
        8
 62
     7
370
    -3
331
13
  1
Color_7
330
88C
 90
        8
 62
     7
370
     9
331
45
  1
Color_7
330
0
 90
        8
 62
     7
370
    -3
331
13
  1
Color_7
  0
XRECORD
  5
C9E
102
{ACAD_REACTORS
330
2E2
102
}
330
2E2
100
AcDbXrecord
280
     1
 91
     1023
301

290
     0
302
DIM
330
14
 90
        8
 62
     7
370
    -3
331
13
  1
Color_7
330
0
 90
        0
 62
     7
370
    -3
331
13
  1
Color_7
330
4B
 90
        8
 62
     7
370
     0
331
13
  1
Color_7
330
4C
 90
        8
 62
     7
370
     9
331
13
  1
Color_7
330
4D
 90
        8
 62
     7
370
    -3
331
13
  1
Color_7
330
667
 90
        8
 62
     7
370
    -3
331
13
  1
Color_7
330
88C
 90
        8
 62
     7
370
     9
331
45
  1
Color_7
330
0
 90
        8
 62
     7
370
    -3
331
13
  1
Color_7
  0
XRECORD
  5
C9F
102
{ACAD_REACTORS
330
2E2
102
}
330
2E2
100
AcDbXrecord
280
     1
 91
     1023
301

290
     0
302
MODEL
330
14
 90
        8
 62
     7
370
    -3
331
13
  1
Color_7
330
0
 90
        0
 62
     7
370
    -3
331
13
  1
Color_7
330
4B
 90
        8
 62
     7
370
     0
331
13
  1
Color_7
330
4C
 90
        8
 62
     7
370
     9
331
13
  1
Color_7
330
4D
 90
        8
 62
     7
370
    -3
331
13
  1
Color_7
330
667
 90
        8
 62
     7
370
    -3
331
13
  1
Color_7
330
88C
 90
        8
 62
     7
370
     9
331
45
  1
Color_7
330
0
 90
        8
 62
     7
370
    -3
331
13
  1
Color_7
  0
XRECORD
  5
7AA
102
{ACAD_REACTORS
330
2E2
102
}
330
2E2
100
AcDbXrecord
280
     1
 91
     1023
301

290
     0
302
MODEL
330
14
 90
        8
 62
     7
370
    -3
331
13
  1
Color_7
330
0
 90
        0
 62
     7
370
    -3
331
13
  1
Color_7
330
4B
 90
        8
 62
     7
370
    20
331
13
  1
Color_7
330
4C
 90
        8
 62
     7
370
    13
331
13
  1
Color_7
330
4D
 90
        8
 62
     7
370
    20
331
13
  1
Color_7
330
667
 90
        8
 62
     7
370
    -3
331
13
  1
Color_7
330
88C
 90
        8
 62
     7
370
    20
331
45
  1
Color_7
330
0
 90
        8
 62
     7
370
    -3
331
13
  1
Color_7
  0
DICTIONARY
  5
1787
330
279
100
AcDbDictionary
280
     1
281
     1
  3
ACAD_ROUNDTRIP_2008_TABLESTYLE_CELLSTYLEMAP
360
1788
  0
CELLSTYLEMAP
  5
1788
102
{ACAD_REACTORS
330
1787
102
}
330
1787
100
AcDbCellStyleMap
 90
        3
300
CELLSTYLE
  1
TABLEFORMAT_BEGIN
 90
        5
170
     1
 91
        0
 92
    32768
 62
   257
 93
        1
300
CONTENTFORMAT
  1
CONTENTFORMAT_BEGIN
 90
        0
 91
        0
 92
        4
 93
        0
300

 40
0.0
140
1.0
 94
        5
 62
     0
340
17
144
6.0
309
CONTENTFORMAT_END
171
     1
301
MARGIN
  1
CELLMARGIN_BEGIN
 40
0.06
 40
0.06
 40
0.06
 40
0.06
 40
0.18
 40
0.18
309
CELLMARGIN_END
 94
        6
 95
        1
302
GRIDFORMAT
  1
GRIDFORMAT_BEGIN
 90
        0
 91
        1
 62
     0
 92
       -2
340
0
 93
        0
 40
0.045
309
GRIDFORMAT_END
 95
        2
302
GRIDFORMAT
  1
GRIDFORMAT_BEGIN
 90
        0
 91
        1
 62
     0
 92
       -2
340
0
 93
        0
 40
0.045
309
GRIDFORMAT_END
 95
        4
302
GRIDFORMAT
  1
GRIDFORMAT_BEGIN
 90
        0
 91
        1
 62
     0
 92
       -2
340
0
 93
        0
 40
0.045
309
GRIDFORMAT_END
 95
        8
302
GRIDFORMAT
  1
GRIDFORMAT_BEGIN
 90
        0
 91
        1
 62
     0
 92
       -2
340
0
 93
        0
 40
0.045
309
GRIDFORMAT_END
 95
       16
302
GRIDFORMAT
  1
GRIDFORMAT_BEGIN
 90
        0
 91
        1
 62
     0
 92
       -2
340
0
 93
        0
 40
0.045
309
GRIDFORMAT_END
 95
       32
302
GRIDFORMAT
  1
GRIDFORMAT_BEGIN
 90
        0
 91
        1
 62
     0
 92
       -2
340
0
 93
        0
 40
0.045
309
GRIDFORMAT_END
309
TABLEFORMAT_END
  1
CELLSTYLE_BEGIN
 90
        1
 91
        1
300
_TITLE
309
CELLSTYLE_END
300
CELLSTYLE
  1
TABLEFORMAT_BEGIN
 90
        5
170
     1
 91
        0
 92
        0
 62
   257
 93
        1
300
CONTENTFORMAT
  1
CONTENTFORMAT_BEGIN
 90
        0
 91
        0
 92
        4
 93
        0
300

 40
0.0
140
1.0
 94
        5
 62
     0
340
17
144
4.5
309
CONTENTFORMAT_END
171
     1
301
MARGIN
  1
CELLMARGIN_BEGIN
 40
0.06
 40
0.06
 40
0.06
 40
0.06
 40
0.18
 40
0.18
309
CELLMARGIN_END
 94
        6
 95
        1
302
GRIDFORMAT
  1
GRIDFORMAT_BEGIN
 90
        0
 91
        1
 62
     0
 92
       -2
340
0
 93
        0
 40
0.045
309
GRIDFORMAT_END
 95
        2
302
GRIDFORMAT
  1
GRIDFORMAT_BEGIN
 90
        0
 91
        1
 62
     0
 92
       -2
340
0
 93
        0
 40
0.045
309
GRIDFORMAT_END
 95
        4
302
GRIDFORMAT
  1
GRIDFORMAT_BEGIN
 90
        0
 91
        1
 62
     0
 92
       -2
340
0
 93
        0
 40
0.045
309
GRIDFORMAT_END
 95
        8
302
GRIDFORMAT
  1
GRIDFORMAT_BEGIN
 90
        0
 91
        1
 62
     0
 92
       -2
340
0
 93
        0
 40
0.045
309
GRIDFORMAT_END
 95
       16
302
GRIDFORMAT
  1
GRIDFORMAT_BEGIN
 90
        0
 91
        1
 62
     0
 92
       -2
340
0
 93
        0
 40
0.045
309
GRIDFORMAT_END
 95
       32
302
GRIDFORMAT
  1
GRIDFORMAT_BEGIN
 90
        0
 91
        1
 62
     0
 92
       -2
340
0
 93
        0
 40
0.045
309
GRIDFORMAT_END
309
TABLEFORMAT_END
  1
CELLSTYLE_BEGIN
 90
        2
 91
        1
300
_HEADER
309
CELLSTYLE_END
300
CELLSTYLE
  1
TABLEFORMAT_BEGIN
 90
        5
170
     1
 91
        0
 92
        0
 62
   257
 93
        1
300
CONTENTFORMAT
  1
CONTENTFORMAT_BEGIN
 90
        0
 91
        0
 92
        4
 93
        0
300

 40
0.0
140
1.0
 94
        2
 62
     0
340
17
144
4.5
309
CONTENTFORMAT_END
171
     1
301
MARGIN
  1
CELLMARGIN_BEGIN
 40
0.06
 40
0.06
 40
0.06
 40
0.06
 40
0.18
 40
0.18
309
CELLMARGIN_END
 94
        6
 95
        1
302
GRIDFORMAT
  1
GRIDFORMAT_BEGIN
 90
        0
 91
        1
 62
     0
 92
       -2
340
0
 93
        0
 40
0.045
309
GRIDFORMAT_END
 95
        2
302
GRIDFORMAT
  1
GRIDFORMAT_BEGIN
 90
        0
 91
        1
 62
     0
 92
       -2
340
0
 93
        0
 40
0.045
309
GRIDFORMAT_END
 95
        4
302
GRIDFORMAT
  1
GRIDFORMAT_BEGIN
 90
        0
 91
        1
 62
     0
 92
       -2
340
0
 93
        0
 40
0.045
309
GRIDFORMAT_END
 95
        8
302
GRIDFORMAT
  1
GRIDFORMAT_BEGIN
 90
        0
 91
        1
 62
     0
 92
       -2
340
0
 93
        0
 40
0.045
309
GRIDFORMAT_END
 95
       16
302
GRIDFORMAT
  1
GRIDFORMAT_BEGIN
 90
        0
 91
        1
 62
     0
 92
       -2
340
0
 93
        0
 40
0.045
309
GRIDFORMAT_END
 95
       32
302
GRIDFORMAT
  1
GRIDFORMAT_BEGIN
 90
        0
 91
        1
 62
     0
 92
       -2
340
0
 93
        0
 40
0.045
309
GRIDFORMAT_END
309
TABLEFORMAT_END
  1
CELLSTYLE_BEGIN
 90
        3
 91
        2
300
_DATA
309
CELLSTYLE_END
  0
ENDSEC
  0
EOF
