  0
SECTION
  2
HEADER
  9
$ACADVER
  1
AC1021
  9
$ACADMAINTVER
 70
    25
  9
$DWGCODEPAGE
  3
ANSI_932
  9
$LASTSAVEDBY
  1
howeNelson
  9
$INSBASE
 10
0.0
 20
0.0
 30
0.0
  9
$EXTMIN
 10
0.0
 20
0.0
 30
0.0
  9
$EXTMAX
 10
2100.0
 20
2970.0
 30
34.99521132346015
  9
$LIMMIN
 10
0.0
 20
0.0
  9
$LIMMAX
 10
2100.0
 20
2970.0
  9
$ORTHOMODE
 70
     0
  9
$REGENMODE
 70
     1
  9
$FILLMODE
 70
     1
  9
$QTEXTMODE
 70
     0
  9
$MIRRTEXT
 70
     1
  9
$LTSCALE
 40
5.0
  9
$ATTMODE
 70
     1
  9
$TEXTSIZE
 40
533.0403732820173
  9
$TRACEWID
 40
1.0
  9
$TEXTSTYLE
  7
Standard
  9
$CLAYER
  8
MODEL
  9
$CELTYPE
  6
Continuous
  9
$CECOLOR
 62
   256
  9
$CELTSCALE
 40
1.0
  9
$DISPSILH
 70
     0
  9
$DIMSCALE
 40
1.0
  9
$DIMASZ
 40
9.999389648437498
  9
$DIMEXO
 40
25.0
  9
$DIMDLI
 40
0.9999999999999999
  9
$DIMRND
 40
0.0
  9
$DIMDLE
 40
0.0
  9
$DIMEXE
 40
0.0
  9
$DIMTP
 40
0.0
  9
$DIMTM
 40
0.0
  9
$DIMTXT
 40
24.4326171875
  9
$DIMCEN
 40
0.0
  9
$DIMTSZ
 40
0.0
  9
$DIMTOL
 70
     0
  9
$DIMLIM
 70
     0
  9
$DIMTIH
 70
     0
  9
$DIMTOH
 70
     0
  9
$DIMSE1
 70
     0
  9
$DIMSE2
 70
     0
  9
$DIMTAD
 70
     1
  9
$DIMZIN
 70
    11
  9
$DIMBLK
  1
DOT
  9
$DIMASO
 70
     1
  9
$DIMSHO
 70
     1
  9
$DIMPOST
  1
<>
  9
$DIMAPOST
  1
[]
  9
$DIMALT
 70
     0
  9
$DIMALTD
 70
     1
  9
$DIMALTF
 40
1.0
  9
$DIMLFAC
 40
1.0
  9
$DIMTOFL
 70
     1
  9
$DIMTVP
 40
0.0
  9
$DIMTIX
 70
     1
  9
$DIMSOXD
 70
     0
  9
$DIMSAH
 70
     0
  9
$DIMBLK1
  1

  9
$DIMBLK2
  1

  9
$DIMSTYLE
  2
tform線あり
  9
$DIMCLRD
 70
     0
  9
$DIMCLRE
 70
     0
  9
$DIMCLRT
 70
     0
  9
$DIMTFAC
 40
0.8
  9
$DIMGAP
 40
10.0
  9
$DIMJUST
 70
     0
  9
$DIMSD1
 70
     0
  9
$DIMSD2
 70
     0
  9
$DIMTOLJ
 70
     1
  9
$DIMTZIN
 70
    11
  9
$DIMALTZ
 70
    11
  9
$DIMALTTZ
 70
    11
  9
$DIMUPT
 70
     0
  9
$DIMDEC
 70
     1
  9
$DIMTDEC
 70
     1
  9
$DIMALTU
 70
     2
  9
$DIMALTTD
 70
     2
  9
$DIMTXSTY
  7
ＭＳ ゴシック
  9
$DIMAUNIT
 70
     0
  9
$DIMADEC
 70
     2
  9
$DIMALTRND
 40
0.0
  9
$DIMAZIN
 70
     0
  9
$DIMDSEP
 70
    46
  9
$DIMATFIT
 70
     0
  9
$DIMFRAC
 70
     2
  9
$DIMLDRBLK
  1
DOT
  9
$DIMLUNIT
 70
     2
  9
$DIMLWD
 70
    -2
  9
$DIMLWE
 70
    -2
  9
$DIMTMOVE
 70
     0
  9
$DIMFXL
 40
1.0
  9
$DIMFXLON
 70
     0
  9
$DIMJOGANG
 40
0.7853981633974483
  9
$DIMTFILL
 70
     0
  9
$DIMTFILLCLR
 70
     0
  9
$DIMARCSYM
 70
     0
  9
$DIMLTYPE
  6

  9
$DIMLTEX1
  6

  9
$DIMLTEX2
  6

  9
$LUNITS
 70
     2
  9
$LUPREC
 70
     0
  9
$SKETCHINC
 40
0.1
  9
$FILLETRAD
 40
0.0
  9
$AUNITS
 70
     0
  9
$AUPREC
 70
     0
  9
$MENU
  1
acad
  9
$ELEVATION
 40
0.0
  9
$PELEVATION
 40
0.0
  9
$THICKNESS
 40
0.0
  9
$LIMCHECK
 70
     0
  9
$CHAMFERA
 40
0.0
  9
$CHAMFERB
 40
0.0
  9
$CHAMFERC
 40
0.0
  9
$CHAMFERD
 40
0.0
  9
$SKPOLY
 70
     0
  9
$TDCREATE
 40
2447893.375
  9
$TDUCREATE
 40
0.0
  9
$TDUPDATE
 40
2458894.424440335
  9
$TDUUPDATE
 40
2458894.049440335
  9
$TDINDWG
 40
0.1091450116
  9
$TDUSRTIMER
 40
0.0034021065
  9
$USRTIMER
 70
     1
  9
$ANGBASE
 50
0.0
  9
$ANGDIR
 70
     0
  9
$PDMODE
 70
     1
  9
$PDSIZE
 40
-2.0
  9
$PLINEWID
 40
0.0
  9
$SPLFRAME
 70
     0
  9
$SPLINETYPE
 70
     6
  9
$SPLINESEGS
 70
     8
  9
$HANDSEED
  5
4165
  9
$SURFTAB1
 70
     6
  9
$SURFTAB2
 70
     6
  9
$SURFTYPE
 70
     6
  9
$SURFU
 70
     6
  9
$SURFV
 70
     6
  9
$UCSBASE
  2

  9
$UCSNAME
  2

  9
$UCSORG
 10
0.0
 20
0.0
 30
0.0
  9
$UCSXDIR
 10
1.0
 20
0.0
 30
0.0
  9
$UCSYDIR
 10
0.0
 20
1.0
 30
0.0
  9
$UCSORTHOREF
  2

  9
$UCSORTHOVIEW
 70
     0
  9
$UCSORGTOP
 10
0.0
 20
0.0
 30
0.0
  9
$UCSORGBOTTOM
 10
0.0
 20
0.0
 30
0.0
  9
$UCSORGLEFT
 10
0.0
 20
0.0
 30
0.0
  9
$UCSORGRIGHT
 10
0.0
 20
0.0
 30
0.0
  9
$UCSORGFRONT
 10
0.0
 20
0.0
 30
0.0
  9
$UCSORGBACK
 10
0.0
 20
0.0
 30
0.0
  9
$PUCSBASE
  2

  9
$PUCSNAME
  2

  9
$PUCSORG
 10
0.0
 20
0.0
 30
0.0
  9
$PUCSXDIR
 10
1.0
 20
0.0
 30
0.0
  9
$PUCSYDIR
 10
0.0
 20
1.0
 30
0.0
  9
$PUCSORTHOREF
  2

  9
$PUCSORTHOVIEW
 70
     0
  9
$PUCSORGTOP
 10
0.0
 20
0.0
 30
0.0
  9
$PUCSORGBOTTOM
 10
0.0
 20
0.0
 30
0.0
  9
$PUCSORGLEFT
 10
0.0
 20
0.0
 30
0.0
  9
$PUCSORGRIGHT
 10
0.0
 20
0.0
 30
0.0
  9
$PUCSORGFRONT
 10
0.0
 20
0.0
 30
0.0
  9
$PUCSORGBACK
 10
0.0
 20
0.0
 30
0.0
  9
$USERI1
 70
     0
  9
$USERI2
 70
     0
  9
$USERI3
 70
     0
  9
$USERI4
 70
     0
  9
$USERI5
 70
     0
  9
$USERR1
 40
0.0
  9
$USERR2
 40
0.0
  9
$USERR3
 40
0.0
  9
$USERR4
 40
0.0
  9
$USERR5
 40
0.0
  9
$WORLDVIEW
 70
     1
  9
$SHADEDGE
 70
     3
  9
$SHADEDIF
 70
    70
  9
$TILEMODE
 70
     1
  9
$MAXACTVP
 70
    64
  9
$PINSBASE
 10
0.0
 20
0.0
 30
0.0
  9
$PLIMCHECK
 70
     0
  9
$PEXTMIN
 10
0.0
 20
0.0
 30
0.0
  9
$PEXTMAX
 10
0.0
 20
0.0
 30
0.0
  9
$PLIMMIN
 10
-7.5
 20
-20.0
  9
$PLIMMAX
 10
412.5
 20
277.0
  9
$UNITMODE
 70
     0
  9
$VISRETAIN
 70
     0
  9
$PLINEGEN
 70
     1
  9
$PSLTSCALE
 70
     0
  9
$TREEDEPTH
 70
  3020
  9
$CMLSTYLE
  2
Standard
  9
$CMLJUST
 70
     0
  9
$CMLSCALE
 40
1.0
  9
$PROXYGRAPHICS
 70
     0
  9
$MEASUREMENT
 70
     1
  9
$CELWEIGHT
370
    -1
  9
$ENDCAPS
280
     0
  9
$JOINSTYLE
280
     0
  9
$LWDISPLAY
290
     1
  9
$INSUNITS
 70
     4
  9
$HYPERLINKBASE
  1

  9
$STYLESHEET
  1

  9
$XEDIT
290
     1
  9
$CEPSNTYPE
380
     0
  9
$PSTYLEMODE
290
     1
  9
$FINGERPRINTGUID
  2

  9
$VERSIONGUID
  2

  9
$EXTNAMES
290
     1
  9
$PSVPSCALE
 40
0.0
  9
$OLESTARTUP
290
     0
  9
$SORTENTS
280
   127
  9
$INDEXCTL
280
     0
  9
$HIDETEXT
280
     1
  9
$XCLIPFRAME
290
     0
  9
$HALOGAP
280
     0
  9
$OBSCOLOR
 70
   257
  9
$OBSLTYPE
280
     0
  9
$INTERSECTIONDISPLAY
280
     0
  9
$INTERSECTIONCOLOR
 70
   257
  9
$DIMASSOC
280
     2
  9
$PROJECTNAME
  1

  9
$CAMERADISPLAY
290
     0
  9
$LENSLENGTH
 40
50.0
  9
$CAMERAHEIGHT
 40
0.0
  9
$STEPSPERSEC
 40
2.0
  9
$STEPSIZE
 40
6.0
  9
$3DDWFPREC
 40
2.0
  9
$PSOLWIDTH
 40
0.25
  9
$PSOLHEIGHT
 40
4.0
  9
$LOFTANG1
 40
1.570796326794897
  9
$LOFTANG2
 40
1.570796326794897
  9
$LOFTMAG1
 40
0.0
  9
$LOFTMAG2
 40
0.0
  9
$LOFTPARAM
 70
     7
  9
$LOFTNORMALS
280
     1
  9
$LATITUDE
 40
37.795
  9
$LONGITUDE
 40
-122.394
  9
$NORTHDIRECTION
 40
0.0
  9
$TIMEZONE
 70
 -8000
  9
$LIGHTGLYPHDISPLAY
280
     1
  9
$TILEMODELIGHTSYNCH
280
     1
  9
$SOLIDHIST
280
     1
  9
$SHOWHIST
280
     1
  9
$DWFFRAME
280
     2
  9
$DGNFRAME
280
     2
  9
$REALWORLDSCALE
290
     1
  9
$INTERFERECOLOR
 62
   256
  9
$CSHADOW
280
     0
  9
$SHADOWPLANELOCATION
 40
0.0
  0
ENDSEC
  0
SECTION
  2
CLASSES
  0
CLASS
  1
LWPOLYLINE
  2
AcDbPolyline
  3
ObjectDBX Classes
 90
        0
 91
        1
280
     0
281
     1
  0
CLASS
  1
IMAGE
  2
AcDbRasterImage
  3
ISM
 90
      127
 91
        5
280
     0
281
     1
  0
CLASS
  1
OLE2FRAME
  2
AcDbOle2Frame
  3
ObjectDBX Classes
 90
        0
 91
        1
280
     0
281
     1
  0
CLASS
  1
HATCH
  2
AcDbHatch
  3
ObjectDBX Classes
 90
        0
 91
        1
280
     0
281
     1
  0
CLASS
  1
DICTIONARYVAR
  2
AcDbDictionaryVar
  3
ObjectDBX Classes
 90
        0
 91
        4
280
     0
281
     0
  0
CLASS
  1
RASTERVARIABLES
  2
AcDbRasterVariables
  3
ISM
 90
        0
 91
        4
280
     0
281
     0
  0
CLASS
  1
IMAGEDEF
  2
AcDbRasterImageDef
  3
ISM
 90
        0
 91
        4
280
     0
281
     0
  0
CLASS
  1
IMAGEDEF_REACTOR
  2
AcDbRasterImageDefReactor
  3
ISM
 90
        1
 91
        4
280
     0
281
     0
  0
CLASS
  1
IDBUFFER
  2
AcDbIdBuffer
  3
ObjectDBX Classes
 90
        0
 91
        4
280
     0
281
     0
  0
CLASS
  1
SPATIAL_FILTER
  2
AcDbSpatialFilter
  3
ObjectDBX Classes
 90
        0
 91
        4
280
     0
281
     0
  0
CLASS
  1
XRECORD
  2
AcDbXrecord
  3
ObjectDBX Classes
 90
        0
 91
        1
280
     0
281
     0
  0
CLASS
  1
SORTENTSTABLE
  2
AcDbSortentsTable
  3
ObjectDBX Classes
 90
        0
 91
        4
280
     0
281
     0
  0
CLASS
  1
LAYER_INDEX
  2
AcDbLayerIndex
  3
ObjectDBX Classes
 90
        0
 91
        4
280
     0
281
     0
  0
CLASS
  1
SPATIAL_INDEX
  2
AcDbSpatialIndex
  3
AutoCAD 2000
 90
        0
 91
        4
280
     0
281
     0
  0
CLASS
  1
OBJECT_PTR
  2
CAseDLPNTableRecord
  3
ASE-LPNTableRecord
 90
        1
 91
        4
280
     0
281
     0
  0
CLASS
  1
LAYOUT
  2
AcDbLayout
  3
ObjectDBX Classes
 90
        0
 91
        1
280
     0
281
     0
  0
CLASS
  1
PLOTSETTINGS
  2
AcDbPlotSettings
  3
ObjectDBX Classes
 90
        0
 91
        4
280
     0
281
     0
  0
CLASS
  1
ACDBDICTIONARYWDFLT
  2
AcDbDictionaryWithDefault
  3
ObjectDBX Classes
 90
        0
 91
        4
280
     0
281
     0
  0
CLASS
  1
ACDBPLACEHOLDER
  2
AcDbPlaceHolder
  3
ObjectDBX Classes
 90
        0
 91
        1
280
     0
281
     0
  0
CLASS
  1
SCALE
  2
AcDbScale
  3
ObjectDBX Classes
 90
     1153
 91
        4
280
     0
281
     0
  0
CLASS
  1
MATERIAL
  2
AcDbMaterial
  3
ObjectDBX Classes
 90
     1153
 91
        4
280
     0
281
     0
  0
CLASS
  1
VISUALSTYLE
  2
AcDbVisualStyle
  3
ObjectDBX Classes
 90
     4095
 91
        4
280
     0
281
     0
  0
CLASS
  1
TABLESTYLE
  2
AcDbTableStyle
  3
ObjectDBX Classes
 90
     4095
 91
        4
280
     0
281
     0
  0
CLASS
  1
DIMASSOC
  2
AcDbDimAssoc
  3
"AcDbDimAssoc|Product Desc:     AcDim ARX App For Dimension|Company:          Autodesk, Inc.|WEB Address:      www.autodesk.com"
 90
        0
 91
        4
280
     0
281
     0
  0
CLASS
  1
CELLSTYLEMAP
  2
AcDbCellStyleMap
  3
ObjectDBX Classes
 90
     1152
 91
        4
280
     0
281
     0
  0
CLASS
  1
SUN
  2
AcDbSun
  3
SCENEOE
 90
     1153
 91
        4
280
     0
281
     0
  0
CLASS
  1
MLEADERSTYLE
  2
AcDbMLeaderStyle
  3
ACDB_MLEADERSTYLE_CLASS
 90
     4095
 91
        4
280
     0
281
     0
  0
CLASS
  1
FIELD
  2
AcDbField
  3
ObjectDBX Classes
 90
     1152
 91
        4
280
     0
281
     0
  0
CLASS
  1
FIELDLIST
  2
AcDbFieldList
  3
ObjectDBX Classes
 90
     1152
 91
        4
280
     0
281
     0
  0
CLASS
  1
ACDB_ALDIMOBJECTCONTEXTDATA_CLASS
  2
AcDbAlignedDimensionObjectContextData
  3
ObjectDBX Classes
 90
     1153
 91
        4
280
     0
281
     0
  0
ENDSEC
  0
SECTION
  2
TABLES
  0
TABLE
  2
VPORT
  5
7
330
0
100
AcDbSymbolTable
 70
     1
  0
VPORT
  5
15
330
7
100
AcDbSymbolTableRecord
100
AcDbViewportTableRecord
  2
*ACTIVE
 70
     0
 10
0.0
 20
0.0
 11
1.0
 21
1.0
 12
672.9525617540357
 22
1782.612370234526
 13
0.0
 23
0.0
 14
1.0
 24
1.0
 15
0.0
 25
0.0
 16
0.0
 26
0.0
 36
1.0
 17
377.0474382459643
 27
-297.6123702345262
 37
0.0
 40
3029.4
 41
2.341176470588235
 42
50.0
 43
0.0
 44
0.0
 50
0.0
 51
0.0
 71
    16
 72
  2000
 73
     1
 74
     1
 75
     0
 76
     0
 77
     0
 78
     0
281
     0
 65
     1
110
0.0
120
0.0
130
0.0
111
1.0
121
0.0
131
0.0
112
0.0
122
1.0
132
0.0
 79
     0
146
0.0
348
26C
 60
     3
 61
     5
292
     1
282
     1
141
0.0
142
0.0
 63
   256
361
8C2
  0
ENDTAB
  0
TABLE
  2
LTYPE
  5
4
330
0
100
AcDbSymbolTable
 70
     4
  0
LTYPE
  5
11
330
4
100
AcDbSymbolTableRecord
100
AcDbLinetypeTableRecord
  2
ByBlock
 70
     0
  3

 72
    65
 73
     0
 40
0.0
  0
LTYPE
  5
12
330
4
100
AcDbSymbolTableRecord
100
AcDbLinetypeTableRecord
  2
ByLayer
 70
     0
  3

 72
    65
 73
     0
 40
0.0
  0
LTYPE
  5
13
330
4
100
AcDbSymbolTableRecord
100
AcDbLinetypeTableRecord
  2
Continuous
 70
     0
  3
Solid line
 72
    65
 73
     0
 40
0.0
  0
LTYPE
  5
8D4
330
4
100
AcDbSymbolTableRecord
100
AcDbLinetypeTableRecord
  2
HIDDEN
 70
     0
  3
Hidden _ _ _ _ _ _ _ _ _ _ _ _ _ _ _ _ _ _ _ _ 
 72
    65
 73
     2
 40
9.524999999999999
 49
6.35
 74
     0
 49
-3.175
 74
     0
  0
LTYPE
  5
BF2
330
4
100
AcDbSymbolTableRecord
100
AcDbLinetypeTableRecord
  2
BORDER
 70
     0
  3
Border __  __  . __  __  . __  __  . __  __  . 
 72
    65
 73
     6
 40
44.45
 49
12.7
 74
     0
 49
-6.35
 74
     0
 49
12.7
 74
     0
 49
-6.35
 74
     0
 49
0.0
 74
     0
 49
-6.35
 74
     0
  0
LTYPE
  5
39F8
330
4
100
AcDbSymbolTableRecord
100
AcDbLinetypeTableRecord
  2
HIDDEN2
 70
     0
  3
Hidden (.5x) _ _ _ _ _ _ _ _ _ _ _ _ _ _ _ _ _ 
 72
    65
 73
     2
 40
4.762499999999999
 49
3.175
 74
     0
 49
-1.5875
 74
     0
  0
ENDTAB
  0
TABLE
  2
LAYER
  5
2
102
{ACAD_XDICTIONARY
360
2E1
102
}
330
0
100
AcDbSymbolTable
 70
    11
  0
LAYER
  5
14
330
2
100
AcDbSymbolTableRecord
100
AcDbLayerTableRecord
  2
0
 70
     0
 62
     7
  6
Continuous
370
    -3
390
1D
347
266
  0
LAYER
  5
4A
330
2
100
AcDbSymbolTableRecord
100
AcDbLayerTableRecord
  2
Defpoints
 70
     0
 62
     7
  6
Continuous
290
     0
370
    20
390
1D
347
266
  0
LAYER
  5
4B
330
2
100
AcDbSymbolTableRecord
100
AcDbLayerTableRecord
  2
template
 70
     0
 62
     7
  6
Continuous
370
    20
390
1D
347
266
  0
LAYER
  5
4D
330
2
100
AcDbSymbolTableRecord
100
AcDbLayerTableRecord
  2
MODEL
 70
     0
 62
     7
  6
Continuous
370
    20
390
1D
347
266
  0
LAYER
  5
382
330
2
100
AcDbSymbolTableRecord
100
AcDbLayerTableRecord
  2
レイヤー 1
 70
     0
 62
     7
  6
Continuous
370
    -3
390
1D
347
266
  0
LAYER
  5
5C4
330
2
100
AcDbSymbolTableRecord
100
AcDbLayerTableRecord
  2
HIDDEN
 70
     0
 62
   253
  6
HIDDEN
370
    20
390
1D
347
266
1001
AcAecLayerStandard
1000

1000

  0
LAYER
  5
5EB
330
2
100
AcDbSymbolTableRecord
100
AcDbLayerTableRecord
  2
Dim
 70
     0
 62
     3
  6
Continuous
370
    13
390
1D
347
266
1001
AcAecLayerStandard
1000

1000

  0
LAYER
  5
BF1
330
2
100
AcDbSymbolTableRecord
100
AcDbLayerTableRecord
  2
PRINT BORDER
 70
     0
 62
     4
  6
BORDER
290
     0
370
    20
390
1D
347
266
1001
AcAecLayerStandard
1000

1000

  0
LAYER
  5
39EF
102
{ACAD_XDICTIONARY
360
39F0
102
}
330
2
100
AcDbSymbolTableRecord
100
AcDbLayerTableRecord
  2
Quote
 70
     0
 62
    52
  6
Continuous
370
     9
390
1D
347
266
  0
LAYER
  5
39F5
102
{ACAD_XDICTIONARY
360
39F6
102
}
330
2
100
AcDbSymbolTableRecord
100
AcDbLayerTableRecord
  2
Retino
 70
     0
 62
   253
  6
Continuous
370
     0
390
1D
347
266
  0
LAYER
  5
3CFE
330
2
100
AcDbSymbolTableRecord
100
AcDbLayerTableRecord
  2
LOGO NEW
 70
     0
 62
   254
  6
Continuous
370
    -3
390
1D
347
266
  0
ENDTAB
  0
TABLE
  2
STYLE
  5
3
330
0
100
AcDbSymbolTable
 70
     2
  0
STYLE
  5
17
330
3
100
AcDbSymbolTableRecord
100
AcDbTextStyleTableRecord
  2
Standard
 70
     0
 40
0.0
 41
1.0
 50
0.0
 71
     0
 42
533.0403732820173
  3
txt
  4
BIGFONT.SHX
  0
STYLE
  5
39
330
3
100
AcDbSymbolTableRecord
100
AcDbTextStyleTableRecord
  2
ＭＳ ゴシック
 70
     0
 40
0.0
 41
1.0
 50
0.0
 71
     0
 42
533.0403732820173
  3
msgothic.ttc
  4
ＭＳ ゴシック
1001
ACAD
1000
ＭＳ ゴシック
1071
        0
  0
ENDTAB
  0
TABLE
  2
VIEW
  5
5
330
0
100
AcDbSymbolTable
 70
     0
  0
ENDTAB
  0
TABLE
  2
UCS
  5
6
330
0
100
AcDbSymbolTable
 70
     0
  0
ENDTAB
  0
TABLE
  2
APPID
  5
8
330
0
100
AcDbSymbolTable
 70
    13
  0
APPID
  5
16
330
8
100
AcDbSymbolTableRecord
100
AcDbRegAppTableRecord
  2
ACAD
 70
     0
  0
APPID
  5
5C5
330
8
100
AcDbSymbolTableRecord
100
AcDbRegAppTableRecord
  2
AcAecLayerStandard
 70
     0
  0
APPID
  5
913
330
8
100
AcDbSymbolTableRecord
100
AcDbRegAppTableRecord
  2
ACAD_DSTYLE_DIMBREAK
 70
     0
  0
APPID
  5
914
330
8
100
AcDbSymbolTableRecord
100
AcDbRegAppTableRecord
  2
ACAD_DSTYLE_DIMJAG
 70
     0
  0
APPID
  5
915
330
8
100
AcDbSymbolTableRecord
100
AcDbRegAppTableRecord
  2
ACAD_DSTYLE_DIMTALN
 70
     0
  0
APPID
  5
E4F
330
8
100
AcDbSymbolTableRecord
100
AcDbRegAppTableRecord
  2
ACAD_MLEADERVER
 70
     0
  0
APPID
  5
E79
330
8
100
AcDbSymbolTableRecord
100
AcDbRegAppTableRecord
  2
ACAD_PSEXT
 70
     0
  0
APPID
  5
E7A
330
8
100
AcDbSymbolTableRecord
100
AcDbRegAppTableRecord
  2
ACAD_NAV_VCDISPLAY
 70
     0
  0
APPID
  5
166E
330
8
100
AcDbSymbolTableRecord
100
AcDbRegAppTableRecord
  2
AcadAnnotative
 70
     0
  0
APPID
  5
166F
330
8
100
AcDbSymbolTableRecord
100
AcDbRegAppTableRecord
  2
GradientColor1ACI
 70
     0
  0
APPID
  5
1670
330
8
100
AcDbSymbolTableRecord
100
AcDbRegAppTableRecord
  2
GradientColor2ACI
 70
     0
  0
APPID
  5
20FE
330
8
100
AcDbSymbolTableRecord
100
AcDbRegAppTableRecord
  2
AcLayerTools
 70
     0
  0
APPID
  5
27AB
330
8
100
AcDbSymbolTableRecord
100
AcDbRegAppTableRecord
  2
ACAD_DSTYLE_DIMRADIAL_EXTENSION
 70
     0
  0
ENDTAB
  0
TABLE
  2
DIMSTYLE
  5
9
330
0
100
AcDbSymbolTable
 70
     3
100
AcDbDimStyleTable
  0
DIMSTYLE
105
18
330
9
100
AcDbSymbolTableRecord
100
AcDbDimStyleTableRecord
  2
Standard
 70
     0
178
     0
340
17
  0
DIMSTYLE
105
56
102
{ACAD_REACTORS
330
368C
330
368D
330
3691
330
3773
330
3811
330
38B1
102
}
330
9
100
AcDbSymbolTableRecord
100
AcDbDimStyleTableRecord
  2
tform線あり
 70
     0
  3
<>
  4
[]
 41
9.999389648437498
 42
25.0
 43
0.9999999999999999
 44
0.0
 73
     0
 74
     0
 77
     1
 78
    11
140
24.4326171875
141
0.0
143
1.0
146
0.8
147
10.0
171
     1
172
     1
174
     1
178
     0
179
     2
271
     1
272
     1
276
     2
284
    11
285
    11
286
    11
289
     0
340
39
341
4E
342
4E
  0
DIMSTYLE
105
3D02
330
9
100
AcDbSymbolTableRecord
100
AcDbDimStyleTableRecord
  2
scala 1a 1 ass
 70
     0
 41
2.0
 42
0.125
 43
0.0
 44
1.0
 49
2.0
290
     1
 73
     0
 74
     0
 77
     1
 78
     8
140
1.8
141
0.0
143
0.03937007874016
147
0.4
171
     3
176
   256
177
   256
271
     0
178
   256
271
     0
272
     0
274
     3
278
    44
283
     0
284
     8
340
17
371
    -1
372
     0
345
12
346
12
347
12
1001
AcadAnnotative
1000
AnnotativeData
1002
{
1070
     1
1070
     1
1002
}
1001
ACAD_DSTYLE_DIMJAG
1070
   388
1040
1.5
1001
ACAD_DSTYLE_DIMTALN
1070
   392
1070
     0
  0
ENDTAB
  0
TABLE
  2
BLOCK_RECORD
  5
1
330
0
100
AcDbSymbolTable
 70
    74
  0
BLOCK_RECORD
  5
A
102
{ACAD_XDICTIONARY
360
37F8
102
}
330
1
100
AcDbSymbolTableRecord
100
AcDbBlockTableRecord
  2
*MODEL_SPACE
340
20
 70
     0
280
     1
281
     0
  0
BLOCK_RECORD
  5
B
330
1
100
AcDbSymbolTableRecord
100
AcDbBlockTableRecord
  2
*PAPER_SPACE
340
21
 70
     0
280
     1
281
     0
  0
BLOCK_RECORD
  5
4E
330
1
100
AcDbSymbolTableRecord
100
AcDbBlockTableRecord
  2
_DOT
340
0
102
{BLKREFS
331
369B
331
369C
331
36A8
331
36A9
331
36CD
331
36CE
331
36E7
331
36E8
331
36F4
331
36F5
331
376D
331
376E
331
377E
331
377F
331
37DF
331
37E0
331
37EE
331
3818
331
3819
331
386F
331
3870
331
387C
331
387D
331
3899
331
389A
331
38A8
331
38A9
331
38B9
331
38BA
331
38C8
331
38C9
331
3927
331
3928
331
3936
331
3937
331
3947
331
3948
331
3967
331
3968
331
3973
331
3974
331
397F
331
3980
331
3999
331
399A
331
39A5
331
39A6
331
39B1
331
39B2
331
39C0
331
39C1
331
39CF
331
39D0
331
3C96
331
3C97
331
3CA3
331
3CA4
331
3CB2
331
3CB3
331
3CBB
331
3CBC
331
3CC8
331
3CC9
331
3CD5
331
3CD6
331
3CE2
331
3CE3
331
3CEF
331
3CF0
331
3FED
331
3FEE
331
3FFA
331
3FFB
331
4009
331
400A
331
4012
331
4013
331
401F
331
4020
331
402C
331
402D
331
4039
331
403A
331
4046
331
4047
331
407E
331
407F
331
40CF
331
40D0
331
40DE
331
40DF
331
40EF
331
40F0
331
4117
331
4118
331
4123
331
4124
331
412F
331
4130
102
}
 70
     0
280
     1
281
     0
  0
BLOCK_RECORD
  5
3A5
330
1
100
AcDbSymbolTableRecord
100
AcDbBlockTableRecord
  2
名称未設定-1
340
0
102
{BLKREFS
331
3D0
102
}
 70
     1
280
     1
281
     0
  0
BLOCK_RECORD
  5
3A8
330
1
100
AcDbSymbolTableRecord
100
AcDbBlockTableRecord
  2
block 2
340
0
102
{BLKREFS
331
3A7
102
}
 70
     0
280
     1
281
     0
  0
BLOCK_RECORD
  5
3AB
330
1
100
AcDbSymbolTableRecord
100
AcDbBlockTableRecord
  2
block 3
340
0
102
{BLKREFS
331
3AA
102
}
 70
     0
280
     1
281
     0
  0
BLOCK_RECORD
  5
3AE
330
1
100
AcDbSymbolTableRecord
100
AcDbBlockTableRecord
  2
block 4
340
0
102
{BLKREFS
331
3AD
102
}
 70
     0
280
     1
281
     0
  0
BLOCK_RECORD
  5
3BD
330
1
100
AcDbSymbolTableRecord
100
AcDbBlockTableRecord
  2
block 5
340
0
102
{BLKREFS
331
3BC
102
}
 70
     0
280
     1
281
     0
  0
BLOCK_RECORD
  5
11F0
330
1
100
AcDbSymbolTableRecord
100
AcDbBlockTableRecord
  2
BLOCK_2
340
0
102
{BLKREFS
331
1273
331
127B
331
127C
102
}
 70
     0
280
     1
281
     0
  0
BLOCK_RECORD
  5
3695
330
1
100
AcDbSymbolTableRecord
100
AcDbBlockTableRecord
  2
*D7
340
0
 70
     0
280
     1
281
     0
  0
BLOCK_RECORD
  5
36A2
330
1
100
AcDbSymbolTableRecord
100
AcDbBlockTableRecord
  2
*D8
340
0
 70
     0
280
     1
281
     0
  0
BLOCK_RECORD
  5
36C7
330
1
100
AcDbSymbolTableRecord
100
AcDbBlockTableRecord
  2
*D9
340
0
 70
     0
280
     1
281
     0
  0
BLOCK_RECORD
  5
36E1
330
1
100
AcDbSymbolTableRecord
100
AcDbBlockTableRecord
  2
*D10
340
0
 70
     0
280
     1
281
     0
  0
BLOCK_RECORD
  5
36EE
330
1
100
AcDbSymbolTableRecord
100
AcDbBlockTableRecord
  2
*D11
340
0
 70
     0
280
     1
281
     0
  0
BLOCK_RECORD
  5
3767
330
1
100
AcDbSymbolTableRecord
100
AcDbBlockTableRecord
  2
*D12
340
0
 70
     0
280
     1
281
     0
  0
BLOCK_RECORD
  5
3776
330
1
100
AcDbSymbolTableRecord
100
AcDbBlockTableRecord
  2
*D13
340
0
 70
     0
280
     1
281
     0
  0
BLOCK_RECORD
  5
37D9
330
1
100
AcDbSymbolTableRecord
100
AcDbBlockTableRecord
  2
*D14
340
0
 70
     0
280
     1
281
     0
  0
BLOCK_RECORD
  5
37E9
330
1
100
AcDbSymbolTableRecord
100
AcDbBlockTableRecord
  2
*D15
340
0
 70
     0
280
     1
281
     0
  0
BLOCK_RECORD
  5
3812
330
1
100
AcDbSymbolTableRecord
100
AcDbBlockTableRecord
  2
*D16
340
0
 70
     0
280
     1
281
     0
  0
BLOCK_RECORD
  5
3869
330
1
100
AcDbSymbolTableRecord
100
AcDbBlockTableRecord
  2
*D17
340
0
 70
     0
280
     1
281
     0
  0
BLOCK_RECORD
  5
3876
330
1
100
AcDbSymbolTableRecord
100
AcDbBlockTableRecord
  2
*D18
340
0
 70
     0
280
     1
281
     0
  0
BLOCK_RECORD
  5
3893
330
1
100
AcDbSymbolTableRecord
100
AcDbBlockTableRecord
  2
*D19
340
0
 70
     0
280
     1
281
     0
  0
BLOCK_RECORD
  5
38A2
330
1
100
AcDbSymbolTableRecord
100
AcDbBlockTableRecord
  2
*D20
340
0
 70
     0
280
     1
281
     0
  0
BLOCK_RECORD
  5
38B3
330
1
100
AcDbSymbolTableRecord
100
AcDbBlockTableRecord
  2
*D21
340
0
 70
     0
280
     1
281
     0
  0
BLOCK_RECORD
  5
38C2
330
1
100
AcDbSymbolTableRecord
100
AcDbBlockTableRecord
  2
*D22
340
0
 70
     0
280
     1
281
     0
  0
BLOCK_RECORD
  5
3922
330
1
100
AcDbSymbolTableRecord
100
AcDbBlockTableRecord
  2
*D23
340
0
 70
     0
280
     1
281
     0
  0
BLOCK_RECORD
  5
3931
330
1
100
AcDbSymbolTableRecord
100
AcDbBlockTableRecord
  2
*D24
340
0
 70
     0
280
     1
281
     0
  0
BLOCK_RECORD
  5
3942
330
1
100
AcDbSymbolTableRecord
100
AcDbBlockTableRecord
  2
*D25
340
0
 70
     0
280
     1
281
     0
  0
BLOCK_RECORD
  5
3961
330
1
100
AcDbSymbolTableRecord
100
AcDbBlockTableRecord
  2
*D26
340
0
 70
     0
280
     1
281
     0
  0
BLOCK_RECORD
  5
396D
330
1
100
AcDbSymbolTableRecord
100
AcDbBlockTableRecord
  2
*D27
340
0
 70
     0
280
     1
281
     0
  0
BLOCK_RECORD
  5
3979
330
1
100
AcDbSymbolTableRecord
100
AcDbBlockTableRecord
  2
*D28
340
0
 70
     0
280
     1
281
     0
  0
BLOCK_RECORD
  5
3993
330
1
100
AcDbSymbolTableRecord
100
AcDbBlockTableRecord
  2
*D29
340
0
 70
     0
280
     1
281
     0
  0
BLOCK_RECORD
  5
399F
330
1
100
AcDbSymbolTableRecord
100
AcDbBlockTableRecord
  2
*D30
340
0
 70
     0
280
     1
281
     0
  0
BLOCK_RECORD
  5
39AB
330
1
100
AcDbSymbolTableRecord
100
AcDbBlockTableRecord
  2
*D31
340
0
 70
     0
280
     1
281
     0
  0
BLOCK_RECORD
  5
39BA
330
1
100
AcDbSymbolTableRecord
100
AcDbBlockTableRecord
  2
*D32
340
0
 70
     0
280
     1
281
     0
  0
BLOCK_RECORD
  5
39C9
330
1
100
AcDbSymbolTableRecord
100
AcDbBlockTableRecord
  2
*D33
340
0
 70
     0
280
     1
281
     0
  0
BLOCK_RECORD
  5
39FB
330
1
100
AcDbSymbolTableRecord
100
AcDbBlockTableRecord
  2
_None
340
0
 70
     0
280
     1
281
     0
  0
BLOCK_RECORD
  5
3B1E
330
1
100
AcDbSymbolTableRecord
100
AcDbBlockTableRecord
  2
*D35
340
0
 70
     0
280
     1
281
     0
  0
BLOCK_RECORD
  5
3B29
330
1
100
AcDbSymbolTableRecord
100
AcDbBlockTableRecord
  2
*D36
340
0
 70
     0
280
     1
281
     0
  0
BLOCK_RECORD
  5
3B35
330
1
100
AcDbSymbolTableRecord
100
AcDbBlockTableRecord
  2
*D37
340
0
 70
     0
280
     1
281
     0
  0
BLOCK_RECORD
  5
3B3E
330
1
100
AcDbSymbolTableRecord
100
AcDbBlockTableRecord
  2
*D38
340
0
 70
     0
280
     1
281
     0
  0
BLOCK_RECORD
  5
3B49
330
1
100
AcDbSymbolTableRecord
100
AcDbBlockTableRecord
  2
*D39
340
0
 70
     0
280
     1
281
     0
  0
BLOCK_RECORD
  5
3B54
330
1
100
AcDbSymbolTableRecord
100
AcDbBlockTableRecord
  2
*D40
340
0
 70
     0
280
     1
281
     0
  0
BLOCK_RECORD
  5
3B5F
330
1
100
AcDbSymbolTableRecord
100
AcDbBlockTableRecord
  2
*D41
340
0
 70
     0
280
     1
281
     0
  0
BLOCK_RECORD
  5
3B6A
330
1
100
AcDbSymbolTableRecord
100
AcDbBlockTableRecord
  2
*D42
340
0
 70
     0
280
     1
281
     0
  0
BLOCK_RECORD
  5
3C90
330
1
100
AcDbSymbolTableRecord
100
AcDbBlockTableRecord
  2
*D43
340
0
 70
     0
280
     1
281
     0
  0
BLOCK_RECORD
  5
3C9D
330
1
100
AcDbSymbolTableRecord
100
AcDbBlockTableRecord
  2
*D44
340
0
 70
     0
280
     1
281
     0
  0
BLOCK_RECORD
  5
3CAA
330
1
100
AcDbSymbolTableRecord
100
AcDbBlockTableRecord
  2
*D45
340
0
 70
     0
280
     1
281
     0
  0
BLOCK_RECORD
  5
3CB5
330
1
100
AcDbSymbolTableRecord
100
AcDbBlockTableRecord
  2
*D46
340
0
 70
     0
280
     1
281
     0
  0
BLOCK_RECORD
  5
3CC2
330
1
100
AcDbSymbolTableRecord
100
AcDbBlockTableRecord
  2
*D47
340
0
 70
     0
280
     1
281
     0
  0
BLOCK_RECORD
  5
3CCF
330
1
100
AcDbSymbolTableRecord
100
AcDbBlockTableRecord
  2
*D48
340
0
 70
     0
280
     1
281
     0
  0
BLOCK_RECORD
  5
3CDC
330
1
100
AcDbSymbolTableRecord
100
AcDbBlockTableRecord
  2
*D49
340
0
 70
     0
280
     1
281
     0
  0
BLOCK_RECORD
  5
3CE9
330
1
100
AcDbSymbolTableRecord
100
AcDbBlockTableRecord
  2
*D50
340
0
 70
     0
280
     1
281
     0
  0
BLOCK_RECORD
  5
3E4F
330
1
100
AcDbSymbolTableRecord
100
AcDbBlockTableRecord
  2
*D51
340
0
 70
     0
280
     1
281
     0
  0
BLOCK_RECORD
  5
3E5A
330
1
100
AcDbSymbolTableRecord
100
AcDbBlockTableRecord
  2
*D52
340
0
 70
     0
280
     1
281
     0
  0
BLOCK_RECORD
  5
3E66
330
1
100
AcDbSymbolTableRecord
100
AcDbBlockTableRecord
  2
*D53
340
0
 70
     0
280
     1
281
     0
  0
BLOCK_RECORD
  5
3E6F
330
1
100
AcDbSymbolTableRecord
100
AcDbBlockTableRecord
  2
*D54
340
0
 70
     0
280
     1
281
     0
  0
BLOCK_RECORD
  5
3E7A
330
1
100
AcDbSymbolTableRecord
100
AcDbBlockTableRecord
  2
*D55
340
0
 70
     0
280
     1
281
     0
  0
BLOCK_RECORD
  5
3E85
330
1
100
AcDbSymbolTableRecord
100
AcDbBlockTableRecord
  2
*D56
340
0
 70
     0
280
     1
281
     0
  0
BLOCK_RECORD
  5
3E90
330
1
100
AcDbSymbolTableRecord
100
AcDbBlockTableRecord
  2
*D57
340
0
 70
     0
280
     1
281
     0
  0
BLOCK_RECORD
  5
3E9B
330
1
100
AcDbSymbolTableRecord
100
AcDbBlockTableRecord
  2
*D58
340
0
 70
     0
280
     1
281
     0
  0
BLOCK_RECORD
  5
3FE7
330
1
100
AcDbSymbolTableRecord
100
AcDbBlockTableRecord
  2
*D59
340
0
 70
     0
280
     1
281
     0
  0
BLOCK_RECORD
  5
3FF4
330
1
100
AcDbSymbolTableRecord
100
AcDbBlockTableRecord
  2
*D60
340
0
 70
     0
280
     1
281
     0
  0
BLOCK_RECORD
  5
4001
330
1
100
AcDbSymbolTableRecord
100
AcDbBlockTableRecord
  2
*D61
340
0
 70
     0
280
     1
281
     0
  0
BLOCK_RECORD
  5
400C
330
1
100
AcDbSymbolTableRecord
100
AcDbBlockTableRecord
  2
*D62
340
0
 70
     0
280
     1
281
     0
  0
BLOCK_RECORD
  5
4019
330
1
100
AcDbSymbolTableRecord
100
AcDbBlockTableRecord
  2
*D63
340
0
 70
     0
280
     1
281
     0
  0
BLOCK_RECORD
  5
4026
330
1
100
AcDbSymbolTableRecord
100
AcDbBlockTableRecord
  2
*D64
340
0
 70
     0
280
     1
281
     0
  0
BLOCK_RECORD
  5
4033
330
1
100
AcDbSymbolTableRecord
100
AcDbBlockTableRecord
  2
*D65
340
0
 70
     0
280
     1
281
     0
  0
BLOCK_RECORD
  5
4040
330
1
100
AcDbSymbolTableRecord
100
AcDbBlockTableRecord
  2
*D66
340
0
 70
     0
280
     1
281
     0
  0
BLOCK_RECORD
  5
4078
330
1
100
AcDbSymbolTableRecord
100
AcDbBlockTableRecord
  2
*D67
340
0
 70
     0
280
     1
281
     0
  0
BLOCK_RECORD
  5
40CA
330
1
100
AcDbSymbolTableRecord
100
AcDbBlockTableRecord
  2
*D68
340
0
 70
     0
280
     1
281
     0
  0
BLOCK_RECORD
  5
40D9
330
1
100
AcDbSymbolTableRecord
100
AcDbBlockTableRecord
  2
*D69
340
0
 70
     0
280
     1
281
     0
  0
BLOCK_RECORD
  5
40EA
330
1
100
AcDbSymbolTableRecord
100
AcDbBlockTableRecord
  2
*D70
340
0
 70
     0
280
     1
281
     0
  0
BLOCK_RECORD
  5
4111
330
1
100
AcDbSymbolTableRecord
100
AcDbBlockTableRecord
  2
*D71
340
0
 70
     0
280
     1
281
     0
  0
BLOCK_RECORD
  5
411D
330
1
100
AcDbSymbolTableRecord
100
AcDbBlockTableRecord
  2
*D72
340
0
 70
     0
280
     1
281
     0
  0
BLOCK_RECORD
  5
4129
330
1
100
AcDbSymbolTableRecord
100
AcDbBlockTableRecord
  2
*D73
340
0
 70
     0
280
     1
281
     0
  0
ENDTAB
  0
ENDSEC
  0
SECTION
  2
BLOCKS
  0
BLOCK
  5
D
330
A
100
AcDbEntity
  8
0
390
1D
100
AcDbBlockBegin
  2
*MODEL_SPACE
 70
     0
 10
0.0
 20
0.0
 30
0.0
  3
*MODEL_SPACE
  1
*MODEL_SPACE
  0
ENDBLK
  5
E
330
A
100
AcDbEntity
  8
0
390
1D
100
AcDbBlockEnd
  0
BLOCK
  5
F
330
B
100
AcDbEntity
 67
     1
  8
0
390
1D
100
AcDbBlockBegin
  2
*PAPER_SPACE
 70
     0
 10
0.0
 20
0.0
 30
0.0
  3
*PAPER_SPACE
  1
*PAPER_SPACE
  0
ENDBLK
  5
10
330
B
100
AcDbEntity
 67
     1
  8
0
390
1D
100
AcDbBlockEnd
  0
BLOCK
  5
2C14
330
4E
100
AcDbEntity
  8
0
390
1D
100
AcDbBlockBegin
  2
_DOT
 70
     0
 10
0.0
 20
0.0
 30
0.0
  3
_DOT
  1
_DOT
  0
POLYLINE
  5
2C16
330
4E
100
AcDbEntity
  8
0
  6
ByBlock
 62
     0
370
    -2
390
1D
100
AcDb2dPolyline
 66
     1
 10
0.0
 20
0.0
 30
0.0
 70
     1
 40
0.5
 41
0.5
  0
VERTEX
  5
2C17
330
2C16
100
AcDbEntity
  8
0
  6
ByBlock
 62
     0
370
    -2
390
1D
100
AcDbVertex
100
AcDb2dVertex
 10
-0.25
 20
0.0
 30
0.0
 42
1.0
  0
VERTEX
  5
2C18
330
2C16
100
AcDbEntity
  8
0
  6
ByBlock
 62
     0
370
    -2
390
1D
100
AcDbVertex
100
AcDb2dVertex
 10
0.25
 20
0.0
 30
0.0
 42
1.0
  0
SEQEND
  5
2C19
330
2C16
100
AcDbEntity
  8
0
390
1D
  0
LINE
  5
2C1A
330
4E
100
AcDbEntity
  8
0
  6
ByBlock
 62
     0
370
    -2
390
1D
100
AcDbLine
 10
-0.5
 20
0.0
 30
0.0
 11
-1.0
 21
0.0
 31
0.0
  0
ENDBLK
  5
2C1B
330
4E
100
AcDbEntity
  8
0
390
1D
100
AcDbBlockEnd
  0
BLOCK
  5
3A6
330
3A5
100
AcDbEntity
  8
0
100
AcDbBlockBegin
  2
名称未設定-1
 70
     0
 10
0.0
 20
0.0
 30
0.0
  3
名称未設定-1
  1
名称未設定-1
  0
INSERT
  5
3A7
330
3A5
100
AcDbEntity
  8
レイヤー 1
100
AcDbBlockReference
  2
block 2
 10
0.0
 20
0.0
 30
0.0
  0
ENDBLK
  5
3CC
330
3A5
100
AcDbEntity
  8
0
100
AcDbBlockEnd
  0
BLOCK
  5
3A9
330
3A8
100
AcDbEntity
  8
0
100
AcDbBlockBegin
  2
block 2
 70
     0
 10
0.0
 20
0.0
 30
0.0
  3
block 2
  1
block 2
  0
INSERT
  5
3AA
330
3A8
100
AcDbEntity
  8
レイヤー 1
100
AcDbBlockReference
  2
block 3
 10
0.0
 20
0.0
 30
0.0
  0
ENDBLK
  5
3CB
330
3A8
100
AcDbEntity
  8
0
100
AcDbBlockEnd
  0
BLOCK
  5
3AC
330
3AB
100
AcDbEntity
  8
0
100
AcDbBlockBegin
  2
block 3
 70
     0
 10
0.0
 20
0.0
 30
0.0
  3
block 3
  1
block 3
  0
INSERT
  5
3AD
330
3AB
100
AcDbEntity
  8
レイヤー 1
100
AcDbBlockReference
  2
block 4
 10
0.0
 20
0.0
 30
0.0
  0
ENDBLK
  5
3CA
330
3AB
100
AcDbEntity
  8
0
100
AcDbBlockEnd
  0
BLOCK
  5
3AF
330
3AE
100
AcDbEntity
  8
0
100
AcDbBlockBegin
  2
block 4
 70
     0
 10
0.0
 20
0.0
 30
0.0
  3
block 4
  1
block 4
  0
POLYLINE
  5
3B0
330
3AE
100
AcDbEntity
  8
レイヤー 1
370
     0
100
AcDb2dPolyline
 66
     1
 10
0.0
 20
0.0
 30
0.0
  0
VERTEX
  5
3B1
330
3B0
100
AcDbEntity
  8
レイヤー 1
370
     0
100
AcDbVertex
100
AcDb2dVertex
 10
83.79545727667795
 20
167.6444858234922
 30
0.0
  0
VERTEX
  5
3B2
330
3B0
100
AcDbEntity
  8
レイヤー 1
370
     0
100
AcDbVertex
100
AcDb2dVertex
 10
83.79545727667795
 20
159.7968976406313
 30
0.0
  0
VERTEX
  5
3B3
330
3B0
100
AcDbEntity
  8
レイヤー 1
370
     0
100
AcDbVertex
100
AcDb2dVertex
 10
71.3631329975216
 20
159.7968976406313
 30
0.0
  0
VERTEX
  5
3B4
330
3B0
100
AcDbEntity
  8
レイヤー 1
370
     0
100
AcDbVertex
100
AcDb2dVertex
 10
71.3631329975216
 20
127.8027915271048
 30
0.0
  0
VERTEX
  5
3B5
330
3B0
100
AcDbEntity
  8
レイヤー 1
370
     0
100
AcDbVertex
100
AcDb2dVertex
 10
60.43011526263018
 20
127.8027915271048
 30
0.0
  0
VERTEX
  5
3B6
330
3B0
100
AcDbEntity
  8
レイヤー 1
370
     0
100
AcDbVertex
100
AcDb2dVertex
 10
60.43011526263018
 20
159.7968976406313
 30
0.0
  0
VERTEX
  5
3B7
330
3B0
100
AcDbEntity
  8
レイヤー 1
370
     0
100
AcDbVertex
100
AcDb2dVertex
 10
48.21793273020759
 20
159.7968976406313
 30
0.0
  0
VERTEX
  5
3B8
330
3B0
100
AcDbEntity
  8
レイヤー 1
370
     0
100
AcDbVertex
100
AcDb2dVertex
 10
48.21793273020759
 20
167.6444858234922
 30
0.0
  0
VERTEX
  5
3B9
330
3B0
100
AcDbEntity
  8
レイヤー 1
370
     0
100
AcDbVertex
100
AcDb2dVertex
 10
83.79545727667795
 20
167.6444858234922
 30
0.0
  0
SEQEND
  5
3BA
330
3B0
100
AcDbEntity
  8
レイヤー 1
370
     0
  0
HATCH
  5
3BB
330
3AE
100
AcDbEntity
  8
レイヤー 1
 62
   250
420
  2234388
100
AcDbHatch
 10
0.0
 20
0.0
 30
0.0
210
0.0
220
0.0
230
1.0
  2
SOLID
 70
     1
 71
     0
 91
        1
 92
        1
 93
        8
 72
     1
 10
83.79545727667795
 20
167.6444858234922
 11
83.79545727667795
 21
159.7968976406313
 72
     1
 10
83.79545727667795
 20
159.7968976406313
 11
71.3631329975216
 21
159.7968976406313
 72
     1
 10
71.3631329975216
 20
159.7968976406313
 11
71.3631329975216
 21
127.8027915271048
 72
     1
 10
71.3631329975216
 20
127.8027915271048
 11
60.43011526263018
 21
127.8027915271048
 72
     1
 10
60.43011526263018
 20
127.8027915271048
 11
60.43011526263018
 21
159.7968976406313
 72
     1
 10
60.43011526263018
 20
159.7968976406313
 11
48.21793273020759
 21
159.7968976406313
 72
     1
 10
48.21793273020759
 20
159.7968976406313
 11
48.21793273020759
 21
167.6444858234922
 72
     1
 10
48.21793273020759
 20
167.6444858234922
 11
83.79545727667795
 21
167.6444858234922
 97
        0
 75
     2
 76
     1
 98
        0
  0
INSERT
  5
3BC
330
3AE
100
AcDbEntity
  8
レイヤー 1
100
AcDbBlockReference
  2
block 5
 10
0.0
 20
0.0
 30
0.0
  0
ENDBLK
  5
3C9
330
3AE
100
AcDbEntity
  8
0
100
AcDbBlockEnd
  0
BLOCK
  5
3BE
330
3BD
100
AcDbEntity
  8
0
100
AcDbBlockBegin
  2
block 5
 70
     0
 10
0.0
 20
0.0
 30
0.0
  3
block 5
  1
block 5
  0
SPLINE
  5
3BF
330
3BD
100
AcDbEntity
  8
レイヤー 1
370
     0
100
AcDbSpline
210
0.0
220
0.0
230
1.0
 70
    11
 71
     3
 72
    56
 73
    52
 74
     0
 42
0.000000001
 43
0.0000000001
 40
0.0
 40
0.0
 40
0.0
 40
0.0
 40
1.0
 40
1.0
 40
1.0
 40
2.0
 40
2.0
 40
2.0
 40
3.0
 40
3.0
 40
3.0
 40
4.0
 40
4.0
 40
4.0
 40
5.0
 40
5.0
 40
5.0
 40
6.0
 40
6.0
 40
6.0
 40
7.0
 40
7.0
 40
7.0
 40
8.0
 40
8.0
 40
8.0
 40
9.0
 40
9.0
 40
9.0
 40
10.0
 40
10.0
 40
10.0
 40
11.0
 40
11.0
 40
11.0
 40
12.0
 40
12.0
 40
12.0
 40
13.0
 40
13.0
 40
13.0
 40
14.0
 40
14.0
 40
14.0
 40
15.0
 40
15.0
 40
15.0
 40
16.0
 40
16.0
 40
16.0
 40
17.0
 40
17.0
 40
17.0
 40
17.0
 10
100.4504378777679
 20
166.69157178364
 30
0.0
 10
101.9848844191641
 20
167.1313385124438
 30
0.0
 10
103.9637485713373
 20
166.7649523658846
 30
0.0
 10
103.9637485713373
 20
166.7649523658846
 30
0.0
 10
103.9637485713373
 20
166.7649523658846
 30
0.0
 10
103.0132460999156
 20
163.911205638077
 30
0.0
 10
103.0132460999156
 20
163.911205638077
 30
0.0
 10
103.0132460999156
 20
163.911205638077
 30
0.0
 10
101.0674548862189
 20
164.3601018759394
 30
0.0
 10
99.57090442016032
 20
163.1805004036133
 30
0.0
 10
98.40508333886608
 20
162.258247733807
 30
0.0
 10
97.65301849830304
 20
159.804132345923
 30
0.0
 10
97.3598406791005
 20
158.8699940888517
 30
0.0
 10
97.3598406791005
 20
158.8699940888517
 30
0.0
 10
96.07137411762282
 20
154.9119212747295
 30
0.0
 10
96.07137411762282
 20
154.9119212747295
 30
0.0
 10
96.07137411762282
 20
154.9119212747295
 30
0.0
 10
100.3012651448482
 20
154.9119212747295
 30
0.0
 10
100.3012651448482
 20
154.9119212747295
 30
0.0
 10
100.3012651448482
 20
154.9119212747295
 30
0.0
 10
99.64152892419852
 20
152.4199098115079
 30
0.0
 10
99.64152892419852
 20
152.4199098115079
 30
0.0
 10
99.64152892419852
 20
152.4199098115079
 30
0.0
 10
95.38097652692731
 20
152.4199098115079
 30
0.0
 10
95.38097652692731
 20
152.4199098115079
 30
0.0
 10
95.38097652692731
 20
152.4199098115079
 30
0.0
 10
87.75353009080013
 20
127.8027915271048
 30
0.0
 10
87.75353009080013
 20
127.8027915271048
 30
0.0
 10
87.75353009080013
 20
127.8027915271048
 30
0.0
 10
85.36538832498108
 20
127.8027915271048
 30
0.0
 10
85.36538832498108
 20
127.8027915271048
 30
0.0
 10
85.36538832498108
 20
127.8027915271048
 30
0.0
 10
93.00006946639998
 20
152.4199098115079
 30
0.0
 10
93.00006946639998
 20
152.4199098115079
 30
0.0
 10
93.00006946639998
 20
152.4199098115079
 30
0.0
 10
89.85297266450198
 20
152.4199098115079
 30
0.0
 10
89.85297266450198
 20
152.4199098115079
 30
0.0
 10
89.85297266450198
 20
152.4199098115079
 30
0.0
 10
90.51270888515164
 20
154.9119212747295
 30
0.0
 10
90.51270888515164
 20
154.9119212747295
 30
0.0
 10
90.51270888515164
 20
154.9119212747295
 30
0.0
 10
93.6904670570955
 20
154.9119212747295
 30
0.0
 10
93.6904670570955
 20
154.9119212747295
 30
0.0
 10
93.6904670570955
 20
154.9119212747295
 30
0.0
 10
94.81598049462158
 20
158.3616699146644
 30
0.0
 10
94.81598049462158
 20
158.3616699146644
 30
0.0
 10
95.7237637538445
 20
161.2605474231013
 30
0.0
 10
96.4968436907311
 20
162.8139420021662
 30
0.0
 10
97.15657991138076
 20
163.9844139654337
 30
0.0
 10
97.81183750494507
 20
165.1523021053827
 30
0.0
 10
99.1047826935081
 20
166.3084769129547
 30
0.0
 10
100.4504378777679
 20
166.69157178364
 30
0.0
  0
HATCH
  5
3C0
330
3BD
100
AcDbEntity
  8
レイヤー 1
 62
   250
420
  2234388
100
AcDbHatch
 10
0.0
 20
0.0
 30
0.0
210
0.0
220
0.0
230
1.0
  2
SOLID
 70
     1
 71
     0
 91
        1
 92
        1
 93
        1
 72
     4
 94
        3
 73
     0
 74
     1
 95
       56
 96
       52
 40
0.0
 40
0.0
 40
0.0
 40
0.0
 40
1.0
 40
1.0
 40
1.0
 40
2.0
 40
2.0
 40
2.0
 40
3.0
 40
3.0
 40
3.0
 40
4.0
 40
4.0
 40
4.0
 40
5.0
 40
5.0
 40
5.0
 40
6.0
 40
6.0
 40
6.0
 40
7.0
 40
7.0
 40
7.0
 40
8.0
 40
8.0
 40
8.0
 40
9.0
 40
9.0
 40
9.0
 40
10.0
 40
10.0
 40
10.0
 40
11.0
 40
11.0
 40
11.0
 40
12.0
 40
12.0
 40
12.0
 40
13.0
 40
13.0
 40
13.0
 40
14.0
 40
14.0
 40
14.0
 40
15.0
 40
15.0
 40
15.0
 40
16.0
 40
16.0
 40
16.0
 40
17.0
 40
17.0
 40
17.0
 40
17.0
 10
100.4504378777679
 20
166.69157178364
 10
101.9848844191641
 20
167.1313385124438
 10
103.9637485713373
 20
166.7649523658846
 10
103.9637485713373
 20
166.7649523658846
 10
103.9637485713373
 20
166.7649523658846
 10
103.0132460999156
 20
163.911205638077
 10
103.0132460999156
 20
163.911205638077
 10
103.0132460999156
 20
163.911205638077
 10
101.0674548862189
 20
164.3601018759394
 10
99.57090442016032
 20
163.1805004036133
 10
98.40508333886608
 20
162.258247733807
 10
97.65301849830304
 20
159.804132345923
 10
97.3598406791005
 20
158.8699940888517
 10
97.3598406791005
 20
158.8699940888517
 10
96.07137411762282
 20
154.9119212747295
 10
96.07137411762282
 20
154.9119212747295
 10
96.07137411762282
 20
154.9119212747295
 10
100.3012651448482
 20
154.9119212747295
 10
100.3012651448482
 20
154.9119212747295
 10
100.3012651448482
 20
154.9119212747295
 10
99.64152892419852
 20
152.4199098115079
 10
99.64152892419852
 20
152.4199098115079
 10
99.64152892419852
 20
152.4199098115079
 10
95.38097652692731
 20
152.4199098115079
 10
95.38097652692731
 20
152.4199098115079
 10
95.38097652692731
 20
152.4199098115079
 10
87.75353009080013
 20
127.8027915271048
 10
87.75353009080013
 20
127.8027915271048
 10
87.75353009080013
 20
127.8027915271048
 10
85.36538832498108
 20
127.8027915271048
 10
85.36538832498108
 20
127.8027915271048
 10
85.36538832498108
 20
127.8027915271048
 10
93.00006946639998
 20
152.4199098115079
 10
93.00006946639998
 20
152.4199098115079
 10
93.00006946639998
 20
152.4199098115079
 10
89.85297266450198
 20
152.4199098115079
 10
89.85297266450198
 20
152.4199098115079
 10
89.85297266450198
 20
152.4199098115079
 10
90.51270888515164
 20
154.9119212747295
 10
90.51270888515164
 20
154.9119212747295
 10
90.51270888515164
 20
154.9119212747295
 10
93.6904670570955
 20
154.9119212747295
 10
93.6904670570955
 20
154.9119212747295
 10
93.6904670570955
 20
154.9119212747295
 10
94.81598049462158
 20
158.3616699146644
 10
94.81598049462158
 20
158.3616699146644
 10
95.7237637538445
 20
161.2605474231013
 10
96.4968436907311
 20
162.8139420021662
 10
97.15657991138076
 20
163.9844139654337
 10
97.81183750494507
 20
165.1523021053827
 10
99.1047826935081
 20
166.3084769129547
 10
100.4504378777679
 20
166.69157178364
 97
        0
 75
     2
 76
     1
 98
        0
  0
SPLINE
  5
3C1
330
3BD
100
AcDbEntity
  8
レイヤー 1
370
     0
100
AcDbSpline
210
0.0
220
0.0
230
1.0
 70
    11
 71
     3
 72
    38
 73
    34
 74
     0
 42
0.000000001
 43
0.0000000001
 40
0.0
 40
0.0
 40
0.0
 40
0.0
 40
1.0
 40
1.0
 40
1.0
 40
2.0
 40
2.0
 40
2.0
 40
3.0
 40
3.0
 40
3.0
 40
4.0
 40
4.0
 40
4.0
 40
5.0
 40
5.0
 40
5.0
 40
6.0
 40
6.0
 40
6.0
 40
7.0
 40
7.0
 40
7.0
 40
8.0
 40
8.0
 40
8.0
 40
9.0
 40
9.0
 40
9.0
 40
10.0
 40
10.0
 40
10.0
 40
11.0
 40
11.0
 40
11.0
 40
11.0
 10
126.377554584636
 20
154.8151140277308
 30
0.0
 10
126.377554584636
 20
154.8151140277308
 30
0.0
 10
128.8311532078563
 20
154.8151140277308
 30
0.0
 10
128.8311532078563
 20
154.8151140277308
 30
0.0
 10
128.8311532078563
 20
154.8151140277308
 30
0.0
 10
127.7345785914971
 20
151.3062819612468
 30
0.0
 10
127.7345785914971
 20
151.3062819612468
 30
0.0
 10
128.571392836906
 20
152.2922689395754
 30
0.0
 10
129.8860421413442
 20
153.604506675583
 30
0.0
 10
131.0163787157314
 20
154.2664822097754
 30
0.0
 10
132.7044766171327
 20
155.2500576196734
 30
0.0
 10
133.6642808525008
 20
155.3847609420097
 30
0.0
 10
134.7284715499351
 20
155.3565111403944
 30
0.0
 10
134.7284715499351
 20
155.3565111403944
 30
0.0
 10
133.6877075172549
 20
152.0345756272799
 30
0.0
 10
133.6877075172549
 20
152.0345756272799
 30
0.0
 10
133.011434827367
 20
152.3184516825359
 30
0.0
 10
130.930940291334
 20
151.7768823149844
 30
0.0
 10
129.739280976855
 20
150.9162968950455
 30
0.0
 10
128.66613302525
 20
150.1454562717016
 30
0.0
 10
127.9192358313239
 20
149.4857200510519
 30
0.0
 10
127.0393578639405
 20
147.8282835196966
 30
0.0
 10
126.164647543194
 20
146.1699857139017
 30
0.0
 10
125.4742499524985
 20
143.5262176944419
 30
0.0
 10
124.2822461282437
 20
139.6959580071401
 30
0.0
 10
124.2822461282437
 20
139.6959580071401
 30
0.0
 10
120.5753209406769
 20
127.8027915271048
 30
0.0
 10
120.5753209406769
 20
127.8027915271048
 30
0.0
 10
120.5753209406769
 20
127.8027915271048
 30
0.0
 10
118.1964809388044
 20
127.8027915271048
 30
0.0
 10
118.1964809388044
 20
127.8027915271048
 30
0.0
 10
118.1964809388044
 20
127.8027915271048
 30
0.0
 10
126.377554584636
 20
154.8151140277308
 30
0.0
 10
126.377554584636
 20
154.8151140277308
 30
0.0
  0
HATCH
  5
3C2
330
3BD
100
AcDbEntity
  8
レイヤー 1
 62
   250
420
  2234388
100
AcDbHatch
 10
0.0
 20
0.0
 30
0.0
210
0.0
220
0.0
230
1.0
  2
SOLID
 70
     1
 71
     0
 91
        1
 92
        1
 93
        1
 72
     4
 94
        3
 73
     0
 74
     1
 95
       38
 96
       34
 40
0.0
 40
0.0
 40
0.0
 40
0.0
 40
1.0
 40
1.0
 40
1.0
 40
2.0
 40
2.0
 40
2.0
 40
3.0
 40
3.0
 40
3.0
 40
4.0
 40
4.0
 40
4.0
 40
5.0
 40
5.0
 40
5.0
 40
6.0
 40
6.0
 40
6.0
 40
7.0
 40
7.0
 40
7.0
 40
8.0
 40
8.0
 40
8.0
 40
9.0
 40
9.0
 40
9.0
 40
10.0
 40
10.0
 40
10.0
 40
11.0
 40
11.0
 40
11.0
 40
11.0
 10
126.377554584636
 20
154.8151140277308
 10
126.377554584636
 20
154.8151140277308
 10
128.8311532078563
 20
154.8151140277308
 10
128.8311532078563
 20
154.8151140277308
 10
128.8311532078563
 20
154.8151140277308
 10
127.7345785914971
 20
151.3062819612468
 10
127.7345785914971
 20
151.3062819612468
 10
128.571392836906
 20
152.2922689395754
 10
129.8860421413442
 20
153.604506675583
 10
131.0163787157314
 20
154.2664822097754
 10
132.7044766171327
 20
155.2500576196734
 10
133.6642808525008
 20
155.3847609420097
 10
134.7284715499351
 20
155.3565111403944
 10
134.7284715499351
 20
155.3565111403944
 10
133.6877075172549
 20
152.0345756272799
 10
133.6877075172549
 20
152.0345756272799
 10
133.011434827367
 20
152.3184516825359
 10
130.930940291334
 20
151.7768823149844
 10
129.739280976855
 20
150.9162968950455
 10
128.66613302525
 20
150.1454562717016
 10
127.9192358313239
 20
149.4857200510519
 10
127.0393578639405
 20
147.8282835196966
 10
126.164647543194
 20
146.1699857139017
 10
125.4742499524985
 20
143.5262176944419
 10
124.2822461282437
 20
139.6959580071401
 10
124.2822461282437
 20
139.6959580071401
 10
120.5753209406769
 20
127.8027915271048
 10
120.5753209406769
 20
127.8027915271048
 10
120.5753209406769
 20
127.8027915271048
 10
118.1964809388044
 20
127.8027915271048
 10
118.1964809388044
 20
127.8027915271048
 10
118.1964809388044
 20
127.8027915271048
 10
126.377554584636
 20
154.8151140277308
 10
126.377554584636
 20
154.8151140277308
 97
        0
 75
     2
 76
     1
 98
        0
  0
SPLINE
  5
3C3
330
3BD
100
AcDbEntity
  8
レイヤー 1
370
     0
100
AcDbSpline
210
0.0
220
0.0
230
1.0
 70
    11
 71
     3
 72
   104
 73
   100
 74
     0
 42
0.000000001
 43
0.0000000001
 40
0.0
 40
0.0
 40
0.0
 40
0.0
 40
1.0
 40
1.0
 40
1.0
 40
2.0
 40
2.0
 40
2.0
 40
3.0
 40
3.0
 40
3.0
 40
4.0
 40
4.0
 40
4.0
 40
5.0
 40
5.0
 40
5.0
 40
6.0
 40
6.0
 40
6.0
 40
7.0
 40
7.0
 40
7.0
 40
8.0
 40
8.0
 40
8.0
 40
9.0
 40
9.0
 40
9.0
 40
10.0
 40
10.0
 40
10.0
 40
11.0
 40
11.0
 40
11.0
 40
12.0
 40
12.0
 40
12.0
 40
13.0
 40
13.0
 40
13.0
 40
14.0
 40
14.0
 40
14.0
 40
15.0
 40
15.0
 40
15.0
 40
16.0
 40
16.0
 40
16.0
 40
17.0
 40
17.0
 40
17.0
 40
18.0
 40
18.0
 40
18.0
 40
19.0
 40
19.0
 40
19.0
 40
20.0
 40
20.0
 40
20.0
 40
21.0
 40
21.0
 40
21.0
 40
22.0
 40
22.0
 40
22.0
 40
23.0
 40
23.0
 40
23.0
 40
24.0
 40
24.0
 40
24.0
 40
25.0
 40
25.0
 40
25.0
 40
26.0
 40
26.0
 40
26.0
 40
27.0
 40
27.0
 40
27.0
 40
28.0
 40
28.0
 40
28.0
 40
29.0
 40
29.0
 40
29.0
 40
30.0
 40
30.0
 40
30.0
 40
31.0
 40
31.0
 40
31.0
 40
32.0
 40
32.0
 40
32.0
 40
33.0
 40
33.0
 40
33.0
 40
33.0
 10
139.8926730891197
 20
154.8294111834263
 30
0.0
 10
139.8926730891197
 20
154.8294111834263
 30
0.0
 10
142.0344903652445
 20
154.8294111834263
 30
0.0
 10
142.0344903652445
 20
154.8294111834263
 30
0.0
 10
142.0344903652445
 20
154.8294111834263
 30
0.0
 10
140.9516961399171
 20
151.3157559800812
 30
0.0
 10
140.9516961399171
 20
151.3157559800812
 30
0.0
 10
141.8928968473923
 20
152.7887075264977
 30
0.0
 10
142.7341897198865
 20
153.4484437471474
 30
0.0
 10
143.8552245303272
 20
154.2926649527359
 30
0.0
 10
144.9803934580775
 20
155.1296514530327
 30
0.0
 10
146.3139908001845
 20
155.3044901642492
 30
0.0
 10
147.241066606852
 20
155.3044901642492
 30
0.0
 10
148.3855280820469
 20
155.3044901642492
 30
0.0
 10
149.4969166187653
 20
155.0752189084569
 30
0.0
 10
150.0784491203092
 20
153.8172414621372
 30
0.0
 10
150.5228667310863
 20
152.833838307127
 30
0.0
 10
150.5414702589793
 20
152.7201500811143
 30
0.0
 10
150.4140016419347
 20
150.7765981809602
 30
0.0
 10
151.5818897818837
 20
152.7699317437168
 30
0.0
 10
152.4424752018226
 20
153.6256940267945
 30
0.0
 10
153.9038856707499
 20
154.4507949398263
 30
0.0
 10
155.4455669174378
 20
155.3044901642492
 30
0.0
 10
156.339225275853
 20
155.3659851592288
 30
0.0
 10
157.3748216618963
 20
155.2147453676543
 30
0.0
 10
158.911679771723
 20
154.9877134254046
 30
0.0
 10
159.8859534176746
 20
154.4390816074493
 30
0.0
 10
160.3965169054045
 20
152.7816450760939
 30
0.0
 10
160.9070803931344
 20
151.1219692311958
 30
0.0
 10
160.6328506116007
 20
150.2303779314354
 30
0.0
 10
159.9992971339115
 20
147.597634224801
 30
0.0
 10
159.7105979417943
 20
146.4014962832367
 30
0.0
 10
159.2947746424084
 20
144.9400858143094
 30
0.0
 10
158.7463150793409
 20
143.2092687007094
 30
0.0
 10
158.7463150793409
 20
143.2092687007094
 30
0.0
 10
153.9038856707499
 20
127.8027915271048
 30
0.0
 10
153.9038856707499
 20
127.8027915271048
 30
0.0
 10
153.9038856707499
 20
127.8027915271048
 30
0.0
 10
151.3882752878863
 20
127.8027915271048
 30
0.0
 10
151.3882752878863
 20
127.8027915271048
 30
0.0
 10
151.3882752878863
 20
127.8027915271048
 30
0.0
 10
155.6250565106276
 20
141.2751908193897
 30
0.0
 10
155.6250565106276
 20
141.2751908193897
 30
0.0
 10
156.5094131050963
 20
144.0936252951782
 30
0.0
 10
157.109893644309
 20
146.1506931664571
 30
0.0
 10
157.4220195011804
 20
147.4415712963654
 30
0.0
 10
157.8095929989511
 20
149.0530157726519
 30
0.0
 10
157.9656559273867
 20
149.5826995529385
 30
0.0
 10
157.7816877071116
 20
150.7529992613181
 30
0.0
 10
157.6111553680925
 20
151.8430281919372
 30
0.0
 10
157.0582171779396
 20
152.5547853887321
 30
0.0
 10
156.1170164704645
 20
152.5547853887321
 30
0.0
 10
155.1096698860365
 20
152.5547853887321
 30
0.0
 10
154.2962823053817
 20
152.4412694176073
 30
0.0
 10
153.156643967048
 20
151.2945686288697
 30
0.0
 10
152.0170056287143
 20
150.1476955852443
 30
0.0
 10
151.076149431015
 20
148.7930831468137
 30
0.0
 10
150.3337308641742
 20
147.2290087646991
 30
0.0
 10
149.5957909244188
 20
145.6683794803425
 30
0.0
 10
148.8530278478023
 20
143.6822806228776
 30
0.0
 10
148.0964843801539
 20
141.2751908193897
 30
0.0
 10
148.0964843801539
 20
141.2751908193897
 30
0.0
 10
143.8552245303272
 20
127.8027915271048
 30
0.0
 10
143.8552245303272
 20
127.8027915271048
 30
0.0
 10
143.8552245303272
 20
127.8027915271048
 30
0.0
 10
141.486030802177
 20
127.8027915271048
 30
0.0
 10
141.486030802177
 20
127.8027915271048
 30
0.0
 10
141.486030802177
 20
127.8027915271048
 30
0.0
 10
146.3329388378533
 20
143.2092687007094
 30
0.0
 10
146.3329388378533
 20
143.2092687007094
 30
0.0
 10
146.8483254624444
 20
144.8408669988801
 30
0.0
 10
147.2314203331297
 20
146.1837661049335
 30
0.0
 10
147.4867020769946
 20
147.224185627838
 30
0.0
 10
147.9169947869641
 20
149.0197705792876
 30
0.0
 10
148.0306830129768
 20
150.2400242051577
 30
0.0
 10
147.709255392159
 20
151.3157559800812
 30
0.0
 10
147.3874832615654
 20
152.3916600098926
 30
0.0
 10
146.8245542879144
 20
152.6683013598569
 30
0.0
 10
145.8840425999909
 20
152.6683013598569
 30
0.0
 10
145.0989048209514
 20
152.6683013598569
 30
0.0
 10
144.3282364524954
 20
152.3275811915945
 30
0.0
 10
143.4531816219731
 20
151.6538923250251
 30
0.0
 10
142.34627171234
 20
150.8074318058939
 30
0.0
 10
141.901854101563
 20
150.1097995099067
 30
0.0
 10
141.3578731655808
 20
149.289521733736
 30
0.0
 10
140.6299240093235
 20
148.192602607601
 30
0.0
 10
140.2850697237515
 20
147.455696197173
 30
0.0
 10
139.6652966370942
 20
145.8385673095858
 30
0.0
 10
139.0506911970739
 20
144.2214384219986
 30
0.0
 10
138.463991048893
 20
142.3252566160164
 30
0.0
 10
138.0571250036777
 20
141.0154304484394
 30
0.0
 10
138.0571250036777
 20
141.0154304484394
 30
0.0
 10
133.9009590684727
 20
127.8027915271048
 30
0.0
 10
133.9009590684727
 20
127.8027915271048
 30
0.0
 10
133.9009590684727
 20
127.8027915271048
 30
0.0
 10
131.4180771143097
 20
127.8027915271048
 30
0.0
 10
131.4180771143097
 20
127.8027915271048
 30
0.0
 10
131.4180771143097
 20
127.8027915271048
 30
0.0
 10
139.8926730891197
 20
154.8294111834263
 30
0.0
 10
139.8926730891197
 20
154.8294111834263
 30
0.0
  0
HATCH
  5
3C4
330
3BD
100
AcDbEntity
  8
レイヤー 1
 62
   250
420
  2234388
100
AcDbHatch
 10
0.0
 20
0.0
 30
0.0
210
0.0
220
0.0
230
1.0
  2
SOLID
 70
     1
 71
     0
 91
        1
 92
        1
 93
        1
 72
     4
 94
        3
 73
     0
 74
     1
 95
      104
 96
      100
 40
0.0
 40
0.0
 40
0.0
 40
0.0
 40
1.0
 40
1.0
 40
1.0
 40
2.0
 40
2.0
 40
2.0
 40
3.0
 40
3.0
 40
3.0
 40
4.0
 40
4.0
 40
4.0
 40
5.0
 40
5.0
 40
5.0
 40
6.0
 40
6.0
 40
6.0
 40
7.0
 40
7.0
 40
7.0
 40
8.0
 40
8.0
 40
8.0
 40
9.0
 40
9.0
 40
9.0
 40
10.0
 40
10.0
 40
10.0
 40
11.0
 40
11.0
 40
11.0
 40
12.0
 40
12.0
 40
12.0
 40
13.0
 40
13.0
 40
13.0
 40
14.0
 40
14.0
 40
14.0
 40
15.0
 40
15.0
 40
15.0
 40
16.0
 40
16.0
 40
16.0
 40
17.0
 40
17.0
 40
17.0
 40
18.0
 40
18.0
 40
18.0
 40
19.0
 40
19.0
 40
19.0
 40
20.0
 40
20.0
 40
20.0
 40
21.0
 40
21.0
 40
21.0
 40
22.0
 40
22.0
 40
22.0
 40
23.0
 40
23.0
 40
23.0
 40
24.0
 40
24.0
 40
24.0
 40
25.0
 40
25.0
 40
25.0
 40
26.0
 40
26.0
 40
26.0
 40
27.0
 40
27.0
 40
27.0
 40
28.0
 40
28.0
 40
28.0
 40
29.0
 40
29.0
 40
29.0
 40
30.0
 40
30.0
 40
30.0
 40
31.0
 40
31.0
 40
31.0
 40
32.0
 40
32.0
 40
32.0
 40
33.0
 40
33.0
 40
33.0
 40
33.0
 10
139.8926730891197
 20
154.8294111834263
 10
139.8926730891197
 20
154.8294111834263
 10
142.0344903652445
 20
154.8294111834263
 10
142.0344903652445
 20
154.8294111834263
 10
142.0344903652445
 20
154.8294111834263
 10
140.9516961399171
 20
151.3157559800812
 10
140.9516961399171
 20
151.3157559800812
 10
141.8928968473923
 20
152.7887075264977
 10
142.7341897198865
 20
153.4484437471474
 10
143.8552245303272
 20
154.2926649527359
 10
144.9803934580775
 20
155.1296514530327
 10
146.3139908001845
 20
155.3044901642492
 10
147.241066606852
 20
155.3044901642492
 10
148.3855280820469
 20
155.3044901642492
 10
149.4969166187653
 20
155.0752189084569
 10
150.0784491203092
 20
153.8172414621372
 10
150.5228667310863
 20
152.833838307127
 10
150.5414702589793
 20
152.7201500811143
 10
150.4140016419347
 20
150.7765981809602
 10
151.5818897818837
 20
152.7699317437168
 10
152.4424752018226
 20
153.6256940267945
 10
153.9038856707499
 20
154.4507949398263
 10
155.4455669174378
 20
155.3044901642492
 10
156.339225275853
 20
155.3659851592288
 10
157.3748216618963
 20
155.2147453676543
 10
158.911679771723
 20
154.9877134254046
 10
159.8859534176746
 20
154.4390816074493
 10
160.3965169054045
 20
152.7816450760939
 10
160.9070803931344
 20
151.1219692311958
 10
160.6328506116007
 20
150.2303779314354
 10
159.9992971339115
 20
147.597634224801
 10
159.7105979417943
 20
146.4014962832367
 10
159.2947746424084
 20
144.9400858143094
 10
158.7463150793409
 20
143.2092687007094
 10
158.7463150793409
 20
143.2092687007094
 10
153.9038856707499
 20
127.8027915271048
 10
153.9038856707499
 20
127.8027915271048
 10
153.9038856707499
 20
127.8027915271048
 10
151.3882752878863
 20
127.8027915271048
 10
151.3882752878863
 20
127.8027915271048
 10
151.3882752878863
 20
127.8027915271048
 10
155.6250565106276
 20
141.2751908193897
 10
155.6250565106276
 20
141.2751908193897
 10
156.5094131050963
 20
144.0936252951782
 10
157.109893644309
 20
146.1506931664571
 10
157.4220195011804
 20
147.4415712963654
 10
157.8095929989511
 20
149.0530157726519
 10
157.9656559273867
 20
149.5826995529385
 10
157.7816877071116
 20
150.7529992613181
 10
157.6111553680925
 20
151.8430281919372
 10
157.0582171779396
 20
152.5547853887321
 10
156.1170164704645
 20
152.5547853887321
 10
155.1096698860365
 20
152.5547853887321
 10
154.2962823053817
 20
152.4412694176073
 10
153.156643967048
 20
151.2945686288697
 10
152.0170056287143
 20
150.1476955852443
 10
151.076149431015
 20
148.7930831468137
 10
150.3337308641742
 20
147.2290087646991
 10
149.5957909244188
 20
145.6683794803425
 10
148.8530278478023
 20
143.6822806228776
 10
148.0964843801539
 20
141.2751908193897
 10
148.0964843801539
 20
141.2751908193897
 10
143.8552245303272
 20
127.8027915271048
 10
143.8552245303272
 20
127.8027915271048
 10
143.8552245303272
 20
127.8027915271048
 10
141.486030802177
 20
127.8027915271048
 10
141.486030802177
 20
127.8027915271048
 10
141.486030802177
 20
127.8027915271048
 10
146.3329388378533
 20
143.2092687007094
 10
146.3329388378533
 20
143.2092687007094
 10
146.8483254624444
 20
144.8408669988801
 10
147.2314203331297
 20
146.1837661049335
 10
147.4867020769946
 20
147.224185627838
 10
147.9169947869641
 20
149.0197705792876
 10
148.0306830129768
 20
150.2400242051577
 10
147.709255392159
 20
151.3157559800812
 10
147.3874832615654
 20
152.3916600098926
 10
146.8245542879144
 20
152.6683013598569
 10
145.8840425999909
 20
152.6683013598569
 10
145.0989048209514
 20
152.6683013598569
 10
144.3282364524954
 20
152.3275811915945
 10
143.4531816219731
 20
151.6538923250251
 10
142.34627171234
 20
150.8074318058939
 10
141.901854101563
 20
150.1097995099067
 10
141.3578731655808
 20
149.289521733736
 10
140.6299240093235
 20
148.192602607601
 10
140.2850697237515
 20
147.455696197173
 10
139.6652966370942
 20
145.8385673095858
 10
139.0506911970739
 20
144.2214384219986
 10
138.463991048893
 20
142.3252566160164
 10
138.0571250036777
 20
141.0154304484394
 10
138.0571250036777
 20
141.0154304484394
 10
133.9009590684727
 20
127.8027915271048
 10
133.9009590684727
 20
127.8027915271048
 10
133.9009590684727
 20
127.8027915271048
 10
131.4180771143097
 20
127.8027915271048
 10
131.4180771143097
 20
127.8027915271048
 10
131.4180771143097
 20
127.8027915271048
 10
139.8926730891197
 20
154.8294111834263
 10
139.8926730891197
 20
154.8294111834263
 97
        0
 75
     2
 76
     1
 98
        0
  0
SPLINE
  5
3C5
330
3BD
100
AcDbEntity
  8
レイヤー 1
370
     0
100
AcDbSpline
210
0.0
220
0.0
230
1.0
 70
    11
 71
     3
 72
    29
 73
    25
 74
     0
 42
0.000000001
 43
0.0000000001
 40
0.0
 40
0.0
 40
0.0
 40
0.0
 40
1.0
 40
1.0
 40
1.0
 40
2.0
 40
2.0
 40
2.0
 40
3.0
 40
3.0
 40
3.0
 40
4.0
 40
4.0
 40
4.0
 40
5.0
 40
5.0
 40
5.0
 40
6.0
 40
6.0
 40
6.0
 40
7.0
 40
7.0
 40
7.0
 40
8.0
 40
8.0
 40
8.0
 40
8.0
 10
101.6420971922469
 20
132.8388354296931
 30
0.0
 10
101.630039350094
 20
134.7164137077823
 30
0.0
 10
102.2236296937908
 20
138.0598810818841
 30
0.0
 10
103.7487744712405
 20
142.5378191476827
 30
0.0
 10
105.819967243327
 20
148.5896501242061
 30
0.0
 10
107.0602024361932
 20
150.8074318058939
 30
0.0
 10
108.1522984254671
 20
151.8833358357054
 30
0.0
 10
109.741177511439
 20
153.4532668840085
 30
0.0
 10
111.8740375333931
 20
153.5290590346837
 30
0.0
 10
112.5075910110823
 20
153.4532668840085
 30
0.0
 10
113.4012493694975
 20
153.3490526768302
 30
0.0
 10
114.6683563248758
 20
152.7580461564518
 30
0.0
 10
114.7493161221879
 20
150.7838328862519
 30
0.0
 10
114.8106388622796
 20
149.0909118479895
 30
0.0
 10
114.3186789024427
 20
145.9191825971221
 30
0.0
 10
112.6164561002338
 20
140.9489400617108
 30
0.0
 10
110.6444821435766
 20
135.1746117095912
 30
0.0
 10
109.4669477299053
 20
132.8960240524753
 30
0.0
 10
108.5212683953448
 20
131.9072809959403
 30
0.0
 10
106.7346406980658
 20
130.0538184021569
 30
0.0
 10
104.8222669326213
 20
130.2336525051225
 30
0.0
 10
104.5408024457958
 20
130.2336525051225
 30
0.0
 10
104.1721769856939
 20
130.2336525051225
 30
0.0
 10
101.6465758193322
 20
130.6305277668397
 30
0.0
 10
101.6420971922469
 20
132.8388354296931
 30
0.0
  0
SPLINE
  5
3C6
330
3BD
100
AcDbEntity
  8
レイヤー 1
370
     0
100
AcDbSpline
210
0.0
220
0.0
230
1.0
 70
    11
 71
     3
 72
    32
 73
    28
 74
     0
 42
0.000000001
 43
0.0000000001
 40
0.0
 40
0.0
 40
0.0
 40
0.0
 40
1.0
 40
1.0
 40
1.0
 40
2.0
 40
2.0
 40
2.0
 40
3.0
 40
3.0
 40
3.0
 40
4.0
 40
4.0
 40
4.0
 40
5.0
 40
5.0
 40
5.0
 40
6.0
 40
6.0
 40
6.0
 40
7.0
 40
7.0
 40
7.0
 40
8.0
 40
8.0
 40
8.0
 40
9.0
 40
9.0
 40
9.0
 40
9.0
 10
106.2595617172429
 20
153.4105476718098
 30
0.0
 10
104.8222669326213
 20
151.5474388043041
 30
0.0
 10
103.7177685914188
 20
149.8758773721411
 30
0.0
 10
101.9232171692965
 20
144.6141795664062
 30
0.0
 10
100.2754269116635
 20
139.7999999594306
 30
0.0
 10
99.22777268346732
 20
136.3052927937542
 30
0.0
 10
99.06964269637689
 20
132.039572749846
 30
0.0
 10
98.94665270641765
 20
128.8673267343149
 30
0.0
 10
100.8807305877373
 20
127.8027915271048
 30
0.0
 10
103.7129454545577
 20
127.8027915271048
 30
0.0
 10
104.9352661390825
 20
127.8027915271048
 30
0.0
 10
108.0151835347002
 20
127.8827177950895
 30
0.0
 10
110.2045431598849
 20
130.5926316915021
 30
0.0
 10
111.7417457794874
 20
132.4984597712065
 30
0.0
 10
113.155269389579
 20
134.475256864725
 30
0.0
 10
115.0562743324223
 20
140.9489400617108
 30
0.0
 10
116.6361961642235
 20
146.3680788349845
 30
0.0
 10
117.7282921534974
 20
149.8639917848761
 30
0.0
 10
117.6480213757369
 20
151.8595646611754
 30
0.0
 10
117.6480213757369
 20
151.8595646611754
 30
0.0
 10
117.6480213757369
 20
151.8595646611754
 30
0.0
 10
117.6480213757369
 20
151.8595646611754
 30
0.0
 10
117.13229024137
 20
155.18150017429
 30
0.0
 10
114.7162431837115
 20
155.886194920681
 30
0.0
 10
113.3351034925446
 20
155.886194920681
 30
0.0
 10
111.9829026225447
 20
155.886194920681
 30
0.0
 10
108.3414342923792
 20
156.1251124501957
 30
0.0
 10
106.2595617172429
 20
153.4105476718098
 30
0.0
  0
HATCH
  5
3C7
330
3BD
100
AcDbEntity
  8
レイヤー 1
 62
   250
420
  2234388
100
AcDbHatch
 10
0.0
 20
0.0
 30
0.0
210
0.0
220
0.0
230
1.0
  2
SOLID
 70
     1
 71
     0
 91
        2
 92
        1
 93
        1
 72
     4
 94
        3
 73
     0
 74
     1
 95
       29
 96
       25
 40
0.0
 40
0.0
 40
0.0
 40
0.0
 40
1.0
 40
1.0
 40
1.0
 40
2.0
 40
2.0
 40
2.0
 40
3.0
 40
3.0
 40
3.0
 40
4.0
 40
4.0
 40
4.0
 40
5.0
 40
5.0
 40
5.0
 40
6.0
 40
6.0
 40
6.0
 40
7.0
 40
7.0
 40
7.0
 40
8.0
 40
8.0
 40
8.0
 40
8.0
 10
101.6420971922469
 20
132.8388354296931
 10
101.630039350094
 20
134.7164137077823
 10
102.2236296937908
 20
138.0598810818841
 10
103.7487744712405
 20
142.5378191476827
 10
105.819967243327
 20
148.5896501242061
 10
107.0602024361932
 20
150.8074318058939
 10
108.1522984254671
 20
151.8833358357054
 10
109.741177511439
 20
153.4532668840085
 10
111.8740375333931
 20
153.5290590346837
 10
112.5075910110823
 20
153.4532668840085
 10
113.4012493694975
 20
153.3490526768302
 10
114.6683563248758
 20
152.7580461564518
 10
114.7493161221879
 20
150.7838328862519
 10
114.8106388622796
 20
149.0909118479895
 10
114.3186789024427
 20
145.9191825971221
 10
112.6164561002338
 20
140.9489400617108
 10
110.6444821435766
 20
135.1746117095912
 10
109.4669477299053
 20
132.8960240524753
 10
108.5212683953448
 20
131.9072809959403
 10
106.7346406980658
 20
130.0538184021569
 10
104.8222669326213
 20
130.2336525051225
 10
104.5408024457958
 20
130.2336525051225
 10
104.1721769856939
 20
130.2336525051225
 10
101.6465758193322
 20
130.6305277668397
 10
101.6420971922469
 20
132.8388354296931
 97
        0
 92
        1
 93
        1
 72
     4
 94
        3
 73
     0
 74
     1
 95
       32
 96
       28
 40
0.0
 40
0.0
 40
0.0
 40
0.0
 40
1.0
 40
1.0
 40
1.0
 40
2.0
 40
2.0
 40
2.0
 40
3.0
 40
3.0
 40
3.0
 40
4.0
 40
4.0
 40
4.0
 40
5.0
 40
5.0
 40
5.0
 40
6.0
 40
6.0
 40
6.0
 40
7.0
 40
7.0
 40
7.0
 40
8.0
 40
8.0
 40
8.0
 40
9.0
 40
9.0
 40
9.0
 40
9.0
 10
106.2595617172429
 20
153.4105476718098
 10
104.8222669326213
 20
151.5474388043041
 10
103.7177685914188
 20
149.8758773721411
 10
101.9232171692965
 20
144.6141795664062
 10
100.2754269116635
 20
139.7999999594306
 10
99.22777268346732
 20
136.3052927937542
 10
99.06964269637689
 20
132.039572749846
 10
98.94665270641765
 20
128.8673267343149
 10
100.8807305877373
 20
127.8027915271048
 10
103.7129454545577
 20
127.8027915271048
 10
104.9352661390825
 20
127.8027915271048
 10
108.0151835347002
 20
127.8827177950895
 10
110.2045431598849
 20
130.5926316915021
 10
111.7417457794874
 20
132.4984597712065
 10
113.155269389579
 20
134.475256864725
 10
115.0562743324223
 20
140.9489400617108
 10
116.6361961642235
 20
146.3680788349845
 10
117.7282921534974
 20
149.8639917848761
 10
117.6480213757369
 20
151.8595646611754
 10
117.6480213757369
 20
151.8595646611754
 10
117.6480213757369
 20
151.8595646611754
 10
117.6480213757369
 20
151.8595646611754
 10
117.13229024137
 20
155.18150017429
 10
114.7162431837115
 20
155.886194920681
 10
113.3351034925446
 20
155.886194920681
 10
111.9829026225447
 20
155.886194920681
 10
108.3414342923792
 20
156.1251124501957
 10
106.2595617172429
 20
153.4105476718098
 97
        0
 75
     2
 76
     1
 98
        0
  0
ENDBLK
  5
3C8
330
3BD
100
AcDbEntity
  8
0
100
AcDbBlockEnd
  0
BLOCK
  5
11F1
330
11F0
100
AcDbEntity
  8
0
100
AcDbBlockBegin
  2
BLOCK_2
 70
     0
 10
0.0
 20
0.0
 30
0.0
  3
BLOCK_2
  1
BLOCK_2
  0
ENDBLK
  5
11F2
330
11F0
100
AcDbEntity
  8
0
100
AcDbBlockEnd
  0
BLOCK
  5
3696
330
3695
100
AcDbEntity
  8
0
100
AcDbBlockBegin
  2
*D7
 70
     1
 10
0.0
 20
0.0
 30
0.0
  3
*D7
  1

  0
LINE
  5
3698
330
3695
100
AcDbEntity
  8
Dim
 62
     0
370
    -2
100
AcDbLine
 10
274.2622885998003
 20
2052.582536221377
 30
0.0
 11
274.2622885998003
 21
2284.591927244582
 31
0.0
  0
LINE
  5
3699
330
3695
100
AcDbEntity
  8
Dim
 62
     0
370
    -2
100
AcDbLine
 10
873.9972739258824
 20
2052.582536221377
 30
0.0
 11
873.9972739258824
 21
2284.591927244582
 31
0.0
  0
LINE
  5
369A
330
3695
100
AcDbEntity
  8
Dim
 62
     0
370
    -2
100
AcDbLine
 10
284.2616782482378
 20
2284.591927244582
 30
0.0
 11
863.9978842774449
 21
2284.591927244582
 31
0.0
  0
INSERT
  5
369B
330
3695
100
AcDbEntity
  8
Dim
 62
     0
370
    -2
100
AcDbBlockReference
  2
_DOT
 10
274.2622885998003
 20
2284.591927244582
 30
0.0
 41
9.999389648437498
 42
9.999389648437498
 43
9.999389648437498
 50
180.0
  0
INSERT
  5
369C
330
3695
100
AcDbEntity
  8
Dim
 62
     0
370
    -2
100
AcDbBlockReference
  2
_DOT
 10
873.9972739258824
 20
2284.591927244582
 30
0.0
 41
9.999389648437498
 42
9.999389648437498
 43
9.999389648437498
  0
MTEXT
  5
369D
330
3695
100
AcDbEntity
  8
Dim
  6
Continuous
 62
     0
100
AcDbMText
 10
574.1297812628413
 20
2306.808235838332
 30
0.0
 40
24.4326171875
 41
0.0
 46
0.0
 71
     5
 72
     1
  1
\A1;600
  7
ＭＳ ゴシック
 73
     1
 44
1.0
  0
POINT
  5
369E
330
3695
100
AcDbEntity
  8
Defpoints
 62
     0
100
AcDbPoint
 10
274.2622885998003
 20
2027.582536221377
 30
0.0
  0
POINT
  5
369F
330
3695
100
AcDbEntity
  8
Defpoints
 62
     0
100
AcDbPoint
 10
873.9972739258824
 20
2027.582536221377
 30
0.0
  0
POINT
  5
36A0
330
3695
100
AcDbEntity
  8
Defpoints
 62
     0
100
AcDbPoint
 10
873.9972739258824
 20
2284.591927244582
 30
0.0
  0
ENDBLK
  5
3697
330
3695
100
AcDbEntity
  8
0
100
AcDbBlockEnd
  0
BLOCK
  5
36A3
330
36A2
100
AcDbEntity
  8
0
100
AcDbBlockBegin
  2
*D8
 70
     1
 10
0.0
 20
0.0
 30
0.0
  3
*D8
  1

  0
LINE
  5
36A5
330
36A2
100
AcDbEntity
  8
Dim
 62
     0
370
    -2
100
AcDbLine
 10
627.1582177428413
 20
2194.718289105557
 30
0.0
 11
1019.469815487742
 21
2194.718289105557
 31
0.0
  0
LINE
  5
36A6
330
36A2
100
AcDbEntity
  8
Dim
 62
     0
370
    -2
100
AcDbLine
 10
627.1566050274741
 20
1774.915192233355
 30
0.0
 11
1019.469815487742
 21
1774.915192233355
 31
0.0
  0
LINE
  5
36A7
330
36A2
100
AcDbEntity
  8
Dim
 62
     0
370
    -2
100
AcDbLine
 10
1019.469815487742
 20
2184.718899457119
 30
0.0
 11
1019.469815487742
 21
1784.914581881792
 31
0.0
  0
INSERT
  5
36A8
330
36A2
100
AcDbEntity
  8
Dim
 62
     0
370
    -2
100
AcDbBlockReference
  2
_DOT
 10
1019.469815487742
 20
2194.718289105557
 30
0.0
 41
9.999389648437498
 42
9.999389648437498
 43
9.999389648437498
 50
90.0
  0
INSERT
  5
36A9
330
36A2
100
AcDbEntity
  8
Dim
 62
     0
370
    -2
100
AcDbBlockReference
  2
_DOT
 10
1019.469815487742
 20
1774.915192233355
 30
0.0
 41
9.999389648437498
 42
9.999389648437498
 43
9.999389648437498
 50
270.0
  0
MTEXT
  5
36AA
330
36A2
100
AcDbEntity
  8
Dim
  6
Continuous
 62
     0
100
AcDbMText
 10
997.2535068939919
 20
1984.816740669456
 30
0.0
 40
24.4326171875
 41
0.0
 46
0.0
 71
     5
 72
     1
  1
\A1;420
  7
ＭＳ ゴシック
 11
0.0
 21
1.0
 31
0.0
 73
     1
 44
1.0
  0
POINT
  5
36AB
330
36A2
100
AcDbEntity
  8
Defpoints
 62
     0
100
AcDbPoint
 10
602.1582177428413
 20
2194.718289105557
 30
0.0
  0
POINT
  5
36AC
330
36A2
100
AcDbEntity
  8
Defpoints
 62
     0
100
AcDbPoint
 10
602.1566050274741
 20
1774.915192233355
 30
0.0
  0
POINT
  5
36AD
330
36A2
100
AcDbEntity
  8
Defpoints
 62
     0
100
AcDbPoint
 10
1019.469815487742
 20
1774.915192233355
 30
0.0
  0
ENDBLK
  5
36A4
330
36A2
100
AcDbEntity
  8
0
100
AcDbBlockEnd
  0
BLOCK
  5
36C8
330
36C7
100
AcDbEntity
  8
0
100
AcDbBlockBegin
  2
*D9
 70
     1
 10
0.0
 20
0.0
 30
0.0
  3
*D9
  1

  0
LINE
  5
36CA
330
36C7
100
AcDbEntity
  8
Dim
 62
     0
370
    -2
100
AcDbLine
 10
1738.474109850679
 20
1004.702341400632
 30
0.0
 11
1738.474109850679
 21
945.7414337256893
 31
0.0
  0
LINE
  5
36CB
330
36C7
100
AcDbEntity
  8
Dim
 62
     0
370
    -2
100
AcDbLine
 10
1442.974371355818
 20
1004.702341401477
 30
0.0
 11
1442.974371355818
 21
945.7414337256893
 31
0.0
  0
LINE
  5
36CC
330
36C7
100
AcDbEntity
  8
Dim
 62
     0
370
    -2
100
AcDbLine
 10
1728.474720202242
 20
945.7414337256893
 30
0.0
 11
1452.973761004255
 21
945.7414337256893
 31
0.0
  0
INSERT
  5
36CD
330
36C7
100
AcDbEntity
  8
Dim
 62
     0
370
    -2
100
AcDbBlockReference
  2
_DOT
 10
1738.474109850679
 20
945.7414337256893
 30
0.0
 41
9.999389648437498
 42
9.999389648437498
 43
9.999389648437498
  0
INSERT
  5
36CE
330
36C7
100
AcDbEntity
  8
Dim
 62
     0
370
    -2
100
AcDbBlockReference
  2
_DOT
 10
1442.974371355818
 20
945.7414337256893
 30
0.0
 41
9.999389648437498
 42
9.999389648437498
 43
9.999389648437498
 50
180.0
  0
MTEXT
  5
36CF
330
36C7
100
AcDbEntity
  8
Dim
  6
Continuous
 62
     0
100
AcDbMText
 10
1590.724240603249
 20
967.9577423194393
 30
0.0
 40
24.4326171875
 41
0.0
 46
0.0
 71
     5
 72
     1
  1
\A1;295
  7
ＭＳ ゴシック
 73
     1
 44
1.0
  0
POINT
  5
36D0
330
36C7
100
AcDbEntity
  8
Defpoints
 62
     0
100
AcDbPoint
 10
1738.474109850679
 20
1029.702341400632
 30
0.0
  0
POINT
  5
36D1
330
36C7
100
AcDbEntity
  8
Defpoints
 62
     0
100
AcDbPoint
 10
1442.974371355818
 20
1029.702341401477
 30
0.0
  0
POINT
  5
36D2
330
36C7
100
AcDbEntity
  8
Defpoints
 62
     0
100
AcDbPoint
 10
1442.974371355818
 20
945.7414337256893
 30
0.0
  0
ENDBLK
  5
36C9
330
36C7
100
AcDbEntity
  8
0
100
AcDbBlockEnd
  0
BLOCK
  5
36E2
330
36E1
100
AcDbEntity
  8
0
100
AcDbBlockBegin
  2
*D10
 70
     1
 10
0.0
 20
0.0
 30
0.0
  3
*D10
  1

  0
LINE
  5
36E4
330
36E1
100
AcDbEntity
  8
Dim
 62
     0
 48
0.5
370
    -2
100
AcDbLine
 10
574.1297812628404
 20
1214.278701361679
 30
0.0
 11
574.1297812628404
 21
1278.791911843856
 31
0.0
  0
LINE
  5
36E5
330
36E1
100
AcDbEntity
  8
Dim
 62
     0
 48
0.5
370
    -2
100
AcDbLine
 10
273.9975023687052
 20
1214.278701361679
 30
0.0
 11
273.9975023687052
 21
1278.791911843856
 31
0.0
  0
LINE
  5
36E6
330
36E1
100
AcDbEntity
  8
Dim
 62
     0
 48
0.5
370
    -2
100
AcDbLine
 10
564.1303916144029
 20
1278.791911843856
 30
0.0
 11
283.9968920171427
 21
1278.791911843856
 31
0.0
  0
INSERT
  5
36E7
330
36E1
100
AcDbEntity
  8
Dim
 62
     0
370
    -2
100
AcDbBlockReference
  2
_DOT
 10
574.1297812628404
 20
1278.791911843856
 30
0.0
 41
9.999389648437498
 42
9.999389648437498
 43
9.999389648437498
  0
INSERT
  5
36E8
330
36E1
100
AcDbEntity
  8
Dim
 62
     0
370
    -2
100
AcDbBlockReference
  2
_DOT
 10
273.9975023687052
 20
1278.791911843856
 30
0.0
 41
9.999389648437498
 42
9.999389648437498
 43
9.999389648437498
 50
180.0
  0
MTEXT
  5
36E9
330
36E1
100
AcDbEntity
  8
Dim
  6
Continuous
 62
     0
100
AcDbMText
 10
424.0636418157701
 20
1301.008220437606
 30
0.0
 40
24.4326171875
 41
0.0
 46
0.0
 71
     5
 72
     1
  1
\A1;300
  7
ＭＳ ゴシック
 73
     1
 44
1.0
  0
POINT
  5
36EA
330
36E1
100
AcDbEntity
  8
Defpoints
 62
     0
100
AcDbPoint
 10
574.1297812628404
 20
1189.278701361679
 30
0.0
  0
POINT
  5
36EB
330
36E1
100
AcDbEntity
  8
Defpoints
 62
     0
100
AcDbPoint
 10
273.9975023687052
 20
1189.278701361679
 30
0.0
  0
POINT
  5
36EC
330
36E1
100
AcDbEntity
  8
Defpoints
 62
     0
100
AcDbPoint
 10
273.9975023687052
 20
1278.791911843856
 30
0.0
  0
ENDBLK
  5
36E3
330
36E1
100
AcDbEntity
  8
0
100
AcDbBlockEnd
  0
BLOCK
  5
36EF
330
36EE
100
AcDbEntity
  8
0
100
AcDbBlockBegin
  2
*D11
 70
     1
 10
0.0
 20
0.0
 30
0.0
  3
*D11
  1

  0
LINE
  5
36F1
330
36EE
100
AcDbEntity
  8
Dim
 62
     0
 48
0.5
370
    -2
100
AcDbLine
 10
922.9930113032515
 20
1189.278701361679
 30
0.0
 11
989.4549422768287
 21
1189.278701361679
 31
0.0
  0
LINE
  5
36F2
330
36EE
100
AcDbEntity
  8
Dim
 62
     0
 48
0.5
370
    -2
100
AcDbLine
 10
861.2790507788382
 20
1029.278701361679
 30
0.0
 11
989.4549422768287
 21
1029.278701361679
 31
0.0
  0
LINE
  5
36F3
330
36EE
100
AcDbEntity
  8
Dim
 62
     0
 48
0.5
370
    -2
100
AcDbLine
 10
989.4549422768287
 20
1179.279311713241
 30
0.0
 11
989.4549422768287
 21
1039.278091010116
 31
0.0
  0
INSERT
  5
36F4
330
36EE
100
AcDbEntity
  8
Dim
 62
     0
370
    -2
100
AcDbBlockReference
  2
_DOT
 10
989.4549422768287
 20
1189.278701361679
 30
0.0
 41
9.999389648437498
 42
9.999389648437498
 43
9.999389648437498
 50
90.0
  0
INSERT
  5
36F5
330
36EE
100
AcDbEntity
  8
Dim
 62
     0
370
    -2
100
AcDbBlockReference
  2
_DOT
 10
989.4549422768287
 20
1029.278701361679
 30
0.0
 41
9.999389648437498
 42
9.999389648437498
 43
9.999389648437498
 50
270.0
  0
MTEXT
  5
36F6
330
36EE
100
AcDbEntity
  8
Dim
  6
Continuous
 62
     0
100
AcDbMText
 10
967.2386336830787
 20
1109.278701361679
 30
0.0
 40
24.4326171875
 41
0.0
 46
0.0
 71
     5
 72
     1
  1
\A1;150
  7
ＭＳ ゴシック
 11
0.0
 21
1.0
 31
0.0
 73
     1
 44
1.0
  0
POINT
  5
36F7
330
36EE
100
AcDbEntity
  8
Defpoints
 62
     0
100
AcDbPoint
 10
897.9930113032515
 20
1189.278701361679
 30
0.0
  0
POINT
  5
36F8
330
36EE
100
AcDbEntity
  8
Defpoints
 62
     0
100
AcDbPoint
 10
836.2790507788382
 20
1029.278701361679
 30
0.0
  0
POINT
  5
36F9
330
36EE
100
AcDbEntity
  8
Defpoints
 62
     0
100
AcDbPoint
 10
989.4549422768287
 20
1029.278701361679
 30
0.0
  0
ENDBLK
  5
36F0
330
36EE
100
AcDbEntity
  8
0
100
AcDbBlockEnd
  0
BLOCK
  5
3768
330
3767
100
AcDbEntity
  8
0
100
AcDbBlockBegin
  2
*D12
 70
     1
 10
0.0
 20
0.0
 30
0.0
  3
*D12
  1

  0
LINE
  5
376A
330
3767
100
AcDbEntity
  8
Dim
  6
Continuous
 62
     0
370
    -2
100
AcDbLine
 10
1800.099817419012
 20
1163.110812328689
 30
0.0
 11
1800.099817419012
 21
852.2069894194104
 31
0.0
  0
LINE
  5
376B
330
3767
100
AcDbEntity
  8
Dim
  6
Continuous
 62
     0
370
    -2
100
AcDbLine
 10
1590.099817419011
 20
906.1829484594106
 30
0.0
 11
1590.099817419011
 21
852.2069894194104
 31
0.0
  0
LINE
  5
376C
330
3767
100
AcDbEntity
  8
Dim
  6
Continuous
 62
     0
370
    -2
100
AcDbLine
 10
1790.100427770574
 20
852.2069894194104
 30
0.0
 11
1600.099207067449
 21
852.2069894194104
 31
0.0
  0
INSERT
  5
376D
330
3767
100
AcDbEntity
  8
Dim
 62
     0
370
    -2
100
AcDbBlockReference
  2
_DOT
 10
1800.099817419012
 20
852.2069894194104
 30
0.0
 41
9.999389648437498
 42
9.999389648437498
 43
9.999389648437498
  0
INSERT
  5
376E
330
3767
100
AcDbEntity
  8
Dim
 62
     0
370
    -2
100
AcDbBlockReference
  2
_DOT
 10
1590.099817419011
 20
852.2069894194104
 30
0.0
 41
9.999389648437498
 42
9.999389648437498
 43
9.999389648437498
 50
180.0
  0
MTEXT
  5
376F
330
3767
100
AcDbEntity
  8
Dim
  6
Continuous
 62
     0
100
AcDbMText
 10
1695.099817419012
 20
874.4232980131604
 30
0.0
 40
24.4326171875
 41
0.0
 46
0.0
 71
     5
 72
     1
  1
\A1;210
  7
ＭＳ ゴシック
 73
     1
 44
1.0
  0
POINT
  5
3770
330
3767
100
AcDbEntity
  8
Defpoints
 62
     0
100
AcDbPoint
 10
1800.099817419012
 20
1188.110812328689
 30
0.0
  0
POINT
  5
3771
330
3767
100
AcDbEntity
  8
Defpoints
 62
     0
100
AcDbPoint
 10
1590.099817419011
 20
931.1829484594106
 30
0.0
  0
POINT
  5
3772
330
3767
100
AcDbEntity
  8
Defpoints
 62
     0
100
AcDbPoint
 10
1590.099817419011
 20
852.2069894194104
 30
0.0
  0
ENDBLK
  5
3769
330
3767
100
AcDbEntity
  8
0
100
AcDbBlockEnd
  0
BLOCK
  5
3777
330
3776
100
AcDbEntity
  8
0
100
AcDbBlockBegin
  2
*D13
 70
     1
 10
0.0
 20
0.0
 30
0.0
  3
*D13
  1

  0
LINE
  5
3779
330
3776
100
AcDbEntity
  8
Dim
  6
Continuous
 62
     0
370
    -2
100
AcDbLine
 10
1573.885034404018
 20
1069.278701361679
 30
0.0
 11
1587.846935788759
 21
1069.278701361679
 31
0.0
  0
LINE
  5
377A
330
3776
100
AcDbEntity
  8
Dim
  6
Continuous
 62
     0
370
    -2
100
AcDbLine
 10
1573.885034404018
 20
1189.278701361679
 30
0.0
 11
1587.846935788759
 21
1189.278701361679
 31
0.0
  0
LINE
  5
377B
330
3776
100
AcDbEntity
  8
Dim
  6
Continuous
 62
     0
370
    -2
100
AcDbLine
 10
1587.846935788759
 20
1189.278701361679
 30
0.0
 11
1587.846935788759
 21
1367.069176580348
 31
0.0
  0
LINE
  5
377C
330
3776
100
AcDbEntity
  8
Dim
  6
Continuous
 62
     0
370
    -2
100
AcDbLine
 10
1587.846935788759
 20
1079.278091010116
 30
0.0
 11
1587.846935788759
 21
1179.279311713241
 31
0.0
  0
LINE
  5
377D
330
3776
100
AcDbEntity
  8
Dim
  6
Continuous
 62
     0
370
    -2
100
AcDbLine
 10
1587.846935788759
 20
1179.279311713241
 30
0.0
 11
1587.846935788759
 21
1169.279922064804
 31
0.0
  0
INSERT
  5
377E
330
3776
100
AcDbEntity
  8
Dim
 62
     0
370
    -2
100
AcDbBlockReference
  2
_DOT
 10
1587.846935788759
 20
1069.278701361679
 30
0.0
 41
9.999389648437498
 42
9.999389648437498
 43
9.999389648437498
 50
270.0
  0
INSERT
  5
377F
330
3776
100
AcDbEntity
  8
Dim
 62
     0
370
    -2
100
AcDbBlockReference
  2
_DOT
 10
1587.846935788759
 20
1189.278701361679
 30
0.0
 41
9.999389648437498
 42
9.999389648437498
 43
9.999389648437498
 50
90.0
  0
MTEXT
  5
3780
330
3776
100
AcDbEntity
  8
Dim
  6
Continuous
 62
     0
100
AcDbMText
 10
1563.468340573915
 20
1290.881216619411
 30
0.0
 40
24.4326171875
 41
0.0
 46
0.0
 71
     5
 72
     1
  1
\A1;110(深さ)
  7
ＭＳ ゴシック
 11
0.0
 21
1.0
 31
0.0
 73
     1
 44
1.0
  0
POINT
  5
3781
330
3776
100
AcDbEntity
  8
Defpoints
 62
     0
100
AcDbPoint
 10
1598.885034404018
 20
1069.278701361679
 30
0.0
  0
POINT
  5
3782
330
3776
100
AcDbEntity
  8
Defpoints
 62
     0
100
AcDbPoint
 10
1598.885034404018
 20
1189.278701361679
 30
0.0
  0
POINT
  5
3783
330
3776
100
AcDbEntity
  8
Defpoints
 62
     0
100
AcDbPoint
 10
1587.846935788759
 20
1189.278701361679
 30
0.0
  0
ENDBLK
  5
3778
330
3776
100
AcDbEntity
  8
0
100
AcDbBlockEnd
  0
BLOCK
  5
37DA
330
37D9
100
AcDbEntity
  8
0
100
AcDbBlockBegin
  2
*D14
 70
     1
 10
0.0
 20
0.0
 30
0.0
  3
*D14
  1

  0
LINE
  5
37DC
330
37D9
100
AcDbEntity
  8
Dim
  6
Continuous
 62
     0
370
    -2
100
AcDbLine
 10
344.4662864048282
 20
1005.297041356582
 30
0.0
 11
344.4662864048282
 21
931.2632324605817
 31
0.0
  0
LINE
  5
37DD
330
37D9
100
AcDbEntity
  8
Dim
  6
Continuous
 62
     0
370
    -2
100
AcDbLine
 10
804.1326446768285
 20
1005.297041356582
 30
0.0
 11
804.1326446768285
 21
931.2632324605817
 31
0.0
  0
LINE
  5
37DE
330
37D9
100
AcDbEntity
  8
Dim
  6
Continuous
 62
     0
370
    -2
100
AcDbLine
 10
354.4656760532657
 20
931.2632324605817
 30
0.0
 11
794.133255028391
 21
931.2632324605817
 31
0.0
  0
INSERT
  5
37DF
330
37D9
100
AcDbEntity
  8
Dim
 62
     0
370
    -2
100
AcDbBlockReference
  2
_DOT
 10
344.4662864048282
 20
931.2632324605817
 30
0.0
 41
9.999389648437498
 42
9.999389648437498
 43
9.999389648437498
 50
180.0
  0
INSERT
  5
37E0
330
37D9
100
AcDbEntity
  8
Dim
 62
     0
370
    -2
100
AcDbBlockReference
  2
_DOT
 10
804.1326446768285
 20
931.2632324605817
 30
0.0
 41
9.999389648437498
 42
9.999389648437498
 43
9.999389648437498
  0
MTEXT
  5
37E1
330
37D9
100
AcDbEntity
  8
Dim
  6
Continuous
 62
     0
100
AcDbMText
 10
574.2994655408284
 20
953.4795410543317
 30
0.0
 40
24.4326171875
 41
0.0
 46
0.0
 71
     5
 72
     1
  1
\A1;459.7
  7
ＭＳ ゴシック
 73
     1
 44
1.0
  0
POINT
  5
37E2
330
37D9
100
AcDbEntity
  8
Defpoints
 62
     0
100
AcDbPoint
 10
344.4662864048282
 20
1030.297041356582
 30
0.0
  0
POINT
  5
37E3
330
37D9
100
AcDbEntity
  8
Defpoints
 62
     0
100
AcDbPoint
 10
804.1326446768285
 20
1030.297041356582
 30
0.0
  0
POINT
  5
37E4
330
37D9
100
AcDbEntity
  8
Defpoints
 62
     0
100
AcDbPoint
 10
804.1326446768285
 20
931.2632324605817
 30
0.0
  0
ENDBLK
  5
37DB
330
37D9
100
AcDbEntity
  8
0
100
AcDbBlockEnd
  0
BLOCK
  5
37EA
330
37E9
100
AcDbEntity
  8
0
100
AcDbBlockBegin
  2
*D15
 70
     1
 10
0.0
 20
0.0
 30
0.0
  3
*D15
  1

  0
LINE
  5
37EC
330
37E9
100
AcDbEntity
  8
Dim
  6
Continuous
 62
     0
370
    -2
100
AcDbLine
 10
1653.500271741867
 20
2015.785829999647
 30
0.0
 11
1742.41534163297
 21
2059.650003181467
 31
0.0
  0
MTEXT
  5
37ED
330
37E9
100
AcDbEntity
  8
Dim
  6
Continuous
 62
     0
100
AcDbMText
 10
1695.966180039739
 20
2061.508034443716
 30
0.0
 40
24.4326171875
 41
0.0
 46
0.0
 71
     5
 72
     1
  1
\A1;%%c120
  7
ＭＳ ゴシック
 11
0.8968082643908958
 21
0.442419412910633
 31
0.0
 73
     1
 44
1.0
  0
INSERT
  5
37EE
330
37E9
100
AcDbEntity
  8
Dim
 62
     0
370
    -2
100
AcDbBlockReference
  2
_DOT
 10
1644.532736466284
 20
2011.361905901921
 30
0.0
 41
9.999389648437498
 42
9.999389648437498
 43
9.999389648437498
 50
206.2583513829706
  0
POINT
  5
37EF
330
37E9
100
AcDbEntity
  8
Defpoints
 62
     0
100
AcDbPoint
 10
1644.532736466284
 20
2011.361905901921
 30
0.0
  0
POINT
  5
37F0
330
37E9
100
AcDbEntity
  8
Defpoints
 62
     0
100
AcDbPoint
 10
1536.915744739377
 20
1958.271576352645
 30
0.0
  0
ENDBLK
  5
37EB
330
37E9
100
AcDbEntity
  8
0
100
AcDbBlockEnd
  0
BLOCK
  5
3813
330
3812
100
AcDbEntity
  8
0
100
AcDbBlockBegin
  2
*D16
 70
     1
 10
0.0
 20
0.0
 30
0.0
  3
*D16
  1

  0
LINE
  5
3815
330
3812
100
AcDbEntity
  8
Dim
  6
Continuous
 62
     0
370
    -2
100
AcDbLine
 10
344.1299005500001
 20
1019.036350438399
 30
0.0
 11
344.1299005500001
 21
947.6886000383993
 31
0.0
  0
LINE
  5
3816
330
3812
100
AcDbEntity
  8
Dim
  6
Continuous
 62
     0
370
    -2
100
AcDbLine
 10
804.1299005500001
 20
1019.036350438399
 30
0.0
 11
804.1299005500001
 21
947.6886000383993
 31
0.0
  0
LINE
  5
3817
330
3812
100
AcDbEntity
  8
Dim
  6
Continuous
 62
     0
370
    -2
100
AcDbLine
 10
354.1292901984376
 20
947.6886000383993
 30
0.0
 11
794.1305109015626
 21
947.6886000383993
 31
0.0
  0
INSERT
  5
3818
330
3812
100
AcDbEntity
  8
Dim
 62
     0
370
    -2
100
AcDbBlockReference
  2
_DOT
 10
344.1299005500001
 20
947.6886000383993
 30
0.0
 41
9.999389648437498
 42
9.999389648437498
 43
9.999389648437498
 50
180.0
  0
INSERT
  5
3819
330
3812
100
AcDbEntity
  8
Dim
 62
     0
370
    -2
100
AcDbBlockReference
  2
_DOT
 10
804.1299005500001
 20
947.6886000383993
 30
0.0
 41
9.999389648437498
 42
9.999389648437498
 43
9.999389648437498
  0
MTEXT
  5
381A
330
3812
100
AcDbEntity
  8
Dim
  6
Continuous
 62
     0
100
AcDbMText
 10
574.1299005500001
 20
969.9049086321493
 30
0.0
 40
24.4326171875
 41
0.0
 46
0.0
 71
     5
 72
     1
  1
\A1;460
  7
ＭＳ ゴシック
 73
     1
 44
1.0
  0
POINT
  5
381B
330
3812
100
AcDbEntity
  8
Defpoints
 62
     0
100
AcDbPoint
 10
344.1299005500001
 20
1044.036350438399
 30
0.0
  0
POINT
  5
381C
330
3812
100
AcDbEntity
  8
Defpoints
 62
     0
100
AcDbPoint
 10
804.1299005500001
 20
1044.036350438399
 30
0.0
  0
POINT
  5
381D
330
3812
100
AcDbEntity
  8
Defpoints
 62
     0
100
AcDbPoint
 10
804.1299005500001
 20
947.6886000383993
 30
0.0
  0
ENDBLK
  5
3814
330
3812
100
AcDbEntity
  8
0
100
AcDbBlockEnd
  0
BLOCK
  5
386A
330
3869
100
AcDbEntity
  8
0
100
AcDbBlockBegin
  2
*D17
 70
     1
 10
0.0
 20
0.0
 30
0.0
  3
*D17
  1

  0
LINE
  5
386C
330
3869
100
AcDbEntity
  8
Dim
  6
Continuous
 62
     0
370
    -2
100
AcDbLine
 10
610.0799005500007
 20
1003.449581046315
 30
0.0
 11
1104.464215536357
 21
1003.449581046315
 31
0.0
  0
LINE
  5
386D
330
3869
100
AcDbEntity
  8
Dim
  6
Continuous
 62
     0
370
    -2
100
AcDbLine
 10
652.0465141603568
 20
1189.278701361679
 30
0.0
 11
1104.464215536357
 21
1189.278701361679
 31
0.0
  0
LINE
  5
386E
330
3869
100
AcDbEntity
  8
Dim
  6
Continuous
 62
     0
370
    -2
100
AcDbLine
 10
1104.464215536357
 20
1013.448970694753
 30
0.0
 11
1104.464215536357
 21
1179.279311713241
 31
0.0
  0
INSERT
  5
386F
330
3869
100
AcDbEntity
  8
Dim
 62
     0
370
    -2
100
AcDbBlockReference
  2
_DOT
 10
1104.464215536357
 20
1003.449581046315
 30
0.0
 41
9.999389648437498
 42
9.999389648437498
 43
9.999389648437498
 50
270.0
  0
INSERT
  5
3870
330
3869
100
AcDbEntity
  8
Dim
 62
     0
370
    -2
100
AcDbBlockReference
  2
_DOT
 10
1104.464215536357
 20
1189.278701361679
 30
0.0
 41
9.999389648437498
 42
9.999389648437498
 43
9.999389648437498
 50
90.0
  0
MTEXT
  5
3871
330
3869
100
AcDbEntity
  8
Dim
  6
Continuous
 62
     0
100
AcDbMText
 10
1082.247906942607
 20
1096.364141203997
 30
0.0
 40
24.4326171875
 41
0.0
 46
0.0
 71
     5
 72
     1
  1
\A1;185.8
  7
ＭＳ ゴシック
 11
0.0
 21
1.0
 31
0.0
 73
     1
 44
1.0
  0
POINT
  5
3872
330
3869
100
AcDbEntity
  8
Defpoints
 62
     0
100
AcDbPoint
 10
585.0799005500007
 20
1003.449581046315
 30
0.0
  0
POINT
  5
3873
330
3869
100
AcDbEntity
  8
Defpoints
 62
     0
100
AcDbPoint
 10
627.0465141603568
 20
1189.278701361679
 30
0.0
  0
POINT
  5
3874
330
3869
100
AcDbEntity
  8
Defpoints
 62
     0
100
AcDbPoint
 10
1104.464215536357
 20
1189.278701361679
 30
0.0
  0
ENDBLK
  5
386B
330
3869
100
AcDbEntity
  8
0
100
AcDbBlockEnd
  0
BLOCK
  5
3877
330
3876
100
AcDbEntity
  8
0
100
AcDbBlockBegin
  2
*D18
 70
     1
 10
0.0
 20
0.0
 30
0.0
  3
*D18
  1

  0
LINE
  5
3879
330
3876
100
AcDbEntity
  8
Dim
  6
Continuous
 62
     0
370
    -2
100
AcDbLine
 10
903.5341893706351
 20
1189.278701361679
 30
0.0
 11
968.3127749706346
 21
1189.278701361679
 31
0.0
  0
LINE
  5
387A
330
3876
100
AcDbEntity
  8
Dim
  6
Continuous
 62
     0
370
    -2
100
AcDbLine
 10
634.9283397706354
 20
1014.278701361679
 30
0.0
 11
968.3127749706346
 21
1014.278701361679
 31
0.0
  0
LINE
  5
387B
330
3876
100
AcDbEntity
  8
Dim
  6
Continuous
 62
     0
370
    -2
100
AcDbLine
 10
968.3127749706346
 20
1179.279311713241
 30
0.0
 11
968.3127749706346
 21
1024.278091010116
 31
0.0
  0
INSERT
  5
387C
330
3876
100
AcDbEntity
  8
Dim
 62
     0
370
    -2
100
AcDbBlockReference
  2
_DOT
 10
968.3127749706346
 20
1189.278701361679
 30
0.0
 41
9.999389648437498
 42
9.999389648437498
 43
9.999389648437498
 50
90.0
  0
INSERT
  5
387D
330
3876
100
AcDbEntity
  8
Dim
 62
     0
370
    -2
100
AcDbBlockReference
  2
_DOT
 10
968.3127749706346
 20
1014.278701361679
 30
0.0
 41
9.999389648437498
 42
9.999389648437498
 43
9.999389648437498
 50
270.0
  0
MTEXT
  5
387E
330
3876
100
AcDbEntity
  8
Dim
  6
Continuous
 62
     0
100
AcDbMText
 10
946.0964663768846
 20
1101.778701361679
 30
0.0
 40
24.4326171875
 41
0.0
 46
0.0
 71
     5
 72
     1
  1
\A1;175
  7
ＭＳ ゴシック
 11
0.0
 21
1.0
 31
0.0
 73
     1
 44
1.0
  0
POINT
  5
387F
330
3876
100
AcDbEntity
  8
Defpoints
 62
     0
100
AcDbPoint
 10
878.5341893706351
 20
1189.278701361679
 30
0.0
  0
POINT
  5
3880
330
3876
100
AcDbEntity
  8
Defpoints
 62
     0
100
AcDbPoint
 10
609.9283397706354
 20
1014.278701361679
 30
0.0
  0
POINT
  5
3881
330
3876
100
AcDbEntity
  8
Defpoints
 62
     0
100
AcDbPoint
 10
968.3127749706346
 20
1014.278701361679
 30
0.0
  0
ENDBLK
  5
3878
330
3876
100
AcDbEntity
  8
0
100
AcDbBlockEnd
  0
BLOCK
  5
3894
330
3893
100
AcDbEntity
  8
0
100
AcDbBlockBegin
  2
*D19
 70
     1
 10
0.0
 20
0.0
 30
0.0
  3
*D19
  1

  0
LINE
  5
3896
330
3893
100
AcDbEntity
  8
Dim
  6
Continuous
 62
     0
370
    -2
100
AcDbLine
 10
1032.586199912305
 20
1189.278701361679
 30
0.0
 11
1031.877511528305
 21
1189.278701361679
 31
0.0
  0
LINE
  5
3897
330
3893
100
AcDbEntity
  8
Dim
  6
Continuous
 62
     0
370
    -2
100
AcDbLine
 10
1000.820638568305
 20
1029.278701361679
 30
0.0
 11
1031.877511528305
 21
1029.278701361679
 31
0.0
  0
LINE
  5
3898
330
3893
100
AcDbEntity
  8
Dim
  6
Continuous
 62
     0
370
    -2
100
AcDbLine
 10
1031.877511528305
 20
1179.279311713241
 30
0.0
 11
1031.877511528305
 21
1039.278091010116
 31
0.0
  0
INSERT
  5
3899
330
3893
100
AcDbEntity
  8
Dim
 62
     0
370
    -2
100
AcDbBlockReference
  2
_DOT
 10
1031.877511528305
 20
1189.278701361679
 30
0.0
 41
9.999389648437498
 42
9.999389648437498
 43
9.999389648437498
 50
90.0
  0
INSERT
  5
389A
330
3893
100
AcDbEntity
  8
Dim
 62
     0
370
    -2
100
AcDbBlockReference
  2
_DOT
 10
1031.877511528305
 20
1029.278701361679
 30
0.0
 41
9.999389648437498
 42
9.999389648437498
 43
9.999389648437498
 50
270.0
  0
MTEXT
  5
389B
330
3893
100
AcDbEntity
  8
Dim
  6
Continuous
 62
     0
100
AcDbMText
 10
1009.661202934555
 20
1109.278701361679
 30
0.0
 40
24.4326171875
 41
0.0
 46
0.0
 71
     5
 72
     1
  1
\A1;160
  7
ＭＳ ゴシック
 11
0.0
 21
1.0
 31
0.0
 73
     1
 44
1.0
  0
POINT
  5
389C
330
3893
100
AcDbEntity
  8
Defpoints
 62
     0
100
AcDbPoint
 10
1007.586199912305
 20
1189.278701361679
 30
0.0
  0
POINT
  5
389D
330
3893
100
AcDbEntity
  8
Defpoints
 62
     0
100
AcDbPoint
 10
975.8206385683054
 20
1029.278701361679
 30
0.0
  0
POINT
  5
389E
330
3893
100
AcDbEntity
  8
Defpoints
 62
     0
100
AcDbPoint
 10
1031.877511528305
 20
1029.278701361679
 30
0.0
  0
ENDBLK
  5
3895
330
3893
100
AcDbEntity
  8
0
100
AcDbBlockEnd
  0
BLOCK
  5
38A3
330
38A2
100
AcDbEntity
  8
0
100
AcDbBlockBegin
  2
*D20
 70
     1
 10
0.0
 20
0.0
 30
0.0
  3
*D20
  1

  0
LINE
  5
38A5
330
38A2
100
AcDbEntity
  8
Dim
  6
Continuous
 62
     0
370
    -2
100
AcDbLine
 10
941.9609219603055
 20
1189.278701361679
 30
0.0
 11
985.1634507283054
 21
1189.278701361679
 31
0.0
  0
LINE
  5
38A6
330
38A2
100
AcDbEntity
  8
Dim
  6
Continuous
 62
     0
370
    -2
100
AcDbLine
 10
855.6522770506351
 20
1039.278701361679
 30
0.0
 11
985.1634507283054
 21
1039.278701361679
 31
0.0
  0
LINE
  5
38A7
330
38A2
100
AcDbEntity
  8
Dim
  6
Continuous
 62
     0
370
    -2
100
AcDbLine
 10
985.1634507283054
 20
1179.279311713241
 30
0.0
 11
985.1634507283054
 21
1049.278091010116
 31
0.0
  0
INSERT
  5
38A8
330
38A2
100
AcDbEntity
  8
Dim
 62
     0
370
    -2
100
AcDbBlockReference
  2
_DOT
 10
985.1634507283054
 20
1189.278701361679
 30
0.0
 41
9.999389648437498
 42
9.999389648437498
 43
9.999389648437498
 50
90.0
  0
INSERT
  5
38A9
330
38A2
100
AcDbEntity
  8
Dim
 62
     0
370
    -2
100
AcDbBlockReference
  2
_DOT
 10
985.1634507283054
 20
1039.278701361679
 30
0.0
 41
9.999389648437498
 42
9.999389648437498
 43
9.999389648437498
 50
270.0
  0
MTEXT
  5
38AA
330
38A2
100
AcDbEntity
  8
Dim
  6
Continuous
 62
     0
100
AcDbMText
 10
962.9471421345554
 20
1114.278701361679
 30
0.0
 40
24.4326171875
 41
0.0
 46
0.0
 71
     5
 72
     1
  1
\A1;150
  7
ＭＳ ゴシック
 11
0.0
 21
1.0
 31
0.0
 73
     1
 44
1.0
  0
POINT
  5
38AB
330
38A2
100
AcDbEntity
  8
Defpoints
 62
     0
100
AcDbPoint
 10
916.9609219603055
 20
1189.278701361679
 30
0.0
  0
POINT
  5
38AC
330
38A2
100
AcDbEntity
  8
Defpoints
 62
     0
100
AcDbPoint
 10
830.6522770506351
 20
1039.278701361679
 30
0.0
  0
POINT
  5
38AD
330
38A2
100
AcDbEntity
  8
Defpoints
 62
     0
100
AcDbPoint
 10
985.1634507283054
 20
1039.278701361679
 30
0.0
  0
ENDBLK
  5
38A4
330
38A2
100
AcDbEntity
  8
0
100
AcDbBlockEnd
  0
BLOCK
  5
38B4
330
38B3
100
AcDbEntity
  8
0
100
AcDbBlockBegin
  2
*D21
 70
     1
 10
0.0
 20
0.0
 30
0.0
  3
*D21
  1

  0
LINE
  5
38B6
330
38B3
100
AcDbEntity
  8
Dim
  6
Continuous
 62
     0
370
    -2
100
AcDbLine
 10
1363.267763980963
 20
1189.27870136168
 30
0.0
 11
1320.065235212963
 21
1189.27870136168
 31
0.0
  0
LINE
  5
38B7
330
38B3
100
AcDbEntity
  8
Dim
  6
Continuous
 62
     0
370
    -2
100
AcDbLine
 10
1402.395207482634
 20
1039.27870136168
 30
0.0
 11
1320.065235212964
 21
1039.27870136168
 31
0.0
  0
LINE
  5
38B8
330
38B3
100
AcDbEntity
  8
Dim
  6
Continuous
 62
     0
370
    -2
100
AcDbLine
 10
1320.065235212963
 20
1179.279311713242
 30
0.0
 11
1320.065235212964
 21
1049.278091010117
 31
0.0
  0
INSERT
  5
38B9
330
38B3
100
AcDbEntity
  8
Dim
 62
     0
370
    -2
100
AcDbBlockReference
  2
_DOT
 10
1320.065235212963
 20
1189.27870136168
 30
0.0
 41
9.999389648437498
 42
9.999389648437498
 43
9.999389648437498
 50
90.00000000000018
  0
INSERT
  5
38BA
330
38B3
100
AcDbEntity
  8
Dim
 62
     0
370
    -2
100
AcDbBlockReference
  2
_DOT
 10
1320.065235212964
 20
1039.27870136168
 30
0.0
 41
9.999389648437498
 42
9.999389648437498
 43
9.999389648437498
 50
270.0000000000002
  0
MTEXT
  5
38BB
330
38B3
100
AcDbEntity
  8
Dim
  6
Continuous
 62
     0
100
AcDbMText
 10
1297.848926619214
 20
1114.27870136168
 30
0.0
 40
24.4326171875
 41
0.0
 46
0.0
 71
     5
 72
     1
  1
\A1;160
  7
ＭＳ ゴシック
 11
-3.031649005909756E-15
 21
1.0
 31
0.0
 73
     1
 44
1.0
  0
POINT
  5
38BC
330
38B3
100
AcDbEntity
  8
Defpoints
 62
     0
100
AcDbPoint
 10
1388.267763980963
 20
1189.27870136168
 30
0.0
  0
POINT
  5
38BD
330
38B3
100
AcDbEntity
  8
Defpoints
 62
     0
100
AcDbPoint
 10
1427.395207482634
 20
1039.27870136168
 30
0.0
  0
POINT
  5
38BE
330
38B3
100
AcDbEntity
  8
Defpoints
 62
     0
100
AcDbPoint
 10
1320.065235212964
 20
1039.27870136168
 30
0.0
  0
ENDBLK
  5
38B5
330
38B3
100
AcDbEntity
  8
0
100
AcDbBlockEnd
  0
BLOCK
  5
38C3
330
38C2
100
AcDbEntity
  8
0
100
AcDbBlockBegin
  2
*D22
 70
     1
 10
0.0
 20
0.0
 30
0.0
  3
*D22
  1

  0
LINE
  5
38C5
330
38C2
100
AcDbEntity
  8
Dim
  6
Continuous
 62
     0
370
    -2
100
AcDbLine
 10
1538.701499450635
 20
1189.278701361679
 30
0.0
 11
1519.907067450635
 21
1189.278701361679
 31
0.0
  0
LINE
  5
38C6
330
38C2
100
AcDbEntity
  8
Dim
  6
Continuous
 62
     0
370
    -2
100
AcDbLine
 10
1548.885034404018
 20
1078.211881904407
 30
0.0
 11
1519.907067450635
 21
1078.211881904407
 31
0.0
  0
LINE
  5
38C7
330
38C2
100
AcDbEntity
  8
Dim
  6
Continuous
 62
     0
370
    -2
100
AcDbLine
 10
1519.907067450635
 20
1179.279311713241
 30
0.0
 11
1519.907067450635
 21
1088.211271552844
 31
0.0
  0
INSERT
  5
38C8
330
38C2
100
AcDbEntity
  8
Dim
 62
     0
370
    -2
100
AcDbBlockReference
  2
_DOT
 10
1519.907067450635
 20
1189.278701361679
 30
0.0
 41
9.999389648437498
 42
9.999389648437498
 43
9.999389648437498
 50
90.0
  0
INSERT
  5
38C9
330
38C2
100
AcDbEntity
  8
Dim
 62
     0
370
    -2
100
AcDbBlockReference
  2
_DOT
 10
1519.907067450635
 20
1078.211881904407
 30
0.0
 41
9.999389648437498
 42
9.999389648437498
 43
9.999389648437498
 50
270.0
  0
MTEXT
  5
38CA
330
38C2
100
AcDbEntity
  8
Dim
  6
Continuous
 62
     0
100
AcDbMText
 10
1497.690758856885
 20
1133.745291633043
 30
0.0
 40
24.4326171875
 41
0.0
 46
0.0
 71
     5
 72
     1
  1
\A1;111.1
  7
ＭＳ ゴシック
 11
0.0
 21
1.0
 31
0.0
 73
     1
 44
1.0
  0
POINT
  5
38CB
330
38C2
100
AcDbEntity
  8
Defpoints
 62
     0
100
AcDbPoint
 10
1563.701499450635
 20
1189.278701361679
 30
0.0
  0
POINT
  5
38CC
330
38C2
100
AcDbEntity
  8
Defpoints
 62
     0
100
AcDbPoint
 10
1573.885034404018
 20
1078.211881904407
 30
0.0
  0
POINT
  5
38CD
330
38C2
100
AcDbEntity
  8
Defpoints
 62
     0
100
AcDbPoint
 10
1519.907067450635
 20
1078.211881904407
 30
0.0
  0
ENDBLK
  5
38C4
330
38C2
100
AcDbEntity
  8
0
100
AcDbBlockEnd
  0
BLOCK
  5
3923
330
3922
100
AcDbEntity
  8
0
100
AcDbBlockBegin
  2
*D23
 70
     1
 10
0.0
 20
0.0
 30
0.0
  3
*D23
  1
*D370
  0
LINE
  5
3924
330
3922
100
AcDbEntity
  8
Dim
  6
Continuous
 62
     0
370
    -2
100
AcDbLine
 10
215.9393174166669
 20
92.74897707658965
 30
0.0
 11
283.0429081216248
 21
92.74897707658965
 31
0.0
  0
LINE
  5
3925
330
3922
100
AcDbEntity
  8
Dim
  6
Continuous
 62
     0
370
    -2
100
AcDbLine
 10
215.9393174166669
 20
242.7489770765897
 30
0.0
 11
283.0429081216248
 21
242.7489770765897
 31
0.0
  0
LINE
  5
3926
330
3922
100
AcDbEntity
  8
Dim
  6
Continuous
 62
     0
370
    -2
100
AcDbLine
 10
283.0429081216248
 20
102.7483667250272
 30
0.0
 11
283.0429081216248
 21
232.7495874281522
 31
0.0
  0
INSERT
  5
3927
330
3922
100
AcDbEntity
  8
Dim
 62
     0
370
    -2
100
AcDbBlockReference
  2
_DOT
 10
283.0429081216248
 20
92.74897707658965
 30
0.0
 41
9.999389648437498
 42
9.999389648437498
 43
9.999389648437498
 50
270.0
  0
INSERT
  5
3928
330
3922
100
AcDbEntity
  8
Dim
 62
     0
370
    -2
100
AcDbBlockReference
  2
_DOT
 10
283.0429081216248
 20
242.7489770765897
 30
0.0
 41
9.999389648437498
 42
9.999389648437498
 43
9.999389648437498
 50
90.0
  0
MTEXT
  5
3929
330
3922
100
AcDbEntity
  8
Dim
  6
Continuous
 62
     0
100
AcDbMText
 10
260.8265995278748
 20
167.7489770765897
 30
0.0
 40
24.4326171875
 41
0.0
 46
0.0
 71
     5
 72
     1
  1
\A1;150
  7
ＭＳ ゴシック
 11
0.0
 21
1.0
 31
0.0
 73
     1
 44
1.0
  0
POINT
  5
392A
330
3922
100
AcDbEntity
  8
Defpoints
 62
     0
100
AcDbPoint
 10
190.9393174166669
 20
92.74897707658965
 30
0.0
  0
POINT
  5
392B
330
3922
100
AcDbEntity
  8
Defpoints
 62
     0
100
AcDbPoint
 10
190.9393174166669
 20
242.7489770765897
 30
0.0
  0
POINT
  5
392C
330
3922
100
AcDbEntity
  8
Defpoints
 62
     0
100
AcDbPoint
 10
283.0429081216248
 20
242.7489770765897
 30
0.0
  0
ENDBLK
  5
392D
330
3922
100
AcDbEntity
  8
0
100
AcDbBlockEnd
  0
BLOCK
  5
3932
330
3931
100
AcDbEntity
  8
0
100
AcDbBlockBegin
  2
*D24
 70
     1
 10
0.0
 20
0.0
 30
0.0
  3
*D24
  1
*D371
  0
LINE
  5
3933
330
3931
100
AcDbEntity
  8
Dim
  6
Continuous
 62
     0
370
    -2
100
AcDbLine
 10
90.93931741666688
 20
67.74897707658965
 30
0.0
 11
90.93931741666688
 21
4.99969482421875
 31
0.0
  0
LINE
  5
3934
330
3931
100
AcDbEntity
  8
Dim
  6
Continuous
 62
     0
370
    -2
100
AcDbLine
 10
190.9393174166669
 20
67.74897707658965
 30
0.0
 11
190.9393174166669
 21
4.99969482421875
 31
0.0
  0
LINE
  5
3935
330
3931
100
AcDbEntity
  8
Dim
  6
Continuous
 62
     0
370
    -2
100
AcDbLine
 10
100.9387070651044
 20
4.99969482421875
 30
0.0
 11
180.9399277682294
 21
4.99969482421875
 31
0.0
  0
INSERT
  5
3936
330
3931
100
AcDbEntity
  8
Dim
 62
     0
370
    -2
100
AcDbBlockReference
  2
_DOT
 10
90.93931741666688
 20
4.99969482421875
 30
0.0
 41
9.999389648437498
 42
9.999389648437498
 43
9.999389648437498
 50
180.0
  0
INSERT
  5
3937
330
3931
100
AcDbEntity
  8
Dim
 62
     0
370
    -2
100
AcDbBlockReference
  2
_DOT
 10
190.9393174166669
 20
4.99969482421875
 30
0.0
 41
9.999389648437498
 42
9.999389648437498
 43
9.999389648437498
  0
MTEXT
  5
3938
330
3931
100
AcDbEntity
  8
Dim
  6
Continuous
 62
     0
100
AcDbMText
 10
140.9393174166669
 20
27.21600341796875
 30
0.0
 40
24.4326171875
 41
0.0
 46
0.0
 71
     5
 72
     1
  1
\A1;100
  7
ＭＳ ゴシック
 73
     1
 44
1.0
  0
POINT
  5
3939
330
3931
100
AcDbEntity
  8
Defpoints
 62
     0
100
AcDbPoint
 10
90.93931741666688
 20
92.74897707658965
 30
0.0
  0
POINT
  5
393A
330
3931
100
AcDbEntity
  8
Defpoints
 62
     0
100
AcDbPoint
 10
190.9393174166669
 20
92.74897707658965
 30
0.0
  0
POINT
  5
393B
330
3931
100
AcDbEntity
  8
Defpoints
 62
     0
100
AcDbPoint
 10
190.9393174166669
 20
4.99969482421875
 30
0.0
  0
ENDBLK
  5
393C
330
3931
100
AcDbEntity
  8
0
100
AcDbBlockEnd
  0
BLOCK
  5
3943
330
3942
100
AcDbEntity
  8
0
100
AcDbBlockBegin
  2
*D25
 70
     1
 10
0.0
 20
0.0
 30
0.0
  3
*D25
  1
*D372
  0
LINE
  5
3944
330
3942
100
AcDbEntity
  8
Dim
  6
Continuous
 62
     0
370
    -2
100
AcDbLine
 10
94.03931741666588
 20
132.7489770765897
 30
0.0
 11
34.4326171875
 21
132.7489770765897
 31
0.0
  0
LINE
  5
3945
330
3942
100
AcDbEntity
  8
Dim
  6
Continuous
 62
     0
370
    -2
100
AcDbLine
 10
65.93931741666688
 20
92.74897707658965
 30
0.0
 11
34.4326171875
 21
92.74897707658965
 31
0.0
  0
LINE
  5
3946
330
3942
100
AcDbEntity
  8
Dim
  6
Continuous
 62
     0
370
    -2
100
AcDbLine
 10
34.4326171875
 20
122.7495874281522
 30
0.0
 11
34.4326171875
 21
102.7483667250272
 31
0.0
  0
INSERT
  5
3947
330
3942
100
AcDbEntity
  8
Dim
 62
     0
370
    -2
100
AcDbBlockReference
  2
_DOT
 10
34.4326171875
 20
132.7489770765897
 30
0.0
 41
9.999389648437498
 42
9.999389648437498
 43
9.999389648437498
 50
90.0
  0
INSERT
  5
3948
330
3942
100
AcDbEntity
  8
Dim
 62
     0
370
    -2
100
AcDbBlockReference
  2
_DOT
 10
34.4326171875
 20
92.74897707658965
 30
0.0
 41
9.999389648437498
 42
9.999389648437498
 43
9.999389648437498
 50
270.0
  0
MTEXT
  5
3949
330
3942
100
AcDbEntity
  8
Dim
  6
Continuous
 62
     0
100
AcDbMText
 10
12.21630859375
 20
112.7489770765897
 30
0.0
 40
24.4326171875
 41
0.0
 46
0.0
 71
     5
 72
     1
  1
\A1;40
  7
ＭＳ ゴシック
 11
0.0
 21
1.0
 31
0.0
 73
     1
 44
1.0
  0
POINT
  5
394A
330
3942
100
AcDbEntity
  8
Defpoints
 62
     0
100
AcDbPoint
 10
119.0393174166659
 20
132.7489770765897
 30
0.0
  0
POINT
  5
394B
330
3942
100
AcDbEntity
  8
Defpoints
 62
     0
100
AcDbPoint
 10
90.93931741666688
 20
92.74897707658965
 30
0.0
  0
POINT
  5
394C
330
3942
100
AcDbEntity
  8
Defpoints
 62
     0
100
AcDbPoint
 10
34.4326171875
 20
92.74897707658965
 30
0.0
  0
ENDBLK
  5
394D
330
3942
100
AcDbEntity
  8
0
100
AcDbBlockEnd
  0
BLOCK
  5
3962
330
3961
100
AcDbEntity
  8
0
100
AcDbBlockBegin
  2
*D26
 70
     1
 10
0.0
 20
0.0
 30
0.0
  3
*D26
  1

  0
LINE
  5
3964
330
3961
100
AcDbEntity
  8
Dim
  6
Continuous
 62
     0
370
    -2
100
AcDbLine
 10
2471.312983723652
 20
1982.835431768445
 30
0.0
 11
2538.41657442861
 21
1982.835431768445
 31
0.0
  0
LINE
  5
3965
330
3961
100
AcDbEntity
  8
Dim
  6
Continuous
 62
     0
370
    -2
100
AcDbLine
 10
2471.312983723652
 20
2132.835431768445
 30
0.0
 11
2538.41657442861
 21
2132.835431768445
 31
0.0
  0
LINE
  5
3966
330
3961
100
AcDbEntity
  8
Dim
  6
Continuous
 62
     0
370
    -2
100
AcDbLine
 10
2538.41657442861
 20
1992.834821416882
 30
0.0
 11
2538.41657442861
 21
2122.836042120007
 31
0.0
  0
INSERT
  5
3967
330
3961
100
AcDbEntity
  8
Dim
 62
     0
370
    -2
100
AcDbBlockReference
  2
_DOT
 10
2538.41657442861
 20
1982.835431768445
 30
0.0
 41
9.999389648437498
 42
9.999389648437498
 43
9.999389648437498
 50
270.0
  0
INSERT
  5
3968
330
3961
100
AcDbEntity
  8
Dim
 62
     0
370
    -2
100
AcDbBlockReference
  2
_DOT
 10
2538.41657442861
 20
2132.835431768445
 30
0.0
 41
9.999389648437498
 42
9.999389648437498
 43
9.999389648437498
 50
90.0
  0
MTEXT
  5
3969
330
3961
100
AcDbEntity
  8
Dim
  6
Continuous
 62
     0
100
AcDbMText
 10
2516.20026583486
 20
2057.835431768445
 30
0.0
 40
24.4326171875
 41
0.0
 46
0.0
 71
     5
 72
     1
  1
\A1;150
  7
ＭＳ ゴシック
 11
0.0
 21
1.0
 31
0.0
 73
     1
 44
1.0
  0
POINT
  5
396A
330
3961
100
AcDbEntity
  8
Defpoints
 62
     0
100
AcDbPoint
 10
2446.312983723652
 20
1982.835431768445
 30
0.0
  0
POINT
  5
396B
330
3961
100
AcDbEntity
  8
Defpoints
 62
     0
100
AcDbPoint
 10
2446.312983723652
 20
2132.835431768445
 30
0.0
  0
POINT
  5
396C
330
3961
100
AcDbEntity
  8
Defpoints
 62
     0
100
AcDbPoint
 10
2538.41657442861
 20
2132.835431768445
 30
0.0
  0
ENDBLK
  5
3963
330
3961
100
AcDbEntity
  8
0
100
AcDbBlockEnd
  0
BLOCK
  5
396E
330
396D
100
AcDbEntity
  8
0
100
AcDbBlockBegin
  2
*D27
 70
     1
 10
0.0
 20
0.0
 30
0.0
  3
*D27
  1

  0
LINE
  5
3970
330
396D
100
AcDbEntity
  8
Dim
  6
Continuous
 62
     0
370
    -2
100
AcDbLine
 10
2346.312983723652
 20
1957.835431768445
 30
0.0
 11
2346.312983723652
 21
1895.086149516074
 31
0.0
  0
LINE
  5
3971
330
396D
100
AcDbEntity
  8
Dim
  6
Continuous
 62
     0
370
    -2
100
AcDbLine
 10
2446.312983723652
 20
1957.835431768445
 30
0.0
 11
2446.312983723652
 21
1895.086149516074
 31
0.0
  0
LINE
  5
3972
330
396D
100
AcDbEntity
  8
Dim
  6
Continuous
 62
     0
370
    -2
100
AcDbLine
 10
2356.312373372089
 20
1895.086149516074
 30
0.0
 11
2436.313594075214
 21
1895.086149516074
 31
0.0
  0
INSERT
  5
3973
330
396D
100
AcDbEntity
  8
Dim
 62
     0
370
    -2
100
AcDbBlockReference
  2
_DOT
 10
2346.312983723652
 20
1895.086149516074
 30
0.0
 41
9.999389648437498
 42
9.999389648437498
 43
9.999389648437498
 50
180.0
  0
INSERT
  5
3974
330
396D
100
AcDbEntity
  8
Dim
 62
     0
370
    -2
100
AcDbBlockReference
  2
_DOT
 10
2446.312983723652
 20
1895.086149516074
 30
0.0
 41
9.999389648437498
 42
9.999389648437498
 43
9.999389648437498
  0
MTEXT
  5
3975
330
396D
100
AcDbEntity
  8
Dim
  6
Continuous
 62
     0
100
AcDbMText
 10
2396.312983723652
 20
1917.302458109824
 30
0.0
 40
24.4326171875
 41
0.0
 46
0.0
 71
     5
 72
     1
  1
\A1;100
  7
ＭＳ ゴシック
 73
     1
 44
1.0
  0
POINT
  5
3976
330
396D
100
AcDbEntity
  8
Defpoints
 62
     0
100
AcDbPoint
 10
2346.312983723652
 20
1982.835431768445
 30
0.0
  0
POINT
  5
3977
330
396D
100
AcDbEntity
  8
Defpoints
 62
     0
100
AcDbPoint
 10
2446.312983723652
 20
1982.835431768445
 30
0.0
  0
POINT
  5
3978
330
396D
100
AcDbEntity
  8
Defpoints
 62
     0
100
AcDbPoint
 10
2446.312983723652
 20
1895.086149516074
 30
0.0
  0
ENDBLK
  5
396F
330
396D
100
AcDbEntity
  8
0
100
AcDbBlockEnd
  0
BLOCK
  5
397A
330
3979
100
AcDbEntity
  8
0
100
AcDbBlockBegin
  2
*D28
 70
     1
 10
0.0
 20
0.0
 30
0.0
  3
*D28
  1

  0
LINE
  5
397C
330
3979
100
AcDbEntity
  8
Dim
  6
Continuous
 62
     0
370
    -2
100
AcDbLine
 10
2349.412983723651
 20
2022.835431768445
 30
0.0
 11
2289.806283494485
 21
2022.835431768445
 31
0.0
  0
LINE
  5
397D
330
3979
100
AcDbEntity
  8
Dim
  6
Continuous
 62
     0
370
    -2
100
AcDbLine
 10
2321.312983723652
 20
1982.835431768445
 30
0.0
 11
2289.806283494485
 21
1982.835431768445
 31
0.0
  0
LINE
  5
397E
330
3979
100
AcDbEntity
  8
Dim
  6
Continuous
 62
     0
370
    -2
100
AcDbLine
 10
2289.806283494485
 20
2012.836042120007
 30
0.0
 11
2289.806283494485
 21
1992.834821416882
 31
0.0
  0
INSERT
  5
397F
330
3979
100
AcDbEntity
  8
Dim
 62
     0
370
    -2
100
AcDbBlockReference
  2
_DOT
 10
2289.806283494485
 20
2022.835431768445
 30
0.0
 41
9.999389648437498
 42
9.999389648437498
 43
9.999389648437498
 50
90.0
  0
INSERT
  5
3980
330
3979
100
AcDbEntity
  8
Dim
 62
     0
370
    -2
100
AcDbBlockReference
  2
_DOT
 10
2289.806283494485
 20
1982.835431768445
 30
0.0
 41
9.999389648437498
 42
9.999389648437498
 43
9.999389648437498
 50
270.0
  0
MTEXT
  5
3981
330
3979
100
AcDbEntity
  8
Dim
  6
Continuous
 62
     0
100
AcDbMText
 10
2267.589974900735
 20
2002.835431768445
 30
0.0
 40
24.4326171875
 41
0.0
 46
0.0
 71
     5
 72
     1
  1
\A1;40
  7
ＭＳ ゴシック
 11
0.0
 21
1.0
 31
0.0
 73
     1
 44
1.0
  0
POINT
  5
3982
330
3979
100
AcDbEntity
  8
Defpoints
 62
     0
100
AcDbPoint
 10
2374.412983723651
 20
2022.835431768445
 30
0.0
  0
POINT
  5
3983
330
3979
100
AcDbEntity
  8
Defpoints
 62
     0
100
AcDbPoint
 10
2346.312983723652
 20
1982.835431768445
 30
0.0
  0
POINT
  5
3984
330
3979
100
AcDbEntity
  8
Defpoints
 62
     0
100
AcDbPoint
 10
2289.806283494485
 20
1982.835431768445
 30
0.0
  0
ENDBLK
  5
397B
330
3979
100
AcDbEntity
  8
0
100
AcDbBlockEnd
  0
BLOCK
  5
3994
330
3993
100
AcDbEntity
  8
0
100
AcDbBlockBegin
  2
*D29
 70
     1
 10
0.0
 20
0.0
 30
0.0
  3
*D29
  1

  0
LINE
  5
3996
330
3993
100
AcDbEntity
  8
Dim
  6
Continuous
 62
     0
370
    -2
100
AcDbLine
 10
1665.72424060283
 20
1944.816741127283
 30
0.0
 11
1732.827831307788
 21
1944.816741127283
 31
0.0
  0
LINE
  5
3997
330
3993
100
AcDbEntity
  8
Dim
  6
Continuous
 62
     0
370
    -2
100
AcDbLine
 10
1665.72424060283
 20
2094.816741127283
 30
0.0
 11
1732.827831307788
 21
2094.816741127283
 31
0.0
  0
LINE
  5
3998
330
3993
100
AcDbEntity
  8
Dim
  6
Continuous
 62
     0
370
    -2
100
AcDbLine
 10
1732.827831307788
 20
1954.81613077572
 30
0.0
 11
1732.827831307788
 21
2084.817351478845
 31
0.0
  0
INSERT
  5
3999
330
3993
100
AcDbEntity
  8
Dim
 62
     0
370
    -2
100
AcDbBlockReference
  2
_DOT
 10
1732.827831307788
 20
1944.816741127283
 30
0.0
 41
9.999389648437498
 42
9.999389648437498
 43
9.999389648437498
 50
270.0
  0
INSERT
  5
399A
330
3993
100
AcDbEntity
  8
Dim
 62
     0
370
    -2
100
AcDbBlockReference
  2
_DOT
 10
1732.827831307788
 20
2094.816741127283
 30
0.0
 41
9.999389648437498
 42
9.999389648437498
 43
9.999389648437498
 50
90.0
  0
MTEXT
  5
399B
330
3993
100
AcDbEntity
  8
Dim
  6
Continuous
 62
     0
100
AcDbMText
 10
1710.611522714038
 20
2019.816741127283
 30
0.0
 40
24.4326171875
 41
0.0
 46
0.0
 71
     5
 72
     1
  1
\A1;150
  7
ＭＳ ゴシック
 11
0.0
 21
1.0
 31
0.0
 73
     1
 44
1.0
  0
POINT
  5
399C
330
3993
100
AcDbEntity
  8
Defpoints
 62
     0
100
AcDbPoint
 10
1640.72424060283
 20
1944.816741127283
 30
0.0
  0
POINT
  5
399D
330
3993
100
AcDbEntity
  8
Defpoints
 62
     0
100
AcDbPoint
 10
1640.72424060283
 20
2094.816741127283
 30
0.0
  0
POINT
  5
399E
330
3993
100
AcDbEntity
  8
Defpoints
 62
     0
100
AcDbPoint
 10
1732.827831307788
 20
2094.816741127283
 30
0.0
  0
ENDBLK
  5
3995
330
3993
100
AcDbEntity
  8
0
100
AcDbBlockEnd
  0
BLOCK
  5
39A0
330
399F
100
AcDbEntity
  8
0
100
AcDbBlockBegin
  2
*D30
 70
     1
 10
0.0
 20
0.0
 30
0.0
  3
*D30
  1

  0
LINE
  5
39A2
330
399F
100
AcDbEntity
  8
Dim
  6
Continuous
 62
     0
370
    -2
100
AcDbLine
 10
1540.72424060283
 20
1919.816741127283
 30
0.0
 11
1540.72424060283
 21
1857.067458874912
 31
0.0
  0
LINE
  5
39A3
330
399F
100
AcDbEntity
  8
Dim
  6
Continuous
 62
     0
370
    -2
100
AcDbLine
 10
1640.72424060283
 20
1919.816741127283
 30
0.0
 11
1640.72424060283
 21
1857.067458874912
 31
0.0
  0
LINE
  5
39A4
330
399F
100
AcDbEntity
  8
Dim
  6
Continuous
 62
     0
370
    -2
100
AcDbLine
 10
1550.723630251267
 20
1857.067458874912
 30
0.0
 11
1630.724850954392
 21
1857.067458874912
 31
0.0
  0
INSERT
  5
39A5
330
399F
100
AcDbEntity
  8
Dim
 62
     0
370
    -2
100
AcDbBlockReference
  2
_DOT
 10
1540.72424060283
 20
1857.067458874912
 30
0.0
 41
9.999389648437498
 42
9.999389648437498
 43
9.999389648437498
 50
180.0
  0
INSERT
  5
39A6
330
399F
100
AcDbEntity
  8
Dim
 62
     0
370
    -2
100
AcDbBlockReference
  2
_DOT
 10
1640.72424060283
 20
1857.067458874912
 30
0.0
 41
9.999389648437498
 42
9.999389648437498
 43
9.999389648437498
  0
MTEXT
  5
39A7
330
399F
100
AcDbEntity
  8
Dim
  6
Continuous
 62
     0
100
AcDbMText
 10
1590.72424060283
 20
1879.283767468662
 30
0.0
 40
24.4326171875
 41
0.0
 46
0.0
 71
     5
 72
     1
  1
\A1;100
  7
ＭＳ ゴシック
 73
     1
 44
1.0
  0
POINT
  5
39A8
330
399F
100
AcDbEntity
  8
Defpoints
 62
     0
100
AcDbPoint
 10
1540.72424060283
 20
1944.816741127283
 30
0.0
  0
POINT
  5
39A9
330
399F
100
AcDbEntity
  8
Defpoints
 62
     0
100
AcDbPoint
 10
1640.72424060283
 20
1944.816741127283
 30
0.0
  0
POINT
  5
39AA
330
399F
100
AcDbEntity
  8
Defpoints
 62
     0
100
AcDbPoint
 10
1640.72424060283
 20
1857.067458874912
 30
0.0
  0
ENDBLK
  5
39A1
330
399F
100
AcDbEntity
  8
0
100
AcDbBlockEnd
  0
BLOCK
  5
39AC
330
39AB
100
AcDbEntity
  8
0
100
AcDbBlockBegin
  2
*D31
 70
     1
 10
0.0
 20
0.0
 30
0.0
  3
*D31
  1

  0
LINE
  5
39AE
330
39AB
100
AcDbEntity
  8
Dim
  6
Continuous
 62
     0
370
    -2
100
AcDbLine
 10
1543.824240602828
 20
1984.816741127283
 30
0.0
 11
1484.217540373663
 21
1984.816741127283
 31
0.0
  0
LINE
  5
39AF
330
39AB
100
AcDbEntity
  8
Dim
  6
Continuous
 62
     0
370
    -2
100
AcDbLine
 10
1515.72424060283
 20
1944.816741127283
 30
0.0
 11
1484.217540373663
 21
1944.816741127283
 31
0.0
  0
LINE
  5
39B0
330
39AB
100
AcDbEntity
  8
Dim
  6
Continuous
 62
     0
370
    -2
100
AcDbLine
 10
1484.217540373663
 20
1974.817351478845
 30
0.0
 11
1484.217540373663
 21
1954.81613077572
 31
0.0
  0
INSERT
  5
39B1
330
39AB
100
AcDbEntity
  8
Dim
 62
     0
370
    -2
100
AcDbBlockReference
  2
_DOT
 10
1484.217540373663
 20
1984.816741127283
 30
0.0
 41
9.999389648437498
 42
9.999389648437498
 43
9.999389648437498
 50
90.0
  0
INSERT
  5
39B2
330
39AB
100
AcDbEntity
  8
Dim
 62
     0
370
    -2
100
AcDbBlockReference
  2
_DOT
 10
1484.217540373663
 20
1944.816741127283
 30
0.0
 41
9.999389648437498
 42
9.999389648437498
 43
9.999389648437498
 50
270.0
  0
MTEXT
  5
39B3
330
39AB
100
AcDbEntity
  8
Dim
  6
Continuous
 62
     0
100
AcDbMText
 10
1462.001231779913
 20
1964.816741127283
 30
0.0
 40
24.4326171875
 41
0.0
 46
0.0
 71
     5
 72
     1
  1
\A1;40
  7
ＭＳ ゴシック
 11
0.0
 21
1.0
 31
0.0
 73
     1
 44
1.0
  0
POINT
  5
39B4
330
39AB
100
AcDbEntity
  8
Defpoints
 62
     0
100
AcDbPoint
 10
1568.824240602828
 20
1984.816741127283
 30
0.0
  0
POINT
  5
39B5
330
39AB
100
AcDbEntity
  8
Defpoints
 62
     0
100
AcDbPoint
 10
1540.72424060283
 20
1944.816741127283
 30
0.0
  0
POINT
  5
39B6
330
39AB
100
AcDbEntity
  8
Defpoints
 62
     0
100
AcDbPoint
 10
1484.217540373663
 20
1944.816741127283
 30
0.0
  0
ENDBLK
  5
39AD
330
39AB
100
AcDbEntity
  8
0
100
AcDbBlockEnd
  0
BLOCK
  5
39BB
330
39BA
100
AcDbEntity
  8
0
100
AcDbBlockBegin
  2
*D32
 70
     1
 10
0.0
 20
0.0
 30
0.0
  3
*D32
  1

  0
LINE
  5
39BD
330
39BA
100
AcDbEntity
  8
Dim
  6
Continuous
 62
     0
370
    -2
100
AcDbLine
 10
1554.536906218807
 20
1014.278701361679
 30
0.0
 11
1554.536906218807
 21
989.9236296183965
 31
0.0
  0
LINE
  5
39BE
330
39BA
100
AcDbEntity
  8
Dim
  6
Continuous
 62
     0
370
    -2
100
AcDbLine
 10
1701.965469312624
 20
1014.278701361679
 30
0.0
 11
1701.965469312624
 21
989.9236296183965
 31
0.0
  0
LINE
  5
39BF
330
39BA
100
AcDbEntity
  8
Dim
  6
Continuous
 62
     0
370
    -2
100
AcDbLine
 10
1564.536295867245
 20
989.9236296183965
 30
0.0
 11
1691.966079664187
 21
989.9236296183965
 31
0.0
  0
INSERT
  5
39C0
330
39BA
100
AcDbEntity
  8
Dim
 62
     0
370
    -2
100
AcDbBlockReference
  2
_DOT
 10
1554.536906218807
 20
989.9236296183965
 30
0.0
 41
9.999389648437498
 42
9.999389648437498
 43
9.999389648437498
 50
180.0
  0
INSERT
  5
39C1
330
39BA
100
AcDbEntity
  8
Dim
 62
     0
370
    -2
100
AcDbBlockReference
  2
_DOT
 10
1701.965469312624
 20
989.9236296183965
 30
0.0
 41
9.999389648437498
 42
9.999389648437498
 43
9.999389648437498
  0
MTEXT
  5
39C2
330
39BA
100
AcDbEntity
  8
Dim
  6
Continuous
 62
     0
100
AcDbMText
 10
1628.251187765716
 20
1012.139938212146
 30
0.0
 40
24.4326171875
 41
0.0
 46
0.0
 71
     5
 72
     1
  1
\A1;147.4
  7
ＭＳ ゴシック
 73
     1
 44
1.0
  0
POINT
  5
39C3
330
39BA
100
AcDbEntity
  8
Defpoints
 62
     0
100
AcDbPoint
 10
1554.536906218807
 20
1039.278701361679
 30
0.0
  0
POINT
  5
39C4
330
39BA
100
AcDbEntity
  8
Defpoints
 62
     0
100
AcDbPoint
 10
1701.965469312624
 20
1039.278701361679
 30
0.0
  0
POINT
  5
39C5
330
39BA
100
AcDbEntity
  8
Defpoints
 62
     0
100
AcDbPoint
 10
1701.965469312624
 20
989.9236296183965
 30
0.0
  0
ENDBLK
  5
39BC
330
39BA
100
AcDbEntity
  8
0
100
AcDbBlockEnd
  0
BLOCK
  5
39CA
330
39C9
100
AcDbEntity
  8
0
100
AcDbBlockBegin
  2
*D33
 70
     1
 10
0.0
 20
0.0
 30
0.0
  3
*D33
  1

  0
LINE
  5
39CC
330
39C9
100
AcDbEntity
  8
Dim
  6
Continuous
 62
     0
370
    -2
100
AcDbLine
 10
1554.536906218807
 20
1014.278701361679
 30
0.0
 11
1554.536906218807
 21
1000.638714028457
 31
0.0
  0
LINE
  5
39CD
330
39C9
100
AcDbEntity
  8
Dim
  6
Continuous
 62
     0
370
    -2
100
AcDbLine
 10
1704.536712861972
 20
1014.519547813081
 30
0.0
 11
1704.536712861972
 21
1000.638714028457
 31
0.0
  0
LINE
  5
39CE
330
39C9
100
AcDbEntity
  8
Dim
  6
Continuous
 62
     0
370
    -2
100
AcDbLine
 10
1564.536295867245
 20
1000.638714028457
 30
0.0
 11
1694.537323213535
 21
1000.638714028457
 31
0.0
  0
INSERT
  5
39CF
330
39C9
100
AcDbEntity
  8
Dim
 62
     0
370
    -2
100
AcDbBlockReference
  2
_DOT
 10
1554.536906218807
 20
1000.638714028457
 30
0.0
 41
9.999389648437498
 42
9.999389648437498
 43
9.999389648437498
 50
180.0
  0
INSERT
  5
39D0
330
39C9
100
AcDbEntity
  8
Dim
 62
     0
370
    -2
100
AcDbBlockReference
  2
_DOT
 10
1704.536712861972
 20
1000.638714028457
 30
0.0
 41
9.999389648437498
 42
9.999389648437498
 43
9.999389648437498
  0
MTEXT
  5
39D1
330
39C9
100
AcDbEntity
  8
Dim
  6
Continuous
 62
     0
100
AcDbMText
 10
1629.53680954039
 20
1022.855022622207
 30
0.0
 40
24.4326171875
 41
0.0
 46
0.0
 71
     5
 72
     1
  1
\A1;150
  7
ＭＳ ゴシック
 73
     1
 44
1.0
  0
POINT
  5
39D2
330
39C9
100
AcDbEntity
  8
Defpoints
 62
     0
100
AcDbPoint
 10
1554.536906218807
 20
1039.278701361679
 30
0.0
  0
POINT
  5
39D3
330
39C9
100
AcDbEntity
  8
Defpoints
 62
     0
100
AcDbPoint
 10
1704.536712861972
 20
1039.519547813081
 30
0.0
  0
POINT
  5
39D4
330
39C9
100
AcDbEntity
  8
Defpoints
 62
     0
100
AcDbPoint
 10
1704.536712861972
 20
1000.638714028457
 30
0.0
  0
ENDBLK
  5
39CB
330
39C9
100
AcDbEntity
  8
0
100
AcDbBlockEnd
  0
BLOCK
  5
39FC
330
39FB
100
AcDbEntity
  8
0
100
AcDbBlockBegin
  2
_None
 70
     0
 10
0.0
 20
0.0
 30
0.0
  3
_None
  1

  0
ENDBLK
  5
39FD
330
39FB
100
AcDbEntity
  8
0
100
AcDbBlockEnd
  0
BLOCK
  5
3B1F
330
3B1E
100
AcDbEntity
  8
0
 48
0.5
100
AcDbBlockBegin
  2
*D35
 70
     1
 10
0.0
 20
0.0
 30
0.0
  3
*D35
  1

  0
LINE
  5
3B20
330
3B1E
100
AcDbEntity
  8
Quote
 62
     0
370
    -2
100
AcDbLine
 10
53.09416337031325
 20
575.0271743842031
 30
0.0
 11
53.09416337031325
 21
332.6834398600511
 31
0.0
  0
LINE
  5
3B21
330
3B1E
100
AcDbEntity
  8
Quote
 62
     0
370
    -2
100
AcDbLine
 10
753.1812470282948
 20
571.675507262934
 30
0.0
 11
753.1812470282948
 21
332.6834398600511
 31
0.0
  0
LINE
  5
3B22
330
3B1E
100
AcDbEntity
  8
Quote
 62
     0
370
    -2
100
AcDbLine
 10
53.27416337031325
 20
332.8634398600511
 30
0.0
 11
402.4927051993041
 21
332.8634398600511
 31
0.0
  0
LINE
  5
3B23
330
3B1E
100
AcDbEntity
  8
Quote
 62
     0
370
    -2
100
AcDbLine
 10
753.0012470282949
 20
332.8634398600511
 30
0.0
 11
403.782705199304
 21
332.8634398600511
 31
0.0
  0
SOLID
  5
3B24
330
3B1E
100
AcDbEntity
  8
Quote
 62
     0
100
AcDbTrace
 10
53.27416337031325
 20
332.8934398600511
 30
0.0
 11
53.27416337031325
 21
332.8334398600512
 31
0.0
 12
53.09416337031325
 22
332.8634398600511
 32
0.0
 13
53.09416337031325
 23
332.8634398600511
 33
0.0
  0
SOLID
  5
3B25
330
3B1E
100
AcDbEntity
  8
Quote
 62
     0
100
AcDbTrace
 10
753.0012470282949
 20
332.8334398600512
 30
0.0
 11
753.0012470282949
 21
332.8934398600511
 31
0.0
 12
753.1812470282948
 22
332.8634398600511
 32
0.0
 13
753.1812470282948
 23
332.8634398600511
 33
0.0
  0
MTEXT
  5
3B26
330
3B1E
100
AcDbEntity
  8
Quote
  6
Continuous
 62
     0
100
AcDbMText
 10
403.137705199304
 20
332.8634398600511
 30
0.0
 40
0.18
 41
0.0
 46
0.0
 71
     5
 72
     1
  1
\A1;700.0871
 73
     1
 44
1.0
  0
POINT
  5
3B76
330
3B1E
100
AcDbEntity
  8
Defpoints
 62
     0
100
AcDbPoint
 10
53.09416337031325
 20
575.0896743842031
 30
0.0
  0
POINT
  5
3B77
330
3B1E
100
AcDbEntity
  8
Defpoints
 62
     0
100
AcDbPoint
 10
753.1812470282948
 20
571.738007262934
 30
0.0
  0
POINT
  5
3B78
330
3B1E
100
AcDbEntity
  8
Defpoints
 62
     0
100
AcDbPoint
 10
753.1812470282948
 20
332.8634398600511
 30
0.0
  0
ENDBLK
  5
3B27
330
3B1E
100
AcDbEntity
  8
0
 48
0.5
100
AcDbBlockEnd
  0
BLOCK
  5
3B2A
330
3B29
100
AcDbEntity
  8
0
 48
0.5
100
AcDbBlockBegin
  2
*D36
 70
     1
 10
0.0
 20
0.0
 30
0.0
  3
*D36
  1

  0
LINE
  5
3B2B
330
3B29
100
AcDbEntity
  8
Quote
 62
     0
370
    -2
100
AcDbLine
 10
768.6627461586959
 20
785.1785543727269
 30
0.0
 11
792.3153962996981
 21
785.1785543727269
 31
0.0
  0
LINE
  5
3B2C
330
3B29
100
AcDbEntity
  8
Quote
 62
     0
370
    -2
100
AcDbLine
 10
768.6627461586959
 20
365.1785543727269
 30
0.0
 11
792.3153962996981
 21
365.1785543727269
 31
0.0
  0
LINE
  5
3B2D
330
3B29
100
AcDbEntity
  8
Quote
 62
     0
370
    -2
100
AcDbLine
 10
792.1353962996982
 20
784.998554372727
 30
0.0
 11
792.1353962996982
 21
575.358554372727
 31
0.0
  0
LINE
  5
3B2E
330
3B29
100
AcDbEntity
  8
Quote
 62
     0
370
    -2
100
AcDbLine
 10
792.1353962996982
 20
365.3585543727269
 30
0.0
 11
792.1353962996982
 21
574.9985543727269
 31
0.0
  0
SOLID
  5
3B2F
330
3B29
100
AcDbEntity
  8
Quote
 62
     0
100
AcDbTrace
 10
792.1653962996982
 20
784.998554372727
 30
0.0
 11
792.1053962996982
 21
784.998554372727
 31
0.0
 12
792.1353962996982
 22
785.1785543727269
 32
0.0
 13
792.1353962996982
 23
785.1785543727269
 33
0.0
  0
SOLID
  5
3B30
330
3B29
100
AcDbEntity
  8
Quote
 62
     0
100
AcDbTrace
 10
792.1053962996982
 20
365.3585543727269
 30
0.0
 11
792.1653962996982
 21
365.3585543727269
 31
0.0
 12
792.1353962996982
 22
365.1785543727269
 32
0.0
 13
792.1353962996982
 23
365.1785543727269
 33
0.0
  0
MTEXT
  5
3B31
330
3B29
100
AcDbEntity
  8
Quote
  6
Continuous
 62
     0
100
AcDbMText
 10
792.1353962996982
 20
575.1785543727269
 30
0.0
 40
0.18
 41
0.0
 46
0.0
 71
     5
 72
     1
  1
\A1;420.0000
 73
     1
 44
1.0
  0
POINT
  5
3B79
330
3B29
100
AcDbEntity
  8
Defpoints
 62
     0
100
AcDbPoint
 10
768.6002461586959
 20
785.1785543727269
 30
0.0
  0
POINT
  5
3B7A
330
3B29
100
AcDbEntity
  8
Defpoints
 62
     0
100
AcDbPoint
 10
768.6002461586959
 20
365.1785543727269
 30
0.0
  0
POINT
  5
3B7B
330
3B29
100
AcDbEntity
  8
Defpoints
 62
     0
100
AcDbPoint
 10
792.1353962996982
 20
365.1785543727269
 30
0.0
  0
ENDBLK
  5
3B32
330
3B29
100
AcDbEntity
  8
0
 48
0.5
100
AcDbBlockEnd
  0
BLOCK
  5
3B36
330
3B35
100
AcDbEntity
  8
0
 48
0.5
100
AcDbBlockBegin
  2
*D37
 70
     1
 10
0.0
 20
0.0
 30
0.0
  3
*D37
  1

  0
LINE
  5
3B37
330
3B35
100
AcDbEntity
  8
Quote
 62
     0
370
    -2
100
AcDbLine
 10
456.2031984904577
 20
604.2350488627503
 30
0.0
 11
456.0231984904577
 21
604.2350488627503
 31
0.0
  0
LINE
  5
3B38
330
3B35
100
AcDbEntity
  8
Quote
 62
     0
370
    -2
100
AcDbLine
 10
455.8655746805576
 20
604.1481308867467
 30
0.0
 11
456.0231984904577
 21
604.2350488627503
 31
0.0
  0
MTEXT
  5
3B39
330
3B35
100
AcDbEntity
  8
Quote
  6
Continuous
 62
     0
100
AcDbMText
 10
456.9081984904577
 20
604.2350488627502
 30
0.0
 40
0.18
 41
0.0
 46
0.0
 71
     5
 72
     1
  1
\A1;%%c120.0000
 73
     1
 44
1.0
  0
SOLID
  5
3B3A
330
3B35
100
AcDbEntity
  8
Quote
 62
     0
100
AcDbTrace
 10
455.8510883512237
 20
604.17440152173
 30
0.0
 11
455.8800610098915
 21
604.1218602517633
 31
0.0
 12
455.7079508706574
 22
604.061212910743
 32
0.0
 13
455.7079508706574
 23
604.061212910743
 33
0.0
  0
LINE
  5
3B3B
330
3B35
100
AcDbEntity
  8
Quote
 62
     0
100
AcDbLine
 10
403.1216809039407
 20
575.0885542428773
 30
0.0
 11
403.2116809039407
 21
575.0885542428773
 31
0.0
  0
LINE
  5
3B7C
330
3B35
100
AcDbEntity
  8
Quote
 62
     0
100
AcDbLine
 10
403.1666809039407
 20
575.0435542428773
 30
0.0
 11
403.1666809039407
 21
575.1335542428773
 31
0.0
  0
POINT
  5
3B7D
330
3B35
100
AcDbEntity
  8
Defpoints
 62
     0
100
AcDbPoint
 10
455.7079508706574
 20
604.061212910743
 30
0.0
  0
POINT
  5
3B7E
330
3B35
100
AcDbEntity
  8
Defpoints
 62
     0
100
AcDbPoint
 10
350.6254109372239
 20
546.1158955750116
 30
0.0
  0
ENDBLK
  5
3B3C
330
3B35
100
AcDbEntity
  8
0
 48
0.5
100
AcDbBlockEnd
  0
BLOCK
  5
3B3F
330
3B3E
100
AcDbEntity
  8
0
 48
0.5
100
AcDbBlockBegin
  2
*D38
 70
     1
 10
0.0
 20
0.0
 30
0.0
  3
*D38
  1

  0
LINE
  5
3B40
330
3B3E
100
AcDbEntity
  8
Quote
 62
     0
 48
0.5
370
    -2
100
AcDbLine
 10
403.1666809039361
 20
38.86027700113118
 30
0.0
 11
403.1666809039361
 21
204.4092027522299
 31
0.0
  0
LINE
  5
3B41
330
3B3E
100
AcDbEntity
  8
Quote
 62
     0
 48
0.5
370
    -2
100
AcDbLine
 10
753.0343852817314
 20
160.0625000000182
 30
0.0
 11
753.0343852817314
 21
204.4092027522299
 31
0.0
  0
LINE
  5
3B42
330
3B3E
100
AcDbEntity
  8
Quote
 62
     0
 48
0.5
370
    -2
100
AcDbLine
 10
403.3466809039361
 20
204.2292027522299
 30
0.0
 11
577.3805330928337
 21
204.2292027522299
 31
0.0
  0
LINE
  5
3B43
330
3B3E
100
AcDbEntity
  8
Quote
 62
     0
 48
0.5
370
    -2
100
AcDbLine
 10
752.8543852817314
 20
204.2292027522299
 30
0.0
 11
578.8205330928338
 21
204.2292027522299
 31
0.0
  0
SOLID
  5
3B44
330
3B3E
100
AcDbEntity
  8
Quote
 62
     0
100
AcDbTrace
 10
403.3466809039361
 20
204.2592027522299
 30
0.0
 11
403.3466809039361
 21
204.1992027522299
 31
0.0
 12
403.1666809039361
 22
204.2292027522299
 32
0.0
 13
403.1666809039361
 23
204.2292027522299
 33
0.0
  0
SOLID
  5
3B45
330
3B3E
100
AcDbEntity
  8
Quote
 62
     0
100
AcDbTrace
 10
752.8543852817314
 20
204.1992027522299
 30
0.0
 11
752.8543852817314
 21
204.2592027522299
 31
0.0
 12
753.0343852817314
 22
204.2292027522299
 32
0.0
 13
753.0343852817314
 23
204.2292027522299
 33
0.0
  0
MTEXT
  5
3B46
330
3B3E
100
AcDbEntity
  8
Quote
  6
Continuous
 62
     0
100
AcDbMText
 10
578.1005330928338
 20
204.2292027522299
 30
0.0
 40
0.18
 41
0.0
 46
0.0
 71
     5
 72
     1
  1
\A1;349.8677
 73
     1
 44
1.0
  0
POINT
  5
3B7F
330
3B3E
100
AcDbEntity
  8
Defpoints
 62
     0
100
AcDbPoint
 10
403.1666809039361
 20
38.79777700113118
 30
0.0
  0
POINT
  5
3B80
330
3B3E
100
AcDbEntity
  8
Defpoints
 62
     0
100
AcDbPoint
 10
753.0343852817314
 20
160.0000000000182
 30
0.0
  0
POINT
  5
3B81
330
3B3E
100
AcDbEntity
  8
Defpoints
 62
     0
100
AcDbPoint
 10
753.0343852817314
 20
204.2292027522299
 30
0.0
  0
ENDBLK
  5
3B47
330
3B3E
100
AcDbEntity
  8
0
 48
0.5
100
AcDbBlockEnd
  0
BLOCK
  5
3B4A
330
3B49
100
AcDbEntity
  8
0
 48
0.5
100
AcDbBlockBegin
  2
*D39
 70
     1
 10
0.0
 20
0.0
 30
0.0
  3
*D39
  1

  0
LINE
  5
3B4B
330
3B49
100
AcDbEntity
  8
Quote
 62
     0
 48
0.5
370
    -2
100
AcDbLine
 10
268.0734244933101
 20
160.0000000000182
 30
0.0
 11
15.74225319006321
 21
160.0000000000182
 31
0.0
  0
LINE
  5
3B4C
330
3B49
100
AcDbEntity
  8
Quote
 62
     0
 48
0.5
370
    -2
100
AcDbLine
 10
268.0734244933064
 20
0.0000000000181899
 30
0.0
 11
15.7422531900632
 21
0.0000000000182053
 31
0.0
  0
LINE
  5
3B4D
330
3B49
100
AcDbEntity
  8
Quote
 62
     0
 48
0.5
370
    -2
100
AcDbLine
 10
15.92225319006321
 20
159.8200000000182
 30
0.0
 11
15.92225319006321
 21
80.18000000001823
 31
0.0
  0
LINE
  5
3B4E
330
3B49
100
AcDbEntity
  8
Quote
 62
     0
 48
0.5
370
    -2
100
AcDbLine
 10
15.9222531900632
 20
0.1800000000182053
 30
0.0
 11
15.92225319006321
 21
79.82000000001821
 31
0.0
  0
SOLID
  5
3B4F
330
3B49
100
AcDbEntity
  8
Quote
 62
     0
100
AcDbTrace
 10
15.95225319006321
 20
159.8200000000182
 30
0.0
 11
15.89225319006321
 21
159.8200000000182
 31
0.0
 12
15.92225319006321
 22
160.0000000000182
 32
0.0
 13
15.92225319006321
 23
160.0000000000182
 33
0.0
  0
SOLID
  5
3B50
330
3B49
100
AcDbEntity
  8
Quote
 62
     0
100
AcDbTrace
 10
15.8922531900632
 20
0.1800000000182053
 30
0.0
 11
15.9522531900632
 21
0.1800000000182053
 31
0.0
 12
15.9222531900632
 22
0.0000000000182053
 32
0.0
 13
15.9222531900632
 23
0.0000000000182053
 33
0.0
  0
MTEXT
  5
3B51
330
3B49
100
AcDbEntity
  8
Quote
  6
Continuous
 62
     0
100
AcDbMText
 10
15.92225319006321
 20
80.00000000001822
 30
0.0
 40
0.18
 41
0.0
 46
0.0
 71
     5
 72
     1
  1
\A1;160.0000
 73
     1
 44
1.0
  0
POINT
  5
3B82
330
3B49
100
AcDbEntity
  8
Defpoints
 62
     0
100
AcDbPoint
 10
268.1359244933101
 20
160.0000000000182
 30
0.0
  0
POINT
  5
3B83
330
3B49
100
AcDbEntity
  8
Defpoints
 62
     0
100
AcDbPoint
 10
268.1359244933064
 20
0.0000000000181899
 30
0.0
  0
POINT
  5
3B84
330
3B49
100
AcDbEntity
  8
Defpoints
 62
     0
100
AcDbPoint
 10
15.9222531900632
 20
0.0000000000182053
 30
0.0
  0
ENDBLK
  5
3B52
330
3B49
100
AcDbEntity
  8
0
 48
0.5
100
AcDbBlockEnd
  0
BLOCK
  5
3B55
330
3B54
100
AcDbEntity
  8
0
 48
0.5
100
AcDbBlockBegin
  2
*D40
 70
     1
 10
0.0
 20
0.0
 30
0.0
  3
*D40
  1

  0
LINE
  5
3B56
330
3B54
100
AcDbEntity
  8
Quote
 62
     0
 48
0.2
370
    -2
100
AcDbLine
 10
1110.501666024358
 20
575.1510542428769
 30
0.0
 11
1110.501666024358
 21
831.6851176024835
 31
0.0
  0
LINE
  5
3B57
330
3B54
100
AcDbEntity
  8
Quote
 62
     0
 48
0.2
370
    -2
100
AcDbLine
 10
1270.501666024358
 20
575.1361748457066
 30
0.0
 11
1270.501666024358
 21
831.6851176024835
 31
0.0
  0
LINE
  5
3B58
330
3B54
100
AcDbEntity
  8
Quote
 62
     0
 48
0.2
370
    -2
100
AcDbLine
 10
1110.681666024358
 20
831.5051176024836
 30
0.0
 11
1189.886666024358
 21
831.5051176024836
 31
0.0
  0
LINE
  5
3B59
330
3B54
100
AcDbEntity
  8
Quote
 62
     0
 48
0.2
370
    -2
100
AcDbLine
 10
1270.321666024358
 20
831.5051176024836
 30
0.0
 11
1191.116666024358
 21
831.5051176024836
 31
0.0
  0
SOLID
  5
3B5A
330
3B54
100
AcDbEntity
  8
Quote
 62
     0
100
AcDbTrace
 10
1110.681666024358
 20
831.5351176024835
 30
0.0
 11
1110.681666024358
 21
831.4751176024836
 31
0.0
 12
1110.501666024358
 22
831.5051176024836
 32
0.0
 13
1110.501666024358
 23
831.5051176024836
 33
0.0
  0
SOLID
  5
3B5B
330
3B54
100
AcDbEntity
  8
Quote
 62
     0
100
AcDbTrace
 10
1270.321666024358
 20
831.4751176024836
 30
0.0
 11
1270.321666024358
 21
831.5351176024835
 31
0.0
 12
1270.501666024358
 22
831.5051176024836
 32
0.0
 13
1270.501666024358
 23
831.5051176024836
 33
0.0
  0
MTEXT
  5
3B5C
330
3B54
100
AcDbEntity
  8
Quote
  6
Continuous
 62
     0
100
AcDbMText
 10
1190.501666024358
 20
831.5051176024836
 30
0.0
 40
0.18
 41
0.0
 46
0.0
 71
     5
 72
     1
  1
\A1;160.0000
 73
     1
 44
1.0
  0
POINT
  5
3B85
330
3B54
100
AcDbEntity
  8
Defpoints
 62
     0
100
AcDbPoint
 10
1110.501666024358
 20
575.0885542428769
 30
0.0
  0
POINT
  5
3B86
330
3B54
100
AcDbEntity
  8
Defpoints
 62
     0
100
AcDbPoint
 10
1270.501666024358
 20
575.0736748457066
 30
0.0
  0
POINT
  5
3B87
330
3B54
100
AcDbEntity
  8
Defpoints
 62
     0
100
AcDbPoint
 10
1270.501666024358
 20
831.5051176024836
 30
0.0
  0
ENDBLK
  5
3B5D
330
3B54
100
AcDbEntity
  8
0
 48
0.5
100
AcDbBlockEnd
  0
BLOCK
  5
3B60
330
3B5F
100
AcDbEntity
  8
0
 48
0.5
100
AcDbBlockBegin
  2
*D41
 70
     1
 10
0.0
 20
0.0
 30
0.0
  3
*D41
  1

  0
LINE
  5
3B61
330
3B5F
100
AcDbEntity
  8
Quote
 62
     0
370
    -2
100
AcDbLine
 10
1270.140525985405
 20
722.8235440935567
 30
0.0
 11
1327.180531321464
 21
722.8235440935567
 31
0.0
  0
LINE
  5
3B62
330
3B5F
100
AcDbEntity
  8
Quote
 62
     0
370
    -2
100
AcDbLine
 10
1270.14052598456
 20
427.3238055986956
 30
0.0
 11
1327.180531321464
 21
427.3238055986956
 31
0.0
  0
LINE
  5
3B63
330
3B5F
100
AcDbEntity
  8
Quote
 62
     0
370
    -2
100
AcDbLine
 10
1327.000531321464
 20
722.6435440935568
 30
0.0
 11
1327.000531321464
 21
575.2536748461262
 31
0.0
  0
LINE
  5
3B64
330
3B5F
100
AcDbEntity
  8
Quote
 62
     0
370
    -2
100
AcDbLine
 10
1327.000531321464
 20
427.5038055986956
 30
0.0
 11
1327.000531321464
 21
574.893674846126
 31
0.0
  0
SOLID
  5
3B65
330
3B5F
100
AcDbEntity
  8
Quote
 62
     0
100
AcDbTrace
 10
1327.030531321464
 20
722.6435440935568
 30
0.0
 11
1326.970531321464
 21
722.6435440935568
 31
0.0
 12
1327.000531321464
 22
722.8235440935567
 32
0.0
 13
1327.000531321464
 23
722.8235440935567
 33
0.0
  0
SOLID
  5
3B66
330
3B5F
100
AcDbEntity
  8
Quote
 62
     0
100
AcDbTrace
 10
1326.970531321464
 20
427.5038055986956
 30
0.0
 11
1327.030531321464
 21
427.5038055986956
 31
0.0
 12
1327.000531321464
 22
427.3238055986956
 32
0.0
 13
1327.000531321464
 23
427.3238055986956
 33
0.0
  0
MTEXT
  5
3B67
330
3B5F
100
AcDbEntity
  8
Quote
  6
Continuous
 62
     0
100
AcDbMText
 10
1327.000531321464
 20
575.0736748461261
 30
0.0
 40
0.18
 41
0.0
 46
0.0
 71
     5
 72
     1
  1
\A1;295.4997
 73
     1
 44
1.0
  0
POINT
  5
3B88
330
3B5F
100
AcDbEntity
  8
Defpoints
 62
     0
100
AcDbPoint
 10
1270.078025985405
 20
722.8235440935567
 30
0.0
  0
POINT
  5
3B89
330
3B5F
100
AcDbEntity
  8
Defpoints
 62
     0
100
AcDbPoint
 10
1270.07802598456
 20
427.3238055986956
 30
0.0
  0
POINT
  5
3B8A
330
3B5F
100
AcDbEntity
  8
Defpoints
 62
     0
100
AcDbPoint
 10
1327.000531321464
 20
427.3238055986956
 30
0.0
  0
ENDBLK
  5
3B68
330
3B5F
100
AcDbEntity
  8
0
 48
0.5
100
AcDbBlockEnd
  0
BLOCK
  5
3B6B
330
3B6A
100
AcDbEntity
  8
0
 48
0.5
100
AcDbBlockBegin
  2
*D42
 70
     1
 10
0.0
 20
0.0
 30
0.0
  3
*D42
  1

  0
LINE
  5
3B6C
330
3B6A
100
AcDbEntity
  8
Quote
 62
     0
370
    -2
100
AcDbLine
 10
1221.537239888627
 20
575.0111748457067
 30
0.0
 11
1221.537239888627
 21
326.3660812304741
 31
0.0
  0
LINE
  5
3B6D
330
3B6A
100
AcDbEntity
  8
Quote
 62
     0
370
    -2
100
AcDbLine
 10
1110.501666024358
 20
575.0260542428769
 30
0.0
 11
1110.501666024358
 21
326.3660812304741
 31
0.0
  0
LINE
  5
3B6E
330
3B6A
100
AcDbEntity
  8
Quote
 62
     0
370
    -2
100
AcDbLine
 10
1221.357239888627
 20
326.5460812304741
 30
0.0
 11
1166.274452956492
 21
326.5460812304741
 31
0.0
  0
LINE
  5
3B6F
330
3B6A
100
AcDbEntity
  8
Quote
 62
     0
370
    -2
100
AcDbLine
 10
1110.681666024358
 20
326.5460812304741
 30
0.0
 11
1165.764452956493
 21
326.5460812304741
 31
0.0
  0
SOLID
  5
3B70
330
3B6A
100
AcDbEntity
  8
Quote
 62
     0
100
AcDbTrace
 10
1221.357239888627
 20
326.5160812304741
 30
0.0
 11
1221.357239888627
 21
326.5760812304741
 31
0.0
 12
1221.537239888627
 22
326.5460812304741
 32
0.0
 13
1221.537239888627
 23
326.5460812304741
 33
0.0
  0
SOLID
  5
3B71
330
3B6A
100
AcDbEntity
  8
Quote
 62
     0
100
AcDbTrace
 10
1110.681666024358
 20
326.5760812304741
 30
0.0
 11
1110.681666024358
 21
326.5160812304741
 31
0.0
 12
1110.501666024358
 22
326.5460812304741
 32
0.0
 13
1110.501666024358
 23
326.5460812304741
 33
0.0
  0
MTEXT
  5
3B72
330
3B6A
100
AcDbEntity
  8
Quote
  6
Continuous
 62
     0
100
AcDbMText
 10
1166.019452956492
 20
326.5460812304741
 30
0.0
 40
0.18
 41
0.0
 46
0.0
 71
     5
 72
     1
  1
\A1;110
 73
     1
 44
1.0
  0
POINT
  5
3B8B
330
3B6A
100
AcDbEntity
  8
Defpoints
 62
     0
100
AcDbPoint
 10
1221.537239888627
 20
575.0736748457067
 30
0.0
  0
POINT
  5
3B8C
330
3B6A
100
AcDbEntity
  8
Defpoints
 62
     0
100
AcDbPoint
 10
1110.501666024358
 20
575.0885542428769
 30
0.0
  0
POINT
  5
3B8D
330
3B6A
100
AcDbEntity
  8
Defpoints
 62
     0
100
AcDbPoint
 10
1110.501666024358
 20
326.5460812304741
 30
0.0
  0
ENDBLK
  5
3B73
330
3B6A
100
AcDbEntity
  8
0
 48
0.5
100
AcDbBlockEnd
  0
BLOCK
  5
3C91
330
3C90
100
AcDbEntity
  8
0
100
AcDbBlockBegin
  2
*D43
 70
     1
 10
0.0
 20
0.0
 30
0.0
  3
*D43
  1

  0
LINE
  5
3C93
330
3C90
100
AcDbEntity
  8
Dim
 62
     0
370
    -2
100
AcDbLine
 10
2788.804962362314
 20
1684.990472464204
 30
0.0
 11
2788.804962362314
 21
1925.2714238208
 31
0.0
  0
LINE
  5
3C94
330
3C90
100
AcDbEntity
  8
Dim
 62
     0
370
    -2
100
AcDbLine
 10
3488.892046020295
 20
1681.638805342935
 30
0.0
 11
3488.892046020295
 21
1925.2714238208
 31
0.0
  0
LINE
  5
3C95
330
3C90
100
AcDbEntity
  8
Dim
 62
     0
370
    -2
100
AcDbLine
 10
2798.804352010751
 20
1925.2714238208
 30
0.0
 11
3478.892656371858
 21
1925.2714238208
 31
0.0
  0
INSERT
  5
3C96
330
3C90
100
AcDbEntity
  8
Dim
 62
     0
370
    -2
100
AcDbBlockReference
  2
_DOT
 10
2788.804962362314
 20
1925.2714238208
 30
0.0
 41
9.999389648437498
 42
9.999389648437498
 43
9.999389648437498
 50
180.0
  0
INSERT
  5
3C97
330
3C90
100
AcDbEntity
  8
Dim
 62
     0
370
    -2
100
AcDbBlockReference
  2
_DOT
 10
3488.892046020295
 20
1925.2714238208
 30
0.0
 41
9.999389648437498
 42
9.999389648437498
 43
9.999389648437498
  0
MTEXT
  5
3C98
330
3C90
100
AcDbEntity
  8
Dim
  6
Continuous
 62
     0
100
AcDbMText
 10
3138.848504191305
 20
1947.48773241455
 30
0.0
 40
24.4326171875
 41
0.0
 46
0.0
 71
     5
 72
     1
  1
\A1;700.1
  7
ＭＳ ゴシック
 73
     1
 44
1.0
  0
POINT
  5
3C99
330
3C90
100
AcDbEntity
  8
Defpoints
 62
     0
100
AcDbPoint
 10
2788.804962362314
 20
1659.990472464204
 30
0.0
  0
POINT
  5
3C9A
330
3C90
100
AcDbEntity
  8
Defpoints
 62
     0
100
AcDbPoint
 10
3488.892046020295
 20
1656.638805342935
 30
0.0
  0
POINT
  5
3C9B
330
3C90
100
AcDbEntity
  8
Defpoints
 62
     0
100
AcDbPoint
 10
3488.892046020295
 20
1925.2714238208
 30
0.0
  0
ENDBLK
  5
3C92
330
3C90
100
AcDbEntity
  8
0
100
AcDbBlockEnd
  0
BLOCK
  5
3C9E
330
3C9D
100
AcDbEntity
  8
0
100
AcDbBlockBegin
  2
*D44
 70
     1
 10
0.0
 20
0.0
 30
0.0
  3
*D44
  1

  0
LINE
  5
3CA0
330
3C9D
100
AcDbEntity
  8
Dim
 62
     0
370
    -2
100
AcDbLine
 10
3324.937029150697
 20
1870.079352452728
 30
0.0
 11
3584.336447068801
 21
1870.079352452728
 31
0.0
  0
LINE
  5
3CA1
330
3C9D
100
AcDbEntity
  8
Dim
 62
     0
370
    -2
100
AcDbLine
 10
3324.937029150697
 20
1450.079352452728
 30
0.0
 11
3584.336447068801
 21
1450.079352452728
 31
0.0
  0
LINE
  5
3CA2
330
3C9D
100
AcDbEntity
  8
Dim
 62
     0
370
    -2
100
AcDbLine
 10
3584.336447068801
 20
1860.07996280429
 30
0.0
 11
3584.336447068801
 21
1460.078742101165
 31
0.0
  0
INSERT
  5
3CA3
330
3C9D
100
AcDbEntity
  8
Dim
 62
     0
370
    -2
100
AcDbBlockReference
  2
_DOT
 10
3584.336447068801
 20
1870.079352452728
 30
0.0
 41
9.999389648437498
 42
9.999389648437498
 43
9.999389648437498
 50
90.0
  0
INSERT
  5
3CA4
330
3C9D
100
AcDbEntity
  8
Dim
 62
     0
370
    -2
100
AcDbBlockReference
  2
_DOT
 10
3584.336447068801
 20
1450.079352452728
 30
0.0
 41
9.999389648437498
 42
9.999389648437498
 43
9.999389648437498
 50
270.0
  0
MTEXT
  5
3CA5
330
3C9D
100
AcDbEntity
  8
Dim
  6
Continuous
 62
     0
100
AcDbMText
 10
3562.120138475051
 20
1660.079352452728
 30
0.0
 40
24.4326171875
 41
0.0
 46
0.0
 71
     5
 72
     1
  1
\A1;420
  7
ＭＳ ゴシック
 11
0.0
 21
1.0
 31
0.0
 73
     1
 44
1.0
  0
POINT
  5
3CA6
330
3C9D
100
AcDbEntity
  8
Defpoints
 62
     0
100
AcDbPoint
 10
3299.937029150697
 20
1870.079352452728
 30
0.0
  0
POINT
  5
3CA7
330
3C9D
100
AcDbEntity
  8
Defpoints
 62
     0
100
AcDbPoint
 10
3299.937029150697
 20
1450.079352452728
 30
0.0
  0
POINT
  5
3CA8
330
3C9D
100
AcDbEntity
  8
Defpoints
 62
     0
100
AcDbPoint
 10
3584.336447068801
 20
1450.079352452728
 30
0.0
  0
ENDBLK
  5
3C9F
330
3C9D
100
AcDbEntity
  8
0
100
AcDbBlockEnd
  0
BLOCK
  5
3CAB
330
3CAA
100
AcDbEntity
  8
0
100
AcDbBlockBegin
  2
*D45
 70
     1
 10
0.0
 20
0.0
 30
0.0
  3
*D45
  1

  0
LINE
  5
3CAD
330
3CAA
100
AcDbEntity
  8
Dim
 62
     0
370
    -2
100
AcDbLine
 10
3200.175093713007
 20
1693.790492710263
 30
0.0
 11
3208.931437563356
 21
1698.618974429783
 31
0.0
  0
LINE
  5
3CAE
330
3CAA
100
AcDbEntity
  8
Dim
 62
     0
370
    -2
100
AcDbLine
 10
3077.579866078876
 20
1626.188211935493
 30
0.0
 11
3068.823522228527
 21
1621.359730215973
 31
0.0
  0
LINE
  5
3CAF
330
3CAA
100
AcDbEntity
  8
Dim
 62
     0
370
    -2
100
AcDbLine
 10
3115.542497297019
 20
1647.121820070851
 30
0.0
 11
3086.336209929224
 21
1631.016693655012
 31
0.0
  0
LINE
  5
3CB0
330
3CAA
100
AcDbEntity
  8
Dim
 62
     0
370
    -2
100
AcDbLine
 10
3170.968806345213
 20
1677.685366294424
 30
0.0
 11
3191.418749862658
 21
1688.962010990744
 31
0.0
  0
MTEXT
  5
3CB1
330
3CAA
100
AcDbEntity
  8
Dim
  6
Continuous
 62
     0
100
AcDbMText
 10
3132.527893058671
 20
1681.858144307439
 30
0.0
 40
24.4326171875
 41
0.0
 46
0.0
 71
     5
 72
     1
  1
\A1;120
  7
ＭＳ ゴシック
 11
0.8756878327786043
 21
0.4828776444644245
 31
0.0
 73
     1
 44
1.0
  0
INSERT
  5
3CB2
330
3CAA
100
AcDbEntity
  8
Dim
 62
     0
370
    -2
100
AcDbBlockReference
  2
_DOT
 10
3086.336209929224
 20
1631.016693655012
 30
0.0
 41
9.999389648437498
 42
9.999389648437498
 43
9.999389648437498
 50
28.87351478417864
  0
INSERT
  5
3CB3
330
3CAA
100
AcDbEntity
  8
Dim
 62
     0
370
    -2
100
AcDbBlockReference
  2
_DOT
 10
3191.418749862658
 20
1688.962010990744
 30
0.0
 41
9.999389648437498
 42
9.999389648437498
 43
9.999389648437498
 50
208.8735147841786
  0
POINT
  5
3CB4
330
3CAA
100
AcDbEntity
  8
Defpoints
 62
     0
100
AcDbPoint
 10
3191.418749862658
 20
1688.962010990744
 30
0.0
  0
POINT
  5
3CF6
330
3CAA
100
AcDbEntity
  8
Defpoints
 62
     0
100
AcDbPoint
 10
3086.336209929224
 20
1631.016693655012
 30
0.0
  0
ENDBLK
  5
3CAC
330
3CAA
100
AcDbEntity
  8
0
100
AcDbBlockEnd
  0
BLOCK
  5
3CB6
330
3CB5
100
AcDbEntity
  8
0
100
AcDbBlockBegin
  2
*D46
 70
     1
 10
0.0
 20
0.0
 30
0.0
  3
*D46
  1

  0
LINE
  5
3CB8
330
3CB5
100
AcDbEntity
  8
Dim
 62
     0
 48
0.5
370
    -2
100
AcDbLine
 10
3138.877479895937
 20
1148.698575081132
 30
0.0
 11
3138.877479895937
 21
1289.130000832231
 31
0.0
  0
LINE
  5
3CB9
330
3CB5
100
AcDbEntity
  8
Dim
 62
     0
 48
0.5
370
    -2
100
AcDbLine
 10
3488.745184273732
 20
1269.900798080019
 30
0.0
 11
3488.745184273732
 21
1289.130000832231
 31
0.0
  0
LINE
  5
3CBA
330
3CB5
100
AcDbEntity
  8
Dim
 62
     0
 48
0.5
370
    -2
100
AcDbLine
 10
3148.876869544374
 20
1289.130000832231
 30
0.0
 11
3478.745794625294
 21
1289.130000832231
 31
0.0
  0
INSERT
  5
3CBB
330
3CB5
100
AcDbEntity
  8
Dim
 62
     0
370
    -2
100
AcDbBlockReference
  2
_DOT
 10
3138.877479895937
 20
1289.130000832231
 30
0.0
 41
9.999389648437498
 42
9.999389648437498
 43
9.999389648437498
 50
180.0
  0
INSERT
  5
3CBC
330
3CB5
100
AcDbEntity
  8
Dim
 62
     0
370
    -2
100
AcDbBlockReference
  2
_DOT
 10
3488.745184273732
 20
1289.130000832231
 30
0.0
 41
9.999389648437498
 42
9.999389648437498
 43
9.999389648437498
  0
MTEXT
  5
3CBD
330
3CB5
100
AcDbEntity
  8
Dim
  6
Continuous
 62
     0
100
AcDbMText
 10
3313.811332084834
 20
1311.346309425981
 30
0.0
 40
24.4326171875
 41
0.0
 46
0.0
 71
     5
 72
     1
  1
\A1;349.9
  7
ＭＳ ゴシック
 73
     1
 44
1.0
  0
POINT
  5
3CBE
330
3CB5
100
AcDbEntity
  8
Defpoints
 62
     0
100
AcDbPoint
 10
3138.877479895937
 20
1123.698575081132
 30
0.0
  0
POINT
  5
3CBF
330
3CB5
100
AcDbEntity
  8
Defpoints
 62
     0
100
AcDbPoint
 10
3488.745184273732
 20
1244.900798080019
 30
0.0
  0
POINT
  5
3CC0
330
3CB5
100
AcDbEntity
  8
Defpoints
 62
     0
100
AcDbPoint
 10
3488.745184273732
 20
1289.130000832231
 30
0.0
  0
ENDBLK
  5
3CB7
330
3CB5
100
AcDbEntity
  8
0
100
AcDbBlockEnd
  0
BLOCK
  5
3CC3
330
3CC2
100
AcDbEntity
  8
0
100
AcDbBlockBegin
  2
*D47
 70
     1
 10
0.0
 20
0.0
 30
0.0
  3
*D47
  1

  0
LINE
  5
3CC5
330
3CC2
100
AcDbEntity
  8
Dim
 62
     0
 48
0.5
370
    -2
100
AcDbLine
 10
2761.699331485311
 20
1244.900798080019
 30
0.0
 11
2712.0973430688
 21
1244.900798080019
 31
0.0
  0
LINE
  5
3CC6
330
3CC2
100
AcDbEntity
  8
Dim
 62
     0
 48
0.5
370
    -2
100
AcDbLine
 10
2761.699331485307
 20
1084.900798080019
 30
0.0
 11
2712.0973430688
 21
1084.900798080019
 31
0.0
  0
LINE
  5
3CC7
330
3CC2
100
AcDbEntity
  8
Dim
 62
     0
 48
0.5
370
    -2
100
AcDbLine
 10
2712.0973430688
 20
1234.901408431581
 30
0.0
 11
2712.0973430688
 21
1094.900187728456
 31
0.0
  0
INSERT
  5
3CC8
330
3CC2
100
AcDbEntity
  8
Dim
 62
     0
370
    -2
100
AcDbBlockReference
  2
_DOT
 10
2712.0973430688
 20
1244.900798080019
 30
0.0
 41
9.999389648437498
 42
9.999389648437498
 43
9.999389648437498
 50
90.0
  0
INSERT
  5
3CC9
330
3CC2
100
AcDbEntity
  8
Dim
 62
     0
370
    -2
100
AcDbBlockReference
  2
_DOT
 10
2712.0973430688
 20
1084.900798080019
 30
0.0
 41
9.999389648437498
 42
9.999389648437498
 43
9.999389648437498
 50
270.0
  0
MTEXT
  5
3CCA
330
3CC2
100
AcDbEntity
  8
Dim
  6
Continuous
 62
     0
100
AcDbMText
 10
2689.88103447505
 20
1164.900798080018
 30
0.0
 40
24.4326171875
 41
0.0
 46
0.0
 71
     5
 72
     1
  1
\A1;160
  7
ＭＳ ゴシック
 11
0.0
 21
1.0
 31
0.0
 73
     1
 44
1.0
  0
POINT
  5
3CCB
330
3CC2
100
AcDbEntity
  8
Defpoints
 62
     0
100
AcDbPoint
 10
2786.699331485311
 20
1244.900798080019
 30
0.0
  0
POINT
  5
3CCC
330
3CC2
100
AcDbEntity
  8
Defpoints
 62
     0
100
AcDbPoint
 10
2786.699331485307
 20
1084.900798080019
 30
0.0
  0
POINT
  5
3CCD
330
3CC2
100
AcDbEntity
  8
Defpoints
 62
     0
100
AcDbPoint
 10
2712.0973430688
 20
1084.900798080019
 30
0.0
  0
ENDBLK
  5
3CC4
330
3CC2
100
AcDbEntity
  8
0
100
AcDbBlockEnd
  0
BLOCK
  5
3CD0
330
3CCF
100
AcDbEntity
  8
0
100
AcDbBlockBegin
  2
*D48
 70
     1
 10
0.0
 20
0.0
 30
0.0
  3
*D48
  1

  0
LINE
  5
3CD2
330
3CCF
100
AcDbEntity
  8
Dim
 62
     0
 48
0.2
370
    -2
100
AcDbLine
 10
3846.212465016359
 20
1684.989352322877
 30
0.0
 11
3846.212465016359
 21
1916.405915682484
 31
0.0
  0
LINE
  5
3CD3
330
3CCF
100
AcDbEntity
  8
Dim
 62
     0
 48
0.2
370
    -2
100
AcDbLine
 10
4006.212465016359
 20
1684.974472925707
 30
0.0
 11
4006.212465016359
 21
1916.405915682484
 31
0.0
  0
LINE
  5
3CD4
330
3CCF
100
AcDbEntity
  8
Dim
 62
     0
 48
0.2
370
    -2
100
AcDbLine
 10
3856.211854664796
 20
1916.405915682484
 30
0.0
 11
3996.213075367921
 21
1916.405915682484
 31
0.0
  0
INSERT
  5
3CD5
330
3CCF
100
AcDbEntity
  8
Dim
 62
     0
370
    -2
100
AcDbBlockReference
  2
_DOT
 10
3846.212465016359
 20
1916.405915682484
 30
0.0
 41
9.999389648437498
 42
9.999389648437498
 43
9.999389648437498
 50
180.0
  0
INSERT
  5
3CD6
330
3CCF
100
AcDbEntity
  8
Dim
 62
     0
370
    -2
100
AcDbBlockReference
  2
_DOT
 10
4006.212465016359
 20
1916.405915682484
 30
0.0
 41
9.999389648437498
 42
9.999389648437498
 43
9.999389648437498
  0
MTEXT
  5
3CD7
330
3CCF
100
AcDbEntity
  8
Dim
  6
Continuous
 62
     0
100
AcDbMText
 10
3926.212465016359
 20
1938.622224276234
 30
0.0
 40
24.4326171875
 41
0.0
 46
0.0
 71
     5
 72
     1
  1
\A1;160
  7
ＭＳ ゴシック
 73
     1
 44
1.0
  0
POINT
  5
3CD8
330
3CCF
100
AcDbEntity
  8
Defpoints
 62
     0
100
AcDbPoint
 10
3846.212465016359
 20
1659.989352322877
 30
0.0
  0
POINT
  5
3CD9
330
3CCF
100
AcDbEntity
  8
Defpoints
 62
     0
100
AcDbPoint
 10
4006.212465016359
 20
1659.974472925707
 30
0.0
  0
POINT
  5
3CDA
330
3CCF
100
AcDbEntity
  8
Defpoints
 62
     0
100
AcDbPoint
 10
4006.212465016359
 20
1916.405915682484
 30
0.0
  0
ENDBLK
  5
3CD1
330
3CCF
100
AcDbEntity
  8
0
100
AcDbBlockEnd
  0
BLOCK
  5
3CDD
330
3CDC
100
AcDbEntity
  8
0
100
AcDbBlockBegin
  2
*D49
 70
     1
 10
0.0
 20
0.0
 30
0.0
  3
*D49
  1

  0
LINE
  5
3CDF
330
3CDC
100
AcDbEntity
  8
Dim
 62
     0
370
    -2
100
AcDbLine
 10
4030.788824977406
 20
1807.724342173557
 30
0.0
 11
4062.711330313465
 21
1807.724342173557
 31
0.0
  0
LINE
  5
3CE0
330
3CDC
100
AcDbEntity
  8
Dim
 62
     0
370
    -2
100
AcDbLine
 10
4030.78882497656
 20
1512.224603678696
 30
0.0
 11
4062.711330313465
 21
1512.224603678696
 31
0.0
  0
LINE
  5
3CE1
330
3CDC
100
AcDbEntity
  8
Dim
 62
     0
370
    -2
100
AcDbLine
 10
4062.711330313465
 20
1797.72495252512
 30
0.0
 11
4062.711330313465
 21
1522.223993327134
 31
0.0
  0
INSERT
  5
3CE2
330
3CDC
100
AcDbEntity
  8
Dim
 62
     0
370
    -2
100
AcDbBlockReference
  2
_DOT
 10
4062.711330313465
 20
1807.724342173557
 30
0.0
 41
9.999389648437498
 42
9.999389648437498
 43
9.999389648437498
 50
90.0
  0
INSERT
  5
3CE3
330
3CDC
100
AcDbEntity
  8
Dim
 62
     0
370
    -2
100
AcDbBlockReference
  2
_DOT
 10
4062.711330313465
 20
1512.224603678696
 30
0.0
 41
9.999389648437498
 42
9.999389648437498
 43
9.999389648437498
 50
270.0
  0
MTEXT
  5
3CE4
330
3CDC
100
AcDbEntity
  8
Dim
  6
Continuous
 62
     0
100
AcDbMText
 10
4040.495021719715
 20
1659.974472926127
 30
0.0
 40
24.4326171875
 41
0.0
 46
0.0
 71
     5
 72
     1
  1
\A1;295.5
  7
ＭＳ ゴシック
 11
0.0
 21
1.0
 31
0.0
 73
     1
 44
1.0
  0
POINT
  5
3CE5
330
3CDC
100
AcDbEntity
  8
Defpoints
 62
     0
100
AcDbPoint
 10
4005.788824977406
 20
1807.724342173557
 30
0.0
  0
POINT
  5
3CE6
330
3CDC
100
AcDbEntity
  8
Defpoints
 62
     0
100
AcDbPoint
 10
4005.78882497656
 20
1512.224603678696
 30
0.0
  0
POINT
  5
3CE7
330
3CDC
100
AcDbEntity
  8
Defpoints
 62
     0
100
AcDbPoint
 10
4062.711330313465
 20
1512.224603678696
 30
0.0
  0
ENDBLK
  5
3CDE
330
3CDC
100
AcDbEntity
  8
0
100
AcDbBlockEnd
  0
BLOCK
  5
3CEA
330
3CE9
100
AcDbEntity
  8
0
100
AcDbBlockBegin
  2
*D50
 70
     1
 10
0.0
 20
0.0
 30
0.0
  3
*D50
  1

  0
LINE
  5
3CEC
330
3CE9
100
AcDbEntity
  8
Dim
 62
     0
370
    -2
100
AcDbLine
 10
3957.248038880627
 20
1634.974472925707
 30
0.0
 11
3957.248038880627
 21
1411.446879310475
 31
0.0
  0
LINE
  5
3CED
330
3CE9
100
AcDbEntity
  8
Dim
 62
     0
370
    -2
100
AcDbLine
 10
3846.212465016359
 20
1634.989352322877
 30
0.0
 11
3846.212465016359
 21
1411.446879310475
 31
0.0
  0
LINE
  5
3CEE
330
3CE9
100
AcDbEntity
  8
Dim
 62
     0
370
    -2
100
AcDbLine
 10
3947.24864923219
 20
1411.446879310475
 30
0.0
 11
3856.211854664796
 21
1411.446879310475
 31
0.0
  0
INSERT
  5
3CEF
330
3CE9
100
AcDbEntity
  8
Dim
 62
     0
370
    -2
100
AcDbBlockReference
  2
_DOT
 10
3957.248038880627
 20
1411.446879310475
 30
0.0
 41
9.999389648437498
 42
9.999389648437498
 43
9.999389648437498
  0
INSERT
  5
3CF0
330
3CE9
100
AcDbEntity
  8
Dim
 62
     0
370
    -2
100
AcDbBlockReference
  2
_DOT
 10
3846.212465016359
 20
1411.446879310475
 30
0.0
 41
9.999389648437498
 42
9.999389648437498
 43
9.999389648437498
 50
180.0
  0
MTEXT
  5
3CF1
330
3CE9
100
AcDbEntity
  8
Dim
  6
Continuous
 62
     0
100
AcDbMText
 10
3901.730251948493
 20
1433.663187904225
 30
0.0
 40
24.4326171875
 41
0.0
 46
0.0
 71
     5
 72
     1
  1
\A1;110
  7
ＭＳ ゴシック
 73
     1
 44
1.0
  0
POINT
  5
3CF2
330
3CE9
100
AcDbEntity
  8
Defpoints
 62
     0
100
AcDbPoint
 10
3957.248038880627
 20
1659.974472925707
 30
0.0
  0
POINT
  5
3CF3
330
3CE9
100
AcDbEntity
  8
Defpoints
 62
     0
100
AcDbPoint
 10
3846.212465016359
 20
1659.989352322877
 30
0.0
  0
POINT
  5
3CF4
330
3CE9
100
AcDbEntity
  8
Defpoints
 62
     0
100
AcDbPoint
 10
3846.212465016359
 20
1411.446879310475
 30
0.0
  0
ENDBLK
  5
3CEB
330
3CE9
100
AcDbEntity
  8
0
100
AcDbBlockEnd
  0
BLOCK
  5
3E50
330
3E4F
100
AcDbEntity
  8
0
 48
0.5
100
AcDbBlockBegin
  2
*D51
 70
     1
 10
0.0
 20
0.0
 30
0.0
  3
*D51
  1

  0
LINE
  5
3E51
330
3E4F
100
AcDbEntity
  8
Quote
 62
     0
370
    -2
100
AcDbLine
 10
52.69704178986285
 20
711.4175624876934
 30
0.0
 11
52.69704178986285
 21
469.0771530107739
 31
0.0
  0
LINE
  5
3E52
330
3E4F
100
AcDbEntity
  8
Quote
 62
     0
370
    -2
100
AcDbLine
 10
652.432027115945
 20
711.4175624876934
 30
0.0
 11
652.432027115945
 21
469.0771530107739
 31
0.0
  0
LINE
  5
3E53
330
3E4F
100
AcDbEntity
  8
Quote
 62
     0
370
    -2
100
AcDbLine
 10
52.87704178986285
 20
469.2571530107739
 30
0.0
 11
351.8595344529039
 21
469.2571530107739
 31
0.0
  0
LINE
  5
3E54
330
3E4F
100
AcDbEntity
  8
Quote
 62
     0
370
    -2
100
AcDbLine
 10
652.252027115945
 20
469.2571530107739
 30
0.0
 11
353.2695344529039
 21
469.2571530107739
 31
0.0
  0
SOLID
  5
3E55
330
3E4F
100
AcDbEntity
  8
Quote
 62
     0
100
AcDbTrace
 10
52.87704178986285
 20
469.2871530107739
 30
0.0
 11
52.87704178986285
 21
469.2271530107739
 31
0.0
 12
52.69704178986285
 22
469.2571530107739
 32
0.0
 13
52.69704178986285
 23
469.2571530107739
 33
0.0
  0
SOLID
  5
3E56
330
3E4F
100
AcDbEntity
  8
Quote
 62
     0
100
AcDbTrace
 10
652.252027115945
 20
469.2271530107739
 30
0.0
 11
652.252027115945
 21
469.2871530107739
 31
0.0
 12
652.432027115945
 22
469.2571530107739
 32
0.0
 13
652.432027115945
 23
469.2571530107739
 33
0.0
  0
MTEXT
  5
3E57
330
3E4F
100
AcDbEntity
  8
Quote
  6
Continuous
 62
     0
100
AcDbMText
 10
352.5645344529039
 20
469.2571530107739
 30
0.0
 40
0.18
 41
0.0
 46
0.0
 71
     5
 72
     1
  1
\A1;599.7350
 73
     1
 44
1.0
  0
POINT
  5
3EA7
330
3E4F
100
AcDbEntity
  8
Defpoints
 62
     0
100
AcDbPoint
 10
52.69704178986285
 20
711.4800624876934
 30
0.0
  0
POINT
  5
3EA8
330
3E4F
100
AcDbEntity
  8
Defpoints
 62
     0
100
AcDbPoint
 10
652.432027115945
 20
711.4800624876934
 30
0.0
  0
POINT
  5
3EA9
330
3E4F
100
AcDbEntity
  8
Defpoints
 62
     0
100
AcDbPoint
 10
652.432027115945
 20
469.2571530107739
 30
0.0
  0
ENDBLK
  5
3E58
330
3E4F
100
AcDbEntity
  8
0
 48
0.5
100
AcDbBlockEnd
  0
BLOCK
  5
3E5B
330
3E5A
100
AcDbEntity
  8
0
 48
0.5
100
AcDbBlockBegin
  2
*D52
 70
     1
 10
0.0
 20
0.0
 30
0.0
  3
*D52
  1

  0
LINE
  5
3E5C
330
3E5A
100
AcDbEntity
  8
Quote
 62
     0
370
    -2
100
AcDbLine
 10
352.6270344529039
 20
921.3838153718734
 30
0.0
 11
726.6460751234205
 21
921.3838153718734
 31
0.0
  0
LINE
  5
3E5D
330
3E5A
100
AcDbEntity
  8
Quote
 62
     0
370
    -2
100
AcDbLine
 10
352.6254217375372
 20
501.5807184996719
 30
0.0
 11
726.6460751234205
 21
501.5807184996719
 31
0.0
  0
LINE
  5
3E5E
330
3E5A
100
AcDbEntity
  8
Quote
 62
     0
370
    -2
100
AcDbLine
 10
726.4660751234205
 20
921.2038153718735
 30
0.0
 11
726.4660751234205
 21
711.6622669357728
 31
0.0
  0
LINE
  5
3E5F
330
3E5A
100
AcDbEntity
  8
Quote
 62
     0
370
    -2
100
AcDbLine
 10
726.4660751234205
 20
501.7607184996719
 30
0.0
 11
726.4660751234205
 21
711.3022669357726
 31
0.0
  0
SOLID
  5
3E60
330
3E5A
100
AcDbEntity
  8
Quote
 62
     0
100
AcDbTrace
 10
726.4960751234205
 20
921.2038153718735
 30
0.0
 11
726.4360751234206
 21
921.2038153718735
 31
0.0
 12
726.4660751234205
 22
921.3838153718734
 32
0.0
 13
726.4660751234205
 23
921.3838153718734
 33
0.0
  0
SOLID
  5
3E61
330
3E5A
100
AcDbEntity
  8
Quote
 62
     0
100
AcDbTrace
 10
726.4360751234206
 20
501.7607184996719
 30
0.0
 11
726.4960751234205
 21
501.7607184996719
 31
0.0
 12
726.4660751234205
 22
501.5807184996719
 32
0.0
 13
726.4660751234205
 23
501.5807184996719
 33
0.0
  0
MTEXT
  5
3E62
330
3E5A
100
AcDbEntity
  8
Quote
  6
Continuous
 62
     0
100
AcDbMText
 10
726.4660751234205
 20
711.4822669357727
 30
0.0
 40
0.18
 41
0.0
 46
0.0
 71
     5
 72
     1
  1
\A1;419.8031
 73
     1
 44
1.0
  0
POINT
  5
3EAA
330
3E5A
100
AcDbEntity
  8
Defpoints
 62
     0
100
AcDbPoint
 10
352.5645344529039
 20
921.3838153718734
 30
0.0
  0
POINT
  5
3EAB
330
3E5A
100
AcDbEntity
  8
Defpoints
 62
     0
100
AcDbPoint
 10
352.5629217375372
 20
501.5807184996719
 30
0.0
  0
POINT
  5
3EAC
330
3E5A
100
AcDbEntity
  8
Defpoints
 62
     0
100
AcDbPoint
 10
726.4660751234205
 20
501.5807184996719
 30
0.0
  0
ENDBLK
  5
3E63
330
3E5A
100
AcDbEntity
  8
0
 48
0.5
100
AcDbBlockEnd
  0
BLOCK
  5
3E67
330
3E66
100
AcDbEntity
  8
0
 48
0.5
100
AcDbBlockBegin
  2
*D53
 70
     1
 10
0.0
 20
0.0
 30
0.0
  3
*D53
  1

  0
LINE
  5
3E68
330
3E66
100
AcDbEntity
  8
Quote
 62
     0
370
    -2
100
AcDbLine
 10
405.6010520394219
 20
740.6287620134726
 30
0.0
 11
405.4210520394219
 21
740.6287620134726
 31
0.0
  0
LINE
  5
3E69
330
3E66
100
AcDbEntity
  8
Quote
 62
     0
370
    -2
100
AcDbLine
 10
405.2634282295217
 20
740.541844037469
 30
0.0
 11
405.4210520394219
 21
740.6287620134726
 31
0.0
  0
MTEXT
  5
3E6A
330
3E66
100
AcDbEntity
  8
Quote
  6
Continuous
 62
     0
100
AcDbMText
 10
406.3060520394218
 20
740.6287620134725
 30
0.0
 40
0.18
 41
0.0
 46
0.0
 71
     5
 72
     1
  1
\A1;%%c120.0000
 73
     1
 44
1.0
  0
SOLID
  5
3E6B
330
3E66
100
AcDbEntity
  8
Quote
 62
     0
100
AcDbTrace
 10
405.2489419001878
 20
740.5681146724523
 30
0.0
 11
405.2779145588556
 21
740.5155734024856
 31
0.0
 12
405.1058044196216
 22
740.4549260614654
 32
0.0
 13
405.1058044196216
 23
740.4549260614654
 33
0.0
  0
LINE
  5
3E6C
330
3E66
100
AcDbEntity
  8
Quote
 62
     0
100
AcDbLine
 10
352.5195344529048
 20
711.4822673935996
 30
0.0
 11
352.6095344529048
 21
711.4822673935996
 31
0.0
  0
LINE
  5
3EAD
330
3E66
100
AcDbEntity
  8
Quote
 62
     0
100
AcDbLine
 10
352.5645344529048
 20
711.4372673935997
 30
0.0
 11
352.5645344529048
 21
711.5272673935996
 31
0.0
  0
POINT
  5
3EAE
330
3E66
100
AcDbEntity
  8
Defpoints
 62
     0
100
AcDbPoint
 10
405.1058044196216
 20
740.4549260614654
 30
0.0
  0
POINT
  5
3EAF
330
3E66
100
AcDbEntity
  8
Defpoints
 62
     0
100
AcDbPoint
 10
300.0232644861881
 20
682.5096087257339
 30
0.0
  0
ENDBLK
  5
3E6D
330
3E66
100
AcDbEntity
  8
0
 48
0.5
100
AcDbBlockEnd
  0
BLOCK
  5
3E70
330
3E6F
100
AcDbEntity
  8
0
 48
0.5
100
AcDbBlockBegin
  2
*D54
 70
     1
 10
0.0
 20
0.0
 30
0.0
  3
*D54
  1

  0
LINE
  5
3E71
330
3E6F
100
AcDbEntity
  8
Quote
 62
     0
 48
0.2
370
    -2
100
AcDbLine
 10
984.6447300652417
 20
711.5447673935996
 30
0.0
 11
984.6447300652417
 21
968.0788307532063
 31
0.0
  0
LINE
  5
3E72
330
3E6F
100
AcDbEntity
  8
Quote
 62
     0
 48
0.2
370
    -2
100
AcDbLine
 10
1144.644730065242
 20
711.5298879964294
 30
0.0
 11
1144.644730065242
 21
968.0788307532063
 31
0.0
  0
LINE
  5
3E73
330
3E6F
100
AcDbEntity
  8
Quote
 62
     0
 48
0.2
370
    -2
100
AcDbLine
 10
984.8247300652416
 20
967.8988307532063
 30
0.0
 11
1064.029730065242
 21
967.8988307532063
 31
0.0
  0
LINE
  5
3E74
330
3E6F
100
AcDbEntity
  8
Quote
 62
     0
 48
0.2
370
    -2
100
AcDbLine
 10
1144.464730065242
 20
967.8988307532063
 30
0.0
 11
1065.259730065242
 21
967.8988307532063
 31
0.0
  0
SOLID
  5
3E75
330
3E6F
100
AcDbEntity
  8
Quote
 62
     0
100
AcDbTrace
 10
984.8247300652416
 20
967.9288307532063
 30
0.0
 11
984.8247300652416
 21
967.8688307532063
 31
0.0
 12
984.6447300652417
 22
967.8988307532063
 32
0.0
 13
984.6447300652417
 23
967.8988307532063
 33
0.0
  0
SOLID
  5
3E76
330
3E6F
100
AcDbEntity
  8
Quote
 62
     0
100
AcDbTrace
 10
1144.464730065242
 20
967.8688307532063
 30
0.0
 11
1144.464730065242
 21
967.9288307532063
 31
0.0
 12
1144.644730065242
 22
967.8988307532063
 32
0.0
 13
1144.644730065242
 23
967.8988307532063
 33
0.0
  0
MTEXT
  5
3E77
330
3E6F
100
AcDbEntity
  8
Quote
  6
Continuous
 62
     0
100
AcDbMText
 10
1064.644730065242
 20
967.8988307532063
 30
0.0
 40
0.18
 41
0.0
 46
0.0
 71
     5
 72
     1
  1
\A1;160.0000
 73
     1
 44
1.0
  0
POINT
  5
3EB0
330
3E6F
100
AcDbEntity
  8
Defpoints
 62
     0
100
AcDbPoint
 10
984.6447300652417
 20
711.4822673935996
 30
0.0
  0
POINT
  5
3EB1
330
3E6F
100
AcDbEntity
  8
Defpoints
 62
     0
100
AcDbPoint
 10
1144.644730065242
 20
711.4673879964294
 30
0.0
  0
POINT
  5
3EB2
330
3E6F
100
AcDbEntity
  8
Defpoints
 62
     0
100
AcDbPoint
 10
1144.644730065242
 20
967.8988307532063
 30
0.0
  0
ENDBLK
  5
3E78
330
3E6F
100
AcDbEntity
  8
0
 48
0.5
100
AcDbBlockEnd
  0
BLOCK
  5
3E7B
330
3E7A
100
AcDbEntity
  8
0
 48
0.5
100
AcDbBlockBegin
  2
*D55
 70
     1
 10
0.0
 20
0.0
 30
0.0
  3
*D55
  1

  0
LINE
  5
3E7C
330
3E7A
100
AcDbEntity
  8
Quote
 62
     0
370
    -2
100
AcDbLine
 10
1144.283590026289
 20
859.2172572442795
 30
0.0
 11
1201.323595362348
 21
859.2172572442795
 31
0.0
  0
LINE
  5
3E7D
330
3E7A
100
AcDbEntity
  8
Quote
 62
     0
370
    -2
100
AcDbLine
 10
1144.283590025443
 20
563.7175187494183
 30
0.0
 11
1201.323595362348
 21
563.7175187494183
 31
0.0
  0
LINE
  5
3E7E
330
3E7A
100
AcDbEntity
  8
Quote
 62
     0
370
    -2
100
AcDbLine
 10
1201.143595362348
 20
859.0372572442795
 30
0.0
 11
1201.143595362348
 21
711.6473879968489
 31
0.0
  0
LINE
  5
3E7F
330
3E7A
100
AcDbEntity
  8
Quote
 62
     0
370
    -2
100
AcDbLine
 10
1201.143595362348
 20
563.8975187494183
 30
0.0
 11
1201.143595362348
 21
711.2873879968488
 31
0.0
  0
SOLID
  5
3E80
330
3E7A
100
AcDbEntity
  8
Quote
 62
     0
100
AcDbTrace
 10
1201.173595362348
 20
859.0372572442795
 30
0.0
 11
1201.113595362348
 21
859.0372572442795
 31
0.0
 12
1201.143595362348
 22
859.2172572442795
 32
0.0
 13
1201.143595362348
 23
859.2172572442795
 33
0.0
  0
SOLID
  5
3E81
330
3E7A
100
AcDbEntity
  8
Quote
 62
     0
100
AcDbTrace
 10
1201.113595362348
 20
563.8975187494183
 30
0.0
 11
1201.173595362348
 21
563.8975187494183
 31
0.0
 12
1201.143595362348
 22
563.7175187494183
 32
0.0
 13
1201.143595362348
 23
563.7175187494183
 33
0.0
  0
MTEXT
  5
3E82
330
3E7A
100
AcDbEntity
  8
Quote
  6
Continuous
 62
     0
100
AcDbMText
 10
1201.143595362348
 20
711.4673879968489
 30
0.0
 40
0.18
 41
0.0
 46
0.0
 71
     5
 72
     1
  1
\A1;295.4997
 73
     1
 44
1.0
  0
POINT
  5
3EB3
330
3E7A
100
AcDbEntity
  8
Defpoints
 62
     0
100
AcDbPoint
 10
1144.221090026289
 20
859.2172572442795
 30
0.0
  0
POINT
  5
3EB4
330
3E7A
100
AcDbEntity
  8
Defpoints
 62
     0
100
AcDbPoint
 10
1144.221090025443
 20
563.7175187494183
 30
0.0
  0
POINT
  5
3EB5
330
3E7A
100
AcDbEntity
  8
Defpoints
 62
     0
100
AcDbPoint
 10
1201.143595362348
 20
563.7175187494183
 30
0.0
  0
ENDBLK
  5
3E83
330
3E7A
100
AcDbEntity
  8
0
 48
0.5
100
AcDbBlockEnd
  0
BLOCK
  5
3E86
330
3E85
100
AcDbEntity
  8
0
 48
0.5
100
AcDbBlockBegin
  2
*D56
 70
     1
 10
0.0
 20
0.0
 30
0.0
  3
*D56
  1

  0
LINE
  5
3E87
330
3E85
100
AcDbEntity
  8
Quote
 62
     0
370
    -2
100
AcDbLine
 10
1095.68030392951
 20
711.4048879964295
 30
0.0
 11
1095.68030392951
 21
462.7597943811969
 31
0.0
  0
LINE
  5
3E88
330
3E85
100
AcDbEntity
  8
Quote
 62
     0
370
    -2
100
AcDbLine
 10
984.6447300652417
 20
711.4197673935996
 30
0.0
 11
984.6447300652417
 21
462.7597943811969
 31
0.0
  0
LINE
  5
3E89
330
3E85
100
AcDbEntity
  8
Quote
 62
     0
370
    -2
100
AcDbLine
 10
1095.50030392951
 20
462.9397943811969
 30
0.0
 11
1040.417516997376
 21
462.9397943811969
 31
0.0
  0
LINE
  5
3E8A
330
3E85
100
AcDbEntity
  8
Quote
 62
     0
370
    -2
100
AcDbLine
 10
984.8247300652416
 20
462.9397943811969
 30
0.0
 11
1039.907516997376
 21
462.9397943811969
 31
0.0
  0
SOLID
  5
3E8B
330
3E85
100
AcDbEntity
  8
Quote
 62
     0
100
AcDbTrace
 10
1095.50030392951
 20
462.9097943811969
 30
0.0
 11
1095.50030392951
 21
462.9697943811968
 31
0.0
 12
1095.68030392951
 22
462.9397943811969
 32
0.0
 13
1095.68030392951
 23
462.9397943811969
 33
0.0
  0
SOLID
  5
3E8C
330
3E85
100
AcDbEntity
  8
Quote
 62
     0
100
AcDbTrace
 10
984.8247300652416
 20
462.9697943811968
 30
0.0
 11
984.8247300652416
 21
462.9097943811969
 31
0.0
 12
984.6447300652417
 22
462.9397943811969
 32
0.0
 13
984.6447300652417
 23
462.9397943811969
 33
0.0
  0
MTEXT
  5
3E8D
330
3E85
100
AcDbEntity
  8
Quote
  6
Continuous
 62
     0
100
AcDbMText
 10
1040.162516997376
 20
462.9397943811969
 30
0.0
 40
0.18
 41
0.0
 46
0.0
 71
     5
 72
     1
  1
\A1;110
 73
     1
 44
1.0
  0
POINT
  5
3EB6
330
3E85
100
AcDbEntity
  8
Defpoints
 62
     0
100
AcDbPoint
 10
1095.68030392951
 20
711.4673879964295
 30
0.0
  0
POINT
  5
3EB7
330
3E85
100
AcDbEntity
  8
Defpoints
 62
     0
100
AcDbPoint
 10
984.6447300652417
 20
711.4822673935996
 30
0.0
  0
POINT
  5
3EB8
330
3E85
100
AcDbEntity
  8
Defpoints
 62
     0
100
AcDbPoint
 10
984.6447300652417
 20
462.9397943811969
 30
0.0
  0
ENDBLK
  5
3E8E
330
3E85
100
AcDbEntity
  8
0
 48
0.5
100
AcDbBlockEnd
  0
BLOCK
  5
3E91
330
3E90
100
AcDbEntity
  8
0
 48
0.5
100
AcDbBlockBegin
  2
*D57
 70
     1
 10
0.0
 20
0.0
 30
0.0
  3
*D57
  1

  0
LINE
  5
3E92
330
3E90
100
AcDbEntity
  8
Quote
 62
     0
 48
0.5
370
    -2
100
AcDbLine
 10
352.5645344528984
 20
158.0229507379975
 30
0.0
 11
352.5645344528984
 21
323.5718764890962
 31
0.0
  0
LINE
  5
3E93
330
3E90
100
AcDbEntity
  8
Quote
 62
     0
 48
0.5
370
    -2
100
AcDbLine
 10
652.4322555587678
 20
279.2251737368845
 30
0.0
 11
652.4322555587678
 21
323.5718764890962
 31
0.0
  0
LINE
  5
3E94
330
3E90
100
AcDbEntity
  8
Quote
 62
     0
 48
0.5
370
    -2
100
AcDbLine
 10
352.7445344528984
 20
323.3918764890961
 30
0.0
 11
501.7783950058331
 21
323.3918764890961
 31
0.0
  0
LINE
  5
3E95
330
3E90
100
AcDbEntity
  8
Quote
 62
     0
 48
0.5
370
    -2
100
AcDbLine
 10
652.2522555587678
 20
323.3918764890961
 30
0.0
 11
503.2183950058331
 21
323.3918764890961
 31
0.0
  0
SOLID
  5
3E96
330
3E90
100
AcDbEntity
  8
Quote
 62
     0
100
AcDbTrace
 10
352.7445344528984
 20
323.4218764890961
 30
0.0
 11
352.7445344528984
 21
323.3618764890962
 31
0.0
 12
352.5645344528984
 22
323.3918764890961
 32
0.0
 13
352.5645344528984
 23
323.3918764890961
 33
0.0
  0
SOLID
  5
3E97
330
3E90
100
AcDbEntity
  8
Quote
 62
     0
100
AcDbTrace
 10
652.2522555587678
 20
323.3618764890962
 30
0.0
 11
652.2522555587678
 21
323.4218764890961
 31
0.0
 12
652.4322555587678
 22
323.3918764890961
 32
0.0
 13
652.4322555587678
 23
323.3918764890961
 33
0.0
  0
MTEXT
  5
3E98
330
3E90
100
AcDbEntity
  8
Quote
  6
Continuous
 62
     0
100
AcDbMText
 10
502.4983950058331
 20
323.3918764890961
 30
0.0
 40
0.18
 41
0.0
 46
0.0
 71
     5
 72
     1
  1
\A1;299.8677
 73
     1
 44
1.0
  0
POINT
  5
3EB9
330
3E90
100
AcDbEntity
  8
Defpoints
 62
     0
100
AcDbPoint
 10
352.5645344528984
 20
157.9604507379975
 30
0.0
  0
POINT
  5
3EBA
330
3E90
100
AcDbEntity
  8
Defpoints
 62
     0
100
AcDbPoint
 10
652.4322555587678
 20
279.1626737368845
 30
0.0
  0
POINT
  5
3EBB
330
3E90
100
AcDbEntity
  8
Defpoints
 62
     0
100
AcDbPoint
 10
652.4322555587678
 20
323.3918764890961
 30
0.0
  0
ENDBLK
  5
3E99
330
3E90
100
AcDbEntity
  8
0
 48
0.5
100
AcDbBlockEnd
  0
BLOCK
  5
3E9C
330
3E9B
100
AcDbEntity
  8
0
 48
0.5
100
AcDbBlockBegin
  2
*D58
 70
     1
 10
0.0
 20
0.0
 30
0.0
  3
*D58
  1

  0
LINE
  5
3E9D
330
3E9B
100
AcDbEntity
  8
Quote
 62
     0
 48
0.5
370
    -2
100
AcDbLine
 10
268.0734244933137
 20
279.1626737368845
 30
0.0
 11
15.74225319006321
 21
279.1626737368845
 31
0.0
  0
LINE
  5
3E9E
330
3E9B
100
AcDbEntity
  8
Quote
 62
     0
 48
0.5
370
    -2
100
AcDbLine
 10
268.0734244933101
 20
119.1626737368845
 30
0.0
 11
15.7422531900632
 21
119.1626737368845
 31
0.0
  0
LINE
  5
3E9F
330
3E9B
100
AcDbEntity
  8
Quote
 62
     0
 48
0.5
370
    -2
100
AcDbLine
 10
15.92225319006321
 20
278.9826737368845
 30
0.0
 11
15.92225319006321
 21
199.3426737368845
 31
0.0
  0
LINE
  5
3EA0
330
3E9B
100
AcDbEntity
  8
Quote
 62
     0
 48
0.5
370
    -2
100
AcDbLine
 10
15.9222531900632
 20
119.3426737368845
 30
0.0
 11
15.92225319006321
 21
198.9826737368845
 31
0.0
  0
SOLID
  5
3EA1
330
3E9B
100
AcDbEntity
  8
Quote
 62
     0
100
AcDbTrace
 10
15.95225319006321
 20
278.9826737368845
 30
0.0
 11
15.89225319006321
 21
278.9826737368845
 31
0.0
 12
15.92225319006321
 22
279.1626737368845
 32
0.0
 13
15.92225319006321
 23
279.1626737368845
 33
0.0
  0
SOLID
  5
3EA2
330
3E9B
100
AcDbEntity
  8
Quote
 62
     0
100
AcDbTrace
 10
15.8922531900632
 20
119.3426737368845
 30
0.0
 11
15.9522531900632
 21
119.3426737368845
 31
0.0
 12
15.9222531900632
 22
119.1626737368845
 32
0.0
 13
15.9222531900632
 23
119.1626737368845
 33
0.0
  0
MTEXT
  5
3EA3
330
3E9B
100
AcDbEntity
  8
Quote
  6
Continuous
 62
     0
100
AcDbMText
 10
15.92225319006321
 20
199.1626737368845
 30
0.0
 40
0.18
 41
0.0
 46
0.0
 71
     5
 72
     1
  1
\A1;160.0000
 73
     1
 44
1.0
  0
POINT
  5
3EBC
330
3E9B
100
AcDbEntity
  8
Defpoints
 62
     0
100
AcDbPoint
 10
268.1359244933137
 20
279.1626737368845
 30
0.0
  0
POINT
  5
3EBD
330
3E9B
100
AcDbEntity
  8
Defpoints
 62
     0
100
AcDbPoint
 10
268.1359244933101
 20
119.1626737368845
 30
0.0
  0
POINT
  5
3EBE
330
3E9B
100
AcDbEntity
  8
Defpoints
 62
     0
100
AcDbPoint
 10
15.9222531900632
 20
119.1626737368845
 30
0.0
  0
ENDBLK
  5
3EA4
330
3E9B
100
AcDbEntity
  8
0
 48
0.5
100
AcDbBlockEnd
  0
BLOCK
  5
3FE8
330
3FE7
100
AcDbEntity
  8
0
100
AcDbBlockBegin
  2
*D59
 70
     1
 10
0.0
 20
0.0
 30
0.0
  3
*D59
  1

  0
LINE
  5
3FEA
330
3FE7
100
AcDbEntity
  8
Dim
 62
     0
370
    -2
100
AcDbLine
 10
2871.343728858663
 20
1687.192862308494
 30
0.0
 11
2871.343728858663
 21
1469.969952831574
 31
0.0
  0
LINE
  5
3FEB
330
3FE7
100
AcDbEntity
  8
Dim
 62
     0
370
    -2
100
AcDbLine
 10
3471.078714184745
 20
1687.192862308494
 30
0.0
 11
3471.078714184745
 21
1469.969952831574
 31
0.0
  0
LINE
  5
3FEC
330
3FE7
100
AcDbEntity
  8
Dim
 62
     0
370
    -2
100
AcDbLine
 10
2881.3431185071
 20
1469.969952831574
 30
0.0
 11
3461.079324536307
 21
1469.969952831574
 31
0.0
  0
INSERT
  5
3FED
330
3FE7
100
AcDbEntity
  8
Dim
 62
     0
370
    -2
100
AcDbBlockReference
  2
_DOT
 10
2871.343728858663
 20
1469.969952831574
 30
0.0
 41
9.999389648437498
 42
9.999389648437498
 43
9.999389648437498
 50
180.0
  0
INSERT
  5
3FEE
330
3FE7
100
AcDbEntity
  8
Dim
 62
     0
370
    -2
100
AcDbBlockReference
  2
_DOT
 10
3471.078714184745
 20
1469.969952831574
 30
0.0
 41
9.999389648437498
 42
9.999389648437498
 43
9.999389648437498
  0
MTEXT
  5
3FEF
330
3FE7
100
AcDbEntity
  8
Dim
  6
Continuous
 62
     0
100
AcDbMText
 10
3171.211221521704
 20
1492.186261425324
 30
0.0
 40
24.4326171875
 41
0.0
 46
0.0
 71
     5
 72
     1
  1
\A1;599.7
  7
ＭＳ ゴシック
 73
     1
 44
1.0
  0
POINT
  5
3FF0
330
3FE7
100
AcDbEntity
  8
Defpoints
 62
     0
100
AcDbPoint
 10
2871.343728858663
 20
1712.192862308494
 30
0.0
  0
POINT
  5
3FF1
330
3FE7
100
AcDbEntity
  8
Defpoints
 62
     0
100
AcDbPoint
 10
3471.078714184745
 20
1712.192862308494
 30
0.0
  0
POINT
  5
3FF2
330
3FE7
100
AcDbEntity
  8
Defpoints
 62
     0
100
AcDbPoint
 10
3471.078714184745
 20
1469.969952831574
 30
0.0
  0
ENDBLK
  5
3FE9
330
3FE7
100
AcDbEntity
  8
0
100
AcDbBlockEnd
  0
BLOCK
  5
3FF5
330
3FF4
100
AcDbEntity
  8
0
100
AcDbBlockBegin
  2
*D60
 70
     1
 10
0.0
 20
0.0
 30
0.0
  3
*D60
  1

  0
LINE
  5
3FF7
330
3FF4
100
AcDbEntity
  8
Dim
 62
     0
370
    -2
100
AcDbLine
 10
3196.211221521704
 20
1922.096615192674
 30
0.0
 11
3545.112762192221
 21
1922.096615192674
 31
0.0
  0
LINE
  5
3FF8
330
3FF4
100
AcDbEntity
  8
Dim
 62
     0
370
    -2
100
AcDbLine
 10
3196.209608806337
 20
1502.293518320472
 30
0.0
 11
3545.112762192221
 21
1502.293518320472
 31
0.0
  0
LINE
  5
3FF9
330
3FF4
100
AcDbEntity
  8
Dim
 62
     0
370
    -2
100
AcDbLine
 10
3545.112762192221
 20
1912.097225544236
 30
0.0
 11
3545.112762192221
 21
1512.29290796891
 31
0.0
  0
INSERT
  5
3FFA
330
3FF4
100
AcDbEntity
  8
Dim
 62
     0
370
    -2
100
AcDbBlockReference
  2
_DOT
 10
3545.112762192221
 20
1922.096615192674
 30
0.0
 41
9.999389648437498
 42
9.999389648437498
 43
9.999389648437498
 50
90.0
  0
INSERT
  5
3FFB
330
3FF4
100
AcDbEntity
  8
Dim
 62
     0
370
    -2
100
AcDbBlockReference
  2
_DOT
 10
3545.112762192221
 20
1502.293518320472
 30
0.0
 41
9.999389648437498
 42
9.999389648437498
 43
9.999389648437498
 50
270.0
  0
MTEXT
  5
3FFC
330
3FF4
100
AcDbEntity
  8
Dim
  6
Continuous
 62
     0
100
AcDbMText
 10
3522.896453598471
 20
1712.195066756573
 30
0.0
 40
24.4326171875
 41
0.0
 46
0.0
 71
     5
 72
     1
  1
\A1;419.8
  7
ＭＳ ゴシック
 11
0.0
 21
1.0
 31
0.0
 73
     1
 44
1.0
  0
POINT
  5
3FFD
330
3FF4
100
AcDbEntity
  8
Defpoints
 62
     0
100
AcDbPoint
 10
3171.211221521704
 20
1922.096615192674
 30
0.0
  0
POINT
  5
3FFE
330
3FF4
100
AcDbEntity
  8
Defpoints
 62
     0
100
AcDbPoint
 10
3171.209608806337
 20
1502.293518320472
 30
0.0
  0
POINT
  5
3FFF
330
3FF4
100
AcDbEntity
  8
Defpoints
 62
     0
100
AcDbPoint
 10
3545.112762192221
 20
1502.293518320472
 30
0.0
  0
ENDBLK
  5
3FF6
330
3FF4
100
AcDbEntity
  8
0
100
AcDbBlockEnd
  0
BLOCK
  5
4002
330
4001
100
AcDbEntity
  8
0
100
AcDbBlockBegin
  2
*D61
 70
     1
 10
0.0
 20
0.0
 30
0.0
  3
*D61
  1

  0
LINE
  5
4004
330
4001
100
AcDbEntity
  8
Dim
 62
     0
370
    -2
100
AcDbLine
 10
3232.50883533877
 20
1745.996207601785
 30
0.0
 11
3241.265179189119
 21
1750.824689321305
 31
0.0
  0
LINE
  5
4005
330
4001
100
AcDbEntity
  8
Dim
 62
     0
370
    -2
100
AcDbLine
 10
3109.913607704639
 20
1678.393926827015
 30
0.0
 11
3101.15726385429
 21
1673.565445107495
 31
0.0
  0
LINE
  5
4006
330
4001
100
AcDbEntity
  8
Dim
 62
     0
370
    -2
100
AcDbLine
 10
3147.876238922782
 20
1699.327534962373
 30
0.0
 11
3118.669951554988
 21
1683.222408546534
 31
0.0
  0
LINE
  5
4007
330
4001
100
AcDbEntity
  8
Dim
 62
     0
370
    -2
100
AcDbLine
 10
3203.302547970977
 20
1729.891081185946
 30
0.0
 11
3223.752491488422
 21
1741.167725882266
 31
0.0
  0
MTEXT
  5
4008
330
4001
100
AcDbEntity
  8
Dim
  6
Continuous
 62
     0
100
AcDbMText
 10
3164.861634684435
 20
1734.063859198961
 30
0.0
 40
24.4326171875
 41
0.0
 46
0.0
 71
     5
 72
     1
  1
\A1;120
  7
ＭＳ ゴシック
 11
0.8756878327786043
 21
0.4828776444644245
 31
0.0
 73
     1
 44
1.0
  0
INSERT
  5
4009
330
4001
100
AcDbEntity
  8
Dim
 62
     0
370
    -2
100
AcDbBlockReference
  2
_DOT
 10
3118.669951554988
 20
1683.222408546534
 30
0.0
 41
9.999389648437498
 42
9.999389648437498
 43
9.999389648437498
 50
28.87351478417864
  0
INSERT
  5
400A
330
4001
100
AcDbEntity
  8
Dim
 62
     0
370
    -2
100
AcDbBlockReference
  2
_DOT
 10
3223.752491488422
 20
1741.167725882266
 30
0.0
 41
9.999389648437498
 42
9.999389648437498
 43
9.999389648437498
 50
208.8735147841786
  0
POINT
  5
400B
330
4001
100
AcDbEntity
  8
Defpoints
 62
     0
100
AcDbPoint
 10
3223.752491488422
 20
1741.167725882266
 30
0.0
  0
POINT
  5
404E
330
4001
100
AcDbEntity
  8
Defpoints
 62
     0
100
AcDbPoint
 10
3118.669951554988
 20
1683.222408546534
 30
0.0
  0
ENDBLK
  5
4003
330
4001
100
AcDbEntity
  8
0
100
AcDbBlockEnd
  0
BLOCK
  5
400D
330
400C
100
AcDbEntity
  8
0
100
AcDbBlockBegin
  2
*D62
 70
     1
 10
0.0
 20
0.0
 30
0.0
  3
*D62
  1

  0
LINE
  5
400F
330
400C
100
AcDbEntity
  8
Dim
 62
     0
 48
0.2
370
    -2
100
AcDbLine
 10
4046.960954462399
 20
1279.875473557685
 30
0.0
 11
4278.377517822007
 21
1279.875473557685
 31
0.0
  0
LINE
  5
4010
330
400C
100
AcDbEntity
  8
Dim
 62
     0
 48
0.2
370
    -2
100
AcDbLine
 10
4046.94607506523
 20
1119.875473557685
 30
0.0
 11
4278.377517822007
 21
1119.875473557685
 31
0.0
  0
LINE
  5
4011
330
400C
100
AcDbEntity
  8
Dim
 62
     0
 48
0.2
370
    -2
100
AcDbLine
 10
4278.377517822007
 20
1269.876083909247
 30
0.0
 11
4278.377517822007
 21
1129.874863206122
 31
0.0
  0
INSERT
  5
4012
330
400C
100
AcDbEntity
  8
Dim
 62
     0
370
    -2
100
AcDbBlockReference
  2
_DOT
 10
4278.377517822007
 20
1279.875473557685
 30
0.0
 41
9.999389648437498
 42
9.999389648437498
 43
9.999389648437498
 50
90.0
  0
INSERT
  5
4013
330
400C
100
AcDbEntity
  8
Dim
 62
     0
370
    -2
100
AcDbBlockReference
  2
_DOT
 10
4278.377517822007
 20
1119.875473557685
 30
0.0
 41
9.999389648437498
 42
9.999389648437498
 43
9.999389648437498
 50
270.0
  0
MTEXT
  5
4014
330
400C
100
AcDbEntity
  8
Dim
  6
Continuous
 62
     0
100
AcDbMText
 10
4256.161209228257
 20
1199.875473557685
 30
0.0
 40
24.4326171875
 41
0.0
 46
0.0
 71
     5
 72
     1
  1
\A1;160
  7
ＭＳ ゴシック
 11
0.0
 21
1.0
 31
0.0
 73
     1
 44
1.0
  0
POINT
  5
4015
330
400C
100
AcDbEntity
  8
Defpoints
 62
     0
100
AcDbPoint
 10
4021.960954462399
 20
1279.875473557685
 30
0.0
  0
POINT
  5
4016
330
400C
100
AcDbEntity
  8
Defpoints
 62
     0
100
AcDbPoint
 10
4021.94607506523
 20
1119.875473557685
 30
0.0
  0
POINT
  5
4017
330
400C
100
AcDbEntity
  8
Defpoints
 62
     0
100
AcDbPoint
 10
4278.377517822007
 20
1119.875473557685
 30
0.0
  0
ENDBLK
  5
400E
330
400C
100
AcDbEntity
  8
0
100
AcDbBlockEnd
  0
BLOCK
  5
401A
330
4019
100
AcDbEntity
  8
0
100
AcDbBlockBegin
  2
*D63
 70
     1
 10
0.0
 20
0.0
 30
0.0
  3
*D63
  1

  0
LINE
  5
401C
330
4019
100
AcDbEntity
  8
Dim
 62
     0
370
    -2
100
AcDbLine
 10
4169.695944313079
 20
1095.299113596637
 30
0.0
 11
4169.695944313079
 21
1063.376608260579
 31
0.0
  0
LINE
  5
401D
330
4019
100
AcDbEntity
  8
Dim
 62
     0
370
    -2
100
AcDbLine
 10
3874.196205818218
 20
1095.299113597483
 30
0.0
 11
3874.196205818218
 21
1063.376608260579
 31
0.0
  0
LINE
  5
401E
330
4019
100
AcDbEntity
  8
Dim
 62
     0
370
    -2
100
AcDbLine
 10
4159.696554664642
 20
1063.376608260579
 30
0.0
 11
3884.195595466656
 21
1063.376608260579
 31
0.0
  0
INSERT
  5
401F
330
4019
100
AcDbEntity
  8
Dim
 62
     0
370
    -2
100
AcDbBlockReference
  2
_DOT
 10
4169.695944313079
 20
1063.376608260579
 30
0.0
 41
9.999389648437498
 42
9.999389648437498
 43
9.999389648437498
  0
INSERT
  5
4020
330
4019
100
AcDbEntity
  8
Dim
 62
     0
370
    -2
100
AcDbBlockReference
  2
_DOT
 10
3874.196205818218
 20
1063.376608260579
 30
0.0
 41
9.999389648437498
 42
9.999389648437498
 43
9.999389648437498
 50
180.0
  0
MTEXT
  5
4021
330
4019
100
AcDbEntity
  8
Dim
  6
Continuous
 62
     0
100
AcDbMText
 10
4021.946075065649
 20
1085.592916854329
 30
0.0
 40
24.4326171875
 41
0.0
 46
0.0
 71
     5
 72
     1
  1
\A1;295.5
  7
ＭＳ ゴシック
 73
     1
 44
1.0
  0
POINT
  5
4022
330
4019
100
AcDbEntity
  8
Defpoints
 62
     0
100
AcDbPoint
 10
4169.695944313079
 20
1120.299113596637
 30
0.0
  0
POINT
  5
4023
330
4019
100
AcDbEntity
  8
Defpoints
 62
     0
100
AcDbPoint
 10
3874.196205818218
 20
1120.299113597483
 30
0.0
  0
POINT
  5
4024
330
4019
100
AcDbEntity
  8
Defpoints
 62
     0
100
AcDbPoint
 10
3874.196205818218
 20
1063.376608260579
 30
0.0
  0
ENDBLK
  5
401B
330
4019
100
AcDbEntity
  8
0
100
AcDbBlockEnd
  0
BLOCK
  5
4027
330
4026
100
AcDbEntity
  8
0
100
AcDbBlockBegin
  2
*D64
 70
     1
 10
0.0
 20
0.0
 30
0.0
  3
*D64
  1

  0
LINE
  5
4029
330
4026
100
AcDbEntity
  8
Dim
 62
     0
370
    -2
100
AcDbLine
 10
3996.94607506523
 20
1168.839899693416
 30
0.0
 11
3773.418481449997
 21
1168.839899693416
 31
0.0
  0
LINE
  5
402A
330
4026
100
AcDbEntity
  8
Dim
 62
     0
370
    -2
100
AcDbLine
 10
3996.960954462399
 20
1279.875473557685
 30
0.0
 11
3773.418481449997
 21
1279.875473557685
 31
0.0
  0
LINE
  5
402B
330
4026
100
AcDbEntity
  8
Dim
 62
     0
370
    -2
100
AcDbLine
 10
3773.418481449997
 20
1178.839289341854
 30
0.0
 11
3773.418481449997
 21
1269.876083909247
 31
0.0
  0
INSERT
  5
402C
330
4026
100
AcDbEntity
  8
Dim
 62
     0
370
    -2
100
AcDbBlockReference
  2
_DOT
 10
3773.418481449997
 20
1168.839899693416
 30
0.0
 41
9.999389648437498
 42
9.999389648437498
 43
9.999389648437498
 50
270.0
  0
INSERT
  5
402D
330
4026
100
AcDbEntity
  8
Dim
 62
     0
370
    -2
100
AcDbBlockReference
  2
_DOT
 10
3773.418481449997
 20
1279.875473557685
 30
0.0
 41
9.999389648437498
 42
9.999389648437498
 43
9.999389648437498
 50
90.0
  0
MTEXT
  5
402E
330
4026
100
AcDbEntity
  8
Dim
  6
Continuous
 62
     0
100
AcDbMText
 10
3751.202172856247
 20
1224.357686625551
 30
0.0
 40
24.4326171875
 41
0.0
 46
0.0
 71
     5
 72
     1
  1
\A1;110
  7
ＭＳ ゴシック
 11
0.0
 21
1.0
 31
0.0
 73
     1
 44
1.0
  0
POINT
  5
402F
330
4026
100
AcDbEntity
  8
Defpoints
 62
     0
100
AcDbPoint
 10
4021.94607506523
 20
1168.839899693416
 30
0.0
  0
POINT
  5
4030
330
4026
100
AcDbEntity
  8
Defpoints
 62
     0
100
AcDbPoint
 10
4021.960954462399
 20
1279.875473557685
 30
0.0
  0
POINT
  5
4031
330
4026
100
AcDbEntity
  8
Defpoints
 62
     0
100
AcDbPoint
 10
3773.418481449997
 20
1279.875473557685
 30
0.0
  0
ENDBLK
  5
4028
330
4026
100
AcDbEntity
  8
0
100
AcDbBlockEnd
  0
BLOCK
  5
4034
330
4033
100
AcDbEntity
  8
0
100
AcDbBlockBegin
  2
*D65
 70
     1
 10
0.0
 20
0.0
 30
0.0
  3
*D65
  1

  0
LINE
  5
4036
330
4033
100
AcDbEntity
  8
Dim
 62
     0
 48
0.5
370
    -2
100
AcDbLine
 10
3171.211221521698
 20
1183.673250558798
 30
0.0
 11
3171.211221521698
 21
1324.104676309897
 31
0.0
  0
LINE
  5
4037
330
4033
100
AcDbEntity
  8
Dim
 62
     0
 48
0.5
370
    -2
100
AcDbLine
 10
3471.078942627568
 20
1304.875473557685
 30
0.0
 11
3471.078942627568
 21
1324.104676309897
 31
0.0
  0
LINE
  5
4038
330
4033
100
AcDbEntity
  8
Dim
 62
     0
 48
0.5
370
    -2
100
AcDbLine
 10
3181.210611170136
 20
1324.104676309897
 30
0.0
 11
3461.07955297913
 21
1324.104676309897
 31
0.0
  0
INSERT
  5
4039
330
4033
100
AcDbEntity
  8
Dim
 62
     0
370
    -2
100
AcDbBlockReference
  2
_DOT
 10
3171.211221521698
 20
1324.104676309897
 30
0.0
 41
9.999389648437498
 42
9.999389648437498
 43
9.999389648437498
 50
180.0
  0
INSERT
  5
403A
330
4033
100
AcDbEntity
  8
Dim
 62
     0
370
    -2
100
AcDbBlockReference
  2
_DOT
 10
3471.078942627568
 20
1324.104676309897
 30
0.0
 41
9.999389648437498
 42
9.999389648437498
 43
9.999389648437498
  0
MTEXT
  5
403B
330
4033
100
AcDbEntity
  8
Dim
  6
Continuous
 62
     0
100
AcDbMText
 10
3321.145082074633
 20
1346.320984903647
 30
0.0
 40
24.4326171875
 41
0.0
 46
0.0
 71
     5
 72
     1
  1
\A1;299.9
  7
ＭＳ ゴシック
 73
     1
 44
1.0
  0
POINT
  5
403C
330
4033
100
AcDbEntity
  8
Defpoints
 62
     0
100
AcDbPoint
 10
3171.211221521698
 20
1158.673250558798
 30
0.0
  0
POINT
  5
403D
330
4033
100
AcDbEntity
  8
Defpoints
 62
     0
100
AcDbPoint
 10
3471.078942627568
 20
1279.875473557685
 30
0.0
  0
POINT
  5
403E
330
4033
100
AcDbEntity
  8
Defpoints
 62
     0
100
AcDbPoint
 10
3471.078942627568
 20
1324.104676309897
 30
0.0
  0
ENDBLK
  5
4035
330
4033
100
AcDbEntity
  8
0
100
AcDbBlockEnd
  0
BLOCK
  5
4041
330
4040
100
AcDbEntity
  8
0
100
AcDbBlockBegin
  2
*D66
 70
     1
 10
0.0
 20
0.0
 30
0.0
  3
*D66
  1

  0
LINE
  5
4043
330
4040
100
AcDbEntity
  8
Dim
 62
     0
 48
0.5
370
    -2
100
AcDbLine
 10
3061.782611562114
 20
1279.875473557685
 30
0.0
 11
2834.568940258863
 21
1279.875473557685
 31
0.0
  0
LINE
  5
4044
330
4040
100
AcDbEntity
  8
Dim
 62
     0
 48
0.5
370
    -2
100
AcDbLine
 10
3061.78261156211
 20
1119.875473557685
 30
0.0
 11
2834.568940258863
 21
1119.875473557685
 31
0.0
  0
LINE
  5
4045
330
4040
100
AcDbEntity
  8
Dim
 62
     0
 48
0.5
370
    -2
100
AcDbLine
 10
2834.568940258863
 20
1269.876083909247
 30
0.0
 11
2834.568940258863
 21
1129.874863206122
 31
0.0
  0
INSERT
  5
4046
330
4040
100
AcDbEntity
  8
Dim
 62
     0
370
    -2
100
AcDbBlockReference
  2
_DOT
 10
2834.568940258863
 20
1279.875473557685
 30
0.0
 41
9.999389648437498
 42
9.999389648437498
 43
9.999389648437498
 50
90.0
  0
INSERT
  5
4047
330
4040
100
AcDbEntity
  8
Dim
 62
     0
370
    -2
100
AcDbBlockReference
  2
_DOT
 10
2834.568940258863
 20
1119.875473557685
 30
0.0
 41
9.999389648437498
 42
9.999389648437498
 43
9.999389648437498
 50
270.0
  0
MTEXT
  5
4048
330
4040
100
AcDbEntity
  8
Dim
  6
Continuous
 62
     0
100
AcDbMText
 10
2812.352631665113
 20
1199.875473557685
 30
0.0
 40
24.4326171875
 41
0.0
 46
0.0
 71
     5
 72
     1
  1
\A1;160
  7
ＭＳ ゴシック
 11
0.0
 21
1.0
 31
0.0
 73
     1
 44
1.0
  0
POINT
  5
4049
330
4040
100
AcDbEntity
  8
Defpoints
 62
     0
100
AcDbPoint
 10
3086.782611562114
 20
1279.875473557685
 30
0.0
  0
POINT
  5
404A
330
4040
100
AcDbEntity
  8
Defpoints
 62
     0
100
AcDbPoint
 10
3086.78261156211
 20
1119.875473557685
 30
0.0
  0
POINT
  5
404B
330
4040
100
AcDbEntity
  8
Defpoints
 62
     0
100
AcDbPoint
 10
2834.568940258863
 20
1119.875473557685
 30
0.0
  0
ENDBLK
  5
4042
330
4040
100
AcDbEntity
  8
0
100
AcDbBlockEnd
  0
BLOCK
  5
4079
330
4078
100
AcDbEntity
  8
0
100
AcDbBlockBegin
  2
*D67
 70
     1
 10
0.0
 20
0.0
 30
0.0
  3
*D67
  1

  0
LINE
  5
407B
330
4078
100
AcDbEntity
  8
Dim
  6
Continuous
 62
     0
370
    -2
100
AcDbLine
 10
1316.666499596963
 20
1189.27870136168
 30
0.0
 11
1099.887575274238
 21
1189.27870136168
 31
0.0
  0
LINE
  5
407C
330
4078
100
AcDbEntity
  8
Dim
  6
Continuous
 62
     0
370
    -2
100
AcDbLine
 10
1364.514752234238
 20
1039.27870136168
 30
0.0
 11
1099.887575274238
 21
1039.27870136168
 31
0.0
  0
LINE
  5
407D
330
4078
100
AcDbEntity
  8
Dim
  6
Continuous
 62
     0
370
    -2
100
AcDbLine
 10
1099.887575274238
 20
1179.279311713243
 30
0.0
 11
1099.887575274238
 21
1049.278091010118
 31
0.0
  0
INSERT
  5
407E
330
4078
100
AcDbEntity
  8
Dim
 62
     0
370
    -2
100
AcDbBlockReference
  2
_DOT
 10
1099.887575274238
 20
1189.27870136168
 30
0.0
 41
9.999389648437498
 42
9.999389648437498
 43
9.999389648437498
 50
90.0
  0
INSERT
  5
407F
330
4078
100
AcDbEntity
  8
Dim
 62
     0
370
    -2
100
AcDbBlockReference
  2
_DOT
 10
1099.887575274238
 20
1039.27870136168
 30
0.0
 41
9.999389648437498
 42
9.999389648437498
 43
9.999389648437498
 50
270.0
  0
MTEXT
  5
4080
330
4078
100
AcDbEntity
  8
Dim
  6
Continuous
 62
     0
100
AcDbMText
 10
1077.671266680488
 20
1114.27870136168
 30
0.0
 40
24.4326171875
 41
0.0
 46
0.0
 71
     5
 72
     1
  1
\A1;150
  7
ＭＳ ゴシック
 11
0.0
 21
1.0
 31
0.0
 73
     1
 44
1.0
  0
POINT
  5
4081
330
4078
100
AcDbEntity
  8
Defpoints
 62
     0
100
AcDbPoint
 10
1341.666499596963
 20
1189.27870136168
 30
0.0
  0
POINT
  5
4082
330
4078
100
AcDbEntity
  8
Defpoints
 62
     0
100
AcDbPoint
 10
1389.514752234238
 20
1039.27870136168
 30
0.0
  0
POINT
  5
4083
330
4078
100
AcDbEntity
  8
Defpoints
 62
     0
100
AcDbPoint
 10
1099.887575274238
 20
1039.27870136168
 30
0.0
  0
ENDBLK
  5
407A
330
4078
100
AcDbEntity
  8
0
100
AcDbBlockEnd
  0
BLOCK
  5
40CB
330
40CA
100
AcDbEntity
  8
0
100
AcDbBlockBegin
  2
*D68
 70
     1
 10
0.0
 20
0.0
 30
0.0
  3
*D68
  1
*D370
  0
LINE
  5
40CC
330
40CA
100
AcDbEntity
  8
Dim
  6
Continuous
 62
     0
370
    -2
100
AcDbLine
 10
374.993755060015
 20
372.169135665667
 30
0.0
 11
442.0973457649729
 21
372.169135665667
 31
0.0
  0
LINE
  5
40CD
330
40CA
100
AcDbEntity
  8
Dim
  6
Continuous
 62
     0
370
    -2
100
AcDbLine
 10
374.993755060015
 20
522.169135665667
 30
0.0
 11
442.0973457649729
 21
522.169135665667
 31
0.0
  0
LINE
  5
40CE
330
40CA
100
AcDbEntity
  8
Dim
  6
Continuous
 62
     0
370
    -2
100
AcDbLine
 10
442.0973457649729
 20
382.1685253141045
 30
0.0
 11
442.0973457649729
 21
512.1697460172295
 31
0.0
  0
INSERT
  5
40CF
330
40CA
100
AcDbEntity
  8
Dim
 62
     0
370
    -2
100
AcDbBlockReference
  2
_DOT
 10
442.0973457649729
 20
372.169135665667
 30
0.0
 41
9.999389648437498
 42
9.999389648437498
 43
9.999389648437498
 50
270.0
  0
INSERT
  5
40D0
330
40CA
100
AcDbEntity
  8
Dim
 62
     0
370
    -2
100
AcDbBlockReference
  2
_DOT
 10
442.0973457649729
 20
522.169135665667
 30
0.0
 41
9.999389648437498
 42
9.999389648437498
 43
9.999389648437498
 50
90.0
  0
MTEXT
  5
40D1
330
40CA
100
AcDbEntity
  8
Dim
  6
Continuous
 62
     0
100
AcDbMText
 10
419.8810371712229
 20
447.169135665667
 30
0.0
 40
24.4326171875
 41
0.0
 46
0.0
 71
     5
 72
     1
  1
\A1;150
  7
ＭＳ ゴシック
 11
0.0
 21
1.0
 31
0.0
 73
     1
 44
1.0
  0
POINT
  5
40D2
330
40CA
100
AcDbEntity
  8
Defpoints
 62
     0
100
AcDbPoint
 10
349.993755060015
 20
372.169135665667
 30
0.0
  0
POINT
  5
40D3
330
40CA
100
AcDbEntity
  8
Defpoints
 62
     0
100
AcDbPoint
 10
349.993755060015
 20
522.169135665667
 30
0.0
  0
POINT
  5
40D4
330
40CA
100
AcDbEntity
  8
Defpoints
 62
     0
100
AcDbPoint
 10
442.0973457649729
 20
522.169135665667
 30
0.0
  0
ENDBLK
  5
40D5
330
40CA
100
AcDbEntity
  8
0
100
AcDbBlockEnd
  0
BLOCK
  5
40DA
330
40D9
100
AcDbEntity
  8
0
100
AcDbBlockBegin
  2
*D69
 70
     1
 10
0.0
 20
0.0
 30
0.0
  3
*D69
  1
*D371
  0
LINE
  5
40DB
330
40D9
100
AcDbEntity
  8
Dim
  6
Continuous
 62
     0
370
    -2
100
AcDbLine
 10
249.993755060015
 20
347.169135665667
 30
0.0
 11
249.993755060015
 21
284.4198534132961
 31
0.0
  0
LINE
  5
40DC
330
40D9
100
AcDbEntity
  8
Dim
  6
Continuous
 62
     0
370
    -2
100
AcDbLine
 10
349.993755060015
 20
347.169135665667
 30
0.0
 11
349.993755060015
 21
284.4198534132961
 31
0.0
  0
LINE
  5
40DD
330
40D9
100
AcDbEntity
  8
Dim
  6
Continuous
 62
     0
370
    -2
100
AcDbLine
 10
259.9931447084525
 20
284.4198534132961
 30
0.0
 11
339.9943654115775
 21
284.4198534132961
 31
0.0
  0
INSERT
  5
40DE
330
40D9
100
AcDbEntity
  8
Dim
 62
     0
370
    -2
100
AcDbBlockReference
  2
_DOT
 10
249.993755060015
 20
284.4198534132961
 30
0.0
 41
9.999389648437498
 42
9.999389648437498
 43
9.999389648437498
 50
180.0
  0
INSERT
  5
40DF
330
40D9
100
AcDbEntity
  8
Dim
 62
     0
370
    -2
100
AcDbBlockReference
  2
_DOT
 10
349.993755060015
 20
284.4198534132961
 30
0.0
 41
9.999389648437498
 42
9.999389648437498
 43
9.999389648437498
  0
MTEXT
  5
40E0
330
40D9
100
AcDbEntity
  8
Dim
  6
Continuous
 62
     0
100
AcDbMText
 10
299.993755060015
 20
306.6361620070461
 30
0.0
 40
24.4326171875
 41
0.0
 46
0.0
 71
     5
 72
     1
  1
\A1;100
  7
ＭＳ ゴシック
 73
     1
 44
1.0
  0
POINT
  5
40E1
330
40D9
100
AcDbEntity
  8
Defpoints
 62
     0
100
AcDbPoint
 10
249.993755060015
 20
372.169135665667
 30
0.0
  0
POINT
  5
40E2
330
40D9
100
AcDbEntity
  8
Defpoints
 62
     0
100
AcDbPoint
 10
349.993755060015
 20
372.169135665667
 30
0.0
  0
POINT
  5
40E3
330
40D9
100
AcDbEntity
  8
Defpoints
 62
     0
100
AcDbPoint
 10
349.993755060015
 20
284.4198534132961
 30
0.0
  0
ENDBLK
  5
40E4
330
40D9
100
AcDbEntity
  8
0
100
AcDbBlockEnd
  0
BLOCK
  5
40EB
330
40EA
100
AcDbEntity
  8
0
100
AcDbBlockBegin
  2
*D70
 70
     1
 10
0.0
 20
0.0
 30
0.0
  3
*D70
  1
*D372
  0
LINE
  5
40EC
330
40EA
100
AcDbEntity
  8
Dim
  6
Continuous
 62
     0
370
    -2
100
AcDbLine
 10
253.093755060014
 20
412.169135665667
 30
0.0
 11
193.4870548308481
 21
412.169135665667
 31
0.0
  0
LINE
  5
40ED
330
40EA
100
AcDbEntity
  8
Dim
  6
Continuous
 62
     0
370
    -2
100
AcDbLine
 10
224.993755060015
 20
372.169135665667
 30
0.0
 11
193.4870548308481
 21
372.169135665667
 31
0.0
  0
LINE
  5
40EE
330
40EA
100
AcDbEntity
  8
Dim
  6
Continuous
 62
     0
370
    -2
100
AcDbLine
 10
193.4870548308481
 20
402.1697460172295
 30
0.0
 11
193.4870548308481
 21
382.1685253141045
 31
0.0
  0
INSERT
  5
40EF
330
40EA
100
AcDbEntity
  8
Dim
 62
     0
370
    -2
100
AcDbBlockReference
  2
_DOT
 10
193.4870548308481
 20
412.169135665667
 30
0.0
 41
9.999389648437498
 42
9.999389648437498
 43
9.999389648437498
 50
90.0
  0
INSERT
  5
40F0
330
40EA
100
AcDbEntity
  8
Dim
 62
     0
370
    -2
100
AcDbBlockReference
  2
_DOT
 10
193.4870548308481
 20
372.169135665667
 30
0.0
 41
9.999389648437498
 42
9.999389648437498
 43
9.999389648437498
 50
270.0
  0
MTEXT
  5
40F1
330
40EA
100
AcDbEntity
  8
Dim
  6
Continuous
 62
     0
100
AcDbMText
 10
171.2707462370981
 20
392.169135665667
 30
0.0
 40
24.4326171875
 41
0.0
 46
0.0
 71
     5
 72
     1
  1
\A1;40
  7
ＭＳ ゴシック
 11
0.0
 21
1.0
 31
0.0
 73
     1
 44
1.0
  0
POINT
  5
40F2
330
40EA
100
AcDbEntity
  8
Defpoints
 62
     0
100
AcDbPoint
 10
278.093755060014
 20
412.169135665667
 30
0.0
  0
POINT
  5
40F3
330
40EA
100
AcDbEntity
  8
Defpoints
 62
     0
100
AcDbPoint
 10
249.993755060015
 20
372.169135665667
 30
0.0
  0
POINT
  5
40F4
330
40EA
100
AcDbEntity
  8
Defpoints
 62
     0
100
AcDbPoint
 10
193.4870548308481
 20
372.169135665667
 30
0.0
  0
ENDBLK
  5
40F5
330
40EA
100
AcDbEntity
  8
0
100
AcDbBlockEnd
  0
BLOCK
  5
4112
330
4111
100
AcDbEntity
  8
0
100
AcDbBlockBegin
  2
*D71
 70
     1
 10
0.0
 20
0.0
 30
0.0
  3
*D71
  1

  0
LINE
  5
4114
330
4111
100
AcDbEntity
  8
Dim
  6
Continuous
 62
     0
370
    -2
100
AcDbLine
 10
1617.290324851757
 20
1944.821151172008
 30
0.0
 11
1684.393915556715
 21
1944.821151172008
 31
0.0
  0
LINE
  5
4115
330
4111
100
AcDbEntity
  8
Dim
  6
Continuous
 62
     0
370
    -2
100
AcDbLine
 10
1617.290324851757
 20
2094.821151172008
 30
0.0
 11
1684.393915556715
 21
2094.821151172008
 31
0.0
  0
LINE
  5
4116
330
4111
100
AcDbEntity
  8
Dim
  6
Continuous
 62
     0
370
    -2
100
AcDbLine
 10
1684.393915556715
 20
1954.820540820446
 30
0.0
 11
1684.393915556715
 21
2084.821761523571
 31
0.0
  0
INSERT
  5
4117
330
4111
100
AcDbEntity
  8
Dim
 62
     0
370
    -2
100
AcDbBlockReference
  2
_DOT
 10
1684.393915556715
 20
1944.821151172008
 30
0.0
 41
9.999389648437498
 42
9.999389648437498
 43
9.999389648437498
 50
270.0
  0
INSERT
  5
4118
330
4111
100
AcDbEntity
  8
Dim
 62
     0
370
    -2
100
AcDbBlockReference
  2
_DOT
 10
1684.393915556715
 20
2094.821151172008
 30
0.0
 41
9.999389648437498
 42
9.999389648437498
 43
9.999389648437498
 50
90.0
  0
MTEXT
  5
4119
330
4111
100
AcDbEntity
  8
Dim
  6
Continuous
 62
     0
100
AcDbMText
 10
1662.177606962965
 20
2019.821151172008
 30
0.0
 40
24.4326171875
 41
0.0
 46
0.0
 71
     5
 72
     1
  1
\A1;150
  7
ＭＳ ゴシック
 11
0.0
 21
1.0
 31
0.0
 73
     1
 44
1.0
  0
POINT
  5
411A
330
4111
100
AcDbEntity
  8
Defpoints
 62
     0
100
AcDbPoint
 10
1592.290324851757
 20
1944.821151172008
 30
0.0
  0
POINT
  5
411B
330
4111
100
AcDbEntity
  8
Defpoints
 62
     0
100
AcDbPoint
 10
1592.290324851757
 20
2094.821151172008
 30
0.0
  0
POINT
  5
411C
330
4111
100
AcDbEntity
  8
Defpoints
 62
     0
100
AcDbPoint
 10
1684.393915556715
 20
2094.821151172008
 30
0.0
  0
ENDBLK
  5
4113
330
4111
100
AcDbEntity
  8
0
100
AcDbBlockEnd
  0
BLOCK
  5
411E
330
411D
100
AcDbEntity
  8
0
100
AcDbBlockBegin
  2
*D72
 70
     1
 10
0.0
 20
0.0
 30
0.0
  3
*D72
  1

  0
LINE
  5
4120
330
411D
100
AcDbEntity
  8
Dim
  6
Continuous
 62
     0
370
    -2
100
AcDbLine
 10
1492.290324851757
 20
1919.821151172008
 30
0.0
 11
1492.290324851757
 21
1857.071868919637
 31
0.0
  0
LINE
  5
4121
330
411D
100
AcDbEntity
  8
Dim
  6
Continuous
 62
     0
370
    -2
100
AcDbLine
 10
1592.290324851757
 20
1919.821151172008
 30
0.0
 11
1592.290324851757
 21
1857.071868919637
 31
0.0
  0
LINE
  5
4122
330
411D
100
AcDbEntity
  8
Dim
  6
Continuous
 62
     0
370
    -2
100
AcDbLine
 10
1502.289714500194
 20
1857.071868919637
 30
0.0
 11
1582.290935203319
 21
1857.071868919637
 31
0.0
  0
INSERT
  5
4123
330
411D
100
AcDbEntity
  8
Dim
 62
     0
370
    -2
100
AcDbBlockReference
  2
_DOT
 10
1492.290324851757
 20
1857.071868919637
 30
0.0
 41
9.999389648437498
 42
9.999389648437498
 43
9.999389648437498
 50
180.0
  0
INSERT
  5
4124
330
411D
100
AcDbEntity
  8
Dim
 62
     0
370
    -2
100
AcDbBlockReference
  2
_DOT
 10
1592.290324851757
 20
1857.071868919637
 30
0.0
 41
9.999389648437498
 42
9.999389648437498
 43
9.999389648437498
  0
MTEXT
  5
4125
330
411D
100
AcDbEntity
  8
Dim
  6
Continuous
 62
     0
100
AcDbMText
 10
1542.290324851757
 20
1879.288177513387
 30
0.0
 40
24.4326171875
 41
0.0
 46
0.0
 71
     5
 72
     1
  1
\A1;100
  7
ＭＳ ゴシック
 73
     1
 44
1.0
  0
POINT
  5
4126
330
411D
100
AcDbEntity
  8
Defpoints
 62
     0
100
AcDbPoint
 10
1492.290324851757
 20
1944.821151172008
 30
0.0
  0
POINT
  5
4127
330
411D
100
AcDbEntity
  8
Defpoints
 62
     0
100
AcDbPoint
 10
1592.290324851757
 20
1944.821151172008
 30
0.0
  0
POINT
  5
4128
330
411D
100
AcDbEntity
  8
Defpoints
 62
     0
100
AcDbPoint
 10
1592.290324851757
 20
1857.071868919637
 30
0.0
  0
ENDBLK
  5
411F
330
411D
100
AcDbEntity
  8
0
100
AcDbBlockEnd
  0
BLOCK
  5
412A
330
4129
100
AcDbEntity
  8
0
100
AcDbBlockBegin
  2
*D73
 70
     1
 10
0.0
 20
0.0
 30
0.0
  3
*D73
  1

  0
LINE
  5
412C
330
4129
100
AcDbEntity
  8
Dim
  6
Continuous
 62
     0
370
    -2
100
AcDbLine
 10
1495.390324851756
 20
1984.821151172008
 30
0.0
 11
1435.78362462259
 21
1984.821151172008
 31
0.0
  0
LINE
  5
412D
330
4129
100
AcDbEntity
  8
Dim
  6
Continuous
 62
     0
370
    -2
100
AcDbLine
 10
1467.290324851757
 20
1944.821151172008
 30
0.0
 11
1435.78362462259
 21
1944.821151172008
 31
0.0
  0
LINE
  5
412E
330
4129
100
AcDbEntity
  8
Dim
  6
Continuous
 62
     0
370
    -2
100
AcDbLine
 10
1435.78362462259
 20
1974.821761523571
 30
0.0
 11
1435.78362462259
 21
1954.820540820446
 31
0.0
  0
INSERT
  5
412F
330
4129
100
AcDbEntity
  8
Dim
 62
     0
370
    -2
100
AcDbBlockReference
  2
_DOT
 10
1435.78362462259
 20
1984.821151172008
 30
0.0
 41
9.999389648437498
 42
9.999389648437498
 43
9.999389648437498
 50
90.0
  0
INSERT
  5
4130
330
4129
100
AcDbEntity
  8
Dim
 62
     0
370
    -2
100
AcDbBlockReference
  2
_DOT
 10
1435.78362462259
 20
1944.821151172008
 30
0.0
 41
9.999389648437498
 42
9.999389648437498
 43
9.999389648437498
 50
270.0
  0
MTEXT
  5
4131
330
4129
100
AcDbEntity
  8
Dim
  6
Continuous
 62
     0
100
AcDbMText
 10
1413.56731602884
 20
1964.821151172008
 30
0.0
 40
24.4326171875
 41
0.0
 46
0.0
 71
     5
 72
     1
  1
\A1;40
  7
ＭＳ ゴシック
 11
0.0
 21
1.0
 31
0.0
 73
     1
 44
1.0
  0
POINT
  5
4132
330
4129
100
AcDbEntity
  8
Defpoints
 62
     0
100
AcDbPoint
 10
1520.390324851756
 20
1984.821151172008
 30
0.0
  0
POINT
  5
4133
330
4129
100
AcDbEntity
  8
Defpoints
 62
     0
100
AcDbPoint
 10
1492.290324851757
 20
1944.821151172008
 30
0.0
  0
POINT
  5
4134
330
4129
100
AcDbEntity
  8
Defpoints
 62
     0
100
AcDbPoint
 10
1435.78362462259
 20
1944.821151172008
 30
0.0
  0
ENDBLK
  5
412B
330
4129
100
AcDbEntity
  8
0
100
AcDbBlockEnd
  0
ENDSEC
  0
SECTION
  2
ENTITIES
  0
MTEXT
  5
177
330
A
100
AcDbEntity
  8
template
390
1D
100
AcDbMText
 10
82.00000000048226
 20
348.023957835319
 30
0.0
 40
16.28841145833333
 41
0.0
 46
0.0
 71
     1
 72
     1
  1
品名
  7
ＭＳ ゴシック
 73
     1
 44
0.7828267384257843
  0
MTEXT
  5
178
330
A
100
AcDbEntity
  8
template
390
1D
100
AcDbMText
 10
82.00000000048226
 20
263.0239578353188
 30
0.0
 40
16.28841145833333
 41
0.0
 46
0.0
 71
     1
 72
     1
  1
仕様
  7
ＭＳ ゴシック
 73
     1
 44
0.7828267384257843
  0
LINE
  5
179
330
A
100
AcDbEntity
  8
template
390
1D
100
AcDbLine
 10
2025.0
 20
271.4388797103189
 30
0.0
 11
75.00000000000023
 21
271.4388797103189
 31
0.0
  0
LWPOLYLINE
  5
17A
330
A
100
AcDbEntity
  8
template
390
1D
100
AcDbPolyline
 90
        5
 70
   128
 43
0.0
 10
2025.0
 20
2901.438879710319
 10
75.00000000000023
 20
2901.438879710319
 10
75.00000000000023
 20
101.4388797103188
 10
2025.0
 20
101.4388797103188
 10
2025.0
 20
2901.438879710319
  0
LINE
  5
17B
330
A
100
AcDbEntity
  8
template
390
1D
100
AcDbLine
 10
2025.0
 20
356.4388797103188
 30
0.0
 11
75.00000000000023
 21
356.4388797103188
 31
0.0
  0
LINE
  5
17C
330
A
100
AcDbEntity
  8
template
390
1D
100
AcDbLine
 10
2025.000000000482
 20
186.4388797103189
 30
0.0
 11
1272.000000000482
 21
186.4388797103189
 31
0.0
  0
MTEXT
  5
17E
330
A
100
AcDbEntity
  8
template
390
1D
100
AcDbMText
 10
1301.871406252743
 20
156.5284852370108
 30
0.0
 40
24.4326171875
 41
0.0
 46
0.0
 71
     1
 72
     1
  1
大洋金物株式会社 ティーフォルム事業部
  7
ＭＳ ゴシック
 73
     1
 44
0.7828267384257843
  0
MTEXT
  5
180
330
A
100
AcDbEntity
  8
template
390
1D
100
AcDbMText
 10
1834.000000000742
 20
234.4414968978188
 30
0.0
 40
24.4326171875
 41
0.0
 46
0.0
 71
     1
 72
     1
  1
1:10
  7
ＭＳ ゴシック
 73
     1
 44
0.7828267384257843
  0
MTEXT
  5
181
330
A
100
AcDbEntity
  8
template
390
1D
100
AcDbMText
 10
1781.000000000742
 20
263.0239578353188
 30
0.0
 40
16.28841145833333
 41
0.0
 46
0.0
 71
     1
 72
     1
  1
縮尺
  7
ＭＳ ゴシック
 73
     1
 44
0.7828267384257843
  0
LINE
  5
182
330
A
100
AcDbEntity
  8
template
390
1D
100
AcDbLine
 10
1774.000000000742
 20
186.4388797103189
 30
0.0
 11
1774.000000000742
 21
271.4388797103189
 31
0.0
  0
MTEXT
  5
183
330
A
100
AcDbEntity
  8
template
390
1D
100
AcDbMText
 10
1530.000000000742
 20
263.0239578353188
 30
0.0
 40
16.28841145833333
 41
0.0
 46
0.0
 71
     1
 72
     1
  1
容量
  7
ＭＳ ゴシック
 73
     1
 44
0.7828267384257843
  0
LINE
  5
184
330
A
100
AcDbEntity
  8
template
390
1D
100
AcDbLine
 10
1523.000000000742
 20
186.4388797103189
 30
0.0
 11
1523.000000000742
 21
271.4388797103189
 31
0.0
  0
MTEXT
  5
185
330
A
100
AcDbEntity
  8
template
390
1D
100
AcDbMText
 10
1279.000000000742
 20
348.023957835319
 30
0.0
 40
16.28841145833333
 41
0.0
 46
0.0
 71
     1
 72
     1
  1
品番
  7
ＭＳ ゴシック
 73
     1
 44
0.7828267384257843
  0
MTEXT
  5
186
330
A
100
AcDbEntity
  8
template
390
1D
100
AcDbMText
 10
1279.000000000742
 20
263.0239578353188
 30
0.0
 40
16.28841145833333
 41
0.0
 46
0.0
 71
     1
 72
     1
  1
重量
  7
ＭＳ ゴシック
 73
     1
 44
0.7828267384257843
  0
MTEXT
  5
187
330
A
100
AcDbEntity
  8
template
390
1D
100
AcDbMText
 10
1332.000000000742
 20
319.4414968978188
 30
0.0
 40
24.4326171875
 41
0.0
 46
24.4326171875
 71
     1
 72
     1
  1
{ADF70-2108-N01}
  7
ＭＳ ゴシック
 73
     1
 44
0.7828267384257843
1001
ACAD
1000
ACAD_MTEXT_DEFINED_HEIGHT_BEGIN
1070
    46
1040
24.4326171875
1000
ACAD_MTEXT_DEFINED_HEIGHT_END
  0
LINE
  5
188
330
A
100
AcDbEntity
  8
template
390
1D
100
AcDbLine
 10
1272.000000000742
 20
101.4388797103188
 30
0.0
 11
1272.000000000742
 21
356.4388797103188
 31
0.0
  0
MTEXT
  5
189
330
A
100
AcDbEntity
  8
template
390
1D
100
AcDbMText
 10
135.0000000004822
 20
319.4414968978188
 30
0.0
 40
24.4326171875
 41
0.0
 46
27.5355595703125
 71
     1
 72
     1
  1
{洗面器 -CATALANO, Velis-}
  7
ＭＳ ゴシック
 73
     1
 44
0.7828267384257843
1001
ACAD
1000
ACAD_MTEXT_DEFINED_HEIGHT_BEGIN
1070
    46
1040
27.5355595703125
1000
ACAD_MTEXT_DEFINED_HEIGHT_END
  0
MTEXT
  5
18A
330
A
100
AcDbEntity
  8
template
390
1D
100
AcDbMText
 10
135.0000000004822
 20
234.4414968978188
 30
0.0
 40
24.4326171875
 41
0.0
 46
65.556517578125
 71
     1
 72
     1
  1
{カウンター置き/オーバーフロー付き/\P陶器/ホワイト}
  7
ＭＳ ゴシック
 73
     1
 44
0.9822934569727008
1001
ACAD
1000
ACAD_MTEXT_DEFINED_HEIGHT_BEGIN
1070
    46
1040
65.556517578125
1000
ACAD_MTEXT_DEFINED_HEIGHT_END
  0
INSERT
  5
3D0
330
A
100
AcDbEntity
  8
template
100
AcDbBlockReference
  2
名称未設定-1
 10
1873.559250554905
 20
30.23897196054438
 30
0.0
 41
0.7619999999999999
 42
0.7619999999999999
 43
0.7619999999999999
  0
MTEXT
  5
BDB
102
{ACAD_XDICTIONARY
360
BDC
102
}
330
A
100
AcDbEntity
  8
template
  6
Continuous
100
AcDbMText
 10
78.95663872901252
 20
86.10730750352229
 30
0.0
 40
23.0
 41
0.0
 46
23.0
 71
     1
 72
     1
  1
{20200111N}
  7
ＭＳ ゴシック
 73
     1
 44
1.0
1001
ACAD
1000
ACAD_MTEXT_DEFINED_HEIGHT_BEGIN
1070
    46
1040
23.0
1000
ACAD_MTEXT_DEFINED_HEIGHT_END
  0
LWPOLYLINE
  5
BEE
330
A
100
AcDbEntity
  8
PRINT BORDER
100
AcDbPolyline
 90
        4
 70
     1
 43
0.0
 10
0.0
 20
0.0
 10
0.0
 20
2970.0
 10
2100.0
 20
2970.0
 10
2100.0
 20
0.0
  0
INSERT
  5
1273
330
A
100
AcDbEntity
  8
0
 62
     7
100
AcDbBlockReference
  2
BLOCK_2
 10
591.2037060744204
 20
943.564364962162
 30
0.0
  0
INSERT
  5
127B
330
A
100
AcDbEntity
  8
0
 62
     7
100
AcDbBlockReference
  2
BLOCK_2
 10
1291.863324028138
 20
1038.76992320659
 30
0.0
  0
INSERT
  5
127C
330
A
100
AcDbEntity
  8
0
 62
     7
100
AcDbBlockReference
  2
BLOCK_2
 10
652.1648429406905
 20
1595.641631888467
 30
0.0
  0
CIRCLE
  5
142C
330
A
100
AcDbEntity
  8
Dim
  6
Continuous
100
AcDbCircle
 10
1366.841726484681
 20
1758.85027442579
 30
0.0
 40
0.0
  0
CIRCLE
  5
359D
330
A
100
AcDbEntity
  8
MODEL
100
AcDbCircle
 10
574.1297812628413
 20
1984.816741127283
 30
0.0
 40
22.64230758676847
  0
CIRCLE
  5
359E
330
A
100
AcDbEntity
  8
MODEL
100
AcDbCircle
 10
574.1297812628413
 20
1984.816741127283
 30
0.0
 40
22.0
  0
ELLIPSE
  5
359F
330
A
100
AcDbEntity
  8
MODEL
100
AcDbEllipse
 10
574.1297813537694
 20
2158.72632377594
 30
0.0
 11
12.0
 21
0.0
 31
0.0
210
0.0
220
0.0
230
1.0
 40
0.5000200980475299
 41
3.852279825125208
 42
5.56906221876384
  0
SPLINE
  5
35A0
330
A
100
AcDbEntity
  8
MODEL
100
AcDbSpline
210
0.0
220
0.0
230
1.0
 70
     8
 71
     3
 72
    28
 73
    24
 74
     0
 42
0.000000001
 43
0.0000000001
 40
0.0
 40
0.0
 40
0.0
 40
0.0
 40
0.0139009941629723
 40
0.0139009941629723
 40
0.1753431116472147
 40
0.1753431116472147
 40
0.256064170389336
 40
0.256064170389336
 40
0.3367852291314571
 40
0.3367852291314571
 40
0.4175062878735783
 40
0.4175062878735783
 40
0.4982273466156994
 40
0.4982273466156994
 40
0.6596694640999419
 40
0.6596694640999419
 40
0.8211115815841842
 40
0.8211115815841842
 40
0.9018326403263056
 40
0.9018326403263056
 40
0.9825536990684268
 40
0.9825536990684268
 40
1.0
 40
1.0
 40
1.0
 40
1.0
 10
611.3419315482042
 20
1984.818499804589
 30
0.0
 10
611.3422515332072
 20
1984.546757101358
 30
0.0
 10
611.3394229422493
 20
1984.274690882787
 30
0.0
 10
611.2642106048161
 20
1980.838865041653
 30
0.0
 10
610.7932404957623
 20
1977.713272278118
 30
0.0
 10
609.5090534378264
 20
1973.173851450935
 30
0.0
 10
608.9786700435302
 20
1971.670706384152
 30
0.0
 10
607.7416787668353
 20
1968.769817878367
 30
0.0
 10
607.0362100575094
 20
1967.369883415677
 30
0.0
 10
605.4552460808932
 20
1964.668757764201
 30
0.0
 10
604.5797511909204
 20
1963.367566356301
 30
0.0
 10
602.6543652238192
 20
1960.866464485557
 30
0.0
 10
601.6043142229041
 20
1959.669341443656
 30
0.0
 10
598.2807830013135
 20
1956.332277054659
 30
0.0
 10
595.8062106806265
 20
1954.403355169836
 30
0.0
 10
590.3451836910403
 20
1951.172985894988
 30
0.0
 10
587.4683844510232
 20
1949.935058396279
 30
0.0
 10
582.9399855351812
 20
1948.62798998235
 30
0.0
 10
581.3830827080474
 20
1948.283863870175
 30
0.0
 10
578.2677906046533
 20
1947.801360019592
 30
0.0
 10
576.7071519647011
 20
1947.660572990181
 30
0.0
 10
574.8056549379485
 20
1947.60875127701
 30
0.0
 10
574.4671817828362
 20
1947.604451081252
 30
0.0
 10
574.1283442501162
 20
1947.605095086962
 30
0.0
  0
SPLINE
  5
35A1
330
A
100
AcDbEntity
  8
MODEL
100
AcDbSpline
210
0.0
220
0.0
230
1.0
 70
     8
 71
     3
 72
    28
 73
    24
 74
     0
 42
0.000000001
 43
0.0000000001
 40
0.0
 40
0.0
 40
0.0
 40
0.0
 40
0.0138422584116695
 40
0.0138422584116695
 40
0.1752939919923852
 40
0.1752939919923852
 40
0.2560198587827431
 40
0.2560198587827431
 40
0.3367457255731012
 40
0.3367457255731012
 40
0.4174715923634591
 40
0.4174715923634591
 40
0.4981974591538172
 40
0.4981974591538172
 40
0.6596491927345332
 40
0.6596491927345332
 40
0.8211009263152493
 40
0.8211009263152493
 40
0.9018267931056073
 40
0.9018267931056073
 40
0.9825526598959653
 40
0.9825526598959653
 40
1.0
 40
1.0
 40
1.0
 40
1.0
 10
611.3419354878292
 20
1984.818475394115
 30
0.0
 10
611.3422272369153
 20
1985.089056548934
 30
0.0
 10
611.3393973942743
 20
1985.359958446258
 30
0.0
 10
611.2642106048161
 20
1988.794617212916
 30
0.0
 10
610.7932404957623
 20
1991.920209976452
 30
0.0
 10
609.5090534378264
 20
1996.459630803631
 30
0.0
 10
608.9786700435302
 20
1997.962775870416
 30
0.0
 10
607.7416787668353
 20
2000.863664376202
 30
0.0
 10
607.0362100575094
 20
2002.263598838892
 30
0.0
 10
605.4552460808932
 20
2004.964724490367
 30
0.0
 10
604.5797511909204
 20
2006.265915898268
 30
0.0
 10
602.6543652238192
 20
2008.767017769013
 30
0.0
 10
601.6043142229041
 20
2009.964140810911
 30
0.0
 10
598.2807830013135
 20
2013.301205199909
 30
0.0
 10
595.8062106806265
 20
2015.230127084732
 30
0.0
 10
590.3451836910403
 20
2018.46049635958
 30
0.0
 10
587.4683844510232
 20
2019.698423858289
 30
0.0
 10
582.9399855351812
 20
2021.00549227222
 30
0.0
 10
581.3830827080474
 20
2021.349618384395
 30
0.0
 10
578.2677906046533
 20
2021.832122234976
 30
0.0
 10
576.7071519647011
 20
2021.972909264389
 30
0.0
 10
574.8056549378393
 20
2022.024730977559
 30
0.0
 10
574.4671817826184
 20
2022.029031173319
 30
0.0
 10
574.1283442497961
 20
2022.028387167604
 30
0.0
  0
SPLINE
  5
35A2
330
A
100
AcDbEntity
  8
MODEL
100
AcDbSpline
210
0.0
220
0.0
230
1.0
 70
     8
 71
     3
 72
    18
 73
    14
 74
     0
 42
0.000000001
 43
0.0000000001
 40
0.0
 40
0.0
 40
0.0
 40
0.0
 40
0.0818088824345
 40
0.0818088824345
 40
0.3112701821423832
 40
0.3112701821423832
 40
0.5407314818502665
 40
0.5407314818502665
 40
0.7701927815581501
 40
0.7701927815581501
 40
0.9996540812660334
 40
0.9996540812660334
 40
1.0
 40
1.0
 40
1.0
 40
1.0
 10
586.0103713841831
 20
2151.931808249523
 30
0.0
 10
586.0891903561292
 20
2151.652592199285
 30
0.0
 10
586.1294618065313
 20
2151.371701707889
 30
0.0
 10
586.1306698924832
 20
2150.309826720732
 30
0.0
 10
585.820217114634
 20
2149.530169157866
 30
0.0
 10
584.6190753437563
 20
2148.099457877743
 30
0.0
 10
583.739223125086
 20
2147.45303417225
 30
0.0
 10
581.5003538203255
 20
2146.361634661109
 30
0.0
 10
580.1795216119363
 20
2145.934797265098
 30
0.0
 10
577.2712987987343
 20
2145.351134012248
 30
0.0
 10
575.7009287424894
 20
2145.200724357394
 30
0.0
 10
574.1323250354562
 20
2145.200414397176
 30
0.0
 10
574.1299638570363
 20
2145.200414291827
 30
0.0
 10
574.1276026510982
 20
2145.200414547646
 30
0.0
  0
SPLINE
  5
35A3
330
A
100
AcDbEntity
  8
MODEL
100
AcDbSpline
210
0.0
220
0.0
230
1.0
 70
     8
 71
     3
 72
    16
 73
    12
 74
     0
 42
0.000000001
 43
0.0000000001
 40
0.0
 40
0.0
 40
0.0
 40
0.0
 40
0.2291308745978366
 40
0.2291308745978366
 40
0.458545661028361
 40
0.458545661028361
 40
0.6879604474588851
 40
0.6879604474588851
 40
0.9173752338894094
 40
0.9173752338894094
 40
1.0
 40
1.0
 40
1.0
 40
1.0
 10
574.1276014107953
 20
2145.2004144649
 30
0.0
 10
572.5632514550543
 20
2145.200550345293
 30
0.0
 10
570.9868591927384
 20
2145.352160073637
 30
0.0
 10
568.0996988486231
 20
2145.930112086031
 30
0.0
 10
566.7597762170494
 20
2146.362982736428
 30
0.0
 10
564.5449367543051
 20
2147.439437146761
 30
0.0
 10
563.6512353463922
 20
2148.090454301279
 30
0.0
 10
562.445507717196
 20
2149.519083251222
 30
0.0
 10
562.1313478225652
 20
2150.291878239528
 30
0.0
 10
562.1292249948901
 20
2151.368311963528
 30
0.0
 10
562.1690771691583
 20
2151.652686462647
 30
0.0
 10
562.2484201970383
 20
2151.934496361868
 30
0.0
  0
SPLINE
  5
35A4
330
A
100
AcDbEntity
  8
MODEL
100
AcDbSpline
210
0.0
220
0.0
230
1.0
 70
     8
 71
     3
 72
    28
 73
    24
 74
     0
 42
0.000000001
 43
0.0000000001
 40
0.0
 40
0.0
 40
0.0
 40
0.0
 40
0.0139016800131602
 40
0.0139016800131602
 40
0.1753517627998539
 40
0.1753517627998539
 40
0.2560768041932008
 40
0.2560768041932008
 40
0.3368018455865476
 40
0.3368018455865476
 40
0.4175268869798944
 40
0.4175268869798944
 40
0.4982519283732411
 40
0.4982519283732411
 40
0.6597020111599347
 40
0.6597020111599347
 40
0.8211520939466281
 40
0.8211520939466281
 40
0.9018771353399749
 40
0.9018771353399749
 40
0.9826021767333215
 40
0.9826021767333215
 40
1.0
 40
1.0
 40
1.0
 40
1.0
 10
536.9176309774643
 20
1984.8184998044
 30
0.0
 10
536.9173109924614
 20
1984.546757101235
 30
0.0
 10
536.9201395834252
 20
1984.274690882725
 30
0.0
 10
536.9953519208661
 20
1980.838865041653
 30
0.0
 10
537.466322029913
 20
1977.713272278118
 30
0.0
 10
538.7505090878562
 20
1973.173851450935
 30
0.0
 10
539.2808924821525
 20
1971.670706384152
 30
0.0
 10
540.5178837588332
 20
1968.769817878367
 30
0.0
 10
541.2233524681733
 20
1967.369883415677
 30
0.0
 10
542.8043164447754
 20
1964.668757764201
 30
0.0
 10
543.6798113347622
 20
1963.367566356301
 30
0.0
 10
545.6051973018634
 20
1960.866464485557
 30
0.0
 10
546.6552483027644
 20
1959.669341443656
 30
0.0
 10
549.9787795243624
 20
1956.332277054659
 30
0.0
 10
552.4533518450494
 20
1954.403355169836
 30
0.0
 10
557.9143788346423
 20
1951.172985894988
 30
0.0
 10
560.7911780746522
 20
1949.935058396279
 30
0.0
 10
565.3195769904864
 20
1948.62798998235
 30
0.0
 10
566.8764798176285
 20
1948.283863870175
 30
0.0
 10
569.9917719210221
 20
1947.801360019592
 30
0.0
 10
571.5524105609743
 20
1947.660572990181
 30
0.0
 10
573.4529519517105
 20
1947.608777321068
 30
0.0
 10
573.7904664258403
 20
1947.604475441367
 30
0.0
 10
574.1283437110701
 20
1947.605089742069
 30
0.0
  0
SPLINE
  5
35A5
330
A
100
AcDbEntity
  8
MODEL
100
AcDbSpline
210
0.0
220
0.0
230
1.0
 70
     8
 71
     3
 72
    27
 73
    23
 74
     0
 42
0.000000001
 43
0.0000000001
 40
0.0
 40
0.0
 40
0.0
 40
0.0
 40
0.016949455574118
 40
0.016949455574118
 40
0.1784117733739962
 40
0.1784117733739962
 40
0.2591429322739353
 40
0.2591429322739353
 40
0.3398740911738744
 40
0.4206052500738134
 40
0.4206052500738134
 40
0.5013364089737523
 40
0.5013364089737523
 40
0.6627987267736302
 40
0.6627987267736302
 40
0.8242610445735084
 40
0.8242610445735084
 40
0.9049922034734476
 40
0.9049922034734476
 40
0.9857233623733865
 40
0.9857233623733865
 40
1.0
 40
1.0
 40
1.0
 40
1.0
 10
574.1283436673493
 20
2022.028742429801
 30
0.0
 10
573.7972046545192
 20
2022.029147359721
 30
0.0
 10
573.4656114093682
 20
2022.024888620971
 30
0.0
 10
569.9704765006691
 20
2021.931289582819
 30
0.0
 10
566.8473028659005
 20
2021.445047892451
 30
0.0
 10
562.3144660704143
 20
2020.138799605624
 30
0.0
 10
560.8140098491431
 20
2019.601131740445
 30
0.0
 10
557.9189984303971
 20
2018.349922809134
 30
0.0
 10
555.1259649799044
 20
2016.92528080823
 30
0.0
 10
552.5322499476474
 20
2015.161659656217
 30
0.0
 10
550.0407360517793
 20
2013.224225894412
 30
0.0
 10
548.8486356160511
 20
2012.168258873968
 30
0.0
 10
545.5276878075692
 20
2008.828337325046
 30
0.0
 10
543.6112136286042
 20
2006.344873297096
 30
0.0
 10
540.4072258389074
 20
2000.867676798426
 30
0.0
 10
539.1833709272923
 20
1997.984795023466
 30
0.0
 10
537.8984782802304
 20
1993.45027369171
 30
0.0
 10
537.5619618654682
 20
1991.891794783096
 30
0.0
 10
537.094638285876
 20
1988.774012855649
 30
0.0
 10
536.9614764148951
 20
1987.212693869888
 30
0.0
 10
536.9203109003734
 20
1985.372477039586
 30
0.0
 10
536.9174327307132
 20
1985.095608113372
 30
0.0
 10
536.9178783563202
 20
1984.818491722334
 30
0.0
  0
SPLINE
  5
35A6
330
A
100
AcDbEntity
  8
MODEL
100
AcDbSpline
210
0.0
220
0.0
230
1.0
 70
     8
 71
     3
 72
    20
 73
    16
 74
     0
 42
0.000000001
 43
0.0000000001
 40
0.0
 40
0.0
 40
0.0
 40
0.0
 40
0.1250001972371438
 40
0.2500001690604089
 40
0.3750001408836741
 40
0.4375001267953066
 40
0.5000001127069393
 40
0.5625000986185719
 40
0.6250000845302045
 40
0.6875000704418371
 40
0.7500000563534697
 40
0.8125000422651024
 40
0.8750000281767348
 40
0.9375000140883673
 40
1.0
 40
1.0
 40
1.0
 40
1.0
 10
574.1297812628413
 20
1778.34572206941
 30
0.0
 10
590.8461546232443
 20
1778.34572206941
 30
0.0
 10
624.1717507350272
 20
1780.302752296113
 30
0.0
 10
673.4926992350092
 20
1789.202300286127
 30
0.0
 10
713.2772795816213
 20
1801.790349763749
 30
0.0
 10
743.8083334721832
 20
1815.1925808493
 30
0.0
 10
765.8206673445543
 20
1826.962380117395
 30
0.0
 10
786.7550419995323
 20
1840.524811236767
 30
0.0
 10
806.3251568032374
 20
1855.944471018338
 30
0.0
 10
824.1871478768671
 20
1873.267338052514
 30
0.0
 10
839.9193669912293
 20
1892.497230282201
 30
0.0
 10
853.0252481122602
 20
1913.558610829354
 30
0.0
 10
862.9574985162344
 20
1936.247891383821
 30
0.0
 10
869.1869029463064
 20
1960.18837980081
 30
0.0
 10
870.6008003207112
 20
1976.558902827767
 30
0.0
 10
870.6008003207112
 20
1984.816741127283
 30
0.0
  0
SPLINE
  5
35A7
330
A
100
AcDbEntity
  8
MODEL
100
AcDbSpline
210
0.0
220
0.0
230
1.0
 70
     8
 71
     3
 72
    20
 73
    16
 74
     0
 42
0.000000001
 43
0.0000000001
 40
0.0
 40
0.0
 40
0.0
 40
0.0
 40
0.1250001972371438
 40
0.2500001690604089
 40
0.3750001408836741
 40
0.4375001267953068
 40
0.5000001127069394
 40
0.562500098618572
 40
0.6250000845302045
 40
0.6875000704418373
 40
0.7500000563534698
 40
0.8125000422651024
 40
0.875000028176735
 40
0.9375000140883674
 40
1.0
 40
1.0
 40
1.0
 40
1.0
 10
574.1297812628413
 20
2191.287760185158
 30
0.0
 10
557.4134079024384
 20
2191.287760185158
 30
0.0
 10
524.0878117906414
 20
2189.330729958456
 30
0.0
 10
474.7668632906734
 20
2180.431181968441
 30
0.0
 10
434.9822829440614
 20
2167.843132490818
 30
0.0
 10
404.4512290534922
 20
2154.440901405266
 30
0.0
 10
382.4388951811284
 20
2142.671102137174
 30
0.0
 10
361.5045205261354
 20
2129.108671017803
 30
0.0
 10
341.9344057224384
 20
2113.689011236231
 30
0.0
 10
324.0724146488083
 20
2096.366144202052
 30
0.0
 10
308.3401955344461
 20
2077.136251972367
 30
0.0
 10
295.2343144134225
 20
2056.074871425212
 30
0.0
 10
285.3020640094342
 20
2033.385590870745
 30
0.0
 10
279.0726595793694
 20
2009.44510245376
 30
0.0
 10
277.6587622049715
 20
1993.074579426803
 30
0.0
 10
277.6587622049715
 20
1984.816741127285
 30
0.0
  0
SPLINE
  5
35A8
330
A
100
AcDbEntity
  8
MODEL
100
AcDbSpline
210
0.0
220
0.0
230
1.0
 70
     8
 71
     3
 72
    20
 73
    16
 74
     0
 42
0.000000001
 43
0.0000000001
 40
0.0
 40
0.0
 40
0.0
 40
0.0
 40
0.0625002113255144
 40
0.1250001972371468
 40
0.1875001831487792
 40
0.2500001690604116
 40
0.3125001549720439
 40
0.3750001408836763
 40
0.4375001267953088
 40
0.5000001127069411
 40
0.5625000986185735
 40
0.6250000845302057
 40
0.7500000563534704
 40
0.8750000281767354
 40
1.0
 40
1.0
 40
1.0
 40
1.0
 10
277.6587622049715
 20
1984.816741127283
 30
0.0
 10
277.6587622049715
 20
1976.558902827767
 30
0.0
 10
279.0726595793694
 20
1960.18837980081
 30
0.0
 10
285.3020640094342
 20
1936.247891383821
 30
0.0
 10
295.2343144134225
 20
1913.558610829354
 30
0.0
 10
308.3401955344461
 20
1892.497230282201
 30
0.0
 10
324.0724146488083
 20
1873.267338052514
 30
0.0
 10
341.9344057224384
 20
1855.944471018338
 30
0.0
 10
361.5045205261354
 20
1840.524811236767
 30
0.0
 10
382.4388951811284
 20
1826.962380117395
 30
0.0
 10
404.4512290534922
 20
1815.1925808493
 30
0.0
 10
434.9822829440614
 20
1801.790349763749
 30
0.0
 10
474.7668632906734
 20
1789.202300286127
 30
0.0
 10
524.0878117906414
 20
1780.302752296112
 30
0.0
 10
557.4134079024384
 20
1778.34572206941
 30
0.0
 10
574.1297812628413
 20
1778.34572206941
 30
0.0
  0
SPLINE
  5
35A9
330
A
100
AcDbEntity
  8
MODEL
100
AcDbSpline
210
0.0
220
0.0
230
1.0
 70
     8
 71
     3
 72
    14
 73
    10
 74
     0
 42
0.000000001
 43
0.0000000001
 40
0.0
 40
0.0
 40
0.0
 40
0.0
 40
0.1280314670385703
 40
0.292725272582481
 40
0.4572485342849713
 40
0.6187387191128043
 40
0.7784761073955004
 40
0.9352028805275715
 40
1.0
 40
1.0
 40
1.0
 40
1.0
 10
574.1267232043483
 20
2156.84993600244
 30
0.0
 10
574.9484734703015
 20
2156.865266901063
 30
0.0
 10
576.7793225371511
 20
2156.801991397261
 30
0.0
 10
579.5421939259481
 20
2156.30579263747
 30
0.0
 10
582.1410863498254
 20
2155.448545785792
 30
0.0
 10
584.1903418452362
 20
2154.345141434253
 30
0.0
 10
585.5118068841703
 20
2153.175323909056
 30
0.0
 10
586.0230147004204
 20
2152.340569929828
 30
0.0
 10
586.0656738863922
 20
2151.989887326316
 30
0.0
 10
586.0575778196303
 20
2151.895460575652
 30
0.0
  0
SPLINE
  5
35AA
330
A
100
AcDbEntity
  8
MODEL
100
AcDbSpline
210
0.0
220
0.0
230
1.0
 70
     8
 71
     3
 72
    14
 73
    10
 74
     0
 42
0.000000001
 43
0.0000000001
 40
0.0
 40
0.0
 40
0.0
 40
0.0
 40
0.0536254010623625
 40
0.2083099442206452
 40
0.3586641648804225
 40
0.5185420427014336
 40
0.6824998517833193
 40
0.8494410460393621
 40
1.0
 40
1.0
 40
1.0
 40
1.0
 10
562.2223860974573
 20
2151.952900773835
 30
0.0
 10
562.2126568123072
 20
2152.030379385326
 30
0.0
 10
562.2337129973903
 20
2152.354142847066
 30
0.0
 10
562.7276168808912
 20
2153.13820210467
 30
0.0
 10
563.9512625133884
 20
2154.254382970569
 30
0.0
 10
565.8657396742283
 20
2155.333371628218
 30
0.0
 10
568.376282368089
 20
2156.219431016664
 30
0.0
 10
571.2208174964703
 20
2156.772446807112
 30
0.0
 10
573.1757139261181
 20
2156.874160099666
 30
0.0
 10
574.1330923308433
 20
2156.868131266452
 30
0.0
  0
SPLINE
  5
35AB
330
A
100
AcDbEntity
  8
MODEL
100
AcDbSpline
210
0.0
220
0.0
230
1.0
 70
     8
 71
     3
 72
     8
 73
     4
 74
     0
 42
0.000000001
 43
0.0000000001
 40
0.0
 40
0.0
 40
0.0
 40
0.0
 40
1.0
 40
1.0
 40
1.0
 40
1.0
 10
586.1297817741151
 20
2151.616306468655
 30
0.0
 10
586.1298063543672
 20
2151.813167691537
 30
0.0
 10
586.1105057151813
 20
2152.011281566304
 30
0.0
 10
586.0711977641054
 20
2152.210708101913
 30
0.0
  0
SPLINE
  5
35AC
330
A
100
AcDbEntity
  8
MODEL
100
AcDbSpline
210
0.0
220
0.0
230
1.0
 70
     8
 71
     3
 72
     8
 73
     4
 74
     0
 42
0.000000001
 43
0.0000000001
 40
0.0
 40
0.0
 40
0.0
 40
0.0
 40
1.0
 40
1.0
 40
1.0
 40
1.0
 10
562.1883582594683
 20
2152.210674917053
 30
0.0
 10
562.1490629969353
 20
2152.011301620671
 30
0.0
 10
562.1297477735511
 20
2151.81315387569
 30
0.0
 10
562.1297807983883
 20
2151.616177636876
 30
0.0
  0
SPLINE
  5
35AD
330
A
100
AcDbEntity
  8
MODEL
100
AcDbSpline
210
0.0
220
0.0
230
1.0
 70
     8
 71
     3
 72
    33
 73
    29
 74
     0
 42
0.000000001
 43
0.0000000001
 40
0.0
 40
0.0
 40
0.0
 40
0.0
 40
0.1249999999999999
 40
0.1249999999999999
 40
0.2499999999999998
 40
0.2499999999999998
 40
0.3124999999999998
 40
0.3124999999999998
 40
0.3281249999999998
 40
0.3281249999999998
 40
0.3437499999999998
 40
0.3437499999999998
 40
0.3749999999999996
 40
0.3749999999999996
 40
0.4374999999999992
 40
0.4374999999999992
 40
0.468749999999999
 40
0.4843749999999986
 40
0.4843749999999986
 40
0.4999999999999982
 40
0.4999999999999982
 40
0.6249999999999986
 40
0.6249999999999986
 40
0.749999999999999
 40
0.749999999999999
 40
0.8749999999999994
 40
0.8749999999999994
 40
1.0
 40
1.0
 40
1.0
 40
1.0
 10
873.9972739258824
 20
1984.814536221377
 30
0.0
 10
873.9948687608794
 20
1981.70944885492
 30
0.0
 10
873.8946179136124
 20
1978.612568469468
 30
0.0
 10
873.500931575204
 20
1972.435011404634
 30
0.0
 10
873.2074861661404
 20
1969.354335557102
 30
0.0
 10
872.6229688313774
 20
1964.745429332152
 30
0.0
 10
872.4040528222772
 20
1963.211146749433
 30
0.0
 10
872.1003905350894
 20
1961.295811272549
 30
0.0
 10
872.0381569435422
 20
1960.912870087421
 30
0.0
 10
871.9106882892092
 20
1960.147239470811
 30
0.0
 10
871.845467274064
 20
1959.76463658006
 30
0.0
 10
871.6454250304973
 20
1958.617871891957
 30
0.0
 10
871.5061972900453
 20
1957.854587732516
 30
0.0
 10
871.0710102288731
 20
1955.56839232567
 30
0.0
 10
870.7575506940711
 20
1954.049137392227
 30
0.0
 10
870.2526705097935
 20
1951.777502945894
 30
0.0
 10
869.9915563116092
 20
1950.643498000658
 30
0.0
 10
869.7174773021552
 20
1949.512201788723
 30
0.0
 10
869.5318812498531
 20
1948.758605344607
 30
0.0
 10
869.4376285105982
 20
1948.382044709228
 30
0.0
 10
868.5770561093464
 20
1944.99814390819
 30
0.0
 10
867.7239301576642
 20
1942.023755171802
 30
0.0
 10
865.848686869112
 20
1936.139227862452
 30
0.0
 10
864.8265729883001
 20
1933.229087976681
 30
0.0
 10
862.6187218879804
 20
1927.471017439006
 30
0.0
 10
861.4328658887985
 20
1924.623131948104
 30
0.0
 10
858.9019195831002
 20
1918.987901464271
 30
0.0
 10
857.5569019721311
 20
1916.200528835358
 30
0.0
 10
856.1340463103202
 20
1913.442750041585
 30
0.0
  0
SPLINE
  5
35AE
330
A
100
AcDbEntity
  8
MODEL
100
AcDbSpline
210
0.0
220
0.0
230
1.0
 70
     8
 71
     3
 72
    32
 73
    28
 74
     0
 42
0.000000001
 43
0.0000000001
 40
0.0
 40
0.0
 40
0.0
 40
0.0
 40
0.1249999999999998
 40
0.1249999999999998
 40
0.2499999999999994
 40
0.2499999999999994
 40
0.3749999999999989
 40
0.3749999999999989
 40
0.4999999999999985
 40
0.4999999999999985
 40
0.6249999999999981
 40
0.6249999999999981
 40
0.6562499999999982
 40
0.6562499999999982
 40
0.6718749999999983
 40
0.6718749999999983
 40
0.6874999999999984
 40
0.7499999999999988
 40
0.7499999999999988
 40
0.7656249999999988
 40
0.7656249999999988
 40
0.7812499999999988
 40
0.8124999999999989
 40
0.8124999999999989
 40
0.8749999999999992
 40
0.8749999999999992
 40
1.0
 40
1.0
 40
1.0
 40
1.0
 10
856.1340463144893
 20
2056.190732204898
 30
0.0
 10
857.5600541154504
 20
2053.426843934778
 30
0.0
 10
858.9063922494843
 20
2050.636105867854
 30
0.0
 10
861.4372535236771
 20
2045.000095797303
 30
0.0
 10
862.6217012093412
 20
2042.154798366865
 30
0.0
 10
864.8249992721112
 20
2036.408394845441
 30
0.0
 10
865.8439684596974
 20
2033.507328796419
 30
0.0
 10
867.7122720064372
 20
2027.648027327138
 30
0.0
 10
868.5616020469474
 20
2024.689790452442
 30
0.0
 10
870.0844809745622
 20
2018.714075912566
 30
0.0
 10
870.7581171949432
 20
2015.696627677124
 30
0.0
 10
871.4862578740444
 20
2011.886429874731
 30
0.0
 10
871.6261856703804
 20
2011.122469216829
 30
0.0
 10
871.8274328364514
 20
2009.973614897896
 30
0.0
 10
871.8930791374823
 20
2009.590149480104
 30
0.0
 10
872.0214536537624
 20
2008.822360832457
 30
0.0
 10
872.3349177465584
 20
2006.901802665907
 30
0.0
 10
872.6109715958464
 20
2004.975804599988
 30
0.0
 10
872.8568478344473
 20
2003.045418345677
 30
0.0
 10
872.9045180583794
 20
2002.659087878907
 30
0.0
 10
872.9968006435683
 20
2001.886295157438
 30
0.0
 10
873.1306493110983
 20
2000.726823034671
 30
0.0
 10
873.250778124021
 20
1999.566502147547
 30
0.0
 10
873.4727491234312
 20
1997.244729090375
 30
0.0
 10
873.5963509849762
 20
1995.695372216455
 30
0.0
 10
873.8939540836373
 20
1991.042772999587
 30
0.0
 10
873.994813747945
 20
1987.935005829796
 30
0.0
 10
873.9972722013422
 20
1984.821151172008
 30
0.0
  0
SPLINE
  5
35AF
330
A
100
AcDbEntity
  8
MODEL
100
AcDbSpline
210
0.0
220
0.0
230
1.0
 70
     8
 71
     3
 72
    90
 73
    86
 74
     0
 42
0.000000001
 43
0.0000000001
 40
0.0
 40
0.0
 40
0.0
 40
0.0
 40
0.031250000000002
 40
0.031250000000002
 40
0.062500000000004
 40
0.062500000000004
 40
0.0664062500000042
 40
0.0683593750000043
 40
0.0683593750000043
 40
0.0703125000000043
 40
0.0703125000000043
 40
0.0781250000000046
 40
0.0937500000000056
 40
0.0937500000000056
 40
0.1250000000000072
 40
0.1250000000000072
 40
0.1562500000000089
 40
0.1562500000000089
 40
0.1875000000000106
 40
0.1875000000000106
 40
0.2187500000000124
 40
0.2187500000000124
 40
0.2500000000000142
 40
0.2500000000000142
 40
0.281250000000016
 40
0.281250000000016
 40
0.283203125000016
 40
0.283203125000016
 40
0.285156250000016
 40
0.285156250000016
 40
0.2890625000000162
 40
0.2968750000000165
 40
0.3125000000000167
 40
0.3125000000000167
 40
0.3437500000000167
 40
0.3437500000000167
 40
0.3750000000000167
 40
0.3750000000000167
 40
0.4375000000000167
 40
0.4375000000000167
 40
0.4687500000000166
 40
0.4687500000000166
 40
0.5000000000000164
 40
0.5000000000000164
 40
0.5312500000000163
 40
0.5312500000000163
 40
0.5625000000000162
 40
0.5625000000000162
 40
0.5703125000000162
 40
0.5742187500000162
 40
0.5742187500000162
 40
0.5781250000000161
 40
0.5781250000000161
 40
0.5937500000000155
 40
0.5937500000000155
 40
0.6015625000000152
 40
0.6015625000000152
 40
0.609375000000015
 40
0.609375000000015
 40
0.6250000000000142
 40
0.6250000000000142
 40
0.6875000000000113
 40
0.6875000000000113
 40
0.7031250000000105
 40
0.7031250000000105
 40
0.7070312500000104
 40
0.7070312500000104
 40
0.7109375000000103
 40
0.7109375000000103
 40
0.7187500000000101
 40
0.7187500000000101
 40
0.750000000000009
 40
0.750000000000009
 40
0.7812500000000079
 40
0.8125000000000068
 40
0.8125000000000068
 40
0.8750000000000046
 40
0.8750000000000046
 40
0.9062500000000034
 40
0.9062500000000034
 40
0.9375000000000023
 40
0.9375000000000023
 40
0.9687500000000012
 40
0.9687500000000012
 40
1.0
 40
1.0
 40
1.0
 40
1.0
 10
856.1340463103202
 20
1913.442750041585
 30
0.0
 10
854.5651385662004
 20
1910.401893107023
 30
0.0
 10
852.9052230482935
 20
1907.404197082743
 30
0.0
 10
849.4086705639725
 20
1901.492616045855
 30
0.0
 10
847.5721912871822
 20
1898.578656247999
 30
0.0
 10
845.4094688442501
 20
1895.346303976665
 30
0.0
 10
845.0469987037591
 20
1894.80853488555
 30
0.0
 10
844.6815111832852
 20
1894.272196801451
 30
0.0
 10
844.4371830502732
 20
1893.914955727969
 30
0.0
 10
844.3146734552151
 20
1893.736478809839
 30
0.0
 10
843.7008989114124
 20
1892.845532615839
 30
0.0
 10
842.2150625765444
 20
1890.719596813046
 30
0.0
 10
840.6915453587003
 20
1888.630037349114
 30
0.0
 10
837.5958631705885
 20
1884.497881931168
 30
0.0
 10
835.4673396508601
 20
1881.805605826001
 30
0.0
 10
831.0889238855034
 20
1876.538220399831
 30
0.0
 10
828.8390137356273
 20
1873.963128363303
 30
0.0
 10
824.2238573306763
 20
1868.924287312381
 30
0.0
 10
821.8585098578342
 20
1866.46063600686
 30
0.0
 10
817.0179040367811
 20
1861.639438971607
 30
0.0
 10
814.5426659179802
 20
1859.28187371863
 30
0.0
 10
809.4865996042804
 20
1854.668677601287
 30
0.0
 10
806.9057227557582
 20
1852.413093712112
 30
0.0
 10
801.6415674049213
 20
1848.00078226441
 30
0.0
 10
798.9583824826341
 20
1845.843964364595
 30
0.0
 10
796.0548282398172
 20
1843.603192075853
 30
0.0
 10
795.8838371045513
 20
1843.471569057474
 30
0.0
 10
795.5414677834065
 20
1843.208696670993
 30
0.0
 10
795.3700675252344
 20
1843.077430474691
 30
0.0
 10
794.8554951554484
 20
1842.684350282675
 30
0.0
 10
793.8248300158461
 20
1841.901036164211
 30
0.0
 10
791.4093819816712
 20
1840.093077144333
 30
0.0
 10
789.3211564196763
 20
1838.576798234521
 30
0.0
 10
785.1215474650171
 20
1835.587593044831
 30
0.0
 10
782.290905928859
 20
1833.6526401247
 30
0.0
 10
776.5711685656734
 20
1829.892163652665
 30
0.0
 10
773.6820841314343
 20
1828.066618776724
 30
0.0
 10
764.9311744518873
 20
1822.746593118762
 30
0.0
 10
758.9856394226822
 20
1819.40882130012
 30
0.0
 10
749.9122761797134
 20
1814.692445028434
 30
0.0
 10
746.8619701450384
 20
1813.168715144604
 30
0.0
 10
740.7111414590772
 20
1810.215263426559
 30
0.0
 10
737.6105934336092
 20
1808.785589096435
 30
0.0
 10
731.3604129721293
 20
1806.018128928703
 30
0.0
 10
728.2108198512014
 20
1804.680269492299
 30
0.0
 10
721.8637530699143
 20
1802.094185418055
 30
0.0
 10
718.6662786217653
 20
1800.845962254993
 30
0.0
 10
714.6399577946304
 20
1799.340867183685
 30
0.0
 10
713.4298492646503
 20
1798.893480166675
 30
0.0
 10
712.216430596492
 20
1798.452289897312
 30
0.0
 10
711.4067499739413
 20
1798.159538716166
 30
0.0
 10
711.0015037173011
 20
1798.013837340758
 30
0.0
 10
708.9740236825182
 20
1797.288971366387
 30
0.0
 10
707.3480212525915
 20
1796.720715594278
 30
0.0
 10
704.9030759435273
 20
1795.885538574203
 30
0.0
 10
704.0871037630432
 20
1795.610014393608
 30
0.0
 10
702.4531913312403
 20
1795.064665426017
 30
0.0
 10
701.6352892433733
 20
1794.794853838456
 30
0.0
 10
699.1793024190642
 20
1793.994125904076
 30
0.0
 10
697.5387344060814
 20
1793.471846779605
 30
0.0
 10
689.3198853887602
 20
1790.917407335747
 30
0.0
 10
682.6936094031271
 20
1789.056002147409
 30
0.0
 10
674.3492348971645
 20
1786.948153584567
 30
0.0
 10
672.6772842523651
 20
1786.537526661991
 30
0.0
 10
670.583533077538
 20
1786.037808321471
 30
0.0
 10
670.1645921720792
 20
1785.93854301524
 30
0.0
 10
669.3263297074463
 20
1785.741366681427
 30
0.0
 10
668.9069737925693
 20
1785.643447713789
 30
0.0
 10
667.6486023552002
 20
1785.35178038172
 30
0.0
 10
666.809370849603
 20
1785.16014126127
 30
0.0
 10
662.6116370720424
 20
1784.215887634521
 30
0.0
 10
659.2484090016824
 20
1783.505072958913
 30
0.0
 10
652.5120731590373
 20
1782.170829874919
 30
0.0
 10
645.7658607740464
 20
1780.923945109464
 30
0.0
 10
639.0003115314043
 20
1779.848095441258
 30
0.0
 10
628.8376985928203
 20
1778.360708241401
 30
0.0
 10
622.0435625486652
 20
1777.537709707158
 30
0.0
 10
611.8243321351702
 20
1776.551105804462
 30
0.0
 10
608.4132489697013
 20
1776.263570909629
 30
0.0
 10
601.5817646232331
 20
1775.770919254454
 30
0.0
 10
598.1613602690722
 20
1775.565830561144
 30
0.0
 10
591.311225709172
 20
1775.23814061828
 30
0.0
 10
587.8814974764982
 20
1775.115521916962
 30
0.0
 10
581.0126816571151
 20
1774.953068286168
 30
0.0
 10
577.5735943009431
 20
1774.91323131778
 30
0.0
 10
574.1297812628413
 20
1774.915193149013
 30
0.0
  0
SPLINE
  5
35B0
330
A
100
AcDbEntity
  8
MODEL
100
AcDbSpline
210
0.0
220
0.0
230
1.0
 70
     8
 71
     3
 72
    81
 73
    77
 74
     0
 42
0.000000001
 43
0.0000000001
 40
0.0
 40
0.0
 40
0.0
 40
0.0
 40
0.0312499999999995
 40
0.0312499999999995
 40
0.062499999999999
 40
0.062499999999999
 40
0.0937499999999985
 40
0.0937499999999985
 40
0.124999999999998
 40
0.124999999999998
 40
0.187499999999997
 40
0.187499999999997
 40
0.2187499999999965
 40
0.249999999999996
 40
0.249999999999996
 40
0.2812499999999955
 40
0.2812499999999955
 40
0.312499999999995
 40
0.312499999999995
 40
0.3281249999999948
 40
0.3281249999999948
 40
0.3359374999999947
 40
0.3359374999999947
 40
0.3398437499999946
 40
0.3398437499999946
 40
0.3437499999999946
 40
0.3749999999999934
 40
0.4062499999999925
 40
0.4062499999999925
 40
0.4374999999999915
 40
0.4374999999999915
 40
0.4687499999999905
 40
0.4687499999999905
 40
0.4999999999999895
 40
0.4999999999999895
 40
0.5312499999999886
 40
0.5312499999999886
 40
0.5624999999999876
 40
0.5624999999999876
 40
0.5937499999999867
 40
0.5937499999999867
 40
0.6249999999999857
 40
0.6249999999999857
 40
0.6562499999999848
 40
0.6562499999999848
 40
0.6640624999999846
 40
0.6640624999999846
 40
0.6679687499999848
 40
0.6679687499999848
 40
0.6718749999999849
 40
0.6874999999999853
 40
0.6874999999999853
 40
0.7187499999999862
 40
0.7187499999999862
 40
0.749999999999987
 40
0.749999999999987
 40
0.7812499999999878
 40
0.7812499999999878
 40
0.8124999999999887
 40
0.8124999999999887
 40
0.8437499999999895
 40
0.8437499999999895
 40
0.8749999999999903
 40
0.8749999999999903
 40
0.890624999999991
 40
0.890624999999991
 40
0.8984374999999913
 40
0.8984374999999913
 40
0.9023437499999917
 40
0.9023437499999917
 40
0.906249999999992
 40
0.9374999999999947
 40
0.9374999999999947
 40
0.9687499999999972
 40
0.9687499999999972
 40
1.0
 40
1.0
 40
1.0
 40
1.0
 10
574.1297812628413
 20
2194.718289105557
 30
0.0
 10
577.5772236542703
 20
2194.720253004314
 30
0.0
 10
581.019114768992
 20
2194.680329698302
 30
0.0
 10
587.8919186444191
 20
2194.517645822265
 30
0.0
 10
591.3228311190264
 20
2194.394883093428
 30
0.0
 10
598.1737363353254
 20
2194.06696269539
 30
0.0
 10
601.5937267478012
 20
2193.861787451099
 30
0.0
 10
608.4228001871102
 20
2193.369135187124
 30
0.0
 10
611.831886912013
 20
2193.081686071644
 30
0.0
 10
622.0427707496074
 20
2192.095770931035
 30
0.0
 10
628.8282004154044
 20
2191.273804194691
 30
0.0
 10
638.9730407534671
 20
2189.789557259046
 30
0.0
 10
645.7251714274621
 20
2188.716332692653
 30
0.0
 10
652.4548112433713
 20
2187.473403162865
 30
0.0
 10
659.1729812831854
 20
2186.143928339229
 30
0.0
 10
662.5263293453045
 20
2185.43590266211
 30
0.0
 10
669.2213350817924
 20
2183.931641387812
 30
0.0
 10
672.5629930969822
 20
2183.135408362505
 30
0.0
 10
677.5664825761642
 20
2181.873167786264
 30
0.0
 10
679.2328120822363
 20
2181.441100248423
 30
0.0
 10
681.7300202768834
 20
2180.775749424007
 30
0.0
 10
682.5620419491761
 20
2180.551090530204
 30
0.0
 10
683.8094979747634
 20
2180.209752333625
 30
0.0
 10
684.2252685500735
 20
2180.095234387369
 30
0.0
 10
685.0560988742882
 20
2179.864886624561
 30
0.0
 10
688.7921227035631
 20
2178.822284181675
 30
0.0
 10
695.8029769318323
 20
2176.750364309839
 30
0.0
 10
702.3237305921443
 20
2174.627390730095
 30
0.0
 10
708.8050388240094
 20
2172.416623313973
 30
0.0
 10
712.0259533808294
 20
2171.267305197325
 30
0.0
 10
718.427525212684
 20
2168.879068175957
 30
0.0
 10
721.6082124279942
 20
2167.640215910386
 30
0.0
 10
727.9285444680072
 20
2165.071163184666
 30
0.0
 10
731.0681903183954
 20
2163.740965007368
 30
0.0
 10
737.3052327395862
 20
2160.986534291797
 30
0.0
 10
740.4025963545882
 20
2159.562228405037
 30
0.0
 10
746.5537055920813
 20
2156.616535910291
 30
0.0
 10
749.6074760339702
 20
2155.095204544996
 30
0.0
 10
755.6698787494543
 20
2151.952077641399
 30
0.0
 10
758.6785136450571
 20
2150.330287938971
 30
0.0
 10
764.6485782966352
 20
2146.981643899946
 30
0.0
 10
767.6099819169622
 20
2145.254731388124
 30
0.0
 10
773.4834057925632
 20
2141.690993636159
 30
0.0
 10
776.395434488209
 20
2139.854187183868
 30
0.0
 10
780.0029004879043
 20
2137.485688256297
 30
0.0
 10
780.7227634281244
 20
2137.008359996591
 30
0.0
 10
781.8000747233905
 20
2136.286840930123
 30
0.0
 10
782.1588537486405
 20
2136.045352854377
 30
0.0
 10
782.8749949335484
 20
2135.560914755806
 30
0.0
 10
784.6619080820474
 20
2134.346102103962
 30
0.0
 10
786.4315456086783
 20
2133.112619697753
 30
0.0
 10
790.6450708915454
 20
2130.115945241454
 30
0.0
 10
793.4093490771934
 20
2128.069813200407
 30
0.0
 10
798.8460164555304
 20
2123.878244714601
 30
0.0
 10
801.5184110196074
 20
2121.732814074732
 30
0.0
 10
806.7678525588144
 20
2117.338910695719
 30
0.0
 10
809.3448127205061
 20
2115.090344136792
 30
0.0
 10
814.3994410007303
 20
2110.485906111401
 30
0.0
 10
816.877159393568
 20
2108.130088982293
 30
0.0
 10
821.7286381698814
 20
2103.30610732729
 30
0.0
 10
824.1023847537881
 20
2100.837927893736
 30
0.0
 10
828.7396978256011
 20
2095.782497398498
 30
0.0
 10
831.0033592864434
 20
2093.19534896865
 30
0.0
 10
834.3112918234701
 20
2089.220000599337
 30
0.0
 10
835.3993284662442
 20
2087.879098110755
 30
0.0
 10
837.0086919426994
 20
2085.843221685277
 30
0.0
 10
837.5413633999724
 20
2085.160507884013
 30
0.0
 10
838.3345876976541
 20
2084.130187614285
 30
0.0
 10
838.5981148084843
 20
2083.785595892742
 30
0.0
 10
839.1226172711772
 20
2083.095108123728
 30
0.0
 10
841.4717432136404
 20
2079.981607578713
 30
0.0
 10
843.7202408890535
 20
2076.811123435904
 30
0.0
 10
847.5543213785513
 20
2071.082262958801
 30
0.0
 10
849.3897619123322
 20
2068.171624567873
 30
0.0
 10
852.8911099759871
 20
2062.254344898506
 30
0.0
 10
854.5568680802553
 20
2059.247619003505
 30
0.0
 10
856.1340463144893
 20
2056.190732204898
 30
0.0
  0
SPLINE
  5
35B1
330
A
100
AcDbEntity
  8
MODEL
100
AcDbSpline
210
0.0
220
0.0
230
1.0
 70
     8
 71
     3
 72
     8
 73
     4
 74
     0
 42
0.000000001
 43
0.0000000001
 40
0.0
 40
0.0
 40
0.0
 40
0.0
 40
0.0000048729233746
 40
0.0000048729233746
 40
0.0000048729233746
 40
0.0000048729233746
 10
574.1297812628413
 20
1774.915193149013
 30
0.0
 10
574.1292436909162
 20
1774.915192842775
 30
0.0
 10
574.1287061191283
 20
1774.915192537556
 30
0.0
 10
574.1281685474742
 20
1774.915192233355
 30
0.0
  0
SPLINE
  5
35B2
330
A
100
AcDbEntity
  8
MODEL
100
AcDbSpline
210
0.0
220
0.0
230
1.0
 70
     8
 71
     3
 72
    20
 73
    16
 74
     0
 42
0.000000001
 43
0.0000000001
 40
0.0
 40
0.0
 40
0.0
 40
0.0
 40
0.1250001972371438
 40
0.2500001690604089
 40
0.3750001408836741
 40
0.4375001267953066
 40
0.5000001127069393
 40
0.5625000986185719
 40
0.6250000845302045
 40
0.6875000704418371
 40
0.7500000563534697
 40
0.8125000422651024
 40
0.8750000281767348
 40
0.9375000140883673
 40
1.0
 40
1.0
 40
1.0
 40
1.0
 10
574.1297812628413
 20
2191.287760185156
 30
0.0
 10
590.8461546232443
 20
2191.287760185156
 30
0.0
 10
624.1717507350272
 20
2189.330729958452
 30
0.0
 10
673.4926992350092
 20
2180.431181968439
 30
0.0
 10
713.2772795816213
 20
2167.843132490816
 30
0.0
 10
743.8083334721832
 20
2154.440901405266
 30
0.0
 10
765.8206673445543
 20
2142.67110213717
 30
0.0
 10
786.7550419995323
 20
2129.108671017799
 30
0.0
 10
806.3251568032374
 20
2113.689011236228
 30
0.0
 10
824.1871478768671
 20
2096.366144202052
 30
0.0
 10
839.9193669912293
 20
2077.136251972365
 30
0.0
 10
853.0252481122602
 20
2056.074871425212
 30
0.0
 10
862.9574985162344
 20
2033.385590870745
 30
0.0
 10
869.1869029463064
 20
2009.445102453756
 30
0.0
 10
870.6008003207112
 20
1993.074579426799
 30
0.0
 10
870.6008003207112
 20
1984.816741127283
 30
0.0
  0
LINE
  5
35B3
102
{ACAD_REACTORS
330
3775
102
}
330
A
100
AcDbEntity
  8
HIDDEN
 48
0.5
100
AcDbLine
 10
1551.75677625211
 20
1069.341192547686
 30
0.0000000000000003
 11
1598.885034404018
 21
1069.278701361679
 31
0.0000000000000003
  0
LINE
  5
35B4
330
A
100
AcDbEntity
  8
HIDDEN
 48
0.5
100
AcDbLine
 10
1598.885034404018
 20
1069.278701361679
 30
0.0000000000000003
 11
1629.403249361707
 21
1069.279714503474
 31
0.0000000000000003
  0
LINE
  5
35B7
102
{ACAD_REACTORS
330
3775
102
}
330
A
100
AcDbEntity
  8
MODEL
100
AcDbLine
 10
1797.724240099448
 20
1189.278701361679
 30
0.0
 11
1383.753999900549
 21
1189.278701361679
 31
0.0
  0
LINE
  5
35B8
330
A
100
AcDbEntity
  8
HIDDEN
 48
0.5
100
AcDbLine
 10
1613.789632554031
 20
1059.143297820064
 30
0.0
 11
1567.658848651626
 21
1059.143297820064
 31
0.0
  0
LINE
  5
35BE
330
A
100
AcDbEntity
  8
HIDDEN
 48
0.5
100
AcDbLine
 10
1614.61868463031
 20
1060.020053194715
 30
0.0
 11
1625.16462733719
 21
1067.404401775605
 31
0.0
  0
LINE
  5
35C1
330
A
100
AcDbEntity
  8
HIDDEN
 48
0.5
100
AcDbLine
 10
1556.283853868468
 20
1067.404401775605
 30
0.0
 11
1566.829796575348
 21
1060.020053194715
 31
0.0
  0
LINE
  5
35C4
330
A
100
AcDbEntity
  8
HIDDEN
 48
0.5
100
AcDbLine
 10
1613.024482966417
 20
1039.546394308855
 30
-0.0000000000001409
 11
1613.339870853893
 21
1057.614954281163
 31
-0.0000000000002889
  0
LINE
  5
35C6
330
A
100
AcDbEntity
  8
HIDDEN
 48
0.5
100
AcDbLine
 10
1568.108610351764
 20
1057.614954281165
 30
0.0
 11
1568.422408086897
 21
1039.637494075609
 31
0.0
  0
ARC
  5
35CA
330
A
100
AcDbEntity
  8
HIDDEN
 48
0.5
100
AcDbCircle
 10
1616.339413939362
 20
1057.562597061852
 30
-0.0000000000002889
 40
3.0
100
AcDbArc
 50
125.0000000000034
 51
179.0000000000243
  0
ARC
  5
35CB
330
A
100
AcDbEntity
  8
HIDDEN
 48
0.5
100
AcDbCircle
 10
1565.109067266296
 20
1057.562597061852
 30
-0.0000000000002889
 40
3.0
100
AcDbArc
 50
0.9999999999757105
 51
54.99999999999659
  0
SPLINE
  5
35D9
330
A
100
AcDbEntity
  8
MODEL
100
AcDbSpline
210
0.0
220
0.0
230
1.0
 70
    12
 71
     2
 72
     6
 73
     3
 74
     0
 42
0.000000001
 43
0.0000000001
 40
0.0
 40
0.0
 40
0.0
 40
1.0
 40
1.0
 40
1.0
 10
1800.625788581098
 20
1185.516455122076
 30
0.0
 41
0.5017312952894951
 10
1779.351391172006
 20
1104.533864823675
 30
0.0
 41
0.4982244970818467
 10
1738.641939094741
 20
1039.89372177167
 30
0.0
 41
0.5018208393631626
  0
SPLINE
  5
35DE
330
A
100
AcDbEntity
  8
HIDDEN
 48
0.5
100
AcDbSpline
210
0.0
220
0.0
230
1.0
 70
     8
 71
     3
 72
    14
 73
    10
 74
     0
 42
0.000000001
 43
0.0000000001
 40
0.0
 40
0.0
 40
0.0
 40
0.0
 40
0.25
 40
0.25
 40
0.5
 40
0.5
 40
0.75
 40
0.75
 40
1.0
 40
1.0
 40
1.0
 40
1.0
 10
1625.16462733719
 20
1067.404401775605
 30
0.0
 10
1625.614923190969
 20
1067.719702326848
 30
0.0
 10
1626.086915877062
 20
1068.004010897889
 30
0.0
 10
1627.065405900308
 20
1068.505289711105
 30
0.0
 10
1627.57189742569
 20
1068.722256975935
 30
0.0
 10
1628.609834775574
 20
1069.08476108887
 30
0.0
 10
1629.141274435218
 20
1069.230295783872
 30
0.0
 10
1630.219087148594
 20
1069.447189603651
 30
0.0
 10
1630.765453800632
 20
1069.518547440176
 30
0.0
 10
1631.314135900724
 20
1069.552144264143
 30
0.0
  0
SPLINE
  5
35E0
330
A
100
AcDbEntity
  8
HIDDEN
 48
0.5
100
AcDbSpline
210
0.0
220
0.0
230
1.0
 70
     8
 71
     3
 72
    36
 73
    32
 74
     0
 42
0.000000001
 43
0.0000000001
 40
0.0
 40
0.0
 40
0.0
 40
0.0
 40
0.0497757193074686
 40
0.1187549777765837
 40
0.1877342362456988
 40
0.2222238654802564
 40
0.2394686800975352
 40
0.256713494714814
 40
0.2912031239493715
 40
0.3256927531839291
 40
0.3946720116530442
 40
0.4636512701221593
 40
0.4981408993567169
 40
0.5326305285912745
 40
0.567120157825832
 40
0.6016097870603896
 40
0.6360994162949472
 40
0.6705890455295047
 40
0.6878338601467835
 40
0.7050786747640623
 40
0.722323489381341
 40
0.7395683039986198
 40
0.7568131186158986
 40
0.7740579332331774
 40
0.808547562467735
 40
0.8430371917022925
 40
0.8775268209368501
 40
0.9120164501714076
 40
0.9465060794059652
 40
0.9809957086405228
 40
1.0
 40
1.0
 40
1.0
 40
1.0
 10
1631.314135900778
 20
1069.55214426415
 30
0.0
 10
1634.237922932523
 20
1069.731173173993
 30
0.0
 10
1641.239674999311
 20
1070.161466592489
 30
0.0
 10
1652.125046846651
 20
1070.854769364017
 30
0.0
 10
1661.51068300953
 20
1071.519175337951
 30
0.0
 10
1667.538091069282
 20
1072.00642061343
 30
0.0
 10
1670.796277447749
 20
1072.290515183401
 30
0.0
 10
1673.917908130446
 20
1072.577779956143
 30
0.0
 10
1677.575075036047
 20
1072.944163779753
 30
0.0
 10
1682.982885903091
 20
1073.554948905704
 30
0.0
 10
1689.054716931507
 20
1074.382408819703
 30
0.0
 10
1694.588015223438
 20
1075.365056369537
 30
0.0
 10
1698.908042543951
 20
1076.32264172607
 30
0.0
 10
1702.144198138814
 20
1077.158742687428
 30
0.0
 10
1705.421622029076
 20
1078.153930344345
 30
0.0
 10
1708.777167745773
 20
1079.364205388232
 30
0.0
 10
1712.234336828163
 20
1080.862055057241
 30
0.0
 10
1715.205713291596
 20
1082.422718797755
 30
0.0
 10
1717.629272416314
 20
1083.9080170462
 30
0.0
 10
1719.466489560258
 20
1085.151556317836
 30
0.0
 10
1721.319418022212
 20
1086.536236460164
 30
0.0
 10
1723.176467055113
 20
1088.063175157712
 30
0.0
 10
1725.024847178052
 20
1089.73070330924
 30
0.0
 10
1727.467851893276
 20
1092.133971737031
 30
0.0
 10
1730.464442125381
 20
1095.456055866797
 30
0.0
 10
1733.954509778639
 20
1099.871752728995
 30
0.0
 10
1737.350741593094
 20
1104.632341358341
 30
0.0
 10
1740.674314836722
 20
1109.660281718006
 30
0.0
 10
1743.945594363833
 20
1114.887075040158
 30
0.0
 10
1746.69608982552
 20
1119.449109607998
 30
0.0
 10
1748.357356072836
 20
1122.256497474958
 30
0.0
 10
1748.946276606175
 20
1123.25669624568
 30
0.0
  0
SPLINE
  5
35E1
330
A
100
AcDbEntity
  8
HIDDEN
 48
0.5
100
AcDbSpline
210
0.0
220
0.0
230
1.0
 70
     8
 71
     3
 72
    37
 73
    33
 74
     0
 42
0.000000001
 43
0.0000000001
 40
0.0
 40
0.0
 40
0.0
 40
0.0
 40
0.0636067407840227
 40
0.095410111176034
 40
0.1272134815680455
 40
0.1590168519600568
 40
0.1908202223520682
 40
0.2226235927440795
 40
0.2544269631360909
 40
0.2862303335281022
 40
0.3021320187241079
 40
0.3180337039201135
 40
0.3339353891161193
 40
0.349837074312125
 40
0.3657387595081306
 40
0.3816404447041363
 40
0.4134438150961477
 40
0.445247185488159
 40
0.4770505558801704
 40
0.5088539262721817
 40
0.5406572966641932
 40
0.5724606670562045
 40
0.6360674078402272
 40
0.6996741486242499
 40
0.7314775190162612
 40
0.7632808894082727
 40
0.7791825746042783
 40
0.795084259800284
 40
0.8268876301922954
 40
0.890494370976318
 40
0.9541011117603407
 40
1.0
 40
1.0
 40
1.0
 40
1.0
 10
1424.724240602829
 20
1136.645520818954
 30
0.0
 10
1426.819394943908
 20
1133.016607050503
 30
0.0
 10
1429.992199187909
 20
1127.517312222425
 30
0.0
 10
1434.268296891667
 20
1120.252039778675
 30
0.0
 10
1437.502886841825
 20
1114.887075040158
 30
0.0
 10
1440.774166368936
 20
1109.660281718006
 30
0.0
 10
1444.097739612563
 20
1104.632341358341
 30
0.0
 10
1447.493971427018
 20
1099.871752728995
 30
0.0
 10
1450.984039080276
 20
1095.456055866797
 30
0.0
 10
1453.980629312382
 20
1092.133971737031
 30
0.0
 10
1456.423634027605
 20
1089.73070330924
 30
0.0
 10
1458.272014150545
 20
1088.063175157712
 30
0.0
 10
1460.129063183445
 20
1086.536236460164
 30
0.0
 10
1461.9819916454
 20
1085.151556317836
 30
0.0
 10
1463.819208789344
 20
1083.9080170462
 30
0.0
 10
1466.242767914062
 20
1082.422718797755
 30
0.0
 10
1469.214144377494
 20
1080.862055057241
 30
0.0
 10
1472.671313459885
 20
1079.364205388232
 30
0.0
 10
1476.026859176581
 20
1078.153930344345
 30
0.0
 10
1479.304283066843
 20
1077.158742687428
 30
0.0
 10
1482.540438661706
 20
1076.32264172607
 30
0.0
 10
1486.860465982219
 20
1075.365056369537
 30
0.0
 10
1492.393764274151
 20
1074.382408819703
 30
0.0
 10
1498.465595302566
 20
1073.554948905704
 30
0.0
 10
1503.87340616961
 20
1072.944163779753
 30
0.0
 10
1507.530573075213
 20
1072.577779956143
 30
0.0
 10
1510.652203757909
 20
1072.290515183401
 30
0.0
 10
1513.910390136376
 20
1072.00642061343
 30
0.0
 10
1519.937798196128
 20
1071.519175337951
 30
0.0
 10
1529.323434359006
 20
1070.854769364017
 30
0.0
 10
1540.208806206346
 20
1070.161466592489
 30
0.0
 10
1547.210558273134
 20
1069.731173173993
 30
0.0
 10
1550.134345304881
 20
1069.55214426415
 30
0.0
  0
SPLINE
  5
35E3
330
A
100
AcDbEntity
  8
HIDDEN
 48
0.5
100
AcDbSpline
210
0.0
220
0.0
230
1.0
 70
     8
 71
     3
 72
    14
 73
    10
 74
     0
 42
0.000000001
 43
0.0000000001
 40
0.0
 40
0.0
 40
0.0
 40
0.0
 40
0.25
 40
0.25
 40
0.5
 40
0.5
 40
0.75
 40
0.75
 40
1.0
 40
1.0
 40
1.0
 40
1.0
 10
1550.134345304932
 20
1069.552144264143
 30
0.0
 10
1550.683027405026
 20
1069.518547440176
 30
0.0
 10
1551.229394057061
 20
1069.447189603651
 30
0.0
 10
1552.307206770439
 20
1069.230295783872
 30
0.0
 10
1552.838646430084
 20
1069.08476108887
 30
0.0
 10
1553.876583779967
 20
1068.722256975935
 30
0.0
 10
1554.38307530535
 20
1068.505289711105
 30
0.0
 10
1555.361565328594
 20
1068.004010897889
 30
0.0
 10
1555.833558014688
 20
1067.719702326848
 30
0.0
 10
1556.283853868468
 20
1067.404401775605
 30
0.0
  0
SPLINE
  5
35E5
330
A
100
AcDbEntity
  8
MODEL
100
AcDbSpline
210
0.0
220
0.0
230
1.0
 70
    12
 71
     2
 72
     6
 73
     3
 74
     0
 42
0.000000001
 43
0.0000000001
 40
0.0
 40
0.0
 40
0.0
 40
1.0
 40
1.0
 40
1.0
 10
1442.974371355818
 20
1039.893721771671
 30
0.0
 41
0.5018208393631626
 10
1402.097090033652
 20
1104.533864823675
 30
0.0
 41
0.4982244970818467
 10
1380.822692624559
 20
1185.516455122076
 30
0.0
 41
0.5017312952894951
  0
SPLINE
  5
35E9
330
A
100
AcDbEntity
  8
MODEL
100
AcDbSpline
210
0.0
220
0.0
230
1.0
 70
    12
 71
     5
 72
    12
 73
     6
 74
     0
 42
0.000000001
 43
0.0000000001
 40
0.0
 40
0.0
 40
0.0
 40
0.0
 40
0.0
 40
0.0
 40
1.0
 40
1.0
 40
1.0
 40
1.0
 40
1.0
 40
1.0
 10
1796.698180172852
 20
1189.09777922404
 30
0.0
 41
1.0
 10
1796.895188465707
 20
1189.16948437854
 30
0.0
 41
0.9939231012049881
 10
1797.098148708413
 20
1189.223925418596
 30
0.0
 41
0.9908846518074821
 10
1797.305248581864
 20
1189.260442713985
 30
0.0
 41
0.9908846518074821
 10
1797.514588756571
 20
1189.278701361679
 30
0.0
 41
0.9939231012049881
 10
1797.724240602819
 20
1189.278701361679
 30
0.0
 41
1.0
  0
SPLINE
  5
35EA
330
A
100
AcDbEntity
  8
MODEL
100
AcDbSpline
210
0.0
220
0.0
230
1.0
 70
     8
 71
     3
 72
    22
 73
    18
 74
     0
 42
0.000000001
 43
0.0000000001
 40
0.0
 40
0.0
 40
0.0
 40
0.0
 40
0.1250000000000001
 40
0.1250000000000001
 40
0.2500000000000001
 40
0.2500000000000001
 40
0.3750000000000002
 40
0.3750000000000002
 40
0.5000000000000002
 40
0.5000000000000002
 40
0.6250000000000002
 40
0.6250000000000002
 40
0.7500000000000002
 40
0.7500000000000002
 40
0.8750000000000001
 40
0.8750000000000001
 40
1.0
 40
1.0
 40
1.0
 40
1.0
 10
1797.724240099454
 20
1189.278701361679
 30
0.0
 10
1797.952701919944
 20
1189.278701361679
 30
0.0
 10
1798.181153392882
 20
1189.252491030721
 30
0.0
 10
1798.626204286616
 20
1189.149007123301
 30
0.0
 10
1798.842783550054
 20
1189.071738233873
 30
0.0
 10
1799.252833207235
 20
1188.870148290381
 30
0.0
 10
1799.446285028907
 20
1188.745836366786
 30
0.0
 10
1799.800023911135
 20
1188.456616651662
 30
0.0
 10
1799.960294950058
 20
1188.29172195955
 30
0.0
 10
1800.239339887966
 20
1187.929902697829
 30
0.0
 10
1800.358101148374
 20
1187.732994515844
 30
0.0
 10
1800.547950681671
 20
1187.317378799594
 30
0.0
 10
1800.619030355846
 20
1187.09869008951
 30
0.0
 10
1800.709818347959
 20
1186.650876715149
 30
0.0
 10
1800.729522553903
 20
1186.421772333352
 30
0.0
 10
1800.716530917224
 20
1185.965033351301
 30
0.0
 10
1800.683835663024
 20
1185.737419437787
 30
0.0
 10
1800.625787606209
 20
1185.516455091961
 30
0.0
  0
SPLINE
  5
35F0
330
A
100
AcDbEntity
  8
HIDDEN
 48
0.5
100
AcDbSpline
210
0.0
220
0.0
230
1.0
 70
     8
 71
     5
 72
    12
 73
     6
 74
     0
 42
0.000000001
 43
0.0000000001
 40
0.0
 40
0.0
 40
0.0
 40
0.0
 40
0.0
 40
0.0
 40
1.0
 40
1.0
 40
1.0
 40
1.0
 40
1.0
 40
1.0
 10
1384.750301032805
 20
1189.09777922404
 30
0.0
 10
1398.541770109299
 20
1183.061557080993
 30
0.0
 10
1407.696982553083
 20
1166.005059265214
 30
0.0
 10
1414.877547971173
 20
1153.700492743493
 30
0.0
 10
1420.580317106209
 20
1143.823006857779
 30
0.0
 10
1424.724240602829
 20
1136.645520818954
 30
0.0
  0
SPLINE
  5
35F6
330
A
100
AcDbEntity
  8
MODEL
100
AcDbSpline
210
0.0
220
0.0
230
1.0
 70
     8
 71
     3
 72
    22
 73
    18
 74
     0
 42
0.000000001
 43
0.0000000001
 40
0.0
 40
0.0
 40
0.0
 40
0.0
 40
0.1249999999999999
 40
0.1249999999999999
 40
0.2499999999999998
 40
0.2499999999999998
 40
0.3749999999999998
 40
0.3749999999999998
 40
0.4999999999999998
 40
0.4999999999999998
 40
0.6249999999999998
 40
0.6249999999999998
 40
0.7499999999999998
 40
0.7499999999999998
 40
0.8749999999999999
 40
0.8749999999999999
 40
1.0
 40
1.0
 40
1.0
 40
1.0
 10
1380.822692624557
 20
1185.516455122076
 30
0.0
 10
1380.764644570366
 20
1185.73741946724
 30
0.0
 10
1380.731949318568
 20
1185.965033379772
 30
0.0
 10
1380.718957686111
 20
1186.421772359349
 30
0.0
 10
1380.738661893874
 20
1186.650876739654
 30
0.0
 10
1380.829449888955
 20
1187.098690110771
 30
0.0
 10
1380.900529564282
 20
1187.317378819093
 30
0.0
 10
1381.090379099198
 20
1187.732994531742
 30
0.0
 10
1381.209140360073
 20
1187.929902711908
 30
0.0
 10
1381.488185298272
 20
1188.291721970122
 30
0.0
 10
1381.648456337023
 20
1188.456616660561
 30
0.0
 10
1382.002195218369
 20
1188.745836372665
 30
0.0
 10
1382.195647039329
 20
1188.870148294921
 30
0.0
 10
1382.605696694707
 20
1189.071738236201
 30
0.0
 10
1382.822275957049
 20
1189.149007124771
 30
0.0
 10
1383.26732684839
 20
1189.252491031019
 30
0.0
 10
1383.495778320031
 20
1189.278701361679
 30
0.0
 10
1383.724240139223
 20
1189.278701361679
 30
0.0
  0
SPLINE
  5
35F7
330
A
100
AcDbEntity
  8
MODEL
100
AcDbSpline
210
0.0
220
0.0
230
1.0
 70
    12
 71
     5
 72
    12
 73
     6
 74
     0
 42
0.000000001
 43
0.0000000001
 40
0.0
 40
0.0
 40
0.0
 40
0.0
 40
0.0
 40
0.0
 40
1.0
 40
1.0
 40
1.0
 40
1.0
 40
1.0
 40
1.0
 10
1383.724240602838
 20
1189.278701361679
 30
0.0
 41
1.0
 10
1383.93389244909
 20
1189.278701361679
 30
0.0
 41
0.9939231012049881
 10
1384.143232623793
 20
1189.260442713985
 30
0.0
 41
0.9908846518074821
 10
1384.350332497244
 20
1189.223925418596
 30
0.0
 41
0.9908846518074821
 10
1384.553292739951
 20
1189.16948437854
 30
0.0
 41
0.9939231012049881
 10
1384.750301032805
 20
1189.09777922404
 30
0.0
 41
1.0
  0
SPLINE
  5
3617
330
A
100
AcDbEntity
  8
MODEL
100
AcDbSpline
210
0.0
220
0.0
230
1.0
 70
     8
 71
     3
 72
    33
 73
    29
 74
     0
 42
0.000000001
 43
0.0000000001
 40
0.0
 40
0.0
 40
0.0
 40
0.0
 40
0.1249999999999999
 40
0.1249999999999999
 40
0.2499999999999998
 40
0.2499999999999998
 40
0.3124999999999998
 40
0.3124999999999998
 40
0.3281249999999998
 40
0.3281249999999998
 40
0.3437499999999998
 40
0.3437499999999998
 40
0.3749999999999996
 40
0.3749999999999996
 40
0.4374999999999992
 40
0.4374999999999992
 40
0.468749999999999
 40
0.4843749999999986
 40
0.4843749999999986
 40
0.4999999999999982
 40
0.4999999999999982
 40
0.6249999999999986
 40
0.6249999999999986
 40
0.749999999999999
 40
0.749999999999999
 40
0.8749999999999994
 40
0.8749999999999994
 40
1.0
 40
1.0
 40
1.0
 40
1.0
 10
274.2622885998003
 20
1984.814536221377
 30
0.0
 10
274.2646937648033
 20
1981.70944885492
 30
0.0
 10
274.3649446120703
 20
1978.612568469468
 30
0.0
 10
274.7586309504782
 20
1972.435011404634
 30
0.0
 10
275.0520763595423
 20
1969.354335557102
 30
0.0
 10
275.6365936943052
 20
1964.745429332152
 30
0.0
 10
275.8555097034055
 20
1963.211146749433
 30
0.0
 10
276.1591719905932
 20
1961.295811272549
 30
0.0
 10
276.2214055821401
 20
1960.912870087421
 30
0.0
 10
276.3488742364734
 20
1960.147239470811
 30
0.0
 10
276.4140952516182
 20
1959.76463658006
 30
0.0
 10
276.6141374951853
 20
1958.617871891957
 30
0.0
 10
276.7533652356374
 20
1957.854587732516
 30
0.0
 10
277.1885522968091
 20
1955.56839232567
 30
0.0
 10
277.5020118316111
 20
1954.049137392227
 30
0.0
 10
278.0068920158892
 20
1951.777502945894
 30
0.0
 10
278.2680062140735
 20
1950.643498000658
 30
0.0
 10
278.5420852235275
 20
1949.512201788723
 30
0.0
 10
278.7276812758291
 20
1948.758605344607
 30
0.0
 10
278.8219340150845
 20
1948.382044709228
 30
0.0
 10
279.6825064163363
 20
1944.99814390819
 30
0.0
 10
280.5356323680185
 20
1942.023755171802
 30
0.0
 10
282.4108756565702
 20
1936.139227862452
 30
0.0
 10
283.4329895373821
 20
1933.229087976681
 30
0.0
 10
285.6408406377022
 20
1927.471017439006
 30
0.0
 10
286.8266966368842
 20
1924.623131948104
 30
0.0
 10
289.3576429425821
 20
1918.987901464271
 30
0.0
 10
290.7026605535511
 20
1916.200528835358
 30
0.0
 10
292.125516215362
 20
1913.442750041585
 30
0.0
  0
SPLINE
  5
3618
330
A
100
AcDbEntity
  8
MODEL
100
AcDbSpline
210
0.0
220
0.0
230
1.0
 70
     8
 71
     3
 72
    32
 73
    28
 74
     0
 42
0.000000001
 43
0.0000000001
 40
0.0
 40
0.0
 40
0.0
 40
0.0
 40
0.1249999999999998
 40
0.1249999999999998
 40
0.2499999999999994
 40
0.2499999999999994
 40
0.3749999999999989
 40
0.3749999999999989
 40
0.4999999999999985
 40
0.4999999999999985
 40
0.6249999999999981
 40
0.6249999999999981
 40
0.6562499999999982
 40
0.6562499999999982
 40
0.6718749999999983
 40
0.6718749999999983
 40
0.6874999999999984
 40
0.7499999999999988
 40
0.7499999999999988
 40
0.7656249999999988
 40
0.7656249999999988
 40
0.7812499999999988
 40
0.8124999999999989
 40
0.8124999999999989
 40
0.8749999999999992
 40
0.8749999999999992
 40
1.0
 40
1.0
 40
1.0
 40
1.0
 10
292.1255162111934
 20
2056.190732204898
 30
0.0
 10
290.6995084102323
 20
2053.426843934778
 30
0.0
 10
289.3531702761993
 20
2050.636105867854
 30
0.0
 10
286.8223090020051
 20
2045.000095797303
 30
0.0
 10
285.6378613163411
 20
2042.154798366865
 30
0.0
 10
283.4345632535715
 20
2036.408394845441
 30
0.0
 10
282.4155940659853
 20
2033.507328796419
 30
0.0
 10
280.5472905192451
 20
2027.648027327138
 30
0.0
 10
279.6979604787352
 20
2024.689790452442
 30
0.0
 10
278.1750815511205
 20
2018.714075912566
 30
0.0
 10
277.5014453307394
 20
2015.696627677124
 30
0.0
 10
276.7733046516382
 20
2011.886429874731
 30
0.0
 10
276.6333768553022
 20
2011.122469216829
 30
0.0
 10
276.4321296892313
 20
2009.973614897896
 30
0.0
 10
276.3664833882012
 20
2009.590149480104
 30
0.0
 10
276.2381088719212
 20
2008.822360832457
 30
0.0
 10
275.9246447791243
 20
2006.901802665907
 30
0.0
 10
275.6485909298362
 20
2004.975804599988
 30
0.0
 10
275.4027146912354
 20
2003.045418345677
 30
0.0
 10
275.3550444673033
 20
2002.659087878907
 30
0.0
 10
275.2627618821152
 20
2001.886295157438
 30
0.0
 10
275.1289132145844
 20
2000.726823034671
 30
0.0
 10
275.0087844016612
 20
1999.566502147547
 30
0.0
 10
274.786813402251
 20
1997.244729090375
 30
0.0
 10
274.6632115407065
 20
1995.695372216455
 30
0.0
 10
274.3656084420454
 20
1991.042772999587
 30
0.0
 10
274.2647487777372
 20
1987.935005829796
 30
0.0
 10
274.26229032434
 20
1984.821151172008
 30
0.0
  0
SPLINE
  5
3619
330
A
100
AcDbEntity
  8
MODEL
100
AcDbSpline
210
0.0
220
0.0
230
1.0
 70
     8
 71
     3
 72
    90
 73
    86
 74
     0
 42
0.000000001
 43
0.0000000001
 40
0.0
 40
0.0
 40
0.0
 40
0.0
 40
0.031250000000002
 40
0.031250000000002
 40
0.062500000000004
 40
0.062500000000004
 40
0.0664062500000042
 40
0.0683593750000043
 40
0.0683593750000043
 40
0.0703125000000043
 40
0.0703125000000043
 40
0.0781250000000046
 40
0.0937500000000056
 40
0.0937500000000056
 40
0.1250000000000072
 40
0.1250000000000072
 40
0.1562500000000089
 40
0.1562500000000089
 40
0.1875000000000106
 40
0.1875000000000106
 40
0.2187500000000124
 40
0.2187500000000124
 40
0.2500000000000142
 40
0.2500000000000142
 40
0.281250000000016
 40
0.281250000000016
 40
0.283203125000016
 40
0.283203125000016
 40
0.285156250000016
 40
0.285156250000016
 40
0.2890625000000162
 40
0.2968750000000165
 40
0.3125000000000167
 40
0.3125000000000167
 40
0.3437500000000167
 40
0.3437500000000167
 40
0.3750000000000167
 40
0.3750000000000167
 40
0.4375000000000167
 40
0.4375000000000167
 40
0.4687500000000166
 40
0.4687500000000166
 40
0.5000000000000164
 40
0.5000000000000164
 40
0.5312500000000163
 40
0.5312500000000163
 40
0.5625000000000162
 40
0.5625000000000162
 40
0.5703125000000162
 40
0.5742187500000162
 40
0.5742187500000162
 40
0.5781250000000161
 40
0.5781250000000161
 40
0.5937500000000155
 40
0.5937500000000155
 40
0.6015625000000152
 40
0.6015625000000152
 40
0.609375000000015
 40
0.609375000000015
 40
0.6250000000000142
 40
0.6250000000000142
 40
0.6875000000000113
 40
0.6875000000000113
 40
0.7031250000000105
 40
0.7031250000000105
 40
0.7070312500000104
 40
0.7070312500000104
 40
0.7109375000000103
 40
0.7109375000000103
 40
0.7187500000000101
 40
0.7187500000000101
 40
0.750000000000009
 40
0.750000000000009
 40
0.7812500000000079
 40
0.8125000000000068
 40
0.8125000000000068
 40
0.8750000000000046
 40
0.8750000000000046
 40
0.9062500000000034
 40
0.9062500000000034
 40
0.9375000000000023
 40
0.9375000000000023
 40
0.9687500000000012
 40
0.9687500000000012
 40
1.0
 40
1.0
 40
1.0
 40
1.0
 10
292.125516215362
 20
1913.442750041585
 30
0.0
 10
293.6944239594823
 20
1910.401893107023
 30
0.0
 10
295.3543394773892
 20
1907.404197082743
 30
0.0
 10
298.8508919617102
 20
1901.492616045855
 30
0.0
 10
300.6873712385004
 20
1898.578656247999
 30
0.0
 10
302.8500936814321
 20
1895.346303976665
 30
0.0
 10
303.2125638219231
 20
1894.80853488555
 30
0.0
 10
303.5780513423974
 20
1894.272196801451
 30
0.0
 10
303.8223794754103
 20
1893.914955727969
 30
0.0
 10
303.9448890704671
 20
1893.736478809839
 30
0.0
 10
304.5586636142702
 20
1892.845532615839
 30
0.0
 10
306.0444999491383
 20
1890.719596813046
 30
0.0
 10
307.5680171669824
 20
1888.630037349114
 30
0.0
 10
310.6636993550942
 20
1884.497881931168
 30
0.0
 10
312.7922228748221
 20
1881.805605826001
 30
0.0
 10
317.1706386401793
 20
1876.538220399831
 30
0.0
 10
319.4205487900563
 20
1873.963128363303
 30
0.0
 10
324.0357051950064
 20
1868.924287312381
 30
0.0
 10
326.401052667848
 20
1866.46063600686
 30
0.0
 10
331.2416584889011
 20
1861.639438971607
 30
0.0
 10
333.7168966077024
 20
1859.28187371863
 30
0.0
 10
338.7729629214023
 20
1854.668677601287
 30
0.0
 10
341.3538397699244
 20
1852.413093712112
 30
0.0
 10
346.6179951207614
 20
1848.00078226441
 30
0.0
 10
349.3011800430481
 20
1845.843964364595
 30
0.0
 10
352.2047342858655
 20
1843.603192075853
 30
0.0
 10
352.3757254211323
 20
1843.471569057474
 30
0.0
 10
352.7180947422762
 20
1843.208696670993
 30
0.0
 10
352.8894950004483
 20
1843.077430474691
 30
0.0
 10
353.4040673702343
 20
1842.684350282675
 30
0.0
 10
354.4347325098361
 20
1841.901036164211
 30
0.0
 10
356.8501805440114
 20
1840.093077144333
 30
0.0
 10
358.9384061060064
 20
1838.576798234521
 30
0.0
 10
363.1380150606651
 20
1835.587593044831
 30
0.0
 10
365.9686565968232
 20
1833.6526401247
 30
0.0
 10
371.6883939600102
 20
1829.892163652665
 30
0.0
 10
374.5774783942484
 20
1828.066618776724
 30
0.0
 10
383.3283880737963
 20
1822.746593118762
 30
0.0
 10
389.2739231030005
 20
1819.40882130012
 30
0.0
 10
398.3472863459692
 20
1814.692445028434
 30
0.0
 10
401.3975923806443
 20
1813.168715144604
 30
0.0
 10
407.5484210666054
 20
1810.215263426559
 30
0.0
 10
410.6489690920735
 20
1808.785589096435
 30
0.0
 10
416.8991495535533
 20
1806.018128928703
 30
0.0
 10
420.0487426744812
 20
1804.680269492299
 30
0.0
 10
426.3958094557693
 20
1802.094185418055
 30
0.0
 10
429.5932839039174
 20
1800.845962254993
 30
0.0
 10
433.6196047310523
 20
1799.340867183685
 30
0.0
 10
434.8297132610332
 20
1798.893480166675
 30
0.0
 10
436.0431319291902
 20
1798.452289897312
 30
0.0
 10
436.8528125517423
 20
1798.159538716166
 30
0.0
 10
437.2580588083811
 20
1798.013837340758
 30
0.0
 10
439.2855388431653
 20
1797.288971366387
 30
0.0
 10
440.9115412730912
 20
1796.720715594278
 30
0.0
 10
443.3564865821554
 20
1795.885538574203
 30
0.0
 10
444.1724587626391
 20
1795.610014393608
 30
0.0
 10
445.8063711944433
 20
1795.064665426017
 30
0.0
 10
446.6242732823102
 20
1794.794853838456
 30
0.0
 10
449.0802601066184
 20
1793.994125904076
 30
0.0
 10
450.7208281196013
 20
1793.471846779605
 30
0.0
 10
458.9396771369225
 20
1790.917407335747
 30
0.0
 10
465.5659531225551
 20
1789.056002147409
 30
0.0
 10
473.9103276285182
 20
1786.948153584567
 30
0.0
 10
475.5822782733171
 20
1786.537526661991
 30
0.0
 10
477.6760294481442
 20
1786.037808321471
 30
0.0
 10
478.0949703536044
 20
1785.93854301524
 30
0.0
 10
478.9332328182372
 20
1785.741366681427
 30
0.0
 10
479.3525887331143
 20
1785.643447713789
 30
0.0
 10
480.610960170482
 20
1785.35178038172
 30
0.0
 10
481.4501916760792
 20
1785.16014126127
 30
0.0
 10
485.6479254536403
 20
1784.215887634521
 30
0.0
 10
489.0111535240003
 20
1783.505072958913
 30
0.0
 10
495.7474893666454
 20
1782.170829874919
 30
0.0
 10
502.4937017516363
 20
1780.923945109464
 30
0.0
 10
509.2592509942783
 20
1779.848095441258
 30
0.0
 10
519.4218639328624
 20
1778.360708241401
 30
0.0
 10
526.2159999770174
 20
1777.537709707158
 30
0.0
 10
536.4352303905121
 20
1776.551105804462
 30
0.0
 10
539.8463135559814
 20
1776.263570909629
 30
0.0
 10
546.6777979024491
 20
1775.770919254454
 30
0.0
 10
550.0982022566113
 20
1775.565830561144
 30
0.0
 10
556.9483368165102
 20
1775.23814061828
 30
0.0
 10
560.3780650491844
 20
1775.115521916962
 30
0.0
 10
567.2468808685671
 20
1774.953068286168
 30
0.0
 10
570.6859682247391
 20
1774.91323131778
 30
0.0
 10
574.1297812628413
 20
1774.915193149013
 30
0.0
  0
SPLINE
  5
361A
330
A
100
AcDbEntity
  8
MODEL
100
AcDbSpline
210
0.0
220
0.0
230
1.0
 70
     8
 71
     3
 72
    81
 73
    77
 74
     0
 42
0.000000001
 43
0.0000000001
 40
0.0
 40
0.0
 40
0.0
 40
0.0
 40
0.0312499999999995
 40
0.0312499999999995
 40
0.062499999999999
 40
0.062499999999999
 40
0.0937499999999985
 40
0.0937499999999985
 40
0.124999999999998
 40
0.124999999999998
 40
0.187499999999997
 40
0.187499999999997
 40
0.2187499999999965
 40
0.249999999999996
 40
0.249999999999996
 40
0.2812499999999955
 40
0.2812499999999955
 40
0.312499999999995
 40
0.312499999999995
 40
0.3281249999999948
 40
0.3281249999999948
 40
0.3359374999999947
 40
0.3359374999999947
 40
0.3398437499999946
 40
0.3398437499999946
 40
0.3437499999999946
 40
0.3749999999999934
 40
0.4062499999999925
 40
0.4062499999999925
 40
0.4374999999999915
 40
0.4374999999999915
 40
0.4687499999999905
 40
0.4687499999999905
 40
0.4999999999999895
 40
0.4999999999999895
 40
0.5312499999999886
 40
0.5312499999999886
 40
0.5624999999999876
 40
0.5624999999999876
 40
0.5937499999999867
 40
0.5937499999999867
 40
0.6249999999999857
 40
0.6249999999999857
 40
0.6562499999999848
 40
0.6562499999999848
 40
0.6640624999999846
 40
0.6640624999999846
 40
0.6679687499999848
 40
0.6679687499999848
 40
0.6718749999999849
 40
0.6874999999999853
 40
0.6874999999999853
 40
0.7187499999999862
 40
0.7187499999999862
 40
0.749999999999987
 40
0.749999999999987
 40
0.7812499999999878
 40
0.7812499999999878
 40
0.8124999999999887
 40
0.8124999999999887
 40
0.8437499999999895
 40
0.8437499999999895
 40
0.8749999999999903
 40
0.8749999999999903
 40
0.890624999999991
 40
0.890624999999991
 40
0.8984374999999913
 40
0.8984374999999913
 40
0.9023437499999917
 40
0.9023437499999917
 40
0.906249999999992
 40
0.9374999999999947
 40
0.9374999999999947
 40
0.9687499999999972
 40
0.9687499999999972
 40
1.0
 40
1.0
 40
1.0
 40
1.0
 10
574.1297812628413
 20
2194.718289105557
 30
0.0
 10
570.6823388714124
 20
2194.720253004314
 30
0.0
 10
567.2404477566902
 20
2194.680329698302
 30
0.0
 10
560.3676438812631
 20
2194.517645822265
 30
0.0
 10
556.9367314066562
 20
2194.394883093428
 30
0.0
 10
550.0858261903572
 20
2194.06696269539
 30
0.0
 10
546.6658357778811
 20
2193.861787451099
 30
0.0
 10
539.836762338572
 20
2193.369135187124
 30
0.0
 10
536.4276756136692
 20
2193.081686071644
 30
0.0
 10
526.2167917760753
 20
2192.095770931035
 30
0.0
 10
519.4313621102792
 20
2191.273804194691
 30
0.0
 10
509.2865217722151
 20
2189.789557259046
 30
0.0
 10
502.5343910982201
 20
2188.716332692653
 30
0.0
 10
495.8047512823123
 20
2187.473403162865
 30
0.0
 10
489.0865812424972
 20
2186.143928339229
 30
0.0
 10
485.7332331803782
 20
2185.43590266211
 30
0.0
 10
479.0382274438903
 20
2183.931641387812
 30
0.0
 10
475.6965694287001
 20
2183.135408362505
 30
0.0
 10
470.6930799495181
 20
2181.873167786264
 30
0.0
 10
469.0267504434464
 20
2181.441100248423
 30
0.0
 10
466.5295422487993
 20
2180.775749424007
 30
0.0
 10
465.6975205765061
 20
2180.551090530204
 30
0.0
 10
464.4500645509193
 20
2180.209752333625
 30
0.0
 10
464.0342939756092
 20
2180.095234387369
 30
0.0
 10
463.203463651394
 20
2179.864886624561
 30
0.0
 10
459.4674398221191
 20
2178.822284181675
 30
0.0
 10
452.4565855938504
 20
2176.750364309839
 30
0.0
 10
445.9358319335383
 20
2174.627390730095
 30
0.0
 10
439.4545237016732
 20
2172.416623313973
 30
0.0
 10
436.2336091448533
 20
2171.267305197325
 30
0.0
 10
429.8320373129982
 20
2168.879068175957
 30
0.0
 10
426.6513500976885
 20
2167.640215910386
 30
0.0
 10
420.3310180576755
 20
2165.071163184666
 30
0.0
 10
417.1913722072873
 20
2163.740965007368
 30
0.0
 10
410.9543297860964
 20
2160.986534291797
 30
0.0
 10
407.8569661710953
 20
2159.562228405037
 30
0.0
 10
401.7058569336023
 20
2156.616535910291
 30
0.0
 10
398.6520864917125
 20
2155.095204544996
 30
0.0
 10
392.5896837762284
 20
2151.952077641399
 30
0.0
 10
389.5810488806251
 20
2150.330287938971
 30
0.0
 10
383.6109842290471
 20
2146.981643899946
 30
0.0
 10
380.64958060872
 20
2145.254731388124
 30
0.0
 10
374.7761567331195
 20
2141.690993636159
 30
0.0
 10
371.8641280374732
 20
2139.854187183868
 30
0.0
 10
368.2566620377784
 20
2137.485688256297
 30
0.0
 10
367.5367990975583
 20
2137.008359996591
 30
0.0
 10
366.4594878022922
 20
2136.286840930123
 30
0.0
 10
366.1007087770422
 20
2136.045352854377
 30
0.0
 10
365.3845675921343
 20
2135.560914755806
 30
0.0
 10
363.5976544436353
 20
2134.346102103962
 30
0.0
 10
361.8280169170043
 20
2133.112619697753
 30
0.0
 10
357.6144916341373
 20
2130.115945241454
 30
0.0
 10
354.8502134484893
 20
2128.069813200407
 30
0.0
 10
349.4135460701523
 20
2123.878244714601
 30
0.0
 10
346.7411515060753
 20
2121.732814074732
 30
0.0
 10
341.4917099668683
 20
2117.338910695719
 30
0.0
 10
338.9147498051761
 20
2115.090344136792
 30
0.0
 10
333.8601215249523
 20
2110.485906111401
 30
0.0
 10
331.3824031321142
 20
2108.130088982293
 30
0.0
 10
326.5309243558013
 20
2103.30610732729
 30
0.0
 10
324.1571777718941
 20
2100.837927893736
 30
0.0
 10
319.5198647000811
 20
2095.782497398498
 30
0.0
 10
317.2562032392393
 20
2093.19534896865
 30
0.0
 10
313.9482707022121
 20
2089.220000599337
 30
0.0
 10
312.8602340594384
 20
2087.879098110755
 30
0.0
 10
311.2508705829832
 20
2085.843221685277
 30
0.0
 10
310.7181991257103
 20
2085.160507884013
 30
0.0
 10
309.9249748280281
 20
2084.130187614285
 30
0.0
 10
309.6614477171984
 20
2083.785595892742
 30
0.0
 10
309.1369452545055
 20
2083.095108123728
 30
0.0
 10
306.7878193120432
 20
2079.981607578713
 30
0.0
 10
304.5393216366292
 20
2076.811123435904
 30
0.0
 10
300.7052411471323
 20
2071.082262958801
 30
0.0
 10
298.8698006133504
 20
2068.171624567873
 30
0.0
 10
295.3684525496951
 20
2062.254344898506
 30
0.0
 10
293.7026944454283
 20
2059.247619003505
 30
0.0
 10
292.1255162111934
 20
2056.190732204898
 30
0.0
  0
LINE
  5
361B
330
A
100
AcDbEntity
  8
HIDDEN
 48
0.5
100
AcDbLine
 10
583.0673830912651
 20
1069.279050088329
 30
0.0
 11
612.8016423300814
 21
1069.278060367618
 31
0.0
  0
LINE
  5
361C
330
A
100
AcDbEntity
  8
HIDDEN
 48
0.5
100
AcDbLine
 10
535.1649134390263
 20
1069.340637528501
 30
0.0
 11
583.0673830912651
 21
1069.279050088329
 31
0.0
  0
LINE
  5
361D
330
A
100
AcDbEntity
  8
HIDDEN
 48
0.5
100
AcDbLine
 10
597.1951816210003
 20
1059.143297820064
 30
0.0
 11
551.0643977185914
 21
1059.143297820064
 31
0.0
  0
LINE
  5
3620
330
A
100
AcDbEntity
  8
HIDDEN
 48
0.5
100
AcDbLine
 10
551.5141594187312
 20
1057.614954281162
 30
0.0
 11
551.8342199039851
 21
1039.278701361679
 31
0.0
  0
LINE
  5
3625
330
A
100
AcDbEntity
  8
HIDDEN
 48
0.5
100
AcDbLine
 10
539.6894755504632
 20
1067.404350930016
 30
0.0
 11
550.2353456423161
 21
1060.020053194717
 31
0.0
  0
ARC
  5
3627
330
A
100
AcDbEntity
  8
HIDDEN
 48
0.5
100
AcDbCircle
 10
548.5146163332624
 20
1057.562597061851
 30
0.0
 40
3.0
100
AcDbArc
 50
1.000000000001762
 51
55.00000000001829
  0
SPLINE
  5
3639
330
A
100
AcDbEntity
  8
MODEL
100
AcDbSpline
210
0.0
220
0.0
230
1.0
 70
    12
 71
     5
 72
    12
 73
     6
 74
     0
 42
0.000000001
 43
0.0000000001
 40
0.0
 40
0.0
 40
0.0
 40
0.0
 40
0.0
 40
0.0
 40
1.0
 40
1.0
 40
1.0
 40
1.0
 40
1.0
 40
1.0
 10
277.1297896698102
 20
1189.278701361679
 30
0.0
 41
1.0
 10
277.3394415160673
 20
1189.278701361679
 30
0.0
 41
0.9939231012049881
 10
277.5487816907645
 20
1189.260442713983
 30
0.0
 41
0.9908846518074821
 10
277.7558815642225
 20
1189.223925418592
 30
0.0
 41
0.9908846518074821
 10
277.9588418069101
 20
1189.16948437854
 30
0.0
 41
0.9939231012049881
 10
278.1558500997794
 20
1189.097779224037
 30
0.0
 41
1.0
  0
SPLINE
  5
363D
330
A
100
AcDbEntity
  8
MODEL
100
AcDbSpline
210
0.0
220
0.0
230
1.0
 70
     8
 71
     3
 72
    22
 73
    18
 74
     0
 42
0.000000001
 43
0.0000000001
 40
0.0
 40
0.0
 40
0.0
 40
0.0
 40
0.125
 40
0.125
 40
0.25
 40
0.25
 40
0.375
 40
0.375
 40
0.5
 40
0.5
 40
0.625
 40
0.625
 40
0.75
 40
0.75
 40
0.875
 40
0.875
 40
1.0
 40
1.0
 40
1.0
 40
1.0
 10
274.2622987312952
 20
1185.396955213914
 30
0.0
 10
274.1936285064671
 20
1185.620275203803
 30
0.0
 10
274.1511678887564
 20
1185.851642466026
 30
0.0
 10
274.1209648595041
 20
1186.317944362549
 30
0.0
 10
274.133223944068
 20
1186.552855898976
 30
0.0
 10
274.2117995544481
 20
1187.013481074035
 30
0.0
 10
274.2781121880703
 20
1187.239171895984
 30
0.0
 10
274.4611966742464
 20
1187.669090181894
 30
0.0
 10
274.5779594578571
 20
1187.873296350213
 30
0.0
 10
274.8556040900744
 20
1188.249146178026
 30
0.0
 10
275.0164721857964
 20
1188.420771220112
 30
0.0
 10
275.3735898779064
 20
1188.722129076909
 30
0.0
 10
275.5698217847612
 20
1188.851846964109
 30
0.0
 10
275.9870069197805
 20
1189.06233719763
 30
0.0
 10
276.2079394830012
 20
1189.143099117493
 30
0.0
 10
276.6625224057584
 20
1189.25128378182
 30
0.0
 10
276.8961502478865
 20
1189.278701167447
 30
0.0
 10
277.1297896859414
 20
1189.278701361679
 30
0.0
  0
SPLINE
  5
3648
330
A
100
AcDbEntity
  8
HIDDEN
 48
0.5
100
AcDbSpline
210
0.0
220
0.0
230
1.0
 70
     8
 71
     3
 72
    14
 73
    10
 74
     0
 42
0.000000001
 43
0.0000000001
 40
0.0
 40
0.0
 40
0.0
 40
0.0
 40
0.25
 40
0.25
 40
0.5
 40
0.5
 40
0.75
 40
0.75
 40
1.0
 40
1.0
 40
1.0
 40
1.0
 10
533.5391795501282
 20
1069.552141608794
 30
0.0
 10
534.08792947764
 20
1069.518576842935
 30
0.0
 10
534.634365884297
 20
1069.447241865674
 30
0.0
 10
535.7123181929433
 20
1069.230375256687
 30
0.0
 10
536.2438276893463
 20
1069.084844913666
 30
0.0
 10
537.2819010881153
 20
1068.722331569653
 30
0.0
 10
537.7884588218672
 20
1068.505350722849
 30
0.0
 10
538.7670741072375
 20
1068.004028043303
 30
0.0
 10
539.2391258435764
 20
1067.719689189607
 30
0.0
 10
539.6894755504632
 20
1067.404350930016
 30
0.0
  0
SPLINE
  5
364A
330
A
100
AcDbEntity
  8
MODEL
100
AcDbSpline
210
0.0
220
0.0
230
1.0
 70
    12
 71
     2
 72
     6
 73
     3
 74
     0
 42
0.000000001
 43
0.0000000001
 40
0.0
 40
0.0
 40
0.0
 40
1.0
 40
1.0
 40
1.0
 10
344.1299005500002
 20
1039.278701361679
 30
0.0
 41
0.5018942940518283
 10
299.3340994790873
 20
1103.861874921879
 30
0.0
 41
0.4981577445556717
 10
274.2622953153263
 20
1185.396955294468
 30
0.0
 41
0.501791646401931
  0
ELLIPSE
  5
364C
330
A
100
AcDbEntity
  8
HIDDEN
 48
0.25
100
AcDbEllipse
 10
574.1297901765224
 20
1139.278577811875
 30
0.0
 11
-12.0
 21
0.0
 31
0.0
210
0.0
220
0.0
230
1.0
 40
0.8660182705156337
 41
4.712389129083197
 42
6.107747213460509
  0
ELLIPSE
  5
364D
330
A
100
AcDbEntity
  8
HIDDEN
 48
0.25
100
AcDbEllipse
 10
574.1297901765224
 20
1139.278577811875
 30
0.0
 11
-12.0
 21
0.0
 31
0.0
210
0.0
220
0.0
230
1.0
 40
0.8660182705156337
 41
3.319583356402253
 42
4.712388712416516
  0
SPLINE
  5
364E
330
A
100
AcDbEntity
  8
HIDDEN
 48
0.25
100
AcDbSpline
210
0.0
220
0.0
230
1.0
 70
     8
 71
     3
 72
    10
 73
     6
 74
     0
 42
0.000000001
 43
0.0000000001
 40
0.0
 40
0.0
 40
0.0
 40
0.0
 40
0.3642260573078046
 40
0.3642260573078046
 40
1.0
 40
1.0
 40
1.0
 40
1.0
 10
586.1251114800411
 20
1144.642762051467
 30
0.0
 10
586.1281640020911
 20
1144.54907859272
 30
0.0
 10
586.1297261604354
 20
1144.455390408854
 30
0.0
 10
586.129895169784
 20
1144.198267848752
 30
0.0
 10
586.1254737452564
 20
1144.034639875196
 30
0.0
 10
586.1165606804293
 20
1143.87105279646
 30
0.0
  0
SPLINE
  5
364F
330
A
100
AcDbEntity
  8
HIDDEN
 48
0.25
100
AcDbSpline
210
0.0
220
0.0
230
1.0
 70
     8
 71
     3
 72
    16
 73
    12
 74
     0
 42
0.000000001
 43
0.0000000001
 40
0.0
 40
0.0
 40
0.0
 40
0.0
 40
0.0017003245495232
 40
0.0017003245495232
 40
0.3221365113932146
 40
0.3221365113932146
 40
0.6425726982369057
 40
0.6425726982369057
 40
0.9630088850805971
 40
0.9630088850805971
 40
1.0
 40
1.0
 40
1.0
 40
1.0
 10
574.1297897059212
 20
1154.642475990147
 30
0.0
 10
574.1403103904463
 20
1154.642476735611
 30
0.0
 10
574.1508313646204
 20
1154.642465425844
 30
0.0
 10
576.1441403730942
 20
1154.638037262346
 30
0.0
 10
578.1242465362902
 20
1154.209242421287
 30
0.0
 10
581.588757000748
 20
1152.612919368855
 30
0.0
 10
583.087313124402
 20
1151.439557177403
 30
0.0
 10
585.2532635038165
 20
1148.602626138352
 30
0.0
 10
585.9200263430262
 20
1146.934967902451
 30
0.0
 10
586.1061366102381
 20
1145.036806251331
 30
0.0
 10
586.1188508376663
 20
1144.839832757521
 30
0.0
 10
586.1250472472984
 20
1144.642618177693
 30
0.0
  0
SPLINE
  5
3650
330
A
100
AcDbEntity
  8
HIDDEN
 48
0.25
100
AcDbSpline
210
0.0
220
0.0
230
1.0
 70
     8
 71
     3
 72
    20
 73
    16
 74
     0
 42
0.000000001
 43
0.0000000001
 40
0.0
 40
0.0
 40
0.0
 40
0.0
 40
0.0364997538813319
 40
0.0364997538813319
 40
0.1966211410878431
 40
0.1966211410878431
 40
0.3567425282943543
 40
0.3567425282943543
 40
0.5168639155008655
 40
0.5168639155008655
 40
0.6769853027073767
 40
0.6769853027073767
 40
0.9972280771203991
 40
0.9972280771203991
 40
1.0
 40
1.0
 40
1.0
 40
1.0
 10
562.1346229034043
 20
1144.642376300212
 30
0.0
 10
562.140721238969
 20
1144.837564974715
 30
0.0
 10
562.1531567550642
 20
1145.032123454625
 30
0.0
 10
562.2543597784043
 20
1146.073632492073
 30
0.0
 10
562.4605573684544
 20
1146.921494890345
 30
0.0
 10
563.103979462875
 20
1148.533073948615
 30
0.0
 10
563.5355843672023
 20
1149.293336391736
 30
0.0
 10
564.6221687439911
 20
1150.721517746707
 30
0.0
 10
565.263774490691
 20
1151.36914265361
 30
0.0
 10
566.7115238025963
 20
1152.509374578639
 30
0.0
 10
567.5308541670324
 20
1153.008517750525
 30
0.0
 10
570.1253659812
 20
1154.205988791678
 30
0.0
 10
572.0954858232453
 20
1154.635198837316
 30
0.0
 10
574.0954687309004
 20
1154.64244602431
 30
0.0
 10
574.1126314779845
 20
1154.642475944091
 30
0.0
 10
574.1297941312673
 20
1154.642473628829
 30
0.0
  0
SPLINE
  5
3651
330
A
100
AcDbEntity
  8
HIDDEN
 48
0.25
100
AcDbSpline
210
0.0
220
0.0
230
1.0
 70
     8
 71
     3
 72
    10
 73
     6
 74
     0
 42
0.000000001
 43
0.0000000001
 40
0.0
 40
0.0
 40
0.0
 40
0.0
 40
0.6156542928973183
 40
0.6156542928973183
 40
1.0
 40
1.0
 40
1.0
 40
1.0
 10
562.1429280191892
 20
1143.869285222828
 30
0.0
 10
562.1343664984684
 20
1144.027755453381
 30
0.0
 10
562.129976546626
 20
1144.186559442359
 30
0.0
 10
562.1296824660471
 20
1144.444853198236
 30
0.0
 10
562.1312044002134
 20
1144.543994262201
 30
0.0
 10
562.1343537835282
 20
1144.642977108071
 30
0.0
  0
SPLINE
  5
3652
330
A
100
AcDbEntity
  8
HIDDEN
 48
0.25
100
AcDbSpline
210
0.0
220
0.0
230
1.0
 70
     8
 71
     3
 72
    14
 73
    10
 74
     0
 42
0.000000001
 43
0.0000000001
 40
0.0
 40
0.0
 40
0.0
 40
0.0
 40
0.1190673187877928
 40
0.2873714633672657
 40
0.456337602439542
 40
0.6253149617224156
 40
0.7956638900089623
 40
0.9666941967023839
 40
1.0
 40
1.0
 40
1.0
 40
1.0
 10
574.1342625977422
 20
1133.246456200229
 30
0.0
 10
573.3980393717443
 20
1133.214835292081
 30
0.0
 10
571.6615029992772
 20
1133.287064241406
 30
0.0
 10
568.9878217124433
 20
1134.051780308899
 30
0.0
 10
566.3804174711122
 20
1135.461988388107
 30
0.0
 10
564.264076940542
 20
1137.396749950162
 30
0.0
 10
562.8541980688251
 20
1139.694428941596
 30
0.0
 10
562.1871903154183
 20
1141.531610397465
 30
0.0
 10
562.2081168488962
 20
1142.540451796165
 30
0.0
 10
562.2185456014572
 20
1142.70558220602
 30
0.0
  0
SPLINE
  5
3653
330
A
100
AcDbEntity
  8
HIDDEN
 48
0.25
100
AcDbSpline
210
0.0
220
0.0
230
1.0
 70
     8
 71
     3
 72
    14
 73
    10
 74
     0
 42
0.000000001
 43
0.0000000001
 40
0.0
 40
0.0
 40
0.0
 40
0.0
 40
0.141358627049816
 40
0.3094717606988899
 40
0.4751570674875015
 40
0.6390135965595579
 40
0.8012218358327915
 40
0.963251156169154
 40
1.0
 40
1.0
 40
1.0
 40
1.0
 10
586.0765346859203
 20
1143.461960957259
 30
0.0
 10
586.1076464973103
 20
1142.713458959882
 30
0.0
 10
585.9570206496951
 20
1141.113741692666
 30
0.0
 10
584.9355302509662
 20
1138.716959885208
 30
0.0
 10
583.1493764187262
 20
1136.503387903865
 30
0.0
 10
580.7548367620702
 20
1134.741026122227
 30
0.0
 10
577.9279511127334
 20
1133.612710194337
 30
0.0
 10
575.6323148673273
 20
1133.130297705988
 30
0.0
 10
574.3694688602573
 20
1133.211530539694
 30
0.0
 10
574.1349637272301
 20
1133.234904131538
 30
0.0
  0
SPLINE
  5
3654
330
A
100
AcDbEntity
  8
HIDDEN
 48
0.25
100
AcDbSpline
210
0.0
220
0.0
230
1.0
 70
     8
 71
     3
 72
    10
 73
     6
 74
     0
 42
0.000000001
 43
0.0000000001
 40
0.0
 40
0.0
 40
0.0
 40
0.0
 40
0.6200594752554855
 40
0.6200594752554855
 40
1.0
 40
1.0
 40
1.0
 40
1.0
 10
562.1883654267381
 20
1144.407972138518
 30
0.0
 10
562.1467835824451
 20
1144.045612619278
 30
0.0
 10
562.1275751917501
 20
1143.684047365315
 30
0.0
 10
562.1314722860711
 20
1143.102191781534
 30
0.0
 10
562.1410737955684
 20
1142.881414265478
 30
0.0
 10
562.1587906644431
 20
1142.660935219963
 30
0.0
  0
LINE
  5
3655
330
A
100
AcDbEntity
  8
MODEL
100
AcDbLine
 10
871.1297896697952
 20
1189.278701361679
 30
0.0
 11
277.1297728558852
 21
1189.278701361679
 31
0.0
  0
LINE
  5
365F
330
A
100
AcDbEntity
  8
HIDDEN
 48
0.5
100
AcDbLine
 10
596.7456416812693
 20
1057.614954281162
 30
0.0
 11
596.4255811960154
 21
1039.278701361679
 31
0.0
  0
LINE
  5
3664
330
A
100
AcDbEntity
  8
HIDDEN
 48
0.5
100
AcDbLine
 10
608.5703255495373
 20
1067.404350930016
 30
0.0
 11
598.0244554576834
 21
1060.020053194717
 31
0.0
  0
ARC
  5
3666
330
A
100
AcDbEntity
  8
HIDDEN
 48
0.5
100
AcDbCircle
 10
599.7451847667371
 20
1057.562597061851
 30
0.0
 40
3.0
100
AcDbArc
 50
124.9999999998974
 51
178.9999999999983
  0
SPLINE
  5
3668
330
A
100
AcDbEntity
  8
MODEL
100
AcDbSpline
210
0.0
220
0.0
230
1.0
 70
    12
 71
     5
 72
    12
 73
     6
 74
     0
 42
0.000000001
 43
0.0000000001
 40
0.0
 40
0.0
 40
0.0
 40
0.0
 40
0.0
 40
0.0
 40
1.0
 40
1.0
 40
1.0
 40
1.0
 40
1.0
 40
1.0
 10
871.1300114301903
 20
1189.278701361679
 30
0.0
 41
1.0
 10
870.9203595839329
 20
1189.278701361679
 30
0.0
 41
0.9939231012049881
 10
870.711019409236
 20
1189.260442713983
 30
0.0
 41
0.9908846518074821
 10
870.5039195357763
 20
1189.223925418592
 30
0.0
 41
0.9908846518074821
 10
870.3009592930882
 20
1189.16948437854
 30
0.0
 41
0.9939231012049881
 10
870.1039510002201
 20
1189.097779224037
 30
0.0
 41
1.0
  0
SPLINE
  5
366D
330
A
100
AcDbEntity
  8
MODEL
100
AcDbSpline
210
0.0
220
0.0
230
1.0
 70
     8
 71
     3
 72
    22
 73
    18
 74
     0
 42
0.000000001
 43
0.0000000001
 40
0.0
 40
0.0
 40
0.0
 40
0.0
 40
0.125
 40
0.125
 40
0.25
 40
0.25
 40
0.375
 40
0.375
 40
0.5
 40
0.5
 40
0.625
 40
0.625
 40
0.75
 40
0.75
 40
0.875
 40
0.875
 40
1.0
 40
1.0
 40
1.0
 40
1.0
 10
873.9975023687052
 20
1185.396955213914
 30
0.0
 10
874.0661725935333
 20
1185.620275203803
 30
0.0
 10
874.1086332112441
 20
1185.851642466026
 30
0.0
 10
874.138836240495
 20
1186.317944362549
 30
0.0
 10
874.126577155931
 20
1186.552855898976
 30
0.0
 10
874.0480015455523
 20
1187.013481074035
 30
0.0
 10
873.9816889119293
 20
1187.239171895984
 30
0.0
 10
873.7986044257532
 20
1187.669090181894
 30
0.0
 10
873.6818416421424
 20
1187.873296350213
 30
0.0
 10
873.4041970099252
 20
1188.249146178026
 30
0.0
 10
873.2433289142041
 20
1188.420771220112
 30
0.0
 10
872.8862112220932
 20
1188.722129076909
 30
0.0
 10
872.6899793152384
 20
1188.851846964109
 30
0.0
 10
872.2727941802204
 20
1189.06233719763
 30
0.0
 10
872.0518616169993
 20
1189.143099117493
 30
0.0
 10
871.5972786942411
 20
1189.25128378182
 30
0.0
 10
871.3636508521131
 20
1189.278701167447
 30
0.0
 10
871.1300114140595
 20
1189.278701361679
 30
0.0
  0
SPLINE
  5
3677
330
A
100
AcDbEntity
  8
HIDDEN
 48
0.5
100
AcDbSpline
210
0.0
220
0.0
230
1.0
 70
     8
 71
     3
 72
    37
 73
    33
 74
     0
 42
0.000000001
 43
0.0000000001
 40
0.0
 40
0.0
 40
0.0
 40
0.0
 40
0.0636442318822835
 40
0.0954663478234252
 40
0.1272884637645669
 40
0.1591105797057087
 40
0.1909326956468504
 40
0.2227548115879921
 40
0.2545769275291339
 40
0.2863990434702756
 40
0.3023101014408465
 40
0.3182211594114173
 40
0.3341322173819882
 40
0.350043275352559
 40
0.3659543333231299
 40
0.3818653912937008
 40
0.4136875072348425
 40
0.4455096231759842
 40
0.477331739117126
 40
0.5091538550582677
 40
0.5409759709994094
 40
0.5727980869405511
 40
0.6364423188228346
 40
0.700086550705118
 40
0.7319086666462599
 40
0.7637307825874016
 40
0.7796418405579724
 40
0.7955528985285433
 40
0.827375014469685
 40
0.8910192463519685
 40
0.9546634782342519
 40
1.0
 40
1.0
 40
1.0
 40
1.0
 10
830.1300114302044
 20
1136.64552081895
 30
0.0
 10
828.2767688527501
 20
1133.435610516065
 30
0.0
 10
825.5481618616664
 20
1128.704796292134
 30
0.0
 10
821.8314308353783
 20
1122.379851165784
 30
0.0
 10
818.9481321674953
 20
1117.588136585683
 30
0.0
 10
815.9002624009063
 20
1112.717367516677
 30
0.0
 10
812.5976471245644
 20
1107.753196608482
 30
0.0
 10
808.9148043396831
 20
1102.712249062517
 30
0.0
 10
804.672975018429
 20
1097.670942429494
 30
0.0
 10
800.4700257551281
 20
1093.623289420821
 30
0.0
 10
796.5863640481011
 20
1090.640824493833
 30
0.0
 10
793.3971230438165
 20
1088.579191326485
 30
0.0
 10
789.9289490782371
 20
1086.729869422253
 30
0.0
 10
786.1933999885714
 20
1085.111601122127
 30
0.0
 10
782.2113921189862
 20
1083.722627928853
 30
0.0
 10
776.6252986078453
 20
1082.15563985735
 30
0.0
 10
769.2122691357772
 20
1080.658635603716
 30
0.0
 10
759.8312419194312
 20
1079.346069446037
 30
0.0
 10
750.1036920613824
 20
1078.32427198536
 30
0.0
 10
740.1401692545451
 20
1077.47387588962
 30
0.0
 10
730.040695866131
 20
1076.723448253553
 30
0.0
 10
716.5197903973872
 20
1075.803320295501
 30
0.0
 10
699.7489245149313
 20
1074.746332805008
 30
0.0
 10
683.7649573429862
 20
1073.766658122136
 30
0.0
 10
671.813977798532
 20
1073.037240257693
 30
0.0
 10
664.7697534931913
 20
1072.607892412723
 30
0.0
 10
659.4355824168724
 20
1072.282735199575
 30
0.0
 10
654.3114175300125
 20
1071.970371354533
 30
0.0
 10
645.8450512813342
 20
1071.454144149872
 30
0.0
 10
634.9438782165794
 20
1070.788672367203
 30
0.0
 10
624.1425570271513
 20
1070.128424190476
 30
0.0
 10
617.5000059956051
 20
1069.722145072077
 30
0.0
 10
614.7206215495444
 20
1069.552141608774
 30
0.0
  0
SPLINE
  5
3679
330
A
100
AcDbEntity
  8
HIDDEN
 48
0.5
100
AcDbSpline
210
0.0
220
0.0
230
1.0
 70
     8
 71
     3
 72
    14
 73
    10
 74
     0
 42
0.000000001
 43
0.0000000001
 40
0.0
 40
0.0
 40
0.0
 40
0.0
 40
0.25
 40
0.25
 40
0.5
 40
0.5
 40
0.75
 40
0.75
 40
1.0
 40
1.0
 40
1.0
 40
1.0
 10
614.7206215498713
 20
1069.552141608794
 30
0.0
 10
614.1718716223604
 20
1069.518576842935
 30
0.0
 10
613.625435215702
 20
1069.447241865674
 30
0.0
 10
612.5474829070563
 20
1069.230375256687
 30
0.0
 10
612.0159734106542
 20
1069.084844913666
 30
0.0
 10
610.9779000118842
 20
1068.722331569653
 30
0.0
 10
610.4713422781333
 20
1068.505350722849
 30
0.0
 10
609.4927269927621
 20
1068.004028043303
 30
0.0
 10
609.020675256424
 20
1067.719689189607
 30
0.0
 10
608.5703255495373
 20
1067.404350930016
 30
0.0
  0
SPLINE
  5
367B
330
A
100
AcDbEntity
  8
MODEL
100
AcDbSpline
210
0.0
220
0.0
230
1.0
 70
    12
 71
     2
 72
     6
 73
     3
 74
     0
 42
0.000000001
 43
0.0000000001
 40
0.0
 40
0.0
 40
0.0
 40
1.0
 40
1.0
 40
1.0
 10
804.1299005500002
 20
1039.278701361679
 30
0.0
 41
0.5018942940518283
 10
848.9257016209128
 20
1103.861874921879
 30
0.0
 41
0.4981577445556717
 10
873.9975057846716
 20
1185.396955294468
 30
0.0
 41
0.501791646401931
  0
SPLINE
  5
368A
330
A
100
AcDbEntity
  8
HIDDEN
 48
0.5
100
AcDbSpline
210
0.0
220
0.0
230
1.0
 70
     8
 71
     3
 72
    37
 73
    33
 74
     0
 42
0.000000001
 43
0.0000000001
 40
0.0
 40
0.0
 40
0.0
 40
0.0
 40
0.0636442318822835
 40
0.0954663478234252
 40
0.1272884637645669
 40
0.1591105797057087
 40
0.1909326956468504
 40
0.2227548115879921
 40
0.2545769275291339
 40
0.2863990434702756
 40
0.3023101014408465
 40
0.3182211594114173
 40
0.3341322173819882
 40
0.350043275352559
 40
0.3659543333231299
 40
0.3818653912937008
 40
0.4136875072348425
 40
0.4455096231759842
 40
0.477331739117126
 40
0.5091538550582677
 40
0.5409759709994094
 40
0.5727980869405511
 40
0.6364423188228346
 40
0.700086550705118
 40
0.7319086666462599
 40
0.7637307825874016
 40
0.7796418405579724
 40
0.7955528985285433
 40
0.827375014469685
 40
0.8910192463519685
 40
0.9546634782342519
 40
1.0
 40
1.0
 40
1.0
 40
1.0
 10
318.1297896697952
 20
1136.64552081895
 30
0.0
 10
319.9830322472494
 20
1133.435610516065
 30
0.0
 10
322.7116392383332
 20
1128.704796292134
 30
0.0
 10
326.4283702646221
 20
1122.379851165784
 30
0.0
 10
329.3116689325043
 20
1117.588136585683
 30
0.0
 10
332.3595386990942
 20
1112.717367516677
 30
0.0
 10
335.6621539754351
 20
1107.753196608482
 30
0.0
 10
339.3449967603174
 20
1102.712249062517
 30
0.0
 10
343.5868260815714
 20
1097.670942429494
 30
0.0
 10
347.7897753448724
 20
1093.623289420821
 30
0.0
 10
351.6734370518984
 20
1090.640824493833
 30
0.0
 10
354.8626780561844
 20
1088.579191326485
 30
0.0
 10
358.3308520217633
 20
1086.729869422253
 30
0.0
 10
362.0664011114291
 20
1085.111601122127
 30
0.0
 10
366.0484089810143
 20
1083.722627928853
 30
0.0
 10
371.6345024921552
 20
1082.15563985735
 30
0.0
 10
379.0475319642223
 20
1080.658635603716
 30
0.0
 10
388.4285591805683
 20
1079.346069446037
 30
0.0
 10
398.1561090386181
 20
1078.32427198536
 30
0.0
 10
408.1196318454545
 20
1077.47387588962
 30
0.0
 10
418.2191052338694
 20
1076.723448253553
 30
0.0
 10
431.7400107026133
 20
1075.803320295501
 30
0.0
 10
448.5108765850682
 20
1074.746332805008
 30
0.0
 10
464.4948437570142
 20
1073.766658122136
 30
0.0
 10
476.4458233014684
 20
1073.037240257693
 30
0.0
 10
483.4900476068083
 20
1072.607892412723
 30
0.0
 10
488.824218683128
 20
1072.282735199575
 30
0.0
 10
493.9483835699884
 20
1071.970371354533
 30
0.0
 10
502.4147498186662
 20
1071.454144149872
 30
0.0
 10
513.3159228834202
 20
1070.788672367203
 30
0.0
 10
524.1172440728492
 20
1070.128424190476
 30
0.0
 10
530.7597951043954
 20
1069.722145072077
 30
0.0
 10
533.5391795504561
 20
1069.552141608774
 30
0.0
  0
DIMENSION
  5
368C
330
A
100
AcDbEntity
  8
Dim
100
AcDbDimension
  2
*D7
 10
873.9972739258824
 20
2284.591927244582
 30
0.0
 11
574.1297812628413
 21
2306.808235838332
 31
0.0
 70
    32
 71
     5
 42
599.7349853260821
 73
     0
 74
     0
 75
     0
  3
tform線あり
100
AcDbAlignedDimension
 13
274.2622885998003
 23
2027.582536221377
 33
0.0
 14
873.9972739258824
 24
2027.582536221377
 34
0.0
100
AcDbRotatedDimension
1001
ACAD
1000
DSTYLE
1002
{
1070
   271
1070
     0
1002
}
  0
DIMENSION
  5
368D
330
A
100
AcDbEntity
  8
Dim
100
AcDbDimension
  2
*D8
 10
1019.469815487742
 20
1774.915192233355
 30
0.0
 11
997.2535068939919
 21
1984.816740669456
 31
0.0
 70
    32
 71
     5
 42
419.8030968722019
 73
     0
 74
     0
 75
     0
  3
tform線あり
100
AcDbAlignedDimension
 13
602.1582177428413
 23
2194.718289105557
 33
0.0
 14
602.1566050274741
 24
1774.915192233355
 34
0.0
 50
90.0
100
AcDbRotatedDimension
1001
ACAD
1000
DSTYLE
1002
{
1070
   271
1070
     0
1002
}
  0
DIMENSION
  5
3691
330
A
100
AcDbEntity
  8
Dim
100
AcDbDimension
  2
*D9
 10
1442.974371355818
 20
945.7414337256893
 30
0.0000000000000003
 11
1590.724240603249
 21
967.9577423194393
 31
0.0000000000000003
 70
    32
 71
     5
 42
295.499738494861
 73
     0
 74
     0
 75
     0
  3
tform線あり
100
AcDbAlignedDimension
 13
1738.474109850679
 23
1029.702341400632
 33
0.0
 14
1442.974371355818
 24
1029.702341401477
 34
0.0
 50
-0.000000000000014
100
AcDbRotatedDimension
1001
ACAD
1000
DSTYLE
1002
{
1070
   271
1070
     0
1002
}
  0
DIMENSION
  5
3773
102
{ACAD_REACTORS
330
3775
102
}
102
{ACAD_XDICTIONARY
360
3774
102
}
330
A
100
AcDbEntity
  8
Dim
  6
Continuous
100
AcDbDimension
  2
*D13
 10
1587.846935788759
 20
1189.278701361679
 30
0.0
 11
1587.846935788759
 21
1290.881216619411
 31
0.0
 70
   160
  1
110(深さ)
 71
     5
 42
120.0
 73
     0
 74
     1
 75
     1
  3
tform線あり
100
AcDbAlignedDimension
 13
1598.885034404018
 23
1069.278701361679
 33
0.0000000000000003
 14
1598.885034404018
 24
1189.278701361679
 34
0.0
 50
90.0
100
AcDbRotatedDimension
1001
ACAD
1000
DSTYLE
1002
{
1070
   271
1070
     0
1002
}
  0
DIMENSION
  5
3811
330
A
100
AcDbEntity
  8
Dim
  6
Continuous
100
AcDbDimension
  2
*D16
 10
804.1299005500001
 20
947.6886000383993
 30
0.0
 11
574.1299005500001
 21
969.9049086321493
 31
0.0
 70
    32
 71
     5
 42
460.0
 73
     0
 74
     0
 75
     0
  3
tform線あり
100
AcDbAlignedDimension
 13
344.1299005500001
 23
1044.036350438399
 33
0.0
 14
804.1299005500001
 24
1044.036350438399
 34
0.0
100
AcDbRotatedDimension
1001
ACAD
1000
DSTYLE
1002
{
1070
   271
1070
     0
1002
}
  0
LINE
  5
38AF
330
A
100
AcDbEntity
  8
MODEL
100
AcDbLine
 10
1738.641939094741
 20
1039.289820573565
 30
0.0
 11
1442.974371355818
 21
1039.893721771671
 31
0.0
  0
LINE
  5
38B0
330
A
100
AcDbEntity
  8
MODEL
100
AcDbLine
 10
804.1299005500002
 20
1039.278701361679
 30
0.0
 11
344.1299005500002
 21
1039.278701361679
 31
0.0
  0
DIMENSION
  5
38B1
330
A
100
AcDbEntity
  8
Dim
  6
Continuous
100
AcDbDimension
  2
*D21
 10
1320.065235212964
 20
1039.27870136168
 30
0.0
 11
1297.848926619214
 21
1114.27870136168
 31
0.0
 70
    32
  1
160
 71
     5
 42
150.0000000000001
 73
     0
 74
     0
 75
     0
 52
-90.0
  3
tform線あり
100
AcDbAlignedDimension
 13
1388.267763980963
 23
1189.27870136168
 33
0.0
 14
1427.395207482634
 24
1039.27870136168
 34
0.0
 50
90.0000000000002
100
AcDbRotatedDimension
1001
ACAD
1000
DSTYLE
1002
{
1070
   271
1070
     0
1002
}
  0
SPLINE
  5
38D0
330
A
100
AcDbEntity
  8
HIDDEN
 48
0.5
100
AcDbSpline
210
0.0
220
0.0
230
1.0
 70
     8
 71
     5
 72
    12
 73
     6
 74
     0
 42
0.000000001
 43
0.0000000001
 40
0.0
 40
0.0
 40
0.0
 40
0.0
 40
0.0
 40
0.0
 40
1.0
 40
1.0
 40
1.0
 40
1.0
 40
1.0
 40
1.0
 10
1795.943265368932
 20
1189.09777922404
 30
0.0
 10
1782.151796292438
 20
1183.061557080993
 30
0.0
 10
1772.996583848654
 20
1166.005059265214
 30
0.0
 10
1765.816018430564
 20
1153.700492743493
 30
0.0
 10
1760.113249295528
 20
1143.823006857779
 30
0.0
 10
1755.969325798908
 20
1136.645520818954
 30
0.0
  0
SPLINE
  5
38D1
330
A
100
AcDbEntity
  8
HIDDEN
 48
0.5
100
AcDbSpline
210
0.0
220
0.0
230
1.0
 70
     8
 71
     5
 72
    12
 73
     6
 74
     0
 42
0.000000001
 43
0.0000000001
 40
0.0
 40
0.0
 40
0.0
 40
0.0
 40
0.0
 40
0.0
 40
1.0
 40
1.0
 40
1.0
 40
1.0
 40
1.0
 40
1.0
 10
278.1558500997712
 20
1189.097779224036
 30
0.0
 10
291.947319176265
 20
1183.061557080989
 30
0.0
 10
301.1025316200491
 20
1166.00505926521
 30
0.0
 10
308.2830970381392
 20
1153.700492743489
 30
0.0
 10
313.9858661731751
 20
1143.823006857775
 30
0.0
 10
318.1297896697952
 20
1136.64552081895
 30
0.0
  0
SPLINE
  5
38D2
330
A
100
AcDbEntity
  8
HIDDEN
 48
0.5
100
AcDbSpline
210
0.0
220
0.0
230
1.0
 70
     8
 71
     5
 72
    12
 73
     6
 74
     0
 42
0.000000001
 43
0.0000000001
 40
0.0
 40
0.0
 40
0.0
 40
0.0
 40
0.0
 40
0.0
 40
1.0
 40
1.0
 40
1.0
 40
1.0
 40
1.0
 40
1.0
 10
870.1037124259092
 20
1189.097779224036
 30
0.0
 10
856.3122433494154
 20
1183.061557080989
 30
0.0
 10
847.1570309056312
 20
1166.00505926521
 30
0.0
 10
839.9764654875412
 20
1153.700492743489
 30
0.0
 10
834.2736963525053
 20
1143.823006857775
 30
0.0
 10
830.1297728558852
 20
1136.64552081895
 30
0.0
  0
MTEXT
  5
406F
330
A
100
AcDbEntity
  8
template
390
1D
100
AcDbMText
 10
1332.000000000742
 20
234.4414968978189
 30
0.0
 40
24.4326171875
 41
0.0
 46
28.390701171875
 71
     1
 72
     1
  1
{11.5kg}
  7
ＭＳ ゴシック
 73
     1
 44
0.7828267384257843
1001
ACAD
1000
ACAD_MTEXT_DEFINED_HEIGHT_BEGIN
1070
    46
1040
28.390701171875
1000
ACAD_MTEXT_DEFINED_HEIGHT_END
  0
MTEXT
  5
4070
330
A
100
AcDbEntity
  8
template
390
1D
100
AcDbMText
 10
1583.000000000742
 20
234.4414968978189
 30
0.0
 40
24.4326171875
 41
0.0
 46
24.4326171875
 71
     1
 72
     1
  1
{6.5L}
  7
ＭＳ ゴシック
 73
     1
 44
0.7828267384257843
1001
ACAD
1000
ACAD_MTEXT_DEFINED_HEIGHT_BEGIN
1070
    46
1040
24.4326171875
1000
ACAD_MTEXT_DEFINED_HEIGHT_END
  0
CIRCLE
  5
40FC
330
A
100
AcDbEntity
  8
HIDDEN
100
AcDbCircle
 10
1542.290324851757
 20
1984.821151172008
 30
0.0
 40
21.90000000000146
  0
SPLINE
  5
40FD
102
{ACAD_REACTORS
330
413F
102
}
330
A
100
AcDbEntity
  8
HIDDEN
100
AcDbSpline
210
0.0
220
0.0
230
1.0
 70
     8
 71
     3
 72
    28
 73
    24
 74
     0
 42
0.000000001
 43
0.0000000001
 40
0.0
 40
0.0
 40
0.0
 40
0.0
 40
6.291744038320658
 40
16.5133577479463
 40
33.01190813293826
 40
50.26830791488273
 40
65.28271594357096
 40
80.2653334521178
 40
95.21506001261777
 40
111.4762164662487
 40
127.767862641699
 40
144.7993150656978
 40
159.4771005631346
 40
176.4446594439077
 40
191.8470988698254
 40
208.7636256502803
 40
241.0049871531016
 40
273.1875291739646
 40
305.332473780123
 40
338.9821696707517
 40
371.0987255097059
 40
390.9773545896106
 40
403.487408177537
 40
403.487408177537
 40
403.487408177537
 40
403.487408177537
 10
1842.284079911772
 20
1984.821151172008
 30
0.0
 10
1842.284079911772
 20
1982.724063287419
 30
0.0
 10
1842.165148628522
 20
1977.219323822449
 30
0.0
 10
1841.305466764733
 20
1966.242384481651
 30
0.0
 10
1838.837510701577
 20
1951.7698325034
 30
0.0
 10
1834.335961468295
 20
1936.122962511346
 30
0.0
 10
1828.466865174046
 20
1921.488252910842
 30
0.0
 10
1821.667359236267
 20
1908.12206986468
 30
0.0
 10
1813.555838840966
 20
1895.019156394641
 30
0.0
 10
1804.141846786445
 20
1882.270766322263
 30
0.0
 10
1793.295215135523
 20
1869.783713585977
 30
0.0
 10
1781.917513201533
 20
1858.518460820863
 30
0.0
 10
1769.651924033216
 20
1847.885602491474
 30
0.0
 10
1757.182038755668
 20
1838.361932115783
 30
0.0
 10
1743.554471016006
 20
1829.175244956392
 30
0.0
 10
1725.061918469818
 20
1818.151475117435
 30
0.0
 10
1700.71427513246
 20
1806.14515986079
 30
0.0
 10
1670.604635768151
 20
1794.670606994644
 30
0.0
 10
1639.167425957722
 20
1785.71573535696
 30
0.0
 10
1607.116242706917
 20
1779.411869252484
 30
0.0
 10
1578.734033166281
 20
1776.147105850535
 30
0.0
 10
1557.256692512473
 20
1775.008944872191
 30
0.0
 10
1546.460193807029
 20
1774.849648637514
 30
0.0
 10
1542.290324851757
 20
1774.849648637514
 30
0.0
  0
SPLINE
  5
40FE
102
{ACAD_REACTORS
330
413F
102
}
330
A
100
AcDbEntity
  8
HIDDEN
100
AcDbSpline
210
0.0
220
0.0
230
1.0
 70
     8
 71
     3
 72
    28
 73
    24
 74
     0
 42
0.000000001
 43
0.0000000001
 40
0.0
 40
0.0
 40
0.0
 40
0.0
 40
6.291744038320665
 40
16.51335774794631
 40
33.01190813293827
 40
50.26830791488276
 40
65.28271594357108
 40
80.26533345211807
 40
95.21506001261804
 40
111.4762164662491
 40
127.7678626416994
 40
144.7993150656982
 40
159.4771005631349
 40
176.444659443908
 40
191.8470988698256
 40
208.7636256502804
 40
241.0049871531011
 40
273.1875291739644
 40
305.3324737801226
 40
338.9821696707513
 40
371.098725509705
 40
390.9773545896097
 40
403.4874081775365
 40
403.4874081775365
 40
403.4874081775365
 40
403.4874081775365
 10
1842.284079911772
 20
1984.821151172008
 30
0.0
 10
1842.284079911772
 20
1986.918239056597
 30
0.0
 10
1842.165148628522
 20
1992.422978521567
 30
0.0
 10
1841.305466764733
 20
2003.399917862365
 30
0.0
 10
1838.837510701577
 20
2017.872469840616
 30
0.0
 10
1834.335961468295
 20
2033.51933983267
 30
0.0
 10
1828.466865174046
 20
2048.154049433175
 30
0.0
 10
1821.667359236267
 20
2061.520232479337
 30
0.0
 10
1813.555838840966
 20
2074.623145949376
 30
0.0
 10
1804.141846786445
 20
2087.371536021753
 30
0.0
 10
1793.295215135523
 20
2099.858588758039
 30
0.0
 10
1781.917513201533
 20
2111.123841523153
 30
0.0
 10
1769.651924033216
 20
2121.756699852543
 30
0.0
 10
1757.182038755668
 20
2131.280370228234
 30
0.0
 10
1743.554471016006
 20
2140.467057387625
 30
0.0
 10
1725.061918469818
 20
2151.490827226581
 30
0.0
 10
1700.71427513246
 20
2163.497142483227
 30
0.0
 10
1670.604635768158
 20
2174.971695349373
 30
0.0
 10
1639.167425957722
 20
2183.926566987057
 30
0.0
 10
1607.116242706917
 20
2190.230433091532
 30
0.0
 10
1578.734033166281
 20
2193.495196493482
 30
0.0
 10
1557.256692512473
 20
2194.633357471826
 30
0.0
 10
1546.460193807029
 20
2194.792653706502
 30
0.0
 10
1542.290324851757
 20
2194.792653706502
 30
0.0
  0
SPLINE
  5
40FF
102
{ACAD_REACTORS
330
413F
102
}
330
A
100
AcDbEntity
  8
HIDDEN
100
AcDbSpline
210
0.0
220
0.0
230
1.0
 70
     8
 71
     3
 72
    28
 73
    24
 74
     0
 42
0.000000001
 43
0.0000000001
 40
0.0
 40
0.0
 40
0.0
 40
0.0
 40
6.29174403832066
 40
16.51335774794631
 40
33.01190813293825
 40
50.26830791488272
 40
65.28271594357115
 40
80.2653334521183
 40
95.21506001261848
 40
111.4762164662494
 40
127.7678626416997
 40
144.7993150656985
 40
159.4771005631355
 40
176.4446594439087
 40
191.8470988698263
 40
208.763625650281
 40
241.0049871531017
 40
273.1875291739651
 40
305.3324737801237
 40
338.9821696707527
 40
371.0987255097066
 40
390.9773545896114
 40
403.4874081775368
 40
403.4874081775368
 40
403.4874081775368
 40
403.4874081775368
 10
1242.296569791742
 20
1984.821151172008
 30
0.0
 10
1242.296569791742
 20
1986.918239056597
 30
0.0
 10
1242.415501074985
 20
1992.422978521567
 30
0.0
 10
1243.275182938774
 20
2003.399917862365
 30
0.0
 10
1245.743139001929
 20
2017.872469840616
 30
0.0
 10
1250.244688235219
 20
2033.51933983267
 30
0.0
 10
1256.113784529461
 20
2048.154049433175
 30
0.0
 10
1262.913290467247
 20
2061.520232479337
 30
0.0
 10
1271.024810862548
 20
2074.623145949377
 30
0.0
 10
1280.438802917061
 20
2087.371536021753
 30
0.0
 10
1291.285434567984
 20
2099.858588758039
 30
0.0
 10
1302.663136501981
 20
2111.123841523155
 30
0.0
 10
1314.928725670291
 20
2121.756699852543
 30
0.0
 10
1327.398610947838
 20
2131.280370228234
 30
0.0
 10
1341.026178687508
 20
2140.467057387626
 30
0.0
 10
1359.518731233689
 20
2151.490827226581
 30
0.0
 10
1383.866374571047
 20
2163.497142483227
 30
0.0
 10
1413.976013935356
 20
2174.971695349373
 30
0.0
 10
1445.413223745792
 20
2183.926566987057
 30
0.0
 10
1477.46440699659
 20
2190.230433091533
 30
0.0
 10
1505.846616537233
 20
2193.495196493482
 30
0.0
 10
1527.323957191041
 20
2194.633357471826
 30
0.0
 10
1538.120455896485
 20
2194.792653706502
 30
0.0
 10
1542.290324851757
 20
2194.792653706502
 30
0.0
  0
SPLINE
  5
4100
102
{ACAD_REACTORS
330
413F
102
}
330
A
100
AcDbEntity
  8
HIDDEN
100
AcDbSpline
210
0.0
220
0.0
230
1.0
 70
     8
 71
     3
 72
    28
 73
    24
 74
     0
 42
0.000000001
 43
0.0000000001
 40
0.0
 40
0.0
 40
0.0
 40
0.0
 40
6.291744038320673
 40
16.51335774794634
 40
33.01190813293832
 40
50.2683079148828
 40
65.28271594357163
 40
80.26533345211917
 40
95.21506001261973
 40
111.4762164662507
 40
127.7678626417011
 40
144.7993150656999
 40
159.4771005631368
 40
176.4446594439098
 40
191.8470988698272
 40
208.7636256502821
 40
241.0049871531031
 40
273.1875291739665
 40
305.3324737801246
 40
338.9821696707534
 40
371.0987255097074
 40
390.977354589612
 40
403.4874081775368
 40
403.4874081775368
 40
403.4874081775368
 40
403.4874081775368
 10
1242.296569791742
 20
1984.821151172008
 30
0.0
 10
1242.296569791742
 20
1982.724063287419
 30
0.0
 10
1242.415501074985
 20
1977.219323822449
 30
0.0
 10
1243.275182938774
 20
1966.242384481651
 30
0.0
 10
1245.743139001929
 20
1951.7698325034
 30
0.0
 10
1250.244688235219
 20
1936.122962511345
 30
0.0
 10
1256.113784529461
 20
1921.488252910841
 30
0.0
 10
1262.913290467247
 20
1908.122069864678
 30
0.0
 10
1271.024810862548
 20
1895.01915639464
 30
0.0
 10
1280.438802917061
 20
1882.270766322262
 30
0.0
 10
1291.285434567984
 20
1869.783713585976
 30
0.0
 10
1302.663136501981
 20
1858.518460820861
 30
0.0
 10
1314.928725670298
 20
1847.885602491473
 30
0.0
 10
1327.398610947838
 20
1838.361932115782
 30
0.0
 10
1341.026178687508
 20
1829.17524495639
 30
0.0
 10
1359.518731233689
 20
1818.151475117434
 30
0.0
 10
1383.866374571047
 20
1806.14515986079
 30
0.0
 10
1413.976013935356
 20
1794.670606994644
 30
0.0
 10
1445.413223745792
 20
1785.71573535696
 30
0.0
 10
1477.46440699659
 20
1779.411869252484
 30
0.0
 10
1505.846616537233
 20
1776.147105850535
 30
0.0
 10
1527.323957191041
 20
1775.008944872191
 30
0.0
 10
1538.120455896485
 20
1774.849648637514
 30
0.0
 10
1542.290324851757
 20
1774.849648637514
 30
0.0
  0
MTEXT
  5
410F
330
A
100
AcDbEntity
  8
Dim
390
1D
100
AcDbMText
 10
1400.108700762468
 20
2334.285164965534
 30
34.99521132346015
 40
24.0
 41
0.0
 46
27.413396484375
 71
     1
 72
     1
  1
{カウンター切込寸法}
  7
ＭＳ ゴシック
 73
     1
 44
0.7828267384257843
1001
ACAD
1000
ACAD_MTEXT_DEFINED_HEIGHT_BEGIN
1070
    46
1040
27.413396484375
1000
ACAD_MTEXT_DEFINED_HEIGHT_END
  0
MTEXT
  5
4110
330
A
100
AcDbEntity
  8
Dim
390
1D
100
AcDbMText
 10
1285.571414046243
 20
1715.481570100813
 30
34.99521132346015
 40
24.0
 41
1169.771715461011
 46
120.6272086110942
 71
     1
 72
     1
  1
{※陶器製品には寸法公差があります。\P  必ず現物を合わせてカウンターに切込を\P  行ってください。}
  7
ＭＳ ゴシック
 73
     1
 44
1.174240107638677
1001
ACAD
1000
ACAD_MTEXT_DEFINED_HEIGHT_BEGIN
1070
    46
1040
120.6272086110942
1000
ACAD_MTEXT_DEFINED_HEIGHT_END
  0
CIRCLE
  5
4153
102
{ACAD_REACTORS
330
4155
102
}
330
A
100
AcDbEntity
  8
MODEL
  6
Continuous
100
AcDbCircle
 10
1542.290324851757
 20
1984.821151172008
 30
0.0
 40
60.0
  0
HATCH
  5
4155
330
A
100
AcDbEntity
  8
Dim
  6
Continuous
100
AcDbHatch
 10
0.0
 20
0.0
 30
0.0
210
0.0
220
0.0
230
1.0
  2
ANSI31
 70
     0
 71
     1
 91
        1
 92
        1
 93
        1
 72
     2
 10
1542.290324851757
 20
1984.821151172008
 40
60.0
 50
0.0
 51
360.0
 73
     1
 97
        1
330
4153
 75
     0
 76
     1
 52
0.0
 41
6.0
 77
     0
 78
     1
 53
45.0
 43
0.0
 44
0.0
 45
-13.47038418160373
 46
13.47038418160373
 79
     0
 98
        1
 10
0.0
 20
0.0
1001
ACAD
1010
0.0
1020
0.0
1030
0.0
  0
LINE
  5
4156
330
A
100
AcDbEntity
  8
Dim
  6
Continuous
100
AcDbLine
 10
1563.778036470977
 20
2040.841488991136
 30
0.0
 11
1680.891599551488
 21
2200.106775449088
 31
0.0
  0
LINE
  5
4157
330
A
100
AcDbEntity
  8
Dim
  6
Continuous
100
AcDbLine
 10
1680.891599551488
 20
2200.106775449088
 30
0.0
 11
1768.480463551488
 21
2200.106775449088
 31
0.0
  0
MTEXT
  5
4158
330
A
100
AcDbEntity
  8
Dim
390
1D
100
AcDbMText
 10
1691.312477274468
 20
2236.477600165534
 30
34.99521132346015
 40
24.0
 41
0.0
 46
24.0
 71
     1
 72
     1
  1
{%%c120}
  7
ＭＳ ゴシック
 73
     1
 44
0.7828267384257843
1001
ACAD
1000
ACAD_MTEXT_DEFINED_HEIGHT_BEGIN
1070
    46
1040
24.0
1000
ACAD_MTEXT_DEFINED_HEIGHT_END
  0
VIEWPORT
  5
349
330
B
100
AcDbEntity
 67
     1
  8
0
100
AcDbViewport
 10
202.5
 20
128.5
 30
0.0
 40
486.0
 41
308.4
 68
     1
 69
     1
 12
202.5
 22
128.5
 13
0.0
 23
0.0
 14
0.5
 24
0.5
 15
0.0
 25
0.0
 16
0.0
 26
0.0
 36
1.0
 17
0.0
 27
0.0
 37
0.0
 42
50.0
 43
0.0
 44
0.0
 45
308.4
 50
0.0
 51
0.0
 72
   100
 90
   557152
  1

281
     0
 71
     1
 74
     0
110
0.0
120
0.0
130
0.0
111
1.0
121
0.0
131
0.0
112
0.0
122
1.0
132
0.0
 79
     0
146
0.0
170
     0
 61
     5
348
26C
292
     1
282
     1
141
0.0
142
0.0
 63
   256
  0
VIEWPORT
  5
34A
330
B
100
AcDbEntity
 67
     1
  8
0
100
AcDbViewport
 10
202.5
 20
128.5
 30
0.0
 40
324.0
 41
205.6
 68
     2
 69
     2
 12
986.6781359294573
 22
1427.077061889956
 13
0.0
 23
0.0
 14
0.5
 24
0.5
 15
0.0
 25
0.0
 16
0.0
 26
0.0
 36
1.0
 17
0.0
 27
0.0
 37
0.0
 42
50.0
 43
0.0
 44
0.0
 45
2890.021615685494
 50
0.0
 51
0.0
 72
   100
 90
   557152
  1

281
     0
 71
     1
 74
     0
110
0.0
120
0.0
130
0.0
111
1.0
121
0.0
131
0.0
112
0.0
122
1.0
132
0.0
 79
     0
146
0.0
170
     0
 61
     5
348
26C
292
     1
282
     1
141
0.0
142
0.0
 63
   256
  0
ENDSEC
  0
SECTION
  2
OBJECTS
  0
DICTIONARY
  5
19
330
0
100
AcDbDictionary
281
     1
  3
ACAD_COLOR
350
38F
  3
ACAD_DETAILVIEWSTYLE
350
8CF
  3
ACAD_FIELDLIST
350
BA6
  3
ACAD_GROUP
350
1A
  3
ACAD_IMAGE_VARS
350
27B
  3
ACAD_LAYOUT
350
1E
  3
ACAD_MATERIAL
350
263
  3
ACAD_MLEADERSTYLE
350
336
  3
ACAD_MLINESTYLE
350
1B
  3
ACAD_PLOTSETTINGS
350
22
  3
ACAD_PLOTSTYLENAME
350
1F
  3
ACAD_SCALELIST
350
241
  3
ACAD_SECTIONVIEWSTYLE
350
8D0
  3
ACAD_TABLESTYLE
350
278
  3
ACAD_VISUALSTYLE
350
267
  3
ACDB_RECOMPOSE_DATA
350
4164
  3
AcDbVariableDictionary
350
330
  3
APPDATA
350
27A
  3
DimOffsetDictionary
350
C08
  0
SUN
  5
8C2
330
15
100
AcDbSun
 90
        1
290
     0
 63
     7
421
 16777215
 40
1.0
291
     1
 91
  2455826
 92
 54000000
292
     0
 70
     2
 71
   256
280
     1
  0
DICTIONARY
  5
2E1
330
2
100
AcDbDictionary
280
     1
281
     1
  3
ACAD_LAYERSTATES
360
2E2
  3
ACLYDICTIONARY
360
BFE
  0
DICTIONARY
  5
39F0
330
39EF
100
AcDbDictionary
280
     1
281
     1
  3
ADSK_XREC_LAYER_RECONCILED
360
39F1
  0
DICTIONARY
  5
39F6
330
39F5
100
AcDbDictionary
280
     1
281
     1
  3
ADSK_XREC_LAYER_RECONCILED
360
39F7
  0
DICTIONARY
  5
37F8
330
A
100
AcDbDictionary
280
     1
281
     1
  3
ACAD_SORTENTS
360
37F9
  0
DICTIONARY
  5
BDC
330
BDB
100
AcDbDictionary
280
     1
281
     1
  3
ACAD_FIELD
360
4071
  0
DICTIONARY
  5
3774
330
3773
100
AcDbDictionary
280
     1
281
     1
  3
ACAD_DIMASSOC
360
3775
  0
DICTIONARY
  5
38F
102
{ACAD_REACTORS
330
19
102
}
330
19
100
AcDbDictionary
281
     1
  0
DICTIONARY
  5
8CF
102
{ACAD_REACTORS
330
19
102
}
330
19
100
AcDbDictionary
281
     1
  0
FIELDLIST
  5
BA6
102
{ACAD_REACTORS
330
19
102
}
330
19
100
AcDbIdSet
 90
        2
330
BDF
330
BDE
100
AcDbFieldList
  0
DICTIONARY
  5
1A
102
{ACAD_REACTORS
330
19
102
}
330
19
100
AcDbDictionary
281
     1
  3
*A1
350
413F
  0
RASTERVARIABLES
  5
27B
102
{ACAD_REACTORS
330
19
102
}
330
19
100
AcDbRasterVariables
 90
        0
 70
     1
 71
     1
 72
     1
  0
DICTIONARY
  5
1E
102
{ACAD_REACTORS
330
19
102
}
330
19
100
AcDbDictionary
281
     1
  3
Layout1
350
21
  3
Model
350
20
  0
DICTIONARY
  5
263
102
{ACAD_REACTORS
330
19
102
}
330
19
100
AcDbDictionary
281
     1
  3
ByBlock
350
265
  3
ByLayer
350
264
  3
Global
350
266
  0
DICTIONARY
  5
336
102
{ACAD_REACTORS
330
19
102
}
330
19
100
AcDbDictionary
281
     1
  3
Standard
350
8D1
  0
DICTIONARY
  5
1B
102
{ACAD_REACTORS
330
19
102
}
330
19
100
AcDbDictionary
281
     1
  3
Standard
350
1C
  0
DICTIONARY
  5
22
102
{ACAD_REACTORS
330
19
102
}
330
19
100
AcDbDictionary
281
     1
  0
ACDBDICTIONARYWDFLT
  5
1F
102
{ACAD_REACTORS
330
19
102
}
330
19
100
AcDbDictionary
281
     1
  3
Normal
350
1D
100
AcDbDictionaryWithDefault
340
1D
  0
DICTIONARY
  5
241
102
{ACAD_REACTORS
330
19
102
}
330
19
100
AcDbDictionary
281
     1
  3
A0
350
242
  3
A1
350
243
  3
A2
350
244
  3
A3
350
245
  3
A4
350
246
  3
A5
350
247
  3
A6
350
248
  3
A7
350
249
  3
A8
350
24A
  3
A9
350
24B
  3
B0
350
24C
  3
B1
350
24D
  3
B2
350
24E
  3
B3
350
24F
  3
B4
350
250
  3
B5
350
251
  3
B6
350
252
  3
B7
350
253
  3
B8
350
254
  3
B9
350
255
  3
C0
350
256
  3
C1
350
257
  3
C2
350
258
  3
C3
350
259
  3
C4
350
25A
  3
C5
350
25B
  3
C6
350
25C
  3
C7
350
25D
  3
C8
350
25E
  3
C9
350
25F
  3
D0
350
260
  3
D1
350
261
  3
D2
350
262
  0
DICTIONARY
  5
8D0
102
{ACAD_REACTORS
330
19
102
}
330
19
100
AcDbDictionary
281
     1
  0
DICTIONARY
  5
278
102
{ACAD_REACTORS
330
19
102
}
330
19
100
AcDbDictionary
281
     1
  3
Standard
350
279
  0
DICTIONARY
  5
267
102
{ACAD_REACTORS
330
19
102
}
330
19
100
AcDbDictionary
281
     1
  3
2dWireframe
350
26C
  3
3D Hidden
350
26E
  3
3dWireframe
350
26D
  3
Basic
350
26F
  3
Brighten
350
273
  3
ColorChange
350
277
  3
Conceptual
350
271
  3
Dim
350
272
  3
EdgeColorOff
350
8BC
  3
Facepattern
350
276
  3
Flat
350
268
  3
FlatWithEdges
350
269
  3
Gouraud
350
26A
  3
GouraudWithEdges
350
26B
  3
Hidden
350
8B9
  3
JitterOff
350
8BA
  3
Linepattern
350
275
  3
OverhangOff
350
8BB
  3
Realistic
350
270
  3
Shaded
350
8C1
  3
Shaded with edges
350
8C0
  3
Shades of Gray
350
8BD
  3
Sketchy
350
8BE
  3
Thicken
350
274
  3
Wireframe
350
8B8
  3
X-Ray
350
8BF
  0
XRECORD
  5
4164
102
{ACAD_REACTORS
330
19
102
}
330
19
100
AcDbXrecord
280
     1
 90
        1
330
279
  0
DICTIONARY
  5
330
102
{ACAD_REACTORS
330
19
102
}
330
19
100
AcDbDictionary
281
     1
  3
CANNOSCALE
350
331
  3
CMLEADERSTYLE
350
8DA
  3
CTABLESTYLE
350
335
  3
HPTRANSPARENCY
350
C07
  3
XCLIPFRAME
350
64A
  0
DICTIONARY
  5
27A
102
{ACAD_REACTORS
330
19
102
}
330
19
100
AcDbDictionary
281
     1
  0
DICTIONARY
  5
C08
102
{ACAD_REACTORS
330
19
102
}
330
19
100
AcDbDictionary
281
     1
  3
DIMRAILANGLE
350
2C1E
  3
DIMRAILFIRSTOFFSET
350
2C1C
  3
DIMRAILOFFSET
350
2C1D
  3
DIMRAILSENABLED
350
2C1F
  0
DICTIONARY
  5
2E2
102
{ACAD_REACTORS
330
2E1
102
}
330
2E1
100
AcDbDictionary
281
     1
  0
DICTIONARY
  5
BFE
102
{ACAD_REACTORS
330
2E1
102
}
330
2E1
100
AcDbDictionary
281
     1
1001
ACAD
1000
<All
  0
XRECORD
  5
39F1
102
{ACAD_REACTORS
330
39F0
102
}
330
39F0
100
AcDbXrecord
280
     1
290
     1
  0
XRECORD
  5
39F7
102
{ACAD_REACTORS
330
39F6
102
}
330
39F6
100
AcDbXrecord
280
     1
290
     1
  0
SORTENTSTABLE
  5
37F9
102
{ACAD_REACTORS
330
37F8
102
}
330
37F8
100
AcDbSortentsTable
330
A
331
4153
  5
4155
331
0
  5
4153
331
4155
  5
4154
  0
DICTIONARY
  5
4071
102
{ACAD_REACTORS
330
BDC
102
}
330
BDC
100
AcDbDictionary
280
     1
281
     1
  3
TEXT
360
BDE
  0
DIMASSOC
  5
3775
102
{ACAD_REACTORS
330
3774
102
}
330
3774
100
AcDbDimAssoc
330
3773
 90
        3
 70
     0
 71
     1
  1
AcDbOsnapPointRef
 72
     1
331
35B3
 73
     0
 91
        0
 40
0.0
 10
0.0
 20
0.0
 30
0.0
 75
     0
  1
AcDbOsnapPointRef
 72
     8
331
35B7
 73
     0
 91
        0
 40
0.480322463759459
 10
0.0
 20
0.0
 30
0.0
 75
     1
  1
AcDbOsnapPointRef
 72
     1
331
35B3
 73
     0
 91
        0
 40
0.0
 10
0.0
 20
0.0
 30
0.0
 75
     0
  0
GROUP
  5
413F
102
{ACAD_REACTORS
330
1A
102
}
330
1A
100
AcDbGroup
300

 70
     1
 71
     1
340
40FF
340
4100
340
40FD
340
40FE
  0
LAYOUT
  5
21
102
{ACAD_REACTORS
330
1E
102
}
330
1E
100
AcDbPlotSettings
  1

  2
none_device
  4
ISO_A3_(420.00_x_297.00_MM)
  6

 40
7.5
 41
20.0
 42
7.5
 43
20.0
 44
420.0
 45
297.0
 46
0.0
 47
0.0
 48
0.0
 49
0.0
140
0.0
141
0.0
142
1.0
143
1.0
 70
     0
 72
     1
 73
     0
 74
     0
  7

 75
     0
 76
     0
 77
     2
 78
   300
147
1.0
148
0.0
149
0.0
100
AcDbLayout
  1
Layout1
 70
     0
 71
     0
 10
0.0
 20
0.0
 11
0.0
 21
0.0
 12
0.0
 22
0.0
 32
0.0
 14
0.0
 24
0.0
 34
0.0
 15
0.0
 25
0.0
 35
0.0
146
0.0
 13
0.0
 23
0.0
 33
0.0
 16
0.0
 26
0.0
 36
0.0
 17
0.0
 27
0.0
 37
0.0
 76
     0
330
B
331
349
  0
LAYOUT
  5
20
102
{ACAD_REACTORS
330
1E
102
}
330
1E
100
AcDbPlotSettings
  1

  2
none_device
  4
ISO_A3_(420.00_x_297.00_MM)
  6

 40
7.5
 41
20.0
 42
7.5
 43
20.0
 44
420.0
 45
297.0
 46
0.0
 47
0.0
 48
0.0
 49
0.0
140
0.0
141
0.0
142
1.0
143
1.0
 70
  1024
 72
     1
 73
     0
 74
     0
  7

 75
     0
 76
     0
 77
     2
 78
   300
147
1.0
148
0.0
149
0.0
100
AcDbLayout
  1
Model
 70
     0
 71
     1
 10
0.0
 20
0.0
 11
2100.0
 21
2970.0
 12
0.0
 22
0.0
 32
0.0
 14
0.0
 24
0.0
 34
0.0
 15
2100.0
 25
2970.0
 35
34.99521132346015
146
0.0
 13
0.0
 23
0.0
 33
0.0
 16
0.0
 26
0.0
 36
0.0
 17
0.0
 27
0.0
 37
0.0
 76
     0
330
A
331
15
  0
MATERIAL
  5
265
102
{ACAD_REACTORS
330
263
102
}
330
263
100
AcDbMaterial
  1
ByBlock
 72
     1
 94
      127
  0
MATERIAL
  5
264
102
{ACAD_REACTORS
330
263
102
}
330
263
100
AcDbMaterial
  1
ByLayer
 72
     1
 94
      127
  0
MATERIAL
  5
266
102
{ACAD_REACTORS
330
263
102
}
330
263
100
AcDbMaterial
  1
Global
 72
     1
 94
      127
  0
MLEADERSTYLE
  5
8D1
102
{ACAD_REACTORS
330
336
102
}
330
336
100
AcDbMLeaderStyle
170
     2
171
     1
172
     0
 90
        2
 40
0.0
 41
0.0
173
     1
 91
-1056964608
340
11
 92
       -2
290
     1
 42
2.0
291
     1
 43
8.0
  3
Standard
341
0
 44
4.0
300

342
17
174
     1
178
     6
175
     1
176
     0
 93
-1056964608
 45
4.0
292
     0
297
     0
 46
4.0
343
0
 94
-1056964608
 47
1.0
 49
1.0
140
1.0
293
     1
141
0.0
294
     1
177
     0
142
1.0
295
     0
296
     0
143
3.75
1001
ACAD_MLEADERVER
1070
     2
  0
MLINESTYLE
  5
1C
102
{ACAD_REACTORS
330
1B
102
}
330
1B
100
AcDbMlineStyle
  2
Standard
 70
     0
  3

 62
     0
 51
90.0
 52
90.0
 71
     2
 49
0.5
 62
   256
  6
BYLAYER
 49
-0.5
 62
   256
  6
BYLAYER
  0
ACDBPLACEHOLDER
  5
1D
102
{ACAD_REACTORS
330
1F
102
}
330
1F
  0
SCALE
  5
242
102
{ACAD_REACTORS
330
241
102
}
330
241
100
AcDbScale
 70
     0
300
1:1
140
1.0
141
1.0
290
     1
  0
SCALE
  5
243
102
{ACAD_REACTORS
330
241
102
}
330
241
100
AcDbScale
 70
     0
300
1:2
140
1.0
141
2.0
290
     0
  0
SCALE
  5
244
102
{ACAD_REACTORS
330
241
102
}
330
241
100
AcDbScale
 70
     0
300
1:4
140
1.0
141
4.0
290
     0
  0
SCALE
  5
245
102
{ACAD_REACTORS
330
241
102
}
330
241
100
AcDbScale
 70
     0
300
1:5
140
1.0
141
5.0
290
     0
  0
SCALE
  5
246
102
{ACAD_REACTORS
330
241
102
}
330
241
100
AcDbScale
 70
     0
300
1:8
140
1.0
141
8.0
290
     0
  0
SCALE
  5
247
102
{ACAD_REACTORS
330
241
102
}
330
241
100
AcDbScale
 70
     0
300
1:10
140
1.0
141
10.0
290
     0
  0
SCALE
  5
248
102
{ACAD_REACTORS
330
241
102
}
330
241
100
AcDbScale
 70
     0
300
1:16
140
1.0
141
16.0
290
     0
  0
SCALE
  5
249
102
{ACAD_REACTORS
330
241
102
}
330
241
100
AcDbScale
 70
     0
300
1:20
140
1.0
141
20.0
290
     0
  0
SCALE
  5
24A
102
{ACAD_REACTORS
330
241
102
}
330
241
100
AcDbScale
 70
     0
300
1:30
140
1.0
141
30.0
290
     0
  0
SCALE
  5
24B
102
{ACAD_REACTORS
330
241
102
}
330
241
100
AcDbScale
 70
     0
300
1:40
140
1.0
141
40.0
290
     0
  0
SCALE
  5
24C
102
{ACAD_REACTORS
330
241
102
}
330
241
100
AcDbScale
 70
     0
300
1:50
140
1.0
141
50.0
290
     0
  0
SCALE
  5
24D
102
{ACAD_REACTORS
330
241
102
}
330
241
100
AcDbScale
 70
     0
300
1:100
140
1.0
141
100.0
290
     0
  0
SCALE
  5
24E
102
{ACAD_REACTORS
330
241
102
}
330
241
100
AcDbScale
 70
     0
300
2:1
140
2.0
141
1.0
290
     0
  0
SCALE
  5
24F
102
{ACAD_REACTORS
330
241
102
}
330
241
100
AcDbScale
 70
     0
300
4:1
140
4.0
141
1.0
290
     0
  0
SCALE
  5
250
102
{ACAD_REACTORS
330
241
102
}
330
241
100
AcDbScale
 70
     0
300
8:1
140
8.0
141
1.0
290
     0
  0
SCALE
  5
251
102
{ACAD_REACTORS
330
241
102
}
330
241
100
AcDbScale
 70
     0
300
10:1
140
10.0
141
1.0
290
     0
  0
SCALE
  5
252
102
{ACAD_REACTORS
330
241
102
}
330
241
100
AcDbScale
 70
     0
300
100:1
140
100.0
141
1.0
290
     0
  0
SCALE
  5
253
102
{ACAD_REACTORS
330
241
102
}
330
241
100
AcDbScale
 70
     0
300
1/128" = 1'-0"
140
0.0078125
141
12.0
290
     0
  0
SCALE
  5
254
102
{ACAD_REACTORS
330
241
102
}
330
241
100
AcDbScale
 70
     0
300
1/64" = 1'-0"
140
0.015625
141
12.0
290
     0
  0
SCALE
  5
255
102
{ACAD_REACTORS
330
241
102
}
330
241
100
AcDbScale
 70
     0
300
1/32" = 1'-0"
140
0.03125
141
12.0
290
     0
  0
SCALE
  5
256
102
{ACAD_REACTORS
330
241
102
}
330
241
100
AcDbScale
 70
     0
300
1/16" = 1'-0"
140
0.0625
141
12.0
290
     0
  0
SCALE
  5
257
102
{ACAD_REACTORS
330
241
102
}
330
241
100
AcDbScale
 70
     0
300
3/32" = 1'-0"
140
0.09375
141
12.0
290
     0
  0
SCALE
  5
258
102
{ACAD_REACTORS
330
241
102
}
330
241
100
AcDbScale
 70
     0
300
1/8" = 1'-0"
140
0.125
141
12.0
290
     0
  0
SCALE
  5
259
102
{ACAD_REACTORS
330
241
102
}
330
241
100
AcDbScale
 70
     0
300
3/16" = 1'-0"
140
0.1875
141
12.0
290
     0
  0
SCALE
  5
25A
102
{ACAD_REACTORS
330
241
102
}
330
241
100
AcDbScale
 70
     0
300
1/4" = 1'-0"
140
0.25
141
12.0
290
     0
  0
SCALE
  5
25B
102
{ACAD_REACTORS
330
241
102
}
330
241
100
AcDbScale
 70
     0
300
3/8" = 1'-0"
140
0.375
141
12.0
290
     0
  0
SCALE
  5
25C
102
{ACAD_REACTORS
330
241
102
}
330
241
100
AcDbScale
 70
     0
300
1/2" = 1'-0"
140
0.5
141
12.0
290
     0
  0
SCALE
  5
25D
102
{ACAD_REACTORS
330
241
102
}
330
241
100
AcDbScale
 70
     0
300
3/4" = 1'-0"
140
0.75
141
12.0
290
     0
  0
SCALE
  5
25E
102
{ACAD_REACTORS
330
241
102
}
330
241
100
AcDbScale
 70
     0
300
1" = 1'-0"
140
1.0
141
12.0
290
     0
  0
SCALE
  5
25F
102
{ACAD_REACTORS
330
241
102
}
330
241
100
AcDbScale
 70
     0
300
1-1/2" = 1'-0"
140
1.5
141
12.0
290
     0
  0
SCALE
  5
260
102
{ACAD_REACTORS
330
241
102
}
330
241
100
AcDbScale
 70
     0
300
3" = 1'-0"
140
3.0
141
12.0
290
     0
  0
SCALE
  5
261
102
{ACAD_REACTORS
330
241
102
}
330
241
100
AcDbScale
 70
     0
300
6" = 1'-0"
140
6.0
141
12.0
290
     0
  0
SCALE
  5
262
102
{ACAD_REACTORS
330
241
102
}
330
241
100
AcDbScale
 70
     0
300
1'-0" = 1'-0"
140
12.0
141
12.0
290
     0
  0
TABLESTYLE
  5
279
102
{ACAD_REACTORS
330
278
102
}
102
{ACAD_XDICTIONARY
360
4162
102
}
330
278
100
AcDbTableStyle
  3
Standard
 70
     0
 71
     0
 40
0.06
 41
0.06
280
     0
281
     0
  7
Standard
140
4.5
170
     2
 62
     0
 63
   257
283
     0
 90
        4
 91
        0
  1

274
    -2
284
     1
 64
     0
275
    -2
285
     1
 65
     0
276
    -2
286
     1
 66
     0
277
    -2
287
     1
 67
     0
278
    -2
288
     1
 68
     0
279
    -2
289
     1
 69
     0
  7
Standard
140
6.0
170
     5
 62
     0
 63
   257
283
     0
 90
        4
 91
        0
  1

274
    -2
284
     1
 64
     0
275
    -2
285
     1
 65
     0
276
    -2
286
     1
 66
     0
277
    -2
287
     1
 67
     0
278
    -2
288
     1
 68
     0
279
    -2
289
     1
 69
     0
  7
Standard
140
4.5
170
     5
 62
     0
 63
   257
283
     0
 90
        4
 91
        0
  1

274
    -2
284
     1
 64
     0
275
    -2
285
     1
 65
     0
276
    -2
286
     1
 66
     0
277
    -2
287
     1
 67
     0
278
    -2
288
     1
 68
     0
279
    -2
289
     1
 69
     0
  0
VISUALSTYLE
  5
26C
102
{ACAD_REACTORS
330
267
102
}
330
267
100
AcDbVisualStyle
  2
2dWireframe
 70
     4
 71
     0
 72
     2
 73
     0
 90
        0
 40
-0.6
 41
-30.0
 62
     5
 63
     7
421
 16777215
 74
     1
 91
        4
 64
     7
 65
   257
 75
     1
175
     1
 42
1.0
 92
        0
 66
   257
 43
1.0
 76
     1
 77
     6
 78
     2
 67
     7
 79
     5
170
     0
171
     0
290
     0
174
     0
 93
        1
 44
0.0
173
     0
291
     0
 45
0.0
  0
VISUALSTYLE
  5
26E
102
{ACAD_REACTORS
330
267
102
}
330
267
100
AcDbVisualStyle
  2
3D Hidden
 70
     6
 71
     1
 72
     2
 73
     2
 90
        0
 40
-0.6
 41
-30.0
 62
     5
 63
     7
421
 16777215
 74
     2
 91
        2
 64
     7
 65
   257
 75
     2
175
     1
 42
40.0
 92
        0
 66
   257
 43
1.0
 76
     1
 77
     6
 78
     2
 67
     7
 79
     3
170
     0
171
     0
290
     0
174
     0
 93
        1
 44
0.0
173
     0
291
     0
 45
0.0
  0
VISUALSTYLE
  5
26D
102
{ACAD_REACTORS
330
267
102
}
330
267
100
AcDbVisualStyle
  2
3dWireframe
 70
     5
 71
     0
 72
     2
 73
     0
 90
        0
 40
-0.6
 41
-30.0
 62
     5
 63
     7
421
 16777215
 74
     1
 91
        4
 64
     7
 65
   257
 75
     1
175
     1
 42
1.0
 92
        0
 66
   257
 43
1.0
 76
     1
 77
     6
 78
     2
 67
     7
 79
     5
170
     0
171
     0
290
     0
174
     0
 93
        1
 44
0.0
173
     0
291
     0
 45
0.0
  0
VISUALSTYLE
  5
26F
102
{ACAD_REACTORS
330
267
102
}
330
267
100
AcDbVisualStyle
  2
Basic
 70
     7
 71
     1
 72
     0
 73
     1
 90
        0
 40
-0.6
 41
-30.0
 62
     5
 63
     7
421
 16777215
 74
     0
 91
        4
 64
     7
 65
   257
 75
     1
175
     1
 42
1.0
 92
        8
 66
     7
 43
1.0
 76
     1
 77
     6
 78
     2
 67
     7
 79
     5
170
     0
171
     0
290
     0
174
     0
 93
        1
 44
0.0
173
     0
291
     1
 45
0.0
  0
VISUALSTYLE
  5
273
102
{ACAD_REACTORS
330
267
102
}
330
267
100
AcDbVisualStyle
  2
Brighten
 70
    12
 71
     2
 72
     2
 73
     0
 90
        0
 40
-0.6
 41
-30.0
 62
     5
 63
     7
421
 16777215
 74
     1
 91
        4
 64
     7
 65
   257
 75
     1
175
     1
 42
1.0
 92
        8
 66
     7
 43
1.0
 76
     1
 77
     6
 78
     2
 67
     7
 79
     5
170
     0
171
     0
290
     0
174
     0
 93
        1
 44
50.0
173
     0
291
     1
 45
0.0
  0
VISUALSTYLE
  5
277
102
{ACAD_REACTORS
330
267
102
}
330
267
100
AcDbVisualStyle
  2
ColorChange
 70
    16
 71
     2
 72
     2
 73
     3
 90
        0
 40
-0.6
 41
-30.0
 62
     5
 63
     8
421
  8421504
 74
     1
 91
        4
 64
     7
 65
   257
 75
     1
175
     1
 42
1.0
 92
        8
 66
     8
424
  8421504
 43
1.0
 76
     1
 77
     6
 78
     2
 67
     7
 79
     5
170
     0
171
     0
290
     0
174
     0
 93
        1
 44
0.0
173
     0
291
     1
 45
0.0
  0
VISUALSTYLE
  5
271
102
{ACAD_REACTORS
330
267
102
}
330
267
100
AcDbVisualStyle
  2
Conceptual
 70
     9
 71
     3
 72
     2
 73
     0
 90
        0
 40
-0.6
 41
-30.0
 62
     5
 63
     7
421
 16777215
 74
     2
 91
        2
 64
     7
 65
   257
 75
     1
175
     1
 42
40.0
 92
        8
 66
     7
 43
1.0
 76
     1
 77
     6
 78
     2
 67
     7
 79
     3
170
     0
171
     0
290
     0
174
     0
 93
        1
 44
0.0
173
     0
291
     0
 45
0.0
  0
VISUALSTYLE
  5
272
102
{ACAD_REACTORS
330
267
102
}
330
267
100
AcDbVisualStyle
  2
Dim
 70
    11
 71
     2
 72
     2
 73
     0
 90
        0
 40
-0.6
 41
-30.0
 62
     5
 63
     7
421
 16777215
 74
     1
 91
        4
 64
     7
 65
   257
 75
     1
175
     1
 42
1.0
 92
        8
 66
     7
 43
1.0
 76
     1
 77
     6
 78
     2
 67
     7
 79
     5
170
     0
171
     0
290
     0
174
     0
 93
        1
 44
-50.0
173
     0
291
     1
 45
0.0
  0
VISUALSTYLE
  5
8BC
102
{ACAD_REACTORS
330
267
102
}
330
267
100
AcDbVisualStyle
  2
EdgeColorOff
 70
    22
 71
     2
 72
     2
 73
     0
 90
        0
 40
0.6
 41
30.0
 62
     5
 63
     7
421
 16777215
 74
     1
 91
        4
 64
     7
 65
   257
 75
     1
175
     1
 42
1.0
 92
        8
 66
     7
 43
1.0
 76
     1
 77
     6
 78
     2
 67
     7
 79
     5
170
     0
171
     0
290
     0
174
     0
 93
        1
 44
0.0
173
     0
291
     1
 45
0.0
  0
VISUALSTYLE
  5
276
102
{ACAD_REACTORS
330
267
102
}
330
267
100
AcDbVisualStyle
  2
Facepattern
 70
    15
 71
     2
 72
     2
 73
     0
 90
        0
 40
-0.6
 41
-30.0
 62
     5
 63
     7
421
 16777215
 74
     1
 91
        4
 64
     7
 65
   257
 75
     1
175
     1
 42
1.0
 92
        8
 66
     7
 43
1.0
 76
     1
 77
     6
 78
     2
 67
     7
 79
     5
170
     0
171
     0
290
     0
174
     0
 93
        1
 44
0.0
173
     0
291
     1
 45
0.0
  0
VISUALSTYLE
  5
268
102
{ACAD_REACTORS
330
267
102
}
330
267
100
AcDbVisualStyle
  2
Flat
 70
     0
 71
     2
 72
     1
 73
     1
 90
        2
 40
-0.6
 41
30.0
 62
     5
 63
     7
421
 16777215
 74
     0
 91
        4
 64
     7
 65
   257
 75
     1
175
     1
 42
1.0
 92
        8
 66
     7
 43
1.0
 76
     1
 77
     6
 78
     2
 67
     7
 79
     5
170
     0
171
     0
290
     0
174
     0
 93
       13
 44
0.0
173
     0
291
     1
 45
0.0
  0
VISUALSTYLE
  5
269
102
{ACAD_REACTORS
330
267
102
}
330
267
100
AcDbVisualStyle
  2
FlatWithEdges
 70
     1
 71
     2
 72
     1
 73
     1
 90
        2
 40
-0.6
 41
30.0
 62
     5
 63
     7
421
 16777215
 74
     1
 91
        4
 64
     7
 65
   257
 75
     1
175
     1
 42
1.0
 92
        0
 66
   257
 43
1.0
 76
     1
 77
     6
 78
     2
 67
     7
 79
     5
170
     0
171
     0
290
     0
174
     0
 93
       13
 44
0.0
173
     0
291
     1
 45
0.0
  0
VISUALSTYLE
  5
26A
102
{ACAD_REACTORS
330
267
102
}
330
267
100
AcDbVisualStyle
  2
Gouraud
 70
     2
 71
     2
 72
     2
 73
     1
 90
        2
 40
-0.6
 41
30.0
 62
     5
 63
     7
421
 16777215
 74
     0
 91
        4
 64
     7
 65
   257
 75
     1
175
     1
 42
1.0
 92
        0
 66
     7
 43
1.0
 76
     1
 77
     6
 78
     2
 67
     7
 79
     5
170
     0
171
     0
290
     0
174
     0
 93
       13
 44
0.0
173
     0
291
     1
 45
0.0
  0
VISUALSTYLE
  5
26B
102
{ACAD_REACTORS
330
267
102
}
330
267
100
AcDbVisualStyle
  2
GouraudWithEdges
 70
     3
 71
     2
 72
     2
 73
     1
 90
        2
 40
-0.6
 41
30.0
 62
     5
 63
     7
421
 16777215
 74
     1
 91
        4
 64
     7
 65
   257
 75
     1
175
     1
 42
1.0
 92
        0
 66
   257
 43
1.0
 76
     1
 77
     6
 78
     2
 67
     7
 79
     5
170
     0
171
     0
290
     0
174
     0
 93
       13
 44
0.0
173
     0
291
     1
 45
0.0
  0
VISUALSTYLE
  5
8B9
102
{ACAD_REACTORS
330
267
102
}
330
267
100
AcDbVisualStyle
  2
Hidden
 70
     6
 71
     1
 72
     2
 73
     2
 90
        0
 40
0.6
 41
30.0
 62
     5
 63
     7
421
 16777215
 74
     2
 91
        2
 64
     7
 65
   257
 75
     2
175
     1
 42
40.0
 92
        0
 66
   257
 43
1.0
 76
     1
 77
     6
 78
     2
 67
     7
 79
     3
170
     0
171
     0
290
     0
174
     0
 93
        1
 44
0.0
173
     0
291
     0
 45
0.0
  0
VISUALSTYLE
  5
8BA
102
{ACAD_REACTORS
330
267
102
}
330
267
100
AcDbVisualStyle
  2
JitterOff
 70
    20
 71
     2
 72
     2
 73
     0
 90
        0
 40
0.6
 41
30.0
 62
     5
 63
     7
421
 16777215
 74
     1
 91
        4
 64
     7
 65
   257
 75
     1
175
     1
 42
1.0
 92
       10
 66
     7
 43
1.0
 76
     1
 77
     6
 78
     2
 67
     7
 79
     5
170
     0
171
     0
290
     0
174
     0
 93
        1
 44
0.0
173
     0
291
     1
 45
0.0
  0
VISUALSTYLE
  5
275
102
{ACAD_REACTORS
330
267
102
}
330
267
100
AcDbVisualStyle
  2
Linepattern
 70
    14
 71
     2
 72
     2
 73
     0
 90
        0
 40
-0.6
 41
-30.0
 62
     5
 63
     7
421
 16777215
 74
     1
 91
        4
 64
     7
 65
   257
 75
     7
175
     7
 42
1.0
 92
        8
 66
     7
 43
1.0
 76
     1
 77
     6
 78
     2
 67
     7
 79
     5
170
     0
171
     0
290
     0
174
     0
 93
        1
 44
0.0
173
     0
291
     1
 45
0.0
  0
VISUALSTYLE
  5
8BB
102
{ACAD_REACTORS
330
267
102
}
330
267
100
AcDbVisualStyle
  2
OverhangOff
 70
    21
 71
     2
 72
     2
 73
     0
 90
        0
 40
0.6
 41
30.0
 62
     5
 63
     7
421
 16777215
 74
     1
 91
        4
 64
     7
 65
   257
 75
     1
175
     1
 42
1.0
 92
        9
 66
     7
 43
1.0
 76
     1
 77
     6
 78
     2
 67
     7
 79
     5
170
     0
171
     0
290
     0
174
     0
 93
        1
 44
0.0
173
     0
291
     1
 45
0.0
  0
VISUALSTYLE
  5
270
102
{ACAD_REACTORS
330
267
102
}
330
267
100
AcDbVisualStyle
  2
Realistic
 70
     8
 71
     2
 72
     2
 73
     0
 90
        0
 40
-0.6
 41
-30.0
 62
     5
 63
     7
421
 16777215
 74
     1
 91
        0
 64
     7
 65
   257
 75
     1
175
     1
 42
1.0
 92
        8
 66
     8
424
  7895160
 43
1.0
 76
     1
 77
     6
 78
     2
 67
     7
 79
     5
170
     0
171
     0
290
     0
174
     0
 93
       13
 44
0.0
173
     0
291
     0
 45
0.0
  0
VISUALSTYLE
  5
8C1
102
{ACAD_REACTORS
330
267
102
}
330
267
100
AcDbVisualStyle
  2
Shaded
 70
    27
 71
     2
 72
     2
 73
     1
 90
        2
 40
0.6
 41
30.0
 62
     5
 63
     7
421
 16777215
 74
     0
 91
        4
 64
     7
 65
   257
 75
     1
175
     1
 42
1.0
 92
        8
 66
   257
 43
1.0
 76
     1
 77
     6
 78
     2
 67
     8
425
  7895160
 79
     3
170
     0
171
     0
290
     0
174
     0
 93
        5
 44
0.0
173
     0
291
     0
 45
0.0
  0
VISUALSTYLE
  5
8C0
102
{ACAD_REACTORS
330
267
102
}
330
267
100
AcDbVisualStyle
  2
Shaded with edges
 70
    26
 71
     2
 72
     2
 73
     1
 90
        2
 40
0.6
 41
30.0
 62
     5
 63
     7
421
 16777215
 74
     1
 91
       10
 64
     7
 65
   257
 75
     2
175
     1
 42
1.0
 92
        8
 66
   257
 43
1.0
 76
     1
 77
     6
 78
     2
 67
     7
 79
     3
170
     0
171
     0
290
     0
174
     0
 93
        5
 44
0.0
173
     0
291
     0
 45
0.0
  0
VISUALSTYLE
  5
8BD
102
{ACAD_REACTORS
330
267
102
}
330
267
100
AcDbVisualStyle
  2
Shades of Gray
 70
    23
 71
     2
 72
     2
 73
     3
 90
        0
 40
0.6
 41
30.0
 62
     5
 63
     7
421
 16777215
 74
     2
 91
        2
 64
     7
 65
     7
 75
     1
175
     1
 42
40.0
 92
        8
 66
     7
 43
1.0
 76
     1
 77
     6
 78
     2
 67
     7
 79
     3
170
     0
171
     0
290
     0
174
     0
 93
        1
 44
0.0
173
     0
291
     0
 45
0.0
  0
VISUALSTYLE
  5
8BE
102
{ACAD_REACTORS
330
267
102
}
330
267
100
AcDbVisualStyle
  2
Sketchy
 70
    24
 71
     1
 72
     2
 73
     2
 90
        0
 40
0.6
 41
30.0
 62
     5
 63
     7
421
 16777215
 74
     2
 91
        2
 64
     7
 65
     7
 75
     1
175
     1
 42
40.0
 92
       11
 66
     7
 43
1.0
 76
     1
 77
     6
 78
     2
 67
     7
 79
     6
170
     0
171
     0
290
     0
174
     0
 93
        1
 44
0.0
173
     0
291
     0
 45
0.0
  0
VISUALSTYLE
  5
274
102
{ACAD_REACTORS
330
267
102
}
330
267
100
AcDbVisualStyle
  2
Thicken
 70
    13
 71
     2
 72
     2
 73
     0
 90
        0
 40
-0.6
 41
-30.0
 62
     5
 63
     7
421
 16777215
 74
     1
 91
        4
 64
     7
 65
   257
 75
     1
175
     1
 42
1.0
 92
       12
 66
     7
 43
1.0
 76
     1
 77
     6
 78
     2
 67
     7
 79
     5
170
     0
171
     0
290
     0
174
     0
 93
        1
 44
0.0
173
     0
291
     1
 45
0.0
  0
VISUALSTYLE
  5
8B8
102
{ACAD_REACTORS
330
267
102
}
330
267
100
AcDbVisualStyle
  2
Wireframe
 70
     5
 71
     0
 72
     2
 73
     0
 90
        0
 40
0.6
 41
30.0
 62
     5
 63
     7
421
 16777215
 74
     1
 91
        4
 64
     7
 65
   257
 75
     1
175
     1
 42
1.0
 92
        0
 66
   257
 43
1.0
 76
     1
 77
     6
 78
     2
 67
     7
 79
     3
170
     0
171
     0
290
     0
174
     0
 93
        1
 44
0.0
173
     0
291
     0
 45
0.0
  0
VISUALSTYLE
  5
8BF
102
{ACAD_REACTORS
330
267
102
}
330
267
100
AcDbVisualStyle
  2
X-Ray
 70
    25
 71
     2
 72
     2
 73
     1
 90
        1
 40
0.5
 41
30.0
 62
     5
 63
     7
421
 16777215
 74
     1
 91
        0
 64
     7
 65
   257
 75
     1
175
     1
 42
1.0
 92
        8
 66
     7
 43
1.0
 76
     1
 77
     6
 78
     2
 67
     7
 79
     3
170
     0
171
     0
290
     0
174
     0
 93
       13
 44
0.0
173
     0
291
     0
 45
0.0
  0
DICTIONARYVAR
  5
331
102
{ACAD_REACTORS
330
330
102
}
330
330
100
DictionaryVariables
280
     0
  1
1:1
  0
DICTIONARYVAR
  5
8DA
102
{ACAD_REACTORS
330
330
102
}
330
330
100
DictionaryVariables
280
     0
  1
Standard
  0
DICTIONARYVAR
  5
335
102
{ACAD_REACTORS
330
330
102
}
330
330
100
DictionaryVariables
280
     0
  1
Standard
  0
DICTIONARYVAR
  5
C07
102
{ACAD_REACTORS
330
330
102
}
330
330
100
DictionaryVariables
280
     0
  1
ByLayer
  0
DICTIONARYVAR
  5
64A
102
{ACAD_REACTORS
330
330
102
}
330
330
100
DictionaryVariables
280
     0
  1
0
  0
DICTIONARYVAR
  5
2C1E
102
{ACAD_REACTORS
330
C08
102
}
330
C08
100
DictionaryVariables
280
     0
  1
0.261799
  0
DICTIONARYVAR
  5
2C1C
102
{ACAD_REACTORS
330
C08
102
}
330
C08
100
DictionaryVariables
280
     0
  1
0.400000
  0
DICTIONARYVAR
  5
2C1D
102
{ACAD_REACTORS
330
C08
102
}
330
C08
100
DictionaryVariables
280
     0
  1
0.250000
  0
DICTIONARYVAR
  5
2C1F
102
{ACAD_REACTORS
330
C08
102
}
330
C08
100
DictionaryVariables
280
     0
  1
1
  0
FIELD
  5
BDE
102
{ACAD_REACTORS
330
4071
102
}
330
4071
100
AcDbField
  1
_text
  2
{%<\_FldIdx 0>%N}
 90
        1
360
BDF
 97
        0
 91
       63
 92
        0
 94
       11
 95
        2
 96
        0
300

 93
        1
  6
ACFD_FIELDTEXT_CHECKSUM
 93
        2
 90
        2
140
4426.0
 94
        0
300

302

304
ACVALUE_END
  7
ACFD_FIELD_VALUE
 93
        6
 90
        4
  1
{20200111N}
 94
        0
300

302

304
ACVALUE_END
301
{20200111N}
 98
       11
  0
DICTIONARY
  5
4162
330
279
100
AcDbDictionary
280
     1
281
     1
  3
ACAD_ROUNDTRIP_2008_TABLESTYLE_CELLSTYLEMAP
360
4163
  0
FIELD
  5
BDF
330
BDE
100
AcDbField
  1
AcVar
  2
\AcVar Date \f "yyyyMMdd"
 90
        0
 97
        0
 91
       63
 92
        0
 94
        8
 95
       64
 96
        0
300
Variable not supported
 93
        1
  6
Variable
 93
        2
 90
        4
  1
Date
 94
        0
300

302

304
ACVALUE_END
  7
ACFD_FIELD_VALUE
 93
        6
 90
        8
 92
       16
310
E407010000000A000F002B0015000000
 94
        0
300
yyyyMMdd
302

304
ACVALUE_END
301
20200111
 98
        8
  0
CELLSTYLEMAP
  5
4163
102
{ACAD_REACTORS
330
4162
102
}
330
4162
100
AcDbCellStyleMap
 90
        3
300
CELLSTYLE
  1
TABLEFORMAT_BEGIN
 90
        5
170
     1
 91
        0
 92
    32768
 62
   257
 93
        1
300
CONTENTFORMAT
  1
CONTENTFORMAT_BEGIN
 90
        0
 91
        0
 92
        4
 93
        0
300

 40
0.0
140
1.0
 94
        5
 62
     0
340
17
144
6.0
309
CONTENTFORMAT_END
171
     1
301
MARGIN
  1
CELLMARGIN_BEGIN
 40
0.06
 40
0.06
 40
0.06
 40
0.06
 40
0.18
 40
0.18
309
CELLMARGIN_END
 94
        6
 95
        1
302
GRIDFORMAT
  1
GRIDFORMAT_BEGIN
 90
        0
 91
        1
 62
     0
 92
       -2
340
0
 93
        0
 40
0.045
309
GRIDFORMAT_END
 95
        2
302
GRIDFORMAT
  1
GRIDFORMAT_BEGIN
 90
        0
 91
        1
 62
     0
 92
       -2
340
0
 93
        0
 40
0.045
309
GRIDFORMAT_END
 95
        4
302
GRIDFORMAT
  1
GRIDFORMAT_BEGIN
 90
        0
 91
        1
 62
     0
 92
       -2
340
0
 93
        0
 40
0.045
309
GRIDFORMAT_END
 95
        8
302
GRIDFORMAT
  1
GRIDFORMAT_BEGIN
 90
        0
 91
        1
 62
     0
 92
       -2
340
0
 93
        0
 40
0.045
309
GRIDFORMAT_END
 95
       16
302
GRIDFORMAT
  1
GRIDFORMAT_BEGIN
 90
        0
 91
        1
 62
     0
 92
       -2
340
0
 93
        0
 40
0.045
309
GRIDFORMAT_END
 95
       32
302
GRIDFORMAT
  1
GRIDFORMAT_BEGIN
 90
        0
 91
        1
 62
     0
 92
       -2
340
0
 93
        0
 40
0.045
309
GRIDFORMAT_END
309
TABLEFORMAT_END
  1
CELLSTYLE_BEGIN
 90
        1
 91
        1
300
_TITLE
309
CELLSTYLE_END
300
CELLSTYLE
  1
TABLEFORMAT_BEGIN
 90
        5
170
     1
 91
        0
 92
        0
 62
   257
 93
        1
300
CONTENTFORMAT
  1
CONTENTFORMAT_BEGIN
 90
        0
 91
        0
 92
        4
 93
        0
300

 40
0.0
140
1.0
 94
        5
 62
     0
340
17
144
4.5
309
CONTENTFORMAT_END
171
     1
301
MARGIN
  1
CELLMARGIN_BEGIN
 40
0.06
 40
0.06
 40
0.06
 40
0.06
 40
0.18
 40
0.18
309
CELLMARGIN_END
 94
        6
 95
        1
302
GRIDFORMAT
  1
GRIDFORMAT_BEGIN
 90
        0
 91
        1
 62
     0
 92
       -2
340
0
 93
        0
 40
0.045
309
GRIDFORMAT_END
 95
        2
302
GRIDFORMAT
  1
GRIDFORMAT_BEGIN
 90
        0
 91
        1
 62
     0
 92
       -2
340
0
 93
        0
 40
0.045
309
GRIDFORMAT_END
 95
        4
302
GRIDFORMAT
  1
GRIDFORMAT_BEGIN
 90
        0
 91
        1
 62
     0
 92
       -2
340
0
 93
        0
 40
0.045
309
GRIDFORMAT_END
 95
        8
302
GRIDFORMAT
  1
GRIDFORMAT_BEGIN
 90
        0
 91
        1
 62
     0
 92
       -2
340
0
 93
        0
 40
0.045
309
GRIDFORMAT_END
 95
       16
302
GRIDFORMAT
  1
GRIDFORMAT_BEGIN
 90
        0
 91
        1
 62
     0
 92
       -2
340
0
 93
        0
 40
0.045
309
GRIDFORMAT_END
 95
       32
302
GRIDFORMAT
  1
GRIDFORMAT_BEGIN
 90
        0
 91
        1
 62
     0
 92
       -2
340
0
 93
        0
 40
0.045
309
GRIDFORMAT_END
309
TABLEFORMAT_END
  1
CELLSTYLE_BEGIN
 90
        2
 91
        1
300
_HEADER
309
CELLSTYLE_END
300
CELLSTYLE
  1
TABLEFORMAT_BEGIN
 90
        5
170
     1
 91
        0
 92
        0
 62
   257
 93
        1
300
CONTENTFORMAT
  1
CONTENTFORMAT_BEGIN
 90
        0
 91
        0
 92
        4
 93
        0
300

 40
0.0
140
1.0
 94
        2
 62
     0
340
17
144
4.5
309
CONTENTFORMAT_END
171
     1
301
MARGIN
  1
CELLMARGIN_BEGIN
 40
0.06
 40
0.06
 40
0.06
 40
0.06
 40
0.18
 40
0.18
309
CELLMARGIN_END
 94
        6
 95
        1
302
GRIDFORMAT
  1
GRIDFORMAT_BEGIN
 90
        0
 91
        1
 62
     0
 92
       -2
340
0
 93
        0
 40
0.045
309
GRIDFORMAT_END
 95
        2
302
GRIDFORMAT
  1
GRIDFORMAT_BEGIN
 90
        0
 91
        1
 62
     0
 92
       -2
340
0
 93
        0
 40
0.045
309
GRIDFORMAT_END
 95
        4
302
GRIDFORMAT
  1
GRIDFORMAT_BEGIN
 90
        0
 91
        1
 62
     0
 92
       -2
340
0
 93
        0
 40
0.045
309
GRIDFORMAT_END
 95
        8
302
GRIDFORMAT
  1
GRIDFORMAT_BEGIN
 90
        0
 91
        1
 62
     0
 92
       -2
340
0
 93
        0
 40
0.045
309
GRIDFORMAT_END
 95
       16
302
GRIDFORMAT
  1
GRIDFORMAT_BEGIN
 90
        0
 91
        1
 62
     0
 92
       -2
340
0
 93
        0
 40
0.045
309
GRIDFORMAT_END
 95
       32
302
GRIDFORMAT
  1
GRIDFORMAT_BEGIN
 90
        0
 91
        1
 62
     0
 92
       -2
340
0
 93
        0
 40
0.045
309
GRIDFORMAT_END
309
TABLEFORMAT_END
  1
CELLSTYLE_BEGIN
 90
        3
 91
        2
300
_DATA
309
CELLSTYLE_END
  0
ENDSEC
  0
EOF
