  0
SECTION
  2
HEADER
  9
$ACADVER
  1
AC1021
  9
$ACADMAINTVER
 70
    25
  9
$DWGCODEPAGE
  3
ANSI_932
  9
$LASTSAVEDBY
  1
Shimosaki
  9
$INSBASE
 10
0.0
 20
0.0
 30
0.0
  9
$EXTMIN
 10
72.20214454724874
 20
63.79214832457114
 30
0.0
  9
$EXTMAX
 10
2022.202144547732
 20
2897.146673506426
 30
0.0
  9
$LIMMIN
 10
0.0
 20
0.0
  9
$LIMMAX
 10
2100.0
 20
2970.0
  9
$ORTHOMODE
 70
     0
  9
$REGENMODE
 70
     1
  9
$FILLMODE
 70
     1
  9
$QTEXTMODE
 70
     0
  9
$MIRRTEXT
 70
     1
  9
$LTSCALE
 40
50.8
  9
$ATTMODE
 70
     1
  9
$TEXTSIZE
 40
2.5
  9
$TRACEWID
 40
1.0
  9
$TEXTSTYLE
  7
ＭＳ ゴシック
  9
$CLAYER
  8
HIDDEN
  9
$CELTYPE
  6
Continuous
  9
$CECOLOR
 62
   256
  9
$CELTSCALE
 40
1.0
  9
$DISPSILH
 70
     0
  9
$DIMSCALE
 40
1.0
  9
$DIMASZ
 40
9.0
  9
$DIMEXO
 40
5.0
  9
$DIMDLI
 40
0.0
  9
$DIMRND
 40
0.0
  9
$DIMDLE
 40
0.0
  9
$DIMEXE
 40
0.0
  9
$DIMTP
 40
0.0
  9
$DIMTM
 40
0.0
  9
$DIMTXT
 40
24.0
  9
$DIMCEN
 40
0.0
  9
$DIMTSZ
 40
0.0
  9
$DIMTOL
 70
     0
  9
$DIMLIM
 70
     0
  9
$DIMTIH
 70
     0
  9
$DIMTOH
 70
     0
  9
$DIMSE1
 70
     0
  9
$DIMSE2
 70
     0
  9
$DIMTAD
 70
     1
  9
$DIMZIN
 70
    11
  9
$DIMBLK
  1
DOT
  9
$DIMASO
 70
     1
  9
$DIMSHO
 70
     1
  9
$DIMPOST
  1
<>
  9
$DIMAPOST
  1
[]
  9
$DIMALT
 70
     0
  9
$DIMALTD
 70
     1
  9
$DIMALTF
 40
1.0
  9
$DIMLFAC
 40
1.0
  9
$DIMTOFL
 70
     0
  9
$DIMTVP
 40
0.0
  9
$DIMTIX
 70
     1
  9
$DIMSOXD
 70
     0
  9
$DIMSAH
 70
     0
  9
$DIMBLK1
  1

  9
$DIMBLK2
  1

  9
$DIMSTYLE
  2
tfrom線あり
  9
$DIMCLRD
 70
     0
  9
$DIMCLRE
 70
     0
  9
$DIMCLRT
 70
     0
  9
$DIMTFAC
 40
1.0
  9
$DIMGAP
 40
20.0
  9
$DIMJUST
 70
     0
  9
$DIMSD1
 70
     0
  9
$DIMSD2
 70
     0
  9
$DIMTOLJ
 70
     1
  9
$DIMTZIN
 70
    11
  9
$DIMALTZ
 70
    11
  9
$DIMALTTZ
 70
    11
  9
$DIMUPT
 70
     0
  9
$DIMDEC
 70
     0
  9
$DIMTDEC
 70
     1
  9
$DIMALTU
 70
     2
  9
$DIMALTTD
 70
     2
  9
$DIMTXSTY
  7
ＭＳ ゴシック
  9
$DIMAUNIT
 70
     0
  9
$DIMADEC
 70
     2
  9
$DIMALTRND
 40
0.0
  9
$DIMAZIN
 70
     0
  9
$DIMDSEP
 70
    46
  9
$DIMATFIT
 70
     0
  9
$DIMFRAC
 70
     2
  9
$DIMLDRBLK
  1
DOT
  9
$DIMLUNIT
 70
     2
  9
$DIMLWD
 70
    -2
  9
$DIMLWE
 70
    -2
  9
$DIMTMOVE
 70
     0
  9
$DIMFXL
 40
1.0
  9
$DIMFXLON
 70
     0
  9
$DIMJOGANG
 40
0.7853981633974483
  9
$DIMTFILL
 70
     0
  9
$DIMTFILLCLR
 70
     0
  9
$DIMARCSYM
 70
     0
  9
$DIMLTYPE
  6

  9
$DIMLTEX1
  6

  9
$DIMLTEX2
  6

  9
$LUNITS
 70
     2
  9
$LUPREC
 70
     0
  9
$SKETCHINC
 40
0.1
  9
$FILLETRAD
 40
14.0
  9
$AUNITS
 70
     0
  9
$AUPREC
 70
     0
  9
$MENU
  1
acad
  9
$ELEVATION
 40
0.0
  9
$PELEVATION
 40
0.0
  9
$THICKNESS
 40
0.0
  9
$LIMCHECK
 70
     0
  9
$CHAMFERA
 40
0.0
  9
$CHAMFERB
 40
0.0
  9
$CHAMFERC
 40
0.0
  9
$CHAMFERD
 40
0.0
  9
$SKPOLY
 70
     0
  9
$TDCREATE
 40
2447893.375
  9
$TDUCREATE
 40
0.0
  9
$TDUPDATE
 40
2457162.446182523
  9
$TDUUPDATE
 40
2457162.071182523
  9
$TDINDWG
 40
0.2230065278
  9
$TDUSRTIMER
 40
2457162.070494942
  9
$USRTIMER
 70
     1
  9
$ANGBASE
 50
0.0
  9
$ANGDIR
 70
     0
  9
$PDMODE
 70
     1
  9
$PDSIZE
 40
-2.0
  9
$PLINEWID
 40
0.0
  9
$SPLFRAME
 70
     0
  9
$SPLINETYPE
 70
     6
  9
$SPLINESEGS
 70
     8
  9
$HANDSEED
  5
1C63
  9
$SURFTAB1
 70
     6
  9
$SURFTAB2
 70
     6
  9
$SURFTYPE
 70
     6
  9
$SURFU
 70
     6
  9
$SURFV
 70
     6
  9
$UCSBASE
  2

  9
$UCSNAME
  2

  9
$UCSORG
 10
0.0
 20
0.0
 30
0.0
  9
$UCSXDIR
 10
1.0
 20
0.0
 30
0.0
  9
$UCSYDIR
 10
0.0
 20
1.0
 30
0.0
  9
$UCSORTHOREF
  2

  9
$UCSORTHOVIEW
 70
     0
  9
$UCSORGTOP
 10
0.0
 20
0.0
 30
0.0
  9
$UCSORGBOTTOM
 10
0.0
 20
0.0
 30
0.0
  9
$UCSORGLEFT
 10
0.0
 20
0.0
 30
0.0
  9
$UCSORGRIGHT
 10
0.0
 20
0.0
 30
0.0
  9
$UCSORGFRONT
 10
0.0
 20
0.0
 30
0.0
  9
$UCSORGBACK
 10
0.0
 20
0.0
 30
0.0
  9
$PUCSBASE
  2

  9
$PUCSNAME
  2

  9
$PUCSORG
 10
0.0
 20
0.0
 30
0.0
  9
$PUCSXDIR
 10
1.0
 20
0.0
 30
0.0
  9
$PUCSYDIR
 10
0.0
 20
1.0
 30
0.0
  9
$PUCSORTHOREF
  2

  9
$PUCSORTHOVIEW
 70
     0
  9
$PUCSORGTOP
 10
0.0
 20
0.0
 30
0.0
  9
$PUCSORGBOTTOM
 10
0.0
 20
0.0
 30
0.0
  9
$PUCSORGLEFT
 10
0.0
 20
0.0
 30
0.0
  9
$PUCSORGRIGHT
 10
0.0
 20
0.0
 30
0.0
  9
$PUCSORGFRONT
 10
0.0
 20
0.0
 30
0.0
  9
$PUCSORGBACK
 10
0.0
 20
0.0
 30
0.0
  9
$USERI1
 70
     0
  9
$USERI2
 70
     0
  9
$USERI3
 70
     0
  9
$USERI4
 70
     0
  9
$USERI5
 70
     0
  9
$USERR1
 40
0.0
  9
$USERR2
 40
0.0
  9
$USERR3
 40
0.0
  9
$USERR4
 40
0.0
  9
$USERR5
 40
0.0
  9
$WORLDVIEW
 70
     1
  9
$SHADEDGE
 70
     3
  9
$SHADEDIF
 70
    70
  9
$TILEMODE
 70
     1
  9
$MAXACTVP
 70
    64
  9
$PINSBASE
 10
0.0
 20
0.0
 30
0.0
  9
$PLIMCHECK
 70
     0
  9
$PEXTMIN
 10
0.0
 20
0.0
 30
0.0
  9
$PEXTMAX
 10
0.0
 20
0.0
 30
0.0
  9
$PLIMMIN
 10
-7.5
 20
-20.0
  9
$PLIMMAX
 10
412.5
 20
277.0
  9
$UNITMODE
 70
     0
  9
$VISRETAIN
 70
     0
  9
$PLINEGEN
 70
     1
  9
$PSLTSCALE
 70
     0
  9
$TREEDEPTH
 70
  3020
  9
$CMLSTYLE
  2
Standard
  9
$CMLJUST
 70
     0
  9
$CMLSCALE
 40
1.0
  9
$PROXYGRAPHICS
 70
     0
  9
$MEASUREMENT
 70
     1
  9
$CELWEIGHT
370
    -1
  9
$ENDCAPS
280
     0
  9
$JOINSTYLE
280
     0
  9
$LWDISPLAY
290
     1
  9
$INSUNITS
 70
     4
  9
$HYPERLINKBASE
  1

  9
$STYLESHEET
  1

  9
$XEDIT
290
     1
  9
$CEPSNTYPE
380
     0
  9
$PSTYLEMODE
290
     1
  9
$FINGERPRINTGUID
  2

  9
$VERSIONGUID
  2

  9
$EXTNAMES
290
     1
  9
$PSVPSCALE
 40
0.0
  9
$OLESTARTUP
290
     0
  9
$SORTENTS
280
   127
  9
$INDEXCTL
280
     0
  9
$HIDETEXT
280
     1
  9
$XCLIPFRAME
290
     0
  9
$HALOGAP
280
     0
  9
$OBSCOLOR
 70
   257
  9
$OBSLTYPE
280
     0
  9
$INTERSECTIONDISPLAY
280
     0
  9
$INTERSECTIONCOLOR
 70
   257
  9
$DIMASSOC
280
     2
  9
$PROJECTNAME
  1

  9
$CAMERADISPLAY
290
     0
  9
$LENSLENGTH
 40
50.0
  9
$CAMERAHEIGHT
 40
0.0
  9
$STEPSPERSEC
 40
2.0
  9
$STEPSIZE
 40
6.0
  9
$3DDWFPREC
 40
2.0
  9
$PSOLWIDTH
 40
0.25
  9
$PSOLHEIGHT
 40
4.0
  9
$LOFTANG1
 40
1.570796326794897
  9
$LOFTANG2
 40
1.570796326794897
  9
$LOFTMAG1
 40
0.0
  9
$LOFTMAG2
 40
0.0
  9
$LOFTPARAM
 70
     7
  9
$LOFTNORMALS
280
     1
  9
$LATITUDE
 40
37.795
  9
$LONGITUDE
 40
-122.394
  9
$NORTHDIRECTION
 40
0.0
  9
$TIMEZONE
 70
 -8000
  9
$LIGHTGLYPHDISPLAY
280
     1
  9
$TILEMODELIGHTSYNCH
280
     1
  9
$SOLIDHIST
280
     1
  9
$SHOWHIST
280
     1
  9
$DWFFRAME
280
     2
  9
$DGNFRAME
280
     2
  9
$REALWORLDSCALE
290
     1
  9
$INTERFERECOLOR
 62
   256
  9
$CSHADOW
280
     0
  9
$SHADOWPLANELOCATION
 40
0.0
  0
ENDSEC
  0
SECTION
  2
CLASSES
  0
CLASS
  1
LWPOLYLINE
  2
AcDbPolyline
  3
ObjectDBX Classes
 90
        0
 91
        1
280
     0
281
     1
  0
CLASS
  1
IMAGE
  2
AcDbRasterImage
  3
ISM
 90
      127
 91
        5
280
     0
281
     1
  0
CLASS
  1
OLE2FRAME
  2
AcDbOle2Frame
  3
ObjectDBX Classes
 90
        0
 91
        1
280
     0
281
     1
  0
CLASS
  1
HATCH
  2
AcDbHatch
  3
ObjectDBX Classes
 90
        0
 91
        1
280
     0
281
     1
  0
CLASS
  1
DICTIONARYVAR
  2
AcDbDictionaryVar
  3
ObjectDBX Classes
 90
        0
 91
        4
280
     0
281
     0
  0
CLASS
  1
RASTERVARIABLES
  2
AcDbRasterVariables
  3
ISM
 90
        0
 91
        5
280
     0
281
     0
  0
CLASS
  1
IMAGEDEF
  2
AcDbRasterImageDef
  3
ISM
 90
        0
 91
        4
280
     0
281
     0
  0
CLASS
  1
IMAGEDEF_REACTOR
  2
AcDbRasterImageDefReactor
  3
ISM
 90
        1
 91
        4
280
     0
281
     0
  0
CLASS
  1
IDBUFFER
  2
AcDbIdBuffer
  3
ObjectDBX Classes
 90
        0
 91
        4
280
     0
281
     0
  0
CLASS
  1
SPATIAL_FILTER
  2
AcDbSpatialFilter
  3
ObjectDBX Classes
 90
        0
 91
        4
280
     0
281
     0
  0
CLASS
  1
XRECORD
  2
AcDbXrecord
  3
ObjectDBX Classes
 90
        0
 91
        1
280
     0
281
     0
  0
CLASS
  1
SORTENTSTABLE
  2
AcDbSortentsTable
  3
ObjectDBX Classes
 90
        0
 91
        4
280
     0
281
     0
  0
CLASS
  1
LAYER_INDEX
  2
AcDbLayerIndex
  3
ObjectDBX Classes
 90
        0
 91
        4
280
     0
281
     0
  0
CLASS
  1
SPATIAL_INDEX
  2
AcDbSpatialIndex
  3
AutoCAD 2000
 90
        0
 91
        4
280
     0
281
     0
  0
CLASS
  1
OBJECT_PTR
  2
CAseDLPNTableRecord
  3
ASE-LPNTableRecord
 90
        1
 91
        4
280
     0
281
     0
  0
CLASS
  1
LAYOUT
  2
AcDbLayout
  3
ObjectDBX Classes
 90
        0
 91
        1
280
     0
281
     0
  0
CLASS
  1
PLOTSETTINGS
  2
AcDbPlotSettings
  3
ObjectDBX Classes
 90
        0
 91
        4
280
     0
281
     0
  0
CLASS
  1
ACDBDICTIONARYWDFLT
  2
AcDbDictionaryWithDefault
  3
ObjectDBX Classes
 90
        0
 91
        5
280
     0
281
     0
  0
CLASS
  1
ACDBPLACEHOLDER
  2
AcDbPlaceHolder
  3
ObjectDBX Classes
 90
        0
 91
        1
280
     0
281
     0
  0
CLASS
  1
SCALE
  2
AcDbScale
  3
ObjectDBX Classes
 90
     1153
 91
        5
280
     0
281
     0
  0
CLASS
  1
MATERIAL
  2
AcDbMaterial
  3
ObjectDBX Classes
 90
     1153
 91
        5
280
     0
281
     0
  0
CLASS
  1
VISUALSTYLE
  2
AcDbVisualStyle
  3
ObjectDBX Classes
 90
     4095
 91
        5
280
     0
281
     0
  0
CLASS
  1
TABLESTYLE
  2
AcDbTableStyle
  3
ObjectDBX Classes
 90
     4095
 91
        5
280
     0
281
     0
  0
CLASS
  1
DIMASSOC
  2
AcDbDimAssoc
  3
"AcDbDimAssoc|Product Desc:     AcDim ARX App For Dimension|Company:          Autodesk, Inc.|WEB Address:      www.autodesk.com"
 90
        0
 91
        4
280
     0
281
     0
  0
CLASS
  1
CELLSTYLEMAP
  2
AcDbCellStyleMap
  3
ObjectDBX Classes
 90
     1152
 91
        4
280
     0
281
     0
  0
CLASS
  1
SUN
  2
AcDbSun
  3
SCENEOE
 90
     1153
 91
        5
280
     0
281
     0
  0
ENDSEC
  0
SECTION
  2
TABLES
  0
TABLE
  2
VPORT
  5
7
330
0
100
AcDbSymbolTable
 70
     1
  0
VPORT
  5
15
330
7
100
AcDbSymbolTableRecord
100
AcDbViewportTableRecord
  2
*ACTIVE
 70
     0
 10
0.0
 20
0.0
 11
1.0
 21
1.0
 12
981.2893670421488
 22
1039.611451495171
 13
0.0
 23
0.0
 14
1.0
 24
1.0
 15
0.0
 25
0.0
 16
0.0
 26
0.0
 36
1.0
 17
-91.02013567089728
 27
73.59871453016603
 37
-46.86809886248109
 40
2573.022636007072
 41
1.9625520110957
 42
50.0
 43
0.0
 44
0.0
 50
0.0
 51
0.0
 71
    16
 72
  2000
 73
     1
 74
     1
 75
     0
 76
     0
 77
     0
 78
     0
281
     0
 65
     1
110
0.0
120
0.0
130
0.0
111
1.0
121
0.0
131
0.0
112
0.0
122
1.0
132
0.0
 79
     0
146
0.0
348
26C
 60
     3
 61
     5
292
     1
282
     1
141
0.0
142
0.0
 63
   256
361
904
  0
ENDTAB
  0
TABLE
  2
LTYPE
  5
4
330
0
100
AcDbSymbolTable
 70
     3
  0
LTYPE
  5
11
330
4
100
AcDbSymbolTableRecord
100
AcDbLinetypeTableRecord
  2
ByBlock
 70
     0
  3

 72
    65
 73
     0
 40
0.0
  0
LTYPE
  5
12
330
4
100
AcDbSymbolTableRecord
100
AcDbLinetypeTableRecord
  2
ByLayer
 70
     0
  3

 72
    65
 73
     0
 40
0.0
  0
LTYPE
  5
13
330
4
100
AcDbSymbolTableRecord
100
AcDbLinetypeTableRecord
  2
Continuous
 70
     0
  3
Solid line
 72
    65
 73
     0
 40
0.0
  0
LTYPE
  5
45
330
4
100
AcDbSymbolTableRecord
100
AcDbLinetypeTableRecord
  2
STYLE_12
 70
     0
  3

 72
    65
 73
     2
 40
0.3937007874015748
 49
0.1968503937007874
 74
     0
 49
-0.1968503937007874
 74
     0
  0
LTYPE
  5
1C15
330
4
100
AcDbSymbolTableRecord
100
AcDbLinetypeTableRecord
  2
STAR4
 70
     0
  3
Star4
 72
    65
 73
     2
 40
9.0
 49
0.0
 74
     4
 75
   138
340
1C16
 46
1.0
 50
0.0
 44
0.0
 45
0.0
 49
-9.0
 74
     0
  0
ENDTAB
  0
TABLE
  2
LAYER
  5
2
102
{ACAD_XDICTIONARY
360
2E1
102
}
330
0
100
AcDbSymbolTable
 70
     7
  0
LAYER
  5
14
330
2
100
AcDbSymbolTableRecord
100
AcDbLayerTableRecord
  2
0
 70
     0
 62
     7
  6
Continuous
370
    -3
390
1D
347
266
  0
LAYER
  5
4B
330
2
100
AcDbSymbolTableRecord
100
AcDbLayerTableRecord
  2
TEMPLATE
 70
     0
 62
     7
  6
Continuous
370
    20
390
1D
347
266
  0
LAYER
  5
4C
330
2
100
AcDbSymbolTableRecord
100
AcDbLayerTableRecord
  2
DIM
 70
     0
 62
     7
  6
Continuous
370
    13
390
1D
347
266
  0
LAYER
  5
4D
330
2
100
AcDbSymbolTableRecord
100
AcDbLayerTableRecord
  2
MODEL
 70
     0
 62
     7
  6
Continuous
370
    20
390
1D
347
266
  0
LAYER
  5
667
330
2
100
AcDbSymbolTableRecord
100
AcDbLayerTableRecord
  2
LOGO
 70
     0
 62
     7
  6
Continuous
370
    -3
390
1D
347
266
  0
LAYER
  5
88C
330
2
100
AcDbSymbolTableRecord
100
AcDbLayerTableRecord
  2
HIDDEN
 70
     0
 62
     7
  6
STYLE_12
370
    20
390
1D
347
266
1001
AcAecLayerStandard
1000

1000

  0
LAYER
  5
D5D
330
2
100
AcDbSymbolTableRecord
100
AcDbLayerTableRecord
  2
Defpoints
 70
     0
 62
     7
  6
Continuous
290
     0
370
    -3
390
1D
347
266
  0
ENDTAB
  0
TABLE
  2
STYLE
  5
3
330
0
100
AcDbSymbolTable
 70
     3
  0
STYLE
  5
17
330
3
100
AcDbSymbolTableRecord
100
AcDbTextStyleTableRecord
  2
Standard
 70
     0
 40
0.0
 41
1.0
 50
0.0
 71
     0
 42
2.5
  3
txt
  4
BIGFONT.SHX
  0
STYLE
  5
39
330
3
100
AcDbSymbolTableRecord
100
AcDbTextStyleTableRecord
  2
ＭＳ ゴシック
 70
     0
 40
0.0
 41
1.0
 50
0.0
 71
     0
 42
2.5
  3
msgothic.ttc
  4
ＭＳ ゴシック
1001
ACAD
1000
ＭＳ ゴシック
1071
        0
  0
STYLE
  5
1C16
330
3
100
AcDbSymbolTableRecord
100
AcDbTextStyleTableRecord
  2

 70
     1
 40
0.0
 41
1.0
 50
0.0
 71
     0
 42
2.5
  3
ltypeshp.shx
  4

  0
ENDTAB
  0
TABLE
  2
VIEW
  5
5
330
0
100
AcDbSymbolTable
 70
     0
  0
ENDTAB
  0
TABLE
  2
UCS
  5
6
330
0
100
AcDbSymbolTable
 70
     0
  0
ENDTAB
  0
TABLE
  2
APPID
  5
8
330
0
100
AcDbSymbolTable
 70
     8
  0
APPID
  5
16
330
8
100
AcDbSymbolTableRecord
100
AcDbRegAppTableRecord
  2
ACAD
 70
     0
  0
APPID
  5
7AC
330
8
100
AcDbSymbolTableRecord
100
AcDbRegAppTableRecord
  2
AcAecLayerStandard
 70
     0
  0
APPID
  5
DBC
330
8
100
AcDbSymbolTableRecord
100
AcDbRegAppTableRecord
  2
ACAD_DSTYLE_DIMJAG
 70
     0
  0
APPID
  5
DBD
330
8
100
AcDbSymbolTableRecord
100
AcDbRegAppTableRecord
  2
ACAD_DSTYLE_DIMTALN
 70
     0
  0
APPID
  5
DBE
330
8
100
AcDbSymbolTableRecord
100
AcDbRegAppTableRecord
  2
ACAD_NAV_VCDISPLAY
 70
     0
  0
APPID
  5
DBF
330
8
100
AcDbSymbolTableRecord
100
AcDbRegAppTableRecord
  2
GradientColor1ACI
 70
     0
  0
APPID
  5
DC0
330
8
100
AcDbSymbolTableRecord
100
AcDbRegAppTableRecord
  2
GradientColor2ACI
 70
     0
  0
APPID
  5
DC1
330
8
100
AcDbSymbolTableRecord
100
AcDbRegAppTableRecord
  2
ACAD_PSEXT
 70
     0
  0
ENDTAB
  0
TABLE
  2
DIMSTYLE
  5
9
330
0
100
AcDbSymbolTable
 70
     3
100
AcDbDimStyleTable
  0
DIMSTYLE
105
18
330
9
100
AcDbSymbolTableRecord
100
AcDbDimStyleTableRecord
  2
Standard
 70
     0
178
     0
340
17
  0
DIMSTYLE
105
56
102
{ACAD_REACTORS
330
196B
102
}
330
9
100
AcDbSymbolTableRecord
100
AcDbDimStyleTableRecord
  2
tform線あり
 70
     0
  3
<>
  4
[]
 41
9.999389648437498
 42
25.0
 43
0.9999999999999999
 44
0.0
 73
     0
 74
     0
 77
     1
 78
    11
140
24.4326171875
141
0.0
143
1.0
146
0.8
147
0.4999999999999999
171
     1
172
     1
174
     1
178
     0
179
     2
271
     1
272
     1
276
     2
284
    11
285
    11
286
    11
289
     0
340
39
341
4E
342
4E
  0
DIMSTYLE
105
57
102
{ACAD_REACTORS
330
1A02
330
1A11
330
1A39
330
1A57
330
1AE4
330
1AF3
330
1B7D
330
1B9D
330
1BAC
330
1BBE
102
}
330
9
100
AcDbSymbolTableRecord
100
AcDbDimStyleTableRecord
  2
tfrom線あり
 70
     0
  3
<>
  4
[]
 41
9.0
 42
5.0
 43
0.0
 44
0.0
 73
     0
 74
     0
 77
     1
 78
    11
140
24.0
141
0.0
143
1.0
147
20.0
171
     1
174
     1
178
     0
179
     2
271
     0
272
     1
276
     2
284
    11
285
    11
286
    11
289
     0
340
39
341
4E
342
4E
  0
ENDTAB
  0
TABLE
  2
BLOCK_RECORD
  5
1
330
0
100
AcDbSymbolTable
 70
    19
  0
BLOCK_RECORD
  5
A
330
1
100
AcDbSymbolTableRecord
100
AcDbBlockTableRecord
  2
*MODEL_SPACE
340
20
 70
     0
280
     1
281
     0
  0
BLOCK_RECORD
  5
B
330
1
100
AcDbSymbolTableRecord
100
AcDbBlockTableRecord
  2
*PAPER_SPACE
340
21
 70
     0
280
     1
281
     0
  0
BLOCK_RECORD
  5
4E
330
1
100
AcDbSymbolTableRecord
100
AcDbBlockTableRecord
  2
_DOT
340
0
102
{BLKREFS
331
19BA
331
19BB
331
1A0B
331
1A0C
331
1A18
331
1A19
331
1A42
331
1A43
331
1A60
331
1A61
331
1AED
331
1AEE
331
1AFC
331
1AFD
331
1B77
331
1B78
331
1B86
331
1B87
331
1B95
331
1B96
331
1BA6
331
1BA7
331
1BB5
331
1BB6
331
1BC7
331
1BC8
102
}
 70
     0
280
     1
281
     0
  0
BLOCK_RECORD
  5
68A
330
1
100
AcDbSymbolTableRecord
100
AcDbBlockTableRecord
  2
名称未設定-1
340
0
102
{BLKREFS
331
6B5
102
}
 70
     1
280
     1
281
     0
  0
BLOCK_RECORD
  5
68D
330
1
100
AcDbSymbolTableRecord
100
AcDbBlockTableRecord
  2
block 2
340
0
102
{BLKREFS
331
68C
331
11F5
331
1955
102
}
 70
     0
280
     1
281
     0
  0
BLOCK_RECORD
  5
690
330
1
100
AcDbSymbolTableRecord
100
AcDbBlockTableRecord
  2
block 3
340
0
102
{BLKREFS
331
68F
102
}
 70
     0
280
     1
281
     0
  0
BLOCK_RECORD
  5
693
330
1
100
AcDbSymbolTableRecord
100
AcDbBlockTableRecord
  2
block 4
340
0
102
{BLKREFS
331
692
102
}
 70
     0
280
     1
281
     0
  0
BLOCK_RECORD
  5
6A2
330
1
100
AcDbSymbolTableRecord
100
AcDbBlockTableRecord
  2
block 5
340
0
102
{BLKREFS
331
6A1
102
}
 70
     0
280
     1
281
     0
  0
BLOCK_RECORD
  5
19B4
330
1
100
AcDbSymbolTableRecord
100
AcDbBlockTableRecord
  2
*D6
340
0
 70
     0
280
     1
281
     0
  0
BLOCK_RECORD
  5
1A05
330
1
100
AcDbSymbolTableRecord
100
AcDbBlockTableRecord
  2
*D7
340
0
 70
     0
280
     1
281
     0
  0
BLOCK_RECORD
  5
1A12
330
1
100
AcDbSymbolTableRecord
100
AcDbBlockTableRecord
  2
*D8
340
0
 70
     0
280
     1
281
     0
  0
BLOCK_RECORD
  5
1A3C
330
1
100
AcDbSymbolTableRecord
100
AcDbBlockTableRecord
  2
*D9
340
0
 70
     0
280
     1
281
     0
  0
BLOCK_RECORD
  5
1A5A
330
1
100
AcDbSymbolTableRecord
100
AcDbBlockTableRecord
  2
*D10
340
0
 70
     0
280
     1
281
     0
  0
BLOCK_RECORD
  5
1AE7
330
1
100
AcDbSymbolTableRecord
100
AcDbBlockTableRecord
  2
*D11
340
0
 70
     0
280
     1
281
     0
  0
BLOCK_RECORD
  5
1AF6
330
1
100
AcDbSymbolTableRecord
100
AcDbBlockTableRecord
  2
*D12
340
0
 70
     0
280
     1
281
     0
  0
BLOCK_RECORD
  5
1B6E
330
1
100
AcDbSymbolTableRecord
100
AcDbBlockTableRecord
  2
*D13
340
0
 70
     0
280
     1
281
     0
  0
BLOCK_RECORD
  5
1B80
330
1
100
AcDbSymbolTableRecord
100
AcDbBlockTableRecord
  2
*D14
340
0
 70
     0
280
     1
281
     0
  0
BLOCK_RECORD
  5
1B8F
330
1
100
AcDbSymbolTableRecord
100
AcDbBlockTableRecord
  2
*D15
340
0
 70
     0
280
     1
281
     0
  0
BLOCK_RECORD
  5
1BA0
330
1
100
AcDbSymbolTableRecord
100
AcDbBlockTableRecord
  2
*D16
340
0
 70
     0
280
     1
281
     0
  0
BLOCK_RECORD
  5
1BAF
330
1
100
AcDbSymbolTableRecord
100
AcDbBlockTableRecord
  2
*D17
340
0
 70
     0
280
     1
281
     0
  0
BLOCK_RECORD
  5
1BC1
330
1
100
AcDbSymbolTableRecord
100
AcDbBlockTableRecord
  2
*D18
340
0
 70
     0
280
     1
281
     0
  0
ENDTAB
  0
ENDSEC
  0
SECTION
  2
BLOCKS
  0
BLOCK
  5
D
330
A
100
AcDbEntity
  8
0
390
1D
100
AcDbBlockBegin
  2
*MODEL_SPACE
 70
     0
 10
0.0
 20
0.0
 30
0.0
  3
*MODEL_SPACE
  1
*MODEL_SPACE
  0
ENDBLK
  5
E
330
A
100
AcDbEntity
  8
0
390
1D
100
AcDbBlockEnd
  0
BLOCK
  5
F
330
B
100
AcDbEntity
 67
     1
  8
0
390
1D
100
AcDbBlockBegin
  2
*PAPER_SPACE
 70
     0
 10
0.0
 20
0.0
 30
0.0
  3
*PAPER_SPACE
  1
*PAPER_SPACE
  0
ENDBLK
  5
10
330
B
100
AcDbEntity
 67
     1
  8
0
390
1D
100
AcDbBlockEnd
  0
BLOCK
  5
1C06
330
4E
100
AcDbEntity
  8
0
390
1D
100
AcDbBlockBegin
  2
_DOT
 70
     0
 10
0.0
 20
0.0
 30
0.0
  3
_DOT
  1
_DOT
  0
POLYLINE
  5
1C08
330
4E
100
AcDbEntity
  8
0
  6
ByBlock
 62
     0
370
    -2
390
1D
100
AcDb2dPolyline
 66
     1
 10
0.0
 20
0.0
 30
0.0
 70
     1
 40
0.5
 41
0.5
  0
VERTEX
  5
1C09
330
1C08
100
AcDbEntity
  8
0
  6
ByBlock
 62
     0
370
    -2
390
1D
100
AcDbVertex
100
AcDb2dVertex
 10
-0.25
 20
0.0
 30
0.0
 42
1.0
  0
VERTEX
  5
1C0A
330
1C08
100
AcDbEntity
  8
0
  6
ByBlock
 62
     0
370
    -2
390
1D
100
AcDbVertex
100
AcDb2dVertex
 10
0.25
 20
0.0
 30
0.0
 42
1.0
  0
SEQEND
  5
1C0B
330
1C08
100
AcDbEntity
  8
0
390
1D
  0
LINE
  5
1C0C
330
4E
100
AcDbEntity
  8
0
  6
ByBlock
 62
     0
370
    -2
390
1D
100
AcDbLine
 10
-0.5
 20
0.0
 30
0.0
 11
-1.0
 21
0.0
 31
0.0
  0
ENDBLK
  5
1C0D
330
4E
100
AcDbEntity
  8
0
390
1D
100
AcDbBlockEnd
  0
BLOCK
  5
68B
330
68A
100
AcDbEntity
  8
0
100
AcDbBlockBegin
  2
名称未設定-1
 70
     0
 10
0.0
 20
0.0
 30
0.0
  3
名称未設定-1
  1
名称未設定-1
  0
INSERT
  5
68F
330
68A
100
AcDbEntity
  8
LOGO
100
AcDbBlockReference
  2
block 3
 10
0.0
 20
0.0
 30
0.0
  0
ENDBLK
  5
6B1
330
68A
100
AcDbEntity
  8
0
100
AcDbBlockEnd
  0
BLOCK
  5
68E
330
68D
100
AcDbEntity
  8
0
100
AcDbBlockBegin
  2
block 2
 70
     0
 10
0.0
 20
0.0
 30
0.0
  3
block 2
  1
block 2
  0
ENDBLK
  5
6B0
330
68D
100
AcDbEntity
  8
0
100
AcDbBlockEnd
  0
BLOCK
  5
691
330
690
100
AcDbEntity
  8
0
100
AcDbBlockBegin
  2
block 3
 70
     0
 10
0.0
 20
0.0
 30
0.0
  3
block 3
  1
block 3
  0
INSERT
  5
692
330
690
100
AcDbEntity
  8
LOGO
100
AcDbBlockReference
  2
block 4
 10
0.0
 20
0.0
 30
0.0
  0
INSERT
  5
6A1
330
690
100
AcDbEntity
  8
LOGO
100
AcDbBlockReference
  2
block 5
 10
0.0
 20
0.0
 30
0.0
  0
ENDBLK
  5
6AF
330
690
100
AcDbEntity
  8
0
100
AcDbBlockEnd
  0
BLOCK
  5
694
330
693
100
AcDbEntity
  8
0
100
AcDbBlockBegin
  2
block 4
 70
     0
 10
0.0
 20
0.0
 30
0.0
  3
block 4
  1
block 4
  0
POLYLINE
  5
695
330
693
100
AcDbEntity
  8
LOGO
370
     0
100
AcDb2dPolyline
 66
     1
 10
0.0
 20
0.0
 30
0.0
  0
VERTEX
  5
696
330
695
100
AcDbEntity
  8
LOGO
370
     0
100
AcDbVertex
100
AcDb2dVertex
 10
83.79545727667795
 20
167.6444858234922
 30
0.0
  0
VERTEX
  5
697
330
695
100
AcDbEntity
  8
LOGO
370
     0
100
AcDbVertex
100
AcDb2dVertex
 10
83.79545727667795
 20
159.7968976406313
 30
0.0
  0
VERTEX
  5
698
330
695
100
AcDbEntity
  8
LOGO
370
     0
100
AcDbVertex
100
AcDb2dVertex
 10
71.3631329975216
 20
159.7968976406313
 30
0.0
  0
VERTEX
  5
699
330
695
100
AcDbEntity
  8
LOGO
370
     0
100
AcDbVertex
100
AcDb2dVertex
 10
71.3631329975216
 20
127.8027915271048
 30
0.0
  0
VERTEX
  5
69A
330
695
100
AcDbEntity
  8
LOGO
370
     0
100
AcDbVertex
100
AcDb2dVertex
 10
60.43011526263018
 20
127.8027915271048
 30
0.0
  0
VERTEX
  5
69B
330
695
100
AcDbEntity
  8
LOGO
370
     0
100
AcDbVertex
100
AcDb2dVertex
 10
60.43011526263018
 20
159.7968976406313
 30
0.0
  0
VERTEX
  5
69C
330
695
100
AcDbEntity
  8
LOGO
370
     0
100
AcDbVertex
100
AcDb2dVertex
 10
48.21793273020759
 20
159.7968976406313
 30
0.0
  0
VERTEX
  5
69D
330
695
100
AcDbEntity
  8
LOGO
370
     0
100
AcDbVertex
100
AcDb2dVertex
 10
48.21793273020759
 20
167.6444858234922
 30
0.0
  0
VERTEX
  5
69E
330
695
100
AcDbEntity
  8
LOGO
370
     0
100
AcDbVertex
100
AcDb2dVertex
 10
83.79545727667795
 20
167.6444858234922
 30
0.0
  0
SEQEND
  5
69F
330
695
100
AcDbEntity
  8
LOGO
370
     0
  0
HATCH
  5
6A0
330
693
100
AcDbEntity
  8
LOGO
 62
   250
420
  2234388
100
AcDbHatch
 10
0.0
 20
0.0
 30
0.0
210
0.0
220
0.0
230
1.0
  2
SOLID
 70
     1
 71
     0
 91
        1
 92
        1
 93
        8
 72
     1
 10
83.79545727667795
 20
167.6444858234922
 11
83.79545727667795
 21
159.7968976406313
 72
     1
 10
83.79545727667795
 20
159.7968976406313
 11
71.3631329975216
 21
159.7968976406313
 72
     1
 10
71.3631329975216
 20
159.7968976406313
 11
71.3631329975216
 21
127.8027915271048
 72
     1
 10
71.3631329975216
 20
127.8027915271048
 11
60.43011526263018
 21
127.8027915271048
 72
     1
 10
60.43011526263018
 20
127.8027915271048
 11
60.43011526263018
 21
159.7968976406313
 72
     1
 10
60.43011526263018
 20
159.7968976406313
 11
48.21793273020759
 21
159.7968976406313
 72
     1
 10
48.21793273020759
 20
159.7968976406313
 11
48.21793273020759
 21
167.6444858234922
 72
     1
 10
48.21793273020759
 20
167.6444858234922
 11
83.79545727667795
 21
167.6444858234922
 97
        0
 75
     2
 76
     1
 98
        0
  0
ENDBLK
  5
6AE
330
693
100
AcDbEntity
  8
0
100
AcDbBlockEnd
  0
BLOCK
  5
6A3
330
6A2
100
AcDbEntity
  8
0
100
AcDbBlockBegin
  2
block 5
 70
     0
 10
0.0
 20
0.0
 30
0.0
  3
block 5
  1
block 5
  0
SPLINE
  5
6A4
330
6A2
100
AcDbEntity
  8
LOGO
370
     0
100
AcDbSpline
210
0.0
220
0.0
230
1.0
 70
    11
 71
     3
 72
    56
 73
    52
 74
     0
 42
0.000000001
 43
0.0000000001
 40
0.0
 40
0.0
 40
0.0
 40
0.0
 40
1.0
 40
1.0
 40
1.0
 40
2.0
 40
2.0
 40
2.0
 40
3.0
 40
3.0
 40
3.0
 40
4.0
 40
4.0
 40
4.0
 40
5.0
 40
5.0
 40
5.0
 40
6.0
 40
6.0
 40
6.0
 40
7.0
 40
7.0
 40
7.0
 40
8.0
 40
8.0
 40
8.0
 40
9.0
 40
9.0
 40
9.0
 40
10.0
 40
10.0
 40
10.0
 40
11.0
 40
11.0
 40
11.0
 40
12.0
 40
12.0
 40
12.0
 40
13.0
 40
13.0
 40
13.0
 40
14.0
 40
14.0
 40
14.0
 40
15.0
 40
15.0
 40
15.0
 40
16.0
 40
16.0
 40
16.0
 40
17.0
 40
17.0
 40
17.0
 40
17.0
 10
100.4504378777679
 20
166.69157178364
 30
0.0
 10
101.9848844191641
 20
167.1313385124438
 30
0.0
 10
103.9637485713373
 20
166.7649523658846
 30
0.0
 10
103.9637485713373
 20
166.7649523658846
 30
0.0
 10
103.9637485713373
 20
166.7649523658846
 30
0.0
 10
103.0132460999156
 20
163.911205638077
 30
0.0
 10
103.0132460999156
 20
163.911205638077
 30
0.0
 10
103.0132460999156
 20
163.911205638077
 30
0.0
 10
101.0674548862189
 20
164.3601018759394
 30
0.0
 10
99.57090442016032
 20
163.1805004036133
 30
0.0
 10
98.40508333886608
 20
162.258247733807
 30
0.0
 10
97.65301849830304
 20
159.804132345923
 30
0.0
 10
97.3598406791005
 20
158.8699940888517
 30
0.0
 10
97.3598406791005
 20
158.8699940888517
 30
0.0
 10
96.07137411762282
 20
154.9119212747295
 30
0.0
 10
96.07137411762282
 20
154.9119212747295
 30
0.0
 10
96.07137411762282
 20
154.9119212747295
 30
0.0
 10
100.3012651448482
 20
154.9119212747295
 30
0.0
 10
100.3012651448482
 20
154.9119212747295
 30
0.0
 10
100.3012651448482
 20
154.9119212747295
 30
0.0
 10
99.64152892419852
 20
152.4199098115079
 30
0.0
 10
99.64152892419852
 20
152.4199098115079
 30
0.0
 10
99.64152892419852
 20
152.4199098115079
 30
0.0
 10
95.38097652692731
 20
152.4199098115079
 30
0.0
 10
95.38097652692731
 20
152.4199098115079
 30
0.0
 10
95.38097652692731
 20
152.4199098115079
 30
0.0
 10
87.75353009080013
 20
127.8027915271048
 30
0.0
 10
87.75353009080013
 20
127.8027915271048
 30
0.0
 10
87.75353009080013
 20
127.8027915271048
 30
0.0
 10
85.36538832498108
 20
127.8027915271048
 30
0.0
 10
85.36538832498108
 20
127.8027915271048
 30
0.0
 10
85.36538832498108
 20
127.8027915271048
 30
0.0
 10
93.00006946639998
 20
152.4199098115079
 30
0.0
 10
93.00006946639998
 20
152.4199098115079
 30
0.0
 10
93.00006946639998
 20
152.4199098115079
 30
0.0
 10
89.85297266450198
 20
152.4199098115079
 30
0.0
 10
89.85297266450198
 20
152.4199098115079
 30
0.0
 10
89.85297266450198
 20
152.4199098115079
 30
0.0
 10
90.51270888515164
 20
154.9119212747295
 30
0.0
 10
90.51270888515164
 20
154.9119212747295
 30
0.0
 10
90.51270888515164
 20
154.9119212747295
 30
0.0
 10
93.6904670570955
 20
154.9119212747295
 30
0.0
 10
93.6904670570955
 20
154.9119212747295
 30
0.0
 10
93.6904670570955
 20
154.9119212747295
 30
0.0
 10
94.81598049462158
 20
158.3616699146644
 30
0.0
 10
94.81598049462158
 20
158.3616699146644
 30
0.0
 10
95.7237637538445
 20
161.2605474231013
 30
0.0
 10
96.4968436907311
 20
162.8139420021662
 30
0.0
 10
97.15657991138076
 20
163.9844139654337
 30
0.0
 10
97.81183750494507
 20
165.1523021053827
 30
0.0
 10
99.1047826935081
 20
166.3084769129547
 30
0.0
 10
100.4504378777679
 20
166.69157178364
 30
0.0
  0
HATCH
  5
6A5
330
6A2
100
AcDbEntity
  8
LOGO
 62
   250
420
  2234388
100
AcDbHatch
 10
0.0
 20
0.0
 30
0.0
210
0.0
220
0.0
230
1.0
  2
SOLID
 70
     1
 71
     0
 91
        1
 92
        1
 93
        1
 72
     4
 94
        3
 73
     0
 74
     1
 95
       56
 96
       52
 40
0.0
 40
0.0
 40
0.0
 40
0.0
 40
1.0
 40
1.0
 40
1.0
 40
2.0
 40
2.0
 40
2.0
 40
3.0
 40
3.0
 40
3.0
 40
4.0
 40
4.0
 40
4.0
 40
5.0
 40
5.0
 40
5.0
 40
6.0
 40
6.0
 40
6.0
 40
7.0
 40
7.0
 40
7.0
 40
8.0
 40
8.0
 40
8.0
 40
9.0
 40
9.0
 40
9.0
 40
10.0
 40
10.0
 40
10.0
 40
11.0
 40
11.0
 40
11.0
 40
12.0
 40
12.0
 40
12.0
 40
13.0
 40
13.0
 40
13.0
 40
14.0
 40
14.0
 40
14.0
 40
15.0
 40
15.0
 40
15.0
 40
16.0
 40
16.0
 40
16.0
 40
17.0
 40
17.0
 40
17.0
 40
17.0
 10
100.4504378777679
 20
166.69157178364
 10
101.9848844191641
 20
167.1313385124438
 10
103.9637485713373
 20
166.7649523658846
 10
103.9637485713373
 20
166.7649523658846
 10
103.9637485713373
 20
166.7649523658846
 10
103.0132460999156
 20
163.911205638077
 10
103.0132460999156
 20
163.911205638077
 10
103.0132460999156
 20
163.911205638077
 10
101.0674548862189
 20
164.3601018759394
 10
99.57090442016032
 20
163.1805004036133
 10
98.40508333886608
 20
162.258247733807
 10
97.65301849830304
 20
159.804132345923
 10
97.3598406791005
 20
158.8699940888517
 10
97.3598406791005
 20
158.8699940888517
 10
96.07137411762282
 20
154.9119212747295
 10
96.07137411762282
 20
154.9119212747295
 10
96.07137411762282
 20
154.9119212747295
 10
100.3012651448482
 20
154.9119212747295
 10
100.3012651448482
 20
154.9119212747295
 10
100.3012651448482
 20
154.9119212747295
 10
99.64152892419852
 20
152.4199098115079
 10
99.64152892419852
 20
152.4199098115079
 10
99.64152892419852
 20
152.4199098115079
 10
95.38097652692731
 20
152.4199098115079
 10
95.38097652692731
 20
152.4199098115079
 10
95.38097652692731
 20
152.4199098115079
 10
87.75353009080013
 20
127.8027915271048
 10
87.75353009080013
 20
127.8027915271048
 10
87.75353009080013
 20
127.8027915271048
 10
85.36538832498108
 20
127.8027915271048
 10
85.36538832498108
 20
127.8027915271048
 10
85.36538832498108
 20
127.8027915271048
 10
93.00006946639998
 20
152.4199098115079
 10
93.00006946639998
 20
152.4199098115079
 10
93.00006946639998
 20
152.4199098115079
 10
89.85297266450198
 20
152.4199098115079
 10
89.85297266450198
 20
152.4199098115079
 10
89.85297266450198
 20
152.4199098115079
 10
90.51270888515164
 20
154.9119212747295
 10
90.51270888515164
 20
154.9119212747295
 10
90.51270888515164
 20
154.9119212747295
 10
93.6904670570955
 20
154.9119212747295
 10
93.6904670570955
 20
154.9119212747295
 10
93.6904670570955
 20
154.9119212747295
 10
94.81598049462158
 20
158.3616699146644
 10
94.81598049462158
 20
158.3616699146644
 10
95.7237637538445
 20
161.2605474231013
 10
96.4968436907311
 20
162.8139420021662
 10
97.15657991138076
 20
163.9844139654337
 10
97.81183750494507
 20
165.1523021053827
 10
99.1047826935081
 20
166.3084769129547
 10
100.4504378777679
 20
166.69157178364
 97
        0
 75
     2
 76
     1
 98
        0
  0
SPLINE
  5
6A6
330
6A2
100
AcDbEntity
  8
LOGO
370
     0
100
AcDbSpline
210
0.0
220
0.0
230
1.0
 70
    11
 71
     3
 72
    38
 73
    34
 74
     0
 42
0.000000001
 43
0.0000000001
 40
0.0
 40
0.0
 40
0.0
 40
0.0
 40
1.0
 40
1.0
 40
1.0
 40
2.0
 40
2.0
 40
2.0
 40
3.0
 40
3.0
 40
3.0
 40
4.0
 40
4.0
 40
4.0
 40
5.0
 40
5.0
 40
5.0
 40
6.0
 40
6.0
 40
6.0
 40
7.0
 40
7.0
 40
7.0
 40
8.0
 40
8.0
 40
8.0
 40
9.0
 40
9.0
 40
9.0
 40
10.0
 40
10.0
 40
10.0
 40
11.0
 40
11.0
 40
11.0
 40
11.0
 10
126.377554584636
 20
154.8151140277308
 30
0.0
 10
126.377554584636
 20
154.8151140277308
 30
0.0
 10
128.8311532078563
 20
154.8151140277308
 30
0.0
 10
128.8311532078563
 20
154.8151140277308
 30
0.0
 10
128.8311532078563
 20
154.8151140277308
 30
0.0
 10
127.7345785914971
 20
151.3062819612468
 30
0.0
 10
127.7345785914971
 20
151.3062819612468
 30
0.0
 10
128.571392836906
 20
152.2922689395754
 30
0.0
 10
129.8860421413442
 20
153.604506675583
 30
0.0
 10
131.0163787157314
 20
154.2664822097754
 30
0.0
 10
132.7044766171327
 20
155.2500576196734
 30
0.0
 10
133.6642808525008
 20
155.3847609420097
 30
0.0
 10
134.7284715499351
 20
155.3565111403944
 30
0.0
 10
134.7284715499351
 20
155.3565111403944
 30
0.0
 10
133.6877075172549
 20
152.0345756272799
 30
0.0
 10
133.6877075172549
 20
152.0345756272799
 30
0.0
 10
133.011434827367
 20
152.3184516825359
 30
0.0
 10
130.930940291334
 20
151.7768823149844
 30
0.0
 10
129.739280976855
 20
150.9162968950455
 30
0.0
 10
128.66613302525
 20
150.1454562717016
 30
0.0
 10
127.9192358313239
 20
149.4857200510519
 30
0.0
 10
127.0393578639405
 20
147.8282835196966
 30
0.0
 10
126.164647543194
 20
146.1699857139017
 30
0.0
 10
125.4742499524985
 20
143.5262176944419
 30
0.0
 10
124.2822461282437
 20
139.6959580071401
 30
0.0
 10
124.2822461282437
 20
139.6959580071401
 30
0.0
 10
120.5753209406769
 20
127.8027915271048
 30
0.0
 10
120.5753209406769
 20
127.8027915271048
 30
0.0
 10
120.5753209406769
 20
127.8027915271048
 30
0.0
 10
118.1964809388044
 20
127.8027915271048
 30
0.0
 10
118.1964809388044
 20
127.8027915271048
 30
0.0
 10
118.1964809388044
 20
127.8027915271048
 30
0.0
 10
126.377554584636
 20
154.8151140277308
 30
0.0
 10
126.377554584636
 20
154.8151140277308
 30
0.0
  0
HATCH
  5
6A7
330
6A2
100
AcDbEntity
  8
LOGO
 62
   250
420
  2234388
100
AcDbHatch
 10
0.0
 20
0.0
 30
0.0
210
0.0
220
0.0
230
1.0
  2
SOLID
 70
     1
 71
     0
 91
        1
 92
        1
 93
        1
 72
     4
 94
        3
 73
     0
 74
     1
 95
       38
 96
       34
 40
0.0
 40
0.0
 40
0.0
 40
0.0
 40
1.0
 40
1.0
 40
1.0
 40
2.0
 40
2.0
 40
2.0
 40
3.0
 40
3.0
 40
3.0
 40
4.0
 40
4.0
 40
4.0
 40
5.0
 40
5.0
 40
5.0
 40
6.0
 40
6.0
 40
6.0
 40
7.0
 40
7.0
 40
7.0
 40
8.0
 40
8.0
 40
8.0
 40
9.0
 40
9.0
 40
9.0
 40
10.0
 40
10.0
 40
10.0
 40
11.0
 40
11.0
 40
11.0
 40
11.0
 10
126.377554584636
 20
154.8151140277308
 10
126.377554584636
 20
154.8151140277308
 10
128.8311532078563
 20
154.8151140277308
 10
128.8311532078563
 20
154.8151140277308
 10
128.8311532078563
 20
154.8151140277308
 10
127.7345785914971
 20
151.3062819612468
 10
127.7345785914971
 20
151.3062819612468
 10
128.571392836906
 20
152.2922689395754
 10
129.8860421413442
 20
153.604506675583
 10
131.0163787157314
 20
154.2664822097754
 10
132.7044766171327
 20
155.2500576196734
 10
133.6642808525008
 20
155.3847609420097
 10
134.7284715499351
 20
155.3565111403944
 10
134.7284715499351
 20
155.3565111403944
 10
133.6877075172549
 20
152.0345756272799
 10
133.6877075172549
 20
152.0345756272799
 10
133.011434827367
 20
152.3184516825359
 10
130.930940291334
 20
151.7768823149844
 10
129.739280976855
 20
150.9162968950455
 10
128.66613302525
 20
150.1454562717016
 10
127.9192358313239
 20
149.4857200510519
 10
127.0393578639405
 20
147.8282835196966
 10
126.164647543194
 20
146.1699857139017
 10
125.4742499524985
 20
143.5262176944419
 10
124.2822461282437
 20
139.6959580071401
 10
124.2822461282437
 20
139.6959580071401
 10
120.5753209406769
 20
127.8027915271048
 10
120.5753209406769
 20
127.8027915271048
 10
120.5753209406769
 20
127.8027915271048
 10
118.1964809388044
 20
127.8027915271048
 10
118.1964809388044
 20
127.8027915271048
 10
118.1964809388044
 20
127.8027915271048
 10
126.377554584636
 20
154.8151140277308
 10
126.377554584636
 20
154.8151140277308
 97
        0
 75
     2
 76
     1
 98
        0
  0
SPLINE
  5
6A8
330
6A2
100
AcDbEntity
  8
LOGO
370
     0
100
AcDbSpline
210
0.0
220
0.0
230
1.0
 70
    11
 71
     3
 72
   104
 73
   100
 74
     0
 42
0.000000001
 43
0.0000000001
 40
0.0
 40
0.0
 40
0.0
 40
0.0
 40
1.0
 40
1.0
 40
1.0
 40
2.0
 40
2.0
 40
2.0
 40
3.0
 40
3.0
 40
3.0
 40
4.0
 40
4.0
 40
4.0
 40
5.0
 40
5.0
 40
5.0
 40
6.0
 40
6.0
 40
6.0
 40
7.0
 40
7.0
 40
7.0
 40
8.0
 40
8.0
 40
8.0
 40
9.0
 40
9.0
 40
9.0
 40
10.0
 40
10.0
 40
10.0
 40
11.0
 40
11.0
 40
11.0
 40
12.0
 40
12.0
 40
12.0
 40
13.0
 40
13.0
 40
13.0
 40
14.0
 40
14.0
 40
14.0
 40
15.0
 40
15.0
 40
15.0
 40
16.0
 40
16.0
 40
16.0
 40
17.0
 40
17.0
 40
17.0
 40
18.0
 40
18.0
 40
18.0
 40
19.0
 40
19.0
 40
19.0
 40
20.0
 40
20.0
 40
20.0
 40
21.0
 40
21.0
 40
21.0
 40
22.0
 40
22.0
 40
22.0
 40
23.0
 40
23.0
 40
23.0
 40
24.0
 40
24.0
 40
24.0
 40
25.0
 40
25.0
 40
25.0
 40
26.0
 40
26.0
 40
26.0
 40
27.0
 40
27.0
 40
27.0
 40
28.0
 40
28.0
 40
28.0
 40
29.0
 40
29.0
 40
29.0
 40
30.0
 40
30.0
 40
30.0
 40
31.0
 40
31.0
 40
31.0
 40
32.0
 40
32.0
 40
32.0
 40
33.0
 40
33.0
 40
33.0
 40
33.0
 10
139.8926730891197
 20
154.8294111834263
 30
0.0
 10
139.8926730891197
 20
154.8294111834263
 30
0.0
 10
142.0344903652445
 20
154.8294111834263
 30
0.0
 10
142.0344903652445
 20
154.8294111834263
 30
0.0
 10
142.0344903652445
 20
154.8294111834263
 30
0.0
 10
140.9516961399171
 20
151.3157559800812
 30
0.0
 10
140.9516961399171
 20
151.3157559800812
 30
0.0
 10
141.8928968473923
 20
152.7887075264977
 30
0.0
 10
142.7341897198865
 20
153.4484437471474
 30
0.0
 10
143.8552245303272
 20
154.2926649527359
 30
0.0
 10
144.9803934580775
 20
155.1296514530327
 30
0.0
 10
146.3139908001845
 20
155.3044901642492
 30
0.0
 10
147.241066606852
 20
155.3044901642492
 30
0.0
 10
148.3855280820469
 20
155.3044901642492
 30
0.0
 10
149.4969166187653
 20
155.0752189084569
 30
0.0
 10
150.0784491203092
 20
153.8172414621372
 30
0.0
 10
150.5228667310863
 20
152.833838307127
 30
0.0
 10
150.5414702589793
 20
152.7201500811143
 30
0.0
 10
150.4140016419347
 20
150.7765981809602
 30
0.0
 10
151.5818897818837
 20
152.7699317437168
 30
0.0
 10
152.4424752018226
 20
153.6256940267945
 30
0.0
 10
153.9038856707499
 20
154.4507949398263
 30
0.0
 10
155.4455669174378
 20
155.3044901642492
 30
0.0
 10
156.339225275853
 20
155.3659851592288
 30
0.0
 10
157.3748216618963
 20
155.2147453676543
 30
0.0
 10
158.911679771723
 20
154.9877134254046
 30
0.0
 10
159.8859534176746
 20
154.4390816074493
 30
0.0
 10
160.3965169054045
 20
152.7816450760939
 30
0.0
 10
160.9070803931344
 20
151.1219692311958
 30
0.0
 10
160.6328506116007
 20
150.2303779314354
 30
0.0
 10
159.9992971339115
 20
147.597634224801
 30
0.0
 10
159.7105979417943
 20
146.4014962832367
 30
0.0
 10
159.2947746424084
 20
144.9400858143094
 30
0.0
 10
158.7463150793409
 20
143.2092687007094
 30
0.0
 10
158.7463150793409
 20
143.2092687007094
 30
0.0
 10
153.9038856707499
 20
127.8027915271048
 30
0.0
 10
153.9038856707499
 20
127.8027915271048
 30
0.0
 10
153.9038856707499
 20
127.8027915271048
 30
0.0
 10
151.3882752878863
 20
127.8027915271048
 30
0.0
 10
151.3882752878863
 20
127.8027915271048
 30
0.0
 10
151.3882752878863
 20
127.8027915271048
 30
0.0
 10
155.6250565106276
 20
141.2751908193897
 30
0.0
 10
155.6250565106276
 20
141.2751908193897
 30
0.0
 10
156.5094131050963
 20
144.0936252951782
 30
0.0
 10
157.109893644309
 20
146.1506931664571
 30
0.0
 10
157.4220195011804
 20
147.4415712963654
 30
0.0
 10
157.8095929989511
 20
149.0530157726519
 30
0.0
 10
157.9656559273867
 20
149.5826995529385
 30
0.0
 10
157.7816877071116
 20
150.7529992613181
 30
0.0
 10
157.6111553680925
 20
151.8430281919372
 30
0.0
 10
157.0582171779396
 20
152.5547853887321
 30
0.0
 10
156.1170164704645
 20
152.5547853887321
 30
0.0
 10
155.1096698860365
 20
152.5547853887321
 30
0.0
 10
154.2962823053817
 20
152.4412694176073
 30
0.0
 10
153.156643967048
 20
151.2945686288697
 30
0.0
 10
152.0170056287143
 20
150.1476955852443
 30
0.0
 10
151.076149431015
 20
148.7930831468137
 30
0.0
 10
150.3337308641742
 20
147.2290087646991
 30
0.0
 10
149.5957909244188
 20
145.6683794803425
 30
0.0
 10
148.8530278478023
 20
143.6822806228776
 30
0.0
 10
148.0964843801539
 20
141.2751908193897
 30
0.0
 10
148.0964843801539
 20
141.2751908193897
 30
0.0
 10
143.8552245303272
 20
127.8027915271048
 30
0.0
 10
143.8552245303272
 20
127.8027915271048
 30
0.0
 10
143.8552245303272
 20
127.8027915271048
 30
0.0
 10
141.486030802177
 20
127.8027915271048
 30
0.0
 10
141.486030802177
 20
127.8027915271048
 30
0.0
 10
141.486030802177
 20
127.8027915271048
 30
0.0
 10
146.3329388378533
 20
143.2092687007094
 30
0.0
 10
146.3329388378533
 20
143.2092687007094
 30
0.0
 10
146.8483254624444
 20
144.8408669988801
 30
0.0
 10
147.2314203331297
 20
146.1837661049335
 30
0.0
 10
147.4867020769946
 20
147.224185627838
 30
0.0
 10
147.9169947869641
 20
149.0197705792876
 30
0.0
 10
148.0306830129768
 20
150.2400242051577
 30
0.0
 10
147.709255392159
 20
151.3157559800812
 30
0.0
 10
147.3874832615654
 20
152.3916600098926
 30
0.0
 10
146.8245542879144
 20
152.6683013598569
 30
0.0
 10
145.8840425999909
 20
152.6683013598569
 30
0.0
 10
145.0989048209514
 20
152.6683013598569
 30
0.0
 10
144.3282364524954
 20
152.3275811915945
 30
0.0
 10
143.4531816219731
 20
151.6538923250251
 30
0.0
 10
142.34627171234
 20
150.8074318058939
 30
0.0
 10
141.901854101563
 20
150.1097995099067
 30
0.0
 10
141.3578731655808
 20
149.289521733736
 30
0.0
 10
140.6299240093235
 20
148.192602607601
 30
0.0
 10
140.2850697237515
 20
147.455696197173
 30
0.0
 10
139.6652966370942
 20
145.8385673095858
 30
0.0
 10
139.0506911970739
 20
144.2214384219986
 30
0.0
 10
138.463991048893
 20
142.3252566160164
 30
0.0
 10
138.0571250036777
 20
141.0154304484394
 30
0.0
 10
138.0571250036777
 20
141.0154304484394
 30
0.0
 10
133.9009590684727
 20
127.8027915271048
 30
0.0
 10
133.9009590684727
 20
127.8027915271048
 30
0.0
 10
133.9009590684727
 20
127.8027915271048
 30
0.0
 10
131.4180771143097
 20
127.8027915271048
 30
0.0
 10
131.4180771143097
 20
127.8027915271048
 30
0.0
 10
131.4180771143097
 20
127.8027915271048
 30
0.0
 10
139.8926730891197
 20
154.8294111834263
 30
0.0
 10
139.8926730891197
 20
154.8294111834263
 30
0.0
  0
HATCH
  5
6A9
330
6A2
100
AcDbEntity
  8
LOGO
 62
   250
420
  2234388
100
AcDbHatch
 10
0.0
 20
0.0
 30
0.0
210
0.0
220
0.0
230
1.0
  2
SOLID
 70
     1
 71
     0
 91
        1
 92
        1
 93
        1
 72
     4
 94
        3
 73
     0
 74
     1
 95
      104
 96
      100
 40
0.0
 40
0.0
 40
0.0
 40
0.0
 40
1.0
 40
1.0
 40
1.0
 40
2.0
 40
2.0
 40
2.0
 40
3.0
 40
3.0
 40
3.0
 40
4.0
 40
4.0
 40
4.0
 40
5.0
 40
5.0
 40
5.0
 40
6.0
 40
6.0
 40
6.0
 40
7.0
 40
7.0
 40
7.0
 40
8.0
 40
8.0
 40
8.0
 40
9.0
 40
9.0
 40
9.0
 40
10.0
 40
10.0
 40
10.0
 40
11.0
 40
11.0
 40
11.0
 40
12.0
 40
12.0
 40
12.0
 40
13.0
 40
13.0
 40
13.0
 40
14.0
 40
14.0
 40
14.0
 40
15.0
 40
15.0
 40
15.0
 40
16.0
 40
16.0
 40
16.0
 40
17.0
 40
17.0
 40
17.0
 40
18.0
 40
18.0
 40
18.0
 40
19.0
 40
19.0
 40
19.0
 40
20.0
 40
20.0
 40
20.0
 40
21.0
 40
21.0
 40
21.0
 40
22.0
 40
22.0
 40
22.0
 40
23.0
 40
23.0
 40
23.0
 40
24.0
 40
24.0
 40
24.0
 40
25.0
 40
25.0
 40
25.0
 40
26.0
 40
26.0
 40
26.0
 40
27.0
 40
27.0
 40
27.0
 40
28.0
 40
28.0
 40
28.0
 40
29.0
 40
29.0
 40
29.0
 40
30.0
 40
30.0
 40
30.0
 40
31.0
 40
31.0
 40
31.0
 40
32.0
 40
32.0
 40
32.0
 40
33.0
 40
33.0
 40
33.0
 40
33.0
 10
139.8926730891197
 20
154.8294111834263
 10
139.8926730891197
 20
154.8294111834263
 10
142.0344903652445
 20
154.8294111834263
 10
142.0344903652445
 20
154.8294111834263
 10
142.0344903652445
 20
154.8294111834263
 10
140.9516961399171
 20
151.3157559800812
 10
140.9516961399171
 20
151.3157559800812
 10
141.8928968473923
 20
152.7887075264977
 10
142.7341897198865
 20
153.4484437471474
 10
143.8552245303272
 20
154.2926649527359
 10
144.9803934580775
 20
155.1296514530327
 10
146.3139908001845
 20
155.3044901642492
 10
147.241066606852
 20
155.3044901642492
 10
148.3855280820469
 20
155.3044901642492
 10
149.4969166187653
 20
155.0752189084569
 10
150.0784491203092
 20
153.8172414621372
 10
150.5228667310863
 20
152.833838307127
 10
150.5414702589793
 20
152.7201500811143
 10
150.4140016419347
 20
150.7765981809602
 10
151.5818897818837
 20
152.7699317437168
 10
152.4424752018226
 20
153.6256940267945
 10
153.9038856707499
 20
154.4507949398263
 10
155.4455669174378
 20
155.3044901642492
 10
156.339225275853
 20
155.3659851592288
 10
157.3748216618963
 20
155.2147453676543
 10
158.911679771723
 20
154.9877134254046
 10
159.8859534176746
 20
154.4390816074493
 10
160.3965169054045
 20
152.7816450760939
 10
160.9070803931344
 20
151.1219692311958
 10
160.6328506116007
 20
150.2303779314354
 10
159.9992971339115
 20
147.597634224801
 10
159.7105979417943
 20
146.4014962832367
 10
159.2947746424084
 20
144.9400858143094
 10
158.7463150793409
 20
143.2092687007094
 10
158.7463150793409
 20
143.2092687007094
 10
153.9038856707499
 20
127.8027915271048
 10
153.9038856707499
 20
127.8027915271048
 10
153.9038856707499
 20
127.8027915271048
 10
151.3882752878863
 20
127.8027915271048
 10
151.3882752878863
 20
127.8027915271048
 10
151.3882752878863
 20
127.8027915271048
 10
155.6250565106276
 20
141.2751908193897
 10
155.6250565106276
 20
141.2751908193897
 10
156.5094131050963
 20
144.0936252951782
 10
157.109893644309
 20
146.1506931664571
 10
157.4220195011804
 20
147.4415712963654
 10
157.8095929989511
 20
149.0530157726519
 10
157.9656559273867
 20
149.5826995529385
 10
157.7816877071116
 20
150.7529992613181
 10
157.6111553680925
 20
151.8430281919372
 10
157.0582171779396
 20
152.5547853887321
 10
156.1170164704645
 20
152.5547853887321
 10
155.1096698860365
 20
152.5547853887321
 10
154.2962823053817
 20
152.4412694176073
 10
153.156643967048
 20
151.2945686288697
 10
152.0170056287143
 20
150.1476955852443
 10
151.076149431015
 20
148.7930831468137
 10
150.3337308641742
 20
147.2290087646991
 10
149.5957909244188
 20
145.6683794803425
 10
148.8530278478023
 20
143.6822806228776
 10
148.0964843801539
 20
141.2751908193897
 10
148.0964843801539
 20
141.2751908193897
 10
143.8552245303272
 20
127.8027915271048
 10
143.8552245303272
 20
127.8027915271048
 10
143.8552245303272
 20
127.8027915271048
 10
141.486030802177
 20
127.8027915271048
 10
141.486030802177
 20
127.8027915271048
 10
141.486030802177
 20
127.8027915271048
 10
146.3329388378533
 20
143.2092687007094
 10
146.3329388378533
 20
143.2092687007094
 10
146.8483254624444
 20
144.8408669988801
 10
147.2314203331297
 20
146.1837661049335
 10
147.4867020769946
 20
147.224185627838
 10
147.9169947869641
 20
149.0197705792876
 10
148.0306830129768
 20
150.2400242051577
 10
147.709255392159
 20
151.3157559800812
 10
147.3874832615654
 20
152.3916600098926
 10
146.8245542879144
 20
152.6683013598569
 10
145.8840425999909
 20
152.6683013598569
 10
145.0989048209514
 20
152.6683013598569
 10
144.3282364524954
 20
152.3275811915945
 10
143.4531816219731
 20
151.6538923250251
 10
142.34627171234
 20
150.8074318058939
 10
141.901854101563
 20
150.1097995099067
 10
141.3578731655808
 20
149.289521733736
 10
140.6299240093235
 20
148.192602607601
 10
140.2850697237515
 20
147.455696197173
 10
139.6652966370942
 20
145.8385673095858
 10
139.0506911970739
 20
144.2214384219986
 10
138.463991048893
 20
142.3252566160164
 10
138.0571250036777
 20
141.0154304484394
 10
138.0571250036777
 20
141.0154304484394
 10
133.9009590684727
 20
127.8027915271048
 10
133.9009590684727
 20
127.8027915271048
 10
133.9009590684727
 20
127.8027915271048
 10
131.4180771143097
 20
127.8027915271048
 10
131.4180771143097
 20
127.8027915271048
 10
131.4180771143097
 20
127.8027915271048
 10
139.8926730891197
 20
154.8294111834263
 10
139.8926730891197
 20
154.8294111834263
 97
        0
 75
     2
 76
     1
 98
        0
  0
SPLINE
  5
6AA
330
6A2
100
AcDbEntity
  8
LOGO
370
     0
100
AcDbSpline
210
0.0
220
0.0
230
1.0
 70
    11
 71
     3
 72
    29
 73
    25
 74
     0
 42
0.000000001
 43
0.0000000001
 40
0.0
 40
0.0
 40
0.0
 40
0.0
 40
1.0
 40
1.0
 40
1.0
 40
2.0
 40
2.0
 40
2.0
 40
3.0
 40
3.0
 40
3.0
 40
4.0
 40
4.0
 40
4.0
 40
5.0
 40
5.0
 40
5.0
 40
6.0
 40
6.0
 40
6.0
 40
7.0
 40
7.0
 40
7.0
 40
8.0
 40
8.0
 40
8.0
 40
8.0
 10
101.6420971922469
 20
132.8388354296931
 30
0.0
 10
101.630039350094
 20
134.7164137077823
 30
0.0
 10
102.2236296937908
 20
138.0598810818841
 30
0.0
 10
103.7487744712405
 20
142.5378191476827
 30
0.0
 10
105.819967243327
 20
148.5896501242061
 30
0.0
 10
107.0602024361932
 20
150.8074318058939
 30
0.0
 10
108.1522984254671
 20
151.8833358357054
 30
0.0
 10
109.741177511439
 20
153.4532668840085
 30
0.0
 10
111.8740375333931
 20
153.5290590346837
 30
0.0
 10
112.5075910110823
 20
153.4532668840085
 30
0.0
 10
113.4012493694975
 20
153.3490526768302
 30
0.0
 10
114.6683563248758
 20
152.7580461564518
 30
0.0
 10
114.7493161221879
 20
150.7838328862519
 30
0.0
 10
114.8106388622796
 20
149.0909118479895
 30
0.0
 10
114.3186789024427
 20
145.9191825971221
 30
0.0
 10
112.6164561002338
 20
140.9489400617108
 30
0.0
 10
110.6444821435766
 20
135.1746117095912
 30
0.0
 10
109.4669477299053
 20
132.8960240524753
 30
0.0
 10
108.5212683953448
 20
131.9072809959403
 30
0.0
 10
106.7346406980658
 20
130.0538184021569
 30
0.0
 10
104.8222669326213
 20
130.2336525051225
 30
0.0
 10
104.5408024457958
 20
130.2336525051225
 30
0.0
 10
104.1721769856939
 20
130.2336525051225
 30
0.0
 10
101.6465758193322
 20
130.6305277668397
 30
0.0
 10
101.6420971922469
 20
132.8388354296931
 30
0.0
  0
SPLINE
  5
6AB
330
6A2
100
AcDbEntity
  8
LOGO
370
     0
100
AcDbSpline
210
0.0
220
0.0
230
1.0
 70
    11
 71
     3
 72
    32
 73
    28
 74
     0
 42
0.000000001
 43
0.0000000001
 40
0.0
 40
0.0
 40
0.0
 40
0.0
 40
1.0
 40
1.0
 40
1.0
 40
2.0
 40
2.0
 40
2.0
 40
3.0
 40
3.0
 40
3.0
 40
4.0
 40
4.0
 40
4.0
 40
5.0
 40
5.0
 40
5.0
 40
6.0
 40
6.0
 40
6.0
 40
7.0
 40
7.0
 40
7.0
 40
8.0
 40
8.0
 40
8.0
 40
9.0
 40
9.0
 40
9.0
 40
9.0
 10
106.2595617172429
 20
153.4105476718098
 30
0.0
 10
104.8222669326213
 20
151.5474388043041
 30
0.0
 10
103.7177685914188
 20
149.8758773721411
 30
0.0
 10
101.9232171692965
 20
144.6141795664062
 30
0.0
 10
100.2754269116635
 20
139.7999999594306
 30
0.0
 10
99.22777268346732
 20
136.3052927937542
 30
0.0
 10
99.06964269637689
 20
132.039572749846
 30
0.0
 10
98.94665270641765
 20
128.8673267343149
 30
0.0
 10
100.8807305877373
 20
127.8027915271048
 30
0.0
 10
103.7129454545577
 20
127.8027915271048
 30
0.0
 10
104.9352661390825
 20
127.8027915271048
 30
0.0
 10
108.0151835347002
 20
127.8827177950895
 30
0.0
 10
110.2045431598849
 20
130.5926316915021
 30
0.0
 10
111.7417457794874
 20
132.4984597712065
 30
0.0
 10
113.155269389579
 20
134.475256864725
 30
0.0
 10
115.0562743324223
 20
140.9489400617108
 30
0.0
 10
116.6361961642235
 20
146.3680788349845
 30
0.0
 10
117.7282921534974
 20
149.8639917848761
 30
0.0
 10
117.6480213757369
 20
151.8595646611754
 30
0.0
 10
117.6480213757369
 20
151.8595646611754
 30
0.0
 10
117.6480213757369
 20
151.8595646611754
 30
0.0
 10
117.6480213757369
 20
151.8595646611754
 30
0.0
 10
117.13229024137
 20
155.18150017429
 30
0.0
 10
114.7162431837115
 20
155.886194920681
 30
0.0
 10
113.3351034925446
 20
155.886194920681
 30
0.0
 10
111.9829026225447
 20
155.886194920681
 30
0.0
 10
108.3414342923792
 20
156.1251124501957
 30
0.0
 10
106.2595617172429
 20
153.4105476718098
 30
0.0
  0
HATCH
  5
6AC
330
6A2
100
AcDbEntity
  8
LOGO
 62
   250
420
  2234388
100
AcDbHatch
 10
0.0
 20
0.0
 30
0.0
210
0.0
220
0.0
230
1.0
  2
SOLID
 70
     1
 71
     0
 91
        2
 92
        1
 93
        1
 72
     4
 94
        3
 73
     0
 74
     1
 95
       29
 96
       25
 40
0.0
 40
0.0
 40
0.0
 40
0.0
 40
1.0
 40
1.0
 40
1.0
 40
2.0
 40
2.0
 40
2.0
 40
3.0
 40
3.0
 40
3.0
 40
4.0
 40
4.0
 40
4.0
 40
5.0
 40
5.0
 40
5.0
 40
6.0
 40
6.0
 40
6.0
 40
7.0
 40
7.0
 40
7.0
 40
8.0
 40
8.0
 40
8.0
 40
8.0
 10
101.6420971922469
 20
132.8388354296931
 10
101.630039350094
 20
134.7164137077823
 10
102.2236296937908
 20
138.0598810818841
 10
103.7487744712405
 20
142.5378191476827
 10
105.819967243327
 20
148.5896501242061
 10
107.0602024361932
 20
150.8074318058939
 10
108.1522984254671
 20
151.8833358357054
 10
109.741177511439
 20
153.4532668840085
 10
111.8740375333931
 20
153.5290590346837
 10
112.5075910110823
 20
153.4532668840085
 10
113.4012493694975
 20
153.3490526768302
 10
114.6683563248758
 20
152.7580461564518
 10
114.7493161221879
 20
150.7838328862519
 10
114.8106388622796
 20
149.0909118479895
 10
114.3186789024427
 20
145.9191825971221
 10
112.6164561002338
 20
140.9489400617108
 10
110.6444821435766
 20
135.1746117095912
 10
109.4669477299053
 20
132.8960240524753
 10
108.5212683953448
 20
131.9072809959403
 10
106.7346406980658
 20
130.0538184021569
 10
104.8222669326213
 20
130.2336525051225
 10
104.5408024457958
 20
130.2336525051225
 10
104.1721769856939
 20
130.2336525051225
 10
101.6465758193322
 20
130.6305277668397
 10
101.6420971922469
 20
132.8388354296931
 97
        0
 92
        1
 93
        1
 72
     4
 94
        3
 73
     0
 74
     1
 95
       32
 96
       28
 40
0.0
 40
0.0
 40
0.0
 40
0.0
 40
1.0
 40
1.0
 40
1.0
 40
2.0
 40
2.0
 40
2.0
 40
3.0
 40
3.0
 40
3.0
 40
4.0
 40
4.0
 40
4.0
 40
5.0
 40
5.0
 40
5.0
 40
6.0
 40
6.0
 40
6.0
 40
7.0
 40
7.0
 40
7.0
 40
8.0
 40
8.0
 40
8.0
 40
9.0
 40
9.0
 40
9.0
 40
9.0
 10
106.2595617172429
 20
153.4105476718098
 10
104.8222669326213
 20
151.5474388043041
 10
103.7177685914188
 20
149.8758773721411
 10
101.9232171692965
 20
144.6141795664062
 10
100.2754269116635
 20
139.7999999594306
 10
99.22777268346732
 20
136.3052927937542
 10
99.06964269637689
 20
132.039572749846
 10
98.94665270641765
 20
128.8673267343149
 10
100.8807305877373
 20
127.8027915271048
 10
103.7129454545577
 20
127.8027915271048
 10
104.9352661390825
 20
127.8027915271048
 10
108.0151835347002
 20
127.8827177950895
 10
110.2045431598849
 20
130.5926316915021
 10
111.7417457794874
 20
132.4984597712065
 10
113.155269389579
 20
134.475256864725
 10
115.0562743324223
 20
140.9489400617108
 10
116.6361961642235
 20
146.3680788349845
 10
117.7282921534974
 20
149.8639917848761
 10
117.6480213757369
 20
151.8595646611754
 10
117.6480213757369
 20
151.8595646611754
 10
117.6480213757369
 20
151.8595646611754
 10
117.6480213757369
 20
151.8595646611754
 10
117.13229024137
 20
155.18150017429
 10
114.7162431837115
 20
155.886194920681
 10
113.3351034925446
 20
155.886194920681
 10
111.9829026225447
 20
155.886194920681
 10
108.3414342923792
 20
156.1251124501957
 10
106.2595617172429
 20
153.4105476718098
 97
        0
 75
     2
 76
     1
 98
        0
  0
ENDBLK
  5
6AD
330
6A2
100
AcDbEntity
  8
0
100
AcDbBlockEnd
  0
BLOCK
  5
19B5
330
19B4
100
AcDbEntity
  8
0
100
AcDbBlockBegin
  2
*D6
 70
     1
 10
0.0
 20
0.0
 30
0.0
  3
*D6
  1
*D65
  0
LINE
  5
19B7
330
19B4
100
AcDbEntity
  8
DIM
 62
     0
370
    -2
100
AcDbLine
 10
346.2169724055384
 20
906.0236132012142
 30
0.0
 11
346.2169724055384
 21
832.1732208825883
 31
0.0
  0
LINE
  5
19B8
330
19B4
100
AcDbEntity
  8
DIM
 62
     0
370
    -2
100
AcDbLine
 10
831.5927206550859
 20
906.0236132012142
 30
0.0
 11
831.5927206550859
 21
832.1732208825883
 31
0.0
  0
LINE
  5
19B9
330
19B4
100
AcDbEntity
  8
DIM
 62
     0
370
    -2
100
AcDbLine
 10
356.2163620539759
 20
832.1732208825883
 30
0.0
 11
821.5933310066484
 21
832.1732208825883
 31
0.0
  0
INSERT
  5
19BA
330
19B4
100
AcDbEntity
  8
DIM
 62
     0
370
    -2
100
AcDbBlockReference
  2
_DOT
 10
346.2169724055384
 20
832.1732208825883
 30
0.0
 41
9.999389648437498
 42
9.999389648437498
 43
9.999389648437498
 50
180.0
  0
INSERT
  5
19BB
330
19B4
100
AcDbEntity
  8
DIM
 62
     0
370
    -2
100
AcDbBlockReference
  2
_DOT
 10
831.5927206550859
 20
832.1732208825883
 30
0.0
 41
9.999389648437498
 42
9.999389648437498
 43
9.999389648437498
  0
MTEXT
  5
19BC
330
19B4
100
AcDbEntity
  8
DIM
  6
Continuous
 62
     0
100
AcDbMText
 10
591.606344610364
 20
844.8895294763383
 30
0.0
 40
24.4326171875
 41
0.0
 46
0.0
 71
     5
 72
     1
  1
\A1;485
  7
ＭＳ ゴシック
 73
     1
 44
1.0
  0
POINT
  5
19BD
330
19B4
100
AcDbEntity
  8
Defpoints
 62
     0
100
AcDbPoint
 10
346.2169724055384
 20
931.0236132012142
 30
0.0
  0
POINT
  5
19BE
330
19B4
100
AcDbEntity
  8
Defpoints
 62
     0
100
AcDbPoint
 10
831.5927206550859
 20
931.0236132012142
 30
0.0
  0
POINT
  5
19BF
330
19B4
100
AcDbEntity
  8
Defpoints
 62
     0
100
AcDbPoint
 10
831.5927206550859
 20
832.1732208825883
 30
0.0
  0
ENDBLK
  5
19B6
330
19B4
100
AcDbEntity
  8
0
100
AcDbBlockEnd
  0
BLOCK
  5
1A06
330
1A05
100
AcDbEntity
  8
0
100
AcDbBlockBegin
  2
*D7
 70
     1
 10
0.0
 20
0.0
 30
0.0
  3
*D7
  1
*D71
  0
LINE
  5
1A08
330
1A05
100
AcDbEntity
  8
DIM
  6
Continuous
 62
     0
370
    -2
100
AcDbLine
 10
288.9048445031995
 20
2113.578064689037
 30
0.0
 11
288.9048445031995
 21
2248.578064689037
 31
0.0
  0
LINE
  5
1A09
330
1A05
100
AcDbEntity
  8
DIM
  6
Continuous
 62
     0
370
    -2
100
AcDbLine
 10
888.9048445031995
 20
2113.51155389252
 30
0.0
 11
888.9048445031995
 21
2248.578064689037
 31
0.0
  0
LINE
  5
1A0A
330
1A05
100
AcDbEntity
  8
DIM
  6
Continuous
 62
     0
370
    -2
100
AcDbLine
 10
297.9048445031995
 20
2248.578064689037
 30
0.0
 11
879.9048445031995
 21
2248.578064689037
 31
0.0
  0
INSERT
  5
1A0B
330
1A05
100
AcDbEntity
  8
DIM
 62
     0
370
    -2
100
AcDbBlockReference
  2
_DOT
 10
288.9048445031995
 20
2248.578064689037
 30
0.0
 41
9.0
 42
9.0
 43
9.0
 50
180.0
  0
INSERT
  5
1A0C
330
1A05
100
AcDbEntity
  8
DIM
 62
     0
370
    -2
100
AcDbBlockReference
  2
_DOT
 10
888.9048445031995
 20
2248.578064689037
 30
0.0
 41
9.0
 42
9.0
 43
9.0
  0
MTEXT
  5
1A0D
330
1A05
100
AcDbEntity
  8
DIM
  6
Continuous
 62
     0
100
AcDbMText
 10
592.5688342864169
 20
2280.578064689037
 30
0.0
 40
24.0
 41
0.0
 46
0.0
 71
     5
 72
     1
  1
\A1;600
  7
ＭＳ ゴシック
 73
     1
 44
1.0
  0
POINT
  5
1A0E
330
1A05
100
AcDbEntity
  8
Defpoints
 62
     0
100
AcDbPoint
 10
288.9048445031995
 20
2108.578064689037
 30
0.0
  0
POINT
  5
1A0F
330
1A05
100
AcDbEntity
  8
Defpoints
 62
     0
100
AcDbPoint
 10
888.9048445031995
 20
2108.51155389252
 30
0.0
  0
POINT
  5
1A10
330
1A05
100
AcDbEntity
  8
Defpoints
 62
     0
100
AcDbPoint
 10
888.9048445031995
 20
2248.578064689037
 30
0.0
  0
ENDBLK
  5
1A07
330
1A05
100
AcDbEntity
  8
0
100
AcDbBlockEnd
  0
BLOCK
  5
1A13
330
1A12
100
AcDbEntity
  8
0
100
AcDbBlockBegin
  2
*D8
 70
     1
 10
0.0
 20
0.0
 30
0.0
  3
*D8
  1
*D72
  0
LINE
  5
1A15
330
1A12
100
AcDbEntity
  8
DIM
  6
Continuous
 62
     0
370
    -2
100
AcDbLine
 10
283.9048445031995
 20
2093.578064689037
 30
0.0
 11
188.9048445031994
 21
2093.578064689037
 31
0.0
  0
LINE
  5
1A16
330
1A12
100
AcDbEntity
  8
DIM
  6
Continuous
 62
     0
370
    -2
100
AcDbLine
 10
283.9048445031995
 20
1803.578064689037
 30
0.0
 11
188.9048445031994
 21
1803.578064689037
 31
0.0
  0
LINE
  5
1A17
330
1A12
100
AcDbEntity
  8
DIM
  6
Continuous
 62
     0
370
    -2
100
AcDbLine
 10
188.9048445031994
 20
2084.578064689037
 30
0.0
 11
188.9048445031994
 21
1812.578064689037
 31
0.0
  0
INSERT
  5
1A18
330
1A12
100
AcDbEntity
  8
DIM
 62
     0
370
    -2
100
AcDbBlockReference
  2
_DOT
 10
188.9048445031994
 20
2093.578064689037
 30
0.0
 41
9.0
 42
9.0
 43
9.0
 50
90.0
  0
INSERT
  5
1A19
330
1A12
100
AcDbEntity
  8
DIM
 62
     0
370
    -2
100
AcDbBlockReference
  2
_DOT
 10
188.9048445031994
 20
1803.578064689037
 30
0.0
 41
9.0
 42
9.0
 43
9.0
 50
270.0
  0
MTEXT
  5
1A1A
330
1A12
100
AcDbEntity
  8
DIM
  6
Continuous
 62
     0
100
AcDbMText
 10
156.9048445031994
 20
1948.578064689037
 30
0.0
 40
24.0
 41
0.0
 46
0.0
 71
     5
 72
     1
  1
\A1;290
  7
ＭＳ ゴシック
 11
9.800589458760002E-17
 21
1.0
 31
0.0
 73
     1
 44
1.0
  0
POINT
  5
1A1B
330
1A12
100
AcDbEntity
  8
Defpoints
 62
     0
100
AcDbPoint
 10
288.9048445031995
 20
2093.578064689037
 30
0.0
  0
POINT
  5
1A1C
330
1A12
100
AcDbEntity
  8
Defpoints
 62
     0
100
AcDbPoint
 10
288.9048445031995
 20
1803.578064689037
 30
0.0
  0
POINT
  5
1A1D
330
1A12
100
AcDbEntity
  8
Defpoints
 62
     0
100
AcDbPoint
 10
188.9048445031994
 20
1803.578064689037
 30
0.0
  0
ENDBLK
  5
1A14
330
1A12
100
AcDbEntity
  8
0
100
AcDbBlockEnd
  0
BLOCK
  5
1A3D
330
1A3C
100
AcDbEntity
  8
0
100
AcDbBlockBegin
  2
*D9
 70
     1
 10
0.0
 20
0.0
 30
0.0
  3
*D9
  1
*D73
  0
LINE
  5
1A3F
330
1A3C
100
AcDbEntity
  8
DIM
  6
Continuous
 62
     0
370
    -2
100
AcDbLine
 10
853.9048445031995
 20
2148.578064689037
 30
0.0
 11
990.3490824253796
 21
2148.578064689037
 31
0.0
  0
LINE
  5
1A40
330
1A3C
100
AcDbEntity
  8
DIM
  6
Continuous
 62
     0
370
    -2
100
AcDbLine
 10
853.9048445031995
 20
1748.578064689037
 30
0.0
 11
990.3490824253796
 21
1748.578064689037
 31
0.0
  0
LINE
  5
1A41
330
1A3C
100
AcDbEntity
  8
DIM
  6
Continuous
 62
     0
370
    -2
100
AcDbLine
 10
990.3490824253796
 20
2139.578064689037
 30
0.0
 11
990.3490824253796
 21
1757.578064689037
 31
0.0
  0
INSERT
  5
1A42
330
1A3C
100
AcDbEntity
  8
DIM
 62
     0
370
    -2
100
AcDbBlockReference
  2
_DOT
 10
990.3490824253796
 20
2148.578064689037
 30
0.0
 41
9.0
 42
9.0
 43
9.0
 50
90.0
  0
INSERT
  5
1A43
330
1A3C
100
AcDbEntity
  8
DIM
 62
     0
370
    -2
100
AcDbBlockReference
  2
_DOT
 10
990.3490824253796
 20
1748.578064689037
 30
0.0
 41
9.0
 42
9.0
 43
9.0
 50
270.0
  0
MTEXT
  5
1A44
330
1A3C
100
AcDbEntity
  8
DIM
  6
Continuous
 62
     0
100
AcDbMText
 10
958.3490824253796
 20
1948.578064689037
 30
0.0
 40
24.0
 41
0.0
 46
0.0
 71
     5
 72
     1
  1
\A1;400
  7
ＭＳ ゴシック
 11
0.0
 21
1.0
 31
0.0
 73
     1
 44
1.0
  0
POINT
  5
1A45
330
1A3C
100
AcDbEntity
  8
Defpoints
 62
     0
100
AcDbPoint
 10
848.9048445031995
 20
2148.578064689037
 30
0.0
  0
POINT
  5
1A46
330
1A3C
100
AcDbEntity
  8
Defpoints
 62
     0
100
AcDbPoint
 10
848.9048445031995
 20
1748.578064689037
 30
0.0
  0
POINT
  5
1A47
330
1A3C
100
AcDbEntity
  8
Defpoints
 62
     0
100
AcDbPoint
 10
990.3490824253796
 20
1748.578064689037
 30
0.0
  0
ENDBLK
  5
1A3E
330
1A3C
100
AcDbEntity
  8
0
100
AcDbBlockEnd
  0
BLOCK
  5
1A5B
330
1A5A
100
AcDbEntity
  8
0
100
AcDbBlockBegin
  2
*D10
 70
     1
 10
0.0
 20
0.0
 30
0.0
  3
*D10
  1
*D75
  0
LINE
  5
1A5D
330
1A5A
100
AcDbEntity
  8
DIM
  6
Continuous
 62
     0
370
    -2
100
AcDbLine
 10
343.9048331734784
 20
1743.325166850858
 30
0.0
 11
343.9048331734784
 21
1648.578064689037
 31
0.0
  0
LINE
  5
1A5E
330
1A5A
100
AcDbEntity
  8
DIM
  6
Continuous
 62
     0
370
    -2
100
AcDbLine
 10
833.9048445031995
 20
1743.325166850858
 30
0.0
 11
833.9048445031995
 21
1648.578064689037
 31
0.0
  0
LINE
  5
1A5F
330
1A5A
100
AcDbEntity
  8
DIM
  6
Continuous
 62
     0
370
    -2
100
AcDbLine
 10
352.9048331734784
 20
1648.578064689037
 30
0.0
 11
824.9048445031995
 21
1648.578064689037
 31
0.0
  0
INSERT
  5
1A60
330
1A5A
100
AcDbEntity
  8
DIM
 62
     0
370
    -2
100
AcDbBlockReference
  2
_DOT
 10
343.9048331734784
 20
1648.578064689037
 30
0.0
 41
9.0
 42
9.0
 43
9.0
 50
180.0
  0
INSERT
  5
1A61
330
1A5A
100
AcDbEntity
  8
DIM
 62
     0
370
    -2
100
AcDbBlockReference
  2
_DOT
 10
833.9048445031995
 20
1648.578064689037
 30
0.0
 41
9.0
 42
9.0
 43
9.0
  0
MTEXT
  5
1A62
330
1A5A
100
AcDbEntity
  8
DIM
  6
Continuous
 62
     0
100
AcDbMText
 10
593.115136808196
 20
1680.578064689037
 30
0.0
 40
24.0
 41
0.0
 46
0.0
 71
     5
 72
     1
  1
\A1;490
  7
ＭＳ ゴシック
 73
     1
 44
1.0
  0
POINT
  5
1A63
330
1A5A
100
AcDbEntity
  8
Defpoints
 62
     0
100
AcDbPoint
 10
343.9048331734784
 20
1748.325166850858
 30
0.0
  0
POINT
  5
1A64
330
1A5A
100
AcDbEntity
  8
Defpoints
 62
     0
100
AcDbPoint
 10
833.9048445031995
 20
1748.325166850858
 30
0.0
  0
POINT
  5
1A65
330
1A5A
100
AcDbEntity
  8
Defpoints
 62
     0
100
AcDbPoint
 10
833.9048445031995
 20
1648.578064689037
 30
0.0
  0
ENDBLK
  5
1A5C
330
1A5A
100
AcDbEntity
  8
0
100
AcDbBlockEnd
  0
BLOCK
  5
1AE8
330
1AE7
100
AcDbEntity
  8
0
100
AcDbBlockBegin
  2
*D11
 70
     1
 10
0.0
 20
0.0
 30
0.0
  3
*D11
  1
*D82
  0
LINE
  5
1AEA
330
1AE7
100
AcDbEntity
  8
DIM
  6
Continuous
 62
     0
370
    -2
100
AcDbLine
 10
1199.229144121026
 20
2108.922641854119
 30
0.0
 11
1199.229144121026
 21
2248.578064689037
 31
0.0
  0
LINE
  5
1AEB
330
1AE7
100
AcDbEntity
  8
DIM
  6
Continuous
 62
     0
370
    -2
100
AcDbLine
 10
1744.229144121026
 20
2108.583254532554
 30
0.0
 11
1744.229144121026
 21
2248.578064689037
 31
0.0
  0
LINE
  5
1AEC
330
1AE7
100
AcDbEntity
  8
DIM
  6
Continuous
 62
     0
370
    -2
100
AcDbLine
 10
1208.229144121026
 20
2248.578064689037
 30
0.0
 11
1735.229144121026
 21
2248.578064689037
 31
0.0
  0
INSERT
  5
1AED
330
1AE7
100
AcDbEntity
  8
DIM
 62
     0
370
    -2
100
AcDbBlockReference
  2
_DOT
 10
1199.229144121026
 20
2248.578064689037
 30
0.0
 41
9.0
 42
9.0
 43
9.0
 50
180.0
  0
INSERT
  5
1AEE
330
1AE7
100
AcDbEntity
  8
DIM
 62
     0
370
    -2
100
AcDbBlockReference
  2
_DOT
 10
1744.229144121026
 20
2248.578064689037
 30
0.0
 41
9.0
 42
9.0
 43
9.0
  0
MTEXT
  5
1AEF
330
1AE7
100
AcDbEntity
  8
DIM
  6
Continuous
 62
     0
100
AcDbMText
 10
1471.729144121026
 20
2280.578064689037
 30
0.0
 40
24.0
 41
0.0
 46
0.0
 71
     5
 72
     1
  1
\A1;545
  7
ＭＳ ゴシック
 73
     1
 44
1.0
  0
POINT
  5
1AF0
330
1AE7
100
AcDbEntity
  8
Defpoints
 62
     0
100
AcDbPoint
 10
1199.229144121026
 20
2103.922641854119
 30
0.0
  0
POINT
  5
1AF1
330
1AE7
100
AcDbEntity
  8
Defpoints
 62
     0
100
AcDbPoint
 10
1744.229144121026
 20
2103.583254532554
 30
0.0
  0
POINT
  5
1AF2
330
1AE7
100
AcDbEntity
  8
Defpoints
 62
     0
100
AcDbPoint
 10
1744.229144121026
 20
2248.578064689037
 30
0.0
  0
ENDBLK
  5
1AE9
330
1AE7
100
AcDbEntity
  8
0
100
AcDbBlockEnd
  0
BLOCK
  5
1AF7
330
1AF6
100
AcDbEntity
  8
0
100
AcDbBlockBegin
  2
*D12
 70
     1
 10
0.0
 20
0.0
 30
0.0
  3
*D12
  1
*D83
  0
LINE
  5
1AF9
330
1AF6
100
AcDbEntity
  8
DIM
  6
Continuous
 62
     0
370
    -2
100
AcDbLine
 10
1736.732456260563
 20
2117.922647211533
 30
0.0
 11
1871.377767673782
 21
2117.922647211533
 31
0.0
  0
LINE
  5
1AFA
330
1AF6
100
AcDbEntity
  8
DIM
  6
Continuous
 62
     0
370
    -2
100
AcDbLine
 10
1736.746870730315
 20
1778.233487523953
 30
0.0
 11
1871.377767673782
 21
1778.233487523953
 31
0.0
  0
LINE
  5
1AFB
330
1AF6
100
AcDbEntity
  8
DIM
  6
Continuous
 62
     0
370
    -2
100
AcDbLine
 10
1871.377767673782
 20
2108.922647211533
 30
0.0
 11
1871.377767673782
 21
1787.233487523953
 31
0.0
  0
INSERT
  5
1AFC
330
1AF6
100
AcDbEntity
  8
DIM
 62
     0
370
    -2
100
AcDbBlockReference
  2
_DOT
 10
1871.377767673782
 20
2117.922647211533
 30
0.0
 41
9.0
 42
9.0
 43
9.0
 50
90.0
  0
INSERT
  5
1AFD
330
1AF6
100
AcDbEntity
  8
DIM
 62
     0
370
    -2
100
AcDbBlockReference
  2
_DOT
 10
1871.377767673782
 20
1778.233487523953
 30
0.0
 41
9.0
 42
9.0
 43
9.0
 50
270.0
  0
MTEXT
  5
1AFE
330
1AF6
100
AcDbEntity
  8
DIM
  6
Continuous
 62
     0
100
AcDbMText
 10
1839.377767673782
 20
1948.078067367743
 30
0.0
 40
24.0
 41
0.0
 46
0.0
 71
     5
 72
     1
  1
\A1;340
  7
ＭＳ ゴシック
 11
0.0
 21
1.0
 31
0.0
 73
     1
 44
1.0
  0
POINT
  5
1AFF
330
1AF6
100
AcDbEntity
  8
Defpoints
 62
     0
100
AcDbPoint
 10
1731.732456260563
 20
2117.922647211533
 30
0.0
  0
POINT
  5
1B00
330
1AF6
100
AcDbEntity
  8
Defpoints
 62
     0
100
AcDbPoint
 10
1731.746870730315
 20
1778.233487523953
 30
0.0
  0
POINT
  5
1B01
330
1AF6
100
AcDbEntity
  8
Defpoints
 62
     0
100
AcDbPoint
 10
1871.377767673782
 20
1778.233487523953
 30
0.0
  0
ENDBLK
  5
1AF8
330
1AF6
100
AcDbEntity
  8
0
100
AcDbBlockEnd
  0
BLOCK
  5
1B6F
330
1B6E
100
AcDbEntity
  8
0
100
AcDbBlockBegin
  2
*D13
 70
     1
 10
0.0
 20
0.0
 30
0.0
  3
*D13
  1
*D87
  0
LINE
  5
1B71
330
1B6E
100
AcDbEntity
  8
DIM
  6
Continuous
 62
     0
370
    -2
100
AcDbLine
 10
1485.396814756444
 20
1112.173220882612
 30
0.0
 11
1476.581117423285
 21
1112.173220882612
 31
0.0
  0
LINE
  5
1B72
330
1B6E
100
AcDbEntity
  8
DIM
  6
Continuous
 62
     0
370
    -2
100
AcDbLine
 10
1485.396814756444
 20
982.173220882612
 30
0.0
 11
1476.581117423285
 21
982.173220882612
 31
0.0
  0
LINE
  5
1B73
330
1B6E
100
AcDbEntity
  8
DIM
  6
Continuous
 62
     0
370
    -2
100
AcDbLine
 10
1476.581117423285
 20
1112.173220882612
 30
0.0
 11
1476.581117423285
 21
1306.205220882612
 31
0.0
  0
LINE
  5
1B74
330
1B6E
100
AcDbEntity
  8
DIM
  6
Continuous
 62
     0
370
    -2
100
AcDbLine
 10
1476.581117423285
 20
1112.173220882612
 30
0.0
 11
1476.581117423285
 21
982.173220882612
 31
0.0
  0
LINE
  5
1B75
330
1B6E
100
AcDbEntity
  8
DIM
  6
Continuous
 62
     0
370
    -2
100
AcDbLine
 10
1476.581117423285
 20
1124.173220882612
 30
0.0
 11
1476.581117423285
 21
1136.173220882612
 31
0.0
  0
LINE
  5
1B76
330
1B6E
100
AcDbEntity
  8
DIM
  6
Continuous
 62
     0
370
    -2
100
AcDbLine
 10
1476.581117423285
 20
970.173220882612
 30
0.0
 11
1476.581117423285
 21
958.173220882612
 31
0.0
  0
INSERT
  5
1B77
330
1B6E
100
AcDbEntity
  8
DIM
 62
     0
370
    -2
100
AcDbBlockReference
  2
_DOT
 10
1476.581117423285
 20
1112.173220882612
 30
0.0
 41
12.0
 42
12.0
 43
12.0
 50
270.0
  0
INSERT
  5
1B78
330
1B6E
100
AcDbEntity
  8
DIM
 62
     0
370
    -2
100
AcDbBlockReference
  2
_DOT
 10
1476.581117423285
 20
982.173220882612
 30
0.0
 41
12.0
 42
12.0
 43
12.0
 50
90.0
  0
MTEXT
  5
1B79
330
1B6E
100
AcDbEntity
  8
DIM
  6
Continuous
 62
     0
100
AcDbMText
 10
1442.457117423285
 20
1221.189220882612
 30
0.0
 40
24.0
 41
0.0
 46
0.0
 71
     5
 72
     1
  1
\A1;130(深さ)
  7
ＭＳ ゴシック
 11
0.0
 21
1.0
 31
0.0
 73
     1
 44
1.0
  0
POINT
  5
1B7A
330
1B6E
100
AcDbEntity
  8
Defpoints
 62
     0
100
AcDbPoint
 10
1475.396814756444
 20
1112.173220882612
 30
0.0
  0
POINT
  5
1B7B
330
1B6E
100
AcDbEntity
  8
Defpoints
 62
     0
100
AcDbPoint
 10
1475.396814756444
 20
982.173220882612
 30
0.0
  0
POINT
  5
1B7C
330
1B6E
100
AcDbEntity
  8
Defpoints
 62
     0
100
AcDbPoint
 10
1476.581117423285
 20
982.173220882612
 30
0.0
  0
ENDBLK
  5
1B70
330
1B6E
100
AcDbEntity
  8
0
100
AcDbBlockEnd
  0
BLOCK
  5
1B81
330
1B80
100
AcDbEntity
  8
0
100
AcDbBlockBegin
  2
*D14
 70
     1
 10
0.0
 20
0.0
 30
0.0
  3
*D14
  1
*D88
  0
LINE
  5
1B83
330
1B80
100
AcDbEntity
  8
DIM
  6
Continuous
 62
     0
370
    -2
100
AcDbLine
 10
881.223982963857
 20
1112.173228969219
 30
0.0
 11
988.5431198345196
 21
1112.173228969219
 31
0.0
  0
LINE
  5
1B84
330
1B80
100
AcDbEntity
  8
DIM
  6
Continuous
 62
     0
370
    -2
100
AcDbLine
 10
625.1558843598423
 20
932.1732317012684
 30
0.0
 11
988.5431198345196
 21
932.1732317012684
 31
0.0
  0
LINE
  5
1B85
330
1B80
100
AcDbEntity
  8
DIM
  6
Continuous
 62
     0
370
    -2
100
AcDbLine
 10
988.5431198345196
 20
1103.173228969219
 30
0.0
 11
988.5431198345196
 21
941.1732317012684
 31
0.0
  0
INSERT
  5
1B86
330
1B80
100
AcDbEntity
  8
DIM
 62
     0
370
    -2
100
AcDbBlockReference
  2
_DOT
 10
988.5431198345196
 20
1112.173228969219
 30
0.0
 41
9.0
 42
9.0
 43
9.0
 50
90.0
  0
INSERT
  5
1B87
330
1B80
100
AcDbEntity
  8
DIM
 62
     0
370
    -2
100
AcDbBlockReference
  2
_DOT
 10
988.5431198345196
 20
932.1732317012684
 30
0.0
 41
9.0
 42
9.0
 43
9.0
 50
270.0
  0
MTEXT
  5
1B88
330
1B80
100
AcDbEntity
  8
DIM
  6
Continuous
 62
     0
100
AcDbMText
 10
956.5431198345196
 20
1022.173230335244
 30
0.0
 40
24.0
 41
0.0
 46
0.0
 71
     5
 72
     1
  1
\A1;180
  7
ＭＳ ゴシック
 11
0.0
 21
1.0
 31
0.0
 73
     1
 44
1.0
  0
POINT
  5
1B89
330
1B80
100
AcDbEntity
  8
Defpoints
 62
     0
100
AcDbPoint
 10
876.223982963857
 20
1112.173228969219
 30
0.0
  0
POINT
  5
1B8A
330
1B80
100
AcDbEntity
  8
Defpoints
 62
     0
100
AcDbPoint
 10
620.1558843598423
 20
932.1732317012684
 30
0.0
  0
POINT
  5
1B8B
330
1B80
100
AcDbEntity
  8
Defpoints
 62
     0
100
AcDbPoint
 10
988.5431198345196
 20
932.1732317012684
 30
0.0
  0
ENDBLK
  5
1B82
330
1B80
100
AcDbEntity
  8
0
100
AcDbBlockEnd
  0
BLOCK
  5
1B90
330
1B8F
100
AcDbEntity
  8
0
100
AcDbBlockBegin
  2
*D15
 70
     1
 10
0.0
 20
0.0
 30
0.0
  3
*D15
  1
*D89
  0
LINE
  5
1B92
330
1B8F
100
AcDbEntity
  8
DIM
  6
Continuous
 62
     0
370
    -2
100
AcDbLine
 10
888.5431198345195
 20
1107.17322896922
 30
0.0
 11
888.5431198345195
 21
1212.17322896922
 31
0.0
  0
LINE
  5
1B93
330
1B8F
100
AcDbEntity
  8
DIM
  6
Continuous
 62
     0
370
    -2
100
AcDbLine
 10
833.5431198345195
 20
1107.17322896922
 30
0.0
 11
833.5431198345195
 21
1212.17322896922
 31
0.0
  0
LINE
  5
1B94
330
1B8F
100
AcDbEntity
  8
DIM
  6
Continuous
 62
     0
370
    -2
100
AcDbLine
 10
879.5431198345195
 20
1212.17322896922
 30
0.0
 11
842.5431198345195
 21
1212.17322896922
 31
0.0
  0
INSERT
  5
1B95
330
1B8F
100
AcDbEntity
  8
DIM
 62
     0
370
    -2
100
AcDbBlockReference
  2
_DOT
 10
888.5431198345195
 20
1212.17322896922
 30
0.0
 41
9.0
 42
9.0
 43
9.0
  0
INSERT
  5
1B96
330
1B8F
100
AcDbEntity
  8
DIM
 62
     0
370
    -2
100
AcDbBlockReference
  2
_DOT
 10
833.5431198345195
 20
1212.17322896922
 30
0.0
 41
9.0
 42
9.0
 43
9.0
 50
180.0
  0
MTEXT
  5
1B97
330
1B8F
100
AcDbEntity
  8
DIM
  6
Continuous
 62
     0
100
AcDbMText
 10
861.0431198345195
 20
1244.17322896922
 30
0.0
 40
24.0
 41
0.0
 46
0.0
 71
     5
 72
     1
  1
\A1;55
  7
ＭＳ ゴシック
 73
     1
 44
1.0
  0
POINT
  5
1B98
330
1B8F
100
AcDbEntity
  8
Defpoints
 62
     0
100
AcDbPoint
 10
888.5431198345195
 20
1102.17322896922
 30
0.0
  0
POINT
  5
1B99
330
1B8F
100
AcDbEntity
  8
Defpoints
 62
     0
100
AcDbPoint
 10
833.5431198345195
 20
1102.17322896922
 30
0.0
  0
POINT
  5
1B9C
330
1B8F
100
AcDbEntity
  8
Defpoints
 62
     0
100
AcDbPoint
 10
833.5431198345195
 20
1212.17322896922
 30
0.0
  0
ENDBLK
  5
1B91
330
1B8F
100
AcDbEntity
  8
0
100
AcDbBlockEnd
  0
BLOCK
  5
1BA1
330
1BA0
100
AcDbEntity
  8
0
100
AcDbBlockBegin
  2
*D16
 70
     1
 10
0.0
 20
0.0
 30
0.0
  3
*D16
  1
*D90
  0
LINE
  5
1BA3
330
1BA0
100
AcDbEntity
  8
DIM
  6
Continuous
 62
     0
370
    -2
100
AcDbLine
 10
1283.077697378226
 20
1112.17324116762
 30
0.0
 11
1175.758559424648
 21
1112.17324116762
 31
0.0
  0
LINE
  5
1BA4
330
1BA0
100
AcDbEntity
  8
DIM
  6
Continuous
 62
     0
370
    -2
100
AcDbLine
 10
1287.227481871406
 20
1037.173240718233
 30
0.0
 11
1175.758559424648
 21
1037.173240718233
 31
0.0
  0
LINE
  5
1BA5
330
1BA0
100
AcDbEntity
  8
DIM
  6
Continuous
 62
     0
370
    -2
100
AcDbLine
 10
1175.758559424648
 20
1103.17324116762
 30
0.0
 11
1175.758559424648
 21
1046.173240718233
 31
0.0
  0
INSERT
  5
1BA6
330
1BA0
100
AcDbEntity
  8
DIM
 62
     0
370
    -2
100
AcDbBlockReference
  2
_DOT
 10
1175.758559424648
 20
1112.17324116762
 30
0.0
 41
9.0
 42
9.0
 43
9.0
 50
90.0
  0
INSERT
  5
1BA7
330
1BA0
100
AcDbEntity
  8
DIM
 62
     0
370
    -2
100
AcDbBlockReference
  2
_DOT
 10
1175.758559424648
 20
1037.173240718233
 30
0.0
 41
9.0
 42
9.0
 43
9.0
 50
270.0
  0
MTEXT
  5
1BA8
330
1BA0
100
AcDbEntity
  8
DIM
  6
Continuous
 62
     0
100
AcDbMText
 10
1143.758559424648
 20
1074.673240942926
 30
0.0
 40
24.0
 41
0.0
 46
0.0
 71
     5
 72
     1
  1
\A1;75
  7
ＭＳ ゴシック
 11
0.0
 21
1.0
 31
0.0
 73
     1
 44
1.0
  0
POINT
  5
1BA9
330
1BA0
100
AcDbEntity
  8
Defpoints
 62
     0
100
AcDbPoint
 10
1288.077697378226
 20
1112.17324116762
 30
0.0
  0
POINT
  5
1BAA
330
1BA0
100
AcDbEntity
  8
Defpoints
 62
     0
100
AcDbPoint
 10
1292.227481871406
 20
1037.173240718233
 30
0.0
  0
POINT
  5
1BAB
330
1BA0
100
AcDbEntity
  8
Defpoints
 62
     0
100
AcDbPoint
 10
1175.758559424648
 20
1037.173240718233
 30
0.0
  0
ENDBLK
  5
1BA2
330
1BA0
100
AcDbEntity
  8
0
100
AcDbBlockEnd
  0
BLOCK
  5
1BB0
330
1BAF
100
AcDbEntity
  8
0
100
AcDbBlockBegin
  2
*D17
 70
     1
 10
0.0
 20
0.0
 30
0.0
  3
*D17
  1
*D91
  0
LINE
  5
1BB2
330
1BAF
100
AcDbEntity
  8
DIM
  6
Continuous
 62
     0
370
    -2
100
AcDbLine
 10
1287.227481871406
 20
1037.173240718233
 30
0.0
 11
1175.758559424648
 21
1037.173240718233
 31
0.0
  0
LINE
  5
1BB3
330
1BAF
100
AcDbEntity
  8
DIM
  6
Continuous
 62
     0
370
    -2
100
AcDbLine
 10
1332.002619972379
 20
962.1732358694785
 30
0.0
 11
1175.758559424648
 21
962.1732358694785
 31
0.0
  0
LINE
  5
1BB4
330
1BAF
100
AcDbEntity
  8
DIM
  6
Continuous
 62
     0
370
    -2
100
AcDbLine
 10
1175.758559424648
 20
1028.173240718233
 30
0.0
 11
1175.758559424648
 21
971.1732358694785
 31
0.0
  0
INSERT
  5
1BB5
330
1BAF
100
AcDbEntity
  8
DIM
 62
     0
370
    -2
100
AcDbBlockReference
  2
_DOT
 10
1175.758559424648
 20
1037.173240718233
 30
0.0
 41
9.0
 42
9.0
 43
9.0
 50
90.0
  0
INSERT
  5
1BB6
330
1BAF
100
AcDbEntity
  8
DIM
 62
     0
370
    -2
100
AcDbBlockReference
  2
_DOT
 10
1175.758559424648
 20
962.1732358694785
 30
0.0
 41
9.0
 42
9.0
 43
9.0
 50
270.0
  0
MTEXT
  5
1BB7
330
1BAF
100
AcDbEntity
  8
DIM
  6
Continuous
 62
     0
100
AcDbMText
 10
1143.758559424648
 20
999.6732382938558
 30
0.0
 40
24.0
 41
0.0
 46
0.0
 71
     5
 72
     1
  1
\A1;75
  7
ＭＳ ゴシック
 11
0.0
 21
1.0
 31
0.0
 73
     1
 44
1.0
  0
POINT
  5
1BB8
330
1BAF
100
AcDbEntity
  8
Defpoints
 62
     0
100
AcDbPoint
 10
1292.227481871406
 20
1037.173240718233
 30
0.0
  0
POINT
  5
1BB9
330
1BAF
100
AcDbEntity
  8
Defpoints
 62
     0
100
AcDbPoint
 10
1337.002619972379
 20
962.1732358694785
 30
0.0
  0
POINT
  5
1BBA
330
1BAF
100
AcDbEntity
  8
Defpoints
 62
     0
100
AcDbPoint
 10
1175.758559424648
 20
962.1732358694785
 30
0.0
  0
ENDBLK
  5
1BB1
330
1BAF
100
AcDbEntity
  8
0
100
AcDbBlockEnd
  0
BLOCK
  5
1BC2
330
1BC1
100
AcDbEntity
  8
0
100
AcDbBlockBegin
  2
*D18
 70
     1
 10
0.0
 20
0.0
 30
0.0
  3
*D18
  1
*D92
  0
LINE
  5
1BC4
330
1BC1
100
AcDbEntity
  8
DIM
  6
Continuous
 62
     0
370
    -2
100
AcDbLine
 10
1475.396814756447
 20
927.1732208825883
 30
0.0
 11
1475.396814756447
 21
832.1732208825883
 31
0.0
  0
LINE
  5
1BC5
330
1BC1
100
AcDbEntity
  8
DIM
  6
Continuous
 62
     0
370
    -2
100
AcDbLine
 10
1675.02877857796
 20
1096.818032790108
 30
0.0
 11
1675.02877857796
 21
832.1732208825883
 31
0.0
  0
LINE
  5
1BC6
330
1BC1
100
AcDbEntity
  8
DIM
  6
Continuous
 62
     0
370
    -2
100
AcDbLine
 10
1484.396814756447
 20
832.1732208825883
 30
0.0
 11
1666.02877857796
 21
832.1732208825883
 31
0.0
  0
INSERT
  5
1BC7
330
1BC1
100
AcDbEntity
  8
DIM
 62
     0
370
    -2
100
AcDbBlockReference
  2
_DOT
 10
1475.396814756447
 20
832.1732208825883
 30
0.0
 41
9.0
 42
9.0
 43
9.0
 50
180.0
  0
INSERT
  5
1BC8
330
1BC1
100
AcDbEntity
  8
DIM
 62
     0
370
    -2
100
AcDbBlockReference
  2
_DOT
 10
1675.02877857796
 20
832.1732208825883
 30
0.0
 41
9.0
 42
9.0
 43
9.0
  0
MTEXT
  5
1BC9
330
1BC1
100
AcDbEntity
  8
DIM
  6
Continuous
 62
     0
100
AcDbMText
 10
1575.212796667204
 20
864.1732208825883
 30
0.0
 40
24.0
 41
0.0
 46
0.0
 71
     5
 72
     1
  1
\A1;200
  7
ＭＳ ゴシック
 73
     1
 44
1.0
  0
POINT
  5
1BCA
330
1BC1
100
AcDbEntity
  8
Defpoints
 62
     0
100
AcDbPoint
 10
1475.396814756447
 20
932.1732208825883
 30
0.0
  0
POINT
  5
1BCB
330
1BC1
100
AcDbEntity
  8
Defpoints
 62
     0
100
AcDbPoint
 10
1675.02877857796
 20
1101.818032790108
 30
0.0
  0
POINT
  5
1BCC
330
1BC1
100
AcDbEntity
  8
Defpoints
 62
     0
100
AcDbPoint
 10
1675.02877857796
 20
832.1732208825883
 30
0.0
  0
ENDBLK
  5
1BC3
330
1BC1
100
AcDbEntity
  8
0
100
AcDbBlockEnd
  0
ENDSEC
  0
SECTION
  2
ENTITIES
  0
MTEXT
  5
177
330
A
100
AcDbEntity
  8
TEMPLATE
390
1D
100
AcDbMText
 10
79.20214454773075
 20
343.7317516314282
 30
0.0
 40
16.28841145833333
 41
0.0
 46
0.0
 71
     1
 72
     1
  1
品名
  7
ＭＳ ゴシック
 73
     1
 44
0.7828267384257843
  0
MTEXT
  5
178
330
A
100
AcDbEntity
  8
TEMPLATE
390
1D
100
AcDbMText
 10
79.20214454773075
 20
258.731751631428
 30
0.0
 40
16.28841145833333
 41
0.0
 46
0.0
 71
     1
 72
     1
  1
仕様
  7
ＭＳ ゴシック
 73
     1
 44
0.7828267384257843
  0
LINE
  5
179
330
A
100
AcDbEntity
  8
TEMPLATE
390
1D
100
AcDbLine
 10
2022.202144547248
 20
267.1466735064284
 30
0.0
 11
72.20214454724874
 21
267.1466735064284
 31
0.0
  0
LWPOLYLINE
  5
17A
330
A
100
AcDbEntity
  8
TEMPLATE
390
1D
100
AcDbPolyline
 90
        5
 70
   128
 43
0.0
 10
2022.202144547248
 20
2897.146673506426
 10
72.20214454724874
 20
2897.146673506426
 10
72.20214454724874
 20
97.14667350642826
 10
2022.202144547248
 20
97.14667350642826
 10
2022.202144547248
 20
2897.146673506426
  0
LINE
  5
17B
330
A
100
AcDbEntity
  8
TEMPLATE
390
1D
100
AcDbLine
 10
2022.202144547248
 20
352.1466735064282
 30
0.0
 11
72.20214454724874
 21
352.1466735064282
 31
0.0
  0
LINE
  5
17C
330
A
100
AcDbEntity
  8
TEMPLATE
390
1D
100
AcDbLine
 10
2022.202144547732
 20
182.1466735064282
 30
0.0
 11
1269.20214454773
 21
182.1466735064282
 31
0.0
  0
MTEXT
  5
17D
330
A
100
AcDbEntity
  8
TEMPLATE
390
1D
100
AcDbMText
 10
72.2021445479345
 20
85.29285144957115
 30
0.0
 40
21.71788194444444
 41
0.0
 46
21.71788194444444
 71
     1
 72
     1
  1
{150513SO}
  7
ＭＳ ゴシック
 73
     1
 44
0.7828267384257843
1001
ACAD
1000
ACAD_MTEXT_DEFINED_HEIGHT_BEGIN
1070
    46
1040
21.71788194444444
1000
ACAD_MTEXT_DEFINED_HEIGHT_END
  0
MTEXT
  5
17E
330
A
100
AcDbEntity
  8
TEMPLATE
390
1D
100
AcDbMText
 10
1299.073550799991
 20
152.2362790331201
 30
0.0
 40
24.4326171875
 41
0.0
 46
0.0
 71
     1
 72
     1
  1
大洋金物株式会社 ティーフォルム事業部
  7
ＭＳ ゴシック
 73
     1
 44
0.7828267384257843
  0
MTEXT
  5
180
330
A
100
AcDbEntity
  8
TEMPLATE
390
1D
100
AcDbMText
 10
1831.20214454799
 20
230.1492906939282
 30
0.0
 40
24.4326171875
 41
0.0
 46
24.4326171875
 71
     1
 72
     1
  1
{1:10}
  7
ＭＳ ゴシック
 73
     1
 44
0.7828267384257843
1001
ACAD
1000
ACAD_MTEXT_DEFINED_HEIGHT_BEGIN
1070
    46
1040
24.4326171875
1000
ACAD_MTEXT_DEFINED_HEIGHT_END
  0
MTEXT
  5
181
330
A
100
AcDbEntity
  8
TEMPLATE
390
1D
100
AcDbMText
 10
1778.20214454799
 20
258.731751631428
 30
0.0
 40
16.28841145833333
 41
0.0
 46
0.0
 71
     1
 72
     1
  1
縮尺
  7
ＭＳ ゴシック
 73
     1
 44
0.7828267384257843
  0
LINE
  5
182
330
A
100
AcDbEntity
  8
TEMPLATE
390
1D
100
AcDbLine
 10
1771.20214454799
 20
182.1466735064282
 30
0.0
 11
1771.20214454799
 21
267.1466735064284
 31
0.0
  0
MTEXT
  5
183
330
A
100
AcDbEntity
  8
TEMPLATE
390
1D
100
AcDbMText
 10
1527.20214454799
 20
258.731751631428
 30
0.0
 40
16.28841145833333
 41
0.0
 46
0.0
 71
     1
 72
     1
  1
容量
  7
ＭＳ ゴシック
 73
     1
 44
0.7828267384257843
  0
LINE
  5
184
330
A
100
AcDbEntity
  8
TEMPLATE
390
1D
100
AcDbLine
 10
1520.20214454799
 20
182.1466735064282
 30
0.0
 11
1520.20214454799
 21
267.1466735064284
 31
0.0
  0
MTEXT
  5
185
330
A
100
AcDbEntity
  8
TEMPLATE
390
1D
100
AcDbMText
 10
1276.20214454799
 20
343.7317516314282
 30
0.0
 40
16.28841145833333
 41
0.0
 46
0.0
 71
     1
 72
     1
  1
品番
  7
ＭＳ ゴシック
 73
     1
 44
0.7828267384257843
  0
MTEXT
  5
186
330
A
100
AcDbEntity
  8
TEMPLATE
390
1D
100
AcDbMText
 10
1276.20214454799
 20
258.731751631428
 30
0.0
 40
16.28841145833333
 41
0.0
 46
0.0
 71
     1
 72
     1
  1
重量
  7
ＭＳ ゴシック
 73
     1
 44
0.7828267384257843
  0
MTEXT
  5
187
330
A
100
AcDbEntity
  8
TEMPLATE
390
1D
100
AcDbMText
 10
1329.20214454799
 20
232.3310771560002
 30
0.0
 40
24.4326171875
 41
0.0
 46
24.4326171875
 71
     1
 72
     1
  1
{16.5kg}
  7
ＭＳ ゴシック
 73
     1
 44
0.7828267384257843
1001
ACAD
1000
ACAD_MTEXT_DEFINED_HEIGHT_BEGIN
1070
    46
1040
24.4326171875
1000
ACAD_MTEXT_DEFINED_HEIGHT_END
  0
LINE
  5
188
330
A
100
AcDbEntity
  8
TEMPLATE
390
1D
100
AcDbLine
 10
1269.20214454799
 20
97.14667350642826
 30
0.0
 11
1269.20214454799
 21
352.1466735064282
 31
0.0
  0
MTEXT
  5
189
330
A
100
AcDbEntity
  8
TEMPLATE
390
1D
100
AcDbMText
 10
132.2021445477307
 20
315.1492906939282
 30
0.0
 40
24.4326171875
 41
0.0
 46
24.4326171875
 71
     1
 72
     1
  1
{洗面器　-CATALANO,Canova Royal-}
  7
ＭＳ ゴシック
 73
     1
 44
0.7828267384257843
1001
ACAD
1000
ACAD_MTEXT_DEFINED_HEIGHT_BEGIN
1070
    46
1040
24.4326171875
1000
ACAD_MTEXT_DEFINED_HEIGHT_END
  0
INSERT
  5
6B5
330
A
100
AcDbEntity
  8
TEMPLATE
100
AcDbBlockReference
  2
名称未設定-1
 10
1870.75074808845
 20
25.94676575665382
 30
0.0
 41
0.7619999999999998
 42
0.7619999999999998
 43
0.7619999999999998
  0
MTEXT
  5
7D9
330
A
100
AcDbEntity
  8
TEMPLATE
390
1D
100
AcDbMText
 10
125.2543452760364
 20
226.8119760293952
 30
0.0
 40
24.4326171875
 41
0.0
 46
66.88836165364583
 71
     1
 72
     1
  1
{半埋め込み/オーバーフロー付き/\P陶器、背面釉薬あり/ホワイト}
  7
ＭＳ ゴシック
 73
     1
 44
1.0
1001
ACAD
1000
ACAD_MTEXT_DEFINED_HEIGHT_BEGIN
1070
    46
1040
66.88836165364583
1000
ACAD_MTEXT_DEFINED_HEIGHT_END
  0
INSERT
  5
68C
330
A
100
AcDbEntity
  8
TEMPLATE
100
AcDbBlockReference
  2
block 2
 10
919.2743017702577
 20
8.373076514336368
 30
0.0
 41
0.3809999999999999
 42
0.3809999999999999
 43
0.3809999999999999
  0
MTEXT
  5
DAB
330
A
100
AcDbEntity
  8
TEMPLATE
390
1D
100
AcDbMText
 10
1581.805445816303
 20
232.3310771560002
 30
0.0
 40
24.4326171875
 41
0.0
 46
24.4326171875
 71
     1
 72
     1
  1
{9L}
  7
ＭＳ ゴシック
 73
     1
 44
0.7828267384257843
1001
ACAD
1000
ACAD_MTEXT_DEFINED_HEIGHT_BEGIN
1070
    46
1040
24.4326171875
1000
ACAD_MTEXT_DEFINED_HEIGHT_END
  0
MTEXT
  5
DAC
330
A
100
AcDbEntity
  8
TEMPLATE
390
1D
100
AcDbMText
 10
1329.20214454799
 20
312.1892447122993
 30
0.0
 40
24.4326171875
 41
0.0
 46
24.4326171875
 71
     1
 72
     1
  1
{ADF70-2310}
  7
ＭＳ ゴシック
 73
     1
 44
0.7828267384257843
1001
ACAD
1000
ACAD_MTEXT_DEFINED_HEIGHT_BEGIN
1070
    46
1040
24.4326171875
1000
ACAD_MTEXT_DEFINED_HEIGHT_END
  0
INSERT
  5
11F5
330
A
100
AcDbEntity
  8
0
100
AcDbBlockReference
  2
block 2
 10
7225.1465846295
 20
2220.677887818175
 30
0.0
  0
LINE
  5
1803
102
{ACAD_REACTORS
330
1BC0
102
}
330
A
100
AcDbEntity
  8
MODEL
100
AcDbLine
 10
1497.396814756447
 20
932.1732208825883
 30
0.0
 11
1453.396814756447
 21
932.1732208825883
 31
0.0
  0
LINE
  5
1804
330
A
100
AcDbEntity
  8
HIDDEN
100
AcDbLine
 10
1438.134230393803
 20
983.0023512268567
 30
0.0
 11
1515.028004452767
 21
983.0023512268567
 31
0.0
  0
LINE
  5
1805
330
A
100
AcDbEntity
  8
HIDDEN
100
AcDbLine
 10
1452.472944982007
 20
969.6243815334342
 30
0.0
 11
1498.320684530884
 21
969.6243815334342
 31
0.0
  0
LINE
  5
1806
330
A
100
AcDbEntity
  8
HIDDEN
100
AcDbLine
 10
1497.87583421406
 20
959.590046626277
 30
0.0
 11
1497.572744980363
 21
942.2522566604162
 31
0.0
  0
LINE
  5
1807
330
A
100
AcDbEntity
  8
MODEL
100
AcDbLine
 10
1290.396814756451
 20
1112.173220882612
 30
0.0
 11
1660.396814756437
 21
1112.173220882612
 31
0.0
  0
CIRCLE
  5
1809
330
A
100
AcDbEntity
  8
MODEL
100
AcDbCircle
 10
588.9048445031995
 20
1948.578064689037
 30
0.0
 40
23.70326279842867
  0
SPLINE
  5
180A
330
A
100
AcDbEntity
  8
MODEL
100
AcDbSpline
210
0.0
220
0.0
230
1.0
 70
     8
 71
     3
 72
    78
 73
    74
 74
     0
 42
0.000000001
 43
0.0000000001
 40
0.0
 40
0.0
 40
0.0
 40
0.0
 40
0.9732873550556457
 40
1.946575271756156
 40
2.919864601733933
 40
3.893156545134983
 40
4.866452639005154
 40
5.839754744880111
 40
6.813065036512305
 40
7.786385985015643
 40
8.759720344474577
 40
9.733071142213767
 40
10.70644167175019
 40
11.67983548565873
 40
12.65325638755889
 40
13.62670842215122
 40
14.60019586251342
 40
15.57372319551095
 40
16.54729510948924
 40
17.52091649329028
 40
18.49459245937539
 40
19.46832840574319
 40
20.44213023122114
 40
21.41600430963913
 40
22.38995743760594
 40
23.36399676056197
 40
24.3381297924299
 40
25.31236453601481
 40
26.28670952638047
 40
27.26117375666768
 40
28.23576658533321
 40
29.21049766730932
 40
30.18537663467595
 40
31.16041340340122
 40
32.13561808318438
 40
33.11100096927169
 40
34.08657252153509
 40
35.0623433369238
 40
36.0383241137018
 40
37.0145256063043
 40
37.99095856935006
 40
38.96763368968157
 40
39.94456150561445
 40
40.92175231296482
 40
41.89921605788699
 40
42.87696221706855
 40
43.85499966639098
 40
44.83333653976722
 40
45.81198008046263
 40
46.79093648779691
 40
47.77021076268981
 40
48.74980655604477
 40
49.72972602445793
 40
50.70996969819016
 40
51.69053636661038
 40
52.67142298551175
 40
53.65262460995213
 40
54.63413435586846
 40
55.61594339243502
 40
56.59804096586269
 40
57.58041445396292
 40
58.5630494494325
 40
59.54592986856078
 40
60.52903808102099
 40
61.51235505566532
 40
62.4958605168595
 40
63.47953310589529
 40
64.46335054240681
 40
65.4472897814528
 40
66.43132716294956
 40
67.41543855136574
 40
68.39959946491882
 40
69.38378519484306
 40
69.38378519484306
 40
69.38378519484306
 40
69.38378519484306
 10
554.4421689050569
 20
1948.578064689037
 30
0.0
 10
554.4421679368352
 20
1948.832214214444
 30
0.0
 10
554.4477890085145
 20
1949.340513413038
 30
0.0
 10
554.4730738328335
 20
1950.102589711755
 30
0.0
 10
554.5152044824817
 20
1950.86392109994
 30
0.0
 10
554.574160923913
 20
1951.624135305352
 30
0.0
 10
554.649916022091
 20
1952.382860477259
 30
0.0
 10
554.7424341009018
 20
1953.139725367731
 30
0.0
 10
554.8516712979972
 20
1953.894359520871
 30
0.0
 10
554.977575414975
 20
1954.646393473819
 30
0.0
 10
555.120086015213
 20
1955.395458944644
 30
0.0
 10
555.2791345097357
 20
1956.14118900462
 30
0.0
 10
555.4546441565753
 20
1956.883218265496
 30
0.0
 10
555.6465300871687
 20
1957.621183065144
 30
0.0
 10
555.8546993219943
 20
1958.354721657397
 30
0.0
 10
556.0790507784759
 20
1959.08347440849
 30
0.0
 10
556.319475283286
 20
1959.807083998
 30
0.0
 10
556.5758556027968
 20
1960.525195622244
 30
0.0
 10
556.8480665681127
 20
1961.237457162185
 30
0.0
 10
557.1359752147391
 20
1961.943519354376
 30
0.0
 10
557.4394414572544
 20
1962.643035661469
 30
0.0
 10
557.7583173579096
 20
1963.335662890373
 30
0.0
 10
558.092452529937
 20
1964.021058405948
 30
0.0
 10
558.4416843567151
 20
1964.698884938949
 30
0.0
 10
558.8058437826521
 20
1965.368808238244
 30
0.0
 10
559.1847528054013
 20
1966.030498618832
 30
0.0
 10
559.5782269465881
 20
1966.683629932974
 30
0.0
 10
559.9860761385162
 20
1967.327878949655
 30
0.0
 10
560.4081028015889
 20
1967.962926595522
 30
0.0
 10
560.8441011034329
 20
1968.588458786824
 30
0.0
 10
561.2938570428287
 20
1969.204166894023
 30
0.0
 10
561.7571508224319
 20
1969.809745950965
 30
0.0
 10
562.2337498165953
 20
1970.404901235931
 30
0.0
 10
562.7234220912687
 20
1970.989337308667
 30
0.0
 10
563.2259258636504
 20
1971.562766616563
 30
0.0
 10
563.7410138154919
 20
1972.12490636753
 30
0.0
 10
564.268432103986
 20
1972.675479541242
 30
0.0
 10
564.8079207650399
 20
1973.214214823186
 30
0.0
 10
565.359213743729
 20
1973.740846833674
 30
0.0
 10
565.9220390307555
 20
1974.255116280021
 30
0.0
 10
566.4961187744902
 20
1974.756770134968
 30
0.0
 10
567.081169406255
 20
1975.245561812154
 30
0.0
 10
567.6769017712286
 20
1975.721251344441
 30
0.0
 10
568.2830212693198
 20
1976.183605560927
 30
0.0
 10
568.8992280068423
 20
1976.63239826069
 30
0.0
 10
569.5252169602054
 20
1977.067410380469
 30
0.0
 10
570.1606781521286
 20
1977.488430153659
 30
0.0
 10
570.8052968405145
 20
1977.895253257843
 30
0.0
 10
571.4587537194147
 20
1978.287682948539
 30
0.0
 10
572.120725131128
 20
1978.665530177025
 30
0.0
 10
572.7908832879839
 20
1979.028613690481
 30
0.0
 10
573.4688965021251
 20
1979.376760112964
 30
0.0
 10
574.1544294214718
 20
1979.709804005682
 30
0.0
 10
574.8471432698816
 20
1980.027587905215
 30
0.0
 10
575.5466960896783
 20
1980.329962336271
 30
0.0
 10
576.2527429810953
 20
1980.616785805015
 30
0.0
 10
576.9649363353865
 20
1980.887924777359
 30
0.0
 10
577.6829260600052
 20
1981.143253642252
 30
0.0
 10
578.4063597928916
 20
1981.382654665938
 30
0.0
 10
579.134883104296
 20
1981.60601794172
 30
0.0
 10
579.8681396852635
 20
1981.81324134035
 30
0.0
 10
580.6057715228508
 20
1982.004230465754
 30
0.0
 10
581.3474190630095
 20
1982.178898620098
 30
0.0
 10
582.0927213630775
 20
1982.33716678115
 30
0.0
 10
582.8413162358102
 20
1982.478963593549
 30
0.0
 10
583.5928403895141
 20
1982.604225373715
 30
0.0
 10
584.3469295607038
 20
1982.712896127751
 30
0.0
 10
585.1032186661369
 20
1982.804927575669
 30
0.0
 10
585.8613418860532
 20
1982.880279190647
 30
0.0
 10
586.6209330171678
 20
1982.938918199166
 30
0.0
 10
587.3816248373396
 20
1982.980819718768
 30
0.0
 10
588.1430521786579
 20
1983.005966346883
 30
0.0
 10
588.6509093768836
 20
1983.011555250582
 30
0.0
 10
588.9048445031995
 20
1983.011554972142
 30
0.0
  0
SPLINE
  5
180B
330
A
100
AcDbEntity
  8
MODEL
100
AcDbSpline
210
0.0
220
0.0
230
1.0
 70
     8
 71
     3
 72
    78
 73
    74
 74
     0
 42
0.000000001
 43
0.0000000001
 40
0.0
 40
0.0
 40
0.0
 40
0.0
 40
0.9732873550556452
 40
1.946575271756155
 40
2.919864601733932
 40
3.893156545134981
 40
4.866452639005153
 40
5.83975474488011
 40
6.813065036512303
 40
7.786385985015642
 40
8.759720344474577
 40
9.733071142213767
 40
10.70644167175019
 40
11.67983548565873
 40
12.65325638755889
 40
13.62670842215122
 40
14.60019586251342
 40
15.57372319551095
 40
16.54729510948924
 40
17.52091649329028
 40
18.49459245937539
 40
19.46832840574319
 40
20.44213023122114
 40
21.41600430963913
 40
22.38995743760594
 40
23.36399676056197
 40
24.33812979242991
 40
25.31236453601481
 40
26.28670952638047
 40
27.26117375666769
 40
28.23576658533321
 40
29.21049766730933
 40
30.18537663467596
 40
31.16041340340121
 40
32.13561808318439
 40
33.1110009692717
 40
34.0865725215351
 40
35.06234333692381
 40
36.03832411370182
 40
37.01452560630432
 40
37.99095856935007
 40
38.96763368968157
 40
39.94456150561446
 40
40.92175231296483
 40
41.89921605788701
 40
42.87696221706856
 40
43.85499966639099
 40
44.83333653976723
 40
45.81198008046264
 40
46.79093648779692
 40
47.77021076268981
 40
48.74980655604477
 40
49.72972602445792
 40
50.70996969819016
 40
51.69053636661037
 40
52.67142298551174
 40
53.65262460995213
 40
54.63413435586847
 40
55.61594339243503
 40
56.59804096586269
 40
57.58041445396291
 40
58.56304944943249
 40
59.54592986856078
 40
60.52903808102098
 40
61.51235505566531
 40
62.49586051685949
 40
63.47953310589528
 40
64.4633505424068
 40
65.44728978145277
 40
66.43132716294954
 40
67.41543855136572
 40
68.39959946491881
 40
69.38378519484304
 40
69.38378519484304
 40
69.38378519484304
 40
69.38378519484304
 10
623.367520101343
 20
1948.578064689037
 30
0.0
 10
623.3675210695637
 20
1948.832214214444
 30
0.0
 10
623.3618999978844
 20
1949.340513413038
 30
0.0
 10
623.3366151735654
 20
1950.102589711755
 30
0.0
 10
623.2944845239172
 20
1950.86392109994
 30
0.0
 10
623.2355280824868
 20
1951.624135305352
 30
0.0
 10
623.159772984307
 20
1952.382860477259
 30
0.0
 10
623.0672549054971
 20
1953.139725367731
 30
0.0
 10
622.9580177084017
 20
1953.894359520871
 30
0.0
 10
622.8321135914239
 20
1954.646393473819
 30
0.0
 10
622.6896029911859
 20
1955.395458944644
 30
0.0
 10
622.5305544966632
 20
1956.14118900462
 30
0.0
 10
622.3550448498236
 20
1956.883218265496
 30
0.0
 10
622.1631589192302
 20
1957.621183065144
 30
0.0
 10
621.9549896844046
 20
1958.354721657397
 30
0.0
 10
621.730638227923
 20
1959.08347440849
 30
0.0
 10
621.4902137231129
 20
1959.807083998
 30
0.0
 10
621.2338334036021
 20
1960.525195622244
 30
0.0
 10
620.9616224382862
 20
1961.237457162185
 30
0.0
 10
620.6737137916598
 20
1961.943519354376
 30
0.0
 10
620.3702475491446
 20
1962.643035661469
 30
0.0
 10
620.0513716484893
 20
1963.335662890373
 30
0.0
 10
619.717236476462
 20
1964.021058405948
 30
0.0
 10
619.3680046496838
 20
1964.698884938949
 30
0.0
 10
619.0038452237468
 20
1965.368808238244
 30
0.0
 10
618.6249362009976
 20
1966.030498618832
 30
0.0
 10
618.2314620598108
 20
1966.683629932974
 30
0.0
 10
617.8236128678827
 20
1967.327878949655
 30
0.0
 10
617.40158620481
 20
1967.962926595522
 30
0.0
 10
616.965587902966
 20
1968.588458786824
 30
0.0
 10
616.5158319635702
 20
1969.204166894023
 30
0.0
 10
616.052538183967
 20
1969.809745950964
 30
0.0
 10
615.5759391898036
 20
1970.404901235931
 30
0.0
 10
615.0862669151302
 20
1970.989337308667
 30
0.0
 10
614.5837631427485
 20
1971.562766616563
 30
0.0
 10
614.068675190907
 20
1972.12490636753
 30
0.0
 10
613.5412569024129
 20
1972.675479541242
 30
0.0
 10
613.0017682413591
 20
1973.214214823186
 30
0.0
 10
612.4504752626699
 20
1973.740846833674
 30
0.0
 10
611.8876499756425
 20
1974.255116280021
 30
0.0
 10
611.3135702319087
 20
1974.756770134968
 30
0.0
 10
610.728519600143
 20
1975.245561812154
 30
0.0
 10
610.1327872351703
 20
1975.721251344441
 30
0.0
 10
609.5266677370792
 20
1976.183605560927
 30
0.0
 10
608.9104609995566
 20
1976.63239826069
 30
0.0
 10
608.2844720461935
 20
1977.067410380469
 30
0.0
 10
607.6490108542703
 20
1977.488430153659
 30
0.0
 10
607.0043921658844
 20
1977.895253257843
 30
0.0
 10
606.3509352869842
 20
1978.287682948539
 30
0.0
 10
605.6889638752709
 20
1978.665530177025
 30
0.0
 10
605.018805718415
 20
1979.028613690481
 30
0.0
 10
604.3407925042738
 20
1979.376760112964
 30
0.0
 10
603.6552595849271
 20
1979.709804005682
 30
0.0
 10
602.9625457365173
 20
1980.027587905215
 30
0.0
 10
602.2629929167206
 20
1980.329962336271
 30
0.0
 10
601.5569460253037
 20
1980.616785805015
 30
0.0
 10
600.8447526710124
 20
1980.887924777359
 30
0.0
 10
600.1267629463937
 20
1981.143253642252
 30
0.0
 10
599.4033292135073
 20
1981.382654665938
 30
0.0
 10
598.6748059021029
 20
1981.606017941719
 30
0.0
 10
597.9415493211354
 20
1981.81324134035
 30
0.0
 10
597.2039174835481
 20
1982.004230465754
 30
0.0
 10
596.4622699433894
 20
1982.178898620098
 30
0.0
 10
595.7169676433214
 20
1982.33716678115
 30
0.0
 10
594.9683727705888
 20
1982.478963593549
 30
0.0
 10
594.2168486168848
 20
1982.604225373715
 30
0.0
 10
593.4627594456952
 20
1982.712896127751
 30
0.0
 10
592.7064703402621
 20
1982.804927575669
 30
0.0
 10
591.9483471203457
 20
1982.880279190647
 30
0.0
 10
591.1887559892311
 20
1982.938918199166
 30
0.0
 10
590.4280641690593
 20
1982.980819718769
 30
0.0
 10
589.6666368277411
 20
1983.005966346883
 30
0.0
 10
589.1587796295153
 20
1983.011555250582
 30
0.0
 10
588.9048445031995
 20
1983.011554972142
 30
0.0
  0
SPLINE
  5
180C
330
A
100
AcDbEntity
  8
MODEL
100
AcDbSpline
210
0.0
220
0.0
230
1.0
 70
     8
 71
     3
 72
    78
 73
    74
 74
     0
 42
0.000000001
 43
0.0000000001
 40
0.0
 40
0.0
 40
0.0
 40
0.0
 40
0.9732873550556453
 40
1.946575271756156
 40
2.919864601733932
 40
3.893156545134981
 40
4.866452639005154
 40
5.839754744880109
 40
6.813065036512304
 40
7.786385985015641
 40
8.759720344474577
 40
9.733071142213767
 40
10.70644167175019
 40
11.67983548565873
 40
12.65325638755889
 40
13.62670842215122
 40
14.60019586251342
 40
15.57372319551095
 40
16.54729510948924
 40
17.52091649329028
 40
18.4945924593754
 40
19.4683284057432
 40
20.44213023122115
 40
21.41600430963913
 40
22.38995743760595
 40
23.36399676056197
 40
24.33812979242991
 40
25.31236453601481
 40
26.28670952638046
 40
27.26117375666769
 40
28.23576658533321
 40
29.21049766730932
 40
30.18537663467595
 40
31.16041340340121
 40
32.13561808318438
 40
33.11100096927169
 40
34.08657252153509
 40
35.06234333692378
 40
36.03832411370178
 40
37.01452560630429
 40
37.99095856935004
 40
38.96763368968154
 40
39.94456150561443
 40
40.92175231296478
 40
41.89921605788696
 40
42.87696221706852
 40
43.85499966639095
 40
44.8333365397672
 40
45.8119800804626
 40
46.79093648779688
 40
47.77021076268977
 40
48.74980655604474
 40
49.72972602445789
 40
50.70996969819012
 40
51.69053636661034
 40
52.6714229855117
 40
53.65262460995209
 40
54.63413435586843
 40
55.61594339243499
 40
56.59804096586265
 40
57.58041445396287
 40
58.56304944943246
 40
59.54592986856073
 40
60.52903808102094
 40
61.51235505566527
 40
62.49586051685946
 40
63.47953310589524
 40
64.46335054240677
 40
65.44728978145274
 40
66.4313271629495
 40
67.41543855136568
 40
68.39959946491875
 40
69.38378519484299
 40
69.38378519484299
 40
69.38378519484299
 40
69.38378519484299
 10
623.367520101343
 20
1948.578064689037
 30
0.0
 10
623.3675210695637
 20
1948.323915163629
 30
0.0
 10
623.3618999978844
 20
1947.815615965036
 30
0.0
 10
623.3366151735654
 20
1947.053539666319
 30
0.0
 10
623.2944845239172
 20
1946.292208278132
 30
0.0
 10
623.2355280824868
 20
1945.531994072722
 30
0.0
 10
623.159772984307
 20
1944.773268900813
 30
0.0
 10
623.0672549054971
 20
1944.016404010342
 30
0.0
 10
622.9580177084017
 20
1943.261769857203
 30
0.0
 10
622.8321135914239
 20
1942.509735904254
 30
0.0
 10
622.6896029911859
 20
1941.760670433429
 30
0.0
 10
622.5305544966632
 20
1941.014940373454
 30
0.0
 10
622.3550448498236
 20
1940.272911112578
 30
0.0
 10
622.1631589192302
 20
1939.534946312929
 30
0.0
 10
621.9549896844046
 20
1938.801407720677
 30
0.0
 10
621.730638227923
 20
1938.072654969582
 30
0.0
 10
621.4902137231129
 20
1937.349045380073
 30
0.0
 10
621.2338334036021
 20
1936.630933755828
 30
0.0
 10
620.9616224382862
 20
1935.918672215887
 30
0.0
 10
620.6737137916598
 20
1935.212610023696
 30
0.0
 10
620.3702475491446
 20
1934.513093716605
 30
0.0
 10
620.0513716484893
 20
1933.820466487699
 30
0.0
 10
619.717236476462
 20
1933.135070972125
 30
0.0
 10
619.3680046496838
 20
1932.457244439125
 30
0.0
 10
619.0038452237468
 20
1931.78732113983
 30
0.0
 10
618.6249362009976
 20
1931.125630759242
 30
0.0
 10
618.2314620598108
 20
1930.472499445099
 30
0.0
 10
617.8236128678827
 20
1929.828250428418
 30
0.0
 10
617.40158620481
 20
1929.193202782551
 30
0.0
 10
616.965587902966
 20
1928.567670591249
 30
0.0
 10
616.5158319635702
 20
1927.95196248405
 30
0.0
 10
616.052538183967
 20
1927.346383427108
 30
0.0
 10
615.5759391898036
 20
1926.751228142141
 30
0.0
 10
615.0862669151302
 20
1926.166792069407
 30
0.0
 10
614.5837631427485
 20
1925.593362761509
 30
0.0
 10
614.068675190907
 20
1925.031223010543
 30
0.0
 10
613.5412569024129
 20
1924.480649836831
 30
0.0
 10
613.0017682413591
 20
1923.941914554888
 30
0.0
 10
612.4504752626699
 20
1923.415282544398
 30
0.0
 10
611.8876499756425
 20
1922.901013098053
 30
0.0
 10
611.3135702319087
 20
1922.399359243106
 30
0.0
 10
610.728519600143
 20
1921.910567565919
 30
0.0
 10
610.1327872351703
 20
1921.434878033633
 30
0.0
 10
609.5266677370792
 20
1920.972523817146
 30
0.0
 10
608.9104609995566
 20
1920.523731117384
 30
0.0
 10
608.2844720461935
 20
1920.088718997603
 30
0.0
 10
607.6490108542703
 20
1919.667699224414
 30
0.0
 10
607.0043921658844
 20
1919.26087612023
 30
0.0
 10
606.3509352869842
 20
1918.868446429534
 30
0.0
 10
605.6889638752709
 20
1918.490599201048
 30
0.0
 10
605.018805718415
 20
1918.127515687591
 30
0.0
 10
604.3407925042738
 20
1917.779369265109
 30
0.0
 10
603.6552595849271
 20
1917.446325372391
 30
0.0
 10
602.9625457365173
 20
1917.128541472858
 30
0.0
 10
602.2629929167206
 20
1916.826167041802
 30
0.0
 10
601.5569460253037
 20
1916.539343573058
 30
0.0
 10
600.8447526710124
 20
1916.268204600714
 30
0.0
 10
600.1267629463937
 20
1916.012875735821
 30
0.0
 10
599.4033292135073
 20
1915.773474712135
 30
0.0
 10
598.6748059021029
 20
1915.550111436354
 30
0.0
 10
597.9415493211345
 20
1915.342888037723
 30
0.0
 10
597.2039174835481
 20
1915.151898912319
 30
0.0
 10
596.4622699433894
 20
1914.977230757976
 30
0.0
 10
595.7169676433214
 20
1914.818962596922
 30
0.0
 10
594.9683727705888
 20
1914.677165784524
 30
0.0
 10
594.2168486168848
 20
1914.551904004359
 30
0.0
 10
593.4627594456952
 20
1914.443233250322
 30
0.0
 10
592.7064703402621
 20
1914.351201802404
 30
0.0
 10
591.9483471203457
 20
1914.275850187425
 30
0.0
 10
591.1887559892311
 20
1914.217211178907
 30
0.0
 10
590.4280641690593
 20
1914.175309659304
 30
0.0
 10
589.6666368277411
 20
1914.150163031189
 30
0.0
 10
589.1587796295153
 20
1914.144574127492
 30
0.0
 10
588.9048445031995
 20
1914.144574405932
 30
0.0
  0
SPLINE
  5
180D
330
A
100
AcDbEntity
  8
MODEL
100
AcDbSpline
210
0.0
220
0.0
230
1.0
 70
     8
 71
     3
 72
    78
 73
    74
 74
     0
 42
0.000000001
 43
0.0000000001
 40
0.0
 40
0.0
 40
0.0
 40
0.0
 40
0.9732873550556465
 40
1.946575271756158
 40
2.919864601733934
 40
3.893156545134985
 40
4.866452639005157
 40
5.839754744880116
 40
6.81306503651231
 40
7.786385985015649
 40
8.759720344474584
 40
9.733071142213774
 40
10.7064416717502
 40
11.67983548565874
 40
12.6532563875589
 40
13.62670842215123
 40
14.60019586251344
 40
15.57372319551096
 40
16.54729510948926
 40
17.52091649329029
 40
18.49459245937541
 40
19.46832840574321
 40
20.44213023122115
 40
21.41600430963914
 40
22.38995743760595
 40
23.36399676056199
 40
24.33812979242993
 40
25.31236453601483
 40
26.28670952638049
 40
27.26117375666771
 40
28.23576658533323
 40
29.21049766730936
 40
30.18537663467598
 40
31.16041340340125
 40
32.13561808318442
 40
33.11100096927172
 40
34.08657252153512
 40
35.06234333692383
 40
36.03832411370184
 40
37.01452560630434
 40
37.99095856935009
 40
38.96763368968159
 40
39.94456150561449
 40
40.92175231296485
 40
41.89921605788702
 40
42.87696221706857
 40
43.854999666391
 40
44.83333653976725
 40
45.81198008046267
 40
46.79093648779694
 40
47.77021076268984
 40
48.7498065560448
 40
49.72972602445796
 40
50.70996969819019
 40
51.69053636661041
 40
52.67142298551178
 40
53.65262460995216
 40
54.6341343558685
 40
55.61594339243506
 40
56.59804096586272
 40
57.58041445396294
 40
58.56304944943253
 40
59.54592986856081
 40
60.52903808102101
 40
61.51235505566535
 40
62.49586051685953
 40
63.47953310589531
 40
64.46335054240684
 40
65.44728978145281
 40
66.43132716294957
 40
67.41543855136577
 40
68.39959946491884
 40
69.38378519484307
 40
69.38378519484307
 40
69.38378519484307
 40
69.38378519484307
 10
554.4421689050569
 20
1948.578064689037
 30
0.0
 10
554.4421679368352
 20
1948.323915163629
 30
0.0
 10
554.4477890085145
 20
1947.815615965036
 30
0.0
 10
554.4730738328335
 20
1947.053539666319
 30
0.0
 10
554.5152044824817
 20
1946.292208278132
 30
0.0
 10
554.574160923913
 20
1945.531994072722
 30
0.0
 10
554.649916022091
 20
1944.773268900813
 30
0.0
 10
554.7424341009018
 20
1944.016404010342
 30
0.0
 10
554.8516712979972
 20
1943.261769857203
 30
0.0
 10
554.977575414975
 20
1942.509735904254
 30
0.0
 10
555.120086015213
 20
1941.760670433429
 30
0.0
 10
555.2791345097357
 20
1941.014940373454
 30
0.0
 10
555.4546441565753
 20
1940.272911112578
 30
0.0
 10
555.6465300871687
 20
1939.534946312929
 30
0.0
 10
555.8546993219943
 20
1938.801407720677
 30
0.0
 10
556.0790507784759
 20
1938.072654969582
 30
0.0
 10
556.319475283286
 20
1937.349045380074
 30
0.0
 10
556.5758556027968
 20
1936.630933755829
 30
0.0
 10
556.8480665681127
 20
1935.918672215887
 30
0.0
 10
557.1359752147391
 20
1935.212610023696
 30
0.0
 10
557.4394414572544
 20
1934.513093716605
 30
0.0
 10
557.7583173579096
 20
1933.820466487699
 30
0.0
 10
558.092452529937
 20
1933.135070972125
 30
0.0
 10
558.4416843567151
 20
1932.457244439125
 30
0.0
 10
558.8058437826521
 20
1931.78732113983
 30
0.0
 10
559.1847528054013
 20
1931.125630759242
 30
0.0
 10
559.5782269465881
 20
1930.472499445099
 30
0.0
 10
559.9860761385162
 20
1929.828250428418
 30
0.0
 10
560.4081028015889
 20
1929.193202782551
 30
0.0
 10
560.8441011034329
 20
1928.567670591249
 30
0.0
 10
561.2938570428287
 20
1927.95196248405
 30
0.0
 10
561.7571508224319
 20
1927.346383427108
 30
0.0
 10
562.2337498165953
 20
1926.751228142141
 30
0.0
 10
562.7234220912687
 20
1926.166792069407
 30
0.0
 10
563.2259258636504
 20
1925.59336276151
 30
0.0
 10
563.7410138154919
 20
1925.031223010543
 30
0.0
 10
564.268432103986
 20
1924.480649836831
 30
0.0
 10
564.8079207650399
 20
1923.941914554888
 30
0.0
 10
565.359213743729
 20
1923.415282544398
 30
0.0
 10
565.9220390307555
 20
1922.901013098053
 30
0.0
 10
566.4961187744902
 20
1922.399359243106
 30
0.0
 10
567.081169406255
 20
1921.910567565919
 30
0.0
 10
567.6769017712286
 20
1921.434878033633
 30
0.0
 10
568.2830212693198
 20
1920.972523817146
 30
0.0
 10
568.8992280068423
 20
1920.523731117384
 30
0.0
 10
569.5252169602054
 20
1920.088718997603
 30
0.0
 10
570.1606781521286
 20
1919.667699224414
 30
0.0
 10
570.8052968405145
 20
1919.26087612023
 30
0.0
 10
571.4587537194147
 20
1918.868446429534
 30
0.0
 10
572.120725131128
 20
1918.490599201048
 30
0.0
 10
572.7908832879839
 20
1918.127515687591
 30
0.0
 10
573.4688965021251
 20
1917.779369265109
 30
0.0
 10
574.1544294214718
 20
1917.446325372391
 30
0.0
 10
574.8471432698816
 20
1917.128541472858
 30
0.0
 10
575.5466960896783
 20
1916.826167041802
 30
0.0
 10
576.2527429810953
 20
1916.539343573058
 30
0.0
 10
576.9649363353865
 20
1916.268204600714
 30
0.0
 10
577.6829260600052
 20
1916.012875735821
 30
0.0
 10
578.4063597928916
 20
1915.773474712135
 30
0.0
 10
579.134883104296
 20
1915.550111436354
 30
0.0
 10
579.8681396852635
 20
1915.342888037723
 30
0.0
 10
580.6057715228508
 20
1915.151898912319
 30
0.0
 10
581.3474190630095
 20
1914.977230757976
 30
0.0
 10
582.0927213630775
 20
1914.818962596922
 30
0.0
 10
582.8413162358102
 20
1914.677165784524
 30
0.0
 10
583.5928403895141
 20
1914.551904004359
 30
0.0
 10
584.3469295607038
 20
1914.443233250322
 30
0.0
 10
585.1032186661369
 20
1914.351201802404
 30
0.0
 10
585.8613418860532
 20
1914.275850187426
 30
0.0
 10
586.6209330171678
 20
1914.217211178907
 30
0.0
 10
587.3816248373396
 20
1914.175309659304
 30
0.0
 10
588.1430521786579
 20
1914.150163031189
 30
0.0
 10
588.6509093768836
 20
1914.144574127492
 30
0.0
 10
588.9048445031995
 20
1914.144574405932
 30
0.0
  0
SPLINE
  5
180E
330
A
100
AcDbEntity
  8
MODEL
100
AcDbSpline
210
0.0
220
0.0
230
1.0
 70
     8
 71
     3
 72
    24
 73
    20
 74
     0
 42
0.000000001
 43
0.0000000001
 40
0.0
 40
0.0
 40
0.0
 40
0.0
 40
0.8375800370352331
 40
1.675166591372667
 40
2.514057028984794
 40
3.350779798662119
 40
4.185225042728449
 40
5.019775550343697
 40
5.856371931432782
 40
6.692099480147335
 40
7.527087513952551
 40
8.359545548422709
 40
9.191181953185769
 40
10.02431507274726
 40
10.85688539306501
 40
11.68785631808165
 40
12.5195068290201
 40
13.35116284447052
 40
14.18182965500685
 40
14.18182965500685
 40
14.18182965500685
 40
14.18182965500685
 10
597.9048009435701
 20
2089.597596246691
 30
0.0
 10
597.904862796343
 20
2089.636176369903
 30
0.0
 10
597.8789324930831
 20
2089.71255378733
 30
0.0
 10
597.7629629541743
 20
2089.823543352738
 30
0.0
 10
597.5707718007252
 20
2089.930120467918
 30
0.0
 10
597.3043520223209
 20
2090.031488238925
 30
0.0
 10
596.9664873448692
 20
2090.127004520746
 30
0.0
 10
596.5597610657587
 20
2090.216296964797
 30
0.0
 10
596.0874204607726
 20
2090.298939203627
 30
0.0
 10
595.5534381368916
 20
2090.374545618609
 30
0.0
 10
594.9634806600052
 20
2090.442682985557
 30
0.0
 10
594.322929470738
 20
2090.503134990707
 30
0.0
 10
593.6368479622424
 20
2090.555797386179
 30
0.0
 10
592.9104522715006
 20
2090.600566702282
 30
0.0
 10
592.1502447336989
 20
2090.637303215979
 30
0.0
 10
591.3630038172514
 20
2090.665931434363
 30
0.0
 10
590.555175037538
 20
2090.686409248223
 30
0.0
 10
589.7331299936586
 20
2090.698724202941
 30
0.0
 10
589.1812667883187
 20
2090.701416602711
 30
0.0
 10
588.9048445031995
 20
2090.701444127865
 30
0.0
  0
SPLINE
  5
180F
330
A
100
AcDbEntity
  8
MODEL
100
AcDbSpline
210
0.0
220
0.0
230
1.0
 70
     8
 71
     3
 72
    24
 73
    20
 74
     0
 42
0.000000001
 43
0.0000000001
 40
0.0
 40
0.0
 40
0.0
 40
0.0
 40
0.8310392965746072
 40
1.663075562055906
 40
2.495142849602042
 40
3.326590000993169
 40
4.159684084346023
 40
4.993380799671602
 40
5.825619467758355
 40
6.658723906113877
 40
7.494404391522262
 40
8.330838550540033
 40
9.168134413072897
 40
10.00329143457613
 40
10.83826218355035
 40
11.67544833736015
 40
12.51471764577416
 40
13.35251855664516
 40
14.19016730671404
 40
14.19016730671404
 40
14.19016730671404
 40
14.19016730671404
 10
588.9048445031995
 20
2088.185407533969
 30
0.0
 10
589.1810024558736
 20
2088.185446858345
 30
0.0
 10
589.7325369147902
 20
2088.189867230495
 30
0.0
 10
590.553992417862
 20
2088.209960564936
 30
0.0
 10
591.3613684207603
 20
2088.243102678187
 30
0.0
 10
592.148256264617
 20
2088.288863596828
 30
0.0
 10
592.9082698565608
 20
2088.346634045731
 30
0.0
 10
593.6346348691859
 20
2088.415628959503
 30
0.0
 10
594.3208362058103
 20
2088.494874478519
 30
0.0
 10
594.961625418212
 20
2088.583390004178
 30
0.0
 10
595.5518879467891
 20
2088.68014625626
 30
0.0
 10
596.0862281544969
 20
2088.783952744498
 30
0.0
 10
596.5588997833729
 20
2088.893350833441
 30
0.0
 10
596.9659521406065
 20
2089.007055228985
 30
0.0
 10
597.3040710314472
 20
2089.12381012432
 30
0.0
 10
597.5706530723273
 20
2089.242536304461
 30
0.0
 10
597.7629392554691
 20
2089.361968398538
 30
0.0
 10
597.8788980494792
 20
2089.480846183414
 30
0.0
 10
597.9049443320846
 20
2089.559032662833
 30
0.0
 10
597.9048009435701
 20
2089.597596246793
 30
0.0
  0
SPLINE
  5
1810
330
A
100
AcDbEntity
  8
MODEL
100
AcDbSpline
210
0.0
220
0.0
230
1.0
 70
     8
 71
     3
 72
    43
 73
    39
 74
     0
 42
0.000000001
 43
0.0000000001
 40
0.0
 40
0.0
 40
0.0
 40
0.0
 40
0.7849441766349042
 40
1.570933944692225
 40
2.35663835536793
 40
3.141684402688479
 40
3.927935564441479
 40
4.714791278023227
 40
5.502483809586734
 40
6.28983395598601
 40
7.077126148488177
 40
7.866273361480602
 40
8.655667434001135
 40
9.445367836778647
 40
10.2358377003456
 40
11.02585261902479
 40
11.81723300234636
 40
12.60821776820202
 40
13.39916615917388
 40
14.19100020218604
 40
14.98174473275551
 40
15.77311418347262
 40
16.56397762237789
 40
17.35391661000015
 40
18.14440576448699
 40
18.93387200567124
 40
19.72369355195378
 40
20.51222839664113
 40
21.29916415174756
 40
22.08648215724168
 40
22.87427083464796
 40
23.66173910424957
 40
24.4475529113373
 40
25.23192084871182
 40
26.01673329111526
 40
26.80345172917472
 40
27.58868698964138
 40
28.37308806221711
 40
28.37308806221711
 40
28.37308806221711
 40
28.37308806221711
 10
588.9048445031995
 20
2088.185407533969
 30
0.0
 10
588.644046049656
 20
2088.185438914094
 30
0.0
 10
588.1230404515618
 20
2088.189387391799
 30
0.0
 10
587.3465234689693
 20
2088.207316910829
 30
0.0
 10
586.5819752532334
 20
2088.23691879694
 30
0.0
 10
585.8348772621803
 20
2088.277839288371
 30
0.0
 10
585.1104750775166
 20
2088.329595493164
 30
0.0
 10
584.4139587250056
 20
2088.391605634887
 30
0.0
 10
583.7511764971687
 20
2088.463091483212
 30
0.0
 10
583.1273228018208
 20
2088.543191182483
 30
0.0
 10
582.5469044087986
 20
2088.63100647968
 30
0.0
 10
582.0143453965766
 20
2088.725571400108
 30
0.0
 10
581.5337397987714
 20
2088.825882438894
 30
0.0
 10
581.1091465867712
 20
2088.930818686402
 30
0.0
 10
580.74404313183
 20
2089.039263941096
 30
0.0
 10
580.4410773670197
 20
2089.15021997273
 30
0.0
 10
580.2029413871423
 20
2089.262538824834
 30
0.0
 10
580.0314141557255
 20
2089.375265404497
 30
0.0
 10
579.9279315827762
 20
2089.487398120527
 30
0.0
 10
579.8933602670822
 20
2089.597972218503
 30
0.0
 10
579.927951951382
 20
2089.70622798079
 30
0.0
 10
580.0313855386421
 20
2089.811290791082
 30
0.0
 10
580.2028204746694
 20
2089.912500844265
 30
0.0
 10
580.4408652669053
 20
2090.009251312081
 30
0.0
 10
580.743486597311
 20
2090.100959940392
 30
0.0
 10
581.1085553090397
 20
2090.187238975452
 30
0.0
 10
581.5328647126071
 20
2090.267609561807
 30
0.0
 10
582.0129386991184
 20
2090.341732285628
 30
0.0
 10
582.5449283824928
 20
2090.409351933886
 30
0.0
 10
583.1250610411962
 20
2090.470298619818
 30
0.0
 10
583.7492638901331
 20
2090.524416324914
 30
0.0
 10
584.4123529697081
 20
2090.571518238212
 30
0.0
 10
585.1084747835112
 20
2090.611461524182
 30
0.0
 10
585.8324446083097
 20
2090.644206536602
 30
0.0
 10
586.5799439814691
 20
2090.669753045913
 30
0.0
 10
587.3454290437121
 20
2090.688033720372
 30
0.0
 10
588.1227246657127
 20
2090.699017674185
 30
0.0
 10
588.6438664151156
 20
2090.701422186491
 30
0.0
 10
588.9048445031995
 20
2090.701444127865
 30
0.0
  0
SPLINE
  5
1811
330
A
100
AcDbEntity
  8
MODEL
100
AcDbSpline
210
0.0
220
0.0
230
1.0
 70
    11
 71
     3
 72
    84
 73
    80
 74
     0
 42
0.000000001
 43
0.0000000001
 40
0.0
 40
0.0
 40
0.0
 40
0.0
 40
0.7694932034395255
 40
1.539572079108536
 40
2.309620801216225
 40
3.077934754325031
 40
3.846329225954331
 40
4.615139628056697
 40
5.383575327640163
 40
6.15082711481284
 40
6.916747369083438
 40
7.683168174065132
 40
8.449480268296384
 40
9.214924664908443
 40
9.980115427858827
 40
10.74412201155846
 40
11.50860990761685
 40
12.27271697265476
 40
13.03658585886679
 40
13.80040137110848
 40
14.56375318898246
 40
15.32791114027333
 40
16.09147698112219
 40
16.85569021174621
 40
17.62001151740625
 40
18.3843972025997
 40
19.1497999169018
 40
19.91488749393682
 40
20.68110567516412
 40
21.44737175269802
 40
22.21413041274102
 40
22.98187440855387
 40
23.74940118358818
 40
24.51818855967347
 40
25.28672133745753
 40
26.05588697021009
 40
26.82556960265232
 40
27.59491033071589
 40
28.36522279678576
 40
29.1347734321515
 40
29.90483125962997
 40
30.67460605411362
 40
31.44385594859368
 40
32.21353706631509
 40
32.98203078861658
 40
33.75081033975711
 40
34.51867236034673
 40
35.28599804924501
 40
36.05330915287903
 40
36.81940254114452
 40
37.58574639012404
 40
38.3510094864775
 40
39.11606697053872
 40
39.88097356391734
 40
40.64509942911521
 40
41.40972526139304
 40
42.17348087460092
 40
42.93758310683482
 40
43.70172705506166
 40
44.46602952316641
 40
45.23072372674707
 40
45.99488377486858
 40
46.76017136339052
 40
47.52581511518024
 40
48.29240085260724
 40
49.0591270432338
 40
49.82508497220063
 40
50.59210466125686
 40
51.36100754567536
 40
52.13047640273329
 40
52.89919590949732
 40
53.6671720575657
 40
54.43623648596787
 40
55.20760127277912
 40
55.97756543416013
 40
56.74700473173627
 40
56.74700473173627
 40
56.74700473173627
 40
56.74700476293467
 40
56.74700476293467
 40
56.74700476293467
 40
56.74700476293467
 10
621.9047729258773
 20
2089.59494055338
 30
0.0
 10
621.9048106772871
 20
2089.630302061702
 30
0.0
 10
621.8829845764594
 20
2089.700325422214
 30
0.0
 10
621.7850877118499
 20
2089.802435104235
 30
0.0
 10
621.6227336466236
 20
2089.900929706592
 30
0.0
 10
621.3972618647995
 20
2089.995247663195
 30
0.0
 10
621.1104532959716
 20
2090.084890039262
 30
0.0
 10
620.7642538982482
 20
2090.169474911787
 30
0.0
 10
620.3613212417986
 20
2090.248594723887
 30
0.0
 10
619.9050536037885
 20
2090.321875415824
 30
0.0
 10
619.3987497302569
 20
2090.389098827007
 30
0.0
 10
618.84592601226
 20
2090.450080069903
 30
0.0
 10
618.2504675498913
 20
2090.504650579305
 30
0.0
 10
617.6168706586714
 20
2090.552656082822
 30
0.0
 10
616.9500536068444
 20
2090.593970149937
 30
0.0
 10
616.2545703248188
 20
2090.628536494217
 30
0.0
 10
615.5353404723455
 20
2090.656298203348
 30
0.0
 10
614.7973361141785
 20
2090.677212224762
 30
0.0
 10
614.0459820012029
 20
2090.691243384259
 30
0.0
 10
613.2866834236011
 20
2090.698370897423
 30
0.0
 10
612.5246303838185
 20
2090.69858843067
 30
0.0
 10
611.7652694356693
 20
2090.691889997731
 30
0.0
 10
611.0138935950363
 20
2090.678278406829
 30
0.0
 10
610.2759487231269
 20
2090.657771032083
 30
0.0
 10
609.5565973108341
 20
2090.630387442652
 30
0.0
 10
608.8609202085945
 20
2090.596165270055
 30
0.0
 10
608.1939836277752
 20
2090.555160065913
 30
0.0
 10
607.5604086540561
 20
2090.507434610315
 30
0.0
 10
606.9650093392638
 20
2090.45310756227
 30
0.0
 10
606.4119401263242
 20
2090.392292051431
 30
0.0
 10
605.9053052961035
 20
2090.325163394388
 30
0.0
 10
605.4489100006167
 20
2090.251938744137
 30
0.0
 10
605.0459690572607
 20
2090.172845788151
 30
0.0
 10
604.6997768711417
 20
2090.088252990186
 30
0.0
 10
604.4127340526256
 20
2089.998480891976
 30
0.0
 10
604.1871573707786
 20
2089.904008784862
 30
0.0
 10
604.0247614569626
 20
2089.805338794064
 30
0.0
 10
603.926758075354
 20
2089.703009882576
 30
0.0
 10
603.8939877527455
 20
2089.597753197569
 30
0.0
 10
603.9266881894555
 20
2089.490195353401
 30
0.0
 10
604.0245958125661
 20
2089.381207215229
 30
0.0
 10
604.1869831075965
 20
2089.271593801119
 30
0.0
 10
604.4126343215594
 20
2089.16224168981
 30
0.0
 10
604.6996873453882
 20
2089.054154747368
 30
0.0
 10
605.0461727788925
 20
2088.948223833269
 30
0.0
 10
605.4491741840438
 20
2088.845530126821
 30
0.0
 10
605.905835601252
 20
2088.747020070252
 30
0.0
 10
606.4126748472909
 20
2088.653694158173
 30
0.0
 10
606.9658282407881
 20
2088.566533760006
 30
0.0
 10
607.5614437536406
 20
2088.486423397616
 30
0.0
 10
608.1948798934436
 20
2088.414267972886
 30
0.0
 10
608.8617383672954
 20
2088.35083674304
 30
0.0
 10
609.5571297663837
 20
2088.296842847548
 30
0.0
 10
610.276112112354
 20
2088.252897581021
 30
0.0
 10
611.0136590960428
 20
2088.219493671013
 30
0.0
 10
611.7644523203826
 20
2088.197022391436
 30
0.0
 10
612.5232320878904
 20
2088.185739473077
 30
0.0
 10
613.2846614625932
 20
2088.185769060479
 30
0.0
 10
614.0435432062986
 20
2088.197113998806
 30
0.0
 10
614.7944765766997
 20
2088.219639310905
 30
0.0
 10
615.5319854431564
 20
2088.253076508939
 30
0.0
 10
616.2509531625983
 20
2088.297032564398
 30
0.0
 10
616.9463960263711
 20
2088.351008625855
 30
0.0
 10
617.6135938927482
 20
2088.414424063822
 30
0.0
 10
618.2473933795427
 20
2088.486541515603
 30
0.0
 10
618.8429308916784
 20
2088.566530308385
 30
0.0
 10
619.3959474605508
 20
2088.6535142701
 30
0.0
 10
619.9027791705857
 20
2088.746630805975
 30
0.0
 10
620.3598343947433
 20
2088.844987531423
 30
0.0
 10
620.7631954138687
 20
2088.947520234879
 30
0.0
 10
621.1095707963977
 20
2089.053144756024
 30
0.0
 10
621.3965759818366
 20
2089.160900324263
 30
0.0
 10
621.6223549248762
 20
2089.269948331766
 30
0.0
 10
621.7849076956709
 20
2089.379318613176
 30
0.0
 10
621.8829471792114
 20
2089.488062034294
 30
0.0
 10
621.9047352335201
 20
2089.559634393556
 30
0.0
 10
621.9047729258673
 20
2089.594940522182
 30
0.0
 10
621.9053607671303
 20
2090.145566861187
 30
0.0
 10
621.9041842047227
 20
2089.043489159179
 30
0.0
 10
621.9047729258773
 20
2089.59494055338
 30
0.0
  0
SPLINE
  5
1812
330
A
100
AcDbEntity
  8
MODEL
100
AcDbSpline
210
0.0
220
0.0
230
1.0
 70
    11
 71
     3
 72
    84
 73
    80
 74
     0
 42
0.000000001
 43
0.0000000001
 40
0.0
 40
0.0
 40
0.0
 40
0.0
 40
0.7693752214727079
 40
1.539125197796487
 40
2.310142245406334
 40
3.078781317834323
 40
3.846244565497286
 40
4.614348404343376
 40
5.38312908744056
 40
6.151321234370578
 40
6.917646428700231
 40
7.682924954224879
 40
8.44897497378937
 40
9.214921055577125
 40
9.979982318446083
 40
10.74474332775052
 40
11.50842112360017
 40
12.27268402845197
 40
13.03659260722581
 40
13.80037155228108
 40
14.5641286721381
 40
15.32753256921255
 40
16.09181038063674
 40
16.85555801889994
 40
17.620057517377
 40
18.38467710024942
 40
19.14945683507566
 40
19.91528273347426
 40
20.68082967694171
 40
21.44756133010573
 40
22.21430979058716
 40
22.98159513297688
 40
23.749818130573
 40
24.51780902934663
 40
25.28703462864854
 40
26.0559198930537
 40
26.82541844012416
 40
27.59530561792369
 40
28.36479971819539
 40
29.13517072706859
 40
29.90467888279808
 40
30.67463824415489
 40
31.44417406706722
 40
32.21314963159244
 40
32.98245478792335
 40
33.75052720217515
 40
34.51885147815018
 40
35.28619314036507
 40
36.05302711125005
 40
36.81980096093353
 40
37.58540434470729
 40
38.35128603111075
 40
39.11611715986241
 40
39.88083996706281
 40
40.64542991189394
 40
41.40935386832658
 40
42.1738500655831
 40
42.93755692046241
 40
43.70173358966804
 40
44.4659962300818
 40
45.23053639927342
 40
45.99550354887317
 40
46.76004157935198
 40
47.52581261719429
 40
48.29188697512125
 40
49.05887731403181
 40
49.82599898657467
 40
50.59260872140452
 40
51.36055300500902
 40
52.12966772207248
 40
52.89910246953024
 40
53.66803291113548
 40
54.43677319140102
 40
55.20715206934274
 40
55.97744570650202
 40
56.7470052128481
 40
56.7470052128481
 40
56.7470052128481
 40
56.74700524270772
 40
56.74700524270772
 40
56.74700524270772
 40
56.74700524270772
 10
555.9049160805316
 20
2089.594940523074
 30
0.0
 10
555.9048783248081
 20
2089.630296419406
 30
0.0
 10
555.9266921442995
 20
2089.700297344672
 30
0.0
 10
556.0245966994817
 20
2089.802438925589
 30
0.0
 10
556.1870086066674
 20
2089.900964857928
 30
0.0
 10
556.4125583913265
 20
2089.995291677032
 30
0.0
 10
556.699256934714
 20
2090.084889167249
 30
0.0
 10
557.0452610643943
 20
2090.169435179898
 30
0.0
 10
557.4482064053409
 20
2090.248570087129
 30
0.0
 10
557.9048185936845
 20
2090.321906123706
 30
0.0
 10
558.4112042853667
 20
2090.389128895061
 30
0.0
 10
558.963809278318
 20
2090.450081570472
 30
0.0
 10
559.5590320353976
 20
2090.504635331588
 30
0.0
 10
560.1926328184227
 20
2090.552643877287
 30
0.0
 10
560.8597495776785
 20
2090.593977847329
 30
0.0
 10
561.5552572875431
 20
2090.628542449596
 30
0.0
 10
562.2744457574508
 20
2090.656300265849
 30
0.0
 10
563.0122926344729
 20
2090.677211265943
 30
0.0
 10
563.7636875764192
 20
2090.691242962347
 30
0.0
 10
564.5231021272557
 20
2090.698372110215
 30
0.0
 10
565.2850986534149
 20
2090.698587603378
 30
0.0
 10
566.044467760863
 20
2090.691889252766
 30
0.0
 10
566.7957805148517
 20
2090.678279304595
 30
0.0
 10
567.53380098262
 20
2090.65776835307
 30
0.0
 10
568.2531464729536
 20
2090.630385953705
 30
0.0
 10
568.9487852769962
 20
2090.596163577366
 30
0.0
 10
569.6157763743968
 20
2090.555155374801
 30
0.0
 10
570.2492314860192
 20
2090.507438975912
 30
0.0
 10
570.8447578239238
 20
2090.453099113091
 30
0.0
 10
571.3977660255541
 20
2090.392291149948
 30
0.0
 10
571.9044006457025
 20
2090.325159779196
 30
0.0
 10
572.360848782143
 20
2090.251926814872
 30
0.0
 10
572.7636613256182
 20
2090.172858540634
 30
0.0
 10
573.1099816023616
 20
2090.088233378455
 30
0.0
 10
573.3969399690932
 20
2089.998487993122
 30
0.0
 10
573.6225468918692
 20
2089.903999110524
 30
0.0
 10
573.7849505869599
 20
2089.805322851978
 30
0.0
 10
573.8829181347264
 20
2089.703027220104
 30
0.0
 10
573.9157011268026
 20
2089.597723683484
 30
0.0
 10
573.8830142203587
 20
2089.490214307694
 30
0.0
 10
573.7850691467484
 20
2089.381188764668
 30
0.0
 10
573.6226903958714
 20
2089.271583197347
 30
0.0
 10
573.3970735285484
 20
2089.162251196185
 30
0.0
 10
573.1099242899072
 20
2089.054128229237
 30
0.0
 10
572.7635844377864
 20
2088.948242751916
 30
0.0
 10
572.3604372520267
 20
2088.845512359598
 30
0.0
 10
571.9038379965532
 20
2088.747015821249
 30
0.0
 10
571.3970026787165
 20
2088.653693482536
 30
0.0
 10
570.8437734996323
 20
2088.566520313018
 30
0.0
 10
570.2483005483864
 20
2088.486430679563
 30
0.0
 10
569.6147372360656
 20
2088.414260631095
 30
0.0
 10
568.9479298578917
 20
2088.350833852166
 30
0.0
 10
568.2525079852039
 20
2088.296840654478
 30
0.0
 10
567.5335184325058
 20
2088.252893353022
 30
0.0
 10
566.7960335267153
 20
2088.219494750085
 30
0.0
 10
566.0452058767996
 20
2088.197021529591
 30
0.0
 10
565.2864010960066
 20
2088.185737937435
 30
0.0
 10
564.5249376098218
 20
2088.18577103085
 30
0.0
 10
563.7661658116649
 20
2088.197113245959
 30
0.0
 10
563.0152666582844
 20
2088.219638018325
 30
0.0
 10
562.277613604374
 20
2088.253079485319
 30
0.0
 10
561.5585919079776
 20
2088.29704227286
 30
0.0
 10
560.8631795973333
 20
2088.351020375427
 30
0.0
 10
560.1962869574772
 20
2088.414404749225
 30
0.0
 10
559.5624748727005
 20
2088.486519972295
 30
0.0
 10
558.9667067274777
 20
2088.566533989224
 30
0.0
 10
558.4134879487783
 20
2088.653555075647
 30
0.0
 10
557.9067278547764
 20
2088.746671409147
 30
0.0
 10
557.4500140517093
 20
2088.844954603838
 30
0.0
 10
557.0466621680616
 20
2088.947471548248
 30
0.0
 10
556.7000952335102
 20
2089.053145660795
 30
0.0
 10
556.4129856859863
 20
2089.160951106439
 30
0.0
 10
556.1872823536805
 20
2089.269986010491
 30
0.0
 10
556.0247841293576
 20
2089.379323567096
 30
0.0
 10
555.9267542953294
 20
2089.488033092122
 30
0.0
 10
555.9049537890332
 20
2089.559628814395
 30
0.0
 10
555.9049160805216
 20
2089.594940552934
 30
0.0
 10
555.9043280790274
 20
2090.145568358801
 30
0.0
 10
555.9055049592444
 20
2089.043492095635
 30
0.0
 10
555.9049160805316
 20
2089.594940523074
 30
0.0
  0
ELLIPSE
  5
1813
330
A
100
AcDbEntity
  8
MODEL
100
AcDbEllipse
 10
597.9049208376373
 20
2092.568408869898
 30
0.0
 11
3.000076330004573
 21
-0.0001646951867555094
 31
0.0
210
0.0
220
0.0
230
-1.0
 40
0.9902456785282547
 41
1.570781928951207
 42
2.236494163337782
  0
SPLINE
  5
1814
330
A
100
AcDbEntity
  8
MODEL
100
AcDbSpline
210
0.0
220
0.0
230
1.0
 70
     8
 71
     3
 72
    25
 73
    21
 74
     0
 42
0.000000001
 43
0.0000000001
 40
4.550845692740189
 40
4.550845692740189
 40
4.550845692740189
 40
4.550845692740189
 40
4.955292908758774
 40
5.689617028157275
 40
6.081335110077937
 40
7.452125669130827
 40
8.881310288257044
 40
10.2528474847421
 40
11.53819223792148
 40
13.61277427079602
 40
16.53826351218374
 40
17.31422987234364
 40
19.47970421359135
 40
20.83620093315671
 40
21.87869163441442
 40
23.07872879252879
 40
24.15617552654989
 40
24.71454641037279
 40
25.41831743683812
 40
25.51334499313736
 40
25.51334499313736
 40
25.51334499313736
 40
25.51334499313736
 10
557.445825062222
 20
2090.149415202868
 30
0.0
 10
557.4458330209136
 20
2090.149393471418
 30
0.0
 10
557.4696101341378
 20
2090.158029655572
 30
0.0
 10
557.578572747886
 20
2090.188482066701
 30
0.0
 10
557.85090241333
 20
2090.250044445418
 30
0.0
 10
558.3639367546366
 20
2090.340852838644
 30
0.0
 10
559.2744897025159
 20
2090.450349524478
 30
0.0
 10
560.344218132409
 20
2090.540006074188
 30
0.0
 10
561.7300608550458
 20
2090.620394065091
 30
0.0
 10
563.7499801599024
 20
2090.685154760511
 30
0.0
 10
565.7051551877958
 20
2090.684650603081
 30
0.0
 10
567.6121696027458
 20
2090.639028171387
 30
0.0
 10
568.9396459037571
 20
2090.57955487345
 30
0.0
 10
570.1750959583378
 20
2090.4854742217
 30
0.0
 10
571.0238175899613
 20
2090.396947461754
 30
0.0
 10
571.6740149675043
 20
2090.306047685315
 30
0.0
 10
572.080809472458
 20
2090.227438361702
 30
0.0
 10
572.2976780560848
 20
2090.173878137678
 30
0.0
 10
572.358019059584
 20
2090.154266127984
 30
0.0
 10
572.3618888234851
 20
2090.152820472875
 30
0.0
 10
572.3618863579768
 20
2090.152813556657
 30
0.0
  0
SPLINE
  5
1815
330
A
100
AcDbEntity
  8
MODEL
100
AcDbSpline
210
0.0
220
0.0
230
1.0
 70
     8
 71
     3
 72
    25
 73
    21
 74
     0
 42
0.000000001
 43
0.0000000001
 40
4.550801237139554
 40
4.550801237139554
 40
4.550801237139554
 40
4.550801237139554
 40
4.952922789821452
 40
5.68732395769631
 40
6.079093808870114
 40
7.44869420684021
 40
8.87719972245173
 40
10.24864972143366
 40
11.53356032546791
 40
13.60736186331484
 40
16.53203834043665
 40
17.30784132776413
 40
19.47297067277206
 40
20.8291831683035
 40
21.87142995647167
 40
23.07133535079994
 40
24.14934206941953
 40
24.7076178619578
 40
25.41292142889377
 40
25.51273882597392
 40
25.51273882597392
 40
25.51273882597392
 40
25.51273882597392
 10
620.3638855240542
 20
2090.149403452895
 30
0.0
 10
620.3638780169395
 20
2090.149382972184
 30
0.0
 10
620.3402656416474
 20
2090.157970003454
 30
0.0
 10
620.2317305404422
 20
2090.188326692427
 30
0.0
 10
619.9598826878255
 20
2090.249825392246
 30
0.0
 10
619.4475903130069
 20
2090.340575972292
 30
0.0
 10
618.5380255665923
 20
2090.450061596965
 30
0.0
 10
617.4690628928684
 20
2090.539752195012
 30
0.0
 10
616.0840244706487
 20
2090.620196441581
 30
0.0
 10
614.0651520829806
 20
2090.685069392732
 30
0.0
 10
612.1105867814258
 20
2090.684699710018
 30
0.0
 10
610.2036537204858
 20
2090.639247690377
 30
0.0
 10
608.875968598858
 20
2090.579895838855
 30
0.0
 10
607.6399673704573
 20
2090.485952529406
 30
0.0
 10
606.7905556858541
 20
2090.397508342184
 30
0.0
 10
606.1394445284232
 20
2090.306674636343
 30
0.0
 10
605.7312600762716
 20
2090.227946158124
 30
0.0
 10
605.5135134285192
 20
2090.174309126393
 30
0.0
 10
605.4518426405293
 20
2090.154323733498
 30
0.0
 10
605.4477257676263
 20
2090.152794326274
 30
0.0
 10
605.4477281300824
 20
2090.152787707339
 30
0.0
  0
SPLINE
  5
1816
330
A
100
AcDbEntity
  8
MODEL
100
AcDbSpline
210
0.0
220
0.0
230
1.0
 70
     8
 71
     3
 72
    16
 73
    12
 74
     0
 42
0.000000001
 43
0.0000000001
 40
4.548987261836803
 40
4.548987261836803
 40
4.548987261836803
 40
4.548987261836803
 40
4.693001250318134
 40
5.347151190222886
 40
5.870674253959101
 40
6.927042544330874
 40
8.601801392032439
 40
9.572098756103216
 40
10.94243593582731
 40
13.58125550862486
 40
15.02807768479427
 40
15.02807768479427
 40
15.02807768479427
 40
15.02807768479427
 10
581.448374273893
 20
2090.153741455757
 30
0.0
 10
581.4483730917009
 20
2090.153744737406
 30
0.0
 10
581.4542638391395
 20
2090.155888747568
 30
0.0
 10
581.51543747499
 20
2090.175398433265
 30
0.0
 10
581.7195001804021
 20
2090.226098259991
 30
0.0
 10
582.178374010583
 20
2090.316175095091
 30
0.0
 10
582.9350365256705
 20
2090.417644587025
 30
0.0
 10
583.9289099362013
 20
2090.511784700227
 30
0.0
 10
585.3197997205025
 20
2090.608391218648
 30
0.0
 10
587.0600820342888
 20
2090.671291583106
 30
0.0
 10
588.4231605574178
 20
2090.683614131118
 30
0.0
 10
588.9048445031995
 20
2090.683613999812
 30
0.0
  0
SPLINE
  5
1817
330
A
100
AcDbEntity
  8
MODEL
100
AcDbSpline
210
0.0
220
0.0
230
1.0
 70
     8
 71
     3
 72
    15
 73
    11
 74
     0
 42
0.000000001
 43
0.0000000001
 40
4.550349438223826
 40
4.550349438223826
 40
4.550349438223826
 40
4.550349438223826
 40
4.775191998690458
 40
5.820550860902892
 40
6.765366991422844
 40
8.477338822788429
 40
9.488672592339734
 40
10.71510871571427
 40
13.4076598462162
 40
15.02809306956933
 40
15.02809306956933
 40
15.02809306956933
 40
15.02809306956933
 10
596.3611389798543
 20
2090.153613399533
 30
0.0
 10
596.361161546025
 20
2090.153674966614
 30
0.0
 10
596.3467458032592
 20
2090.159353678357
 30
0.0
 10
596.1881297632144
 20
2090.205697106816
 30
0.0
 10
595.6892182020829
 20
2090.3062151014
 30
0.0
 10
594.9589032669537
 20
2090.408278242882
 30
0.0
 10
593.9935319203096
 20
2090.502139504123
 30
0.0
 10
592.6358028349268
 20
2090.600599864229
 30
0.0
 10
590.883356574981
 20
2090.669045134185
 30
0.0
 10
589.4441445600469
 20
2090.683614178582
 30
0.0
 10
588.9048445031995
 20
2090.683613999818
 30
0.0
  0
LINE
  5
1824
330
A
100
AcDbEntity
  8
MODEL
100
AcDbLine
 10
833.9048445031995
 20
1838.578064689037
 30
0.0
 11
833.9048445031995
 21
2058.578064689037
 31
0.0
  0
LINE
  5
1825
330
A
100
AcDbEntity
  8
MODEL
100
AcDbLine
 10
378.9048331734784
 20
2093.578064689037
 30
0.0
 11
798.9048445031995
 21
2093.578064689037
 31
0.0
  0
ARC
  5
1826
330
A
100
AcDbEntity
  8
MODEL
100
AcDbCircle
 10
798.9048445031995
 20
2058.578064689037
 30
0.0
 40
35.0
100
AcDbArc
 50
0.0
 51
89.99999999979156
  0
LINE
  5
1827
330
A
100
AcDbEntity
  8
MODEL
100
AcDbLine
 10
378.9048331734784
 20
1803.578064689037
 30
0.0
 11
798.9048445031995
 21
1803.578064689037
 31
0.0
  0
ARC
  5
1828
330
A
100
AcDbEntity
  8
MODEL
100
AcDbCircle
 10
798.9048445031995
 20
1838.578064689037
 30
0.0
 40
35.0
100
AcDbArc
 50
270.0000000002084
 51
0.0
  0
LINE
  5
1829
330
A
100
AcDbEntity
  8
MODEL
100
AcDbLine
 10
343.9048331734784
 20
1838.578064689037
 30
0.0
 11
343.9048331734784
 21
2058.578064689037
 31
0.0
  0
ARC
  5
182A
330
A
100
AcDbEntity
  8
MODEL
100
AcDbCircle
 10
378.9048331734784
 20
2058.578064689037
 30
0.0
 40
35.0
100
AcDbArc
 50
89.99999999979156
 51
179.9999999995578
  0
ARC
  5
182B
330
A
100
AcDbEntity
  8
MODEL
100
AcDbCircle
 10
378.9048331734784
 20
1838.578064689037
 30
0.0
 40
35.0
100
AcDbArc
 50
179.999999999557
 51
269.9999999993226
  0
LINE
  5
182D
330
A
100
AcDbEntity
  8
MODEL
100
AcDbLine
 10
328.9048469674299
 20
1112.173198152688
 30
0.0
 11
848.9048469674253
 21
1112.173243612536
 31
0.0
  0
LINE
  5
182E
330
A
100
AcDbEntity
  8
MODEL
100
AcDbLine
 10
552.4113896747589
 20
960.6732575311279
 30
0.0
 11
373.6538404894782
 21
960.6732289692206
 31
0.0
  0
SPLINE
  5
182F
330
A
100
AcDbEntity
  8
HIDDEN
100
AcDbSpline
210
0.0
220
0.0
230
1.0
 70
     8
 71
     3
 72
    67
 73
    63
 74
     0
 42
0.000000001
 43
0.0000000001
 40
11.63849336315424
 40
11.63849336315424
 40
11.63849336315424
 40
11.63849336315424
 40
11.67983548565873
 40
12.65325638755889
 40
13.62670842215122
 40
14.60019586251342
 40
15.57372319551095
 40
16.54729510948924
 40
17.52091649329028
 40
18.49459245937539
 40
19.46832840574319
 40
20.44213023122114
 40
21.41600430963913
 40
22.38995743760594
 40
23.36399676056197
 40
24.3381297924299
 40
25.31236453601481
 40
26.28670952638047
 40
27.26117375666768
 40
28.23576658533321
 40
29.21049766730932
 40
30.18537663467595
 40
31.16041340340122
 40
32.13561808318438
 40
33.11100096927169
 40
34.08657252153509
 40
35.0623433369238
 40
36.0383241137018
 40
37.0145256063043
 40
37.99095856935006
 40
38.96763368968157
 40
39.94456150561445
 40
40.92175231296482
 40
41.89921605788699
 40
42.87696221706855
 40
43.85499966639098
 40
44.83333653976722
 40
45.81198008046263
 40
46.79093648779691
 40
47.77021076268981
 40
48.74980655604477
 40
49.72972602445793
 40
50.70996969819016
 40
51.69053636661038
 40
52.67142298551175
 40
53.65262460995213
 40
54.63413435586846
 40
55.61594339243502
 40
56.59804096586269
 40
57.58041445396292
 40
58.5630494494325
 40
59.54592986856078
 40
60.52903808102099
 40
61.51235505566532
 40
62.4958605168595
 40
63.47953310589529
 40
64.46335054240681
 40
65.4472897814528
 40
66.43132716294956
 40
67.41543855136574
 40
68.39959946491882
 40
69.38378519484306
 40
69.38378519484306
 40
69.38378519484306
 40
69.38378519484306
 10
546.7918013557583
 20
983.1256502298177
 30
0.0
 10
546.7953755721674
 20
983.1256561137386
 30
0.0
 10
546.8832586973431
 20
983.1258009474084
 30
0.0
 10
547.0627649871212
 20
983.1261044767243
 30
0.0
 10
547.3469211756774
 20
983.1266088777579
 30
0.0
 10
547.6514387929919
 20
983.1271746100178
 30
0.0
 10
547.9761695020634
 20
983.1278042618942
 30
0.0
 10
548.3209548356781
 20
983.1285002902841
 30
0.0
 10
548.6856263801692
 20
983.1292650690416
 30
0.0
 10
549.0700066823474
 20
983.1301012603044
 30
0.0
 10
549.4739082874958
 20
983.1310114825801
 30
0.0
 10
549.8971408879743
 20
983.1320009048441
 30
0.0
 10
550.3394988504397
 20
983.133074712438
 30
0.0
 10
550.8007680041737
 20
983.1342370232651
 30
0.0
 10
551.2807227315907
 20
983.1354914294106
 30
0.0
 10
551.7791290096902
 20
983.1368411443259
 30
0.0
 10
552.2957457955654
 20
983.1382904060015
 30
0.0
 10
552.8303226181588
 20
983.1398441953897
 30
0.0
 10
553.3825984129599
 20
983.1415070096109
 30
0.0
 10
553.9523015288387
 20
983.1432823460968
 30
0.0
 10
554.5391527603961
 20
983.1451733803083
 30
0.0
 10
555.1428564940297
 20
983.1471813267594
 30
0.0
 10
555.7631174533126
 20
983.1493068919458
 30
0.0
 10
556.3996282540766
 20
983.1515520807284
 30
0.0
 10
557.0520742507397
 20
983.1539182016977
 30
0.0
 10
557.7201324511343
 20
983.1564063869719
 30
0.0
 10
558.403471980927
 20
983.159017403661
 30
0.0
 10
559.1017541297178
 20
983.1617516260276
 30
0.0
 10
559.8146325164198
 20
983.1646089487153
 30
0.0
 10
560.5417532282909
 20
983.1675887025149
 30
0.0
 10
561.2827549767098
 20
983.1706895575553
 30
0.0
 10
562.0372692620194
 20
983.1739094198779
 30
0.0
 10
562.8049205531797
 20
983.1772453221502
 30
0.0
 10
563.5853264840607
 20
983.1806933111211
 30
0.0
 10
564.3780980685233
 20
983.1842483343416
 30
0.0
 10
565.1828399356164
 20
983.1879041290267
 30
0.0
 10
565.9991505856351
 20
983.1916531162024
 30
0.0
 10
566.826622666892
 20
983.1954863034889
 30
0.0
 10
567.6648432723887
 20
983.1993932000505
 30
0.0
 10
568.5133942548991
 20
983.2033617473862
 30
0.0
 10
569.3718525584509
 20
983.2073782698271
 30
0.0
 10
570.2397905638682
 20
983.2114274488276
 30
0.0
 10
571.1167764456113
 20
983.2154923254343
 30
0.0
 10
572.0023745371263
 20
983.2195543359585
 30
0.0
 10
572.8961456970674
 20
983.2235933853499
 30
0.0
 10
573.7976476708018
 20
983.2275879586978
 30
0.0
 10
574.7064354435697
 20
983.2315152730835
 30
0.0
 10
575.6220615796819
 20
983.2353514706447
 30
0.0
 10
576.5440765435314
 20
983.239071852166
 30
0.0
 10
577.472028999041
 20
983.2426511491963
 30
0.0
 10
578.4054660844458
 20
983.2460638312814
 30
0.0
 10
579.3439336635684
 20
983.2492844434823
 30
0.0
 10
580.2869765441765
 20
983.2522879680637
 30
0.0
 10
581.2341386988528
 20
983.2550502029662
 30
0.0
 10
582.1849633610791
 20
983.2575481490121
 30
0.0
 10
583.1389934806621
 20
983.2597603958266
 30
0.0
 10
584.095770742576
 20
983.2616675005825
 30
0.0
 10
585.0548398656692
 20
983.26325233637
 30
0.0
 10
586.0157331226164
 20
983.2645004512256
 30
0.0
 10
586.9780286263449
 20
983.265400240095
 30
0.0
 10
587.9411332342661
 20
983.2659436258782
 30
0.0
 10
588.5837705276854
 20
983.2660642837345
 30
0.0
 10
588.9048458715406
 20
983.2660645998549
 30
0.0
  0
SPLINE
  5
1830
330
A
100
AcDbEntity
  8
HIDDEN
100
AcDbSpline
210
0.0
220
0.0
230
1.0
 70
     8
 71
     3
 72
    78
 73
    74
 74
     0
 42
0.000000001
 43
0.0000000001
 40
0.0
 40
0.0
 40
0.0
 40
0.0
 40
0.9732873550556452
 40
1.946575271756155
 40
2.919864601733932
 40
3.893156545134981
 40
4.866452639005153
 40
5.83975474488011
 40
6.813065036512303
 40
7.786385985015642
 40
8.759720344474577
 40
9.733071142213767
 40
10.70644167175019
 40
11.67983548565873
 40
12.65325638755889
 40
13.62670842215122
 40
14.60019586251342
 40
15.57372319551095
 40
16.54729510948924
 40
17.52091649329028
 40
18.49459245937539
 40
19.46832840574319
 40
20.44213023122114
 40
21.41600430963913
 40
22.38995743760594
 40
23.36399676056197
 40
24.33812979242991
 40
25.31236453601481
 40
26.28670952638047
 40
27.26117375666769
 40
28.23576658533321
 40
29.21049766730933
 40
30.18537663467596
 40
31.16041340340121
 40
32.13561808318439
 40
33.1110009692717
 40
34.0865725215351
 40
35.06234333692381
 40
36.03832411370182
 40
37.01452560630432
 40
37.99095856935007
 40
38.96763368968157
 40
39.94456150561446
 40
40.92175231296483
 40
41.89921605788701
 40
42.87696221706856
 40
43.85499966639099
 40
44.83333653976723
 40
45.81198008046264
 40
46.79093648779692
 40
47.77021076268981
 40
48.74980655604477
 40
49.72972602445792
 40
50.70996969819016
 40
51.69053636661037
 40
52.67142298551174
 40
53.65262460995213
 40
54.63413435586847
 40
55.61594339243503
 40
56.59804096586269
 40
57.58041445396291
 40
58.56304944943249
 40
59.54592986856078
 40
60.52903808102098
 40
61.51235505566531
 40
62.49586051685949
 40
63.47953310589528
 40
64.4633505424068
 40
65.44728978145277
 40
66.43132716294954
 40
67.41543855136572
 40
68.39959946491881
 40
69.38378519484304
 40
69.38378519484304
 40
69.38378519484304
 40
69.38378519484304
 10
632.5358387448996
 20
983.1237118888789
 30
0.0
 10
632.5359637050997
 20
983.1237149299791
 30
0.0
 10
632.5286651210199
 20
983.1237138280485
 30
0.0
 10
632.4967207241398
 20
983.1237354050945
 30
0.0
 10
632.4433512995492
 20
983.1237741110135
 30
0.0
 10
632.3686982370982
 20
983.1238372594898
 30
0.0
 10
632.2727636017562
 20
983.1239282827682
 30
0.0
 10
632.155600105627
 20
983.1240514220135
 30
0.0
 10
632.0172602477041
 20
983.1242104663515
 30
0.0
 10
631.8578100210771
 20
983.1244090536566
 30
0.0
 10
631.6773251650175
 20
983.1246506202051
 30
0.0
 10
631.4758920132463
 20
983.1249385023166
 30
0.0
 10
631.2536072366183
 20
983.1252759272484
 30
0.0
 10
631.0105778806401
 20
983.1256660184577
 30
0.0
 10
630.7469213287568
 20
983.126111792626
 30
0.0
 10
630.4627653014204
 20
983.1266161439762
 30
0.0
 10
630.1582478441742
 20
983.1271818229925
 30
0.0
 10
629.8335172939414
 20
983.1278114180914
 30
0.0
 10
629.4887321178567
 20
983.1285073861973
 30
0.0
 10
629.1240607295094
 20
983.1292721011932
 30
0.0
 10
628.7396805820108
 20
983.1301082252494
 30
0.0
 10
628.3357791300004
 20
983.1310183769046
 30
0.0
 10
627.9125466810428
 20
983.132007725168
 30
0.0
 10
627.470188868404
 20
983.1330814554176
 30
0.0
 10
627.0089198627284
 20
983.1342436855939
 30
0.0
 10
626.5289652815272
 20
983.1354980078213
 30
0.0
 10
626.030559147729
 20
983.1368476355929
 30
0.0
 10
625.5139425041662
 20
983.1382968069402
 30
0.0
 10
624.9793658218268
 20
983.1398505028601
 30
0.0
 10
624.4270901651471
 20
983.1415132205184
 30
0.0
 10
623.8573871851913
 20
983.1432884573942
 30
0.0
 10
623.2705360872887
 20
983.1451793889973
 30
0.0
 10
622.6668324849761
 20
983.1471872298935
 30
0.0
 10
622.046571654616
 20
983.1493126866299
 30
0.0
 10
621.4100609803099
 20
983.1515577641212
 30
0.0
 10
620.7576151075782
 20
983.1539237710131
 30
0.0
 10
620.0895570285265
 20
983.1564118394808
 30
0.0
 10
619.4062176174293
 20
983.1590227366905
 30
0.0
 10
618.7079355846245
 20
983.1617568369657
 30
0.0
 10
617.9950573111437
 20
983.1646140350103
 30
0.0
 10
617.2679367096734
 20
983.1675936616762
 30
0.0
 10
616.5269350687786
 20
983.170694387155
 30
0.0
 10
615.7724208880654
 20
983.173914117554
 30
0.0
 10
615.0047696985212
 20
983.1772498856062
 30
0.0
 10
614.2243638662276
 20
983.1806977381266
 30
0.0
 10
613.4315923772765
 20
983.1842526227347
 30
0.0
 10
612.6268506025726
 20
983.1879082767146
 30
0.0
 10
611.810540041778
 20
983.1916571211614
 30
0.0
 10
610.9830680465375
 20
983.1954901637682
 30
0.0
 10
610.1448475238103
 20
983.1993969137702
 30
0.0
 10
609.296296620786
 20
983.2033653127414
 30
0.0
 10
608.4378383933999
 20
983.2073816850843
 30
0.0
 10
607.5699004607968
 20
983.2114307123297
 30
0.0
 10
606.6929146484827
 20
983.2154954355992
 30
0.0
 10
605.8073166229851
 20
983.2195572912806
 30
0.0
 10
604.9135455256219
 20
983.2235961843999
 30
0.0
 10
604.0120436110019
 20
983.2275906001241
 30
0.0
 10
603.1032558938623
 20
983.2315177556125
 30
0.0
 10
602.1876298098714
 20
983.2353537930812
 30
0.0
 10
601.2656148946171
 20
983.2390740133915
 30
0.0
 10
600.3376624841612
 20
983.2426531481738
 30
0.0
 10
599.404225440253
 20
983.2460656670519
 30
0.0
 10
598.4657578990564
 20
983.2492861151654
 30
0.0
 10
597.5227150527944
 20
983.2522894748599
 30
0.0
 10
596.5755529288717
 20
983.2550515441553
 30
0.0
 10
595.6247282937984
 20
983.2575493239538
 30
0.0
 10
594.6706981977622
 20
983.25976140396
 30
0.0
 10
593.7139209557808
 20
983.261668341428
 30
0.0
 10
592.7548518490021
 20
983.263253009527
 30
0.0
 10
591.7939586047478
 20
983.2645009563739
 30
0.0
 10
590.831663110087
 20
983.2654005769909
 30
0.0
 10
589.8685585076064
 20
983.2659437943794
 30
0.0
 10
589.2259212153958
 20
983.2660643398731
 30
0.0
 10
588.9048458715406
 20
983.2660645998549
 30
0.0
  0
SPLINE
  5
1831
330
A
100
AcDbEntity
  8
HIDDEN
100
AcDbSpline
210
0.0
220
0.0
230
1.0
 70
     8
 71
     3
 72
    24
 73
    20
 74
     0
 42
0.000000001
 43
0.0000000001
 40
0.0
 40
0.0
 40
0.0
 40
0.0
 40
0.8375800370352331
 40
1.675166591372667
 40
2.514057028984794
 40
3.350779798662119
 40
4.185225042728449
 40
5.019775550343697
 40
5.856371931432782
 40
6.692099480147335
 40
7.527087513952551
 40
8.359545548422709
 40
9.191181953185769
 40
10.02431507274726
 40
10.85688539306501
 40
11.68785631808165
 40
12.5195068290201
 40
13.35116284447052
 40
14.18182965500685
 40
14.18182965500685
 40
14.18182965500685
 40
14.18182965500685
 10
594.9048467845705
 20
1076.755195046319
 30
0.0
 10
594.9048467706643
 20
1076.940306099272
 30
0.0
 10
594.8873824523153
 20
1077.310529989213
 30
0.0
 10
594.8088070273943
 20
1077.861816303076
 30
0.0
 10
594.6793487227387
 20
1078.401051610565
 30
0.0
 10
594.4996476028273
 20
1078.926918344183
 30
0.0
 10
594.2713853015111
 20
1079.433975953873
 30
0.0
 10
593.9969700526271
 20
1079.91713691064
 30
0.0
 10
593.6804122436997
 20
1080.370611984355
 30
0.0
 10
593.322670250509
 20
1080.793585714011
 30
0.0
 10
592.9288167963487
 20
1081.180408028599
 30
0.0
 10
592.5003868085814
 20
1081.529995876966
 30
0.0
 10
592.0419752707685
 20
1081.83845877237
 30
0.0
 10
591.5596374769921
 20
1082.10242101051
 30
0.0
 10
591.0554241596255
 20
1082.321354030595
 30
0.0
 10
590.532255961778
 20
1082.493761293324
 30
0.0
 10
589.9972818157948
 20
1082.617441693274
 30
0.0
 10
589.4532615764301
 20
1082.692071484014
 30
0.0
 10
589.0875829747747
 20
1082.70868914985
 30
0.0
 10
588.9048463297167
 20
1082.708689676311
 30
0.0
  0
SPLINE
  5
1832
330
A
100
AcDbEntity
  8
HIDDEN
100
AcDbSpline
210
0.0
220
0.0
230
1.0
 70
     8
 71
     3
 72
    24
 73
    20
 74
     0
 42
0.000000001
 43
0.0000000001
 40
0.0
 40
0.0
 40
0.0
 40
0.0
 40
0.8375800370352331
 40
1.675166591372667
 40
2.514057028984794
 40
3.350779798662119
 40
4.185225042728449
 40
5.019775550343697
 40
5.856371931432782
 40
6.692099480147335
 40
7.527087513952551
 40
8.359545548422709
 40
9.191181953185769
 40
10.02431507274726
 40
10.85688539306501
 40
11.68785631808165
 40
12.5195068290201
 40
13.35116284447052
 40
14.18182965500685
 40
14.18182965500685
 40
14.18182965500685
 40
14.18182965500685
 10
597.9048029286832
 20
1077.17318031819
 30
0.0
 10
597.9048647608543
 20
1077.447410343452
 30
0.0
 10
597.8789344162478
 20
1077.99673445804
 30
0.0
 10
597.7629648155998
 20
1078.81394406653
 30
0.0
 10
597.570773601251
 20
1079.617139848629
 30
0.0
 10
597.3043537633766
 20
1080.398758228674
 30
0.0
 10
596.9664890284412
 20
1081.151820239202
 30
0.0
 10
596.5597626942581
 20
1081.871067277852
 30
0.0
 10
596.0874220370961
 20
1082.550526391088
 30
0.0
 10
595.5534396644207
 20
1083.184273618393
 30
0.0
 10
594.9634821426553
 20
1083.765772016013
 30
0.0
 10
594.3229309128237
 20
1084.290223872057
 30
0.0
 10
593.6368493683985
 20
1084.75387299897
 30
0.0
 10
592.9104536466648
 20
1085.153156112383
 30
0.0
 10
592.1502460831143
 20
1085.484414396513
 30
0.0
 10
591.3630051464006
 20
1085.744868813912
 30
0.0
 10
590.5551763520789
 20
1085.93243619768
 30
0.0
 10
589.7331312993701
 20
1086.045750459377
 30
0.0
 10
589.1812680920948
 20
1086.070580502786
 30
0.0
 10
588.9048458069565
 20
1086.070834424387
 30
0.0
  0
SPLINE
  5
1833
330
A
100
AcDbEntity
  8
HIDDEN
100
AcDbSpline
210
0.0
220
0.0
230
1.0
 70
     8
 71
     3
 72
    24
 73
    20
 74
     0
 42
0.000000001
 43
0.0000000001
 40
0.0
 40
0.0
 40
0.0
 40
0.0
 40
0.8310392965746072
 40
1.663075562055906
 40
2.495142849602042
 40
3.326590000993169
 40
4.159684084346023
 40
4.993380799671602
 40
5.825619467758355
 40
6.658723906113877
 40
7.494404391522262
 40
8.330838550540033
 40
9.168134413072897
 40
10.00329143457613
 40
10.83826218355035
 40
11.67544833736015
 40
12.51471764577416
 40
13.35251855664516
 40
14.19016730671404
 40
14.19016730671404
 40
14.19016730671404
 40
14.19016730671404
 10
588.9048471382666
 20
1068.326382644516
 30
0.0
 10
589.1810050909253
 20
1068.32660123996
 30
0.0
 10
589.7325395480821
 20
1068.35115383632
 30
0.0
 10
590.553995043133
 20
1068.462989420103
 30
0.0
 10
591.3613710327363
 20
1068.648206433474
 30
0.0
 10
592.1482588581002
 20
1068.905503740337
 30
0.0
 10
592.9082724264681
 20
1069.232947285721
 30
0.0
 10
593.6346374105951
 20
1069.627922033243
 30
0.0
 10
594.3208387140176
 20
1070.086951199958
 30
0.0
 10
594.9616278887252
 20
1070.606644829864
 30
0.0
 10
595.5518903753391
 20
1071.183398964245
 30
0.0
 10
596.0862305371147
 20
1071.812610087739
 30
0.0
 10
596.5589021165242
 20
1072.487842990216
 30
0.0
 10
596.9659544211436
 20
1073.203383488094
 30
0.0
 10
597.3040732566315
 20
1073.953301178386
 30
0.0
 10
597.5706552397814
 20
1074.732382336395
 30
0.0
 10
597.7629413633085
 20
1075.533716619833
 30
0.0
 10
597.8789000963725
 20
1076.349743665852
 30
0.0
 10
597.9049463377896
 20
1076.899067914609
 30
0.0
 10
597.9048029286832
 20
1077.173180318915
 30
0.0
  0
SPLINE
  5
1834
330
A
100
AcDbEntity
  8
HIDDEN
100
AcDbSpline
210
0.0
220
0.0
230
1.0
 70
     8
 71
     3
 72
    26
 73
    22
 74
     0
 42
0.000000001
 43
0.0000000001
 40
14.18983805741612
 40
14.18983805741612
 40
14.18983805741612
 40
14.18983805741612
 40
14.19100020218604
 40
14.98174473275551
 40
15.77311418347262
 40
16.56397762237789
 40
17.35391661000015
 40
18.14440576448699
 40
18.93387200567124
 40
19.72369355195378
 40
20.51222839664113
 40
21.29916415174756
 40
22.08648215724168
 40
22.87427083464796
 40
23.66173910424957
 40
24.4475529113373
 40
25.23192084871182
 40
26.01673329111526
 40
26.80345172917472
 40
27.58868698964138
 40
28.37308806221711
 40
28.37308806221711
 40
28.37308806221711
 40
28.37308806221711
 10
582.9048467846278
 20
1076.754450785813
 30
0.0
 10
582.9048467678049
 20
1076.754707573143
 30
0.0
 10
582.9048467688708
 20
1076.929687555056
 30
0.0
 10
582.920465091016
 20
1077.28007934346
 30
0.0
 10
582.9903971852746
 20
1077.800041128768
 30
0.0
 10
583.1061815660532
 20
1078.311972064303
 30
0.0
 10
583.2671158130661
 20
1078.812204142431
 30
0.0
 10
583.4709272579839
 20
1079.294698909991
 30
0.0
 10
583.7169442261347
 20
1079.758293755609
 30
0.0
 10
584.0016805975501
 20
1080.196832323843
 30
0.0
 10
584.3236709274861
 20
1080.608858215645
 30
0.0
 10
584.6806802111169
 20
1080.991429776444
 30
0.0
 10
585.0685614090517
 20
1081.340478117128
 30
0.0
 10
585.4846089661232
 20
1081.65409156456
 30
0.0
 10
585.9253134255941
 20
1081.930009655581
 30
0.0
 10
586.3882089093522
 20
1082.166923881606
 30
0.0
 10
586.8699900259353
 20
1082.363145334722
 30
0.0
 10
587.3665968925652
 20
1082.517004048712
 30
0.0
 10
587.8720494648378
 20
1082.627183004296
 30
0.0
 10
588.3872147428528
 20
1082.693907158186
 30
0.0
 10
588.7323052221936
 20
1082.708689233381
 30
0.0
 10
588.9048463297167
 20
1082.708689676311
 30
0.0
  0
SPLINE
  5
1835
330
A
100
AcDbEntity
  8
HIDDEN
100
AcDbSpline
210
0.0
220
0.0
230
1.0
 70
     8
 71
     3
 72
    43
 73
    39
 74
     0
 42
0.000000001
 43
0.0000000001
 40
0.0
 40
0.0
 40
0.0
 40
0.0
 40
0.7849441766349042
 40
1.570933944692225
 40
2.35663835536793
 40
3.141684402688479
 40
3.927935564441479
 40
4.714791278023227
 40
5.502483809586734
 40
6.28983395598601
 40
7.077126148488177
 40
7.866273361480602
 40
8.655667434001135
 40
9.445367836778647
 40
10.2358377003456
 40
11.02585261902479
 40
11.81723300234636
 40
12.60821776820202
 40
13.39916615917388
 40
14.19100020218604
 40
14.98174473275551
 40
15.77311418347262
 40
16.56397762237789
 40
17.35391661000015
 40
18.14440576448699
 40
18.93387200567124
 40
19.72369355195378
 40
20.51222839664113
 40
21.29916415174756
 40
22.08648215724168
 40
22.87427083464796
 40
23.66173910424957
 40
24.4475529113373
 40
25.23192084871182
 40
26.01673329111526
 40
26.80345172917472
 40
27.58868698964138
 40
28.37308806221711
 40
28.37308806221711
 40
28.37308806221711
 40
28.37308806221711
 10
588.9048471382666
 20
1068.326382644516
 30
0.0
 10
588.6440486847105
 20
1068.326557037577
 30
0.0
 10
588.1230430850446
 20
1068.34848968903
 30
0.0
 10
587.3465260952962
 20
1068.448265262569
 30
0.0
 10
586.5819778676941
 20
1068.613597242611
 30
0.0
 10
585.8348798601291
 20
1068.843389040196
 30
0.0
 10
585.1104776543989
 20
1069.136123349685
 30
0.0
 10
584.4139612763738
 20
1069.489988048491
 30
0.0
 10
583.7511790187446
 20
1069.902254293412
 30
0.0
 10
583.1273252895226
 20
1070.369838480073
 30
0.0
 10
582.5469068587463
 20
1070.889498289269
 30
0.0
 10
582.0143478051286
 20
1071.457585121072
 30
0.0
 10
581.5337421625409
 20
1072.070140580954
 30
0.0
 10
581.1091489027003
 20
1072.722302509801
 30
0.0
 10
580.7440453972104
 20
1073.408963586428
 30
0.0
 10
580.4410795794647
 20
1074.125431494579
 30
0.0
 10
580.2029435446939
 20
1074.865658298434
 30
0.0
 10
580.0314162568002
 20
1075.624401072113
 30
0.0
 10
579.9279336262316
 20
1076.395617156764
 30
0.0
 10
579.8933622522454
 20
1077.17298331654
 30
0.0
 10
579.9279538779856
 20
1077.9510768072
 30
0.0
 10
580.0313874069361
 20
1078.723126638288
 30
0.0
 10
580.2028222853469
 20
1079.483399095015
 30
0.0
 10
580.4408670211133
 20
1080.226083049173
 30
0.0
 10
580.7434882966763
 20
1080.945122675043
 30
0.0
 10
581.1085569555826
 20
1081.635604852421
 30
0.0
 10
581.5328663088294
 20
1082.291587034277
 30
0.0
 10
582.0129402479333
 20
1082.907986994646
 30
0.0
 10
582.5449298871908
 20
1083.480249238432
 30
0.0
 10
583.1250625053917
 20
1084.004482142537
 30
0.0
 10
583.7492653177569
 20
1084.476929803693
 30
0.0
 10
584.4123543650212
 20
1084.89362798002
 30
0.0
 10
585.1084761510629
 20
1085.251118901921
 30
0.0
 10
585.8324459528512
 20
1085.547075491952
 30
0.0
 10
586.5799453078971
 20
1085.77981614838
 30
0.0
 10
587.3454303570898
 20
1085.947372101701
 30
0.0
 10
588.1227259712132
 20
1086.048458197406
 30
0.0
 10
588.643867718888
 20
1086.07063197149
 30
0.0
 10
588.9048458069565
 20
1086.070834424387
 30
0.0
  0
SPLINE
  5
1836
330
A
100
AcDbEntity
  8
HIDDEN
100
AcDbSpline
210
0.0
220
0.0
230
1.0
 70
    11
 71
     3
 72
    84
 73
    80
 74
     0
 42
0.000000001
 43
0.0000000001
 40
0.0
 40
0.0
 40
0.0
 40
0.0
 40
0.7694932034395255
 40
1.539572079108536
 40
2.309620801216225
 40
3.077934754325031
 40
3.846329225954331
 40
4.615139628056697
 40
5.383575327640163
 40
6.15082711481284
 40
6.916747369083438
 40
7.683168174065132
 40
8.449480268296384
 40
9.214924664908443
 40
9.980115427858827
 40
10.74412201155846
 40
11.50860990761685
 40
12.27271697265476
 40
13.03658585886679
 40
13.80040137110848
 40
14.56375318898246
 40
15.32791114027333
 40
16.09147698112219
 40
16.85569021174621
 40
17.62001151740625
 40
18.3843972025997
 40
19.1497999169018
 40
19.91488749393682
 40
20.68110567516412
 40
21.44737175269802
 40
22.21413041274102
 40
22.98187440855387
 40
23.74940118358818
 40
24.51818855967347
 40
25.28672133745753
 40
26.05588697021009
 40
26.82556960265232
 40
27.59491033071589
 40
28.36522279678576
 40
29.1347734321515
 40
29.90483125962997
 40
30.67460605411362
 40
31.44385594859368
 40
32.21353706631509
 40
32.98203078861658
 40
33.75081033975711
 40
34.51867236034673
 40
35.28599804924501
 40
36.05330915287903
 40
36.81940254114452
 40
37.58574639012404
 40
38.3510094864775
 40
39.11606697053872
 40
39.88097356391734
 40
40.64509942911521
 40
41.40972526139304
 40
42.17348087460092
 40
42.93758310683482
 40
43.70172705506166
 40
44.46602952316641
 40
45.23072372674707
 40
45.99488377486858
 40
46.76017136339052
 40
47.52581511518024
 40
48.29240085260724
 40
49.0591270432338
 40
49.82508497220063
 40
50.59210466125686
 40
51.36100754567536
 40
52.13047640273329
 40
52.89919590949732
 40
53.6671720575657
 40
54.43623648596787
 40
55.20760127277912
 40
55.97756543416013
 40
56.74700473173627
 40
56.74700473173627
 40
56.74700473173627
 40
56.74700495415638
 40
56.74700495415638
 40
56.74700495415638
 40
56.74700495415638
 10
621.9047749108131
 20
1077.172550103877
 30
0.0
 10
621.9048126432745
 20
1077.424653445302
 30
0.0
 10
621.8829865044527
 20
1077.929278312854
 30
0.0
 10
621.7850895830461
 20
1078.6810740544
 30
0.0
 10
621.6227354616703
 20
1079.421835836028
 30
0.0
 10
621.3972636247681
 20
1080.146173763155
 30
0.0
 10
621.1104550023529
 20
1080.848794493877
 30
0.0
 10
620.7642555529083
 20
1081.52500559987
 30
0.0
 10
620.3613228470194
 20
1082.169633959844
 30
0.0
 10
619.9050551622722
 20
1082.777524710056
 30
0.0
 10
619.3987512450385
 20
1083.34464540516
 30
0.0
 10
618.8459274866909
 20
1083.86718926257
 30
0.0
 10
618.2504689876287
 20
1084.341481914765
 30
0.0
 10
617.616872063667
 20
1084.764013343308
 30
0.0
 10
616.9500549833137
 20
1085.131626835761
 30
0.0
 10
616.2545716771801
 20
1085.4419598259
 30
0.0
 10
615.5353418051982
 20
1085.692878328681
 30
0.0
 10
614.7973374322692
 20
1085.882644921008
 30
0.0
 10
614.0459833093946
 20
1086.009902931624
 30
0.0
 10
613.2866847268333
 20
1086.073766062329
 30
0.0
 10
612.5246316870625
 20
1086.073838589853
 30
0.0
 10
611.7652707439001
 20
1086.010096346628
 30
0.0
 10
611.0138949131915
 20
1085.882963752801
 30
0.0
 10
610.275950056066
 20
1085.69335644222
 30
0.0
 10
609.5565986633055
 20
1085.442547628656
 30
0.0
 10
608.8609215851984
 20
1085.132281819782
 30
0.0
 10
608.1939850329254
 20
1084.764735573981
 30
0.0
 10
607.5604100919581
 20
1084.342373586474
 30
0.0
 10
606.9650108138603
 20
1083.86832201777
 30
0.0
 10
606.4119416412868
 20
1083.345769581661
 30
0.0
 10
605.905306854791
 20
1082.778483615384
 30
0.0
 10
605.4489116060495
 20
1082.170565172447
 30
0.0
 10
605.0459707121181
 20
1081.526114536276
 30
0.0
 10
604.6997785776921
 20
1080.850220872328
 30
0.0
 10
604.4127358127744
 20
1080.147361769787
 30
0.0
 10
604.1871591859954
 20
1079.422978267737
 30
0.0
 10
604.0247633283025
 20
1078.682338050896
 30
0.0
 10
603.9267600034664
 20
1077.930602312416
 30
0.0
 10
603.8939897378077
 20
1077.173916284578
 30
0.0
 10
603.9266902312684
 20
1076.417207728279
 30
0.0
 10
604.0245979104648
 20
1075.666666197592
 30
0.0
 10
604.1869852605296
 20
1074.927536193984
 30
0.0
 10
604.4126365280845
 20
1074.205161142826
 30
0.0
 10
604.6996896036553
 20
1073.50521708622
 30
0.0
 10
605.0461750867325
 20
1072.832234399664
 30
0.0
 10
605.4491765389121
 20
1072.191605096063
 30
0.0
 10
605.9058380003153
 20
1071.587559554402
 30
0.0
 10
606.412677287427
 20
1071.024425750025
 30
0.0
 10
606.9658307186055
 20
1070.506239568994
 30
0.0
 10
607.561446265533
 20
1070.036350382843
 30
0.0
 10
608.1948824355841
 20
1069.618197676773
 30
0.0
 10
608.8617409356893
 20
1069.254461878967
 30
0.0
 10
609.5571323568847
 20
1068.947603637709
 30
0.0
 10
610.2761147206884
 20
1068.699664493754
 30
0.0
 10
611.0136617178432
 20
1068.512227515892
 30
0.0
 10
611.7644549512033
 20
1068.38656435652
 30
0.0
 10
612.5232347232404
 20
1068.323478742142
 30
0.0
 10
613.2846640979569
 20
1068.323355594498
 30
0.0
 10
614.0435458371567
 20
1068.386230051022
 30
0.0
 10
614.7944791985592
 20
1068.511695262651
 30
0.0
 10
615.5319880515717
 20
1068.698912878815
 30
0.0
 10
616.2509557532003
 20
1068.946635536325
 30
0.0
 10
616.9463985948842
 20
1069.253273759493
 30
0.0
 10
617.6135964350087
 20
1069.616989908664
 30
0.0
 10
618.2473958915452
 20
1070.035207064323
 30
0.0
 10
618.8429333696122
 20
1070.50489961137
 30
0.0
 10
619.3959499008133
 20
1071.022791401253
 30
0.0
 10
619.9027815697818
 20
1071.585648642046
 30
0.0
 10
620.3598367497061
 20
1072.189979722333
 30
0.0
 10
620.7631977217497
 20
1072.831061651439
 30
0.0
 10
621.1095730547049
 20
1073.503753290602
 30
0.0
 10
621.3965781884026
 20
1074.203357372372
 30
0.0
 10
621.622357077832
 20
1074.925633755955
 30
0.0
 10
621.7849097935405
 20
1075.665117757571
 30
0.0
 10
621.8829492209452
 20
1076.415984677709
 30
0.0
 10
621.9047372373743
 20
1076.92084136094
 30
0.0
 10
621.9047749108031
 20
1077.172549881457
 30
0.0
 10
621.904774915286
 20
1077.172579831322
 30
0.0
 10
621.9047749063238
 20
1077.172520109135
 30
0.0
 10
621.9047749108131
 20
1077.172550103877
 30
0.0
  0
SPLINE
  5
1837
330
A
100
AcDbEntity
  8
HIDDEN
100
AcDbSpline
210
0.0
220
0.0
230
1.0
 70
     8
 71
     3
 72
    45
 73
    41
 74
     0
 42
0.000000001
 43
0.0000000001
 40
0.0
 40
0.0
 40
0.0
 40
0.0
 40
0.7694932034395255
 40
1.539572079108536
 40
2.309620801216225
 40
3.077934754325031
 40
3.846329225954331
 40
4.615139628056697
 40
5.383575327640163
 40
6.15082711481284
 40
6.916747369083438
 40
7.683168174065132
 40
8.449480268296384
 40
9.214924664908443
 40
9.980115427858827
 40
10.74412201155846
 40
11.50860990761685
 40
12.27271697265476
 40
13.03658585886679
 40
13.80040137110848
 40
14.56375318898246
 40
15.32791114027333
 40
16.09147698112219
 40
16.85569021174621
 40
17.62001151740625
 40
18.3843972025997
 40
19.1497999169018
 40
19.91488749393682
 40
20.68110567516412
 40
21.44737175269802
 40
22.21413041274102
 40
22.98187440855387
 40
23.74940118358818
 40
24.51818855967347
 40
25.28672133745753
 40
26.05588697021009
 40
26.82556960265232
 40
27.59491033071589
 40
28.36522279678576
 40
28.37324920218125
 40
28.37324920218125
 40
28.37324920218125
 40
28.37324920218125
 10
618.9052089863717
 20
1076.755832043229
 30
0.0
 10
618.9052145075266
 20
1076.925869071601
 30
0.0
 10
618.8904757468199
 20
1077.266117915641
 30
0.0
 10
618.8242154541394
 20
1077.772939420509
 30
0.0
 10
618.7146531093249
 20
1078.271226090892
 30
0.0
 10
618.5622192410774
 20
1078.759270787245
 30
0.0
 10
618.3687164568128
 20
1079.231444563093
 30
0.0
 10
618.1357341586954
 20
1079.684784593519
 30
0.0
 10
617.8651120986497
 20
1080.11615136784
 30
0.0
 10
617.5589834882676
 20
1080.522584618628
 30
0.0
 10
617.2191622282762
 20
1080.901766118507
 30
0.0
 10
616.8496347751716
 20
1081.249619389559
 30
0.0
 10
616.4525463784512
 20
1081.564702933842
 30
0.0
 10
616.0302357029714
 20
1081.845230954289
 30
0.0
 10
615.5871463765789
 20
1082.088594184193
 30
0.0
 10
615.1243475003785
 20
1082.294300760402
 30
0.0
 10
614.6476467313933
 20
1082.459916956865
 30
0.0
 10
614.1585117917712
 20
1082.585227028306
 30
0.0
 10
613.660882393995
 20
1082.669169819041
 30
0.0
 10
613.1585276122323
 20
1082.711297308011
 30
0.0
 10
612.6534487848539
 20
1082.711332194018
 30
0.0
 10
612.1515848764475
 20
1082.669380074862
 30
0.0
 10
611.6533126756558
 20
1082.585441412793
 30
0.0
 10
611.164520653505
 20
1082.460324317403
 30
0.0
 10
610.6872811004205
 20
1082.294636705997
 30
0.0
 10
610.22468940196
 20
1082.089108436455
 30
0.0
 10
609.7816058711996
 20
1081.845900206727
 30
0.0
 10
609.3588079762121
 20
1081.565161205374
 30
0.0
 10
608.9617782092773
 20
1081.250243860531
 30
0.0
 10
608.5917296499674
 20
1080.902005656596
 30
0.0
 10
608.2521457901739
 20
1080.523156337673
 30
0.0
 10
607.9461218376864
 20
1080.117090058749
 30
0.0
 10
607.6748591160449
 20
1079.684833006309
 30
0.0
 10
607.4420167588578
 20
1079.231859802143
 30
0.0
 10
607.2482685021087
 20
1078.759208336827
 30
0.0
 10
607.0959962706675
 20
1078.271806756871
 30
0.0
 10
606.9862884444528
 20
1077.773268363625
 30
0.0
 10
606.9199628285742
 20
1077.26603145851
 30
0.0
 10
606.9051285932646
 20
1076.924451374783
 30
0.0
 10
606.9052099589071
 20
1076.752484783492
 30
0.0
 10
606.9052115999266
 20
1076.750711406953
 30
0.0
  0
SPLINE
  5
1838
330
A
100
AcDbEntity
  8
HIDDEN
100
AcDbSpline
210
0.0
220
0.0
230
1.0
 70
    11
 71
     3
 72
    84
 73
    80
 74
     0
 42
0.000000001
 43
0.0000000001
 40
0.0
 40
0.0
 40
0.0
 40
0.0
 40
0.7693752214727079
 40
1.539125197796487
 40
2.310142245406334
 40
3.078781317834323
 40
3.846244565497286
 40
4.614348404343376
 40
5.38312908744056
 40
6.151321234370578
 40
6.917646428700231
 40
7.682924954224879
 40
8.44897497378937
 40
9.214921055577125
 40
9.979982318446083
 40
10.74474332775052
 40
11.50842112360017
 40
12.27268402845197
 40
13.03659260722581
 40
13.80037155228108
 40
14.5641286721381
 40
15.32753256921255
 40
16.09181038063674
 40
16.85555801889994
 40
17.620057517377
 40
18.38467710024942
 40
19.14945683507566
 40
19.91528273347426
 40
20.68082967694171
 40
21.44756133010573
 40
22.21430979058716
 40
22.98159513297688
 40
23.749818130573
 40
24.51780902934663
 40
25.28703462864854
 40
26.0559198930537
 40
26.82541844012416
 40
27.59530561792369
 40
28.36479971819539
 40
29.13517072706859
 40
29.90467888279808
 40
30.67463824415489
 40
31.44417406706722
 40
32.21314963159244
 40
32.98245478792335
 40
33.75052720217515
 40
34.51885147815018
 40
35.28619314036507
 40
36.05302711125005
 40
36.81980096093353
 40
37.58540434470729
 40
38.35128603111075
 40
39.11611715986241
 40
39.88083996706281
 40
40.64542991189394
 40
41.40935386832658
 40
42.1738500655831
 40
42.93755692046241
 40
43.70173358966804
 40
44.4659962300818
 40
45.23053639927342
 40
45.99550354887317
 40
46.76004157935198
 40
47.52581261719429
 40
48.29188697512125
 40
49.05887731403181
 40
49.82599898657467
 40
50.59260872140452
 40
51.36055300500902
 40
52.12966772207248
 40
52.89910246953024
 40
53.66803291113548
 40
54.43677319140102
 40
55.20715206934274
 40
55.97744570650202
 40
56.7470052128481
 40
56.7470052128481
 40
56.7470052128481
 40
56.74700542573171
 40
56.74700542573171
 40
56.74700542573171
 40
56.74700542573171
 10
555.9049180654683
 20
1077.172544117921
 30
0.0
 10
555.9048802907992
 20
1077.424607448163
 30
0.0
 10
555.9266940723091
 20
1077.929069345103
 30
0.0
 10
556.0245985706761
 20
1078.681094454584
 30
0.0
 10
556.187010421695
 20
1079.422093585677
 30
0.0
 10
556.4125601512706
 20
1080.146511443814
 30
0.0
 10
556.6992586410961
 20
1080.848786226382
 30
0.0
 10
557.0452627190789
 20
1081.524680305235
 30
0.0
 10
557.4482080105781
 20
1082.169422888654
 30
0.0
 10
557.90482015215
 20
1082.777773336928
 30
0.0
 10
558.4112058001292
 20
1083.344897489485
 30
0.0
 10
558.9638107527489
 20
1083.867198925911
 30
0.0
 10
559.559033473146
 20
1084.341342948154
 30
0.0
 10
560.1926342234265
 20
1084.763900074037
 30
0.0
 10
560.8597509541432
 20
1085.131690190092
 30
0.0
 10
561.5552586399008
 20
1085.442008895653
 30
0.0
 10
562.2744470903017
 20
1085.692892434723
 30
0.0
 10
563.0122939525636
 20
1085.882631686814
 30
0.0
 10
563.7636888846127
 20
1086.009894706297
 30
0.0
 10
564.523103430487
 20
1086.073772748278
 30
0.0
 10
565.2850999566608
 20
1086.073826708959
 30
0.0
 10
566.0444690690956
 20
1086.010085410595
 30
0.0
 10
566.7957818330078
 20
1085.88296804706
 30
0.0
 10
567.5338023155609
 20
1085.693328278669
 30
0.0
 10
568.2531478254259
 20
1085.442530128965
 30
0.0
 10
568.9487866536019
 20
1085.132263330792
 30
0.0
 10
569.6157777795506
 20
1084.764690490624
 30
0.0
 10
570.2492329239194
 20
1084.342408312845
 30
0.0
 10
570.8447592985258
 20
1083.868246274787
 30
0.0
 10
571.3977675405167
 20
1083.345757887606
 30
0.0
 10
571.9044022043927
 20
1082.778451162894
 30
0.0
 10
572.360850387583
 20
1082.170464005073
 30
0.0
 10
572.7636629804683
 20
1081.526214428222
 30
0.0
 10
573.1099833089238
 20
1080.850063512392
 30
0.0
 10
573.3969417292365
 20
1080.147412994726
 30
0.0
 10
573.6225487070915
 20
1079.422903126291
 30
0.0
 10
573.7849524583089
 20
1078.682216513426
 30
0.0
 10
573.8829200628297
 20
1077.930726075363
 30
0.0
 10
573.9157031118812
 20
1077.173703837836
 30
0.0
 10
573.8830162621616
 20
1076.417336541278
 30
0.0
 10
573.785071244657
 20
1075.666538327549
 30
0.0
 10
573.6226925488099
 20
1074.927461956912
 30
0.0
 10
573.3970757350698
 20
1074.205221506354
 30
0.0
 10
573.1099265481871
 20
1073.50504384081
 30
0.0
 10
572.7635867456192
 20
1072.832350830755
 30
0.0
 10
572.3604396069031
 20
1072.191492411341
 30
0.0
 10
571.9038403956192
 20
1071.587530094246
 30
0.0
 10
571.3970051188526
 20
1071.02441942929
 30
0.0
 10
570.8437759774552
 20
1070.506156516723
 30
0.0
 10
570.2483030602762
 20
1070.03638991277
 30
0.0
 10
569.6147397782097
 20
1069.618151899148
 30
0.0
 10
568.9479324262875
 20
1069.254441701895
 30
0.0
 10
568.2525105757059
 20
1068.947587838552
 30
0.0
 10
567.5335210408421
 20
1068.699636828045
 30
0.0
 10
566.7960361485157
 20
1068.512229783801
 30
0.0
 10
566.0452085076222
 20
1068.386555508458
 30
0.0
 10
565.2864037313584
 20
1068.323466053939
 30
0.0
 10
564.5249402451846
 20
1068.323362268881
 30
0.0
 10
563.7661684425238
 20
1068.38622145451
 30
0.0
 10
563.0152692801448
 20
1068.511683577423
 30
0.0
 10
562.2776162127884
 20
1068.698924770386
 30
0.0
 10
561.558594498576
 20
1068.946685491784
 30
0.0
 10
560.8631821658419
 20
1069.253336504414
 30
0.0
 10
560.196289499746
 20
1069.61687372021
 30
0.0
 10
559.562477384713
 20
1070.035076635705
 30
0.0
 10
558.9667092054106
 20
1070.504914297712
 30
0.0
 10
558.4134903890235
 20
1071.02302921047
 30
0.0
 10
557.9067302539552
 20
1071.585893380994
 30
0.0
 10
557.4500164066876
 20
1072.189773018602
 30
0.0
 10
557.0466644759663
 20
1072.830747899572
 30
0.0
 10
556.7000974918183
 20
1073.503749397433
 30
0.0
 10
556.4129878925278
 20
1074.203682950496
 30
0.0
 10
556.1872845066182
 20
1074.925883744841
 30
0.0
 10
556.0247862272254
 20
1075.665148049303
 30
0.0
 10
555.9267563370786
 20
1076.415775666054
 30
0.0
 10
555.9049557928911
 20
1076.920795813875
 30
0.0
 10
555.9049180654583
 20
1077.172544330805
 30
0.0
 10
555.9049180634611
 20
1077.17255765853
 30
0.0
 10
555.9049180674683
 20
1077.172530770333
 30
0.0
 10
555.9049180654683
 20
1077.172544117921
 30
0.0
  0
SPLINE
  5
1839
330
A
100
AcDbEntity
  8
HIDDEN
100
AcDbSpline
210
0.0
220
0.0
230
1.0
 70
     8
 71
     3
 72
    45
 73
    41
 74
     0
 42
0.000000001
 43
0.0000000001
 40
0.0
 40
0.0
 40
0.0
 40
0.0
 40
0.7693752214727079
 40
1.539125197796487
 40
2.310142245406334
 40
3.078781317834323
 40
3.846244565497286
 40
4.614348404343376
 40
5.38312908744056
 40
6.151321234370578
 40
6.917646428700231
 40
7.682924954224879
 40
8.44897497378937
 40
9.214921055577125
 40
9.979982318446083
 40
10.74474332775052
 40
11.50842112360017
 40
12.27268402845197
 40
13.03659260722581
 40
13.80037155228108
 40
14.5641286721381
 40
15.32753256921255
 40
16.09181038063674
 40
16.85555801889994
 40
17.620057517377
 40
18.38467710024942
 40
19.14945683507566
 40
19.91528273347426
 40
20.68082967694171
 40
21.44756133010573
 40
22.21430979058716
 40
22.98159513297688
 40
23.749818130573
 40
24.51780902934663
 40
25.28703462864854
 40
26.0559198930537
 40
26.82541844012416
 40
27.59530561792369
 40
28.36479971819539
 40
28.37623874969844
 40
28.37623874969844
 40
28.37623874969844
 40
28.37623874969844
 10
558.9044845822982
 20
1076.755826797799
 30
0.0
 10
558.9044790370126
 20
1076.925819861714
 30
0.0
 10
558.9191825330327
 20
1077.265786346256
 30
0.0
 10
558.9855427902321
 20
1077.773337101062
 30
0.0
 10
559.0950040201824
 20
1078.27103428496
 30
0.0
 10
559.2473584186137
 20
1078.75896745853
 30
0.0
 10
559.4410541685274
 20
1079.23162438302
 30
0.0
 10
559.6741276099419
 20
1079.685072777925
 30
0.0
 10
559.944711415369
 20
1080.116332044376
 30
0.0
 10
560.2506408709487
 20
1080.522473407317
 30
0.0
 10
560.5900913389041
 20
1080.901321770256
 30
0.0
 10
560.9603796056117
 20
1081.249916153715
 30
0.0
 10
561.3574219269876
 20
1081.564873104473
 30
0.0
 10
561.7791570355312
 20
1081.845059031207
 30
0.0
 10
562.2230556092909
 20
1082.088830558758
 30
0.0
 10
562.684594942567
 20
1082.293997984791
 30
0.0
 10
563.1625958112008
 20
1082.460095469127
 30
0.0
 10
563.651093095551
 20
1082.585185068218
 30
0.0
 10
564.1487788807362
 20
1082.669177975195
 30
0.0
 10
564.6514819274362
 20
1082.711288563065
 30
0.0
 10
565.1555995203644
 20
1082.711368314844
 30
0.0
 10
565.6589598958572
 20
1082.669268681077
 30
0.0
 10
566.155741403405
 20
1082.585559093651
 30
0.0
 10
566.6455457001484
 20
1082.46023045025
 30
0.0
 10
567.1224669858348
 20
1082.2945848564
 30
0.0
 10
567.5846068901237
 20
1082.089323301817
 30
0.0
 10
568.0287381226726
 20
1081.845492579188
 30
0.0
 10
568.4502895596806
 20
1081.565584656677
 30
0.0
 10
568.8483870736609
 20
1081.249852894147
 30
0.0
 10
569.2178048694304
 20
1080.902131355913
 30
0.0
 10
569.5574340652347
 20
1080.523326434196
 30
0.0
 10
569.8639011014602
 20
1080.116581389537
 30
0.0
 10
570.1344852796628
 20
1079.685449377077
 30
0.0
 10
570.3679902003305
 20
1079.231196412965
 30
0.0
 10
570.5612634989093
 20
1078.759597698751
 30
0.0
 10
570.713736663748
 20
1078.271742102895
 30
0.0
 10
570.8234491987114
 20
1077.772899641512
 30
0.0
 10
570.8896895828566
 20
1077.266630872282
 30
0.0
 10
570.9045781369423
 20
1076.923519713119
 30
0.0
 10
570.9044833374583
 20
1076.750984733025
 30
0.0
 10
570.9044803199122
 20
1076.748457510437
 30
0.0
  0
SPLINE
  5
183A
330
A
100
AcDbEntity
  8
HIDDEN
100
AcDbSpline
210
0.0
220
0.0
230
1.0
 70
     8
 71
     3
 72
    16
 73
    12
 74
     0
 42
0.000000001
 43
0.0000000001
 40
0.1400627800883964
 40
0.1400627800883964
 40
0.1400627800883964
 40
0.1400627800883964
 40
1.102497104109514
 40
2.204994208219022
 40
3.307491312328537
 40
4.409988416438048
 40
5.51248552054756
 40
6.614982624657072
 40
7.717479728766588
 40
8.81997683287609
 40
9.232309720683523
 40
9.232309720683523
 40
9.232309720683523
 40
9.232309720683523
 10
594.8981765127319
 20
1076.476661309125
 30
0.0
 10
594.8676622775884
 20
1077.114931466167
 30
0.0
 10
594.5782282797254
 20
1078.473909658433
 30
0.0
 10
593.4410059450574
 20
1080.292710483609
 30
0.0
 10
591.640862588336
 20
1081.638840276438
 30
0.0
 10
589.4712051898778
 20
1082.250141224874
 30
0.0
 10
587.2250580038317
 20
1082.044034636767
 30
0.0
 10
585.2057756540053
 20
1081.048361470016
 30
0.0
 10
583.6860734109714
 20
1079.39759153034
 30
0.0
 10
583.0412335980054
 20
1077.749307585615
 30
0.0
 10
582.9244175455788
 20
1076.747869125689
 30
0.0
 10
582.9116173983011
 20
1076.474393953039
 30
0.0
  0
SPLINE
  5
183B
330
A
100
AcDbEntity
  8
HIDDEN
100
AcDbSpline
210
0.0
220
0.0
230
1.0
 70
     8
 71
     3
 72
    16
 73
    12
 74
     0
 42
0.000000001
 43
0.0000000001
 40
0.1424963689014209
 40
0.1424963689014209
 40
0.1424963689014209
 40
0.1424963689014209
 40
1.10249710410951
 40
2.204994208219026
 40
3.307491312328543
 40
4.409988416438054
 40
5.512485520547564
 40
6.614982624657074
 40
7.717479728766587
 40
8.819976832876092
 40
9.235176529333902
 40
9.235176529333902
 40
9.235176529333902
 40
9.235176529333902
 10
618.8987975232121
 20
1076.483099364636
 30
0.0
 10
618.8678546566789
 20
1077.119752933426
 30
0.0
 10
618.5782739614388
 20
1078.476976087489
 30
0.0
 10
617.4419845781222
 20
1080.294458463865
 30
0.0
 10
615.641885080794
 20
1081.640661259282
 30
0.0
 10
613.472247610227
 20
1082.252015834052
 30
0.0
 10
611.2260937285773
 20
1082.045936252843
 30
0.0
 10
609.206778964096
 20
1081.050259826296
 30
0.0
 10
607.6870229650913
 20
1079.399456800337
 30
0.0
 10
607.0414231060477
 20
1077.749321159004
 30
0.0
 10
606.9248394477063
 20
1076.745865156845
 30
0.0
 10
606.9122073299359
 20
1076.470467158185
 30
0.0
  0
SPLINE
  5
183C
330
A
100
AcDbEntity
  8
HIDDEN
100
AcDbSpline
210
0.0
220
0.0
230
1.0
 70
     8
 71
     3
 72
    16
 73
    12
 74
     0
 42
0.000000001
 43
0.0000000001
 40
9.507223714463645
 40
9.507223714463645
 40
9.507223714463645
 40
9.507223714463645
 40
9.922473936985591
 40
11.0249710410951
 40
12.12746814520461
 40
13.22996524931412
 40
14.33246235342363
 40
15.43495945753315
 40
16.53745656164266
 40
17.63995366575218
 40
18.59995065366317
 40
18.59995065366317
 40
18.59995065366317
 40
18.59995065366317
 10
570.8974915989547
 20
1076.470363469271
 30
0.0
 10
570.8848625911551
 20
1076.745795193415
 30
0.0
 10
570.7682834691659
 20
1077.749286167796
 30
0.0
 10
570.1226709127995
 20
1079.399453516357
 30
0.0
 10
568.602914665672
 20
1081.050256276592
 30
0.0
 10
566.5835997515123
 20
1082.045932350071
 30
0.0
 10
564.3374458388453
 20
1082.252011538551
 30
0.0
 10
562.167808460109
 20
1081.640656584429
 30
0.0
 10
560.3677091650561
 20
1080.294453474274
 30
0.0
 10
559.231421400199
 20
1078.476973051089
 30
0.0
 10
558.9418406158402
 20
1077.119752626331
 30
0.0
 10
558.9108971550777
 20
1076.483101575727
 30
0.0
  0
LINE
  5
183F
330
A
100
AcDbEntity
  8
HIDDEN
100
AcDbLine
 10
566.2727607142087
 20
969.624385637434
 30
0.0
 11
611.5369257982466
 21
969.6243895945531
 31
0.0
  0
LINE
  5
1840
330
A
100
AcDbEntity
  8
MODEL
100
AcDbLine
 10
563.8520243513958
 20
932.1732267790312
 30
0.0
 11
613.9576687092285
 21
932.173231159406
 31
0.0
  0
LINE
  5
1841
330
A
100
AcDbEntity
  8
HIDDEN
100
AcDbLine
 10
558.9044846041061
 20
1076.755879036151
 30
0.0
 11
558.9044867974908
 21
1076.761132260577
 31
0.0
  0
SPLINE
  5
1842
330
A
100
AcDbEntity
  8
HIDDEN
100
AcDbSpline
210
0.0
220
0.0
230
1.0
 70
     8
 71
     3
 72
    19
 73
    15
 74
     0
 42
0.000000001
 43
0.0000000001
 40
0.0
 40
0.0
 40
0.0
 40
0.0
 40
0.5069130072981579
 40
1.394295894360403
 40
2.786815203627904
 40
4.277765130738345
 40
6.095389544191943
 40
7.895183726500394
 40
9.684580476140962
 40
11.46691268187196
 40
13.48059081293327
 40
15.73564599511071
 40
17.78155192170616
 40
18.92360891441416
 40
18.92360891441416
 40
18.92360891441416
 40
18.92360891441416
 10
570.9044822991173
 20
1076.750377628186
 30
0.0
 10
570.9043389671269
 20
1076.585160607212
 30
0.0
 10
570.8845500787838
 20
1076.130653766059
 30
0.0
 10
570.7390346136699
 20
1075.231836348668
 30
0.0
 10
570.3123483366071
 20
1074.069618546901
 30
0.0
 10
569.4456166585614
 20
1072.783957910154
 30
0.0
 10
568.1464116722518
 20
1071.684322447635
 30
0.0
 10
566.4777226470942
 20
1070.971471980012
 30
0.0
 10
564.6781889831882
 20
1070.773659017535
 30
0.0
 10
562.8283861343043
 20
1071.11529202273
 30
0.0
 10
561.03927129978
 20
1072.079369710491
 30
0.0
 10
559.6441147248397
 20
1073.661329271023
 30
0.0
 10
559.0042821612942
 20
1075.344160076641
 30
0.0
 10
558.9044967355458
 20
1076.384042675124
 30
0.0
 10
558.9044846041061
 20
1076.755879036148
 30
0.0
  0
LINE
  5
1843
330
A
100
AcDbEntity
  8
HIDDEN
100
AcDbLine
 10
618.9052089644892
 20
1076.755884281579
 30
0.0
 11
618.9052067742705
 21
1076.76112832281
 31
0.0
  0
SPLINE
  5
1844
330
A
100
AcDbEntity
  8
HIDDEN
100
AcDbSpline
210
0.0
220
0.0
230
1.0
 70
     8
 71
     3
 72
    19
 73
    15
 74
     0
 42
0.000000001
 43
0.0000000001
 40
0.0
 40
0.0
 40
0.0
 40
0.0
 40
0.5075362603826464
 40
1.394872148400009
 40
2.787825260028248
 40
4.279213045271075
 40
6.095640337678168
 40
7.898223411645332
 40
9.686428031851886
 40
11.46975877441569
 40
13.48084187638204
 40
15.73773132715496
 40
17.78389356104765
 40
18.92427759850622
 40
18.92427759850622
 40
18.92427759850622
 40
18.92427759850622
 10
606.9052113001317
 20
1076.751045643086
 30
0.0
 10
606.9053549765231
 20
1076.585622299399
 30
0.0
 10
606.9250921314542
 20
1076.130894609482
 30
0.0
 10
607.070669771515
 20
1075.231781158689
 30
0.0
 10
607.4974910769415
 20
1074.06931548933
 30
0.0
 10
608.3642599251871
 20
1072.783806120632
 30
0.0
 10
609.6639916150098
 20
1071.683777407962
 30
0.0
 10
611.3329997084429
 20
1070.971148579567
 30
0.0
 10
613.1334311845212
 20
1070.773729025692
 30
0.0
 10
614.9822222802322
 20
1071.115744591936
 30
0.0
 10
616.7712133349642
 20
1072.08004619769
 30
0.0
 10
618.1661551404877
 20
1073.662044243949
 30
0.0
 10
618.8056103478693
 20
1075.345172769681
 30
0.0
 10
618.9051969801358
 20
1076.38458258214
 30
0.0
 10
618.905208964542
 20
1076.755885515363
 30
0.0
  0
SPLINE
  5
1845
330
A
100
AcDbEntity
  8
HIDDEN
100
AcDbSpline
210
0.0
220
0.0
230
1.0
 70
     8
 71
     3
 72
    15
 73
    11
 74
     0
 42
0.000000001
 43
0.0000000001
 40
0.0
 40
0.0
 40
0.0
 40
0.0
 40
0.560460557009291
 40
1.401635285331253
 40
2.697858915880498
 40
4.063648116679539
 40
5.653955227477891
 40
7.233553117446774
 40
8.574815084611924
 40
9.464426254455685
 40
9.464426254455685
 40
9.464426254455685
 40
9.464426254455685
 10
582.9048467720113
 20
1076.754835764384
 30
0.0
 10
582.9048467760267
 20
1076.572185178314
 30
0.0
 10
582.9264069774981
 20
1076.115271359992
 30
0.0
 10
583.0709518000131
 20
1075.246031978777
 30
0.0
 10
583.4586618304438
 20
1074.16432251548
 30
0.0
 10
584.2107689684863
 20
1072.983333161994
 30
0.0
 10
585.3042686015388
 20
1071.949115465072
 30
0.0
 10
586.6301719715248
 20
1071.232948693286
 30
0.0
 10
587.8644263219867
 20
1070.910856366486
 30
0.0
 10
588.608569820407
 20
1070.856714073092
 30
0.0
 10
588.9048471816159
 20
1070.856713956243
 30
0.0
  0
SPLINE
  5
1846
330
A
100
AcDbEntity
  8
HIDDEN
100
AcDbSpline
210
0.0
220
0.0
230
1.0
 70
     8
 71
     3
 72
    15
 73
    11
 74
     0
 42
0.000000001
 43
0.0000000001
 40
0.0
 40
0.0
 40
0.0
 40
0.0
 40
0.7218311583310144
 40
1.874740728947739
 40
3.318518145513864
 40
4.757141900022134
 40
6.198508339604626
 40
7.637394653162454
 40
8.789251102939954
 40
9.465037387700201
 40
9.465037387700201
 40
9.465037387700201
 40
9.465037387700201
 10
594.9048467845705
 20
1076.755195046318
 30
0.0
 10
594.9048468007495
 20
1076.520003100291
 30
0.0
 10
594.8677697464218
 20
1075.908813541598
 30
0.0
 10
594.6328584355815
 20
1074.848306056575
 30
0.0
 10
594.0727900545708
 20
1073.645476779798
 30
0.0
 10
593.178675193768
 20
1072.532279027796
 30
0.0
 10
592.0407937421278
 20
1071.658418622276
 30
0.0
 10
590.8091091032811
 20
1071.112462545137
 30
0.0
 10
589.7394404654351
 20
1070.890381027418
 30
0.0
 10
589.129992717304
 20
1070.856714112567
 30
0.0
 10
588.9048471816168
 20
1070.856713956258
 30
0.0
  0
SPLINE
  5
1847
330
A
100
AcDbEntity
  8
MODEL
100
AcDbSpline
210
0.0
220
0.0
230
1.0
 70
     8
 71
     7
 72
    16
 73
     8
 74
     0
 42
0.000000001
 43
0.0000000001
 40
0.0000000000000136
 40
0.0000000000000136
 40
0.0000000000000136
 40
0.0000000000000136
 40
0.0000000000000136
 40
0.0000000000000136
 40
0.0000000000000136
 40
0.0000000000000136
 40
0.9999999999999233
 40
0.9999999999999233
 40
0.9999999999999233
 40
0.9999999999999233
 40
0.9999999999999233
 40
0.9999999999999233
 40
0.9999999999999233
 40
0.9999999999999233
 10
303.9048482787694
 20
1112.17324689089
 30
0.0
 10
303.9048477883298
 20
1112.17324664567
 30
0.0
 10
305.3735384290039
 20
1112.173246272052
 30
0.0
 10
308.3108074555284
 20
1112.173245790212
 30
0.0
 10
312.5361921967551
 20
1112.17324523612
 30
0.0
 10
317.6848724587771
 20
1112.173244657616
 30
0.0
 10
323.2948592117891
 20
1112.173244102977
 30
0.0
 10
328.9048460931999
 20
1112.173243612536
 30
0.0
  0
LINE
  5
1848
330
A
100
AcDbEntity
  8
MODEL
100
AcDbLine
 10
371.0557538221861
 20
962.1732470795837
 30
0.0
 11
351.1558451402107
 21
962.1732445085308
 31
0.0
  0
LINE
  5
1849
330
A
100
AcDbEntity
  8
HIDDEN
100
AcDbLine
 10
595.9048465303258
 20
945.1732289692186
 30
0.0
 11
588.9048465303149
 21
945.1732289692186
 31
0.0
  0
LINE
  5
184A
330
A
100
AcDbEntity
  8
HIDDEN
100
AcDbLine
 10
588.9048465303149
 20
957.1732289691947
 30
0.0
 11
581.904846530304
 21
957.1732289691947
 31
0.0
  0
ARC
  5
184B
330
A
100
AcDbEntity
  8
HIDDEN
100
AcDbCircle
 10
581.904846530304
 20
951.1732289692065
 30
0.0
 40
5.999999999988063
100
AcDbArc
 50
89.99999999937468
 51
269.9999999979677
  0
ARC
  5
184C
330
A
100
AcDbEntity
  8
HIDDEN
100
AcDbCircle
 10
595.9048465303258
 20
951.1732289692065
 30
0.0
 40
5.999999999988063
100
AcDbArc
 50
270.0000000006253
 51
89.99999999937468
  0
LINE
  5
184D
330
A
100
AcDbEntity
  8
HIDDEN
100
AcDbLine
 10
566.8515362315065
 20
935.2255881164892
 30
0.0
 11
566.2727356818414
 21
968.3852155275113
 31
0.0
  0
LINE
  5
184E
330
A
100
AcDbEntity
  8
MODEL
100
AcDbLine
 10
554.6652248344881
 20
934.9117648649308
 30
0.0
 11
552.4113896747589
 21
960.6732575311279
 31
0.0
  0
LINE
  5
184F
330
A
100
AcDbEntity
  8
MODEL
100
AcDbLine
 10
563.851992879192
 20
932.173231159406
 30
0.0
 11
557.6538087007821
 21
932.1732317012684
 31
0.0
  0
ARC
  5
1850
330
A
100
AcDbEntity
  8
MODEL
100
AcDbCircle
 10
563.8519815310201
 20
935.1732425689543
 30
0.0
 40
3.000011409570373
100
AcDbArc
 50
270.0002167334338
 51
0.9997732486023339
  0
ARC
  5
1851
330
A
100
AcDbEntity
  8
MODEL
100
AcDbCircle
 10
557.6538255494415
 20
935.1732498021347
 30
0.0
 40
3.000018100913434
100
AcDbArc
 50
185.0003092609081
 51
269.9996782153456
  0
ARC
  5
1852
330
A
100
AcDbEntity
  8
HIDDEN
100
AcDbCircle
 10
563.2731913422331
 20
968.3328579744175
 30
0.0
 40
3.000001259773505
100
AcDbArc
 50
1.000005955775186
 51
49.99998402613777
  0
LINE
  5
1853
330
A
100
AcDbEntity
  8
HIDDEN
100
AcDbLine
 10
565.2015556217639
 20
970.6309917312019
 30
0.0
 11
554.0072254130928
 21
980.0241517482605
 31
0.0
  0
LINE
  5
1854
330
A
100
AcDbEntity
  8
HIDDEN
100
AcDbLine
 10
1497.87583421406
 20
959.590046626277
 30
0.0
 11
1497.572744980363
 21
942.2522566604162
 31
0.0
  0
SPLINE
  5
1855
330
A
100
AcDbEntity
  8
HIDDEN
100
AcDbSpline
210
0.0
220
0.0
230
1.0
 70
     8
 71
     4
 72
    10
 73
     5
 74
     0
 42
0.000000001
 43
0.0000000001
 40
0.0
 40
0.0
 40
0.0
 40
0.0
 40
0.0
 40
1.0
 40
1.0
 40
1.0
 40
1.0
 40
1.0
 10
1660.396814756437
 20
1112.173220882612
 30
0.0
 10
1649.986395472125
 20
1112.173220882612
 30
0.0
 10
1649.578832456306
 20
1107.309405467054
 30
0.0
 10
1647.164328762726
 20
1107.182733272014
 30
0.0
 10
1635.396814756436
 20
1107.182733272014
 30
0.0
  0
LINE
  5
1856
330
A
100
AcDbEntity
  8
HIDDEN
100
AcDbLine
 10
1627.400232448598
 20
1107.182733271635
 30
0.0
 11
1635.396814756436
 21
1107.182733271662
 31
0.0
  0
SPLINE
  5
1857
330
A
100
AcDbEntity
  8
HIDDEN
100
AcDbSpline
210
0.0
220
0.0
230
1.0
 70
     8
 71
     5
 72
    12
 73
     6
 74
     0
 42
0.000000001
 43
0.0000000001
 40
0.0
 40
0.0
 40
0.0
 40
0.0
 40
0.0
 40
0.0
 40
1.009700781834399
 40
1.009700781834399
 40
1.009700781834399
 40
1.009700781834399
 40
1.009700781834399
 40
1.009700781834399
 10
1627.400232448598
 20
1107.182733271635
 30
0.0
 10
1624.352096493446
 20
1107.182733271625
 30
0.0
 10
1621.303960538297
 20
1107.182733271615
 30
0.0
 10
1617.657535083911
 20
1103.725348229256
 30
0.0
 10
1617.600029163124
 20
1100.692448381459
 30
0.0
 10
1617.410020533712
 20
1097.649905504733
 30
0.0
  0
LINE
  5
1858
330
A
100
AcDbEntity
  8
MODEL
100
AcDbLine
 10
1660.396814756437
 20
1112.173220882616
 30
0.0
 11
1665.035088497767
 21
1112.173220882616
 31
0.0
  0
ARC
  5
1859
102
{ACAD_REACTORS
330
1BC0
102
}
330
A
100
AcDbEntity
  8
MODEL
100
AcDbCircle
 10
1665.035088497767
 20
1102.173220882616
 30
0.0
 40
10.0
100
AcDbArc
 50
357.9644939892639
 51
89.99999999958311
  0
LINE
  5
185A
330
A
100
AcDbEntity
  8
MODEL
100
AcDbLine
 10
1673.808181622913
 20
1067.474911669031
 30
0.0
 11
1675.028778577958
 21
1101.818032790113
 31
0.0
  0
ARC
  5
185B
330
A
100
AcDbEntity
  8
MODEL
100
AcDbCircle
 10
1667.811967574795
 20
1067.688024524532
 30
0.0
 40
6.000000000000006
100
AcDbArc
 50
285.5761296941269
 51
357.9644939882211
  0
LINE
  5
185C
330
A
100
AcDbEntity
  8
MODEL
100
AcDbLine
 10
1665.037975864321
 20
1056.341842885723
 30
0.0
 11
1664.562372380577
 21
1042.960088905245
 31
0.0
  0
ARC
  5
185D
330
A
100
AcDbEntity
  8
MODEL
100
AcDbCircle
 10
1671.034189921753
 20
1056.128730292324
 30
0.0
 40
6.00000000000002
100
AcDbArc
 50
105.5761296947938
 51
177.9644964933847
  0
LINE
  5
185E
330
A
100
AcDbEntity
  8
MODEL
100
AcDbLine
 10
1500.449636935361
 20
932.173220882612
 30
0.0
 11
1507.402921346415
 21
932.173220882612
 31
0.0
  0
LINE
  5
185F
330
A
100
AcDbEntity
  8
HIDDEN
100
AcDbLine
 10
1510.513906094587
 20
980.2083208903573
 30
0.0
 11
1499.100077554874
 21
970.6309815723666
 31
0.0
  0
LINE
  5
1860
330
A
100
AcDbEntity
  8
HIDDEN
100
AcDbLine
 10
1498.028897298466
 20
968.3852054623217
 30
0.0
 11
1497.876291128591
 21
959.6424038455893
 31
0.0
  0
LINE
  5
1861
330
A
100
AcDbEntity
  8
HIDDEN
100
AcDbLine
 10
1500.87583421406
 20
956.590046626277
 30
0.0
 11
1504.876687303828
 21
956.590046626277
 31
0.0
  0
ARC
  5
1862
330
A
100
AcDbEntity
  8
HIDDEN
100
AcDbCircle
 10
1500.87583421406
 20
959.590046626277
 30
0.0
 40
3.0
100
AcDbArc
 50
178.9999999986692
 51
269.9999999979852
  0
ARC
  5
1863
330
A
100
AcDbEntity
  8
HIDDEN
100
AcDbCircle
 10
1501.028440383935
 20
968.3328482430093
 30
0.0
 40
3.0
100
AcDbArc
 50
129.9999999990007
 51
178.9999999986692
  0
LINE
  5
1864
330
A
100
AcDbEntity
  8
HIDDEN
100
AcDbLine
 10
1497.572171312087
 20
942.2193912269345
 30
0.0
 11
1497.450093849896
 21
935.2255781018998
 31
0.0
  0
ARC
  5
1865
330
A
100
AcDbEntity
  8
MODEL
100
AcDbCircle
 10
1500.449636935365
 20
935.1732208825883
 30
0.0
 40
3.0
100
AcDbArc
 50
178.9999999986692
 51
269.9999999979852
  0
ARC
  5
1866
330
A
100
AcDbEntity
  8
HIDDEN
100
AcDbCircle
 10
1500.571714397555
 20
942.167034007623
 30
0.0
 40
3.0
100
AcDbArc
 50
89.99999999979156
 51
178.9999999995031
  0
LINE
  5
1867
330
A
100
AcDbEntity
  8
MODEL
100
AcDbLine
 10
1593.245907257493
 20
962.1732194880707
 30
0.0
 11
1611.137486395953
 21
962.1732061830548
 31
0.0
  0
LINE
  5
1868
330
A
100
AcDbEntity
  8
HIDDEN
100
AcDbLine
 10
1516.536570932748
 20
974.8186784201039
 30
0.0
 11
1509.065516039834
 21
968.5497190149567
 31
0.0
  0
LINE
  5
1869
330
A
100
AcDbEntity
  8
HIDDEN
100
AcDbLine
 10
1628.339874008939
 20
1099.182733271638
 30
0.0
 11
1635.396814756462
 21
1099.182733271662
 31
0.0
  0
SPLINE
  5
186A
330
A
100
AcDbEntity
  8
HIDDEN
100
AcDbSpline
210
0.0
220
0.0
230
1.0
 70
     8
 71
     3
 72
    30
 73
    26
 74
     0
 42
0.000000001
 43
0.0000000001
 40
0.0
 40
0.0
 40
0.0
 40
0.0
 40
0.0843203156601466
 40
0.0843203156601466
 40
0.1686406313202931
 40
0.1686406313202931
 40
0.2529609469804397
 40
0.2529609469804397
 40
0.3372812626405863
 40
0.3372812626405863
 40
0.4216015783007329
 40
0.4216015783007329
 40
0.5059218939608794
 40
0.5059218939608794
 40
0.5902422096210259
 40
0.5902422096210259
 40
0.6745625252811724
 40
0.6745625252811724
 40
0.758882840941319
 40
0.758882840941319
 40
0.8432031566014655
 40
0.8432031566014655
 40
0.927523472261612
 40
0.927523472261612
 40
1.0
 40
1.0
 40
1.0
 40
1.0
 10
1660.396814756437
 20
1104.173220882612
 30
0.0
 10
1659.541561623442
 20
1104.173220882612
 30
0.0
 10
1658.853795601681
 20
1104.123257462092
 30
0.0
 10
1657.731658490404
 20
1103.980588745882
 30
0.0
 10
1657.297316906392
 20
1103.888729813142
 30
0.0
 10
1656.570407270312
 20
1103.693073937205
 30
0.0
 10
1656.276837056223
 20
1103.589463898759
 30
0.0
 10
1655.702376395988
 20
1103.353051676151
 30
0.0
 10
1655.420485931914
 20
1103.218650425023
 30
0.0
 10
1654.75820536699
 20
1102.874022210153
 30
0.0
 10
1654.377430454133
 20
1102.66160722111
 30
0.0
 10
1653.444297501806
 20
1102.14844862743
 30
0.0
 10
1652.890760338006
 20
1101.84758029236
 30
0.0
 10
1651.596438661868
 20
1101.225018573177
 30
0.0
 10
1650.856326357137
 20
1100.906835633575
 30
0.0
 10
1649.254007778333
 20
1100.346631644833
 30
0.0
 10
1648.39559044727
 20
1100.106020980992
 30
0.0
 10
1646.628377913296
 20
1099.727588492334
 30
0.0
 10
1645.720013131016
 20
1099.587837769247
 30
0.0
 10
1643.847591716213
 20
1099.382405652626
 30
0.0
 10
1642.881996030093
 20
1099.315876566541
 30
0.0
 10
1640.840667182018
 20
1099.227080309849
 30
0.0
 10
1639.764121426858
 20
1099.204908138117
 30
0.0
 10
1637.602728943205
 20
1099.184112163598
 30
0.0
 10
1636.540214257769
 20
1099.182733272014
 30
0.0
 10
1635.396814756436
 20
1099.182733272014
 30
0.0
  0
LINE
  5
186B
330
A
100
AcDbEntity
  8
MODEL
100
AcDbLine
 10
1660.396814756437
 20
1104.173220882616
 30
0.0
 11
1665.035088497767
 21
1104.173220882616
 31
0.0
  0
ARC
  5
186C
330
A
100
AcDbEntity
  8
MODEL
100
AcDbCircle
 10
1665.035088497767
 20
1102.173220882616
 30
0.0
 40
2.000000000000002
100
AcDbArc
 50
357.9644939892639
 51
89.99999999958311
  0
LINE
  5
186D
330
A
100
AcDbEntity
  8
HIDDEN
100
AcDbLine
 10
1665.927195475877
 20
1070.965645019632
 30
0.0
 11
1667.033826513805
 21
1102.102183264115
 31
0.0
  0
ARC
  5
186E
330
A
100
AcDbEntity
  8
HIDDEN
100
AcDbCircle
 10
1671.034189921753
 20
1056.128730292324
 30
0.0
 40
14.00000000000002
100
AcDbArc
 50
118.474701220424
 51
177.9644964933847
  0
LINE
  5
186F
330
A
100
AcDbEntity
  8
HIDDEN
100
AcDbLine
 10
1657.043023787748
 20
1056.625993010253
 30
0.0
 11
1656.742702197516
 21
1048.176034646067
 31
0.0
  0
LINE
  5
1870
330
A
100
AcDbEntity
  8
HIDDEN
100
AcDbLine
 10
1500.571714397555
 20
945.167034007623
 30
0.0
 11
1502.587473300368
 21
945.167034007623
 31
0.0
  0
LINE
  5
1871
330
A
100
AcDbEntity
  8
HIDDEN
100
AcDbLine
 10
1507.994335783426
 20
966.3039429049118
 30
0.0
 11
1507.876230389297
 21
959.5376894069645
 31
0.0
  0
ARC
  5
1872
330
A
100
AcDbEntity
  8
HIDDEN
100
AcDbCircle
 10
1504.876687303828
 20
959.590046626277
 30
0.0
 40
3.0
100
AcDbArc
 50
269.9999999993399
 51
358.9999999990861
  0
ARC
  5
1873
330
A
100
AcDbEntity
  8
HIDDEN
100
AcDbCircle
 10
1510.993878868895
 20
966.2515856855994
 30
0.0
 40
3.0
100
AcDbArc
 50
129.9999999996818
 51
178.9999999995031
  0
ARC
  5
1874
330
A
100
AcDbEntity
  8
MODEL
100
AcDbCircle
 10
1662.92908845182
 20
1071.072201447383
 30
0.0
 40
3.0
100
AcDbArc
 50
298.4747012199694
 51
357.9644939884297
  0
LINE
  5
1875
330
A
100
AcDbEntity
  8
MODEL
100
AcDbLine
 10
1444.145808399116
 20
932.173220882612
 30
0.0
 11
1450.343992577526
 21
932.173220882612
 31
0.0
  0
LINE
  5
1876
330
A
100
AcDbEntity
  8
HIDDEN
100
AcDbLine
 10
1453.343535662995
 20
935.2255781019244
 30
0.0
 11
1452.76473210705
 21
968.38521161383
 31
0.0
  0
LINE
  5
1877
330
A
100
AcDbEntity
  8
MODEL
100
AcDbLine
 10
1441.157224293412
 20
934.9117537850047
 30
0.0
 11
1438.849150380603
 21
961.293172608694
 31
0.0
  0
ARC
  5
1878
330
A
100
AcDbEntity
  8
MODEL
100
AcDbCircle
 10
1444.145808399116
 20
935.173220882612
 30
0.0
 40
3.0
100
AcDbArc
 50
184.9999974953017
 51
269.9999999993399
  0
SPLINE
  5
1879
330
A
100
AcDbEntity
  8
MODEL
100
AcDbSpline
210
0.0
220
0.0
230
1.0
 70
     8
 71
     3
 72
    14
 73
    10
 74
     0
 42
0.000000001
 43
0.0000000001
 40
0.0
 40
0.0
 40
0.0
 40
0.0
 40
0.4274974816930697
 40
1.023742491473183
 40
1.811230955879346
 40
2.542470244256437
 40
3.27370953263366
 40
3.948699644981708
 40
4.764642309279074
 40
4.764642309279074
 40
4.764642309279074
 40
4.764642309279074
 10
1453.343535662995
 20
935.2255781019244
 30
0.0
 10
1453.346020643824
 20
935.0832136457452
 30
0.0
 10
1453.327632416239
 20
934.7413770496091
 30
0.0
 10
1453.192646408722
 20
934.1499270326544
 30
0.0
 10
1452.880123681086
 20
933.5111633913707
 30
0.0
 10
1452.388653349007
 20
932.9372725819762
 30
0.0
 10
1451.803859795141
 20
932.5208817449534
 30
0.0
 10
1451.113243474435
 20
932.2412590844865
 30
0.0
 10
1450.615141219724
 20
932.173220882612
 30
0.0
 10
1450.343992577526
 20
932.173220882612
 30
0.0
  0
ARC
  5
187D
330
A
100
AcDbEntity
  8
HIDDEN
100
AcDbCircle
 10
1323.393541966979
 20
1097.182749731267
 30
0.0
 40
9.999999999999988
100
AcDbArc
 50
3.524346325002627
 51
89.99999379534177
  0
SPLINE
  5
187E
330
A
100
AcDbEntity
  8
HIDDEN
100
AcDbSpline
210
0.0
220
0.0
230
1.0
 70
     8
 71
     7
 72
    61
 73
    53
 74
     0
 42
0.000000001
 43
0.0000000001
 40
0.027952669776261
 40
0.027952669776261
 40
0.027952669776261
 40
0.027952669776261
 40
0.027952669776261
 40
0.027952669776261
 40
0.027952669776261
 40
0.027952669776261
 40
0.1520440815783657
 40
0.1520440815783657
 40
0.1520440815783657
 40
0.1520440815783657
 40
0.1520440815783657
 40
0.2100000000000001
 40
0.2100000000000001
 40
0.2100000000000001
 40
0.2100000000000001
 40
0.2100000000000001
 40
0.3996000000000001
 40
0.3996000000000001
 40
0.3996000000000001
 40
0.3996000000000001
 40
0.3996000000000001
 40
0.4355131375773277
 40
0.4355131375773277
 40
0.4355131375773277
 40
0.4355131375773277
 40
0.4355131375773277
 40
0.5436960000000001
 40
0.5436960000000001
 40
0.5436960000000001
 40
0.5436960000000001
 40
0.5436960000000001
 40
0.6155038400000001
 40
0.6155038400000001
 40
0.6155038400000001
 40
0.6155038400000001
 40
0.6155038400000001
 40
0.6214492004249853
 40
0.6214492004249853
 40
0.6214492004249853
 40
0.6214492004249853
 40
0.6214492004249853
 40
0.8175041931123227
 40
0.8175041931123227
 40
0.8175041931123227
 40
0.8175041931123227
 40
0.8175041931123227
 40
0.855904
 40
0.855904
 40
0.855904
 40
0.855904
 40
0.855904
 40
0.9573508683186301
 40
0.9573508683186301
 40
0.9573508683186301
 40
0.9573508683186301
 40
0.9573508683186301
 40
0.9573508683186301
 40
0.9573508683186301
 40
0.9573508683186301
 10
1432.436591921686
 20
983.6126215534855
 30
0.0
 10
1429.570214200487
 20
984.0200340680126
 30
0.0
 10
1426.695659940301
 20
984.4591129883061
 30
0.0
 10
1423.811407436303
 20
984.9334523054781
 30
0.0
 10
1420.93394950886
 20
985.4446977197053
 30
0.0
 10
1418.09002263196
 20
985.9914153069235
 30
0.0
 10
1413.997479206856
 20
986.8420046695114
 30
0.0
 10
1410.045021601108
 20
987.7607171774157
 30
0.0
 10
1408.802031693826
 20
988.0599538983201
 30
0.0
 10
1407.57497186859
 20
988.3658496429548
 30
0.0
 10
1406.363913025193
 20
988.6783930802071
 30
0.0
 10
1401.257368565165
 20
990.0423051229295
 30
0.0
 10
1396.42188079081
 20
991.5345473508974
 30
0.0
 10
1392.852494422538
 20
992.7613192357926
 30
0.0
 10
1389.353259261718
 20
994.0959454934678
 30
0.0
 10
1385.847640742682
 20
995.5811316181394
 30
0.0
 10
1381.603439472644
 20
997.6097502023626
 30
0.0
 10
1377.264925632578
 20
1000.056946771098
 30
0.0
 10
1376.571594060198
 20
1000.457793245247
 30
0.0
 10
1375.875878855563
 20
1000.870286990528
 30
0.0
 10
1375.17789294906
 20
1001.294944472965
 30
0.0
 10
1372.36899548897
 20
1003.04965143605
 30
0.0
 10
1369.531028381326
 20
1005.016140662233
 30
0.0
 10
1367.391411326716
 20
1006.625171806182
 30
0.0
 10
1365.256717924657
 20
1008.378510382832
 30
0.0
 10
1363.146792056969
 20
1010.284017555539
 30
0.0
 10
1359.712522683799
 20
1013.710611397152
 30
0.0
 10
1356.457186496732
 20
1017.551313048646
 30
0.0
 10
1355.192444991378
 20
1019.148204397995
 30
0.0
 10
1353.966747948008
 20
1020.807291377795
 30
0.0
 10
1352.784211506229
 20
1022.525041453124
 30
0.0
 10
1351.553638484237
 20
1024.443988226419
 30
0.0
 10
1350.379141081204
 20
1026.421603060911
 30
0.0
 10
1350.289662612696
 20
1026.57316091448
 30
0.0
 10
1350.200514021169
 20
1026.725056742805
 30
0.0
 10
1350.111696223913
 20
1026.877288009654
 30
0.0
 10
1347.10527929928
 20
1032.060828191834
 30
0.0
 10
1344.48264346228
 20
1037.625713331367
 30
0.0
 10
1342.327524816536
 20
1043.294645527355
 30
0.0
 10
1340.524891946013
 20
1049.133395927471
 30
0.0
 10
1339.020952332418
 20
1055.084565416305
 30
0.0
 10
1337.523859968139
 20
1062.289579638913
 30
0.0
 10
1336.330804547159
 20
1069.563592995004
 30
0.0
 10
1336.143261269356
 20
1070.756614759008
 30
0.0
 10
1335.963291614556
 20
1071.951122985912
 30
0.0
 10
1335.790620410654
 20
1073.14696274532
 30
0.0
 10
1335.187388029978
 20
1077.506388994194
 30
0.0
 10
1334.673994282656
 20
1081.880054610963
 30
0.0
 10
1334.344146492606
 20
1085.058000104397
 30
0.0
 10
1334.052712166466
 20
1088.239593712131
 30
0.0
 10
1333.796045616181
 20
1091.423784792561
 30
0.0
 10
1333.570950453718
 20
1094.609888450879
 30
0.0
 10
1333.374629640478
 20
1097.797476381018
 30
0.0
  0
ARC
  5
187F
330
A
100
AcDbEntity
  8
MODEL
100
AcDbCircle
 10
1430.170505173685
 20
967.6694181977196
 30
0.0
 40
16.10344318438816
100
AcDbArc
 50
49.99999379537157
 51
81.910451585806
  0
SPLINE
  5
1880
330
A
100
AcDbEntity
  8
HIDDEN
100
AcDbSpline
210
0.0
220
0.0
230
1.0
 70
     8
 71
     3
 72
    23
 73
    19
 74
     0
 42
0.000000001
 43
0.0000000001
 40
14.13802574842255
 40
14.13802574842255
 40
14.13802574842255
 40
14.13802574842255
 40
14.90544978595229
 40
16.76086399501985
 40
18.6164759872337
 40
20.47241589661571
 40
22.32877151771173
 40
24.18538826088299
 40
26.04176335437605
 40
27.89783818931545
 40
29.75317910649308
 40
31.60851116324141
 40
33.4639588251235
 40
35.32011886236491
 40
37.17669727999832
 40
39.03336299250263
 40
40.88963523865252
 40
41.89879426868146
 40
41.89879426868146
 40
41.89879426868146
 40
41.89879426868146
 10
1616.506490484378
 20
1086.037818409228
 30
0.0
 10
1616.506570117591
 20
1086.037829570797
 30
0.0
 10
1616.503369725378
 20
1086.001145661076
 30
0.0
 10
1616.477626595547
 20
1085.72387888598
 30
0.0
 10
1616.41011091354
 20
1085.016624988516
 30
0.0
 10
1616.307556739567
 20
1083.977031698298
 30
0.0
 10
1616.171076835743
 20
1082.649597635474
 30
0.0
 10
1616.002832495716
 20
1081.091252668941
 30
0.0
 10
1615.806483705891
 20
1079.368865045135
 30
0.0
 10
1615.587607121123
 20
1077.556339620419
 30
0.0
 10
1615.353901968078
 20
1075.730831304113
 30
0.0
 10
1615.11523585908
 20
1073.969617259233
 30
0.0
 10
1614.883297289211
 20
1072.346551399806
 30
0.0
 10
1614.67102044789
 20
1070.929665222543
 30
0.0
 10
1614.49153860038
 20
1069.778259571168
 30
0.0
 10
1614.356902693125
 20
1068.940555836852
 30
0.0
 10
1614.288862513254
 20
1068.525788148367
 30
0.0
 10
1614.271507643999
 20
1068.420546322786
 30
0.0
 10
1614.268403196914
 20
1068.401780042232
 30
0.0
  0
ARC
  5
1881
330
A
100
AcDbEntity
  8
HIDDEN
100
AcDbCircle
 10
1256.11255253435
 20
1119.800472485838
 30
0.0
 40
361.9758389731768
100
AcDbArc
 50
354.6476414747416
 51
356.4916790796709
  0
ARC
  5
1882
330
A
100
AcDbEntity
  8
HIDDEN
100
AcDbCircle
 10
1619.497049150296
 20
1085.755354576255
 30
0.0
 40
3.000000000000009
100
AcDbArc
 50
174.6476414747415
 51
262.820838239133
  0
SPLINE
  5
1883
330
A
100
AcDbEntity
  8
HIDDEN
100
AcDbSpline
210
0.0
220
0.0
230
1.0
 70
     8
 71
     7
 72
    56
 73
    48
 74
     0
 42
0.000000001
 43
0.0000000001
 40
0.0261071913969835
 40
0.0261071913969835
 40
0.0261071913969835
 40
0.0261071913969835
 40
0.0261071913969835
 40
0.0261071913969835
 40
0.0261071913969835
 40
0.0261071913969835
 40
0.1520440815783657
 40
0.1520440815783657
 40
0.1520440815783657
 40
0.1520440815783657
 40
0.1520440815783657
 40
0.2100000000000001
 40
0.2100000000000001
 40
0.2100000000000001
 40
0.2100000000000001
 40
0.2100000000000001
 40
0.3996000000000001
 40
0.3996000000000001
 40
0.3996000000000001
 40
0.3996000000000001
 40
0.3996000000000001
 40
0.4355131375773277
 40
0.4355131375773277
 40
0.4355131375773277
 40
0.4355131375773277
 40
0.4355131375773277
 40
0.5436960000000001
 40
0.5436960000000001
 40
0.5436960000000001
 40
0.5436960000000001
 40
0.5436960000000001
 40
0.6155038400000001
 40
0.6155038400000001
 40
0.6155038400000001
 40
0.6155038400000001
 40
0.6155038400000001
 40
0.6214492004249853
 40
0.6214492004249853
 40
0.6214492004249853
 40
0.6214492004249853
 40
0.6214492004249853
 40
0.8175041931123227
 40
0.8175041931123227
 40
0.8175041931123227
 40
0.8175041931123227
 40
0.8175041931123227
 40
0.823057506848296
 40
0.823057506848296
 40
0.823057506848296
 40
0.823057506848296
 40
0.823057506848296
 40
0.823057506848296
 40
0.823057506848296
 40
0.823057506848296
 10
1518.058686578649
 20
983.5703459128831
 30
0.0
 10
1520.966958824133
 20
983.98096137105
 30
0.0
 10
1523.88349478325
 20
984.4239124628753
 30
0.0
 10
1526.811015899689
 20
984.9030754574555
 30
0.0
 10
1529.732771546215
 20
985.420315674724
 30
0.0
 10
1532.620629007651
 20
985.9741644616456
 30
0.0
 10
1536.756094679195
 20
986.8326780654966
 30
0.0
 10
1540.748619951074
 20
987.7607030233535
 30
0.0
 10
1541.991609923159
 20
988.0599394750484
 30
0.0
 10
1543.218669814646
 20
988.3658349539232
 30
0.0
 10
1544.429728725735
 20
988.67837812888
 30
0.0
 10
1549.536273481163
 20
990.0422890656141
 30
0.0
 10
1554.371761578713
 20
991.5345302462988
 30
0.0
 10
1557.941148212681
 20
992.7613013581272
 30
0.0
 10
1561.44038366256
 20
994.0959268579286
 30
0.0
 10
1564.946002503263
 20
995.5811122233449
 30
0.0
 10
1569.190204212663
 20
997.6097298883492
 30
0.0
 10
1573.528718582746
 20
1000.056925517436
 30
0.0
 10
1574.222050241947
 20
1000.457771841422
 30
0.0
 10
1574.917765535919
 20
1000.870265436022
 30
0.0
 10
1575.615751534398
 20
1001.294922767289
 30
0.0
 10
1578.424649374526
 20
1003.049629122014
 30
0.0
 10
1581.262616908075
 20
1005.016117733544
 30
0.0
 10
1583.402234311171
 20
1006.625148414089
 30
0.0
 10
1585.536928092973
 20
1008.378486528401
 30
0.0
 10
1587.646854373364
 20
1010.283993244134
 30
0.0
 10
1591.081124488675
 20
1013.710586341945
 30
0.0
 10
1594.336461507569
 20
1017.551287288391
 30
0.0
 10
1595.601203358782
 20
1019.148178363819
 30
0.0
 10
1596.826900761483
 20
1020.807265078154
 30
0.0
 10
1598.009437575295
 20
1022.525014897366
 30
0.0
 10
1599.240011012901
 20
1024.443961404139
 30
0.0
 10
1600.414508844248
 20
1026.421575984258
 30
0.0
 10
1600.503987345582
 20
1026.573133818446
 30
0.0
 10
1600.593135970003
 20
1026.725029627464
 30
0.0
 10
1600.68195380023
 20
1026.877260875075
 30
0.0
 10
1603.688371847528
 20
1032.060800406118
 30
0.0
 10
1606.311008889787
 20
1037.625684977634
 30
0.0
 10
1608.46612876332
 20
1043.29461670686
 30
0.0
 10
1610.268762898416
 20
1049.133366716556
 30
0.0
 10
1611.772703801146
 20
1055.084535879863
 30
0.0
 10
1613.060058853039
 20
1061.280146515227
 30
0.0
 10
1614.122599092027
 20
1067.526777407402
 30
0.0
 10
1614.151697153661
 20
1067.698879386448
 30
0.0
 10
1614.180626429682
 20
1067.871018923951
 30
0.0
 10
1614.209387807258
 20
1068.043195456373
 30
0.0
 10
1614.237982168946
 20
1068.215408428413
 30
0.0
 10
1614.266410392683
 20
1068.387657292918
 30
0.0
  0
ARC
  5
1884
330
A
100
AcDbEntity
  8
MODEL
100
AcDbCircle
 10
1617.22636801216
 20
1067.899138213542
 30
0.0
 40
3.000000000000005
100
AcDbArc
 50
82.82083823932585
 51
170.6282392241637
  0
ARC
  5
1885
330
A
100
AcDbEntity
  8
MODEL
100
AcDbCircle
 10
1590.647824645573
 20
963.673208401909
 30
0.0
 40
3.000000000000002
100
AcDbArc
 50
269.9999937955502
 51
330.0002444845498
  0
ARC
  5
1887
330
A
100
AcDbEntity
  8
MODEL
100
AcDbCircle
 10
1365.094837203683
 20
963.6732328273351
 30
0.0
 40
3.000000000000008
100
AcDbArc
 50
269.9999937955502
 51
307.4999937954697
  0
ARC
  5
1888
330
A
100
AcDbEntity
  8
MODEL
100
AcDbCircle
 10
1310.165744893823
 20
1031.989667480128
 30
0.0
 40
6.000000000000012
100
AcDbArc
 50
3.18623201436235
 51
92.84334788819146
  0
ARC
  5
1889
330
A
100
AcDbEntity
  8
MODEL
100
AcDbCircle
 10
1640.627906237572
 20
1031.989631693951
 30
0.0
 40
6.000000000000003
100
AcDbArc
 50
87.1566397025352
 51
176.8137555763146
  0
SPLINE
  5
188A
330
A
100
AcDbEntity
  8
MODEL
100
AcDbSpline
210
0.0
220
0.0
230
1.0
 70
     8
 71
     3
 72
     8
 73
     4
 74
     0
 42
0.000000001
 43
0.0000000001
 40
0.0
 40
0.0
 40
0.0
 40
0.0
 40
0.7451419693747662
 40
0.7451419693747662
 40
0.7451419693747662
 40
0.7451419693747662
 10
1658.566170382663
 20
1037.173201046941
 30
0.0
 10
1652.680103964797
 20
1037.173201684351
 30
0.0
 10
1646.805592340307
 20
1037.690201739093
 30
0.0
 10
1640.925540030791
 20
1037.982244990764
 30
0.0
  0
SPLINE
  5
188B
102
{ACAD_REACTORS
330
1B9F
330
1BAE
102
}
330
A
100
AcDbEntity
  8
MODEL
100
AcDbSpline
210
0.0
220
0.0
230
1.0
 70
     8
 71
     3
 72
     8
 73
     4
 74
     0
 42
0.000000001
 43
0.0000000001
 40
0.0
 40
0.0
 40
0.0
 40
0.0
 40
0.7451419693747323
 40
0.7451419693747323
 40
0.7451419693747323
 40
0.7451419693747323
 10
1292.227481871406
 20
1037.173240718233
 30
0.0
 10
1298.113548289269
 20
1037.173240080823
 30
0.0
 10
1303.988060025732
 20
1037.690238863249
 30
0.0
 10
1309.868112398502
 20
1037.982280841401
 30
0.0
  0
SPLINE
  5
188C
330
A
100
AcDbEntity
  8
HIDDEN
100
AcDbSpline
210
0.0
220
0.0
230
1.0
 70
     8
 71
     4
 72
    10
 73
     5
 74
     0
 42
0.000000001
 43
0.0000000001
 40
0.0
 40
0.0
 40
0.0
 40
0.0
 40
0.0
 40
1.0
 40
1.0
 40
1.0
 40
1.0
 40
1.0
 10
1315.396833708463
 20
1107.182750598597
 30
0.0
 10
1303.629319702174
 20
1107.182751872916
 30
0.0
 10
1301.214816022311
 20
1107.309424329428
 30
0.0
 10
1300.807253533202
 20
1112.173239789121
 30
0.0
 10
1290.396834248891
 20
1112.173240916477
 30
0.0
  0
ARC
  5
188D
330
A
100
AcDbEntity
  8
MODEL
100
AcDbCircle
 10
1292.227482521154
 20
1043.173240718235
 30
0.0
 40
5.999999999999992
100
AcDbArc
 50
182.0354973015853
 51
269.9999937951333
  0
ARC
  5
188E
330
A
100
AcDbEntity
  8
MODEL
100
AcDbCircle
 10
1658.566171032413
 20
1043.173201046941
 30
0.0
 40
5.999999999999964
100
AcDbArc
 50
269.9996835640976
 51
357.9644964938018
  0
LINE
  5
188F
330
A
100
AcDbEntity
  8
MODEL
100
AcDbLine
 10
1590.647824320698
 20
960.673208401909
 30
0.0
 11
1587.142227000159
 21
960.6732087815349
 31
0.0
  0
LINE
  5
1890
330
A
100
AcDbEntity
  8
MODEL
100
AcDbLine
 10
1365.094836878808
 20
960.6732328273351
 30
0.0
 11
1360.145811364796
 21
960.6732333632713
 31
0.0
  0
ARC
  5
1892
330
A
100
AcDbEntity
  8
MODEL
100
AcDbCircle
 10
1344.89473920051
 20
1603.812763250052
 30
0.0
 40
686.7420950699401
100
AcDbArc
 50
284.4649301413635
 51
290.4071429443779
  0
ARC
  5
1893
330
A
100
AcDbEntity
  8
MODEL
100
AcDbCircle
 10
1587.142294035103
 20
952.6729939050324
 30
0.0
 40
8.000214876783197
100
AcDbArc
 50
90.0004800895629
 51
110.3966551556974
  0
ARC
  5
1894
330
A
100
AcDbEntity
  8
MODEL
100
AcDbCircle
 10
1518.931091978043
 20
929.1564363165376
 30
0.0
 40
10.00018988432852
100
AcDbArc
 50
104.4586021491266
 51
152.4305080375971
  0
ARC
  5
1895
330
A
100
AcDbEntity
  8
MODEL
100
AcDbCircle
 10
1507.406829096223
 20
935.1736006569322
 30
0.0
 40
3.000383249768708
100
AcDbArc
 50
270.0044361490535
 51
332.4265048439846
  0
LINE
  5
189D
102
{ACAD_REACTORS
330
1BAE
102
}
330
A
100
AcDbEntity
  8
MODEL
100
AcDbLine
 10
1334.357415461628
 20
962.1732361559311
 30
0.0
 11
1339.64782448313
 21
962.1732355830259
 31
0.0
  0
LINE
  5
189E
330
A
100
AcDbEntity
  8
MODEL
100
AcDbLine
 10
1611.137486395953
 20
962.1732061830576
 30
0.0
 11
1616.43622054874
 21
962.173205609251
 31
0.0
  0
SPLINE
  5
189F
330
A
100
AcDbEntity
  8
MODEL
100
AcDbSpline
210
0.0
220
0.0
230
1.0
 70
     8
 71
     3
 72
     8
 73
     4
 74
     0
 42
0.000000001
 43
0.0000000001
 40
0.0252841461256886
 40
0.0252841461256886
 40
0.0252841461256886
 40
0.0252841461256886
 40
0.9361258277152088
 40
0.9361258277152088
 40
0.9361258277152088
 40
0.9361258277152088
 10
1619.190816995352
 20
963.984845307778
 30
0.0
 10
1628.595868368148
 20
985.7855719090735
 30
0.0
 10
1633.352184512462
 20
1009.239837511544
 30
0.0
 10
1634.637181415331
 20
1032.323122479735
 30
0.0
  0
SPLINE
  5
18A0
330
A
100
AcDbEntity
  8
MODEL
100
AcDbSpline
210
0.0
220
0.0
230
1.0
 70
     8
 71
     3
 72
     8
 73
     4
 74
     0
 42
0.000000001
 43
0.0000000001
 40
0.0252841461258731
 40
0.0252841461258731
 40
0.0252841461258731
 40
0.0252841461258731
 40
0.936125827715375
 40
0.936125827715375
 40
0.936125827715375
 40
0.936125827715375
 10
1331.602819407387
 20
963.9848764510557
 30
0.0
 10
1322.197772756247
 20
985.785605089322
 30
0.0
 10
1317.441461691723
 20
1009.239871721927
 30
0.0
 10
1316.156469788292
 20
1032.323156968426
 30
0.0
  0
ARC
  5
18A5
330
A
100
AcDbEntity
  8
MODEL
100
AcDbCircle
 10
1334.3574157865
 20
965.1732361559357
 30
0.0
 40
2.999999999999972
100
AcDbArc
 50
203.3358377781604
 51
269.9999937953418
  0
ARC
  5
18A6
330
A
100
AcDbEntity
  8
MODEL
100
AcDbCircle
 10
1616.436220873616
 20
965.1732056092501
 30
0.0
 40
3.000000000000028
100
AcDbArc
 50
269.9999937953418
 51
336.6641498126716
  0
LINE
  5
18A7
330
A
100
AcDbEntity
  8
MODEL
100
AcDbLine
 10
1286.231268440643
 20
1042.960128774175
 30
0.0
 11
1285.762962761771
 21
1056.136589239719
 31
0.0
  0
ARC
  5
18A8
330
A
100
AcDbEntity
  8
MODEL
100
AcDbCircle
 10
1279.766748681262
 20
1055.923477295658
 30
0.0
 40
6.000000000000004
100
AcDbArc
 50
2.035497301793836
 51
74.42386405555763
  0
ARC
  5
18A9
330
A
100
AcDbEntity
  8
MODEL
100
AcDbCircle
 10
1282.988972289061
 20
1067.482771176398
 30
0.0
 40
5.99999999999999
100
AcDbArc
 50
182.0354998061231
 51
254.4238640553501
  0
LINE
  5
18AA
330
A
100
AcDbEntity
  8
MODEL
100
AcDbLine
 10
1276.992758217869
 20
1067.269658970236
 30
0.0
 11
1275.764869305992
 21
1101.818054408491
 31
0.0
  0
LINE
  5
18AB
102
{ACAD_REACTORS
330
1B9F
102
}
330
A
100
AcDbEntity
  8
MODEL
100
AcDbLine
 10
1290.396834248891
 20
1112.173240916477
 30
0.0
 11
1285.758560507561
 21
1112.173241418762
 31
0.0
  0
ARC
  5
18AC
330
A
100
AcDbEntity
  8
MODEL
100
AcDbCircle
 10
1285.758559424648
 20
1102.173241418763
 30
0.0
 40
10.0
100
AcDbArc
 50
89.99999379534177
 51
182.0354998058103
  0
LINE
  5
18AD
330
A
100
AcDbEntity
  8
HIDDEN
100
AcDbLine
 10
1323.39354304986
 20
1107.182749731267
 30
0.0
 11
1315.396833708465
 21
1107.182750598598
 31
0.0
  0
LINE
  5
18AE
330
A
100
AcDbEntity
  8
HIDDEN
100
AcDbLine
 10
1451.693552099506
 20
970.6309875150505
 30
0.0
 11
1440.521600261774
 21
980.0053702432692
 31
0.0
  0
LINE
  5
18AF
330
A
100
AcDbEntity
  8
MODEL
100
AcDbLine
 10
1617.601285203901
 20
1070.875618870179
 30
0.0
 11
1619.587045853844
 21
1070.625492666709
 31
0.0
  0
LINE
  5
18B0
330
A
100
AcDbEntity
  8
HIDDEN
100
AcDbLine
 10
1621.107456738754
 20
1082.528802618254
 30
0.0
 11
1619.122131958556
 21
1082.778873919617
 31
0.0
  0
ARC
  5
18B1
330
A
100
AcDbEntity
  8
MODEL
100
AcDbCircle
 10
299.2665732261048
 20
1102.17322896922
 30
0.0
 40
10.0
100
AcDbArc
 50
90.0
 51
182.0355060104753
  0
LINE
  5
18B2
330
A
100
AcDbEntity
  8
MODEL
100
AcDbLine
 10
290.5007757990788
 20
1067.269645571432
 30
0.0
 11
289.2728831459117
 21
1101.818040876718
 31
0.0
  0
ARC
  5
18B3
330
A
100
AcDbEntity
  8
MODEL
100
AcDbCircle
 10
296.4969898471954
 20
1067.482758426933
 30
0.0
 40
5.999999999999992
100
AcDbArc
 50
182.03550601071
 51
254.4238702599991
  0
ARC
  5
18B4
330
A
100
AcDbEntity
  8
MODEL
100
AcDbCircle
 10
293.2747674911661
 20
1055.923464197254
 30
0.0
 40
6.000000000000009
100
AcDbArc
 50
2.035503506432837
 51
74.4238702602156
  0
LINE
  5
18B5
330
A
100
AcDbEntity
  8
MODEL
100
AcDbLine
 10
299.7392886543657
 20
1042.960116375821
 30
0.0
 11
299.270981548596
 21
1056.136576790652
 31
0.0
  0
ARC
  5
18B6
330
A
100
AcDbEntity
  8
MODEL
100
AcDbCircle
 10
305.7355027117974
 20
1043.173228969219
 30
0.0
 40
6.00000000000002
100
AcDbArc
 50
182.0355035062242
 51
269.9999999997916
  0
ARC
  5
18B8
330
A
100
AcDbEntity
  8
MODEL
100
AcDbCircle
 10
323.6737662611449
 20
1031.989658291746
 30
0.0
 40
6.000000000000006
100
AcDbArc
 50
3.186238070449444
 51
59.76042450190413
  0
SPLINE
  5
18B9
330
A
100
AcDbEntity
  8
MODEL
100
AcDbSpline
210
0.0
220
0.0
230
1.0
 70
     8
 71
     3
 72
     8
 73
     4
 74
     0
 42
0.000000001
 43
0.0000000001
 40
0.0252841461256886
 40
0.0252841461256886
 40
0.0252841461256886
 40
0.0252841461256886
 40
0.9361258356404143
 40
0.9361258356404143
 40
0.9361258356404143
 40
0.9361258356404143
 10
345.1108481734464
 20
963.9848689660466
 30
0.0
 10
335.7057990796438
 20
985.7855967755145
 30
0.0
 10
330.9494854742879
 20
1009.239863111515
 30
0.0
 10
329.6644911203621
 20
1032.323148413252
 30
0.0
  0
ARC
  5
18BA
330
A
100
AcDbEntity
  8
MODEL
100
AcDbCircle
 10
347.8654444238709
 20
965.1732289692234
 30
0.0
 40
3.000000000000028
100
AcDbArc
 50
203.335843982756
 51
270.0
  0
LINE
  5
18BB
330
A
100
AcDbEntity
  8
MODEL
100
AcDbLine
 10
347.8654444238709
 20
962.1732289692206
 30
0.0
 11
353.1558534453734
 21
962.1732289692206
 31
0.0
  0
ARC
  5
18C2
330
A
100
AcDbEntity
  8
MODEL
100
AcDbCircle
 10
373.6538404894782
 20
963.6732289692206
 30
0.0
 40
3.000000000000002
100
AcDbArc
 50
209.9996006101455
 51
269.9999999997916
  0
SPLINE
  5
18C8
330
A
100
AcDbEntity
  8
HIDDEN
100
AcDbSpline
210
0.0
220
0.0
230
1.0
 70
     8
 71
     7
 72
    61
 73
    53
 74
     0
 42
0.000000001
 43
0.0000000001
 40
0.0424739531593376
 40
0.0424739531593376
 40
0.0424739531593376
 40
0.0424739531593376
 40
0.0424739531593376
 40
0.0424739531593376
 40
0.0424739531593376
 40
0.0424739531593376
 40
0.1440959999999999
 40
0.1440959999999999
 40
0.1440959999999999
 40
0.1440959999999999
 40
0.1440959999999999
 40
0.1824958068876773
 40
0.1824958068876773
 40
0.1824958068876773
 40
0.1824958068876773
 40
0.1824958068876773
 40
0.3785507995750147
 40
0.3785507995750147
 40
0.3785507995750147
 40
0.3785507995750147
 40
0.3785507995750147
 40
0.3844961599999999
 40
0.3844961599999999
 40
0.3844961599999999
 40
0.3844961599999999
 40
0.3844961599999999
 40
0.4563039999999999
 40
0.4563039999999999
 40
0.4563039999999999
 40
0.4563039999999999
 40
0.4563039999999999
 40
0.5644868624226723
 40
0.5644868624226723
 40
0.5644868624226723
 40
0.5644868624226723
 40
0.5644868624226723
 40
0.6003999999999999
 40
0.6003999999999999
 40
0.6003999999999999
 40
0.6003999999999999
 40
0.6003999999999999
 40
0.7899999999999999
 40
0.7899999999999999
 40
0.7899999999999999
 40
0.7899999999999999
 40
0.7899999999999999
 40
0.8479559184216343
 40
0.8479559184216343
 40
0.8479559184216343
 40
0.8479559184216343
 40
0.8479559184216343
 40
0.9849135374616298
 40
0.9849135374616298
 40
0.9849135374616298
 40
0.9849135374616298
 40
0.9849135374616298
 40
0.9849135374616298
 40
0.9849135374616298
 40
0.9849135374616298
 10
346.889948497379
 20
1097.821050846947
 30
0.0
 10
347.094447906823
 20
1094.623818428282
 30
0.0
 10
347.3330750513669
 20
1091.429168273884
 30
0.0
 10
347.6107309355712
 20
1088.237916121005
 30
0.0
 10
347.932848543518
 20
1085.050983587408
 30
0.0
 10
348.3055303537849
 20
1081.869466420538
 30
0.0
 10
348.8982996766081
 20
1077.495062391146
 30
0.0
 10
349.6156337499215
 20
1073.136827119907
 30
0.0
 10
349.8221763674665
 20
1071.942923559216
 30
0.0
 10
350.0389975036433
 20
1070.750431671351
 30
0.0
 10
350.2665740632656
 20
1069.559470845696
 30
0.0
 10
351.7248051209099
 20
1062.29807617205
 30
0.0
 10
353.6224854321426
 20
1055.104393113762
 30
0.0
 10
355.587280884145
 20
1049.156431065595
 30
0.0
 10
358.0201080055376
 20
1043.308217525239
 30
0.0
 10
361.0426477386536
 20
1037.615758711997
 30
0.0
 10
364.8715002786412
 20
1032.046294828982
 30
0.0
 10
369.4684430390535
 20
1026.878173584174
 30
0.0
 10
369.6044084223904
 20
1026.726413450577
 30
0.0
 10
369.7410407837524
 20
1026.575006036955
 30
0.0
 10
369.8783408309846
 20
1026.423953814502
 30
0.0
 10
371.6826860658293
 20
1024.453175493811
 30
0.0
 10
373.6014359832916
 20
1022.543970921291
 30
0.0
 10
375.472234979683
 20
1020.837518735854
 30
0.0
 10
377.441923573213
 20
1019.191357872536
 30
0.0
 10
379.5095116781758
 20
1017.607891366147
 30
0.0
 10
384.9332693660017
 20
1013.798759591826
 30
0.0
 10
390.948247010605
 20
1010.390902012506
 30
0.0
 10
394.7699672205708
 20
1008.48782307359
 30
0.0
 10
398.787789516713
 20
1006.724610906788
 30
0.0
 10
402.9923320612579
 20
1005.092416850687
 30
0.0
 10
408.8242007399313
 20
1003.080149173187
 30
0.0
 10
414.9345182725665
 20
1001.266271914476
 30
0.0
 10
416.4740745512609
 20
1000.826169348994
 30
0.0
 10
418.0296417968639
 20
1000.397685424551
 30
0.0
 10
419.6005020308221
 20
999.9804697028292
 30
0.0
 10
429.5557914466008
 20
997.4291730322009
 30
0.0
 10
440.0523604644131
 20
995.2946313956006
 30
0.0
 10
449.1425722321437
 20
993.7433713114301
 30
0.0
 10
458.3529168653859
 20
992.3852762558311
 30
0.0
 10
467.5379695721949
 20
991.180170751056
 30
0.0
 10
479.3474426252887
 20
989.7681502579496
 30
0.0
 10
490.8340283099333
 20
988.5242957800981
 30
0.0
 10
493.5040975293832
 20
988.2416001685656
 30
0.0
 10
496.1541383418626
 20
987.9667466039623
 30
0.0
 10
498.7840245986936
 20
987.6990850499496
 30
0.0
 10
507.5633818629922
 20
986.8209240307947
 30
0.0
 10
516.1396241859493
 20
986.0096544626592
 30
0.0
 10
522.0847706646118
 20
985.4642730225144
 30
0.0
 10
527.9906890283
 20
984.9355254610816
 30
0.0
 10
533.9113289993038
 20
984.4160788979868
 30
0.0
 10
539.8701841588427
 20
983.9019712303802
 30
0.0
 10
545.8464991598594
 20
983.3932395616671
 30
0.0
  0
ARC
  5
18C9
330
A
100
AcDbEntity
  8
HIDDEN
100
AcDbCircle
 10
336.9103412407476
 20
1097.182741358228
 30
0.0
 40
10.00000000000005
100
AcDbArc
 50
3.659732043589451
 51
89.99999999968735
  0
SPLINE
  5
18CA
330
A
100
AcDbEntity
  8
HIDDEN
100
AcDbSpline
210
0.0
220
0.0
230
1.0
 70
     8
 71
     4
 72
    10
 73
     5
 74
     0
 42
0.000000001
 43
0.0000000001
 40
0.0
 40
0.0
 40
0.0
 40
0.0
 40
0.0
 40
1.0
 40
1.0
 40
1.0
 40
1.0
 40
1.0
 10
303.9048469674308
 20
1112.173228969219
 30
0.0
 10
314.3152662517423
 20
1112.173228969219
 30
0.0
 10
314.7228292675609
 20
1107.30941355366
 30
0.0
 10
317.1373329611415
 20
1107.18274135862
 30
0.0
 10
328.9048469674308
 20
1107.18274135862
 30
0.0
  0
LINE
  5
18CB
330
A
100
AcDbEntity
  8
HIDDEN
100
AcDbLine
 10
336.9103412407658
 20
1107.182741358228
 30
0.0
 11
328.9048469674299
 21
1107.18274135862
 31
0.0
  0
LINE
  5
18CC
330
A
100
AcDbEntity
  8
MODEL
100
AcDbLine
 10
299.2665732261048
 20
1112.17322896922
 30
0.0
 11
303.9048469674299
 21
1112.173228969218
 31
0.0
  0
ARC
  5
18CD
330
A
100
AcDbEntity
  8
HIDDEN
100
AcDbCircle
 10
544.6059724164224
 20
968.8201767037747
 30
0.0
 40
14.62576725034449
100
AcDbArc
 50
49.99999499102238
 51
85.13444698114931
  0
LINE
  5
18E5
330
A
100
AcDbEntity
  8
MODEL
100
AcDbLine
 10
305.7355027117974
 20
1037.173221975396
 30
0.0
 11
326.6954670662535
 21
1037.173221182693
 31
0.0
  0
ARC
  5
18E6
330
A
100
AcDbEntity
  8
HIDDEN
100
AcDbCircle
 10
1449.765189021581
 20
968.3328543945186
 30
0.0
 40
3.0
100
AcDbArc
 50
0.9999999999757105
 51
49.99999379525546
  0
ARC
  5
18FC
330
A
100
AcDbEntity
  8
HIDDEN
100
AcDbCircle
 10
1520.155720239883
 20
968.7176542435714
 30
0.0
 40
15.0
100
AcDbArc
 50
98.03640313031977
 51
130.0000000000253
  0
SPLINE
  5
18FD
330
A
100
AcDbEntity
  8
HIDDEN
100
AcDbSpline
210
0.0
220
0.0
230
1.0
 70
     8
 71
     3
 72
    21
 73
    17
 74
     0
 42
0.000000001
 43
0.0000000001
 40
0.0
 40
0.0
 40
0.0
 40
0.0
 40
6.438291682551339
 40
19.31487504765402
 40
28.62545180463964
 40
37.47012695556715
 40
54.86134528561729
 40
64.35342448354208
 40
74.91207310320857
 40
86.61358124393163
 40
99.21571205202471
 40
112.3185618943597
 40
125.5873153682417
 40
138.8427599479123
 40
147.6227056669335
 40
152.0126785264441
 40
152.0126785264441
 40
152.0126785264441
 40
152.0126785264441
 10
1518.055472207495
 20
975.4924706039787
 30
0.0
 10
1520.181485906563
 20
975.7853853720048
 30
0.0
 10
1526.551271352603
 20
976.7240502720574
 30
0.0
 10
1535.948470325532
 20
978.4206134081664
 30
0.0
 10
1546.028494446708
 20
980.7583741257945
 30
0.0
 10
1557.42585505556
 20
984.0059928790811
 30
0.0
 10
1568.595677908418
 20
988.2677400721254
 30
0.0
 10
1579.619155665702
 20
994.157952851841
 30
0.0
 10
1588.372264951601
 20
1000.15659131227
 30
0.0
 10
1596.997204176608
 20
1008.010018941404
 30
0.0
 10
1604.816037229421
 20
1017.793080808069
 30
0.0
 10
1611.261047832289
 20
1029.128592411626
 30
0.0
 10
1616.183674160608
 20
1041.421351068123
 30
0.0
 10
1619.370099316518
 20
1052.766370478289
 30
0.0
 10
1621.177528158684
 20
1061.393228717669
 30
0.0
 10
1621.934490064697
 20
1065.71767403832
 30
0.0
 10
1622.172260847375
 20
1067.161551810978
 30
0.0
  0
ARC
  5
18FE
330
A
100
AcDbEntity
  8
HIDDEN
100
AcDbCircle
 10
1256.11255253435
 20
1119.800472485838
 30
0.0
 40
369.9758389731766
100
AcDbArc
 50
354.6376821367291
 51
356.3694625800397
  0
SPLINE
  5
18FF
330
A
100
AcDbEntity
  8
HIDDEN
100
AcDbSpline
210
0.0
220
0.0
230
1.0
 70
     8
 71
     3
 72
    10
 73
     6
 74
     0
 42
0.000000001
 43
0.0000000001
 40
0.0
 40
0.0
 40
0.0
 40
0.0
 40
4.105884551014707
 40
8.211769102029416
 40
12.31765365304412
 40
12.31765365304412
 40
12.31765365304412
 40
12.31765365304412
 10
1653.620851508457
 20
1045.285144111457
 30
0.0
 10
1652.25338810433
 20
1045.341597131821
 30
0.0
 10
1649.519841034747
 20
1045.487924628745
 30
0.0
 10
1645.422049036023
 20
1045.745249060042
 30
0.0
 10
1642.689328330393
 20
1045.904504386879
 30
0.0
 10
1641.322385088416
 20
1045.972396053181
 30
0.0
  0
ARC
  5
1900
330
A
100
AcDbEntity
  8
HIDDEN
100
AcDbCircle
 10
1640.627906237572
 20
1031.989631693951
 30
0.0
 40
14.0000000000007
100
AcDbArc
 50
87.15663970253539
 51
176.8137555763148
  0
SPLINE
  5
1901
330
A
100
AcDbEntity
  8
HIDDEN
100
AcDbSpline
210
0.0
220
0.0
230
1.0
 70
     8
 71
     3
 72
    12
 73
     8
 74
     0
 42
0.000000001
 43
0.0000000001
 40
0.0
 40
0.0
 40
0.0
 40
0.0
 40
6.547719438862889
 40
19.64315831658867
 40
39.25059180208153
 40
52.25291522570367
 40
58.75407693751474
 40
58.75407693751474
 40
58.75407693751474
 40
58.75407693751474
 10
1615.126201223334
 20
975.351807523331
 30
0.0
 10
1615.883761224503
 20
977.3986901246367
 30
0.0
 10
1618.038765202366
 20
983.5828903287052
 30
0.0
 10
1621.656307214725
 20
996.1796799536155
 30
0.0
 10
1624.58238557905
 20
1011.151654664759
 30
0.0
 10
1626.073851435044
 20
1024.118188434365
 30
0.0
 10
1626.529099567469
 20
1030.604072925206
 30
0.0
 10
1626.649548319011
 20
1032.76777686078
 30
0.0
  0
ARC
  5
1902
330
A
100
AcDbEntity
  8
HIDDEN
100
AcDbCircle
 10
1605.19606586725
 20
964.336834112331
 30
0.0
 40
11.00000000000001
100
AcDbArc
 50
59.4472239070916
 51
86.9999937951703
  0
LINE
  5
1903
330
A
100
AcDbEntity
  8
HIDDEN
100
AcDbLine
 10
1605.771762575491
 20
975.321758932289
 30
0.0
 11
1597.343146298589
 21
975.7634849090432
 31
0.0
  0
ARC
  5
1904
330
A
100
AcDbEntity
  8
HIDDEN
100
AcDbCircle
 10
1596.767449590347
 20
964.778560089087
 30
0.0
 40
10.99999999999989
100
AcDbArc
 50
86.99999379537901
 51
151.3752024320828
  0
ARC
  5
1905
330
A
100
AcDbEntity
  8
MODEL
100
AcDbCircle
 10
1587.142294035103
 20
952.6729939050324
 30
0.0
 40
16.00021487678314
100
AcDbArc
 50
98.05903683342683
 51
110.3997343766106
  0
ARC
  5
1906
330
A
100
AcDbEntity
  8
HIDDEN
100
AcDbCircle
 10
1344.89473920051
 20
1603.812763250052
 30
0.0
 40
678.74209506994
100
AcDbArc
 50
284.525254044242
 51
290.4071939712528
  0
ARC
  5
1907
330
A
100
AcDbEntity
  8
HIDDEN
100
AcDbCircle
 10
1653.744595168798
 20
1048.282590942766
 30
0.0
 40
3.0
100
AcDbArc
 50
267.6359995031541
 51
357.9644964935932
  0
ARC
  5
1908
330
A
100
AcDbEntity
  8
MODEL
100
AcDbCircle
 10
1619.212128662103
 20
1067.649012010071
 30
0.0
 40
3.0
100
AcDbArc
 50
350.6487353224463
 51
82.82083823906301
  0
ARC
  5
1909
330
A
100
AcDbEntity
  8
HIDDEN
100
AcDbCircle
 10
1621.482373930495
 20
1085.505283274892
 30
0.0
 40
3.0
100
AcDbArc
 50
262.8208382393431
 51
354.637682136523
  0
ARC
  5
190A
330
A
100
AcDbEntity
  8
HIDDEN
100
AcDbCircle
 10
1628.33987400895
 20
1096.182733271638
 30
0.0
 40
3.0
100
AcDbArc
 50
90.00000000041689
 51
176.3694625800398
  0
ARC
  5
190B
330
A
100
AcDbEntity
  8
HIDDEN
100
AcDbCircle
 10
1612.312711185506
 20
976.3930922140039
 30
0.0
 40
3.0
100
AcDbArc
 50
239.447223907191
 51
339.6902713731791
  0
ARC
  5
190C
330
A
100
AcDbEntity
  8
MODEL
100
AcDbCircle
 10
1584.478589569847
 20
971.4855653370755
 30
0.0
 40
3.0
100
AcDbArc
 50
278.0590368335336
 51
331.3752024323182
  0
ARC
  5
190D
330
A
100
AcDbEntity
  8
HIDDEN
100
AcDbCircle
 10
1518.464933761013
 20
972.5205450916942
 30
0.0
 40
3.0
100
AcDbArc
 50
97.84462535285395
 51
129.9999999999069
  0
ARC
  5
190E
330
A
100
AcDbEntity
  8
HIDDEN
100
AcDbCircle
 10
1502.587473300368
 20
995.167034007623
 30
0.0
 40
50.0
100
AcDbArc
 50
270.0
 51
284.5252540441686
  0
SPLINE
  5
190F
330
A
100
AcDbEntity
  8
HIDDEN
100
AcDbSpline
210
0.0
220
0.0
230
1.0
 70
     8
 71
     3
 72
    16
 73
    12
 74
     0
 42
0.000000001
 43
0.0000000001
 40
0.0
 40
0.0
 40
0.0
 40
0.0
 40
0.5109766462370411
 40
1.532929938711123
 40
4.286067433878258
 40
7.812429708375211
 40
11.53208664659859
 40
14.83021772651249
 40
17.15933766435468
 40
17.80942443931677
 40
18.13446782679781
 40
18.13446782679781
 40
18.13446782679781
 40
18.13446782679781
 10
1624.452323441997
 20
1085.081727022266
 30
0.0
 10
1624.436431480625
 20
1084.91214448154
 30
0.0
 10
1624.387907310635
 20
1084.403476354138
 30
0.0
 10
1624.249159003676
 20
1082.98153693956
 30
0.0
 10
1623.99684307953
 20
1080.560795805743
 30
0.0
 10
1623.616056156893
 20
1077.249485535601
 30
0.0
 10
1623.16836435057
 20
1073.763263612117
 30
0.0
 10
1622.727166151845
 20
1070.678948254211
 30
0.0
 10
1622.408769267676
 20
1068.610807286503
 30
0.0
 10
1622.230437915549
 20
1067.52392680706
 30
0.0
 10
1622.178818969586
 20
1067.203005022342
 30
0.0
 10
1622.161135660716
 20
1067.096110001654
 30
0.0
  0
SPLINE
  5
1911
330
A
100
AcDbEntity
  8
MODEL
100
AcDbSpline
210
0.0
220
0.0
230
1.0
 70
     8
 71
     7
 72
    16
 73
     8
 74
     0
 42
0.000000001
 43
0.0000000001
 40
0.0000000000000136
 40
0.0000000000000136
 40
0.0000000000000136
 40
0.0000000000000136
 40
0.0000000000000136
 40
0.0000000000000136
 40
0.0000000000000136
 40
0.0000000000000136
 40
0.9999999999999233
 40
0.9999999999999233
 40
0.9999999999999233
 40
0.9999999999999233
 40
0.9999999999999233
 40
0.9999999999999233
 40
0.9999999999999233
 40
0.9999999999999233
 10
873.904844781855
 20
1112.17324689089
 30
0.0
 10
873.9048452722946
 20
1112.17324664567
 30
0.0
 10
872.4361546316204
 20
1112.173246272052
 30
0.0
 10
869.4988856050959
 20
1112.173245790212
 30
0.0
 10
865.2735008638692
 20
1112.17324523612
 30
0.0
 10
860.1248206018472
 20
1112.173244657616
 30
0.0
 10
854.5148338488352
 20
1112.173244102977
 30
0.0
 10
848.9048469674244
 20
1112.173243612536
 30
0.0
  0
LINE
  5
1912
330
A
100
AcDbEntity
  8
MODEL
100
AcDbLine
 10
806.7539392316711
 20
962.1732470678623
 30
0.0
 11
826.6538479204137
 21
962.1732445085308
 31
0.0
  0
LINE
  5
1913
102
{ACAD_REACTORS
330
1B7F
102
}
330
A
100
AcDbEntity
  8
MODEL
100
AcDbLine
 10
878.5431198345195
 20
1112.17322896922
 30
0.0
 11
873.9048460931945
 21
1112.173228969218
 31
0.0
  0
LINE
  5
1914
330
A
100
AcDbEntity
  8
MODEL
100
AcDbLine
 10
840.8993518198586
 20
1107.182741358228
 30
0.0
 11
848.9048460931945
 21
1107.18274135862
 31
0.0
  0
SPLINE
  5
1915
330
A
100
AcDbEntity
  8
MODEL
100
AcDbSpline
210
0.0
220
0.0
230
1.0
 70
     8
 71
     4
 72
    10
 73
     5
 74
     0
 42
0.000000001
 43
0.0000000001
 40
0.0
 40
0.0
 40
0.0
 40
0.0
 40
0.0
 40
1.0
 40
1.0
 40
1.0
 40
1.0
 40
1.0
 10
873.9048460931936
 20
1112.173228969219
 30
0.0
 10
863.494426808882
 20
1112.173228969219
 30
0.0
 10
863.0868637930635
 20
1107.30941355366
 30
0.0
 10
860.6723600994828
 20
1107.18274135862
 30
0.0
 10
848.9048460931936
 20
1107.18274135862
 30
0.0
  0
ARC
  5
1916
330
A
100
AcDbEntity
  8
MODEL
100
AcDbCircle
 10
840.8993518198768
 20
1097.182741358228
 30
0.0
 40
10.00000000000005
100
AcDbArc
 50
90.00000000031267
 51
176.3402679564105
  0
ARC
  5
1919
330
A
100
AcDbEntity
  8
MODEL
100
AcDbCircle
 10
878.5431198345195
 20
1102.17322896922
 30
0.0
 40
10.0
100
AcDbArc
 50
357.9644939895248
 51
90.0
  0
LINE
  5
191A
330
A
100
AcDbEntity
  8
MODEL
100
AcDbLine
 10
887.3089172615455
 20
1067.269645571432
 30
0.0
 11
888.5368099147126
 21
1101.818040876718
 31
0.0
  0
ARC
  5
191B
330
A
100
AcDbEntity
  8
MODEL
100
AcDbCircle
 10
881.3127032134289
 20
1067.482758426933
 30
0.0
 40
5.999999999999992
100
AcDbArc
 50
285.576129740001
 51
357.96449398929
  0
ARC
  5
191C
330
A
100
AcDbEntity
  8
MODEL
100
AcDbCircle
 10
884.5349255694582
 20
1055.923464197254
 30
0.0
 40
6.000000000000009
100
AcDbArc
 50
105.5761297397844
 51
177.9644964935672
  0
LINE
  5
191D
330
A
100
AcDbEntity
  8
MODEL
100
AcDbLine
 10
878.0704044062586
 20
1042.960116375821
 30
0.0
 11
878.5387115120284
 21
1056.136576790652
 31
0.0
  0
ARC
  5
191E
330
A
100
AcDbEntity
  8
MODEL
100
AcDbCircle
 10
872.074190348827
 20
1043.173228969219
 30
0.0
 40
6.00000000000002
100
AcDbArc
 50
270.0000000002084
 51
357.9644964937758
  0
ARC
  5
1920
330
A
100
AcDbEntity
  8
MODEL
100
AcDbCircle
 10
854.1359267994794
 20
1031.989658291746
 30
0.0
 40
6.000000000000006
100
AcDbArc
 50
120.2395770623059
 51
176.8137619295506
  0
SPLINE
  5
1921
330
A
100
AcDbEntity
  8
MODEL
100
AcDbSpline
210
0.0
220
0.0
230
1.0
 70
     8
 71
     3
 72
     8
 73
     4
 74
     0
 42
0.000000001
 43
0.0000000001
 40
0.0252841461256886
 40
0.0252841461256886
 40
0.0252841461256886
 40
0.0252841461256886
 40
0.9361258356404143
 40
0.9361258356404143
 40
0.9361258356404143
 40
0.9361258356404143
 10
832.698844887178
 20
963.9848689660466
 30
0.0
 10
842.1038939809805
 20
985.7855967755145
 30
0.0
 10
846.8602075863364
 20
1009.239863111515
 30
0.0
 10
848.1452019402623
 20
1032.323148413252
 30
0.0
  0
ARC
  5
1922
330
A
100
AcDbEntity
  8
MODEL
100
AcDbCircle
 10
829.9442486367534
 20
965.1732289692234
 30
0.0
 40
3.000000000000028
100
AcDbArc
 50
270.0
 51
336.6641560172439
  0
LINE
  5
1923
330
A
100
AcDbEntity
  8
MODEL
100
AcDbLine
 10
829.9442486367534
 20
962.1732289692206
 30
0.0
 11
824.653839615251
 21
962.1732289692206
 31
0.0
  0
ARC
  5
192A
330
A
100
AcDbEntity
  8
MODEL
100
AcDbCircle
 10
804.1558525711462
 20
963.6732289692206
 30
0.0
 40
3.000000000000002
100
AcDbArc
 50
270.0000000002084
 51
330.000399131363
  0
LINE
  5
192B
330
A
100
AcDbEntity
  8
MODEL
100
AcDbLine
 10
799.2068270571363
 20
960.6732289692206
 30
0.0
 11
804.1558525711471
 21
960.6732289692206
 31
0.0
  0
LINE
  5
1943
330
A
100
AcDbEntity
  8
MODEL
100
AcDbLine
 10
872.074190348827
 20
1037.173221975396
 30
0.0
 11
851.1142258528564
 21
1037.173221100199
 31
0.0
  0
SPLINE
  5
1944
330
A
100
AcDbEntity
  8
HIDDEN
100
AcDbSpline
210
0.0
220
0.0
230
1.0
 70
     8
 71
     7
 72
    61
 73
    53
 74
     0
 42
0.000000001
 43
0.0000000001
 40
0.0424739531593376
 40
0.0424739531593376
 40
0.0424739531593376
 40
0.0424739531593376
 40
0.0424739531593376
 40
0.0424739531593376
 40
0.0424739531593376
 40
0.0424739531593376
 40
0.1440959999999999
 40
0.1440959999999999
 40
0.1440959999999999
 40
0.1440959999999999
 40
0.1440959999999999
 40
0.1824958068876773
 40
0.1824958068876773
 40
0.1824958068876773
 40
0.1824958068876773
 40
0.1824958068876773
 40
0.3785507995750147
 40
0.3785507995750147
 40
0.3785507995750147
 40
0.3785507995750147
 40
0.3785507995750147
 40
0.3844961599999999
 40
0.3844961599999999
 40
0.3844961599999999
 40
0.3844961599999999
 40
0.3844961599999999
 40
0.4563039999999999
 40
0.4563039999999999
 40
0.4563039999999999
 40
0.4563039999999999
 40
0.4563039999999999
 40
0.5644868624226723
 40
0.5644868624226723
 40
0.5644868624226723
 40
0.5644868624226723
 40
0.5644868624226723
 40
0.6003999999999999
 40
0.6003999999999999
 40
0.6003999999999999
 40
0.6003999999999999
 40
0.6003999999999999
 40
0.7899999999999999
 40
0.7899999999999999
 40
0.7899999999999999
 40
0.7899999999999999
 40
0.7899999999999999
 40
0.8479559184216343
 40
0.8479559184216343
 40
0.8479559184216343
 40
0.8479559184216343
 40
0.8479559184216343
 40
0.9849135374616298
 40
0.9849135374616298
 40
0.9849135374616298
 40
0.9849135374616298
 40
0.9849135374616298
 40
0.9849135374616298
 40
0.9849135374616298
 40
0.9849135374616298
 10
830.9197445632453
 20
1097.821050846947
 30
0.0
 10
830.7152451538013
 20
1094.623818428282
 30
0.0
 10
830.4766180092574
 20
1091.429168273884
 30
0.0
 10
830.1989621250532
 20
1088.237916121005
 30
0.0
 10
829.8768445171063
 20
1085.050983587408
 30
0.0
 10
829.5041627068395
 20
1081.869466420538
 30
0.0
 10
828.9113933840163
 20
1077.495062391146
 30
0.0
 10
828.1940593107029
 20
1073.136827119907
 30
0.0
 10
827.9875166931579
 20
1071.942923559216
 30
0.0
 10
827.7706955569811
 20
1070.750431671351
 30
0.0
 10
827.5431189973588
 20
1069.559470845696
 30
0.0
 10
826.0848879397145
 20
1062.29807617205
 30
0.0
 10
824.1872076284817
 20
1055.104393113762
 30
0.0
 10
822.2224121764793
 20
1049.156431065595
 30
0.0
 10
819.7895850550867
 20
1043.308217525239
 30
0.0
 10
816.7670453219707
 20
1037.615758711997
 30
0.0
 10
812.9381927819832
 20
1032.046294828982
 30
0.0
 10
808.3412500215709
 20
1026.878173584174
 30
0.0
 10
808.2052846382339
 20
1026.726413450577
 30
0.0
 10
808.068652276872
 20
1026.575006036955
 30
0.0
 10
807.9313522296397
 20
1026.423953814502
 30
0.0
 10
806.127006994795
 20
1024.453175493811
 30
0.0
 10
804.2082570773327
 20
1022.543970921291
 30
0.0
 10
802.3374580809414
 20
1020.837518735854
 30
0.0
 10
800.3677694874114
 20
1019.191357872536
 30
0.0
 10
798.3001813824485
 20
1017.607891366147
 30
0.0
 10
792.8764236946226
 20
1013.798759591826
 30
0.0
 10
786.8614460500194
 20
1010.390902012506
 30
0.0
 10
783.0397258400535
 20
1008.48782307359
 30
0.0
 10
779.0219035439113
 20
1006.724610906788
 30
0.0
 10
774.8173609993664
 20
1005.092416850687
 30
0.0
 10
768.9854923206931
 20
1003.080149173187
 30
0.0
 10
762.8751747880578
 20
1001.266271914476
 30
0.0
 10
761.3356185093635
 20
1000.826169348994
 30
0.0
 10
759.7800512637605
 20
1000.397685424551
 30
0.0
 10
758.2091910298022
 20
999.9804697028292
 30
0.0
 10
748.2539016140236
 20
997.4291730322009
 30
0.0
 10
737.7573325962112
 20
995.2946313956006
 30
0.0
 10
728.6671208284806
 20
993.7433713114301
 30
0.0
 10
719.4567761952385
 20
992.3852762558311
 30
0.0
 10
710.2717234884294
 20
991.180170751056
 30
0.0
 10
698.4622504353356
 20
989.7681502579496
 30
0.0
 10
686.9756647506911
 20
988.5242957800981
 30
0.0
 10
684.3055955312411
 20
988.2416001685656
 30
0.0
 10
681.6555547187618
 20
987.9667466039623
 30
0.0
 10
679.0256684619308
 20
987.6990850499496
 30
0.0
 10
670.2463111976322
 20
986.8209240307947
 30
0.0
 10
661.670068874675
 20
986.0096544626592
 30
0.0
 10
655.7249223960125
 20
985.4642730225144
 30
0.0
 10
649.8190040323243
 20
984.9355254610816
 30
0.0
 10
643.8983640613205
 20
984.4160788979868
 30
0.0
 10
637.9395089017817
 20
983.9019712303802
 30
0.0
 10
631.963193900765
 20
983.3932395616671
 30
0.0
  0
LINE
  5
1946
330
A
100
AcDbEntity
  8
HIDDEN
100
AcDbLine
 10
610.9581568291178
 20
935.2255881164892
 30
0.0
 11
611.536957378783
 21
968.3852155275113
 31
0.0
  0
LINE
  5
1947
330
A
100
AcDbEntity
  8
MODEL
100
AcDbLine
 10
623.1444682261363
 20
934.9117648649308
 30
0.0
 11
625.3983034050981
 21
960.6732577509584
 31
0.0
  0
LINE
  5
1948
102
{ACAD_REACTORS
330
1B7F
102
}
330
A
100
AcDbEntity
  8
MODEL
100
AcDbLine
 10
613.9577001814323
 20
932.173231159406
 30
0.0
 11
620.1558843598423
 21
932.1732317012684
 31
0.0
  0
ARC
  5
1949
330
A
100
AcDbEntity
  8
MODEL
100
AcDbCircle
 10
613.9577115296042
 20
935.1732425689543
 30
0.0
 40
3.000011409570373
100
AcDbArc
 50
179.0002267513977
 51
269.9997832665662
  0
ARC
  5
194A
330
A
100
AcDbEntity
  8
MODEL
100
AcDbCircle
 10
620.1558675111828
 20
935.1732498021347
 30
0.0
 40
3.000018100913434
100
AcDbArc
 50
270.0003217846544
 51
354.9996907390919
  0
ARC
  5
194B
330
A
100
AcDbEntity
  8
HIDDEN
100
AcDbCircle
 10
614.5365017183913
 20
968.3328579744175
 30
0.0
 40
3.000001259773505
100
AcDbArc
 50
130.0000159738622
 51
178.9999940442248
  0
LINE
  5
194C
330
A
100
AcDbEntity
  8
HIDDEN
100
AcDbLine
 10
612.6081374388605
 20
970.6309917312019
 30
0.0
 11
623.8024676475316
 21
980.0241517482605
 31
0.0
  0
ARC
  5
194D
330
A
100
AcDbEntity
  8
HIDDEN
100
AcDbCircle
 10
633.2037206442019
 20
968.8201767037747
 30
0.0
 40
14.62576725034449
100
AcDbArc
 50
94.8655530188507
 51
130.0000050089776
  0
LINE
  5
194F
330
A
100
AcDbEntity
  8
MODEL
100
AcDbLine
 10
625.3983034050981
 20
960.6732577509584
 30
0.0
 11
801.2067942890317
 21
960.6732475301039
 31
0.0
  0
INSERT
  5
1955
330
A
100
AcDbEntity
  8
0
100
AcDbBlockReference
  2
block 2
 10
5766.546267422016
 20
-1091.217083032721
 30
0.0
  0
DIMENSION
  5
196B
330
A
100
AcDbEntity
  8
DIM
100
AcDbDimension
  2
*D6
 10
831.5927206550859
 20
832.1732208825883
 30
0.0
 11
591.606344610364
 21
832.1732208825883
 31
0.0
 70
   160
 71
     5
 42
485.3757482495475
 73
     0
 74
     0
 75
     0
  3
tform線あり
100
AcDbAlignedDimension
 13
346.2169724055384
 23
931.0236132012142
 33
0.0
 14
831.5927206550859
 24
931.0236132012142
 34
0.0
100
AcDbRotatedDimension
1001
ACAD
1000
DSTYLE
1002
{
1070
   271
1070
     0
1002
}
  0
LINE
  5
196C
330
A
100
AcDbEntity
  8
MODEL
100
AcDbLine
 10
1339.647824808001
 20
962.1732355830259
 30
0.0
 11
1360.145811364798
 21
960.6732333632713
 31
0.0
  0
LINE
  5
196D
330
A
100
AcDbEntity
  8
MODEL
100
AcDbLine
 10
1366.921121232974
 20
961.293172608694
 30
0.0
 11
1438.849150380603
 21
961.293172608694
 31
0.0
  0
DIMENSION
  5
1A02
330
A
100
AcDbEntity
  8
DIM
  6
Continuous
100
AcDbDimension
  2
*D7
 10
888.9048445031995
 20
2248.578064689037
 30
0.0
 11
592.5688342864169
 21
2248.578064689037
 31
0.0
 70
   160
 71
     5
 42
600.0
 73
     0
 74
     0
 75
     0
  3
tfrom線あり
100
AcDbAlignedDimension
 13
288.9048445031995
 23
2108.578064689037
 33
0.0
 14
888.9048445031995
 24
2108.51155389252
 34
0.0
100
AcDbRotatedDimension
1001
ACAD
1000
DSTYLE
1002
{
1070
   271
1070
     4
1002
}
  0
DIMENSION
  5
1A11
330
A
100
AcDbEntity
  8
DIM
  6
Continuous
100
AcDbDimension
  2
*D8
 10
188.9048445031994
 20
1803.578064689037
 30
0.0
 11
188.9048445031994
 21
1948.578064689037
 31
0.0
 70
   160
 71
     5
 42
290.0
 73
     0
 74
     0
 75
     0
  3
tfrom線あり
100
AcDbAlignedDimension
 13
288.9048445031995
 23
2093.578064689037
 33
0.0
 14
288.9048445031995
 24
1803.578064689037
 34
0.0
 50
90.0
100
AcDbRotatedDimension
  0
LINE
  5
1A20
330
A
100
AcDbEntity
  8
MODEL
  6
Continuous
100
AcDbLine
 10
888.9048445031995
 20
2108.578064689037
 30
0.0
 11
888.9048445031995
 21
1788.578064689037
 31
0.0
  0
LINE
  5
1A21
330
A
100
AcDbEntity
  8
MODEL
  6
Continuous
100
AcDbLine
 10
288.9048445031995
 20
2108.578064689037
 30
0.0
 11
288.9048445031995
 21
1788.578064689037
 31
0.0
  0
LINE
  5
1A33
102
{ACAD_REACTORS
330
1A3B
102
}
330
A
100
AcDbEntity
  8
MODEL
  6
Continuous
100
AcDbLine
 10
328.9048445031995
 20
2148.578064689037
 30
0.0
 11
848.9048445031995
 21
2148.578064689037
 31
0.0
  0
LINE
  5
1A34
102
{ACAD_REACTORS
330
1A3B
102
}
330
A
100
AcDbEntity
  8
MODEL
  6
Continuous
100
AcDbLine
 10
328.9048445031995
 20
1748.578064689037
 30
0.0
 11
848.9048445031995
 21
1748.578064689037
 31
0.0
  0
ARC
  5
1A35
330
A
100
AcDbEntity
  8
MODEL
  6
Continuous
100
AcDbCircle
 10
328.9048445031995
 20
2108.578064689037
 30
0.0
 40
40.0
100
AcDbArc
 50
90.0
 51
180.0
  0
ARC
  5
1A36
330
A
100
AcDbEntity
  8
MODEL
  6
Continuous
100
AcDbCircle
 10
848.9048445031995
 20
2108.578064689037
 30
0.0
 40
40.0
100
AcDbArc
 50
0.0
 51
90.0
  0
ARC
  5
1A37
330
A
100
AcDbEntity
  8
MODEL
  6
Continuous
100
AcDbCircle
 10
328.9048445031995
 20
1788.578064689037
 30
0.0
 40
40.0
100
AcDbArc
 50
180.0
 51
270.0
  0
ARC
  5
1A38
330
A
100
AcDbEntity
  8
MODEL
  6
Continuous
100
AcDbCircle
 10
848.9048445031995
 20
1788.578064689037
 30
0.0
 40
40.0
100
AcDbArc
 50
270.0
 51
0.0
  0
DIMENSION
  5
1A39
102
{ACAD_REACTORS
330
1A3B
102
}
102
{ACAD_XDICTIONARY
360
1A3A
102
}
330
A
100
AcDbEntity
  8
DIM
  6
Continuous
100
AcDbDimension
  2
*D9
 10
990.3490824253796
 20
1748.578064689037
 30
0.0
 11
958.3490824253796
 21
1948.578064689037
 31
0.0
 70
    32
 71
     5
 42
400.0
 73
     0
 74
     0
 75
     0
  3
tfrom線あり
100
AcDbAlignedDimension
 13
848.9048445031995
 23
2148.578064689037
 33
0.0
 14
848.9048445031995
 24
1748.578064689037
 34
0.0
 50
90.0
100
AcDbRotatedDimension
  0
DIMENSION
  5
1A57
330
A
100
AcDbEntity
  8
DIM
  6
Continuous
100
AcDbDimension
  2
*D10
 10
833.9048445031995
 20
1648.578064689037
 30
0.0
 11
593.115136808196
 21
1648.578064689037
 31
0.0
 70
   160
 71
     5
 42
490.0000113297211
 73
     0
 74
     0
 75
     0
  3
tfrom線あり
100
AcDbAlignedDimension
 13
343.9048331734784
 23
1748.325166850858
 33
0.0
 14
833.9048445031995
 24
1748.325166850858
 34
0.0
100
AcDbRotatedDimension
  0
CIRCLE
  5
1A67
330
A
100
AcDbEntity
  8
HIDDEN
100
AcDbCircle
 10
1471.729144121026
 20
1948.578064689037
 30
0.0
 40
23.70326279842867
  0
SPLINE
  5
1A68
330
A
100
AcDbEntity
  8
HIDDEN
100
AcDbSpline
210
0.0
220
0.0
230
1.0
 70
     8
 71
     3
 72
    78
 73
    74
 74
     0
 42
0.000000001
 43
0.0000000001
 40
0.0
 40
0.0
 40
0.0
 40
0.0
 40
0.9732873550556457
 40
1.946575271756156
 40
2.919864601733933
 40
3.893156545134983
 40
4.866452639005154
 40
5.839754744880111
 40
6.813065036512305
 40
7.786385985015643
 40
8.759720344474577
 40
9.733071142213767
 40
10.70644167175019
 40
11.67983548565873
 40
12.65325638755889
 40
13.62670842215122
 40
14.60019586251342
 40
15.57372319551095
 40
16.54729510948924
 40
17.52091649329028
 40
18.49459245937539
 40
19.46832840574319
 40
20.44213023122114
 40
21.41600430963913
 40
22.38995743760594
 40
23.36399676056197
 40
24.3381297924299
 40
25.31236453601481
 40
26.28670952638047
 40
27.26117375666768
 40
28.23576658533321
 40
29.21049766730932
 40
30.18537663467595
 40
31.16041340340122
 40
32.13561808318438
 40
33.11100096927169
 40
34.08657252153509
 40
35.0623433369238
 40
36.0383241137018
 40
37.0145256063043
 40
37.99095856935006
 40
38.96763368968157
 40
39.94456150561445
 40
40.92175231296482
 40
41.89921605788699
 40
42.87696221706855
 40
43.85499966639098
 40
44.83333653976722
 40
45.81198008046263
 40
46.79093648779691
 40
47.77021076268981
 40
48.74980655604477
 40
49.72972602445793
 40
50.70996969819016
 40
51.69053636661038
 40
52.67142298551175
 40
53.65262460995213
 40
54.63413435586846
 40
55.61594339243502
 40
56.59804096586269
 40
57.58041445396292
 40
58.5630494494325
 40
59.54592986856078
 40
60.52903808102099
 40
61.51235505566532
 40
62.4958605168595
 40
63.47953310589529
 40
64.46335054240681
 40
65.4472897814528
 40
66.43132716294956
 40
67.41543855136574
 40
68.39959946491882
 40
69.38378519484306
 40
69.38378519484306
 40
69.38378519484306
 40
69.38378519484306
 10
1437.266468522884
 20
1948.578064689037
 30
0.0
 10
1437.266467554662
 20
1948.832214214444
 30
0.0
 10
1437.272088626341
 20
1949.340513413038
 30
0.0
 10
1437.29737345066
 20
1950.102589711755
 30
0.0
 10
1437.339504100309
 20
1950.86392109994
 30
0.0
 10
1437.39846054174
 20
1951.624135305352
 30
0.0
 10
1437.474215639918
 20
1952.382860477259
 30
0.0
 10
1437.566733718729
 20
1953.139725367731
 30
0.0
 10
1437.675970915824
 20
1953.894359520871
 30
0.0
 10
1437.801875032802
 20
1954.646393473819
 30
0.0
 10
1437.94438563304
 20
1955.395458944644
 30
0.0
 10
1438.103434127563
 20
1956.14118900462
 30
0.0
 10
1438.278943774402
 20
1956.883218265496
 30
0.0
 10
1438.470829704996
 20
1957.621183065144
 30
0.0
 10
1438.678998939821
 20
1958.354721657397
 30
0.0
 10
1438.903350396303
 20
1959.08347440849
 30
0.0
 10
1439.143774901113
 20
1959.807083998
 30
0.0
 10
1439.400155220624
 20
1960.525195622244
 30
0.0
 10
1439.67236618594
 20
1961.237457162185
 30
0.0
 10
1439.960274832566
 20
1961.943519354376
 30
0.0
 10
1440.263741075081
 20
1962.643035661469
 30
0.0
 10
1440.582616975737
 20
1963.335662890373
 30
0.0
 10
1440.916752147764
 20
1964.021058405948
 30
0.0
 10
1441.265983974542
 20
1964.698884938949
 30
0.0
 10
1441.630143400479
 20
1965.368808238244
 30
0.0
 10
1442.009052423228
 20
1966.030498618832
 30
0.0
 10
1442.402526564415
 20
1966.683629932974
 30
0.0
 10
1442.810375756343
 20
1967.327878949655
 30
0.0
 10
1443.232402419416
 20
1967.962926595522
 30
0.0
 10
1443.66840072126
 20
1968.588458786824
 30
0.0
 10
1444.118156660656
 20
1969.204166894023
 30
0.0
 10
1444.581450440259
 20
1969.809745950965
 30
0.0
 10
1445.058049434422
 20
1970.404901235931
 30
0.0
 10
1445.547721709096
 20
1970.989337308667
 30
0.0
 10
1446.050225481477
 20
1971.562766616563
 30
0.0
 10
1446.565313433319
 20
1972.12490636753
 30
0.0
 10
1447.092731721813
 20
1972.675479541242
 30
0.0
 10
1447.632220382867
 20
1973.214214823186
 30
0.0
 10
1448.183513361556
 20
1973.740846833674
 30
0.0
 10
1448.746338648582
 20
1974.255116280021
 30
0.0
 10
1449.320418392317
 20
1974.756770134968
 30
0.0
 10
1449.905469024082
 20
1975.245561812154
 30
0.0
 10
1450.501201389055
 20
1975.721251344441
 30
0.0
 10
1451.107320887147
 20
1976.183605560927
 30
0.0
 10
1451.723527624669
 20
1976.63239826069
 30
0.0
 10
1452.349516578032
 20
1977.067410380469
 30
0.0
 10
1452.984977769956
 20
1977.488430153659
 30
0.0
 10
1453.629596458341
 20
1977.895253257843
 30
0.0
 10
1454.283053337242
 20
1978.287682948539
 30
0.0
 10
1454.945024748955
 20
1978.665530177025
 30
0.0
 10
1455.615182905811
 20
1979.028613690481
 30
0.0
 10
1456.293196119952
 20
1979.376760112964
 30
0.0
 10
1456.978729039299
 20
1979.709804005682
 30
0.0
 10
1457.671442887709
 20
1980.027587905215
 30
0.0
 10
1458.370995707505
 20
1980.329962336271
 30
0.0
 10
1459.077042598922
 20
1980.616785805015
 30
0.0
 10
1459.789235953213
 20
1980.887924777359
 30
0.0
 10
1460.507225677832
 20
1981.143253642252
 30
0.0
 10
1461.230659410719
 20
1981.382654665938
 30
0.0
 10
1461.959182722123
 20
1981.60601794172
 30
0.0
 10
1462.69243930309
 20
1981.81324134035
 30
0.0
 10
1463.430071140678
 20
1982.004230465754
 30
0.0
 10
1464.171718680836
 20
1982.178898620098
 30
0.0
 10
1464.917020980904
 20
1982.33716678115
 30
0.0
 10
1465.665615853637
 20
1982.478963593549
 30
0.0
 10
1466.417140007341
 20
1982.604225373715
 30
0.0
 10
1467.171229178531
 20
1982.712896127751
 30
0.0
 10
1467.927518283964
 20
1982.804927575669
 30
0.0
 10
1468.68564150388
 20
1982.880279190647
 30
0.0
 10
1469.445232634995
 20
1982.938918199166
 30
0.0
 10
1470.205924455166
 20
1982.980819718768
 30
0.0
 10
1470.967351796485
 20
1983.005966346883
 30
0.0
 10
1471.475208994711
 20
1983.011555250582
 30
0.0
 10
1471.729144121026
 20
1983.011554972142
 30
0.0
  0
SPLINE
  5
1A69
330
A
100
AcDbEntity
  8
HIDDEN
100
AcDbSpline
210
0.0
220
0.0
230
1.0
 70
     8
 71
     3
 72
    78
 73
    74
 74
     0
 42
0.000000001
 43
0.0000000001
 40
0.0
 40
0.0
 40
0.0
 40
0.0
 40
0.9732873550556452
 40
1.946575271756155
 40
2.919864601733932
 40
3.893156545134981
 40
4.866452639005153
 40
5.83975474488011
 40
6.813065036512303
 40
7.786385985015642
 40
8.759720344474577
 40
9.733071142213767
 40
10.70644167175019
 40
11.67983548565873
 40
12.65325638755889
 40
13.62670842215122
 40
14.60019586251342
 40
15.57372319551095
 40
16.54729510948924
 40
17.52091649329028
 40
18.49459245937539
 40
19.46832840574319
 40
20.44213023122114
 40
21.41600430963913
 40
22.38995743760594
 40
23.36399676056197
 40
24.33812979242991
 40
25.31236453601481
 40
26.28670952638047
 40
27.26117375666769
 40
28.23576658533321
 40
29.21049766730933
 40
30.18537663467596
 40
31.16041340340121
 40
32.13561808318439
 40
33.1110009692717
 40
34.0865725215351
 40
35.06234333692381
 40
36.03832411370182
 40
37.01452560630432
 40
37.99095856935007
 40
38.96763368968157
 40
39.94456150561446
 40
40.92175231296483
 40
41.89921605788701
 40
42.87696221706856
 40
43.85499966639099
 40
44.83333653976723
 40
45.81198008046264
 40
46.79093648779692
 40
47.77021076268981
 40
48.74980655604477
 40
49.72972602445792
 40
50.70996969819016
 40
51.69053636661037
 40
52.67142298551174
 40
53.65262460995213
 40
54.63413435586847
 40
55.61594339243503
 40
56.59804096586269
 40
57.58041445396291
 40
58.56304944943249
 40
59.54592986856078
 40
60.52903808102098
 40
61.51235505566531
 40
62.49586051685949
 40
63.47953310589528
 40
64.4633505424068
 40
65.44728978145277
 40
66.43132716294954
 40
67.41543855136572
 40
68.39959946491881
 40
69.38378519484304
 40
69.38378519484304
 40
69.38378519484304
 40
69.38378519484304
 10
1506.19181971917
 20
1948.578064689037
 30
0.0
 10
1506.191820687391
 20
1948.832214214444
 30
0.0
 10
1506.186199615711
 20
1949.340513413038
 30
0.0
 10
1506.160914791392
 20
1950.102589711755
 30
0.0
 10
1506.118784141744
 20
1950.86392109994
 30
0.0
 10
1506.059827700314
 20
1951.624135305352
 30
0.0
 10
1505.984072602134
 20
1952.382860477259
 30
0.0
 10
1505.891554523324
 20
1953.139725367731
 30
0.0
 10
1505.782317326229
 20
1953.894359520871
 30
0.0
 10
1505.656413209251
 20
1954.646393473819
 30
0.0
 10
1505.513902609013
 20
1955.395458944644
 30
0.0
 10
1505.35485411449
 20
1956.14118900462
 30
0.0
 10
1505.17934446765
 20
1956.883218265496
 30
0.0
 10
1504.987458537057
 20
1957.621183065144
 30
0.0
 10
1504.779289302232
 20
1958.354721657397
 30
0.0
 10
1504.55493784575
 20
1959.08347440849
 30
0.0
 10
1504.31451334094
 20
1959.807083998
 30
0.0
 10
1504.058133021429
 20
1960.525195622244
 30
0.0
 10
1503.785922056113
 20
1961.237457162185
 30
0.0
 10
1503.498013409487
 20
1961.943519354376
 30
0.0
 10
1503.194547166971
 20
1962.643035661469
 30
0.0
 10
1502.875671266316
 20
1963.335662890373
 30
0.0
 10
1502.541536094289
 20
1964.021058405948
 30
0.0
 10
1502.192304267511
 20
1964.698884938949
 30
0.0
 10
1501.828144841574
 20
1965.368808238244
 30
0.0
 10
1501.449235818824
 20
1966.030498618832
 30
0.0
 10
1501.055761677638
 20
1966.683629932974
 30
0.0
 10
1500.64791248571
 20
1967.327878949655
 30
0.0
 10
1500.225885822637
 20
1967.962926595522
 30
0.0
 10
1499.789887520793
 20
1968.588458786824
 30
0.0
 10
1499.340131581397
 20
1969.204166894023
 30
0.0
 10
1498.876837801794
 20
1969.809745950964
 30
0.0
 10
1498.400238807631
 20
1970.404901235931
 30
0.0
 10
1497.910566532957
 20
1970.989337308667
 30
0.0
 10
1497.408062760575
 20
1971.562766616563
 30
0.0
 10
1496.892974808734
 20
1972.12490636753
 30
0.0
 10
1496.36555652024
 20
1972.675479541242
 30
0.0
 10
1495.826067859186
 20
1973.214214823186
 30
0.0
 10
1495.274774880497
 20
1973.740846833674
 30
0.0
 10
1494.711949593469
 20
1974.255116280021
 30
0.0
 10
1494.137869849736
 20
1974.756770134968
 30
0.0
 10
1493.55281921797
 20
1975.245561812154
 30
0.0
 10
1492.957086852997
 20
1975.721251344441
 30
0.0
 10
1492.350967354906
 20
1976.183605560927
 30
0.0
 10
1491.734760617383
 20
1976.63239826069
 30
0.0
 10
1491.10877166402
 20
1977.067410380469
 30
0.0
 10
1490.473310472097
 20
1977.488430153659
 30
0.0
 10
1489.828691783711
 20
1977.895253257843
 30
0.0
 10
1489.175234904811
 20
1978.287682948539
 30
0.0
 10
1488.513263493098
 20
1978.665530177025
 30
0.0
 10
1487.843105336242
 20
1979.028613690481
 30
0.0
 10
1487.165092122101
 20
1979.376760112964
 30
0.0
 10
1486.479559202754
 20
1979.709804005682
 30
0.0
 10
1485.786845354344
 20
1980.027587905215
 30
0.0
 10
1485.087292534547
 20
1980.329962336271
 30
0.0
 10
1484.381245643131
 20
1980.616785805015
 30
0.0
 10
1483.669052288839
 20
1980.887924777359
 30
0.0
 10
1482.951062564221
 20
1981.143253642252
 30
0.0
 10
1482.227628831334
 20
1981.382654665938
 30
0.0
 10
1481.49910551993
 20
1981.606017941719
 30
0.0
 10
1480.765848938962
 20
1981.81324134035
 30
0.0
 10
1480.028217101375
 20
1982.004230465754
 30
0.0
 10
1479.286569561216
 20
1982.178898620098
 30
0.0
 10
1478.541267261148
 20
1982.33716678115
 30
0.0
 10
1477.792672388416
 20
1982.478963593549
 30
0.0
 10
1477.041148234712
 20
1982.604225373715
 30
0.0
 10
1476.287059063522
 20
1982.712896127751
 30
0.0
 10
1475.530769958089
 20
1982.804927575669
 30
0.0
 10
1474.772646738173
 20
1982.880279190647
 30
0.0
 10
1474.013055607058
 20
1982.938918199166
 30
0.0
 10
1473.252363786886
 20
1982.980819718769
 30
0.0
 10
1472.490936445568
 20
1983.005966346883
 30
0.0
 10
1471.983079247342
 20
1983.011555250582
 30
0.0
 10
1471.729144121026
 20
1983.011554972142
 30
0.0
  0
SPLINE
  5
1A6A
330
A
100
AcDbEntity
  8
HIDDEN
100
AcDbSpline
210
0.0
220
0.0
230
1.0
 70
     8
 71
     3
 72
    78
 73
    74
 74
     0
 42
0.000000001
 43
0.0000000001
 40
0.0
 40
0.0
 40
0.0
 40
0.0
 40
0.9732873550556453
 40
1.946575271756156
 40
2.919864601733932
 40
3.893156545134981
 40
4.866452639005154
 40
5.839754744880109
 40
6.813065036512304
 40
7.786385985015641
 40
8.759720344474577
 40
9.733071142213767
 40
10.70644167175019
 40
11.67983548565873
 40
12.65325638755889
 40
13.62670842215122
 40
14.60019586251342
 40
15.57372319551095
 40
16.54729510948924
 40
17.52091649329028
 40
18.4945924593754
 40
19.4683284057432
 40
20.44213023122115
 40
21.41600430963913
 40
22.38995743760595
 40
23.36399676056197
 40
24.33812979242991
 40
25.31236453601481
 40
26.28670952638046
 40
27.26117375666769
 40
28.23576658533321
 40
29.21049766730932
 40
30.18537663467595
 40
31.16041340340121
 40
32.13561808318438
 40
33.11100096927169
 40
34.08657252153509
 40
35.06234333692378
 40
36.03832411370178
 40
37.01452560630429
 40
37.99095856935004
 40
38.96763368968154
 40
39.94456150561443
 40
40.92175231296478
 40
41.89921605788696
 40
42.87696221706852
 40
43.85499966639095
 40
44.8333365397672
 40
45.8119800804626
 40
46.79093648779688
 40
47.77021076268977
 40
48.74980655604474
 40
49.72972602445789
 40
50.70996969819012
 40
51.69053636661034
 40
52.6714229855117
 40
53.65262460995209
 40
54.63413435586843
 40
55.61594339243499
 40
56.59804096586265
 40
57.58041445396287
 40
58.56304944943246
 40
59.54592986856073
 40
60.52903808102094
 40
61.51235505566527
 40
62.49586051685946
 40
63.47953310589524
 40
64.46335054240677
 40
65.44728978145274
 40
66.4313271629495
 40
67.41543855136568
 40
68.39959946491875
 40
69.38378519484299
 40
69.38378519484299
 40
69.38378519484299
 40
69.38378519484299
 10
1506.19181971917
 20
1948.578064689037
 30
0.0
 10
1506.191820687391
 20
1948.323915163629
 30
0.0
 10
1506.186199615711
 20
1947.815615965036
 30
0.0
 10
1506.160914791392
 20
1947.053539666319
 30
0.0
 10
1506.118784141744
 20
1946.292208278132
 30
0.0
 10
1506.059827700314
 20
1945.531994072722
 30
0.0
 10
1505.984072602134
 20
1944.773268900813
 30
0.0
 10
1505.891554523324
 20
1944.016404010342
 30
0.0
 10
1505.782317326229
 20
1943.261769857203
 30
0.0
 10
1505.656413209251
 20
1942.509735904254
 30
0.0
 10
1505.513902609013
 20
1941.760670433429
 30
0.0
 10
1505.35485411449
 20
1941.014940373454
 30
0.0
 10
1505.17934446765
 20
1940.272911112578
 30
0.0
 10
1504.987458537057
 20
1939.534946312929
 30
0.0
 10
1504.779289302232
 20
1938.801407720677
 30
0.0
 10
1504.55493784575
 20
1938.072654969582
 30
0.0
 10
1504.31451334094
 20
1937.349045380073
 30
0.0
 10
1504.058133021429
 20
1936.630933755828
 30
0.0
 10
1503.785922056113
 20
1935.918672215887
 30
0.0
 10
1503.498013409487
 20
1935.212610023696
 30
0.0
 10
1503.194547166971
 20
1934.513093716605
 30
0.0
 10
1502.875671266316
 20
1933.820466487699
 30
0.0
 10
1502.541536094289
 20
1933.135070972125
 30
0.0
 10
1502.192304267511
 20
1932.457244439125
 30
0.0
 10
1501.828144841574
 20
1931.78732113983
 30
0.0
 10
1501.449235818824
 20
1931.125630759242
 30
0.0
 10
1501.055761677638
 20
1930.472499445099
 30
0.0
 10
1500.64791248571
 20
1929.828250428418
 30
0.0
 10
1500.225885822637
 20
1929.193202782551
 30
0.0
 10
1499.789887520793
 20
1928.567670591249
 30
0.0
 10
1499.340131581397
 20
1927.95196248405
 30
0.0
 10
1498.876837801794
 20
1927.346383427108
 30
0.0
 10
1498.400238807631
 20
1926.751228142141
 30
0.0
 10
1497.910566532957
 20
1926.166792069407
 30
0.0
 10
1497.408062760575
 20
1925.593362761509
 30
0.0
 10
1496.892974808734
 20
1925.031223010543
 30
0.0
 10
1496.36555652024
 20
1924.480649836831
 30
0.0
 10
1495.826067859186
 20
1923.941914554888
 30
0.0
 10
1495.274774880497
 20
1923.415282544398
 30
0.0
 10
1494.711949593469
 20
1922.901013098053
 30
0.0
 10
1494.137869849736
 20
1922.399359243106
 30
0.0
 10
1493.55281921797
 20
1921.910567565919
 30
0.0
 10
1492.957086852997
 20
1921.434878033633
 30
0.0
 10
1492.350967354906
 20
1920.972523817146
 30
0.0
 10
1491.734760617383
 20
1920.523731117384
 30
0.0
 10
1491.10877166402
 20
1920.088718997603
 30
0.0
 10
1490.473310472097
 20
1919.667699224414
 30
0.0
 10
1489.828691783711
 20
1919.26087612023
 30
0.0
 10
1489.175234904811
 20
1918.868446429534
 30
0.0
 10
1488.513263493098
 20
1918.490599201048
 30
0.0
 10
1487.843105336242
 20
1918.127515687591
 30
0.0
 10
1487.165092122101
 20
1917.779369265109
 30
0.0
 10
1486.479559202754
 20
1917.446325372391
 30
0.0
 10
1485.786845354344
 20
1917.128541472858
 30
0.0
 10
1485.087292534547
 20
1916.826167041802
 30
0.0
 10
1484.381245643131
 20
1916.539343573058
 30
0.0
 10
1483.669052288839
 20
1916.268204600714
 30
0.0
 10
1482.951062564221
 20
1916.012875735821
 30
0.0
 10
1482.227628831334
 20
1915.773474712135
 30
0.0
 10
1481.49910551993
 20
1915.550111436354
 30
0.0
 10
1480.765848938961
 20
1915.342888037723
 30
0.0
 10
1480.028217101375
 20
1915.151898912319
 30
0.0
 10
1479.286569561216
 20
1914.977230757976
 30
0.0
 10
1478.541267261148
 20
1914.818962596922
 30
0.0
 10
1477.792672388416
 20
1914.677165784524
 30
0.0
 10
1477.041148234712
 20
1914.551904004359
 30
0.0
 10
1476.287059063522
 20
1914.443233250322
 30
0.0
 10
1475.530769958089
 20
1914.351201802404
 30
0.0
 10
1474.772646738173
 20
1914.275850187425
 30
0.0
 10
1474.013055607058
 20
1914.217211178907
 30
0.0
 10
1473.252363786886
 20
1914.175309659304
 30
0.0
 10
1472.490936445568
 20
1914.150163031189
 30
0.0
 10
1471.983079247342
 20
1914.144574127492
 30
0.0
 10
1471.729144121026
 20
1914.144574405932
 30
0.0
  0
SPLINE
  5
1A6B
330
A
100
AcDbEntity
  8
HIDDEN
100
AcDbSpline
210
0.0
220
0.0
230
1.0
 70
     8
 71
     3
 72
    78
 73
    74
 74
     0
 42
0.000000001
 43
0.0000000001
 40
0.0
 40
0.0
 40
0.0
 40
0.0
 40
0.9732873550556465
 40
1.946575271756158
 40
2.919864601733934
 40
3.893156545134985
 40
4.866452639005157
 40
5.839754744880116
 40
6.81306503651231
 40
7.786385985015649
 40
8.759720344474584
 40
9.733071142213774
 40
10.7064416717502
 40
11.67983548565874
 40
12.6532563875589
 40
13.62670842215123
 40
14.60019586251344
 40
15.57372319551096
 40
16.54729510948926
 40
17.52091649329029
 40
18.49459245937541
 40
19.46832840574321
 40
20.44213023122115
 40
21.41600430963914
 40
22.38995743760595
 40
23.36399676056199
 40
24.33812979242993
 40
25.31236453601483
 40
26.28670952638049
 40
27.26117375666771
 40
28.23576658533323
 40
29.21049766730936
 40
30.18537663467598
 40
31.16041340340125
 40
32.13561808318442
 40
33.11100096927172
 40
34.08657252153512
 40
35.06234333692383
 40
36.03832411370184
 40
37.01452560630434
 40
37.99095856935009
 40
38.96763368968159
 40
39.94456150561449
 40
40.92175231296485
 40
41.89921605788702
 40
42.87696221706857
 40
43.854999666391
 40
44.83333653976725
 40
45.81198008046267
 40
46.79093648779694
 40
47.77021076268984
 40
48.7498065560448
 40
49.72972602445796
 40
50.70996969819019
 40
51.69053636661041
 40
52.67142298551178
 40
53.65262460995216
 40
54.6341343558685
 40
55.61594339243506
 40
56.59804096586272
 40
57.58041445396294
 40
58.56304944943253
 40
59.54592986856081
 40
60.52903808102101
 40
61.51235505566535
 40
62.49586051685953
 40
63.47953310589531
 40
64.46335054240684
 40
65.44728978145281
 40
66.43132716294957
 40
67.41543855136577
 40
68.39959946491884
 40
69.38378519484307
 40
69.38378519484307
 40
69.38378519484307
 40
69.38378519484307
 10
1437.266468522884
 20
1948.578064689037
 30
0.0
 10
1437.266467554662
 20
1948.323915163629
 30
0.0
 10
1437.272088626341
 20
1947.815615965036
 30
0.0
 10
1437.29737345066
 20
1947.053539666319
 30
0.0
 10
1437.339504100309
 20
1946.292208278132
 30
0.0
 10
1437.39846054174
 20
1945.531994072722
 30
0.0
 10
1437.474215639918
 20
1944.773268900813
 30
0.0
 10
1437.566733718729
 20
1944.016404010342
 30
0.0
 10
1437.675970915824
 20
1943.261769857203
 30
0.0
 10
1437.801875032802
 20
1942.509735904254
 30
0.0
 10
1437.94438563304
 20
1941.760670433429
 30
0.0
 10
1438.103434127563
 20
1941.014940373454
 30
0.0
 10
1438.278943774402
 20
1940.272911112578
 30
0.0
 10
1438.470829704996
 20
1939.534946312929
 30
0.0
 10
1438.678998939821
 20
1938.801407720677
 30
0.0
 10
1438.903350396303
 20
1938.072654969582
 30
0.0
 10
1439.143774901113
 20
1937.349045380074
 30
0.0
 10
1439.400155220624
 20
1936.630933755829
 30
0.0
 10
1439.67236618594
 20
1935.918672215887
 30
0.0
 10
1439.960274832566
 20
1935.212610023696
 30
0.0
 10
1440.263741075081
 20
1934.513093716605
 30
0.0
 10
1440.582616975737
 20
1933.820466487699
 30
0.0
 10
1440.916752147764
 20
1933.135070972125
 30
0.0
 10
1441.265983974542
 20
1932.457244439125
 30
0.0
 10
1441.630143400479
 20
1931.78732113983
 30
0.0
 10
1442.009052423228
 20
1931.125630759242
 30
0.0
 10
1442.402526564415
 20
1930.472499445099
 30
0.0
 10
1442.810375756343
 20
1929.828250428418
 30
0.0
 10
1443.232402419416
 20
1929.193202782551
 30
0.0
 10
1443.66840072126
 20
1928.567670591249
 30
0.0
 10
1444.118156660656
 20
1927.95196248405
 30
0.0
 10
1444.581450440259
 20
1927.346383427108
 30
0.0
 10
1445.058049434422
 20
1926.751228142141
 30
0.0
 10
1445.547721709096
 20
1926.166792069407
 30
0.0
 10
1446.050225481477
 20
1925.59336276151
 30
0.0
 10
1446.565313433319
 20
1925.031223010543
 30
0.0
 10
1447.092731721813
 20
1924.480649836831
 30
0.0
 10
1447.632220382867
 20
1923.941914554888
 30
0.0
 10
1448.183513361556
 20
1923.415282544398
 30
0.0
 10
1448.746338648582
 20
1922.901013098053
 30
0.0
 10
1449.320418392317
 20
1922.399359243106
 30
0.0
 10
1449.905469024082
 20
1921.910567565919
 30
0.0
 10
1450.501201389055
 20
1921.434878033633
 30
0.0
 10
1451.107320887147
 20
1920.972523817146
 30
0.0
 10
1451.723527624669
 20
1920.523731117384
 30
0.0
 10
1452.349516578032
 20
1920.088718997603
 30
0.0
 10
1452.984977769956
 20
1919.667699224414
 30
0.0
 10
1453.629596458341
 20
1919.26087612023
 30
0.0
 10
1454.283053337242
 20
1918.868446429534
 30
0.0
 10
1454.945024748955
 20
1918.490599201048
 30
0.0
 10
1455.615182905811
 20
1918.127515687591
 30
0.0
 10
1456.293196119952
 20
1917.779369265109
 30
0.0
 10
1456.978729039299
 20
1917.446325372391
 30
0.0
 10
1457.671442887709
 20
1917.128541472858
 30
0.0
 10
1458.370995707505
 20
1916.826167041802
 30
0.0
 10
1459.077042598922
 20
1916.539343573058
 30
0.0
 10
1459.789235953213
 20
1916.268204600714
 30
0.0
 10
1460.507225677832
 20
1916.012875735821
 30
0.0
 10
1461.230659410719
 20
1915.773474712135
 30
0.0
 10
1461.959182722123
 20
1915.550111436354
 30
0.0
 10
1462.69243930309
 20
1915.342888037723
 30
0.0
 10
1463.430071140678
 20
1915.151898912319
 30
0.0
 10
1464.171718680836
 20
1914.977230757976
 30
0.0
 10
1464.917020980904
 20
1914.818962596922
 30
0.0
 10
1465.665615853637
 20
1914.677165784524
 30
0.0
 10
1466.417140007341
 20
1914.551904004359
 30
0.0
 10
1467.171229178531
 20
1914.443233250322
 30
0.0
 10
1467.927518283964
 20
1914.351201802404
 30
0.0
 10
1468.68564150388
 20
1914.275850187426
 30
0.0
 10
1469.445232634995
 20
1914.217211178907
 30
0.0
 10
1470.205924455166
 20
1914.175309659304
 30
0.0
 10
1470.967351796485
 20
1914.150163031189
 30
0.0
 10
1471.475208994711
 20
1914.144574127492
 30
0.0
 10
1471.729144121026
 20
1914.144574405932
 30
0.0
  0
SPLINE
  5
1A6C
330
A
100
AcDbEntity
  8
MODEL
100
AcDbSpline
210
0.0
220
0.0
230
1.0
 70
     8
 71
     3
 72
    24
 73
    20
 74
     0
 42
0.000000001
 43
0.0000000001
 40
0.0
 40
0.0
 40
0.0
 40
0.0
 40
0.8375800370352331
 40
1.675166591372667
 40
2.514057028984794
 40
3.350779798662119
 40
4.185225042728449
 40
5.019775550343697
 40
5.856371931432782
 40
6.692099480147335
 40
7.527087513952551
 40
8.359545548422709
 40
9.191181953185769
 40
10.02431507274726
 40
10.85688539306501
 40
11.68785631808165
 40
12.5195068290201
 40
13.35116284447052
 40
14.18182965500685
 40
14.18182965500685
 40
14.18182965500685
 40
14.18182965500685
 10
1480.729100561397
 20
2089.597596246691
 30
0.0
 10
1480.72916241417
 20
2089.636176369903
 30
0.0
 10
1480.70323211091
 20
2089.71255378733
 30
0.0
 10
1480.587262572001
 20
2089.823543352738
 30
0.0
 10
1480.395071418552
 20
2089.930120467918
 30
0.0
 10
1480.128651640148
 20
2090.031488238925
 30
0.0
 10
1479.790786962696
 20
2090.127004520746
 30
0.0
 10
1479.384060683586
 20
2090.216296964797
 30
0.0
 10
1478.9117200786
 20
2090.298939203627
 30
0.0
 10
1478.377737754719
 20
2090.374545618609
 30
0.0
 10
1477.787780277832
 20
2090.442682985557
 30
0.0
 10
1477.147229088565
 20
2090.503134990707
 30
0.0
 10
1476.461147580069
 20
2090.555797386179
 30
0.0
 10
1475.734751889328
 20
2090.600566702282
 30
0.0
 10
1474.974544351526
 20
2090.637303215979
 30
0.0
 10
1474.187303435078
 20
2090.665931434363
 30
0.0
 10
1473.379474655365
 20
2090.686409248223
 30
0.0
 10
1472.557429611486
 20
2090.698724202941
 30
0.0
 10
1472.005566406146
 20
2090.701416602711
 30
0.0
 10
1471.729144121026
 20
2090.701444127865
 30
0.0
  0
SPLINE
  5
1A6D
330
A
100
AcDbEntity
  8
MODEL
100
AcDbSpline
210
0.0
220
0.0
230
1.0
 70
     8
 71
     3
 72
    24
 73
    20
 74
     0
 42
0.000000001
 43
0.0000000001
 40
0.0
 40
0.0
 40
0.0
 40
0.0
 40
0.8310392965746072
 40
1.663075562055906
 40
2.495142849602042
 40
3.326590000993169
 40
4.159684084346023
 40
4.993380799671602
 40
5.825619467758355
 40
6.658723906113877
 40
7.494404391522262
 40
8.330838550540033
 40
9.168134413072897
 40
10.00329143457613
 40
10.83826218355035
 40
11.67544833736015
 40
12.51471764577416
 40
13.35251855664516
 40
14.19016730671404
 40
14.19016730671404
 40
14.19016730671404
 40
14.19016730671404
 10
1471.729144121026
 20
2088.185407533969
 30
0.0
 10
1472.0053020737
 20
2088.185446858345
 30
0.0
 10
1472.556836532617
 20
2088.189867230495
 30
0.0
 10
1473.378292035689
 20
2088.209960564936
 30
0.0
 10
1474.185668038587
 20
2088.243102678187
 30
0.0
 10
1474.972555882444
 20
2088.288863596828
 30
0.0
 10
1475.732569474388
 20
2088.346634045731
 30
0.0
 10
1476.458934487013
 20
2088.415628959503
 30
0.0
 10
1477.145135823637
 20
2088.494874478519
 30
0.0
 10
1477.785925036039
 20
2088.583390004178
 30
0.0
 10
1478.376187564616
 20
2088.68014625626
 30
0.0
 10
1478.910527772324
 20
2088.783952744498
 30
0.0
 10
1479.3831994012
 20
2088.893350833441
 30
0.0
 10
1479.790251758433
 20
2089.007055228985
 30
0.0
 10
1480.128370649274
 20
2089.12381012432
 30
0.0
 10
1480.394952690154
 20
2089.242536304461
 30
0.0
 10
1480.587238873296
 20
2089.361968398538
 30
0.0
 10
1480.703197667306
 20
2089.480846183414
 30
0.0
 10
1480.729243949912
 20
2089.559032662833
 30
0.0
 10
1480.729100561397
 20
2089.597596246793
 30
0.0
  0
SPLINE
  5
1A6E
330
A
100
AcDbEntity
  8
MODEL
100
AcDbSpline
210
0.0
220
0.0
230
1.0
 70
     8
 71
     3
 72
    43
 73
    39
 74
     0
 42
0.000000001
 43
0.0000000001
 40
0.0
 40
0.0
 40
0.0
 40
0.0
 40
0.7849441766349042
 40
1.570933944692225
 40
2.35663835536793
 40
3.141684402688479
 40
3.927935564441479
 40
4.714791278023227
 40
5.502483809586734
 40
6.28983395598601
 40
7.077126148488177
 40
7.866273361480602
 40
8.655667434001135
 40
9.445367836778647
 40
10.2358377003456
 40
11.02585261902479
 40
11.81723300234636
 40
12.60821776820202
 40
13.39916615917388
 40
14.19100020218604
 40
14.98174473275551
 40
15.77311418347262
 40
16.56397762237789
 40
17.35391661000015
 40
18.14440576448699
 40
18.93387200567124
 40
19.72369355195378
 40
20.51222839664113
 40
21.29916415174756
 40
22.08648215724168
 40
22.87427083464796
 40
23.66173910424957
 40
24.4475529113373
 40
25.23192084871182
 40
26.01673329111526
 40
26.80345172917472
 40
27.58868698964138
 40
28.37308806221711
 40
28.37308806221711
 40
28.37308806221711
 40
28.37308806221711
 10
1471.729144121026
 20
2088.185407533969
 30
0.0
 10
1471.468345667483
 20
2088.185438914094
 30
0.0
 10
1470.947340069389
 20
2088.189387391799
 30
0.0
 10
1470.170823086796
 20
2088.207316910829
 30
0.0
 10
1469.40627487106
 20
2088.23691879694
 30
0.0
 10
1468.659176880007
 20
2088.277839288371
 30
0.0
 10
1467.934774695344
 20
2088.329595493164
 30
0.0
 10
1467.238258342833
 20
2088.391605634887
 30
0.0
 10
1466.575476114996
 20
2088.463091483212
 30
0.0
 10
1465.951622419648
 20
2088.543191182483
 30
0.0
 10
1465.371204026625
 20
2088.63100647968
 30
0.0
 10
1464.838645014403
 20
2088.725571400108
 30
0.0
 10
1464.358039416598
 20
2088.825882438894
 30
0.0
 10
1463.933446204598
 20
2088.930818686402
 30
0.0
 10
1463.568342749657
 20
2089.039263941096
 30
0.0
 10
1463.265376984847
 20
2089.15021997273
 30
0.0
 10
1463.027241004969
 20
2089.262538824834
 30
0.0
 10
1462.855713773552
 20
2089.375265404497
 30
0.0
 10
1462.752231200603
 20
2089.487398120527
 30
0.0
 10
1462.717659884909
 20
2089.597972218503
 30
0.0
 10
1462.752251569209
 20
2089.70622798079
 30
0.0
 10
1462.855685156469
 20
2089.811290791082
 30
0.0
 10
1463.027120092496
 20
2089.912500844265
 30
0.0
 10
1463.265164884732
 20
2090.009251312081
 30
0.0
 10
1463.567786215138
 20
2090.100959940392
 30
0.0
 10
1463.932854926867
 20
2090.187238975452
 30
0.0
 10
1464.357164330434
 20
2090.267609561807
 30
0.0
 10
1464.837238316945
 20
2090.341732285628
 30
0.0
 10
1465.36922800032
 20
2090.409351933886
 30
0.0
 10
1465.949360659023
 20
2090.470298619818
 30
0.0
 10
1466.57356350796
 20
2090.524416324914
 30
0.0
 10
1467.236652587535
 20
2090.571518238212
 30
0.0
 10
1467.932774401338
 20
2090.611461524182
 30
0.0
 10
1468.656744226137
 20
2090.644206536602
 30
0.0
 10
1469.404243599296
 20
2090.669753045913
 30
0.0
 10
1470.169728661539
 20
2090.688033720372
 30
0.0
 10
1470.94702428354
 20
2090.699017674185
 30
0.0
 10
1471.468166032942
 20
2090.701422186491
 30
0.0
 10
1471.729144121026
 20
2090.701444127865
 30
0.0
  0
SPLINE
  5
1A6F
330
A
100
AcDbEntity
  8
MODEL
100
AcDbSpline
210
0.0
220
0.0
230
1.0
 70
    11
 71
     3
 72
    84
 73
    80
 74
     0
 42
0.000000001
 43
0.0000000001
 40
0.0
 40
0.0
 40
0.0
 40
0.0
 40
0.7694932034395255
 40
1.539572079108536
 40
2.309620801216225
 40
3.077934754325031
 40
3.846329225954331
 40
4.615139628056697
 40
5.383575327640163
 40
6.15082711481284
 40
6.916747369083438
 40
7.683168174065132
 40
8.449480268296384
 40
9.214924664908443
 40
9.980115427858827
 40
10.74412201155846
 40
11.50860990761685
 40
12.27271697265476
 40
13.03658585886679
 40
13.80040137110848
 40
14.56375318898246
 40
15.32791114027333
 40
16.09147698112219
 40
16.85569021174621
 40
17.62001151740625
 40
18.3843972025997
 40
19.1497999169018
 40
19.91488749393682
 40
20.68110567516412
 40
21.44737175269802
 40
22.21413041274102
 40
22.98187440855387
 40
23.74940118358818
 40
24.51818855967347
 40
25.28672133745753
 40
26.05588697021009
 40
26.82556960265232
 40
27.59491033071589
 40
28.36522279678576
 40
29.1347734321515
 40
29.90483125962997
 40
30.67460605411362
 40
31.44385594859368
 40
32.21353706631509
 40
32.98203078861658
 40
33.75081033975711
 40
34.51867236034673
 40
35.28599804924501
 40
36.05330915287903
 40
36.81940254114452
 40
37.58574639012404
 40
38.3510094864775
 40
39.11606697053872
 40
39.88097356391734
 40
40.64509942911521
 40
41.40972526139304
 40
42.17348087460092
 40
42.93758310683482
 40
43.70172705506166
 40
44.46602952316641
 40
45.23072372674707
 40
45.99488377486858
 40
46.76017136339052
 40
47.52581511518024
 40
48.29240085260724
 40
49.0591270432338
 40
49.82508497220063
 40
50.59210466125686
 40
51.36100754567536
 40
52.13047640273329
 40
52.89919590949732
 40
53.6671720575657
 40
54.43623648596787
 40
55.20760127277912
 40
55.97756543416013
 40
56.74700473173627
 40
56.74700473173627
 40
56.74700473173627
 40
56.74700476293467
 40
56.74700476293467
 40
56.74700476293467
 40
56.74700476293467
 10
1504.729072543704
 20
2089.59494055338
 30
0.0
 10
1504.729110295114
 20
2089.630302061702
 30
0.0
 10
1504.707284194286
 20
2089.700325422214
 30
0.0
 10
1504.609387329677
 20
2089.802435104235
 30
0.0
 10
1504.447033264451
 20
2089.900929706592
 30
0.0
 10
1504.221561482626
 20
2089.995247663195
 30
0.0
 10
1503.934752913799
 20
2090.084890039262
 30
0.0
 10
1503.588553516075
 20
2090.169474911787
 30
0.0
 10
1503.185620859625
 20
2090.248594723887
 30
0.0
 10
1502.729353221615
 20
2090.321875415824
 30
0.0
 10
1502.223049348084
 20
2090.389098827007
 30
0.0
 10
1501.670225630087
 20
2090.450080069903
 30
0.0
 10
1501.074767167718
 20
2090.504650579305
 30
0.0
 10
1500.441170276498
 20
2090.552656082822
 30
0.0
 10
1499.774353224671
 20
2090.593970149937
 30
0.0
 10
1499.078869942646
 20
2090.628536494217
 30
0.0
 10
1498.359640090172
 20
2090.656298203348
 30
0.0
 10
1497.621635732005
 20
2090.677212224762
 30
0.0
 10
1496.87028161903
 20
2090.691243384259
 30
0.0
 10
1496.110983041428
 20
2090.698370897423
 30
0.0
 10
1495.348930001645
 20
2090.69858843067
 30
0.0
 10
1494.589569053496
 20
2090.691889997731
 30
0.0
 10
1493.838193212863
 20
2090.678278406829
 30
0.0
 10
1493.100248340954
 20
2090.657771032083
 30
0.0
 10
1492.380896928661
 20
2090.630387442652
 30
0.0
 10
1491.685219826421
 20
2090.596165270055
 30
0.0
 10
1491.018283245602
 20
2090.555160065913
 30
0.0
 10
1490.384708271883
 20
2090.507434610315
 30
0.0
 10
1489.789308957091
 20
2090.45310756227
 30
0.0
 10
1489.236239744151
 20
2090.392292051431
 30
0.0
 10
1488.72960491393
 20
2090.325163394388
 30
0.0
 10
1488.273209618444
 20
2090.251938744137
 30
0.0
 10
1487.870268675088
 20
2090.172845788151
 30
0.0
 10
1487.524076488969
 20
2090.088252990186
 30
0.0
 10
1487.237033670453
 20
2089.998480891976
 30
0.0
 10
1487.011456988605
 20
2089.904008784862
 30
0.0
 10
1486.849061074789
 20
2089.805338794064
 30
0.0
 10
1486.751057693181
 20
2089.703009882576
 30
0.0
 10
1486.718287370572
 20
2089.597753197569
 30
0.0
 10
1486.750987807282
 20
2089.490195353401
 30
0.0
 10
1486.848895430393
 20
2089.381207215229
 30
0.0
 10
1487.011282725423
 20
2089.271593801119
 30
0.0
 10
1487.236933939386
 20
2089.16224168981
 30
0.0
 10
1487.523986963215
 20
2089.054154747368
 30
0.0
 10
1487.870472396719
 20
2088.948223833269
 30
0.0
 10
1488.273473801871
 20
2088.845530126821
 30
0.0
 10
1488.730135219079
 20
2088.747020070252
 30
0.0
 10
1489.236974465118
 20
2088.653694158173
 30
0.0
 10
1489.790127858615
 20
2088.566533760006
 30
0.0
 10
1490.385743371467
 20
2088.486423397616
 30
0.0
 10
1491.019179511271
 20
2088.414267972886
 30
0.0
 10
1491.686037985122
 20
2088.35083674304
 30
0.0
 10
1492.381429384211
 20
2088.296842847548
 30
0.0
 10
1493.100411730181
 20
2088.252897581021
 30
0.0
 10
1493.83795871387
 20
2088.219493671013
 30
0.0
 10
1494.588751938209
 20
2088.197022391436
 30
0.0
 10
1495.347531705717
 20
2088.185739473077
 30
0.0
 10
1496.10896108042
 20
2088.185769060479
 30
0.0
 10
1496.867842824126
 20
2088.197113998806
 30
0.0
 10
1497.618776194527
 20
2088.219639310905
 30
0.0
 10
1498.356285060983
 20
2088.253076508939
 30
0.0
 10
1499.075252780425
 20
2088.297032564398
 30
0.0
 10
1499.770695644198
 20
2088.351008625855
 30
0.0
 10
1500.437893510575
 20
2088.414424063822
 30
0.0
 10
1501.07169299737
 20
2088.486541515603
 30
0.0
 10
1501.667230509505
 20
2088.566530308385
 30
0.0
 10
1502.220247078378
 20
2088.6535142701
 30
0.0
 10
1502.727078788413
 20
2088.746630805975
 30
0.0
 10
1503.18413401257
 20
2088.844987531423
 30
0.0
 10
1503.587495031696
 20
2088.947520234879
 30
0.0
 10
1503.933870414225
 20
2089.053144756024
 30
0.0
 10
1504.220875599663
 20
2089.160900324263
 30
0.0
 10
1504.446654542703
 20
2089.269948331766
 30
0.0
 10
1504.609207313498
 20
2089.379318613176
 30
0.0
 10
1504.707246797038
 20
2089.488062034294
 30
0.0
 10
1504.729034851347
 20
2089.559634393556
 30
0.0
 10
1504.729072543694
 20
2089.594940522182
 30
0.0
 10
1504.729660384957
 20
2090.145566861187
 30
0.0
 10
1504.72848382255
 20
2089.043489159179
 30
0.0
 10
1504.729072543704
 20
2089.59494055338
 30
0.0
  0
SPLINE
  5
1A70
330
A
100
AcDbEntity
  8
MODEL
100
AcDbSpline
210
0.0
220
0.0
230
1.0
 70
    11
 71
     3
 72
    84
 73
    80
 74
     0
 42
0.000000001
 43
0.0000000001
 40
0.0
 40
0.0
 40
0.0
 40
0.0
 40
0.7693752214727079
 40
1.539125197796487
 40
2.310142245406334
 40
3.078781317834323
 40
3.846244565497286
 40
4.614348404343376
 40
5.38312908744056
 40
6.151321234370578
 40
6.917646428700231
 40
7.682924954224879
 40
8.44897497378937
 40
9.214921055577125
 40
9.979982318446083
 40
10.74474332775052
 40
11.50842112360017
 40
12.27268402845197
 40
13.03659260722581
 40
13.80037155228108
 40
14.5641286721381
 40
15.32753256921255
 40
16.09181038063674
 40
16.85555801889994
 40
17.620057517377
 40
18.38467710024942
 40
19.14945683507566
 40
19.91528273347426
 40
20.68082967694171
 40
21.44756133010573
 40
22.21430979058716
 40
22.98159513297688
 40
23.749818130573
 40
24.51780902934663
 40
25.28703462864854
 40
26.0559198930537
 40
26.82541844012416
 40
27.59530561792369
 40
28.36479971819539
 40
29.13517072706859
 40
29.90467888279808
 40
30.67463824415489
 40
31.44417406706722
 40
32.21314963159244
 40
32.98245478792335
 40
33.75052720217515
 40
34.51885147815018
 40
35.28619314036507
 40
36.05302711125005
 40
36.81980096093353
 40
37.58540434470729
 40
38.35128603111075
 40
39.11611715986241
 40
39.88083996706281
 40
40.64542991189394
 40
41.40935386832658
 40
42.1738500655831
 40
42.93755692046241
 40
43.70173358966804
 40
44.4659962300818
 40
45.23053639927342
 40
45.99550354887317
 40
46.76004157935198
 40
47.52581261719429
 40
48.29188697512125
 40
49.05887731403181
 40
49.82599898657467
 40
50.59260872140452
 40
51.36055300500902
 40
52.12966772207248
 40
52.89910246953024
 40
53.66803291113548
 40
54.43677319140102
 40
55.20715206934274
 40
55.97744570650202
 40
56.7470052128481
 40
56.7470052128481
 40
56.7470052128481
 40
56.74700524270772
 40
56.74700524270772
 40
56.74700524270772
 40
56.74700524270772
 10
1438.729215698359
 20
2089.594940523074
 30
0.0
 10
1438.729177942635
 20
2089.630296419406
 30
0.0
 10
1438.750991762126
 20
2089.700297344672
 30
0.0
 10
1438.848896317309
 20
2089.802438925589
 30
0.0
 10
1439.011308224494
 20
2089.900964857928
 30
0.0
 10
1439.236858009153
 20
2089.995291677032
 30
0.0
 10
1439.523556552541
 20
2090.084889167249
 30
0.0
 10
1439.869560682221
 20
2090.169435179898
 30
0.0
 10
1440.272506023168
 20
2090.248570087129
 30
0.0
 10
1440.729118211511
 20
2090.321906123706
 30
0.0
 10
1441.235503903194
 20
2090.389128895061
 30
0.0
 10
1441.788108896145
 20
2090.450081570472
 30
0.0
 10
1442.383331653225
 20
2090.504635331588
 30
0.0
 10
1443.01693243625
 20
2090.552643877287
 30
0.0
 10
1443.684049195505
 20
2090.593977847329
 30
0.0
 10
1444.37955690537
 20
2090.628542449596
 30
0.0
 10
1445.098745375278
 20
2090.656300265849
 30
0.0
 10
1445.8365922523
 20
2090.677211265943
 30
0.0
 10
1446.587987194246
 20
2090.691242962347
 30
0.0
 10
1447.347401745083
 20
2090.698372110215
 30
0.0
 10
1448.109398271242
 20
2090.698587603378
 30
0.0
 10
1448.86876737869
 20
2090.691889252766
 30
0.0
 10
1449.620080132679
 20
2090.678279304595
 30
0.0
 10
1450.358100600447
 20
2090.65776835307
 30
0.0
 10
1451.077446090781
 20
2090.630385953705
 30
0.0
 10
1451.773084894823
 20
2090.596163577366
 30
0.0
 10
1452.440075992224
 20
2090.555155374801
 30
0.0
 10
1453.073531103846
 20
2090.507438975912
 30
0.0
 10
1453.669057441751
 20
2090.453099113091
 30
0.0
 10
1454.222065643381
 20
2090.392291149948
 30
0.0
 10
1454.728700263529
 20
2090.325159779196
 30
0.0
 10
1455.18514839997
 20
2090.251926814872
 30
0.0
 10
1455.587960943445
 20
2090.172858540634
 30
0.0
 10
1455.934281220188
 20
2090.088233378455
 30
0.0
 10
1456.22123958692
 20
2089.998487993122
 30
0.0
 10
1456.446846509696
 20
2089.903999110524
 30
0.0
 10
1456.609250204787
 20
2089.805322851978
 30
0.0
 10
1456.707217752553
 20
2089.703027220104
 30
0.0
 10
1456.740000744629
 20
2089.597723683484
 30
0.0
 10
1456.707313838186
 20
2089.490214307694
 30
0.0
 10
1456.609368764575
 20
2089.381188764668
 30
0.0
 10
1456.446990013698
 20
2089.271583197347
 30
0.0
 10
1456.221373146375
 20
2089.162251196185
 30
0.0
 10
1455.934223907734
 20
2089.054128229237
 30
0.0
 10
1455.587884055613
 20
2088.948242751916
 30
0.0
 10
1455.184736869854
 20
2088.845512359598
 30
0.0
 10
1454.72813761438
 20
2088.747015821249
 30
0.0
 10
1454.221302296543
 20
2088.653693482536
 30
0.0
 10
1453.668073117459
 20
2088.566520313018
 30
0.0
 10
1453.072600166213
 20
2088.486430679563
 30
0.0
 10
1452.439036853893
 20
2088.414260631095
 30
0.0
 10
1451.772229475719
 20
2088.350833852166
 30
0.0
 10
1451.076807603031
 20
2088.296840654478
 30
0.0
 10
1450.357818050333
 20
2088.252893353022
 30
0.0
 10
1449.620333144542
 20
2088.219494750085
 30
0.0
 10
1448.869505494627
 20
2088.197021529591
 30
0.0
 10
1448.110700713833
 20
2088.185737937435
 30
0.0
 10
1447.349237227649
 20
2088.18577103085
 30
0.0
 10
1446.590465429492
 20
2088.197113245959
 30
0.0
 10
1445.839566276111
 20
2088.219638018325
 30
0.0
 10
1445.101913222201
 20
2088.253079485319
 30
0.0
 10
1444.382891525805
 20
2088.29704227286
 30
0.0
 10
1443.68747921516
 20
2088.351020375427
 30
0.0
 10
1443.020586575304
 20
2088.414404749225
 30
0.0
 10
1442.386774490527
 20
2088.486519972295
 30
0.0
 10
1441.791006345305
 20
2088.566533989224
 30
0.0
 10
1441.237787566605
 20
2088.653555075647
 30
0.0
 10
1440.731027472603
 20
2088.746671409147
 30
0.0
 10
1440.274313669536
 20
2088.844954603838
 30
0.0
 10
1439.870961785889
 20
2088.947471548248
 30
0.0
 10
1439.524394851337
 20
2089.053145660795
 30
0.0
 10
1439.237285303813
 20
2089.160951106439
 30
0.0
 10
1439.011581971507
 20
2089.269986010491
 30
0.0
 10
1438.849083747185
 20
2089.379323567096
 30
0.0
 10
1438.751053913156
 20
2089.488033092122
 30
0.0
 10
1438.72925340686
 20
2089.559628814395
 30
0.0
 10
1438.729215698349
 20
2089.594940552934
 30
0.0
 10
1438.728627696854
 20
2090.145568358801
 30
0.0
 10
1438.729804577071
 20
2089.043492095635
 30
0.0
 10
1438.729215698359
 20
2089.594940523074
 30
0.0
  0
ELLIPSE
  5
1A71
330
A
100
AcDbEntity
  8
MODEL
100
AcDbEllipse
 10
1480.729220455464
 20
2092.568408869898
 30
0.0
 11
3.000076330004573
 21
-0.0001646951867555094
 31
0.0
210
0.0
220
0.0
230
-1.0
 40
0.9902456785282547
 41
1.570781928951207
 42
2.236494163337782
  0
SPLINE
  5
1A72
330
A
100
AcDbEntity
  8
MODEL
100
AcDbSpline
210
0.0
220
0.0
230
1.0
 70
     8
 71
     3
 72
    25
 73
    21
 74
     0
 42
0.000000001
 43
0.0000000001
 40
4.550845692740189
 40
4.550845692740189
 40
4.550845692740189
 40
4.550845692740189
 40
4.955292908758774
 40
5.689617028157275
 40
6.081335110077937
 40
7.452125669130827
 40
8.881310288257044
 40
10.2528474847421
 40
11.53819223792148
 40
13.61277427079602
 40
16.53826351218374
 40
17.31422987234364
 40
19.47970421359135
 40
20.83620093315671
 40
21.87869163441442
 40
23.07872879252879
 40
24.15617552654989
 40
24.71454641037279
 40
25.41831743683812
 40
25.51334499313736
 40
25.51334499313736
 40
25.51334499313736
 40
25.51334499313736
 10
1440.270124680049
 20
2090.149415202868
 30
0.0
 10
1440.270132638741
 20
2090.149393471418
 30
0.0
 10
1440.293909751965
 20
2090.158029655572
 30
0.0
 10
1440.402872365713
 20
2090.188482066701
 30
0.0
 10
1440.675202031157
 20
2090.250044445418
 30
0.0
 10
1441.188236372464
 20
2090.340852838644
 30
0.0
 10
1442.098789320343
 20
2090.450349524478
 30
0.0
 10
1443.168517750236
 20
2090.540006074188
 30
0.0
 10
1444.554360472873
 20
2090.620394065091
 30
0.0
 10
1446.574279777729
 20
2090.685154760511
 30
0.0
 10
1448.529454805623
 20
2090.684650603081
 30
0.0
 10
1450.436469220573
 20
2090.639028171387
 30
0.0
 10
1451.763945521584
 20
2090.57955487345
 30
0.0
 10
1452.999395576165
 20
2090.4854742217
 30
0.0
 10
1453.848117207788
 20
2090.396947461754
 30
0.0
 10
1454.498314585331
 20
2090.306047685315
 30
0.0
 10
1454.905109090285
 20
2090.227438361702
 30
0.0
 10
1455.121977673912
 20
2090.173878137678
 30
0.0
 10
1455.182318677411
 20
2090.154266127984
 30
0.0
 10
1455.186188441312
 20
2090.152820472875
 30
0.0
 10
1455.186185975804
 20
2090.152813556657
 30
0.0
  0
SPLINE
  5
1A73
330
A
100
AcDbEntity
  8
MODEL
100
AcDbSpline
210
0.0
220
0.0
230
1.0
 70
     8
 71
     3
 72
    25
 73
    21
 74
     0
 42
0.000000001
 43
0.0000000001
 40
4.550801237139554
 40
4.550801237139554
 40
4.550801237139554
 40
4.550801237139554
 40
4.952922789821452
 40
5.68732395769631
 40
6.079093808870114
 40
7.44869420684021
 40
8.87719972245173
 40
10.24864972143366
 40
11.53356032546791
 40
13.60736186331484
 40
16.53203834043665
 40
17.30784132776413
 40
19.47297067277206
 40
20.8291831683035
 40
21.87142995647167
 40
23.07133535079994
 40
24.14934206941953
 40
24.7076178619578
 40
25.41292142889377
 40
25.51273882597392
 40
25.51273882597392
 40
25.51273882597392
 40
25.51273882597392
 10
1503.188185141881
 20
2090.149403452895
 30
0.0
 10
1503.188177634766
 20
2090.149382972184
 30
0.0
 10
1503.164565259474
 20
2090.157970003454
 30
0.0
 10
1503.056030158269
 20
2090.188326692427
 30
0.0
 10
1502.784182305652
 20
2090.249825392246
 30
0.0
 10
1502.271889930834
 20
2090.340575972292
 30
0.0
 10
1501.362325184419
 20
2090.450061596965
 30
0.0
 10
1500.293362510695
 20
2090.539752195012
 30
0.0
 10
1498.908324088476
 20
2090.620196441581
 30
0.0
 10
1496.889451700808
 20
2090.685069392732
 30
0.0
 10
1494.934886399253
 20
2090.684699710018
 30
0.0
 10
1493.027953338313
 20
2090.639247690377
 30
0.0
 10
1491.700268216685
 20
2090.579895838855
 30
0.0
 10
1490.464266988284
 20
2090.485952529406
 30
0.0
 10
1489.614855303681
 20
2090.397508342184
 30
0.0
 10
1488.96374414625
 20
2090.306674636343
 30
0.0
 10
1488.555559694099
 20
2090.227946158124
 30
0.0
 10
1488.337813046346
 20
2090.174309126393
 30
0.0
 10
1488.276142258356
 20
2090.154323733498
 30
0.0
 10
1488.272025385453
 20
2090.152794326274
 30
0.0
 10
1488.272027747909
 20
2090.152787707339
 30
0.0
  0
SPLINE
  5
1A74
330
A
100
AcDbEntity
  8
MODEL
100
AcDbSpline
210
0.0
220
0.0
230
1.0
 70
     8
 71
     3
 72
    16
 73
    12
 74
     0
 42
0.000000001
 43
0.0000000001
 40
4.548987261836803
 40
4.548987261836803
 40
4.548987261836803
 40
4.548987261836803
 40
4.693001250318134
 40
5.347151190222886
 40
5.870674253959101
 40
6.927042544330874
 40
8.601801392032439
 40
9.572098756103216
 40
10.94243593582731
 40
13.58125550862486
 40
15.02807768479427
 40
15.02807768479427
 40
15.02807768479427
 40
15.02807768479427
 10
1464.27267389172
 20
2090.153741455757
 30
0.0
 10
1464.272672709528
 20
2090.153744737406
 30
0.0
 10
1464.278563456966
 20
2090.155888747568
 30
0.0
 10
1464.339737092817
 20
2090.175398433265
 30
0.0
 10
1464.543799798229
 20
2090.226098259991
 30
0.0
 10
1465.00267362841
 20
2090.316175095091
 30
0.0
 10
1465.759336143497
 20
2090.417644587025
 30
0.0
 10
1466.753209554028
 20
2090.511784700227
 30
0.0
 10
1468.144099338329
 20
2090.608391218648
 30
0.0
 10
1469.884381652116
 20
2090.671291583106
 30
0.0
 10
1471.247460175245
 20
2090.683614131118
 30
0.0
 10
1471.729144121026
 20
2090.683613999812
 30
0.0
  0
SPLINE
  5
1A75
330
A
100
AcDbEntity
  8
MODEL
100
AcDbSpline
210
0.0
220
0.0
230
1.0
 70
     8
 71
     3
 72
    15
 73
    11
 74
     0
 42
0.000000001
 43
0.0000000001
 40
4.550349438223826
 40
4.550349438223826
 40
4.550349438223826
 40
4.550349438223826
 40
4.775191998690458
 40
5.820550860902892
 40
6.765366991422844
 40
8.477338822788429
 40
9.488672592339734
 40
10.71510871571427
 40
13.4076598462162
 40
15.02809306956933
 40
15.02809306956933
 40
15.02809306956933
 40
15.02809306956933
 10
1479.185438597681
 20
2090.153613399533
 30
0.0
 10
1479.185461163852
 20
2090.153674966614
 30
0.0
 10
1479.171045421086
 20
2090.159353678357
 30
0.0
 10
1479.012429381041
 20
2090.205697106816
 30
0.0
 10
1478.51351781991
 20
2090.3062151014
 30
0.0
 10
1477.783202884781
 20
2090.408278242882
 30
0.0
 10
1476.817831538136
 20
2090.502139504123
 30
0.0
 10
1475.460102452754
 20
2090.600599864229
 30
0.0
 10
1473.707656192808
 20
2090.669045134185
 30
0.0
 10
1472.268444177874
 20
2090.683614178582
 30
0.0
 10
1471.729144121026
 20
2090.683613999818
 30
0.0
  0
LINE
  5
1A7A
330
A
100
AcDbEntity
  8
HIDDEN
100
AcDbLine
 10
1716.729144121026
 20
1838.578064689037
 30
0.0
 11
1716.729144121026
 21
2058.578064689037
 31
0.0
  0
LINE
  5
1A7B
330
A
100
AcDbEntity
  8
HIDDEN
100
AcDbLine
 10
1261.729132791305
 20
2093.578064689037
 30
0.0
 11
1681.729144121026
 21
2093.578064689037
 31
0.0
  0
ARC
  5
1A7C
330
A
100
AcDbEntity
  8
HIDDEN
100
AcDbCircle
 10
1681.729144121026
 20
2058.578064689037
 30
0.0
 40
35.0
100
AcDbArc
 50
0.0
 51
89.99999999979156
  0
LINE
  5
1A7D
330
A
100
AcDbEntity
  8
HIDDEN
100
AcDbLine
 10
1261.729132791305
 20
1803.578064689037
 30
0.0
 11
1681.729144121026
 21
1803.578064689037
 31
0.0
  0
ARC
  5
1A7E
330
A
100
AcDbEntity
  8
HIDDEN
100
AcDbCircle
 10
1681.729144121026
 20
1838.578064689037
 30
0.0
 40
35.0
100
AcDbArc
 50
270.0000000002084
 51
0.0
  0
LINE
  5
1A7F
330
A
100
AcDbEntity
  8
HIDDEN
100
AcDbLine
 10
1226.729132791305
 20
1838.578064689037
 30
0.0
 11
1226.729132791305
 21
2058.578064689037
 31
0.0
  0
ARC
  5
1A80
330
A
100
AcDbEntity
  8
HIDDEN
100
AcDbCircle
 10
1261.729132791305
 20
2058.578064689037
 30
0.0
 40
35.0
100
AcDbArc
 50
89.99999999979156
 51
179.9999999995578
  0
ARC
  5
1A81
330
A
100
AcDbEntity
  8
HIDDEN
100
AcDbCircle
 10
1261.729132791305
 20
1838.578064689037
 30
0.0
 40
35.0
100
AcDbArc
 50
179.999999999557
 51
269.9999999993226
  0
LINE
  5
1A87
102
{ACAD_REACTORS
330
1C4D
102
}
330
A
100
AcDbEntity
  8
MODEL
 48
0.25
100
AcDbLine
 10
1730.229144121026
 20
1778.233487523953
 30
0.0
 11
1213.229144121026
 21
1778.233487523953
 31
0.0
  0
LINE
  5
1A89
102
{ACAD_REACTORS
330
1C4D
102
}
330
A
100
AcDbEntity
  8
MODEL
 48
0.25
100
AcDbLine
 10
1730.229144121026
 20
2117.92264185412
 30
0.0
 11
1213.229144121026
 21
2117.922641854119
 31
0.0
  0
LINE
  5
1A8A
330
A
100
AcDbEntity
  8
HIDDEN
100
AcDbLine
 10
1771.729144121026
 20
2108.578064689037
 30
0.0
 11
1771.729144121026
 21
1788.578064689037
 31
0.0
  0
LINE
  5
1A8B
330
A
100
AcDbEntity
  8
HIDDEN
100
AcDbLine
 10
1171.729144121026
 20
2108.578064689037
 30
0.0
 11
1171.729144121026
 21
1788.578064689037
 31
0.0
  0
LINE
  5
1A8C
330
A
100
AcDbEntity
  8
HIDDEN
100
AcDbLine
 10
1211.729144121026
 20
2148.578064689037
 30
0.0
 11
1731.729144121026
 21
2148.578064689037
 31
0.0
  0
LINE
  5
1A8D
330
A
100
AcDbEntity
  8
HIDDEN
100
AcDbLine
 10
1211.729144121026
 20
1748.578064689037
 30
0.0
 11
1731.729144121026
 21
1748.578064689037
 31
0.0
  0
ARC
  5
1A8E
330
A
100
AcDbEntity
  8
HIDDEN
100
AcDbCircle
 10
1211.729144121026
 20
2108.578064689037
 30
0.0
 40
40.0
100
AcDbArc
 50
90.0
 51
180.0
  0
ARC
  5
1A8F
330
A
100
AcDbEntity
  8
HIDDEN
100
AcDbCircle
 10
1731.729144121026
 20
2108.578064689037
 30
0.0
 40
40.0
100
AcDbArc
 50
0.0
 51
90.0
  0
ARC
  5
1A90
330
A
100
AcDbEntity
  8
HIDDEN
100
AcDbCircle
 10
1211.729144121026
 20
1788.578064689037
 30
0.0
 40
40.0
100
AcDbArc
 50
180.0
 51
270.0
  0
ARC
  5
1A91
330
A
100
AcDbEntity
  8
HIDDEN
100
AcDbCircle
 10
1731.729144121026
 20
1788.578064689037
 30
0.0
 40
40.0
100
AcDbArc
 50
270.0
 51
0.0
  0
DIMENSION
  5
1AE4
330
A
100
AcDbEntity
  8
DIM
  6
Continuous
100
AcDbDimension
  2
*D11
 10
1744.229144121026
 20
2248.578064689037
 30
0.0
 11
1471.729144121026
 21
2280.578064689037
 31
0.0
 70
    32
 71
     5
 42
545.0
 73
     0
 74
     0
 75
     0
  3
tfrom線あり
100
AcDbAlignedDimension
 13
1199.229144121026
 23
2103.922641854119
 33
0.0
 14
1744.229144121026
 24
2103.583254532554
 34
0.0
100
AcDbRotatedDimension
  0
DIMENSION
  5
1AF3
330
A
100
AcDbEntity
  8
DIM
  6
Continuous
100
AcDbDimension
  2
*D12
 10
1871.377767673782
 20
1778.233487523953
 30
0.0
 11
1839.377767673782
 21
1948.078067367743
 31
0.0
 70
    32
 71
     5
 42
339.6891596875798
 73
     0
 74
     0
 75
     0
  3
tfrom線あり
100
AcDbAlignedDimension
 13
1731.732456260563
 23
2117.922647211533
 33
0.0
 14
1731.746870730315
 24
1778.233487523953
 34
0.0
 50
90.0
100
AcDbRotatedDimension
  0
LINE
  5
1B26
102
{ACAD_REACTORS
330
1C4D
102
}
330
A
100
AcDbEntity
  8
MODEL
  6
Continuous
100
AcDbLine
 10
1744.229144121026
 20
2103.92264185412
 30
0.0
 11
1744.229144121026
 21
1792.233487523953
 31
0.0
  0
LINE
  5
1B27
102
{ACAD_REACTORS
330
1C4D
102
}
330
A
100
AcDbEntity
  8
MODEL
  6
Continuous
100
AcDbLine
 10
1199.229144121026
 20
2103.922641854119
 30
0.0
 11
1199.229144121026
 21
1792.233487523953
 31
0.0
  0
ARC
  5
1B67
102
{ACAD_REACTORS
330
1C4D
102
}
330
A
100
AcDbEntity
  8
MODEL
  6
Continuous
100
AcDbCircle
 10
1730.229144121026
 20
1792.233487523953
 30
0.0
 40
14.0
100
AcDbArc
 50
270.0
 51
0.0
  0
ARC
  5
1B68
102
{ACAD_REACTORS
330
1C4D
102
}
330
A
100
AcDbEntity
  8
MODEL
  6
Continuous
100
AcDbCircle
 10
1213.229144121026
 20
1792.233487523953
 30
0.0
 40
14.00000000000001
100
AcDbArc
 50
180.0
 51
270.0
  0
ARC
  5
1B69
102
{ACAD_REACTORS
330
1C4D
102
}
330
A
100
AcDbEntity
  8
MODEL
  6
Continuous
100
AcDbCircle
 10
1213.229144121026
 20
2103.922641854119
 30
0.0
 40
14.0
100
AcDbArc
 50
90.0
 51
180.0
  0
ARC
  5
1B6A
102
{ACAD_REACTORS
330
1C4D
102
}
330
A
100
AcDbEntity
  8
MODEL
  6
Continuous
100
AcDbCircle
 10
1730.229144121026
 20
2103.92264185412
 30
0.0
 40
14.0
100
AcDbArc
 50
0.0
 51
90.0
  0
DIMENSION
  5
1B7D
102
{ACAD_REACTORS
330
1B7F
102
}
102
{ACAD_XDICTIONARY
360
1B7E
102
}
330
A
100
AcDbEntity
  8
DIM
  6
Continuous
100
AcDbDimension
  2
*D14
 10
988.5431198345196
 20
932.1732317012684
 30
0.0
 11
956.5431198345196
 21
1022.173230335244
 31
0.0
 70
    32
 71
     5
 42
179.9999972679507
 73
     0
 74
     0
 75
     0
  3
tfrom線あり
100
AcDbAlignedDimension
 13
876.223982963857
 23
1112.173228969219
 33
0.0
 14
620.1558843598423
 24
932.1732317012684
 34
0.0
 50
90.0
100
AcDbRotatedDimension
  0
DIMENSION
  5
1B9D
102
{ACAD_REACTORS
330
1B9F
102
}
102
{ACAD_XDICTIONARY
360
1B9E
102
}
330
A
100
AcDbEntity
  8
DIM
  6
Continuous
100
AcDbDimension
  2
*D16
 10
1175.758559424648
 20
1037.173240718233
 30
0.0
 11
1143.758559424648
 21
1074.673240942926
 31
0.0
 70
    32
 71
     5
 42
75.00000044938702
 73
     0
 74
     0
 75
     0
  3
tfrom線あり
100
AcDbAlignedDimension
 13
1288.077697378226
 23
1112.17324116762
 33
0.0
 14
1292.227481871406
 24
1037.173240718233
 34
0.0
 50
90.0
100
AcDbRotatedDimension
  0
DIMENSION
  5
1BAC
102
{ACAD_REACTORS
330
1BAE
102
}
102
{ACAD_XDICTIONARY
360
1BAD
102
}
330
A
100
AcDbEntity
  8
DIM
  6
Continuous
100
AcDbDimension
  2
*D17
 10
1175.758559424648
 20
962.1732358694785
 30
0.0
 11
1143.758559424648
 21
999.6732382938558
 31
0.0
 70
    32
 71
     5
 42
75.00000484875454
 73
     0
 74
     0
 75
     0
  3
tfrom線あり
100
AcDbAlignedDimension
 13
1292.227481871406
 23
1037.173240718233
 33
0.0
 14
1337.002619972379
 24
962.1732358694785
 34
0.0
 50
90.0
100
AcDbRotatedDimension
  0
DIMENSION
  5
1BBE
102
{ACAD_REACTORS
330
1BC0
102
}
102
{ACAD_XDICTIONARY
360
1BBF
102
}
330
A
100
AcDbEntity
  8
DIM
  6
Continuous
100
AcDbDimension
  2
*D18
 10
1675.02877857796
 20
832.1732208825883
 30
0.0
 11
1575.212796667204
 21
864.1732208825883
 31
0.0
 70
    32
 71
     5
 42
199.6319638215132
 73
     0
 74
     0
 75
     0
  3
tfrom線あり
100
AcDbAlignedDimension
 13
1475.396814756447
 23
932.1732208825883
 33
0.0
 14
1675.02877857796
 24
1101.818032790108
 34
0.0
100
AcDbRotatedDimension
  0
MTEXT
  5
1BCD
330
A
100
AcDbEntity
  8
DIM
390
1D
100
AcDbMText
 10
1174.319289054222
 20
1642.171722439212
 30
0.0
 40
24.4326171875
 41
0.0
 46
118.0991272786459
 71
     1
 72
     1
  1
{\fメイリオ|b0|i0|c0|p0;※\fＭＳ ゴシック|b0|i0|c0|p0;陶器製品には寸法公差があります。\P  洗面器の収め方をご確認の上、必ず現物を合わせて\P  カウンターに切込を行ってください。}
  7
ＭＳ ゴシック
 73
     1
 44
1.1
1001
ACAD
1000
ACAD_MTEXT_DEFINED_HEIGHT_BEGIN
1070
    46
1040
118.0991272786459
1000
ACAD_MTEXT_DEFINED_HEIGHT_END
  0
MTEXT
  5
1BCE
330
A
100
AcDbEntity
  8
DIM
390
1D
100
AcDbMText
 10
1313.339204604148
 20
2417.826269845614
 30
0.0
 40
24.4326171875
 41
297.7875822982664
 46
24.4326171875
 71
     1
 72
     1
  1
{カウンター切込寸法}
  7
ＭＳ ゴシック
 73
     1
 44
0.7828267384257843
1001
ACAD
1000
ACAD_MTEXT_DEFINED_HEIGHT_BEGIN
1070
    46
1040
24.4326171875
1000
ACAD_MTEXT_DEFINED_HEIGHT_END
  0
LINE
  5
1C44
330
A
100
AcDbEntity
  8
MODEL
  6
Continuous
100
AcDbLine
 10
292.2491867553536
 20
1037.173228969219
 30
0.0
 11
187.670819699183
 21
1037.173228969219
 31
0.0
  0
LINE
  5
1C45
330
A
100
AcDbEntity
  8
MODEL
  6
Continuous
100
AcDbLine
 10
223.5331959296634
 20
1037.173228969219
 30
0.0
 11
223.5331959296634
 21
764.3665946379535
 31
0.0
  0
MTEXT
  5
1C46
330
A
100
AcDbEntity
  8
TEMPLATE
390
1D
100
AcDbMText
 10
209.8338592083662
 20
743.7853826966837
 30
0.0
 40
24.4326171875
 41
0.0
 46
24.4326171875
 71
     1
 72
     1
  1
{半埋め込み}
  7
ＭＳ ゴシック
 73
     1
 44
0.7828267384257843
1001
ACAD
1000
ACAD_MTEXT_DEFINED_HEIGHT_BEGIN
1070
    46
1040
24.4326171875
1000
ACAD_MTEXT_DEFINED_HEIGHT_END
  0
HATCH
  5
1C4D
330
A
100
AcDbEntity
  8
HIDDEN
  6
Continuous
100
AcDbHatch
 10
0.0
 20
0.0
 30
0.0
210
0.0
220
0.0
230
1.0
  2
ANSI31
 70
     0
 71
     1
 91
        1
 92
        1
 93
        8
 72
     1
 10
1730.229144121026
 20
2117.92264185412
 11
1213.229144121026
 21
2117.922641854119
 72
     2
 10
1213.229144121026
 20
2103.922641854119
 40
14.0
 50
90.0
 51
180.0
 73
     1
 72
     1
 10
1199.229144121026
 20
2103.922641854119
 11
1199.229144121026
 21
1792.233487523953
 72
     2
 10
1213.229144121026
 20
1792.233487523953
 40
14.00000000000001
 50
180.0
 51
270.0
 73
     1
 72
     1
 10
1730.229144121026
 20
1778.233487523953
 11
1213.229144121026
 21
1778.233487523953
 72
     2
 10
1730.229144121026
 20
1792.233487523953
 40
14.0
 50
270.0
 51
360.0
 73
     1
 72
     1
 10
1744.229144121026
 20
2103.92264185412
 11
1744.229144121026
 21
1792.233487523953
 72
     2
 10
1730.229144121026
 20
2103.92264185412
 40
14.0
 50
0.0
 51
90.0
 73
     1
 97
        8
330
1A89
330
1B69
330
1B27
330
1B68
330
1A87
330
1B67
330
1B26
330
1B6A
 75
     0
 76
     1
 52
0.0
 41
3.0
 77
     0
 78
     1
 53
45.0
 43
0.0
 44
0.0
 45
-6.735192090801863
 46
6.735192090801865
 79
     0
 98
        1
 10
0.0
 20
0.0
1001
ACAD
1010
0.0
1020
0.0
1030
0.0
  0
VIEWPORT
  5
349
330
B
100
AcDbEntity
 67
     1
  8
0
100
AcDbViewport
 10
202.5
 20
128.5
 30
0.0
 40
486.0
 41
308.4
 68
     1
 69
     1
 12
202.5
 22
128.5
 13
0.0
 23
0.0
 14
0.5
 24
0.5
 15
0.0
 25
0.0
 16
0.0
 26
0.0
 36
1.0
 17
0.0
 27
0.0
 37
0.0
 42
50.0
 43
0.0
 44
0.0
 45
308.4
 50
0.0
 51
0.0
 72
   100
 90
   557152
  1

281
     0
 71
     1
 74
     0
110
0.0
120
0.0
130
0.0
111
1.0
121
0.0
131
0.0
112
0.0
122
1.0
132
0.0
 79
     0
146
0.0
170
     0
 61
     5
348
26C
292
     1
282
     1
141
0.0
142
0.0
 63
   256
  0
VIEWPORT
  5
34A
330
B
100
AcDbEntity
 67
     1
  8
0
100
AcDbViewport
 10
202.5
 20
128.5
 30
0.0
 40
324.0
 41
205.6
 68
     2
 69
     2
 12
986.6781359294573
 22
1427.077061889956
 13
0.0
 23
0.0
 14
0.5
 24
0.5
 15
0.0
 25
0.0
 16
0.0
 26
0.0
 36
1.0
 17
0.0
 27
0.0
 37
0.0
 42
50.0
 43
0.0
 44
0.0
 45
2890.021615685494
 50
0.0
 51
0.0
 72
   100
 90
   557152
  1

281
     0
 71
     1
 74
     0
110
0.0
120
0.0
130
0.0
111
1.0
121
0.0
131
0.0
112
0.0
122
1.0
132
0.0
 79
     0
146
0.0
170
     0
 61
     5
348
26C
292
     1
282
     1
141
0.0
142
0.0
 63
   256
  0
ENDSEC
  0
SECTION
  2
OBJECTS
  0
DICTIONARY
  5
19
330
0
100
AcDbDictionary
281
     1
  3
ACAD_COLOR
350
674
  3
ACAD_DETAILVIEWSTYLE
350
BBF
  3
ACAD_GROUP
350
1A
  3
ACAD_IMAGE_VARS
350
27B
  3
ACAD_LAYOUT
350
1E
  3
ACAD_MATERIAL
350
263
  3
ACAD_MLEADERSTYLE
350
336
  3
ACAD_MLINESTYLE
350
1B
  3
ACAD_PLOTSETTINGS
350
22
  3
ACAD_PLOTSTYLENAME
350
1F
  3
ACAD_SCALELIST
350
241
  3
ACAD_SECTIONVIEWSTYLE
350
BC0
  3
ACAD_TABLESTYLE
350
278
  3
ACAD_VISUALSTYLE
350
267
  3
ACDB_RECOMPOSE_DATA
350
1C62
  3
AcDbVariableDictionary
350
330
  3
APPDATA
350
27A
  0
SUN
  5
904
330
15
100
AcDbSun
 90
        1
290
     0
 63
     7
421
 16777215
 40
1.0
291
     1
 91
  2455826
 92
 54000000
292
     0
 70
     2
 71
   256
280
     1
  0
DICTIONARY
  5
2E1
330
2
100
AcDbDictionary
280
     1
281
     1
  3
ACAD_LAYERSTATES
360
2E2
  3
ACLYDICTIONARY
360
1BE5
  0
DICTIONARY
  5
1A3A
330
1A39
100
AcDbDictionary
280
     1
281
     1
  3
ACAD_DIMASSOC
360
1A3B
  0
DICTIONARY
  5
1B7E
330
1B7D
100
AcDbDictionary
280
     1
281
     1
  3
ACAD_DIMASSOC
360
1B7F
  0
DICTIONARY
  5
1B9E
330
1B9D
100
AcDbDictionary
280
     1
281
     1
  3
ACAD_DIMASSOC
360
1B9F
  0
DICTIONARY
  5
1BAD
330
1BAC
100
AcDbDictionary
280
     1
281
     1
  3
ACAD_DIMASSOC
360
1BAE
  0
DICTIONARY
  5
1BBF
330
1BBE
100
AcDbDictionary
280
     1
281
     1
  3
ACAD_DIMASSOC
360
1BC0
  0
DICTIONARY
  5
674
102
{ACAD_REACTORS
330
19
102
}
330
19
100
AcDbDictionary
281
     1
  0
DICTIONARY
  5
BBF
102
{ACAD_REACTORS
330
19
102
}
330
19
100
AcDbDictionary
281
     1
  0
DICTIONARY
  5
1A
102
{ACAD_REACTORS
330
19
102
}
330
19
100
AcDbDictionary
281
     1
  0
RASTERVARIABLES
  5
27B
102
{ACAD_REACTORS
330
19
102
}
330
19
100
AcDbRasterVariables
 90
        0
 70
     1
 71
     1
 72
     1
  0
DICTIONARY
  5
1E
102
{ACAD_REACTORS
330
19
102
}
330
19
100
AcDbDictionary
281
     1
  3
Layout1
350
21
  3
Model
350
20
  0
DICTIONARY
  5
263
102
{ACAD_REACTORS
330
19
102
}
330
19
100
AcDbDictionary
281
     1
  3
ByBlock
350
1BEC
  3
ByLayer
350
264
  3
Global
350
266
  0
DICTIONARY
  5
336
102
{ACAD_REACTORS
330
19
102
}
330
19
100
AcDbDictionary
281
     1
  0
DICTIONARY
  5
1B
102
{ACAD_REACTORS
330
19
102
}
330
19
100
AcDbDictionary
281
     1
  3
Standard
350
1C
  0
DICTIONARY
  5
22
102
{ACAD_REACTORS
330
19
102
}
330
19
100
AcDbDictionary
281
     1
  0
ACDBDICTIONARYWDFLT
  5
1F
102
{ACAD_REACTORS
330
19
102
}
330
19
100
AcDbDictionary
281
     1
  3
Normal
350
1D
100
AcDbDictionaryWithDefault
340
1D
  0
DICTIONARY
  5
241
102
{ACAD_REACTORS
330
19
102
}
330
19
100
AcDbDictionary
281
     1
  3
A0
350
242
  3
A1
350
243
  3
A2
350
244
  3
A3
350
245
  3
A4
350
246
  3
A5
350
247
  3
A6
350
248
  3
A7
350
249
  3
A8
350
24A
  3
A9
350
24B
  3
B0
350
24C
  3
B1
350
24D
  3
B2
350
24E
  3
B3
350
24F
  3
B4
350
250
  3
B5
350
251
  3
B6
350
252
  3
B7
350
253
  3
B8
350
254
  3
B9
350
255
  3
C0
350
256
  3
C1
350
257
  3
C2
350
258
  3
C3
350
259
  3
C4
350
25A
  3
C5
350
25B
  3
C6
350
25C
  3
C7
350
25D
  3
C8
350
25E
  3
C9
350
25F
  3
D0
350
260
  3
D1
350
261
  3
D2
350
262
  0
DICTIONARY
  5
BC0
102
{ACAD_REACTORS
330
19
102
}
330
19
100
AcDbDictionary
281
     1
  0
DICTIONARY
  5
278
102
{ACAD_REACTORS
330
19
102
}
330
19
100
AcDbDictionary
281
     1
  3
Standard
350
279
  0
DICTIONARY
  5
267
102
{ACAD_REACTORS
330
19
102
}
330
19
100
AcDbDictionary
281
     1
  3
2dWireframe
350
26C
  3
3D Hidden
350
26E
  3
3dWireframe
350
26D
  3
Basic
350
26F
  3
Brighten
350
273
  3
ColorChange
350
277
  3
Conceptual
350
271
  3
Dim
350
272
  3
EdgeColorOff
350
8FE
  3
Facepattern
350
276
  3
Flat
350
268
  3
FlatWithEdges
350
269
  3
Gouraud
350
26A
  3
GouraudWithEdges
350
26B
  3
Hidden
350
8FB
  3
JitterOff
350
8FC
  3
Linepattern
350
275
  3
OverhangOff
350
8FD
  3
Realistic
350
270
  3
Shaded
350
903
  3
Shaded with edges
350
902
  3
Shades of Gray
350
8FF
  3
Sketchy
350
900
  3
Thicken
350
274
  3
Wireframe
350
8FA
  3
X-Ray
350
901
  0
XRECORD
  5
1C62
102
{ACAD_REACTORS
330
19
102
}
330
19
100
AcDbXrecord
280
     1
 90
        1
330
279
  0
DICTIONARY
  5
330
102
{ACAD_REACTORS
330
19
102
}
330
19
100
AcDbDictionary
281
     1
  3
CANNOSCALE
350
331
  3
CTABLESTYLE
350
335
  3
HPTRANSPARENCY
350
D52
  3
XCLIPFRAME
350
896
  0
DICTIONARY
  5
27A
102
{ACAD_REACTORS
330
19
102
}
330
19
100
AcDbDictionary
281
     1
  0
DICTIONARY
  5
2E2
102
{ACAD_REACTORS
330
2E1
102
}
330
2E1
100
AcDbDictionary
281
     1
  3
ARGON_LAYERP_8
350
C9F
  3
ARGON_LAYERP_9
350
7AA
  0
DICTIONARY
  5
1BE5
102
{ACAD_REACTORS
330
2E1
102
}
330
2E1
100
AcDbDictionary
281
     1
1001
ACAD
1000
<All
  0
DIMASSOC
  5
1A3B
102
{ACAD_REACTORS
330
1A3A
102
}
330
1A3A
100
AcDbDimAssoc
330
1A39
 90
        3
 70
     0
 71
     1
  1
AcDbOsnapPointRef
 72
     1
331
1A33
 73
     0
 91
        0
 40
0.0
 10
0.0
 20
0.0
 30
0.0
 75
     0
  1
AcDbOsnapPointRef
 72
     1
331
1A34
 73
     0
 91
        0
 40
0.0
 10
0.0
 20
0.0
 30
0.0
 75
     0
  0
DIMASSOC
  5
1B7F
102
{ACAD_REACTORS
330
1B7E
102
}
330
1B7E
100
AcDbDimAssoc
330
1B7D
 90
        3
 70
     0
 71
     1
  1
AcDbOsnapPointRef
 72
     2
331
1913
 73
     0
 91
        0
 40
0.5
 10
0.0
 20
0.0
 30
0.0
 75
     0
  1
AcDbOsnapPointRef
 72
     1
331
1948
 73
     0
 91
        0
 40
0.0
 10
0.0
 20
0.0
 30
0.0
 75
     0
  0
DIMASSOC
  5
1B9F
102
{ACAD_REACTORS
330
1B9E
102
}
330
1B9E
100
AcDbDimAssoc
330
1B9D
 90
        3
 70
     0
 71
     1
  1
AcDbOsnapPointRef
 72
     2
331
18AB
 73
     0
 91
        0
 40
0.5
 10
0.0
 20
0.0
 30
0.0
 75
     0
  1
AcDbOsnapPointRef
 72
    13
331
188B
 73
     0
 91
        0
 40
0.0
 10
0.0
 20
0.0
 30
0.0
 75
     0
  0
DIMASSOC
  5
1BAE
102
{ACAD_REACTORS
330
1BAD
102
}
330
1BAD
100
AcDbDimAssoc
330
1BAC
 90
        3
 70
     0
 71
     1
  1
AcDbOsnapPointRef
 72
    13
331
188B
 73
     0
 91
        0
 40
0.0
 10
0.0
 20
0.0
 30
0.0
 75
     0
  1
AcDbOsnapPointRef
 72
     2
331
189D
 73
     0
 91
        0
 40
0.5
 10
0.0
 20
0.0
 30
0.0
 75
     0
  0
DIMASSOC
  5
1BC0
102
{ACAD_REACTORS
330
1BBF
102
}
330
1BBF
100
AcDbDimAssoc
330
1BBE
 90
        3
 70
     0
 71
     1
  1
AcDbOsnapPointRef
 72
     2
331
1803
 73
     0
 91
        0
 40
0.5
 10
0.0
 20
0.0
 30
0.0
 75
     0
  1
AcDbOsnapPointRef
 72
    13
331
1859
 73
     0
 91
        0
 40
0.0
 10
0.0
 20
0.0
 30
0.0
 75
     0
  0
LAYOUT
  5
21
102
{ACAD_REACTORS
330
1E
102
}
330
1E
100
AcDbPlotSettings
  1

  2
none_device
  4
ISO_A3_(420.00_x_297.00_MM)
  6

 40
7.5
 41
20.0
 42
7.5
 43
20.0
 44
420.0
 45
297.0
 46
0.0
 47
0.0
 48
0.0
 49
0.0
140
0.0
141
0.0
142
1.0
143
1.0
 70
     0
 72
     1
 73
     0
 74
     0
  7

 75
     0
 76
     0
 77
     2
 78
   300
147
1.0
148
0.0
149
0.0
100
AcDbLayout
  1
Layout1
 70
     0
 71
     0
 10
-7.5
 20
-20.0
 11
412.5
 21
277.0
 12
0.0
 22
0.0
 32
0.0
 14
0.0
 24
0.0
 34
0.0
 15
0.0
 25
0.0
 35
0.0
146
0.0
 13
0.0
 23
0.0
 33
0.0
 16
0.0
 26
0.0
 36
0.0
 17
0.0
 27
0.0
 37
0.0
 76
     0
330
B
331
349
  0
LAYOUT
  5
20
102
{ACAD_REACTORS
330
1E
102
}
330
1E
100
AcDbPlotSettings
  1

  2
none_device
  4
ISO_A3_(420.00_x_297.00_MM)
  6

 40
7.5
 41
20.0
 42
7.5
 43
20.0
 44
420.0
 45
297.0
 46
0.0
 47
0.0
 48
0.0
 49
0.0
140
0.0
141
0.0
142
1.0
143
1.0
 70
  1024
 72
     1
 73
     0
 74
     0
  7

 75
     0
 76
     0
 77
     2
 78
   300
147
1.0
148
0.0
149
0.0
100
AcDbLayout
  1
Model
 70
     0
 71
     1
 10
0.0
 20
0.0
 11
2100.0
 21
2970.0
 12
0.0
 22
0.0
 32
0.0
 14
72.20214454724874
 24
63.79214832457114
 34
0.0
 15
2022.202144547732
 25
2897.146673506426
 35
0.0
146
0.0
 13
0.0
 23
0.0
 33
0.0
 16
0.0
 26
0.0
 36
0.0
 17
0.0
 27
0.0
 37
0.0
 76
     0
330
A
331
15
  0
MATERIAL
  5
1BEC
102
{ACAD_REACTORS
330
263
102
}
330
263
100
AcDbMaterial
  1
ByBlock
 72
     1
 94
      127
  0
MATERIAL
  5
264
102
{ACAD_REACTORS
330
263
102
}
330
263
100
AcDbMaterial
  1
ByLayer
 72
     1
 94
      127
  0
MATERIAL
  5
266
102
{ACAD_REACTORS
330
263
102
}
330
263
100
AcDbMaterial
  1
Global
 72
     1
 94
      127
  0
MLINESTYLE
  5
1C
102
{ACAD_REACTORS
330
1B
102
}
330
1B
100
AcDbMlineStyle
  2
Standard
 70
     0
  3

 62
     0
 51
90.0
 52
90.0
 71
     2
 49
0.5
 62
   256
  6
BYLAYER
 49
-0.5
 62
   256
  6
BYLAYER
  0
ACDBPLACEHOLDER
  5
1D
102
{ACAD_REACTORS
330
1F
102
}
330
1F
  0
SCALE
  5
242
102
{ACAD_REACTORS
330
241
102
}
330
241
100
AcDbScale
 70
     0
300
1:1
140
1.0
141
1.0
290
     1
  0
SCALE
  5
243
102
{ACAD_REACTORS
330
241
102
}
330
241
100
AcDbScale
 70
     0
300
1:2
140
1.0
141
2.0
290
     0
  0
SCALE
  5
244
102
{ACAD_REACTORS
330
241
102
}
330
241
100
AcDbScale
 70
     0
300
1:4
140
1.0
141
4.0
290
     0
  0
SCALE
  5
245
102
{ACAD_REACTORS
330
241
102
}
330
241
100
AcDbScale
 70
     0
300
1:5
140
1.0
141
5.0
290
     0
  0
SCALE
  5
246
102
{ACAD_REACTORS
330
241
102
}
330
241
100
AcDbScale
 70
     0
300
1:8
140
1.0
141
8.0
290
     0
  0
SCALE
  5
247
102
{ACAD_REACTORS
330
241
102
}
330
241
100
AcDbScale
 70
     0
300
1:10
140
1.0
141
10.0
290
     0
  0
SCALE
  5
248
102
{ACAD_REACTORS
330
241
102
}
330
241
100
AcDbScale
 70
     0
300
1:16
140
1.0
141
16.0
290
     0
  0
SCALE
  5
249
102
{ACAD_REACTORS
330
241
102
}
330
241
100
AcDbScale
 70
     0
300
1:20
140
1.0
141
20.0
290
     0
  0
SCALE
  5
24A
102
{ACAD_REACTORS
330
241
102
}
330
241
100
AcDbScale
 70
     0
300
1:30
140
1.0
141
30.0
290
     0
  0
SCALE
  5
24B
102
{ACAD_REACTORS
330
241
102
}
330
241
100
AcDbScale
 70
     0
300
1:40
140
1.0
141
40.0
290
     0
  0
SCALE
  5
24C
102
{ACAD_REACTORS
330
241
102
}
330
241
100
AcDbScale
 70
     0
300
1:50
140
1.0
141
50.0
290
     0
  0
SCALE
  5
24D
102
{ACAD_REACTORS
330
241
102
}
330
241
100
AcDbScale
 70
     0
300
1:100
140
1.0
141
100.0
290
     0
  0
SCALE
  5
24E
102
{ACAD_REACTORS
330
241
102
}
330
241
100
AcDbScale
 70
     0
300
2:1
140
2.0
141
1.0
290
     0
  0
SCALE
  5
24F
102
{ACAD_REACTORS
330
241
102
}
330
241
100
AcDbScale
 70
     0
300
4:1
140
4.0
141
1.0
290
     0
  0
SCALE
  5
250
102
{ACAD_REACTORS
330
241
102
}
330
241
100
AcDbScale
 70
     0
300
8:1
140
8.0
141
1.0
290
     0
  0
SCALE
  5
251
102
{ACAD_REACTORS
330
241
102
}
330
241
100
AcDbScale
 70
     0
300
10:1
140
10.0
141
1.0
290
     0
  0
SCALE
  5
252
102
{ACAD_REACTORS
330
241
102
}
330
241
100
AcDbScale
 70
     0
300
100:1
140
100.0
141
1.0
290
     0
  0
SCALE
  5
253
102
{ACAD_REACTORS
330
241
102
}
330
241
100
AcDbScale
 70
     0
300
1/128" = 1'-0"
140
0.0078125
141
12.0
290
     0
  0
SCALE
  5
254
102
{ACAD_REACTORS
330
241
102
}
330
241
100
AcDbScale
 70
     0
300
1/64" = 1'-0"
140
0.015625
141
12.0
290
     0
  0
SCALE
  5
255
102
{ACAD_REACTORS
330
241
102
}
330
241
100
AcDbScale
 70
     0
300
1/32" = 1'-0"
140
0.03125
141
12.0
290
     0
  0
SCALE
  5
256
102
{ACAD_REACTORS
330
241
102
}
330
241
100
AcDbScale
 70
     0
300
1/16" = 1'-0"
140
0.0625
141
12.0
290
     0
  0
SCALE
  5
257
102
{ACAD_REACTORS
330
241
102
}
330
241
100
AcDbScale
 70
     0
300
3/32" = 1'-0"
140
0.09375
141
12.0
290
     0
  0
SCALE
  5
258
102
{ACAD_REACTORS
330
241
102
}
330
241
100
AcDbScale
 70
     0
300
1/8" = 1'-0"
140
0.125
141
12.0
290
     0
  0
SCALE
  5
259
102
{ACAD_REACTORS
330
241
102
}
330
241
100
AcDbScale
 70
     0
300
3/16" = 1'-0"
140
0.1875
141
12.0
290
     0
  0
SCALE
  5
25A
102
{ACAD_REACTORS
330
241
102
}
330
241
100
AcDbScale
 70
     0
300
1/4" = 1'-0"
140
0.25
141
12.0
290
     0
  0
SCALE
  5
25B
102
{ACAD_REACTORS
330
241
102
}
330
241
100
AcDbScale
 70
     0
300
3/8" = 1'-0"
140
0.375
141
12.0
290
     0
  0
SCALE
  5
25C
102
{ACAD_REACTORS
330
241
102
}
330
241
100
AcDbScale
 70
     0
300
1/2" = 1'-0"
140
0.5
141
12.0
290
     0
  0
SCALE
  5
25D
102
{ACAD_REACTORS
330
241
102
}
330
241
100
AcDbScale
 70
     0
300
3/4" = 1'-0"
140
0.75
141
12.0
290
     0
  0
SCALE
  5
25E
102
{ACAD_REACTORS
330
241
102
}
330
241
100
AcDbScale
 70
     0
300
1" = 1'-0"
140
1.0
141
12.0
290
     0
  0
SCALE
  5
25F
102
{ACAD_REACTORS
330
241
102
}
330
241
100
AcDbScale
 70
     0
300
1-1/2" = 1'-0"
140
1.5
141
12.0
290
     0
  0
SCALE
  5
260
102
{ACAD_REACTORS
330
241
102
}
330
241
100
AcDbScale
 70
     0
300
3" = 1'-0"
140
3.0
141
12.0
290
     0
  0
SCALE
  5
261
102
{ACAD_REACTORS
330
241
102
}
330
241
100
AcDbScale
 70
     0
300
6" = 1'-0"
140
6.0
141
12.0
290
     0
  0
SCALE
  5
262
102
{ACAD_REACTORS
330
241
102
}
330
241
100
AcDbScale
 70
     0
300
1'-0" = 1'-0"
140
12.0
141
12.0
290
     0
  0
TABLESTYLE
  5
279
102
{ACAD_REACTORS
330
278
102
}
102
{ACAD_XDICTIONARY
360
1C60
102
}
330
278
100
AcDbTableStyle
  3
Standard
 70
     0
 71
     0
 40
0.06
 41
0.06
280
     0
281
     0
  7
Standard
140
4.5
170
     2
 62
     0
 63
   257
283
     0
 90
        4
 91
        0
  1

274
    -2
284
     1
 64
     0
275
    -2
285
     1
 65
     0
276
    -2
286
     1
 66
     0
277
    -2
287
     1
 67
     0
278
    -2
288
     1
 68
     0
279
    -2
289
     1
 69
     0
  7
Standard
140
6.0
170
     5
 62
     0
 63
   257
283
     0
 90
        4
 91
        0
  1

274
    -2
284
     1
 64
     0
275
    -2
285
     1
 65
     0
276
    -2
286
     1
 66
     0
277
    -2
287
     1
 67
     0
278
    -2
288
     1
 68
     0
279
    -2
289
     1
 69
     0
  7
Standard
140
4.5
170
     5
 62
     0
 63
   257
283
     0
 90
        4
 91
        0
  1

274
    -2
284
     1
 64
     0
275
    -2
285
     1
 65
     0
276
    -2
286
     1
 66
     0
277
    -2
287
     1
 67
     0
278
    -2
288
     1
 68
     0
279
    -2
289
     1
 69
     0
  0
VISUALSTYLE
  5
26C
102
{ACAD_REACTORS
330
267
102
}
330
267
100
AcDbVisualStyle
  2
2dWireframe
 70
     4
 71
     0
 72
     2
 73
     0
 90
        0
 40
-0.6
 41
-30.0
 62
     5
 63
     7
421
 16777215
 74
     1
 91
        4
 64
     7
 65
   257
 75
     1
175
     1
 42
1.0
 92
        0
 66
   257
 43
1.0
 76
     1
 77
     6
 78
     2
 67
     7
 79
     5
170
     0
171
     0
290
     0
174
     0
 93
        1
 44
0.0
173
     0
291
     0
 45
0.0
  0
VISUALSTYLE
  5
26E
102
{ACAD_REACTORS
330
267
102
}
330
267
100
AcDbVisualStyle
  2
3D Hidden
 70
     6
 71
     1
 72
     2
 73
     2
 90
        0
 40
-0.6
 41
-30.0
 62
     5
 63
     7
421
 16777215
 74
     2
 91
        2
 64
     7
 65
   257
 75
     2
175
     1
 42
40.0
 92
        0
 66
   257
 43
1.0
 76
     1
 77
     6
 78
     2
 67
     7
 79
     3
170
     0
171
     0
290
     0
174
     0
 93
        1
 44
0.0
173
     0
291
     0
 45
0.0
  0
VISUALSTYLE
  5
26D
102
{ACAD_REACTORS
330
267
102
}
330
267
100
AcDbVisualStyle
  2
3dWireframe
 70
     5
 71
     0
 72
     2
 73
     0
 90
        0
 40
-0.6
 41
-30.0
 62
     5
 63
     7
421
 16777215
 74
     1
 91
        4
 64
     7
 65
   257
 75
     1
175
     1
 42
1.0
 92
        0
 66
   257
 43
1.0
 76
     1
 77
     6
 78
     2
 67
     7
 79
     5
170
     0
171
     0
290
     0
174
     0
 93
        1
 44
0.0
173
     0
291
     0
 45
0.0
  0
VISUALSTYLE
  5
26F
102
{ACAD_REACTORS
330
267
102
}
330
267
100
AcDbVisualStyle
  2
Basic
 70
     7
 71
     1
 72
     0
 73
     1
 90
        0
 40
-0.6
 41
-30.0
 62
     5
 63
     7
421
 16777215
 74
     0
 91
        4
 64
     7
 65
   257
 75
     1
175
     1
 42
1.0
 92
        8
 66
     7
 43
1.0
 76
     1
 77
     6
 78
     2
 67
     7
 79
     5
170
     0
171
     0
290
     0
174
     0
 93
        1
 44
0.0
173
     0
291
     1
 45
0.0
  0
VISUALSTYLE
  5
273
102
{ACAD_REACTORS
330
267
102
}
330
267
100
AcDbVisualStyle
  2
Brighten
 70
    12
 71
     2
 72
     2
 73
     0
 90
        0
 40
-0.6
 41
-30.0
 62
     5
 63
     7
421
 16777215
 74
     1
 91
        4
 64
     7
 65
   257
 75
     1
175
     1
 42
1.0
 92
        8
 66
     7
 43
1.0
 76
     1
 77
     6
 78
     2
 67
     7
 79
     5
170
     0
171
     0
290
     0
174
     0
 93
        1
 44
50.0
173
     0
291
     1
 45
0.0
  0
VISUALSTYLE
  5
277
102
{ACAD_REACTORS
330
267
102
}
330
267
100
AcDbVisualStyle
  2
ColorChange
 70
    16
 71
     2
 72
     2
 73
     3
 90
        0
 40
-0.6
 41
-30.0
 62
     5
 63
     8
421
  8421504
 74
     1
 91
        4
 64
     7
 65
   257
 75
     1
175
     1
 42
1.0
 92
        8
 66
     8
424
  8421504
 43
1.0
 76
     1
 77
     6
 78
     2
 67
     7
 79
     5
170
     0
171
     0
290
     0
174
     0
 93
        1
 44
0.0
173
     0
291
     1
 45
0.0
  0
VISUALSTYLE
  5
271
102
{ACAD_REACTORS
330
267
102
}
330
267
100
AcDbVisualStyle
  2
Conceptual
 70
     9
 71
     3
 72
     2
 73
     0
 90
        0
 40
-0.6
 41
-30.0
 62
     5
 63
     7
421
 16777215
 74
     2
 91
        2
 64
     7
 65
   257
 75
     1
175
     1
 42
40.0
 92
        8
 66
     7
 43
1.0
 76
     1
 77
     6
 78
     2
 67
     7
 79
     3
170
     0
171
     0
290
     0
174
     0
 93
        1
 44
0.0
173
     0
291
     0
 45
0.0
  0
VISUALSTYLE
  5
272
102
{ACAD_REACTORS
330
267
102
}
330
267
100
AcDbVisualStyle
  2
Dim
 70
    11
 71
     2
 72
     2
 73
     0
 90
        0
 40
-0.6
 41
-30.0
 62
     5
 63
     7
421
 16777215
 74
     1
 91
        4
 64
     7
 65
   257
 75
     1
175
     1
 42
1.0
 92
        8
 66
     7
 43
1.0
 76
     1
 77
     6
 78
     2
 67
     7
 79
     5
170
     0
171
     0
290
     0
174
     0
 93
        1
 44
-50.0
173
     0
291
     1
 45
0.0
  0
VISUALSTYLE
  5
8FE
102
{ACAD_REACTORS
330
267
102
}
330
267
100
AcDbVisualStyle
  2
EdgeColorOff
 70
    22
 71
     2
 72
     2
 73
     0
 90
        0
 40
0.6
 41
30.0
 62
     5
 63
     7
421
 16777215
 74
     1
 91
        4
 64
     7
 65
   257
 75
     1
175
     1
 42
1.0
 92
        8
 66
     7
 43
1.0
 76
     1
 77
     6
 78
     2
 67
     7
 79
     5
170
     0
171
     0
290
     0
174
     0
 93
        1
 44
0.0
173
     0
291
     1
 45
0.0
  0
VISUALSTYLE
  5
276
102
{ACAD_REACTORS
330
267
102
}
330
267
100
AcDbVisualStyle
  2
Facepattern
 70
    15
 71
     2
 72
     2
 73
     0
 90
        0
 40
-0.6
 41
-30.0
 62
     5
 63
     7
421
 16777215
 74
     1
 91
        4
 64
     7
 65
   257
 75
     1
175
     1
 42
1.0
 92
        8
 66
     7
 43
1.0
 76
     1
 77
     6
 78
     2
 67
     7
 79
     5
170
     0
171
     0
290
     0
174
     0
 93
        1
 44
0.0
173
     0
291
     1
 45
0.0
  0
VISUALSTYLE
  5
268
102
{ACAD_REACTORS
330
267
102
}
330
267
100
AcDbVisualStyle
  2
Flat
 70
     0
 71
     2
 72
     1
 73
     1
 90
        2
 40
-0.6
 41
30.0
 62
     5
 63
     7
421
 16777215
 74
     0
 91
        4
 64
     7
 65
   257
 75
     1
175
     1
 42
1.0
 92
        8
 66
     7
 43
1.0
 76
     1
 77
     6
 78
     2
 67
     7
 79
     5
170
     0
171
     0
290
     0
174
     0
 93
       13
 44
0.0
173
     0
291
     1
 45
0.0
  0
VISUALSTYLE
  5
269
102
{ACAD_REACTORS
330
267
102
}
330
267
100
AcDbVisualStyle
  2
FlatWithEdges
 70
     1
 71
     2
 72
     1
 73
     1
 90
        2
 40
-0.6
 41
30.0
 62
     5
 63
     7
421
 16777215
 74
     1
 91
        4
 64
     7
 65
   257
 75
     1
175
     1
 42
1.0
 92
        0
 66
   257
 43
1.0
 76
     1
 77
     6
 78
     2
 67
     7
 79
     5
170
     0
171
     0
290
     0
174
     0
 93
       13
 44
0.0
173
     0
291
     1
 45
0.0
  0
VISUALSTYLE
  5
26A
102
{ACAD_REACTORS
330
267
102
}
330
267
100
AcDbVisualStyle
  2
Gouraud
 70
     2
 71
     2
 72
     2
 73
     1
 90
        2
 40
-0.6
 41
30.0
 62
     5
 63
     7
421
 16777215
 74
     0
 91
        4
 64
     7
 65
   257
 75
     1
175
     1
 42
1.0
 92
        0
 66
     7
 43
1.0
 76
     1
 77
     6
 78
     2
 67
     7
 79
     5
170
     0
171
     0
290
     0
174
     0
 93
       13
 44
0.0
173
     0
291
     1
 45
0.0
  0
VISUALSTYLE
  5
26B
102
{ACAD_REACTORS
330
267
102
}
330
267
100
AcDbVisualStyle
  2
GouraudWithEdges
 70
     3
 71
     2
 72
     2
 73
     1
 90
        2
 40
-0.6
 41
30.0
 62
     5
 63
     7
421
 16777215
 74
     1
 91
        4
 64
     7
 65
   257
 75
     1
175
     1
 42
1.0
 92
        0
 66
   257
 43
1.0
 76
     1
 77
     6
 78
     2
 67
     7
 79
     5
170
     0
171
     0
290
     0
174
     0
 93
       13
 44
0.0
173
     0
291
     1
 45
0.0
  0
VISUALSTYLE
  5
8FB
102
{ACAD_REACTORS
330
267
102
}
330
267
100
AcDbVisualStyle
  2
Hidden
 70
     6
 71
     1
 72
     2
 73
     2
 90
        0
 40
0.6
 41
30.0
 62
     5
 63
     7
421
 16777215
 74
     2
 91
        2
 64
     7
 65
   257
 75
     2
175
     1
 42
40.0
 92
        0
 66
   257
 43
1.0
 76
     1
 77
     6
 78
     2
 67
     7
 79
     3
170
     0
171
     0
290
     0
174
     0
 93
        1
 44
0.0
173
     0
291
     0
 45
0.0
  0
VISUALSTYLE
  5
8FC
102
{ACAD_REACTORS
330
267
102
}
330
267
100
AcDbVisualStyle
  2
JitterOff
 70
    20
 71
     2
 72
     2
 73
     0
 90
        0
 40
0.6
 41
30.0
 62
     5
 63
     7
421
 16777215
 74
     1
 91
        4
 64
     7
 65
   257
 75
     1
175
     1
 42
1.0
 92
       10
 66
     7
 43
1.0
 76
     1
 77
     6
 78
     2
 67
     7
 79
     5
170
     0
171
     0
290
     0
174
     0
 93
        1
 44
0.0
173
     0
291
     1
 45
0.0
  0
VISUALSTYLE
  5
275
102
{ACAD_REACTORS
330
267
102
}
330
267
100
AcDbVisualStyle
  2
Linepattern
 70
    14
 71
     2
 72
     2
 73
     0
 90
        0
 40
-0.6
 41
-30.0
 62
     5
 63
     7
421
 16777215
 74
     1
 91
        4
 64
     7
 65
   257
 75
     7
175
     7
 42
1.0
 92
        8
 66
     7
 43
1.0
 76
     1
 77
     6
 78
     2
 67
     7
 79
     5
170
     0
171
     0
290
     0
174
     0
 93
        1
 44
0.0
173
     0
291
     1
 45
0.0
  0
VISUALSTYLE
  5
8FD
102
{ACAD_REACTORS
330
267
102
}
330
267
100
AcDbVisualStyle
  2
OverhangOff
 70
    21
 71
     2
 72
     2
 73
     0
 90
        0
 40
0.6
 41
30.0
 62
     5
 63
     7
421
 16777215
 74
     1
 91
        4
 64
     7
 65
   257
 75
     1
175
     1
 42
1.0
 92
        9
 66
     7
 43
1.0
 76
     1
 77
     6
 78
     2
 67
     7
 79
     5
170
     0
171
     0
290
     0
174
     0
 93
        1
 44
0.0
173
     0
291
     1
 45
0.0
  0
VISUALSTYLE
  5
270
102
{ACAD_REACTORS
330
267
102
}
330
267
100
AcDbVisualStyle
  2
Realistic
 70
     8
 71
     2
 72
     2
 73
     0
 90
        0
 40
-0.6
 41
-30.0
 62
     5
 63
     7
421
 16777215
 74
     1
 91
        0
 64
     7
 65
   257
 75
     1
175
     1
 42
1.0
 92
        8
 66
     8
424
  7895160
 43
1.0
 76
     1
 77
     6
 78
     2
 67
     7
 79
     5
170
     0
171
     0
290
     0
174
     0
 93
       13
 44
0.0
173
     0
291
     0
 45
0.0
  0
VISUALSTYLE
  5
903
102
{ACAD_REACTORS
330
267
102
}
330
267
100
AcDbVisualStyle
  2
Shaded
 70
    27
 71
     2
 72
     2
 73
     1
 90
        2
 40
0.6
 41
30.0
 62
     5
 63
     7
421
 16777215
 74
     0
 91
        4
 64
     7
 65
   257
 75
     1
175
     1
 42
1.0
 92
        8
 66
   257
 43
1.0
 76
     1
 77
     6
 78
     2
 67
     8
425
  7895160
 79
     3
170
     0
171
     0
290
     0
174
     0
 93
        5
 44
0.0
173
     0
291
     0
 45
0.0
  0
VISUALSTYLE
  5
902
102
{ACAD_REACTORS
330
267
102
}
330
267
100
AcDbVisualStyle
  2
Shaded with edges
 70
    26
 71
     2
 72
     2
 73
     1
 90
        2
 40
0.6
 41
30.0
 62
     5
 63
     7
421
 16777215
 74
     1
 91
       10
 64
     7
 65
   257
 75
     2
175
     1
 42
1.0
 92
        8
 66
   257
 43
1.0
 76
     1
 77
     6
 78
     2
 67
     7
 79
     3
170
     0
171
     0
290
     0
174
     0
 93
        5
 44
0.0
173
     0
291
     0
 45
0.0
  0
VISUALSTYLE
  5
8FF
102
{ACAD_REACTORS
330
267
102
}
330
267
100
AcDbVisualStyle
  2
Shades of Gray
 70
    23
 71
     2
 72
     2
 73
     3
 90
        0
 40
0.6
 41
30.0
 62
     5
 63
     7
421
 16777215
 74
     2
 91
        2
 64
     7
 65
     7
 75
     1
175
     1
 42
40.0
 92
        8
 66
     7
 43
1.0
 76
     1
 77
     6
 78
     2
 67
     7
 79
     3
170
     0
171
     0
290
     0
174
     0
 93
        1
 44
0.0
173
     0
291
     0
 45
0.0
  0
VISUALSTYLE
  5
900
102
{ACAD_REACTORS
330
267
102
}
330
267
100
AcDbVisualStyle
  2
Sketchy
 70
    24
 71
     1
 72
     2
 73
     2
 90
        0
 40
0.6
 41
30.0
 62
     5
 63
     7
421
 16777215
 74
     2
 91
        2
 64
     7
 65
     7
 75
     1
175
     1
 42
40.0
 92
       11
 66
     7
 43
1.0
 76
     1
 77
     6
 78
     2
 67
     7
 79
     6
170
     0
171
     0
290
     0
174
     0
 93
        1
 44
0.0
173
     0
291
     0
 45
0.0
  0
VISUALSTYLE
  5
274
102
{ACAD_REACTORS
330
267
102
}
330
267
100
AcDbVisualStyle
  2
Thicken
 70
    13
 71
     2
 72
     2
 73
     0
 90
        0
 40
-0.6
 41
-30.0
 62
     5
 63
     7
421
 16777215
 74
     1
 91
        4
 64
     7
 65
   257
 75
     1
175
     1
 42
1.0
 92
       12
 66
     7
 43
1.0
 76
     1
 77
     6
 78
     2
 67
     7
 79
     5
170
     0
171
     0
290
     0
174
     0
 93
        1
 44
0.0
173
     0
291
     1
 45
0.0
  0
VISUALSTYLE
  5
8FA
102
{ACAD_REACTORS
330
267
102
}
330
267
100
AcDbVisualStyle
  2
Wireframe
 70
     5
 71
     0
 72
     2
 73
     0
 90
        0
 40
0.6
 41
30.0
 62
     5
 63
     7
421
 16777215
 74
     1
 91
        4
 64
     7
 65
   257
 75
     1
175
     1
 42
1.0
 92
        0
 66
   257
 43
1.0
 76
     1
 77
     6
 78
     2
 67
     7
 79
     3
170
     0
171
     0
290
     0
174
     0
 93
        1
 44
0.0
173
     0
291
     0
 45
0.0
  0
VISUALSTYLE
  5
901
102
{ACAD_REACTORS
330
267
102
}
330
267
100
AcDbVisualStyle
  2
X-Ray
 70
    25
 71
     2
 72
     2
 73
     1
 90
        1
 40
0.5
 41
30.0
 62
     5
 63
     7
421
 16777215
 74
     1
 91
        0
 64
     7
 65
   257
 75
     1
175
     1
 42
1.0
 92
        8
 66
     7
 43
1.0
 76
     1
 77
     6
 78
     2
 67
     7
 79
     3
170
     0
171
     0
290
     0
174
     0
 93
       13
 44
0.0
173
     0
291
     0
 45
0.0
  0
DICTIONARYVAR
  5
331
102
{ACAD_REACTORS
330
330
102
}
330
330
100
DictionaryVariables
280
     0
  1
1:1
  0
DICTIONARYVAR
  5
335
102
{ACAD_REACTORS
330
330
102
}
330
330
100
DictionaryVariables
280
     0
  1
Standard
  0
DICTIONARYVAR
  5
D52
102
{ACAD_REACTORS
330
330
102
}
330
330
100
DictionaryVariables
280
     0
  1
ByLayer
  0
DICTIONARYVAR
  5
896
102
{ACAD_REACTORS
330
330
102
}
330
330
100
DictionaryVariables
280
     0
  1
0
  0
XRECORD
  5
C9F
102
{ACAD_REACTORS
330
2E2
102
}
330
2E2
100
AcDbXrecord
280
     1
 91
     1023
301

290
     0
302
MODEL
330
14
 90
        8
 62
     7
370
    -3
331
13
  1
Color_7
330
0
 90
        0
 62
     7
370
    -3
331
13
  1
Color_7
330
4B
 90
        8
 62
     7
370
     0
331
13
  1
Color_7
330
4C
 90
        8
 62
     7
370
     9
331
13
  1
Color_7
330
4D
 90
        8
 62
     7
370
    -3
331
13
  1
Color_7
330
667
 90
        8
 62
     7
370
    -3
331
13
  1
Color_7
330
88C
 90
        8
 62
     7
370
     9
331
45
  1
Color_7
330
0
 90
        8
 62
     7
370
    -3
331
13
  1
Color_7
  0
XRECORD
  5
7AA
102
{ACAD_REACTORS
330
2E2
102
}
330
2E2
100
AcDbXrecord
280
     1
 91
     1023
301

290
     0
302
HIDDEN
330
14
 90
        8
 62
     7
370
    -3
331
13
  1
Color_7
330
4B
 90
        8
 62
     7
370
    20
331
13
  1
Color_7
330
4C
 90
        9
 62
     7
370
    13
331
13
  1
Color_7
330
4D
 90
        8
 62
     7
370
    20
331
13
  1
Color_7
330
667
 90
        8
 62
     7
370
    -3
331
13
  1
Color_7
330
88C
 90
        8
 62
     7
370
    20
331
45
  1
Color_7
330
D5D
 90
        0
 62
     7
370
    -3
331
13
  1
Color_7
  0
DICTIONARY
  5
1C60
330
279
100
AcDbDictionary
280
     1
281
     1
  3
ACAD_ROUNDTRIP_2008_TABLESTYLE_CELLSTYLEMAP
360
1C61
  0
CELLSTYLEMAP
  5
1C61
102
{ACAD_REACTORS
330
1C60
102
}
330
1C60
100
AcDbCellStyleMap
 90
        3
300
CELLSTYLE
  1
TABLEFORMAT_BEGIN
 90
        5
170
     1
 91
        0
 92
    32768
 62
   257
 93
        1
300
CONTENTFORMAT
  1
CONTENTFORMAT_BEGIN
 90
        0
 91
        0
 92
        4
 93
        0
300

 40
0.0
140
1.0
 94
        5
 62
     0
340
17
144
6.0
309
CONTENTFORMAT_END
171
     1
301
MARGIN
  1
CELLMARGIN_BEGIN
 40
0.06
 40
0.06
 40
0.06
 40
0.06
 40
0.18
 40
0.18
309
CELLMARGIN_END
 94
        6
 95
        1
302
GRIDFORMAT
  1
GRIDFORMAT_BEGIN
 90
        0
 91
        1
 62
     0
 92
       -2
340
0
 93
        0
 40
0.045
309
GRIDFORMAT_END
 95
        2
302
GRIDFORMAT
  1
GRIDFORMAT_BEGIN
 90
        0
 91
        1
 62
     0
 92
       -2
340
0
 93
        0
 40
0.045
309
GRIDFORMAT_END
 95
        4
302
GRIDFORMAT
  1
GRIDFORMAT_BEGIN
 90
        0
 91
        1
 62
     0
 92
       -2
340
0
 93
        0
 40
0.045
309
GRIDFORMAT_END
 95
        8
302
GRIDFORMAT
  1
GRIDFORMAT_BEGIN
 90
        0
 91
        1
 62
     0
 92
       -2
340
0
 93
        0
 40
0.045
309
GRIDFORMAT_END
 95
       16
302
GRIDFORMAT
  1
GRIDFORMAT_BEGIN
 90
        0
 91
        1
 62
     0
 92
       -2
340
0
 93
        0
 40
0.045
309
GRIDFORMAT_END
 95
       32
302
GRIDFORMAT
  1
GRIDFORMAT_BEGIN
 90
        0
 91
        1
 62
     0
 92
       -2
340
0
 93
        0
 40
0.045
309
GRIDFORMAT_END
309
TABLEFORMAT_END
  1
CELLSTYLE_BEGIN
 90
        1
 91
        1
300
_TITLE
309
CELLSTYLE_END
300
CELLSTYLE
  1
TABLEFORMAT_BEGIN
 90
        5
170
     1
 91
        0
 92
        0
 62
   257
 93
        1
300
CONTENTFORMAT
  1
CONTENTFORMAT_BEGIN
 90
        0
 91
        0
 92
        4
 93
        0
300

 40
0.0
140
1.0
 94
        5
 62
     0
340
17
144
4.5
309
CONTENTFORMAT_END
171
     1
301
MARGIN
  1
CELLMARGIN_BEGIN
 40
0.06
 40
0.06
 40
0.06
 40
0.06
 40
0.18
 40
0.18
309
CELLMARGIN_END
 94
        6
 95
        1
302
GRIDFORMAT
  1
GRIDFORMAT_BEGIN
 90
        0
 91
        1
 62
     0
 92
       -2
340
0
 93
        0
 40
0.045
309
GRIDFORMAT_END
 95
        2
302
GRIDFORMAT
  1
GRIDFORMAT_BEGIN
 90
        0
 91
        1
 62
     0
 92
       -2
340
0
 93
        0
 40
0.045
309
GRIDFORMAT_END
 95
        4
302
GRIDFORMAT
  1
GRIDFORMAT_BEGIN
 90
        0
 91
        1
 62
     0
 92
       -2
340
0
 93
        0
 40
0.045
309
GRIDFORMAT_END
 95
        8
302
GRIDFORMAT
  1
GRIDFORMAT_BEGIN
 90
        0
 91
        1
 62
     0
 92
       -2
340
0
 93
        0
 40
0.045
309
GRIDFORMAT_END
 95
       16
302
GRIDFORMAT
  1
GRIDFORMAT_BEGIN
 90
        0
 91
        1
 62
     0
 92
       -2
340
0
 93
        0
 40
0.045
309
GRIDFORMAT_END
 95
       32
302
GRIDFORMAT
  1
GRIDFORMAT_BEGIN
 90
        0
 91
        1
 62
     0
 92
       -2
340
0
 93
        0
 40
0.045
309
GRIDFORMAT_END
309
TABLEFORMAT_END
  1
CELLSTYLE_BEGIN
 90
        2
 91
        1
300
_HEADER
309
CELLSTYLE_END
300
CELLSTYLE
  1
TABLEFORMAT_BEGIN
 90
        5
170
     1
 91
        0
 92
        0
 62
   257
 93
        1
300
CONTENTFORMAT
  1
CONTENTFORMAT_BEGIN
 90
        0
 91
        0
 92
        4
 93
        0
300

 40
0.0
140
1.0
 94
        2
 62
     0
340
17
144
4.5
309
CONTENTFORMAT_END
171
     1
301
MARGIN
  1
CELLMARGIN_BEGIN
 40
0.06
 40
0.06
 40
0.06
 40
0.06
 40
0.18
 40
0.18
309
CELLMARGIN_END
 94
        6
 95
        1
302
GRIDFORMAT
  1
GRIDFORMAT_BEGIN
 90
        0
 91
        1
 62
     0
 92
       -2
340
0
 93
        0
 40
0.045
309
GRIDFORMAT_END
 95
        2
302
GRIDFORMAT
  1
GRIDFORMAT_BEGIN
 90
        0
 91
        1
 62
     0
 92
       -2
340
0
 93
        0
 40
0.045
309
GRIDFORMAT_END
 95
        4
302
GRIDFORMAT
  1
GRIDFORMAT_BEGIN
 90
        0
 91
        1
 62
     0
 92
       -2
340
0
 93
        0
 40
0.045
309
GRIDFORMAT_END
 95
        8
302
GRIDFORMAT
  1
GRIDFORMAT_BEGIN
 90
        0
 91
        1
 62
     0
 92
       -2
340
0
 93
        0
 40
0.045
309
GRIDFORMAT_END
 95
       16
302
GRIDFORMAT
  1
GRIDFORMAT_BEGIN
 90
        0
 91
        1
 62
     0
 92
       -2
340
0
 93
        0
 40
0.045
309
GRIDFORMAT_END
 95
       32
302
GRIDFORMAT
  1
GRIDFORMAT_BEGIN
 90
        0
 91
        1
 62
     0
 92
       -2
340
0
 93
        0
 40
0.045
309
GRIDFORMAT_END
309
TABLEFORMAT_END
  1
CELLSTYLE_BEGIN
 90
        3
 91
        2
300
_DATA
309
CELLSTYLE_END
  0
ENDSEC
  0
EOF
