  0
SECTION
  2
HEADER
  9
$ACADVER
  1
AC1021
  9
$ACADMAINTVER
 70
    25
  9
$DWGCODEPAGE
  3
ANSI_932
  9
$LASTSAVEDBY
  1
Shimosaki
  9
$INSBASE
 10
0.0
 20
0.0
 30
0.0
  9
$EXTMIN
 10
74.08218417874775
 20
44.418602714029
 30
-0.0000001574938798
  9
$EXTMAX
 10
2024.082184179229
 20
2877.773127895886
 30
0.0000001397277242
  9
$LIMMIN
 10
0.0
 20
0.0
  9
$LIMMAX
 10
2100.0
 20
2970.000000000001
  9
$ORTHOMODE
 70
     0
  9
$REGENMODE
 70
     1
  9
$FILLMODE
 70
     1
  9
$QTEXTMODE
 70
     0
  9
$MIRRTEXT
 70
     0
  9
$LTSCALE
 40
1.0
  9
$ATTMODE
 70
     1
  9
$TEXTSIZE
 40
2.5
  9
$TRACEWID
 40
1.0
  9
$TEXTSTYLE
  7
Standard
  9
$CLAYER
  8
0
  9
$CELTYPE
  6
STYLE_12
  9
$CECOLOR
 62
   256
  9
$CELTSCALE
 40
1.0
  9
$DISPSILH
 70
     0
  9
$DIMSCALE
 40
1.0
  9
$DIMASZ
 40
2.5
  9
$DIMEXO
 40
0.625
  9
$DIMDLI
 40
3.75
  9
$DIMRND
 40
0.0
  9
$DIMDLE
 40
0.0
  9
$DIMEXE
 40
1.25
  9
$DIMTP
 40
0.0
  9
$DIMTM
 40
0.0
  9
$DIMTXT
 40
2.5
  9
$DIMCEN
 40
2.5
  9
$DIMTSZ
 40
0.0
  9
$DIMTOL
 70
     0
  9
$DIMLIM
 70
     0
  9
$DIMTIH
 70
     0
  9
$DIMTOH
 70
     0
  9
$DIMSE1
 70
     0
  9
$DIMSE2
 70
     0
  9
$DIMTAD
 70
     1
  9
$DIMZIN
 70
     8
  9
$DIMBLK
  1

  9
$DIMASO
 70
     1
  9
$DIMSHO
 70
     1
  9
$DIMPOST
  1

  9
$DIMAPOST
  1

  9
$DIMALT
 70
     0
  9
$DIMALTD
 70
     3
  9
$DIMALTF
 40
0.03937007874016
  9
$DIMLFAC
 40
1.0
  9
$DIMTOFL
 70
     1
  9
$DIMTVP
 40
0.0
  9
$DIMTIX
 70
     0
  9
$DIMSOXD
 70
     0
  9
$DIMSAH
 70
     0
  9
$DIMBLK1
  1

  9
$DIMBLK2
  1

  9
$DIMSTYLE
  2
ISO-25
  9
$DIMCLRD
 70
     0
  9
$DIMCLRE
 70
     0
  9
$DIMCLRT
 70
     0
  9
$DIMTFAC
 40
1.0
  9
$DIMGAP
 40
0.625
  9
$DIMJUST
 70
     0
  9
$DIMSD1
 70
     0
  9
$DIMSD2
 70
     0
  9
$DIMTOLJ
 70
     0
  9
$DIMTZIN
 70
     8
  9
$DIMALTZ
 70
     0
  9
$DIMALTTZ
 70
     0
  9
$DIMUPT
 70
     0
  9
$DIMDEC
 70
     2
  9
$DIMTDEC
 70
     2
  9
$DIMALTU
 70
     2
  9
$DIMALTTD
 70
     3
  9
$DIMTXSTY
  7
Standard
  9
$DIMAUNIT
 70
     0
  9
$DIMADEC
 70
     0
  9
$DIMALTRND
 40
0.0
  9
$DIMAZIN
 70
     0
  9
$DIMDSEP
 70
    44
  9
$DIMATFIT
 70
     3
  9
$DIMFRAC
 70
     0
  9
$DIMLDRBLK
  1

  9
$DIMLUNIT
 70
     2
  9
$DIMLWD
 70
    -2
  9
$DIMLWE
 70
    -2
  9
$DIMTMOVE
 70
     0
  9
$DIMFXL
 40
1.0
  9
$DIMFXLON
 70
     0
  9
$DIMJOGANG
 40
0.7853981633974483
  9
$DIMTFILL
 70
     0
  9
$DIMTFILLCLR
 70
     0
  9
$DIMARCSYM
 70
     0
  9
$DIMLTYPE
  6

  9
$DIMLTEX1
  6

  9
$DIMLTEX2
  6

  9
$LUNITS
 70
     2
  9
$LUPREC
 70
     3
  9
$SKETCHINC
 40
1.0
  9
$FILLETRAD
 40
10.0
  9
$AUNITS
 70
     0
  9
$AUPREC
 70
     0
  9
$MENU
  1
.
  9
$ELEVATION
 40
0.0
  9
$PELEVATION
 40
0.0
  9
$THICKNESS
 40
0.0
  9
$LIMCHECK
 70
     0
  9
$CHAMFERA
 40
10.0
  9
$CHAMFERB
 40
10.0
  9
$CHAMFERC
 40
20.0
  9
$CHAMFERD
 40
0.0
  9
$SKPOLY
 70
     0
  9
$TDCREATE
 40
2455023.012359514
  9
$TDUCREATE
 40
2455022.637359514
  9
$TDUPDATE
 40
2457044.767616238
  9
$TDUUPDATE
 40
2457044.392616238
  9
$TDINDWG
 40
0.0187068866
  9
$TDUSRTIMER
 40
2457044.392150162
  9
$USRTIMER
 70
     1
  9
$ANGBASE
 50
0.0
  9
$ANGDIR
 70
     0
  9
$PDMODE
 70
     0
  9
$PDSIZE
 40
0.0
  9
$PLINEWID
 40
0.0
  9
$SPLFRAME
 70
     0
  9
$SPLINETYPE
 70
     6
  9
$SPLINESEGS
 70
     8
  9
$HANDSEED
  5
43E
  9
$SURFTAB1
 70
     6
  9
$SURFTAB2
 70
     6
  9
$SURFTYPE
 70
     6
  9
$SURFU
 70
     6
  9
$SURFV
 70
     6
  9
$UCSBASE
  2

  9
$UCSNAME
  2

  9
$UCSORG
 10
0.0
 20
0.0
 30
0.0
  9
$UCSXDIR
 10
1.0
 20
0.0
 30
0.0
  9
$UCSYDIR
 10
0.0
 20
1.0
 30
0.0
  9
$UCSORTHOREF
  2

  9
$UCSORTHOVIEW
 70
     0
  9
$UCSORGTOP
 10
0.0
 20
0.0
 30
0.0
  9
$UCSORGBOTTOM
 10
0.0
 20
0.0
 30
0.0
  9
$UCSORGLEFT
 10
0.0
 20
0.0
 30
0.0
  9
$UCSORGRIGHT
 10
0.0
 20
0.0
 30
0.0
  9
$UCSORGFRONT
 10
0.0
 20
0.0
 30
0.0
  9
$UCSORGBACK
 10
0.0
 20
0.0
 30
0.0
  9
$PUCSBASE
  2

  9
$PUCSNAME
  2

  9
$PUCSORG
 10
0.0
 20
0.0
 30
0.0
  9
$PUCSXDIR
 10
1.0
 20
0.0
 30
0.0
  9
$PUCSYDIR
 10
0.0
 20
1.0
 30
0.0
  9
$PUCSORTHOREF
  2

  9
$PUCSORTHOVIEW
 70
     0
  9
$PUCSORGTOP
 10
0.0
 20
0.0
 30
0.0
  9
$PUCSORGBOTTOM
 10
0.0
 20
0.0
 30
0.0
  9
$PUCSORGLEFT
 10
0.0
 20
0.0
 30
0.0
  9
$PUCSORGRIGHT
 10
0.0
 20
0.0
 30
0.0
  9
$PUCSORGFRONT
 10
0.0
 20
0.0
 30
0.0
  9
$PUCSORGBACK
 10
0.0
 20
0.0
 30
0.0
  9
$USERI1
 70
     0
  9
$USERI2
 70
     0
  9
$USERI3
 70
     0
  9
$USERI4
 70
     0
  9
$USERI5
 70
     0
  9
$USERR1
 40
0.0
  9
$USERR2
 40
0.0
  9
$USERR3
 40
0.0
  9
$USERR4
 40
0.0
  9
$USERR5
 40
0.0
  9
$WORLDVIEW
 70
     1
  9
$SHADEDGE
 70
     3
  9
$SHADEDIF
 70
    70
  9
$TILEMODE
 70
     1
  9
$MAXACTVP
 70
    64
  9
$PINSBASE
 10
0.0
 20
0.0
 30
0.0
  9
$PLIMCHECK
 70
     0
  9
$PEXTMIN
 10
1.000000000000000E+20
 20
1.000000000000000E+20
 30
1.000000000000000E+20
  9
$PEXTMAX
 10
-1.000000000000000E+20
 20
-1.000000000000000E+20
 30
-1.000000000000000E+20
  9
$PLIMMIN
 10
0.0
 20
0.0
  9
$PLIMMAX
 10
0.0
 20
0.0
  9
$UNITMODE
 70
     0
  9
$VISRETAIN
 70
     1
  9
$PLINEGEN
 70
     0
  9
$PSLTSCALE
 70
     1
  9
$TREEDEPTH
 70
  3020
  9
$CMLSTYLE
  2
Standard
  9
$CMLJUST
 70
     0
  9
$CMLSCALE
 40
20.0
  9
$PROXYGRAPHICS
 70
     1
  9
$MEASUREMENT
 70
     1
  9
$CELWEIGHT
370
    -1
  9
$ENDCAPS
280
     0
  9
$JOINSTYLE
280
     0
  9
$LWDISPLAY
290
     0
  9
$INSUNITS
 70
     4
  9
$HYPERLINKBASE
  1

  9
$STYLESHEET
  1

  9
$XEDIT
290
     1
  9
$CEPSNTYPE
380
     0
  9
$PSTYLEMODE
290
     1
  9
$FINGERPRINTGUID
  2
{EC6BB858-51AA-46EC-B484-6C9CC7AB3E2E}
  9
$VERSIONGUID
  2
{FAEB1C32-E019-11D5-929B-00C0DF256EC4}
  9
$EXTNAMES
290
     1
  9
$PSVPSCALE
 40
0.0
  9
$OLESTARTUP
290
     0
  9
$SORTENTS
280
   127
  9
$INDEXCTL
280
     0
  9
$HIDETEXT
280
     1
  9
$XCLIPFRAME
290
     0
  9
$HALOGAP
280
     0
  9
$OBSCOLOR
 70
   257
  9
$OBSLTYPE
280
     0
  9
$INTERSECTIONDISPLAY
280
     0
  9
$INTERSECTIONCOLOR
 70
   257
  9
$DIMASSOC
280
     2
  9
$PROJECTNAME
  1

  9
$CAMERADISPLAY
290
     0
  9
$LENSLENGTH
 40
50.0
  9
$CAMERAHEIGHT
 40
0.0
  9
$STEPSPERSEC
 40
2.0
  9
$STEPSIZE
 40
6.0
  9
$3DDWFPREC
 40
2.0
  9
$PSOLWIDTH
 40
5.0
  9
$PSOLHEIGHT
 40
80.0
  9
$LOFTANG1
 40
1.570796326794897
  9
$LOFTANG2
 40
1.570796326794897
  9
$LOFTMAG1
 40
0.0
  9
$LOFTMAG2
 40
0.0
  9
$LOFTPARAM
 70
     7
  9
$LOFTNORMALS
280
     1
  9
$LATITUDE
 40
37.795
  9
$LONGITUDE
 40
-122.394
  9
$NORTHDIRECTION
 40
0.0
  9
$TIMEZONE
 70
 -8000
  9
$LIGHTGLYPHDISPLAY
280
     1
  9
$TILEMODELIGHTSYNCH
280
     1
  9
$SOLIDHIST
280
     1
  9
$SHOWHIST
280
     1
  9
$DWFFRAME
280
     2
  9
$DGNFRAME
280
     2
  9
$REALWORLDSCALE
290
     1
  9
$INTERFERECOLOR
 62
   256
  9
$CSHADOW
280
     0
  9
$SHADOWPLANELOCATION
 40
0.0
  0
ENDSEC
  0
SECTION
  2
CLASSES
  0
CLASS
  1
ACDBDICTIONARYWDFLT
  2
AcDbDictionaryWithDefault
  3
ObjectDBX Classes
 90
        0
 91
        5
280
     0
281
     0
  0
CLASS
  1
VISUALSTYLE
  2
AcDbVisualStyle
  3
ObjectDBX Classes
 90
     4095
 91
        5
280
     0
281
     0
  0
CLASS
  1
TABLESTYLE
  2
AcDbTableStyle
  3
ObjectDBX Classes
 90
     4095
 91
        5
280
     0
281
     0
  0
CLASS
  1
DICTIONARYVAR
  2
AcDbDictionaryVar
  3
ObjectDBX Classes
 90
        0
 91
        4
280
     0
281
     0
  0
CLASS
  1
SCALE
  2
AcDbScale
  3
ObjectDBX Classes
 90
     1153
 91
        5
280
     0
281
     0
  0
CLASS
  1
CELLSTYLEMAP
  2
AcDbCellStyleMap
  3
ObjectDBX Classes
 90
     1152
 91
        4
280
     0
281
     0
  0
CLASS
  1
RASTERVARIABLES
  2
AcDbRasterVariables
  3
ISM
 90
        0
 91
        5
280
     0
281
     0
  0
CLASS
  1
MATERIAL
  2
AcDbMaterial
  3
ObjectDBX Classes
 90
     1153
 91
        5
280
     0
281
     0
  0
CLASS
  1
SUN
  2
AcDbSun
  3
SCENEOE
 90
     1153
 91
        5
280
     0
281
     0
  0
CLASS
  1
DIMASSOC
  2
AcDbDimAssoc
  3
"AcDbDimAssoc|Product Desc:     AcDim ARX App For Dimension|Company:          Autodesk, Inc.|WEB Address:      www.autodesk.com"
 90
        0
 91
        4
280
     0
281
     0
  0
ENDSEC
  0
SECTION
  2
TABLES
  0
TABLE
  2
VPORT
  5
8
330
0
100
AcDbSymbolTable
 70
     1
  0
VPORT
  5
29
330
8
100
AcDbSymbolTableRecord
100
AcDbViewportTableRecord
  2
*Active
 70
     0
 10
0.0
 20
0.0
 11
1.0
 21
1.0
 12
1734.76263048374
 22
1567.876253857334
 13
0.0
 23
0.0
 14
10.0
 24
10.0
 15
10.0
 25
10.0
 16
0.0
 26
0.0
 36
1.0
 17
-134.1869158878508
 27
0.0
 37
0.0
 40
3587.454557418813
 41
2.184105960264901
 42
50.0
 43
0.0
 44
0.0
 50
0.0
 51
0.0
 71
    16
 72
  1000
 73
     1
 74
     3
 75
     0
 76
     0
 77
     0
 78
     0
281
     0
 65
     1
110
0.0
120
0.0
130
0.0
111
1.0
121
0.0
131
0.0
112
0.0
122
1.0
132
0.0
 79
     0
146
0.0
348
2F
 60
     3
 61
     5
292
     1
282
     1
141
0.0
142
0.0
 63
   256
361
80
  0
ENDTAB
  0
TABLE
  2
LTYPE
  5
5
330
0
100
AcDbSymbolTable
 70
     2
  0
LTYPE
  5
14
330
5
100
AcDbSymbolTableRecord
100
AcDbLinetypeTableRecord
  2
ByBlock
 70
     0
  3

 72
    65
 73
     0
 40
0.0
  0
LTYPE
  5
15
330
5
100
AcDbSymbolTableRecord
100
AcDbLinetypeTableRecord
  2
ByLayer
 70
     0
  3

 72
    65
 73
     0
 40
0.0
  0
LTYPE
  5
16
330
5
100
AcDbSymbolTableRecord
100
AcDbLinetypeTableRecord
  2
Continuous
 70
     0
  3
Solid line
 72
    65
 73
     0
 40
0.0
  0
LTYPE
  5
89
330
5
100
AcDbSymbolTableRecord
100
AcDbLinetypeTableRecord
  2
STYLE_12
 70
     0
  3

 72
    65
 73
     2
 40
0.3937007874015748
 49
0.1968503937007874
 74
     0
 49
-0.1968503937007874
 74
     0
  0
ENDTAB
  0
TABLE
  2
LAYER
  5
2
330
0
100
AcDbSymbolTable
 70
     6
  0
LAYER
  5
10
330
2
100
AcDbSymbolTableRecord
100
AcDbLayerTableRecord
  2
0
 70
     0
 62
     7
  6
Continuous
370
    -3
390
F
347
75
  0
LAYER
  5
82
330
2
100
AcDbSymbolTableRecord
100
AcDbLayerTableRecord
  2
Defpoints
 70
     0
 62
     7
  6
Continuous
290
     0
370
    -3
390
F
347
75
  0
LAYER
  5
83
330
2
100
AcDbSymbolTableRecord
100
AcDbLayerTableRecord
  2
template
 70
     0
 62
     7
  6
Continuous
370
    20
390
F
347
75
  0
LAYER
  5
85
330
2
100
AcDbSymbolTableRecord
100
AcDbLayerTableRecord
  2
MODEL
 70
     0
 62
     7
  6
Continuous
370
    20
390
F
347
75
  0
LAYER
  5
86
330
2
100
AcDbSymbolTableRecord
100
AcDbLayerTableRecord
  2
レイヤー 1
 70
     0
 62
     7
  6
Continuous
370
    -3
390
F
347
75
  0
LAYER
  5
87
330
2
100
AcDbSymbolTableRecord
100
AcDbLayerTableRecord
  2
Dim
 70
     0
 62
     7
  6
Continuous
370
    13
390
F
347
75
1001
AcAecLayerStandard
1000

1000

  0
ENDTAB
  0
TABLE
  2
STYLE
  5
3
330
0
100
AcDbSymbolTable
 70
     2
  0
STYLE
  5
11
330
3
100
AcDbSymbolTableRecord
100
AcDbTextStyleTableRecord
  2
Standard
 70
     0
 40
0.0
 41
1.0
 50
0.0
 71
     0
 42
2.5
  3
arial.ttf
  4

1001
ACAD
1000
Arial
1071
        0
  0
STYLE
  5
8B
330
3
100
AcDbSymbolTableRecord
100
AcDbTextStyleTableRecord
  2
ＭＳ ゴシック
 70
     0
 40
0.0
 41
1.0
 50
0.0
 71
     0
 42
2.5
  3
msgothic.ttc
  4
ＭＳ ゴシック
1001
ACAD
1000
ＭＳ ゴシック
1071
        0
  0
ENDTAB
  0
TABLE
  2
VIEW
  5
6
330
0
100
AcDbSymbolTable
 70
     0
  0
ENDTAB
  0
TABLE
  2
UCS
  5
7
330
0
100
AcDbSymbolTable
 70
     0
  0
ENDTAB
  0
TABLE
  2
APPID
  5
9
330
0
100
AcDbSymbolTable
 70
     2
  0
APPID
  5
12
330
9
100
AcDbSymbolTableRecord
100
AcDbRegAppTableRecord
  2
ACAD
 70
     0
  0
APPID
  5
88
330
9
100
AcDbSymbolTableRecord
100
AcDbRegAppTableRecord
  2
AcAecLayerStandard
 70
     0
  0
ENDTAB
  0
TABLE
  2
DIMSTYLE
  5
A
330
0
100
AcDbSymbolTable
 70
     3
100
AcDbDimStyleTable
  0
DIMSTYLE
105
27
330
A
100
AcDbSymbolTableRecord
100
AcDbDimStyleTableRecord
  2
ISO-25
 70
     0
 41
2.5
 42
0.625
 43
3.75
 44
1.25
 73
     0
 74
     0
 77
     1
 78
     8
140
2.5
141
2.5
143
0.03937007874016
147
0.625
171
     3
172
     1
178
     0
271
     2
272
     2
274
     3
278
    44
283
     0
284
     8
340
11
  0
DIMSTYLE
105
8A
102
{ACAD_REACTORS
330
2CE
330
2CF
330
2D0
330
309
330
313
330
314
330
315
330
316
330
317
330
318
102
}
330
A
100
AcDbSymbolTableRecord
100
AcDbDimStyleTableRecord
  2
tform線あり
 70
     0
  3
<>
  4
[]
 41
9.999389648437498
 42
25.0
 43
0.9999999999999999
 44
0.0
 73
     0
 74
     0
 77
     1
 78
    11
140
24.4326171875
141
0.0
143
1.0
146
0.8
147
0.4999999999999999
171
     1
172
     1
174
     1
178
     0
179
     2
271
     1
272
     1
276
     2
284
    11
285
    11
286
    11
289
     0
340
8B
341
8C
342
8C
  0
DIMSTYLE
105
94
102
{ACAD_REACTORS
330
319
330
31A
330
31B
330
31C
330
31E
102
}
330
A
100
AcDbSymbolTableRecord
100
AcDbDimStyleTableRecord
  2
JIS
 70
     0
  3
<>
  4
[]
 41
9.0
 42
0.0
 43
6.99999999999994
 44
19.9999999999962
 73
     0
 74
     0
 77
     1
 78
    11
140
24.4326171875
141
0.0
143
1.0
147
10.0
171
     1
174
     1
178
     0
179
     2
271
     1
272
     1
276
     2
284
    11
285
    11
286
    11
289
     0
340
8B
341
8C
342
8C
  0
ENDTAB
  0
TABLE
  2
BLOCK_RECORD
  5
1
330
0
100
AcDbSymbolTable
 70
    41
  0
BLOCK_RECORD
  5
1F
330
1
100
AcDbSymbolTableRecord
100
AcDbBlockTableRecord
  2
*Model_Space
340
22
 70
     0
280
     1
281
     0
  0
BLOCK_RECORD
  5
1B
330
1
100
AcDbSymbolTableRecord
100
AcDbBlockTableRecord
  2
*Paper_Space
340
1E
 70
     0
280
     1
281
     0
  0
BLOCK_RECORD
  5
23
330
1
100
AcDbSymbolTableRecord
100
AcDbBlockTableRecord
  2
*Paper_Space0
340
26
 70
     0
280
     1
281
     0
  0
BLOCK_RECORD
  5
8C
330
1
100
AcDbSymbolTableRecord
100
AcDbBlockTableRecord
  2
_DOT
340
0
102
{BLKREFS
331
139
331
13A
331
146
331
147
331
153
331
154
331
198
331
199
331
1AE
331
1AF
331
1BB
331
1BC
331
1C8
331
1C9
331
1D5
331
1D6
331
1E2
331
1E3
331
1EF
331
1F0
331
1FC
331
1FD
331
209
331
20A
331
216
331
217
331
223
331
224
331
232
331
233
331
255
331
256
331
265
331
266
331
347
331
348
331
353
331
354
331
35F
331
360
331
36B
331
36C
331
377
331
378
331
383
331
384
331
38F
331
390
331
39B
331
39C
331
3A7
331
3A8
331
3B3
331
3B4
331
3BF
331
3C0
331
3CB
331
3CC
331
3D7
331
3D8
331
3E3
331
3E4
331
3F0
331
3F1
331
3FC
331
3FD
331
408
331
409
102
}
 70
     0
280
     1
281
     0
  0
BLOCK_RECORD
  5
C5
330
1
100
AcDbSymbolTableRecord
100
AcDbBlockTableRecord
  2
名称未設定-1
340
0
102
{BLKREFS
331
287
102
}
 70
     0
280
     1
281
     0
  0
BLOCK_RECORD
  5
C8
330
1
100
AcDbSymbolTableRecord
100
AcDbBlockTableRecord
  2
block 2
340
0
102
{BLKREFS
331
C7
102
}
 70
     0
280
     1
281
     0
  0
BLOCK_RECORD
  5
CB
330
1
100
AcDbSymbolTableRecord
100
AcDbBlockTableRecord
  2
block 3
340
0
102
{BLKREFS
331
CA
102
}
 70
     0
280
     1
281
     0
  0
BLOCK_RECORD
  5
CE
330
1
100
AcDbSymbolTableRecord
100
AcDbBlockTableRecord
  2
block 4
340
0
102
{BLKREFS
331
CD
102
}
 70
     0
280
     1
281
     0
  0
BLOCK_RECORD
  5
DD
330
1
100
AcDbSymbolTableRecord
100
AcDbBlockTableRecord
  2
block 5
340
0
102
{BLKREFS
331
DC
102
}
 70
     0
280
     1
281
     0
  0
BLOCK_RECORD
  5
134
330
1
100
AcDbSymbolTableRecord
100
AcDbBlockTableRecord
  2
*D7
340
0
 70
     0
280
     1
281
     0
  0
BLOCK_RECORD
  5
141
330
1
100
AcDbSymbolTableRecord
100
AcDbBlockTableRecord
  2
*D8
340
0
 70
     0
280
     1
281
     0
  0
BLOCK_RECORD
  5
14E
330
1
100
AcDbSymbolTableRecord
100
AcDbBlockTableRecord
  2
*D9
340
0
 70
     0
280
     1
281
     0
  0
BLOCK_RECORD
  5
193
330
1
100
AcDbSymbolTableRecord
100
AcDbBlockTableRecord
  2
*D10
340
0
 70
     0
280
     1
281
     0
  0
BLOCK_RECORD
  5
1A9
330
1
100
AcDbSymbolTableRecord
100
AcDbBlockTableRecord
  2
*D11
340
0
 70
     0
280
     1
281
     0
  0
BLOCK_RECORD
  5
1B6
330
1
100
AcDbSymbolTableRecord
100
AcDbBlockTableRecord
  2
*D12
340
0
 70
     0
280
     1
281
     0
  0
BLOCK_RECORD
  5
1C3
330
1
100
AcDbSymbolTableRecord
100
AcDbBlockTableRecord
  2
*D13
340
0
 70
     0
280
     1
281
     0
  0
BLOCK_RECORD
  5
1D0
330
1
100
AcDbSymbolTableRecord
100
AcDbBlockTableRecord
  2
*D14
340
0
 70
     0
280
     1
281
     0
  0
BLOCK_RECORD
  5
1DD
330
1
100
AcDbSymbolTableRecord
100
AcDbBlockTableRecord
  2
*D15
340
0
 70
     0
280
     1
281
     0
  0
BLOCK_RECORD
  5
1EA
330
1
100
AcDbSymbolTableRecord
100
AcDbBlockTableRecord
  2
*D16
340
0
 70
     0
280
     1
281
     0
  0
BLOCK_RECORD
  5
1F7
330
1
100
AcDbSymbolTableRecord
100
AcDbBlockTableRecord
  2
*D17
340
0
 70
     0
280
     1
281
     0
  0
BLOCK_RECORD
  5
204
330
1
100
AcDbSymbolTableRecord
100
AcDbBlockTableRecord
  2
*D18
340
0
 70
     0
280
     1
281
     0
  0
BLOCK_RECORD
  5
211
330
1
100
AcDbSymbolTableRecord
100
AcDbBlockTableRecord
  2
*D19
340
0
 70
     0
280
     1
281
     0
  0
BLOCK_RECORD
  5
21E
330
1
100
AcDbSymbolTableRecord
100
AcDbBlockTableRecord
  2
*D20
340
0
 70
     0
280
     1
281
     0
  0
BLOCK_RECORD
  5
22C
330
1
100
AcDbSymbolTableRecord
100
AcDbBlockTableRecord
  2
*D21
340
0
 70
     0
280
     1
281
     0
  0
BLOCK_RECORD
  5
250
330
1
100
AcDbSymbolTableRecord
100
AcDbBlockTableRecord
  2
*D22
340
0
 70
     0
280
     1
281
     0
  0
BLOCK_RECORD
  5
260
330
1
100
AcDbSymbolTableRecord
100
AcDbBlockTableRecord
  2
*D23
340
0
 70
     0
280
     1
281
     0
  0
BLOCK_RECORD
  5
341
330
1
100
AcDbSymbolTableRecord
100
AcDbBlockTableRecord
  2
*D24
340
0
 70
     0
280
     1
281
     0
  0
BLOCK_RECORD
  5
34D
330
1
100
AcDbSymbolTableRecord
100
AcDbBlockTableRecord
  2
*D25
340
0
 70
     0
280
     1
281
     0
  0
BLOCK_RECORD
  5
359
330
1
100
AcDbSymbolTableRecord
100
AcDbBlockTableRecord
  2
*D26
340
0
 70
     0
280
     1
281
     0
  0
BLOCK_RECORD
  5
365
330
1
100
AcDbSymbolTableRecord
100
AcDbBlockTableRecord
  2
*D27
340
0
 70
     0
280
     1
281
     0
  0
BLOCK_RECORD
  5
371
330
1
100
AcDbSymbolTableRecord
100
AcDbBlockTableRecord
  2
*D28
340
0
 70
     0
280
     1
281
     0
  0
BLOCK_RECORD
  5
37D
330
1
100
AcDbSymbolTableRecord
100
AcDbBlockTableRecord
  2
*D29
340
0
 70
     0
280
     1
281
     0
  0
BLOCK_RECORD
  5
389
330
1
100
AcDbSymbolTableRecord
100
AcDbBlockTableRecord
  2
*D30
340
0
 70
     0
280
     1
281
     0
  0
BLOCK_RECORD
  5
395
330
1
100
AcDbSymbolTableRecord
100
AcDbBlockTableRecord
  2
*D31
340
0
 70
     0
280
     1
281
     0
  0
BLOCK_RECORD
  5
3A1
330
1
100
AcDbSymbolTableRecord
100
AcDbBlockTableRecord
  2
*D32
340
0
 70
     0
280
     1
281
     0
  0
BLOCK_RECORD
  5
3AD
330
1
100
AcDbSymbolTableRecord
100
AcDbBlockTableRecord
  2
*D33
340
0
 70
     0
280
     1
281
     0
  0
BLOCK_RECORD
  5
3B9
330
1
100
AcDbSymbolTableRecord
100
AcDbBlockTableRecord
  2
*D34
340
0
 70
     0
280
     1
281
     0
  0
BLOCK_RECORD
  5
3C5
330
1
100
AcDbSymbolTableRecord
100
AcDbBlockTableRecord
  2
*D35
340
0
 70
     0
280
     1
281
     0
  0
BLOCK_RECORD
  5
3D1
330
1
100
AcDbSymbolTableRecord
100
AcDbBlockTableRecord
  2
*D36
340
0
 70
     0
280
     1
281
     0
  0
BLOCK_RECORD
  5
3DD
330
1
100
AcDbSymbolTableRecord
100
AcDbBlockTableRecord
  2
*D37
340
0
 70
     0
280
     1
281
     0
  0
BLOCK_RECORD
  5
3E9
330
1
100
AcDbSymbolTableRecord
100
AcDbBlockTableRecord
  2
*D38
340
0
 70
     0
280
     1
281
     0
  0
BLOCK_RECORD
  5
3F6
330
1
100
AcDbSymbolTableRecord
100
AcDbBlockTableRecord
  2
*D39
340
0
 70
     0
280
     1
281
     0
  0
BLOCK_RECORD
  5
402
330
1
100
AcDbSymbolTableRecord
100
AcDbBlockTableRecord
  2
*D40
340
0
 70
     0
280
     1
281
     0
  0
ENDTAB
  0
ENDSEC
  0
SECTION
  2
BLOCKS
  0
BLOCK
  5
20
330
1F
100
AcDbEntity
  8
0
100
AcDbBlockBegin
  2
*Model_Space
 70
     0
 10
0.0
 20
0.0
 30
0.0
  3
*Model_Space
  1
*Model_Space
  0
ENDBLK
  5
21
330
1F
100
AcDbEntity
  8
0
100
AcDbBlockEnd
  0
BLOCK
  5
1C
330
1B
100
AcDbEntity
 67
     1
  8
0
100
AcDbBlockBegin
  2
*Paper_Space
 70
     0
 10
0.0
 20
0.0
 30
0.0
  3
*Paper_Space
  1
*Paper_Space
  0
ENDBLK
  5
1D
330
1B
100
AcDbEntity
 67
     1
  8
0
100
AcDbBlockEnd
  0
BLOCK
  5
24
330
23
100
AcDbEntity
  8
0
100
AcDbBlockBegin
  2
*Paper_Space0
 70
     0
 10
0.0
 20
0.0
 30
0.0
  3
*Paper_Space0
  1
*Paper_Space0
  0
ENDBLK
  5
25
330
23
100
AcDbEntity
  8
0
100
AcDbBlockEnd
  0
BLOCK
  5
8D
330
8C
100
AcDbEntity
  8
0
390
F
100
AcDbBlockBegin
  2
_DOT
 70
     0
 10
0.0
 20
0.0
 30
0.0
  3
_DOT
  1
_DOT
  0
POLYLINE
  5
8E
330
8C
100
AcDbEntity
  8
0
  6
ByBlock
 62
     0
370
    -2
390
F
100
AcDb2dPolyline
 66
     1
 10
0.0
 20
0.0
 30
0.0
 70
     1
 40
0.5
 41
0.5
  0
VERTEX
  5
8F
330
8E
100
AcDbEntity
  8
0
  6
ByBlock
 62
     0
370
    -2
390
F
100
AcDbVertex
100
AcDb2dVertex
 10
-0.25
 20
0.0
 30
0.0
 42
1.0
  0
VERTEX
  5
90
330
8E
100
AcDbEntity
  8
0
  6
ByBlock
 62
     0
370
    -2
390
F
100
AcDbVertex
100
AcDb2dVertex
 10
0.25
 20
0.0
 30
0.0
 42
1.0
  0
SEQEND
  5
91
330
8E
100
AcDbEntity
  8
0
390
F
  0
LINE
  5
92
330
8C
100
AcDbEntity
  8
0
  6
ByBlock
 62
     0
370
    -2
390
F
100
AcDbLine
 10
-0.5
 20
0.0
 30
0.0
 11
-1.0
 21
0.0
 31
0.0
  0
ENDBLK
  5
93
330
8C
100
AcDbEntity
  8
0
390
F
100
AcDbBlockEnd
  0
BLOCK
  5
C6
330
C5
100
AcDbEntity
  8
0
100
AcDbBlockBegin
  2
名称未設定-1
 70
     0
 10
0.0
 20
0.0
 30
0.0
  3
名称未設定-1
  1
名称未設定-1
  0
INSERT
  5
C7
330
C5
100
AcDbEntity
  8
レイヤー 1
100
AcDbBlockReference
  2
block 2
 10
0.0
 20
0.0
 30
0.0
  0
ENDBLK
  5
EC
330
C5
100
AcDbEntity
  8
0
100
AcDbBlockEnd
  0
BLOCK
  5
C9
330
C8
100
AcDbEntity
  8
0
100
AcDbBlockBegin
  2
block 2
 70
     0
 10
0.0
 20
0.0
 30
0.0
  3
block 2
  1
block 2
  0
INSERT
  5
CA
330
C8
100
AcDbEntity
  8
レイヤー 1
100
AcDbBlockReference
  2
block 3
 10
0.0
 20
0.0
 30
0.0
  0
ENDBLK
  5
EB
330
C8
100
AcDbEntity
  8
0
100
AcDbBlockEnd
  0
BLOCK
  5
CC
330
CB
100
AcDbEntity
  8
0
100
AcDbBlockBegin
  2
block 3
 70
     0
 10
0.0
 20
0.0
 30
0.0
  3
block 3
  1
block 3
  0
INSERT
  5
CD
330
CB
100
AcDbEntity
  8
レイヤー 1
100
AcDbBlockReference
  2
block 4
 10
0.0
 20
0.0
 30
0.0
  0
ENDBLK
  5
EA
330
CB
100
AcDbEntity
  8
0
100
AcDbBlockEnd
  0
BLOCK
  5
CF
330
CE
100
AcDbEntity
  8
0
100
AcDbBlockBegin
  2
block 4
 70
     0
 10
0.0
 20
0.0
 30
0.0
  3
block 4
  1
block 4
  0
POLYLINE
  5
D0
330
CE
100
AcDbEntity
  8
レイヤー 1
370
     0
100
AcDb2dPolyline
 66
     1
 10
0.0
 20
0.0
 30
0.0
  0
VERTEX
  5
D1
330
D0
100
AcDbEntity
  8
レイヤー 1
370
     0
100
AcDbVertex
100
AcDb2dVertex
 10
83.79545727667795
 20
167.6444858234922
 30
0.0
  0
VERTEX
  5
D2
330
D0
100
AcDbEntity
  8
レイヤー 1
370
     0
100
AcDbVertex
100
AcDb2dVertex
 10
83.79545727667795
 20
159.7968976406313
 30
0.0
  0
VERTEX
  5
D3
330
D0
100
AcDbEntity
  8
レイヤー 1
370
     0
100
AcDbVertex
100
AcDb2dVertex
 10
71.3631329975216
 20
159.7968976406313
 30
0.0
  0
VERTEX
  5
D4
330
D0
100
AcDbEntity
  8
レイヤー 1
370
     0
100
AcDbVertex
100
AcDb2dVertex
 10
71.3631329975216
 20
127.8027915271048
 30
0.0
  0
VERTEX
  5
D5
330
D0
100
AcDbEntity
  8
レイヤー 1
370
     0
100
AcDbVertex
100
AcDb2dVertex
 10
60.43011526263018
 20
127.8027915271048
 30
0.0
  0
VERTEX
  5
D6
330
D0
100
AcDbEntity
  8
レイヤー 1
370
     0
100
AcDbVertex
100
AcDb2dVertex
 10
60.43011526263018
 20
159.7968976406313
 30
0.0
  0
VERTEX
  5
D7
330
D0
100
AcDbEntity
  8
レイヤー 1
370
     0
100
AcDbVertex
100
AcDb2dVertex
 10
48.21793273020759
 20
159.7968976406313
 30
0.0
  0
VERTEX
  5
D8
330
D0
100
AcDbEntity
  8
レイヤー 1
370
     0
100
AcDbVertex
100
AcDb2dVertex
 10
48.21793273020759
 20
167.6444858234922
 30
0.0
  0
VERTEX
  5
D9
330
D0
100
AcDbEntity
  8
レイヤー 1
370
     0
100
AcDbVertex
100
AcDb2dVertex
 10
83.79545727667795
 20
167.6444858234922
 30
0.0
  0
SEQEND
  5
DA
330
D0
100
AcDbEntity
  8
レイヤー 1
370
     0
  0
HATCH
  5
DB
330
CE
100
AcDbEntity
  8
レイヤー 1
 62
   250
100
AcDbHatch
 10
0.0
 20
0.0
 30
0.0
210
0.0
220
0.0
230
1.0
  2
SOLID
 70
     1
 71
     0
 91
        1
 92
        1
 93
        8
 72
     1
 10
83.79545727667795
 20
167.6444858234922
 11
83.79545727667795
 21
159.7968976406313
 72
     1
 10
83.79545727667795
 20
159.7968976406313
 11
71.3631329975216
 21
159.7968976406313
 72
     1
 10
71.3631329975216
 20
159.7968976406313
 11
71.3631329975216
 21
127.8027915271048
 72
     1
 10
71.3631329975216
 20
127.8027915271048
 11
60.43011526263018
 21
127.8027915271048
 72
     1
 10
60.43011526263018
 20
127.8027915271048
 11
60.43011526263018
 21
159.7968976406313
 72
     1
 10
60.43011526263018
 20
159.7968976406313
 11
48.21793273020759
 21
159.7968976406313
 72
     1
 10
48.21793273020759
 20
159.7968976406313
 11
48.21793273020759
 21
167.6444858234922
 72
     1
 10
48.21793273020759
 20
167.6444858234922
 11
83.79545727667795
 21
167.6444858234922
 97
        0
 75
     2
 76
     1
 98
        0
  0
INSERT
  5
DC
330
CE
100
AcDbEntity
  8
レイヤー 1
100
AcDbBlockReference
  2
block 5
 10
0.0
 20
0.0
 30
0.0
  0
ENDBLK
  5
E9
330
CE
100
AcDbEntity
  8
0
100
AcDbBlockEnd
  0
BLOCK
  5
DE
330
DD
100
AcDbEntity
  8
0
100
AcDbBlockBegin
  2
block 5
 70
     0
 10
0.0
 20
0.0
 30
0.0
  3
block 5
  1
block 5
  0
SPLINE
  5
DF
330
DD
100
AcDbEntity
  8
レイヤー 1
370
     0
100
AcDbSpline
210
0.0
220
0.0
230
1.0
 70
    11
 71
     3
 72
    56
 73
    52
 74
     0
 42
0.000000001
 43
0.0000000001
 40
0.0
 40
0.0
 40
0.0
 40
0.0
 40
1.0
 40
1.0
 40
1.0
 40
2.0
 40
2.0
 40
2.0
 40
3.0
 40
3.0
 40
3.0
 40
4.0
 40
4.0
 40
4.0
 40
5.0
 40
5.0
 40
5.0
 40
6.0
 40
6.0
 40
6.0
 40
7.0
 40
7.0
 40
7.0
 40
8.0
 40
8.0
 40
8.0
 40
9.0
 40
9.0
 40
9.0
 40
10.0
 40
10.0
 40
10.0
 40
11.0
 40
11.0
 40
11.0
 40
12.0
 40
12.0
 40
12.0
 40
13.0
 40
13.0
 40
13.0
 40
14.0
 40
14.0
 40
14.0
 40
15.0
 40
15.0
 40
15.0
 40
16.0
 40
16.0
 40
16.0
 40
17.0
 40
17.0
 40
17.0
 40
17.0
 10
100.4504378777679
 20
166.69157178364
 30
0.0
 10
101.9848844191641
 20
167.1313385124438
 30
0.0
 10
103.9637485713373
 20
166.7649523658846
 30
0.0
 10
103.9637485713373
 20
166.7649523658846
 30
0.0
 10
103.9637485713373
 20
166.7649523658846
 30
0.0
 10
103.0132460999156
 20
163.911205638077
 30
0.0
 10
103.0132460999156
 20
163.911205638077
 30
0.0
 10
103.0132460999156
 20
163.911205638077
 30
0.0
 10
101.0674548862189
 20
164.3601018759394
 30
0.0
 10
99.57090442016032
 20
163.1805004036133
 30
0.0
 10
98.40508333886608
 20
162.258247733807
 30
0.0
 10
97.65301849830304
 20
159.804132345923
 30
0.0
 10
97.3598406791005
 20
158.8699940888517
 30
0.0
 10
97.3598406791005
 20
158.8699940888517
 30
0.0
 10
96.07137411762282
 20
154.9119212747295
 30
0.0
 10
96.07137411762282
 20
154.9119212747295
 30
0.0
 10
96.07137411762282
 20
154.9119212747295
 30
0.0
 10
100.3012651448482
 20
154.9119212747295
 30
0.0
 10
100.3012651448482
 20
154.9119212747295
 30
0.0
 10
100.3012651448482
 20
154.9119212747295
 30
0.0
 10
99.64152892419852
 20
152.4199098115079
 30
0.0
 10
99.64152892419852
 20
152.4199098115079
 30
0.0
 10
99.64152892419852
 20
152.4199098115079
 30
0.0
 10
95.38097652692731
 20
152.4199098115079
 30
0.0
 10
95.38097652692731
 20
152.4199098115079
 30
0.0
 10
95.38097652692731
 20
152.4199098115079
 30
0.0
 10
87.75353009080013
 20
127.8027915271048
 30
0.0
 10
87.75353009080013
 20
127.8027915271048
 30
0.0
 10
87.75353009080013
 20
127.8027915271048
 30
0.0
 10
85.36538832498108
 20
127.8027915271048
 30
0.0
 10
85.36538832498108
 20
127.8027915271048
 30
0.0
 10
85.36538832498108
 20
127.8027915271048
 30
0.0
 10
93.00006946639998
 20
152.4199098115079
 30
0.0
 10
93.00006946639998
 20
152.4199098115079
 30
0.0
 10
93.00006946639998
 20
152.4199098115079
 30
0.0
 10
89.85297266450198
 20
152.4199098115079
 30
0.0
 10
89.85297266450198
 20
152.4199098115079
 30
0.0
 10
89.85297266450198
 20
152.4199098115079
 30
0.0
 10
90.51270888515164
 20
154.9119212747295
 30
0.0
 10
90.51270888515164
 20
154.9119212747295
 30
0.0
 10
90.51270888515164
 20
154.9119212747295
 30
0.0
 10
93.6904670570955
 20
154.9119212747295
 30
0.0
 10
93.6904670570955
 20
154.9119212747295
 30
0.0
 10
93.6904670570955
 20
154.9119212747295
 30
0.0
 10
94.81598049462158
 20
158.3616699146644
 30
0.0
 10
94.81598049462158
 20
158.3616699146644
 30
0.0
 10
95.7237637538445
 20
161.2605474231013
 30
0.0
 10
96.4968436907311
 20
162.8139420021662
 30
0.0
 10
97.15657991138076
 20
163.9844139654337
 30
0.0
 10
97.81183750494507
 20
165.1523021053827
 30
0.0
 10
99.1047826935081
 20
166.3084769129547
 30
0.0
 10
100.4504378777679
 20
166.69157178364
 30
0.0
  0
HATCH
  5
E0
330
DD
100
AcDbEntity
  8
レイヤー 1
 62
   250
100
AcDbHatch
 10
0.0
 20
0.0
 30
0.0
210
0.0
220
0.0
230
1.0
  2
SOLID
 70
     1
 71
     0
 91
        1
 92
        1
 93
        1
 72
     4
 94
        3
 73
     0
 74
     1
 95
       56
 96
       52
 40
0.0
 40
0.0
 40
0.0
 40
0.0
 40
1.0
 40
1.0
 40
1.0
 40
2.0
 40
2.0
 40
2.0
 40
3.0
 40
3.0
 40
3.0
 40
4.0
 40
4.0
 40
4.0
 40
5.0
 40
5.0
 40
5.0
 40
6.0
 40
6.0
 40
6.0
 40
7.0
 40
7.0
 40
7.0
 40
8.0
 40
8.0
 40
8.0
 40
9.0
 40
9.0
 40
9.0
 40
10.0
 40
10.0
 40
10.0
 40
11.0
 40
11.0
 40
11.0
 40
12.0
 40
12.0
 40
12.0
 40
13.0
 40
13.0
 40
13.0
 40
14.0
 40
14.0
 40
14.0
 40
15.0
 40
15.0
 40
15.0
 40
16.0
 40
16.0
 40
16.0
 40
17.0
 40
17.0
 40
17.0
 40
17.0
 10
100.4504378777679
 20
166.69157178364
 10
101.9848844191641
 20
167.1313385124438
 10
103.9637485713373
 20
166.7649523658846
 10
103.9637485713373
 20
166.7649523658846
 10
103.9637485713373
 20
166.7649523658846
 10
103.0132460999156
 20
163.911205638077
 10
103.0132460999156
 20
163.911205638077
 10
103.0132460999156
 20
163.911205638077
 10
101.0674548862189
 20
164.3601018759394
 10
99.57090442016032
 20
163.1805004036133
 10
98.40508333886608
 20
162.258247733807
 10
97.65301849830304
 20
159.804132345923
 10
97.3598406791005
 20
158.8699940888517
 10
97.3598406791005
 20
158.8699940888517
 10
96.07137411762282
 20
154.9119212747295
 10
96.07137411762282
 20
154.9119212747295
 10
96.07137411762282
 20
154.9119212747295
 10
100.3012651448482
 20
154.9119212747295
 10
100.3012651448482
 20
154.9119212747295
 10
100.3012651448482
 20
154.9119212747295
 10
99.64152892419852
 20
152.4199098115079
 10
99.64152892419852
 20
152.4199098115079
 10
99.64152892419852
 20
152.4199098115079
 10
95.38097652692731
 20
152.4199098115079
 10
95.38097652692731
 20
152.4199098115079
 10
95.38097652692731
 20
152.4199098115079
 10
87.75353009080013
 20
127.8027915271048
 10
87.75353009080013
 20
127.8027915271048
 10
87.75353009080013
 20
127.8027915271048
 10
85.36538832498108
 20
127.8027915271048
 10
85.36538832498108
 20
127.8027915271048
 10
85.36538832498108
 20
127.8027915271048
 10
93.00006946639998
 20
152.4199098115079
 10
93.00006946639998
 20
152.4199098115079
 10
93.00006946639998
 20
152.4199098115079
 10
89.85297266450198
 20
152.4199098115079
 10
89.85297266450198
 20
152.4199098115079
 10
89.85297266450198
 20
152.4199098115079
 10
90.51270888515164
 20
154.9119212747295
 10
90.51270888515164
 20
154.9119212747295
 10
90.51270888515164
 20
154.9119212747295
 10
93.6904670570955
 20
154.9119212747295
 10
93.6904670570955
 20
154.9119212747295
 10
93.6904670570955
 20
154.9119212747295
 10
94.81598049462158
 20
158.3616699146644
 10
94.81598049462158
 20
158.3616699146644
 10
95.7237637538445
 20
161.2605474231013
 10
96.4968436907311
 20
162.8139420021662
 10
97.15657991138076
 20
163.9844139654337
 10
97.81183750494507
 20
165.1523021053827
 10
99.1047826935081
 20
166.3084769129547
 10
100.4504378777679
 20
166.69157178364
 97
        0
 75
     2
 76
     1
 98
        0
  0
SPLINE
  5
E1
330
DD
100
AcDbEntity
  8
レイヤー 1
370
     0
100
AcDbSpline
210
0.0
220
0.0
230
1.0
 70
    11
 71
     3
 72
    38
 73
    34
 74
     0
 42
0.000000001
 43
0.0000000001
 40
0.0
 40
0.0
 40
0.0
 40
0.0
 40
1.0
 40
1.0
 40
1.0
 40
2.0
 40
2.0
 40
2.0
 40
3.0
 40
3.0
 40
3.0
 40
4.0
 40
4.0
 40
4.0
 40
5.0
 40
5.0
 40
5.0
 40
6.0
 40
6.0
 40
6.0
 40
7.0
 40
7.0
 40
7.0
 40
8.0
 40
8.0
 40
8.0
 40
9.0
 40
9.0
 40
9.0
 40
10.0
 40
10.0
 40
10.0
 40
11.0
 40
11.0
 40
11.0
 40
11.0
 10
126.377554584636
 20
154.8151140277308
 30
0.0
 10
126.377554584636
 20
154.8151140277308
 30
0.0
 10
128.8311532078563
 20
154.8151140277308
 30
0.0
 10
128.8311532078563
 20
154.8151140277308
 30
0.0
 10
128.8311532078563
 20
154.8151140277308
 30
0.0
 10
127.7345785914971
 20
151.3062819612468
 30
0.0
 10
127.7345785914971
 20
151.3062819612468
 30
0.0
 10
128.571392836906
 20
152.2922689395754
 30
0.0
 10
129.8860421413442
 20
153.604506675583
 30
0.0
 10
131.0163787157314
 20
154.2664822097754
 30
0.0
 10
132.7044766171327
 20
155.2500576196734
 30
0.0
 10
133.6642808525008
 20
155.3847609420097
 30
0.0
 10
134.7284715499351
 20
155.3565111403944
 30
0.0
 10
134.7284715499351
 20
155.3565111403944
 30
0.0
 10
133.6877075172549
 20
152.0345756272799
 30
0.0
 10
133.6877075172549
 20
152.0345756272799
 30
0.0
 10
133.011434827367
 20
152.3184516825359
 30
0.0
 10
130.930940291334
 20
151.7768823149844
 30
0.0
 10
129.739280976855
 20
150.9162968950455
 30
0.0
 10
128.66613302525
 20
150.1454562717016
 30
0.0
 10
127.9192358313239
 20
149.4857200510519
 30
0.0
 10
127.0393578639405
 20
147.8282835196966
 30
0.0
 10
126.164647543194
 20
146.1699857139017
 30
0.0
 10
125.4742499524985
 20
143.5262176944419
 30
0.0
 10
124.2822461282437
 20
139.6959580071401
 30
0.0
 10
124.2822461282437
 20
139.6959580071401
 30
0.0
 10
120.5753209406769
 20
127.8027915271048
 30
0.0
 10
120.5753209406769
 20
127.8027915271048
 30
0.0
 10
120.5753209406769
 20
127.8027915271048
 30
0.0
 10
118.1964809388044
 20
127.8027915271048
 30
0.0
 10
118.1964809388044
 20
127.8027915271048
 30
0.0
 10
118.1964809388044
 20
127.8027915271048
 30
0.0
 10
126.377554584636
 20
154.8151140277308
 30
0.0
 10
126.377554584636
 20
154.8151140277308
 30
0.0
  0
HATCH
  5
E2
330
DD
100
AcDbEntity
  8
レイヤー 1
 62
   250
100
AcDbHatch
 10
0.0
 20
0.0
 30
0.0
210
0.0
220
0.0
230
1.0
  2
SOLID
 70
     1
 71
     0
 91
        1
 92
        1
 93
        1
 72
     4
 94
        3
 73
     0
 74
     1
 95
       38
 96
       34
 40
0.0
 40
0.0
 40
0.0
 40
0.0
 40
1.0
 40
1.0
 40
1.0
 40
2.0
 40
2.0
 40
2.0
 40
3.0
 40
3.0
 40
3.0
 40
4.0
 40
4.0
 40
4.0
 40
5.0
 40
5.0
 40
5.0
 40
6.0
 40
6.0
 40
6.0
 40
7.0
 40
7.0
 40
7.0
 40
8.0
 40
8.0
 40
8.0
 40
9.0
 40
9.0
 40
9.0
 40
10.0
 40
10.0
 40
10.0
 40
11.0
 40
11.0
 40
11.0
 40
11.0
 10
126.377554584636
 20
154.8151140277308
 10
126.377554584636
 20
154.8151140277308
 10
128.8311532078563
 20
154.8151140277308
 10
128.8311532078563
 20
154.8151140277308
 10
128.8311532078563
 20
154.8151140277308
 10
127.7345785914971
 20
151.3062819612468
 10
127.7345785914971
 20
151.3062819612468
 10
128.571392836906
 20
152.2922689395754
 10
129.8860421413442
 20
153.604506675583
 10
131.0163787157314
 20
154.2664822097754
 10
132.7044766171327
 20
155.2500576196734
 10
133.6642808525008
 20
155.3847609420097
 10
134.7284715499351
 20
155.3565111403944
 10
134.7284715499351
 20
155.3565111403944
 10
133.6877075172549
 20
152.0345756272799
 10
133.6877075172549
 20
152.0345756272799
 10
133.011434827367
 20
152.3184516825359
 10
130.930940291334
 20
151.7768823149844
 10
129.739280976855
 20
150.9162968950455
 10
128.66613302525
 20
150.1454562717016
 10
127.9192358313239
 20
149.4857200510519
 10
127.0393578639405
 20
147.8282835196966
 10
126.164647543194
 20
146.1699857139017
 10
125.4742499524985
 20
143.5262176944419
 10
124.2822461282437
 20
139.6959580071401
 10
124.2822461282437
 20
139.6959580071401
 10
120.5753209406769
 20
127.8027915271048
 10
120.5753209406769
 20
127.8027915271048
 10
120.5753209406769
 20
127.8027915271048
 10
118.1964809388044
 20
127.8027915271048
 10
118.1964809388044
 20
127.8027915271048
 10
118.1964809388044
 20
127.8027915271048
 10
126.377554584636
 20
154.8151140277308
 10
126.377554584636
 20
154.8151140277308
 97
        0
 75
     2
 76
     1
 98
        0
  0
SPLINE
  5
E3
330
DD
100
AcDbEntity
  8
レイヤー 1
370
     0
100
AcDbSpline
210
0.0
220
0.0
230
1.0
 70
    11
 71
     3
 72
   104
 73
   100
 74
     0
 42
0.000000001
 43
0.0000000001
 40
0.0
 40
0.0
 40
0.0
 40
0.0
 40
1.0
 40
1.0
 40
1.0
 40
2.0
 40
2.0
 40
2.0
 40
3.0
 40
3.0
 40
3.0
 40
4.0
 40
4.0
 40
4.0
 40
5.0
 40
5.0
 40
5.0
 40
6.0
 40
6.0
 40
6.0
 40
7.0
 40
7.0
 40
7.0
 40
8.0
 40
8.0
 40
8.0
 40
9.0
 40
9.0
 40
9.0
 40
10.0
 40
10.0
 40
10.0
 40
11.0
 40
11.0
 40
11.0
 40
12.0
 40
12.0
 40
12.0
 40
13.0
 40
13.0
 40
13.0
 40
14.0
 40
14.0
 40
14.0
 40
15.0
 40
15.0
 40
15.0
 40
16.0
 40
16.0
 40
16.0
 40
17.0
 40
17.0
 40
17.0
 40
18.0
 40
18.0
 40
18.0
 40
19.0
 40
19.0
 40
19.0
 40
20.0
 40
20.0
 40
20.0
 40
21.0
 40
21.0
 40
21.0
 40
22.0
 40
22.0
 40
22.0
 40
23.0
 40
23.0
 40
23.0
 40
24.0
 40
24.0
 40
24.0
 40
25.0
 40
25.0
 40
25.0
 40
26.0
 40
26.0
 40
26.0
 40
27.0
 40
27.0
 40
27.0
 40
28.0
 40
28.0
 40
28.0
 40
29.0
 40
29.0
 40
29.0
 40
30.0
 40
30.0
 40
30.0
 40
31.0
 40
31.0
 40
31.0
 40
32.0
 40
32.0
 40
32.0
 40
33.0
 40
33.0
 40
33.0
 40
33.0
 10
139.8926730891197
 20
154.8294111834263
 30
0.0
 10
139.8926730891197
 20
154.8294111834263
 30
0.0
 10
142.0344903652445
 20
154.8294111834263
 30
0.0
 10
142.0344903652445
 20
154.8294111834263
 30
0.0
 10
142.0344903652445
 20
154.8294111834263
 30
0.0
 10
140.9516961399171
 20
151.3157559800812
 30
0.0
 10
140.9516961399171
 20
151.3157559800812
 30
0.0
 10
141.8928968473923
 20
152.7887075264977
 30
0.0
 10
142.7341897198865
 20
153.4484437471474
 30
0.0
 10
143.8552245303272
 20
154.2926649527359
 30
0.0
 10
144.9803934580775
 20
155.1296514530327
 30
0.0
 10
146.3139908001845
 20
155.3044901642492
 30
0.0
 10
147.241066606852
 20
155.3044901642492
 30
0.0
 10
148.3855280820469
 20
155.3044901642492
 30
0.0
 10
149.4969166187653
 20
155.0752189084569
 30
0.0
 10
150.0784491203092
 20
153.8172414621372
 30
0.0
 10
150.5228667310863
 20
152.833838307127
 30
0.0
 10
150.5414702589793
 20
152.7201500811143
 30
0.0
 10
150.4140016419347
 20
150.7765981809602
 30
0.0
 10
151.5818897818837
 20
152.7699317437168
 30
0.0
 10
152.4424752018226
 20
153.6256940267945
 30
0.0
 10
153.9038856707499
 20
154.4507949398263
 30
0.0
 10
155.4455669174378
 20
155.3044901642492
 30
0.0
 10
156.339225275853
 20
155.3659851592288
 30
0.0
 10
157.3748216618963
 20
155.2147453676543
 30
0.0
 10
158.911679771723
 20
154.9877134254046
 30
0.0
 10
159.8859534176746
 20
154.4390816074493
 30
0.0
 10
160.3965169054045
 20
152.7816450760939
 30
0.0
 10
160.9070803931344
 20
151.1219692311958
 30
0.0
 10
160.6328506116007
 20
150.2303779314354
 30
0.0
 10
159.9992971339115
 20
147.597634224801
 30
0.0
 10
159.7105979417943
 20
146.4014962832367
 30
0.0
 10
159.2947746424084
 20
144.9400858143094
 30
0.0
 10
158.7463150793409
 20
143.2092687007094
 30
0.0
 10
158.7463150793409
 20
143.2092687007094
 30
0.0
 10
153.9038856707499
 20
127.8027915271048
 30
0.0
 10
153.9038856707499
 20
127.8027915271048
 30
0.0
 10
153.9038856707499
 20
127.8027915271048
 30
0.0
 10
151.3882752878863
 20
127.8027915271048
 30
0.0
 10
151.3882752878863
 20
127.8027915271048
 30
0.0
 10
151.3882752878863
 20
127.8027915271048
 30
0.0
 10
155.6250565106276
 20
141.2751908193897
 30
0.0
 10
155.6250565106276
 20
141.2751908193897
 30
0.0
 10
156.5094131050963
 20
144.0936252951782
 30
0.0
 10
157.109893644309
 20
146.1506931664571
 30
0.0
 10
157.4220195011804
 20
147.4415712963654
 30
0.0
 10
157.8095929989511
 20
149.0530157726519
 30
0.0
 10
157.9656559273867
 20
149.5826995529385
 30
0.0
 10
157.7816877071116
 20
150.7529992613181
 30
0.0
 10
157.6111553680925
 20
151.8430281919372
 30
0.0
 10
157.0582171779396
 20
152.5547853887321
 30
0.0
 10
156.1170164704645
 20
152.5547853887321
 30
0.0
 10
155.1096698860365
 20
152.5547853887321
 30
0.0
 10
154.2962823053817
 20
152.4412694176073
 30
0.0
 10
153.156643967048
 20
151.2945686288697
 30
0.0
 10
152.0170056287143
 20
150.1476955852443
 30
0.0
 10
151.076149431015
 20
148.7930831468137
 30
0.0
 10
150.3337308641742
 20
147.2290087646991
 30
0.0
 10
149.5957909244188
 20
145.6683794803425
 30
0.0
 10
148.8530278478023
 20
143.6822806228776
 30
0.0
 10
148.0964843801539
 20
141.2751908193897
 30
0.0
 10
148.0964843801539
 20
141.2751908193897
 30
0.0
 10
143.8552245303272
 20
127.8027915271048
 30
0.0
 10
143.8552245303272
 20
127.8027915271048
 30
0.0
 10
143.8552245303272
 20
127.8027915271048
 30
0.0
 10
141.486030802177
 20
127.8027915271048
 30
0.0
 10
141.486030802177
 20
127.8027915271048
 30
0.0
 10
141.486030802177
 20
127.8027915271048
 30
0.0
 10
146.3329388378533
 20
143.2092687007094
 30
0.0
 10
146.3329388378533
 20
143.2092687007094
 30
0.0
 10
146.8483254624444
 20
144.8408669988801
 30
0.0
 10
147.2314203331297
 20
146.1837661049335
 30
0.0
 10
147.4867020769946
 20
147.224185627838
 30
0.0
 10
147.9169947869641
 20
149.0197705792876
 30
0.0
 10
148.0306830129768
 20
150.2400242051577
 30
0.0
 10
147.709255392159
 20
151.3157559800812
 30
0.0
 10
147.3874832615654
 20
152.3916600098926
 30
0.0
 10
146.8245542879144
 20
152.6683013598569
 30
0.0
 10
145.8840425999909
 20
152.6683013598569
 30
0.0
 10
145.0989048209514
 20
152.6683013598569
 30
0.0
 10
144.3282364524954
 20
152.3275811915945
 30
0.0
 10
143.4531816219731
 20
151.6538923250251
 30
0.0
 10
142.34627171234
 20
150.8074318058939
 30
0.0
 10
141.901854101563
 20
150.1097995099067
 30
0.0
 10
141.3578731655808
 20
149.289521733736
 30
0.0
 10
140.6299240093235
 20
148.192602607601
 30
0.0
 10
140.2850697237515
 20
147.455696197173
 30
0.0
 10
139.6652966370942
 20
145.8385673095858
 30
0.0
 10
139.0506911970739
 20
144.2214384219986
 30
0.0
 10
138.463991048893
 20
142.3252566160164
 30
0.0
 10
138.0571250036777
 20
141.0154304484394
 30
0.0
 10
138.0571250036777
 20
141.0154304484394
 30
0.0
 10
133.9009590684727
 20
127.8027915271048
 30
0.0
 10
133.9009590684727
 20
127.8027915271048
 30
0.0
 10
133.9009590684727
 20
127.8027915271048
 30
0.0
 10
131.4180771143097
 20
127.8027915271048
 30
0.0
 10
131.4180771143097
 20
127.8027915271048
 30
0.0
 10
131.4180771143097
 20
127.8027915271048
 30
0.0
 10
139.8926730891197
 20
154.8294111834263
 30
0.0
 10
139.8926730891197
 20
154.8294111834263
 30
0.0
  0
HATCH
  5
E4
330
DD
100
AcDbEntity
  8
レイヤー 1
 62
   250
100
AcDbHatch
 10
0.0
 20
0.0
 30
0.0
210
0.0
220
0.0
230
1.0
  2
SOLID
 70
     1
 71
     0
 91
        1
 92
        1
 93
        1
 72
     4
 94
        3
 73
     0
 74
     1
 95
      104
 96
      100
 40
0.0
 40
0.0
 40
0.0
 40
0.0
 40
1.0
 40
1.0
 40
1.0
 40
2.0
 40
2.0
 40
2.0
 40
3.0
 40
3.0
 40
3.0
 40
4.0
 40
4.0
 40
4.0
 40
5.0
 40
5.0
 40
5.0
 40
6.0
 40
6.0
 40
6.0
 40
7.0
 40
7.0
 40
7.0
 40
8.0
 40
8.0
 40
8.0
 40
9.0
 40
9.0
 40
9.0
 40
10.0
 40
10.0
 40
10.0
 40
11.0
 40
11.0
 40
11.0
 40
12.0
 40
12.0
 40
12.0
 40
13.0
 40
13.0
 40
13.0
 40
14.0
 40
14.0
 40
14.0
 40
15.0
 40
15.0
 40
15.0
 40
16.0
 40
16.0
 40
16.0
 40
17.0
 40
17.0
 40
17.0
 40
18.0
 40
18.0
 40
18.0
 40
19.0
 40
19.0
 40
19.0
 40
20.0
 40
20.0
 40
20.0
 40
21.0
 40
21.0
 40
21.0
 40
22.0
 40
22.0
 40
22.0
 40
23.0
 40
23.0
 40
23.0
 40
24.0
 40
24.0
 40
24.0
 40
25.0
 40
25.0
 40
25.0
 40
26.0
 40
26.0
 40
26.0
 40
27.0
 40
27.0
 40
27.0
 40
28.0
 40
28.0
 40
28.0
 40
29.0
 40
29.0
 40
29.0
 40
30.0
 40
30.0
 40
30.0
 40
31.0
 40
31.0
 40
31.0
 40
32.0
 40
32.0
 40
32.0
 40
33.0
 40
33.0
 40
33.0
 40
33.0
 10
139.8926730891197
 20
154.8294111834263
 10
139.8926730891197
 20
154.8294111834263
 10
142.0344903652445
 20
154.8294111834263
 10
142.0344903652445
 20
154.8294111834263
 10
142.0344903652445
 20
154.8294111834263
 10
140.9516961399171
 20
151.3157559800812
 10
140.9516961399171
 20
151.3157559800812
 10
141.8928968473923
 20
152.7887075264977
 10
142.7341897198865
 20
153.4484437471474
 10
143.8552245303272
 20
154.2926649527359
 10
144.9803934580775
 20
155.1296514530327
 10
146.3139908001845
 20
155.3044901642492
 10
147.241066606852
 20
155.3044901642492
 10
148.3855280820469
 20
155.3044901642492
 10
149.4969166187653
 20
155.0752189084569
 10
150.0784491203092
 20
153.8172414621372
 10
150.5228667310863
 20
152.833838307127
 10
150.5414702589793
 20
152.7201500811143
 10
150.4140016419347
 20
150.7765981809602
 10
151.5818897818837
 20
152.7699317437168
 10
152.4424752018226
 20
153.6256940267945
 10
153.9038856707499
 20
154.4507949398263
 10
155.4455669174378
 20
155.3044901642492
 10
156.339225275853
 20
155.3659851592288
 10
157.3748216618963
 20
155.2147453676543
 10
158.911679771723
 20
154.9877134254046
 10
159.8859534176746
 20
154.4390816074493
 10
160.3965169054045
 20
152.7816450760939
 10
160.9070803931344
 20
151.1219692311958
 10
160.6328506116007
 20
150.2303779314354
 10
159.9992971339115
 20
147.597634224801
 10
159.7105979417943
 20
146.4014962832367
 10
159.2947746424084
 20
144.9400858143094
 10
158.7463150793409
 20
143.2092687007094
 10
158.7463150793409
 20
143.2092687007094
 10
153.9038856707499
 20
127.8027915271048
 10
153.9038856707499
 20
127.8027915271048
 10
153.9038856707499
 20
127.8027915271048
 10
151.3882752878863
 20
127.8027915271048
 10
151.3882752878863
 20
127.8027915271048
 10
151.3882752878863
 20
127.8027915271048
 10
155.6250565106276
 20
141.2751908193897
 10
155.6250565106276
 20
141.2751908193897
 10
156.5094131050963
 20
144.0936252951782
 10
157.109893644309
 20
146.1506931664571
 10
157.4220195011804
 20
147.4415712963654
 10
157.8095929989511
 20
149.0530157726519
 10
157.9656559273867
 20
149.5826995529385
 10
157.7816877071116
 20
150.7529992613181
 10
157.6111553680925
 20
151.8430281919372
 10
157.0582171779396
 20
152.5547853887321
 10
156.1170164704645
 20
152.5547853887321
 10
155.1096698860365
 20
152.5547853887321
 10
154.2962823053817
 20
152.4412694176073
 10
153.156643967048
 20
151.2945686288697
 10
152.0170056287143
 20
150.1476955852443
 10
151.076149431015
 20
148.7930831468137
 10
150.3337308641742
 20
147.2290087646991
 10
149.5957909244188
 20
145.6683794803425
 10
148.8530278478023
 20
143.6822806228776
 10
148.0964843801539
 20
141.2751908193897
 10
148.0964843801539
 20
141.2751908193897
 10
143.8552245303272
 20
127.8027915271048
 10
143.8552245303272
 20
127.8027915271048
 10
143.8552245303272
 20
127.8027915271048
 10
141.486030802177
 20
127.8027915271048
 10
141.486030802177
 20
127.8027915271048
 10
141.486030802177
 20
127.8027915271048
 10
146.3329388378533
 20
143.2092687007094
 10
146.3329388378533
 20
143.2092687007094
 10
146.8483254624444
 20
144.8408669988801
 10
147.2314203331297
 20
146.1837661049335
 10
147.4867020769946
 20
147.224185627838
 10
147.9169947869641
 20
149.0197705792876
 10
148.0306830129768
 20
150.2400242051577
 10
147.709255392159
 20
151.3157559800812
 10
147.3874832615654
 20
152.3916600098926
 10
146.8245542879144
 20
152.6683013598569
 10
145.8840425999909
 20
152.6683013598569
 10
145.0989048209514
 20
152.6683013598569
 10
144.3282364524954
 20
152.3275811915945
 10
143.4531816219731
 20
151.6538923250251
 10
142.34627171234
 20
150.8074318058939
 10
141.901854101563
 20
150.1097995099067
 10
141.3578731655808
 20
149.289521733736
 10
140.6299240093235
 20
148.192602607601
 10
140.2850697237515
 20
147.455696197173
 10
139.6652966370942
 20
145.8385673095858
 10
139.0506911970739
 20
144.2214384219986
 10
138.463991048893
 20
142.3252566160164
 10
138.0571250036777
 20
141.0154304484394
 10
138.0571250036777
 20
141.0154304484394
 10
133.9009590684727
 20
127.8027915271048
 10
133.9009590684727
 20
127.8027915271048
 10
133.9009590684727
 20
127.8027915271048
 10
131.4180771143097
 20
127.8027915271048
 10
131.4180771143097
 20
127.8027915271048
 10
131.4180771143097
 20
127.8027915271048
 10
139.8926730891197
 20
154.8294111834263
 10
139.8926730891197
 20
154.8294111834263
 97
        0
 75
     2
 76
     1
 98
        0
  0
SPLINE
  5
E5
330
DD
100
AcDbEntity
  8
レイヤー 1
370
     0
100
AcDbSpline
210
0.0
220
0.0
230
1.0
 70
    11
 71
     3
 72
    29
 73
    25
 74
     0
 42
0.000000001
 43
0.0000000001
 40
0.0
 40
0.0
 40
0.0
 40
0.0
 40
1.0
 40
1.0
 40
1.0
 40
2.0
 40
2.0
 40
2.0
 40
3.0
 40
3.0
 40
3.0
 40
4.0
 40
4.0
 40
4.0
 40
5.0
 40
5.0
 40
5.0
 40
6.0
 40
6.0
 40
6.0
 40
7.0
 40
7.0
 40
7.0
 40
8.0
 40
8.0
 40
8.0
 40
8.0
 10
101.6420971922469
 20
132.8388354296931
 30
0.0
 10
101.630039350094
 20
134.7164137077823
 30
0.0
 10
102.2236296937908
 20
138.0598810818841
 30
0.0
 10
103.7487744712405
 20
142.5378191476827
 30
0.0
 10
105.819967243327
 20
148.5896501242061
 30
0.0
 10
107.0602024361932
 20
150.8074318058939
 30
0.0
 10
108.1522984254671
 20
151.8833358357054
 30
0.0
 10
109.741177511439
 20
153.4532668840085
 30
0.0
 10
111.8740375333931
 20
153.5290590346837
 30
0.0
 10
112.5075910110823
 20
153.4532668840085
 30
0.0
 10
113.4012493694975
 20
153.3490526768302
 30
0.0
 10
114.6683563248758
 20
152.7580461564518
 30
0.0
 10
114.7493161221879
 20
150.7838328862519
 30
0.0
 10
114.8106388622796
 20
149.0909118479895
 30
0.0
 10
114.3186789024427
 20
145.9191825971221
 30
0.0
 10
112.6164561002338
 20
140.9489400617108
 30
0.0
 10
110.6444821435766
 20
135.1746117095912
 30
0.0
 10
109.4669477299053
 20
132.8960240524753
 30
0.0
 10
108.5212683953448
 20
131.9072809959403
 30
0.0
 10
106.7346406980658
 20
130.0538184021569
 30
0.0
 10
104.8222669326213
 20
130.2336525051225
 30
0.0
 10
104.5408024457958
 20
130.2336525051225
 30
0.0
 10
104.1721769856939
 20
130.2336525051225
 30
0.0
 10
101.6465758193322
 20
130.6305277668397
 30
0.0
 10
101.6420971922469
 20
132.8388354296931
 30
0.0
  0
SPLINE
  5
E6
330
DD
100
AcDbEntity
  8
レイヤー 1
370
     0
100
AcDbSpline
210
0.0
220
0.0
230
1.0
 70
    11
 71
     3
 72
    32
 73
    28
 74
     0
 42
0.000000001
 43
0.0000000001
 40
0.0
 40
0.0
 40
0.0
 40
0.0
 40
1.0
 40
1.0
 40
1.0
 40
2.0
 40
2.0
 40
2.0
 40
3.0
 40
3.0
 40
3.0
 40
4.0
 40
4.0
 40
4.0
 40
5.0
 40
5.0
 40
5.0
 40
6.0
 40
6.0
 40
6.0
 40
7.0
 40
7.0
 40
7.0
 40
8.0
 40
8.0
 40
8.0
 40
9.0
 40
9.0
 40
9.0
 40
9.0
 10
106.2595617172429
 20
153.4105476718098
 30
0.0
 10
104.8222669326213
 20
151.5474388043041
 30
0.0
 10
103.7177685914188
 20
149.8758773721411
 30
0.0
 10
101.9232171692965
 20
144.6141795664062
 30
0.0
 10
100.2754269116635
 20
139.7999999594306
 30
0.0
 10
99.22777268346732
 20
136.3052927937542
 30
0.0
 10
99.06964269637689
 20
132.039572749846
 30
0.0
 10
98.94665270641765
 20
128.8673267343149
 30
0.0
 10
100.8807305877373
 20
127.8027915271048
 30
0.0
 10
103.7129454545577
 20
127.8027915271048
 30
0.0
 10
104.9352661390825
 20
127.8027915271048
 30
0.0
 10
108.0151835347002
 20
127.8827177950895
 30
0.0
 10
110.2045431598849
 20
130.5926316915021
 30
0.0
 10
111.7417457794874
 20
132.4984597712065
 30
0.0
 10
113.155269389579
 20
134.475256864725
 30
0.0
 10
115.0562743324223
 20
140.9489400617108
 30
0.0
 10
116.6361961642235
 20
146.3680788349845
 30
0.0
 10
117.7282921534974
 20
149.8639917848761
 30
0.0
 10
117.6480213757369
 20
151.8595646611754
 30
0.0
 10
117.6480213757369
 20
151.8595646611754
 30
0.0
 10
117.6480213757369
 20
151.8595646611754
 30
0.0
 10
117.6480213757369
 20
151.8595646611754
 30
0.0
 10
117.13229024137
 20
155.18150017429
 30
0.0
 10
114.7162431837115
 20
155.886194920681
 30
0.0
 10
113.3351034925446
 20
155.886194920681
 30
0.0
 10
111.9829026225447
 20
155.886194920681
 30
0.0
 10
108.3414342923792
 20
156.1251124501957
 30
0.0
 10
106.2595617172429
 20
153.4105476718098
 30
0.0
  0
HATCH
  5
E7
330
DD
100
AcDbEntity
  8
レイヤー 1
 62
   250
100
AcDbHatch
 10
0.0
 20
0.0
 30
0.0
210
0.0
220
0.0
230
1.0
  2
SOLID
 70
     1
 71
     0
 91
        2
 92
        1
 93
        1
 72
     4
 94
        3
 73
     0
 74
     1
 95
       29
 96
       25
 40
0.0
 40
0.0
 40
0.0
 40
0.0
 40
1.0
 40
1.0
 40
1.0
 40
2.0
 40
2.0
 40
2.0
 40
3.0
 40
3.0
 40
3.0
 40
4.0
 40
4.0
 40
4.0
 40
5.0
 40
5.0
 40
5.0
 40
6.0
 40
6.0
 40
6.0
 40
7.0
 40
7.0
 40
7.0
 40
8.0
 40
8.0
 40
8.0
 40
8.0
 10
101.6420971922469
 20
132.8388354296931
 10
101.630039350094
 20
134.7164137077823
 10
102.2236296937908
 20
138.0598810818841
 10
103.7487744712405
 20
142.5378191476827
 10
105.819967243327
 20
148.5896501242061
 10
107.0602024361932
 20
150.8074318058939
 10
108.1522984254671
 20
151.8833358357054
 10
109.741177511439
 20
153.4532668840085
 10
111.8740375333931
 20
153.5290590346837
 10
112.5075910110823
 20
153.4532668840085
 10
113.4012493694975
 20
153.3490526768302
 10
114.6683563248758
 20
152.7580461564518
 10
114.7493161221879
 20
150.7838328862519
 10
114.8106388622796
 20
149.0909118479895
 10
114.3186789024427
 20
145.9191825971221
 10
112.6164561002338
 20
140.9489400617108
 10
110.6444821435766
 20
135.1746117095912
 10
109.4669477299053
 20
132.8960240524753
 10
108.5212683953448
 20
131.9072809959403
 10
106.7346406980658
 20
130.0538184021569
 10
104.8222669326213
 20
130.2336525051225
 10
104.5408024457958
 20
130.2336525051225
 10
104.1721769856939
 20
130.2336525051225
 10
101.6465758193322
 20
130.6305277668397
 10
101.6420971922469
 20
132.8388354296931
 97
        0
 92
        1
 93
        1
 72
     4
 94
        3
 73
     0
 74
     1
 95
       32
 96
       28
 40
0.0
 40
0.0
 40
0.0
 40
0.0
 40
1.0
 40
1.0
 40
1.0
 40
2.0
 40
2.0
 40
2.0
 40
3.0
 40
3.0
 40
3.0
 40
4.0
 40
4.0
 40
4.0
 40
5.0
 40
5.0
 40
5.0
 40
6.0
 40
6.0
 40
6.0
 40
7.0
 40
7.0
 40
7.0
 40
8.0
 40
8.0
 40
8.0
 40
9.0
 40
9.0
 40
9.0
 40
9.0
 10
106.2595617172429
 20
153.4105476718098
 10
104.8222669326213
 20
151.5474388043041
 10
103.7177685914188
 20
149.8758773721411
 10
101.9232171692965
 20
144.6141795664062
 10
100.2754269116635
 20
139.7999999594306
 10
99.22777268346732
 20
136.3052927937542
 10
99.06964269637689
 20
132.039572749846
 10
98.94665270641765
 20
128.8673267343149
 10
100.8807305877373
 20
127.8027915271048
 10
103.7129454545577
 20
127.8027915271048
 10
104.9352661390825
 20
127.8027915271048
 10
108.0151835347002
 20
127.8827177950895
 10
110.2045431598849
 20
130.5926316915021
 10
111.7417457794874
 20
132.4984597712065
 10
113.155269389579
 20
134.475256864725
 10
115.0562743324223
 20
140.9489400617108
 10
116.6361961642235
 20
146.3680788349845
 10
117.7282921534974
 20
149.8639917848761
 10
117.6480213757369
 20
151.8595646611754
 10
117.6480213757369
 20
151.8595646611754
 10
117.6480213757369
 20
151.8595646611754
 10
117.6480213757369
 20
151.8595646611754
 10
117.13229024137
 20
155.18150017429
 10
114.7162431837115
 20
155.886194920681
 10
113.3351034925446
 20
155.886194920681
 10
111.9829026225447
 20
155.886194920681
 10
108.3414342923792
 20
156.1251124501957
 10
106.2595617172429
 20
153.4105476718098
 97
        0
 75
     2
 76
     1
 98
        0
  0
ENDBLK
  5
E8
330
DD
100
AcDbEntity
  8
0
100
AcDbBlockEnd
  0
BLOCK
  5
135
330
134
100
AcDbEntity
  8
0
100
AcDbBlockBegin
  2
*D7
 70
     1
 10
0.0
 20
0.0
 30
0.0
  3
*D7
  1
*D123
  0
LINE
  5
136
330
134
100
AcDbEntity
  8
Dim
 62
     0
370
    -2
100
AcDbLine
 10
227.6998228530961
 20
2274.247254070524
 30
0.0
 11
227.6998228530961
 21
2388.348534374965
 31
0.0
  0
LINE
  5
137
330
134
100
AcDbEntity
  8
Dim
 62
     0
370
    -2
100
AcDbLine
 10
777.6998227218523
 20
2274.247254093677
 30
0.0
 11
777.6998227218523
 21
2388.348534374965
 31
0.0
  0
LINE
  5
138
330
134
100
AcDbEntity
  8
Dim
 62
     0
370
    -2
100
AcDbLine
 10
237.6998228530961
 20
2388.348534374965
 30
0.0
 11
767.6998227218523
 21
2388.348534374965
 31
0.0
  0
INSERT
  5
139
330
134
100
AcDbEntity
  8
Dim
 62
     0
370
    -2
100
AcDbBlockReference
  2
_DOT
 10
227.6998228530961
 20
2388.348534374965
 30
0.0
 41
10.0
 42
10.0
 43
10.0
 50
180.0
  0
INSERT
  5
13A
330
134
100
AcDbEntity
  8
Dim
 62
     0
370
    -2
100
AcDbBlockReference
  2
_DOT
 10
777.6998227218523
 20
2388.348534374965
 30
0.0
 41
10.0
 42
10.0
 43
10.0
  0
MTEXT
  5
13B
330
134
100
AcDbEntity
  8
Dim
 62
     0
100
AcDbMText
 10
502.6998227874742
 20
2406.348534374965
 30
0.0
 40
24.0
 41
0.0
 46
0.0
 71
     5
 72
     1
  1
\A1;550
  7
ＭＳ ゴシック
 73
     1
 44
1.0
  0
POINT
  5
13C
330
134
100
AcDbEntity
  8
Defpoints
 62
     0
100
AcDbPoint
 10
227.6998228530961
 20
2249.247254070524
 30
0.0
  0
POINT
  5
13D
330
134
100
AcDbEntity
  8
Defpoints
 62
     0
100
AcDbPoint
 10
777.6998227218523
 20
2249.247254093677
 30
0.0
  0
POINT
  5
13E
330
134
100
AcDbEntity
  8
Defpoints
 62
     0
100
AcDbPoint
 10
777.6998227218523
 20
2388.348534374965
 30
0.0
  0
ENDBLK
  5
13F
330
134
100
AcDbEntity
  8
0
100
AcDbBlockEnd
  0
BLOCK
  5
142
330
141
100
AcDbEntity
  8
0
100
AcDbBlockBegin
  2
*D8
 70
     1
 10
0.0
 20
0.0
 30
0.0
  3
*D8
  1
*D124
  0
LINE
  5
143
330
141
100
AcDbEntity
  8
Dim
 62
     0
370
    -2
100
AcDbLine
 10
502.6098228530959
 20
2229.201808669744
 30
0.0
 11
502.6098228530959
 21
2320.21331367505
 31
0.0
  0
LINE
  5
144
330
141
100
AcDbEntity
  8
Dim
 62
     0
370
    -2
100
AcDbLine
 10
602.6327777950414
 20
2227.791808669742
 30
0.0
 11
602.6327777950414
 21
2320.21331367505
 31
0.0
  0
LINE
  5
145
330
141
100
AcDbEntity
  8
Dim
 62
     0
370
    -2
100
AcDbLine
 10
512.6098228530959
 20
2320.21331367505
 30
0.0
 11
592.6327777950414
 21
2320.21331367505
 31
0.0
  0
INSERT
  5
146
330
141
100
AcDbEntity
  8
Dim
 62
     0
370
    -2
100
AcDbBlockReference
  2
_DOT
 10
502.6098228530959
 20
2320.21331367505
 30
0.0
 41
10.0
 42
10.0
 43
10.0
 50
180.0
  0
INSERT
  5
147
330
141
100
AcDbEntity
  8
Dim
 62
     0
370
    -2
100
AcDbBlockReference
  2
_DOT
 10
602.6327777950414
 20
2320.21331367505
 30
0.0
 41
10.0
 42
10.0
 43
10.0
  0
MTEXT
  5
148
330
141
100
AcDbEntity
  8
Dim
 62
     0
100
AcDbMText
 10
552.6213003240687
 20
2338.21331367505
 30
0.0
 40
24.0
 41
0.0
 46
0.0
 71
     5
 72
     1
  1
\A1;100
  7
ＭＳ ゴシック
 73
     1
 44
1.0
  0
POINT
  5
149
330
141
100
AcDbEntity
  8
Defpoints
 62
     0
100
AcDbPoint
 10
502.6098228530959
 20
2204.201808669744
 30
0.0
  0
POINT
  5
14A
330
141
100
AcDbEntity
  8
Defpoints
 62
     0
100
AcDbPoint
 10
602.6327777950414
 20
2202.791808669742
 30
0.0
  0
POINT
  5
14B
330
141
100
AcDbEntity
  8
Defpoints
 62
     0
100
AcDbPoint
 10
602.6327777950414
 20
2320.21331367505
 30
0.0
  0
ENDBLK
  5
14C
330
141
100
AcDbEntity
  8
0
100
AcDbBlockEnd
  0
BLOCK
  5
14F
330
14E
100
AcDbEntity
  8
0
100
AcDbBlockBegin
  2
*D9
 70
     1
 10
0.0
 20
0.0
 30
0.0
  3
*D9
  1
*D125
  0
LINE
  5
150
330
14E
100
AcDbEntity
  8
Dim
 62
     0
370
    -2
100
AcDbLine
 10
402.7668679111507
 20
2227.791808669742
 30
0.0
 11
402.7668679111507
 21
2320.21331367505
 31
0.0
  0
LINE
  5
151
330
14E
100
AcDbEntity
  8
Dim
 62
     0
370
    -2
100
AcDbLine
 10
502.6098228530959
 20
2229.201808669744
 30
0.0
 11
502.6098228530959
 21
2320.21331367505
 31
0.0
  0
LINE
  5
152
330
14E
100
AcDbEntity
  8
Dim
 62
     0
370
    -2
100
AcDbLine
 10
412.7668679111507
 20
2320.21331367505
 30
0.0
 11
492.6098228530959
 21
2320.21331367505
 31
0.0
  0
INSERT
  5
153
330
14E
100
AcDbEntity
  8
Dim
 62
     0
370
    -2
100
AcDbBlockReference
  2
_DOT
 10
402.7668679111507
 20
2320.21331367505
 30
0.0
 41
10.0
 42
10.0
 43
10.0
 50
180.0
  0
INSERT
  5
154
330
14E
100
AcDbEntity
  8
Dim
 62
     0
370
    -2
100
AcDbBlockReference
  2
_DOT
 10
502.6098228530959
 20
2320.21331367505
 30
0.0
 41
10.0
 42
10.0
 43
10.0
  0
MTEXT
  5
155
330
14E
100
AcDbEntity
  8
Dim
 62
     0
100
AcDbMText
 10
452.6883453821233
 20
2338.21331367505
 30
0.0
 40
24.0
 41
0.0
 46
0.0
 71
     5
 72
     1
  1
\A1;100
  7
ＭＳ ゴシック
 73
     1
 44
1.0
  0
POINT
  5
156
330
14E
100
AcDbEntity
  8
Defpoints
 62
     0
100
AcDbPoint
 10
402.7668679111507
 20
2202.791808669742
 30
0.0
  0
POINT
  5
157
330
14E
100
AcDbEntity
  8
Defpoints
 62
     0
100
AcDbPoint
 10
502.6098228530959
 20
2204.201808669744
 30
0.0
  0
POINT
  5
158
330
14E
100
AcDbEntity
  8
Defpoints
 62
     0
100
AcDbPoint
 10
502.6098228530959
 20
2320.21331367505
 30
0.0
  0
ENDBLK
  5
159
330
14E
100
AcDbEntity
  8
0
100
AcDbBlockEnd
  0
BLOCK
  5
194
330
193
100
AcDbEntity
  8
0
100
AcDbBlockBegin
  2
*D10
 70
     1
 10
0.0
 20
0.0
 30
0.0
  3
*D10
  1
*D135
  0
LINE
  5
195
330
193
100
AcDbEntity
  8
Dim
 62
     0
370
    -2
100
AcDbLine
 10
799.6998227218523
 20
2252.247254070524
 30
0.0
 11
890.0223276624532
 21
2252.247254070524
 31
0.0
  0
LINE
  5
196
330
193
100
AcDbEntity
  8
Dim
 62
     0
370
    -2
100
AcDbLine
 10
777.6998227218533
 20
1767.247254070524
 30
0.0
 11
890.0223276624532
 21
1767.247254070524
 31
0.0
  0
LINE
  5
197
330
193
100
AcDbEntity
  8
Dim
 62
     0
370
    -2
100
AcDbLine
 10
890.0223276624532
 20
2242.247254070524
 30
0.0
 11
890.0223276624532
 21
1777.247254070524
 31
0.0
  0
INSERT
  5
198
330
193
100
AcDbEntity
  8
Dim
 62
     0
370
    -2
100
AcDbBlockReference
  2
_DOT
 10
890.0223276624532
 20
2252.247254070524
 30
0.0
 41
10.0
 42
10.0
 43
10.0
 50
90.0
  0
INSERT
  5
199
330
193
100
AcDbEntity
  8
Dim
 62
     0
370
    -2
100
AcDbBlockReference
  2
_DOT
 10
890.0223276624532
 20
1767.247254070524
 30
0.0
 41
10.0
 42
10.0
 43
10.0
 50
270.0
  0
MTEXT
  5
19A
330
193
100
AcDbEntity
  8
Dim
 62
     0
100
AcDbMText
 10
872.0223276624532
 20
2009.747254070524
 30
0.0
 40
24.0
 41
0.0
 46
0.0
 71
     5
 72
     1
  1
\A1;485
  7
ＭＳ ゴシック
 11
0.0
 21
1.0
 31
0.0
 73
     1
 44
1.0
  0
POINT
  5
19B
330
193
100
AcDbEntity
  8
Defpoints
 62
     0
100
AcDbPoint
 10
774.6998227218523
 20
2252.247254070524
 30
0.0
  0
POINT
  5
19C
330
193
100
AcDbEntity
  8
Defpoints
 62
     0
100
AcDbPoint
 10
752.6998227218533
 20
1767.247254070524
 30
0.0
  0
POINT
  5
19D
330
193
100
AcDbEntity
  8
Defpoints
 62
     0
100
AcDbPoint
 10
890.0223276624532
 20
1767.247254070524
 30
0.0
  0
ENDBLK
  5
19E
330
193
100
AcDbEntity
  8
0
100
AcDbBlockEnd
  0
BLOCK
  5
1AA
330
1A9
100
AcDbEntity
  8
0
100
AcDbBlockBegin
  2
*D11
 70
     1
 10
0.0
 20
0.0
 30
0.0
  3
*D11
  1
*D138
  0
LINE
  5
1AB
330
1A9
100
AcDbEntity
  8
Dim
 62
     0
370
    -2
100
AcDbLine
 10
361.1794461196114
 20
1137.986016462389
 30
0.0
 11
361.1794461196114
 21
1219.808906318725
 31
0.0
  0
LINE
  5
1AC
330
1A9
100
AcDbEntity
  8
Dim
 62
     0
370
    -2
100
AcDbLine
 10
641.2035442504534
 20
1137.986016462389
 30
0.0
 11
641.2035442504534
 21
1219.808906318725
 31
0.0
  0
LINE
  5
1AD
330
1A9
100
AcDbEntity
  8
Dim
 62
     0
370
    -2
100
AcDbLine
 10
371.1794461196114
 20
1219.808906318725
 30
0.0
 11
631.2035442504534
 21
1219.808906318725
 31
0.0
  0
INSERT
  5
1AE
330
1A9
100
AcDbEntity
  8
Dim
 62
     0
370
    -2
100
AcDbBlockReference
  2
_DOT
 10
361.1794461196114
 20
1219.808906318725
 30
0.0
 41
10.0
 42
10.0
 43
10.0
 50
180.0
  0
INSERT
  5
1AF
330
1A9
100
AcDbEntity
  8
Dim
 62
     0
370
    -2
100
AcDbBlockReference
  2
_DOT
 10
641.2035442504534
 20
1219.808906318725
 30
0.0
 41
10.0
 42
10.0
 43
10.0
  0
MTEXT
  5
1B0
330
1A9
100
AcDbEntity
  8
Dim
 62
     0
100
AcDbMText
 10
501.1914951850324
 20
1237.808906318725
 30
0.0
 40
24.0
 41
0.0
 46
0.0
 71
     5
 72
     1
  1
\A1;280
  7
ＭＳ ゴシック
 73
     1
 44
1.0
  0
POINT
  5
1B1
330
1A9
100
AcDbEntity
  8
Defpoints
 62
     0
100
AcDbPoint
 10
361.1794461196114
 20
1112.986016462389
 30
0.0
  0
POINT
  5
1B2
330
1A9
100
AcDbEntity
  8
Defpoints
 62
     0
100
AcDbPoint
 10
641.2035442504534
 20
1112.986016462389
 30
0.0
  0
POINT
  5
1B3
330
1A9
100
AcDbEntity
  8
Defpoints
 62
     0
100
AcDbPoint
 10
641.2035442504534
 20
1219.808906318725
 30
0.0
  0
ENDBLK
  5
1B4
330
1A9
100
AcDbEntity
  8
0
100
AcDbBlockEnd
  0
BLOCK
  5
1B7
330
1B6
100
AcDbEntity
  8
0
100
AcDbBlockBegin
  2
*D12
 70
     1
 10
0.0
 20
0.0
 30
0.0
  3
*D12
  1
*D139
  0
LINE
  5
1B8
330
1B6
100
AcDbEntity
  8
Dim
 62
     0
370
    -2
100
AcDbLine
 10
316.1794461196132
 20
1092.98601646239
 30
0.0
 11
126.2623998194285
 21
1092.98601646239
 31
0.0
  0
LINE
  5
1B9
330
1B6
100
AcDbEntity
  8
Dim
 62
     0
370
    -2
100
AcDbLine
 10
208.7154672109268
 20
1132.95355649171
 30
0.0
 11
126.2623998194285
 21
1132.95355649171
 31
0.0
  0
LINE
  5
1BA
330
1B6
100
AcDbEntity
  8
Dim
 62
     0
370
    -2
100
AcDbLine
 10
126.2623998194285
 20
1102.98601646239
 30
0.0
 11
126.2623998194285
 21
1122.95355649171
 31
0.0
  0
INSERT
  5
1BB
330
1B6
100
AcDbEntity
  8
Dim
 62
     0
370
    -2
100
AcDbBlockReference
  2
_DOT
 10
126.2623998194285
 20
1092.98601646239
 30
0.0
 41
10.0
 42
10.0
 43
10.0
 50
270.0
  0
INSERT
  5
1BC
330
1B6
100
AcDbEntity
  8
Dim
 62
     0
370
    -2
100
AcDbBlockReference
  2
_DOT
 10
126.2623998194285
 20
1132.95355649171
 30
0.0
 41
10.0
 42
10.0
 43
10.0
 50
90.0
  0
MTEXT
  5
1BD
330
1B6
100
AcDbEntity
  8
Dim
 62
     0
100
AcDbMText
 10
108.2623998194285
 20
1112.96978647705
 30
0.0
 40
24.0
 41
0.0
 46
0.0
 71
     5
 72
     1
  1
\A1;40
  7
ＭＳ ゴシック
 11
0.0
 21
1.0
 31
0.0
 73
     1
 44
1.0
  0
POINT
  5
1BE
330
1B6
100
AcDbEntity
  8
Defpoints
 62
     0
100
AcDbPoint
 10
341.1794461196132
 20
1092.98601646239
 30
0.0
  0
POINT
  5
1BF
330
1B6
100
AcDbEntity
  8
Defpoints
 62
     0
100
AcDbPoint
 10
233.7154672109268
 20
1132.95355649171
 30
0.0
  0
POINT
  5
1C0
330
1B6
100
AcDbEntity
  8
Defpoints
 62
     0
100
AcDbPoint
 10
126.2623998194285
 20
1132.95355649171
 30
0.0
  0
ENDBLK
  5
1C1
330
1B6
100
AcDbEntity
  8
0
100
AcDbBlockEnd
  0
BLOCK
  5
1C4
330
1C3
100
AcDbEntity
  8
0
100
AcDbBlockBegin
  2
*D13
 70
     1
 10
0.0
 20
0.0
 30
0.0
  3
*D13
  1
*D140
  0
LINE
  5
1C5
330
1C3
100
AcDbEntity
  8
Dim
 62
     0
370
    -2
100
AcDbLine
 10
796.504178495265
 20
1132.953556491712
 30
0.0
 11
884.3978598897736
 21
1132.953556491712
 31
0.0
  0
LINE
  5
1C6
330
1C3
100
AcDbEntity
  8
Dim
 62
     0
370
    -2
100
AcDbLine
 10
559.864649299831
 20
947.6243485822482
 30
0.0
 11
884.3978598897736
 21
947.6243485822482
 31
0.0
  0
LINE
  5
1C7
330
1C3
100
AcDbEntity
  8
Dim
 62
     0
370
    -2
100
AcDbLine
 10
884.3978598897736
 20
1122.953556491712
 30
0.0
 11
884.3978598897736
 21
957.6243485822482
 31
0.0
  0
INSERT
  5
1C8
330
1C3
100
AcDbEntity
  8
Dim
 62
     0
370
    -2
100
AcDbBlockReference
  2
_DOT
 10
884.3978598897736
 20
1132.953556491712
 30
0.0
 41
10.0
 42
10.0
 43
10.0
 50
90.0
  0
INSERT
  5
1C9
330
1C3
100
AcDbEntity
  8
Dim
 62
     0
370
    -2
100
AcDbBlockReference
  2
_DOT
 10
884.3978598897736
 20
947.6243485822482
 30
0.0
 41
10.0
 42
10.0
 43
10.0
 50
270.0
  0
MTEXT
  5
1CA
330
1C3
100
AcDbEntity
  8
Dim
 62
     0
100
AcDbMText
 10
866.3978598897736
 20
1040.28895253698
 30
0.0
 40
24.0
 41
0.0
 46
0.0
 71
     5
 72
     1
  1
\A1;185
  7
ＭＳ ゴシック
 11
0.0
 21
1.0
 31
0.0
 73
     1
 44
1.0
  0
POINT
  5
1CB
330
1C3
100
AcDbEntity
  8
Defpoints
 62
     0
100
AcDbPoint
 10
771.504178495265
 20
1132.953556491712
 30
0.0
  0
POINT
  5
1CC
330
1C3
100
AcDbEntity
  8
Defpoints
 62
     0
100
AcDbPoint
 10
534.864649299831
 20
947.6243485822482
 30
0.0
  0
POINT
  5
1CD
330
1C3
100
AcDbEntity
  8
Defpoints
 62
     0
100
AcDbPoint
 10
884.3978598897736
 20
947.6243485822482
 30
0.0
  0
ENDBLK
  5
1CE
330
1C3
100
AcDbEntity
  8
0
100
AcDbBlockEnd
  0
BLOCK
  5
1D1
330
1D0
100
AcDbEntity
  8
0
100
AcDbBlockBegin
  2
*D14
 70
     1
 10
0.0
 20
0.0
 30
0.0
  3
*D14
  1
*D141
  0
LINE
  5
1D2
330
1D0
100
AcDbEntity
  8
Dim
 62
     0
370
    -2
100
AcDbLine
 10
1126.574172420256
 20
1132.953556491711
 30
0.0
 11
1057.279112369607
 21
1132.953556491711
 31
0.0
  0
LINE
  5
1D3
330
1D0
100
AcDbEntity
  8
Dim
 62
     0
370
    -2
100
AcDbLine
 10
1129.268274777577
 20
1087.953556491711
 30
0.0
 11
1057.279112369607
 21
1087.953556491711
 31
0.0
  0
LINE
  5
1D4
330
1D0
100
AcDbEntity
  8
Dim
 62
     0
370
    -2
100
AcDbLine
 10
1057.279112369607
 20
1122.953556491711
 30
0.0
 11
1057.279112369607
 21
1097.953556491711
 31
0.0
  0
INSERT
  5
1D5
330
1D0
100
AcDbEntity
  8
Dim
 62
     0
370
    -2
100
AcDbBlockReference
  2
_DOT
 10
1057.279112369607
 20
1132.953556491711
 30
0.0
 41
10.0
 42
10.0
 43
10.0
 50
90.0
  0
INSERT
  5
1D6
330
1D0
100
AcDbEntity
  8
Dim
 62
     0
370
    -2
100
AcDbBlockReference
  2
_DOT
 10
1057.279112369607
 20
1087.953556491711
 30
0.0
 41
10.0
 42
10.0
 43
10.0
 50
270.0
  0
MTEXT
  5
1D7
330
1D0
100
AcDbEntity
  8
Dim
 62
     0
100
AcDbMText
 10
1039.279112369607
 20
1110.453556491711
 30
0.0
 40
24.0
 41
0.0
 46
0.0
 71
     5
 72
     1
  1
\A1;45
  7
ＭＳ ゴシック
 11
0.0
 21
1.0
 31
0.0
 73
     1
 44
1.0
  0
POINT
  5
1D8
330
1D0
100
AcDbEntity
  8
Defpoints
 62
     0
100
AcDbPoint
 10
1151.574172420256
 20
1132.953556491711
 30
0.0
  0
POINT
  5
1D9
330
1D0
100
AcDbEntity
  8
Defpoints
 62
     0
100
AcDbPoint
 10
1154.268274777577
 20
1087.953556491711
 30
0.0
  0
POINT
  5
1DA
330
1D0
100
AcDbEntity
  8
Defpoints
 62
     0
100
AcDbPoint
 10
1057.279112369607
 20
1087.953556491711
 30
0.0
  0
ENDBLK
  5
1DB
330
1D0
100
AcDbEntity
  8
0
100
AcDbBlockEnd
  0
BLOCK
  5
1DE
330
1DD
100
AcDbEntity
  8
0
100
AcDbBlockBegin
  2
*D15
 70
     1
 10
0.0
 20
0.0
 30
0.0
  3
*D15
  1
*D142
  0
LINE
  5
1DF
330
1DD
100
AcDbEntity
  8
Dim
 62
     0
370
    -2
100
AcDbLine
 10
1129.268274777577
 20
1087.953556491711
 30
0.0
 11
1057.279112369607
 21
1087.953556491711
 31
0.0
  0
LINE
  5
1E0
330
1DD
100
AcDbEntity
  8
Dim
 62
     0
370
    -2
100
AcDbLine
 10
1255.355753347807
 20
992.600701924897
 30
0.0
 11
1057.279112369607
 21
992.600701924897
 31
0.0
  0
LINE
  5
1E1
330
1DD
100
AcDbEntity
  8
Dim
 62
     0
370
    -2
100
AcDbLine
 10
1057.279112369607
 20
1077.953556491711
 30
0.0
 11
1057.279112369607
 21
1002.600701924897
 31
0.0
  0
INSERT
  5
1E2
330
1DD
100
AcDbEntity
  8
Dim
 62
     0
370
    -2
100
AcDbBlockReference
  2
_DOT
 10
1057.279112369607
 20
1087.953556491711
 30
0.0
 41
10.0
 42
10.0
 43
10.0
 50
90.0
  0
INSERT
  5
1E3
330
1DD
100
AcDbEntity
  8
Dim
 62
     0
370
    -2
100
AcDbBlockReference
  2
_DOT
 10
1057.279112369607
 20
992.600701924897
 30
0.0
 41
10.0
 42
10.0
 43
10.0
 50
270.0
  0
MTEXT
  5
1E4
330
1DD
100
AcDbEntity
  8
Dim
 62
     0
100
AcDbMText
 10
1039.279112369607
 20
1040.277129208304
 30
0.0
 40
24.0
 41
0.0
 46
0.0
 71
     5
 72
     1
  1
\A1;95
  7
ＭＳ ゴシック
 11
0.0
 21
1.0
 31
0.0
 73
     1
 44
1.0
  0
POINT
  5
1E5
330
1DD
100
AcDbEntity
  8
Defpoints
 62
     0
100
AcDbPoint
 10
1154.268274777577
 20
1087.953556491711
 30
0.0
  0
POINT
  5
1E6
330
1DD
100
AcDbEntity
  8
Defpoints
 62
     0
100
AcDbPoint
 10
1280.355753347807
 20
992.600701924897
 30
0.0
  0
POINT
  5
1E7
330
1DD
100
AcDbEntity
  8
Defpoints
 62
     0
100
AcDbPoint
 10
1057.279112369607
 20
992.600701924897
 30
0.0
  0
ENDBLK
  5
1E8
330
1DD
100
AcDbEntity
  8
0
100
AcDbBlockEnd
  0
BLOCK
  5
1EB
330
1EA
100
AcDbEntity
  8
0
100
AcDbBlockBegin
  2
*D16
 70
     1
 10
0.0
 20
0.0
 30
0.0
  3
*D16
  1
*D144
  0
LINE
  5
1EC
330
1EA
100
AcDbEntity
  8
Dim
 62
     0
370
    -2
100
AcDbLine
 10
1625.306490651821
 20
974.2721812887049
 30
0.0
 11
1625.306490651821
 21
889.5936941541971
 31
0.0
  0
LINE
  5
1ED
330
1EA
100
AcDbEntity
  8
Dim
 62
     0
370
    -2
100
AcDbLine
 10
1405.306490651821
 20
922.6243485822482
 30
0.0
 11
1405.306490651821
 21
889.5936941541971
 31
0.0
  0
LINE
  5
1EE
330
1EA
100
AcDbEntity
  8
Dim
 62
     0
370
    -2
100
AcDbLine
 10
1615.306490651821
 20
889.5936941541971
 30
0.0
 11
1415.306490651821
 21
889.5936941541971
 31
0.0
  0
INSERT
  5
1EF
330
1EA
100
AcDbEntity
  8
Dim
 62
     0
370
    -2
100
AcDbBlockReference
  2
_DOT
 10
1625.306490651821
 20
889.5936941541971
 30
0.0
 41
10.0
 42
10.0
 43
10.0
  0
INSERT
  5
1F0
330
1EA
100
AcDbEntity
  8
Dim
 62
     0
370
    -2
100
AcDbBlockReference
  2
_DOT
 10
1405.306490651821
 20
889.5936941541971
 30
0.0
 41
10.0
 42
10.0
 43
10.0
 50
180.0
  0
MTEXT
  5
1F1
330
1EA
100
AcDbEntity
  8
Dim
 62
     0
100
AcDbMText
 10
1515.306490651821
 20
907.5936941541971
 30
0.0
 40
24.0
 41
0.0
 46
0.0
 71
     5
 72
     1
  1
\A1;220
  7
ＭＳ ゴシック
 73
     1
 44
1.0
  0
POINT
  5
1F2
330
1EA
100
AcDbEntity
  8
Defpoints
 62
     0
100
AcDbPoint
 10
1625.306490651821
 20
999.2721812887049
 30
0.0
  0
POINT
  5
1F3
330
1EA
100
AcDbEntity
  8
Defpoints
 62
     0
100
AcDbPoint
 10
1405.306490651821
 20
947.6243485822482
 30
0.0
  0
POINT
  5
1F4
330
1EA
100
AcDbEntity
  8
Defpoints
 62
     0
100
AcDbPoint
 10
1405.306490651821
 20
889.5936941541971
 30
0.0
  0
ENDBLK
  5
1F5
330
1EA
100
AcDbEntity
  8
0
100
AcDbBlockEnd
  0
BLOCK
  5
1F8
330
1F7
100
AcDbEntity
  8
0
100
AcDbBlockBegin
  2
*D17
 70
     1
 10
0.0
 20
0.0
 30
0.0
  3
*D17
  1
*D142
  0
LINE
  5
1F9
330
1F7
100
AcDbEntity
  8
Dim
 62
     0
370
    -2
100
AcDbLine
 10
205.6998228530961
 20
2252.247254070524
 30
0.0
 11
126.2623998194285
 21
2252.247254070524
 31
0.0
  0
LINE
  5
1FA
330
1F7
100
AcDbEntity
  8
Dim
 62
     0
370
    -2
100
AcDbLine
 10
202.6998228530961
 20
2122.247254070524
 30
0.0
 11
126.2623998194285
 21
2122.247254070524
 31
0.0
  0
LINE
  5
1FB
330
1F7
100
AcDbEntity
  8
Dim
 62
     0
370
    -2
100
AcDbLine
 10
126.2623998194285
 20
2243.247254070524
 30
0.0
 11
126.2623998194285
 21
2131.247254070524
 31
0.0
  0
INSERT
  5
1FC
330
1F7
100
AcDbEntity
  8
Dim
 62
     0
370
    -2
100
AcDbBlockReference
  2
_DOT
 10
126.2623998194285
 20
2252.247254070524
 30
0.0
 41
9.0
 42
9.0
 43
9.0
 50
90.0
  0
INSERT
  5
1FD
330
1F7
100
AcDbEntity
  8
Dim
 62
     0
370
    -2
100
AcDbBlockReference
  2
_DOT
 10
126.2623998194285
 20
2122.247254070524
 30
0.0
 41
9.0
 42
9.0
 43
9.0
 50
270.0
  0
MTEXT
  5
1FE
330
1F7
100
AcDbEntity
  8
Dim
 62
     0
100
AcDbMText
 10
104.0460912256785
 20
2187.247254070524
 30
0.0
 40
24.4326171875
 41
0.0
 46
0.0
 71
     5
 72
     1
  1
\A1;130
  7
ＭＳ ゴシック
 11
1.093142670400154E-16
 21
1.0
 31
0.0
 73
     1
 44
1.0
  0
POINT
  5
1FF
330
1F7
100
AcDbEntity
  8
Defpoints
 62
     0
100
AcDbPoint
 10
230.6998228530961
 20
2252.247254070524
 30
0.0
  0
POINT
  5
200
330
1F7
100
AcDbEntity
  8
Defpoints
 62
     0
100
AcDbPoint
 10
227.6998228530961
 20
2122.247254070524
 30
0.0
  0
POINT
  5
201
330
1F7
100
AcDbEntity
  8
Defpoints
 62
     0
100
AcDbPoint
 10
126.2623998194285
 20
2122.247254070524
 30
0.0
  0
ENDBLK
  5
202
330
1F7
100
AcDbEntity
  8
0
100
AcDbBlockEnd
  0
BLOCK
  5
205
330
204
100
AcDbEntity
  8
0
100
AcDbBlockBegin
  2
*D18
 70
     1
 10
0.0
 20
0.0
 30
0.0
  3
*D18
  1
*D143
  0
LINE
  5
206
330
204
100
AcDbEntity
  8
Dim
 62
     0
370
    -2
100
AcDbLine
 10
202.6998228530961
 20
2122.247254070524
 30
0.0
 11
126.2623998194285
 21
2122.247254070524
 31
0.0
  0
LINE
  5
207
330
204
100
AcDbEntity
  8
Dim
 62
     0
370
    -2
100
AcDbLine
 10
202.6998228530961
 20
1832.247254070524
 30
0.0
 11
126.2623998194285
 21
1832.247254070524
 31
0.0
  0
LINE
  5
208
330
204
100
AcDbEntity
  8
Dim
 62
     0
370
    -2
100
AcDbLine
 10
126.2623998194285
 20
2113.247254070524
 30
0.0
 11
126.2623998194285
 21
1841.247254070524
 31
0.0
  0
INSERT
  5
209
330
204
100
AcDbEntity
  8
Dim
 62
     0
370
    -2
100
AcDbBlockReference
  2
_DOT
 10
126.2623998194285
 20
2122.247254070524
 30
0.0
 41
9.0
 42
9.0
 43
9.0
 50
90.0
  0
INSERT
  5
20A
330
204
100
AcDbEntity
  8
Dim
 62
     0
370
    -2
100
AcDbBlockReference
  2
_DOT
 10
126.2623998194285
 20
1832.247254070524
 30
0.0
 41
9.0
 42
9.0
 43
9.0
 50
270.0
  0
MTEXT
  5
20B
330
204
100
AcDbEntity
  8
Dim
 62
     0
100
AcDbMText
 10
104.0460912256785
 20
1977.247254070524
 30
0.0
 40
24.4326171875
 41
0.0
 46
0.0
 71
     5
 72
     1
  1
\A1;290
  7
ＭＳ ゴシック
 11
4.900294729380001E-17
 21
1.0
 31
0.0
 73
     1
 44
1.0
  0
POINT
  5
20C
330
204
100
AcDbEntity
  8
Defpoints
 62
     0
100
AcDbPoint
 10
227.6998228530961
 20
2122.247254070524
 30
0.0
  0
POINT
  5
20D
330
204
100
AcDbEntity
  8
Defpoints
 62
     0
100
AcDbPoint
 10
227.6998228530961
 20
1832.247254070524
 30
0.0
  0
POINT
  5
20E
330
204
100
AcDbEntity
  8
Defpoints
 62
     0
100
AcDbPoint
 10
126.2623998194285
 20
1832.247254070524
 30
0.0
  0
ENDBLK
  5
20F
330
204
100
AcDbEntity
  8
0
100
AcDbBlockEnd
  0
BLOCK
  5
212
330
211
100
AcDbEntity
  8
0
100
AcDbBlockBegin
  2
*D19
 70
     1
 10
0.0
 20
0.0
 30
0.0
  3
*D19
  1
*D145
  0
LINE
  5
213
330
211
100
AcDbEntity
  8
Dim
 62
     0
370
    -2
100
AcDbLine
 10
297.6998228530961
 20
1837.247254070528
 30
0.0
 11
297.6998228530961
 21
1678.926184600716
 31
0.0
  0
LINE
  5
214
330
211
100
AcDbEntity
  8
Dim
 62
     0
370
    -2
100
AcDbLine
 10
707.6998227218523
 20
1837.247254081709
 30
0.0
 11
707.6998227218523
 21
1678.926184600716
 31
0.0
  0
LINE
  5
215
330
211
100
AcDbEntity
  8
Dim
 62
     0
370
    -2
100
AcDbLine
 10
306.6998228530961
 20
1678.926184600716
 30
0.0
 11
698.6998227218523
 21
1678.926184600716
 31
0.0
  0
INSERT
  5
216
330
211
100
AcDbEntity
  8
Dim
 62
     0
370
    -2
100
AcDbBlockReference
  2
_DOT
 10
297.6998228530961
 20
1678.926184600716
 30
0.0
 41
9.0
 42
9.0
 43
9.0
 50
180.0
  0
INSERT
  5
217
330
211
100
AcDbEntity
  8
Dim
 62
     0
370
    -2
100
AcDbBlockReference
  2
_DOT
 10
707.6998227218523
 20
1678.926184600716
 30
0.0
 41
9.0
 42
9.0
 43
9.0
  0
MTEXT
  5
218
330
211
100
AcDbEntity
  8
Dim
 62
     0
100
AcDbMText
 10
502.6998227874742
 20
1701.142493194466
 30
0.0
 40
24.4326171875
 41
0.0
 46
0.0
 71
     5
 72
     1
  1
\A1;410
  7
ＭＳ ゴシック
 73
     1
 44
1.0
  0
POINT
  5
219
330
211
100
AcDbEntity
  8
Defpoints
 62
     0
100
AcDbPoint
 10
297.6998228530961
 20
1862.247254070528
 30
0.0
  0
POINT
  5
21A
330
211
100
AcDbEntity
  8
Defpoints
 62
     0
100
AcDbPoint
 10
707.6998227218523
 20
1862.247254081709
 30
0.0
  0
POINT
  5
21B
330
211
100
AcDbEntity
  8
Defpoints
 62
     0
100
AcDbPoint
 10
707.6998227218523
 20
1678.926184600716
 30
0.0
  0
ENDBLK
  5
21C
330
211
100
AcDbEntity
  8
0
100
AcDbBlockEnd
  0
BLOCK
  5
21F
330
21E
100
AcDbEntity
  8
0
100
AcDbBlockBegin
  2
*D20
 70
     1
 10
0.0
 20
0.0
 30
0.0
  3
*D20
  1
*D146
  0
LINE
  5
220
330
21E
100
AcDbEntity
  8
Dim
 62
     0
370
    -2
100
AcDbLine
 10
1625.306490651821
 20
1154.953556491709
 30
0.0
 11
1625.306490651821
 21
1219.277025730148
 31
0.0
  0
LINE
  5
221
330
21E
100
AcDbEntity
  8
Dim
 62
     0
370
    -2
100
AcDbLine
 10
1560.306490651821
 20
1154.953556491709
 30
0.0
 11
1560.306490651821
 21
1219.277025730148
 31
0.0
  0
LINE
  5
222
330
21E
100
AcDbEntity
  8
Dim
 62
     0
370
    -2
100
AcDbLine
 10
1616.306490651821
 20
1219.277025730148
 30
0.0
 11
1569.306490651821
 21
1219.277025730148
 31
0.0
  0
INSERT
  5
223
330
21E
100
AcDbEntity
  8
Dim
 62
     0
370
    -2
100
AcDbBlockReference
  2
_DOT
 10
1625.306490651821
 20
1219.277025730148
 30
0.0
 41
9.0
 42
9.0
 43
9.0
  0
INSERT
  5
224
330
21E
100
AcDbEntity
  8
Dim
 62
     0
370
    -2
100
AcDbBlockReference
  2
_DOT
 10
1560.306490651821
 20
1219.277025730148
 30
0.0
 41
9.0
 42
9.0
 43
9.0
 50
180.0
  0
MTEXT
  5
225
330
21E
100
AcDbEntity
  8
Dim
 62
     0
100
AcDbMText
 10
1592.806490651821
 20
1241.493334323898
 30
0.0
 40
24.4326171875
 41
0.0
 46
0.0
 71
     5
 72
     1
  1
\A1;65
  7
ＭＳ ゴシック
 73
     1
 44
1.0
  0
POINT
  5
226
330
21E
100
AcDbEntity
  8
Defpoints
 62
     0
100
AcDbPoint
 10
1625.306490651821
 20
1129.953556491709
 30
0.0
  0
POINT
  5
227
330
21E
100
AcDbEntity
  8
Defpoints
 62
     0
100
AcDbPoint
 10
1560.306490651821
 20
1129.953556491709
 30
0.0
  0
POINT
  5
228
330
21E
100
AcDbEntity
  8
Defpoints
 62
     0
100
AcDbPoint
 10
1560.306490651821
 20
1219.277025730148
 30
0.0
  0
ENDBLK
  5
229
330
21E
100
AcDbEntity
  8
0
100
AcDbBlockEnd
  0
BLOCK
  5
22D
330
22C
100
AcDbEntity
  8
0
100
AcDbBlockBegin
  2
*D21
 70
     1
 10
0.0
 20
0.0
 30
0.0
  3
*D21
  1
*D147
  0
LINE
  5
22E
330
22C
100
AcDbEntity
  8
Dim
 62
     0
370
    -2
100
AcDbLine
 10
1381.902563782453
 20
1002.605117356335
 30
0.0
 11
1392.935590179194
 21
1002.605117356335
 31
0.0
  0
LINE
  5
22F
330
22C
100
AcDbEntity
  8
Dim
 62
     0
370
    -2
100
AcDbLine
 10
1381.892517666138
 20
1132.953556491711
 30
0.0
 11
1392.935590179194
 21
1132.953556491711
 31
0.0
  0
LINE
  5
230
330
22C
100
AcDbEntity
  8
Dim
 62
     0
370
    -2
100
AcDbLine
 10
1392.935590179194
 20
1132.953556491711
 30
0.0
 11
1392.935590179194
 21
1303.329476413586
 31
0.0
  0
LINE
  5
231
330
22C
100
AcDbEntity
  8
Dim
 62
     0
370
    -2
100
AcDbLine
 10
1392.935590179194
 20
1011.605117356335
 30
0.0
 11
1392.935590179194
 21
1123.953556491711
 31
0.0
  0
INSERT
  5
232
330
22C
100
AcDbEntity
  8
Dim
 62
     0
370
    -2
100
AcDbBlockReference
  2
_DOT
 10
1392.935590179194
 20
1002.605117356335
 30
0.0
 41
9.0
 42
9.0
 43
9.0
 50
270.0
  0
INSERT
  5
233
330
22C
100
AcDbEntity
  8
Dim
 62
     0
370
    -2
100
AcDbBlockReference
  2
_DOT
 10
1392.935590179194
 20
1132.953556491711
 30
0.0
 41
9.0
 42
9.0
 43
9.0
 50
90.0
  0
MTEXT
  5
234
330
22C
100
AcDbEntity
  8
Dim
 62
     0
100
AcDbMText
 10
1368.55699496435
 20
1227.141516452648
 30
0.0
 40
24.4326171875
 41
0.0
 46
0.0
 71
     5
 72
     1
  1
\A1;130(深さ)
  7
ＭＳ ゴシック
 11
0.0
 21
1.0
 31
0.0
 73
     1
 44
1.0
  0
POINT
  5
235
330
22C
100
AcDbEntity
  8
Defpoints
 62
     0
100
AcDbPoint
 10
1406.902563782453
 20
1002.605117356335
 30
0.0
  0
POINT
  5
236
330
22C
100
AcDbEntity
  8
Defpoints
 62
     0
100
AcDbPoint
 10
1406.892517666138
 20
1132.953556491711
 30
0.0
  0
POINT
  5
237
330
22C
100
AcDbEntity
  8
Defpoints
 62
     0
100
AcDbPoint
 10
1392.935590179194
 20
1132.953556491711
 30
0.0
  0
ENDBLK
  5
238
330
22C
100
AcDbEntity
  8
0
100
AcDbBlockEnd
  0
BLOCK
  5
251
330
250
100
AcDbEntity
  8
0
100
AcDbBlockBegin
  2
*D22
 70
     1
 10
0.0
 20
0.0
 30
0.0
  3
*D22
  1
*D23
  0
LINE
  5
252
330
250
100
AcDbEntity
  8
Dim
 62
     0
370
    -2
100
AcDbLine
 10
1150.827099938178
 20
1787.247254070524
 30
0.0
 11
1150.827099938178
 21
1678.926184600716
 31
0.0
  0
LINE
  5
253
330
250
100
AcDbEntity
  8
Dim
 62
     0
370
    -2
100
AcDbLine
 10
1640.827099938178
 20
1787.247254070523
 30
0.0
 11
1640.827099938178
 21
1678.926184600716
 31
0.0
  0
LINE
  5
254
330
250
100
AcDbEntity
  8
Dim
 62
     0
370
    -2
100
AcDbLine
 10
1159.827099938178
 20
1678.926184600716
 30
0.0
 11
1631.827099938178
 21
1678.926184600716
 31
0.0
  0
INSERT
  5
255
330
250
100
AcDbEntity
  8
Dim
 62
     0
370
    -2
100
AcDbBlockReference
  2
_DOT
 10
1150.827099938178
 20
1678.926184600716
 30
0.0
 41
9.0
 42
9.0
 43
9.0
 50
180.0
  0
INSERT
  5
256
330
250
100
AcDbEntity
  8
Dim
 62
     0
370
    -2
100
AcDbBlockReference
  2
_DOT
 10
1640.827099938178
 20
1678.926184600716
 30
0.0
 41
9.0
 42
9.0
 43
9.0
  0
MTEXT
  5
257
330
250
100
AcDbEntity
  8
Dim
 62
     0
100
AcDbMText
 10
1395.827099938178
 20
1701.142493194466
 30
0.0
 40
24.4326171875
 41
0.0
 46
0.0
 71
     5
 72
     1
  1
\A1;490
  7
ＭＳ ゴシック
 73
     1
 44
1.0
  0
POINT
  5
258
330
250
100
AcDbEntity
  8
Defpoints
 62
     0
100
AcDbPoint
 10
1150.827099938178
 20
1812.247254070524
 30
0.0
  0
POINT
  5
259
330
250
100
AcDbEntity
  8
Defpoints
 62
     0
100
AcDbPoint
 10
1640.827099938178
 20
1812.247254070523
 30
0.0
  0
POINT
  5
25A
330
250
100
AcDbEntity
  8
Defpoints
 62
     0
100
AcDbPoint
 10
1640.827099938178
 20
1678.926184600716
 30
0.0
  0
ENDBLK
  5
25B
330
250
100
AcDbEntity
  8
0
100
AcDbBlockEnd
  0
BLOCK
  5
261
330
260
100
AcDbEntity
  8
0
100
AcDbBlockBegin
  2
*D23
 70
     1
 10
0.0
 20
0.0
 30
0.0
  3
*D23
  1
*D24
  0
LINE
  5
262
330
260
100
AcDbEntity
  8
Dim
 62
     0
370
    -2
100
AcDbLine
 10
1665.827099938178
 20
1812.247254070523
 30
0.0
 11
1783.64695216329
 21
1812.247254070523
 31
0.0
  0
LINE
  5
263
330
260
100
AcDbEntity
  8
Dim
 62
     0
370
    -2
100
AcDbLine
 10
1665.827099938178
 20
2252.247254070523
 30
0.0
 11
1783.64695216329
 21
2252.247254070523
 31
0.0
  0
LINE
  5
264
330
260
100
AcDbEntity
  8
Dim
 62
     0
370
    -2
100
AcDbLine
 10
1783.64695216329
 20
1821.247254070523
 30
0.0
 11
1783.64695216329
 21
2243.247254070523
 31
0.0
  0
INSERT
  5
265
330
260
100
AcDbEntity
  8
Dim
 62
     0
370
    -2
100
AcDbBlockReference
  2
_DOT
 10
1783.64695216329
 20
1812.247254070523
 30
0.0
 41
9.0
 42
9.0
 43
9.0
 50
270.0
  0
INSERT
  5
266
330
260
100
AcDbEntity
  8
Dim
 62
     0
370
    -2
100
AcDbBlockReference
  2
_DOT
 10
1783.64695216329
 20
2252.247254070523
 30
0.0
 41
9.0
 42
9.0
 43
9.0
 50
90.0
  0
MTEXT
  5
267
330
260
100
AcDbEntity
  8
Dim
 62
     0
100
AcDbMText
 10
1761.43064356954
 20
2032.247254070523
 30
0.0
 40
24.4326171875
 41
0.0
 46
0.0
 71
     5
 72
     1
  1
\A1;440
  7
ＭＳ ゴシック
 11
0.0
 21
1.0
 31
0.0
 73
     1
 44
1.0
  0
POINT
  5
268
330
260
100
AcDbEntity
  8
Defpoints
 62
     0
100
AcDbPoint
 10
1640.827099938178
 20
1812.247254070523
 30
0.0
  0
POINT
  5
269
330
260
100
AcDbEntity
  8
Defpoints
 62
     0
100
AcDbPoint
 10
1640.827099938178
 20
2252.247254070523
 30
0.0
  0
POINT
  5
26A
330
260
100
AcDbEntity
  8
Defpoints
 62
     0
100
AcDbPoint
 10
1783.64695216329
 20
2252.247254070523
 30
0.0
  0
ENDBLK
  5
26B
330
260
100
AcDbEntity
  8
0
100
AcDbBlockEnd
  0
BLOCK
  5
342
330
341
100
AcDbEntity
  8
0
100
AcDbBlockBegin
  2
*D24
 70
     1
 10
0.0
 20
0.0
 30
0.0
  3
*D24
  1
*D25
  0
LINE
  5
344
330
341
100
AcDbEntity
  8
Dim
 62
     0
370
    -2
100
AcDbLine
 10
301.7820070318438
 20
2318.448677965108
 30
0.0
 11
301.7820070318438
 21
2432.549958269549
 31
0.0
  0
LINE
  5
345
330
341
100
AcDbEntity
  8
Dim
 62
     0
370
    -2
100
AcDbLine
 10
851.7820069006001
 20
2318.448677988261
 30
0.0
 11
851.7820069006001
 21
2432.549958269549
 31
0.0
  0
LINE
  5
346
330
341
100
AcDbEntity
  8
Dim
 62
     0
370
    -2
100
AcDbLine
 10
311.7820070318438
 20
2432.549958269549
 30
0.0
 11
841.7820069006001
 21
2432.549958269549
 31
0.0
  0
INSERT
  5
347
330
341
100
AcDbEntity
  8
Dim
 62
     0
370
    -2
100
AcDbBlockReference
  2
_DOT
 10
301.7820070318438
 20
2432.549958269549
 30
0.0
 41
10.0
 42
10.0
 43
10.0
 50
180.0
  0
INSERT
  5
348
330
341
100
AcDbEntity
  8
Dim
 62
     0
370
    -2
100
AcDbBlockReference
  2
_DOT
 10
851.7820069006001
 20
2432.549958269549
 30
0.0
 41
10.0
 42
10.0
 43
10.0
  0
MTEXT
  5
349
330
341
100
AcDbEntity
  8
Dim
 62
     0
100
AcDbMText
 10
576.782006966222
 20
2450.549958269549
 30
0.0
 40
24.0
 41
0.0
 46
0.0
 71
     5
 72
     1
  1
\A1;550
  7
ＭＳ ゴシック
 73
     1
 44
1.0
  0
POINT
  5
34A
330
341
100
AcDbEntity
  8
Defpoints
 62
     0
100
AcDbPoint
 10
301.7820070318438
 20
2293.448677965108
 30
0.0
  0
POINT
  5
34B
330
341
100
AcDbEntity
  8
Defpoints
 62
     0
100
AcDbPoint
 10
851.7820069006001
 20
2293.448677988261
 30
0.0
  0
POINT
  5
34C
330
341
100
AcDbEntity
  8
Defpoints
 62
     0
100
AcDbPoint
 10
851.7820069006001
 20
2432.549958269549
 30
0.0
  0
ENDBLK
  5
343
330
341
100
AcDbEntity
  8
0
100
AcDbBlockEnd
  0
BLOCK
  5
34E
330
34D
100
AcDbEntity
  8
0
100
AcDbBlockBegin
  2
*D25
 70
     1
 10
0.0
 20
0.0
 30
0.0
  3
*D25
  1
*D26
  0
LINE
  5
350
330
34D
100
AcDbEntity
  8
Dim
 62
     0
370
    -2
100
AcDbLine
 10
576.6920070318437
 20
2273.403232564328
 30
0.0
 11
576.6920070318437
 21
2364.414737569634
 31
0.0
  0
LINE
  5
351
330
34D
100
AcDbEntity
  8
Dim
 62
     0
370
    -2
100
AcDbLine
 10
676.7149619737892
 20
2271.993232564326
 30
0.0
 11
676.7149619737892
 21
2364.414737569634
 31
0.0
  0
LINE
  5
352
330
34D
100
AcDbEntity
  8
Dim
 62
     0
370
    -2
100
AcDbLine
 10
586.6920070318437
 20
2364.414737569634
 30
0.0
 11
666.7149619737892
 21
2364.414737569634
 31
0.0
  0
INSERT
  5
353
330
34D
100
AcDbEntity
  8
Dim
 62
     0
370
    -2
100
AcDbBlockReference
  2
_DOT
 10
576.6920070318437
 20
2364.414737569634
 30
0.0
 41
10.0
 42
10.0
 43
10.0
 50
180.0
  0
INSERT
  5
354
330
34D
100
AcDbEntity
  8
Dim
 62
     0
370
    -2
100
AcDbBlockReference
  2
_DOT
 10
676.7149619737892
 20
2364.414737569634
 30
0.0
 41
10.0
 42
10.0
 43
10.0
  0
MTEXT
  5
355
330
34D
100
AcDbEntity
  8
Dim
 62
     0
100
AcDbMText
 10
626.7034845028164
 20
2382.414737569634
 30
0.0
 40
24.0
 41
0.0
 46
0.0
 71
     5
 72
     1
  1
\A1;100
  7
ＭＳ ゴシック
 73
     1
 44
1.0
  0
POINT
  5
356
330
34D
100
AcDbEntity
  8
Defpoints
 62
     0
100
AcDbPoint
 10
576.6920070318437
 20
2248.403232564328
 30
0.0
  0
POINT
  5
357
330
34D
100
AcDbEntity
  8
Defpoints
 62
     0
100
AcDbPoint
 10
676.7149619737892
 20
2246.993232564326
 30
0.0
  0
POINT
  5
358
330
34D
100
AcDbEntity
  8
Defpoints
 62
     0
100
AcDbPoint
 10
676.7149619737892
 20
2364.414737569634
 30
0.0
  0
ENDBLK
  5
34F
330
34D
100
AcDbEntity
  8
0
100
AcDbBlockEnd
  0
BLOCK
  5
35A
330
359
100
AcDbEntity
  8
0
100
AcDbBlockBegin
  2
*D26
 70
     1
 10
0.0
 20
0.0
 30
0.0
  3
*D26
  1
*D27
  0
LINE
  5
35C
330
359
100
AcDbEntity
  8
Dim
 62
     0
370
    -2
100
AcDbLine
 10
476.8490520898985
 20
2271.993232564326
 30
0.0
 11
476.8490520898985
 21
2364.414737569634
 31
0.0
  0
LINE
  5
35D
330
359
100
AcDbEntity
  8
Dim
 62
     0
370
    -2
100
AcDbLine
 10
576.6920070318437
 20
2273.403232564328
 30
0.0
 11
576.6920070318437
 21
2364.414737569634
 31
0.0
  0
LINE
  5
35E
330
359
100
AcDbEntity
  8
Dim
 62
     0
370
    -2
100
AcDbLine
 10
486.8490520898985
 20
2364.414737569634
 30
0.0
 11
566.6920070318437
 21
2364.414737569634
 31
0.0
  0
INSERT
  5
35F
330
359
100
AcDbEntity
  8
Dim
 62
     0
370
    -2
100
AcDbBlockReference
  2
_DOT
 10
476.8490520898985
 20
2364.414737569634
 30
0.0
 41
10.0
 42
10.0
 43
10.0
 50
180.0
  0
INSERT
  5
360
330
359
100
AcDbEntity
  8
Dim
 62
     0
370
    -2
100
AcDbBlockReference
  2
_DOT
 10
576.6920070318437
 20
2364.414737569634
 30
0.0
 41
10.0
 42
10.0
 43
10.0
  0
MTEXT
  5
361
330
359
100
AcDbEntity
  8
Dim
 62
     0
100
AcDbMText
 10
526.7705295608711
 20
2382.414737569634
 30
0.0
 40
24.0
 41
0.0
 46
0.0
 71
     5
 72
     1
  1
\A1;100
  7
ＭＳ ゴシック
 73
     1
 44
1.0
  0
POINT
  5
362
330
359
100
AcDbEntity
  8
Defpoints
 62
     0
100
AcDbPoint
 10
476.8490520898985
 20
2246.993232564326
 30
0.0
  0
POINT
  5
363
330
359
100
AcDbEntity
  8
Defpoints
 62
     0
100
AcDbPoint
 10
576.6920070318437
 20
2248.403232564328
 30
0.0
  0
POINT
  5
364
330
359
100
AcDbEntity
  8
Defpoints
 62
     0
100
AcDbPoint
 10
576.6920070318437
 20
2364.414737569634
 30
0.0
  0
ENDBLK
  5
35B
330
359
100
AcDbEntity
  8
0
100
AcDbBlockEnd
  0
BLOCK
  5
366
330
365
100
AcDbEntity
  8
0
100
AcDbBlockBegin
  2
*D27
 70
     1
 10
0.0
 20
0.0
 30
0.0
  3
*D27
  1
*D28
  0
LINE
  5
368
330
365
100
AcDbEntity
  8
Dim
 62
     0
370
    -2
100
AcDbLine
 10
873.7820069006001
 20
2296.448677965108
 30
0.0
 11
964.1045118412009
 21
2296.448677965108
 31
0.0
  0
LINE
  5
369
330
365
100
AcDbEntity
  8
Dim
 62
     0
370
    -2
100
AcDbLine
 10
851.782006900601
 20
1811.448677965108
 30
0.0
 11
964.1045118412009
 21
1811.448677965108
 31
0.0
  0
LINE
  5
36A
330
365
100
AcDbEntity
  8
Dim
 62
     0
370
    -2
100
AcDbLine
 10
964.1045118412009
 20
2286.448677965108
 30
0.0
 11
964.1045118412009
 21
1821.448677965108
 31
0.0
  0
INSERT
  5
36B
330
365
100
AcDbEntity
  8
Dim
 62
     0
370
    -2
100
AcDbBlockReference
  2
_DOT
 10
964.1045118412009
 20
2296.448677965108
 30
0.0
 41
10.0
 42
10.0
 43
10.0
 50
90.0
  0
INSERT
  5
36C
330
365
100
AcDbEntity
  8
Dim
 62
     0
370
    -2
100
AcDbBlockReference
  2
_DOT
 10
964.1045118412009
 20
1811.448677965108
 30
0.0
 41
10.0
 42
10.0
 43
10.0
 50
270.0
  0
MTEXT
  5
36D
330
365
100
AcDbEntity
  8
Dim
 62
     0
100
AcDbMText
 10
946.1045118412009
 20
2053.948677965108
 30
0.0
 40
24.0
 41
0.0
 46
0.0
 71
     5
 72
     1
  1
\A1;485
  7
ＭＳ ゴシック
 11
0.0
 21
1.0
 31
0.0
 73
     1
 44
1.0
  0
POINT
  5
36E
330
365
100
AcDbEntity
  8
Defpoints
 62
     0
100
AcDbPoint
 10
848.7820069006001
 20
2296.448677965108
 30
0.0
  0
POINT
  5
36F
330
365
100
AcDbEntity
  8
Defpoints
 62
     0
100
AcDbPoint
 10
826.782006900601
 20
1811.448677965108
 30
0.0
  0
POINT
  5
370
330
365
100
AcDbEntity
  8
Defpoints
 62
     0
100
AcDbPoint
 10
964.1045118412009
 20
1811.448677965108
 30
0.0
  0
ENDBLK
  5
367
330
365
100
AcDbEntity
  8
0
100
AcDbBlockEnd
  0
BLOCK
  5
372
330
371
100
AcDbEntity
  8
0
100
AcDbBlockBegin
  2
*D28
 70
     1
 10
0.0
 20
0.0
 30
0.0
  3
*D28
  1
*D29
  0
LINE
  5
374
330
371
100
AcDbEntity
  8
Dim
 62
     0
370
    -2
100
AcDbLine
 10
435.2616302983591
 20
1032.834585790159
 30
0.0
 11
435.2616302983591
 21
1114.657475646495
 31
0.0
  0
LINE
  5
375
330
371
100
AcDbEntity
  8
Dim
 62
     0
370
    -2
100
AcDbLine
 10
715.2857284292012
 20
1032.834585790159
 30
0.0
 11
715.2857284292012
 21
1114.657475646495
 31
0.0
  0
LINE
  5
376
330
371
100
AcDbEntity
  8
Dim
 62
     0
370
    -2
100
AcDbLine
 10
445.2616302983591
 20
1114.657475646495
 30
0.0
 11
705.2857284292012
 21
1114.657475646495
 31
0.0
  0
INSERT
  5
377
330
371
100
AcDbEntity
  8
Dim
 62
     0
370
    -2
100
AcDbBlockReference
  2
_DOT
 10
435.2616302983591
 20
1114.657475646495
 30
0.0
 41
10.0
 42
10.0
 43
10.0
 50
180.0
  0
INSERT
  5
378
330
371
100
AcDbEntity
  8
Dim
 62
     0
370
    -2
100
AcDbBlockReference
  2
_DOT
 10
715.2857284292012
 20
1114.657475646495
 30
0.0
 41
10.0
 42
10.0
 43
10.0
  0
MTEXT
  5
379
330
371
100
AcDbEntity
  8
Dim
 62
     0
100
AcDbMText
 10
575.2736793637802
 20
1132.657475646495
 30
0.0
 40
24.0
 41
0.0
 46
0.0
 71
     5
 72
     1
  1
\A1;280
  7
ＭＳ ゴシック
 73
     1
 44
1.0
  0
POINT
  5
37A
330
371
100
AcDbEntity
  8
Defpoints
 62
     0
100
AcDbPoint
 10
435.2616302983591
 20
1007.834585790159
 30
0.0
  0
POINT
  5
37B
330
371
100
AcDbEntity
  8
Defpoints
 62
     0
100
AcDbPoint
 10
715.2857284292012
 20
1007.834585790159
 30
0.0
  0
POINT
  5
37C
330
371
100
AcDbEntity
  8
Defpoints
 62
     0
100
AcDbPoint
 10
715.2857284292012
 20
1114.657475646495
 30
0.0
  0
ENDBLK
  5
373
330
371
100
AcDbEntity
  8
0
100
AcDbBlockEnd
  0
BLOCK
  5
37E
330
37D
100
AcDbEntity
  8
0
100
AcDbBlockBegin
  2
*D29
 70
     1
 10
0.0
 20
0.0
 30
0.0
  3
*D29
  1
*D30
  0
LINE
  5
380
330
37D
100
AcDbEntity
  8
Dim
 62
     0
370
    -2
100
AcDbLine
 10
390.261630298361
 20
987.8345857901602
 30
0.0
 11
200.3445839981763
 21
987.8345857901602
 31
0.0
  0
LINE
  5
381
330
37D
100
AcDbEntity
  8
Dim
 62
     0
370
    -2
100
AcDbLine
 10
282.7976513896746
 20
1027.80212581948
 30
0.0
 11
200.3445839981763
 21
1027.80212581948
 31
0.0
  0
LINE
  5
382
330
37D
100
AcDbEntity
  8
Dim
 62
     0
370
    -2
100
AcDbLine
 10
200.3445839981763
 20
997.8345857901602
 30
0.0
 11
200.3445839981763
 21
1017.80212581948
 31
0.0
  0
INSERT
  5
383
330
37D
100
AcDbEntity
  8
Dim
 62
     0
370
    -2
100
AcDbBlockReference
  2
_DOT
 10
200.3445839981763
 20
987.8345857901602
 30
0.0
 41
10.0
 42
10.0
 43
10.0
 50
270.0
  0
INSERT
  5
384
330
37D
100
AcDbEntity
  8
Dim
 62
     0
370
    -2
100
AcDbBlockReference
  2
_DOT
 10
200.3445839981763
 20
1027.80212581948
 30
0.0
 41
10.0
 42
10.0
 43
10.0
 50
90.0
  0
MTEXT
  5
385
330
37D
100
AcDbEntity
  8
Dim
 62
     0
100
AcDbMText
 10
182.3445839981763
 20
1007.81835580482
 30
0.0
 40
24.0
 41
0.0
 46
0.0
 71
     5
 72
     1
  1
\A1;40
  7
ＭＳ ゴシック
 11
0.0
 21
1.0
 31
0.0
 73
     1
 44
1.0
  0
POINT
  5
386
330
37D
100
AcDbEntity
  8
Defpoints
 62
     0
100
AcDbPoint
 10
415.261630298361
 20
987.8345857901602
 30
0.0
  0
POINT
  5
387
330
37D
100
AcDbEntity
  8
Defpoints
 62
     0
100
AcDbPoint
 10
307.7976513896746
 20
1027.80212581948
 30
0.0
  0
POINT
  5
388
330
37D
100
AcDbEntity
  8
Defpoints
 62
     0
100
AcDbPoint
 10
200.3445839981763
 20
1027.80212581948
 30
0.0
  0
ENDBLK
  5
37F
330
37D
100
AcDbEntity
  8
0
100
AcDbBlockEnd
  0
BLOCK
  5
38A
330
389
100
AcDbEntity
  8
0
100
AcDbBlockBegin
  2
*D30
 70
     1
 10
0.0
 20
0.0
 30
0.0
  3
*D30
  1
*D31
  0
LINE
  5
38C
330
389
100
AcDbEntity
  8
Dim
 62
     0
370
    -2
100
AcDbLine
 10
870.5863626740128
 20
1027.802125819482
 30
0.0
 11
958.4800440685214
 21
1027.802125819482
 31
0.0
  0
LINE
  5
38D
330
389
100
AcDbEntity
  8
Dim
 62
     0
370
    -2
100
AcDbLine
 10
633.9468334785787
 20
842.4729179100189
 30
0.0
 11
958.4800440685214
 21
842.4729179100189
 31
0.0
  0
LINE
  5
38E
330
389
100
AcDbEntity
  8
Dim
 62
     0
370
    -2
100
AcDbLine
 10
958.4800440685214
 20
1017.802125819482
 30
0.0
 11
958.4800440685214
 21
852.4729179100189
 31
0.0
  0
INSERT
  5
38F
330
389
100
AcDbEntity
  8
Dim
 62
     0
370
    -2
100
AcDbBlockReference
  2
_DOT
 10
958.4800440685214
 20
1027.802125819482
 30
0.0
 41
10.0
 42
10.0
 43
10.0
 50
90.0
  0
INSERT
  5
390
330
389
100
AcDbEntity
  8
Dim
 62
     0
370
    -2
100
AcDbBlockReference
  2
_DOT
 10
958.4800440685214
 20
842.4729179100189
 30
0.0
 41
10.0
 42
10.0
 43
10.0
 50
270.0
  0
MTEXT
  5
391
330
389
100
AcDbEntity
  8
Dim
 62
     0
100
AcDbMText
 10
940.4800440685214
 20
935.1375218647505
 30
0.0
 40
24.0
 41
0.0
 46
0.0
 71
     5
 72
     1
  1
\A1;185
  7
ＭＳ ゴシック
 11
0.0
 21
1.0
 31
0.0
 73
     1
 44
1.0
  0
POINT
  5
392
330
389
100
AcDbEntity
  8
Defpoints
 62
     0
100
AcDbPoint
 10
845.5863626740128
 20
1027.802125819482
 30
0.0
  0
POINT
  5
393
330
389
100
AcDbEntity
  8
Defpoints
 62
     0
100
AcDbPoint
 10
608.9468334785787
 20
842.4729179100189
 30
0.0
  0
POINT
  5
394
330
389
100
AcDbEntity
  8
Defpoints
 62
     0
100
AcDbPoint
 10
958.4800440685214
 20
842.4729179100189
 30
0.0
  0
ENDBLK
  5
38B
330
389
100
AcDbEntity
  8
0
100
AcDbBlockEnd
  0
BLOCK
  5
396
330
395
100
AcDbEntity
  8
0
100
AcDbBlockBegin
  2
*D31
 70
     1
 10
0.0
 20
0.0
 30
0.0
  3
*D31
  1
*D32
  0
LINE
  5
398
330
395
100
AcDbEntity
  8
Dim
 62
     0
370
    -2
100
AcDbLine
 10
1200.656356599004
 20
1027.802125819481
 30
0.0
 11
1131.361296548355
 21
1027.802125819481
 31
0.0
  0
LINE
  5
399
330
395
100
AcDbEntity
  8
Dim
 62
     0
370
    -2
100
AcDbLine
 10
1203.350458956325
 20
982.802125819481
 30
0.0
 11
1131.361296548355
 21
982.802125819481
 31
0.0
  0
LINE
  5
39A
330
395
100
AcDbEntity
  8
Dim
 62
     0
370
    -2
100
AcDbLine
 10
1131.361296548355
 20
1017.802125819481
 30
0.0
 11
1131.361296548355
 21
992.802125819481
 31
0.0
  0
INSERT
  5
39B
330
395
100
AcDbEntity
  8
Dim
 62
     0
370
    -2
100
AcDbBlockReference
  2
_DOT
 10
1131.361296548355
 20
1027.802125819481
 30
0.0
 41
10.0
 42
10.0
 43
10.0
 50
90.0
  0
INSERT
  5
39C
330
395
100
AcDbEntity
  8
Dim
 62
     0
370
    -2
100
AcDbBlockReference
  2
_DOT
 10
1131.361296548355
 20
982.802125819481
 30
0.0
 41
10.0
 42
10.0
 43
10.0
 50
270.0
  0
MTEXT
  5
39D
330
395
100
AcDbEntity
  8
Dim
 62
     0
100
AcDbMText
 10
1113.361296548355
 20
1005.302125819481
 30
0.0
 40
24.0
 41
0.0
 46
0.0
 71
     5
 72
     1
  1
\A1;45
  7
ＭＳ ゴシック
 11
0.0
 21
1.0
 31
0.0
 73
     1
 44
1.0
  0
POINT
  5
39E
330
395
100
AcDbEntity
  8
Defpoints
 62
     0
100
AcDbPoint
 10
1225.656356599004
 20
1027.802125819481
 30
0.0
  0
POINT
  5
39F
330
395
100
AcDbEntity
  8
Defpoints
 62
     0
100
AcDbPoint
 10
1228.350458956325
 20
982.802125819481
 30
0.0
  0
POINT
  5
3A0
330
395
100
AcDbEntity
  8
Defpoints
 62
     0
100
AcDbPoint
 10
1131.361296548355
 20
982.802125819481
 30
0.0
  0
ENDBLK
  5
397
330
395
100
AcDbEntity
  8
0
100
AcDbBlockEnd
  0
BLOCK
  5
3A2
330
3A1
100
AcDbEntity
  8
0
100
AcDbBlockBegin
  2
*D32
 70
     1
 10
0.0
 20
0.0
 30
0.0
  3
*D32
  1
*D33
  0
LINE
  5
3A4
330
3A1
100
AcDbEntity
  8
Dim
 62
     0
370
    -2
100
AcDbLine
 10
1203.350458956325
 20
982.802125819481
 30
0.0
 11
1131.361296548355
 21
982.802125819481
 31
0.0
  0
LINE
  5
3A5
330
3A1
100
AcDbEntity
  8
Dim
 62
     0
370
    -2
100
AcDbLine
 10
1329.437937526554
 20
887.4492712526671
 30
0.0
 11
1131.361296548355
 21
887.4492712526671
 31
0.0
  0
LINE
  5
3A6
330
3A1
100
AcDbEntity
  8
Dim
 62
     0
370
    -2
100
AcDbLine
 10
1131.361296548355
 20
972.802125819481
 30
0.0
 11
1131.361296548355
 21
897.4492712526671
 31
0.0
  0
INSERT
  5
3A7
330
3A1
100
AcDbEntity
  8
Dim
 62
     0
370
    -2
100
AcDbBlockReference
  2
_DOT
 10
1131.361296548355
 20
982.802125819481
 30
0.0
 41
10.0
 42
10.0
 43
10.0
 50
90.0
  0
INSERT
  5
3A8
330
3A1
100
AcDbEntity
  8
Dim
 62
     0
370
    -2
100
AcDbBlockReference
  2
_DOT
 10
1131.361296548355
 20
887.4492712526671
 30
0.0
 41
10.0
 42
10.0
 43
10.0
 50
270.0
  0
MTEXT
  5
3A9
330
3A1
100
AcDbEntity
  8
Dim
 62
     0
100
AcDbMText
 10
1113.361296548355
 20
935.1256985360741
 30
0.0
 40
24.0
 41
0.0
 46
0.0
 71
     5
 72
     1
  1
\A1;95
  7
ＭＳ ゴシック
 11
0.0
 21
1.0
 31
0.0
 73
     1
 44
1.0
  0
POINT
  5
3AA
330
3A1
100
AcDbEntity
  8
Defpoints
 62
     0
100
AcDbPoint
 10
1228.350458956325
 20
982.802125819481
 30
0.0
  0
POINT
  5
3AB
330
3A1
100
AcDbEntity
  8
Defpoints
 62
     0
100
AcDbPoint
 10
1354.437937526554
 20
887.4492712526671
 30
0.0
  0
POINT
  5
3AC
330
3A1
100
AcDbEntity
  8
Defpoints
 62
     0
100
AcDbPoint
 10
1131.361296548355
 20
887.4492712526671
 30
0.0
  0
ENDBLK
  5
3A3
330
3A1
100
AcDbEntity
  8
0
100
AcDbBlockEnd
  0
BLOCK
  5
3AE
330
3AD
100
AcDbEntity
  8
0
100
AcDbBlockBegin
  2
*D33
 70
     1
 10
0.0
 20
0.0
 30
0.0
  3
*D33
  1
*D34
  0
LINE
  5
3B0
330
3AD
100
AcDbEntity
  8
Dim
 62
     0
370
    -2
100
AcDbLine
 10
1699.388674830569
 20
869.1207506164751
 30
0.0
 11
1699.388674830569
 21
784.4422634819678
 31
0.0
  0
LINE
  5
3B1
330
3AD
100
AcDbEntity
  8
Dim
 62
     0
370
    -2
100
AcDbLine
 10
1479.388674830569
 20
817.4729179100189
 30
0.0
 11
1479.388674830569
 21
784.4422634819678
 31
0.0
  0
LINE
  5
3B2
330
3AD
100
AcDbEntity
  8
Dim
 62
     0
370
    -2
100
AcDbLine
 10
1689.388674830569
 20
784.4422634819678
 30
0.0
 11
1489.388674830569
 21
784.4422634819678
 31
0.0
  0
INSERT
  5
3B3
330
3AD
100
AcDbEntity
  8
Dim
 62
     0
370
    -2
100
AcDbBlockReference
  2
_DOT
 10
1699.388674830569
 20
784.4422634819678
 30
0.0
 41
10.0
 42
10.0
 43
10.0
  0
INSERT
  5
3B4
330
3AD
100
AcDbEntity
  8
Dim
 62
     0
370
    -2
100
AcDbBlockReference
  2
_DOT
 10
1479.388674830569
 20
784.4422634819678
 30
0.0
 41
10.0
 42
10.0
 43
10.0
 50
180.0
  0
MTEXT
  5
3B5
330
3AD
100
AcDbEntity
  8
Dim
 62
     0
100
AcDbMText
 10
1589.388674830569
 20
802.4422634819678
 30
0.0
 40
24.0
 41
0.0
 46
0.0
 71
     5
 72
     1
  1
\A1;220
  7
ＭＳ ゴシック
 73
     1
 44
1.0
  0
POINT
  5
3B6
330
3AD
100
AcDbEntity
  8
Defpoints
 62
     0
100
AcDbPoint
 10
1699.388674830569
 20
894.1207506164751
 30
0.0
  0
POINT
  5
3B7
330
3AD
100
AcDbEntity
  8
Defpoints
 62
     0
100
AcDbPoint
 10
1479.388674830569
 20
842.4729179100189
 30
0.0
  0
POINT
  5
3B8
330
3AD
100
AcDbEntity
  8
Defpoints
 62
     0
100
AcDbPoint
 10
1479.388674830569
 20
784.4422634819678
 30
0.0
  0
ENDBLK
  5
3AF
330
3AD
100
AcDbEntity
  8
0
100
AcDbBlockEnd
  0
BLOCK
  5
3BA
330
3B9
100
AcDbEntity
  8
0
100
AcDbBlockBegin
  2
*D34
 70
     1
 10
0.0
 20
0.0
 30
0.0
  3
*D34
  1
*D35
  0
LINE
  5
3BC
330
3B9
100
AcDbEntity
  8
Dim
 62
     0
370
    -2
100
AcDbLine
 10
279.7820070318438
 20
2296.448677965108
 30
0.0
 11
200.3445839981763
 21
2296.448677965108
 31
0.0
  0
LINE
  5
3BD
330
3B9
100
AcDbEntity
  8
Dim
 62
     0
370
    -2
100
AcDbLine
 10
276.7820070318438
 20
2166.448677965108
 30
0.0
 11
200.3445839981763
 21
2166.448677965108
 31
0.0
  0
LINE
  5
3BE
330
3B9
100
AcDbEntity
  8
Dim
 62
     0
370
    -2
100
AcDbLine
 10
200.3445839981763
 20
2287.448677965108
 30
0.0
 11
200.3445839981763
 21
2175.448677965108
 31
0.0
  0
INSERT
  5
3BF
330
3B9
100
AcDbEntity
  8
Dim
 62
     0
370
    -2
100
AcDbBlockReference
  2
_DOT
 10
200.3445839981763
 20
2296.448677965108
 30
0.0
 41
9.0
 42
9.0
 43
9.0
 50
90.0
  0
INSERT
  5
3C0
330
3B9
100
AcDbEntity
  8
Dim
 62
     0
370
    -2
100
AcDbBlockReference
  2
_DOT
 10
200.3445839981763
 20
2166.448677965108
 30
0.0
 41
9.0
 42
9.0
 43
9.0
 50
270.0
  0
MTEXT
  5
3C1
330
3B9
100
AcDbEntity
  8
Dim
 62
     0
100
AcDbMText
 10
178.1282754044263
 20
2231.448677965108
 30
0.0
 40
24.4326171875
 41
0.0
 46
0.0
 71
     5
 72
     1
  1
\A1;130
  7
ＭＳ ゴシック
 11
0.0
 21
1.0
 31
0.0
 73
     1
 44
1.0
  0
POINT
  5
3C2
330
3B9
100
AcDbEntity
  8
Defpoints
 62
     0
100
AcDbPoint
 10
304.7820070318438
 20
2296.448677965108
 30
0.0
  0
POINT
  5
3C3
330
3B9
100
AcDbEntity
  8
Defpoints
 62
     0
100
AcDbPoint
 10
301.7820070318438
 20
2166.448677965108
 30
0.0
  0
POINT
  5
3C4
330
3B9
100
AcDbEntity
  8
Defpoints
 62
     0
100
AcDbPoint
 10
200.3445839981763
 20
2166.448677965108
 30
0.0
  0
ENDBLK
  5
3BB
330
3B9
100
AcDbEntity
  8
0
100
AcDbBlockEnd
  0
BLOCK
  5
3C6
330
3C5
100
AcDbEntity
  8
0
100
AcDbBlockBegin
  2
*D35
 70
     1
 10
0.0
 20
0.0
 30
0.0
  3
*D35
  1
*D36
  0
LINE
  5
3C8
330
3C5
100
AcDbEntity
  8
Dim
 62
     0
370
    -2
100
AcDbLine
 10
276.7820070318438
 20
2166.448677965108
 30
0.0
 11
200.3445839981763
 21
2166.448677965108
 31
0.0
  0
LINE
  5
3C9
330
3C5
100
AcDbEntity
  8
Dim
 62
     0
370
    -2
100
AcDbLine
 10
276.7820070318438
 20
1876.448677965108
 30
0.0
 11
200.3445839981763
 21
1876.448677965108
 31
0.0
  0
LINE
  5
3CA
330
3C5
100
AcDbEntity
  8
Dim
 62
     0
370
    -2
100
AcDbLine
 10
200.3445839981763
 20
2157.448677965108
 30
0.0
 11
200.3445839981763
 21
1885.448677965108
 31
0.0
  0
INSERT
  5
3CB
330
3C5
100
AcDbEntity
  8
Dim
 62
     0
370
    -2
100
AcDbBlockReference
  2
_DOT
 10
200.3445839981763
 20
2166.448677965108
 30
0.0
 41
9.0
 42
9.0
 43
9.0
 50
90.0
  0
INSERT
  5
3CC
330
3C5
100
AcDbEntity
  8
Dim
 62
     0
370
    -2
100
AcDbBlockReference
  2
_DOT
 10
200.3445839981763
 20
1876.448677965108
 30
0.0
 41
9.0
 42
9.0
 43
9.0
 50
270.0
  0
MTEXT
  5
3CD
330
3C5
100
AcDbEntity
  8
Dim
 62
     0
100
AcDbMText
 10
178.1282754044263
 20
2021.448677965108
 30
0.0
 40
24.4326171875
 41
0.0
 46
0.0
 71
     5
 72
     1
  1
\A1;290
  7
ＭＳ ゴシック
 11
9.800589458760002E-17
 21
1.0
 31
0.0
 73
     1
 44
1.0
  0
POINT
  5
3CE
330
3C5
100
AcDbEntity
  8
Defpoints
 62
     0
100
AcDbPoint
 10
301.7820070318438
 20
2166.448677965108
 30
0.0
  0
POINT
  5
3CF
330
3C5
100
AcDbEntity
  8
Defpoints
 62
     0
100
AcDbPoint
 10
301.7820070318438
 20
1876.448677965108
 30
0.0
  0
POINT
  5
3D0
330
3C5
100
AcDbEntity
  8
Defpoints
 62
     0
100
AcDbPoint
 10
200.3445839981763
 20
1876.448677965108
 30
0.0
  0
ENDBLK
  5
3C7
330
3C5
100
AcDbEntity
  8
0
100
AcDbBlockEnd
  0
BLOCK
  5
3D2
330
3D1
100
AcDbEntity
  8
0
100
AcDbBlockBegin
  2
*D36
 70
     1
 10
0.0
 20
0.0
 30
0.0
  3
*D36
  1
*D37
  0
LINE
  5
3D4
330
3D1
100
AcDbEntity
  8
Dim
 62
     0
370
    -2
100
AcDbLine
 10
371.7820070318438
 20
1881.448677965112
 30
0.0
 11
371.7820070318438
 21
1723.1276084953
 31
0.0
  0
LINE
  5
3D5
330
3D1
100
AcDbEntity
  8
Dim
 62
     0
370
    -2
100
AcDbLine
 10
781.7820069006001
 20
1881.448677976293
 30
0.0
 11
781.7820069006001
 21
1723.1276084953
 31
0.0
  0
LINE
  5
3D6
330
3D1
100
AcDbEntity
  8
Dim
 62
     0
370
    -2
100
AcDbLine
 10
380.7820070318438
 20
1723.1276084953
 30
0.0
 11
772.7820069006001
 21
1723.1276084953
 31
0.0
  0
INSERT
  5
3D7
330
3D1
100
AcDbEntity
  8
Dim
 62
     0
370
    -2
100
AcDbBlockReference
  2
_DOT
 10
371.7820070318438
 20
1723.1276084953
 30
0.0
 41
9.0
 42
9.0
 43
9.0
 50
180.0
  0
INSERT
  5
3D8
330
3D1
100
AcDbEntity
  8
Dim
 62
     0
370
    -2
100
AcDbBlockReference
  2
_DOT
 10
781.7820069006001
 20
1723.1276084953
 30
0.0
 41
9.0
 42
9.0
 43
9.0
  0
MTEXT
  5
3D9
330
3D1
100
AcDbEntity
  8
Dim
 62
     0
100
AcDbMText
 10
576.782006966222
 20
1745.34391708905
 30
0.0
 40
24.4326171875
 41
0.0
 46
0.0
 71
     5
 72
     1
  1
\A1;410
  7
ＭＳ ゴシック
 73
     1
 44
1.0
  0
POINT
  5
3DA
330
3D1
100
AcDbEntity
  8
Defpoints
 62
     0
100
AcDbPoint
 10
371.7820070318438
 20
1906.448677965112
 30
0.0
  0
POINT
  5
3DB
330
3D1
100
AcDbEntity
  8
Defpoints
 62
     0
100
AcDbPoint
 10
781.7820069006001
 20
1906.448677976293
 30
0.0
  0
POINT
  5
3DC
330
3D1
100
AcDbEntity
  8
Defpoints
 62
     0
100
AcDbPoint
 10
781.7820069006001
 20
1723.1276084953
 30
0.0
  0
ENDBLK
  5
3D3
330
3D1
100
AcDbEntity
  8
0
100
AcDbBlockEnd
  0
BLOCK
  5
3DE
330
3DD
100
AcDbEntity
  8
0
100
AcDbBlockBegin
  2
*D37
 70
     1
 10
0.0
 20
0.0
 30
0.0
  3
*D37
  1
*D38
  0
LINE
  5
3E0
330
3DD
100
AcDbEntity
  8
Dim
 62
     0
370
    -2
100
AcDbLine
 10
1699.388674830569
 20
1049.802125819479
 30
0.0
 11
1699.388674830569
 21
1114.125595057918
 31
0.0
  0
LINE
  5
3E1
330
3DD
100
AcDbEntity
  8
Dim
 62
     0
370
    -2
100
AcDbLine
 10
1634.388674830569
 20
1049.802125819479
 30
0.0
 11
1634.388674830569
 21
1114.125595057918
 31
0.0
  0
LINE
  5
3E2
330
3DD
100
AcDbEntity
  8
Dim
 62
     0
370
    -2
100
AcDbLine
 10
1690.388674830569
 20
1114.125595057918
 30
0.0
 11
1643.388674830569
 21
1114.125595057918
 31
0.0
  0
INSERT
  5
3E3
330
3DD
100
AcDbEntity
  8
Dim
 62
     0
370
    -2
100
AcDbBlockReference
  2
_DOT
 10
1699.388674830569
 20
1114.125595057918
 30
0.0
 41
9.0
 42
9.0
 43
9.0
  0
INSERT
  5
3E4
330
3DD
100
AcDbEntity
  8
Dim
 62
     0
370
    -2
100
AcDbBlockReference
  2
_DOT
 10
1634.388674830569
 20
1114.125595057918
 30
0.0
 41
9.0
 42
9.0
 43
9.0
 50
180.0
  0
MTEXT
  5
3E5
330
3DD
100
AcDbEntity
  8
Dim
 62
     0
100
AcDbMText
 10
1666.888674830569
 20
1136.341903651668
 30
0.0
 40
24.4326171875
 41
0.0
 46
0.0
 71
     5
 72
     1
  1
\A1;65
  7
ＭＳ ゴシック
 73
     1
 44
1.0
  0
POINT
  5
3E6
330
3DD
100
AcDbEntity
  8
Defpoints
 62
     0
100
AcDbPoint
 10
1699.388674830569
 20
1024.802125819479
 30
0.0
  0
POINT
  5
3E7
330
3DD
100
AcDbEntity
  8
Defpoints
 62
     0
100
AcDbPoint
 10
1634.388674830569
 20
1024.802125819479
 30
0.0
  0
POINT
  5
3E8
330
3DD
100
AcDbEntity
  8
Defpoints
 62
     0
100
AcDbPoint
 10
1634.388674830569
 20
1114.125595057918
 30
0.0
  0
ENDBLK
  5
3DF
330
3DD
100
AcDbEntity
  8
0
100
AcDbBlockEnd
  0
BLOCK
  5
3EA
330
3E9
100
AcDbEntity
  8
0
100
AcDbBlockBegin
  2
*D38
 70
     1
 10
0.0
 20
0.0
 30
0.0
  3
*D38
  1
*D39
  0
LINE
  5
3EC
330
3E9
100
AcDbEntity
  8
Dim
 62
     0
370
    -2
100
AcDbLine
 10
1455.984747961201
 20
897.4536866841061
 30
0.0
 11
1467.017774357942
 21
897.4536866841061
 31
0.0
  0
LINE
  5
3ED
330
3E9
100
AcDbEntity
  8
Dim
 62
     0
370
    -2
100
AcDbLine
 10
1455.974701844886
 20
1027.802125819481
 30
0.0
 11
1467.017774357942
 21
1027.802125819481
 31
0.0
  0
LINE
  5
3EE
330
3E9
100
AcDbEntity
  8
Dim
 62
     0
370
    -2
100
AcDbLine
 10
1467.017774357942
 20
1027.802125819481
 30
0.0
 11
1467.017774357942
 21
1198.178045741357
 31
0.0
  0
LINE
  5
3EF
330
3E9
100
AcDbEntity
  8
Dim
 62
     0
370
    -2
100
AcDbLine
 10
1467.017774357942
 20
906.4536866841061
 30
0.0
 11
1467.017774357942
 21
1018.802125819481
 31
0.0
  0
INSERT
  5
3F0
330
3E9
100
AcDbEntity
  8
Dim
 62
     0
370
    -2
100
AcDbBlockReference
  2
_DOT
 10
1467.017774357942
 20
897.4536866841061
 30
0.0
 41
9.0
 42
9.0
 43
9.0
 50
270.0
  0
INSERT
  5
3F1
330
3E9
100
AcDbEntity
  8
Dim
 62
     0
370
    -2
100
AcDbBlockReference
  2
_DOT
 10
1467.017774357942
 20
1027.802125819481
 30
0.0
 41
9.0
 42
9.0
 43
9.0
 50
90.0
  0
MTEXT
  5
3F2
330
3E9
100
AcDbEntity
  8
Dim
 62
     0
100
AcDbMText
 10
1442.639179143098
 20
1121.990085780419
 30
0.0
 40
24.4326171875
 41
0.0
 46
0.0
 71
     5
 72
     1
  1
\A1;130(深さ)
  7
ＭＳ ゴシック
 11
0.0
 21
1.0
 31
0.0
 73
     1
 44
1.0
  0
POINT
  5
3F3
330
3E9
100
AcDbEntity
  8
Defpoints
 62
     0
100
AcDbPoint
 10
1480.984747961201
 20
897.4536866841061
 30
0.0
  0
POINT
  5
3F4
330
3E9
100
AcDbEntity
  8
Defpoints
 62
     0
100
AcDbPoint
 10
1480.974701844886
 20
1027.802125819481
 30
0.0
  0
POINT
  5
3F5
330
3E9
100
AcDbEntity
  8
Defpoints
 62
     0
100
AcDbPoint
 10
1467.017774357942
 20
1027.802125819481
 30
0.0
  0
ENDBLK
  5
3EB
330
3E9
100
AcDbEntity
  8
0
100
AcDbBlockEnd
  0
BLOCK
  5
3F7
330
3F6
100
AcDbEntity
  8
0
100
AcDbBlockBegin
  2
*D39
 70
     1
 10
0.0
 20
0.0
 30
0.0
  3
*D39
  1
*D40
  0
LINE
  5
3F9
330
3F6
100
AcDbEntity
  8
Dim
 62
     0
370
    -2
100
AcDbLine
 10
1224.909284116926
 20
1831.448677965108
 30
0.0
 11
1224.909284116926
 21
1723.1276084953
 31
0.0
  0
LINE
  5
3FA
330
3F6
100
AcDbEntity
  8
Dim
 62
     0
370
    -2
100
AcDbLine
 10
1714.909284116926
 20
1831.448677965108
 30
0.0
 11
1714.909284116926
 21
1723.1276084953
 31
0.0
  0
LINE
  5
3FB
330
3F6
100
AcDbEntity
  8
Dim
 62
     0
370
    -2
100
AcDbLine
 10
1233.909284116926
 20
1723.1276084953
 30
0.0
 11
1705.909284116926
 21
1723.1276084953
 31
0.0
  0
INSERT
  5
3FC
330
3F6
100
AcDbEntity
  8
Dim
 62
     0
370
    -2
100
AcDbBlockReference
  2
_DOT
 10
1224.909284116926
 20
1723.1276084953
 30
0.0
 41
9.0
 42
9.0
 43
9.0
 50
180.0
  0
INSERT
  5
3FD
330
3F6
100
AcDbEntity
  8
Dim
 62
     0
370
    -2
100
AcDbBlockReference
  2
_DOT
 10
1714.909284116926
 20
1723.1276084953
 30
0.0
 41
9.0
 42
9.0
 43
9.0
  0
MTEXT
  5
3FE
330
3F6
100
AcDbEntity
  8
Dim
 62
     0
100
AcDbMText
 10
1469.909284116926
 20
1745.34391708905
 30
0.0
 40
24.4326171875
 41
0.0
 46
0.0
 71
     5
 72
     1
  1
\A1;490
  7
ＭＳ ゴシック
 73
     1
 44
1.0
  0
POINT
  5
3FF
330
3F6
100
AcDbEntity
  8
Defpoints
 62
     0
100
AcDbPoint
 10
1224.909284116926
 20
1856.448677965108
 30
0.0
  0
POINT
  5
400
330
3F6
100
AcDbEntity
  8
Defpoints
 62
     0
100
AcDbPoint
 10
1714.909284116926
 20
1856.448677965108
 30
0.0
  0
POINT
  5
401
330
3F6
100
AcDbEntity
  8
Defpoints
 62
     0
100
AcDbPoint
 10
1714.909284116926
 20
1723.1276084953
 30
0.0
  0
ENDBLK
  5
3F8
330
3F6
100
AcDbEntity
  8
0
100
AcDbBlockEnd
  0
BLOCK
  5
403
330
402
100
AcDbEntity
  8
0
100
AcDbBlockBegin
  2
*D40
 70
     1
 10
0.0
 20
0.0
 30
0.0
  3
*D40
  1
*D41
  0
LINE
  5
405
330
402
100
AcDbEntity
  8
Dim
 62
     0
370
    -2
100
AcDbLine
 10
1739.909284116926
 20
1856.448677965108
 30
0.0
 11
1857.729136342038
 21
1856.448677965108
 31
0.0
  0
LINE
  5
406
330
402
100
AcDbEntity
  8
Dim
 62
     0
370
    -2
100
AcDbLine
 10
1739.909284116926
 20
2296.448677965108
 30
0.0
 11
1857.729136342038
 21
2296.448677965108
 31
0.0
  0
LINE
  5
407
330
402
100
AcDbEntity
  8
Dim
 62
     0
370
    -2
100
AcDbLine
 10
1857.729136342038
 20
1865.448677965108
 30
0.0
 11
1857.729136342038
 21
2287.448677965108
 31
0.0
  0
INSERT
  5
408
330
402
100
AcDbEntity
  8
Dim
 62
     0
370
    -2
100
AcDbBlockReference
  2
_DOT
 10
1857.729136342038
 20
1856.448677965108
 30
0.0
 41
9.0
 42
9.0
 43
9.0
 50
270.0
  0
INSERT
  5
409
330
402
100
AcDbEntity
  8
Dim
 62
     0
370
    -2
100
AcDbBlockReference
  2
_DOT
 10
1857.729136342038
 20
2296.448677965108
 30
0.0
 41
9.0
 42
9.0
 43
9.0
 50
90.0
  0
MTEXT
  5
40A
330
402
100
AcDbEntity
  8
Dim
 62
     0
100
AcDbMText
 10
1835.512827748288
 20
2076.448677965108
 30
0.0
 40
24.4326171875
 41
0.0
 46
0.0
 71
     5
 72
     1
  1
\A1;440
  7
ＭＳ ゴシック
 11
0.0
 21
1.0
 31
0.0
 73
     1
 44
1.0
  0
POINT
  5
40B
330
402
100
AcDbEntity
  8
Defpoints
 62
     0
100
AcDbPoint
 10
1714.909284116926
 20
1856.448677965108
 30
0.0
  0
POINT
  5
40C
330
402
100
AcDbEntity
  8
Defpoints
 62
     0
100
AcDbPoint
 10
1714.909284116926
 20
2296.448677965108
 30
0.0
  0
POINT
  5
40D
330
402
100
AcDbEntity
  8
Defpoints
 62
     0
100
AcDbPoint
 10
1857.729136342038
 20
2296.448677965108
 30
0.0
  0
ENDBLK
  5
404
330
402
100
AcDbEntity
  8
0
100
AcDbBlockEnd
  0
ENDSEC
  0
SECTION
  2
ENTITIES
  0
MTEXT
  5
276
330
1F
100
AcDbEntity
  8
template
390
F
100
AcDbMText
 10
81.08218417922978
 20
324.3582060208863
 30
0.0
 40
16.28841145833333
 41
0.0
 46
0.0
 71
     1
 72
     1
  1
品名
  7
ＭＳ ゴシック
 73
     1
 44
0.7828267384257843
  0
MTEXT
  5
277
330
1F
100
AcDbEntity
  8
template
390
F
100
AcDbMText
 10
81.08218417922978
 20
239.3582060208861
 30
0.0
 40
16.28841145833333
 41
0.0
 46
0.0
 71
     1
 72
     1
  1
仕様
  7
ＭＳ ゴシック
 73
     1
 44
0.7828267384257843
  0
LINE
  5
278
330
1F
100
AcDbEntity
  8
template
390
F
100
AcDbLine
 10
2024.082184178747
 20
247.7731278958862
 30
0.0
 11
74.08218417874775
 21
247.7731278958862
 31
0.0
  0
LWPOLYLINE
  5
279
330
1F
100
AcDbEntity
  8
template
390
F
100
AcDbPolyline
 90
        5
 70
   128
 43
0.0
 10
2024.082184178747
 20
2877.773127895886
 10
74.08218417874775
 20
2877.773127895886
 10
74.08218417874775
 20
77.77312789588609
 10
2024.082184178747
 20
77.77312789588609
 10
2024.082184178747
 20
2877.773127895886
  0
LINE
  5
27A
330
1F
100
AcDbEntity
  8
template
390
F
100
AcDbLine
 10
2024.082184178747
 20
332.7731278958861
 30
0.0
 11
74.08218417874775
 21
332.7731278958861
 31
0.0
  0
LINE
  5
27B
330
1F
100
AcDbEntity
  8
template
390
F
100
AcDbLine
 10
2024.082184179229
 20
162.7731278958862
 30
0.0
 11
1271.08218417923
 21
162.7731278958862
 31
0.0
  0
MTEXT
  5
27C
330
1F
100
AcDbEntity
  8
template
390
F
100
AcDbMText
 10
74.08218417943351
 20
65.91930583902901
 30
0.0
 40
21.71788194444445
 41
0.0
 46
21.71788194444445
 71
     1
 72
     1
  1
{141120SO}
  7
ＭＳ ゴシック
 73
     1
 44
0.7828267384257843
1001
ACAD
1000
ACAD_MTEXT_DEFINED_HEIGHT_BEGIN
1070
    46
1040
21.71788194444445
1000
ACAD_MTEXT_DEFINED_HEIGHT_END
  0
MTEXT
  5
27D
330
1F
100
AcDbEntity
  8
template
390
F
100
AcDbMText
 10
1300.953590431491
 20
132.8627334225781
 30
0.0
 40
24.4326171875
 41
0.0
 46
0.0
 71
     1
 72
     1
  1
大洋金物株式会社 ティーフォルム事業部
  7
ＭＳ ゴシック
 73
     1
 44
0.7828267384257843
  0
MTEXT
  5
27E
330
1F
100
AcDbEntity
  8
template
390
F
100
AcDbMText
 10
1833.08218417949
 20
210.7757450833861
 30
0.0
 40
24.4326171875
 41
0.0
 46
0.0
 71
     1
 72
     1
  1
1:10
  7
ＭＳ ゴシック
 73
     1
 44
0.7828267384257843
  0
MTEXT
  5
27F
330
1F
100
AcDbEntity
  8
template
390
F
100
AcDbMText
 10
1780.08218417949
 20
239.3582060208861
 30
0.0
 40
16.28841145833333
 41
0.0
 46
0.0
 71
     1
 72
     1
  1
縮尺
  7
ＭＳ ゴシック
 73
     1
 44
0.7828267384257843
  0
LINE
  5
280
330
1F
100
AcDbEntity
  8
template
390
F
100
AcDbLine
 10
1773.08218417949
 20
162.7731278958862
 30
0.0
 11
1773.08218417949
 21
247.7731278958862
 31
0.0
  0
MTEXT
  5
281
330
1F
100
AcDbEntity
  8
template
390
F
100
AcDbMText
 10
1529.08218417949
 20
239.3582060208861
 30
0.0
 40
16.28841145833333
 41
0.0
 46
0.0
 71
     1
 72
     1
  1
容量
  7
ＭＳ ゴシック
 73
     1
 44
0.7828267384257843
  0
LINE
  5
282
330
1F
100
AcDbEntity
  8
template
390
F
100
AcDbLine
 10
1522.08218417949
 20
162.7731278958862
 30
0.0
 11
1522.08218417949
 21
247.7731278958862
 31
0.0
  0
MTEXT
  5
283
330
1F
100
AcDbEntity
  8
template
390
F
100
AcDbMText
 10
1278.08218417949
 20
324.3582060208863
 30
0.0
 40
16.28841145833333
 41
0.0
 46
0.0
 71
     1
 72
     1
  1
品番
  7
ＭＳ ゴシック
 73
     1
 44
0.7828267384257843
  0
MTEXT
  5
284
330
1F
100
AcDbEntity
  8
template
390
F
100
AcDbMText
 10
1278.08218417949
 20
239.3582060208861
 30
0.0
 40
16.28841145833333
 41
0.0
 46
0.0
 71
     1
 72
     1
  1
重量
  7
ＭＳ ゴシック
 73
     1
 44
0.7828267384257843
  0
MTEXT
  5
285
330
1F
100
AcDbEntity
  8
template
390
F
100
AcDbMText
 10
1331.08218417949
 20
295.775745083386
 30
0.0
 40
24.4326171875
 41
0.0
 46
24.4326171875
 71
     1
 72
     1
  1
{ADF70-2405}
  7
ＭＳ ゴシック
 73
     1
 44
0.7828267384257843
1001
ACAD
1000
ACAD_MTEXT_DEFINED_HEIGHT_BEGIN
1070
    46
1040
24.4326171875
1000
ACAD_MTEXT_DEFINED_HEIGHT_END
  0
LINE
  5
286
330
1F
100
AcDbEntity
  8
template
390
F
100
AcDbLine
 10
1271.08218417949
 20
77.77312789588609
 30
0.0
 11
1271.08218417949
 21
332.7731278958861
 31
0.0
  0
INSERT
  5
287
330
1F
100
AcDbEntity
  8
template
100
AcDbBlockReference
  2
名称未設定-1
 10
1872.641434733653
 20
6.573220146111638
 30
0.0
 41
0.7619999999999999
 42
0.7619999999999999
 43
0.7619999999999999
  0
LINE
  5
288
330
1F
100
AcDbEntity
  8
MODEL
  6
Continuous
100
AcDbLine
 10
412.4445177139031
 20
2155.677188730804
 30
-0.0000000051220785
 11
741.119496309543
 21
2155.677188730806
 31
-0.0000000097235375
  0
ARC
  5
289
330
1F
100
AcDbEntity
  8
MODEL
  6
Continuous
100
AcDbCircle
 10
741.119496309543
 20
2135.677188730806
 30
-0.0000000448944305
 40
20.0
100
AcDbArc
 50
0.0000001271684486
 51
90.0
  0
ARC
  5
28A
330
1F
100
AcDbEntity
  8
MODEL
  6
Continuous
100
AcDbCircle
 10
412.4445177139031
 20
2135.677188730804
 30
0.0000000294433713
 40
20.0
100
AcDbArc
 50
90.0
 51
179.999999838689
  0
LINE
  5
28B
330
1F
100
AcDbEntity
  8
MODEL
  6
Continuous
100
AcDbLine
 10
392.4445177796396
 20
1948.709459291121
 30
-0.0000000286898113
 11
392.4445177139031
 21
2135.677188787112
 31
0.0000000294433713
  0
LINE
  5
28C
330
1F
100
AcDbEntity
  8
MODEL
  6
Continuous
100
AcDbLine
 10
412.4445177796396
 20
1928.709459291121
 30
-0.0000000150044336
 11
741.1194963752795
 21
1928.709459291122
 31
-0.0000000139602897
  0
ARC
  5
28D
330
1F
100
AcDbEntity
  8
MODEL
  6
Continuous
100
AcDbCircle
 10
412.4445177796396
 20
1948.709459291121
 30
-0.0000000286898113
 40
20.0
100
AcDbArc
 50
179.9999999191126
 51
270.0
  0
LINE
  5
28E
330
1F
100
AcDbEntity
  8
MODEL
  6
Continuous
100
AcDbLine
 10
761.1194963752795
 20
1948.709459291122
 30
-0.0000000137490523
 11
761.119496309543
 21
2135.079018478699
 31
-0.0000000109681827
  0
ARC
  5
28F
330
1F
100
AcDbEntity
  8
MODEL
  6
Continuous
100
AcDbCircle
 10
741.1194963752795
 20
1948.709459291122
 30
-0.0000001565644048
 40
20.0
100
AcDbArc
 50
270.0
 51
0.000000443097006
  0
CIRCLE
  5
290
330
1F
100
AcDbEntity
  8
MODEL
  6
STYLE_12
 48
50.0
100
AcDbCircle
 10
576.6920070318437
 20
2230.903232564328
 30
0.0000000009070761
 40
17.5
  0
CIRCLE
  5
291
330
1F
100
AcDbEntity
  8
MODEL
  6
STYLE_12
 48
50.0
100
AcDbCircle
 10
676.7149619737892
 20
2230.993232564326
 30
0.0000000009070761
 40
16.0
  0
CIRCLE
  5
292
330
1F
100
AcDbEntity
  8
MODEL
  6
STYLE_12
 48
50.0
100
AcDbCircle
 10
476.8490520898985
 20
2230.993232564326
 30
0.0000000009070761
 40
16.0
  0
CIRCLE
  5
293
330
1F
100
AcDbEntity
  8
MODEL
  6
Continuous
100
AcDbCircle
 10
576.7820070318438
 20
2078.448677965109
 30
-0.000000000000003
 40
38.0
  0
ELLIPSE
  5
294
330
1F
100
AcDbEntity
  8
MODEL
  6
Continuous
100
AcDbEllipse
 10
576.679202917944
 20
2163.885800924947
 30
0.0000000032284877
 11
-12.5
 21
0.0
 31
0.0
210
0.0
220
0.0
230
1.0
 40
0.087874375302903
 41
0.0
 42
6.283185307179586
  0
LINE
  5
295
330
1F
100
AcDbEntity
  8
MODEL
  6
Continuous
100
AcDbLine
 10
576.7820070318438
 20
1811.448677965109
 30
-0.0000000018709185
 11
326.7820070318438
 21
1811.448677965108
 31
-0.0000000004074461
  0
LINE
  5
296
330
1F
100
AcDbEntity
  8
MODEL
  6
Continuous
100
AcDbLine
 10
301.7820070318438
 20
1836.448677965108
 30
0.0000000013423791
 11
301.7820070318438
 21
2293.448677965108
 31
-0.000000000000003
  0
ARC
  5
297
330
1F
100
AcDbEntity
  8
MODEL
  6
Continuous
100
AcDbCircle
 10
326.7820070318438
 20
1836.448677965108
 30
0.0000000178473051
 40
25.0
100
AcDbArc
 50
179.999999961811
 51
270.0
  0
LINE
  5
298
330
1F
100
AcDbEntity
  8
MODEL
  6
Continuous
100
AcDbLine
 10
304.7820070318438
 20
2296.448677965108
 30
0.0000000000090984
 11
576.7820070318438
 21
2296.448677965108
 31
-0.000000000000003
  0
ARC
  5
299
330
1F
100
AcDbEntity
  8
MODEL
  6
Continuous
100
AcDbCircle
 10
304.7820070318438
 20
2293.448677965108
 30
-0.00000004010125
 40
3.0
100
AcDbArc
 50
90.0
 51
179.999999141354
  0
LINE
  5
29A
330
1F
100
AcDbEntity
  8
MODEL
  6
Continuous
100
AcDbLine
 10
576.7820070318438
 20
2166.448677965108
 30
-0.000000000000003
 11
401.2820071438335
 21
2166.448677965108
 31
-0.0000000648714104
  0
ARC
  5
29B
330
1F
100
AcDbEntity
  8
MODEL
  6
Continuous
100
AcDbCircle
 10
400.6677830560192
 20
2137.268462259333
 30
-0.0000000648714104
 40
29.18667949365972
100
AcDbArc
 50
88.79414011128297
 51
171.7655858120729
  0
LINE
  5
29C
330
1F
100
AcDbEntity
  8
MODEL
  6
Continuous
100
AcDbLine
 10
371.7820070318436
 20
2141.448677965105
 30
-0.0000000648714104
 11
371.7820070318438
 21
1901.448677965112
 31
-0.0000000044555879
  0
ARC
  5
29D
330
1F
100
AcDbEntity
  8
MODEL
  6
Continuous
100
AcDbCircle
 10
396.7820070318438
 20
1901.448677965112
 30
-0.0000000306715144
 40
25.0
100
AcDbArc
 50
179.9999999325267
 51
270.0
  0
LINE
  5
29E
330
1F
100
AcDbEntity
  8
MODEL
  6
Continuous
100
AcDbLine
 10
396.7820070318438
 20
1876.448677965112
 30
-0.0000000306715144
 11
576.7820070318438
 21
1876.448677965112
 31
-0.0000000027629443
  0
LINE
  5
29F
330
1F
100
AcDbEntity
  8
MODEL
  6
Continuous
100
AcDbLine
 10
851.782006900601
 20
1836.448677965108
 30
-0.0000000337179095
 11
851.7820069006001
 21
2293.448677965108
 31
0.0000000025626708
  0
LINE
  5
2A0
330
1F
100
AcDbEntity
  8
MODEL
  6
Continuous
100
AcDbLine
 10
848.7820069006001
 20
2296.448677965108
 30
0.000000002571605
 11
576.7820070318438
 21
2296.448677965108
 31
-0.000000000000003
  0
LINE
  5
2A1
330
1F
100
AcDbEntity
  8
MODEL
  6
Continuous
100
AcDbLine
 10
576.7820070318438
 20
2166.448677965108
 30
-0.000000000000003
 11
756.7820069005999
 21
2166.448677965109
 31
0.0000000283805138
  0
LINE
  5
2A2
330
1F
100
AcDbEntity
  8
MODEL
  6
Continuous
100
AcDbLine
 10
781.7820069006001
 20
2140.339966112756
 30
-0.0000000055765651
 11
781.7820069006001
 21
1901.448677965113
 31
-0.0000000071361764
  0
ARC
  5
2A3
330
1F
100
AcDbEntity
  8
MODEL
  6
Continuous
100
AcDbCircle
 10
756.7820069006001
 20
2141.448677965109
 30
0.0000000283805138
 40
25.0
100
AcDbArc
 50
0.0000000662654248
 51
90.0
  0
ARC
  5
2A4
330
1F
100
AcDbEntity
  8
MODEL
  6
Continuous
100
AcDbCircle
 10
756.7820069006001
 20
1901.448677965113
 30
-0.0000000125895716
 40
25.0
100
AcDbArc
 50
270.0
 51
0.0000000256231103
  0
LINE
  5
2A5
330
1F
100
AcDbEntity
  8
MODEL
  6
Continuous
100
AcDbLine
 10
756.7820069006003
 20
1876.448677965113
 30
-0.0000000125895716
 11
576.7820070318438
 21
1876.448677965112
 31
-0.0000000027629443
  0
CIRCLE
  5
2A6
330
1F
100
AcDbEntity
  8
MODEL
  6
Continuous
 48
0.3
100
AcDbCircle
 10
576.7820070318438
 20
2078.448677965109
 30
-0.000000000000003
 40
22.49999999999818
  0
LINE
  5
2A7
330
1F
100
AcDbEntity
  8
MODEL
  6
Continuous
100
AcDbLine
 10
576.7820070318447
 20
1811.448677965109
 30
-0.0000000018709185
 11
826.782006900601
 21
1811.448677965108
 31
-0.0000000004074461
  0
ARC
  5
2A8
330
1F
100
AcDbEntity
  8
MODEL
  6
Continuous
100
AcDbCircle
 10
826.782006900601
 20
1836.448677965108
 30
-0.0000000333209666
 40
25.0
100
AcDbArc
 50
270.0
 51
0.0000000830751356
  0
LINE
  5
2A9
330
1F
100
AcDbEntity
  8
MODEL
  6
Continuous
100
AcDbLine
 10
471.5544428575748
 20
883.1432252754721
 30
-0.0000000063400464
 11
471.725529739302
 21
881.1877910492451
 31
-0.0000000063400464
  0
ARC
  5
2AA
330
1F
100
AcDbEntity
  8
MODEL
  6
Continuous
100
AcDbCircle
 10
474.7141126983678
 20
881.4492712526671
 30
-0.0000000063400464
 40
3.0
100
AcDbArc
 50
185.0002487542765
 51
270.0
  0
ARC
  5
2AB
330
1F
100
AcDbEntity
  8
MODEL
  6
Continuous
100
AcDbCircle
 10
465.5772769394433
 20
882.6202648686292
 30
-0.0000000063400464
 40
6.0
100
AcDbArc
 50
5.000248754289571
 51
87.36235633837644
  0
LINE
  5
2AC
330
1F
100
AcDbEntity
  8
MODEL
  6
Continuous
100
AcDbLine
 10
608.9468334785787
 20
842.4729179100189
 30
-0.0000000063400464
 11
544.4371805851086
 21
842.4729179100189
 31
-0.0000000063400464
  0
LINE
  5
2AD
330
1F
100
AcDbEntity
  8
MODEL
  6
Continuous
100
AcDbLine
 10
465.8533927861689
 20
888.6139081712611
 30
-0.0000000063400464
 11
411.7386737754204
 21
891.1068712498941
 31
-0.0000000063400464
  0
LINE
  5
2AE
330
1F
100
AcDbEntity
  8
MODEL
  6
Continuous
100
AcDbLine
 10
851.5854488449512
 20
1021.69741138086
 30
-0.0000000063400464
 11
851.0094317023321
 21
988.6974113808571
 31
-0.0000000063400464
  0
ARC
  5
2AF
330
1F
100
AcDbEntity
  8
MODEL
  6
Continuous
100
AcDbCircle
 10
845.5863626740128
 20
1021.802125819482
 30
-0.0000000063400464
 40
6.0
100
AcDbArc
 50
359.0000000000243
 51
90.0
  0
ARC
  5
2B0
330
1F
100
AcDbEntity
  8
MODEL
  6
Continuous
100
AcDbCircle
 10
845.0103455313937
 20
988.802125819479
 30
-0.0000000063400464
 40
6.0
100
AcDbArc
 50
270.0000000000086
 51
359.0000000000243
  0
LINE
  5
2B1
330
1F
100
AcDbEntity
  8
MODEL
  6
Continuous
100
AcDbLine
 10
365.4187891679193
 20
982.8440148854811
 30
-0.0000000063400464
 11
376.0647128568843
 21
922.4679814152212
 31
-0.0000000063400464
  0
ARC
  5
2B2
330
1F
100
AcDbEntity
  8
MODEL
  6
Continuous
100
AcDbCircle
 10
413.4874074713479
 20
929.066612166564
 30
-0.0000000063400464
 40
38.0
100
AcDbArc
 50
189.9999999999919
 51
267.3623563383783
  0
LINE
  5
2B3
330
1F
100
AcDbEntity
  8
MODEL
  6
Continuous
100
AcDbLine
 10
301.7985652187361
 20
1021.697411380858
 30
-0.0000000063400464
 11
302.3745823613552
 21
988.6974113808571
 31
-0.0000000063400464
  0
ARC
  5
2B4
330
1F
100
AcDbEntity
  8
MODEL
  6
Continuous
100
AcDbCircle
 10
308.3736685322937
 20
988.802125819479
 30
-0.0000000063400464
 40
6.0
100
AcDbArc
 50
180.9999999999757
 51
269.9999999999913
  0
LINE
  5
2B5
330
1F
100
AcDbEntity
  8
MODEL
  6
Continuous
100
AcDbLine
 10
308.3736685322928
 20
982.802125819479
 30
-0.0000000063400464
 11
845.0103455313946
 21
982.802125819479
 31
-0.0000000063400464
  0
LINE
  5
2B6
330
1F
100
AcDbEntity
  8
MODEL
  6
Continuous
100
AcDbLine
 10
845.5863626740128
 20
1027.802125819482
 30
-0.0000000063400464
 11
307.7976513896746
 21
1027.80212581948
 31
-0.0000000063400464
  0
ARC
  5
2B7
330
1F
100
AcDbEntity
  8
MODEL
  6
Continuous
100
AcDbCircle
 10
307.7976513896746
 20
1021.80212581948
 30
-0.0000000063400464
 40
6.0
100
AcDbArc
 50
90.0
 51
180.9999999999757
  0
LINE
  5
2B8
330
1F
100
AcDbEntity
  8
MODEL
  6
Continuous
100
AcDbLine
 10
787.9652248957672
 20
982.8440148854811
 30
-0.0000000063400464
 11
777.3193012068031
 21
922.4679814152212
 31
-0.0000000063400464
  0
LINE
  5
2B9
330
1F
100
AcDbEntity
  8
MODEL
  6
Continuous
100
AcDbLine
 10
474.7141126983678
 20
878.4492712526671
 30
-0.0000000063400464
 11
476.0432366583062
 21
878.4492712526671
 31
-0.0000000063400464
  0
LINE
  5
2BA
330
1F
100
AcDbEntity
  8
MODEL
  6
Continuous
100
AcDbLine
 10
476.0432366583062
 20
878.4492712526671
 30
-0.0000000063400464
 11
678.6699013653196
 21
878.4492712526671
 31
-0.0000000063400464
  0
LINE
  5
2BB
330
1F
100
AcDbEntity
  8
MODEL
  6
Continuous
100
AcDbLine
 10
681.8295712061125
 20
883.1432252754721
 30
-0.0000000063400464
 11
681.6584843243853
 21
881.1877910492451
 31
-0.0000000063400464
  0
ARC
  5
2BC
330
1F
100
AcDbEntity
  8
MODEL
  6
Continuous
100
AcDbCircle
 10
678.6699013653196
 20
881.4492712526671
 30
-0.0000000063400464
 40
3.0
100
AcDbArc
 50
270.0
 51
354.9997512457061
  0
ARC
  5
2BD
330
1F
100
AcDbEntity
  8
MODEL
  6
Continuous
100
AcDbCircle
 10
687.806737124244
 20
882.6202648686292
 30
-0.0000000063400464
 40
6.0
100
AcDbArc
 50
92.63764366158875
 51
174.9997512457104
  0
LINE
  5
2BE
330
1F
100
AcDbEntity
  8
MODEL
  6
Continuous
100
AcDbLine
 10
687.5306212775184
 20
888.6139081712611
 30
-0.0000000063400464
 11
741.645340288267
 21
891.1068712498941
 31
-0.0000000063400464
  0
ARC
  5
2BF
330
1F
100
AcDbEntity
  8
MODEL
  6
Continuous
100
AcDbCircle
 10
739.8966065923395
 20
929.066612166564
 30
-0.0000000063400464
 40
38.0
100
AcDbArc
 50
272.6376436615888
 51
349.9999999999949
  0
LWPOLYLINE
  5
2C0
330
1F
100
AcDbEntity
  8
MODEL
  6
Continuous
100
AcDbPolyline
 90
       37
 70
     0
 43
0.0
 38
-0.0000000063400464
 10
687.2535533575273
 20
888.5357917503511
 10
687.1320628790116
 20
888.5147346214451
 10
686.8525523809648
 20
888.4900764183201
 10
686.4158153204179
 20
888.4638313011321
 10
685.8228587774491
 20
888.4381965355071
 10
685.0749034551835
 20
888.4153083519141
 10
684.1733226446366
 20
888.3974250511321
 10
683.1195506719804
 20
888.3864387230071
 10
681.9152354864335
 20
888.3843024925391
 10
680.5620250372148
 20
888.3926643089451
 10
679.0615367559648
 20
888.4128059105071
 10
677.4156627325273
 20
888.4453986839451
 10
675.6262340215898
 20
888.4908698753511
 10
673.695386853621
 20
888.5492805198821
 10
671.6256541876054
 20
888.6201423362891
 10
669.4196300176835
 20
888.7029670433201
 10
667.080152478621
 20
888.7968391136321
 10
664.6102428106523
 20
888.9007819847261
 10
662.0133495001054
 20
889.0135749534761
 10
659.2931346563554
 20
889.1339973167571
 10
656.4532298711991
 20
889.2607063011321
 10
653.497632947371
 20
889.3923591331641
 10
650.4305247930741
 20
889.5274909691011
 10
647.2561168340898
 20
889.6647590355071
 10
643.9789561895585
 20
889.8025764183201
 10
640.6036815313554
 20
889.9397224144141
 10
637.1350536016679
 20
890.0746711448821
 10
633.5781078008866
 20
890.2062629417571
 10
629.9379100469804
 20
890.3333381370701
 10
626.2197093633866
 20
890.4547980980071
 10
622.4289073614335
 20
890.5697883323821
 10
618.5709666876054
 20
890.6773933128511
 10
614.6515636114335
 20
890.7769416526951
 10
610.676343884871
 20
890.8678840355071
 10
606.651197400496
 20
890.9496711448821
 10
602.5819530157304
 20
891.0219367698821
 10
598.4482860235429
 20
891.0846809105071
  0
LWPOLYLINE
  5
2C1
330
1F
100
AcDbEntity
  8
MODEL
  6
Continuous
100
AcDbPolyline
 90
       37
 70
     0
 43
0.0
 38
-0.0000000063400464
 10
466.1304759649491
 20
888.5357917503511
 10
466.2519664434648
 20
888.5147346214451
 10
466.5314769415116
 20
888.4900764183201
 10
466.9682445196366
 20
888.4638313011321
 10
467.5611858038163
 20
888.4381965355071
 10
468.309141126082
 20
888.4153083519141
 10
469.2107371954179
 20
888.3974250511321
 10
470.264478650496
 20
888.3864387230071
 10
471.4687938360429
 20
888.3842414573821
 10
472.8220348028398
 20
888.3926643089451
 10
474.3225078253007
 20
888.4128059105071
 10
475.9683818487382
 20
888.4453986839451
 10
477.7578258184648
 20
888.4908698753511
 10
479.6886577276445
 20
888.5492805198821
 10
481.758375134871
 20
888.6201423362891
 10
483.9643840460038
 20
888.7029670433201
 10
486.3038768438554
 20
888.7968391136321
 10
488.7737865118241
 20
888.9007819847261
 10
491.370679822371
 20
889.0135749534761
 10
494.090894666121
 20
889.1339973167571
 10
496.9307994512773
 20
889.2607063011321
 10
499.8863963751054
 20
889.3923591331641
 10
502.9535045294023
 20
889.5274909691011
 10
506.1279124883866
 20
889.6647590355071
 10
509.4050731329179
 20
889.8025764183201
 10
512.780347791121
 20
889.9397224144141
 10
516.2489757208085
 20
890.0746711448821
 10
519.8059215215898
 20
890.2062629417571
 10
523.4461497930741
 20
890.3333381370701
 10
527.1643504766679
 20
890.4547980980071
 10
530.955152478621
 20
890.5697883323821
 10
534.813062634871
 20
890.6773933128511
 10
538.732496228621
 20
890.7769416526951
 10
542.7076854376054
 20
890.8678840355071
 10
546.7328319219804
 20
890.9496711448821
 10
550.802076306746
 20
891.0219367698821
 10
554.9356822637773
 20
891.0846809105071
  0
LWPOLYLINE
  5
2C2
330
1F
100
AcDbEntity
  8
MODEL
  6
Continuous
100
AcDbPolyline
 90
        4
 70
     0
 43
0.0
 38
-0.0000000063400464
 10
554.9356822637773
 20
891.0846809105071
 10
560.9986705450273
 20
891.1597541526951
 10
567.1119212774491
 20
891.2248176292571
 10
576.6919994024491
 20
891.2694953636321
  0
LWPOLYLINE
  5
2C3
330
1F
100
AcDbEntity
  8
MODEL
  6
Continuous
100
AcDbPolyline
 90
        4
 70
     0
 43
0.0
 38
-0.0000000063400464
 10
598.4483317999101
 20
891.0846809105071
 10
592.3853435186601
 20
891.1597541526951
 10
586.2720927862382
 20
891.2248176292571
 10
576.6920146612382
 20
891.2694953636321
  0
LINE
  5
2C4
330
1F
100
AcDbEntity
  8
MODEL
  6
Continuous
100
AcDbLine
 10
541.4485964908334
 20
845.2114506817759
 30
-0.0000000063400464
 11
538.8906186446756
 21
878.4492712526671
 31
-0.0000000063400464
  0
ARC
  5
2C5
330
1F
100
AcDbEntity
  8
MODEL
  6
Continuous
100
AcDbCircle
 10
544.4371805851086
 20
845.4729179100189
 30
-0.0000000063400464
 40
3.0
100
AcDbArc
 50
184.9999999999998
 51
270.0
  0
LINE
  5
2C6
330
1F
100
AcDbEntity
  8
MODEL
  6
Continuous
100
AcDbLine
 10
611.9354175728539
 20
845.2114506817759
 30
-0.0000000063400464
 11
614.4933954190127
 21
878.4492712526671
 31
-0.0000000063400464
  0
ARC
  5
2C7
330
1F
100
AcDbEntity
  8
MODEL
  6
Continuous
100
AcDbCircle
 10
608.9468334785787
 20
845.4729179100189
 30
-0.0000000063400464
 40
3.0
100
AcDbArc
 50
270.0
 51
355.0000000000002
  0
MTEXT
  5
2C8
330
1F
100
AcDbEntity
  8
Dim
390
F
100
AcDbMText
 10
222.9036376385496
 20
1641.090584530466
 30
0.0
 40
24.4326171875
 41
840.5849911149594
 46
68.27975785302667
 71
     1
 72
     1
  1
{=φ30もしくはφ35の水栓取付用穴あけ加工を承ります。\P 必要な場合、ご注文の際にご指示ください。}
  7
ＭＳ ゴシック
 73
     1
 44
1.043768984567712
1001
ACAD
1000
ACAD_MTEXT_DEFINED_HEIGHT_BEGIN
1070
    46
1040
68.27975785302667
1000
ACAD_MTEXT_DEFINED_HEIGHT_END
  0
CIRCLE
  5
2C9
330
1F
100
AcDbEntity
  8
Dim
  6
STYLE_12
 48
50.0
390
F
100
AcDbCircle
 10
195.9886287535095
 20
1629.620185062415
 30
0.0
 40
17.49999999999955
  0
MTEXT
  5
2CA
330
1F
100
AcDbEntity
  8
Dim
390
F
100
AcDbMText
 10
803.6859473099131
 20
1133.082169250485
 30
-0.0000000056532416
 40
24.4326171875
 41
0.0
 46
0.0
 71
     1
 72
     1
  1
壁取付ボルト穴(2ヶ所)
  7
ＭＳ ゴシック
 73
     1
 44
0.7828267384257843
  0
LINE
  5
2CB
330
1F
100
AcDbEntity
  8
Dim
390
F
100
AcDbLine
 10
715.285728429203
 20
987.8021258194801
 30
-0.0000000056532416
 11
796.6618244159318
 21
1116.023585079388
 31
-0.0000000056532416
  0
MTEXT
  5
2CC
330
1F
100
AcDbEntity
  8
template
390
F
100
AcDbMText
 10
134.0821841792298
 20
210.7757450833861
 30
0.0
 40
24.4326171875
 41
0.0
 46
79.66300566589274
 71
     1
 72
     1
  1
{壁掛け/オーバーフロー付き/壁取付ボルト付属/\P陶器/ホワイト}
  7
ＭＳ ゴシック
 73
     1
 44
1.304711230709641
1001
ACAD
1000
ACAD_MTEXT_DEFINED_HEIGHT_BEGIN
1070
    46
1040
79.66300566589274
1000
ACAD_MTEXT_DEFINED_HEIGHT_END
  0
MTEXT
  5
2CD
330
1F
100
AcDbEntity
  8
template
390
F
100
AcDbMText
 10
134.7127607993067
 20
296.1298221830394
 30
0.0
 40
24.4326171875
 41
0.0
 46
0.0
 71
     1
 72
     1
  1
洗面器 -CATALANO,New Light-
  7
ＭＳ ゴシック
 73
     1
 44
0.7828267384257843
  0
DIMENSION
  5
2CE
330
1F
100
AcDbEntity
  8
Dim
100
AcDbDimension
  2
*D24
 10
851.7820069006001
 20
2432.549958269549
 30
-0.0000001562675229
 11
576.782006966222
 21
2450.549958269549
 31
-0.0000001562675229
 70
    32
 71
     5
 42
549.9999998687563
 73
     0
 74
     0
 75
     0
  3
tform線あり
100
AcDbAlignedDimension
 13
301.7820070318438
 23
2293.448677965108
 33
-0.000000000000003
 14
851.7820069006001
 24
2293.448677988261
 34
0.0000000319128062
100
AcDbRotatedDimension
1001
ACAD
1000
DSTYLE
1002
{
1070
   147
1040
6.0
1070
   140
1040
24.0
1070
    41
1040
10.0
1070
   179
1070
     0
1070
   271
1070
     0
1070
    43
1040
25.0
1070
    44
1040
0.0
1070
    42
1040
25.0
1002
}
  0
DIMENSION
  5
2CF
330
1F
100
AcDbEntity
  8
Dim
100
AcDbDimension
  2
*D25
 10
676.7149619737892
 20
2364.414737569634
 30
-0.0000001562675229
 11
626.7034845028164
 21
2382.414737569634
 31
-0.0000001562675229
 70
    32
 71
     5
 42
100.0229549419455
 73
     0
 74
     0
 75
     0
  3
tform線あり
100
AcDbAlignedDimension
 13
576.6920070318437
 23
2248.403232564328
 33
0.0000000009070761
 14
676.7149619737892
 24
2246.993232564326
 34
0.0000000009070761
100
AcDbRotatedDimension
1001
ACAD
1000
DSTYLE
1002
{
1070
   147
1040
6.0
1070
   140
1040
24.0
1070
    41
1040
10.0
1070
   179
1070
     0
1070
   271
1070
     0
1070
    43
1040
25.0
1070
    44
1040
0.0
1070
    42
1040
25.0
1002
}
  0
DIMENSION
  5
2D0
330
1F
100
AcDbEntity
  8
Dim
100
AcDbDimension
  2
*D26
 10
576.6920070318437
 20
2364.414737569634
 30
-0.0000001562675229
 11
526.7705295608711
 21
2382.414737569634
 31
-0.0000001562675229
 70
    32
 71
     5
 42
99.84295494194521
 73
     0
 74
     0
 75
     0
  3
tform線あり
100
AcDbAlignedDimension
 13
476.8490520898985
 23
2246.993232564326
 33
0.0000000009070761
 14
576.6920070318437
 24
2248.403232564328
 34
0.0000000009070761
100
AcDbRotatedDimension
1001
ACAD
1000
DSTYLE
1002
{
1070
   147
1040
6.0
1070
   140
1040
24.0
1070
    41
1040
10.0
1070
   179
1070
     0
1070
   271
1070
     0
1070
    43
1040
25.0
1070
    44
1040
0.0
1070
    42
1040
25.0
1002
}
  0
LINE
  5
2D1
330
1F
100
AcDbEntity
  8
MODEL
  6
Continuous
100
AcDbLine
 10
1521.236906507553
 20
852.922734281322
 30
-0.0000000019131648
 11
1557.036987251065
 21
862.5153370055081
 31
-0.0000000019131648
  0
LINE
  5
2D2
330
1F
100
AcDbEntity
  8
MODEL
  6
Continuous
100
AcDbLine
 10
1269.460391412638
 20
1027.802125819481
 30
-0.0000000019131648
 11
1225.656356599004
 21
1027.802125819481
 31
-0.0000000019131648
  0
ARC
  5
2D3
330
1F
100
AcDbEntity
  8
MODEL
  6
Continuous
100
AcDbCircle
 10
1225.656356599004
 20
1021.802125819481
 30
-0.0000000019131648
 40
6.0
100
AcDbArc
 50
90.0
 51
182.499999999966
  0
ARC
  5
2D4
330
1F
100
AcDbEntity
  8
MODEL
  6
STYLE_12
 48
50.0
100
AcDbCircle
 10
1269.460391412638
 20
1012.802125819481
 30
-0.0000000019131648
 40
15.0
100
AcDbArc
 50
23.00000000000027
 51
90.0
  0
LINE
  5
2D5
330
1F
100
AcDbEntity
  8
MODEL
  6
Continuous
100
AcDbLine
 10
1278.273669205515
 20
987.802125819479
 30
-0.0000000019131648
 11
1235.889855564852
 21
987.802125819479
 31
-0.0000000019131648
  0
ARC
  5
2D6
330
1F
100
AcDbEntity
  8
MODEL
  6
Continuous
100
AcDbCircle
 10
1278.273669205515
 20
981.802125819479
 30
-0.0000000019131648
 40
6.0
100
AcDbArc
 50
23.0000000000001
 51
90.0
  0
LINE
  5
2D7
330
1F
100
AcDbEntity
  8
MODEL
  6
STYLE_12
 48
50.0
100
AcDbLine
 10
1283.267964214425
 20
1018.66309274682
 30
-0.0000000019131648
 11
1325.542513478681
 21
919.0704958484971
 31
-0.0000000019131648
  0
ARC
  5
2D8
330
1F
100
AcDbEntity
  8
MODEL
  6
STYLE_12
 48
50.0
100
AcDbCircle
 10
1348.555134814992
 20
928.8387740607291
 30
-0.0000000019131648
 40
25.0
100
AcDbArc
 50
203.0000000000003
 51
266.0738924597544
  0
LINE
  5
2D9
330
1F
100
AcDbEntity
  8
MODEL
  6
STYLE_12
 48
50.0
100
AcDbLine
 10
1446.683432810472
 20
894.1624353069151
 30
-0.0000000019131648
 11
1456.67054778381
 21
885.7822508162621
 31
-0.0000000019131648
  0
LINE
  5
2DA
330
1F
100
AcDbEntity
  8
MODEL
  6
STYLE_12
 48
50.0
100
AcDbLine
 10
1457.741728040221
 20
883.5364747062151
 30
-0.0000000019131648
 11
1458.388674830569
 21
842.4729179100189
 31
-0.0000000019131648
  0
ARC
  5
2DB
330
1F
100
AcDbEntity
  8
MODEL
  6
Continuous
100
AcDbCircle
 10
1454.742184954752
 20
883.4841174869041
 30
-0.0000000019131648
 40
3.0
100
AcDbArc
 50
0.9999999999757105
 51
49.99999999996682
  0
LINE
  5
2DC
330
1F
100
AcDbEntity
  8
MODEL
  6
Continuous
100
AcDbLine
 10
1458.388674830569
 20
842.4729179100189
 30
-0.0000000019131648
 11
1449.133848515078
 21
842.4729179100189
 31
-0.0000000019131648
  0
ARC
  5
2DD
330
1F
100
AcDbEntity
  8
MODEL
  6
Continuous
100
AcDbCircle
 10
1449.133848515078
 20
845.4729179100189
 30
0.0000001692995805
 40
3.0
210
-1.243016692909174E-26
220
2.030000313191707E-10
230
1.0
100
AcDbArc
 50
184.9999999999735
 51
270.0
  0
LINE
  5
2DE
330
1F
100
AcDbEntity
  8
MODEL
  6
Continuous
100
AcDbLine
 10
1446.145264420803
 20
845.2114506817773
 30
-0.0000000022783704
 11
1443.552246038269
 21
878.4492712526671
 31
-0.0000000082532112
  0
LINE
  5
2DF
330
1F
100
AcDbEntity
  8
MODEL
  6
STYLE_12
 48
50.0
100
AcDbLine
 10
1516.879620348214
 20
894.8217188219262
 30
-0.0000000019131648
 11
1506.106801877326
 21
885.7822508162621
 31
-0.0000000019131648
  0
ARC
  5
2E0
330
1F
100
AcDbEntity
  8
MODEL
  6
STYLE_12
 48
50.0
100
AcDbCircle
 10
1508.035164706384
 20
883.4841174869041
 30
-0.0000000019131648
 40
3.0
100
AcDbArc
 50
130.0000000000426
 51
179.0000000000243
  0
LINE
  5
2E1
330
1F
100
AcDbEntity
  8
MODEL
  6
STYLE_12
 48
50.0
100
AcDbLine
 10
1505.035621620916
 20
883.5364747062151
 30
-0.0000000019131648
 11
1504.388674830569
 21
842.4729179100189
 31
-0.0000000019131648
  0
LINE
  5
2E2
330
1F
100
AcDbEntity
  8
MODEL
  6
Continuous
100
AcDbLine
 10
1504.388674830569
 20
842.4729179100189
 30
-0.0000000019131648
 11
1513.173248403459
 21
842.4729179100189
 31
-0.0000000019131648
  0
LINE
  5
2E3
330
1F
100
AcDbEntity
  8
MODEL
  6
STYLE_12
 48
50.0
100
AcDbLine
 10
1568.190721969454
 20
1014.109461960696
 30
-0.0000000019131648
 11
1567.431696993239
 21
1005.43376678347
 31
-0.0000000019131648
  0
LINE
  5
2E4
330
1F
100
AcDbEntity
  8
MODEL
  6
STYLE_12
 48
50.0
100
AcDbLine
 10
1565.339959167294
 20
981.525094029269
 30
-0.0000000019131648
 11
1560.277879381295
 21
923.6652573145532
 31
-0.0000000019131648
  0
ARC
  5
2E5
330
1F
100
AcDbEntity
  8
MODEL
  6
STYLE_12
 48
50.0
100
AcDbCircle
 10
1535.373011929
 20
925.8441508832441
 30
-0.0000000019131648
 40
25.0
100
AcDbArc
 50
281.1463770558495
 51
354.9999999999217
  0
ARC
  5
2E6
330
1F
100
AcDbEntity
  8
MODEL
  6
Continuous
100
AcDbCircle
 10
1544.096034995948
 20
910.8116283199631
 30
-0.0000000019131648
 40
50.0
100
AcDbArc
 50
284.9999999999944
 51
342.9133534306281
  0
ARC
  5
2E7
330
1F
100
AcDbEntity
  8
MODEL
  6
Continuous
100
AcDbCircle
 10
1696.388674830569
 20
1024.802125819479
 30
-0.0000000019131648
 40
3.0
100
AcDbArc
 50
0.0
 51
90.0
  0
LINE
  5
2E8
330
1F
100
AcDbEntity
  8
MODEL
  6
Continuous
100
AcDbLine
 10
1696.388674830569
 20
1027.802125819479
 30
-0.0000000019131648
 11
1583.13364244083
 21
1027.802125819481
 31
-0.0000000019131648
  0
ARC
  5
2E9
330
1F
100
AcDbEntity
  8
MODEL
  6
STYLE_12
 48
50.0
100
AcDbCircle
 10
1583.13364244083
 20
1012.802125819481
 30
-0.0000000019131648
 40
15.0
100
AcDbArc
 50
90.0
 51
174.9999999999218
  0
LINE
  5
2EA
330
1F
100
AcDbEntity
  8
MODEL
  6
Continuous
100
AcDbLine
 10
1219.662067269512
 20
1021.540409495289
 30
-0.0000000019131648
 11
1221.102878385492
 21
988.5404094952892
 31
-0.0000000019131648
  0
LINE
  5
2EB
330
1F
100
AcDbEntity
  8
MODEL
  6
Continuous
100
AcDbLine
 10
1458.388674830569
 20
842.4729179100189
 30
-0.0000000019131648
 11
1504.388674830569
 21
842.4729179100189
 31
-0.0000000019131648
  0
LINE
  5
2EC
330
1F
100
AcDbEntity
  8
MODEL
  6
STYLE_12
 48
50.0
100
AcDbLine
 10
1540.20591676326
 20
901.315738157122
 30
-0.0000000019131648
 11
1523.621691592959
 21
898.048099810813
 31
-0.0000000019131648
  0
ARC
  5
2ED
330
1F
100
AcDbEntity
  8
MODEL
  6
STYLE_12
 48
50.0
100
AcDbCircle
 10
1526.521434493514
 20
883.3310521751412
 30
-0.0000000019131648
 40
15.0
100
AcDbArc
 50
101.1463770558503
 51
130.0000000000326
  0
LINE
  5
2EE
330
1F
100
AcDbEntity
  8
MODEL
  6
STYLE_12
 48
50.0
100
AcDbLine
 10
1438.068667029243
 20
897.636566408775
 30
-0.0000000019131648
 11
1346.843387541543
 21
903.8974444796552
 31
-0.0000000019131648
  0
ARC
  5
2EF
330
1F
100
AcDbEntity
  8
MODEL
  6
STYLE_12
 48
50.0
100
AcDbCircle
 10
1437.041618665175
 20
882.6717686601312
 30
-0.0000000019131648
 40
15.0
100
AcDbArc
 50
49.99999999996982
 51
86.07389245975583
  0
LINE
  5
2F0
330
1F
100
AcDbEntity
  8
MODEL
  6
Continuous
100
AcDbLine
 10
1227.097167714983
 20
982.802125819481
 30
-0.0000000019131648
 11
1229.603750197666
 21
982.802125819481
 31
-0.0000000019131648
  0
ARC
  5
2F1
330
1F
100
AcDbEntity
  8
MODEL
  6
Continuous
100
AcDbCircle
 10
1227.097167714983
 20
988.802125819481
 30
-0.0000000019131648
 40
6.0
100
AcDbArc
 50
182.499999999966
 51
270.0
  0
ARC
  5
2F2
330
1F
100
AcDbEntity
  8
MODEL
  6
Continuous
100
AcDbCircle
 10
1229.603750197665
 20
985.8175524616502
 30
-0.0000000019131648
 40
3.0
100
AcDbArc
 50
270.0
 51
350.2564954234757
  0
ARC
  5
2F3
330
1F
100
AcDbEntity
  8
MODEL
  6
Continuous
100
AcDbCircle
 10
1235.517201705404
 20
984.802125819479
 30
-0.0000000019131648
 40
3.0
100
AcDbArc
 50
90.0
 51
170.2564954234757
  0
LINE
  5
2F4
330
1F
100
AcDbEntity
  8
MODEL
  6
Continuous
100
AcDbLine
 10
1269.460391412638
 20
1027.802125819481
 30
-0.0000000019131648
 11
1583.13364244083
 21
1027.802125819481
 31
-0.0000000019131648
  0
LINE
  5
2F5
330
1F
100
AcDbEntity
  8
MODEL
  6
Continuous
100
AcDbLine
 10
1283.79669832623
 20
984.1465125904151
 30
-0.0000000019131648
 11
1313.491645410747
 21
914.1896012483521
 31
-0.0000000019131648
  0
ARC
  5
2F6
330
1F
100
AcDbEntity
  8
MODEL
  6
Continuous
100
AcDbCircle
 10
1348.470829841939
 20
929.0373841309452
 30
-0.0000000019131648
 40
38.0
100
AcDbArc
 50
203.0000000000003
 51
263.6657905911021
  0
ARC
  5
2F7
330
1F
100
AcDbEntity
  8
MODEL
  6
Continuous
100
AcDbCircle
 10
1343.616408727383
 20
885.3059927096501
 30
-0.0000000019131648
 40
6.0
100
AcDbArc
 50
5.000345770239613
 51
83.66579059110707
  0
LINE
  5
2F8
330
1F
100
AcDbEntity
  8
MODEL
  6
Continuous
100
AcDbLine
 10
1650.111699985262
 20
1018.802125819481
 30
-0.0000000082532112
 11
1650.111699985262
 21
1027.80212581948
 31
-0.0000000019131648
  0
LINE
  5
2F9
330
1F
100
AcDbEntity
  8
MODEL
  6
Continuous
100
AcDbLine
 10
1618.111699985262
 20
1027.80212581948
 30
-0.0000000019131648
 11
1618.111699985262
 21
1018.802125819481
 31
-0.0000000082532112
  0
LINE
  5
2FA
330
1F
100
AcDbEntity
  8
MODEL
  6
Continuous
100
AcDbLine
 10
1591.889110909401
 20
896.1207503771411
 30
-0.0000000019131648
 11
1696.388674830569
 21
896.1207503771411
 31
-0.0000000020903141
  0
LINE
  5
2FB
330
1F
100
AcDbEntity
  8
MODEL
  6
Continuous
100
AcDbLine
 10
1699.388674830569
 20
969.988959261477
 30
-0.0000000019131648
 11
1699.388674830569
 21
899.1207503771411
 31
-0.0000000019131648
  0
ARC
  5
2FC
330
1F
100
AcDbEntity
  8
MODEL
  6
Continuous
100
AcDbCircle
 10
1696.388674830569
 20
899.1207503771411
 30
0.0000001397277242
 40
3.0
100
AcDbArc
 50
270.0000040455065
 51
0.0000045709597915
  0
LINE
  5
2FD
330
1F
100
AcDbEntity
  8
MODEL
  6
Continuous
100
AcDbLine
 10
1699.388674830569
 20
969.988959261477
 30
-0.0000000019131648
 11
1699.388674830569
 21
1024.802125819479
 31
-0.0000000019131648
  0
LINE
  5
2FE
330
1F
100
AcDbEntity
  8
MODEL
  6
STYLE_12
100
AcDbLine
 10
1519.255408130127
 20
896.4537371476051
 30
-0.0000000019131648
 11
1442.693995559645
 21
896.4537371476051
 31
-0.0000000082532112
  0
LINE
  5
2FF
330
1F
100
AcDbEntity
  8
MODEL
  6
STYLE_12
 48
50.0
100
AcDbLine
 10
1505.046565706913
 20
884.7073872407091
 30
-0.0000000019131648
 11
1457.730783954225
 21
884.7073872407091
 31
-0.0000000019131648
  0
LINE
  5
300
330
1F
100
AcDbEntity
  8
MODEL
  6
Continuous
100
AcDbLine
 10
1349.593573760006
 20
885.8289632373171
 30
-0.0000000019131648
 11
1349.999652377776
 21
881.1877859888341
 31
-0.0000000082532112
  0
ARC
  5
301
330
1F
100
AcDbEntity
  8
MODEL
  6
Continuous
100
AcDbCircle
 10
1352.988234894087
 20
881.4492712526671
 30
-0.0000000082532112
 40
3.0
100
AcDbArc
 50
185.0003457702396
 51
270.0
  0
LINE
  5
302
330
1F
100
AcDbEntity
  8
MODEL
  6
Continuous
100
AcDbLine
 10
1354.437937526554
 20
878.4492712526671
 30
-0.0000000082532112
 11
1352.988234894087
 21
878.4492712526671
 31
-0.0000000082532112
  0
LINE
  5
303
330
1F
100
AcDbEntity
  8
MODEL
  6
Continuous
100
AcDbLine
 10
1354.437937526554
 20
878.4492712526671
 30
-0.0000000082532112
 11
1443.588510128156
 21
878.4492712526671
 31
-0.0000000082532112
  0
ARC
  5
304
330
1F
100
AcDbEntity
  8
MODEL
  6
Continuous
100
AcDbCircle
 10
1525.725313209544
 20
840.6535369241932
 30
-0.0000000019131648
 40
13.0644172664022
100
AcDbArc
 50
110.0938965907224
 51
138.5232974623593
  0
ARC
  5
305
330
1F
100
AcDbEntity
  8
MODEL
  6
Continuous
100
AcDbCircle
 10
1513.173248403459
 20
845.4729179100189
 30
-0.0000000019131648
 40
3.0
100
AcDbArc
 50
270.0
 51
337.1156798157812
  0
LINE
  5
306
330
1F
100
AcDbEntity
  8
MODEL
  6
STYLE_12
 48
50.0
100
AcDbLine
 10
1565.339959167296
 20
981.525094029269
 30
0.0000000076274033
 11
1575.301906148215
 21
980.6535366017911
 31
0.0000000076274033
  0
LINE
  5
307
330
1F
100
AcDbEntity
  8
MODEL
  6
STYLE_12
 48
50.0
100
AcDbLine
 10
1577.393643974157
 20
1004.562209355993
 30
0.0000000076274033
 11
1567.431696993242
 21
1005.43376678347
 31
0.0000000076274033
  0
LINE
  5
308
330
1F
100
AcDbEntity
  8
MODEL
  6
STYLE_12
 48
50.0
100
AcDbLine
 10
1565.339959167294
 20
981.525094029269
 30
0.0000000076274033
 11
1567.431696993239
 21
1005.43376678347
 31
-0.0000000019131648
  0
DIMENSION
  5
309
330
1F
100
AcDbEntity
  8
Dim
100
AcDbDimension
  2
*D27
 10
964.1045118412009
 20
1811.448677965108
 30
-0.0000001562675229
 11
946.1045118412009
 21
2053.948677965108
 31
-0.0000001562675229
 70
    32
 71
     5
 42
485.0
 73
     0
 74
     0
 75
     0
  3
tform線あり
100
AcDbAlignedDimension
 13
848.7820069006001
 23
2296.448677965108
 33
0.0000000319217404
 14
826.782006900601
 24
1811.448677965108
 34
-0.0000000333209666
 50
90.0
100
AcDbRotatedDimension
1001
ACAD
1000
DSTYLE
1002
{
1070
   147
1040
6.0
1070
   140
1040
24.0
1070
    41
1040
10.0
1070
   179
1070
     0
1070
   271
1070
     0
1070
    43
1040
25.0
1070
    44
1040
0.0
1070
    42
1040
25.0
1002
}
  0
ARC
  5
30A
330
1F
100
AcDbEntity
  8
MODEL
  6
STYLE_12
 48
50.0
100
AcDbCircle
 10
1508.03516470638
 20
883.4841174869082
 30
-0.0000000019131648
 40
2.999999999994392
100
AcDbArc
 50
129.9999999999624
 51
179.0000000000528
  0
LINE
  5
30B
330
1F
100
AcDbEntity
  8
MODEL
  6
STYLE_12
 48
50.0
100
AcDbLine
 10
1506.106801877326
 20
885.7822508162621
 30
-0.0000000019131648
 11
1516.879620348214
 21
894.8217188219262
 31
-0.0000000019131648
  0
ARC
  5
30C
330
1F
100
AcDbEntity
  8
MODEL
  6
STYLE_12
 48
50.0
100
AcDbCircle
 10
1526.521434493509
 20
883.3310521751441
 30
-0.0000000019131648
 40
14.99999999999541
100
AcDbArc
 50
101.146377055836
 51
129.9999999999997
  0
LINE
  5
30D
330
1F
100
AcDbEntity
  8
MODEL
  6
Continuous
390
F
100
AcDbLine
 10
435.2616302983591
 20
967.8345857901602
 30
-0.0000000056532416
 11
435.2616302983591
 21
1007.834585790159
 31
-0.0000000056532416
  0
LINE
  5
30E
330
1F
100
AcDbEntity
  8
MODEL
  6
Continuous
390
F
100
AcDbLine
 10
455.261630298361
 20
987.8345857901602
 30
-0.0000000056532416
 11
415.261630298361
 21
987.8345857901602
 31
-0.0000000056532416
  0
CIRCLE
  5
30F
330
1F
100
AcDbEntity
  8
MODEL
  6
Continuous
390
F
100
AcDbCircle
 10
435.261630298361
 20
987.8021258194801
 30
-0.0000000056532416
 40
10.0
  0
LINE
  5
310
330
1F
100
AcDbEntity
  8
MODEL
  6
Continuous
390
F
100
AcDbLine
 10
715.2857284292012
 20
967.8345857901602
 30
-0.0000000056532416
 11
715.2857284292012
 21
1007.834585790159
 31
-0.0000000056532416
  0
LINE
  5
311
330
1F
100
AcDbEntity
  8
MODEL
  6
Continuous
390
F
100
AcDbLine
 10
735.285728429203
 20
987.8345857901602
 30
-0.0000000056532416
 11
695.285728429203
 21
987.8345857901602
 31
-0.0000000056532416
  0
CIRCLE
  5
312
330
1F
100
AcDbEntity
  8
MODEL
  6
Continuous
390
F
100
AcDbCircle
 10
715.285728429203
 20
987.8021258194801
 30
-0.0000000056532416
 40
10.0
  0
DIMENSION
  5
313
330
1F
100
AcDbEntity
  8
Dim
100
AcDbDimension
  2
*D28
 10
715.2857284292012
 20
1114.657475646495
 30
-0.0000001574938798
 11
575.2736793637802
 21
1132.657475646495
 31
-0.0000001574938798
 70
    32
 71
     5
 42
280.0240981308421
 73
     0
 74
     0
 75
     0
  3
tform線あり
100
AcDbAlignedDimension
 13
435.2616302983591
 23
1007.834585790159
 33
-0.0000000056532416
 14
715.2857284292012
 24
1007.834585790159
 34
-0.0000000056532416
100
AcDbRotatedDimension
1001
ACAD
1000
DSTYLE
1002
{
1070
   147
1040
6.0
1070
   140
1040
24.0
1070
    41
1040
10.0
1070
   179
1070
     0
1070
   271
1070
     0
1070
    43
1040
25.0
1070
    44
1040
0.0
1070
    42
1040
25.0
1002
}
  0
DIMENSION
  5
314
330
1F
100
AcDbEntity
  8
Dim
100
AcDbDimension
  2
*D29
 10
200.3445839981763
 20
1027.80212581948
 30
-0.0000001574938798
 11
182.3445839981763
 21
1007.81835580482
 31
-0.0000001574938798
 70
    32
 71
     5
 42
39.96754002931993
 73
     0
 74
     1
 75
     1
  3
tform線あり
100
AcDbAlignedDimension
 13
415.261630298361
 23
987.8345857901602
 33
-0.0000000056532416
 14
307.7976513896746
 24
1027.80212581948
 34
-0.0000000063400464
 50
90.0
100
AcDbRotatedDimension
1001
ACAD
1000
DSTYLE
1002
{
1070
   147
1040
6.0
1070
   140
1040
24.0
1070
    41
1040
10.0
1070
   179
1070
     0
1070
   271
1070
     0
1070
    43
1040
25.0
1070
    44
1040
0.0
1070
    42
1040
25.0
1002
}
  0
DIMENSION
  5
315
330
1F
100
AcDbEntity
  8
Dim
100
AcDbDimension
  2
*D30
 10
958.4800440685214
 20
842.4729179100189
 30
-0.0000001574938798
 11
940.4800440685214
 21
935.1375218647505
 31
-0.0000001574938798
 70
    32
 71
     5
 42
185.3292079094633
 73
     0
 74
     0
 75
     0
  3
tform線あり
100
AcDbAlignedDimension
 13
845.5863626740128
 23
1027.802125819482
 33
-0.0000000063400464
 14
608.9468334785787
 24
842.4729179100189
 34
-0.0000000063400464
 50
90.0
100
AcDbRotatedDimension
1001
ACAD
1000
DSTYLE
1002
{
1070
   147
1040
6.0
1070
   140
1040
24.0
1070
    41
1040
10.0
1070
   179
1070
     0
1070
   271
1070
     0
1070
    43
1040
25.0
1070
    44
1040
0.0
1070
    42
1040
25.0
1002
}
  0
DIMENSION
  5
316
330
1F
100
AcDbEntity
  8
Dim
100
AcDbDimension
  2
*D31
 10
1131.361296548355
 20
982.802125819481
 30
-0.0000000063400464
 11
1113.361296548355
 21
1005.302125819481
 31
-0.0000000063400464
 70
    32
 71
     5
 42
45.0
 73
     0
 74
     0
 75
     0
  3
tform線あり
100
AcDbAlignedDimension
 13
1225.656356599004
 23
1027.802125819481
 33
-0.0000000019131648
 14
1228.350458956325
 24
982.802125819481
 34
-0.0000000019131648
 50
90.0
100
AcDbRotatedDimension
1001
ACAD
1000
DSTYLE
1002
{
1070
   147
1040
6.0
1070
   140
1040
24.0
1070
    41
1040
10.0
1070
   179
1070
     0
1070
   271
1070
     0
1070
    43
1040
25.0
1070
    44
1040
0.0
1070
    42
1040
25.0
1002
}
  0
DIMENSION
  5
317
330
1F
100
AcDbEntity
  8
Dim
100
AcDbDimension
  2
*D32
 10
1131.361296548355
 20
887.4492712526671
 30
-0.0000000063400464
 11
1113.361296548355
 21
935.1256985360741
 31
-0.0000000063400464
 70
    32
 71
     5
 42
95.35285456681389
 73
     0
 74
     0
 75
     0
  3
tform線あり
100
AcDbAlignedDimension
 13
1228.350458956325
 23
982.802125819481
 33
-0.0000000019131648
 14
1354.437937526554
 24
887.4492712526671
 34
-0.0000000082532112
 50
90.0
100
AcDbRotatedDimension
1001
ACAD
1000
DSTYLE
1002
{
1070
   147
1040
6.0
1070
   140
1040
24.0
1070
    41
1040
10.0
1070
   179
1070
     0
1070
   271
1070
     0
1070
    43
1040
25.0
1070
    44
1040
0.0
1070
    42
1040
25.0
1002
}
  0
DIMENSION
  5
318
330
1F
100
AcDbEntity
  8
Dim
100
AcDbDimension
  2
*D33
 10
1479.388674830569
 20
784.4422634819678
 30
-0.0000000063400464
 11
1589.388674830569
 21
802.4422634819678
 31
-0.0000000063400464
 70
    32
 71
     5
 42
220.0
 73
     0
 74
     0
 75
     0
  3
tform線あり
100
AcDbAlignedDimension
 13
1699.388674830569
 23
894.1207506164751
 33
0.0000001399048734
 14
1479.388674830569
 24
842.4729179100189
 34
-0.0000000019131648
100
AcDbRotatedDimension
1001
ACAD
1000
DSTYLE
1002
{
1070
   147
1040
6.0
1070
   140
1040
24.0
1070
    41
1040
10.0
1070
   179
1070
     0
1070
   271
1070
     0
1070
    43
1040
25.0
1070
    44
1040
0.0
1070
    42
1040
25.0
1002
}
  0
DIMENSION
  5
319
330
1F
100
AcDbEntity
  8
Dim
100
AcDbDimension
  2
*D34
 10
200.3445839981763
 20
2166.448677965108
 30
0.0
 11
178.1282754044263
 21
2231.448677965108
 31
0.0
 70
    32
 71
     5
 42
130.0
 73
     0
 74
     0
 75
     0
  3
JIS
100
AcDbAlignedDimension
 13
304.7820070318438
 23
2296.448677965108
 33
0.0000000000090984
 14
301.7820070318438
 24
2166.448677965108
 34
0.0000000003730441
 50
90.0
100
AcDbRotatedDimension
1001
ACAD
1000
DSTYLE
1002
{
1070
   179
1070
     0
1070
   271
1070
     0
1070
    43
1040
25.0
1070
    44
1040
0.0
1070
    42
1040
25.0
1002
}
  0
DIMENSION
  5
31A
330
1F
100
AcDbEntity
  8
Dim
100
AcDbDimension
  2
*D35
 10
200.3445839981763
 20
1876.448677965108
 30
0.0
 11
178.1282754044263
 21
2021.448677965108
 31
0.0
 70
    32
 71
     5
 42
290.0
 73
     0
 74
     0
 75
     0
  3
JIS
100
AcDbAlignedDimension
 13
301.7820070318438
 23
2166.448677965108
 33
0.0
 14
301.7820070318438
 24
1876.448677965108
 34
0.0
 50
90.0
100
AcDbRotatedDimension
1001
ACAD
1000
DSTYLE
1002
{
1070
   179
1070
     0
1070
   271
1070
     0
1070
    43
1040
25.0
1070
    44
1040
0.0
1070
    42
1040
25.0
1002
}
  0
DIMENSION
  5
31B
330
1F
100
AcDbEntity
  8
Dim
100
AcDbDimension
  2
*D36
 10
781.7820069006001
 20
1723.1276084953
 30
0.0
 11
576.782006966222
 21
1745.34391708905
 31
0.0
 70
    32
 71
     5
 42
409.9999998687563
 73
     0
 74
     0
 75
     0
  3
JIS
100
AcDbAlignedDimension
 13
371.7820070318438
 23
1906.448677965112
 33
-0.0000000306715144
 14
781.7820069006001
 24
1906.448677976293
 34
-0.0000000125895716
100
AcDbRotatedDimension
1001
ACAD
1000
DSTYLE
1002
{
1070
   179
1070
     0
1070
   271
1070
     0
1070
    43
1040
25.0
1070
    44
1040
0.0
1070
    42
1040
25.0
1002
}
  0
DIMENSION
  5
31C
330
1F
100
AcDbEntity
  8
Dim
100
AcDbDimension
  2
*D37
 10
1634.388674830569
 20
1114.125595057918
 30
-0.0000000063400464
 11
1666.888674830569
 21
1136.341903651668
 31
-0.0000000063400464
 70
    32
 71
     5
 42
65.0
 73
     0
 74
     0
 75
     0
  3
JIS
100
AcDbAlignedDimension
 13
1699.388674830569
 23
1024.802125819479
 33
-0.0000000019131648
 14
1634.388674830569
 24
1024.802125819479
 34
-0.0000000019131648
100
AcDbRotatedDimension
1001
ACAD
1000
DSTYLE
1002
{
1070
   179
1070
     0
1070
   271
1070
     0
1070
    43
1040
25.0
1070
    44
1040
0.0
1070
    42
1040
25.0
1002
}
  0
LINE
  5
31D
330
1F
100
AcDbEntity
  8
MODEL
  6
Continuous
100
AcDbLine
 10
1515.937123984798
 20
844.306302390288
 30
-0.0000000019131648
 11
1515.937123984798
 21
849.306302390288
 31
-0.0000000019131648
  0
DIMENSION
  5
31E
330
1F
100
AcDbEntity
  8
Dim
100
AcDbDimension
  2
*D38
 10
1467.017774357942
 20
1027.802125819481
 30
-0.0000000063400464
 11
1467.017774357942
 21
1121.990085780419
 31
-0.0000000063400464
 70
   160
 71
     5
 42
130.348439135375
 73
     0
 74
     1
 75
     1
  3
JIS
100
AcDbAlignedDimension
 13
1480.984747961201
 23
897.4536866841061
 33
-0.000000005083188
 14
1480.974701844886
 24
1027.802125819481
 34
-0.0000000019131648
 50
90.0
100
AcDbRotatedDimension
1001
ACAD
1000
DSTYLE
1002
{
1070
   172
1070
     1
1070
   290
1070
     1
1070
     3
1000
<>(深さ)
1070
   179
1070
     0
1070
   271
1070
     0
1070
    43
1040
25.0
1070
    44
1040
0.0
1070
    42
1040
25.0
1002
}
  0
ARC
  5
31F
330
1F
100
AcDbEntity
  8
MODEL
  6
Continuous
100
AcDbCircle
 10
848.7820069006001
 20
2293.448677965108
 30
0.0000000319304662
 40
3.0
100
AcDbArc
 50
0.0
 51
90.0
  0
MTEXT
  5
320
330
1F
100
AcDbEntity
  8
template
390
F
100
AcDbMText
 10
1331.08218417949
 20
208.1042086477944
 30
0.0
 40
24.4326171875
 41
0.0
 46
24.4326171875
 71
     1
 72
     1
  1
{16kg}
  7
ＭＳ ゴシック
 73
     1
 44
0.7828267384257843
1001
ACAD
1000
ACAD_MTEXT_DEFINED_HEIGHT_BEGIN
1070
    46
1040
24.4326171875
1000
ACAD_MTEXT_DEFINED_HEIGHT_END
  0
MTEXT
  5
321
330
1F
100
AcDbEntity
  8
template
390
F
100
AcDbMText
 10
1582.596747271966
 20
208.1042086477944
 30
0.0
 40
24.4326171875
 41
0.0
 46
24.4326171875
 71
     1
 72
     1
  1
{9L}
  7
ＭＳ ゴシック
 73
     1
 44
0.7828267384257843
1001
ACAD
1000
ACAD_MTEXT_DEFINED_HEIGHT_BEGIN
1070
    46
1040
24.4326171875
1000
ACAD_MTEXT_DEFINED_HEIGHT_END
  0
LINE
  5
419
330
1F
100
AcDbEntity
  8
MODEL
  6
STYLE_12
 48
50.0
100
AcDbLine
 10
541.9867650117466
 20
894.1624353069151
 30
-0.0000000063400464
 11
551.9738799850846
 21
885.7822508162621
 31
-0.0000000063400464
  0
LINE
  5
41A
330
1F
100
AcDbEntity
  8
MODEL
  6
STYLE_12
 48
50.0
100
AcDbLine
 10
553.0450602414957
 20
883.5364747062151
 30
-0.0000000063400464
 11
553.6920070318437
 21
842.4729179100189
 31
-0.0000000063400464
  0
ARC
  5
41B
330
1F
100
AcDbEntity
  8
MODEL
  6
Continuous
100
AcDbCircle
 10
550.0455171560267
 20
883.4841174869041
 30
-0.0000000063400464
 40
3.0
100
AcDbArc
 50
0.9999999999757105
 51
49.99999999996682
  0
LINE
  5
41C
330
1F
100
AcDbEntity
  8
MODEL
  6
STYLE_12
 48
50.0
100
AcDbLine
 10
612.1829525494887
 20
894.8217188219262
 30
-0.0000000063400464
 11
601.4101340786007
 21
885.7822508162621
 31
-0.0000000063400464
  0
ARC
  5
41D
330
1F
100
AcDbEntity
  8
MODEL
  6
STYLE_12
 48
50.0
100
AcDbCircle
 10
603.3384969076586
 20
883.4841174869041
 30
-0.0000000063400464
 40
3.0
100
AcDbArc
 50
130.0000000000426
 51
179.0000000000243
  0
LINE
  5
41E
330
1F
100
AcDbEntity
  8
MODEL
  6
STYLE_12
 48
50.0
100
AcDbLine
 10
600.3389538221905
 20
883.5364747062151
 30
-0.0000000063400464
 11
599.6920070318437
 21
842.4729179100189
 31
-0.0000000063400464
  0
LINE
  5
41F
330
1F
100
AcDbEntity
  8
MODEL
  6
STYLE_12
 48
50.0
100
AcDbLine
 10
600.3498979081877
 20
884.7073872407091
 30
-0.0000000063400464
 11
553.0341161554996
 21
884.7073872407091
 31
-0.0000000063400464
  0
ARC
  5
420
330
1F
100
AcDbEntity
  8
MODEL
  6
STYLE_12
 48
50.0
100
AcDbCircle
 10
603.3384969076548
 20
883.4841174869082
 30
-0.0000000063400464
 40
2.999999999994392
100
AcDbArc
 50
129.9999999999624
 51
179.0000000000528
  0
LINE
  5
421
330
1F
100
AcDbEntity
  8
MODEL
  6
STYLE_12
 48
50.0
100
AcDbLine
 10
601.4101340786007
 20
885.7822508162621
 30
-0.0000000063400464
 11
612.1829525494887
 21
894.8217188219262
 31
-0.0000000063400464
  0
ARC
  5
422
330
1F
100
AcDbEntity
  8
MODEL
  6
STYLE_12
 48
50.0
100
AcDbCircle
 10
532.3449508664497
 20
882.6717686601312
 30
-0.0000000063400464
 40
15.0
100
AcDbArc
 50
49.99999999996982
 51
86.07389245975581
  0
ARC
  5
423
330
1F
100
AcDbEntity
  8
MODEL
  6
STYLE_12
 48
50.0
100
AcDbCircle
 10
723.0330313042324
 20
925.8441508832441
 30
-0.0000000063563708
 40
25.0
100
AcDbArc
 50
281.1463770558496
 51
354.9999999999217
  0
LINE
  5
424
330
1F
100
AcDbEntity
  8
MODEL
  6
STYLE_12
 48
50.0
100
AcDbLine
 10
766.8390864292257
 20
1014.109461960716
 30
-0.0000000063563708
 11
747.937898756523
 21
923.6652573145186
 31
-0.0000000063563708
  0
ARC
  5
427
330
1F
100
AcDbEntity
  8
MODEL
  6
STYLE_12
 48
50.0
100
AcDbCircle
 10
781.7820069006001
 20
1012.802125819481
 30
-0.0000000063563708
 40
15.0
100
AcDbArc
 50
90.0
 51
174.9999999999218
  0
ARC
  5
428
330
1F
100
AcDbEntity
  8
MODEL
  6
STYLE_12
 48
50.0
100
AcDbCircle
 10
621.0390631972376
 20
882.6717686601312
 30
-0.0000000063400464
 40
15.0
100
AcDbArc
 50
93.9261075402442
 51
130.0000000000302
  0
LINE
  5
429
330
1F
100
AcDbEntity
  8
0
  6
STYLE_12
 48
50.0
100
AcDbLine
 10
620.012014833167
 20
897.6365664087765
 30
-0.0000000063400464
 11
727.8659361384917
 21
901.3157381571219
 31
-0.0000000063563708
  0
LINE
  5
42E
330
1F
100
AcDbEntity
  8
0
  6
STYLE_12
 48
50.0
100
AcDbLine
 10
533.3719992305204
 20
897.6365664087765
 30
-0.0000000063400464
 11
425.5180779251956
 21
901.3157381571219
 31
-0.0000000063563708
  0
ARC
  5
42F
330
1F
100
AcDbEntity
  8
MODEL
  6
STYLE_12
 48
50.0
100
AcDbCircle
 10
430.350982759455
 20
925.8441508832441
 30
-0.0000000063563708
 40
25.0
100
AcDbArc
 50
185.0000000000783
 51
258.8536229441504
  0
LINE
  5
430
330
1F
100
AcDbEntity
  8
MODEL
  6
STYLE_12
 48
50.0
100
AcDbLine
 10
386.5449276344616
 20
1014.109461960716
 30
-0.0000000063563708
 11
405.4461153071643
 21
923.6652573145186
 31
-0.0000000063563708
  0
ARC
  5
431
330
1F
100
AcDbEntity
  8
MODEL
  6
STYLE_12
 48
50.0
100
AcDbCircle
 10
371.6020071630873
 20
1012.802125819481
 30
-0.0000000063563708
 40
15.0
100
AcDbArc
 50
5.000000000078273
 51
90.0
  0
ENDSEC
  0
SECTION
  2
OBJECTS
  0
DICTIONARY
  5
C
330
0
100
AcDbDictionary
281
     1
  3
ACAD_DETAILVIEWSTYLE
350
413
  3
ACAD_GROUP
350
D
  3
ACAD_IMAGE_VARS
350
6A
  3
ACAD_LAYOUT
350
1A
  3
ACAD_MATERIAL
350
72
  3
ACAD_MLEADERSTYLE
350
3F
  3
ACAD_MLINESTYLE
350
17
  3
ACAD_PLOTSETTINGS
350
19
  3
ACAD_PLOTSTYLENAME
350
E
  3
ACAD_SCALELIST
350
40
  3
ACAD_SECTIONVIEWSTYLE
350
414
  3
ACAD_TABLESTYLE
350
3B
  3
ACAD_VISUALSTYLE
350
2A
  3
ACDB_RECOMPOSE_DATA
350
43D
  3
AcDbVariableDictionary
350
3D
  3
APPDATA
350
71
  0
SUN
  5
80
330
29
100
AcDbSun
 90
        1
290
     0
 63
     7
421
 16777215
 40
1.0
291
     1
 91
  2455826
 92
 54000000
292
     0
 70
     2
 71
   256
280
     1
  0
DICTIONARY
  5
413
102
{ACAD_REACTORS
330
C
102
}
330
C
100
AcDbDictionary
281
     1
  0
DICTIONARY
  5
D
102
{ACAD_REACTORS
330
C
102
}
330
C
100
AcDbDictionary
281
     1
  0
RASTERVARIABLES
  5
6A
102
{ACAD_REACTORS
330
C
102
}
330
C
100
AcDbRasterVariables
 90
        0
 70
     1
 71
     1
 72
     1
  0
DICTIONARY
  5
1A
102
{ACAD_REACTORS
330
C
102
}
330
C
100
AcDbDictionary
281
     1
  3
Model
350
22
  3
Sheet1
350
1E
  3
Sheet2
350
26
  0
DICTIONARY
  5
72
102
{ACAD_REACTORS
330
C
102
}
330
C
100
AcDbDictionary
281
     1
  3
ByBlock
350
74
  3
ByLayer
350
73
  3
Global
350
75
  0
DICTIONARY
  5
3F
102
{ACAD_REACTORS
330
C
102
}
330
C
100
AcDbDictionary
281
     1
  0
DICTIONARY
  5
17
102
{ACAD_REACTORS
330
C
102
}
330
C
100
AcDbDictionary
281
     1
  3
Standard
350
18
  0
DICTIONARY
  5
19
102
{ACAD_REACTORS
330
C
102
}
330
C
100
AcDbDictionary
281
     1
  0
ACDBDICTIONARYWDFLT
  5
E
102
{ACAD_REACTORS
330
C
102
}
330
C
100
AcDbDictionary
281
     1
  3
Normal
350
F
100
AcDbDictionaryWithDefault
340
F
  0
DICTIONARY
  5
40
102
{ACAD_REACTORS
330
C
102
}
330
C
100
AcDbDictionary
281
     1
  3
A0
350
41
  3
A1
350
42
  3
A2
350
43
  3
A3
350
44
  3
A4
350
45
  3
A5
350
46
  3
A6
350
47
  3
A7
350
48
  3
A8
350
49
  3
A9
350
4A
  3
B0
350
4B
  3
B1
350
4C
  3
B2
350
4D
  3
B3
350
4E
  3
B4
350
4F
  3
B5
350
50
  3
B6
350
51
  3
B7
350
52
  3
B8
350
53
  3
B9
350
54
  3
C0
350
55
  3
C1
350
56
  3
C2
350
57
  3
C3
350
58
  3
C4
350
59
  3
C5
350
5A
  3
C6
350
5B
  3
C7
350
5C
  3
C8
350
5D
  3
C9
350
5E
  3
D0
350
5F
  3
D1
350
60
  3
D2
350
61
  0
DICTIONARY
  5
414
102
{ACAD_REACTORS
330
C
102
}
330
C
100
AcDbDictionary
281
     1
  0
DICTIONARY
  5
3B
102
{ACAD_REACTORS
330
C
102
}
330
C
100
AcDbDictionary
281
     1
  3
Standard
350
3C
  0
DICTIONARY
  5
2A
102
{ACAD_REACTORS
330
C
102
}
330
C
100
AcDbDictionary
281
     1
  3
2dWireframe
350
2F
  3
3D Hidden
350
31
  3
3dWireframe
350
30
  3
Basic
350
32
  3
Brighten
350
36
  3
ColorChange
350
3A
  3
Conceptual
350
34
  3
Dim
350
35
  3
EdgeColorOff
350
7A
  3
Facepattern
350
39
  3
Flat
350
2B
  3
FlatWithEdges
350
2C
  3
Gouraud
350
2D
  3
GouraudWithEdges
350
2E
  3
Hidden
350
77
  3
JitterOff
350
78
  3
Linepattern
350
38
  3
OverhangOff
350
79
  3
Realistic
350
33
  3
Shaded
350
7F
  3
Shaded with edges
350
7E
  3
Shades of Gray
350
7B
  3
Sketchy
350
7C
  3
Thicken
350
37
  3
Wireframe
350
76
  3
X-Ray
350
7D
  0
XRECORD
  5
43D
102
{ACAD_REACTORS
330
C
102
}
330
C
100
AcDbXrecord
280
     1
 90
        1
330
3C
  0
DICTIONARY
  5
3D
102
{ACAD_REACTORS
330
C
102
}
330
C
100
AcDbDictionary
281
     1
  3
CANNOSCALE
350
62
  3
CTABLESTYLE
350
3E
  3
LIGHTSINBLOCKS
350
6F
  3
XCLIPFRAME
350
70
  0
DICTIONARY
  5
71
102
{ACAD_REACTORS
330
C
102
}
330
C
100
AcDbDictionary
281
     1
  0
LAYOUT
  5
22
102
{ACAD_REACTORS
330
1A
102
}
330
1A
100
AcDbPlotSettings
  1

  2
none_device
  4
ISO_A3_(420.00_x_297.00_MM)
  6

 40
7.5
 41
20.0
 42
7.5
 43
20.0
 44
420.0
 45
297.0
 46
20.78282828282826
 47
0.0
 48
0.0
 49
0.0
140
0.0
141
0.0
142
1.0
143
1.155642023346303
 70
  1204
 72
     1
 73
     0
 74
     1
  7
monochrome.ctb
 75
     0
 76
     0
 77
     2
 78
   300
147
0.8653198653198654
148
-134.1869158878504
149
0.0
100
AcDbLayout
  1
Model
 70
     1
 71
     0
 10
0.0
 20
0.0
 11
2100.0
 21
2970.000000000001
 12
0.0
 22
0.0
 32
0.0
 14
74.08218417874775
 24
44.418602714029
 34
-0.0000001574938798
 15
2024.082184179229
 25
2877.773127895886
 35
0.0000001397277242
146
0.0
 13
0.0
 23
0.0
 33
0.0
 16
1.0
 26
0.0
 36
0.0
 17
0.0
 27
1.0
 37
0.0
 76
     0
330
1F
331
29
  0
LAYOUT
  5
1E
102
{ACAD_REACTORS
330
1A
102
}
330
1A
100
AcDbPlotSettings
  1

  2
none_device
  4

  6

 40
0.0
 41
0.0
 42
0.0
 43
0.0
 44
0.0
 45
0.0
 46
0.0
 47
0.0
 48
0.0
 49
0.0
140
0.0
141
0.0
142
1.0
143
1.0
 70
   688
 72
     0
 73
     0
 74
     5
  7

 75
    16
 76
     0
 77
     2
 78
   300
147
1.0
148
0.0
149
0.0
100
AcDbLayout
  1
Sheet1
 70
     1
 71
     1
 10
0.0
 20
0.0
 11
420.0
 21
297.0
 12
0.0
 22
0.0
 32
0.0
 14
1.000000000000000E+20
 24
1.000000000000000E+20
 34
1.000000000000000E+20
 15
-1.000000000000000E+20
 25
-1.000000000000000E+20
 35
-1.000000000000000E+20
146
0.0
 13
0.0
 23
0.0
 33
0.0
 16
1.0
 26
0.0
 36
0.0
 17
0.0
 27
1.0
 37
0.0
 76
     0
330
1B
  0
LAYOUT
  5
26
102
{ACAD_REACTORS
330
1A
102
}
330
1A
100
AcDbPlotSettings
  1

  2
none_device
  4

  6

 40
0.0
 41
0.0
 42
0.0
 43
0.0
 44
0.0
 45
0.0
 46
0.0
 47
0.0
 48
0.0
 49
0.0
140
0.0
141
0.0
142
1.0
143
1.0
 70
   688
 72
     0
 73
     0
 74
     5
  7

 75
    16
 76
     0
 77
     2
 78
   300
147
1.0
148
0.0
149
0.0
100
AcDbLayout
  1
Sheet2
 70
     1
 71
     2
 10
0.0
 20
0.0
 11
0.0
 21
0.0
 12
0.0
 22
0.0
 32
0.0
 14
0.0
 24
0.0
 34
0.0
 15
0.0
 25
0.0
 35
0.0
146
0.0
 13
0.0
 23
0.0
 33
0.0
 16
1.0
 26
0.0
 36
0.0
 17
0.0
 27
1.0
 37
0.0
 76
     0
330
23
  0
MATERIAL
  5
74
102
{ACAD_REACTORS
330
72
102
}
330
72
100
AcDbMaterial
  1
ByBlock
 72
     1
 94
      127
  0
MATERIAL
  5
73
102
{ACAD_REACTORS
330
72
102
}
330
72
100
AcDbMaterial
  1
ByLayer
 72
     1
 94
      127
  0
MATERIAL
  5
75
102
{ACAD_REACTORS
330
72
102
}
330
72
100
AcDbMaterial
  1
Global
 72
     1
 94
      127
  0
MLINESTYLE
  5
18
102
{ACAD_REACTORS
330
17
102
}
330
17
100
AcDbMlineStyle
  2
Standard
 70
     0
  3

 62
   256
 51
90.0
 52
90.0
 71
     2
 49
0.5
 62
   256
  6
BYLAYER
 49
-0.5
 62
   256
  6
BYLAYER
  0
ACDBPLACEHOLDER
  5
F
102
{ACAD_REACTORS
330
E
102
}
330
E
  0
SCALE
  5
41
102
{ACAD_REACTORS
330
40
102
}
330
40
100
AcDbScale
 70
     0
300
1:1
140
1.0
141
1.0
290
     1
  0
SCALE
  5
42
102
{ACAD_REACTORS
330
40
102
}
330
40
100
AcDbScale
 70
     0
300
1:2
140
1.0
141
2.0
290
     0
  0
SCALE
  5
43
102
{ACAD_REACTORS
330
40
102
}
330
40
100
AcDbScale
 70
     0
300
1:4
140
1.0
141
4.0
290
     0
  0
SCALE
  5
44
102
{ACAD_REACTORS
330
40
102
}
330
40
100
AcDbScale
 70
     0
300
1:5
140
1.0
141
5.0
290
     0
  0
SCALE
  5
45
102
{ACAD_REACTORS
330
40
102
}
330
40
100
AcDbScale
 70
     0
300
1:8
140
1.0
141
8.0
290
     0
  0
SCALE
  5
46
102
{ACAD_REACTORS
330
40
102
}
330
40
100
AcDbScale
 70
     0
300
1:10
140
1.0
141
10.0
290
     0
  0
SCALE
  5
47
102
{ACAD_REACTORS
330
40
102
}
330
40
100
AcDbScale
 70
     0
300
1:16
140
1.0
141
16.0
290
     0
  0
SCALE
  5
48
102
{ACAD_REACTORS
330
40
102
}
330
40
100
AcDbScale
 70
     0
300
1:20
140
1.0
141
20.0
290
     0
  0
SCALE
  5
49
102
{ACAD_REACTORS
330
40
102
}
330
40
100
AcDbScale
 70
     0
300
1:30
140
1.0
141
30.0
290
     0
  0
SCALE
  5
4A
102
{ACAD_REACTORS
330
40
102
}
330
40
100
AcDbScale
 70
     0
300
1:40
140
1.0
141
40.0
290
     0
  0
SCALE
  5
4B
102
{ACAD_REACTORS
330
40
102
}
330
40
100
AcDbScale
 70
     0
300
1:50
140
1.0
141
50.0
290
     0
  0
SCALE
  5
4C
102
{ACAD_REACTORS
330
40
102
}
330
40
100
AcDbScale
 70
     0
300
1:100
140
1.0
141
100.0
290
     0
  0
SCALE
  5
4D
102
{ACAD_REACTORS
330
40
102
}
330
40
100
AcDbScale
 70
     0
300
2:1
140
2.0
141
1.0
290
     0
  0
SCALE
  5
4E
102
{ACAD_REACTORS
330
40
102
}
330
40
100
AcDbScale
 70
     0
300
4:1
140
4.0
141
1.0
290
     0
  0
SCALE
  5
4F
102
{ACAD_REACTORS
330
40
102
}
330
40
100
AcDbScale
 70
     0
300
8:1
140
8.0
141
1.0
290
     0
  0
SCALE
  5
50
102
{ACAD_REACTORS
330
40
102
}
330
40
100
AcDbScale
 70
     0
300
10:1
140
10.0
141
1.0
290
     0
  0
SCALE
  5
51
102
{ACAD_REACTORS
330
40
102
}
330
40
100
AcDbScale
 70
     0
300
100:1
140
100.0
141
1.0
290
     0
  0
SCALE
  5
52
102
{ACAD_REACTORS
330
40
102
}
330
40
100
AcDbScale
 70
     0
300
1/128" = 1'-0"
140
0.0078125
141
12.0
290
     0
  0
SCALE
  5
53
102
{ACAD_REACTORS
330
40
102
}
330
40
100
AcDbScale
 70
     0
300
1/64" = 1'-0"
140
0.015625
141
12.0
290
     0
  0
SCALE
  5
54
102
{ACAD_REACTORS
330
40
102
}
330
40
100
AcDbScale
 70
     0
300
1/32" = 1'-0"
140
0.03125
141
12.0
290
     0
  0
SCALE
  5
55
102
{ACAD_REACTORS
330
40
102
}
330
40
100
AcDbScale
 70
     0
300
1/16" = 1'-0"
140
0.0625
141
12.0
290
     0
  0
SCALE
  5
56
102
{ACAD_REACTORS
330
40
102
}
330
40
100
AcDbScale
 70
     0
300
3/32" = 1'-0"
140
0.09375
141
12.0
290
     0
  0
SCALE
  5
57
102
{ACAD_REACTORS
330
40
102
}
330
40
100
AcDbScale
 70
     0
300
1/8" = 1'-0"
140
0.125
141
12.0
290
     0
  0
SCALE
  5
58
102
{ACAD_REACTORS
330
40
102
}
330
40
100
AcDbScale
 70
     0
300
3/16" = 1'-0"
140
0.1875
141
12.0
290
     0
  0
SCALE
  5
59
102
{ACAD_REACTORS
330
40
102
}
330
40
100
AcDbScale
 70
     0
300
1/4" = 1'-0"
140
0.25
141
12.0
290
     0
  0
SCALE
  5
5A
102
{ACAD_REACTORS
330
40
102
}
330
40
100
AcDbScale
 70
     0
300
3/8" = 1'-0"
140
0.375
141
12.0
290
     0
  0
SCALE
  5
5B
102
{ACAD_REACTORS
330
40
102
}
330
40
100
AcDbScale
 70
     0
300
1/2" = 1'-0"
140
0.5
141
12.0
290
     0
  0
SCALE
  5
5C
102
{ACAD_REACTORS
330
40
102
}
330
40
100
AcDbScale
 70
     0
300
3/4" = 1'-0"
140
0.75
141
12.0
290
     0
  0
SCALE
  5
5D
102
{ACAD_REACTORS
330
40
102
}
330
40
100
AcDbScale
 70
     0
300
1" = 1'-0"
140
1.0
141
12.0
290
     0
  0
SCALE
  5
5E
102
{ACAD_REACTORS
330
40
102
}
330
40
100
AcDbScale
 70
     0
300
1-1/2" = 1'-0"
140
1.5
141
12.0
290
     0
  0
SCALE
  5
5F
102
{ACAD_REACTORS
330
40
102
}
330
40
100
AcDbScale
 70
     0
300
3" = 1'-0"
140
3.0
141
12.0
290
     0
  0
SCALE
  5
60
102
{ACAD_REACTORS
330
40
102
}
330
40
100
AcDbScale
 70
     0
300
6" = 1'-0"
140
6.0
141
12.0
290
     0
  0
SCALE
  5
61
102
{ACAD_REACTORS
330
40
102
}
330
40
100
AcDbScale
 70
     0
300
1'-0" = 1'-0"
140
12.0
141
12.0
290
     0
  0
TABLESTYLE
  5
3C
102
{ACAD_REACTORS
330
3B
102
}
102
{ACAD_XDICTIONARY
360
43B
102
}
330
3B
100
AcDbTableStyle
  3
Standard
 70
     0
 71
     0
 40
1.5
 41
1.5
280
     0
281
     0
  7
Standard
140
4.5
170
     2
 62
     0
 63
   257
283
     0
 90
      512
 91
        0
  1

274
    -2
284
     1
 64
     0
275
    -2
285
     1
 65
     0
276
    -2
286
     1
 66
     0
277
    -2
287
     1
 67
     0
278
    -2
288
     1
 68
     0
279
    -2
289
     1
 69
     0
  7
Standard
140
6.0
170
     5
 62
     0
 63
   257
283
     0
 90
      512
 91
        0
  1

274
    -2
284
     1
 64
     0
275
    -2
285
     1
 65
     0
276
    -2
286
     1
 66
     0
277
    -2
287
     1
 67
     0
278
    -2
288
     1
 68
     0
279
    -2
289
     1
 69
     0
  7
Standard
140
4.5
170
     5
 62
     0
 63
   257
283
     0
 90
      512
 91
        0
  1

274
    -2
284
     1
 64
     0
275
    -2
285
     1
 65
     0
276
    -2
286
     1
 66
     0
277
    -2
287
     1
 67
     0
278
    -2
288
     1
 68
     0
279
    -2
289
     1
 69
     0
  0
VISUALSTYLE
  5
2F
102
{ACAD_REACTORS
330
2A
102
}
330
2A
100
AcDbVisualStyle
  2
2dWireframe
 70
     4
 71
     0
 72
     2
 73
     0
 90
        0
 40
-0.6
 41
-30.0
 62
     5
 63
     7
421
 16777215
 74
     1
 91
        4
 64
     7
 65
   257
 75
     1
175
     1
 42
1.0
 92
        0
 66
   257
 43
1.0
 76
     1
 77
     6
 78
     2
 67
     7
 79
     5
170
     0
171
     0
290
     0
174
     0
 93
        1
 44
0.0
173
     0
291
     0
 45
0.0
  0
VISUALSTYLE
  5
31
102
{ACAD_REACTORS
330
2A
102
}
330
2A
100
AcDbVisualStyle
  2
3D Hidden
 70
     6
 71
     1
 72
     2
 73
     2
 90
        0
 40
-0.6
 41
-30.0
 62
     5
 63
     7
421
 16777215
 74
     2
 91
        2
 64
     7
 65
   257
 75
     2
175
     1
 42
40.0
 92
        0
 66
   257
 43
1.0
 76
     1
 77
     6
 78
     2
 67
     7
 79
     3
170
     0
171
     0
290
     0
174
     0
 93
        1
 44
0.0
173
     0
291
     0
 45
0.0
  0
VISUALSTYLE
  5
30
102
{ACAD_REACTORS
330
2A
102
}
330
2A
100
AcDbVisualStyle
  2
3dWireframe
 70
     5
 71
     0
 72
     2
 73
     0
 90
        0
 40
-0.6
 41
-30.0
 62
     5
 63
     7
421
 16777215
 74
     1
 91
        4
 64
     7
 65
   257
 75
     1
175
     1
 42
1.0
 92
        0
 66
   257
 43
1.0
 76
     1
 77
     6
 78
     2
 67
     7
 79
     5
170
     0
171
     0
290
     0
174
     0
 93
        1
 44
0.0
173
     0
291
     0
 45
0.0
  0
VISUALSTYLE
  5
32
102
{ACAD_REACTORS
330
2A
102
}
330
2A
100
AcDbVisualStyle
  2
Basic
 70
     7
 71
     1
 72
     0
 73
     1
 90
        0
 40
-0.6
 41
-30.0
 62
     5
 63
     7
421
 16777215
 74
     0
 91
        4
 64
     7
 65
   257
 75
     1
175
     1
 42
1.0
 92
        8
 66
     7
 43
1.0
 76
     1
 77
     6
 78
     2
 67
     7
 79
     5
170
     0
171
     0
290
     0
174
     0
 93
        1
 44
0.0
173
     0
291
     1
 45
0.0
  0
VISUALSTYLE
  5
36
102
{ACAD_REACTORS
330
2A
102
}
330
2A
100
AcDbVisualStyle
  2
Brighten
 70
    12
 71
     2
 72
     2
 73
     0
 90
        0
 40
-0.6
 41
-30.0
 62
     5
 63
     7
421
 16777215
 74
     1
 91
        4
 64
     7
 65
   257
 75
     1
175
     1
 42
1.0
 92
        8
 66
     7
 43
1.0
 76
     1
 77
     6
 78
     2
 67
     7
 79
     5
170
     0
171
     0
290
     0
174
     0
 93
        1
 44
50.0
173
     0
291
     1
 45
0.0
  0
VISUALSTYLE
  5
3A
102
{ACAD_REACTORS
330
2A
102
}
330
2A
100
AcDbVisualStyle
  2
ColorChange
 70
    16
 71
     2
 72
     2
 73
     3
 90
        0
 40
-0.6
 41
-30.0
 62
     5
 63
     8
421
  8421504
 74
     1
 91
        4
 64
     7
 65
   257
 75
     1
175
     1
 42
1.0
 92
        8
 66
     8
424
  8421504
 43
1.0
 76
     1
 77
     6
 78
     2
 67
     7
 79
     5
170
     0
171
     0
290
     0
174
     0
 93
        1
 44
0.0
173
     0
291
     1
 45
0.0
  0
VISUALSTYLE
  5
34
102
{ACAD_REACTORS
330
2A
102
}
330
2A
100
AcDbVisualStyle
  2
Conceptual
 70
     9
 71
     3
 72
     2
 73
     0
 90
        0
 40
-0.6
 41
-30.0
 62
     5
 63
     7
421
 16777215
 74
     2
 91
        2
 64
     7
 65
   257
 75
     1
175
     1
 42
40.0
 92
        8
 66
     7
 43
1.0
 76
     1
 77
     6
 78
     2
 67
     7
 79
     3
170
     0
171
     0
290
     0
174
     0
 93
        1
 44
0.0
173
     0
291
     0
 45
0.0
  0
VISUALSTYLE
  5
35
102
{ACAD_REACTORS
330
2A
102
}
330
2A
100
AcDbVisualStyle
  2
Dim
 70
    11
 71
     2
 72
     2
 73
     0
 90
        0
 40
-0.6
 41
-30.0
 62
     5
 63
     7
421
 16777215
 74
     1
 91
        4
 64
     7
 65
   257
 75
     1
175
     1
 42
1.0
 92
        8
 66
     7
 43
1.0
 76
     1
 77
     6
 78
     2
 67
     7
 79
     5
170
     0
171
     0
290
     0
174
     0
 93
        1
 44
-50.0
173
     0
291
     1
 45
0.0
  0
VISUALSTYLE
  5
7A
102
{ACAD_REACTORS
330
2A
102
}
330
2A
100
AcDbVisualStyle
  2
EdgeColorOff
 70
    22
 71
     2
 72
     2
 73
     0
 90
        0
 40
0.6
 41
30.0
 62
     5
 63
     7
421
 16777215
 74
     1
 91
        4
 64
     7
 65
   257
 75
     1
175
     1
 42
1.0
 92
        8
 66
     7
 43
1.0
 76
     1
 77
     6
 78
     2
 67
     7
 79
     5
170
     0
171
     0
290
     0
174
     0
 93
        1
 44
0.0
173
     0
291
     1
 45
0.0
  0
VISUALSTYLE
  5
39
102
{ACAD_REACTORS
330
2A
102
}
330
2A
100
AcDbVisualStyle
  2
Facepattern
 70
    15
 71
     2
 72
     2
 73
     0
 90
        0
 40
-0.6
 41
-30.0
 62
     5
 63
     7
421
 16777215
 74
     1
 91
        4
 64
     7
 65
   257
 75
     1
175
     1
 42
1.0
 92
        8
 66
     7
 43
1.0
 76
     1
 77
     6
 78
     2
 67
     7
 79
     5
170
     0
171
     0
290
     0
174
     0
 93
        1
 44
0.0
173
     0
291
     1
 45
0.0
  0
VISUALSTYLE
  5
2B
102
{ACAD_REACTORS
330
2A
102
}
330
2A
100
AcDbVisualStyle
  2
Flat
 70
     0
 71
     2
 72
     1
 73
     1
 90
        2
 40
-0.6
 41
30.0
 62
     5
 63
     7
421
 16777215
 74
     0
 91
        4
 64
     7
 65
   257
 75
     1
175
     1
 42
1.0
 92
        8
 66
     7
 43
1.0
 76
     1
 77
     6
 78
     2
 67
     7
 79
     5
170
     0
171
     0
290
     0
174
     0
 93
       13
 44
0.0
173
     0
291
     1
 45
0.0
  0
VISUALSTYLE
  5
2C
102
{ACAD_REACTORS
330
2A
102
}
330
2A
100
AcDbVisualStyle
  2
FlatWithEdges
 70
     1
 71
     2
 72
     1
 73
     1
 90
        2
 40
-0.6
 41
30.0
 62
     5
 63
     7
421
 16777215
 74
     1
 91
        4
 64
     7
 65
   257
 75
     1
175
     1
 42
1.0
 92
        0
 66
   257
 43
1.0
 76
     1
 77
     6
 78
     2
 67
     7
 79
     5
170
     0
171
     0
290
     0
174
     0
 93
       13
 44
0.0
173
     0
291
     1
 45
0.0
  0
VISUALSTYLE
  5
2D
102
{ACAD_REACTORS
330
2A
102
}
330
2A
100
AcDbVisualStyle
  2
Gouraud
 70
     2
 71
     2
 72
     2
 73
     1
 90
        2
 40
-0.6
 41
30.0
 62
     5
 63
     7
421
 16777215
 74
     0
 91
        4
 64
     7
 65
   257
 75
     1
175
     1
 42
1.0
 92
        0
 66
     7
 43
1.0
 76
     1
 77
     6
 78
     2
 67
     7
 79
     5
170
     0
171
     0
290
     0
174
     0
 93
       13
 44
0.0
173
     0
291
     1
 45
0.0
  0
VISUALSTYLE
  5
2E
102
{ACAD_REACTORS
330
2A
102
}
330
2A
100
AcDbVisualStyle
  2
GouraudWithEdges
 70
     3
 71
     2
 72
     2
 73
     1
 90
        2
 40
-0.6
 41
30.0
 62
     5
 63
     7
421
 16777215
 74
     1
 91
        4
 64
     7
 65
   257
 75
     1
175
     1
 42
1.0
 92
        0
 66
   257
 43
1.0
 76
     1
 77
     6
 78
     2
 67
     7
 79
     5
170
     0
171
     0
290
     0
174
     0
 93
       13
 44
0.0
173
     0
291
     1
 45
0.0
  0
VISUALSTYLE
  5
77
102
{ACAD_REACTORS
330
2A
102
}
330
2A
100
AcDbVisualStyle
  2
Hidden
 70
     6
 71
     1
 72
     2
 73
     2
 90
        0
 40
0.6
 41
30.0
 62
     5
 63
     7
421
 16777215
 74
     2
 91
        2
 64
     7
 65
   257
 75
     2
175
     1
 42
40.0
 92
        0
 66
   257
 43
1.0
 76
     1
 77
     6
 78
     2
 67
     7
 79
     3
170
     0
171
     0
290
     0
174
     0
 93
        1
 44
0.0
173
     0
291
     0
 45
0.0
  0
VISUALSTYLE
  5
78
102
{ACAD_REACTORS
330
2A
102
}
330
2A
100
AcDbVisualStyle
  2
JitterOff
 70
    20
 71
     2
 72
     2
 73
     0
 90
        0
 40
0.6
 41
30.0
 62
     5
 63
     7
421
 16777215
 74
     1
 91
        4
 64
     7
 65
   257
 75
     1
175
     1
 42
1.0
 92
       10
 66
     7
 43
1.0
 76
     1
 77
     6
 78
     2
 67
     7
 79
     5
170
     0
171
     0
290
     0
174
     0
 93
        1
 44
0.0
173
     0
291
     1
 45
0.0
  0
VISUALSTYLE
  5
38
102
{ACAD_REACTORS
330
2A
102
}
330
2A
100
AcDbVisualStyle
  2
Linepattern
 70
    14
 71
     2
 72
     2
 73
     0
 90
        0
 40
-0.6
 41
-30.0
 62
     5
 63
     7
421
 16777215
 74
     1
 91
        4
 64
     7
 65
   257
 75
     7
175
     7
 42
1.0
 92
        8
 66
     7
 43
1.0
 76
     1
 77
     6
 78
     2
 67
     7
 79
     5
170
     0
171
     0
290
     0
174
     0
 93
        1
 44
0.0
173
     0
291
     1
 45
0.0
  0
VISUALSTYLE
  5
79
102
{ACAD_REACTORS
330
2A
102
}
330
2A
100
AcDbVisualStyle
  2
OverhangOff
 70
    21
 71
     2
 72
     2
 73
     0
 90
        0
 40
0.6
 41
30.0
 62
     5
 63
     7
421
 16777215
 74
     1
 91
        4
 64
     7
 65
   257
 75
     1
175
     1
 42
1.0
 92
        9
 66
     7
 43
1.0
 76
     1
 77
     6
 78
     2
 67
     7
 79
     5
170
     0
171
     0
290
     0
174
     0
 93
        1
 44
0.0
173
     0
291
     1
 45
0.0
  0
VISUALSTYLE
  5
33
102
{ACAD_REACTORS
330
2A
102
}
330
2A
100
AcDbVisualStyle
  2
Realistic
 70
     8
 71
     2
 72
     2
 73
     0
 90
        0
 40
-0.6
 41
-30.0
 62
     5
 63
     7
421
 16777215
 74
     1
 91
        0
 64
     7
 65
   257
 75
     1
175
     1
 42
1.0
 92
        8
 66
     8
424
  7895160
 43
1.0
 76
     1
 77
     6
 78
     2
 67
     7
 79
     5
170
     0
171
     0
290
     0
174
     0
 93
       13
 44
0.0
173
     0
291
     0
 45
0.0
  0
VISUALSTYLE
  5
7F
102
{ACAD_REACTORS
330
2A
102
}
330
2A
100
AcDbVisualStyle
  2
Shaded
 70
    27
 71
     2
 72
     2
 73
     1
 90
        2
 40
0.6
 41
30.0
 62
     5
 63
     7
421
 16777215
 74
     0
 91
        4
 64
     7
 65
   257
 75
     1
175
     1
 42
1.0
 92
        8
 66
   257
 43
1.0
 76
     1
 77
     6
 78
     2
 67
     8
425
  7895160
 79
     3
170
     0
171
     0
290
     0
174
     0
 93
        5
 44
0.0
173
     0
291
     0
 45
0.0
  0
VISUALSTYLE
  5
7E
102
{ACAD_REACTORS
330
2A
102
}
330
2A
100
AcDbVisualStyle
  2
Shaded with edges
 70
    26
 71
     2
 72
     2
 73
     1
 90
        2
 40
0.6
 41
30.0
 62
     5
 63
     7
421
 16777215
 74
     1
 91
       10
 64
     7
 65
   257
 75
     2
175
     1
 42
1.0
 92
        8
 66
   257
 43
1.0
 76
     1
 77
     6
 78
     2
 67
     7
 79
     3
170
     0
171
     0
290
     0
174
     0
 93
        5
 44
0.0
173
     0
291
     0
 45
0.0
  0
VISUALSTYLE
  5
7B
102
{ACAD_REACTORS
330
2A
102
}
330
2A
100
AcDbVisualStyle
  2
Shades of Gray
 70
    23
 71
     2
 72
     2
 73
     3
 90
        0
 40
0.6
 41
30.0
 62
     5
 63
     7
421
 16777215
 74
     2
 91
        2
 64
     7
 65
     7
 75
     1
175
     1
 42
40.0
 92
        8
 66
     7
 43
1.0
 76
     1
 77
     6
 78
     2
 67
     7
 79
     3
170
     0
171
     0
290
     0
174
     0
 93
        1
 44
0.0
173
     0
291
     0
 45
0.0
  0
VISUALSTYLE
  5
7C
102
{ACAD_REACTORS
330
2A
102
}
330
2A
100
AcDbVisualStyle
  2
Sketchy
 70
    24
 71
     1
 72
     2
 73
     2
 90
        0
 40
0.6
 41
30.0
 62
     5
 63
     7
421
 16777215
 74
     2
 91
        2
 64
     7
 65
     7
 75
     1
175
     1
 42
40.0
 92
       11
 66
     7
 43
1.0
 76
     1
 77
     6
 78
     2
 67
     7
 79
     6
170
     0
171
     0
290
     0
174
     0
 93
        1
 44
0.0
173
     0
291
     0
 45
0.0
  0
VISUALSTYLE
  5
37
102
{ACAD_REACTORS
330
2A
102
}
330
2A
100
AcDbVisualStyle
  2
Thicken
 70
    13
 71
     2
 72
     2
 73
     0
 90
        0
 40
-0.6
 41
-30.0
 62
     5
 63
     7
421
 16777215
 74
     1
 91
        4
 64
     7
 65
   257
 75
     1
175
     1
 42
1.0
 92
       12
 66
     7
 43
1.0
 76
     1
 77
     6
 78
     2
 67
     7
 79
     5
170
     0
171
     0
290
     0
174
     0
 93
        1
 44
0.0
173
     0
291
     1
 45
0.0
  0
VISUALSTYLE
  5
76
102
{ACAD_REACTORS
330
2A
102
}
330
2A
100
AcDbVisualStyle
  2
Wireframe
 70
     5
 71
     0
 72
     2
 73
     0
 90
        0
 40
0.6
 41
30.0
 62
     5
 63
     7
421
 16777215
 74
     1
 91
        4
 64
     7
 65
   257
 75
     1
175
     1
 42
1.0
 92
        0
 66
   257
 43
1.0
 76
     1
 77
     6
 78
     2
 67
     7
 79
     3
170
     0
171
     0
290
     0
174
     0
 93
        1
 44
0.0
173
     0
291
     0
 45
0.0
  0
VISUALSTYLE
  5
7D
102
{ACAD_REACTORS
330
2A
102
}
330
2A
100
AcDbVisualStyle
  2
X-Ray
 70
    25
 71
     2
 72
     2
 73
     1
 90
        1
 40
0.5
 41
30.0
 62
     5
 63
     7
421
 16777215
 74
     1
 91
        0
 64
     7
 65
   257
 75
     1
175
     1
 42
1.0
 92
        8
 66
     7
 43
1.0
 76
     1
 77
     6
 78
     2
 67
     7
 79
     3
170
     0
171
     0
290
     0
174
     0
 93
       13
 44
0.0
173
     0
291
     0
 45
0.0
  0
DICTIONARYVAR
  5
62
102
{ACAD_REACTORS
330
3D
102
}
330
3D
100
DictionaryVariables
280
     0
  1
1:1
  0
DICTIONARYVAR
  5
3E
102
{ACAD_REACTORS
330
3D
102
}
330
3D
100
DictionaryVariables
280
     0
  1
Standard
  0
DICTIONARYVAR
  5
6F
102
{ACAD_REACTORS
330
3D
102
}
330
3D
100
DictionaryVariables
280
     0
  1
0
  0
DICTIONARYVAR
  5
70
102
{ACAD_REACTORS
330
3D
102
}
330
3D
100
DictionaryVariables
280
     0
  1
0
  0
DICTIONARY
  5
43B
330
3C
100
AcDbDictionary
280
     1
281
     1
  3
ACAD_ROUNDTRIP_2008_TABLESTYLE_CELLSTYLEMAP
360
43C
  0
CELLSTYLEMAP
  5
43C
102
{ACAD_REACTORS
330
43B
102
}
330
43B
100
AcDbCellStyleMap
 90
        3
300
CELLSTYLE
  1
TABLEFORMAT_BEGIN
 90
        5
170
     1
 91
        0
 92
    32768
 62
   257
 93
        1
300
CONTENTFORMAT
  1
CONTENTFORMAT_BEGIN
 90
        0
 91
        0
 92
      512
 93
        0
300

 40
0.0
140
1.0
 94
        5
 62
     0
340
11
144
6.0
309
CONTENTFORMAT_END
171
     1
301
MARGIN
  1
CELLMARGIN_BEGIN
 40
1.5
 40
1.5
 40
1.5
 40
1.5
 40
0.18
 40
0.18
309
CELLMARGIN_END
 94
        6
 95
        1
302
GRIDFORMAT
  1
GRIDFORMAT_BEGIN
 90
        0
 91
        1
 62
     0
 92
       -2
340
0
 93
        0
 40
0.045
309
GRIDFORMAT_END
 95
        2
302
GRIDFORMAT
  1
GRIDFORMAT_BEGIN
 90
        0
 91
        1
 62
     0
 92
       -2
340
0
 93
        0
 40
0.045
309
GRIDFORMAT_END
 95
        4
302
GRIDFORMAT
  1
GRIDFORMAT_BEGIN
 90
        0
 91
        1
 62
     0
 92
       -2
340
0
 93
        0
 40
0.045
309
GRIDFORMAT_END
 95
        8
302
GRIDFORMAT
  1
GRIDFORMAT_BEGIN
 90
        0
 91
        1
 62
     0
 92
       -2
340
0
 93
        0
 40
0.045
309
GRIDFORMAT_END
 95
       16
302
GRIDFORMAT
  1
GRIDFORMAT_BEGIN
 90
        0
 91
        1
 62
     0
 92
       -2
340
0
 93
        0
 40
0.045
309
GRIDFORMAT_END
 95
       32
302
GRIDFORMAT
  1
GRIDFORMAT_BEGIN
 90
        0
 91
        1
 62
     0
 92
       -2
340
0
 93
        0
 40
0.045
309
GRIDFORMAT_END
309
TABLEFORMAT_END
  1
CELLSTYLE_BEGIN
 90
        1
 91
        1
300
_TITLE
309
CELLSTYLE_END
300
CELLSTYLE
  1
TABLEFORMAT_BEGIN
 90
        5
170
     1
 91
        0
 92
        0
 62
   257
 93
        1
300
CONTENTFORMAT
  1
CONTENTFORMAT_BEGIN
 90
        0
 91
        0
 92
      512
 93
        0
300

 40
0.0
140
1.0
 94
        5
 62
     0
340
11
144
4.5
309
CONTENTFORMAT_END
171
     1
301
MARGIN
  1
CELLMARGIN_BEGIN
 40
1.5
 40
1.5
 40
1.5
 40
1.5
 40
0.18
 40
0.18
309
CELLMARGIN_END
 94
        6
 95
        1
302
GRIDFORMAT
  1
GRIDFORMAT_BEGIN
 90
        0
 91
        1
 62
     0
 92
       -2
340
0
 93
        0
 40
0.045
309
GRIDFORMAT_END
 95
        2
302
GRIDFORMAT
  1
GRIDFORMAT_BEGIN
 90
        0
 91
        1
 62
     0
 92
       -2
340
0
 93
        0
 40
0.045
309
GRIDFORMAT_END
 95
        4
302
GRIDFORMAT
  1
GRIDFORMAT_BEGIN
 90
        0
 91
        1
 62
     0
 92
       -2
340
0
 93
        0
 40
0.045
309
GRIDFORMAT_END
 95
        8
302
GRIDFORMAT
  1
GRIDFORMAT_BEGIN
 90
        0
 91
        1
 62
     0
 92
       -2
340
0
 93
        0
 40
0.045
309
GRIDFORMAT_END
 95
       16
302
GRIDFORMAT
  1
GRIDFORMAT_BEGIN
 90
        0
 91
        1
 62
     0
 92
       -2
340
0
 93
        0
 40
0.045
309
GRIDFORMAT_END
 95
       32
302
GRIDFORMAT
  1
GRIDFORMAT_BEGIN
 90
        0
 91
        1
 62
     0
 92
       -2
340
0
 93
        0
 40
0.045
309
GRIDFORMAT_END
309
TABLEFORMAT_END
  1
CELLSTYLE_BEGIN
 90
        2
 91
        1
300
_HEADER
309
CELLSTYLE_END
300
CELLSTYLE
  1
TABLEFORMAT_BEGIN
 90
        5
170
     1
 91
        0
 92
        0
 62
   257
 93
        1
300
CONTENTFORMAT
  1
CONTENTFORMAT_BEGIN
 90
        0
 91
        0
 92
      512
 93
        0
300

 40
0.0
140
1.0
 94
        2
 62
     0
340
11
144
4.5
309
CONTENTFORMAT_END
171
     1
301
MARGIN
  1
CELLMARGIN_BEGIN
 40
1.5
 40
1.5
 40
1.5
 40
1.5
 40
0.18
 40
0.18
309
CELLMARGIN_END
 94
        6
 95
        1
302
GRIDFORMAT
  1
GRIDFORMAT_BEGIN
 90
        0
 91
        1
 62
     0
 92
       -2
340
0
 93
        0
 40
0.045
309
GRIDFORMAT_END
 95
        2
302
GRIDFORMAT
  1
GRIDFORMAT_BEGIN
 90
        0
 91
        1
 62
     0
 92
       -2
340
0
 93
        0
 40
0.045
309
GRIDFORMAT_END
 95
        4
302
GRIDFORMAT
  1
GRIDFORMAT_BEGIN
 90
        0
 91
        1
 62
     0
 92
       -2
340
0
 93
        0
 40
0.045
309
GRIDFORMAT_END
 95
        8
302
GRIDFORMAT
  1
GRIDFORMAT_BEGIN
 90
        0
 91
        1
 62
     0
 92
       -2
340
0
 93
        0
 40
0.045
309
GRIDFORMAT_END
 95
       16
302
GRIDFORMAT
  1
GRIDFORMAT_BEGIN
 90
        0
 91
        1
 62
     0
 92
       -2
340
0
 93
        0
 40
0.045
309
GRIDFORMAT_END
 95
       32
302
GRIDFORMAT
  1
GRIDFORMAT_BEGIN
 90
        0
 91
        1
 62
     0
 92
       -2
340
0
 93
        0
 40
0.045
309
GRIDFORMAT_END
309
TABLEFORMAT_END
  1
CELLSTYLE_BEGIN
 90
        3
 91
        2
300
_DATA
309
CELLSTYLE_END
  0
ENDSEC
  0
EOF
