  0
SECTION
  2
HEADER
  9
$ACADVER
  1
AC1021
  9
$ACADMAINTVER
 70
    25
  9
$DWGCODEPAGE
  3
ANSI_932
  9
$LASTSAVEDBY
  1
Shimosaki
  9
$INSBASE
 10
0.0
 20
0.0
 30
0.0
  9
$EXTMIN
 10
9853.057220377974
 20
-5133.753487665335
 30
-0.0000000044268816
  9
$EXTMAX
 10
11953.05722037797
 20
-2163.753487665335
 30
0.0000001972557847
  9
$LIMMIN
 10
9853.057220377974
 20
-5133.753487665335
  9
$LIMMAX
 10
11953.05722037797
 20
-2163.753487665335
  9
$ORTHOMODE
 70
     0
  9
$REGENMODE
 70
     1
  9
$FILLMODE
 70
     1
  9
$QTEXTMODE
 70
     0
  9
$MIRRTEXT
 70
     1
  9
$LTSCALE
 40
50.8
  9
$ATTMODE
 70
     1
  9
$TEXTSIZE
 40
0.0
  9
$TRACEWID
 40
1.0
  9
$TEXTSTYLE
  7
Standard
  9
$CLAYER
  8
template
  9
$CELTYPE
  6
Continuous
  9
$CECOLOR
 62
   256
  9
$CELTSCALE
 40
1.0
  9
$DISPSILH
 70
     0
  9
$DIMSCALE
 40
1.0
  9
$DIMASZ
 40
31.75
  9
$DIMEXO
 40
0.0
  9
$DIMDLI
 40
6.99999999999994
  9
$DIMRND
 40
0.0
  9
$DIMDLE
 40
0.0
  9
$DIMEXE
 40
19.9999999999962
  9
$DIMTP
 40
0.0
  9
$DIMTM
 40
0.0
  9
$DIMTXT
 40
24.4326171875
  9
$DIMCEN
 40
0.0
  9
$DIMTSZ
 40
0.0
  9
$DIMTOL
 70
     0
  9
$DIMLIM
 70
     0
  9
$DIMTIH
 70
     0
  9
$DIMTOH
 70
     0
  9
$DIMSE1
 70
     0
  9
$DIMSE2
 70
     0
  9
$DIMTAD
 70
     1
  9
$DIMZIN
 70
    11
  9
$DIMBLK
  1
VW_FILLEDARROW
  9
$DIMASO
 70
     1
  9
$DIMSHO
 70
     1
  9
$DIMPOST
  1
<>
  9
$DIMAPOST
  1
[]
  9
$DIMALT
 70
     0
  9
$DIMALTD
 70
     1
  9
$DIMALTF
 40
1.0
  9
$DIMLFAC
 40
1.0
  9
$DIMTOFL
 70
     0
  9
$DIMTVP
 40
0.0
  9
$DIMTIX
 70
     1
  9
$DIMSOXD
 70
     0
  9
$DIMSAH
 70
     0
  9
$DIMBLK1
  1

  9
$DIMBLK2
  1

  9
$DIMSTYLE
  2
JIS
  9
$DIMCLRD
 70
     0
  9
$DIMCLRE
 70
     0
  9
$DIMCLRT
 70
     0
  9
$DIMTFAC
 40
1.0
  9
$DIMGAP
 40
1.00000000000108
  9
$DIMJUST
 70
     0
  9
$DIMSD1
 70
     0
  9
$DIMSD2
 70
     0
  9
$DIMTOLJ
 70
     1
  9
$DIMTZIN
 70
    11
  9
$DIMALTZ
 70
    11
  9
$DIMALTTZ
 70
    11
  9
$DIMUPT
 70
     0
  9
$DIMDEC
 70
     1
  9
$DIMTDEC
 70
     1
  9
$DIMALTU
 70
     2
  9
$DIMALTTD
 70
     2
  9
$DIMTXSTY
  7
ＭＳ ゴシック
  9
$DIMAUNIT
 70
     0
  9
$DIMADEC
 70
     2
  9
$DIMALTRND
 40
0.0
  9
$DIMAZIN
 70
     0
  9
$DIMDSEP
 70
    46
  9
$DIMATFIT
 70
     0
  9
$DIMFRAC
 70
     2
  9
$DIMLDRBLK
  1

  9
$DIMLUNIT
 70
     2
  9
$DIMLWD
 70
    -2
  9
$DIMLWE
 70
    -2
  9
$DIMTMOVE
 70
     0
  9
$DIMFXL
 40
1.0
  9
$DIMFXLON
 70
     0
  9
$DIMJOGANG
 40
0.7853981633974483
  9
$DIMTFILL
 70
     0
  9
$DIMTFILLCLR
 70
     0
  9
$DIMARCSYM
 70
     0
  9
$DIMLTYPE
  6

  9
$DIMLTEX1
  6

  9
$DIMLTEX2
  6

  9
$LUNITS
 70
     2
  9
$LUPREC
 70
     4
  9
$SKETCHINC
 40
0.1
  9
$FILLETRAD
 40
0.0
  9
$AUNITS
 70
     0
  9
$AUPREC
 70
     0
  9
$MENU
  1
acad
  9
$ELEVATION
 40
0.0
  9
$PELEVATION
 40
0.0
  9
$THICKNESS
 40
0.0
  9
$LIMCHECK
 70
     0
  9
$CHAMFERA
 40
0.0
  9
$CHAMFERB
 40
0.0
  9
$CHAMFERC
 40
0.0
  9
$CHAMFERD
 40
0.0
  9
$SKPOLY
 70
     0
  9
$TDCREATE
 40
2447893.375
  9
$TDUCREATE
 40
0.0
  9
$TDUPDATE
 40
2458023.733543623
  9
$TDUUPDATE
 40
2458023.358543623
  9
$TDINDWG
 40
0.0272161458
  9
$TDUSRTIMER
 40
2458023.358136192
  9
$USRTIMER
 70
     1
  9
$ANGBASE
 50
0.0
  9
$ANGDIR
 70
     0
  9
$PDMODE
 70
     1
  9
$PDSIZE
 40
-2.0
  9
$PLINEWID
 40
0.0
  9
$SPLFRAME
 70
     0
  9
$SPLINETYPE
 70
     6
  9
$SPLINESEGS
 70
     8
  9
$HANDSEED
  5
381
  9
$SURFTAB1
 70
     6
  9
$SURFTAB2
 70
     6
  9
$SURFTYPE
 70
     6
  9
$SURFU
 70
     6
  9
$SURFV
 70
     6
  9
$UCSBASE
  2

  9
$UCSNAME
  2

  9
$UCSORG
 10
0.0
 20
0.0
 30
0.0
  9
$UCSXDIR
 10
1.0
 20
0.0
 30
0.0
  9
$UCSYDIR
 10
0.0
 20
1.0
 30
0.0
  9
$UCSORTHOREF
  2

  9
$UCSORTHOVIEW
 70
     0
  9
$UCSORGTOP
 10
0.0
 20
0.0
 30
0.0
  9
$UCSORGBOTTOM
 10
0.0
 20
0.0
 30
0.0
  9
$UCSORGLEFT
 10
0.0
 20
0.0
 30
0.0
  9
$UCSORGRIGHT
 10
0.0
 20
0.0
 30
0.0
  9
$UCSORGFRONT
 10
0.0
 20
0.0
 30
0.0
  9
$UCSORGBACK
 10
0.0
 20
0.0
 30
0.0
  9
$PUCSBASE
  2

  9
$PUCSNAME
  2

  9
$PUCSORG
 10
0.0
 20
0.0
 30
0.0
  9
$PUCSXDIR
 10
1.0
 20
0.0
 30
0.0
  9
$PUCSYDIR
 10
0.0
 20
1.0
 30
0.0
  9
$PUCSORTHOREF
  2

  9
$PUCSORTHOVIEW
 70
     0
  9
$PUCSORGTOP
 10
0.0
 20
0.0
 30
0.0
  9
$PUCSORGBOTTOM
 10
0.0
 20
0.0
 30
0.0
  9
$PUCSORGLEFT
 10
0.0
 20
0.0
 30
0.0
  9
$PUCSORGRIGHT
 10
0.0
 20
0.0
 30
0.0
  9
$PUCSORGFRONT
 10
0.0
 20
0.0
 30
0.0
  9
$PUCSORGBACK
 10
0.0
 20
0.0
 30
0.0
  9
$USERI1
 70
     0
  9
$USERI2
 70
     0
  9
$USERI3
 70
     0
  9
$USERI4
 70
     0
  9
$USERI5
 70
     0
  9
$USERR1
 40
0.0
  9
$USERR2
 40
0.0
  9
$USERR3
 40
0.0
  9
$USERR4
 40
0.0
  9
$USERR5
 40
0.0
  9
$WORLDVIEW
 70
     1
  9
$SHADEDGE
 70
     3
  9
$SHADEDIF
 70
    70
  9
$TILEMODE
 70
     1
  9
$MAXACTVP
 70
    64
  9
$PINSBASE
 10
0.0
 20
0.0
 30
0.0
  9
$PLIMCHECK
 70
     0
  9
$PEXTMIN
 10
1.000000000000000E+20
 20
1.000000000000000E+20
 30
1.000000000000000E+20
  9
$PEXTMAX
 10
-1.000000000000000E+20
 20
-1.000000000000000E+20
 30
-1.000000000000000E+20
  9
$PLIMMIN
 10
0.0
 20
0.0
  9
$PLIMMAX
 10
0.0
 20
0.0
  9
$UNITMODE
 70
     0
  9
$VISRETAIN
 70
     0
  9
$PLINEGEN
 70
     1
  9
$PSLTSCALE
 70
     0
  9
$TREEDEPTH
 70
  3020
  9
$CMLSTYLE
  2
Standard
  9
$CMLJUST
 70
     0
  9
$CMLSCALE
 40
1.0
  9
$PROXYGRAPHICS
 70
     0
  9
$MEASUREMENT
 70
     1
  9
$CELWEIGHT
370
     0
  9
$ENDCAPS
280
     0
  9
$JOINSTYLE
280
     0
  9
$LWDISPLAY
290
     1
  9
$INSUNITS
 70
     4
  9
$HYPERLINKBASE
  1

  9
$STYLESHEET
  1

  9
$XEDIT
290
     1
  9
$CEPSNTYPE
380
     0
  9
$PSTYLEMODE
290
     1
  9
$FINGERPRINTGUID
  2

  9
$VERSIONGUID
  2

  9
$EXTNAMES
290
     1
  9
$PSVPSCALE
 40
0.0
  9
$OLESTARTUP
290
     0
  9
$SORTENTS
280
   127
  9
$INDEXCTL
280
     0
  9
$HIDETEXT
280
     1
  9
$XCLIPFRAME
290
     0
  9
$HALOGAP
280
     0
  9
$OBSCOLOR
 70
   257
  9
$OBSLTYPE
280
     0
  9
$INTERSECTIONDISPLAY
280
     0
  9
$INTERSECTIONCOLOR
 70
   257
  9
$DIMASSOC
280
     2
  9
$PROJECTNAME
  1

  9
$CAMERADISPLAY
290
     0
  9
$LENSLENGTH
 40
50.0
  9
$CAMERAHEIGHT
 40
0.0
  9
$STEPSPERSEC
 40
2.0
  9
$STEPSIZE
 40
6.0
  9
$3DDWFPREC
 40
2.0
  9
$PSOLWIDTH
 40
0.25
  9
$PSOLHEIGHT
 40
4.0
  9
$LOFTANG1
 40
1.570796326794897
  9
$LOFTANG2
 40
1.570796326794897
  9
$LOFTMAG1
 40
0.0
  9
$LOFTMAG2
 40
0.0
  9
$LOFTPARAM
 70
     7
  9
$LOFTNORMALS
280
     1
  9
$LATITUDE
 40
37.795
  9
$LONGITUDE
 40
-122.394
  9
$NORTHDIRECTION
 40
0.0
  9
$TIMEZONE
 70
 -8000
  9
$LIGHTGLYPHDISPLAY
280
     1
  9
$TILEMODELIGHTSYNCH
280
     1
  9
$SOLIDHIST
280
     1
  9
$SHOWHIST
280
     1
  9
$DWFFRAME
280
     2
  9
$DGNFRAME
280
     2
  9
$REALWORLDSCALE
290
     1
  9
$INTERFERECOLOR
 62
   256
  9
$CSHADOW
280
     0
  9
$SHADOWPLANELOCATION
 40
0.0
  0
ENDSEC
  0
SECTION
  2
CLASSES
  0
CLASS
  1
LWPOLYLINE
  2
AcDbPolyline
  3
ObjectDBX Classes
 90
        0
 91
        1
280
     0
281
     1
  0
CLASS
  1
IMAGE
  2
AcDbRasterImage
  3
ISM
 90
      127
 91
        5
280
     0
281
     1
  0
CLASS
  1
OLE2FRAME
  2
AcDbOle2Frame
  3
ObjectDBX Classes
 90
        0
 91
        1
280
     0
281
     1
  0
CLASS
  1
HATCH
  2
AcDbHatch
  3
ObjectDBX Classes
 90
        0
 91
        1
280
     0
281
     1
  0
CLASS
  1
DICTIONARYVAR
  2
AcDbDictionaryVar
  3
ObjectDBX Classes
 90
        0
 91
        4
280
     0
281
     0
  0
CLASS
  1
RASTERVARIABLES
  2
AcDbRasterVariables
  3
ISM
 90
        0
 91
        4
280
     0
281
     0
  0
CLASS
  1
IMAGEDEF
  2
AcDbRasterImageDef
  3
ISM
 90
        0
 91
        4
280
     0
281
     0
  0
CLASS
  1
IMAGEDEF_REACTOR
  2
AcDbRasterImageDefReactor
  3
ISM
 90
        1
 91
        4
280
     0
281
     0
  0
CLASS
  1
IDBUFFER
  2
AcDbIdBuffer
  3
ObjectDBX Classes
 90
        0
 91
        4
280
     0
281
     0
  0
CLASS
  1
SPATIAL_FILTER
  2
AcDbSpatialFilter
  3
ObjectDBX Classes
 90
        0
 91
        4
280
     0
281
     0
  0
CLASS
  1
XRECORD
  2
AcDbXrecord
  3
ObjectDBX Classes
 90
        0
 91
        1
280
     0
281
     0
  0
CLASS
  1
SORTENTSTABLE
  2
AcDbSortentsTable
  3
ObjectDBX Classes
 90
        0
 91
        4
280
     0
281
     0
  0
CLASS
  1
LAYER_INDEX
  2
AcDbLayerIndex
  3
ObjectDBX Classes
 90
        0
 91
        4
280
     0
281
     0
  0
CLASS
  1
SPATIAL_INDEX
  2
AcDbSpatialIndex
  3
AutoCAD 2000
 90
        0
 91
        4
280
     0
281
     0
  0
CLASS
  1
OBJECT_PTR
  2
CAseDLPNTableRecord
  3
ASE-LPNTableRecord
 90
        1
 91
        4
280
     0
281
     0
  0
CLASS
  1
LAYOUT
  2
AcDbLayout
  3
ObjectDBX Classes
 90
        0
 91
        1
280
     0
281
     0
  0
CLASS
  1
PLOTSETTINGS
  2
AcDbPlotSettings
  3
ObjectDBX Classes
 90
        0
 91
        4
280
     0
281
     0
  0
CLASS
  1
ACDBDICTIONARYWDFLT
  2
AcDbDictionaryWithDefault
  3
ObjectDBX Classes
 90
        0
 91
        4
280
     0
281
     0
  0
CLASS
  1
ACDBPLACEHOLDER
  2
AcDbPlaceHolder
  3
ObjectDBX Classes
 90
        0
 91
        1
280
     0
281
     0
  0
CLASS
  1
SCALE
  2
AcDbScale
  3
ObjectDBX Classes
 90
     1153
 91
        4
280
     0
281
     0
  0
CLASS
  1
VISUALSTYLE
  2
AcDbVisualStyle
  3
ObjectDBX Classes
 90
     4095
 91
        4
280
     0
281
     0
  0
CLASS
  1
MATERIAL
  2
AcDbMaterial
  3
ObjectDBX Classes
 90
     1153
 91
        4
280
     0
281
     0
  0
CLASS
  1
TABLESTYLE
  2
AcDbTableStyle
  3
ObjectDBX Classes
 90
     4095
 91
        4
280
     0
281
     0
  0
CLASS
  1
SUN
  2
AcDbSun
  3
SCENEOE
 90
     1153
 91
        4
280
     0
281
     0
  0
CLASS
  1
CELLSTYLEMAP
  2
AcDbCellStyleMap
  3
ObjectDBX Classes
 90
     1152
 91
        4
280
     0
281
     0
  0
CLASS
  1
MLEADERSTYLE
  2
AcDbMLeaderStyle
  3
ACDB_MLEADERSTYLE_CLASS
 90
     4095
 91
        4
280
     0
281
     0
  0
ENDSEC
  0
SECTION
  2
TABLES
  0
TABLE
  2
VPORT
  5
7
330
0
100
AcDbSymbolTable
 70
     1
  0
VPORT
  5
15
330
7
100
AcDbSymbolTableRecord
100
AcDbViewportTableRecord
  2
*ACTIVE
 70
     0
 10
0.0
 20
0.0
 11
1.0
 21
1.0
 12
10778.93402073367
 22
-3443.51685509926
 13
0.0
 23
0.0
 14
1.0
 24
1.0
 15
0.0
 25
0.0
 16
0.0
 26
0.0
 36
1.0
 17
0.0
 27
0.0
 37
0.0
 40
3786.75
 41
2.396092362344583
 42
50.0
 43
0.0
 44
0.0
 50
0.0
 51
0.0
 71
    16
 72
  2000
 73
     1
 74
     1
 75
     0
 76
     0
 77
     0
 78
     0
281
     0
 65
     0
110
0.0
120
0.0
130
0.0
111
1.0
121
0.0
131
0.0
112
0.0
122
1.0
132
0.0
 79
     0
146
0.0
348
274
 60
     3
 61
     5
292
     1
282
     1
141
0.0
142
0.0
 63
   250
361
28F
  0
ENDTAB
  0
TABLE
  2
LTYPE
  5
4
330
0
100
AcDbSymbolTable
 70
    14
  0
LTYPE
  5
11
330
4
100
AcDbSymbolTableRecord
100
AcDbLinetypeTableRecord
  2
ByBlock
 70
     0
  3

 72
    65
 73
     0
 40
0.0
  0
LTYPE
  5
12
330
4
100
AcDbSymbolTableRecord
100
AcDbLinetypeTableRecord
  2
ByLayer
 70
     0
  3

 72
    65
 73
     0
 40
0.0
  0
LTYPE
  5
13
330
4
100
AcDbSymbolTableRecord
100
AcDbLinetypeTableRecord
  2
Continuous
 70
     0
  3
Solid line
 72
    65
 73
     0
 40
0.0
  0
LTYPE
  5
35
330
4
100
AcDbSymbolTableRecord
100
AcDbLinetypeTableRecord
  2
STYLE_01
 70
     0
  3

 72
    65
 73
     2
 40
0.1107283464566929
 49
0.0738188976377953
 74
     0
 49
-0.0369094488188976
 74
     0
  0
LTYPE
  5
36
330
4
100
AcDbSymbolTableRecord
100
AcDbLinetypeTableRecord
  2
STYLE_02
 70
     0
  3

 72
    65
 73
     2
 40
0.6944250000000001
 49
0.48607
 74
     0
 49
-0.2083550000000001
 74
     0
  0
LTYPE
  5
37
330
4
100
AcDbSymbolTableRecord
100
AcDbLinetypeTableRecord
  2
STYLE_03
 70
     0
  3

 72
    65
 73
     2
 40
1.25
 49
1.04164
 74
     0
 49
-0.2083599999999999
 74
     0
  0
LTYPE
  5
38
330
4
100
AcDbSymbolTableRecord
100
AcDbLinetypeTableRecord
  2
STYLE_04
 70
     0
  3

 72
    65
 73
     2
 40
1.52771
 49
1.319425
 74
     0
 49
-0.208285
 74
     0
  0
LTYPE
  5
39
330
4
100
AcDbSymbolTableRecord
100
AcDbLinetypeTableRecord
  2
STYLE_05
 70
     0
  3

 72
    65
 73
     2
 40
0.20828
 49
0.069425
 74
     0
 49
-0.138855
 74
     0
  0
LTYPE
  5
3A
330
4
100
AcDbSymbolTableRecord
100
AcDbLinetypeTableRecord
  2
STYLE_06
 70
     0
  3

 72
    65
 73
     4
 40
1.04164
 49
0.625
 74
     0
 49
-0.20828
 74
     0
 49
0.06943
 74
     0
 49
-0.13893
 74
     0
  0
LTYPE
  5
3B
330
4
100
AcDbSymbolTableRecord
100
AcDbLinetypeTableRecord
  2
STYLE_07
 70
     0
  3

 72
    65
 73
     6
 40
1.875
 49
0.625
 74
     0
 49
-0.20828
 74
     0
 49
0.6250000000000001
 74
     0
 49
-0.2083599999999999
 74
     0
 49
0.06943
 74
     0
 49
-0.1389299999999999
 74
     0
  0
LTYPE
  5
3C
330
4
100
AcDbSymbolTableRecord
100
AcDbLinetypeTableRecord
  2
STYLE_08
 70
     0
  3

 72
    65
 73
     6
 40
1.25
 49
0.625
 74
     0
 49
-0.20828
 74
     0
 49
0.06943
 74
     0
 49
-0.13893
 74
     0
 49
0.0694299999999999
 74
     0
 49
-0.13893
 74
     0
  0
LTYPE
  5
3D
330
4
100
AcDbSymbolTableRecord
100
AcDbLinetypeTableRecord
  2
STYLE_09
 70
     0
  3

 72
    65
 73
     4
 40
5.0
 49
3.75
 74
     0
 49
-0.2777849999999998
 74
     0
 49
0.6944300000000003
 74
     0
 49
-0.2777849999999998
 74
     0
  0
LTYPE
  5
3E
330
4
100
AcDbSymbolTableRecord
100
AcDbLinetypeTableRecord
  2
STYLE_10
 70
     0
  3

 72
    65
 73
     6
 40
5.9375
 49
3.75
 74
     0
 49
-0.2777849999999998
 74
     0
 49
0.6944300000000003
 74
     0
 49
-0.2777849999999998
 74
     0
 49
0.625
 74
     0
 49
-0.3125
 74
     0
  0
LTYPE
  5
3F
330
4
100
AcDbSymbolTableRecord
100
AcDbLinetypeTableRecord
  2
STYLE_11
 70
     0
  3

 72
    65
 73
     2
 40
0.516732283464567
 49
0.344488188976378
 74
     0
 49
-0.172244094488189
 74
     0
  0
LTYPE
  5
40
330
4
100
AcDbSymbolTableRecord
100
AcDbLinetypeTableRecord
  2
STYLE_12
 70
     0
  3

 72
    65
 73
     2
 40
0.0694444881889764
 49
0.0347222440944882
 74
     0
 49
-0.0347222440944882
 74
     0
  0
LTYPE
  5
41
330
4
100
AcDbSymbolTableRecord
100
AcDbLinetypeTableRecord
  2
STYLE_13
 70
     0
  3

 72
    65
 73
     2
 40
0.3937007874015748
 49
0.1968503937007874
 74
     0
 49
-0.1968503937007874
 74
     0
  0
ENDTAB
  0
TABLE
  2
LAYER
  5
2
102
{ACAD_XDICTIONARY
360
349
102
}
330
0
100
AcDbSymbolTable
 70
     8
  0
LAYER
  5
14
330
2
100
AcDbSymbolTableRecord
100
AcDbLayerTableRecord
  2
0
 70
     0
 62
     7
  6
Continuous
370
    -3
390
1D
347
28B
  0
LAYER
  5
42
330
2
100
AcDbSymbolTableRecord
100
AcDbLayerTableRecord
  2
Defpoints
 70
     0
 62
     7
  6
Continuous
290
     0
370
    -3
390
1D
347
28B
  0
LAYER
  5
43
330
2
100
AcDbSymbolTableRecord
100
AcDbLayerTableRecord
  2
template
 70
     0
 62
     7
  6
Continuous
370
    20
390
1D
347
28B
  0
LAYER
  5
44
330
2
100
AcDbSymbolTableRecord
100
AcDbLayerTableRecord
  2
notes
 70
     0
 62
     7
  6
Continuous
370
    -3
390
1D
347
28B
  0
LAYER
  5
45
330
2
100
AcDbSymbolTableRecord
100
AcDbLayerTableRecord
  2
ADF70-2401
 70
     0
 62
     7
  6
Continuous
370
    -3
390
1D
347
28B
  0
LAYER
  5
2E4
330
2
100
AcDbSymbolTableRecord
100
AcDbLayerTableRecord
  2
MODEL
 70
     0
 62
     7
  6
Continuous
370
    20
390
1D
347
28B
  0
LAYER
  5
2E6
330
2
100
AcDbSymbolTableRecord
100
AcDbLayerTableRecord
  2
レイヤー 1
 70
     0
 62
    -7
  6
Continuous
370
    -3
390
1D
347
28B
  0
LAYER
  5
364
330
2
100
AcDbSymbolTableRecord
100
AcDbLayerTableRecord
  2
DIM
 70
     0
 62
     7
  6
Continuous
370
    13
390
1D
347
28B
1001
AcAecLayerStandard
1000

1000

  0
ENDTAB
  0
TABLE
  2
STYLE
  5
3
330
0
100
AcDbSymbolTable
 70
     2
  0
STYLE
  5
17
330
3
100
AcDbSymbolTableRecord
100
AcDbTextStyleTableRecord
  2
Standard
 70
     0
 40
0.0
 41
1.0
 50
0.0
 71
     0
 42
0.0
  3
txt
  4
BIGFONT.SHX
  0
STYLE
  5
34
330
3
100
AcDbSymbolTableRecord
100
AcDbTextStyleTableRecord
  2
ＭＳ ゴシック
 70
     0
 40
0.0
 41
1.0
 50
0.0
 71
     0
 42
0.0
  3
msgothic.ttc
  4
ＭＳ ゴシック
1001
ACAD
1000
ＭＳ ゴシック
1071
        0
  0
ENDTAB
  0
TABLE
  2
VIEW
  5
5
330
0
100
AcDbSymbolTable
 70
     0
  0
ENDTAB
  0
TABLE
  2
UCS
  5
6
330
0
100
AcDbSymbolTable
 70
     0
  0
ENDTAB
  0
TABLE
  2
APPID
  5
8
330
0
100
AcDbSymbolTable
 70
     3
  0
APPID
  5
16
330
8
100
AcDbSymbolTableRecord
100
AcDbRegAppTableRecord
  2
ACAD
 70
     0
  0
APPID
  5
365
330
8
100
AcDbSymbolTableRecord
100
AcDbRegAppTableRecord
  2
AcAecLayerStandard
 70
     0
  0
APPID
  5
37D
330
8
100
AcDbSymbolTableRecord
100
AcDbRegAppTableRecord
  2
ACAD_MLEADERVER
 70
     0
  0
ENDTAB
  0
TABLE
  2
DIMSTYLE
  5
9
330
0
100
AcDbSymbolTable
 70
     4
100
AcDbDimStyleTable
  0
DIMSTYLE
105
18
330
9
100
AcDbSymbolTableRecord
100
AcDbDimStyleTableRecord
  2
Standard
 70
     0
178
     0
340
17
  0
DIMSTYLE
105
4E
102
{ACAD_REACTORS
330
2D3
102
}
330
9
100
AcDbSymbolTableRecord
100
AcDbDimStyleTableRecord
  2
tfrom線あり
 70
     0
  3
<>
  4
[]
 41
9.999389648437498
 42
25.0
 43
0.9999999999999999
 44
0.0
 73
     0
 74
     0
 77
     1
 78
    11
140
24.4326171875
141
0.0
143
1.0
147
0.4999999999999999
171
     1
174
     1
178
     0
179
     2
271
     1
272
     1
276
     2
284
    11
285
    11
286
    11
289
     0
340
34
341
46
342
46
  0
DIMSTYLE
105
4F
330
9
100
AcDbSymbolTableRecord
100
AcDbDimStyleTableRecord
  2
tform線あり
 70
     0
  3
<>
  4
[]
 41
9.999389648437498
 42
25.0
 43
0.9999999999999999
 44
0.0
 73
     0
 74
     0
 77
     1
 78
    11
140
24.4326171875
141
0.0
143
1.0
147
0.4999999999999999
171
     1
174
     1
178
     0
179
     2
271
     1
272
     1
276
     2
284
    11
285
    11
286
    11
289
     0
340
34
341
46
342
46
  0
DIMSTYLE
105
54
330
9
100
AcDbSymbolTableRecord
100
AcDbDimStyleTableRecord
  2
JIS
 70
     0
  3
<>
  4
[]
 41
31.75
 42
0.0
 43
6.99999999999994
 44
19.9999999999962
 73
     0
 74
     0
 77
     1
 78
    11
140
24.4326171875
141
0.0
143
1.0
147
1.00000000000108
171
     1
174
     1
178
     0
179
     2
271
     1
272
     1
276
     2
284
    11
285
    11
286
    11
289
     0
340
34
341
50
342
50
  0
ENDTAB
  0
TABLE
  2
BLOCK_RECORD
  5
1
330
0
100
AcDbSymbolTable
 70
    30
  0
BLOCK_RECORD
  5
A
330
1
100
AcDbSymbolTableRecord
100
AcDbBlockTableRecord
  2
*MODEL_SPACE
340
20
 70
     0
280
     1
281
     0
  0
BLOCK_RECORD
  5
B
330
1
100
AcDbSymbolTableRecord
100
AcDbBlockTableRecord
  2
*PAPER_SPACE
340
21
 70
     0
280
     1
281
     0
  0
BLOCK_RECORD
  5
46
330
1
100
AcDbSymbolTableRecord
100
AcDbBlockTableRecord
  2
_DOT
340
0
102
{BLKREFS
331
61
331
62
331
6E
331
6F
331
7B
331
7C
331
88
331
89
331
A2
331
A3
331
AF
331
B0
331
BC
331
BD
331
C9
331
CA
331
D6
331
D7
331
10A
331
10B
331
125
331
126
331
297
331
298
331
2A4
331
2A5
331
2B3
331
2B4
331
2BD
331
2BE
331
2CA
331
2CB
331
2DB
331
2DC
102
}
 70
     0
280
     1
281
     0
  0
BLOCK_RECORD
  5
50
330
1
100
AcDbSymbolTableRecord
100
AcDbBlockTableRecord
  2
VW_FILLEDARROW
340
0
 70
     0
280
     1
281
     0
  0
BLOCK_RECORD
  5
23
330
1
100
AcDbSymbolTableRecord
100
AcDbBlockTableRecord
  2
グループ
340
0
 70
     0
280
     1
281
     0
  0
BLOCK_RECORD
  5
24
330
1
100
AcDbSymbolTableRecord
100
AcDbBlockTableRecord
  2
*D3
340
0
 70
     0
280
     1
281
     0
  0
BLOCK_RECORD
  5
25
330
1
100
AcDbSymbolTableRecord
100
AcDbBlockTableRecord
  2
*D4
340
0
 70
     0
280
     1
281
     0
  0
BLOCK_RECORD
  5
26
330
1
100
AcDbSymbolTableRecord
100
AcDbBlockTableRecord
  2
*D5
340
0
 70
     0
280
     1
281
     0
  0
BLOCK_RECORD
  5
27
330
1
100
AcDbSymbolTableRecord
100
AcDbBlockTableRecord
  2
*D6
340
0
 70
     0
280
     1
281
     0
  0
BLOCK_RECORD
  5
28
330
1
100
AcDbSymbolTableRecord
100
AcDbBlockTableRecord
  2
*D7
340
0
 70
     0
280
     1
281
     0
  0
BLOCK_RECORD
  5
29
330
1
100
AcDbSymbolTableRecord
100
AcDbBlockTableRecord
  2
*D8
340
0
 70
     0
280
     1
281
     0
  0
BLOCK_RECORD
  5
2A
330
1
100
AcDbSymbolTableRecord
100
AcDbBlockTableRecord
  2
*D9
340
0
 70
     0
280
     1
281
     0
  0
BLOCK_RECORD
  5
2B
330
1
100
AcDbSymbolTableRecord
100
AcDbBlockTableRecord
  2
*D10
340
0
 70
     0
280
     1
281
     0
  0
BLOCK_RECORD
  5
2C
330
1
100
AcDbSymbolTableRecord
100
AcDbBlockTableRecord
  2
*D11
340
0
 70
     0
280
     1
281
     0
  0
BLOCK_RECORD
  5
2D
330
1
100
AcDbSymbolTableRecord
100
AcDbBlockTableRecord
  2
*D12
340
0
 70
     0
280
     1
281
     0
  0
BLOCK_RECORD
  5
2E
330
1
100
AcDbSymbolTableRecord
100
AcDbBlockTableRecord
  2
*D13
340
0
 70
     0
280
     1
281
     0
  0
BLOCK_RECORD
  5
2F
330
1
100
AcDbSymbolTableRecord
100
AcDbBlockTableRecord
  2
*D14
340
0
 70
     0
280
     1
281
     0
  0
BLOCK_RECORD
  5
30
330
1
100
AcDbSymbolTableRecord
100
AcDbBlockTableRecord
  2
*D15
340
0
 70
     0
280
     1
281
     0
  0
BLOCK_RECORD
  5
31
330
1
100
AcDbSymbolTableRecord
100
AcDbBlockTableRecord
  2
*D16
340
0
 70
     0
280
     1
281
     0
  0
BLOCK_RECORD
  5
32
330
1
100
AcDbSymbolTableRecord
100
AcDbBlockTableRecord
  2
*D17
340
0
 70
     0
280
     1
281
     0
  0
BLOCK_RECORD
  5
33
330
1
100
AcDbSymbolTableRecord
100
AcDbBlockTableRecord
  2
*D18
340
0
 70
     0
280
     1
281
     0
  0
BLOCK_RECORD
  5
291
330
1
100
AcDbSymbolTableRecord
100
AcDbBlockTableRecord
  2
*D19
340
0
 70
     0
280
     1
281
     0
  0
BLOCK_RECORD
  5
29E
330
1
100
AcDbSymbolTableRecord
100
AcDbBlockTableRecord
  2
*D20
340
0
 70
     0
280
     1
281
     0
  0
BLOCK_RECORD
  5
2AB
330
1
100
AcDbSymbolTableRecord
100
AcDbBlockTableRecord
  2
*D21
340
0
 70
     0
280
     1
281
     0
  0
BLOCK_RECORD
  5
2B7
330
1
100
AcDbSymbolTableRecord
100
AcDbBlockTableRecord
  2
*D22
340
0
 70
     0
280
     1
281
     0
  0
BLOCK_RECORD
  5
2C4
330
1
100
AcDbSymbolTableRecord
100
AcDbBlockTableRecord
  2
*D23
340
0
 70
     0
280
     1
281
     0
  0
BLOCK_RECORD
  5
2D4
330
1
100
AcDbSymbolTableRecord
100
AcDbBlockTableRecord
  2
*D24
340
0
 70
     0
280
     1
281
     0
  0
BLOCK_RECORD
  5
312
330
1
100
AcDbSymbolTableRecord
100
AcDbBlockTableRecord
  2
名称未設定-1
340
0
102
{BLKREFS
331
33D
102
}
 70
     1
280
     1
281
     0
  0
BLOCK_RECORD
  5
315
330
1
100
AcDbSymbolTableRecord
100
AcDbBlockTableRecord
  2
block 2
340
0
102
{BLKREFS
331
314
102
}
 70
     0
280
     1
281
     0
  0
BLOCK_RECORD
  5
318
330
1
100
AcDbSymbolTableRecord
100
AcDbBlockTableRecord
  2
block 3
340
0
102
{BLKREFS
331
317
102
}
 70
     0
280
     1
281
     0
  0
BLOCK_RECORD
  5
31B
330
1
100
AcDbSymbolTableRecord
100
AcDbBlockTableRecord
  2
block 4
340
0
102
{BLKREFS
331
31A
102
}
 70
     0
280
     1
281
     0
  0
BLOCK_RECORD
  5
32A
330
1
100
AcDbSymbolTableRecord
100
AcDbBlockTableRecord
  2
block 5
340
0
102
{BLKREFS
331
329
102
}
 70
     0
280
     1
281
     0
  0
ENDTAB
  0
ENDSEC
  0
SECTION
  2
BLOCKS
  0
BLOCK
  5
D
330
A
100
AcDbEntity
  8
0
390
1D
100
AcDbBlockBegin
  2
*MODEL_SPACE
 70
     0
 10
0.0
 20
0.0
 30
0.0
  3
*MODEL_SPACE
  1
*MODEL_SPACE
  0
ENDBLK
  5
E
330
A
100
AcDbEntity
  8
0
390
1D
100
AcDbBlockEnd
  0
BLOCK
  5
F
330
B
100
AcDbEntity
 67
     1
  8
0
390
1D
100
AcDbBlockBegin
  2
*PAPER_SPACE
 70
     0
 10
0.0
 20
0.0
 30
0.0
  3
*PAPER_SPACE
  1
*PAPER_SPACE
  0
ENDBLK
  5
10
330
B
100
AcDbEntity
 67
     1
  8
0
390
1D
100
AcDbBlockEnd
  0
BLOCK
  5
47
330
46
100
AcDbEntity
  8
0
390
1D
100
AcDbBlockBegin
  2
_DOT
 70
     0
 10
0.0
 20
0.0
 30
0.0
  3
_DOT
  1
_DOT
  0
POLYLINE
  5
48
330
46
100
AcDbEntity
  8
0
  6
ByBlock
 62
     0
370
    -2
390
1D
100
AcDb2dPolyline
 66
     1
 10
0.0
 20
0.0
 30
0.0
 70
     1
 40
0.5
 41
0.5
  0
VERTEX
  5
49
330
48
100
AcDbEntity
  8
0
  6
ByBlock
 62
     0
370
    -2
390
1D
100
AcDbVertex
100
AcDb2dVertex
 10
-0.25
 20
0.0
 30
0.0
 42
1.0
  0
VERTEX
  5
4A
330
48
100
AcDbEntity
  8
0
  6
ByBlock
 62
     0
370
    -2
390
1D
100
AcDbVertex
100
AcDb2dVertex
 10
0.25
 20
0.0
 30
0.0
 42
1.0
  0
SEQEND
  5
4B
330
48
100
AcDbEntity
  8
0
390
1D
  0
LINE
  5
4C
330
46
100
AcDbEntity
  8
0
  6
ByBlock
 62
     0
370
    -2
390
1D
100
AcDbLine
 10
-0.5
 20
0.0
 30
0.0
 11
-1.0
 21
0.0
 31
0.0
  0
ENDBLK
  5
4D
330
46
100
AcDbEntity
  8
0
390
1D
100
AcDbBlockEnd
  0
BLOCK
  5
51
330
50
100
AcDbEntity
  8
0
  6
ByBlock
 62
     0
370
    -2
390
1D
100
AcDbBlockBegin
  2
VW_FILLEDARROW
 70
     0
 10
0.0
 20
0.0
 30
0.0
  3
VW_FILLEDARROW
  1
VW_FILLEDARROW
  0
SOLID
  5
52
330
50
100
AcDbEntity
  8
0
 62
     0
370
    -2
390
1D
100
AcDbTrace
 10
0.0
 20
0.0
 30
0.0
 11
-0.9921874999999999
 21
-0.2658558393652545
 31
0.0
 12
-0.9921874999999999
 22
0.2658558393652548
 32
0.0
 13
-0.9921874999999999
 23
0.2658558393652548
 33
0.0
  0
ENDBLK
  5
53
330
50
100
AcDbEntity
  8
0
390
1D
100
AcDbBlockEnd
  0
BLOCK
  5
55
330
23
100
AcDbEntity
  8
template
390
1D
100
AcDbBlockBegin
  2
グループ
 70
     0
 10
0.0
 20
0.0
 30
0.0
  3
グループ
  1
グループ
  0
LWPOLYLINE
  5
56
330
23
100
AcDbEntity
  8
0
  6
Continuous
 62
     7
370
    15
390
1D
100
AcDbPolyline
 90
        8
 70
   129
 43
0.0
 10
884.5662495764795
 20
-1320.729613761992
 10
884.5662495764795
 20
-1326.727002455568
 10
875.0650526584762
 20
-1326.727002455568
 10
875.0650526584762
 20
-1351.177965719076
 10
866.7096753966935
 20
-1351.177965719076
 10
866.7096753966935
 20
-1326.727002455568
 10
857.376718450384
 20
-1326.727002455568
 10
857.376718450384
 20
-1320.729613761992
  0
LWPOLYLINE
  5
57
330
23
100
AcDbEntity
  8
0
  6
Continuous
 62
     7
370
    15
390
1D
100
AcDbPolyline
 90
      101
 70
   128
 43
0.0
 10
897.2945414070365
 20
-1321.457862254928
 10
897.3098914358217
 20
-1321.453501498243
 42
-0.0222221607819611
 10
897.5998960124925
 20
-1321.384877032998
 10
897.6156897764845
 20
-1321.381873609901
 42
-0.014688356558971
 10
897.8783924817103
 20
-1321.339870422952
 42
-0.0127458844182754
 10
898.1430314488622
 20
-1321.31233345488
 10
898.2054865271762
 20
-1321.307440032291
 42
-0.0198099018565922
 10
898.5963356366494
 20
-1321.292354874895
 10
898.6481471060968
 20
-1321.29240865056
 42
-0.0147617382763439
 10
899.1427705670725
 20
-1321.307528675805
 10
899.2154620219495
 20
-1321.311901282693
 42
-0.0162624549003703
 10
899.6056156514105
 20
-1321.348134157965
 10
899.7271480426649
 20
-1321.36342071696
 42
-0.0080020874670179
 10
899.8727270737613
 20
-1321.384103564229
 10
899.9110465443592
 20
-1321.390174842041
 42
-0.0053821929671471
 10
899.9795306496711
 20
-1321.401782365862
 10
899.2531249504725
 20
-1323.582710821576
 42
0.0108667757384965
 10
899.1858078803414
 20
-1323.569523706356
 10
899.1483398571522
 20
-1323.563025963762
 42
0.0170663203302171
 10
899.0051230702408
 20
-1323.54319636647
 10
898.9372477375537
 20
-1323.536149195882
 42
0.0220162375275561
 10
898.6568683296979
 20
-1323.519466835112
 10
898.5790127626472
 20
-1323.518267467846
 42
0.0282606915782861
 10
898.2433764390684
 20
-1323.532070744815
 10
898.1994631652957
 20
-1323.536370734818
 42
0.0169677213689158
 10
897.9535386703371
 20
-1323.56890778437
 42
0.0190576269865859
 10
897.7106307077537
 20
-1323.619054656478
 10
897.7043715196462
 20
-1323.620597630586
 42
0.0213685642844327
 10
897.4539870351704
 20
-1323.69379791569
 10
897.4484971402522
 20
-1323.69566091175
 42
0.0237595297590139
 10
897.1950022553534
 20
-1323.795345433646
 10
897.1899001813239
 20
-1323.797637209124
 42
0.0261857468821971
 10
896.9377294050928
 20
-1323.927173546499
 10
896.9273032160097
 20
-1323.933239020965
 42
0.0272553062014089
 10
896.6908734407684
 20
-1324.088611226911
 10
896.6561104272608
 20
-1324.114272375002
 42
0.0325996893174964
 10
896.5059550836074
 20
-1324.241020247975
 10
896.4822456544827
 20
-1324.263838276489
 42
0.0138050960636861
 10
896.3903624982743
 20
-1324.357287938039
 42
0.0125280103804073
 10
896.3035199654487
 20
-1324.45545126463
 10
896.2798395205324
 20
-1324.483609762827
 42
0.0205218024740269
 10
896.1547394450172
 20
-1324.645403077058
 10
896.1322731045316
 20
-1324.677062806883
 42
0.0163110129583004
 10
895.9765627252785
 20
-1324.912393241955
 10
895.9738388292293
 20
-1324.916817003938
 42
0.0131897341898936
 10
895.8270383083245
 20
-1325.169949096301
 10
895.8253382129569
 20
-1325.173067335438
 42
0.0107895576064575
 10
895.6875615107475
 20
-1325.43928254507
 10
895.6868286212211
 20
-1325.44077677772
 42
0.00913715072224
 10
895.5583486725698
 20
-1325.715301975483
 10
895.5286030411623
 20
-1325.782008482638
 42
0.0135418326350139
 10
895.3568891020907
 20
-1326.196946267907
 10
895.3232842936535
 20
-1326.284812410196
 42
0.0092834542415866
 10
895.1520552337356
 20
-1326.758710908494
 10
895.1264381060213
 20
-1326.833951978277
 42
0.0054261043579765
 10
895.0187999577249
 20
-1327.161715951352
 10
895.0012739715241
 20
-1327.217104113656
 42
0.0008225090821739
 10
894.9326039197175
 20
-1327.435372871731
 10
893.947914787784
 20
-1330.460264164988
 10
897.1805386278579
 20
-1330.460264164988
 10
896.6763461980045
 20
-1332.36474246334
 10
893.4202899160211
 20
-1332.36474246334
 10
887.5911408836673
 20
-1351.177965529345
 10
885.766043273357
 20
-1351.177965529345
 10
891.6007213088579
 20
-1332.36474246334
 10
889.1956049398176
 20
-1332.36474246334
 10
889.699797369671
 20
-1330.460264164988
 10
892.1283461806211
 20
-1330.460264164988
 10
892.9885010988097
 20
-1327.823851164289
 42
-0.0005863560626713
 10
893.0252357770338
 20
-1327.707024743932
 10
893.1013236106736
 20
-1327.466032444612
 42
-0.0087522378931626
 10
893.3007917541258
 20
-1326.870756357479
 10
893.3930560295464
 20
-1326.610616188945
 42
-0.0077400953828823
 10
893.650989688675
 20
-1325.917611511404
 10
893.6667546602555
 20
-1325.877180628014
 42
-0.0082369946330282
 10
893.9138391308659
 20
-1325.273101561822
 42
-0.008572523836593
 10
894.1810852268685
 20
-1324.677675522536
 10
894.2827148278767
 20
-1324.461254420549
 42
-0.0168109410597978
 10
894.5696592566062
 20
-1323.900046894446
 10
894.6955026470249
 20
-1323.673082861521
 42
-0.0007817726860867
 10
894.7497869971219
 20
-1323.575538616417
 10
894.749915303139
 20
-1323.575308907681
 42
-0.0036626142158355
 10
894.8048031671603
 20
-1323.478711027712
 42
-0.0080221150675933
 10
894.8619274225697
 20
-1323.383431792955
 10
894.8926273739282
 20
-1323.334040843837
 42
-0.0202139325573699
 10
895.0202831137327
 20
-1323.146059243159
 10
895.0743505789226
 20
-1323.072980378915
 42
-0.0249323791796301
 10
895.3335133726441
 20
-1322.756935136758
 10
895.3576531867687
 20
-1322.730320863848
 42
-0.0242132121537948
 10
895.6973339283078
 20
-1322.390437377647
 10
895.7452455010637
 20
-1322.346928241456
 42
-0.0251017527858646
 10
896.029227201702
 20
-1322.113935495693
 10
896.0306726785172
 20
-1322.112866238113
 42
-0.0130868069034236
 10
896.3289333284731
 20
-1321.904085769572
 10
896.3304951476156
 20
-1321.903052329297
 42
-0.0290329526392103
 10
896.6416062890091
 20
-1321.722226827668
 10
896.6714518509951
 20
-1321.707124444828
 42
-0.0160250190042912
 10
896.93735626476
 20
-1321.583108334615
 42
-0.0267600374784124
 10
897.2126323422287
 20
-1321.482360014066
 10
897.2393682617495
 20
-1321.47416745524
 42
-0.0049981587688867
 10
897.2945414070365
 20
-1321.457862254928
 42
-0.0049981587688867
  0
LWPOLYLINE
  5
58
330
23
100
AcDbEntity
  8
0
  6
Continuous
 62
     7
370
    15
390
1D
100
AcDbPolyline
 90
      118
 70
   128
 43
0.0
 10
917.1089089714834
 20
-1330.534247492815
 10
918.9840308959829
 20
-1330.534247492815
 10
918.145991990383
 20
-1333.215814019215
 42
-0.001058722924026
 10
918.1774478059345
 20
-1333.178909485884
 10
918.2356418965869
 20
-1333.110927229684
 42
-0.0071874740412911
 10
918.3860171146853
 20
-1332.940286537655
 10
918.5277398879472
 20
-1332.784050396342
 42
-0.0148118053510675
 10
918.9778691806604
 20
-1332.316436550328
 10
919.065091515559
 20
-1332.231039229478
 42
-0.0086273358697674
 10
919.4006403165702
 20
-1331.913663595459
 10
919.4444740327899
 20
-1331.873613951132
 42
-0.0103138323112259
 10
919.7024977350295
 20
-1331.647450813788
 10
919.7482721413431
 20
-1331.608968766539
 42
-0.0060206748569818
 10
919.9211202054688
 20
-1331.467174115773
 10
919.9231513363675
 20
-1331.465548410132
 42
-0.00670690272923
 10
920.0954441510173
 20
-1331.331397776347
 10
920.0979929169347
 20
-1331.329467606478
 42
-0.0076184352051037
 10
920.2688981828146
 20
-1331.204092731228
 42
-0.0089652861673213
 10
920.4438591455515
 20
-1331.084459470894
 10
920.4802108656942
 20
-1331.060548257412
 42
-0.0156916245943737
 10
920.6761703628542
 20
-1330.940285770938
 42
-0.0023299011062843
 10
920.8764324068425
 20
-1330.827107831392
 10
920.8918165392139
 20
-1330.818507836332
 42
-0.0107669341488876
 10
921.1260533643119
 20
-1330.694107702984
 10
921.14831816539
 20
-1330.682890953033
 42
-0.0078058045895063
 10
921.4319082833493
 20
-1330.545529497391
 10
921.4418153710519
 20
-1330.540920369526
 42
-0.0181829330467895
 10
921.7521247756719
 20
-1330.410056628428
 10
921.806180218231
 20
-1330.389541508488
 42
-0.0208411536031686
 10
922.1552651856846
 20
-1330.273451045994
 10
922.1696212858145
 20
-1330.269332601039
 42
-0.0222799817132056
 10
922.4983410797292
 20
-1330.1906910349
 10
922.5072300429681
 20
-1330.188979024314
 42
-0.0215509523882874
 10
922.8237010112462
 20
-1330.14206333578
 10
922.8661829722914
 20
-1330.13762580899
 42
-0.0182545924881279
 10
923.1002917516003
 20
-1330.121781983599
 10
923.1396927679339
 20
-1330.12055743852
 42
-0.0072962856527666
 10
923.2956156476373
 20
-1330.117988109997
 10
923.324715318219
 20
-1330.117933274593
 42
-0.005922751631543
 10
923.4224648173542
 20
-1330.118906986384
 10
923.4517070347721
 20
-1330.119544752986
 42
-0.0011833111898922
 10
923.4909583185586
 20
-1330.120493757297
 10
922.6955717229514
 20
-1332.659227702396
 42
0.0143932051541947
 10
922.6691703405987
 20
-1332.64902873235
 10
922.6618983681835
 20
-1332.646457513494
 42
0.0234388603514639
 10
922.6200675022508
 20
-1332.633838277778
 10
922.6113858393387
 20
-1332.631657315773
 42
0.0199162742974934
 10
922.5510970052617
 20
-1332.619040580439
 10
922.5302830674525
 20
-1332.61554338101
 42
0.0293643550662802
 10
922.427208208693
 20
-1332.604393335356
 10
922.4025230279731
 20
-1332.603181718338
 42
0.0214606686861301
 10
922.2493821120249
 20
-1332.60224315792
 10
922.2400102012026
 20
-1332.602588069465
 42
0.016756405419626
 10
922.0684900100863
 20
-1332.614665111834
 10
922.0600302173352
 20
-1332.61554645226
 42
0.0137677553242324
 10
921.8726769040679
 20
-1332.640295760804
 10
921.8653251645626
 20
-1332.641473680771
 42
0.0118497261482242
 10
921.66482740046
 20
-1332.678491030961
 10
921.658677393214
 20
-1332.679777893681
 42
0.0106421143885921
 10
921.4477965059332
 20
-1332.728610269254
 10
921.44288769754
 20
-1332.729857611941
 42
0.0099746379703955
 10
921.2244292283734
 20
-1332.790032140256
 10
921.1628811882072
 20
-1332.808314018886
 42
0.0191613675860635
 10
920.8268967256897
 20
-1332.922291399174
 10
920.7388369529456
 20
-1332.955978309497
 42
0.0205274080146583
 10
920.3535301810455
 20
-1333.121806717323
 10
920.2958808990655
 20
-1333.149474681895
 42
0.0181256912191736
 10
920.0376039583965
 20
-1333.285158500874
 10
919.9846485750803
 20
-1333.31547611409
 42
0.0140709242416099
 10
919.8396936404542
 20
-1333.403970787523
 10
919.8134447718387
 20
-1333.421027606236
 42
0.0086667884388171
 10
919.7245186102932
 20
-1333.481030274121
 42
0.0036408192026468
 10
919.6370853722589
 20
-1333.543211131914
 10
919.6018584977912
 20
-1333.568652077826
 42
0.0052260781272401
 10
919.4456298003983
 20
-1333.683984464462
 10
919.4294229441405
 20
-1333.696212575079
 42
0.0050024435896194
 10
919.243419601084
 20
-1333.839495143339
 10
919.2281014445665
 20
-1333.851541165787
 42
0.0136138710280662
 10
919.0176601762395
 20
-1334.026507670701
 10
918.9839923004477
 20
-1334.056086643414
 42
0.0172815186913013
 10
918.7195887587926
 20
-1334.30508331603
 10
918.7170264129425
 20
-1334.307669133185
 42
0.0189403857988116
 10
918.4664446143676
 20
-1334.580474397984
 10
918.4338131208262
 20
-1334.618818329488
 42
0.0185044199507949
 10
918.2418566818474
 20
-1334.862066910609
 42
0.0088565243902039
 10
918.0633965752185
 20
-1335.11558333076
 10
918.0542185955704
 20
-1335.129124710519
 42
0.0157195347225894
 10
917.8709979892355
 20
-1335.418646919836
 10
917.8249150473029
 20
-1335.49679911686
 42
0.0095451879781749
 10
917.6598294971678
 20
-1335.789393759212
 10
917.6486815782365
 20
-1335.810064431347
 42
0.0100351706256966
 10
917.516637829079
 20
-1336.067119991835
 42
0.0086935915424167
 10
917.3943066772855
 20
-1336.328953137238
 10
917.3909859358704
 20
-1336.336395460211
 42
0.0072580174863523
 10
917.2706394839271
 20
-1336.61698745179
 10
917.2673778506191
 20
-1336.624907477812
 42
0.0060005122616415
 10
917.1481771822754
 20
-1336.92451714842
 10
917.1449662039348
 20
-1336.932878676322
 42
0.0049017786984108
 10
917.0260660450807
 20
-1337.251807656917
 10
917.0229002386869
 20
-1337.260560594157
 42
0.0039415167598199
 10
916.903463960636
 20
-1337.599102656553
 10
916.9003328579781
 20
-1337.608205857446
 42
0.0031035838765009
 10
916.7795280722866
 20
-1337.966645719215
 10
916.7764180277546
 20
-1337.976066340594
 42
0.0025070747154535
 10
916.653516676432
 20
-1338.354713557561
 10
916.6162227800139
 20
-1338.471605222791
 42
0.0029081910284239
 10
916.4242044822038
 20
-1339.08576888108
 10
916.383401313686
 20
-1339.218992123359
 42
0.0009266453735485
 10
916.1149839393804
 20
-1340.101216583252
 10
916.0940964667631
 20
-1340.170328462411
 42
-0.0005809993663561
 10
915.8167597861395
 20
-1341.084136569157
 10
915.7504779878705
 20
-1341.301621501304
 42
-0.0012018708172766
 10
915.6034936784374
 20
-1341.779784165838
 10
915.5511738269282
 20
-1341.948543306522
 42
-0.0002691059615933
 10
915.5076043457033
 20
-1342.088810927046
 10
912.674648447414
 20
-1351.177965529345
 10
910.8566595554355
 20
-1351.177965529345
 10
917.1089089714834
 20
-1330.534247492815
  0
SPLINE
  5
59
330
23
100
AcDbEntity
  8
0
  6
Continuous
 62
     7
370
    15
390
1D
100
AcDbSpline
210
0.0
220
0.0
230
1.0
 70
    15
 71
     2
 72
   782
 73
   779
 74
     0
 42
0.000000001
 43
0.000001
 40
0.0
 40
0.0
 40
0.0
 40
1.0
 40
1.0
 40
2.0
 40
2.0
 40
3.0
 40
3.0
 40
4.0
 40
4.0
 40
5.0
 40
5.0
 40
6.0
 40
6.0
 40
7.0
 40
7.0
 40
8.0
 40
8.0
 40
9.0
 40
9.0
 40
10.0
 40
10.0
 40
11.0
 40
11.0
 40
12.0
 40
12.0
 40
13.0
 40
13.0
 40
14.0
 40
14.0
 40
15.0
 40
15.0
 40
16.0
 40
16.0
 40
17.0
 40
17.0
 40
18.0
 40
18.0
 40
19.0
 40
19.0
 40
20.0
 40
20.0
 40
21.0
 40
21.0
 40
22.0
 40
22.0
 40
23.0
 40
23.0
 40
24.0
 40
24.0
 40
25.0
 40
25.0
 40
26.0
 40
26.0
 40
27.0
 40
27.0
 40
28.0
 40
28.0
 40
29.0
 40
29.0
 40
30.0
 40
30.0
 40
31.0
 40
31.0
 40
32.0
 40
32.0
 40
33.0
 40
33.0
 40
34.0
 40
34.0
 40
35.0
 40
35.0
 40
36.0
 40
36.0
 40
37.0
 40
37.0
 40
38.0
 40
38.0
 40
39.0
 40
39.0
 40
40.0
 40
40.0
 40
41.0
 40
41.0
 40
42.0
 40
42.0
 40
43.0
 40
43.0
 40
44.0
 40
44.0
 40
45.0
 40
45.0
 40
46.0
 40
46.0
 40
47.0
 40
47.0
 40
48.0
 40
48.0
 40
49.0
 40
49.0
 40
50.0
 40
50.0
 40
51.0
 40
51.0
 40
52.0
 40
52.0
 40
53.0
 40
53.0
 40
54.0
 40
54.0
 40
55.0
 40
55.0
 40
56.0
 40
56.0
 40
57.0
 40
57.0
 40
58.0
 40
58.0
 40
59.0
 40
59.0
 40
60.0
 40
60.0
 40
61.0
 40
61.0
 40
62.0
 40
62.0
 40
63.0
 40
63.0
 40
64.0
 40
64.0
 40
65.0
 40
65.0
 40
66.0
 40
66.0
 40
67.0
 40
67.0
 40
68.0
 40
68.0
 40
69.0
 40
69.0
 40
70.0
 40
70.0
 40
71.0
 40
71.0
 40
72.0
 40
72.0
 40
73.0
 40
73.0
 40
74.0
 40
74.0
 40
75.0
 40
75.0
 40
76.0
 40
76.0
 40
77.0
 40
77.0
 40
78.0
 40
78.0
 40
79.0
 40
79.0
 40
80.0
 40
80.0
 40
81.0
 40
81.0
 40
82.0
 40
82.0
 40
83.0
 40
83.0
 40
84.0
 40
84.0
 40
85.0
 40
85.0
 40
86.0
 40
86.0
 40
87.0
 40
87.0
 40
88.0
 40
88.0
 40
89.0
 40
89.0
 40
90.0
 40
90.0
 40
91.0
 40
91.0
 40
92.0
 40
92.0
 40
93.0
 40
93.0
 40
94.0
 40
94.0
 40
95.0
 40
95.0
 40
96.0
 40
96.0
 40
97.0
 40
97.0
 40
98.0
 40
98.0
 40
99.0
 40
99.0
 40
100.0
 40
100.0
 40
101.0
 40
101.0
 40
102.0
 40
102.0
 40
103.0
 40
103.0
 40
104.0
 40
104.0
 40
105.0
 40
105.0
 40
106.0
 40
106.0
 40
107.0
 40
107.0
 40
108.0
 40
108.0
 40
109.0
 40
109.0
 40
110.0
 40
110.0
 40
111.0
 40
111.0
 40
112.0
 40
112.0
 40
113.0
 40
113.0
 40
114.0
 40
114.0
 40
115.0
 40
115.0
 40
116.0
 40
116.0
 40
117.0
 40
117.0
 40
118.0
 40
118.0
 40
119.0
 40
119.0
 40
120.0
 40
120.0
 40
121.0
 40
121.0
 40
122.0
 40
122.0
 40
123.0
 40
123.0
 40
124.0
 40
124.0
 40
125.0
 40
125.0
 40
126.0
 40
126.0
 40
127.0
 40
127.0
 40
128.0
 40
128.0
 40
129.0
 40
129.0
 40
130.0
 40
130.0
 40
131.0
 40
131.0
 40
132.0
 40
132.0
 40
133.0
 40
133.0
 40
134.0
 40
134.0
 40
135.0
 40
135.0
 40
136.0
 40
136.0
 40
137.0
 40
137.0
 40
138.0
 40
138.0
 40
139.0
 40
139.0
 40
140.0
 40
140.0
 40
141.0
 40
141.0
 40
142.0
 40
142.0
 40
143.0
 40
143.0
 40
144.0
 40
144.0
 40
145.0
 40
145.0
 40
146.0
 40
146.0
 40
147.0
 40
147.0
 40
148.0
 40
148.0
 40
149.0
 40
149.0
 40
150.0
 40
150.0
 40
151.0
 40
151.0
 40
152.0
 40
152.0
 40
153.0
 40
153.0
 40
154.0
 40
154.0
 40
155.0
 40
155.0
 40
156.0
 40
156.0
 40
157.0
 40
157.0
 40
158.0
 40
158.0
 40
159.0
 40
159.0
 40
160.0
 40
160.0
 40
161.0
 40
161.0
 40
162.0
 40
162.0
 40
163.0
 40
163.0
 40
164.0
 40
164.0
 40
165.0
 40
165.0
 40
166.0
 40
166.0
 40
167.0
 40
167.0
 40
168.0
 40
168.0
 40
169.0
 40
169.0
 40
170.0
 40
170.0
 40
171.0
 40
171.0
 40
172.0
 40
172.0
 40
173.0
 40
173.0
 40
174.0
 40
174.0
 40
175.0
 40
175.0
 40
176.0
 40
176.0
 40
177.0
 40
177.0
 40
178.0
 40
178.0
 40
179.0
 40
179.0
 40
180.0
 40
180.0
 40
181.0
 40
181.0
 40
182.0
 40
182.0
 40
183.0
 40
183.0
 40
184.0
 40
184.0
 40
185.0
 40
185.0
 40
186.0
 40
186.0
 40
187.0
 40
187.0
 40
188.0
 40
188.0
 40
189.0
 40
189.0
 40
190.0
 40
190.0
 40
191.0
 40
191.0
 40
192.0
 40
192.0
 40
193.0
 40
193.0
 40
194.0
 40
194.0
 40
195.0
 40
195.0
 40
196.0
 40
196.0
 40
197.0
 40
197.0
 40
198.0
 40
198.0
 40
199.0
 40
199.0
 40
200.0
 40
200.0
 40
201.0
 40
201.0
 40
202.0
 40
202.0
 40
203.0
 40
203.0
 40
204.0
 40
204.0
 40
205.0
 40
205.0
 40
206.0
 40
206.0
 40
207.0
 40
207.0
 40
208.0
 40
208.0
 40
209.0
 40
209.0
 40
210.0
 40
210.0
 40
211.0
 40
211.0
 40
212.0
 40
212.0
 40
213.0
 40
213.0
 40
214.0
 40
214.0
 40
215.0
 40
215.0
 40
216.0
 40
216.0
 40
217.0
 40
217.0
 40
218.0
 40
218.0
 40
219.0
 40
219.0
 40
220.0
 40
220.0
 40
221.0
 40
221.0
 40
222.0
 40
222.0
 40
223.0
 40
223.0
 40
224.0
 40
224.0
 40
225.0
 40
225.0
 40
226.0
 40
226.0
 40
227.0
 40
227.0
 40
228.0
 40
228.0
 40
229.0
 40
229.0
 40
230.0
 40
230.0
 40
231.0
 40
231.0
 40
232.0
 40
232.0
 40
233.0
 40
233.0
 40
234.0
 40
234.0
 40
235.0
 40
235.0
 40
236.0
 40
236.0
 40
237.0
 40
237.0
 40
238.0
 40
238.0
 40
239.0
 40
239.0
 40
240.0
 40
240.0
 40
241.0
 40
241.0
 40
242.0
 40
242.0
 40
243.0
 40
243.0
 40
244.0
 40
244.0
 40
245.0
 40
245.0
 40
246.0
 40
246.0
 40
247.0
 40
247.0
 40
248.0
 40
248.0
 40
249.0
 40
249.0
 40
250.0
 40
250.0
 40
251.0
 40
251.0
 40
252.0
 40
252.0
 40
253.0
 40
253.0
 40
254.0
 40
254.0
 40
255.0
 40
255.0
 40
256.0
 40
256.0
 40
257.0
 40
257.0
 40
258.0
 40
258.0
 40
259.0
 40
259.0
 40
260.0
 40
260.0
 40
261.0
 40
261.0
 40
262.0
 40
262.0
 40
263.0
 40
263.0
 40
264.0
 40
264.0
 40
265.0
 40
265.0
 40
266.0
 40
266.0
 40
267.0
 40
267.0
 40
268.0
 40
268.0
 40
269.0
 40
269.0
 40
270.0
 40
270.0
 40
271.0
 40
271.0
 40
272.0
 40
272.0
 40
273.0
 40
273.0
 40
274.0
 40
274.0
 40
275.0
 40
275.0
 40
276.0
 40
276.0
 40
277.0
 40
277.0
 40
278.0
 40
278.0
 40
279.0
 40
279.0
 40
280.0
 40
280.0
 40
281.0
 40
281.0
 40
282.0
 40
282.0
 40
283.0
 40
283.0
 40
284.0
 40
284.0
 40
285.0
 40
285.0
 40
286.0
 40
286.0
 40
287.0
 40
287.0
 40
288.0
 40
288.0
 40
289.0
 40
289.0
 40
290.0
 40
290.0
 40
291.0
 40
291.0
 40
292.0
 40
292.0
 40
293.0
 40
293.0
 40
294.0
 40
294.0
 40
295.0
 40
295.0
 40
296.0
 40
296.0
 40
297.0
 40
297.0
 40
298.0
 40
298.0
 40
299.0
 40
299.0
 40
300.0
 40
300.0
 40
301.0
 40
301.0
 40
302.0
 40
302.0
 40
303.0
 40
303.0
 40
304.0
 40
304.0
 40
305.0
 40
305.0
 40
306.0
 40
306.0
 40
307.0
 40
307.0
 40
308.0
 40
308.0
 40
309.0
 40
309.0
 40
310.0
 40
310.0
 40
311.0
 40
311.0
 40
312.0
 40
312.0
 40
313.0
 40
313.0
 40
314.0
 40
314.0
 40
315.0
 40
315.0
 40
316.0
 40
316.0
 40
317.0
 40
317.0
 40
318.0
 40
318.0
 40
319.0
 40
319.0
 40
320.0
 40
320.0
 40
321.0
 40
321.0
 40
322.0
 40
322.0
 40
323.0
 40
323.0
 40
324.0
 40
324.0
 40
325.0
 40
325.0
 40
326.0
 40
326.0
 40
327.0
 40
327.0
 40
328.0
 40
328.0
 40
329.0
 40
329.0
 40
330.0
 40
330.0
 40
331.0
 40
331.0
 40
332.0
 40
332.0
 40
333.0
 40
333.0
 40
334.0
 40
334.0
 40
335.0
 40
335.0
 40
336.0
 40
336.0
 40
337.0
 40
337.0
 40
338.0
 40
338.0
 40
339.0
 40
339.0
 40
340.0
 40
340.0
 40
341.0
 40
341.0
 40
342.0
 40
342.0
 40
343.0
 40
343.0
 40
344.0
 40
344.0
 40
345.0
 40
345.0
 40
346.0
 40
346.0
 40
347.0
 40
347.0
 40
348.0
 40
348.0
 40
349.0
 40
349.0
 40
350.0
 40
350.0
 40
351.0
 40
351.0
 40
352.0
 40
352.0
 40
353.0
 40
353.0
 40
354.0
 40
354.0
 40
355.0
 40
355.0
 40
356.0
 40
356.0
 40
357.0
 40
357.0
 40
358.0
 40
358.0
 40
359.0
 40
359.0
 40
360.0
 40
360.0
 40
361.0
 40
361.0
 40
362.0
 40
362.0
 40
363.0
 40
363.0
 40
364.0
 40
364.0
 40
365.0
 40
365.0
 40
366.0
 40
366.0
 40
367.0
 40
367.0
 40
368.0
 40
368.0
 40
369.0
 40
369.0
 40
370.0
 40
370.0
 40
371.0
 40
371.0
 40
372.0
 40
372.0
 40
373.0
 40
373.0
 40
374.0
 40
374.0
 40
375.0
 40
375.0
 40
376.0
 40
376.0
 40
377.0
 40
377.0
 40
378.0
 40
378.0
 40
379.0
 40
379.0
 40
380.0
 40
380.0
 40
381.0
 40
381.0
 40
382.0
 40
382.0
 40
383.0
 40
383.0
 40
384.0
 40
384.0
 40
385.0
 40
385.0
 40
386.0
 40
386.0
 40
387.0
 40
387.0
 40
388.0
 40
388.0
 40
389.0
 40
389.0
 40
389.0
 10
927.437613422216
 20
-1330.523321129453
 30
0.0
 41
1.0
 10
928.2560375309365
 20
-1330.523321129453
 30
0.0
 41
1.0
 10
929.074461639657
 20
-1330.523321129453
 30
0.0
 41
1.0
 10
928.6607079041403
 20
-1331.865947393703
 30
0.0
 41
1.0
 10
928.2469541686235
 20
-1333.208573657952
 30
0.0
 41
1.0
 10
928.2652936637918
 20
-1333.17987288504
 30
0.0
 41
0.9999957264346008
 10
928.2838006606239
 20
-1333.151279834887
 30
0.0
 41
1.0
 10
928.3142299847603
 20
-1333.104266956513
 30
0.0
 41
1.0
 10
928.3446593088968
 20
-1333.057254078138
 30
0.0
 41
1.0
 10
928.4240249540024
 20
-1332.934635271236
 30
0.0
 41
0.999539406908163
 10
928.5106833455526
 20
-1332.817057209496
 30
0.0
 41
1.0
 10
928.5464402078155
 20
-1332.768542316899
 30
0.0
 41
1.0
 10
928.5821970700785
 20
-1332.720027424301
 30
0.0
 41
1.0
 10
928.7159237378954
 20
-1332.538587149176
 30
0.0
 41
0.9994460617143546
 10
928.8614242191804
 20
-1332.36644475153
 30
0.0
 41
1.0
 10
928.865812400155
 20
-1332.361253071148
 30
0.0
 41
1.0
 10
928.8702005811297
 20
-1332.356061390765
 30
0.0
 41
1.0
 10
929.0069247004681
 20
-1332.194302353881
 30
0.0
 41
0.9994359394934357
 10
929.1541989308198
 20
-1332.042086152716
 30
0.0
 41
1.0
 10
929.1565822847754
 20
-1332.03962282234
 30
0.0
 41
1.0
 10
929.1589656387309
 20
-1332.037159491965
 30
0.0
 41
1.0
 10
929.3014731611729
 20
-1331.88986995155
 30
0.0
 41
0.9995293688567869
 10
929.4527448421534
 20
-1331.751596739387
 30
0.0
 41
1.0
 10
929.472038601418
 20
-1331.733960853735
 30
0.0
 41
1.0
 10
929.4913323606828
 20
-1331.716324968082
 30
0.0
 41
1.0
 10
929.6040165231391
 20
-1331.61332352722
 30
0.0
 41
0.9997087614803121
 10
929.7215394120906
 20
-1331.515879246425
 30
0.0
 41
1.0
 10
929.7407054852704
 20
-1331.499987667914
 30
0.0
 41
1.0
 10
929.7598715584501
 20
-1331.484096089402
 30
0.0
 41
1.0
 10
929.8390623010532
 20
-1331.418434965621
 30
0.0
 41
0.9999595338700483
 10
929.9194215719008
 20
-1331.354209234972
 30
0.0
 41
1.0
 10
929.9997808427447
 20
-1331.289983504326
 30
0.0
 41
0.9999749417508439
 10
930.0810413770865
 20
-1331.226901950381
 30
0.0
 41
1.0
 10
930.1020275232697
 20
-1331.210610663063
 30
0.0
 41
1.0
 10
930.123013669453
 20
-1331.194319375745
 30
0.0
 41
1.0
 10
930.2075815547415
 20
-1331.128670365915
 30
0.0
 41
0.9999792037125248
 10
930.2929891545018
 20
-1331.064117584278
 30
0.0
 41
1.0
 10
930.3138139804153
 20
-1331.048377762019
 30
0.0
 41
1.0
 10
930.3346388063288
 20
-1331.032637939759
 30
0.0
 41
1.0
 10
930.3783967542911
 20
-1330.999564802619
 30
0.0
 41
0.9999993374025555
 10
930.4220784404145
 20
-1330.96639100721
 30
0.0
 41
1.0
 10
930.4657601265574
 20
-1330.933217211786
 30
0.0
 41
0.9999160953814579
 10
930.510286537477
 20
-1330.901186146588
 30
0.0
 41
1.0
 10
930.5431084248967
 20
-1330.877574991003
 30
0.0
 41
1.0
 10
930.5759303123162
 20
-1330.853963835418
 30
0.0
 41
1.0
 10
930.6861004980752
 20
-1330.77471045905
 30
0.0
 41
0.9980964527232308
 10
930.8051894915754
 20
-1330.709622986194
 30
0.0
 41
1.0
 10
930.8422220985026
 20
-1330.689383006602
 30
0.0
 41
1.0
 10
930.8792547054297
 20
-1330.669143027009
 30
0.0
 41
1.0
 10
931.0585817187035
 20
-1330.571132776307
 30
0.0
 41
0.9984572810572158
 10
931.2476702850636
 20
-1330.49361051496
 30
0.0
 41
1.0
 10
931.2513165544581
 20
-1330.492115622623
 30
0.0
 41
1.0
 10
931.2549628238526
 20
-1330.490620730286
 30
0.0
 41
1.0
 10
931.436758851421
 20
-1330.416088253615
 30
0.0
 41
0.9987838528034039
 10
931.6250115099817
 20
-1330.359822613448
 30
0.0
 41
1.0
 10
931.6292494591813
 20
-1330.358555959758
 30
0.0
 41
1.0
 10
931.6334874083809
 20
-1330.357289306068
 30
0.0
 41
1.0
 10
931.8132641685418
 20
-1330.303556973282
 30
0.0
 41
0.9990652816207015
 10
931.9970101002568
 20
-1330.265553293741
 30
0.0
 41
1.0
 10
932.0021985012894
 20
-1330.264480190634
 30
0.0
 41
1.0
 10
932.007386902322
 20
-1330.263407087527
 30
0.0
 41
1.0
 10
932.1807560319739
 20
-1330.227549614198
 30
0.0
 41
0.99929099342706
 10
932.356331798431
 20
-1330.204839181732
 30
0.0
 41
1.0
 10
932.5319075648906
 20
-1330.182128749266
 30
0.0
 41
0.9994553539448804
 10
932.708598997985
 20
-1330.171049445059
 30
0.0
 41
1.0
 10
932.7440334057795
 20
-1330.168827557011
 30
0.0
 41
1.0
 10
932.7794678135741
 20
-1330.166605668964
 30
0.0
 41
1.0
 10
932.9456935801434
 20
-1330.156182606552
 30
0.0
 41
0.9990928098293291
 10
933.1122033720458
 20
-1330.159942247786
 30
0.0
 41
1.0
 10
933.1507652073163
 20
-1330.160812939319
 30
0.0
 41
1.0
 10
933.1893270425869
 20
-1330.161683630852
 30
0.0
 41
1.0
 10
933.278713163947
 20
-1330.163701889021
 30
0.0
 41
0.9998382089204527
 10
933.3679688467346
 20
-1330.168934015549
 30
0.0
 41
1.0
 10
933.3683987529523
 20
-1330.168959216451
 30
0.0
 41
1.0
 10
933.36882865917
 20
-1330.168984417353
 30
0.0
 41
1.0
 10
933.4572245295187
 20
-1330.174166142077
 30
0.0
 41
0.9997558016757971
 10
933.5453051067216
 20
-1330.183248657444
 30
0.0
 41
1.0
 10
933.5457812451534
 20
-1330.183297754926
 30
0.0
 41
1.0
 10
933.5462573835853
 20
-1330.183346852409
 30
0.0
 41
1.0
 10
933.6333856839245
 20
-1330.19233117281
 30
0.0
 41
0.9996565144181502
 10
933.7199235372645
 20
-1330.205868479499
 30
0.0
 41
1.0
 10
933.7203894626434
 20
-1330.205941365231
 30
0.0
 41
1.0
 10
933.7208553880222
 20
-1330.206014250962
 30
0.0
 41
1.0
 10
933.8064613906079
 20
-1330.219405786188
 30
0.0
 41
0.9995321806867333
 10
933.8910884709345
 20
-1330.238006274617
 30
0.0
 41
1.0
 10
933.8914776655048
 20
-1330.238091817083
 30
0.0
 41
1.0
 10
933.8918668600751
 20
-1330.238177359548
 30
0.0
 41
1.0
 10
933.975715551261
 20
-1330.256606763046
 30
0.0
 41
0.9993819199219774
 10
934.0580620854587
 20
-1330.280882146307
 30
0.0
 41
1.0
 10
934.0583005189565
 20
-1330.280952435417
 30
0.0
 41
1.0
 10
934.0585389524543
 20
-1330.281022724526
 30
0.0
 41
1.0
 10
934.1404086196549
 20
-1330.305157529568
 30
0.0
 41
0.9992088568504814
 10
934.2201011386431
 20
-1330.335722765362
 30
0.0
 41
1.0
 10
934.2997821295221
 20
-1330.366282366096
 30
0.0
 41
0.9990226101773265
 10
934.3764527994293
 20
-1330.40375979771
 30
0.0
 41
1.0
 10
934.4531119412276
 20
-1330.441231594264
 30
0.0
 41
0.9988424273973239
 10
934.525815568441
 20
-1330.485896369517
 30
0.0
 41
1.0
 10
934.5260832768197
 20
-1330.486060833589
 30
0.0
 41
1.0
 10
934.5263509851984
 20
-1330.486225297661
 30
0.0
 41
1.0
 10
934.5995900291683
 20
-1330.531219001057
 30
0.0
 41
0.9986928844489381
 10
934.6678528958781
 20
-1330.583454735337
 30
0.0
 41
1.0
 10
934.6684341881014
 20
-1330.583899548566
 30
0.0
 41
1.0
 10
934.6690154803246
 20
-1330.584344361794
 30
0.0
 41
1.0
 10
934.7384409314807
 20
-1330.63746972253
 30
0.0
 41
0.9986007262279069
 10
934.801867101247
 20
-1330.697630492223
 30
0.0
 41
1.0
 10
934.8027615167041
 20
-1330.698478860058
 30
0.0
 41
1.0
 10
934.8036559321611
 20
-1330.699327227893
 30
0.0
 41
1.0
 10
934.8688709328414
 20
-1330.761184733256
 30
0.0
 41
0.9985581491380875
 10
934.9270785445428
 20
-1330.829677223527
 30
0.0
 41
1.0
 10
934.9363369981392
 20
-1330.84057158123
 30
0.0
 41
1.0
 10
934.9455954517355
 20
-1330.851465938932
 30
0.0
 41
1.0
 10
935.0223199706288
 20
-1330.941747144607
 30
0.0
 41
0.9970460233520031
 10
935.084311871789
 20
-1331.04271422879
 30
0.0
 41
1.0
 10
935.0987812368684
 20
-1331.066280687871
 30
0.0
 41
1.0
 10
935.1132506019477
 20
-1331.089847146952
 30
0.0
 41
1.0
 10
935.1529873019592
 20
-1331.154566870982
 30
0.0
 41
0.9988468816635977
 10
935.186333672711
 20
-1331.22279932341
 30
0.0
 41
1.0
 10
935.193369695202
 20
-1331.237196244547
 30
0.0
 41
1.0
 10
935.200405717693
 20
-1331.251593165683
 30
0.0
 41
1.0
 10
935.219680043462
 20
-1331.291031775836
 30
0.0
 41
0.9998431189998981
 10
935.2375453709576
 20
-1331.331128330279
 30
0.0
 41
1.0
 10
935.2554106984546
 20
-1331.371224884724
 30
0.0
 41
0.9999989989709593
 10
935.2733894218825
 20
-1331.411270722321
 30
0.0
 41
1.0
 10
935.2795617334727
 20
-1331.425018939125
 30
0.0
 41
1.0
 10
935.285734045063
 20
-1331.438767155929
 30
0.0
 41
1.0
 10
935.3160573916736
 20
-1331.506309427138
 30
0.0
 41
0.9998790356321015
 10
935.3442652718122
 20
-1331.574762179077
 30
0.0
 41
1.0
 10
935.3511004530953
 20
-1331.591349280501
 30
0.0
 41
1.0
 10
935.3579356343786
 20
-1331.607936381926
 30
0.0
 41
1.0
 10
935.3814932967587
 20
-1331.66510433681
 30
0.0
 41
0.9998227574560813
 10
935.4028820451497
 20
-1331.723118645092
 30
0.0
 41
1.0
 10
935.4242707935383
 20
-1331.781132953368
 30
0.0
 41
0.9996797971040797
 10
935.4426970784981
 20
-1331.840155072488
 30
0.0
 41
1.0
 10
935.4466008812237
 20
-1331.852659530657
 30
0.0
 41
1.0
 10
935.4505046839492
 20
-1331.865163988826
 30
0.0
 41
1.0
 10
935.4767385743596
 20
-1331.949195024282
 30
0.0
 41
0.9979274938734316
 10
935.4919630978388
 20
-1332.035899382942
 30
0.0
 41
1.0
 10
935.4941867850999
 20
-1332.048563383763
 30
0.0
 41
1.0
 10
935.496410472361
 20
-1332.061227384584
 30
0.0
 41
1.0
 10
935.5073404120594
 20
-1332.123473891874
 30
0.0
 41
0.999498598213713
 10
935.5143085772363
 20
-1332.186287393017
 30
0.0
 41
1.0
 10
935.521276742413
 20
-1332.249100894154
 30
0.0
 41
0.9996372611201473
 10
935.5248526081808
 20
-1332.312198472836
 30
0.0
 41
1.0
 10
935.5250211856703
 20
-1332.315173089921
 30
0.0
 41
1.0
 10
935.5251897631597
 20
-1332.318147707005
 30
0.0
 41
1.0
 10
935.5291027839061
 20
-1332.387194519849
 30
0.0
 41
0.9997730630736359
 10
935.5300710973939
 20
-1332.456345343875
 30
0.0
 41
1.0
 10
935.5301282038122
 20
-1332.460423523022
 30
0.0
 41
1.0
 10
935.5301853102303
 20
-1332.464501702169
 30
0.0
 41
1.0
 10
935.5312678365547
 20
-1332.541808884493
 30
0.0
 41
0.9998772614072947
 10
935.5299277498228
 20
-1332.619112031055
 30
0.0
 41
1.0
 10
935.5298384866242
 20
-1332.624261194888
 30
0.0
 41
1.0
 10
935.5297492234254
 20
-1332.629410358722
 30
0.0
 41
1.0
 10
935.5282306102959
 20
-1332.717011832963
 30
0.0
 41
0.9999415567327417
 10
935.5248183000497
 20
-1332.804559994645
 30
0.0
 41
1.0
 10
935.5245769793746
 20
-1332.810751454375
 30
0.0
 41
1.0
 10
935.5243356586996
 20
-1332.816942914106
 30
0.0
 41
1.0
 10
935.5204407071034
 20
-1332.916873995247
 30
0.0
 41
0.9999716810421961
 10
935.5150421239847
 20
-1333.016735133481
 30
0.0
 41
1.0
 10
935.511829325196
 20
-1333.076164383138
 30
0.0
 41
1.0
 10
935.5086165264072
 20
-1333.135593632794
 30
0.0
 41
1.0
 10
935.5005426172545
 20
-1333.284942034077
 30
0.0
 41
0.9999819129908893
 10
935.4906728256376
 20
-1333.434182511791
 30
0.0
 41
1.0
 10
935.480803034021
 20
-1333.583422989502
 30
0.0
 41
1.0
 10
935.4783637134572
 20
-1333.620616035352
 30
0.0
 41
1.0
 10
935.5010619472857
 20
-1333.581875038026
 30
0.0
 41
0.9999982128096688
 10
935.5239065060473
 20
-1333.543220144058
 30
0.0
 41
1.0
 10
935.5508160659303
 20
-1333.497686930006
 30
0.0
 41
1.0
 10
935.5777256258133
 20
-1333.452153715954
 30
0.0
 41
1.0
 10
935.6543893043348
 20
-1333.322432393891
 30
0.0
 41
0.9998609190057612
 10
935.7353366171965
 20
-1333.195340011962
 30
0.0
 41
1.0
 10
935.7649849386818
 20
-1333.148790278999
 30
0.0
 41
1.0
 10
935.7946332601671
 20
-1333.102240546036
 30
0.0
 41
1.0
 10
935.8769054804034
 20
-1332.973067976043
 30
0.0
 41
0.9999067609732368
 10
935.9626744898655
 20
-1332.846190286604
 30
0.0
 41
1.0
 10
935.9650791930682
 20
-1332.842633020547
 30
0.0
 41
1.0
 10
935.9674838962708
 20
-1332.839075754489
 30
0.0
 41
1.0
 10
936.048443499329
 20
-1332.719312597163
 30
0.0
 41
0.9998784952148781
 10
936.1330971090109
 20
-1332.602131380454
 30
0.0
 41
1.0
 10
936.2177507186864
 20
-1332.484950163753
 30
0.0
 41
0.9998532968281705
 10
936.306368339506
 20
-1332.370737255286
 30
0.0
 41
1.0
 10
936.3263301285028
 20
-1332.345009934259
 30
0.0
 41
1.0
 10
936.3462919174998
 20
-1332.319282613231
 30
0.0
 41
1.0
 10
936.4647759672581
 20
-1332.166577002263
 30
0.0
 41
0.9991551975795255
 10
936.5954004168796
 20
-1332.024117440182
 30
0.0
 41
1.0
 10
936.5989100328594
 20
-1332.020289838558
 30
0.0
 41
1.0
 10
936.6024196488393
 20
-1332.016462236934
 30
0.0
 41
1.0
 10
936.7260248665029
 20
-1331.881657878099
 30
0.0
 41
0.9997418144181814
 10
936.8556270062036
 20
-1331.752608467487
 30
0.0
 41
1.0
 10
936.9852291459044
 20
-1331.623559056874
 30
0.0
 41
0.9989238204633453
 10
937.1262316941554
 20
-1331.507074094835
 30
0.0
 41
1.0
 10
937.1714793722936
 20
-1331.469694103228
 30
0.0
 41
1.0
 10
937.2167270504317
 20
-1331.43231411162
 30
0.0
 41
1.0
 10
937.3569671076541
 20
-1331.316459058328
 30
0.0
 41
0.9990825084095912
 10
937.5066070402597
 20
-1331.213030060494
 30
0.0
 41
1.0
 10
937.5166524043179
 20
-1331.206086847413
 30
0.0
 41
1.0
 10
937.5266977683763
 20
-1331.199143634333
 30
0.0
 41
1.0
 10
937.6562469728652
 20
-1331.10960106266
 30
0.0
 41
0.9998164899825424
 10
937.78913117624
 20
-1331.025086821144
 30
0.0
 41
1.0
 10
937.8009767367653
 20
-1331.017553054619
 30
0.0
 41
1.0
 10
937.8128222972907
 20
-1331.010019288094
 30
0.0
 41
1.0
 10
937.9220153796159
 20
-1330.940572579628
 30
0.0
 41
0.9997473449131687
 10
938.0342193368656
 20
-1330.876103621812
 30
0.0
 41
1.0
 10
938.1464232941141
 20
-1330.811634663997
 30
0.0
 41
0.9999327861141708
 10
938.260091904874
 20
-1330.749784672318
 30
0.0
 41
1.0
 10
938.260643907437
 20
-1330.749484313637
 30
0.0
 41
1.0
 10
938.26119591
 20
-1330.749183954957
 30
0.0
 41
1.0
 10
938.3759685258856
 20
-1330.686733245917
 30
0.0
 41
0.9996956420483645
 10
938.4936818517265
 20
-1330.630019778942
 30
0.0
 41
1.0
 10
938.5241222566194
 20
-1330.615353802212
 30
0.0
 41
1.0
 10
938.5545626615125
 20
-1330.600687825482
 30
0.0
 41
1.0
 10
938.6575397682553
 20
-1330.551074167039
 30
0.0
 41
0.9998070570177005
 10
938.7623861571952
 20
-1330.505543580138
 30
0.0
 41
1.0
 10
938.8672325461355
 20
-1330.460012993237
 30
0.0
 41
0.9997827436146891
 10
938.9738854827443
 20
-1330.418891821926
 30
0.0
 41
1.0
 10
938.9931083323766
 20
-1330.411480248293
 30
0.0
 41
1.0
 10
939.0123311820089
 20
-1330.40406867466
 30
0.0
 41
1.0
 10
939.1574298178836
 20
-1330.348124356083
 30
0.0
 41
0.9988031841976975
 10
939.3073001804895
 20
-1330.306624291915
 30
0.0
 41
1.0
 10
939.3322174288505
 20
-1330.299724546109
 30
0.0
 41
1.0
 10
939.3571346772115
 20
-1330.292824800302
 30
0.0
 41
1.0
 10
939.5244047028593
 20
-1330.246506657895
 30
0.0
 41
0.9984748040550566
 10
939.6957616115088
 20
-1330.21891242563
 30
0.0
 41
1.0
 10
939.7005007477574
 20
-1330.218149265117
 30
0.0
 41
1.0
 10
939.705239884006
 20
-1330.217386104604
 30
0.0
 41
1.0
 10
939.8671185201573
 20
-1330.191318193365
 30
0.0
 41
0.998443649547935
 10
940.0308932638825
 20
-1330.183440239547
 30
0.0
 41
1.0
 10
940.0525904720149
 20
-1330.182396552347
 30
0.0
 41
1.0
 10
940.0742876801473
 20
-1330.181352865148
 30
0.0
 41
1.0
 10
940.1946680076082
 20
-1330.175562285728
 30
0.0
 41
0.9987954789335698
 10
940.3150362525171
 20
-1330.181598813471
 30
0.0
 41
1.0
 10
940.3350010450097
 20
-1330.182600057809
 30
0.0
 41
1.0
 10
940.3549658375024
 20
-1330.183601302148
 30
0.0
 41
1.0
 10
940.4354044974252
 20
-1330.187635341213
 30
0.0
 41
0.9997941595876993
 10
940.5156132755213
 20
-1330.194929407134
 30
0.0
 41
1.0
 10
940.5958220536148
 20
-1330.202223473055
 30
0.0
 41
0.9998589466235859
 10
940.6757406004689
 20
-1330.212207327505
 30
0.0
 41
1.0
 10
940.7081468022781
 20
-1330.216255684424
 30
0.0
 41
1.0
 10
940.7405530040872
 20
-1330.220304041344
 30
0.0
 41
1.0
 10
940.8852839545607
 20
-1330.238384609632
 30
0.0
 41
0.9993495063249709
 10
941.0283351983281
 20
-1330.266850319374
 30
0.0
 41
1.0
 10
941.061268895477
 20
-1330.273403782589
 30
0.0
 41
1.0
 10
941.0942025926258
 20
-1330.279957245803
 30
0.0
 41
1.0
 10
941.2034964158311
 20
-1330.301705579938
 30
0.0
 41
0.9996788715560229
 10
941.3115479877894
 20
-1330.328963379302
 30
0.0
 41
1.0
 10
941.3136109903282
 20
-1330.329483805874
 30
0.0
 41
1.0
 10
941.315673992867
 20
-1330.330004232447
 30
0.0
 41
1.0
 10
941.4195995597458
 20
-1330.356221178665
 30
0.0
 41
0.9995480654492898
 10
941.5217617949752
 20
-1330.388636135289
 30
0.0
 41
1.0
 10
941.5234514371048
 20
-1330.389172240203
 30
0.0
 41
1.0
 10
941.5251410792343
 20
-1330.389708345117
 30
0.0
 41
1.0
 10
941.6239240302057
 20
-1330.421051091914
 30
0.0
 41
0.9993867959455798
 10
941.7202711886472
 20
-1330.459230461203
 30
0.0
 41
1.0
 10
941.7215141377317
 20
-1330.459723003099
 30
0.0
 41
1.0
 10
941.7227570868162
 20
-1330.460215544995
 30
0.0
 41
1.0
 10
941.8166183470896
 20
-1330.497409830493
 30
0.0
 41
0.999205025652253
 10
941.9072180221231
 20
-1330.541963729732
 30
0.0
 41
1.0
 10
941.9079527048355
 20
-1330.542325022192
 30
0.0
 41
1.0
 10
941.9086873875477
 20
-1330.542686314653
 30
0.0
 41
1.0
 10
941.9978176971565
 20
-1330.58651762897
 30
0.0
 41
0.9990222350740893
 10
942.0827277585502
 20
-1330.638050896669
 30
0.0
 41
1.0
 10
942.0829116438326
 20
-1330.638162499573
 30
0.0
 41
1.0
 10
942.0830955291151
 20
-1330.638274102478
 30
0.0
 41
1.0
 10
942.1676378199436
 20
-1330.689584164367
 30
0.0
 41
0.9988642743805369
 10
942.2469123545627
 20
-1330.748708351892
 30
0.0
 41
1.0
 10
942.3261868891808
 20
-1330.807832539416
 30
0.0
 41
0.9987681233310839
 10
942.3992106734578
 20
-1330.874523230818
 30
0.0
 41
1.0
 10
942.3995396014236
 20
-1330.874823632032
 30
0.0
 41
1.0
 10
942.3998685293896
 20
-1330.875124033246
 30
0.0
 41
1.0
 10
942.4735501695975
 20
-1330.942415527076
 30
0.0
 41
0.9987496570898217
 10
942.5401439749248
 20
-1331.016728341163
 30
0.0
 41
1.0
 10
942.5409161446851
 20
-1331.01759001452
 30
0.0
 41
1.0
 10
942.5416883144453
 20
-1331.018451687878
 30
0.0
 41
1.0
 10
942.6098264592943
 20
-1331.094487848682
 30
0.0
 41
0.9988147669827866
 10
942.6702487135191
 20
-1331.176788855524
 30
0.0
 41
1.0
 10
942.6713680395965
 20
-1331.178313486876
 30
0.0
 41
1.0
 10
942.6724873656739
 20
-1331.179838118228
 30
0.0
 41
1.0
 10
942.7351482720544
 20
-1331.265188387775
 30
0.0
 41
0.998945263621553
 10
942.7897151850148
 20
-1331.355927076932
 30
0.0
 41
1.0
 10
942.7910639111009
 20
-1331.358169857959
 30
0.0
 41
1.0
 10
942.792412637187
 20
-1331.360412638986
 30
0.0
 41
1.0
 10
942.84967700232
 20
-1331.455636890197
 30
0.0
 41
0.9991046436070836
 10
942.8986862156411
 20
-1331.555361323221
 30
0.0
 41
1.0
 10
942.9001500772313
 20
-1331.558340003294
 30
0.0
 41
1.0
 10
942.9016139388214
 20
-1331.561318683366
 30
0.0
 41
1.0
 10
942.953550875324
 20
-1331.667000476539
 30
0.0
 41
0.9992763831101499
 10
942.9973040038791
 20
-1331.776324538495
 30
0.0
 41
1.0
 10
942.9987832735419
 20
-1331.780020726027
 30
0.0
 41
1.0
 10
943.0002625432048
 20
-1331.78371691356
 30
0.0
 41
1.0
 10
943.0469742110868
 20
-1331.900433350583
 30
0.0
 41
0.9994163472882936
 10
943.0856072422774
 20
-1332.020066939051
 30
0.0
 41
1.0
 10
943.0868453945236
 20
-1332.023901082832
 30
0.0
 41
1.0
 10
943.0880835467699
 20
-1332.027735226613
 30
0.0
 41
1.0
 10
943.1279671077871
 20
-1332.151241288091
 30
0.0
 41
0.9997268055890044
 10
943.1620351636991
 20
-1332.276476320042
 30
0.0
 41
1.0
 10
943.1629653439691
 20
-1332.279895686152
 30
0.0
 41
1.0
 10
943.1638955242389
 20
-1332.283315052262
 30
0.0
 41
1.0
 10
943.1961032196108
 20
-1332.401711351991
 30
0.0
 41
0.9996701319000217
 10
943.2221888363815
 20
-1332.521605305256
 30
0.0
 41
1.0
 10
943.2482744531521
 20
-1332.64149925852
 30
0.0
 41
0.999578545110912
 10
943.2673580304914
 20
-1332.762705019549
 30
0.0
 41
1.0
 10
943.2715778126652
 20
-1332.789506174315
 30
0.0
 41
1.0
 10
943.275797594839
 20
-1332.81630732908
 30
0.0
 41
1.0
 10
943.3023725707777
 20
-1332.985093302784
 30
0.0
 41
0.9979925101216781
 10
943.3073981567042
 20
-1333.155884630876
 30
0.0
 41
1.0
 10
943.3082229691287
 20
-1333.183915354351
 30
0.0
 41
1.0
 10
943.3090477815532
 20
-1333.211946077825
 30
0.0
 41
1.0
 10
943.3124237426308
 20
-1333.326675958961
 30
0.0
 41
0.9995314902262578
 10
943.308773550492
 20
-1333.441397442719
 30
0.0
 41
1.0
 10
943.3051233583533
 20
-1333.556118926474
 30
0.0
 41
0.9996245486944645
 10
943.2951942632226
 20
-1333.670468197597
 30
0.0
 41
1.0
 10
943.2950312152284
 20
-1333.672345953732
 30
0.0
 41
1.0
 10
943.2948681672342
 20
-1333.674223709866
 30
0.0
 41
1.0
 10
943.2846129761147
 20
-1333.792328493262
 30
0.0
 41
0.999728609500088
 10
943.2688676525437
 20
-1333.909827402152
 30
0.0
 41
1.0
 10
943.2684741598932
 20
-1333.912763826856
 30
0.0
 41
1.0
 10
943.2680806672427
 20
-1333.915700251559
 30
0.0
 41
1.0
 10
943.2515483583703
 20
-1334.039072009858
 30
0.0
 41
0.999826553396837
 10
943.2304328996377
 20
-1334.161742484646
 30
0.0
 41
1.0
 10
943.2297563575006
 20
-1334.165672863153
 30
0.0
 41
1.0
 10
943.2290798153635
 20
-1334.169603241661
 30
0.0
 41
1.0
 10
943.206611272356
 20
-1334.300134473468
 30
0.0
 41
0.99990225308544
 10
943.1805018077457
 20
-1334.429986442108
 30
0.0
 41
1.0
 10
943.1795231665808
 20
-1334.434853584492
 30
0.0
 41
1.0
 10
943.178544525416
 20
-1334.439720726877
 30
0.0
 41
1.0
 10
943.1504777784729
 20
-1334.5793069803
 30
0.0
 41
0.9999524761936271
 10
943.1196948096364
 20
-1334.718319473474
 30
0.0
 41
1.0
 10
943.118418702463
 20
-1334.724082232767
 30
0.0
 41
1.0
 10
943.1171425952896
 20
-1334.729844992059
 30
0.0
 41
1.0
 10
943.0838074120977
 20
-1334.880383003855
 30
0.0
 41
0.9999813588719522
 10
943.0486364112998
 20
-1335.03050271652
 30
0.0
 41
1.0
 10
943.0470824858473
 20
-1335.037135306924
 30
0.0
 41
1.0
 10
943.045528560395
 20
-1335.043767897329
 30
0.0
 41
1.0
 10
943.0072497086844
 20
-1335.207152790837
 30
0.0
 41
0.9999955237616228
 10
942.9679938307017
 20
-1335.370305694453
 30
0.0
 41
1.0
 10
942.9557121950693
 20
-1335.421349884968
 30
0.0
 41
1.0
 10
942.9434305594368
 20
-1335.472394075483
 30
0.0
 41
1.0
 10
942.8796114102103
 20
-1335.737635360041
 30
0.0
 41
0.999999360403434
 10
942.8151924630182
 20
-1336.002731610825
 30
0.0
 41
1.0
 10
942.8104736274719
 20
-1336.022150518863
 30
0.0
 41
1.0
 10
942.8057547919256
 20
-1336.0415694269
 30
0.0
 41
1.0
 10
942.7318981736641
 20
-1336.345503493663
 30
0.0
 41
0.9999659914728785
 10
942.6530385777814
 20
-1336.648178040212
 30
0.0
 41
1.0
 10
942.64808588885
 20
-1336.667187177398
 30
0.0
 41
1.0
 10
942.6431331999186
 20
-1336.686196314583
 30
0.0
 41
1.0
 10
942.5543682261693
 20
-1337.026889135516
 30
0.0
 41
0.9999441976024329
 10
942.4584251932041
 20
-1337.365630560821
 30
0.0
 41
1.0
 10
942.4417246747814
 20
-1337.424594273339
 30
0.0
 41
1.0
 10
942.4250241563586
 20
-1337.483557985857
 30
0.0
 41
1.0
 10
942.2956800865445
 20
-1337.940226836209
 30
0.0
 41
0.9999625120737263
 10
942.158447319222
 20
-1338.394587370202
 30
0.0
 41
1.0
 10
942.1226573761384
 20
-1338.513083396831
 30
0.0
 41
1.0
 10
942.0868674330547
 20
-1338.631579423461
 30
0.0
 41
1.0
 10
942.0123472290143
 20
-1338.878306501561
 30
0.0
 41
0.9999793386309024
 10
941.934661205876
 20
-1339.124055140799
 30
0.0
 41
1.0
 10
941.8569751827384
 20
-1339.369803780035
 30
0.0
 41
1.0
 10
941.8461956238677
 20
-1339.40382168441
 30
0.0
 41
1.0
 10
939.9958225705986
 20
-1345.290893606878
 30
0.0
 41
1.0
 10
938.1454495173294
 20
-1351.177965529345
 30
0.0
 41
1.0
 10
937.1841928273059
 20
-1351.177965529345
 30
0.0
 41
1.0
 10
936.2229361372823
 20
-1351.177965529345
 30
0.0
 41
1.0
 10
937.8418809159607
 20
-1346.029937027556
 30
0.0
 41
1.0
 10
939.4608256946392
 20
-1340.881908525766
 30
0.0
 41
1.0
 10
939.5059915178098
 20
-1340.737877303508
 30
0.0
 41
1.0
 10
939.5511573409804
 20
-1340.59384608125
 30
0.0
 41
1.0
 10
939.7214617583479
 20
-1340.050755052072
 30
0.0
 41
0.9999911657904599
 10
939.8871945700307
 20
-1339.5062515207
 30
0.0
 41
1.0
 10
939.9168905135261
 20
-1339.408687580666
 30
0.0
 41
1.0
 10
939.9465864570216
 20
-1339.311123640632
 30
0.0
 41
1.0
 10
940.0529273817062
 20
-1338.961747989353
 30
0.0
 41
0.9999952428168464
 10
940.157110971036
 20
-1338.611722964987
 30
0.0
 41
1.0
 10
940.1621704413603
 20
-1338.594724690739
 30
0.0
 41
1.0
 10
940.1672299116847
 20
-1338.577726416492
 30
0.0
 41
1.0
 10
940.2612945603539
 20
-1338.261697940661
 30
0.0
 41
0.9999931687496687
 10
940.3530203982345
 20
-1337.944982727367
 30
0.0
 41
1.0
 10
940.3579556626875
 20
-1337.927942018119
 30
0.0
 41
1.0
 10
940.3628909271404
 20
-1337.910901308871
 30
0.0
 41
1.0
 10
940.4447462361053
 20
-1337.628267514107
 30
0.0
 41
0.9999893840809504
 10
940.523993462565
 20
-1337.34489138485
 30
0.0
 41
1.0
 10
940.6032406890233
 20
-1337.061515255598
 30
0.0
 41
0.9999833980073108
 10
940.6792169297643
 20
-1336.777244672573
 30
0.0
 41
1.0
 10
940.688220866487
 20
-1336.743555794093
 30
0.0
 41
1.0
 10
940.6972248032096
 20
-1336.709866915613
 30
0.0
 41
1.0
 10
940.7661893520743
 20
-1336.451831083322
 30
0.0
 41
0.9999233658066727
 10
940.8287443232954
 20
-1336.192166924597
 30
0.0
 41
1.0
 10
940.8912992945156
 20
-1335.932502765874
 30
0.0
 41
1.0
 10
940.9307827133732
 20
-1335.768696101448
 30
0.0
 41
1.0
 10
940.9357613173503
 20
-1335.748041139579
 30
0.0
 41
1.0
 10
940.9407399213273
 20
-1335.727386177709
 30
0.0
 41
1.0
 10
940.9702661322287
 20
-1335.604889437031
 30
0.0
 41
0.9999868670865463
 10
940.998535216227
 20
-1335.482096491377
 30
0.0
 41
1.0
 10
941.0024327033857
 20
-1335.465166903955
 30
0.0
 41
1.0
 10
941.0063301905444
 20
-1335.448237316534
 30
0.0
 41
1.0
 10
941.0268043002254
 20
-1335.359303545722
 30
0.0
 41
0.9999778173348159
 10
941.0460918983385
 20
-1335.270104928501
 30
0.0
 41
1.0
 10
941.0653794964543
 20
-1335.180906311269
 30
0.0
 41
0.9999602692863702
 10
941.0830738550865
 20
-1335.091378022835
 30
0.0
 41
1.0
 10
941.0862776871633
 20
-1335.075167567954
 30
0.0
 41
1.0
 10
941.08948151924
 20
-1335.058957113073
 30
0.0
 41
1.0
 10
941.1135835420259
 20
-1334.937007914875
 30
0.0
 41
0.9995617985320542
 10
941.1304268892447
 20
-1334.813846167169
 30
0.0
 41
1.0
 10
941.132891379151
 20
-1334.795825349803
 30
0.0
 41
1.0
 10
941.1353558690572
 20
-1334.777804532438
 30
0.0
 41
1.0
 10
941.1556391301052
 20
-1334.629489482738
 30
0.0
 41
0.9991121410640161
 10
941.1633644836938
 20
-1334.47999338393
 30
0.0
 41
1.0
 10
941.1642832737184
 20
-1334.462213547356
 30
0.0
 41
1.0
 10
941.1652020637429
 20
-1334.444433710781
 30
0.0
 41
1.0
 10
941.1710898372821
 20
-1334.330497285127
 30
0.0
 41
0.9989792494905495
 10
941.1666707451648
 20
-1334.216494449226
 30
0.0
 41
1.0
 10
941.1660227732963
 20
-1334.199778203303
 30
0.0
 41
1.0
 10
941.1653748014278
 20
-1334.183061957381
 30
0.0
 41
1.0
 10
941.1622516530476
 20
-1334.102491613332
 30
0.0
 41
0.9997820295393894
 10
941.1557676556718
 20
-1334.022121891583
 30
0.0
 41
1.0
 10
941.1492836582961
 20
-1333.94175216984
 30
0.0
 41
0.9998335105974401
 10
941.1398714627844
 20
-1333.86167255339
 30
0.0
 41
1.0
 10
941.138276538108
 20
-1333.848102822906
 30
0.0
 41
1.0
 10
941.1366816134316
 20
-1333.834533092423
 30
0.0
 41
1.0
 10
941.1240795685675
 20
-1333.727314015008
 30
0.0
 41
0.9996876457879813
 10
941.1061356557693
 20
-1333.620858587293
 30
0.0
 41
1.0
 10
941.1039039926239
 20
-1333.607618852051
 30
0.0
 41
1.0
 10
941.1016723294786
 20
-1333.594379116809
 30
0.0
 41
1.0
 10
941.0878765080575
 20
-1333.51253297285
 30
0.0
 41
0.9995547496494619
 10
941.0692231861647
 20
-1333.431655475658
 30
0.0
 41
1.0
 10
941.0688492292934
 20
-1333.430034064953
 30
0.0
 41
1.0
 10
941.0684752724222
 20
-1333.428412654247
 30
0.0
 41
1.0
 10
941.0505698642718
 20
-1333.350777978465
 30
0.0
 41
0.99948994271752
 10
941.0277449555927
 20
-1333.274444695632
 30
0.0
 41
1.0
 10
941.0272864288518
 20
-1333.272911245843
 30
0.0
 41
1.0
 10
941.026827902111
 20
-1333.271377796054
 30
0.0
 41
1.0
 10
941.0049200469128
 20
-1333.198111412796
 30
0.0
 41
0.9993784877590538
 10
940.9779044118068
 20
-1333.126570707639
 30
0.0
 41
1.0
 10
940.97737272083
 20
-1333.125162724919
 30
0.0
 41
1.0
 10
940.9768410298532
 20
-1333.123754742199
 30
0.0
 41
1.0
 10
940.9508887767001
 20
-1333.05503000248
 30
0.0
 41
0.9992430832254918
 10
940.9196722415409
 20
-1332.988530850412
 30
0.0
 41
1.0
 10
940.9190901254842
 20
-1332.987290795294
 30
0.0
 41
1.0
 10
940.9185080094276
 20
-1332.986050740177
 30
0.0
 41
1.0
 10
940.8884557063814
 20
-1332.922031698343
 30
0.0
 41
0.9990789632799035
 10
940.8530250796048
 20
-1332.860825086593
 30
0.0
 41
1.0
 10
940.8524293734226
 20
-1332.859796000734
 30
0.0
 41
1.0
 10
940.8518336672405
 20
-1332.858766914875
 30
0.0
 41
1.0
 10
940.8175944528276
 20
-1332.799618474843
 30
0.0
 41
0.9988874801121065
 10
940.7779351767961
 20
-1332.743958762426
 30
0.0
 41
1.0
 10
940.7773796507315
 20
-1332.743179110751
 30
0.0
 41
1.0
 10
940.7768241246671
 20
-1332.742399459076
 30
0.0
 41
1.0
 10
940.7382759007631
 20
-1332.688299050007
 30
0.0
 41
0.9986762060692002
 10
940.6943734294878
 20
-1332.638445335569
 30
0.0
 41
1.0
 10
940.6939294691553
 20
-1332.637941193752
 30
0.0
 41
1.0
 10
940.6934855088227
 20
-1332.637437051935
 30
0.0
 41
1.0
 10
940.6504709582114
 20
-1332.58859162113
 30
0.0
 41
0.998462164248665
 10
940.6023134014338
 20
-1332.544808320659
 30
0.0
 41
1.0
 10
940.6020667669171
 20
-1332.544584088495
 30
0.0
 41
1.0
 10
940.6018201324005
 20
-1332.544359856332
 30
0.0
 41
1.0
 10
940.554155844656
 20
-1332.501025020188
 30
0.0
 41
0.9982724693851873
 10
940.5017372128145
 20
-1332.46358066967
 30
0.0
 41
1.0
 10
940.4493185809729
 20
-1332.426136319152
 30
0.0
 41
0.9981399180157201
 10
940.3927325175799
 20
-1332.395349799709
 30
0.0
 41
1.0
 10
940.3926868555013
 20
-1332.395324956552
 30
0.0
 41
1.0
 10
940.3926411934228
 20
-1332.395300113395
 30
0.0
 41
1.0
 10
940.3359638058729
 20
-1332.364463907637
 30
0.0
 41
0.9980927086836948
 10
940.2759184548062
 20
-1332.340847098784
 30
0.0
 41
1.0
 10
940.2754782850946
 20
-1332.340673972909
 30
0.0
 41
1.0
 10
940.2750381153828
 20
-1332.340500847034
 30
0.0
 41
1.0
 10
940.2141124248931
 20
-1332.316537786432
 30
0.0
 41
0.998141135656188
 10
940.1507239034937
 20
-1332.300165144926
 30
0.0
 41
1.0
 10
940.1498417867922
 20
-1332.299937302721
 30
0.0
 41
1.0
 10
940.1489596700908
 20
-1332.299709460515
 30
0.0
 41
1.0
 10
940.0838069152892
 20
-1332.282881134599
 30
0.0
 41
0.998303181293502
 10
940.0171394862958
 20
-1332.273741773423
 30
0.0
 41
1.0
 10
940.0082684608913
 20
-1332.272525654751
 30
0.0
 41
1.0
 10
939.9993974354868
 20
-1332.27130953608
 30
0.0
 41
1.0
 10
939.9450477929821
 20
-1332.263858806089
 30
0.0
 41
0.9983887708263779
 10
939.890203943689
 20
-1332.262614132455
 30
0.0
 41
1.0
 10
939.8821405384691
 20
-1332.26243113458
 30
0.0
 41
1.0
 10
939.8740771332492
 20
-1332.262248136705
 30
0.0
 41
1.0
 10
939.8353600943936
 20
-1332.261369458822
 30
0.0
 41
0.999886956307872
 10
939.7966341411935
 20
-1332.261655328182
 30
0.0
 41
1.0
 10
939.7579081879717
 20
-1332.261941197542
 30
0.0
 41
0.9999972320082897
 10
939.7191840087427
 20
-1332.262409297071
 30
0.0
 41
1.0
 10
939.6998309921814
 20
-1332.26264323716
 30
0.0
 41
1.0
 10
939.6804779756201
 20
-1332.262877177249
 30
0.0
 41
1.0
 10
939.6030477632514
 20
-1332.263813156957
 30
0.0
 41
0.9997304945086792
 10
939.5257444570159
 20
-1332.268342250743
 30
0.0
 41
1.0
 10
939.5166948153096
 20
-1332.268872456733
 30
0.0
 41
1.0
 10
939.5076451736032
 20
-1332.269402662723
 30
0.0
 41
1.0
 10
939.4122425839564
 20
-1332.274992168489
 30
0.0
 41
0.9997888306416294
 10
939.3171502481133
 20
-1332.284497132978
 30
0.0
 41
1.0
 10
939.3084291865412
 20
-1332.28536884761
 30
0.0
 41
1.0
 10
939.299708124969
 20
-1332.286240562242
 30
0.0
 41
1.0
 10
939.187173665981
 20
-1332.297488955996
 30
0.0
 41
0.9984170238190634
 10
939.0766145186301
 20
-1332.321305037931
 30
0.0
 41
1.0
 10
939.0402333876445
 20
-1332.329142073737
 30
0.0
 41
1.0
 10
939.003852256659
 20
-1332.336979109543
 30
0.0
 41
1.0
 10
938.8886611882364
 20
-1332.361792976053
 30
0.0
 41
0.9976592854199291
 10
938.7779330218302
 20
-1332.402091653201
 30
0.0
 41
1.0
 10
938.6672048554268
 20
-1332.442390330347
 30
0.0
 41
0.9993255074352811
 10
938.5597330566364
 20
-1332.490707228839
 30
0.0
 41
1.0
 10
938.5551078777121
 20
-1332.492786605039
 30
0.0
 41
1.0
 10
938.5504826987878
 20
-1332.49486598124
 30
0.0
 41
1.0
 10
938.4337605421495
 20
-1332.547341632132
 30
0.0
 41
0.9976475078274473
 10
938.3253131978391
 20
-1332.61528962179
 30
0.0
 41
1.0
 10
938.3069708037048
 20
-1332.626782100604
 30
0.0
 41
1.0
 10
938.2886284095704
 20
-1332.638274579419
 30
0.0
 41
1.0
 10
938.204426218019
 20
-1332.691031700187
 30
0.0
 41
0.9995131336406803
 10
938.1236785030609
 20
-1332.74893791214
 30
0.0
 41
1.0
 10
938.042930788104
 20
-1332.806844124094
 30
0.0
 41
0.9995810107607035
 10
937.9656691403768
 20
-1332.869325806558
 30
0.0
 41
1.0
 10
937.9626991091657
 20
-1332.871727678023
 30
0.0
 41
1.0
 10
937.9597290779545
 20
-1332.874129549489
 30
0.0
 41
1.0
 10
937.8765273678005
 20
-1332.941414974888
 30
0.0
 41
0.9996617837953731
 10
937.7969366806625
 20
-1333.012935430451
 30
0.0
 41
1.0
 10
937.784805929791
 20
-1333.023836163436
 30
0.0
 41
1.0
 10
937.7726751789194
 20
-1333.034736896422
 30
0.0
 41
1.0
 10
937.7043996515201
 20
-1333.096089511897
 30
0.0
 41
0.9997267750051809
 10
937.6390661432351
 20
-1333.160566048424
 30
0.0
 41
1.0
 10
937.5737326349507
 20
-1333.22504258495
 30
0.0
 41
0.9999667288959496
 10
937.5094596918101
 20
-1333.290576391838
 30
0.0
 41
1.0
 10
937.4406322440323
 20
-1333.360754050599
 30
0.0
 41
1.0
 10
937.3718047962545
 20
-1333.43093170936
 30
0.0
 41
1.0
 10
937.169876957559
 20
-1333.636820833769
 30
0.0
 41
0.998820533517515
 10
936.9888713405808
 20
-1333.861325065828
 30
0.0
 41
1.0
 10
936.9582313756748
 20
-1333.899328316259
 30
0.0
 41
1.0
 10
936.9275914107689
 20
-1333.937331566691
 30
0.0
 41
1.0
 10
936.6853058639829
 20
-1334.237842299608
 30
0.0
 41
0.9997077826754501
 10
936.4578279128807
 20
-1334.54971209382
 30
0.0
 41
1.0
 10
936.4561044977472
 20
-1334.552074877203
 30
0.0
 41
1.0
 10
936.4543810826137
 20
-1334.554437660587
 30
0.0
 41
1.0
 10
936.2234563012468
 20
-1334.871033021564
 30
0.0
 41
0.9989147567078608
 10
936.0229927983623
 20
-1335.20774248275
 30
0.0
 41
1.0
 10
935.9982516530579
 20
-1335.249299063298
 30
0.0
 41
1.0
 10
935.9735105077534
 20
-1335.290855643846
 30
0.0
 41
1.0
 10
935.8182992091141
 20
-1335.551557028303
 30
0.0
 41
0.9997476598181669
 10
935.6749542216032
 20
-1335.818966776887
 30
0.0
 41
1.0
 10
935.5316092340939
 20
-1336.086376525469
 30
0.0
 41
0.9996258967110122
 10
935.4031009821624
 20
-1336.361224462093
 30
0.0
 41
1.0
 10
935.3899010727077
 20
-1336.389455862199
 30
0.0
 41
1.0
 10
935.3767011632531
 20
-1336.417687262305
 30
0.0
 41
1.0
 10
935.2364924422582
 20
-1336.717559660248
 30
0.0
 41
0.9998735413945619
 10
935.1058910955421
 20
-1337.021739259706
 30
0.0
 41
1.0
 10
935.1024482674798
 20
-1337.029757845175
 30
0.0
 41
1.0
 10
935.0990054394174
 20
-1337.037776430644
 30
0.0
 41
1.0
 10
934.9752897488204
 20
-1337.325918859177
 30
0.0
 41
0.999937741885716
 10
934.858034946647
 20
-1337.616750326849
 30
0.0
 41
1.0
 10
934.7407801444688
 20
-1337.907581794533
 30
0.0
 41
0.9999508299507658
 10
934.6293162010933
 20
-1338.20068147135
 30
0.0
 41
1.0
 10
934.6262354324315
 20
-1338.208782497312
 30
0.0
 41
1.0
 10
934.6231546637696
 20
-1338.216883523274
 30
0.0
 41
1.0
 10
934.505529183061
 20
-1338.526185252039
 30
0.0
 41
0.9999609228428449
 10
934.3933905801845
 20
-1338.837518268063
 30
0.0
 41
1.0
 10
934.3904345698393
 20
-1338.84572510846
 30
0.0
 41
1.0
 10
934.387478559494
 20
-1338.853931948858
 30
0.0
 41
1.0
 10
934.2694279359241
 20
-1339.181678645682
 30
0.0
 41
0.9999674607402923
 10
934.1566804098579
 20
-1339.511287265671
 30
0.0
 41
1.0
 10
934.1052820192921
 20
-1339.661546461373
 30
0.0
 41
1.0
 10
934.0538836287262
 20
-1339.811805657075
 30
0.0
 41
1.0
 10
933.9378730219688
 20
-1340.150953639577
 30
0.0
 41
0.9999287532305569
 10
933.829991617999
 20
-1340.492774378549
 30
0.0
 41
1.0
 10
933.7835143618943
 20
-1340.640036922811
 30
0.0
 41
1.0
 10
933.7370371057896
 20
-1340.787299467073
 30
0.0
 41
1.0
 10
933.722110214057
 20
-1340.834595117433
 30
0.0
 41
0.9999998223364395
 10
933.7072397052978
 20
-1340.881908525766
 30
0.0
 41
1.0
 10
932.0865835685023
 20
-1346.029937027556
 30
0.0
 41
1.0
 10
930.4659274317069
 20
-1351.177965529345
 30
0.0
 41
1.0
 10
929.5606189878159
 20
-1351.177965529345
 30
0.0
 41
1.0
 10
928.655310543925
 20
-1351.177965529345
 30
0.0
 41
1.0
 10
930.507394955311
 20
-1345.290893606878
 30
0.0
 41
1.0
 10
932.3594793666971
 20
-1339.40382168441
 30
0.0
 41
1.0
 10
932.3696011249998
 20
-1339.37177847096
 30
0.0
 41
1.0
 10
932.4422087938495
 20
-1339.141478929135
 30
0.0
 41
1.0
 10
932.5148164626913
 20
-1338.911179387334
 30
0.0
 41
0.9999825681970791
 10
932.5846995019008
 20
-1338.680038492277
 30
0.0
 41
1.0
 10
932.632990564068
 20
-1338.52031390876
 30
0.0
 41
1.0
 10
932.6812816262352
 20
-1338.360589325242
 30
0.0
 41
1.0
 10
932.7784339795496
 20
-1338.039254103476
 30
0.0
 41
0.999967252896024
 10
932.8703727851716
 20
-1337.716388557894
 30
0.0
 41
1.0
 10
932.8731616688434
 20
-1337.706594712497
 30
0.0
 41
1.0
 10
932.8759505525152
 20
-1337.6968008671
 30
0.0
 41
1.0
 10
932.9623115907976
 20
-1337.393523012299
 30
0.0
 41
0.9999899749128899
 10
933.0459532003297
 20
-1337.089483923855
 30
0.0
 41
1.0
 10
933.0560591193474
 20
-1337.052748686176
 30
0.0
 41
1.0
 10
933.0661650383652
 20
-1337.016013448496
 30
0.0
 41
1.0
 10
933.1295948098639
 20
-1336.785444835404
 30
0.0
 41
0.9999214200505081
 10
933.1872242382422
 20
-1336.553358493193
 30
0.0
 41
1.0
 10
933.1999900904207
 20
-1336.501947607806
 30
0.0
 41
1.0
 10
933.2127559425992
 20
-1336.450536722418
 30
0.0
 41
1.0
 10
933.244853666615
 20
-1336.321272151004
 30
0.0
 41
0.9999828681652868
 10
933.2754359186152
 20
-1336.191640676516
 30
0.0
 41
1.0
 10
933.3060181706109
 20
-1336.062009202049
 30
0.0
 41
0.9999389844481106
 10
933.3337291594001
 20
-1335.931733746148
 30
0.0
 41
1.0
 10
933.3408669031203
 20
-1335.898177642311
 30
0.0
 41
1.0
 10
933.3480046468403
 20
-1335.864621538474
 30
0.0
 41
1.0
 10
933.3899911230698
 20
-1335.6672338749
 30
0.0
 41
0.9998933699441196
 10
933.4261953874718
 20
-1335.468704267143
 30
0.0
 41
1.0
 10
933.4275682126884
 20
-1335.461176246445
 30
0.0
 41
1.0
 10
933.4289410379049
 20
-1335.453648225747
 30
0.0
 41
1.0
 10
933.4678909527406
 20
-1335.240062576592
 30
0.0
 41
0.9996850305194295
 10
933.496074628999
 20
-1335.024791571155
 30
0.0
 41
1.0
 10
933.4980696623679
 20
-1335.009553217037
 30
0.0
 41
1.0
 10
933.5000646957368
 20
-1334.994314862918
 30
0.0
 41
1.0
 10
933.5274725581965
 20
-1334.78496963576
 30
0.0
 41
0.9994697936706187
 10
933.5411971174158
 20
-1334.57428444043
 30
0.0
 41
1.0
 10
933.5416741866654
 20
-1334.56696096822
 30
0.0
 41
1.0
 10
933.5421512559151
 20
-1334.559637496009
 30
0.0
 41
1.0
 10
933.5549216766353
 20
-1334.3635992451
 30
0.0
 41
0.9991804893137436
 10
933.5517933603626
 20
-1334.167170395126
 30
0.0
 41
1.0
 10
933.5517094815405
 20
-1334.161903593715
 30
0.0
 41
1.0
 10
933.5516256027184
 20
-1334.156636792303
 30
0.0
 41
1.0
 10
933.5486650440897
 20
-1333.970741545155
 30
0.0
 41
0.9988448329322326
 10
933.5278734984661
 20
-1333.785988955319
 30
0.0
 41
1.0
 10
933.5262794247631
 20
-1333.771824099549
 30
0.0
 41
1.0
 10
933.5246853510602
 20
-1333.757659243778
 30
0.0
 41
1.0
 10
933.5070819528424
 20
-1333.601236365488
 30
0.0
 41
0.9985503209459484
 10
933.4727656805428
 20
-1333.447612181396
 30
0.0
 41
1.0
 10
933.4651796884716
 20
-1333.413651853996
 30
0.0
 41
1.0
 10
933.4575936964003
 20
-1333.379691526595
 30
0.0
 41
1.0
 10
933.4384494082428
 20
-1333.293987997305
 30
0.0
 41
0.9991036781369993
 10
933.4121245465919
 20
-1333.210210909982
 30
0.0
 41
1.0
 10
933.4081423211364
 20
-1333.197537747473
 30
0.0
 41
1.0
 10
933.4041600956809
 20
-1333.184864584964
 30
0.0
 41
1.0
 10
933.3857996849413
 20
-1333.126433822658
 30
0.0
 41
0.9998874504367857
 10
933.3656944772624
 20
-1333.068580220434
 30
0.0
 41
1.0
 10
933.3455892695839
 20
-1333.01072661821
 30
0.0
 41
0.9994041637543847
 10
933.3215406566496
 20
-1332.954397914321
 30
0.0
 41
1.0
 10
933.3173438724258
 20
-1332.944567849839
 30
0.0
 41
1.0
 10
933.313147088202
 20
-1332.934737785358
 30
0.0
 41
1.0
 10
933.2852682572076
 20
-1332.869437619391
 30
0.0
 41
0.9991846840702757
 10
933.252211900514
 20
-1332.806599588109
 30
0.0
 41
1.0
 10
933.2510752941192
 20
-1332.804438971655
 30
0.0
 41
1.0
 10
933.2499386877245
 20
-1332.802278355201
 30
0.0
 41
1.0
 10
933.2191555438218
 20
-1332.743761556831
 30
0.0
 41
0.9989253167923708
 10
933.1830861197659
 20
-1332.688346628439
 30
0.0
 41
1.0
 10
933.1820319950912
 20
-1332.686727133676
 30
0.0
 41
1.0
 10
933.1809778704164
 20
-1332.685107638913
 30
0.0
 41
1.0
 10
933.1470166957106
 20
-1332.632931700048
 30
0.0
 41
0.9986467172835308
 10
933.1078195430737
 20
-1332.584565666419
 30
0.0
 41
1.0
 10
933.1069454143726
 20
-1332.58348706414
 30
0.0
 41
1.0
 10
933.1060712856715
 20
-1332.582408461862
 30
0.0
 41
1.0
 10
933.068622390436
 20
-1332.536199632789
 30
0.0
 41
0.9984001104266864
 10
933.026195659919
 20
-1332.494514525421
 30
0.0
 41
1.0
 10
933.0256085218098
 20
-1332.493937650539
 30
0.0
 41
1.0
 10
933.0250213837004
 20
-1332.493360775658
 30
0.0
 41
1.0
 10
932.9837689294022
 20
-1332.452829418052
 30
0.0
 41
0.9982442159083872
 10
932.9380128280663
 20
-1332.417460856792
 30
0.0
 41
1.0
 10
932.9377980326042
 20
-1332.417294824148
 30
0.0
 41
1.0
 10
932.9375832371421
 20
-1332.417128791505
 30
0.0
 41
1.0
 10
932.89225672673
 20
-1332.382092295531
 30
0.0
 41
0.9982450060835547
 10
932.8431057476589
 20
-1332.352660512498
 30
0.0
 41
1.0
 10
932.7939547685878
 20
-1332.323228729465
 30
0.0
 41
0.9983922639635591
 10
932.7417884624235
 20
-1332.299549094811
 30
0.0
 41
1.0
 10
932.7415615850985
 20
-1332.299446109329
 30
0.0
 41
1.0
 10
932.7413347077734
 20
-1332.299343123847
 30
0.0
 41
1.0
 10
932.6887146469594
 20
-1332.27545751823
 30
0.0
 41
0.998651714715031
 10
932.6339016740909
 20
-1332.257156399108
 30
0.0
 41
1.0
 10
932.6332237526635
 20
-1332.256930052677
 30
0.0
 41
1.0
 10
932.632545831236
 20
-1332.256703706246
 30
0.0
 41
1.0
 10
932.5763770155128
 20
-1332.237949894261
 30
0.0
 41
0.9989435598956442
 10
932.5187236283616
 20
-1332.224432192027
 30
0.0
 41
1.0
 10
932.5176435087795
 20
-1332.224178941774
 30
0.0
 41
1.0
 10
932.5165633891975
 20
-1332.223925691521
 30
0.0
 41
1.0
 10
932.4567497628831
 20
-1332.20990148878
 30
0.0
 41
0.99922492412402
 10
932.3960182539853
 20
-1332.200626146065
 30
0.0
 41
1.0
 10
932.3946045656943
 20
-1332.200410237657
 30
0.0
 41
1.0
 10
932.3931908774033
 20
-1332.200194329249
 30
0.0
 41
1.0
 10
932.3296319919227
 20
-1332.190487169718
 30
0.0
 41
0.9994396597832857
 10
932.2655660553847
 20
-1332.185054247372
 30
0.0
 41
1.0
 10
932.246425387908
 20
-1332.183431079654
 30
0.0
 41
1.0
 10
932.2272847204313
 20
-1332.181807911935
 30
0.0
 41
1.0
 10
932.1249374489389
 20
-1332.173128654152
 30
0.0
 41
0.9987693403121631
 10
932.0222338253524
 20
-1332.174631717605
 30
0.0
 41
1.0
 10
932.0119794911243
 20
-1332.174781789379
 30
0.0
 41
1.0
 10
932.0017251568963
 20
-1332.174931861153
 30
0.0
 41
1.0
 10
931.8921693907179
 20
-1332.176535205441
 30
0.0
 41
0.9989753644966577
 10
931.7832073907018
 20
-1332.188038212366
 30
0.0
 41
1.0
 10
931.6742453906854
 20
-1332.199541219291
 30
0.0
 41
0.9983190067305442
 10
931.567346579721
 20
-1332.223576211078
 30
0.0
 41
1.0
 10
931.558445628114
 20
-1332.225577489641
 30
0.0
 41
1.0
 10
931.5495446765069
 20
-1332.227578768203
 30
0.0
 41
1.0
 10
931.4248439623267
 20
-1332.255616317116
 30
0.0
 41
0.9985539388302659
 10
931.3038742086476
 20
-1332.296879993162
 30
0.0
 41
1.0
 10
931.3015287776888
 20
-1332.297680036977
 30
0.0
 41
1.0
 10
931.2991833467299
 20
-1332.298480080793
 30
0.0
 41
1.0
 10
931.1735227311325
 20
-1332.341343844469
 30
0.0
 41
0.9988468746493672
 10
931.0525523888332
 20
-1332.396061929531
 30
0.0
 41
1.0
 10
931.0493695668434
 20
-1332.397501604092
 30
0.0
 41
1.0
 10
931.0461867448537
 20
-1332.398941278652
 30
0.0
 41
1.0
 10
930.918850758575
 20
-1332.456538712835
 30
0.0
 41
0.9991322885918813
 10
930.796750174518
 20
-1332.524534045017
 30
0.0
 41
1.0
 10
930.7791481634742
 20
-1332.534336247007
 30
0.0
 41
1.0
 10
930.7615461524306
 20
-1332.544138448996
 30
0.0
 41
1.0
 10
930.6593694713748
 20
-1332.601038564776
 30
0.0
 41
0.9993860037849341
 10
930.5614284673007
 20
-1332.664954580365
 30
0.0
 41
1.0
 10
930.555810154448
 20
-1332.66862107506
 30
0.0
 41
1.0
 10
930.5501918415953
 20
-1332.672287569756
 30
0.0
 41
1.0
 10
930.4634874632269
 20
-1332.728870595954
 30
0.0
 41
0.9998821494953335
 10
930.3785610874145
 20
-1332.78808882603
 30
0.0
 41
1.0
 10
930.2936347116029
 20
-1332.847307056106
 30
0.0
 41
0.9997976482743629
 10
930.2111590811977
 20
-1332.909893464149
 30
0.0
 41
1.0
 10
930.196522816393
 20
-1332.921000153929
 30
0.0
 41
1.0
 10
930.1818865515883
 20
-1332.932106843709
 30
0.0
 41
1.0
 10
930.070138391576
 20
-1333.016906631309
 30
0.0
 41
0.9998091630799342
 10
929.9617881135468
 20
-1333.106006982012
 30
0.0
 41
1.0
 10
929.9487823610697
 20
-1333.116702082458
 30
0.0
 41
1.0
 10
929.9357766085925
 20
-1333.127397182904
 30
0.0
 41
1.0
 10
929.8014148256104
 20
-1333.237887734497
 30
0.0
 41
0.9995035112317235
 10
929.6742789478488
 20
-1333.35662155151
 30
0.0
 41
1.0
 10
929.6646316374586
 20
-1333.365631297671
 30
0.0
 41
1.0
 10
929.6549843270683
 20
-1333.374641043832
 30
0.0
 41
1.0
 10
929.531561264306
 20
-1333.489907415585
 30
0.0
 41
0.9994630424299161
 10
929.415952858523
 20
-1333.613010158819
 30
0.0
 41
1.0
 10
929.4122700197502
 20
-1333.616931738334
 30
0.0
 41
1.0
 10
929.4085871809774
 20
-1333.620853317848
 30
0.0
 41
1.0
 10
929.3003444527379
 20
-1333.736112902055
 30
0.0
 41
0.999516069374955
 10
929.1994784232071
 20
-1333.857880319927
 30
0.0
 41
1.0
 10
929.1975447031286
 20
-1333.860214744132
 30
0.0
 41
1.0
 10
929.1956109830502
 20
-1333.862549168337
 30
0.0
 41
1.0
 10
929.0986123936767
 20
-1333.979647737797
 30
0.0
 41
0.999656147051485
 10
929.0078861750093
 20
-1334.101670500248
 30
0.0
 41
1.0
 10
929.0017285091069
 20
-1334.109952289291
 30
0.0
 41
1.0
 10
928.9955708432045
 20
-1334.118234078334
 30
0.0
 41
1.0
 10
928.917159956341
 20
-1334.223693262701
 30
0.0
 41
0.9998349055172753
 10
928.8426326744111
 20
-1334.331931846361
 30
0.0
 41
1.0
 10
928.7681053924773
 20
-1334.440170430027
 30
0.0
 41
0.9999728109562667
 10
928.6951824965739
 20
-1334.549496355572
 30
0.0
 41
1.0
 10
928.6938672811596
 20
-1334.551468125078
 30
0.0
 41
1.0
 10
928.6925520657453
 20
-1334.553439894584
 30
0.0
 41
1.0
 10
928.6169987390031
 20
-1334.666709359157
 30
0.0
 41
0.9999972147346623
 10
928.5419809286437
 20
-1334.780334201971
 30
0.0
 41
1.0
 10
928.5370093860183
 20
-1334.787864290448
 30
0.0
 41
1.0
 10
928.5320378433929
 20
-1334.795394378925
 30
0.0
 41
1.0
 10
928.4470769477768
 20
-1334.924079398701
 30
0.0
 41
0.9999371979008446
 10
928.365021598381
 20
-1335.054636312465
 30
0.0
 41
1.0
 10
928.3615127140134
 20
-1335.060219240539
 30
0.0
 41
1.0
 10
928.3580038296459
 20
-1335.065802168614
 30
0.0
 41
1.0
 10
928.2689307115174
 20
-1335.207524938522
 30
0.0
 41
0.9998272025610613
 10
928.1851873206325
 20
-1335.352460815269
 30
0.0
 41
1.0
 10
928.1699721486098
 20
-1335.378793929724
 30
0.0
 41
1.0
 10
928.1547569765871
 20
-1335.405127044178
 30
0.0
 41
1.0
 10
928.0405832416558
 20
-1335.602729149836
 30
0.0
 41
0.9995217214838011
 10
927.9388435520996
 20
-1335.8070114777
 30
0.0
 41
1.0
 10
927.931199989466
 20
-1335.8223589274
 30
0.0
 41
1.0
 10
927.9235564268324
 20
-1335.837706377099
 30
0.0
 41
1.0
 10
927.8366511342425
 20
-1336.012202835182
 30
0.0
 41
0.999826976260861
 10
927.7562966679695
 20
-1336.189811121907
 30
0.0
 41
1.0
 10
927.6759422016999
 20
-1336.367419408625
 30
0.0
 41
0.9998944747386384
 10
927.6007814071346
 20
-1336.547287134255
 30
0.0
 41
1.0
 10
927.5958277375469
 20
-1336.559141789164
 30
0.0
 41
1.0
 10
927.590874067959
 20
-1336.570996444074
 30
0.0
 41
1.0
 10
927.5102270074018
 20
-1336.763993384103
 30
0.0
 41
0.9999506734413286
 10
927.4334294784937
 20
-1336.95855418897
 30
0.0
 41
1.0
 10
927.418829513231
 20
-1336.995542110755
 30
0.0
 41
1.0
 10
927.4042295479683
 20
-1337.03253003254
 30
0.0
 41
1.0
 10
927.3566319495958
 20
-1337.153114993811
 30
0.0
 41
0.9999912393941041
 10
927.3100455055676
 20
-1337.274094196522
 30
0.0
 41
1.0
 10
927.2634590615479
 20
-1337.39507339921
 30
0.0
 41
0.9999927113978448
 10
927.2177977671574
 20
-1337.516404806702
 30
0.0
 41
1.0
 10
927.2038293357565
 20
-1337.55352178871
 30
0.0
 41
1.0
 10
927.1898609043556
 20
-1337.590638770717
 30
0.0
 41
1.0
 10
927.1162627471672
 20
-1337.786204142214
 30
0.0
 41
0.9999487550950795
 10
927.0466391221936
 20
-1337.983219507401
 30
0.0
 41
1.0
 10
927.0230455122592
 20
-1338.049982817687
 30
0.0
 41
1.0
 10
926.9994519023246
 20
-1338.116746127973
 30
0.0
 41
1.0
 10
926.9047662679526
 20
-1338.384679962802
 30
0.0
 41
0.9999808436926204
 10
926.8134046793084
 20
-1338.653765394075
 30
0.0
 41
1.0
 10
926.7220430906677
 20
-1338.922850825337
 30
0.0
 41
0.9999873932909259
 10
926.6333883819507
 20
-1339.192840180347
 30
0.0
 41
1.0
 10
926.6132960250804
 20
-1339.254029513103
 30
0.0
 41
1.0
 10
926.5932036682102
 20
-1339.315218845858
 30
0.0
 41
1.0
 10
926.4643642457606
 20
-1339.707586866356
 30
0.0
 41
0.9999794883024312
 10
926.3405614608024
 20
-1340.101573072632
 30
0.0
 41
1.0
 10
926.3294092013732
 20
-1340.137063682843
 30
0.0
 41
1.0
 10
926.3182569419439
 20
-1340.172554293054
 30
0.0
 41
1.0
 10
926.1756987780387
 20
-1340.626227045165
 30
0.0
 41
0.9999982761783213
 10
926.0348263380076
 20
-1341.080426067339
 30
0.0
 41
1.0
 10
924.446686005435
 20
-1346.129195798342
 30
0.0
 41
1.0
 10
922.8585456728624
 20
-1351.177965529345
 30
0.0
 41
1.0
 10
921.909795061386
 20
-1351.177965529345
 30
0.0
 41
1.0
 10
920.9610444499097
 20
-1351.177965529345
 30
0.0
 41
1.0
 10
924.1993289360628
 20
-1340.850643329399
 30
0.0
 41
1.0
 10
927.437613422216
 20
-1330.523321129453
 30
0.0
 41
1.0
  0
LWPOLYLINE
  5
5A
330
23
100
AcDbEntity
  8
0
  6
Continuous
 62
     7
370
    15
390
1D
100
AcDbPolyline
 90
      232
 70
   128
 43
0.0
 10
901.734067648389
 20
-1331.607663960968
 42
0.0004370800685132
 10
901.6811904744015
 20
-1331.676330600114
 10
901.6419062431895
 20
-1331.727437713121
 42
0.0030481992174009
 10
901.5115675260587
 20
-1331.899159405481
 10
901.4730558543199
 20
-1331.950546189253
 42
0.0042058245758803
 10
901.2690708036555
 20
-1332.22755193432
 10
901.2166656811494
 20
-1332.299984781108
 42
0.0120948898738457
 10
900.9206217643906
 20
-1332.730734385653
 10
900.8244292652639
 20
-1332.878215120885
 42
0.0141601263950946
 10
900.520785218344
 20
-1333.373884457617
 10
900.4812479509117
 20
-1333.44272842506
 42
0.0071131081309048
 10
900.2759756276796
 20
-1333.812231223887
 42
0.0068458791000568
 10
900.0810961008361
 20
-1334.187322787364
 10
900.0742842383788
 20
-1334.200884501087
 42
0.0064120880290089
 10
899.8761419883382
 20
-1334.608308975997
 10
899.8686073028175
 20
-1334.624320832727
 42
0.0058857236447151
 10
899.6658519109484
 20
-1335.068696943756
 10
899.6576769846519
 20
-1335.087187097396
 42
0.0053189741892856
 10
899.4489726719881
 20
-1335.573150571304
 10
899.440224866303
 20
-1335.59413244951
 42
0.0047503650417674
 10
899.2242511401546
 20
-1336.126331882713
 10
899.2149828918041
 20
-1336.149808258827
 42
0.0042071762169774
 10
898.9904355080758
 20
-1336.732901852898
 10
898.9806861057277
 20
-1336.758868027767
 42
0.0036680086484485
 10
898.7462314624114
 20
-1337.39750341231
 10
898.7360236825679
 20
-1337.425951946642
 42
0.0032573142629234
 10
898.4903913965998
 20
-1338.1248046064
 10
898.4217408757614
 20
-1338.324267690446
 42
0.0026133366649935
 10
898.0732956770025
 20
-1339.354130974121
 10
898.010038889495
 20
-1339.544361809534
 42
0.0020592950744114
 10
897.7961758205347
 20
-1340.196465462127
 10
897.7931240293698
 20
-1340.205901950542
 42
0.0025609928533819
 10
897.5913035278858
 20
-1340.841047172902
 10
897.5887121607581
 20
-1340.849349513846
 42
0.003136235624138
 10
897.3992213750821
 20
-1341.470112370022
 10
897.397090332158
 20
-1341.477253676222
 42
0.0037229918028389
 10
897.2202899452284
 20
-1342.086238978208
 10
897.2186113560222
 20
-1342.092185868381
 42
0.004307762370659
 10
897.0548705539569
 20
-1342.692004600151
 42
0.004765416182733
 10
896.9020418314394
 20
-1343.29469068906
 10
896.8675772226018
 20
-1343.436252466203
 42
0.0112969368444883
 10
896.6717128644588
 20
-1344.327944626825
 10
896.6437064753616
 20
-1344.470772672925
 42
0.0130056762572001
 10
896.4428692317149
 20
-1345.65771374457
 10
896.4223294815682
 20
-1345.801791858045
 42
0.0138721532146302
 10
896.31862647703
 20
-1346.708621343873
 10
896.2993309891226
 20
-1346.93211906579
 42
0.0071254697006235
 10
896.2659843431995
 20
-1347.395306074645
 10
896.2610233690373
 20
-1347.481310069187
 42
0.0028881799196374
 10
896.2458850757464
 20
-1347.773051779048
 42
0.0060297297135906
 10
896.2359528759707
 20
-1348.065000715168
 10
896.2348905943037
 20
-1348.113393087095
 42
0.0229523164155446
 10
896.2426216220895
 20
-1348.436147933379
 10
896.24684739561
 20
-1348.496551467397
 42
0.012367330066544
 10
896.2659260421282
 20
-1348.69767219257
 42
0.0128577674471078
 10
896.2951214325346
 20
-1348.897570042498
 10
896.3022473059215
 20
-1348.938898857094
 42
0.0285717853763376
 10
896.366741307617
 20
-1349.217015008407
 10
896.3804098312836
 20
-1349.263669777885
 42
0.0316283099153631
 10
896.4962204111978
 20
-1349.582684279711
 10
896.4992691029528
 20
-1349.589670652035
 42
0.0338984824235326
 10
896.6487008139205
 20
-1349.877236616225
 10
896.6510095432905
 20
-1349.881027645501
 42
0.0350228718356722
 10
896.833369833964
 20
-1350.138079630178
 10
896.8342550857388
 20
-1350.139158707942
 42
0.0347476747525995
 10
897.0486797729791
 20
-1350.366343755162
 42
0.0331337701914087
 10
897.2919230987254
 20
-1350.56247241724
 10
897.2930231972416
 20
-1350.563245120412
 42
0.0305233319086855
 10
897.5615678928152
 20
-1350.728373290504
 10
897.5647979373161
 20
-1350.730097302366
 42
0.0273744481153018
 10
897.8573516488916
 20
-1350.866235446257
 10
897.862456184028
 20
-1350.868279030726
 42
0.0240964406199867
 10
898.177933259673
 20
-1350.977262757007
 10
898.1845165888838
 20
-1350.979187496682
 42
0.0209636179810468
 10
898.5219167415345
 20
-1351.062655644614
 10
898.529549201985
 20
-1351.064207557616
 42
0.018138870469246
 10
898.887871593983
 20
-1351.12362365083
 10
898.8961524423617
 20
-1351.124689834647
 42
0.0156086547583741
 10
899.2743398065486
 20
-1351.161426021224
 10
899.3175350588841
 20
-1351.164264523703
 42
0.0137148329030073
 10
899.6452082041764
 20
-1351.176784778954
 10
899.6911443941204
 20
-1351.177279212069
 42
0.0051057823888174
 10
899.9272899806946
 20
-1351.177409466478
 42
0.0052256693307794
 10
900.1633872644771
 20
-1351.172660642014
 10
900.2336140482226
 20
-1351.170513676
 42
0.016150717904607
 10
900.609351126323
 20
-1351.146863305674
 10
900.629364086697
 20
-1351.144953110386
 42
0.0101216737841052
 10
901.0433913081959
 20
-1351.096960180019
 10
901.0774445976144
 20
-1351.092312483211
 42
0.024529177639374
 10
901.554234253165
 20
-1351.003237405135
 10
901.6390575686921
 20
-1350.983041484788
 42
0.0143509212561451
 10
901.9956886726292
 20
-1350.88723685101
 42
0.0156557857036817
 10
902.345904737358
 20
-1350.770225635191
 10
902.3534059518511
 20
-1350.767455473437
 42
0.017013733363086
 10
902.7100019475329
 20
-1350.621797858566
 10
902.7171058699399
 20
-1350.618610023002
 42
0.0183105364407783
 10
903.0764555381019
 20
-1350.44127498118
 10
903.083402302745
 20
-1350.437524546306
 42
0.0194899958154716
 10
903.4418830437339
 20
-1350.225545564412
 10
903.4488969230656
 20
-1350.22102022212
 42
0.0204869852946872
 10
903.8029112251592
 20
-1349.971500207035
 10
903.8101768337466
 20
-1349.965920141686
 42
0.0212516938558282
 10
904.1561667648538
 20
-1349.676016144792
 10
904.2026834589317
 20
-1349.633548834696
 42
0.0215248918253467
 10
904.462709627818
 20
-1349.374784555703
 10
904.5077393622006
 20
-1349.325940434351
 42
0.0114578554952449
 10
904.6625315158758
 20
-1349.150117500895
 10
904.673726051872
 20
-1349.136798737338
 42
0.0061531305142581
 10
904.8002006978569
 20
-1348.982509204044
 42
0.0006325587120519
 10
904.9245791820389
 20
-1348.82650582833
 10
904.9476193170601
 20
-1348.797532307709
 42
0.0041897761553511
 10
905.1160747210312
 20
-1348.582012931649
 10
905.174536840925
 20
-1348.505911584662
 42
0.0092993880036618
 10
905.4511487681536
 20
-1348.131632820771
 10
905.5335432613468
 20
-1348.015695817211
 42
0.0159321727086719
 10
905.88014974399
 20
-1347.493521596453
 10
905.924505879381
 20
-1347.4218420322
 42
0.008554731702006
 10
906.1590176447048
 20
-1347.027967082978
 42
0.0084601156890666
 10
906.3799938221454
 20
-1346.626340233949
 10
906.3881092959773
 20
-1346.610980551673
 42
0.0081429654285418
 10
906.6113585664168
 20
-1346.171259039128
 10
906.6202187305988
 20
-1346.153080197113
 42
0.0076574581327608
 10
906.8466262411662
 20
-1345.669897321859
 10
906.8561058818892
 20
-1345.648832843557
 42
0.0070682724201671
 10
907.086550789702
 20
-1345.116795538762
 10
907.0965410736777
 20
-1345.092806349764
 42
0.0064559514444641
 10
907.3318742818589
 20
-1344.506494083246
 10
907.3422836400243
 20
-1344.479559157803
 42
0.0058311413903971
 10
907.583330376787
 20
-1343.83352706342
 10
907.5940854541747
 20
-1343.803642722259
 42
0.0052312425820131
 10
907.8416667322149
 20
-1343.092440308426
 10
907.8527105685953
 20
-1343.059613596355
 42
0.004668054479644
 10
908.1076389963255
 20
-1342.277787280613
 10
908.1496311463709
 20
-1342.144804043316
 42
0.0041666856443525
 10
908.3529171587684
 20
-1341.481835268302
 10
908.3905795994435
 20
-1341.35525416061
 42
0.0015170975159653
 10
908.5117661778452
 20
-1340.943385809155
 42
-0.0004887993117028
 10
908.6321059509792
 20
-1340.531267397076
 10
908.7085832084633
 20
-1340.270310011172
 42
0.0002583378929462
 10
908.9817977786324
 20
-1339.336253307634
 10
909.0635706281419
 20
-1339.05615404828
 42
0.0006636169673407
 10
909.2574383881156
 20
-1338.388801124823
 10
909.2625350424494
 20
-1338.371169541989
 42
0.0010589131322214
 10
909.4439837433792
 20
-1337.738438198894
 10
909.4489658138787
 20
-1337.720925291807
 42
0.0015655524463433
 10
909.6172360210426
 20
-1337.122308612673
 10
909.6220662214628
 20
-1337.104916453718
 42
0.0021640440475875
 10
909.7763561934435
 20
-1336.539889435719
 10
909.7809904128728
 20
-1336.522624705727
 42
0.0028763871852846
 10
909.9205061309265
 20
-1335.990656754878
 10
909.9248919950962
 20
-1335.973532776713
 42
0.0037310511948727
 10
910.0488486869306
 20
-1335.474085182699
 10
910.0529239072204
 20
-1335.457124911451
 42
0.0047652197767415
 10
910.160547807728
 20
-1334.989647143149
 10
910.164238407048
 20
-1334.972887588014
 42
0.0060276699301654
 10
910.254768506205
 20
-1334.536811792854
 10
910.2579871964923
 20
-1334.520310578554
 42
0.0075824337754711
 10
910.3306765059097
 20
-1334.115043414119
 10
910.333321883291
 20
-1334.098888466662
 42
0.0095130624612667
 10
910.3874371189211
 20
-1333.723799113597
 10
910.3944233428033
 20
-1333.667865555483
 42
0.0121054653229174
 10
910.4210146733816
 20
-1333.402969727007
 10
910.4218811631407
 20
-1333.391566284083
 42
0.0069050827382399
 10
910.4369699811789
 20
-1333.148625057233
 10
910.4381052808474
 20
-1333.12509880019
 42
0.0169063976702616
 10
910.4409325598276
 20
-1332.928906072888
 10
910.4397619082965
 20
-1332.868570311542
 42
0.0052007732892299
 10
910.4375084597034
 20
-1332.792976921386
 42
0.0054038123294426
 10
910.4175449478628
 20
-1332.672958625366
 10
910.4124590919942
 20
-1332.644300138795
 42
0.0112050460465823
 10
910.3770747299358
 20
-1332.467973700457
 10
910.3592497678949
 20
-1332.388432113735
 42
0.024076446801155
 10
910.268352401748
 20
-1332.058195078232
 10
910.2497936389353
 20
-1332.001574913241
 42
0.0256812331834094
 10
910.1064307187457
 20
-1331.629850706983
 10
910.1010212929249
 20
-1331.617719371995
 42
0.0268360501215409
 10
909.9315940520745
 20
-1331.286726237973
 10
909.9260576444392
 20
-1331.27720656766
 42
0.0274670231732616
 10
909.7338566680262
 20
-1330.984919192743
 10
909.7284753680631
 20
-1330.977640045201
 42
0.027503596709819
 10
909.5169024885017
 20
-1330.722124154898
 10
909.5118329875346
 20
-1330.716645067266
 42
0.0269557673529799
 10
909.2844294440956
 20
-1330.496002781305
 10
909.2796863863124
 20
-1330.491872826843
 42
0.0259124802206569
 10
909.0401315548822
 20
-1330.304182299692
 10
909.035600709699
 20
-1330.300996797361
 42
0.024516215300004
 10
908.7876843566055
 20
-1330.144263788251
 10
908.7831578102806
 20
-1330.14170359105
 42
0.0229282588841453
 10
908.5307382534539
 20
-1330.013835398551
 10
908.5259577596191
 20
-1330.01168309879
 42
0.021298413568971
 10
908.2729198071554
 20
-1329.910484181547
 10
908.2676155221864
 20
-1329.908620618787
 42
0.0197555462347703
 10
908.0178371844629
 20
-1329.831805200822
 42
0.0183511896787105
 10
907.7629084589998
 20
-1329.774222293857
 10
907.6765432622786
 20
-1329.758019503472
 42
0.0338057877143729
 10
907.3910359130165
 20
-1329.724211098331
 10
907.3000305079662
 20
-1329.71963144307
 42
0.0091990524513754
 10
907.1941833993405
 20
-1329.716255587148
 42
0.0028333980778658
 10
907.088269483374
 20
-1329.715427479631
 10
907.0873540302982
 20
-1329.715425509807
 42
-0.0023619827809153
 10
906.9796080151785
 20
-1329.714684668729
 10
906.9432028450165
 20
-1329.714262362266
 42
0.0008824598481131
 10
906.7626468552534
 20
-1329.712486584028
 10
906.7187854227607
 20
-1329.712132622502
 42
0.003813266576407
 10
906.4505025268676
 20
-1329.712013686435
 10
906.4339688720884
 20
-1329.712132452579
 42
0.0060665569343393
 10
906.1326883804912
 20
-1329.717952752
 10
906.1184380484717
 20
-1329.718401059967
 42
0.0080356953331937
 10
905.7889793321409
 20
-1329.734068782034
 10
905.7769093170452
 20
-1329.734837364975
 42
0.0098996399102965
 10
905.4241462323923
 20
-1329.764322594173
 10
905.4141005230197
 20
-1329.765362890371
 42
0.0117740981369868
 10
905.0429436646741
 20
-1329.8126551379
 10
905.0347209681884
 20
-1329.813900254471
 42
0.0137435215137314
 10
904.6501321487012
 20
-1329.882997228033
 10
904.6434751095799
 20
-1329.884383124266
 42
0.0158359869384059
 10
904.2504780157727
 20
-1329.979275212748
 10
904.2450648289102
 20
-1329.980765153618
 42
0.0180554124025314
 10
903.8487497842984
 20
-1330.105403169856
 10
903.8441929962145
 20
-1330.107019206123
 42
0.0203657431286317
 10
903.4497154784036
 20
-1330.265279547638
 10
903.4455719393958
 20
-1330.26714116908
 42
0.0226819684657202
 10
903.0581358831912
 20
-1330.462783747752
 10
903.053936092174
 20
-1330.465149339671
 42
0.0248634984603625
 10
902.6787541509941
 20
-1330.701775985618
 10
902.6305592222053
 20
-1330.735633027447
 42
0.0267044190889662
 10
902.3562665252923
 20
-1330.951073403312
 42
0.0139303002201204
 10
902.1000993593539
 20
-1331.188312244224
 10
902.0952459736326
 20
-1331.193064907084
 42
0.0283460963439655
 10
901.8511733794061
 20
-1331.460795567529
 10
901.8115048742488
 20
-1331.509597145003
 42
0.0070695364819207
 10
901.734067648389
 20
-1331.607663960968
 42
0.0070695364819207
  0
LWPOLYLINE
  5
5B
330
23
100
AcDbEntity
  8
0
  6
Continuous
 62
     7
370
    15
390
1D
100
AcDbPolyline
 90
      226
 70
   128
 43
0.0
 10
898.2052472111426
 20
-1347.329252767152
 42
-0.0026277636624538
 10
898.2051693273426
 20
-1347.26248084141
 10
898.2053866855746
 20
-1347.209325623966
 42
-0.0088680296735772
 10
898.2091633018679
 20
-1347.036309841556
 10
898.21150966098
 20
-1346.977029816109
 42
-0.0077381705618652
 10
898.2275557717436
 20
-1346.685769320305
 10
898.2284236829163
 20
-1346.673481086626
 42
-0.006887253052738
 10
898.2550557626652
 20
-1346.35825933455
 10
898.2562599868505
 20
-1346.346018355538
 42
-0.0062130021484471
 10
898.2938537036782
 20
-1346.0071486643
 10
898.2953576072134
 20
-1345.994974792383
 42
-0.0056726929665766
 10
898.3442794667158
 20
-1345.63277957027
 10
898.3460529123602
 20
-1345.620685770024
 42
-0.0052341884490804
 10
898.4066634986237
 20
-1345.235492514485
 10
898.4086814873967
 20
-1345.223487584514
 42
-0.0049768450167197
 10
898.4814201688257
 20
-1344.815643017068
 10
898.5056691835449
 20
-1344.687095034075
 42
-0.0089029805624541
 10
898.6427500353386
 20
-1344.025319586658
 10
898.6754954106582
 20
-1343.88028815613
 42
-0.0080318257098521
 10
898.905044024999
 20
-1342.934578524275
 10
898.9170289514472
 20
-1342.888447889086
 42
-0.0074265721320683
 10
899.2010404902952
 20
-1341.858383310712
 10
899.2209200334136
 20
-1341.790249250117
 42
-0.0069711922703131
 10
899.5482246119204
 20
-1340.723981509788
 10
899.6081765590271
 20
-1340.537960151414
 42
-0.0052070422891345
 10
899.8376017842852
 20
-1339.850688074386
 10
899.8548829764371
 20
-1339.800660793828
 42
-0.0009167004449756
 10
900.057974863747
 20
-1339.216204945615
 42
-0.002516272694451
 10
900.2650724940062
 20
-1338.633163681461
 10
900.3022971058228
 20
-1338.530014135525
 42
-0.0028212681458541
 10
900.5504730247781
 20
-1337.854283503376
 10
900.5603037875287
 20
-1337.827976058699
 42
-0.003196491682148
 10
900.796596045191
 20
-1337.207771296572
 10
900.8062304991894
 20
-1337.18296130643
 42
-0.0036281836453514
 10
901.0313364602912
 20
-1336.615520625536
 10
901.0407748704469
 20
-1336.592223194037
 42
-0.004126916683095
 10
901.2553925671078
 20
-1336.074782298055
 10
901.2880255235361
 20
-1335.997903851676
 42
-0.0047472213054912
 10
901.4450703290822
 20
-1335.63748238381
 10
901.4519644102951
 20
-1335.622061786468
 42
-0.0025651659996721
 10
901.6003224441406
 20
-1335.29473373073
 42
-0.0057144634995279
 10
901.7540721379042
 20
-1334.969924057383
 10
901.7821028433152
 20
-1334.912415674969
 42
-0.0065388068373807
 10
901.9655698710529
 20
-1334.548183178308
 10
901.9740283268264
 20
-1334.531923598948
 42
-0.0074510843021648
 10
902.1502105727093
 20
-1334.205235317816
 10
902.1583902432399
 20
-1334.190594540548
 42
-0.0084648979865266
 10
902.3280240963404
 20
-1333.898685529585
 10
902.3358802228267
 20
-1333.885678537937
 42
-0.0095638542807002
 10
902.4997156704227
 20
-1333.625789665956
 10
902.5071906140955
 20
-1333.614420304499
 42
-0.0107191626804162
 10
902.665992194482
 20
-1333.383809069957
 10
902.6730089282129
 20
-1333.374072977592
 42
-0.0118458573900306
 10
902.8275570267256
 20
-1333.170000782281
 42
-0.0129184518193849
 10
902.9920096503238
 20
-1332.973840266115
 10
903.0221544226918
 20
-1332.93971418721
 42
-0.0217742579642373
 10
903.1987667450255
 20
-1332.756507416961
 10
903.2095122894907
 20
-1332.746290583754
 42
-0.009726656864379
 10
903.3755699083417
 20
-1332.594443009321
 42
-0.0187720905730808
 10
903.5499174842257
 20
-1332.452374155936
 10
903.5806234749041
 20
-1332.429215073537
 42
-0.0179428207521618
 10
903.8130441949015
 20
-1332.266662896424
 10
903.8166965218179
 20
-1332.264298961536
 42
-0.0170047877700294
 10
904.0524601593477
 20
-1332.122838447385
 10
904.0562431480936
 20
-1332.120740142349
 42
-0.0160190788361473
 10
904.2931516957295
 20
-1331.999088840361
 42
-0.015110286149584
 10
904.5371834781771
 20
-1331.892406064306
 10
904.589569980388
 20
-1331.871365931411
 42
-0.0271945441884661
 10
904.9482325394471
 20
-1331.749501120705
 10
905.0172973399336
 20
-1331.730151579439
 42
-0.023759659402109
 10
905.4330941869569
 20
-1331.634700867457
 10
905.5011570406862
 20
-1331.622446179331
 42
-0.021371544055927
 10
905.7870319721326
 20
-1331.583499147821
 10
905.8471791383487
 20
-1331.57790943312
 42
-0.0101465655814346
 10
906.0146716703447
 20
-1331.565765889856
 10
906.0240120565489
 20
-1331.565278974858
 42
-0.0100375910881432
 10
906.1731661571055
 20
-1331.560503156933
 10
906.1834254267908
 20
-1331.560380717919
 42
-0.0103625633372398
 10
906.3121334214406
 20
-1331.561512151445
 10
906.3343990727041
 20
-1331.56216950991
 42
-0.0115689250237126
 10
906.4184498102355
 20
-1331.566599016156
 42
-0.007243803741001
 10
906.5022880896843
 20
-1331.574188215906
 10
906.5190885991475
 20
-1331.575954758629
 42
-0.021791731312876
 10
906.6356583624608
 20
-1331.59337465135
 10
906.7012584530307
 20
-1331.606121259765
 42
-0.0332943556751878
 10
906.9056506180561
 20
-1331.660161551071
 10
906.9358231866032
 20
-1331.670329628189
 42
-0.0184824084815769
 10
907.0743282430717
 20
-1331.722780643576
 42
-0.0198002050682505
 10
907.208402583571
 20
-1331.785664703776
 10
907.210289220948
 20
-1331.786642490656
 42
-0.0212242342983418
 10
907.3424281633498
 20
-1331.862405229449
 10
907.3442434588933
 20
-1331.863551031657
 42
-0.0226090605783546
 10
907.472747360115
 20
-1331.953030675222
 10
907.4745918018525
 20
-1331.954442928209
 42
-0.023845705223686
 10
907.5977738831446
 20
-1332.058438824071
 10
907.5997266117045
 20
-1332.060253701838
 42
-0.0248160564144187
 10
907.7159281190063
 20
-1332.179528303048
 10
907.7180317524071
 20
-1332.181913636751
 42
-0.0254109591456548
 10
907.8256369702731
 20
-1332.317202022715
 10
907.8278849921871
 20
-1332.320343571116
 42
-0.0255528488285113
 10
907.9253316709854
 20
-1332.472370625352
 10
907.9276627709005
 20
-1332.476452236958
 42
-0.0252146793219438
 10
908.0134437969098
 20
-1332.645954482955
 10
908.0157460360672
 20
-1332.651136564868
 42
-0.0244265635946092
 10
908.0884007298293
 20
-1332.838883136916
 10
908.097647131297
 20
-1332.866748555251
 42
-0.0231319612905361
 10
908.1435699102891
 20
-1333.030049602053
 42
-0.0112130424367812
 10
908.1782059328265
 20
-1333.196253202237
 10
908.1794084579399
 20
-1333.202749789129
 42
-0.0210527881237657
 10
908.2050949333105
 20
-1333.383805434569
 10
908.2086055281325
 20
-1333.419210983118
 42
-0.0190029892418878
 10
908.2240470016773
 20
-1333.672746829396
 10
908.2248569781211
 20
-1333.708222443759
 42
-0.0137974553664749
 10
908.2233081252858
 20
-1334.033253850483
 10
908.2224626703302
 20
-1334.059372595082
 42
-0.0081336634213758
 10
908.2076033351075
 20
-1334.364720062685
 42
-0.0073526923572413
 10
908.1832948017336
 20
-1334.669468306963
 10
908.1820333779501
 20
-1334.682804981636
 42
-0.0066886138693406
 10
908.1462977919028
 20
-1335.01339102514
 10
908.1446407024337
 20
-1335.027012644125
 42
-0.0061359187356094
 10
908.0967901003822
 20
-1335.383776624228
 10
908.0947525993099
 20
-1335.397671427054
 42
-0.0056698610066154
 10
908.0341022685432
 20
-1335.780949995891
 10
908.0316968352199
 20
-1335.795109115123
 42
-0.0052721077275523
 10
907.9575646344197
 20
-1336.205236454803
 10
907.9548014855785
 20
-1336.219653090187
 42
-0.004928927217853
 10
907.8665073674778
 20
-1336.656961601312
 10
907.8633948727959
 20
-1336.671630454125
 42
-0.0047415956712596
 10
907.7601568812647
 20
-1337.13642721153
 10
907.7253886709038
 20
-1337.286234306919
 42
-0.008440447090208
 10
907.5353722273313
 20
-1338.046458331452
 10
907.5292455393463
 20
-1338.069322455603
 42
-0.0039635940259323
 10
907.3077918550671
 20
-1338.870311319833
 10
907.2944150598828
 20
-1338.917242936442
 42
-0.0072475040833612
 10
907.0269681720159
 20
-1339.806462652845
 10
906.9567558451967
 20
-1340.028203002791
 42
-0.0051345458827207
 10
906.6699964731334
 20
-1340.902528190616
 10
906.6484702063691
 20
-1340.965954457737
 42
-0.0019150016602468
 10
906.3929367994992
 20
-1341.709503577972
 10
906.3864691951072
 20
-1341.728091042881
 42
-0.0021524362752204
 10
906.1379911440392
 20
-1342.432416864601
 10
906.1287807233523
 20
-1342.458170442876
 42
-0.0024331286822296
 10
905.8925254643068
 20
-1343.108769751021
 10
905.8834775117521
 20
-1343.133313057386
 42
-0.002744972178577
 10
905.6588629409208
 20
-1343.7324429363
 10
905.649972933526
 20
-1343.755765526159
 42
-0.0031083229768445
 10
905.4364304469186
 20
-1344.305689563732
 10
905.4276943152529
 20
-1344.327779279565
 42
-0.0035311343284074
 10
905.2246531296512
 20
-1344.83076240532
 10
905.2160677905011
 20
-1344.851605128836
 42
-0.0040245640946308
 10
905.0229559867091
 20
-1345.309914451422
 10
905.014519873107
 20
-1345.329493819492
 42
-0.0046015135853981
 10
904.8307635799423
 20
-1345.745398849137
 10
904.8224774021216
 20
-1345.763695988572
 42
-0.0052768638277127
 10
904.6474998831584
 20
-1346.139468872859
 10
904.6393676725334
 20
-1346.156462211398
 42
-0.0060672675642214
 10
904.4725880597655
 20
-1346.494377834516
 10
904.4646185792818
 20
-1346.510043093518
 42
-0.0069904648862072
 10
904.3054501852826
 20
-1346.812378900177
 10
904.2976587856707
 20
-1346.826689449407
 42
-0.0080637022766535
 10
904.1455069253259
 20
-1347.095724752558
 10
904.1379178926974
 20
-1347.108652618154
 42
-0.0093006455671349
 10
903.9921772161631
 20
-1347.346667016662
 10
903.9848265494131
 20
-1347.358184985844
 42
-0.0107060778041583
 10
903.844878005981
 20
-1347.567455303214
 10
903.8378162376969
 20
-1347.577540845786
 42
-0.0122723111414639
 10
903.7030225195033
 20
-1347.760334175269
 10
903.7026962959508
 20
-1347.760754563076
 42
-0.0141836319627198
 10
903.5591146929751
 20
-1347.935324320908
 10
903.552166937327
 20
-1347.943299321168
 42
-0.0175957477217791
 10
903.4122607692884
 20
-1348.092920209577
 42
-0.008046635967078
 10
903.2647970042688
 20
-1348.235242737719
 10
903.2187624597408
 20
-1348.27826317582
 42
-0.0269600260394307
 10
902.9654822137577
 20
-1348.490586434329
 10
902.8989150774629
 20
-1348.540537848952
 42
-0.0178362839758114
 10
902.658970587805
 20
-1348.707555775205
 10
902.6517256168081
 20
-1348.712224287408
 42
-0.0174650732645121
 10
902.4153894193632
 20
-1348.853085252369
 42
-0.0169240130166833
 10
902.1699231735007
 20
-1348.977377512149
 10
902.1239370179478
 20
-1348.998739467714
 42
-0.0318883036835453
 10
901.7735861623285
 20
-1349.135077777224
 10
901.7052206271612
 20
-1349.1567783977
 42
-0.028443590990521
 10
901.329170500872
 20
-1349.252995833174
 10
901.294012340375
 20
-1349.259889429002
 42
-0.0243909341012877
 10
900.9805688794545
 20
-1349.305610460033
 10
900.9302881526824
 20
-1349.310456006935
 42
-0.0196639292927798
 10
900.714692575156
 20
-1349.322704292448
 10
900.6628685039905
 20
-1349.323607553185
 42
-0.0100501510681853
 10
900.5504452223283
 20
-1349.323307154832
 10
900.518785360993
 20
-1349.322586082947
 42
-0.001975203112432
 10
900.469693024303
 20
-1349.321273922737
 10
900.466932721074
 20
-1349.32118923091
 42
0.0065378752045828
 10
900.4233561463261
 20
-1349.320422339695
 42
-0.0167974694703399
 10
900.3798253233996
 20
-1349.31876244117
 10
900.3757459841322
 20
-1349.318469430274
 42
-0.008128327627195
 10
900.3241861863951
 20
-1349.313922436637
 10
900.312446612515
 20
-1349.312694519058
 42
-0.0126703440175685
 10
900.2377283167242
 20
-1349.302959727987
 10
900.2149404490449
 20
-1349.299401472071
 42
-0.0117852088435586
 10
900.0954014632152
 20
-1349.277838476915
 10
900.0400210114494
 20
-1349.26649493668
 42
-0.0251774592298605
 10
899.8131769724426
 20
-1349.207996927247
 10
899.7684577825893
 20
-1349.194030107911
 42
-0.0146525199879632
 10
899.582064795052
 20
-1349.129763580713
 42
-0.01669294358622
 10
899.400087138925
 20
-1349.053956447658
 10
899.3954305076522
 20
-1349.051831547045
 42
-0.0191684358433704
 10
899.2102468764006
 20
-1348.958595463253
 10
899.206914290646
 20
-1348.956754215701
 42
-0.0221181781808763
 10
899.0236039867447
 20
-1348.844620717332
 10
899.0212541827353
 20
-1348.84303641934
 42
-0.0254984685385816
 10
898.8449640323502
 20
-1348.71062526937
 10
898.8224818846477
 20
-1348.691872960434
 42
-0.0292492648800425
 10
898.697712945805
 20
-1348.574780160791
 42
-0.0159048957501687
 10
898.5838729483557
 20
-1348.446760169192
 10
898.5825541577756
 20
-1348.445178556171
 42
-0.0343813379557886
 10
898.4799168961493
 20
-1348.303307230402
 10
898.4484253647886
 20
-1348.252803838308
 42
-0.0369117275700354
 10
898.3625328628913
 20
-1348.08932659736
 42
-0.0191751379917025
 10
898.2953394773338
 20
-1347.916921991352
 10
898.2935761535748
 20
-1347.911828646679
 42
-0.0378178042225832
 10
898.2437814347902
 20
-1347.722887870596
 10
898.2377861390601
 20
-1347.6903272524
 42
-0.0184846046461365
 10
898.2170689397658
 20
-1347.548574431856
 42
-0.0179866351316426
 10
898.2067359346922
 20
-1347.405683618777
 10
898.2066794922464
 20
-1347.404125932162
 42
-0.0085497186108815
 10
898.2052472111426
 20
-1347.329252767152
 42
-0.0085497186108815
  0
ENDBLK
  5
5C
330
23
100
AcDbEntity
  8
template
390
1D
100
AcDbBlockEnd
  0
BLOCK
  5
5D
330
24
100
AcDbEntity
  8
notes
390
1D
100
AcDbBlockBegin
  2
*D3
 70
     1
 10
0.0
 20
0.0
 30
0.0
  3
*D3
  1
*D3
  0
LINE
  5
5E
330
24
100
AcDbEntity
  8
DIM
 62
     0
370
    -2
100
AcDbLine
 10
10925.32472843768
 20
-2791.182746318576
 30
0.0
 11
10925.32472843768
 21
-2663.182746318576
 31
0.0
  0
LINE
  5
5F
330
24
100
AcDbEntity
  8
DIM
 62
     0
370
    -2
100
AcDbLine
 10
10125.32472843767
 20
-2791.182746318576
 30
0.0
 11
10125.32472843767
 21
-2663.182746318576
 31
0.0
  0
LINE
  5
60
330
24
100
AcDbEntity
  8
DIM
 62
     0
370
    -2
100
AcDbLine
 10
10915.32533878924
 20
-2663.182746318576
 30
0.0
 11
10135.32411808611
 21
-2663.182746318576
 31
0.0
  0
INSERT
  5
61
102
{ACAD_REACTORS
330
62
102
}
330
24
100
AcDbEntity
  8
DIM
 62
     0
370
    -2
100
AcDbBlockReference
  2
_DOT
 10
10925.32472843768
 20
-2663.182746318576
 30
0.0
 41
9.999389648437498
 42
9.999389648437498
 43
9.999389648437498
  0
INSERT
  5
62
330
24
100
AcDbEntity
  8
DIM
 62
     0
370
    -2
100
AcDbBlockReference
  2
_DOT
 10
10125.32472843767
 20
-2663.182746318576
 30
0.0
 41
9.999389648437498
 42
9.999389648437498
 43
9.999389648437498
 50
180.0
  0
MTEXT
  5
63
102
{ACAD_REACTORS
330
64
102
}
330
24
100
AcDbEntity
  8
DIM
  6
Continuous
 62
     0
100
AcDbMText
 10
10525.32472843767
 20
-2645.966437724826
 30
0.0
 40
24.4326171875
 41
0.0
 46
0.0
 71
     5
 72
     1
  1
\A1;800
  7
ＭＳ ゴシック
 73
     1
 44
1.0
  0
POINT
  5
64
330
24
100
AcDbEntity
  8
Defpoints
 62
     0
100
AcDbPoint
 10
10925.32472843768
 20
-2816.182746318576
 30
0.0
  0
POINT
  5
65
330
24
100
AcDbEntity
  8
Defpoints
 62
     0
100
AcDbPoint
 10
10125.32472843767
 20
-2816.182746318576
 30
0.0
  0
POINT
  5
66
330
24
100
AcDbEntity
  8
Defpoints
 62
     0
100
AcDbPoint
 10
10125.32472843767
 20
-2663.182746318576
 30
0.0
  0
ENDBLK
  5
69
330
24
100
AcDbEntity
  8
notes
390
1D
100
AcDbBlockEnd
  0
BLOCK
  5
6A
330
25
100
AcDbEntity
  8
notes
390
1D
100
AcDbBlockBegin
  2
*D4
 70
     1
 10
0.0
 20
0.0
 30
0.0
  3
*D4
  1
*D4
  0
LINE
  5
6B
330
25
100
AcDbEntity
  8
DIM
 62
     0
370
    -2
100
AcDbLine
 10
10625.25768337962
 20
-2837.638191719358
 30
0.0
 11
10625.25768337962
 21
-2713.182746318576
 31
0.0
  0
LINE
  5
6C
330
25
100
AcDbEntity
  8
DIM
 62
     0
370
    -2
100
AcDbLine
 10
10525.23472843768
 20
-2836.228191719357
 30
0.0
 11
10525.23472843768
 21
-2713.182746318576
 31
0.0
  0
LINE
  5
6D
330
25
100
AcDbEntity
  8
DIM
 62
     0
370
    -2
100
AcDbLine
 10
10615.25829373118
 20
-2713.182746318576
 30
0.0
 11
10535.23411808612
 21
-2713.182746318576
 31
0.0
  0
INSERT
  5
6E
102
{ACAD_REACTORS
330
6F
102
}
330
25
100
AcDbEntity
  8
DIM
 62
     0
370
    -2
100
AcDbBlockReference
  2
_DOT
 10
10625.25768337962
 20
-2713.182746318576
 30
0.0
 41
9.999389648437498
 42
9.999389648437498
 43
9.999389648437498
  0
INSERT
  5
6F
330
25
100
AcDbEntity
  8
DIM
 62
     0
370
    -2
100
AcDbBlockReference
  2
_DOT
 10
10525.23472843768
 20
-2713.182746318576
 30
0.0
 41
9.999389648437498
 42
9.999389648437498
 43
9.999389648437498
 50
180.0
  0
MTEXT
  5
70
102
{ACAD_REACTORS
330
71
102
}
330
25
100
AcDbEntity
  8
DIM
  6
Continuous
 62
     0
100
AcDbMText
 10
10575.24620590865
 20
-2695.966437724826
 30
0.0
 40
24.4326171875
 41
0.0
 46
0.0
 71
     5
 72
     1
  1
\A1;100
  7
ＭＳ ゴシック
 73
     1
 44
1.0
  0
POINT
  5
71
330
25
100
AcDbEntity
  8
Defpoints
 62
     0
100
AcDbPoint
 10
10625.25768337962
 20
-2862.638191719358
 30
0.0
  0
POINT
  5
72
330
25
100
AcDbEntity
  8
Defpoints
 62
     0
100
AcDbPoint
 10
10525.23472843768
 20
-2861.228191719357
 30
0.0
  0
POINT
  5
73
330
25
100
AcDbEntity
  8
Defpoints
 62
     0
100
AcDbPoint
 10
10525.23472843768
 20
-2713.182746318576
 30
0.0
  0
ENDBLK
  5
76
330
25
100
AcDbEntity
  8
notes
390
1D
100
AcDbBlockEnd
  0
BLOCK
  5
77
330
26
100
AcDbEntity
  8
notes
390
1D
100
AcDbBlockBegin
  2
*D5
 70
     1
 10
0.0
 20
0.0
 30
0.0
  3
*D5
  1
*D5
  0
LINE
  5
78
330
26
100
AcDbEntity
  8
DIM
 62
     0
370
    -2
100
AcDbLine
 10
10525.23472843768
 20
-2836.228191719357
 30
0.0
 11
10525.23472843768
 21
-2713.182746318576
 31
0.0
  0
LINE
  5
79
330
26
100
AcDbEntity
  8
DIM
 62
     0
370
    -2
100
AcDbLine
 10
10425.24380715209
 20
-2837.638191719358
 30
0.0
 11
10425.24380715209
 21
-2713.182746318576
 31
0.0
  0
LINE
  5
7A
330
26
100
AcDbEntity
  8
DIM
 62
     0
370
    -2
100
AcDbLine
 10
10515.23533878924
 20
-2713.182746318576
 30
0.0
 11
10435.24319680053
 21
-2713.182746318576
 31
0.0
  0
INSERT
  5
7B
102
{ACAD_REACTORS
330
7C
102
}
330
26
100
AcDbEntity
  8
DIM
 62
     0
370
    -2
100
AcDbBlockReference
  2
_DOT
 10
10525.23472843768
 20
-2713.182746318576
 30
0.0
 41
9.999389648437498
 42
9.999389648437498
 43
9.999389648437498
  0
INSERT
  5
7C
330
26
100
AcDbEntity
  8
DIM
 62
     0
370
    -2
100
AcDbBlockReference
  2
_DOT
 10
10425.24380715209
 20
-2713.182746318576
 30
0.0
 41
9.999389648437498
 42
9.999389648437498
 43
9.999389648437498
 50
180.0
  0
MTEXT
  5
7D
102
{ACAD_REACTORS
330
7E
102
}
330
26
100
AcDbEntity
  8
DIM
  6
Continuous
 62
     0
100
AcDbMText
 10
10475.23926779488
 20
-2695.966437724826
 30
0.0
 40
24.4326171875
 41
0.0
 46
0.0
 71
     5
 72
     1
  1
\A1;100
  7
ＭＳ ゴシック
 73
     1
 44
1.0
  0
POINT
  5
7E
330
26
100
AcDbEntity
  8
Defpoints
 62
     0
100
AcDbPoint
 10
10525.23472843768
 20
-2861.228191719357
 30
0.0
  0
POINT
  5
7F
330
26
100
AcDbEntity
  8
Defpoints
 62
     0
100
AcDbPoint
 10
10425.24380715209
 20
-2862.638191719358
 30
0.0
  0
POINT
  5
80
330
26
100
AcDbEntity
  8
Defpoints
 62
     0
100
AcDbPoint
 10
10425.24380715209
 20
-2713.182746318576
 30
0.0
  0
ENDBLK
  5
83
330
26
100
AcDbEntity
  8
notes
390
1D
100
AcDbBlockEnd
  0
BLOCK
  5
84
330
27
100
AcDbEntity
  8
notes
390
1D
100
AcDbBlockBegin
  2
*D6
 70
     1
 10
0.0
 20
0.0
 30
0.0
  3
*D6
  1
*D6
  0
LINE
  5
85
330
27
100
AcDbEntity
  8
DIM
 62
     0
370
    -2
100
AcDbLine
 10
10103.32472843767
 20
-2813.182746318576
 30
0.0
 11
10025.32472843767
 21
-2813.182746318576
 31
0.0
  0
LINE
  5
86
330
27
100
AcDbEntity
  8
DIM
 62
     0
370
    -2
100
AcDbLine
 10
10100.32472843767
 20
-2943.510352628404
 30
0.0
 11
10025.32472843767
 21
-2943.510352628404
 31
0.0
  0
LINE
  5
87
330
27
100
AcDbEntity
  8
DIM
 62
     0
370
    -2
100
AcDbLine
 10
10025.32472843767
 20
-2823.182135967013
 30
0.0
 11
10025.32472843767
 21
-2933.510962979966
 31
0.0
  0
INSERT
  5
88
102
{ACAD_REACTORS
330
89
102
}
330
27
100
AcDbEntity
  8
DIM
 62
     0
370
    -2
100
AcDbBlockReference
  2
_DOT
 10
10025.32472843767
 20
-2813.182746318576
 30
0.0
 41
9.999389648437498
 42
9.999389648437498
 43
9.999389648437498
 50
90.0
  0
INSERT
  5
89
330
27
100
AcDbEntity
  8
DIM
 62
     0
370
    -2
100
AcDbBlockReference
  2
_DOT
 10
10025.32472843767
 20
-2943.510352628404
 30
0.0
 41
9.999389648437498
 42
9.999389648437498
 43
9.999389648437498
 50
270.0
  0
MTEXT
  5
8A
102
{ACAD_REACTORS
330
8B
102
}
330
27
100
AcDbEntity
  8
DIM
  6
Continuous
 62
     0
100
AcDbMText
 10
10008.10841984392
 20
-2878.34654947349
 30
0.0
 40
24.4326171875
 41
0.0
 46
0.0
 71
     5
 72
     1
  1
\A1;130
  7
ＭＳ ゴシック
 11
0.0
 21
1.0
 31
0.0
 73
     1
 44
1.0
  0
POINT
  5
8B
330
27
100
AcDbEntity
  8
Defpoints
 62
     0
100
AcDbPoint
 10
10128.32472843767
 20
-2813.182746318576
 30
0.0
  0
POINT
  5
8C
330
27
100
AcDbEntity
  8
Defpoints
 62
     0
100
AcDbPoint
 10
10125.32472843767
 20
-2943.510352628404
 30
0.0
  0
POINT
  5
8D
330
27
100
AcDbEntity
  8
Defpoints
 62
     0
100
AcDbPoint
 10
10025.32472843767
 20
-2943.510352628404
 30
0.0
  0
ENDBLK
  5
90
330
27
100
AcDbEntity
  8
notes
390
1D
100
AcDbBlockEnd
  0
BLOCK
  5
91
330
28
100
AcDbEntity
  8
notes
390
1D
100
AcDbBlockBegin
  2
*D7
 70
     1
 10
0.0
 20
0.0
 30
0.0
  3
*D7
  1
*D7
  0
LINE
  5
92
330
28
100
AcDbEntity
  8
0
  6
Continuous
 62
     0
370
    -2
390
1D
100
AcDbLine
 10
10100.32472843767
 20
-2943.510352628404
 30
0.0
 11
10025.32472843767
 21
-2943.510352628404
 31
0.0
  0
LINE
  5
93
330
28
100
AcDbEntity
  8
0
  6
Continuous
 62
     0
370
    -2
390
1D
100
AcDbLine
 10
10100.32472843767
 20
-3203.510352628403
 30
0.0
 11
10025.32472843767
 21
-3203.510352628403
 31
0.0
  0
LINE
  5
94
330
28
100
AcDbEntity
  8
0
  6
Continuous
 62
     0
370
    -2
390
1D
100
AcDbLine
 10
10025.32472843767
 20
-2943.510352628404
 30
0.0
 11
10025.32472843767
 21
-3203.510352628403
 31
0.0
  0
CIRCLE
  5
95
102
{ACAD_REACTORS
330
96
102
}
330
28
100
AcDbEntity
  8
0
  6
Continuous
 62
     0
370
    -2
390
1D
100
AcDbCircle
 10
10025.32472843767
 20
-2943.510352628404
 30
0.0
 40
4.99969482421875
  0
HATCH
  5
96
330
28
100
AcDbEntity
  8
0
  6
Continuous
 62
     0
370
    -2
390
1D
100
AcDbHatch
 10
0.0
 20
0.0
 30
0.0
210
0.0
220
0.0
230
1.0
  2
SOLID
 70
     1
 71
     1
 91
        1
 92
        1
 93
        1
 72
     2
 10
10025.32472843767
 20
-2943.510352628404
 40
4.99969482421875
 50
0.0
 51
360.0
 73
     0
 97
        1
330
95
 75
     0
 76
     1
 98
        1
 10
0.0
 20
0.0
  0
CIRCLE
  5
97
102
{ACAD_REACTORS
330
98
102
}
330
28
100
AcDbEntity
  8
0
  6
Continuous
 62
     0
370
    -2
390
1D
100
AcDbCircle
 10
10025.32472843767
 20
-3203.510352628403
 30
0.0
 40
4.99969482421875
  0
HATCH
  5
98
330
28
100
AcDbEntity
  8
0
  6
Continuous
 62
     0
370
    -2
390
1D
100
AcDbHatch
 10
0.0
 20
0.0
 30
0.0
210
0.0
220
0.0
230
1.0
  2
SOLID
 70
     1
 71
     1
 91
        1
 92
        1
 93
        1
 72
     2
 10
10025.32472843767
 20
-3203.510352628403
 40
4.99969482421875
 50
0.0
 51
360.0
 73
     0
 97
        1
330
97
 75
     0
 76
     1
 98
        1
 10
0.0
 20
0.0
  0
MTEXT
  5
99
330
28
100
AcDbEntity
  8
0
 62
     0
390
1D
100
AcDbMText
 10
9991.447111250174
 20
-3091.324828402344
 30
0.0
 40
24.4326171875
 41
0.0
 46
0.0
 71
     1
 72
     1
  1
260
  7
ＭＳ ゴシック
 11
0.0
 21
1.0
 31
0.0
 73
     1
 44
0.7828267384257843
  0
POINT
  5
9A
330
28
100
AcDbEntity
  8
Defpoints
 62
     0
370
     0
390
1D
100
AcDbPoint
 10
10125.32472843767
 20
-3203.510352628403
 30
0.0
  0
POINT
  5
9B
330
28
100
AcDbEntity
  8
Defpoints
 62
     0
370
     0
390
1D
100
AcDbPoint
 10
10125.32472843767
 20
-2943.510352628404
 30
0.0
  0
POINT
  5
9C
330
28
100
AcDbEntity
  8
Defpoints
 62
     0
370
     0
390
1D
100
AcDbPoint
 10
10025.32472843767
 20
-2943.510352628404
 30
0.0
  0
ENDBLK
  5
9D
330
28
100
AcDbEntity
  8
notes
390
1D
100
AcDbBlockEnd
  0
BLOCK
  5
9E
330
29
100
AcDbEntity
  8
notes
390
1D
100
AcDbBlockBegin
  2
*D8
 70
     1
 10
0.0
 20
0.0
 30
0.0
  3
*D8
  1
*D8
  0
LINE
  5
9F
330
29
100
AcDbEntity
  8
DIM
 62
     0
370
    -2
100
AcDbLine
 10
10910.32472843767
 20
-3293.182746318576
 30
0.0
 11
11025.32472843767
 21
-3293.182746318576
 31
0.0
  0
LINE
  5
A0
330
29
100
AcDbEntity
  8
DIM
 62
     0
370
    -2
100
AcDbLine
 10
10947.32472843768
 20
-2813.182746318576
 30
0.0
 11
11025.32472843767
 21
-2813.182746318576
 31
0.0
  0
LINE
  5
A1
330
29
100
AcDbEntity
  8
DIM
 62
     0
370
    -2
100
AcDbLine
 10
11025.32472843767
 20
-3283.183356670138
 30
0.0
 11
11025.32472843767
 21
-2823.182135967013
 31
0.0
  0
INSERT
  5
A2
102
{ACAD_REACTORS
330
A3
102
}
330
29
100
AcDbEntity
  8
DIM
 62
     0
370
    -2
100
AcDbBlockReference
  2
_DOT
 10
11025.32472843767
 20
-3293.182746318576
 30
0.0
 41
9.999389648437498
 42
9.999389648437498
 43
9.999389648437498
 50
270.0
  0
INSERT
  5
A3
330
29
100
AcDbEntity
  8
DIM
 62
     0
370
    -2
100
AcDbBlockReference
  2
_DOT
 10
11025.32472843767
 20
-2813.182746318576
 30
0.0
 41
9.999389648437498
 42
9.999389648437498
 43
9.999389648437498
 50
90.0
  0
MTEXT
  5
A4
102
{ACAD_REACTORS
330
A5
102
}
330
29
100
AcDbEntity
  8
DIM
  6
Continuous
 62
     0
100
AcDbMText
 10
11008.10841984392
 20
-3053.182746318576
 30
0.0
 40
24.4326171875
 41
0.0
 46
0.0
 71
     5
 72
     1
  1
\A1;480
  7
ＭＳ ゴシック
 11
0.0
 21
1.0
 31
0.0
 73
     1
 44
1.0
  0
POINT
  5
A5
330
29
100
AcDbEntity
  8
Defpoints
 62
     0
100
AcDbPoint
 10
10885.32472843767
 20
-3293.182746318576
 30
0.0
  0
POINT
  5
A6
330
29
100
AcDbEntity
  8
Defpoints
 62
     0
100
AcDbPoint
 10
10922.32472843768
 20
-2813.182746318576
 30
0.0
  0
POINT
  5
A7
330
29
100
AcDbEntity
  8
Defpoints
 62
     0
100
AcDbPoint
 10
11025.32472843767
 20
-2813.182746318576
 30
0.0
  0
ENDBLK
  5
AA
330
29
100
AcDbEntity
  8
notes
390
1D
100
AcDbBlockEnd
  0
BLOCK
  5
AB
330
2A
100
AcDbEntity
  8
notes
390
1D
100
AcDbBlockBegin
  2
*D9
 70
     1
 10
0.0
 20
0.0
 30
0.0
  3
*D9
  1
*D9
  0
LINE
  5
AC
330
2A
100
AcDbEntity
  8
DIM
 62
     0
370
    -2
100
AcDbLine
 10
10790.32472843767
 20
-3318.512326720172
 30
0.0
 11
10790.32472843767
 21
-3393.182746318576
 31
0.0
  0
LINE
  5
AD
330
2A
100
AcDbEntity
  8
DIM
 62
     0
370
    -2
100
AcDbLine
 10
10260.32472843767
 20
-3318.512326720172
 30
0.0
 11
10260.32472843767
 21
-3393.182746318576
 31
0.0
  0
LINE
  5
AE
330
2A
100
AcDbEntity
  8
DIM
 62
     0
370
    -2
100
AcDbLine
 10
10780.32533878923
 20
-3393.182746318576
 30
0.0
 11
10270.32411808611
 21
-3393.182746318576
 31
0.0
  0
INSERT
  5
AF
102
{ACAD_REACTORS
330
B0
102
}
330
2A
100
AcDbEntity
  8
DIM
 62
     0
370
    -2
100
AcDbBlockReference
  2
_DOT
 10
10790.32472843767
 20
-3393.182746318576
 30
0.0
 41
9.999389648437498
 42
9.999389648437498
 43
9.999389648437498
  0
INSERT
  5
B0
330
2A
100
AcDbEntity
  8
DIM
 62
     0
370
    -2
100
AcDbBlockReference
  2
_DOT
 10
10260.32472843767
 20
-3393.182746318576
 30
0.0
 41
9.999389648437498
 42
9.999389648437498
 43
9.999389648437498
 50
180.0
  0
MTEXT
  5
B1
102
{ACAD_REACTORS
330
B2
102
}
330
2A
100
AcDbEntity
  8
DIM
  6
Continuous
 62
     0
100
AcDbMText
 10
10525.32472843767
 20
-3375.966437724826
 30
0.0
 40
24.4326171875
 41
0.0
 46
0.0
 71
     5
 72
     1
  1
\A1;530
  7
ＭＳ ゴシック
 73
     1
 44
1.0
  0
POINT
  5
B2
330
2A
100
AcDbEntity
  8
Defpoints
 62
     0
100
AcDbPoint
 10
10790.32472843767
 20
-3293.512326720172
 30
0.0
  0
POINT
  5
B3
330
2A
100
AcDbEntity
  8
Defpoints
 62
     0
100
AcDbPoint
 10
10260.32472843767
 20
-3293.512326720172
 30
0.0
  0
POINT
  5
B4
330
2A
100
AcDbEntity
  8
Defpoints
 62
     0
100
AcDbPoint
 10
10260.32472843767
 20
-3393.182746318576
 30
0.0
  0
ENDBLK
  5
B7
330
2A
100
AcDbEntity
  8
notes
390
1D
100
AcDbBlockEnd
  0
BLOCK
  5
B8
330
2B
100
AcDbEntity
  8
notes
390
1D
100
AcDbBlockBegin
  2
*D10
 70
     1
 10
0.0
 20
0.0
 30
0.0
  3
*D10
  1
*D10
  0
LINE
  5
B9
330
2B
100
AcDbEntity
  8
DIM
 62
     0
370
    -2
100
AcDbLine
 10
10125.32472843767
 20
-3277.201870360011
 30
0.0
 11
10125.32472843767
 21
-3393.182746318576
 31
0.0
  0
LINE
  5
BA
330
2B
100
AcDbEntity
  8
DIM
 62
     0
370
    -2
100
AcDbLine
 10
10260.32472843767
 20
-3318.182746318576
 30
0.0
 11
10260.32472843767
 21
-3393.182746318576
 31
0.0
  0
LINE
  5
BB
330
2B
100
AcDbEntity
  8
DIM
 62
     0
370
    -2
100
AcDbLine
 10
10135.32411808611
 20
-3393.182746318576
 30
0.0
 11
10250.32533878923
 21
-3393.182746318576
 31
0.0
  0
INSERT
  5
BC
102
{ACAD_REACTORS
330
BD
102
}
330
2B
100
AcDbEntity
  8
DIM
 62
     0
370
    -2
100
AcDbBlockReference
  2
_DOT
 10
10125.32472843767
 20
-3393.182746318576
 30
0.0
 41
9.999389648437498
 42
9.999389648437498
 43
9.999389648437498
 50
180.0
  0
INSERT
  5
BD
330
2B
100
AcDbEntity
  8
DIM
 62
     0
370
    -2
100
AcDbBlockReference
  2
_DOT
 10
10260.32472843767
 20
-3393.182746318576
 30
0.0
 41
9.999389648437498
 42
9.999389648437498
 43
9.999389648437498
  0
MTEXT
  5
BE
102
{ACAD_REACTORS
330
BF
102
}
330
2B
100
AcDbEntity
  8
DIM
  6
Continuous
 62
     0
100
AcDbMText
 10
10192.82472843767
 20
-3375.966437724826
 30
0.0
 40
24.4326171875
 41
0.0
 46
0.0
 71
     5
 72
     1
  1
\A1;135
  7
ＭＳ ゴシック
 73
     1
 44
1.0
  0
POINT
  5
BF
330
2B
100
AcDbEntity
  8
Defpoints
 62
     0
100
AcDbPoint
 10
10125.32472843767
 20
-3252.201870360011
 30
0.0
  0
POINT
  5
C0
330
2B
100
AcDbEntity
  8
Defpoints
 62
     0
100
AcDbPoint
 10
10260.32472843767
 20
-3293.182746318576
 30
0.0
  0
POINT
  5
C1
330
2B
100
AcDbEntity
  8
Defpoints
 62
     0
100
AcDbPoint
 10
10260.32472843767
 20
-3393.182746318576
 30
0.0
  0
ENDBLK
  5
C4
330
2B
100
AcDbEntity
  8
notes
390
1D
100
AcDbBlockEnd
  0
BLOCK
  5
C5
330
2C
100
AcDbEntity
  8
notes
390
1D
100
AcDbBlockBegin
  2
*D11
 70
     1
 10
0.0
 20
0.0
 30
0.0
  3
*D11
  1
*D11
  0
LINE
  5
C6
330
2C
100
AcDbEntity
  8
DIM
 62
     0
370
    -2
100
AcDbLine
 10
10665.32472843767
 20
-3907.47644389739
 30
0.0
 11
10665.32472843767
 21
-3816.47644389739
 31
0.0
  0
LINE
  5
C7
330
2C
100
AcDbEntity
  8
DIM
 62
     0
370
    -2
100
AcDbLine
 10
10385.32472843767
 20
-3907.47644389739
 30
0.0
 11
10385.32472843767
 21
-3816.47644389739
 31
0.0
  0
LINE
  5
C8
330
2C
100
AcDbEntity
  8
DIM
 62
     0
370
    -2
100
AcDbLine
 10
10655.32533878923
 20
-3816.47644389739
 30
0.0
 11
10395.32411808611
 21
-3816.47644389739
 31
0.0
  0
INSERT
  5
C9
102
{ACAD_REACTORS
330
CA
102
}
330
2C
100
AcDbEntity
  8
DIM
 62
     0
370
    -2
100
AcDbBlockReference
  2
_DOT
 10
10665.32472843767
 20
-3816.47644389739
 30
0.0
 41
9.999389648437498
 42
9.999389648437498
 43
9.999389648437498
  0
INSERT
  5
CA
330
2C
100
AcDbEntity
  8
DIM
 62
     0
370
    -2
100
AcDbBlockReference
  2
_DOT
 10
10385.32472843767
 20
-3816.47644389739
 30
0.0
 41
9.999389648437498
 42
9.999389648437498
 43
9.999389648437498
 50
180.0
  0
MTEXT
  5
CB
102
{ACAD_REACTORS
330
CC
102
}
330
2C
100
AcDbEntity
  8
DIM
  6
Continuous
 62
     0
100
AcDbMText
 10
10525.32472843767
 20
-3799.26013530364
 30
0.0
 40
24.4326171875
 41
0.0
 46
0.0
 71
     5
 72
     1
  1
\A1;280
  7
ＭＳ ゴシック
 73
     1
 44
1.0
  0
POINT
  5
CC
330
2C
100
AcDbEntity
  8
Defpoints
 62
     0
100
AcDbPoint
 10
10665.32472843767
 20
-3932.47644389739
 30
0.0
  0
POINT
  5
CD
330
2C
100
AcDbEntity
  8
Defpoints
 62
     0
100
AcDbPoint
 10
10385.32472843767
 20
-3932.47644389739
 30
0.0
  0
POINT
  5
CE
330
2C
100
AcDbEntity
  8
Defpoints
 62
     0
100
AcDbPoint
 10
10385.32472843767
 20
-3816.47644389739
 30
0.0
  0
ENDBLK
  5
D1
330
2C
100
AcDbEntity
  8
notes
390
1D
100
AcDbBlockEnd
  0
BLOCK
  5
D2
330
2D
100
AcDbEntity
  8
notes
390
1D
100
AcDbBlockBegin
  2
*D12
 70
     1
 10
0.0
 20
0.0
 30
0.0
  3
*D12
  1
*D12
  0
LINE
  5
D3
330
2D
100
AcDbEntity
  8
DIM
 62
     0
370
    -2
100
AcDbLine
 10
10106.4371274429
 20
-3912.47644389739
 30
0.0
 11
10025.32472843767
 21
-3912.47644389739
 31
0.0
  0
LINE
  5
D4
330
2D
100
AcDbEntity
  8
DIM
 62
     0
370
    -2
100
AcDbLine
 10
10340.32472843767
 20
-3952.476443897389
 30
0.0
 11
10025.32472843767
 21
-3952.476443897389
 31
0.0
  0
LINE
  5
D5
330
2D
100
AcDbEntity
  8
DIM
 62
     0
370
    -2
100
AcDbLine
 10
10025.32472843767
 20
-3922.475833545827
 30
0.0
 11
10025.32472843767
 21
-3942.477054248951
 31
0.0
  0
INSERT
  5
D6
102
{ACAD_REACTORS
330
D7
102
}
330
2D
100
AcDbEntity
  8
DIM
 62
     0
370
    -2
100
AcDbBlockReference
  2
_DOT
 10
10025.32472843767
 20
-3912.47644389739
 30
0.0
 41
9.999389648437498
 42
9.999389648437498
 43
9.999389648437498
 50
90.0
  0
INSERT
  5
D7
330
2D
100
AcDbEntity
  8
DIM
 62
     0
370
    -2
100
AcDbBlockReference
  2
_DOT
 10
10025.32472843767
 20
-3952.476443897389
 30
0.0
 41
9.999389648437498
 42
9.999389648437498
 43
9.999389648437498
 50
270.0
  0
MTEXT
  5
D8
102
{ACAD_REACTORS
330
D9
102
}
330
2D
100
AcDbEntity
  8
DIM
  6
Continuous
 62
     0
100
AcDbMText
 10
10008.10841984392
 20
-3932.476443897389
 30
0.0
 40
24.4326171875
 41
0.0
 46
0.0
 71
     5
 72
     1
  1
\A1;40
  7
ＭＳ ゴシック
 11
0.0
 21
1.0
 31
0.0
 73
     1
 44
1.0
  0
POINT
  5
D9
330
2D
100
AcDbEntity
  8
Defpoints
 62
     0
100
AcDbPoint
 10
10131.4371274429
 20
-3912.47644389739
 30
0.0
  0
POINT
  5
DA
330
2D
100
AcDbEntity
  8
Defpoints
 62
     0
100
AcDbPoint
 10
10365.32472843767
 20
-3952.476443897389
 30
0.0
  0
POINT
  5
DB
330
2D
100
AcDbEntity
  8
Defpoints
 62
     0
100
AcDbPoint
 10
10025.32472843767
 20
-3952.476443897389
 30
0.0
  0
ENDBLK
  5
DE
330
2D
100
AcDbEntity
  8
notes
390
1D
100
AcDbBlockEnd
  0
BLOCK
  5
DF
330
2E
100
AcDbEntity
  8
notes
390
1D
100
AcDbBlockBegin
  2
*D13
 70
     1
 10
0.0
 20
0.0
 30
0.0
  3
*D13
  1
*D13
  0
LINE
  5
E0
330
2E
100
AcDbEntity
  8
0
  6
Continuous
 62
     0
370
    -2
390
1D
100
AcDbLine
 10
10584.08907673162
 20
-4092.474744652592
 30
0.0
 11
11024.92340727324
 21
-4092.474744652592
 31
0.0
  0
LINE
  5
E1
330
2E
100
AcDbEntity
  8
0
  6
Continuous
 62
     0
370
    -2
390
1D
100
AcDbLine
 10
10944.21232943245
 20
-3912.474744652592
 30
0.0
 11
11024.92340727324
 21
-3912.474744652592
 31
0.0
  0
LINE
  5
E2
330
2E
100
AcDbEntity
  8
0
  6
Continuous
 62
     0
370
    -2
390
1D
100
AcDbLine
 10
11024.92340727324
 20
-4092.474744652592
 30
0.0
 11
11024.92340727324
 21
-3912.474744652592
 31
0.0
  0
CIRCLE
  5
E3
102
{ACAD_REACTORS
330
E4
102
}
330
2E
100
AcDbEntity
  8
0
  6
Continuous
 62
     0
370
    -2
390
1D
100
AcDbCircle
 10
11024.92340727324
 20
-4092.474744652592
 30
0.0
 40
4.99969482421875
  0
HATCH
  5
E4
330
2E
100
AcDbEntity
  8
0
  6
Continuous
 62
     0
370
    -2
390
1D
100
AcDbHatch
 10
0.0
 20
0.0
 30
0.0
210
0.0
220
0.0
230
1.0
  2
SOLID
 70
     1
 71
     1
 91
        1
 92
        1
 93
        1
 72
     2
 10
11024.92340727324
 20
-4092.474744652592
 40
4.99969482421875
 50
0.0
 51
360.0
 73
     0
 97
        1
330
E3
 75
     0
 76
     1
 98
        1
 10
0.0
 20
0.0
  0
CIRCLE
  5
E5
102
{ACAD_REACTORS
330
E6
102
}
330
2E
100
AcDbEntity
  8
0
  6
Continuous
 62
     0
370
    -2
390
1D
100
AcDbCircle
 10
11024.92340727324
 20
-3912.474744652592
 30
0.0
 40
4.99969482421875
  0
HATCH
  5
E6
330
2E
100
AcDbEntity
  8
0
  6
Continuous
 62
     0
370
    -2
390
1D
100
AcDbHatch
 10
0.0
 20
0.0
 30
0.0
210
0.0
220
0.0
230
1.0
  2
SOLID
 70
     1
 71
     1
 91
        1
 92
        1
 93
        1
 72
     2
 10
11024.92340727324
 20
-3912.474744652592
 40
4.99969482421875
 50
0.0
 51
360.0
 73
     0
 97
        1
330
E5
 75
     0
 76
     1
 98
        1
 10
0.0
 20
0.0
  0
MTEXT
  5
E7
330
2E
100
AcDbEntity
  8
0
 62
     0
390
1D
100
AcDbMText
 10
10991.04579008574
 20
-4026.287246334768
 30
0.0
 40
24.4326171875
 41
0.0
 46
0.0
 71
     1
 72
     1
  1
180
  7
ＭＳ ゴシック
 11
0.0
 21
1.0
 31
0.0
 73
     1
 44
0.7828267384257843
  0
POINT
  5
E8
330
2E
100
AcDbEntity
  8
Defpoints
 62
     0
370
     0
390
1D
100
AcDbPoint
 10
10919.21232943245
 20
-3912.474744652592
 30
0.0
  0
POINT
  5
E9
330
2E
100
AcDbEntity
  8
Defpoints
 62
     0
370
     0
390
1D
100
AcDbPoint
 10
10559.08907673162
 20
-4092.474744652592
 30
0.0
  0
POINT
  5
EA
330
2E
100
AcDbEntity
  8
Defpoints
 62
     0
370
     0
390
1D
100
AcDbPoint
 10
11024.92340727324
 20
-4092.474744652592
 30
0.0
  0
ENDBLK
  5
EB
330
2E
100
AcDbEntity
  8
notes
390
1D
100
AcDbBlockEnd
  0
BLOCK
  5
EC
330
2F
100
AcDbEntity
  8
notes
390
1D
100
AcDbBlockBegin
  2
*D14
 70
     1
 10
0.0
 20
0.0
 30
0.0
  3
*D14
  1
*D14
  0
LINE
  5
ED
330
2F
100
AcDbEntity
  8
0
  6
Continuous
 62
     0
370
    -2
390
1D
100
AcDbLine
 10
11540.22559471128
 20
-4120.081265360702
 30
0.0
 11
11540.22559471128
 21
-4196.227984080745
 31
0.0
  0
LINE
  5
EE
330
2F
100
AcDbEntity
  8
0
  6
Continuous
 62
     0
370
    -2
390
1D
100
AcDbLine
 10
11760.22559471128
 20
-4078.277411134168
 30
0.0
 11
11760.22559471128
 21
-4196.227984080745
 31
0.0
  0
LINE
  5
EF
330
2F
100
AcDbEntity
  8
0
  6
Continuous
 62
     0
370
    -2
390
1D
100
AcDbLine
 10
11540.22559471128
 20
-4196.227984080745
 30
0.0
 11
11760.22559471128
 21
-4196.227984080745
 31
0.0
  0
CIRCLE
  5
F0
102
{ACAD_REACTORS
330
F1
102
}
330
2F
100
AcDbEntity
  8
0
  6
Continuous
 62
     0
370
    -2
390
1D
100
AcDbCircle
 10
11540.22559471128
 20
-4196.227984080745
 30
0.0
 40
4.99969482421875
  0
HATCH
  5
F1
330
2F
100
AcDbEntity
  8
0
  6
Continuous
 62
     0
370
    -2
390
1D
100
AcDbHatch
 10
0.0
 20
0.0
 30
0.0
210
0.0
220
0.0
230
1.0
  2
SOLID
 70
     1
 71
     1
 91
        1
 92
        1
 93
        1
 72
     2
 10
11540.22559471128
 20
-4196.227984080745
 40
4.99969482421875
 50
0.0
 51
360.0
 73
     0
 97
        1
330
F0
 75
     0
 76
     1
 98
        1
 10
0.0
 20
0.0
  0
CIRCLE
  5
F2
102
{ACAD_REACTORS
330
F3
102
}
330
2F
100
AcDbEntity
  8
0
  6
Continuous
 62
     0
370
    -2
390
1D
100
AcDbCircle
 10
11760.22559471128
 20
-4196.227984080745
 30
0.0
 40
4.99969482421875
  0
HATCH
  5
F3
330
2F
100
AcDbEntity
  8
0
  6
Continuous
 62
     0
370
    -2
390
1D
100
AcDbHatch
 10
0.0
 20
0.0
 30
0.0
210
0.0
220
0.0
230
1.0
  2
SOLID
 70
     1
 71
     1
 91
        1
 92
        1
 93
        1
 72
     2
 10
11760.22559471128
 20
-4196.227984080745
 40
4.99969482421875
 50
0.0
 51
360.0
 73
     0
 97
        1
330
F2
 75
     0
 76
     1
 98
        1
 10
0.0
 20
0.0
  0
MTEXT
  5
F4
330
2F
100
AcDbEntity
  8
0
 62
     0
390
1D
100
AcDbMText
 10
11613.42302444769
 20
-4162.350366893245
 30
0.0
 40
24.4326171875
 41
0.0
 46
0.0
 71
     1
 72
     1
  1
220
  7
ＭＳ ゴシック
 73
     1
 44
0.7828267384257843
  0
POINT
  5
F5
330
2F
100
AcDbEntity
  8
Defpoints
 62
     0
370
     0
390
1D
100
AcDbPoint
 10
11760.22559471128
 20
-4053.277411134168
 30
0.0
  0
POINT
  5
F6
330
2F
100
AcDbEntity
  8
Defpoints
 62
     0
370
     0
390
1D
100
AcDbPoint
 10
11540.22559471128
 20
-4095.081265360702
 30
0.0
  0
POINT
  5
F7
330
2F
100
AcDbEntity
  8
Defpoints
 62
     0
370
     0
390
1D
100
AcDbPoint
 10
11540.22559471128
 20
-4196.227984080745
 30
0.0
  0
ENDBLK
  5
F8
330
2F
100
AcDbEntity
  8
notes
390
1D
100
AcDbBlockEnd
  0
BLOCK
  5
F9
330
30
100
AcDbEntity
  8
notes
390
1D
100
AcDbBlockBegin
  2
*D15
 70
     1
 10
0.0
 20
0.0
 30
0.0
  3
*D15
  1
*D15
  0
LINE
  5
FA
330
30
100
AcDbEntity
  8
0
  6
Continuous
 62
     0
370
    -2
390
1D
100
AcDbLine
 10
11760.22560396385
 20
-3888.976443897384
 30
0.0
 11
11760.22560396385
 21
-3812.47644389739
 31
0.0
  0
LINE
  5
FB
330
30
100
AcDbEntity
  8
0
  6
Continuous
 62
     0
370
    -2
390
1D
100
AcDbLine
 10
11695.22560396385
 20
-3887.47644389739
 30
0.0
 11
11695.22560396385
 21
-3812.47644389739
 31
0.0
  0
LINE
  5
FC
330
30
100
AcDbEntity
  8
0
  6
Continuous
 62
     0
370
    -2
390
1D
100
AcDbLine
 10
11760.22560396385
 20
-3812.47644389739
 30
0.0
 11
11695.22560396385
 21
-3812.47644389739
 31
0.0
  0
CIRCLE
  5
FD
102
{ACAD_REACTORS
330
FE
102
}
330
30
100
AcDbEntity
  8
0
  6
Continuous
 62
     0
370
    -2
390
1D
100
AcDbCircle
 10
11760.22560396385
 20
-3812.47644389739
 30
0.0
 40
4.99969482421875
  0
HATCH
  5
FE
330
30
100
AcDbEntity
  8
0
  6
Continuous
 62
     0
370
    -2
390
1D
100
AcDbHatch
 10
0.0
 20
0.0
 30
0.0
210
0.0
220
0.0
230
1.0
  2
SOLID
 70
     1
 71
     1
 91
        1
 92
        1
 93
        1
 72
     2
 10
11760.22560396385
 20
-3812.47644389739
 40
4.99969482421875
 50
0.0
 51
360.0
 73
     0
 97
        1
330
FD
 75
     0
 76
     1
 98
        1
 10
0.0
 20
0.0
  0
CIRCLE
  5
FF
102
{ACAD_REACTORS
330
100
102
}
330
30
100
AcDbEntity
  8
0
  6
Continuous
 62
     0
370
    -2
390
1D
100
AcDbCircle
 10
11695.22560396385
 20
-3812.47644389739
 30
0.0
 40
4.99969482421875
  0
HATCH
  5
100
330
30
100
AcDbEntity
  8
0
  6
Continuous
 62
     0
370
    -2
390
1D
100
AcDbHatch
 10
0.0
 20
0.0
 30
0.0
210
0.0
220
0.0
230
1.0
  2
SOLID
 70
     1
 71
     1
 91
        1
 92
        1
 93
        1
 72
     2
 10
11695.22560396385
 20
-3812.47644389739
 40
4.99969482421875
 50
0.0
 51
360.0
 73
     0
 97
        1
330
FF
 75
     0
 76
     1
 98
        1
 10
0.0
 20
0.0
  0
MTEXT
  5
101
330
30
100
AcDbEntity
  8
0
 62
     0
390
1D
100
AcDbMText
 10
11711.85060396385
 20
-3778.59882670989
 30
0.0
 40
24.4326171875
 41
0.0
 46
0.0
 71
     1
 72
     1
  1
65
  7
ＭＳ ゴシック
 73
     1
 44
0.7828267384257843
  0
POINT
  5
102
330
30
100
AcDbEntity
  8
Defpoints
 62
     0
370
     0
390
1D
100
AcDbPoint
 10
11695.22560396385
 20
-3912.47644389739
 30
0.0
  0
POINT
  5
103
330
30
100
AcDbEntity
  8
Defpoints
 62
     0
370
     0
390
1D
100
AcDbPoint
 10
11760.22560396385
 20
-3913.976443897384
 30
0.0
  0
POINT
  5
104
330
30
100
AcDbEntity
  8
Defpoints
 62
     0
370
     0
390
1D
100
AcDbPoint
 10
11760.22560396385
 20
-3812.47644389739
 30
0.0
  0
ENDBLK
  5
105
330
30
100
AcDbEntity
  8
notes
390
1D
100
AcDbBlockEnd
  0
BLOCK
  5
106
330
31
100
AcDbEntity
  8
notes
390
1D
100
AcDbBlockBegin
  2
*D16
 70
     1
 10
0.0
 20
0.0
 30
0.0
  3
*D16
  1
*D16
  0
LINE
  5
107
330
31
100
AcDbEntity
  8
DIM
 62
     0
370
    -2
100
AcDbLine
 10
11261.33386759193
 20
-3957.458336921648
 30
0.0
 11
11179.93369966145
 21
-3957.458336921648
 31
0.0
  0
LINE
  5
108
330
31
100
AcDbEntity
  8
DIM
 62
     0
370
    -2
100
AcDbLine
 10
11261.33386759193
 20
-3912.474058089762
 30
0.0
 11
11179.93369966145
 21
-3912.474058089762
 31
0.0
  0
LINE
  5
109
330
31
100
AcDbEntity
  8
DIM
 62
     0
370
    -2
100
AcDbLine
 10
11179.93369966145
 20
-3947.45894727321
 30
0.0
 11
11179.93369966145
 21
-3922.473447738199
 31
0.0
  0
INSERT
  5
10A
102
{ACAD_REACTORS
330
10B
102
}
330
31
100
AcDbEntity
  8
DIM
 62
     0
370
    -2
100
AcDbBlockReference
  2
_DOT
 10
11179.93369966145
 20
-3957.458336921648
 30
0.0
 41
9.999389648437498
 42
9.999389648437498
 43
9.999389648437498
 50
270.0
  0
INSERT
  5
10B
330
31
100
AcDbEntity
  8
DIM
 62
     0
370
    -2
100
AcDbBlockReference
  2
_DOT
 10
11179.93369966145
 20
-3912.474058089762
 30
0.0
 41
9.999389648437498
 42
9.999389648437498
 43
9.999389648437498
 50
90.0
  0
MTEXT
  5
10C
102
{ACAD_REACTORS
330
10D
102
}
330
31
100
AcDbEntity
  8
DIM
  6
Continuous
 62
     0
100
AcDbMText
 10
11162.7173910677
 20
-3934.966197505705
 30
0.0
 40
24.4326171875
 41
0.0
 46
0.0
 71
     5
 72
     1
  1
\A1;45
  7
ＭＳ ゴシック
 11
0.0
 21
1.0
 31
0.0
 73
     1
 44
1.0
  0
POINT
  5
10D
330
31
100
AcDbEntity
  8
Defpoints
 62
     0
100
AcDbPoint
 10
11286.33386759193
 20
-3957.458336921648
 30
0.0
  0
POINT
  5
10E
330
31
100
AcDbEntity
  8
Defpoints
 62
     0
100
AcDbPoint
 10
11286.33386759193
 20
-3912.474058089762
 30
0.0
  0
POINT
  5
10F
330
31
100
AcDbEntity
  8
Defpoints
 62
     0
100
AcDbPoint
 10
11179.93369966145
 20
-3912.474058089762
 30
0.0
  0
ENDBLK
  5
112
330
31
100
AcDbEntity
  8
notes
390
1D
100
AcDbBlockEnd
  0
BLOCK
  5
113
330
32
100
AcDbEntity
  8
notes
390
1D
100
AcDbBlockBegin
  2
*D17
 70
     1
 10
0.0
 20
0.0
 30
0.0
  3
*D17
  1
*D17
  0
LINE
  5
114
330
32
100
AcDbEntity
  8
0
  6
Continuous
 62
     0
370
    -2
390
1D
100
AcDbLine
 10
11518.24943852127
 20
-3912.47644389739
 30
0.0
 11
11538.47119374719
 21
-3912.47644389739
 31
0.0
  0
LINE
  5
115
330
32
100
AcDbEntity
  8
0
  6
Continuous
 62
     0
370
    -2
390
1D
100
AcDbLine
 10
11518.24943852127
 20
-4042.47644389739
 30
0.0
 11
11538.47119374719
 21
-4042.47644389739
 31
0.0
  0
LINE
  5
116
330
32
100
AcDbEntity
  8
0
  6
Continuous
 62
     0
370
    -2
390
1D
100
AcDbLine
 10
11538.47119374719
 20
-3912.47644389739
 30
0.0
 11
11538.47119374719
 21
-3743.823199123313
 31
0.0
  0
LINE
  5
117
330
32
100
AcDbEntity
  8
0
  6
Continuous
 62
     0
370
    -2
390
1D
100
AcDbLine
 10
11538.47119374719
 20
-3912.47644389739
 30
0.0
 11
11538.47119374719
 21
-4042.47644389739
 31
0.0
  0
CIRCLE
  5
118
102
{ACAD_REACTORS
330
119
102
}
330
32
100
AcDbEntity
  8
0
  6
Continuous
 62
     0
370
    -2
390
1D
100
AcDbCircle
 10
11538.47119374719
 20
-3912.47644389739
 30
0.0
 40
4.99969482421875
  0
HATCH
  5
119
330
32
100
AcDbEntity
  8
0
  6
Continuous
 62
     0
370
    -2
390
1D
100
AcDbHatch
 10
0.0
 20
0.0
 30
0.0
210
0.0
220
0.0
230
1.0
  2
SOLID
 70
     1
 71
     1
 91
        1
 92
        1
 93
        1
 72
     2
 10
11538.47119374719
 20
-3912.47644389739
 40
4.99969482421875
 50
0.0
 51
360.0
 73
     0
 97
        1
330
118
 75
     0
 76
     1
 98
        1
 10
0.0
 20
0.0
  0
CIRCLE
  5
11A
102
{ACAD_REACTORS
330
11B
102
}
330
32
100
AcDbEntity
  8
0
  6
Continuous
 62
     0
370
    -2
390
1D
100
AcDbCircle
 10
11538.47119374719
 20
-4042.47644389739
 30
0.0
 40
4.99969482421875
  0
HATCH
  5
11B
330
32
100
AcDbEntity
  8
0
  6
Continuous
 62
     0
370
    -2
390
1D
100
AcDbHatch
 10
0.0
 20
0.0
 30
0.0
210
0.0
220
0.0
230
1.0
  2
SOLID
 70
     1
 71
     1
 91
        1
 92
        1
 93
        1
 72
     2
 10
11538.47119374719
 20
-4042.47644389739
 40
4.99969482421875
 50
0.0
 51
360.0
 73
     0
 97
        1
330
11A
 75
     0
 76
     1
 98
        1
 10
0.0
 20
0.0
  0
MTEXT
  5
11C
330
32
100
AcDbEntity
  8
0
 62
     0
390
1D
100
AcDbMText
 10
11504.59357655969
 20
-3886.698199123313
 30
0.0
 40
24.4326171875
 41
0.0
 46
0.0
 71
     1
 72
     1
  1
130(深さ)
  7
ＭＳ ゴシック
 11
0.0
 21
1.0
 31
0.0
 73
     1
 44
0.7828267384257843
  0
POINT
  5
11D
330
32
100
AcDbEntity
  8
Defpoints
 62
     0
370
     0
390
1D
100
AcDbPoint
 10
11543.24943852127
 20
-4042.47644389739
 30
0.0
  0
POINT
  5
11E
330
32
100
AcDbEntity
  8
Defpoints
 62
     0
370
     0
390
1D
100
AcDbPoint
 10
11543.24943852127
 20
-3912.47644389739
 30
0.0
  0
POINT
  5
11F
330
32
100
AcDbEntity
  8
Defpoints
 62
     0
370
     0
390
1D
100
AcDbPoint
 10
11538.47119374719
 20
-3912.47644389739
 30
0.0
  0
ENDBLK
  5
120
330
32
100
AcDbEntity
  8
notes
390
1D
100
AcDbBlockEnd
  0
BLOCK
  5
121
330
33
100
AcDbEntity
  8
ADF70-2401
390
1D
100
AcDbBlockBegin
  2
*D18
 70
     1
 10
0.0
 20
0.0
 30
0.0
  3
*D18
  1
*D18
  0
LINE
  5
122
330
33
100
AcDbEntity
  8
DIM
 62
     0
370
    -2
100
AcDbLine
 10
11781.72630758759
 20
-4047.43905802815
 30
0.0
 11
11839.66881789058
 21
-4047.43905802815
 31
0.0
  0
LINE
  5
123
330
33
100
AcDbEntity
  8
DIM
 62
     0
370
    -2
100
AcDbLine
 10
11783.72560396385
 20
-3912.47644389739
 30
0.0
 11
11839.66881789058
 21
-3912.47644389739
 31
0.0
  0
LINE
  5
124
330
33
100
AcDbEntity
  8
DIM
 62
     0
370
    -2
100
AcDbLine
 10
11839.66881789058
 20
-4037.439668379713
 30
0.0
 11
11839.66881789058
 21
-3922.475833545827
 31
0.0
  0
INSERT
  5
125
102
{ACAD_REACTORS
330
126
102
}
330
33
100
AcDbEntity
  8
DIM
 62
     0
370
    -2
100
AcDbBlockReference
  2
_DOT
 10
11839.66881789058
 20
-4047.43905802815
 30
0.0
 41
9.999389648437498
 42
9.999389648437498
 43
9.999389648437498
 50
270.0
  0
INSERT
  5
126
330
33
100
AcDbEntity
  8
DIM
 62
     0
370
    -2
100
AcDbBlockReference
  2
_DOT
 10
11839.66881789058
 20
-3912.47644389739
 30
0.0
 41
9.999389648437498
 42
9.999389648437498
 43
9.999389648437498
 50
90.0
  0
MTEXT
  5
127
102
{ACAD_REACTORS
330
128
102
}
330
33
100
AcDbEntity
  8
DIM
  6
Continuous
 62
     0
100
AcDbMText
 10
11821.0951416753
 20
-3979.95775096277
 30
0.0
 40
27.14735243055556
 41
0.0
 46
0.0
 71
     5
 72
     1
  1
\A1;135
  7
ＭＳ ゴシック
 11
0.0
 21
1.0
 31
0.0
 73
     1
 44
1.0
  0
POINT
  5
128
330
33
100
AcDbEntity
  8
Defpoints
 62
     0
100
AcDbPoint
 10
11756.72630758759
 20
-4047.43905802815
 30
0.0
  0
POINT
  5
129
330
33
100
AcDbEntity
  8
Defpoints
 62
     0
100
AcDbPoint
 10
11758.72560396385
 20
-3912.47644389739
 30
0.0
  0
POINT
  5
12A
330
33
100
AcDbEntity
  8
Defpoints
 62
     0
100
AcDbPoint
 10
11839.66881789058
 20
-3912.47644389739
 30
0.0
  0
ENDBLK
  5
12D
330
33
100
AcDbEntity
  8
ADF70-2401
390
1D
100
AcDbBlockEnd
  0
BLOCK
  5
292
330
291
100
AcDbEntity
  8
0
100
AcDbBlockBegin
  2
*D19
 70
     1
 10
0.0
 20
0.0
 30
0.0
  3
*D19
  1
*D19
  0
LINE
  5
294
330
291
100
AcDbEntity
  8
DIM
 62
     0
370
    -2
100
AcDbLine
 10
10100.32472843767
 20
-3223.510352628403
 30
0.0
 11
10025.32472843767
 21
-3223.510352628403
 31
0.0
  0
LINE
  5
295
330
291
100
AcDbEntity
  8
DIM
 62
     0
370
    -2
100
AcDbLine
 10
10075.32472843767
 20
-2943.510352628404
 30
0.0
 11
10025.32472843767
 21
-2943.510352628404
 31
0.0
  0
LINE
  5
296
330
291
100
AcDbEntity
  8
DIM
 62
     0
370
    -2
100
AcDbLine
 10
10025.32472843767
 20
-3213.510962979965
 30
0.0
 11
10025.32472843767
 21
-2953.509742276841
 31
0.0
  0
INSERT
  5
297
330
291
100
AcDbEntity
  8
DIM
 62
     0
370
    -2
100
AcDbBlockReference
  2
_DOT
 10
10025.32472843767
 20
-3223.510352628403
 30
0.0
 41
9.999389648437498
 42
9.999389648437498
 43
9.999389648437498
 50
270.0
  0
INSERT
  5
298
330
291
100
AcDbEntity
  8
DIM
 62
     0
370
    -2
100
AcDbBlockReference
  2
_DOT
 10
10025.32472843767
 20
-2943.510352628404
 30
0.0
 41
9.999389648437498
 42
9.999389648437498
 43
9.999389648437498
 50
90.0
  0
MTEXT
  5
299
330
291
100
AcDbEntity
  8
DIM
  6
Continuous
 62
     0
100
AcDbMText
 10
10002.27727449712
 20
-3085.585067733088
 30
0.0
 40
24.4326171875
 41
0.0
 46
0.0
 71
     5
 72
     1
  1
\A1;280
  7
ＭＳ ゴシック
 11
0.0
 21
1.0
 31
0.0
 73
     1
 44
1.0
  0
POINT
  5
29A
330
291
100
AcDbEntity
  8
Defpoints
 62
     0
100
AcDbPoint
 10
10125.32472843767
 20
-3223.510352628403
 30
0.0
  0
POINT
  5
29B
330
291
100
AcDbEntity
  8
Defpoints
 62
     0
100
AcDbPoint
 10
10100.32472843767
 20
-2943.510352628404
 30
0.0
  0
POINT
  5
29C
330
291
100
AcDbEntity
  8
Defpoints
 62
     0
100
AcDbPoint
 10
10025.32472843767
 20
-2943.510352628404
 30
0.0
  0
ENDBLK
  5
293
330
291
100
AcDbEntity
  8
0
100
AcDbBlockEnd
  0
BLOCK
  5
29F
330
29E
100
AcDbEntity
  8
0
100
AcDbBlockBegin
  2
*D20
 70
     1
 10
0.0
 20
0.0
 30
0.0
  3
*D20
  1
*D20
  0
LINE
  5
2A1
330
29E
100
AcDbEntity
  8
DIM
 62
     0
370
    -2
100
AcDbLine
 10
10944.21232943245
 20
-3912.474744652592
 30
0.0
 11
11024.92340727324
 21
-3912.474744652592
 31
0.0
  0
LINE
  5
2A2
330
29E
100
AcDbEntity
  8
DIM
 62
     0
370
    -2
100
AcDbLine
 10
10584.08907673162
 20
-4092.474744652592
 30
0.0
 11
11024.92340727324
 21
-4092.474744652592
 31
0.0
  0
LINE
  5
2A3
330
29E
100
AcDbEntity
  8
DIM
 62
     0
370
    -2
100
AcDbLine
 10
11024.92340727324
 20
-3922.47413430103
 30
0.0
 11
11024.92340727324
 21
-4082.475355004155
 31
0.0
  0
INSERT
  5
2A4
330
29E
100
AcDbEntity
  8
DIM
 62
     0
370
    -2
100
AcDbBlockReference
  2
_DOT
 10
11024.92340727324
 20
-3912.474744652592
 30
0.0
 41
9.999389648437498
 42
9.999389648437498
 43
9.999389648437498
 50
90.0
  0
INSERT
  5
2A5
330
29E
100
AcDbEntity
  8
DIM
 62
     0
370
    -2
100
AcDbBlockReference
  2
_DOT
 10
11024.92340727324
 20
-4092.474744652592
 30
0.0
 41
9.999389648437498
 42
9.999389648437498
 43
9.999389648437498
 50
270.0
  0
MTEXT
  5
2A6
330
29E
100
AcDbEntity
  8
DIM
  6
Continuous
 62
     0
100
AcDbMText
 10
11005.27204313526
 20
-4003.131190630336
 30
0.0
 40
24.4326171875
 41
0.0
 46
0.0
 71
     5
 72
     1
  1
\A1;180
  7
ＭＳ ゴシック
 11
0.0
 21
1.0
 31
0.0
 73
     1
 44
1.0
  0
POINT
  5
2A7
330
29E
100
AcDbEntity
  8
Defpoints
 62
     0
100
AcDbPoint
 10
10919.21232943245
 20
-3912.474744652592
 30
0.0
  0
POINT
  5
2A8
330
29E
100
AcDbEntity
  8
Defpoints
 62
     0
100
AcDbPoint
 10
10559.08907673162
 20
-4092.474744652592
 30
0.0
  0
POINT
  5
2A9
330
29E
100
AcDbEntity
  8
Defpoints
 62
     0
100
AcDbPoint
 10
11024.92340727324
 20
-4092.474744652592
 30
0.0
  0
ENDBLK
  5
2A0
330
29E
100
AcDbEntity
  8
0
100
AcDbBlockEnd
  0
BLOCK
  5
2AC
330
2AB
100
AcDbEntity
  8
0
100
AcDbBlockBegin
  2
*D21
 70
     1
 10
0.0
 20
0.0
 30
0.0
  3
*D21
  1
*D21
  0
LINE
  5
2AE
330
2AB
100
AcDbEntity
  8
notes
  6
Continuous
 62
     0
370
    -2
100
AcDbLine
 10
11518.24943852127
 20
-4042.47644389739
 30
0.0
 11
11538.47119374719
 21
-4042.47644389739
 31
0.0
  0
LINE
  5
2AF
330
2AB
100
AcDbEntity
  8
notes
  6
Continuous
 62
     0
370
    -2
100
AcDbLine
 10
11518.24943852127
 20
-3912.47644389739
 30
0.0
 11
11538.47119374719
 21
-3912.47644389739
 31
0.0
  0
LINE
  5
2B0
330
2AB
100
AcDbEntity
  8
notes
  6
Continuous
 62
     0
370
    -2
100
AcDbLine
 10
11538.47119374719
 20
-4042.47644389739
 30
0.0
 11
11538.47119374719
 21
-3912.47644389739
 31
0.0
  0
LINE
  5
2B1
330
2AB
100
AcDbEntity
  8
notes
  6
Continuous
 62
     0
370
    -2
100
AcDbLine
 10
11538.47119374719
 20
-4052.475833545827
 30
0.0
 11
11538.47119374719
 21
-4062.475223194265
 31
0.0
  0
LINE
  5
2B2
330
2AB
100
AcDbEntity
  8
notes
  6
Continuous
 62
     0
370
    -2
100
AcDbLine
 10
11538.47119374719
 20
-3902.477054248952
 30
0.0
 11
11538.47119374719
 21
-3892.477664600515
 31
0.0
  0
INSERT
  5
2B3
330
2AB
100
AcDbEntity
  8
notes
 62
     0
370
    -2
100
AcDbBlockReference
  2
_DOT
 10
11538.47119374719
 20
-4042.47644389739
 30
0.0
 41
9.999389648437498
 42
9.999389648437498
 43
9.999389648437498
 50
90.0
  0
INSERT
  5
2B4
330
2AB
100
AcDbEntity
  8
notes
 62
     0
370
    -2
100
AcDbBlockReference
  2
_DOT
 10
11538.47119374719
 20
-3912.47644389739
 30
0.0
 41
9.999389648437498
 42
9.999389648437498
 43
9.999389648437498
 50
270.0
  0
MTEXT
  5
2B5
330
2AB
100
AcDbEntity
  8
notes
  6
Continuous
 62
     0
370
     5
100
AcDbMText
 10
11520.04328100488
 20
-3837.540844726768
 30
0.0
 40
24.4326171875
 41
0.0
 46
0.0
 71
     5
 72
     1
  1
\A1;130(深さ)
  7
ＭＳ ゴシック
 11
0.0
 21
1.0
 31
0.0
 73
     1
 44
1.0
  0
POINT
  5
2B6
330
2AB
100
AcDbEntity
  8
Defpoints
 62
     0
100
AcDbPoint
 10
11543.24943852127
 20
-4042.47644389739
 30
0.0
  0
POINT
  5
2D1
330
2AB
100
AcDbEntity
  8
Defpoints
 62
     0
100
AcDbPoint
 10
11543.24943852127
 20
-3912.47644389739
 30
0.0
  0
POINT
  5
2D2
330
2AB
100
AcDbEntity
  8
Defpoints
 62
     0
100
AcDbPoint
 10
11538.47119374719
 20
-3912.47644389739
 30
0.0
  0
ENDBLK
  5
2AD
330
2AB
100
AcDbEntity
  8
0
100
AcDbBlockEnd
  0
BLOCK
  5
2B8
330
2B7
100
AcDbEntity
  8
0
100
AcDbBlockBegin
  2
*D22
 70
     1
 10
0.0
 20
0.0
 30
0.0
  3
*D22
  1
*D22
  0
LINE
  5
2BA
330
2B7
100
AcDbEntity
  8
DIM
 62
     0
370
    -2
100
AcDbLine
 10
11695.22560396385
 20
-3887.47644389739
 30
0.0
 11
11695.22560396385
 21
-3812.47644389739
 31
0.0
  0
LINE
  5
2BB
330
2B7
100
AcDbEntity
  8
DIM
 62
     0
370
    -2
100
AcDbLine
 10
11760.22560396385
 20
-3888.976443897384
 30
0.0
 11
11760.22560396385
 21
-3812.47644389739
 31
0.0
  0
LINE
  5
2BC
330
2B7
100
AcDbEntity
  8
DIM
 62
     0
370
    -2
100
AcDbLine
 10
11705.22499361229
 20
-3812.47644389739
 30
0.0
 11
11750.22621431541
 21
-3812.47644389739
 31
0.0
  0
INSERT
  5
2BD
330
2B7
100
AcDbEntity
  8
DIM
 62
     0
370
    -2
100
AcDbBlockReference
  2
_DOT
 10
11695.22560396385
 20
-3812.47644389739
 30
0.0
 41
9.999389648437498
 42
9.999389648437498
 43
9.999389648437498
 50
180.0
  0
INSERT
  5
2BE
330
2B7
100
AcDbEntity
  8
DIM
 62
     0
370
    -2
100
AcDbBlockReference
  2
_DOT
 10
11760.22560396385
 20
-3812.47644389739
 30
0.0
 41
9.999389648437498
 42
9.999389648437498
 43
9.999389648437498
  0
MTEXT
  5
2BF
330
2B7
100
AcDbEntity
  8
DIM
  6
Continuous
 62
     0
100
AcDbMText
 10
11727.86910423896
 20
-3794.664157894494
 30
0.0
 40
24.4326171875
 41
0.0
 46
0.0
 71
     5
 72
     1
  1
\A1;65
  7
ＭＳ ゴシック
 73
     1
 44
1.0
  0
POINT
  5
2C0
330
2B7
100
AcDbEntity
  8
Defpoints
 62
     0
100
AcDbPoint
 10
11695.22560396385
 20
-3912.47644389739
 30
0.0
  0
POINT
  5
2C1
330
2B7
100
AcDbEntity
  8
Defpoints
 62
     0
100
AcDbPoint
 10
11760.22560396385
 20
-3913.976443897384
 30
0.0
  0
POINT
  5
2C2
330
2B7
100
AcDbEntity
  8
Defpoints
 62
     0
100
AcDbPoint
 10
11760.22560396385
 20
-3812.47644389739
 30
0.0
  0
ENDBLK
  5
2B9
330
2B7
100
AcDbEntity
  8
0
100
AcDbBlockEnd
  0
BLOCK
  5
2C5
330
2C4
100
AcDbEntity
  8
0
100
AcDbBlockBegin
  2
*D23
 70
     1
 10
0.0
 20
0.0
 30
0.0
  3
*D23
  1
*D23
  0
LINE
  5
2C7
330
2C4
100
AcDbEntity
  8
DIM
 62
     0
370
    -2
100
AcDbLine
 10
11760.22559471128
 20
-4078.277411134168
 30
0.0
 11
11760.22559471128
 21
-4196.227984080745
 31
0.0
  0
LINE
  5
2C8
330
2C4
100
AcDbEntity
  8
DIM
 62
     0
370
    -2
100
AcDbLine
 10
11540.22559471128
 20
-4120.081265360703
 30
0.0
 11
11540.22559471128
 21
-4196.227984080745
 31
0.0
  0
LINE
  5
2C9
330
2C4
100
AcDbEntity
  8
DIM
 62
     0
370
    -2
100
AcDbLine
 10
11750.22620506284
 20
-4196.227984080745
 30
0.0
 11
11550.22498435972
 21
-4196.227984080745
 31
0.0
  0
INSERT
  5
2CA
330
2C4
100
AcDbEntity
  8
DIM
 62
     0
370
    -2
100
AcDbBlockReference
  2
_DOT
 10
11760.22559471128
 20
-4196.227984080745
 30
0.0
 41
9.999389648437498
 42
9.999389648437498
 43
9.999389648437498
  0
INSERT
  5
2CB
330
2C4
100
AcDbEntity
  8
DIM
 62
     0
370
    -2
100
AcDbBlockReference
  2
_DOT
 10
11540.22559471128
 20
-4196.227984080745
 30
0.0
 41
9.999389648437498
 42
9.999389648437498
 43
9.999389648437498
 50
180.0
  0
MTEXT
  5
2CC
330
2C4
100
AcDbEntity
  8
DIM
  6
Continuous
 62
     0
100
AcDbMText
 10
11659.68910132517
 20
-4179.011675486995
 30
0.0
 40
24.4326171875
 41
0.0
 46
0.0
 71
     5
 72
     1
  1
\A1;220
  7
ＭＳ ゴシック
 73
     1
 44
1.0
  0
POINT
  5
2CD
330
2C4
100
AcDbEntity
  8
Defpoints
 62
     0
100
AcDbPoint
 10
11760.22559471128
 20
-4053.277411134168
 30
0.0
  0
POINT
  5
2CE
330
2C4
100
AcDbEntity
  8
Defpoints
 62
     0
100
AcDbPoint
 10
11540.22559471128
 20
-4095.081265360702
 30
0.0
  0
POINT
  5
2CF
330
2C4
100
AcDbEntity
  8
Defpoints
 62
     0
100
AcDbPoint
 10
11540.22559471128
 20
-4196.227984080745
 30
0.0
  0
ENDBLK
  5
2C6
330
2C4
100
AcDbEntity
  8
0
100
AcDbBlockEnd
  0
BLOCK
  5
2D5
330
2D4
100
AcDbEntity
  8
0
100
AcDbBlockBegin
  2
*D24
 70
     1
 10
0.0
 20
0.0
 30
0.0
  3
*D24
  1
*D24
  0
LINE
  5
2D7
330
2D4
100
AcDbEntity
  8
DIM
 62
     0
370
    -2
100
AcDbLine
 10
11517.60902522468
 20
-3912.47644389739
 30
0.0
 11
11522.43134946402
 21
-3912.47644389739
 31
0.0
  0
LINE
  5
2D8
330
2D4
100
AcDbEntity
  8
DIM
 62
     0
370
    -2
100
AcDbLine
 10
11517.60902522468
 20
-4042.47644389739
 30
0.0
 11
11522.43134946402
 21
-4042.47644389739
 31
0.0
  0
LINE
  5
2D9
330
2D4
100
AcDbEntity
  8
DIM
 62
     0
370
    -2
100
AcDbLine
 10
11522.43134946402
 20
-3912.47644389739
 30
0.0
 11
11522.43134946402
 21
-3740.101744678638
 31
0.0
  0
LINE
  5
2DA
330
2D4
100
AcDbEntity
  8
DIM
 62
     0
370
    -2
100
AcDbLine
 10
11522.43134946402
 20
-3922.475833545827
 30
0.0
 11
11522.43134946402
 21
-4032.477054248952
 31
0.0
  0
INSERT
  5
2DB
330
2D4
100
AcDbEntity
  8
DIM
 62
     0
370
    -2
100
AcDbBlockReference
  2
_DOT
 10
11522.43134946402
 20
-3912.47644389739
 30
0.0
 41
9.999389648437498
 42
9.999389648437498
 43
9.999389648437498
 50
90.0
  0
INSERT
  5
2DC
330
2D4
100
AcDbEntity
  8
DIM
 62
     0
370
    -2
100
AcDbBlockReference
  2
_DOT
 10
11522.43134946402
 20
-4042.47644389739
 30
0.0
 41
9.999389648437498
 42
9.999389648437498
 43
9.999389648437498
 50
270.0
  0
MTEXT
  5
2DD
330
2D4
100
AcDbEntity
  8
DIM
  6
Continuous
 62
     0
100
AcDbMText
 10
11498.05275424918
 20
-3816.289704639576
 30
0.0
 40
24.4326171875
 41
0.0
 46
0.0
 71
     5
 72
     1
  1
\A1;130(深さ)
  7
ＭＳ ゴシック
 11
0.0
 21
1.0
 31
0.0
 73
     1
 44
1.0
  0
POINT
  5
2DE
330
2D4
100
AcDbEntity
  8
Defpoints
 62
     0
100
AcDbPoint
 10
11542.60902522468
 20
-3912.47644389739
 30
0.0
  0
POINT
  5
2DF
330
2D4
100
AcDbEntity
  8
Defpoints
 62
     0
100
AcDbPoint
 10
11542.60902522468
 20
-4042.47644389739
 30
0.0
  0
POINT
  5
2E0
330
2D4
100
AcDbEntity
  8
Defpoints
 62
     0
100
AcDbPoint
 10
11522.43134946402
 20
-4042.47644389739
 30
0.0
  0
ENDBLK
  5
2D6
330
2D4
100
AcDbEntity
  8
0
100
AcDbBlockEnd
  0
BLOCK
  5
313
330
312
100
AcDbEntity
  8
0
100
AcDbBlockBegin
  2
名称未設定-1
 70
     0
 10
0.0
 20
0.0
 30
0.0
  3
名称未設定-1
  1
名称未設定-1
  0
INSERT
  5
314
330
312
100
AcDbEntity
  8
レイヤー 1
100
AcDbBlockReference
  2
block 2
 10
0.0
 20
0.0
 30
0.0
  0
ENDBLK
  5
339
330
312
100
AcDbEntity
  8
0
100
AcDbBlockEnd
  0
BLOCK
  5
316
330
315
100
AcDbEntity
  8
0
100
AcDbBlockBegin
  2
block 2
 70
     0
 10
0.0
 20
0.0
 30
0.0
  3
block 2
  1
block 2
  0
INSERT
  5
317
330
315
100
AcDbEntity
  8
レイヤー 1
100
AcDbBlockReference
  2
block 3
 10
0.0
 20
0.0
 30
0.0
  0
ENDBLK
  5
338
330
315
100
AcDbEntity
  8
0
100
AcDbBlockEnd
  0
BLOCK
  5
319
330
318
100
AcDbEntity
  8
0
100
AcDbBlockBegin
  2
block 3
 70
     0
 10
0.0
 20
0.0
 30
0.0
  3
block 3
  1
block 3
  0
INSERT
  5
31A
330
318
100
AcDbEntity
  8
レイヤー 1
100
AcDbBlockReference
  2
block 4
 10
0.0
 20
0.0
 30
0.0
  0
ENDBLK
  5
337
330
318
100
AcDbEntity
  8
0
100
AcDbBlockEnd
  0
BLOCK
  5
31C
330
31B
100
AcDbEntity
  8
0
100
AcDbBlockBegin
  2
block 4
 70
     0
 10
0.0
 20
0.0
 30
0.0
  3
block 4
  1
block 4
  0
POLYLINE
  5
31D
330
31B
100
AcDbEntity
  8
レイヤー 1
370
     0
100
AcDb2dPolyline
 66
     1
 10
0.0
 20
0.0
 30
0.0
  0
VERTEX
  5
31E
330
31D
100
AcDbEntity
  8
レイヤー 1
370
     0
100
AcDbVertex
100
AcDb2dVertex
 10
83.79545727667795
 20
167.6444858234922
 30
0.0
  0
VERTEX
  5
31F
330
31D
100
AcDbEntity
  8
レイヤー 1
370
     0
100
AcDbVertex
100
AcDb2dVertex
 10
83.79545727667795
 20
159.7968976406313
 30
0.0
  0
VERTEX
  5
320
330
31D
100
AcDbEntity
  8
レイヤー 1
370
     0
100
AcDbVertex
100
AcDb2dVertex
 10
71.3631329975216
 20
159.7968976406313
 30
0.0
  0
VERTEX
  5
321
330
31D
100
AcDbEntity
  8
レイヤー 1
370
     0
100
AcDbVertex
100
AcDb2dVertex
 10
71.3631329975216
 20
127.8027915271048
 30
0.0
  0
VERTEX
  5
322
330
31D
100
AcDbEntity
  8
レイヤー 1
370
     0
100
AcDbVertex
100
AcDb2dVertex
 10
60.43011526263018
 20
127.8027915271048
 30
0.0
  0
VERTEX
  5
323
330
31D
100
AcDbEntity
  8
レイヤー 1
370
     0
100
AcDbVertex
100
AcDb2dVertex
 10
60.43011526263018
 20
159.7968976406313
 30
0.0
  0
VERTEX
  5
324
330
31D
100
AcDbEntity
  8
レイヤー 1
370
     0
100
AcDbVertex
100
AcDb2dVertex
 10
48.21793273020759
 20
159.7968976406313
 30
0.0
  0
VERTEX
  5
325
330
31D
100
AcDbEntity
  8
レイヤー 1
370
     0
100
AcDbVertex
100
AcDb2dVertex
 10
48.21793273020759
 20
167.6444858234922
 30
0.0
  0
VERTEX
  5
326
330
31D
100
AcDbEntity
  8
レイヤー 1
370
     0
100
AcDbVertex
100
AcDb2dVertex
 10
83.79545727667795
 20
167.6444858234922
 30
0.0
  0
SEQEND
  5
327
330
31D
100
AcDbEntity
  8
レイヤー 1
370
     0
  0
HATCH
  5
328
330
31B
100
AcDbEntity
  8
レイヤー 1
 62
   250
420
  2234388
100
AcDbHatch
 10
0.0
 20
0.0
 30
0.0
210
0.0
220
0.0
230
1.0
  2
SOLID
 70
     1
 71
     0
 91
        1
 92
        1
 93
        8
 72
     1
 10
83.79545727667795
 20
167.6444858234922
 11
83.79545727667795
 21
159.7968976406313
 72
     1
 10
83.79545727667795
 20
159.7968976406313
 11
71.3631329975216
 21
159.7968976406313
 72
     1
 10
71.3631329975216
 20
159.7968976406313
 11
71.3631329975216
 21
127.8027915271048
 72
     1
 10
71.3631329975216
 20
127.8027915271048
 11
60.43011526263018
 21
127.8027915271048
 72
     1
 10
60.43011526263018
 20
127.8027915271048
 11
60.43011526263018
 21
159.7968976406313
 72
     1
 10
60.43011526263018
 20
159.7968976406313
 11
48.21793273020759
 21
159.7968976406313
 72
     1
 10
48.21793273020759
 20
159.7968976406313
 11
48.21793273020759
 21
167.6444858234922
 72
     1
 10
48.21793273020759
 20
167.6444858234922
 11
83.79545727667795
 21
167.6444858234922
 97
        0
 75
     2
 76
     1
 98
        0
  0
INSERT
  5
329
330
31B
100
AcDbEntity
  8
レイヤー 1
100
AcDbBlockReference
  2
block 5
 10
0.0
 20
0.0
 30
0.0
  0
ENDBLK
  5
336
330
31B
100
AcDbEntity
  8
0
100
AcDbBlockEnd
  0
BLOCK
  5
32B
330
32A
100
AcDbEntity
  8
0
100
AcDbBlockBegin
  2
block 5
 70
     0
 10
0.0
 20
0.0
 30
0.0
  3
block 5
  1
block 5
  0
SPLINE
  5
32C
330
32A
100
AcDbEntity
  8
レイヤー 1
370
     0
100
AcDbSpline
210
0.0
220
0.0
230
1.0
 70
    11
 71
     3
 72
    56
 73
    52
 74
     0
 42
0.000000001
 43
0.0000000001
 40
0.0
 40
0.0
 40
0.0
 40
0.0
 40
1.0
 40
1.0
 40
1.0
 40
2.0
 40
2.0
 40
2.0
 40
3.0
 40
3.0
 40
3.0
 40
4.0
 40
4.0
 40
4.0
 40
5.0
 40
5.0
 40
5.0
 40
6.0
 40
6.0
 40
6.0
 40
7.0
 40
7.0
 40
7.0
 40
8.0
 40
8.0
 40
8.0
 40
9.0
 40
9.0
 40
9.0
 40
10.0
 40
10.0
 40
10.0
 40
11.0
 40
11.0
 40
11.0
 40
12.0
 40
12.0
 40
12.0
 40
13.0
 40
13.0
 40
13.0
 40
14.0
 40
14.0
 40
14.0
 40
15.0
 40
15.0
 40
15.0
 40
16.0
 40
16.0
 40
16.0
 40
17.0
 40
17.0
 40
17.0
 40
17.0
 10
100.4504378777679
 20
166.69157178364
 30
0.0
 10
101.9848844191641
 20
167.1313385124438
 30
0.0
 10
103.9637485713373
 20
166.7649523658846
 30
0.0
 10
103.9637485713373
 20
166.7649523658846
 30
0.0
 10
103.9637485713373
 20
166.7649523658846
 30
0.0
 10
103.0132460999156
 20
163.911205638077
 30
0.0
 10
103.0132460999156
 20
163.911205638077
 30
0.0
 10
103.0132460999156
 20
163.911205638077
 30
0.0
 10
101.0674548862189
 20
164.3601018759394
 30
0.0
 10
99.57090442016032
 20
163.1805004036133
 30
0.0
 10
98.40508333886608
 20
162.258247733807
 30
0.0
 10
97.65301849830304
 20
159.804132345923
 30
0.0
 10
97.3598406791005
 20
158.8699940888517
 30
0.0
 10
97.3598406791005
 20
158.8699940888517
 30
0.0
 10
96.07137411762282
 20
154.9119212747295
 30
0.0
 10
96.07137411762282
 20
154.9119212747295
 30
0.0
 10
96.07137411762282
 20
154.9119212747295
 30
0.0
 10
100.3012651448482
 20
154.9119212747295
 30
0.0
 10
100.3012651448482
 20
154.9119212747295
 30
0.0
 10
100.3012651448482
 20
154.9119212747295
 30
0.0
 10
99.64152892419852
 20
152.4199098115079
 30
0.0
 10
99.64152892419852
 20
152.4199098115079
 30
0.0
 10
99.64152892419852
 20
152.4199098115079
 30
0.0
 10
95.38097652692731
 20
152.4199098115079
 30
0.0
 10
95.38097652692731
 20
152.4199098115079
 30
0.0
 10
95.38097652692731
 20
152.4199098115079
 30
0.0
 10
87.75353009080013
 20
127.8027915271048
 30
0.0
 10
87.75353009080013
 20
127.8027915271048
 30
0.0
 10
87.75353009080013
 20
127.8027915271048
 30
0.0
 10
85.36538832498108
 20
127.8027915271048
 30
0.0
 10
85.36538832498108
 20
127.8027915271048
 30
0.0
 10
85.36538832498108
 20
127.8027915271048
 30
0.0
 10
93.00006946639998
 20
152.4199098115079
 30
0.0
 10
93.00006946639998
 20
152.4199098115079
 30
0.0
 10
93.00006946639998
 20
152.4199098115079
 30
0.0
 10
89.85297266450198
 20
152.4199098115079
 30
0.0
 10
89.85297266450198
 20
152.4199098115079
 30
0.0
 10
89.85297266450198
 20
152.4199098115079
 30
0.0
 10
90.51270888515164
 20
154.9119212747295
 30
0.0
 10
90.51270888515164
 20
154.9119212747295
 30
0.0
 10
90.51270888515164
 20
154.9119212747295
 30
0.0
 10
93.6904670570955
 20
154.9119212747295
 30
0.0
 10
93.6904670570955
 20
154.9119212747295
 30
0.0
 10
93.6904670570955
 20
154.9119212747295
 30
0.0
 10
94.81598049462158
 20
158.3616699146644
 30
0.0
 10
94.81598049462158
 20
158.3616699146644
 30
0.0
 10
95.7237637538445
 20
161.2605474231013
 30
0.0
 10
96.4968436907311
 20
162.8139420021662
 30
0.0
 10
97.15657991138076
 20
163.9844139654337
 30
0.0
 10
97.81183750494507
 20
165.1523021053827
 30
0.0
 10
99.1047826935081
 20
166.3084769129547
 30
0.0
 10
100.4504378777679
 20
166.69157178364
 30
0.0
  0
HATCH
  5
32D
330
32A
100
AcDbEntity
  8
レイヤー 1
 62
   250
420
  2234388
100
AcDbHatch
 10
0.0
 20
0.0
 30
0.0
210
0.0
220
0.0
230
1.0
  2
SOLID
 70
     1
 71
     0
 91
        1
 92
        1
 93
        1
 72
     4
 94
        3
 73
     0
 74
     1
 95
       56
 96
       52
 40
0.0
 40
0.0
 40
0.0
 40
0.0
 40
1.0
 40
1.0
 40
1.0
 40
2.0
 40
2.0
 40
2.0
 40
3.0
 40
3.0
 40
3.0
 40
4.0
 40
4.0
 40
4.0
 40
5.0
 40
5.0
 40
5.0
 40
6.0
 40
6.0
 40
6.0
 40
7.0
 40
7.0
 40
7.0
 40
8.0
 40
8.0
 40
8.0
 40
9.0
 40
9.0
 40
9.0
 40
10.0
 40
10.0
 40
10.0
 40
11.0
 40
11.0
 40
11.0
 40
12.0
 40
12.0
 40
12.0
 40
13.0
 40
13.0
 40
13.0
 40
14.0
 40
14.0
 40
14.0
 40
15.0
 40
15.0
 40
15.0
 40
16.0
 40
16.0
 40
16.0
 40
17.0
 40
17.0
 40
17.0
 40
17.0
 10
100.4504378777679
 20
166.69157178364
 10
101.9848844191641
 20
167.1313385124438
 10
103.9637485713373
 20
166.7649523658846
 10
103.9637485713373
 20
166.7649523658846
 10
103.9637485713373
 20
166.7649523658846
 10
103.0132460999156
 20
163.911205638077
 10
103.0132460999156
 20
163.911205638077
 10
103.0132460999156
 20
163.911205638077
 10
101.0674548862189
 20
164.3601018759394
 10
99.57090442016032
 20
163.1805004036133
 10
98.40508333886608
 20
162.258247733807
 10
97.65301849830304
 20
159.804132345923
 10
97.3598406791005
 20
158.8699940888517
 10
97.3598406791005
 20
158.8699940888517
 10
96.07137411762282
 20
154.9119212747295
 10
96.07137411762282
 20
154.9119212747295
 10
96.07137411762282
 20
154.9119212747295
 10
100.3012651448482
 20
154.9119212747295
 10
100.3012651448482
 20
154.9119212747295
 10
100.3012651448482
 20
154.9119212747295
 10
99.64152892419852
 20
152.4199098115079
 10
99.64152892419852
 20
152.4199098115079
 10
99.64152892419852
 20
152.4199098115079
 10
95.38097652692731
 20
152.4199098115079
 10
95.38097652692731
 20
152.4199098115079
 10
95.38097652692731
 20
152.4199098115079
 10
87.75353009080013
 20
127.8027915271048
 10
87.75353009080013
 20
127.8027915271048
 10
87.75353009080013
 20
127.8027915271048
 10
85.36538832498108
 20
127.8027915271048
 10
85.36538832498108
 20
127.8027915271048
 10
85.36538832498108
 20
127.8027915271048
 10
93.00006946639998
 20
152.4199098115079
 10
93.00006946639998
 20
152.4199098115079
 10
93.00006946639998
 20
152.4199098115079
 10
89.85297266450198
 20
152.4199098115079
 10
89.85297266450198
 20
152.4199098115079
 10
89.85297266450198
 20
152.4199098115079
 10
90.51270888515164
 20
154.9119212747295
 10
90.51270888515164
 20
154.9119212747295
 10
90.51270888515164
 20
154.9119212747295
 10
93.6904670570955
 20
154.9119212747295
 10
93.6904670570955
 20
154.9119212747295
 10
93.6904670570955
 20
154.9119212747295
 10
94.81598049462158
 20
158.3616699146644
 10
94.81598049462158
 20
158.3616699146644
 10
95.7237637538445
 20
161.2605474231013
 10
96.4968436907311
 20
162.8139420021662
 10
97.15657991138076
 20
163.9844139654337
 10
97.81183750494507
 20
165.1523021053827
 10
99.1047826935081
 20
166.3084769129547
 10
100.4504378777679
 20
166.69157178364
 97
        0
 75
     2
 76
     1
 98
        0
  0
SPLINE
  5
32E
330
32A
100
AcDbEntity
  8
レイヤー 1
370
     0
100
AcDbSpline
210
0.0
220
0.0
230
1.0
 70
    11
 71
     3
 72
    38
 73
    34
 74
     0
 42
0.000000001
 43
0.0000000001
 40
0.0
 40
0.0
 40
0.0
 40
0.0
 40
1.0
 40
1.0
 40
1.0
 40
2.0
 40
2.0
 40
2.0
 40
3.0
 40
3.0
 40
3.0
 40
4.0
 40
4.0
 40
4.0
 40
5.0
 40
5.0
 40
5.0
 40
6.0
 40
6.0
 40
6.0
 40
7.0
 40
7.0
 40
7.0
 40
8.0
 40
8.0
 40
8.0
 40
9.0
 40
9.0
 40
9.0
 40
10.0
 40
10.0
 40
10.0
 40
11.0
 40
11.0
 40
11.0
 40
11.0
 10
126.377554584636
 20
154.8151140277308
 30
0.0
 10
126.377554584636
 20
154.8151140277308
 30
0.0
 10
128.8311532078563
 20
154.8151140277308
 30
0.0
 10
128.8311532078563
 20
154.8151140277308
 30
0.0
 10
128.8311532078563
 20
154.8151140277308
 30
0.0
 10
127.7345785914971
 20
151.3062819612468
 30
0.0
 10
127.7345785914971
 20
151.3062819612468
 30
0.0
 10
128.571392836906
 20
152.2922689395754
 30
0.0
 10
129.8860421413442
 20
153.604506675583
 30
0.0
 10
131.0163787157314
 20
154.2664822097754
 30
0.0
 10
132.7044766171327
 20
155.2500576196734
 30
0.0
 10
133.6642808525008
 20
155.3847609420097
 30
0.0
 10
134.7284715499351
 20
155.3565111403944
 30
0.0
 10
134.7284715499351
 20
155.3565111403944
 30
0.0
 10
133.6877075172549
 20
152.0345756272799
 30
0.0
 10
133.6877075172549
 20
152.0345756272799
 30
0.0
 10
133.011434827367
 20
152.3184516825359
 30
0.0
 10
130.930940291334
 20
151.7768823149844
 30
0.0
 10
129.739280976855
 20
150.9162968950455
 30
0.0
 10
128.66613302525
 20
150.1454562717016
 30
0.0
 10
127.9192358313239
 20
149.4857200510519
 30
0.0
 10
127.0393578639405
 20
147.8282835196966
 30
0.0
 10
126.164647543194
 20
146.1699857139017
 30
0.0
 10
125.4742499524985
 20
143.5262176944419
 30
0.0
 10
124.2822461282437
 20
139.6959580071401
 30
0.0
 10
124.2822461282437
 20
139.6959580071401
 30
0.0
 10
120.5753209406769
 20
127.8027915271048
 30
0.0
 10
120.5753209406769
 20
127.8027915271048
 30
0.0
 10
120.5753209406769
 20
127.8027915271048
 30
0.0
 10
118.1964809388044
 20
127.8027915271048
 30
0.0
 10
118.1964809388044
 20
127.8027915271048
 30
0.0
 10
118.1964809388044
 20
127.8027915271048
 30
0.0
 10
126.377554584636
 20
154.8151140277308
 30
0.0
 10
126.377554584636
 20
154.8151140277308
 30
0.0
  0
HATCH
  5
32F
330
32A
100
AcDbEntity
  8
レイヤー 1
 62
   250
420
  2234388
100
AcDbHatch
 10
0.0
 20
0.0
 30
0.0
210
0.0
220
0.0
230
1.0
  2
SOLID
 70
     1
 71
     0
 91
        1
 92
        1
 93
        1
 72
     4
 94
        3
 73
     0
 74
     1
 95
       38
 96
       34
 40
0.0
 40
0.0
 40
0.0
 40
0.0
 40
1.0
 40
1.0
 40
1.0
 40
2.0
 40
2.0
 40
2.0
 40
3.0
 40
3.0
 40
3.0
 40
4.0
 40
4.0
 40
4.0
 40
5.0
 40
5.0
 40
5.0
 40
6.0
 40
6.0
 40
6.0
 40
7.0
 40
7.0
 40
7.0
 40
8.0
 40
8.0
 40
8.0
 40
9.0
 40
9.0
 40
9.0
 40
10.0
 40
10.0
 40
10.0
 40
11.0
 40
11.0
 40
11.0
 40
11.0
 10
126.377554584636
 20
154.8151140277308
 10
126.377554584636
 20
154.8151140277308
 10
128.8311532078563
 20
154.8151140277308
 10
128.8311532078563
 20
154.8151140277308
 10
128.8311532078563
 20
154.8151140277308
 10
127.7345785914971
 20
151.3062819612468
 10
127.7345785914971
 20
151.3062819612468
 10
128.571392836906
 20
152.2922689395754
 10
129.8860421413442
 20
153.604506675583
 10
131.0163787157314
 20
154.2664822097754
 10
132.7044766171327
 20
155.2500576196734
 10
133.6642808525008
 20
155.3847609420097
 10
134.7284715499351
 20
155.3565111403944
 10
134.7284715499351
 20
155.3565111403944
 10
133.6877075172549
 20
152.0345756272799
 10
133.6877075172549
 20
152.0345756272799
 10
133.011434827367
 20
152.3184516825359
 10
130.930940291334
 20
151.7768823149844
 10
129.739280976855
 20
150.9162968950455
 10
128.66613302525
 20
150.1454562717016
 10
127.9192358313239
 20
149.4857200510519
 10
127.0393578639405
 20
147.8282835196966
 10
126.164647543194
 20
146.1699857139017
 10
125.4742499524985
 20
143.5262176944419
 10
124.2822461282437
 20
139.6959580071401
 10
124.2822461282437
 20
139.6959580071401
 10
120.5753209406769
 20
127.8027915271048
 10
120.5753209406769
 20
127.8027915271048
 10
120.5753209406769
 20
127.8027915271048
 10
118.1964809388044
 20
127.8027915271048
 10
118.1964809388044
 20
127.8027915271048
 10
118.1964809388044
 20
127.8027915271048
 10
126.377554584636
 20
154.8151140277308
 10
126.377554584636
 20
154.8151140277308
 97
        0
 75
     2
 76
     1
 98
        0
  0
SPLINE
  5
330
330
32A
100
AcDbEntity
  8
レイヤー 1
370
     0
100
AcDbSpline
210
0.0
220
0.0
230
1.0
 70
    11
 71
     3
 72
   104
 73
   100
 74
     0
 42
0.000000001
 43
0.0000000001
 40
0.0
 40
0.0
 40
0.0
 40
0.0
 40
1.0
 40
1.0
 40
1.0
 40
2.0
 40
2.0
 40
2.0
 40
3.0
 40
3.0
 40
3.0
 40
4.0
 40
4.0
 40
4.0
 40
5.0
 40
5.0
 40
5.0
 40
6.0
 40
6.0
 40
6.0
 40
7.0
 40
7.0
 40
7.0
 40
8.0
 40
8.0
 40
8.0
 40
9.0
 40
9.0
 40
9.0
 40
10.0
 40
10.0
 40
10.0
 40
11.0
 40
11.0
 40
11.0
 40
12.0
 40
12.0
 40
12.0
 40
13.0
 40
13.0
 40
13.0
 40
14.0
 40
14.0
 40
14.0
 40
15.0
 40
15.0
 40
15.0
 40
16.0
 40
16.0
 40
16.0
 40
17.0
 40
17.0
 40
17.0
 40
18.0
 40
18.0
 40
18.0
 40
19.0
 40
19.0
 40
19.0
 40
20.0
 40
20.0
 40
20.0
 40
21.0
 40
21.0
 40
21.0
 40
22.0
 40
22.0
 40
22.0
 40
23.0
 40
23.0
 40
23.0
 40
24.0
 40
24.0
 40
24.0
 40
25.0
 40
25.0
 40
25.0
 40
26.0
 40
26.0
 40
26.0
 40
27.0
 40
27.0
 40
27.0
 40
28.0
 40
28.0
 40
28.0
 40
29.0
 40
29.0
 40
29.0
 40
30.0
 40
30.0
 40
30.0
 40
31.0
 40
31.0
 40
31.0
 40
32.0
 40
32.0
 40
32.0
 40
33.0
 40
33.0
 40
33.0
 40
33.0
 10
139.8926730891197
 20
154.8294111834263
 30
0.0
 10
139.8926730891197
 20
154.8294111834263
 30
0.0
 10
142.0344903652445
 20
154.8294111834263
 30
0.0
 10
142.0344903652445
 20
154.8294111834263
 30
0.0
 10
142.0344903652445
 20
154.8294111834263
 30
0.0
 10
140.9516961399171
 20
151.3157559800812
 30
0.0
 10
140.9516961399171
 20
151.3157559800812
 30
0.0
 10
141.8928968473923
 20
152.7887075264977
 30
0.0
 10
142.7341897198865
 20
153.4484437471474
 30
0.0
 10
143.8552245303272
 20
154.2926649527359
 30
0.0
 10
144.9803934580775
 20
155.1296514530327
 30
0.0
 10
146.3139908001845
 20
155.3044901642492
 30
0.0
 10
147.241066606852
 20
155.3044901642492
 30
0.0
 10
148.3855280820469
 20
155.3044901642492
 30
0.0
 10
149.4969166187653
 20
155.0752189084569
 30
0.0
 10
150.0784491203092
 20
153.8172414621372
 30
0.0
 10
150.5228667310863
 20
152.833838307127
 30
0.0
 10
150.5414702589793
 20
152.7201500811143
 30
0.0
 10
150.4140016419347
 20
150.7765981809602
 30
0.0
 10
151.5818897818837
 20
152.7699317437168
 30
0.0
 10
152.4424752018226
 20
153.6256940267945
 30
0.0
 10
153.9038856707499
 20
154.4507949398263
 30
0.0
 10
155.4455669174378
 20
155.3044901642492
 30
0.0
 10
156.339225275853
 20
155.3659851592288
 30
0.0
 10
157.3748216618963
 20
155.2147453676543
 30
0.0
 10
158.911679771723
 20
154.9877134254046
 30
0.0
 10
159.8859534176746
 20
154.4390816074493
 30
0.0
 10
160.3965169054045
 20
152.7816450760939
 30
0.0
 10
160.9070803931344
 20
151.1219692311958
 30
0.0
 10
160.6328506116007
 20
150.2303779314354
 30
0.0
 10
159.9992971339115
 20
147.597634224801
 30
0.0
 10
159.7105979417943
 20
146.4014962832367
 30
0.0
 10
159.2947746424084
 20
144.9400858143094
 30
0.0
 10
158.7463150793409
 20
143.2092687007094
 30
0.0
 10
158.7463150793409
 20
143.2092687007094
 30
0.0
 10
153.9038856707499
 20
127.8027915271048
 30
0.0
 10
153.9038856707499
 20
127.8027915271048
 30
0.0
 10
153.9038856707499
 20
127.8027915271048
 30
0.0
 10
151.3882752878863
 20
127.8027915271048
 30
0.0
 10
151.3882752878863
 20
127.8027915271048
 30
0.0
 10
151.3882752878863
 20
127.8027915271048
 30
0.0
 10
155.6250565106276
 20
141.2751908193897
 30
0.0
 10
155.6250565106276
 20
141.2751908193897
 30
0.0
 10
156.5094131050963
 20
144.0936252951782
 30
0.0
 10
157.109893644309
 20
146.1506931664571
 30
0.0
 10
157.4220195011804
 20
147.4415712963654
 30
0.0
 10
157.8095929989511
 20
149.0530157726519
 30
0.0
 10
157.9656559273867
 20
149.5826995529385
 30
0.0
 10
157.7816877071116
 20
150.7529992613181
 30
0.0
 10
157.6111553680925
 20
151.8430281919372
 30
0.0
 10
157.0582171779396
 20
152.5547853887321
 30
0.0
 10
156.1170164704645
 20
152.5547853887321
 30
0.0
 10
155.1096698860365
 20
152.5547853887321
 30
0.0
 10
154.2962823053817
 20
152.4412694176073
 30
0.0
 10
153.156643967048
 20
151.2945686288697
 30
0.0
 10
152.0170056287143
 20
150.1476955852443
 30
0.0
 10
151.076149431015
 20
148.7930831468137
 30
0.0
 10
150.3337308641742
 20
147.2290087646991
 30
0.0
 10
149.5957909244188
 20
145.6683794803425
 30
0.0
 10
148.8530278478023
 20
143.6822806228776
 30
0.0
 10
148.0964843801539
 20
141.2751908193897
 30
0.0
 10
148.0964843801539
 20
141.2751908193897
 30
0.0
 10
143.8552245303272
 20
127.8027915271048
 30
0.0
 10
143.8552245303272
 20
127.8027915271048
 30
0.0
 10
143.8552245303272
 20
127.8027915271048
 30
0.0
 10
141.486030802177
 20
127.8027915271048
 30
0.0
 10
141.486030802177
 20
127.8027915271048
 30
0.0
 10
141.486030802177
 20
127.8027915271048
 30
0.0
 10
146.3329388378533
 20
143.2092687007094
 30
0.0
 10
146.3329388378533
 20
143.2092687007094
 30
0.0
 10
146.8483254624444
 20
144.8408669988801
 30
0.0
 10
147.2314203331297
 20
146.1837661049335
 30
0.0
 10
147.4867020769946
 20
147.224185627838
 30
0.0
 10
147.9169947869641
 20
149.0197705792876
 30
0.0
 10
148.0306830129768
 20
150.2400242051577
 30
0.0
 10
147.709255392159
 20
151.3157559800812
 30
0.0
 10
147.3874832615654
 20
152.3916600098926
 30
0.0
 10
146.8245542879144
 20
152.6683013598569
 30
0.0
 10
145.8840425999909
 20
152.6683013598569
 30
0.0
 10
145.0989048209514
 20
152.6683013598569
 30
0.0
 10
144.3282364524954
 20
152.3275811915945
 30
0.0
 10
143.4531816219731
 20
151.6538923250251
 30
0.0
 10
142.34627171234
 20
150.8074318058939
 30
0.0
 10
141.901854101563
 20
150.1097995099067
 30
0.0
 10
141.3578731655808
 20
149.289521733736
 30
0.0
 10
140.6299240093235
 20
148.192602607601
 30
0.0
 10
140.2850697237515
 20
147.455696197173
 30
0.0
 10
139.6652966370942
 20
145.8385673095858
 30
0.0
 10
139.0506911970739
 20
144.2214384219986
 30
0.0
 10
138.463991048893
 20
142.3252566160164
 30
0.0
 10
138.0571250036777
 20
141.0154304484394
 30
0.0
 10
138.0571250036777
 20
141.0154304484394
 30
0.0
 10
133.9009590684727
 20
127.8027915271048
 30
0.0
 10
133.9009590684727
 20
127.8027915271048
 30
0.0
 10
133.9009590684727
 20
127.8027915271048
 30
0.0
 10
131.4180771143097
 20
127.8027915271048
 30
0.0
 10
131.4180771143097
 20
127.8027915271048
 30
0.0
 10
131.4180771143097
 20
127.8027915271048
 30
0.0
 10
139.8926730891197
 20
154.8294111834263
 30
0.0
 10
139.8926730891197
 20
154.8294111834263
 30
0.0
  0
HATCH
  5
331
330
32A
100
AcDbEntity
  8
レイヤー 1
 62
   250
420
  2234388
100
AcDbHatch
 10
0.0
 20
0.0
 30
0.0
210
0.0
220
0.0
230
1.0
  2
SOLID
 70
     1
 71
     0
 91
        1
 92
        1
 93
        1
 72
     4
 94
        3
 73
     0
 74
     1
 95
      104
 96
      100
 40
0.0
 40
0.0
 40
0.0
 40
0.0
 40
1.0
 40
1.0
 40
1.0
 40
2.0
 40
2.0
 40
2.0
 40
3.0
 40
3.0
 40
3.0
 40
4.0
 40
4.0
 40
4.0
 40
5.0
 40
5.0
 40
5.0
 40
6.0
 40
6.0
 40
6.0
 40
7.0
 40
7.0
 40
7.0
 40
8.0
 40
8.0
 40
8.0
 40
9.0
 40
9.0
 40
9.0
 40
10.0
 40
10.0
 40
10.0
 40
11.0
 40
11.0
 40
11.0
 40
12.0
 40
12.0
 40
12.0
 40
13.0
 40
13.0
 40
13.0
 40
14.0
 40
14.0
 40
14.0
 40
15.0
 40
15.0
 40
15.0
 40
16.0
 40
16.0
 40
16.0
 40
17.0
 40
17.0
 40
17.0
 40
18.0
 40
18.0
 40
18.0
 40
19.0
 40
19.0
 40
19.0
 40
20.0
 40
20.0
 40
20.0
 40
21.0
 40
21.0
 40
21.0
 40
22.0
 40
22.0
 40
22.0
 40
23.0
 40
23.0
 40
23.0
 40
24.0
 40
24.0
 40
24.0
 40
25.0
 40
25.0
 40
25.0
 40
26.0
 40
26.0
 40
26.0
 40
27.0
 40
27.0
 40
27.0
 40
28.0
 40
28.0
 40
28.0
 40
29.0
 40
29.0
 40
29.0
 40
30.0
 40
30.0
 40
30.0
 40
31.0
 40
31.0
 40
31.0
 40
32.0
 40
32.0
 40
32.0
 40
33.0
 40
33.0
 40
33.0
 40
33.0
 10
139.8926730891197
 20
154.8294111834263
 10
139.8926730891197
 20
154.8294111834263
 10
142.0344903652445
 20
154.8294111834263
 10
142.0344903652445
 20
154.8294111834263
 10
142.0344903652445
 20
154.8294111834263
 10
140.9516961399171
 20
151.3157559800812
 10
140.9516961399171
 20
151.3157559800812
 10
141.8928968473923
 20
152.7887075264977
 10
142.7341897198865
 20
153.4484437471474
 10
143.8552245303272
 20
154.2926649527359
 10
144.9803934580775
 20
155.1296514530327
 10
146.3139908001845
 20
155.3044901642492
 10
147.241066606852
 20
155.3044901642492
 10
148.3855280820469
 20
155.3044901642492
 10
149.4969166187653
 20
155.0752189084569
 10
150.0784491203092
 20
153.8172414621372
 10
150.5228667310863
 20
152.833838307127
 10
150.5414702589793
 20
152.7201500811143
 10
150.4140016419347
 20
150.7765981809602
 10
151.5818897818837
 20
152.7699317437168
 10
152.4424752018226
 20
153.6256940267945
 10
153.9038856707499
 20
154.4507949398263
 10
155.4455669174378
 20
155.3044901642492
 10
156.339225275853
 20
155.3659851592288
 10
157.3748216618963
 20
155.2147453676543
 10
158.911679771723
 20
154.9877134254046
 10
159.8859534176746
 20
154.4390816074493
 10
160.3965169054045
 20
152.7816450760939
 10
160.9070803931344
 20
151.1219692311958
 10
160.6328506116007
 20
150.2303779314354
 10
159.9992971339115
 20
147.597634224801
 10
159.7105979417943
 20
146.4014962832367
 10
159.2947746424084
 20
144.9400858143094
 10
158.7463150793409
 20
143.2092687007094
 10
158.7463150793409
 20
143.2092687007094
 10
153.9038856707499
 20
127.8027915271048
 10
153.9038856707499
 20
127.8027915271048
 10
153.9038856707499
 20
127.8027915271048
 10
151.3882752878863
 20
127.8027915271048
 10
151.3882752878863
 20
127.8027915271048
 10
151.3882752878863
 20
127.8027915271048
 10
155.6250565106276
 20
141.2751908193897
 10
155.6250565106276
 20
141.2751908193897
 10
156.5094131050963
 20
144.0936252951782
 10
157.109893644309
 20
146.1506931664571
 10
157.4220195011804
 20
147.4415712963654
 10
157.8095929989511
 20
149.0530157726519
 10
157.9656559273867
 20
149.5826995529385
 10
157.7816877071116
 20
150.7529992613181
 10
157.6111553680925
 20
151.8430281919372
 10
157.0582171779396
 20
152.5547853887321
 10
156.1170164704645
 20
152.5547853887321
 10
155.1096698860365
 20
152.5547853887321
 10
154.2962823053817
 20
152.4412694176073
 10
153.156643967048
 20
151.2945686288697
 10
152.0170056287143
 20
150.1476955852443
 10
151.076149431015
 20
148.7930831468137
 10
150.3337308641742
 20
147.2290087646991
 10
149.5957909244188
 20
145.6683794803425
 10
148.8530278478023
 20
143.6822806228776
 10
148.0964843801539
 20
141.2751908193897
 10
148.0964843801539
 20
141.2751908193897
 10
143.8552245303272
 20
127.8027915271048
 10
143.8552245303272
 20
127.8027915271048
 10
143.8552245303272
 20
127.8027915271048
 10
141.486030802177
 20
127.8027915271048
 10
141.486030802177
 20
127.8027915271048
 10
141.486030802177
 20
127.8027915271048
 10
146.3329388378533
 20
143.2092687007094
 10
146.3329388378533
 20
143.2092687007094
 10
146.8483254624444
 20
144.8408669988801
 10
147.2314203331297
 20
146.1837661049335
 10
147.4867020769946
 20
147.224185627838
 10
147.9169947869641
 20
149.0197705792876
 10
148.0306830129768
 20
150.2400242051577
 10
147.709255392159
 20
151.3157559800812
 10
147.3874832615654
 20
152.3916600098926
 10
146.8245542879144
 20
152.6683013598569
 10
145.8840425999909
 20
152.6683013598569
 10
145.0989048209514
 20
152.6683013598569
 10
144.3282364524954
 20
152.3275811915945
 10
143.4531816219731
 20
151.6538923250251
 10
142.34627171234
 20
150.8074318058939
 10
141.901854101563
 20
150.1097995099067
 10
141.3578731655808
 20
149.289521733736
 10
140.6299240093235
 20
148.192602607601
 10
140.2850697237515
 20
147.455696197173
 10
139.6652966370942
 20
145.8385673095858
 10
139.0506911970739
 20
144.2214384219986
 10
138.463991048893
 20
142.3252566160164
 10
138.0571250036777
 20
141.0154304484394
 10
138.0571250036777
 20
141.0154304484394
 10
133.9009590684727
 20
127.8027915271048
 10
133.9009590684727
 20
127.8027915271048
 10
133.9009590684727
 20
127.8027915271048
 10
131.4180771143097
 20
127.8027915271048
 10
131.4180771143097
 20
127.8027915271048
 10
131.4180771143097
 20
127.8027915271048
 10
139.8926730891197
 20
154.8294111834263
 10
139.8926730891197
 20
154.8294111834263
 97
        0
 75
     2
 76
     1
 98
        0
  0
SPLINE
  5
332
330
32A
100
AcDbEntity
  8
レイヤー 1
370
     0
100
AcDbSpline
210
0.0
220
0.0
230
1.0
 70
    11
 71
     3
 72
    29
 73
    25
 74
     0
 42
0.000000001
 43
0.0000000001
 40
0.0
 40
0.0
 40
0.0
 40
0.0
 40
1.0
 40
1.0
 40
1.0
 40
2.0
 40
2.0
 40
2.0
 40
3.0
 40
3.0
 40
3.0
 40
4.0
 40
4.0
 40
4.0
 40
5.0
 40
5.0
 40
5.0
 40
6.0
 40
6.0
 40
6.0
 40
7.0
 40
7.0
 40
7.0
 40
8.0
 40
8.0
 40
8.0
 40
8.0
 10
101.6420971922469
 20
132.8388354296931
 30
0.0
 10
101.630039350094
 20
134.7164137077823
 30
0.0
 10
102.2236296937908
 20
138.0598810818841
 30
0.0
 10
103.7487744712405
 20
142.5378191476827
 30
0.0
 10
105.819967243327
 20
148.5896501242061
 30
0.0
 10
107.0602024361932
 20
150.8074318058939
 30
0.0
 10
108.1522984254671
 20
151.8833358357054
 30
0.0
 10
109.741177511439
 20
153.4532668840085
 30
0.0
 10
111.8740375333931
 20
153.5290590346837
 30
0.0
 10
112.5075910110823
 20
153.4532668840085
 30
0.0
 10
113.4012493694975
 20
153.3490526768302
 30
0.0
 10
114.6683563248758
 20
152.7580461564518
 30
0.0
 10
114.7493161221879
 20
150.7838328862519
 30
0.0
 10
114.8106388622796
 20
149.0909118479895
 30
0.0
 10
114.3186789024427
 20
145.9191825971221
 30
0.0
 10
112.6164561002338
 20
140.9489400617108
 30
0.0
 10
110.6444821435766
 20
135.1746117095912
 30
0.0
 10
109.4669477299053
 20
132.8960240524753
 30
0.0
 10
108.5212683953448
 20
131.9072809959403
 30
0.0
 10
106.7346406980658
 20
130.0538184021569
 30
0.0
 10
104.8222669326213
 20
130.2336525051225
 30
0.0
 10
104.5408024457958
 20
130.2336525051225
 30
0.0
 10
104.1721769856939
 20
130.2336525051225
 30
0.0
 10
101.6465758193322
 20
130.6305277668397
 30
0.0
 10
101.6420971922469
 20
132.8388354296931
 30
0.0
  0
SPLINE
  5
333
330
32A
100
AcDbEntity
  8
レイヤー 1
370
     0
100
AcDbSpline
210
0.0
220
0.0
230
1.0
 70
    11
 71
     3
 72
    32
 73
    28
 74
     0
 42
0.000000001
 43
0.0000000001
 40
0.0
 40
0.0
 40
0.0
 40
0.0
 40
1.0
 40
1.0
 40
1.0
 40
2.0
 40
2.0
 40
2.0
 40
3.0
 40
3.0
 40
3.0
 40
4.0
 40
4.0
 40
4.0
 40
5.0
 40
5.0
 40
5.0
 40
6.0
 40
6.0
 40
6.0
 40
7.0
 40
7.0
 40
7.0
 40
8.0
 40
8.0
 40
8.0
 40
9.0
 40
9.0
 40
9.0
 40
9.0
 10
106.2595617172429
 20
153.4105476718098
 30
0.0
 10
104.8222669326213
 20
151.5474388043041
 30
0.0
 10
103.7177685914188
 20
149.8758773721411
 30
0.0
 10
101.9232171692965
 20
144.6141795664062
 30
0.0
 10
100.2754269116635
 20
139.7999999594306
 30
0.0
 10
99.22777268346732
 20
136.3052927937542
 30
0.0
 10
99.06964269637689
 20
132.039572749846
 30
0.0
 10
98.94665270641765
 20
128.8673267343149
 30
0.0
 10
100.8807305877373
 20
127.8027915271048
 30
0.0
 10
103.7129454545577
 20
127.8027915271048
 30
0.0
 10
104.9352661390825
 20
127.8027915271048
 30
0.0
 10
108.0151835347002
 20
127.8827177950895
 30
0.0
 10
110.2045431598849
 20
130.5926316915021
 30
0.0
 10
111.7417457794874
 20
132.4984597712065
 30
0.0
 10
113.155269389579
 20
134.475256864725
 30
0.0
 10
115.0562743324223
 20
140.9489400617108
 30
0.0
 10
116.6361961642235
 20
146.3680788349845
 30
0.0
 10
117.7282921534974
 20
149.8639917848761
 30
0.0
 10
117.6480213757369
 20
151.8595646611754
 30
0.0
 10
117.6480213757369
 20
151.8595646611754
 30
0.0
 10
117.6480213757369
 20
151.8595646611754
 30
0.0
 10
117.6480213757369
 20
151.8595646611754
 30
0.0
 10
117.13229024137
 20
155.18150017429
 30
0.0
 10
114.7162431837115
 20
155.886194920681
 30
0.0
 10
113.3351034925446
 20
155.886194920681
 30
0.0
 10
111.9829026225447
 20
155.886194920681
 30
0.0
 10
108.3414342923792
 20
156.1251124501957
 30
0.0
 10
106.2595617172429
 20
153.4105476718098
 30
0.0
  0
HATCH
  5
334
330
32A
100
AcDbEntity
  8
レイヤー 1
 62
   250
420
  2234388
100
AcDbHatch
 10
0.0
 20
0.0
 30
0.0
210
0.0
220
0.0
230
1.0
  2
SOLID
 70
     1
 71
     0
 91
        2
 92
        1
 93
        1
 72
     4
 94
        3
 73
     0
 74
     1
 95
       29
 96
       25
 40
0.0
 40
0.0
 40
0.0
 40
0.0
 40
1.0
 40
1.0
 40
1.0
 40
2.0
 40
2.0
 40
2.0
 40
3.0
 40
3.0
 40
3.0
 40
4.0
 40
4.0
 40
4.0
 40
5.0
 40
5.0
 40
5.0
 40
6.0
 40
6.0
 40
6.0
 40
7.0
 40
7.0
 40
7.0
 40
8.0
 40
8.0
 40
8.0
 40
8.0
 10
101.6420971922469
 20
132.8388354296931
 10
101.630039350094
 20
134.7164137077823
 10
102.2236296937908
 20
138.0598810818841
 10
103.7487744712405
 20
142.5378191476827
 10
105.819967243327
 20
148.5896501242061
 10
107.0602024361932
 20
150.8074318058939
 10
108.1522984254671
 20
151.8833358357054
 10
109.741177511439
 20
153.4532668840085
 10
111.8740375333931
 20
153.5290590346837
 10
112.5075910110823
 20
153.4532668840085
 10
113.4012493694975
 20
153.3490526768302
 10
114.6683563248758
 20
152.7580461564518
 10
114.7493161221879
 20
150.7838328862519
 10
114.8106388622796
 20
149.0909118479895
 10
114.3186789024427
 20
145.9191825971221
 10
112.6164561002338
 20
140.9489400617108
 10
110.6444821435766
 20
135.1746117095912
 10
109.4669477299053
 20
132.8960240524753
 10
108.5212683953448
 20
131.9072809959403
 10
106.7346406980658
 20
130.0538184021569
 10
104.8222669326213
 20
130.2336525051225
 10
104.5408024457958
 20
130.2336525051225
 10
104.1721769856939
 20
130.2336525051225
 10
101.6465758193322
 20
130.6305277668397
 10
101.6420971922469
 20
132.8388354296931
 97
        0
 92
        1
 93
        1
 72
     4
 94
        3
 73
     0
 74
     1
 95
       32
 96
       28
 40
0.0
 40
0.0
 40
0.0
 40
0.0
 40
1.0
 40
1.0
 40
1.0
 40
2.0
 40
2.0
 40
2.0
 40
3.0
 40
3.0
 40
3.0
 40
4.0
 40
4.0
 40
4.0
 40
5.0
 40
5.0
 40
5.0
 40
6.0
 40
6.0
 40
6.0
 40
7.0
 40
7.0
 40
7.0
 40
8.0
 40
8.0
 40
8.0
 40
9.0
 40
9.0
 40
9.0
 40
9.0
 10
106.2595617172429
 20
153.4105476718098
 10
104.8222669326213
 20
151.5474388043041
 10
103.7177685914188
 20
149.8758773721411
 10
101.9232171692965
 20
144.6141795664062
 10
100.2754269116635
 20
139.7999999594306
 10
99.22777268346732
 20
136.3052927937542
 10
99.06964269637689
 20
132.039572749846
 10
98.94665270641765
 20
128.8673267343149
 10
100.8807305877373
 20
127.8027915271048
 10
103.7129454545577
 20
127.8027915271048
 10
104.9352661390825
 20
127.8027915271048
 10
108.0151835347002
 20
127.8827177950895
 10
110.2045431598849
 20
130.5926316915021
 10
111.7417457794874
 20
132.4984597712065
 10
113.155269389579
 20
134.475256864725
 10
115.0562743324223
 20
140.9489400617108
 10
116.6361961642235
 20
146.3680788349845
 10
117.7282921534974
 20
149.8639917848761
 10
117.6480213757369
 20
151.8595646611754
 10
117.6480213757369
 20
151.8595646611754
 10
117.6480213757369
 20
151.8595646611754
 10
117.6480213757369
 20
151.8595646611754
 10
117.13229024137
 20
155.18150017429
 10
114.7162431837115
 20
155.886194920681
 10
113.3351034925446
 20
155.886194920681
 10
111.9829026225447
 20
155.886194920681
 10
108.3414342923792
 20
156.1251124501957
 10
106.2595617172429
 20
153.4105476718098
 97
        0
 75
     2
 76
     1
 98
        0
  0
ENDBLK
  5
335
330
32A
100
AcDbEntity
  8
0
100
AcDbBlockEnd
  0
ENDSEC
  0
SECTION
  2
ENTITIES
  0
MTEXT
  5
12E
330
A
100
AcDbEntity
  8
template
 62
     7
390
1D
100
AcDbMText
 10
9932.230623662237
 20
-4787.073162698038
 30
0.0
 40
16.28841145833333
 41
0.0
 46
0.0
 71
     1
 72
     1
  1
品名
  7
ＭＳ ゴシック
 73
     1
 44
0.7828267384257843
  0
MTEXT
  5
12F
330
A
100
AcDbEntity
  8
template
 62
     7
390
1D
100
AcDbMText
 10
9932.230623662237
 20
-4872.073162698038
 30
0.0
 40
16.28841145833333
 41
0.0
 46
0.0
 71
     1
 72
     1
  1
仕様
  7
ＭＳ ゴシック
 73
     1
 44
0.7828267384257843
  0
MTEXT
  5
130
330
A
100
AcDbEntity
  8
template
 62
     7
390
1D
100
AcDbMText
 10
9985.230623662237
 20
-4815.655623635537
 30
0.0
 40
24.4326171875
 41
0.0
 46
0.0
 71
     1
 72
     1
  1
洗面器 -CATALANO,New Light-
  7
ＭＳ ゴシック
 73
     1
 44
0.7828267384257843
  0
LINE
  5
131
330
A
100
AcDbEntity
  8
template
 62
     7
390
1D
100
AcDbLine
 10
11875.23062366176
 20
-4863.658240823038
 30
0.0
 11
9925.230623661755
 21
-4863.658240823038
 31
0.0
  0
LWPOLYLINE
  5
132
330
A
100
AcDbEntity
  8
template
 62
     7
390
1D
100
AcDbPolyline
 90
        5
 70
   128
 43
0.0
 10
11875.23062366224
 20
-2233.658240823038
 10
9925.230623662237
 20
-2233.658240823038
 10
9925.230623662237
 20
-5033.658240823038
 10
11875.23062366224
 20
-5033.658240823038
 10
11875.23062366224
 20
-2233.658240823038
  0
LINE
  5
133
330
A
100
AcDbEntity
  8
template
 62
     7
390
1D
100
AcDbLine
 10
11875.23062366224
 20
-4778.658240823038
 30
0.0
 11
9925.230623662237
 21
-4778.658240823038
 31
0.0
  0
LINE
  5
134
330
A
100
AcDbEntity
  8
template
 62
     7
390
1D
100
AcDbLine
 10
11875.23062366224
 20
-4948.658240823038
 30
0.0
 11
11122.23062366224
 21
-4948.658240823038
 31
0.0
  0
MTEXT
  5
135
330
A
100
AcDbEntity
  8
template
 62
     7
390
1D
100
AcDbMText
 10
9925.23062366244
 20
-5045.512062879894
 30
0.0
 40
21.71788194444445
 41
0.0
 46
0.0
 71
     1
 72
     1
  1
130415SH
  7
ＭＳ ゴシック
 73
     1
 44
0.7828267384257843
  0
MTEXT
  5
136
330
A
100
AcDbEntity
  8
template
 62
     7
390
1D
100
AcDbMText
 10
11152.1020299145
 20
-4978.568635296346
 30
0.0
 40
24.4326171875
 41
0.0
 46
0.0
 71
     1
 72
     1
  1
大洋金物株式会社 ティーフォルム事業部
  7
ＭＳ ゴシック
 73
     1
 44
0.7828267384257843
  0
MTEXT
  5
138
330
A
100
AcDbEntity
  8
template
 62
     7
390
1D
100
AcDbMText
 10
11684.2306236625
 20
-4900.655623635537
 30
0.0
 40
24.4326171875
 41
0.0
 46
0.0
 71
     1
 72
     1
  1
1:10
  7
ＭＳ ゴシック
 73
     1
 44
0.7828267384257843
  0
MTEXT
  5
139
330
A
100
AcDbEntity
  8
template
 62
     7
390
1D
100
AcDbMText
 10
11631.2306236625
 20
-4872.073162698038
 30
0.0
 40
16.28841145833333
 41
0.0
 46
0.0
 71
     1
 72
     1
  1
縮尺
  7
ＭＳ ゴシック
 73
     1
 44
0.7828267384257843
  0
LINE
  5
13A
330
A
100
AcDbEntity
  8
template
 62
     7
390
1D
100
AcDbLine
 10
11624.2306236625
 20
-4948.658240823038
 30
0.0
 11
11624.2306236625
 21
-4863.658240823038
 31
0.0
  0
MTEXT
  5
13B
330
A
100
AcDbEntity
  8
template
 62
     7
390
1D
100
AcDbMText
 10
11380.2306236625
 20
-4872.073162698038
 30
0.0
 40
16.28841145833333
 41
0.0
 46
0.0
 71
     1
 72
     1
  1
容量
  7
ＭＳ ゴシック
 73
     1
 44
0.7828267384257843
  0
MTEXT
  5
13C
330
A
100
AcDbEntity
  8
template
 62
     7
390
1D
100
AcDbMText
 10
11433.2306236625
 20
-4900.655623635537
 30
0.0
 40
24.4326171875
 41
0.0
 46
24.4326171875
 71
     1
 72
     1
  1
{11L}
  7
ＭＳ ゴシック
 73
     1
 44
0.7828267384257843
1001
ACAD
1000
ACAD_MTEXT_DEFINED_HEIGHT_BEGIN
1070
    46
1040
24.4326171875
1000
ACAD_MTEXT_DEFINED_HEIGHT_END
  0
LINE
  5
13D
330
A
100
AcDbEntity
  8
template
 62
     7
390
1D
100
AcDbLine
 10
11373.2306236625
 20
-4948.658240823038
 30
0.0
 11
11373.2306236625
 21
-4863.658240823038
 31
0.0
  0
MTEXT
  5
13E
330
A
100
AcDbEntity
  8
template
 62
     7
390
1D
100
AcDbMText
 10
11129.2306236625
 20
-4787.073162698038
 30
0.0
 40
16.28841145833333
 41
0.0
 46
0.0
 71
     1
 72
     1
  1
品番
  7
ＭＳ ゴシック
 73
     1
 44
0.7828267384257843
  0
MTEXT
  5
13F
330
A
100
AcDbEntity
  8
template
 62
     7
390
1D
100
AcDbMText
 10
11129.2306236625
 20
-4872.073162698038
 30
0.0
 40
16.28841145833333
 41
0.0
 46
0.0
 71
     1
 72
     1
  1
重量
  7
ＭＳ ゴシック
 73
     1
 44
0.7828267384257843
  0
MTEXT
  5
140
330
A
100
AcDbEntity
  8
template
 62
     7
390
1D
100
AcDbMText
 10
11182.2306236625
 20
-4815.655623635537
 30
0.0
 40
24.4326171875
 41
0.0
 46
24.4326171875
 71
     1
 72
     1
  1
{ADF70-2411}
  7
ＭＳ ゴシック
 73
     1
 44
0.7828267384257843
1001
ACAD
1000
ACAD_MTEXT_DEFINED_HEIGHT_BEGIN
1070
    46
1040
24.4326171875
1000
ACAD_MTEXT_DEFINED_HEIGHT_END
  0
MTEXT
  5
141
330
A
100
AcDbEntity
  8
template
 62
     7
390
1D
100
AcDbMText
 10
11182.2306236625
 20
-4900.655623635537
 30
0.0
 40
24.4326171875
 41
0.0
 46
24.4326171875
 71
     1
 72
     1
  1
{22kg}
  7
ＭＳ ゴシック
 73
     1
 44
0.7828267384257843
1001
ACAD
1000
ACAD_MTEXT_DEFINED_HEIGHT_BEGIN
1070
    46
1040
24.4326171875
1000
ACAD_MTEXT_DEFINED_HEIGHT_END
  0
LINE
  5
142
330
A
100
AcDbEntity
  8
template
 62
     7
390
1D
100
AcDbLine
 10
11122.2306236625
 20
-5033.658240823038
 30
0.0
 11
11122.2306236625
 21
-4778.658240823038
 31
0.0
  0
MTEXT
  5
143
330
A
100
AcDbEntity
  8
template
 62
     7
390
1D
100
AcDbMText
 10
9985.230623662237
 20
-4900.655623635537
 30
0.0
 40
24.4326171875
 41
0.0
 46
0.0
 71
     1
 72
     1
  1
壁掛け/オーバーフロー付き/壁取付ボルト付属/\P陶器/ホワイト
  7
ＭＳ ゴシック
 73
     1
 44
1.304711230709641
  0
DIMENSION
  5
144
330
A
100
AcDbEntity
  8
DIM
390
1D
100
AcDbDimension
  2
*D3
 10
10125.32472843767
 20
-2663.182746318576
 30
0.0
 11
10525.32472843767
 21
-2645.966437724826
 31
0.0
 70
    32
 71
     5
 42
800.0000000000091
 73
     0
 74
     0
 75
     0
  3
tform線あり
100
AcDbAlignedDimension
 13
10925.32472843768
 23
-2816.182746318576
 33
0.0
 14
10125.32472843767
 24
-2816.182746318576
 34
0.0
100
AcDbRotatedDimension
1001
ACAD
1000
DSTYLE
1002
{
1070
   279
1070
     2
1070
   340
1005
34
1070
   147
1040
5.0
1002
}
  0
DIMENSION
  5
145
330
A
100
AcDbEntity
  8
DIM
390
1D
100
AcDbDimension
  2
*D4
 10
10525.23472843768
 20
-2713.182746318576
 30
0.0
 11
10575.24620590865
 21
-2695.966437724826
 31
0.0
 70
    32
 71
     5
 42
100.02295494194
 73
     0
 74
     0
 75
     0
  3
tform線あり
100
AcDbAlignedDimension
 13
10625.25768337962
 23
-2862.638191719358
 33
0.0
 14
10525.23472843768
 24
-2861.228191719357
 34
0.0
100
AcDbRotatedDimension
1001
ACAD
1000
DSTYLE
1002
{
1070
   279
1070
     2
1070
   340
1005
34
1070
   147
1040
5.0
1002
}
  0
DIMENSION
  5
146
330
A
100
AcDbEntity
  8
DIM
390
1D
100
AcDbDimension
  2
*D5
 10
10425.24380715209
 20
-2713.182746318576
 30
0.0
 11
10475.23926779488
 21
-2695.966437724826
 31
0.0
 70
    32
 71
     5
 42
99.99092128558914
 73
     0
 74
     0
 75
     0
  3
tform線あり
100
AcDbAlignedDimension
 13
10525.23472843768
 23
-2861.228191719357
 33
0.0
 14
10425.24380715209
 24
-2862.638191719358
 34
0.0
100
AcDbRotatedDimension
1001
ACAD
1000
DSTYLE
1002
{
1070
   279
1070
     2
1070
   340
1005
34
1070
   147
1040
5.0
1002
}
  0
DIMENSION
  5
147
330
A
100
AcDbEntity
  8
DIM
390
1D
100
AcDbDimension
  2
*D6
 10
10025.32472843767
 20
-2943.510352628404
 30
0.0
 11
10008.10841984392
 21
-2878.34654947349
 31
0.0
 70
    32
 71
     5
 42
130.3276063098278
 73
     0
 74
     0
 75
     0
  3
tform線あり
100
AcDbAlignedDimension
 13
10128.32472843767
 23
-2813.182746318576
 33
0.0
 14
10125.32472843767
 24
-2943.510352628404
 34
0.0
 50
90.0
100
AcDbRotatedDimension
1001
ACAD
1000
DSTYLE
1002
{
1070
   271
1070
     0
1070
   279
1070
     2
1070
   340
1005
34
1070
   147
1040
5.0
1002
}
  0
DIMENSION
  5
148
330
A
100
AcDbEntity
  8
DIM
390
1D
100
AcDbDimension
  2
*D19
 10
10025.32472843767
 20
-2943.510352628404
 30
0.0
 11
10002.27727449712
 21
-3085.585067733088
 31
0.0
 70
   160
 71
     5
 42
279.9999999999991
 73
     0
 74
     0
 75
     0
  3
tform線あり
100
AcDbAlignedDimension
 13
10125.32472843767
 23
-3223.510352628403
 33
0.0
 14
10100.32472843767
 24
-2943.510352628404
 34
0.0
 50
90.0
100
AcDbRotatedDimension
1001
ACAD
1000
DSTYLE
1002
{
1070
   279
1070
     2
1070
   340
1005
34
1070
   147
1040
5.0
1002
}
  0
DIMENSION
  5
149
330
A
100
AcDbEntity
  8
DIM
390
1D
100
AcDbDimension
  2
*D8
 10
11025.32472843767
 20
-2813.182746318576
 30
0.0
 11
11008.10841984392
 21
-3053.182746318576
 31
0.0
 70
    32
 71
     5
 42
480.0
 73
     0
 74
     0
 75
     0
  3
tform線あり
100
AcDbAlignedDimension
 13
10885.32472843767
 23
-3293.182746318576
 33
0.0
 14
10922.32472843768
 24
-2813.182746318576
 34
0.0
 50
90.0
100
AcDbRotatedDimension
1001
ACAD
1000
DSTYLE
1002
{
1070
   279
1070
     2
1070
   340
1005
34
1070
   147
1040
5.0
1002
}
  0
DIMENSION
  5
14A
330
A
100
AcDbEntity
  8
DIM
390
1D
100
AcDbDimension
  2
*D9
 10
10260.32472843767
 20
-3393.182746318576
 30
0.0
 11
10525.32472843767
 21
-3375.966437724826
 31
0.0
 70
    32
 71
     5
 42
530.0
 73
     0
 74
     0
 75
     0
  3
tform線あり
100
AcDbAlignedDimension
 13
10790.32472843767
 23
-3293.512326720172
 33
0.0
 14
10260.32472843767
 24
-3293.512326720172
 34
0.0
100
AcDbRotatedDimension
1001
ACAD
1000
DSTYLE
1002
{
1070
   279
1070
     2
1070
   340
1005
34
1070
   147
1040
5.0
1002
}
  0
DIMENSION
  5
14B
330
A
100
AcDbEntity
  8
DIM
390
1D
100
AcDbDimension
  2
*D10
 10
10260.32472843767
 20
-3393.182746318576
 30
0.0
 11
10192.82472843767
 21
-3375.966437724826
 31
0.0
 70
    32
 71
     5
 42
135.0
 73
     0
 74
     0
 75
     0
  3
tform線あり
100
AcDbAlignedDimension
 13
10125.32472843767
 23
-3252.201870360011
 33
0.0
 14
10260.32472843767
 24
-3293.182746318576
 34
0.0
100
AcDbRotatedDimension
1001
ACAD
1000
DSTYLE
1002
{
1070
   279
1070
     2
1070
   340
1005
34
1070
   147
1040
5.0
1002
}
  0
MTEXT
  5
14C
330
A
100
AcDbEntity
  8
notes
 62
     7
390
1D
100
AcDbMText
 10
10129.41749976112
 20
-3474.53731694938
 30
0.0
 40
24.4326171875
 41
840.5849911149598
 46
68.27975785302668
 71
     1
 72
     1
  1
{=φ30もしくはφ35の水栓取付用穴あけ加工を承ります。\P 必要な場合、ご注文の際にご指示ください。}
  7
ＭＳ ゴシック
 73
     1
 44
1.043768984567712
1001
ACAD
1000
ACAD_MTEXT_DEFINED_HEIGHT_BEGIN
1070
    46
1040
68.27975785302668
1000
ACAD_MTEXT_DEFINED_HEIGHT_END
  0
CIRCLE
  5
14D
330
A
100
AcDbEntity
  8
notes
  6
STYLE_13
 62
     7
370
    15
390
1D
100
AcDbCircle
 10
10102.50249087608
 20
-3486.007716417431
 30
0.0
 40
17.49999999999955
  0
MTEXT
  5
14E
330
A
100
AcDbEntity
  8
notes
 62
     7
390
1D
100
AcDbMText
 10
10758.20030822762
 20
-3851.599605332524
 30
0.0
 40
24.4326171875
 41
0.0
 46
0.0
 71
     1
 72
     1
  1
壁取付ボルト穴(2ヶ所)
  7
ＭＳ ゴシック
 73
     1
 44
0.7828267384257843
  0
LINE
  5
14F
330
A
100
AcDbEntity
  8
notes
  6
Continuous
 62
     7
370
     5
390
1D
100
AcDbLine
 10
10665.32472843767
 20
-3952.508903868069
 30
0.0
 11
10752.38471331992
 21
-3865.448918985824
 31
0.0
  0
LINE
  5
150
330
A
100
AcDbEntity
  8
MODEL
  6
STYLE_13
 62
     7
390
1D
100
AcDbLine
 10
10665.32472843767
 20
-3972.476443897389
 30
0.0
 11
10665.32472843767
 21
-3932.47644389739
 31
0.0
  0
LINE
  5
151
330
A
100
AcDbEntity
  8
MODEL
  6
STYLE_13
 62
     7
390
1D
100
AcDbLine
 10
10685.32472843767
 20
-3952.476443897389
 30
0.0
 11
10645.32472843767
 21
-3952.476443897389
 31
0.0
  0
CIRCLE
  5
152
330
A
100
AcDbEntity
  8
MODEL
  6
STYLE_13
 62
     7
390
1D
100
AcDbCircle
 10
10665.32472843767
 20
-3952.508903868069
 30
0.0
 40
10.0
  0
LINE
  5
153
330
A
100
AcDbEntity
  8
MODEL
  6
STYLE_13
 62
     7
390
1D
100
AcDbLine
 10
10385.32472843767
 20
-3972.476443897389
 30
0.0
 11
10385.32472843767
 21
-3932.47644389739
 31
0.0
  0
LINE
  5
154
330
A
100
AcDbEntity
  8
MODEL
  6
STYLE_13
 62
     7
390
1D
100
AcDbLine
 10
10405.32472843767
 20
-3952.476443897389
 30
0.0
 11
10365.32472843767
 21
-3952.476443897389
 31
0.0
  0
CIRCLE
  5
155
330
A
100
AcDbEntity
  8
MODEL
  6
STYLE_13
 62
     7
390
1D
100
AcDbCircle
 10
10385.32472843767
 20
-3952.508903868069
 30
0.0
 40
10.0
  0
DIMENSION
  5
156
330
A
100
AcDbEntity
  8
DIM
390
1D
100
AcDbDimension
  2
*D11
 10
10385.32472843767
 20
-3816.47644389739
 30
0.0
 11
10525.32472843767
 21
-3799.26013530364
 31
0.0
 70
    32
 71
     5
 42
280.0
 73
     0
 74
     0
 75
     0
  3
tform線あり
100
AcDbAlignedDimension
 13
10665.32472843767
 23
-3932.47644389739
 33
0.0
 14
10385.32472843767
 24
-3932.47644389739
 34
0.0
100
AcDbRotatedDimension
1001
ACAD
1000
DSTYLE
1002
{
1070
   279
1070
     2
1070
   340
1005
34
1070
   147
1040
5.0
1002
}
  0
DIMENSION
  5
157
330
A
100
AcDbEntity
  8
DIM
390
1D
100
AcDbDimension
  2
*D12
 10
10025.32472843767
 20
-3952.476443897389
 30
0.0
 11
10008.10841984392
 21
-3932.476443897389
 31
0.0
 70
    32
 71
     5
 42
39.99999999999908
 73
     0
 74
     0
 75
     0
  3
tform線あり
100
AcDbAlignedDimension
 13
10131.4371274429
 23
-3912.47644389739
 33
0.0
 14
10365.32472843767
 24
-3952.476443897389
 34
0.0
 50
90.0
100
AcDbRotatedDimension
1001
ACAD
1000
DSTYLE
1002
{
1070
   279
1070
     2
1070
   340
1005
34
1070
   147
1040
5.0
1002
}
  0
DIMENSION
  5
158
330
A
100
AcDbEntity
  8
DIM
390
1D
100
AcDbDimension
  2
*D20
 10
11024.92340727324
 20
-4092.474744652592
 30
0.0
 11
11005.27204313526
 21
-4003.131190630336
 31
0.0
 70
   160
 71
     5
 42
180.0
 73
     0
 74
     0
 75
     0
  3
tfrom線あり
100
AcDbAlignedDimension
 13
10919.21232943245
 23
-3912.474744652592
 33
0.0
 14
10559.08907673162
 24
-4092.474744652592
 34
0.0
 50
90.0
100
AcDbRotatedDimension
1001
ACAD
1000
DSTYLE
1002
{
1070
   279
1070
     2
1070
   340
1005
34
1070
   147
1040
5.0
1002
}
  0
DIMENSION
  5
159
330
A
100
AcDbEntity
  8
DIM
390
1D
100
AcDbDimension
  2
*D23
 10
11540.22559471128
 20
-4196.227984080745
 30
0.0
 11
11659.68910132517
 21
-4179.011675486995
 31
0.0
 70
   160
 71
     5
 42
220.0
 73
     0
 74
     0
 75
     0
  3
tform線あり
100
AcDbAlignedDimension
 13
11760.22559471128
 23
-4053.277411134168
 33
0.0
 14
11540.22559471128
 24
-4095.081265360702
 34
0.0
100
AcDbRotatedDimension
1001
ACAD
1000
DSTYLE
1002
{
1070
   279
1070
     2
1070
   340
1005
34
1070
   147
1040
5.0
1002
}
  0
DIMENSION
  5
15A
330
A
100
AcDbEntity
  8
DIM
390
1D
100
AcDbDimension
  2
*D22
 10
11760.22560396385
 20
-3812.47644389739
 30
0.0
 11
11727.86910423896
 21
-3794.664157894494
 31
0.0
 70
   160
 71
     5
 42
65.0
 73
     0
 74
     0
 75
     0
  3
tform線あり
100
AcDbAlignedDimension
 13
11695.22560396385
 23
-3912.47644389739
 33
0.0
 14
11760.22560396385
 24
-3913.976443897384
 34
0.0
100
AcDbRotatedDimension
1001
ACAD
1000
DSTYLE
1002
{
1070
   279
1070
     2
1070
   340
1005
34
1070
   147
1040
5.0
1002
}
  0
DIMENSION
  5
15B
330
A
100
AcDbEntity
  8
DIM
390
1D
100
AcDbDimension
  2
*D16
 10
11179.93369966145
 20
-3912.474058089762
 30
0.0
 11
11162.7173910677
 21
-3934.966197505705
 31
0.0
 70
    32
 71
     5
 42
44.98427883188606
 73
     0
 74
     0
 75
     0
  3
tfrom線あり
100
AcDbAlignedDimension
 13
11286.33386759193
 23
-3957.458336921648
 33
0.0
 14
11286.33386759193
 24
-3912.474058089762
 34
0.0
 50
90.0
100
AcDbRotatedDimension
1001
ACAD
1000
DSTYLE
1002
{
1070
   279
1070
     2
1070
   340
1005
34
1070
   147
1040
5.0
1002
}
  0
LINE
  5
15D
330
A
100
AcDbEntity
  8
MODEL
  6
Continuous
 62
     7
390
1D
100
AcDbLine
 10
10165.32472843767
 20
-3293.182746318576
 30
0.0
 11
10885.32472843767
 21
-3293.182746318576
 31
0.0
  0
ARC
  5
15E
330
A
100
AcDbEntity
  8
MODEL
  6
Continuous
 62
     7
390
1D
100
AcDbCircle
 10
10165.32472843767
 20
-3253.182746318576
 30
0.0
 40
40.0
100
AcDbArc
 50
180.0
 51
270.0
  0
LINE
  5
15F
330
A
100
AcDbEntity
  8
MODEL
  6
Continuous
 62
     7
390
1D
100
AcDbLine
 10
10280.32472843767
 20
-3233.182746318577
 30
0.0
 11
10770.32472843767
 21
-3233.182746318575
 31
0.0
  0
ARC
  5
160
330
A
100
AcDbEntity
  8
MODEL
  6
Continuous
 62
     7
390
1D
100
AcDbCircle
 10
10280.32472843767
 20
-3208.182746318576
 30
0.0
 40
25.0
100
AcDbArc
 50
180.0
 51
270.0
  0
LINE
  5
161
330
A
100
AcDbEntity
  8
MODEL
  6
Continuous
 62
     7
390
1D
100
AcDbLine
 10
10925.32472843767
 20
-3253.182746318576
 30
0.0
 11
10925.32472843768
 21
-2816.106237326569
 31
0.0
  0
ARC
  5
162
330
A
100
AcDbEntity
  8
MODEL
  6
Continuous
 62
     7
390
1D
100
AcDbCircle
 10
10922.32472843768
 20
-2816.182746318576
 30
0.0
 40
3.0
100
AcDbArc
 50
0.0
 51
90.0
  0
LINE
  5
163
330
A
100
AcDbEntity
  8
MODEL
  6
Continuous
 62
     7
390
1D
100
AcDbLine
 10
10795.32472843767
 20
-3208.182746318576
 30
0.0
 11
10795.32472843768
 21
-2963.510352628402
 31
0.0
  0
ARC
  5
164
330
A
100
AcDbEntity
  8
MODEL
  6
Continuous
 62
     7
390
1D
100
AcDbCircle
 10
10775.32472843768
 20
-2963.510352628402
 30
0.0
 40
20.00000000000004
100
AcDbArc
 50
0.0
 51
89.99999999999982
  0
LINE
  5
165
330
A
100
AcDbEntity
  8
MODEL
  6
Continuous
 62
     7
390
1D
100
AcDbLine
 10
10922.32472843768
 20
-2813.182746318576
 30
0.0
 11
10128.32472843767
 21
-2813.182746318576
 31
0.0
  0
LINE
  5
166
330
A
100
AcDbEntity
  8
MODEL
  6
Continuous
 62
     7
390
1D
100
AcDbLine
 10
10125.32472843767
 20
-2816.182746318576
 30
0.0
 11
10125.32472843767
 21
-3253.182746318576
 31
0.0
  0
ARC
  5
167
330
A
100
AcDbEntity
  8
MODEL
  6
Continuous
 62
     7
390
1D
100
AcDbCircle
 10
10128.32472843767
 20
-2816.182746318575
 30
0.0
 40
3.0
100
AcDbArc
 50
90.0
 51
180.0
  0
LINE
  5
168
330
A
100
AcDbEntity
  8
MODEL
  6
Continuous
 62
     7
390
1D
100
AcDbLine
 10
10255.32472843767
 20
-2968.510352628404
 30
0.0
 11
10255.32472843767
 21
-3208.182746318577
 31
0.0
  0
LINE
  5
169
330
A
100
AcDbEntity
  8
MODEL
  6
Continuous
 62
     7
390
1D
100
AcDbLine
 10
10280.32472843767
 20
-2943.510352628404
 30
0.0
 11
10775.32472843768
 21
-2943.510352628402
 31
0.0
  0
ARC
  5
16A
330
A
100
AcDbEntity
  8
MODEL
  6
Continuous
 62
     7
390
1D
100
AcDbCircle
 10
10280.32472843767
 20
-2968.510352628403
 30
0.0
 40
25.0
100
AcDbArc
 50
90.0
 51
180.0
  0
CIRCLE
  5
16B
330
A
100
AcDbEntity
  8
MODEL
  6
Continuous
 62
     7
390
1D
100
AcDbCircle
 10
10525.32472843767
 20
-3031.280218047503
 30
0.0
 40
22.49999999999818
  0
CIRCLE
  5
16C
330
A
100
AcDbEntity
  8
MODEL
  6
Continuous
 62
     7
390
1D
100
AcDbCircle
 10
10525.32472843767
 20
-3031.280218047503
 30
0.0
 40
38.0
  0
SPLINE
  5
16D
330
A
100
AcDbEntity
  8
MODEL
  6
Continuous
 62
     7
390
1D
100
AcDbSpline
210
0.0
220
0.0
230
1.0
 70
    11
 71
     2
 72
    26
 73
    23
 74
     0
 42
0.000000001
 43
0.000001
 40
0.0
 40
0.0
 40
0.0
 40
1.0
 40
2.0
 40
3.0
 40
4.0
 40
4.0
 40
5.0
 40
6.0
 40
7.0
 40
8.0
 40
9.0
 40
9.0
 40
10.0
 40
11.0
 40
12.0
 40
13.0
 40
13.0
 40
14.0
 40
15.0
 40
16.0
 40
17.0
 40
18.0
 40
18.0
 40
18.0
 10
10512.72192432378
 20
-2945.745623358738
 30
0.0
 10
10512.87220677443
 20
-2945.974041706353
 30
0.0
 10
10514.04642081707
 20
-2946.264817215985
 30
0.0
 10
10515.69033791362
 20
-2946.462644975827
 30
0.0
 10
10520.81337794453
 20
-2946.867446445086
 30
0.0
 10
10525.22192432377
 20
-2946.844053050024
 30
0.0
 10
10527.77292420727
 20
-2946.846354564797
 30
0.0
 10
10532.17602781572
 20
-2946.682092355392
 30
0.0
 10
10534.75351073393
 20
-2946.462644975826
 30
0.0
 10
10536.38970291122
 20
-2946.267264222582
 30
0.0
 10
10537.57164187313
 20
-2945.974041706356
 30
0.0
 10
10537.72192432378
 20
-2945.745623358738
 30
0.0
 10
10537.57164187313
 20
-2945.517205011125
 30
0.0
 10
10536.39742783048
 20
-2945.226429501489
 30
0.0
 10
10534.75351073393
 20
-2945.028601741648
 30
0.0
 10
10529.63047070302
 20
-2944.623800272391
 30
0.0
 10
10525.22192432377
 20
-2944.647193667452
 30
0.0
 10
10522.67092444028
 20
-2944.644892152679
 30
0.0
 10
10518.26782083183
 20
-2944.809154362083
 30
0.0
 10
10515.69033791363
 20
-2945.028601741649
 30
0.0
 10
10514.05414573633
 20
-2945.223982494892
 30
0.0
 10
10512.87220677443
 20
-2945.517205011122
 30
0.0
 10
10512.72192432378
 20
-2945.745623358738
 30
0.0
  0
POLYLINE
  5
16E
330
A
100
AcDbEntity
  8
MODEL
  6
Continuous
 62
     7
390
1D
100
AcDb3dPolyline
 66
     1
 10
0.0
 20
0.0
 30
0.0
 70
     8
  0
VERTEX
  5
16F
330
16E
100
AcDbEntity
  8
MODEL
  6
Continuous
 62
     7
390
1D
100
AcDbVertex
100
AcDb3dPolylineVertex
 10
10301.58460205926
 20
-2959.186362628436
 30
0.000000173367785
 70
    32
  0
VERTEX
  5
170
330
16E
100
AcDbEntity
  8
MODEL
  6
Continuous
 62
     7
390
1D
100
AcDbVertex
100
AcDb3dPolylineVertex
 10
10525.32472843767
 20
-2959.186362628436
 30
0.0000000880677337
 70
    32
  0
SEQEND
  5
171
330
16E
100
AcDbEntity
  8
MODEL
  6
Continuous
 62
     7
390
1D
  0
POLYLINE
  5
172
330
A
100
AcDbEntity
  8
MODEL
  6
Continuous
 62
     7
390
1D
100
AcDb3dPolyline
 66
     1
 10
0.0
 20
0.0
 30
0.0
 70
     8
  0
VERTEX
  5
173
330
172
100
AcDbEntity
  8
MODEL
  6
Continuous
 62
     7
390
1D
100
AcDbVertex
100
AcDb3dPolylineVertex
 10
10281.58460205926
 20
-3154.512259564945
 30
0.0000001972557847
 70
    32
  0
VERTEX
  5
174
330
172
100
AcDbEntity
  8
MODEL
  6
Continuous
 62
     7
390
1D
100
AcDbVertex
100
AcDb3dPolylineVertex
 10
10281.58460205926
 20
-2979.186362628436
 30
0.0000001728202814
 70
    32
  0
SEQEND
  5
175
330
172
100
AcDbEntity
  8
MODEL
  6
Continuous
 62
     7
390
1D
  0
POLYLINE
  5
176
330
A
100
AcDbEntity
  8
MODEL
  6
Continuous
 62
     7
390
1D
100
AcDb3dPolyline
 66
     1
 10
0.0
 20
0.0
 30
0.0
 70
     8
  0
VERTEX
  5
177
330
176
100
AcDbEntity
  8
MODEL
  6
Continuous
 62
     7
390
1D
100
AcDbVertex
100
AcDb3dPolylineVertex
 10
10301.58460205926
 20
-3174.512259564945
 30
0.0000001969862418
 70
    32
  0
VERTEX
  5
178
330
176
100
AcDbEntity
  8
MODEL
  6
Continuous
 62
     7
390
1D
100
AcDbVertex
100
AcDb3dPolylineVertex
 10
10297.68279561894
 20
-3174.12796517301
 30
0.000000197038827
 70
    32
  0
VERTEX
  5
179
330
176
100
AcDbEntity
  8
MODEL
  6
Continuous
 62
     7
390
1D
100
AcDbVertex
100
AcDb3dPolylineVertex
 10
10293.93093341196
 20
-3172.98985021517
 30
0.0000001970893914
 70
    32
  0
VERTEX
  5
17A
330
176
100
AcDbEntity
  8
MODEL
  6
Continuous
 62
     7
390
1D
100
AcDbVertex
100
AcDb3dPolylineVertex
 10
10290.47319739887
 20
-3171.141651810996
 30
0.0000001971359918
 70
    32
  0
VERTEX
  5
17B
330
176
100
AcDbEntity
  8
MODEL
  6
Continuous
 62
     7
390
1D
100
AcDbVertex
100
AcDb3dPolylineVertex
 10
10287.44246643553
 20
-3168.654395188676
 30
0.0000001971768374
 70
    32
  0
VERTEX
  5
17C
330
176
100
AcDbEntity
  8
MODEL
  6
Continuous
 62
     7
390
1D
100
AcDbVertex
100
AcDb3dPolylineVertex
 10
10284.95520981321
 20
-3165.623664225337
 30
0.0000001972103586
 70
    32
  0
VERTEX
  5
17D
330
176
100
AcDbEntity
  8
MODEL
  6
Continuous
 62
     7
390
1D
100
AcDbVertex
100
AcDb3dPolylineVertex
 10
10283.10701140903
 20
-3162.165928212247
 30
0.000000197235267
 70
    32
  0
VERTEX
  5
17E
330
176
100
AcDbEntity
  8
MODEL
  6
Continuous
 62
     7
390
1D
100
AcDbVertex
100
AcDb3dPolylineVertex
 10
10281.9688964512
 20
-3158.414066005268
 30
0.0000001972506056
 70
    32
  0
VERTEX
  5
17F
330
176
100
AcDbEntity
  8
MODEL
  6
Continuous
 62
     7
390
1D
100
AcDbVertex
100
AcDb3dPolylineVertex
 10
10281.58460205926
 20
-3154.512259564945
 30
0.0000001972557847
 70
    32
  0
SEQEND
  5
180
330
176
100
AcDbEntity
  8
MODEL
  6
Continuous
 62
     7
390
1D
  0
POLYLINE
  5
181
330
A
100
AcDbEntity
  8
MODEL
  6
Continuous
 62
     7
390
1D
100
AcDb3dPolyline
 66
     1
 10
0.0
 20
0.0
 30
0.0
 70
     8
  0
VERTEX
  5
182
330
181
100
AcDbEntity
  8
MODEL
  6
Continuous
 62
     7
390
1D
100
AcDbVertex
100
AcDb3dPolylineVertex
 10
10281.58460205926
 20
-2979.186362628436
 30
0.0000001728202814
 70
    32
  0
VERTEX
  5
183
330
181
100
AcDbEntity
  8
MODEL
  6
Continuous
 62
     7
390
1D
100
AcDbVertex
100
AcDb3dPolylineVertex
 10
10281.9688964512
 20
-2975.284556188113
 30
0.0000001728308015
 70
    32
  0
VERTEX
  5
184
330
181
100
AcDbEntity
  8
MODEL
  6
Continuous
 62
     7
390
1D
100
AcDbVertex
100
AcDb3dPolylineVertex
 10
10283.10701140903
 20
-2971.532693981134
 30
0.0000001728619576
 70
    32
  0
VERTEX
  5
185
330
181
100
AcDbEntity
  8
MODEL
  6
Continuous
 62
     7
390
1D
100
AcDbVertex
100
AcDb3dPolylineVertex
 10
10284.95520981321
 20
-2968.074957968044
 30
0.0000001729125524
 70
    32
  0
VERTEX
  5
186
330
181
100
AcDbEntity
  8
MODEL
  6
Continuous
 62
     7
390
1D
100
AcDbVertex
100
AcDb3dPolylineVertex
 10
10287.44246643553
 20
-2965.044227004705
 30
0.0000001729806415
 70
    32
  0
VERTEX
  5
187
330
181
100
AcDbEntity
  8
MODEL
  6
Continuous
 62
     7
390
1D
100
AcDbVertex
100
AcDb3dPolylineVertex
 10
10290.47319739887
 20
-2962.556970382385
 30
0.0000001730636083
 70
    32
  0
VERTEX
  5
188
330
181
100
AcDbEntity
  8
MODEL
  6
Continuous
 62
     7
390
1D
100
AcDbVertex
100
AcDb3dPolylineVertex
 10
10293.93093341196
 20
-2960.70877197821
 30
0.0000001731582644
 70
    32
  0
VERTEX
  5
189
330
181
100
AcDbEntity
  8
MODEL
  6
Continuous
 62
     7
390
1D
100
AcDbVertex
100
AcDb3dPolylineVertex
 10
10297.68279561894
 20
-2959.570657020371
 30
0.0000001732609723
 70
    32
  0
VERTEX
  5
18A
330
181
100
AcDbEntity
  8
MODEL
  6
Continuous
 62
     7
390
1D
100
AcDbVertex
100
AcDb3dPolylineVertex
 10
10301.58460205926
 20
-2959.186362628436
 30
0.000000173367785
 70
    32
  0
SEQEND
  5
18B
330
181
100
AcDbEntity
  8
MODEL
  6
Continuous
 62
     7
390
1D
  0
POLYLINE
  5
18C
330
A
100
AcDbEntity
  8
MODEL
  6
Continuous
 62
     7
390
1D
100
AcDb3dPolyline
 66
     1
 10
0.0
 20
0.0
 30
0.0
 70
     8
  0
VERTEX
  5
18D
330
18C
100
AcDbEntity
  8
MODEL
  6
Continuous
 62
     7
390
1D
100
AcDbVertex
100
AcDb3dPolylineVertex
 10
10301.58460205926
 20
-3174.512259564945
 30
0.0000001782938059
 70
    32
  0
VERTEX
  5
18E
330
18C
100
AcDbEntity
  8
MODEL
  6
Continuous
 62
     7
390
1D
100
AcDbVertex
100
AcDb3dPolylineVertex
 10
10525.32472843767
 20
-3174.512259564944
 30
0.0000000965035415
 70
    32
  0
SEQEND
  5
18F
330
18C
100
AcDbEntity
  8
MODEL
  6
Continuous
 62
     7
390
1D
  0
ARC
  5
190
330
A
100
AcDbEntity
  8
MODEL
  6
Continuous
 62
     7
390
1D
100
AcDbCircle
 10
10885.32472843767
 20
-3253.182746318576
 30
0.0
 40
40.0
100
AcDbArc
 50
270.0
 51
0.0
  0
ARC
  5
191
330
A
100
AcDbEntity
  8
MODEL
  6
Continuous
 62
     7
390
1D
100
AcDbCircle
 10
10770.32472843767
 20
-3208.182746318575
 30
0.0
 40
25.0
100
AcDbArc
 50
270.0
 51
0.0
  0
POLYLINE
  5
192
330
A
100
AcDbEntity
  8
MODEL
  6
Continuous
 62
     7
390
1D
100
AcDb3dPolyline
 66
     1
 10
0.0
 20
0.0
 30
0.0
 70
     8
  0
VERTEX
  5
193
330
192
100
AcDbEntity
  8
MODEL
  6
Continuous
 62
     7
390
1D
100
AcDbVertex
100
AcDb3dPolylineVertex
 10
10749.06485481608
 20
-2959.186362628436
 30
0.000000173367785
 70
    32
  0
VERTEX
  5
194
330
192
100
AcDbEntity
  8
MODEL
  6
Continuous
 62
     7
390
1D
100
AcDbVertex
100
AcDb3dPolylineVertex
 10
10525.32472843767
 20
-2959.186362628436
 30
0.0000000880677337
 70
    32
  0
SEQEND
  5
195
330
192
100
AcDbEntity
  8
MODEL
  6
Continuous
 62
     7
390
1D
  0
POLYLINE
  5
196
330
A
100
AcDbEntity
  8
MODEL
  6
Continuous
 62
     7
390
1D
100
AcDb3dPolyline
 66
     1
 10
0.0
 20
0.0
 30
0.0
 70
     8
  0
VERTEX
  5
197
330
196
100
AcDbEntity
  8
MODEL
  6
Continuous
 62
     7
390
1D
100
AcDbVertex
100
AcDb3dPolylineVertex
 10
10769.06485481608
 20
-3154.512259564945
 30
0.0000001972557847
 70
    32
  0
VERTEX
  5
198
330
196
100
AcDbEntity
  8
MODEL
  6
Continuous
 62
     7
390
1D
100
AcDbVertex
100
AcDb3dPolylineVertex
 10
10769.06485481608
 20
-2979.186362628436
 30
0.0000001728202814
 70
    32
  0
SEQEND
  5
199
330
196
100
AcDbEntity
  8
MODEL
  6
Continuous
 62
     7
390
1D
  0
POLYLINE
  5
19A
330
A
100
AcDbEntity
  8
MODEL
  6
Continuous
 62
     7
390
1D
100
AcDb3dPolyline
 66
     1
 10
0.0
 20
0.0
 30
0.0
 70
     8
  0
VERTEX
  5
19B
330
19A
100
AcDbEntity
  8
MODEL
  6
Continuous
 62
     7
390
1D
100
AcDbVertex
100
AcDb3dPolylineVertex
 10
10769.06485481608
 20
-3154.512259564945
 30
0.0000001972557847
 70
    32
  0
VERTEX
  5
19C
330
19A
100
AcDbEntity
  8
MODEL
  6
Continuous
 62
     7
390
1D
100
AcDbVertex
100
AcDb3dPolylineVertex
 10
10768.68056042415
 20
-3158.414066005268
 30
0.0000001972506056
 70
    32
  0
VERTEX
  5
19D
330
19A
100
AcDbEntity
  8
MODEL
  6
Continuous
 62
     7
390
1D
100
AcDbVertex
100
AcDb3dPolylineVertex
 10
10767.54244546631
 20
-3162.165928212247
 30
0.000000197235267
 70
    32
  0
VERTEX
  5
19E
330
19A
100
AcDbEntity
  8
MODEL
  6
Continuous
 62
     7
390
1D
100
AcDbVertex
100
AcDb3dPolylineVertex
 10
10765.69424706214
 20
-3165.623664225337
 30
0.0000001972103586
 70
    32
  0
VERTEX
  5
19F
330
19A
100
AcDbEntity
  8
MODEL
  6
Continuous
 62
     7
390
1D
100
AcDbVertex
100
AcDb3dPolylineVertex
 10
10763.20699043982
 20
-3168.654395188676
 30
0.0000001971768374
 70
    32
  0
VERTEX
  5
1A0
330
19A
100
AcDbEntity
  8
MODEL
  6
Continuous
 62
     7
390
1D
100
AcDbVertex
100
AcDb3dPolylineVertex
 10
10760.17625947648
 20
-3171.141651810996
 30
0.0000001971359918
 70
    32
  0
VERTEX
  5
1A1
330
19A
100
AcDbEntity
  8
MODEL
  6
Continuous
 62
     7
390
1D
100
AcDbVertex
100
AcDb3dPolylineVertex
 10
10756.71852346339
 20
-3172.98985021517
 30
0.0000001970893914
 70
    32
  0
VERTEX
  5
1A2
330
19A
100
AcDbEntity
  8
MODEL
  6
Continuous
 62
     7
390
1D
100
AcDbVertex
100
AcDb3dPolylineVertex
 10
10752.96666125641
 20
-3174.12796517301
 30
0.000000197038827
 70
    32
  0
VERTEX
  5
1A3
330
19A
100
AcDbEntity
  8
MODEL
  6
Continuous
 62
     7
390
1D
100
AcDbVertex
100
AcDb3dPolylineVertex
 10
10749.06485481608
 20
-3174.512259564945
 30
0.0000001969862418
 70
    32
  0
SEQEND
  5
1A4
330
19A
100
AcDbEntity
  8
MODEL
  6
Continuous
 62
     7
390
1D
  0
POLYLINE
  5
1A5
330
A
100
AcDbEntity
  8
MODEL
  6
Continuous
 62
     7
390
1D
100
AcDb3dPolyline
 66
     1
 10
0.0
 20
0.0
 30
0.0
 70
     8
  0
VERTEX
  5
1A6
330
1A5
100
AcDbEntity
  8
MODEL
  6
Continuous
 62
     7
390
1D
100
AcDbVertex
100
AcDb3dPolylineVertex
 10
10749.06485481608
 20
-2959.186362628436
 30
0.000000173367785
 70
    32
  0
VERTEX
  5
1A7
330
1A5
100
AcDbEntity
  8
MODEL
  6
Continuous
 62
     7
390
1D
100
AcDbVertex
100
AcDb3dPolylineVertex
 10
10752.96666125641
 20
-2959.570657020371
 30
0.0000001732609723
 70
    32
  0
VERTEX
  5
1A8
330
1A5
100
AcDbEntity
  8
MODEL
  6
Continuous
 62
     7
390
1D
100
AcDbVertex
100
AcDb3dPolylineVertex
 10
10756.71852346339
 20
-2960.70877197821
 30
0.0000001731582644
 70
    32
  0
VERTEX
  5
1A9
330
1A5
100
AcDbEntity
  8
MODEL
  6
Continuous
 62
     7
390
1D
100
AcDbVertex
100
AcDb3dPolylineVertex
 10
10760.17625947648
 20
-2962.556970382385
 30
0.0000001730636083
 70
    32
  0
VERTEX
  5
1AA
330
1A5
100
AcDbEntity
  8
MODEL
  6
Continuous
 62
     7
390
1D
100
AcDbVertex
100
AcDb3dPolylineVertex
 10
10763.20699043982
 20
-2965.044227004705
 30
0.0000001729806415
 70
    32
  0
VERTEX
  5
1AB
330
1A5
100
AcDbEntity
  8
MODEL
  6
Continuous
 62
     7
390
1D
100
AcDbVertex
100
AcDb3dPolylineVertex
 10
10765.69424706214
 20
-2968.074957968044
 30
0.0000001729125524
 70
    32
  0
VERTEX
  5
1AC
330
1A5
100
AcDbEntity
  8
MODEL
  6
Continuous
 62
     7
390
1D
100
AcDbVertex
100
AcDb3dPolylineVertex
 10
10767.54244546631
 20
-2971.532693981134
 30
0.0000001728619576
 70
    32
  0
VERTEX
  5
1AD
330
1A5
100
AcDbEntity
  8
MODEL
  6
Continuous
 62
     7
390
1D
100
AcDbVertex
100
AcDb3dPolylineVertex
 10
10768.68056042415
 20
-2975.284556188113
 30
0.0000001728308015
 70
    32
  0
VERTEX
  5
1AE
330
1A5
100
AcDbEntity
  8
MODEL
  6
Continuous
 62
     7
390
1D
100
AcDbVertex
100
AcDb3dPolylineVertex
 10
10769.06485481608
 20
-2979.186362628436
 30
0.0000001728202814
 70
    32
  0
SEQEND
  5
1AF
330
1A5
100
AcDbEntity
  8
MODEL
  6
Continuous
 62
     7
390
1D
  0
POLYLINE
  5
1B0
330
A
100
AcDbEntity
  8
MODEL
  6
Continuous
 62
     7
390
1D
100
AcDb3dPolyline
 66
     1
 10
0.0
 20
0.0
 30
0.0
 70
     8
  0
VERTEX
  5
1B1
330
1B0
100
AcDbEntity
  8
MODEL
  6
Continuous
 62
     7
390
1D
100
AcDbVertex
100
AcDb3dPolylineVertex
 10
10749.06485481608
 20
-3174.512259564945
 30
0.0000001782938059
 70
    32
  0
VERTEX
  5
1B2
330
1B0
100
AcDbEntity
  8
MODEL
  6
Continuous
 62
     7
390
1D
100
AcDbVertex
100
AcDb3dPolylineVertex
 10
10525.32472843767
 20
-3174.512259564944
 30
0.0000000965035415
 70
    32
  0
SEQEND
  5
1B3
330
1B0
100
AcDbEntity
  8
MODEL
  6
Continuous
 62
     7
390
1D
  0
LINE
  5
1B4
330
A
100
AcDbEntity
  8
MODEL
  6
Continuous
 62
     7
390
1D
100
AcDbLine
 10
11345.52605388494
 20
-3957.47646157721
 30
0.0
 11
11289.6126280988
 21
-3957.476459607454
 31
0.0
  0
LINE
  5
1B5
330
A
100
AcDbEntity
  8
MODEL
  6
Continuous
 62
     7
390
1D
100
AcDbLine
 10
11731.72559459489
 20
-4047.44227526932
 30
0.0
 11
11731.72550991695
 21
-4047.43905802815
 31
0.0
  0
LINE
  5
1B6
330
A
100
AcDbEntity
  8
MODEL
  6
Continuous
 62
     7
390
1D
100
AcDbLine
 10
11760.2255946313
 20
-4045.0
 30
0.0
 11
11760.2255951368
 21
-3998.743017140011
 31
0.0
  0
LINE
  5
1B7
330
A
100
AcDbEntity
  8
MODEL
  6
Continuous
 62
     7
390
1D
100
AcDbLine
 10
11760.22559461557
 20
-4044.939058124316
 30
0.0
 11
11760.22559471128
 21
-4042.451034043518
 31
0.0
  0
SPLINE
  5
1B8
330
A
100
AcDbEntity
  8
MODEL
  6
Continuous
 62
     7
390
1D
100
AcDbSpline
210
0.0
220
0.0
230
1.0
 70
    12
 71
     2
 72
     8
 73
     5
 74
     0
 42
0.000000001
 43
0.000001
 40
0.0
 40
0.0
 40
0.0
 40
0.5
 40
0.5
 40
1.0
 40
1.0
 40
1.0
 10
11565.12142793113
 20
-4092.47507454743
 30
-0.0000000035198025
 41
1.0
 10
11565.12005818201
 20
-4092.474274030786
 30
-0.0000000035198025
 41
0.7071278284492432
 10
11542.12813123049
 20
-4092.474274030786
 30
-0.0000000035198025
 41
1.0
 10
11519.13620427897
 20
-4092.474274030786
 30
-0.0000000035198025
 41
0.7071278284492432
 10
11519.1348365387
 20
-4092.475074547432
 30
-0.0000000035198025
 41
1.0
  0
SPLINE
  5
1B9
330
A
100
AcDbEntity
  8
MODEL
  6
Continuous
 62
     7
390
1D
100
AcDbSpline
210
0.0
220
0.0
230
1.0
 70
    12
 71
     2
 72
    10
 73
     7
 74
     0
 42
0.000000001
 43
0.000001
 40
0.0
 40
0.0
 40
0.0
 40
1.0
 40
1.0
 40
2.0
 40
2.0
 40
3.0
 40
3.0
 40
3.0
 10
11519.1348365387
 20
-4092.475545169238
 30
0.0
 41
1.0
 10
11530.63148321586
 20
-4092.472120835389
 30
0.0
 41
1.0
 10
11542.12813122664
 20
-4092.474744652592
 30
0.0
 41
1.0
 10
11553.6233014595
 20
-4092.474744652592
 30
0.0
 41
1.0
 10
11565.11847169237
 20
-4092.474744652592
 30
0.0
 41
1.0
 10
11565.12005819726
 20
-4092.474744652592
 30
0.0
 41
0.9652371929161537
 10
11565.12142793113
 20
-4092.475545169236
 30
0.0
 41
1.0
  0
SPLINE
  5
1BA
330
A
100
AcDbEntity
  8
MODEL
  6
STYLE_05
 62
     7
390
1D
100
AcDbSpline
210
0.0
220
0.0
230
1.0
 70
    12
 71
     2
 72
   110
 73
   107
 74
     0
 42
0.000000001
 43
0.000001
 40
0.0
 40
0.0
 40
0.0
 40
1.0
 40
1.0
 40
2.0
 40
2.0
 40
3.0
 40
3.0
 40
4.0
 40
4.0
 40
5.0
 40
5.0
 40
6.0
 40
6.0
 40
7.0
 40
7.0
 40
8.0
 40
8.0
 40
9.0
 40
9.0
 40
10.0
 40
10.0
 40
11.0
 40
11.0
 40
12.0
 40
12.0
 40
13.0
 40
13.0
 40
14.0
 40
14.0
 40
15.0
 40
15.0
 40
16.0
 40
16.0
 40
17.0
 40
17.0
 40
18.0
 40
18.0
 40
19.0
 40
19.0
 40
20.0
 40
20.0
 40
21.0
 40
21.0
 40
22.0
 40
22.0
 40
23.0
 40
23.0
 40
24.0
 40
24.0
 40
25.0
 40
25.0
 40
26.0
 40
26.0
 40
27.0
 40
27.0
 40
28.0
 40
28.0
 40
29.0
 40
29.0
 40
30.0
 40
30.0
 40
31.0
 40
31.0
 40
32.0
 40
32.0
 40
33.0
 40
33.0
 40
34.0
 40
34.0
 40
35.0
 40
35.0
 40
36.0
 40
36.0
 40
37.0
 40
37.0
 40
38.0
 40
38.0
 40
39.0
 40
39.0
 40
40.0
 40
40.0
 40
41.0
 40
41.0
 40
42.0
 40
42.0
 40
43.0
 40
43.0
 40
44.0
 40
44.0
 40
45.0
 40
45.0
 40
46.0
 40
46.0
 40
47.0
 40
47.0
 40
48.0
 40
48.0
 40
49.0
 40
49.0
 40
50.0
 40
50.0
 40
51.0
 40
51.0
 40
52.0
 40
52.0
 40
53.0
 40
53.0
 40
53.0
 10
11517.42781821542
 20
-4056.964066057358
 30
0.0
 41
1.0
 10
11517.44952072885
 20
-4056.982269766316
 30
0.0
 41
1.0
 10
11517.47119374719
 20
-4057.00051111171
 30
0.0
 41
1.0
 10
11517.49286676555
 20
-4057.018752457112
 30
0.0
 41
0.9999975681596571
 10
11517.51445911524
 20
-4057.037089219107
 30
0.0
 41
1.0
 10
11517.51517936775
 20
-4057.037700875506
 30
0.0
 41
1.0
 10
11517.51589962026
 20
-4057.038312531905
 30
0.0
 41
1.0
 10
11517.53893209292
 20
-4057.05787227762
 30
0.0
 41
0.9999938803666057
 10
11517.56182714463
 20
-4057.077592699929
 30
0.0
 41
1.0
 10
11517.58472106662
 20
-4057.097312136561
 30
0.0
 41
0.9999885095127182
 10
11517.60742487511
 20
-4057.117250163664
 30
0.0
 41
1.0
 10
11517.63012289408
 20
-4057.137182996539
 30
0.0
 41
0.9999814378016308
 10
11517.65257633272
 20
-4057.15739094014
 30
0.0
 41
1.0
 10
11517.65272748917
 20
-4057.157526979933
 30
0.0
 41
1.0
 10
11517.65287864563
 20
-4057.157663019727
 30
0.0
 41
1.0
 10
11517.6750247295
 20
-4057.177594346103
 30
0.0
 41
0.9999725156786949
 10
11517.69687284382
 20
-4057.197851855886
 30
0.0
 41
1.0
 10
11517.69701726965
 20
-4057.197985767114
 30
0.0
 41
1.0
 10
11517.69716169549
 20
-4057.198119678342
 30
0.0
 41
1.0
 10
11517.71872095813
 20
-4057.218109365671
 30
0.0
 41
0.9999668087488214
 10
11517.73995163824
 20
-4057.238447694695
 30
0.0
 41
1.0
 10
11517.76118219767
 20
-4057.258785903977
 30
0.0
 41
0.9999611835937107
 10
11517.78205108036
 20
-4057.279495060072
 30
0.0
 41
1.0
 10
11517.80291928024
 20
-4057.300203517003
 30
0.0
 41
0.9999549786947888
 10
11517.82339073592
 20
-4057.321304262417
 30
0.0
 41
1.0
 10
11517.84386141207
 20
-4057.342404195019
 30
0.0
 41
0.9999482507755727
 10
11517.86389856183
 20
-4057.363916246692
 30
0.0
 41
1.0
 10
11517.8839354942
 20
-4057.385428064977
 30
0.0
 41
0.9999411009079943
 10
11517.90350078398
 20
-4057.407369724458
 30
0.0
 41
1.0
 10
11517.90390485662
 20
-4057.407822875135
 30
0.0
 41
1.0
 10
11517.90430892926
 20
-4057.408276025811
 30
0.0
 41
1.0
 10
11517.92468236432
 20
-4057.431123986646
 30
0.0
 41
0.9999215120760212
 10
11517.94447693532
 20
-4057.454475242067
 30
0.0
 41
1.0
 10
11517.94698702722
 20
-4057.457436346766
 30
0.0
 41
1.0
 10
11517.94949711912
 20
-4057.460397451464
 30
0.0
 41
1.0
 10
11517.97431187392
 20
-4057.489670916281
 30
0.0
 41
0.9998321143993009
 10
11517.99803737359
 20
-4057.519833947682
 30
0.0
 41
1.0
 10
11518.00006224331
 20
-4057.522408233142
 30
0.0
 41
1.0
 10
11518.00208711302
 20
-4057.524982518602
 30
0.0
 41
1.0
 10
11518.0298612798
 20
-4057.560292646421
 30
0.0
 41
0.9998221554692668
 10
11518.05628410817
 20
-4057.596625050785
 30
0.0
 41
1.0
 10
11518.08270191404
 20
-4057.632950079595
 30
0.0
 41
0.9998109014263744
 10
11518.10768722661
 20
-4057.670274901633
 30
0.0
 41
1.0
 10
11518.13266370891
 20
-4057.707585858534
 30
0.0
 41
0.9997985013068172
 10
11518.15612242001
 20
-4057.745869288972
 30
0.0
 41
1.0
 10
11518.15615181413
 20
-4057.745917258697
 30
0.0
 41
1.0
 10
11518.15618120825
 20
-4057.745965228421
 30
0.0
 41
1.0
 10
11518.179576251
 20
-4057.784144755326
 30
0.0
 41
0.9997850365378348
 10
11518.20136832451
 20
-4057.82326137368
 30
0.0
 41
1.0
 10
11518.20337383603
 20
-4057.826861252705
 30
0.0
 41
1.0
 10
11518.20537934754
 20
-4057.83046113173
 30
0.0
 41
1.0
 10
11518.22316039803
 20
-4057.862377992034
 30
0.0
 41
0.9997724351813021
 10
11518.23956383861
 20
-4057.895024260818
 30
0.0
 41
1.0
 10
11518.25596727918
 20
-4057.927670529601
 30
0.0
 41
0.9999087099854659
 10
11518.27148258383
 20
-4057.960748120953
 30
0.0
 41
1.0
 10
11518.27277227989
 20
-4057.96349766665
 30
0.0
 41
1.0
 10
11518.27406197595
 20
-4057.966247212347
 30
0.0
 41
1.0
 10
11518.29215667272
 20
-4058.004823895093
 30
0.0
 41
0.9996543291008186
 10
11518.30819860835
 20
-4058.044298378039
 30
0.0
 41
1.0
 10
11518.31087567205
 20
-4058.050885844025
 30
0.0
 41
1.0
 10
11518.31355273575
 20
-4058.057473310011
 30
0.0
 41
1.0
 10
11518.3349530577
 20
-4058.11013495842
 30
0.0
 41
0.9996751985543422
 10
11518.35364226321
 20
-4058.163818629962
 30
0.0
 41
1.0
 10
11518.37233871531
 20
-4058.217524715052
 30
0.0
 41
0.9996932930498188
 10
11518.3883529554
 20
-4058.272090684402
 30
0.0
 41
1.0
 10
11518.4043709611
 20
-4058.326670051184
 30
0.0
 41
0.9997092307296541
 10
11518.41773892116
 20
-4058.381958218351
 30
0.0
 41
1.0
 10
11518.41904657211
 20
-4058.387366494855
 30
0.0
 41
1.0
 10
11518.42035422306
 20
-4058.392774771358
 30
0.0
 41
1.0
 10
11518.43110765914
 20
-4058.437249602893
 30
0.0
 41
0.9997218863434414
 10
11518.43975203261
 20
-4058.482182016971
 30
0.0
 41
1.0
 10
11518.44099732328
 20
-4058.488654888194
 30
0.0
 41
1.0
 10
11518.44224261395
 20
-4058.495127759416
 30
0.0
 41
1.0
 10
11518.44839640607
 20
-4058.52711443105
 30
0.0
 41
0.9999034695638581
 10
11518.45365904321
 20
-4058.559259741281
 30
0.0
 41
1.0
 10
11518.45382541692
 20
-4058.5602759874
 30
0.0
 41
1.0
 10
11518.45399179063
 20
-4058.561292233519
 30
0.0
 41
1.0
 10
11518.45892168035
 20
-4058.591405051511
 30
0.0
 41
0.9999349318700284
 10
11518.46316330519
 20
-4058.621622500753
 30
0.0
 41
1.0
 10
11518.46740505361
 20
-4058.651840990338
 30
0.0
 41
0.9999436483646194
 10
11518.4710042813
 20
-4058.682142724652
 30
0.0
 41
1.0
 10
11518.47460377734
 20
-4058.7124469632
 30
0.0
 41
0.9999517588915285
 10
11518.47760728577
 20
-4058.742816062344
 30
0.0
 41
1.0
 10
11518.48061097958
 20
-4058.773187128754
 30
0.0
 41
0.9999591277784405
 10
11518.48306502476
 20
-4058.803607541532
 30
0.0
 41
1.0
 10
11518.48308826676
 20
-4058.803895650018
 30
0.0
 41
1.0
 10
11518.48311150876
 20
-4058.804183758503
 30
0.0
 41
1.0
 10
11518.48551911056
 20
-4058.834028457689
 30
0.0
 41
0.9999657864443159
 10
11518.48743264921
 20
-4058.86390890256
 30
0.0
 41
1.0
 10
11518.4874517248
 20
-4058.864206773253
 30
0.0
 41
1.0
 10
11518.48747080039
 20
-4058.864504643946
 30
0.0
 41
1.0
 10
11518.48934618787
 20
-4058.893789347431
 30
0.0
 41
0.9999755680804953
 10
11518.49081198875
 20
-4058.923097407144
 30
0.0
 41
1.0
 10
11518.49227743095
 20
-4058.95239614832
 30
0.0
 41
0.9999834619004752
 10
11518.49340577786
 20
-4058.981709807057
 30
0.0
 41
1.0
 10
11518.49453378508
 20
-4059.011014793256
 30
0.0
 41
0.9999897636170259
 10
11518.49539655792
 20
-4059.040328787173
 30
0.0
 41
1.0
 10
11518.4962593582
 20
-4059.069643796464
 30
0.0
 41
0.9999945286176982
 10
11518.49692819372
 20
-4059.098963872403
 30
0.0
 41
1.0
 10
11518.4969491056
 20
-4059.099880596778
 30
0.0
 41
1.0
 10
11518.49697001748
 20
-4059.100797321154
 30
0.0
 41
1.0
 10
11518.49759703768
 20
-4059.128284317707
 30
0.0
 41
0.999997857737578
 10
11518.49811026152
 20
-4059.15577367447
 30
0.0
 41
1.0
 10
11518.49862348535
 20
-4059.183263031223
 30
0.0
 41
1.0
 10
11518.49906178536
 20
-4059.208919401365
 30
0.0
 41
1.0
 10
11518.49907747955
 20
-4059.209835648105
 30
0.0
 41
1.0
 10
11518.49909317375
 20
-4059.210751894844
 30
0.0
 41
1.0
  0
LINE
  5
1BB
330
A
100
AcDbEntity
  8
MODEL
  6
STYLE_05
 62
     7
390
1D
100
AcDbLine
 10
11518.49909317375
 20
-4059.210751894844
 30
0.0
 11
11519.07040154152
 21
-4092.47644389739
 31
0.0
  0
LINE
  5
1BC
330
A
100
AcDbEntity
  8
MODEL
  6
STYLE_05
 62
     7
390
1D
100
AcDbLine
 10
11504.52920200003
 20
-4046.141608196441
 30
0.0
 11
11517.42781821542
 21
-4056.964066057358
 31
0.0
  0
LINE
  5
1BD
330
A
100
AcDbEntity
  8
MODEL
  6
STYLE_05
 62
     7
390
1D
100
AcDbLine
 10
11565.79893958483
 20
-4057.796986124094
 30
0.0
 11
11580.45406436555
 21
-4045.531624361275
 31
0.0
  0
LWPOLYLINE
  5
1BE
330
A
100
AcDbEntity
  8
MODEL
  6
STYLE_05
 62
     7
390
1D
100
AcDbPolyline
 90
       53
 70
   128
 43
0.0
 10
11496.17203672397
 20
-4042.687688528494
 42
-0.0003506136061619
 10
11496.42090608525
 20
-4042.709207280155
 10
11496.45201606834
 20
-4042.711919217238
 42
-0.0014982049520864
 10
11496.70081117468
 20
-4042.73435868039
 10
11496.74226784181
 20
-4042.738223028398
 42
-0.0011644408196551
 10
11496.90804548092
 20
-4042.754065366352
 42
-0.0013456798462166
 10
11497.07374134826
 20
-4042.770739729316
 10
11497.11515403809
 20
-4042.775019801078
 42
-0.0036372016796198
 10
11497.36343045746
 20
-4042.802506342265
 10
11497.40499619982
 20
-4042.807414384659
 42
-0.0044024212564893
 10
11497.72656079663
 20
-4042.848258264577
 10
11497.72678673158
 20
-4042.848288985672
 42
-0.0049881759156965
 10
11498.04707283107
 20
-4042.895098170233
 10
11498.04786936863
 20
-4042.895222710959
 42
-0.0055920743724355
 10
11498.36549917323
 20
-4042.948530710462
 10
11498.37386450432
 20
-4042.950031047285
 42
-0.0061670073994198
 10
11498.67345751003
 20
-4043.007586228322
 10
11498.68099914431
 20
-4043.009131745378
 42
-0.0059332749532267
 10
11498.96406892815
 20
-4043.070650397382
 42
-0.0061751768759779
 10
11499.24556346254
 20
-4043.139004668706
 42
-0.0064205724085042
 10
11499.52524423897
 20
-4043.214426948785
 10
11499.5604957444
 20
-4043.224420615602
 42
-0.0099496895206807
 10
11499.90028505703
 20
-4043.328096786891
 10
11499.93510367581
 20
-4043.339482684472
 42
-0.0066575442152825
 10
11500.20197779562
 20
-4043.430702936378
 42
-0.006716698319066
 10
11500.46631635773
 20
-4043.529027923253
 10
11500.49508816641
 20
-4043.540172269816
 42
-0.0097980795298124
 10
11500.81308123371
 20
-4043.670563571804
 10
11500.84139435279
 20
-4043.682826638495
 42
-0.0067560187991318
 10
11501.09863134258
 20
-4043.798394258662
 42
-0.0066713941847645
 10
11501.35267303207
 20
-4043.920827608731
 10
11501.39604226922
 20
-4043.942446783451
 42
-0.0110439289832304
 10
11501.73117305598
 20
-4044.118845472904
 10
11501.77364163328
 20
-4044.142411304856
 42
-0.0062792541257978
 10
11502.01806539765
 20
-4044.282085263873
 42
-0.0060164094211261
 10
11502.25898585352
 20
-4044.427730134848
 42
-0.0057738865154555
 10
11502.49641007031
 20
-4044.579018011257
 10
11502.51238924103
 20
-4044.589461395359
 42
-0.0068912164056743
 10
11502.77756343808
 20
-4044.768032771467
 10
11502.79324056487
 20
-4044.778906940133
 42
-0.0050493452317196
 10
11503.02970847451
 20
-4044.946490823741
 42
-0.0045652720640671
 10
11503.26291681664
 20
-4045.118595378073
 10
11503.28748677555
 20
-4045.137076544847
 42
-0.0040633493663675
 10
11503.46886046488
 20
-4045.275825352913
 42
-0.0021457320099672
 10
11503.64850149353
 20
-4045.416819081208
 10
11503.65909074688
 20
-4045.425203887683
 42
-0.0034361488919991
 10
11503.85820629822
 20
-4045.585106553009
 10
11503.85918859005
 20
-4045.585906562788
 42
-0.0013363316178761
 10
11504.05873732449
 20
-4045.749314468878
 42
-0.0017701528081391
 10
11504.2572706654
 20
-4045.913962069566
 10
11504.29026389626
 20
-4045.941521727353
 42
-0.0005948970140848
 10
11504.52097047529
 20
-4046.134700298045
 10
11504.52920200007
 20
-4046.141608196441
  0
LWPOLYLINE
  5
1BF
330
A
100
AcDbEntity
  8
MODEL
  6
STYLE_05
 62
     7
390
1D
100
AcDbPolyline
 90
       47
 70
   128
 43
0.0
 10
11580.45406436554
 20
-4045.531624361275
 10
11580.46341366339
 20
-4045.523775268389
 42
-0.0006214287289985
 10
11580.66934576312
 20
-4045.351323285079
 10
11580.67246985481
 20
-4045.348713702146
 42
-0.0013908516348141
 10
11580.87283103518
 20
-4045.182294175427
 10
11580.87308073522
 20
-4045.182087946247
 42
-0.0021633558955368
 10
11581.07411753922
 20
-4045.017508056721
 10
11581.08207327624
 20
-4045.01105233785
 42
-0.0029594691822931
 10
11581.26879673307
 20
-4044.861358932766
 10
11581.27657610994
 20
-4044.855197605159
 42
-0.0030145333028376
 10
11581.44944212459
 20
-4044.719974299775
 42
-0.0033913613807688
 10
11581.62402572829
 20
-4044.586977226116
 42
-0.0037776973337952
 10
11581.80050083024
 20
-4044.456495089509
 42
-0.0041563316002004
 10
11581.97902639149
 20
-4044.328827936904
 10
11582.02132421708
 20
-4044.299108214019
 42
-0.0086336557449364
 10
11582.28337455296
 20
-4044.121662049809
 10
11582.30434868415
 20
-4044.107981677833
 42
-0.0045785676812088
 10
11582.52882912229
 20
-4043.964477140514
 42
-0.0071111068716751
 10
11582.75658942259
 20
-4043.826267663529
 10
11582.82550988115
 20
-4043.785775092132
 42
-0.0100290301358181
 10
11583.1042043323
 20
-4043.629467659081
 10
11583.13310848985
 20
-4043.614010318489
 42
-0.0052456801112044
 10
11583.35836229223
 20
-4043.496571482843
 42
-0.0074620772522443
 10
11583.58651490041
 20
-4043.384901105393
 10
11583.63612612569
 20
-4043.361529832034
 42
-0.0105092067097162
 10
11583.968279471
 20
-4043.21350418971
 10
11583.999954583
 20
-4043.200178699755
 42
-0.0099551123529034
 10
11584.40180429472
 20
-4043.040465558887
 10
11584.41410461671
 20
-4043.035858246688
 42
-0.0094236462903023
 10
11584.79713843428
 20
-4042.900560895709
 10
11584.84153727547
 20
-4042.885813150118
 42
-0.0078605057942772
 10
11585.13979980674
 20
-4042.791920360352
 10
11585.17202511479
 20
-4042.782329972074
 42
-0.0046332755651873
 10
11585.40794183519
 20
-4042.714493418597
 42
-0.0041545630559377
 10
11585.64501622095
 20
-4042.650812986541
 10
11585.65227618896
 20
-4042.648927423681
 42
-0.0036691772640161
 10
11585.87577282907
 20
-4042.592628177147
 42
-0.0028438891265468
 10
11586.09998625646
 20
-4042.539244336848
 10
11586.10174268822
 20
-4042.538836683565
 42
-0.002718602926404
 10
11586.33005362738
 20
-4042.48715420602
 10
11586.33914136847
 20
-4042.485148905263
 42
-0.0019625483786306
 10
11586.58612112102
 20
-4042.43166612332
 10
11586.5899832549
 20
-4042.430845645606
 42
-0.0012087999987233
 10
11586.82957265074
 20
-4042.380551965629
 10
11586.83344027058
 20
-4042.379749847261
 42
-0.0004437329764556
 10
11587.06545853035
 20
-4042.331845544538
 10
11587.07319353774
 20
-4042.330255045227
  0
LINE
  5
1C0
330
A
100
AcDbEntity
  8
MODEL
  6
STYLE_05
 62
     7
390
1D
100
AcDbLine
 10
11587.07319353774
 20
-4042.330255045227
 30
0.0
 11
11600.86579756403
 21
-4039.495153750538
 31
0.0
  0
LINE
  5
1C1
330
A
100
AcDbEntity
  8
MODEL
  6
Continuous
 62
     7
390
1D
100
AcDbLine
 10
11286.79957215584
 20
-3957.47644389739
 30
0.0
 11
11289.61256087114
 21
-3957.47644389739
 31
0.0
  0
LINE
  5
1C2
330
A
100
AcDbEntity
  8
MODEL
  6
Continuous
 62
     7
390
1D
100
AcDbLine
 10
11758.72560396385
 20
-3912.47644389739
 30
0.0
 11
11712.43016153043
 21
-3912.47644389739
 31
0.0
  0
LINE
  5
1C3
330
A
100
AcDbEntity
  8
MODEL
  6
Continuous
 62
     7
390
1D
100
AcDbLine
 10
11677.43015559523
 20
-3912.476443897392
 30
0.0
 11
11643.64296526428
 21
-3912.47644389739
 31
0.0
  0
LINE
  5
1C4
330
A
100
AcDbEntity
  8
MODEL
  6
Continuous
 62
     7
390
1D
100
AcDbLine
 10
11330.61674095502
 20
-3912.47644389739
 30
0.0
 11
11286.22355547251
 21
-3912.47644389739
 31
0.0
  0
LINE
  5
1C5
330
A
100
AcDbEntity
  8
MODEL
  6
Continuous
 62
     7
390
1D
100
AcDbLine
 10
11760.22560396385
 20
-3913.97644389739
 30
0.0
 11
11760.22560396385
 21
-3998.0
 31
0.0
  0
ARC
  5
1C6
330
A
100
AcDbEntity
  8
MODEL
  6
Continuous
 62
     7
390
1D
100
AcDbCircle
 10
11758.72560396385
 20
-3913.97644389739
 30
0.0
 40
1.5
100
AcDbArc
 50
0.0000000002084408
 51
90.0
  0
ARC
  5
1C7
330
A
100
AcDbEntity
  8
MODEL
  6
Continuous
 62
     7
390
1D
100
AcDbCircle
 10
11604.94269824643
 20
-4024.646949372859
 30
0.0
 40
50.00000000000051
100
AcDbArc
 50
289.1248985861804
 51
332.4522956418719
  0
LINE
  5
1C8
330
A
100
AcDbEntity
  8
MODEL
  6
Continuous
 62
     7
390
1D
100
AcDbLine
 10
11280.22446905959
 20
-3918.581158582258
 30
0.0
 11
11280.80048620164
 21
-3951.581158548984
 31
0.0
  0
ARC
  5
1C9
330
A
100
AcDbEntity
  8
MODEL
  6
Continuous
 62
     7
390
1D
100
AcDbCircle
 10
11286.22364683097
 20
-3918.476533917118
 30
0.0
 40
6.000090020423825
100
AcDbArc
 50
90.00087239591463
 51
180.9991276038639
  0
ARC
  5
1CA
330
A
100
AcDbEntity
  8
MODEL
  6
Continuous
 62
     7
390
1D
100
AcDbCircle
 10
11286.79965610531
 20
-3951.476358686555
 30
0.0
 40
6.000085211423412
100
AcDbArc
 50
181.0008016468962
 51
269.9991983527407
  0
LINE
  5
1CB
330
A
100
AcDbEntity
  8
MODEL
  6
Continuous
 62
     7
390
1D
100
AcDbLine
 10
11508.38378396646
 20
-4092.475545169238
 30
0.0
 11
11519.1348365387
 21
-4092.475074547432
 31
0.0
  0
LINE
  5
1CC
330
A
100
AcDbEntity
  8
MODEL
  6
Continuous
 62
     7
390
1D
100
AcDbLine
 10
11505.39520899043
 20
-4089.73711658071
 30
0.0
 11
11502.70566371023
 21
-4062.761050423024
 31
0.0
  0
ARC
  5
1CD
330
A
100
AcDbEntity
  8
MODEL
  6
Continuous
 62
     7
390
1D
100
AcDbCircle
 10
11508.38380051177
 20
-4089.475527114274
 30
0.0
 40
3.000018055008176
100
AcDbArc
 50
185.0023133170869
 51
269.999684009683
  0
ARC
  5
1CE
330
A
100
AcDbEntity
  8
MODEL
  6
Continuous
 62
     7
390
1D
100
AcDbCircle
 10
11494.73612963754
 20
-4063.45857494852
 30
0.0
 40
8.00000086247131
100
AcDbArc
 50
5.002002291252621
 51
83.44752026871262
  0
LINE
  5
1CF
330
A
100
AcDbEntity
  8
MODEL
  6
Continuous
 62
     7
390
1D
100
AcDbLine
 10
11621.32412360891
 20
-4071.887280691483
 30
0.0
 11
11580.10472576449
 21
-4086.180840250169
 31
0.0
  0
ARC
  5
1D0
330
A
100
AcDbEntity
  8
MODEL
  6
STYLE_05
 62
     7
390
1D
100
AcDbCircle
 10
11643.64296526428
 20
-3927.47644389739
 30
0.0
 40
14.99999999999977
100
AcDbArc
 50
90.0
 51
174.9999999997893
  0
LINE
  5
1D1
330
A
100
AcDbEntity
  8
MODEL
  6
STYLE_05
 62
     7
390
1D
100
AcDbLine
 10
11620.73709625281
 20
-4017.18602605366
 30
0.0
 11
11625.79002443699
 21
-3959.430792626382
 31
0.0
  0
ARC
  5
1D2
330
A
100
AcDbEntity
  8
MODEL
  6
STYLE_05
 62
     7
390
1D
100
AcDbCircle
 10
11595.83222880051
 20
-4015.00713248497
 30
0.0
 40
24.99999999999968
100
AcDbArc
 50
281.6154904157262
 51
355.0000000000013
  0
LINE
  5
1D3
330
A
100
AcDbEntity
  8
MODEL
  6
STYLE_05
 62
     7
390
1D
100
AcDbLine
 10
11625.79002443699
 20
-3959.430792626382
 30
0.0
 11
11627.88176226293
 21
-3935.522119872182
 31
0.0
  0
LINE
  5
1D4
330
A
100
AcDbEntity
  8
MODEL
  6
STYLE_05
 62
     7
390
1D
100
AcDbLine
 10
11627.88176226293
 20
-3935.522119872182
 30
0.0
 11
11628.7000447929
 21
-3926.169107756175
 31
0.0
  0
LINE
  5
1D5
330
A
100
AcDbEntity
  8
MODEL
  6
Continuous
 62
     7
390
1D
100
AcDbLine
 10
11280.22475401695
 20
-3918.635984851343
 30
0.0
 11
11280.22560396361
 21
-3918.741028662259
 31
0.0
  0
LINE
  5
1D6
330
A
100
AcDbEntity
  8
MODEL
  6
Continuous
 62
     7
390
1D
100
AcDbLine
 10
11280.22560396361
 20
-3918.741028662259
 30
0.0
 11
11280.22437951334
 21
-3918.581164448505
 31
0.0
  0
LINE
  5
1D7
330
A
100
AcDbEntity
  8
MODEL
  6
Continuous
 62
     7
390
1D
100
AcDbLine
 10
11286.09617601902
 20
-3912.477807535045
 30
0.0
 11
11286.16521507432
 21
-3912.474914540463
 31
0.0
  0
LINE
  5
1D8
330
A
100
AcDbEntity
  8
MODEL
  6
Continuous
 62
     7
390
1D
100
AcDbLine
 10
11286.16521507432
 20
-3912.474914540463
 30
0.0
 11
11286.1049002653
 21
-3912.477029011078
 31
0.0
  0
LINE
  5
1D9
330
A
100
AcDbEntity
  8
MODEL
  6
Continuous
 62
     7
390
1D
100
AcDbLine
 10
11286.22353513762
 20
-3912.475794410951
 30
0.0
 11
11286.33386759193
 21
-3912.474058089762
 31
0.0
  0
LINE
  5
1DA
330
A
100
AcDbEntity
  8
MODEL
  6
Continuous
 62
     7
390
1D
100
AcDbLine
 10
11731.7255945949
 20
-4047.442275269656
 30
0.0
 11
11648.64323759743
 21
-4047.442275269656
 31
0.0
  0
LINE
  5
1DB
330
A
100
AcDbEntity
  8
MODEL
  6
Continuous
 62
     7
390
1D
100
AcDbLine
 10
11731.72550991695
 20
-4047.43905802815
 30
0.0
 11
11757.72559461557
 21
-4047.43905802815
 31
0.0
  0
ARC
  5
1DC
330
A
100
AcDbEntity
  8
MODEL
  6
Continuous
 62
     7
390
1D
100
AcDbCircle
 10
11757.72559461557
 20
-4044.93905802815
 30
0.0
 40
2.5
100
AcDbArc
 50
270.0
 51
359.9999977960301
  0
LINE
  5
1DD
330
A
100
AcDbEntity
  8
MODEL
  6
Continuous
 62
     7
390
1D
100
AcDbLine
 10
11712.93019092206
 20
-3925.47644389739
 30
0.0
 11
11712.93016153043
 21
-3912.47644389739
 31
0.0
  0
LINE
  5
1DE
330
A
100
AcDbEntity
  8
MODEL
  6
Continuous
 62
     7
390
1D
100
AcDbLine
 10
11677.43018498686
 20
-3912.47644389739
 30
0.0
 11
11677.43018498686
 21
-3925.476443897392
 31
0.0
  0
LINE
  5
1DF
330
A
100
AcDbEntity
  8
MODEL
  6
STYLE_05
 62
     7
390
1D
100
AcDbLine
 10
11565.10636173351
 20
-4092.474744652592
 30
0.0
 11
11565.710370377
 21
-4057.871112642384
 31
0.0
  0
LINE
  5
1E0
330
A
100
AcDbEntity
  8
MODEL
  6
Continuous
 62
     7
390
1D
100
AcDbLine
 10
11565.12813223498
 20
-4092.474274030786
 30
0.0
 11
11575.1395481407
 21
-4092.474274030786
 31
0.0
  0
ARC
  5
1E1
330
A
100
AcDbEntity
  8
MODEL
  6
Continuous
 62
     7
390
1D
100
AcDbCircle
 10
11575.1395481407
 20
-4089.474274030782
 30
0.0
 40
3.000000000001819
100
AcDbArc
 50
270.0000000000173
 51
352.455792912571
  0
ARC
  5
1E2
330
A
100
AcDbEntity
  8
MODEL
  6
Continuous
 62
     7
390
1D
100
AcDbCircle
 10
11581.08761128624
 20
-4089.015260129286
 30
0.0
 40
3.000000000000875
100
AcDbArc
 50
109.1248985861781
 51
172.4557929125676
  0
LINE
  5
1E3
330
A
100
AcDbEntity
  8
MODEL
  6
STYLE_05
 62
     7
390
1D
100
AcDbLine
 10
11518.46316419458
 20
-4057.796986124097
 30
0.0
 11
11565.8047788943
 21
-4057.796986124097
 31
0.0
  0
LINE
  5
1E4
330
A
100
AcDbEntity
  8
MODEL
  6
STYLE_02
 62
     7
390
1D
100
AcDbLine
 10
11583.28701424223
 20
-4043.53301802345
 30
0.0
 11
11500.47659117298
 21
-4043.533018023459
 31
0.0
  0
LINE
  5
1E5
330
A
100
AcDbEntity
  8
MODEL
  6
STYLE_05
 62
     7
390
1D
100
AcDbLine
 10
11627.88176226293
 20
-3935.52211987218
 30
0.0
 11
11637.84370924385
 21
-3936.393677299658
 31
0.0
  0
LINE
  5
1E6
330
A
100
AcDbEntity
  8
MODEL
  6
STYLE_05
 62
     7
390
1D
100
AcDbLine
 10
11625.79002443699
 20
-3959.430792626382
 30
0.0
 11
11635.75197141791
 21
-3960.302350053859
 31
0.0
  0
LINE
  5
1E7
330
A
100
AcDbEntity
  8
MODEL
  6
Continuous
 62
     7
390
1D
100
AcDbLine
 10
11330.61674095502
 20
-3912.47644389739
 30
0.0
 11
11643.64296526428
 21
-3912.47644389739
 31
0.0
  0
LINE
  5
1E8
330
A
100
AcDbEntity
  8
MODEL
  6
STYLE_05
 62
     7
390
1D
100
AcDbLine
 10
11611.09259104188
 20
-4034.809186526466
 30
0.0
 11
11431.69806737785
 21
-4034.809186526466
 31
0.0
  0
ARC
  5
1E9
330
A
100
AcDbEntity
  8
MODEL
  6
STYLE_05
 62
     7
390
1D
100
AcDbCircle
 10
11330.61648577436
 20
-3927.476829534792
 30
0.0
 40
15.00038563957281
100
AcDbArc
 50
23.01485134454163
 51
89.99902530675341
  0
POLYLINE
  5
1EA
330
A
100
AcDbEntity
  8
MODEL
  6
Continuous
 62
     7
390
1D
100
AcDb3dPolyline
 66
     1
 10
0.0
 20
0.0
 30
0.0
 70
     8
  0
VERTEX
  5
1EB
330
1EA
100
AcDbEntity
  8
MODEL
  6
Continuous
 62
     7
390
1D
100
AcDbVertex
100
AcDb3dPolylineVertex
 10
11374.45084630409
 20
-4026.395163493731
 30
-0.0000000044268816
 70
    32
  0
VERTEX
  5
1EC
330
1EA
100
AcDbEntity
  8
MODEL
  6
Continuous
 62
     7
390
1D
100
AcDbVertex
100
AcDb3dPolylineVertex
 10
11345.52605388494
 20
-3957.47646157721
 30
-0.0000000044268816
 70
    32
  0
SEQEND
  5
1ED
330
1EA
100
AcDbEntity
  8
MODEL
  6
Continuous
 62
     7
390
1D
  0
POLYLINE
  5
1EE
330
A
100
AcDbEntity
  8
MODEL
  6
Continuous
 62
     7
390
1D
100
AcDb3dPolyline
 66
     1
 10
0.0
 20
0.0
 30
0.0
 70
     8
  0
VERTEX
  5
1EF
330
1EE
100
AcDbEntity
  8
MODEL
  6
Continuous
 62
     7
390
1D
100
AcDbVertex
100
AcDb3dPolylineVertex
 10
11374.45084630409
 20
-4026.395163493729
 30
-0.0000000044268816
 70
    32
  0
VERTEX
  5
1F0
330
1EE
100
AcDbEntity
  8
MODEL
  6
Continuous
 62
     7
390
1D
100
AcDbVertex
100
AcDb3dPolylineVertex
 10
11376.76763282078
 20
-4031.009045470364
 30
-0.000000004423004
 70
    32
  0
VERTEX
  5
1F1
330
1EE
100
AcDbEntity
  8
MODEL
  6
Continuous
 62
     7
390
1D
100
AcDbVertex
100
AcDb3dPolylineVertex
 10
11379.68845513455
 20
-4035.266298536562
 30
-0.0000000044114428
 70
    32
  0
VERTEX
  5
1F2
330
1EE
100
AcDbEntity
  8
MODEL
  6
Continuous
 62
     7
390
1D
100
AcDbVertex
100
AcDb3dPolylineVertex
 10
11383.1593965511
 20
-4039.088336257611
 30
-0.0000000043924115
 70
    32
  0
VERTEX
  5
1F3
330
1EE
100
AcDbEntity
  8
MODEL
  6
Continuous
 62
     7
390
1D
100
AcDbVertex
100
AcDb3dPolylineVertex
 10
11387.11638549499
 20
-4042.404606022901
 30
-0.0000000043662612
 70
    32
  0
VERTEX
  5
1F4
330
1EE
100
AcDbEntity
  8
MODEL
  6
Continuous
 62
     7
390
1D
100
AcDbVertex
100
AcDb3dPolylineVertex
 10
11391.48637823392
 20
-4045.153891406407
 30
-0.0000000043334748
 70
    32
  0
VERTEX
  5
1F5
330
1EE
100
AcDbEntity
  8
MODEL
  6
Continuous
 62
     7
390
1D
100
AcDbVertex
100
AcDb3dPolylineVertex
 10
11396.18870722388
 20
-4047.285442186579
 30
-0.0000000042946574
 70
    32
  0
VERTEX
  5
1F6
330
1EE
100
AcDbEntity
  8
MODEL
  6
Continuous
 62
     7
390
1D
100
AcDbVertex
100
AcDb3dPolylineVertex
 10
11401.13657018546
 20
-4048.759911166147
 30
-0.0000000042505256
 70
    32
  0
VERTEX
  5
1F7
330
1EE
100
AcDbEntity
  8
MODEL
  6
Continuous
 62
     7
390
1D
100
AcDbVertex
100
AcDb3dPolylineVertex
 10
11406.23863242383
 20
-4049.550080498675
 30
-0.0000000042018941
 70
    32
  0
SEQEND
  5
1F8
330
1EE
100
AcDbEntity
  8
MODEL
  6
Continuous
 62
     7
390
1D
  0
LINE
  5
1F9
330
A
100
AcDbEntity
  8
MODEL
  6
Continuous
 62
     7
390
1D
100
AcDbLine
 10
11712.93016153043
 20
-3912.47644389739
 30
0.0
 11
11677.43015559523
 21
-3912.476443897392
 31
0.0
  0
POLYLINE
  5
1FA
330
A
100
AcDbEntity
  8
MODEL
  6
Continuous
 62
     7
390
1D
100
AcDb3dPolyline
 66
     1
 10
0.0
 20
0.0
 30
0.0
 70
     8
  0
VERTEX
  5
1FB
330
1FA
100
AcDbEntity
  8
MODEL
  6
Continuous
 62
     7
390
1D
100
AcDbVertex
100
AcDb3dPolylineVertex
 10
11495.64903551544
 20
-4055.510832082925
 30
-0.0000000035198025
 70
    32
  0
VERTEX
  5
1FC
330
1FA
100
AcDbEntity
  8
MODEL
  6
Continuous
 62
     7
390
1D
100
AcDbVertex
100
AcDb3dPolylineVertex
 10
11406.23863242383
 20
-4049.550080498675
 30
-0.0000000042018941
 70
    32
  0
SEQEND
  5
1FD
330
1FA
100
AcDbEntity
  8
MODEL
  6
Continuous
 62
     7
390
1D
  0
CIRCLE
  5
1FF
330
A
100
AcDbEntity
  8
MODEL
  6
STYLE_13
 62
     7
390
1D
100
AcDbCircle
 10
10625.25768337962
 20
-2878.638191719358
 30
0.0
 40
16.0
  0
CIRCLE
  5
200
330
A
100
AcDbEntity
  8
MODEL
  6
STYLE_13
 62
     7
390
1D
100
AcDbCircle
 10
10425.24380715209
 20
-2878.638191719358
 30
0.0
 40
16.0
  0
LINE
  5
201
330
A
100
AcDbEntity
  8
MODEL
  6
Continuous
 62
     7
390
1D
100
AcDbLine
 10
10165.43194769292
 20
-3912.47644389739
 30
0.0
 11
10131.4371274429
 21
-3912.47644389739
 31
0.0
  0
LINE
  5
202
330
A
100
AcDbEntity
  8
MODEL
  6
Continuous
 62
     7
390
1D
100
AcDbLine
 10
10125.43804102997
 20
-3918.581158582259
 30
0.0
 11
10126.01405817423
 21
-3951.581158675663
 31
0.0
  0
LINE
  5
203
330
A
100
AcDbEntity
  8
MODEL
  6
Continuous
 62
     7
390
1D
100
AcDbLine
 10
10165.43194769292
 20
-3912.47644389739
 30
0.0
 11
10525.32472843767
 21
-3912.47644389739
 31
0.0
  0
LINE
  5
204
330
A
100
AcDbEntity
  8
MODEL
  6
Continuous
 62
     7
390
1D
100
AcDbLine
 10
10132.01312458325
 20
-3957.47644389739
 30
0.0
 11
10166.02336858083
 21
-3957.47644389739
 31
0.0
  0
LINE
  5
205
330
A
100
AcDbEntity
  8
MODEL
  6
Continuous
 62
     7
390
1D
100
AcDbLine
 10
10166.02336858083
 20
-3957.47644389739
 30
0.0
 11
10525.32472843767
 21
-3957.47644389739
 31
0.0
  0
ARC
  5
206
330
A
100
AcDbEntity
  8
MODEL
  6
Continuous
 62
     7
390
1D
100
AcDbCircle
 10
10132.01313422209
 20
-3951.476454192682
 30
0.0
 40
5.999989704714104
100
AcDbArc
 50
180.999906632248
 51
269.9999079557059
  0
POLYLINE
  5
207
330
A
100
AcDbEntity
  8
MODEL
  6
Continuous
 62
     7
390
1D
100
AcDb2dPolyline
 66
     1
 10
0.0
 20
0.0
 30
0.0
 75
     5
  0
VERTEX
  5
208
330
207
100
AcDbEntity
  8
MODEL
  6
Continuous
 62
     7
390
1D
100
AcDbVertex
100
AcDb2dVertex
 10
10298.61055560311
 20
-4049.611379622823
 30
0.0
  0
VERTEX
  5
209
330
207
100
AcDbEntity
  8
MODEL
  6
Continuous
 62
     7
390
1D
100
AcDbVertex
100
AcDb2dVertex
 10
10298.61906585775
 20
-4049.62288813144
 30
0.0
  0
VERTEX
  5
20A
330
207
100
AcDbEntity
  8
MODEL
  6
Continuous
 62
     7
390
1D
100
AcDbVertex
100
AcDb2dVertex
 10
10298.61907238001
 20
-4049.622890261392
 30
0.0
  0
SEQEND
  5
20B
330
207
100
AcDbEntity
  8
MODEL
  6
Continuous
 62
     7
390
1D
  0
LINE
  5
20C
330
A
100
AcDbEntity
  8
MODEL
  6
Continuous
 62
     7
390
1D
100
AcDbLine
 10
10298.61907238001
 20
-4049.622890261392
 30
0.0
 11
10298.62474645458
 21
-4049.623844152512
 31
0.0
  0
SPLINE
  5
20D
330
A
100
AcDbEntity
  8
MODEL
  6
Continuous
 62
     7
390
1D
100
AcDbSpline
210
0.0
220
0.0
230
1.0
 70
     8
 71
     2
 72
    12
 73
     9
 74
     0
 42
0.000000001
 43
0.000001
 40
0.0
 40
0.0
 40
0.0
 40
1.0
 40
2.0
 40
3.0
 40
4.0
 40
5.0
 40
6.0
 40
7.0
 40
7.0
 40
7.0
 10
10260.67922868608
 20
-4017.669033978001
 30
0.0
 10
10261.32399736646
 20
-4021.014208107074
 30
0.0
 10
10264.22012841213
 20
-4028.66690795976
 30
0.0
 10
10269.70140177731
 20
-4036.672027580403
 30
0.0
 10
10275.22586285967
 20
-4041.554569515564
 30
0.0
 10
10279.2626379315
 20
-4044.310550446578
 30
0.0
 10
10285.63671670868
 20
-4047.586056486556
 30
0.0
 10
10293.49844338604
 20
-4049.437415463335
 30
0.0
 10
10296.85427689327
 20
-4049.622890261392
 30
0.0
  0
LINE
  5
20E
330
A
100
AcDbEntity
  8
MODEL
  6
Continuous
 62
     7
390
1D
100
AcDbLine
 10
10260.67922868609
 20
-4017.669033978002
 30
0.0
 11
10256.95630001743
 21
-3996.286045224132
 31
0.0
  0
POLYLINE
  5
20F
330
A
100
AcDbEntity
  8
MODEL
  6
Continuous
 62
     7
390
1D
100
AcDb2dPolyline
 66
     1
 10
0.0
 20
0.0
 30
0.0
 75
     5
  0
VERTEX
  5
210
330
20F
100
AcDbEntity
  8
MODEL
  6
Continuous
 62
     7
390
1D
100
AcDbVertex
100
AcDb2dVertex
 10
10753.80369675898
 20
-4049.611379622823
 30
0.0
  0
VERTEX
  5
211
330
20F
100
AcDbEntity
  8
MODEL
  6
Continuous
 62
     7
390
1D
100
AcDbVertex
100
AcDb2dVertex
 10
10753.79518650434
 20
-4049.622888131441
 30
0.0
  0
VERTEX
  5
212
330
20F
100
AcDbEntity
  8
MODEL
  6
Continuous
 62
     7
390
1D
100
AcDbVertex
100
AcDb2dVertex
 10
10753.79517998207
 20
-4049.622890261392
 30
0.0
  0
SEQEND
  5
213
330
20F
100
AcDbEntity
  8
MODEL
  6
Continuous
 62
     7
390
1D
  0
LINE
  5
214
330
A
100
AcDbEntity
  8
MODEL
  6
Continuous
 62
     7
390
1D
100
AcDbLine
 10
10753.79517998207
 20
-4049.622890261392
 30
0.0
 11
10753.78950590751
 21
-4049.623844152512
 31
0.0
  0
LINE
  5
215
330
A
100
AcDbEntity
  8
MODEL
  6
Continuous
 62
     7
390
1D
100
AcDbLine
 10
10789.97022818926
 20
-4017.669033978002
 30
0.0
 11
10789.87450638016
 21
-4018.211899333713
 31
0.0
  0
LINE
  5
216
330
A
100
AcDbEntity
  8
MODEL
  6
Continuous
 62
     7
390
1D
100
AcDbLine
 10
10884.62608829452
 20
-3957.47644389739
 30
0.0
 11
10525.32472843767
 21
-3957.47644389739
 31
0.0
  0
ARC
  5
217
330
A
100
AcDbEntity
  8
MODEL
  6
Continuous
 62
     7
390
1D
100
AcDbCircle
 10
10918.63632265326
 20
-3951.476454192686
 30
0.0
 40
5.999989704712346
100
AcDbArc
 50
270.0000920442595
 51
359.0000933678038
  0
LINE
  5
218
330
A
100
AcDbEntity
  8
MODEL
  6
Continuous
 62
     7
390
1D
100
AcDbLine
 10
10918.6363322921
 20
-3957.47644389739
 30
0.0
 11
10884.62608829452
 21
-3957.47644389739
 31
0.0
  0
LINE
  5
219
330
A
100
AcDbEntity
  8
MODEL
  6
Continuous
 62
     7
390
1D
100
AcDbLine
 10
10885.21750918242
 20
-3912.47644389739
 30
0.0
 11
10525.32472843767
 21
-3912.47644389739
 31
0.0
  0
LINE
  5
21A
330
A
100
AcDbEntity
  8
MODEL
  6
Continuous
 62
     7
390
1D
100
AcDbLine
 10
10925.21141584537
 20
-3918.581158582259
 30
0.0
 11
10924.63539870111
 21
-3951.581158675663
 31
0.0
  0
LINE
  5
21B
330
A
100
AcDbEntity
  8
MODEL
  6
Continuous
 62
     7
390
1D
100
AcDbLine
 10
10885.21750918242
 20
-3912.47644389739
 30
0.0
 11
10919.21232943245
 21
-3912.47644389739
 31
0.0
  0
LINE
  5
21C
330
A
100
AcDbEntity
  8
MODEL
  6
Continuous
 62
     7
390
1D
100
AcDbLine
 10
10789.97022818926
 20
-4017.669033978002
 30
0.0
 11
10793.78809374651
 21
-3996.286045224132
 31
0.0
  0
ARC
  5
21D
330
A
100
AcDbEntity
  8
MODEL
  6
Continuous
 62
     7
390
1D
100
AcDbCircle
 10
10752.44576045827
 20
-4011.647613941909
 30
0.0
 40
37.99999536472141
100
AcDbArc
 50
272.0265430542227
 51
349.967859099551
  0
LINE
  5
21E
330
A
100
AcDbEntity
  8
MODEL
  6
Continuous
 62
     7
390
1D
100
AcDbLine
 10
10789.86267784483
 20
-4018.278896337761
 30
0.0
 11
10789.86296742322
 21
-4018.277264223378
 31
0.0
  0
LINE
  5
21F
330
A
100
AcDbEntity
  8
MODEL
  6
Continuous
 62
     7
390
1D
100
AcDbLine
 10
10789.86296742322
 20
-4018.277264223378
 30
0.0
 11
10789.86334328592
 21
-4018.275142892475
 31
0.0
  0
LINE
  5
220
330
A
100
AcDbEntity
  8
MODEL
  6
Continuous
 62
     7
390
1D
100
AcDbLine
 10
10789.86334328592
 20
-4018.275142892475
 30
0.0
 11
10789.86376803443
 21
-4018.272742979208
 31
0.0
  0
LINE
  5
221
330
A
100
AcDbEntity
  8
MODEL
  6
Continuous
 62
     7
390
1D
100
AcDbLine
 10
10789.86376803442
 20
-4018.272742979208
 30
0.0
 11
10789.86423418483
 21
-4018.27010699733
 31
0.0
  0
LINE
  5
222
330
A
100
AcDbEntity
  8
MODEL
  6
Continuous
 62
     7
390
1D
100
AcDbLine
 10
10789.86423418483
 20
-4018.27010699733
 30
0.0
 11
10789.86474173328
 21
-4018.267235422804
 31
0.0
  0
LINE
  5
223
330
A
100
AcDbEntity
  8
MODEL
  6
Continuous
 62
     7
390
1D
100
AcDbLine
 10
10789.86474173328
 20
-4018.267235422804
 30
0.0
 11
10789.87450638016
 21
-4018.211899333713
 31
0.0
  0
ARC
  5
224
330
A
100
AcDbEntity
  8
MODEL
  6
Continuous
 62
     7
390
1D
100
AcDbCircle
 10
10919.21236246012
 20
-3918.476411683215
 30
0.0
 40
5.999967785912645
100
AcDbArc
 50
358.9996846073363
 51
89.99969249411879
  0
SPLINE
  5
225
330
A
100
AcDbEntity
  8
MODEL
  6
Continuous
 62
     7
390
1D
100
AcDbSpline
210
0.0
220
0.0
230
1.0
 70
     8
 71
     2
 72
     8
 73
     5
 74
     0
 42
0.000000001
 43
0.000001
 40
0.0
 40
0.0
 40
0.0
 40
1.0
 40
1.0
 40
2.0
 40
2.0
 40
2.0
 10
10924.62551548848
 20
-3951.836233256015
 30
0.0
 10
10924.62662585144
 20
-3951.826973431318
 30
0.0
 10
10924.63319135455
 20
-3951.786121331431
 30
0.0
 10
10924.63319207336
 20
-3951.786137103992
 30
0.0
 10
10924.63319279217
 20
-3951.786152876552
 30
0.0
  0
LINE
  5
226
330
A
100
AcDbEntity
  8
MODEL
  6
Continuous
 62
     7
390
1D
100
AcDbLine
 10
10924.61377668903
 20
-3951.995985183364
 30
0.0
 11
10924.55585400078
 21
-3952.544590778426
 31
0.0
  0
SPLINE
  5
227
330
A
100
AcDbEntity
  8
MODEL
  6
Continuous
 62
     7
390
1D
100
AcDbSpline
210
0.0
220
0.0
230
1.0
 70
     8
 71
     2
 72
    11
 73
     8
 74
     0
 42
0.000000001
 43
0.000001
 40
0.0
 40
0.0
 40
0.0
 40
1.0
 40
2.0
 40
3.0
 40
4.0
 40
4.0
 40
5.0
 40
5.0
 40
5.0
 10
10924.63319279217
 20
-3951.786152876552
 30
0.0
 10
10924.631994699
 20
-3951.807312220531
 30
0.0
 10
10924.63122787026
 20
-3951.816696271741
 30
0.0
 10
10924.63024768773
 20
-3951.828036708338
 30
0.0
 10
10924.6290397441
 20
-3951.841453186927
 30
0.0
 10
10924.61507888094
 20
-3951.98326823933
 30
0.0
 10
10924.61502951356
 20
-3951.98375119712
 30
0.0
 10
10924.61498014618
 20
-3951.98423415491
 30
0.0
  0
SPLINE
  5
228
330
A
100
AcDbEntity
  8
MODEL
  6
Continuous
 62
     7
390
1D
100
AcDbSpline
210
0.0
220
0.0
230
1.0
 70
     8
 71
     2
 72
     8
 73
     5
 74
     0
 42
0.000000001
 43
0.000001
 40
0.0
 40
0.0
 40
0.0
 40
1.0
 40
1.0
 40
2.0
 40
2.0
 40
2.0
 10
10924.55585400078
 20
-3952.544590778426
 30
0.0
 10
10924.57689680151
 20
-3952.349039284728
 30
0.0
 10
10924.59750863827
 20
-3952.157858573264
 30
0.0
 10
10924.5976404473
 20
-3952.156635946379
 30
0.0
 10
10924.59777225633
 20
-3952.155413319494
 30
0.0
  0
ARC
  5
229
330
A
100
AcDbEntity
  8
MODEL
  6
Continuous
 62
     7
390
1D
100
AcDbCircle
 10
10131.43709441523
 20
-3918.476411683218
 30
0.0
 40
5.999967785914134
100
AcDbArc
 50
90.00030750588118
 51
181.0003153926634
  0
LWPOLYLINE
  5
22A
330
A
100
AcDbEntity
  8
MODEL
  6
Continuous
 62
     7
390
1D
100
AcDbPolyline
 90
       19
 70
   128
 43
0.0
 10
10296.85427689327
 20
-4049.622890261392
 10
10296.99198811831
 20
-4049.624433530277
 42
-0.0016670180630955
 10
10298.96598984476
 20
-4049.653137779737
 42
-0.0043853469018445
 10
10300.93943457104
 20
-4049.705732252859
 10
10304.65828135379
 20
-4049.837491904003
 42
-0.0000635287710735
 10
10314.06891583096
 20
-4050.172110183807
 10
10323.11132531462
 20
-4050.494785681443
 42
-0.0000172204698175
 10
10350.60670241936
 20
-4051.476897615235
 10
10356.19473476218
 20
-4051.676690171901
 42
0.0001057594179925
 10
10384.83256001151
 20
-4052.694531836553
 10
10391.94722341709
 20
-4052.945893454335
 42
0.0001552754491905
 10
10406.35609384772
 20
-4053.45047975612
 10
10409.95136401678
 20
-4053.575265166739
 42
0.0003391704067332
 10
10417.1700174394
 20
-4053.82090925172
 42
0.0000487951770984
 10
10424.38886091814
 20
-4054.060952139402
 10
10436.58039816673
 20
-4054.465157263982
 42
0.0000071209058044
 10
10468.18235448105
 20
-4055.512455842143
 10
10477.08662414622
 20
-4055.807419132741
 10
10478.34298142473
 20
-4055.849040111567
  0
ARC
  5
22B
330
A
100
AcDbEntity
  8
MODEL
  6
Continuous
 62
     7
390
1D
100
AcDbCircle
 10
10204.89284000914
 20
-4005.317393375409
 30
0.0
 40
52.8409795278578
100
AcDbArc
 50
9.841058704988779
 51
64.87395835121595
  0
ARC
  5
22C
330
A
100
AcDbEntity
  8
MODEL
  6
Continuous
 62
     7
390
1D
100
AcDbCircle
 10
10845.85155375479
 20
-4005.317393375409
 30
0.0
 40
52.84097952785821
100
AcDbArc
 50
115.1260416487841
 51
170.1589412950113
  0
LINE
  5
22D
330
A
100
AcDbEntity
  8
MODEL
  6
Continuous
 62
     7
390
1D
100
AcDbLine
 10
10491.60038018019
 20
-4092.474744652593
 30
0.0
 11
10525.33148285701
 21
-4092.475920552694
 31
0.0
  0
ARC
  5
22E
330
A
100
AcDbEntity
  8
MODEL
  6
Continuous
 62
     7
390
1D
100
AcDbCircle
 10
10572.69531142923
 20
-4063.837254533389
 30
0.0
 40
7.999992810170727
100
AcDbArc
 50
92.11714923651718
 51
174.9998087447342
  0
LINE
  5
22F
330
A
100
AcDbEntity
  8
MODEL
  6
Continuous
 62
     7
390
1D
100
AcDbLine
 10
10525.35797405479
 20
-4092.475920552694
 30
0.0
 11
10559.08907673162
 21
-4092.474744652593
 31
0.0
  0
LINE
  5
230
330
A
100
AcDbEntity
  8
MODEL
  6
Continuous
 62
     7
390
1D
100
AcDbLine
 10
10564.72576237259
 20
-4063.140050692371
 30
0.0
 11
10562.07755624288
 21
-4089.736211882669
 31
0.0
  0
ARC
  5
231
330
A
100
AcDbEntity
  8
MODEL
  6
Continuous
 62
     7
390
1D
100
AcDbCircle
 10
10559.08897214861
 20
-4089.474744654415
 30
0.0
 40
2.999999999999852
100
AcDbArc
 50
270.0019973883685
 51
354.9999999997926
  0
LWPOLYLINE
  5
232
330
A
100
AcDbEntity
  8
MODEL
  6
Continuous
 62
     7
390
1D
100
AcDbPolyline
 90
       62
 70
   128
 43
0.0
 10
10485.9508833838
 20
-4063.140050536173
 10
10485.95040723441
 20
-4063.134690602508
 42
0.0102141986635054
 10
10485.91369969546
 20
-4062.799352116949
 10
10485.90878676397
 20
-4062.761614277547
 42
0.0108711708760697
 10
10485.86943816495
 20
-4062.503357057029
 42
0.005438482049392
 10
10485.82167312532
 20
-4062.246440096886
 42
0.0109194198959949
 10
10485.7655333545
 20
-4061.991233938969
 10
10485.74779875312
 20
-4061.918248144468
 42
0.0133049008124589
 10
10485.6531165929
 20
-4061.569326355247
 10
10485.64405410184
 20
-4061.539131993215
 42
0.0093196374813755
 10
10485.55291067032
 20
-4061.254817842684
 42
0.00930354873907
 10
10485.45124751212
 20
-4060.974105739032
 42
0.0092992704076858
 10
10485.33922057729
 20
-4060.697388397406
 42
0.0093077326037543
 10
10485.21698134636
 20
-4060.425042956845
 10
10485.21598652857
 20
-4060.422932590316
 42
0.0093268101766321
 10
10485.08575448603
 20
-4060.159517584104
 42
0.0090725105156129
 10
10484.94591285524
 20
-4059.901059298052
 42
0.0093530411504399
 10
10484.79664006288
 20
-4059.647920775168
 10
10484.79541230089
 20
-4059.645925006167
 42
0.0093294410437305
 10
10484.63425776443
 20
-4059.394593737086
 42
0.0093216862484793
 10
10484.46384187643
 20
-4059.149446109351
 10
10484.4396756029
 20
-4059.116029170518
 42
0.0144790216130349
 10
10484.2076068416
 20
-4058.813946734456
 10
10484.16411685691
 20
-4058.760606790096
 42
0.0120434503008241
 10
10483.95021201439
 20
-4058.51078937005
 10
10483.93176584851
 20
-4058.490268011952
 42
0.0085792682148629
 10
10483.74529593845
 20
-4058.289846146466
 42
0.0085475580290643
 10
10483.55207771615
 20
-4058.095933715323
 42
0.0085296566570933
 10
10483.35236617684
 20
-4057.908747144349
 42
0.0085224459346246
 10
10483.146410999
 20
-4057.728499382135
 42
0.0085263543968724
 10
10482.93446187193
 20
-4057.555403542965
 42
0.0085399440644106
 10
10482.71676793451
 20
-4057.389671728732
 42
0.0085747912309327
 10
10482.49355097361
 20
-4057.231502972235
 10
10482.44983487692
 20
-4057.201638992084
 42
0.0144253513160967
 10
10482.1514877486
 20
-4057.010210678091
 10
10482.10447883092
 20
-4056.981928545648
 42
0.0077839749266172
 10
10481.8927112311
 20
-4056.858970799482
 42
0.007550679328997
 10
10481.6772713091
 20
-4056.742563661481
 10
10481.66612144454
 20
-4056.736754921041
 42
0.0093392465645931
 10
10481.42437740558
 20
-4056.616499731434
 10
10481.41113773204
 20
-4056.610219355259
 42
0.0093065339556337
 10
10481.13926555399
 20
-4056.487399296572
 10
10481.13817037247
 20
-4056.486928883362
 42
0.0093174442574501
 10
10480.864120397
 20
-4056.375217798864
 42
0.0092133424389389
 10
10480.58610822651
 20
-4056.273733422469
 42
0.0093444562918311
 10
10480.30451302244
 20
-4056.182631587774
 10
10480.2798981266
 20
-4056.175173327421
 42
0.0105307577905167
 10
10480.00285762885
 20
-4056.097561535835
 42
0.0074965435208559
 10
10479.72316899879
 20
-4056.029978915802
 10
10479.71112556872
 20
-4056.027259231011
 42
0.0121081116674926
 10
10479.40484940301
 20
-4055.965848812596
 10
10479.39263252782
 20
-4055.96370554561
 42
0.0078104975577082
 10
10479.10054264863
 20
-4055.917153365398
 10
10479.08391429504
 20
-4055.914768905321
 42
0.0109859555851524
 10
10478.82366165978
 20
-4055.88326759621
 10
10478.79213540505
 20
-4055.880152679173
 42
0.0058467154305607
 10
10478.59404149617
 20
-4055.862916618761
 10
10478.55988127165
 20
-4055.860346432228
 42
0.0079097009745607
 10
10478.42978410663
 20
-4055.852625409609
 10
10478.38588572588
 20
-4055.850716405049
 42
0.0021806558093803
 10
10478.34345593394
 20
-4055.849056630086
 10
10478.34298142474
 20
-4055.849040111567
  0
ARC
  5
233
330
A
100
AcDbEntity
  8
MODEL
  6
Continuous
 62
     7
390
1D
100
AcDbCircle
 10
10491.6004847632
 20
-4089.474744654415
 30
0.0
 40
3.000000000000925
100
AcDbArc
 50
185.0000000002075
 51
269.9980026115967
  0
LINE
  5
234
330
A
100
AcDbEntity
  8
MODEL
  6
Continuous
 62
     7
390
1D
100
AcDbLine
 10
10485.95088338595
 20
-4063.140050692371
 30
0.0
 11
10488.61190066892
 21
-4089.736211882669
 31
0.0
  0
LWPOLYLINE
  5
235
330
A
100
AcDbEntity
  8
MODEL
  6
Continuous
 62
     7
390
1D
100
AcDbPolyline
 90
       17
 70
   128
 43
0.0
 10
10753.78950590751
 20
-4049.623844152512
 10
10753.65278503484
 20
-4049.625329094857
 42
0.0016967430215407
 10
10751.68175872673
 20
-4049.653426361011
 42
0.0044532415965604
 10
10749.71129390726
 20
-4049.705762556532
 10
10740.3110433374
 20
-4050.039240034936
 42
0.0000807625520728
 10
10719.54066307924
 20
-4050.779436384959
 10
10713.90474802277
 20
-4050.981195619451
 42
-0.0000315307954988
 10
10681.86258500418
 20
-4052.126244746507
 10
10673.70986771369
 20
-4052.417073027593
 42
-0.0002339828636798
 10
10649.29645473419
 20
-4053.27652293168
 10
10640.69878713284
 20
-4053.575166927974
 42
-0.0003459750757386
 10
10633.48013712145
 20
-4053.820909251717
 42
-0.0000487951770984
 10
10626.26129364243
 20
-4054.060952139408
 10
10614.06975639188
 20
-4054.465157264054
 42
-0.0000071209067789
 10
10582.4678000727
 20
-4055.512455842375
 10
10573.56353041646
 20
-4055.807419132678
 10
10572.30717313603
 20
-4055.849040111567
  0
LINE
  5
236
330
A
100
AcDbEntity
  8
MODEL
  6
Continuous
 62
     7
390
1D
100
AcDbLine
 10
10486.91606636834
 20
-4056.060000887106
 30
0.0
 11
10561.56037291828
 21
-4056.060000887106
 31
0.0
  0
LINE
  5
237
330
A
100
AcDbEntity
  8
MODEL
  6
Continuous
 62
     7
390
1D
100
AcDbLine
 10
11578.11357971347
 20
-4089.868147365958
 30
0.0
 11
11578.11357971347
 21
-4088.621386794111
 31
0.0
  0
DIMENSION
  5
238
330
A
100
AcDbEntity
  8
DIM
390
1D
100
AcDbDimension
  2
*D18
 10
11839.66881789058
 20
-3912.47644389739
 30
0.0
 11
11821.0951416753
 21
-3979.95775096277
 31
0.0
 70
    32
 71
     5
 42
134.9626141307604
 73
     0
 74
     0
 75
     0
  3
tfrom線あり
100
AcDbAlignedDimension
 13
11756.72630758759
 23
-4047.43905802815
 33
0.0
 14
11758.72560396385
 24
-3912.47644389739
 34
0.0
 50
90.0
100
AcDbRotatedDimension
1001
ACAD
1000
DSTYLE
1002
{
1070
   279
1070
     2
1070
   340
1005
34
1070
   140
1040
27.14735243055556
1070
   147
1040
5.0
1002
}
  0
SPLINE
  5
23A
330
A
100
AcDbEntity
  8
MODEL
  6
STYLE_05
 62
     7
390
1D
100
AcDbSpline
210
0.0
220
0.0
230
1.0
 70
    12
 71
     2
 72
   110
 73
   107
 74
     0
 42
0.000000001
 43
0.000001
 40
0.0
 40
0.0
 40
0.0
 40
1.0
 40
1.0
 40
2.0
 40
2.0
 40
3.0
 40
3.0
 40
4.0
 40
4.0
 40
5.0
 40
5.0
 40
6.0
 40
6.0
 40
7.0
 40
7.0
 40
8.0
 40
8.0
 40
9.0
 40
9.0
 40
10.0
 40
10.0
 40
11.0
 40
11.0
 40
12.0
 40
12.0
 40
13.0
 40
13.0
 40
14.0
 40
14.0
 40
15.0
 40
15.0
 40
16.0
 40
16.0
 40
17.0
 40
17.0
 40
18.0
 40
18.0
 40
19.0
 40
19.0
 40
20.0
 40
20.0
 40
21.0
 40
21.0
 40
22.0
 40
22.0
 40
23.0
 40
23.0
 40
24.0
 40
24.0
 40
25.0
 40
25.0
 40
26.0
 40
26.0
 40
27.0
 40
27.0
 40
28.0
 40
28.0
 40
29.0
 40
29.0
 40
30.0
 40
30.0
 40
31.0
 40
31.0
 40
32.0
 40
32.0
 40
33.0
 40
33.0
 40
34.0
 40
34.0
 40
35.0
 40
35.0
 40
36.0
 40
36.0
 40
37.0
 40
37.0
 40
38.0
 40
38.0
 40
39.0
 40
39.0
 40
40.0
 40
40.0
 40
41.0
 40
41.0
 40
42.0
 40
42.0
 40
43.0
 40
43.0
 40
44.0
 40
44.0
 40
45.0
 40
45.0
 40
46.0
 40
46.0
 40
47.0
 40
47.0
 40
48.0
 40
48.0
 40
49.0
 40
49.0
 40
50.0
 40
50.0
 40
51.0
 40
51.0
 40
52.0
 40
52.0
 40
53.0
 40
53.0
 40
53.0
 10
10500.66549585356
 20
-4056.96311282479
 30
0.0
 41
1.0
 10
10500.68719836699
 20
-4056.981316533748
 30
0.0
 41
1.0
 10
10500.70887138533
 20
-4056.999557879142
 30
0.0
 41
1.0
 10
10500.73054440367
 20
-4057.017799224532
 30
0.0
 41
0.9999975681509211
 10
10500.75213675336
 20
-4057.036135986527
 30
0.0
 41
1.0
 10
10500.75285700588
 20
-4057.036747642932
 30
0.0
 41
1.0
 10
10500.7535772584
 20
-4057.037359299337
 30
0.0
 41
1.0
 10
10500.77660973106
 20
-4057.056919045052
 30
0.0
 41
0.9999938803667608
 10
10500.79950478278
 20
-4057.076639467361
 30
0.0
 41
1.0
 10
10500.82239870476
 20
-4057.096358903994
 30
0.0
 41
0.9999885095102199
 10
10500.84510251325
 20
-4057.116296931096
 30
0.0
 41
1.0
 10
10500.86780053222
 20
-4057.136229763972
 30
0.0
 41
0.9999814378015274
 10
10500.89025397086
 20
-4057.156437707572
 30
0.0
 41
1.0
 10
10500.89040512731
 20
-4057.156573747362
 30
0.0
 41
1.0
 10
10500.89055628376
 20
-4057.156709787153
 30
0.0
 41
1.0
 10
10500.91270236764
 20
-4057.176641113531
 30
0.0
 41
0.9999725156780774
 10
10500.93455048196
 20
-4057.196898623319
 30
0.0
 41
1.0
 10
10500.9346949078
 20
-4057.19703253455
 30
0.0
 41
1.0
 10
10500.93483933364
 20
-4057.197166445781
 30
0.0
 41
1.0
 10
10500.95639859628
 20
-4057.217156133106
 30
0.0
 41
0.9999668087487485
 10
10500.97762927638
 20
-4057.237494462128
 30
0.0
 41
1.0
 10
10500.99885983581
 20
-4057.257832671409
 30
0.0
 41
0.9999611835938903
 10
10501.0197287185
 20
-4057.278541827504
 30
0.0
 41
1.0
 10
10501.04059691838
 20
-4057.299250284436
 30
0.0
 41
0.9999549786943616
 10
10501.06106837406
 20
-4057.320351029849
 30
0.0
 41
1.0
 10
10501.08153905021
 20
-4057.341450962452
 30
0.0
 41
0.9999482507752686
 10
10501.10157619997
 20
-4057.362963014125
 30
0.0
 41
1.0
 10
10501.12161313234
 20
-4057.384474832407
 30
0.0
 41
0.999941100908021
 10
10501.14117842212
 20
-4057.406416491887
 30
0.0
 41
1.0
 10
10501.14158249476
 20
-4057.406869642565
 30
0.0
 41
1.0
 10
10501.14198656741
 20
-4057.407322793243
 30
0.0
 41
1.0
 10
10501.16236000247
 20
-4057.430170754079
 30
0.0
 41
0.9999215120758571
 10
10501.18215457346
 20
-4057.453522009502
 30
0.0
 41
1.0
 10
10501.18466466536
 20
-4057.456483114199
 30
0.0
 41
1.0
 10
10501.18717475726
 20
-4057.459444218896
 30
0.0
 41
1.0
 10
10501.21198951206
 20
-4057.488717683714
 30
0.0
 41
0.9998321143994136
 10
10501.23571501173
 20
-4057.518880715114
 30
0.0
 41
1.0
 10
10501.23773988145
 20
-4057.521455000574
 30
0.0
 41
1.0
 10
10501.23976475116
 20
-4057.524029286034
 30
0.0
 41
1.0
 10
10501.26753891794
 20
-4057.559339413853
 30
0.0
 41
0.9998221554691243
 10
10501.29396174631
 20
-4057.595671818218
 30
0.0
 41
1.0
 10
10501.32037955218
 20
-4057.631996847027
 30
0.0
 41
0.9998109014263807
 10
10501.34536486476
 20
-4057.669321669066
 30
0.0
 41
1.0
 10
10501.37034134705
 20
-4057.706632625966
 30
0.0
 41
0.9997985013067741
 10
10501.39380005815
 20
-4057.744916056405
 30
0.0
 41
1.0
 10
10501.39382945227
 20
-4057.744964026131
 30
0.0
 41
1.0
 10
10501.3938588464
 20
-4057.745011995857
 30
0.0
 41
1.0
 10
10501.41725388914
 20
-4057.78319152276
 30
0.0
 41
0.9997850365377793
 10
10501.43904596266
 20
-4057.822308141112
 30
0.0
 41
1.0
 10
10501.44105147417
 20
-4057.825908020138
 30
0.0
 41
1.0
 10
10501.44305698568
 20
-4057.829507899163
 30
0.0
 41
1.0
 10
10501.46083803617
 20
-4057.861424759466
 30
0.0
 41
0.9997724351812415
 10
10501.47724147675
 20
-4057.89407102825
 30
0.0
 41
1.0
 10
10501.49364491732
 20
-4057.926717297034
 30
0.0
 41
0.999908709985874
 10
10501.50916022197
 20
-4057.959794888384
 30
0.0
 41
1.0
 10
10501.51044991803
 20
-4057.962544434082
 30
0.0
 41
1.0
 10
10501.51173961409
 20
-4057.96529397978
 30
0.0
 41
1.0
 10
10501.52983431086
 20
-4058.003870662525
 30
0.0
 41
0.9996543291008154
 10
10501.54587624649
 20
-4058.04334514547
 30
0.0
 41
1.0
 10
10501.54855331019
 20
-4058.049932611457
 30
0.0
 41
1.0
 10
10501.55123037389
 20
-4058.056520077444
 30
0.0
 41
1.0
 10
10501.57263069584
 20
-4058.109181725853
 30
0.0
 41
0.9996751985542993
 10
10501.59131990135
 20
-4058.162865397395
 30
0.0
 41
1.0
 10
10501.61001635345
 20
-4058.216571482485
 30
0.0
 41
0.9996932930498674
 10
10501.62603059354
 20
-4058.271137451835
 30
0.0
 41
1.0
 10
10501.64204859924
 20
-4058.325716818617
 30
0.0
 41
0.9997092307297402
 10
10501.6554165593
 20
-4058.381004985784
 30
0.0
 41
1.0
 10
10501.65672421025
 20
-4058.386413262288
 30
0.0
 41
1.0
 10
10501.6580318612
 20
-4058.391821538792
 30
0.0
 41
1.0
 10
10501.66878529728
 20
-4058.436296370326
 30
0.0
 41
0.999721886343445
 10
10501.67742967075
 20
-4058.481228784403
 30
0.0
 41
1.0
 10
10501.67867496142
 20
-4058.487701655626
 30
0.0
 41
1.0
 10
10501.6799202521
 20
-4058.494174526849
 30
0.0
 41
1.0
 10
10501.68607404421
 20
-4058.526161198482
 30
0.0
 41
0.9999034695641229
 10
10501.69133668135
 20
-4058.558306508714
 30
0.0
 41
1.0
 10
10501.69150305506
 20
-4058.559322754836
 30
0.0
 41
1.0
 10
10501.69166942877
 20
-4058.560339000957
 30
0.0
 41
1.0
 10
10501.69659931849
 20
-4058.590451818946
 30
0.0
 41
0.9999349318700574
 10
10501.70084094333
 20
-4058.620669268185
 30
0.0
 41
1.0
 10
10501.70508269175
 20
-4058.650887757771
 30
0.0
 41
0.9999436483650644
 10
10501.70868191944
 20
-4058.681189492085
 30
0.0
 41
1.0
 10
10501.71228141548
 20
-4058.711493730632
 30
0.0
 41
0.9999517588915424
 10
10501.71528492391
 20
-4058.741862829776
 30
0.0
 41
1.0
 10
10501.71828861772
 20
-4058.772233896187
 30
0.0
 41
0.9999591277784728
 10
10501.7207426629
 20
-4058.802654308965
 30
0.0
 41
1.0
 10
10501.7207659049
 20
-4058.802942417452
 30
0.0
 41
1.0
 10
10501.7207891469
 20
-4058.803230525939
 30
0.0
 41
1.0
 10
10501.7231967487
 20
-4058.833075225123
 30
0.0
 41
0.9999657864438655
 10
10501.72511028735
 20
-4058.862955669993
 30
0.0
 41
1.0
 10
10501.72512936294
 20
-4058.863253540684
 30
0.0
 41
1.0
 10
10501.72514843853
 20
-4058.863551411375
 30
0.0
 41
1.0
 10
10501.72702382601
 20
-4058.892836114862
 30
0.0
 41
0.9999755680802245
 10
10501.72848962689
 20
-4058.922144174577
 30
0.0
 41
1.0
 10
10501.72995506909
 20
-4058.951442915753
 30
0.0
 41
0.9999834619008037
 10
10501.731083416
 20
-4058.98075657449
 30
0.0
 41
1.0
 10
10501.73221142323
 20
-4059.010061560688
 30
0.0
 41
0.9999897636170259
 10
10501.73307419606
 20
-4059.039375554606
 30
0.0
 41
1.0
 10
10501.73393699634
 20
-4059.068690563897
 30
0.0
 41
0.999994528620401
 10
10501.73460583187
 20
-4059.098010639836
 30
0.0
 41
1.0
 10
10501.73462674374
 20
-4059.098927364207
 30
0.0
 41
1.0
 10
10501.73464765562
 20
-4059.099844088579
 30
0.0
 41
1.0
 10
10501.73527467582
 20
-4059.127331085136
 30
0.0
 41
0.9999978577373281
 10
10501.73578789966
 20
-4059.154820441902
 30
0.0
 41
1.0
 10
10501.73630112349
 20
-4059.182309798655
 30
0.0
 41
1.0
 10
10501.7367394235
 20
-4059.207966168798
 30
0.0
 41
1.0
 10
10501.73675511769
 20
-4059.208882415537
 30
0.0
 41
1.0
 10
10501.73677081189
 20
-4059.209798662277
 30
0.0
 41
1.0
  0
LINE
  5
23B
330
A
100
AcDbEntity
  8
MODEL
  6
STYLE_05
 62
     7
390
1D
100
AcDbLine
 10
10501.73677081189
 20
-4059.209798662277
 30
0.0
 11
10502.30807917966
 21
-4092.475490664822
 31
0.0
  0
LINE
  5
23C
330
A
100
AcDbEntity
  8
MODEL
  6
STYLE_05
 62
     7
390
1D
100
AcDbLine
 10
10487.76687963817
 20
-4046.140654963873
 30
0.0
 11
10500.66549585356
 21
-4056.96311282479
 31
0.0
  0
LWPOLYLINE
  5
23D
330
A
100
AcDbEntity
  8
MODEL
  6
STYLE_05
 62
     7
390
1D
100
AcDbPolyline
 90
       53
 70
   128
 43
0.0
 10
10479.40971436211
 20
-4042.686735295926
 42
-0.0003506136063005
 10
10479.65858372333
 20
-4042.708254047582
 10
10479.6896937065
 20
-4042.710965984671
 42
-0.0014982049519058
 10
10479.93848881282
 20
-4042.733405447822
 10
10479.97994547994
 20
-4042.737269795829
 42
-0.0011644408197624
 10
10480.14572311906
 20
-4042.753112133784
 42
-0.0013456798467065
 10
10480.31141898641
 20
-4042.769786496749
 10
10480.35283167623
 20
-4042.774066568511
 42
-0.003637201679429
 10
10480.6011080956
 20
-4042.801553109698
 10
10480.64267383797
 20
-4042.806461152092
 42
-0.0044024212564956
 10
10480.96423843477
 20
-4042.84730503201
 10
10480.96446436972
 20
-4042.847335753104
 42
-0.0049881759157814
 10
10481.28475046921
 20
-4042.894144937665
 10
10481.28554700678
 20
-4042.894269478392
 42
-0.005592074372268
 10
10481.60317681137
 20
-4042.947577477895
 10
10481.61154214246
 20
-4042.949077814717
 42
-0.0061670073994738
 10
10481.91113514817
 20
-4043.006632995754
 10
10481.91867678245
 20
-4043.00817851281
 42
-0.0059332749531893
 10
10482.20174656629
 20
-4043.069697164815
 42
-0.0061751768759756
 10
10482.48324110068
 20
-4043.138051436138
 42
-0.0064205724084426
 10
10482.76292187711
 20
-4043.213473716218
 10
10482.79817338255
 20
-4043.223467383034
 42
-0.0099496895206612
 10
10483.13796269517
 20
-4043.327143554324
 10
10483.17278131395
 20
-4043.338529451902
 42
-0.0066575442153742
 10
10483.43965543376
 20
-4043.429749703811
 42
-0.0067166983188831
 10
10483.70399399587
 20
-4043.528074690687
 10
10483.73276580455
 20
-4043.539219037249
 42
-0.0097980795298138
 10
10484.05075887185
 20
-4043.669610339236
 10
10484.07907199093
 20
-4043.681873405929
 42
-0.0067560187989993
 10
10484.33630898072
 20
-4043.797441026094
 42
-0.006671394184468
 10
10484.59035067021
 20
-4043.919874376166
 10
10484.63371990736
 20
-4043.941493550884
 42
-0.0110439289832241
 10
10484.96885069412
 20
-4044.117892240336
 10
10485.01131927142
 20
-4044.141458072289
 42
-0.0062792541257547
 10
10485.2557430358
 20
-4044.281132031306
 42
-0.0060164094211249
 10
10485.49666349166
 20
-4044.426776902281
 42
-0.0057738865154615
 10
10485.73408770845
 20
-4044.578064778688
 10
10485.75006687917
 20
-4044.588508162791
 42
-0.0068912164056441
 10
10486.01524107622
 20
-4044.767079538899
 10
10486.03091820302
 20
-4044.777953707573
 42
-0.0050493452313678
 10
10486.26738611265
 20
-4044.945537591174
 42
-0.0045652720640626
 10
10486.50059445478
 20
-4045.117642145506
 10
10486.52516441369
 20
-4045.136123312278
 42
-0.0040633493662446
 10
10486.70653810302
 20
-4045.274872120345
 42
-0.0021457320101159
 10
10486.88617913166
 20
-4045.415865848635
 10
10486.89676838502
 20
-4045.424250655115
 42
-0.003436148891989
 10
10487.09588393636
 20
-4045.584153320439
 10
10487.09686622819
 20
-4045.584953330221
 42
-0.0013363316178606
 10
10487.29641496263
 20
-4045.74836123631
 42
-0.0017701528081312
 10
10487.49494830353
 20
-4045.913008836988
 10
10487.52794153443
 20
-4045.940568494812
 42
-0.0005948970139915
 10
10487.75864811343
 20
-4046.133747065477
 10
10487.76687963821
 20
-4046.140654963873
  0
LINE
  5
23E
330
A
100
AcDbEntity
  8
MODEL
  6
STYLE_05
 62
     7
390
1D
100
AcDbLine
 10
10478.28902512705
 20
-4042.80741776939
 30
0.0
 11
10313.97494403313
 21
-4034.203086375234
 31
0.0
  0
LINE
  5
23F
330
A
100
AcDbEntity
  8
MODEL
  6
STYLE_05
 62
     7
390
1D
100
AcDbLine
 10
10258.08265745686
 20
-3923.979096119291
 30
0.0
 11
10277.16911525427
 21
-4003.584076763824
 31
0.0
  0
ARC
  5
240
330
A
100
AcDbEntity
  8
MODEL
  6
STYLE_05
 62
     7
390
1D
100
AcDbCircle
 10
10243.49606914708
 20
-3927.47644389739
 30
0.0
 40
14.99999999999985
100
AcDbArc
 50
13.48298072847736
 51
90.00000000000044
  0
ARC
  5
241
330
A
100
AcDbEntity
  8
MODEL
  6
STYLE_05
 62
     7
390
1D
100
AcDbCircle
 10
10316.06668408035
 20
-3994.257816022227
 30
0.0
 40
39.99999999999997
100
AcDbArc
 50
193.4829807284772
 51
267.0024358314095
  0
SPLINE
  5
242
330
A
100
AcDbEntity
  8
MODEL
  6
STYLE_05
 62
     7
390
1D
100
AcDbSpline
210
0.0
220
0.0
230
1.0
 70
    12
 71
     2
 72
   110
 73
   107
 74
     0
 42
0.000000001
 43
0.000001
 40
0.0
 40
0.0
 40
0.0
 40
1.0
 40
1.0
 40
2.0
 40
2.0
 40
3.0
 40
3.0
 40
4.0
 40
4.0
 40
5.0
 40
5.0
 40
6.0
 40
6.0
 40
7.0
 40
7.0
 40
8.0
 40
8.0
 40
9.0
 40
9.0
 40
10.0
 40
10.0
 40
11.0
 40
11.0
 40
12.0
 40
12.0
 40
13.0
 40
13.0
 40
14.0
 40
14.0
 40
15.0
 40
15.0
 40
16.0
 40
16.0
 40
17.0
 40
17.0
 40
18.0
 40
18.0
 40
19.0
 40
19.0
 40
20.0
 40
20.0
 40
21.0
 40
21.0
 40
22.0
 40
22.0
 40
23.0
 40
23.0
 40
24.0
 40
24.0
 40
25.0
 40
25.0
 40
26.0
 40
26.0
 40
27.0
 40
27.0
 40
28.0
 40
28.0
 40
29.0
 40
29.0
 40
30.0
 40
30.0
 40
31.0
 40
31.0
 40
32.0
 40
32.0
 40
33.0
 40
33.0
 40
34.0
 40
34.0
 40
35.0
 40
35.0
 40
36.0
 40
36.0
 40
37.0
 40
37.0
 40
38.0
 40
38.0
 40
39.0
 40
39.0
 40
40.0
 40
40.0
 40
41.0
 40
41.0
 40
42.0
 40
42.0
 40
43.0
 40
43.0
 40
44.0
 40
44.0
 40
45.0
 40
45.0
 40
46.0
 40
46.0
 40
47.0
 40
47.0
 40
48.0
 40
48.0
 40
49.0
 40
49.0
 40
50.0
 40
50.0
 40
51.0
 40
51.0
 40
52.0
 40
52.0
 40
53.0
 40
53.0
 40
53.0
 10
10549.99994582476
 20
-4056.964832673243
 30
0.0
 41
1.0
 10
10549.97824204218
 20
-4056.983034869014
 30
0.0
 41
1.0
 10
10549.95656775207
 20
-4057.001274703277
 30
0.0
 41
1.0
 10
10549.93489346196
 20
-4057.019514537536
 30
0.0
 41
0.9999975681633151
 10
10549.91329983384
 20
-4057.037849794025
 30
0.0
 41
1.0
 10
10549.91257953868
 20
-4057.038461400211
 30
0.0
 41
1.0
 10
10549.91185924352
 20
-4057.039073006397
 30
0.0
 41
1.0
 10
10549.88882540946
 20
-4057.058631148876
 30
0.0
 41
0.9999938807778379
 10
10549.86592898056
 20
-4057.078349972166
 30
0.0
 41
1.0
 10
10549.84303369002
 20
-4057.098067819739
 30
0.0
 41
0.9999885110259458
 10
10549.8203284852
 20
-4057.11800425664
 30
0.0
 41
1.0
 10
10549.79762913143
 20
-4057.13793556868
 30
0.0
 41
0.9999814544652867
 10
10549.77517422901
 20
-4057.158141884967
 30
0.0
 41
1.0
 10
10549.77502306306
 20
-4057.158277914224
 30
0.0
 41
1.0
 10
10549.77487189712
 20
-4057.158413943479
 30
0.0
 41
1.0
 10
10549.75272442365
 20
-4057.178343725735
 30
0.0
 41
0.9999725156789564
 10
10549.730874897
 20
-4057.198599712174
 30
0.0
 41
1.0
 10
10549.73073046182
 20
-4057.198733613331
 30
0.0
 41
1.0
 10
10549.73058602665
 20
-4057.198867514487
 30
0.0
 41
1.0
 10
10549.70902537034
 20
-4057.218855698613
 30
0.0
 41
0.9999668087484973
 10
10549.68779327226
 20
-4057.239192547345
 30
0.0
 41
1.0
 10
10549.66656129694
 20
-4057.259529278484
 30
0.0
 41
0.9999611844911436
 10
10549.64569096833
 20
-4057.280236977364
 30
0.0
 41
1.0
 10
10549.62482133556
 20
-4057.300943990044
 30
0.0
 41
0.9999549836395897
 10
10549.60434839786
 20
-4057.322043297323
 30
0.0
 41
1.0
 10
10549.58387625533
 20
-4057.343141807089
 30
0.0
 41
0.9999482530208359
 10
10549.56383760105
 20
-4057.364652457209
 30
0.0
 41
1.0
 10
10549.54379916887
 20
-4057.386162878423
 30
0.0
 41
0.999941100907986
 10
10549.52423234933
 20
-4057.408103173719
 30
0.0
 41
1.0
 10
10549.52382824509
 20
-4057.408556296223
 30
0.0
 41
1.0
 10
10549.52342414086
 20
-4057.409009418727
 30
0.0
 41
1.0
 10
10549.50304911284
 20
-4057.431855959031
 30
0.0
 41
0.9999215120760684
 10
10549.4832529138
 20
-4057.455205834279
 30
0.0
 41
1.0
 10
10549.48074261545
 20
-4057.45816676396
 30
0.0
 41
1.0
 10
10549.4782323171
 20
-4057.461127693642
 30
0.0
 41
1.0
 10
10549.45341552136
 20
-4057.490399428254
 30
0.0
 41
0.999832114399362
 10
10549.42968791872
 20
-4057.520560805392
 30
0.0
 41
1.0
 10
10549.42766286952
 20
-4057.523134949668
 30
0.0
 41
1.0
 10
10549.42563782032
 20
-4057.525709093943
 30
0.0
 41
1.0
 10
10549.39786124657
 20
-4057.561017326695
 30
0.0
 41
0.9998221843294437
 10
10549.37143583025
 20
-4057.597347847229
 30
0.0
 41
1.0
 10
10549.34501571822
 20
-4057.633671192106
 30
0.0
 41
0.9998110209406353
 10
10549.32002757691
 20
-4057.670994113969
 30
0.0
 41
1.0
 10
10549.29504880895
 20
-4057.708303531651
 30
0.0
 41
0.9997986688571864
 10
10549.27158711305
 20
-4057.746585124126
 30
0.0
 41
1.0
 10
10549.27155771558
 20
-4057.746633091801
 30
0.0
 41
1.0
 10
10549.27152831811
 20
-4057.746681059476
 30
0.0
 41
1.0
 10
10549.24813061347
 20
-4057.784858955138
 30
0.0
 41
0.9997850365378735
 10
10549.22633581272
 20
-4057.82397405401
 30
0.0
 41
1.0
 10
10549.22433005022
 20
-4057.827573793199
 30
0.0
 41
1.0
 10
10549.22232428772
 20
-4057.831173532388
 30
0.0
 41
1.0
 10
10549.20454101196
 20
-4057.863089152881
 30
0.0
 41
0.9997724351811142
 10
10549.18813529527
 20
-4057.895734277906
 30
0.0
 41
1.0
 10
10549.17172957857
 20
-4057.928379402929
 30
0.0
 41
0.9999087099856272
 10
10549.15621196772
 20
-4057.961455912443
 30
0.0
 41
1.0
 10
10549.15492207996
 20
-4057.964205368213
 30
0.0
 41
1.0
 10
10549.1536321922
 20
-4057.966954823983
 30
0.0
 41
1.0
 10
10549.13553480583
 20
-4058.005530245035
 30
0.0
 41
0.9996543291008386
 10
10549.119490118
 20
-4058.045003609408
 30
0.0
 41
1.0
 10
10549.11681259501
 20
-4058.051590888729
 30
0.0
 41
1.0
 10
10549.11413507203
 20
-4058.058178168049
 30
0.0
 41
1.0
 10
10549.09273046052
 20
-4058.110838091261
 30
0.0
 41
0.9996749024994905
 10
10549.07403813006
 20
-4058.16452069262
 30
0.0
 41
1.0
 10
10549.05533743302
 20
-4058.218225313537
 30
0.0
 41
0.9996930641877286
 10
10549.039319889
 20
-4058.272790326698
 30
0.0
 41
1.0
 10
10549.02329792374
 20
-4058.327368535279
 30
0.0
 41
0.9997091630686905
 10
10549.00992626313
 20
-4058.382655811531
 30
0.0
 41
1.0
 10
10549.00861823511
 20
-4058.38806399685
 30
0.0
 41
1.0
 10
10549.00731020709
 20
-4058.39347218217
 30
0.0
 41
1.0
 10
10548.99655367016
 20
-4058.437946263844
 30
0.0
 41
0.9997218863434035
 10
10548.98790616394
 20
-4058.482878075109
 30
0.0
 41
1.0
 10
10548.98666042196
 20
-4058.489350859491
 30
0.0
 41
1.0
 10
10548.98541467999
 20
-4058.495823643874
 30
0.0
 41
1.0
 10
10548.97925865771
 20
-4058.527809886375
 30
0.0
 41
0.9999034695639041
 10
10548.97399377935
 20
-4058.559954829607
 30
0.0
 41
1.0
 10
10548.97382733479
 20
-4058.560971064126
 30
0.0
 41
1.0
 10
10548.97366089022
 20
-4058.561987298644
 30
0.0
 41
1.0
 10
10548.96872890099
 20
-4058.592099772839
 30
0.0
 41
0.9999349318698395
 10
10548.96448516934
 20
-4058.622316926271
 30
0.0
 41
1.0
 10
10548.96024129198
 20
-4058.652535117179
 30
0.0
 41
0.9999436406262925
 10
10548.95663997366
 20
-4058.682836603335
 30
0.0
 41
1.0
 10
10548.95303833602
 20
-4058.713140587715
 30
0.0
 41
0.9999517495899025
 10
10548.95003273894
 20
-4058.743509480504
 30
0.0
 41
1.0
 10
10548.94702691851
 20
-4058.773880336599
 30
0.0
 41
0.9999591250733268
 10
10548.94457076145
 20
-4058.80430057902
 30
0.0
 41
1.0
 10
10548.94454749936
 20
-4058.804588685887
 30
0.0
 41
1.0
 10
10548.94452423728
 20
-4058.804876792753
 30
0.0
 41
1.0
 10
10548.94211455465
 20
-4058.834721324001
 30
0.0
 41
0.9999657864446452
 10
10548.94019893268
 20
-4058.864601635382
 30
0.0
 41
1.0
 10
10548.94017983632
 20
-4058.864899504742
 30
0.0
 41
1.0
 10
10548.94016073997
 20
-4058.865197374103
 30
0.0
 41
1.0
 10
10548.93828331071
 20
-4058.894481946762
 30
0.0
 41
0.9999755680798244
 10
10548.93681546641
 20
-4058.923789904208
 30
0.0
 41
1.0
 10
10548.93534808857
 20
-4058.953088547887
 30
0.0
 41
0.999983482916117
 10
10548.93421759074
 20
-4058.982402123134
 30
0.0
 41
1.0
 10
10548.93308753446
 20
-4059.011707030415
 30
0.0
 41
0.9999897627165508
 10
10548.93222272364
 20
-4059.041020964306
 30
0.0
 41
1.0
 10
10548.93135787703
 20
-4059.070335913306
 30
0.0
 41
0.9999945283431287
 10
10548.93068699969
 20
-4059.099655942605
 30
0.0
 41
1.0
 10
10548.93066602389
 20
-4059.100572665531
 30
0.0
 41
1.0
 10
10548.9306450481
 20
-4059.101489388457
 30
0.0
 41
1.0
 10
10548.93001611145
 20
-4059.128976341216
 30
0.0
 41
0.9999978577264683
 10
10548.92950097101
 20
-4059.156465662118
 30
0.0
 41
1.0
 10
10548.92898583056
 20
-4059.183954983021
 30
0.0
 41
1.0
 10
10548.92854574174
 20
-4059.209611322542
 30
0.0
 41
1.0
 10
10548.92852998366
 20
-4059.210527568185
 30
0.0
 41
1.0
 10
10548.92851422558
 20
-4059.211443813828
 30
0.0
 41
1.0
  0
LINE
  5
243
330
A
100
AcDbEntity
  8
MODEL
  6
STYLE_05
 62
     7
390
1D
100
AcDbLine
 10
10548.92851422558
 20
-4059.211443813828
 30
0.0
 11
10548.35488650837
 21
-4092.477095902752
 31
0.0
  0
LINE
  5
244
330
A
100
AcDbEntity
  8
MODEL
  6
STYLE_05
 62
     7
390
1D
100
AcDbLine
 10
10562.89931657229
 20
-4046.14327415605
 30
0.0
 11
10549.99994582476
 21
-4056.964832673243
 31
0.0
  0
LWPOLYLINE
  5
245
330
A
100
AcDbEntity
  8
MODEL
  6
STYLE_05
 62
     7
390
1D
100
AcDbPolyline
 90
       53
 70
   128
 43
0.0
 10
10571.25672264225
 20
-4042.68993717484
 42
0.0003506136062015
 10
10571.00785178126
 20
-4042.711438574776
 10
10570.97674160913
 20
-4042.714148342803
 42
0.0014982049521281
 10
10570.72794493889
 20
-4042.736570459406
 10
10570.68648800242
 20
-4042.740431916963
 42
0.001164440819524
 10
10570.52070925916
 20
-4042.756262696528
 42
0.0013456798467477
 10
10570.35501222965
 20
-4042.772925506802
 10
10570.31359924151
 20
-4042.777202691179
 42
0.0036372016793298
 10
10570.06532090632
 20
-4042.804671921969
 10
10570.02375482186
 20
-4042.809577066304
 42
0.0044024212565523
 10
10569.70218737812
 20
-4042.850398525994
 10
10569.70196144103
 20
-4042.850429231335
 42
0.0049881759157522
 10
10569.38167207869
 20
-4042.897216084792
 10
10569.38087553244
 20
-4042.897340569983
 42
0.0055920743723735
 10
10569.06324201188
 20
-4042.950626423568
 10
10569.0548765762
 20
-4042.95212617714
 42
0.0061670073994806
 10
10568.75527955835
 20
-4043.009660469811
 10
10568.74773781634
 20
-4043.011205461044
 42
0.0059332749530104
 10
10568.46466374398
 20
-4043.072704376706
 42
0.0061751338420844
 10
10568.18316444448
 20
-4043.1410390215
 42
0.0064205724086393
 10
10567.90347841014
 20
-4043.216441801491
 10
10567.86822620801
 20
-4043.226433010476
 42
0.0099496895206033
 10
10567.5284296677
 20
-4043.330085490722
 10
10567.49361025515
 20
-4043.341468960651
 42
0.0066575442153221
 10
10567.22672977594
 20
-4043.432670605336
 42
0.0067166983190226
 10
10566.96238435905
 20
-4043.530977161756
 10
10566.93361177343
 20
-4043.542119502264
 42
0.0097972845294047
 10
10566.61560961576
 20
-4043.672488632819
 10
10566.58729564175
 20
-4043.684749725434
 42
0.0067560187991688
 10
10566.33005059498
 20
-4043.80029941024
 42
0.0066713941845013
 10
10566.07600036981
 20
-4043.922715047715
 10
10566.03262962543
 20
-4043.944331198592
 42
0.0110360012516059
 10
10565.69748654062
 20
-4044.120706521625
 10
10565.65501632036
 20
-4044.144269392524
 42
0.0062792541257215
 10
10565.41058281823
 20
-4044.283926309487
 42
0.0060165824317705
 10
10565.16965220829
 20
-4044.429554382651
 42
0.0057738865155817
 10
10564.93221744399
 20
-4044.580825704998
 10
10564.91623754517
 20
-4044.591267974975
 42
0.0068912164056159
 10
10564.65105089841
 20
-4044.769820862172
 10
10564.63537301349
 20
-4044.780693937773
 42
0.0050493452316138
 10
10564.39889342014
 20
-4044.948261333954
 42
0.004565441334146
 10
10564.16567307911
 20
-4045.120349628114
 10
10564.1411018317
 20
-4045.138829081779
 42
0.0040633493662497
 10
10563.95971846898
 20
-4045.277565243767
 42
0.0021457320100577
 10
10563.78006761041
 20
-4045.41854644678
 10
10563.76947777247
 20
-4045.426930514937
 42
0.0034361488917265
 10
10563.57035107287
 20
-4045.586819297141
 10
10563.56936872526
 20
-4045.587619238428
 42
0.0013363886154586
 10
10563.36980859819
 20
-4045.751013231182
 42
0.0017701528080058
 10
10563.17126377821
 20
-4045.915646989315
 10
10563.13826862588
 20
-4045.943204346711
 42
0.0005948970142131
 10
10562.90754857864
 20
-4046.136366831589
 10
10562.89931657225
 20
-4046.14327415605
  0
LINE
  5
246
330
A
100
AcDbEntity
  8
MODEL
  6
STYLE_05
 62
     7
390
1D
100
AcDbLine
 10
10572.37740346035
 20
-4042.810697784713
 30
0.0
 11
10736.69208406616
 21
-4034.217822719099
 31
0.0
  0
LINE
  5
247
330
A
100
AcDbEntity
  8
MODEL
  6
STYLE_05
 62
     7
390
1D
100
AcDbLine
 10
10792.59205554447
 20
-3923.997729653499
 30
0.0
 11
10773.50004757439
 21
-4003.601379358388
 31
0.0
  0
ARC
  5
248
330
A
100
AcDbEntity
  8
MODEL
  6
STYLE_05
 62
     7
390
1D
100
AcDbCircle
 10
10807.17839997669
 20
-3927.49609442932
 30
0.0
 40
15.0
100
AcDbArc
 50
89.99600522321569
 51
166.5130244947391
  0
ARC
  5
249
330
A
100
AcDbEntity
  8
MODEL
  6
STYLE_05
 62
     7
390
1D
100
AcDbCircle
 10
10734.60312908847
 20
-3994.272406622866
 30
0.0
 40
39.99999999999996
100
AcDbArc
 50
272.9935693918071
 51
346.5130244947393
  0
LINE
  5
24A
330
A
100
AcDbEntity
  8
MODEL
  6
STYLE_05
 62
     7
390
1D
100
AcDbLine
 10
11342.99206375577
 20
-3919.0
 30
0.0
 11
11386.50078952184
 21
-4021.573029423474
 31
0.0
  0
LINE
  5
24B
330
A
100
AcDbEntity
  8
MODEL
  6
STYLE_05
 62
     7
390
1D
100
AcDbLine
 10
11410.0
 20
-4037.00503787314
 30
0.0
 11
11496.17203672397
 21
-4042.687688528494
 31
0.0
  0
ARC
  5
24C
330
A
100
AcDbEntity
  8
MODEL
  6
STYLE_05
 62
     7
390
1D
100
AcDbCircle
 10
11410.06131184005
 20
-4011.303868121232
 30
0.0
 40
25.70124288352872
100
AcDbArc
 50
203.5506084369792
 51
269.8633173883172
  0
DIMENSION
  5
2D3
330
A
100
AcDbEntity
  8
DIM
100
AcDbDimension
  2
*D24
 10
11522.43134946402
 20
-4042.47644389739
 30
0.0
 11
11522.43134946402
 21
-3816.289704639576
 31
0.0
 70
   160
 71
     5
 42
130.0
 73
     0
 74
     1
 75
     1
  3
tfrom線あり
100
AcDbAlignedDimension
 13
11542.60902522468
 23
-3912.47644389739
 33
0.0
 14
11542.60902522468
 24
-4042.47644389739
 34
0.0
 50
90.0
100
AcDbRotatedDimension
1001
ACAD
1000
DSTYLE
1002
{
1070
     3
1000
<>(深さ)
1070
   172
1070
     1
1070
   147
1040
10.0
1070
   341
1005
0
1002
}
  0
INSERT
  5
33D
330
A
100
AcDbEntity
  8
0
  6
Continuous
370
     0
100
AcDbBlockReference
  2
名称未設定-1
 10
11723.3304033587
 20
-5104.008078027223
 30
0.0
 41
0.7619999999999999
 42
0.7619999999999999
 43
0.7619999999999999
  0
LWPOLYLINE
  5
348
330
A
100
AcDbEntity
  8
レイヤー 1
  6
Continuous
370
     0
100
AcDbPolyline
 90
        4
 70
     1
 43
0.0
 10
9853.057220377974
 20
-5133.753487665335
 10
9853.057220377974
 20
-2163.753487665335
 10
11953.05722037797
 20
-2163.753487665335
 10
11953.05722037797
 20
-5133.753487665335
  0
CIRCLE
  5
358
330
A
100
AcDbEntity
  8
MODEL
  6
STYLE_13
 62
     7
390
1D
100
AcDbCircle
 10
10525.25768337962
 20
-2878.638191719358
 30
0.0
 40
16.0
  0
ENDSEC
  0
SECTION
  2
OBJECTS
  0
DICTIONARY
  5
19
330
0
100
AcDbDictionary
281
     1
  3
ACAD_COLOR
350
2F3
  3
ACAD_DETAILVIEWSTYLE
350
346
  3
ACAD_GROUP
350
1A
  3
ACAD_IMAGE_VARS
350
290
  3
ACAD_LAYOUT
350
1E
  3
ACAD_MATERIAL
350
288
  3
ACAD_MLEADERSTYLE
350
2F7
  3
ACAD_MLINESTYLE
350
1B
  3
ACAD_PLOTSETTINGS
350
22
  3
ACAD_PLOTSTYLENAME
350
1F
  3
ACAD_SCALELIST
350
24D
  3
ACAD_SECTIONVIEWSTYLE
350
347
  3
ACAD_TABLESTYLE
350
28C
  3
ACAD_VISUALSTYLE
350
26F
  3
ACDB_RECOMPOSE_DATA
350
380
  3
AcDbVariableDictionary
350
33E
  3
APPDATA
350
28E
  0
SUN
  5
28F
330
15
100
AcDbSun
 90
        1
290
     0
 63
     7
421
 16777215
 40
1.0
291
     1
 91
  2455826
 92
 54000000
292
     0
 70
     2
 71
   256
280
     1
  0
DICTIONARY
  5
349
330
2
100
AcDbDictionary
280
     1
281
     1
  3
ACAD_LAYERSTATES
360
34A
  3
ACLYDICTIONARY
360
366
  0
DICTIONARY
  5
2F3
102
{ACAD_REACTORS
330
19
102
}
330
19
100
AcDbDictionary
281
     1
  0
DICTIONARY
  5
346
102
{ACAD_REACTORS
330
19
102
}
330
19
100
AcDbDictionary
281
     1
  0
DICTIONARY
  5
1A
102
{ACAD_REACTORS
330
19
102
}
330
19
100
AcDbDictionary
281
     1
  0
RASTERVARIABLES
  5
290
102
{ACAD_REACTORS
330
19
102
}
330
19
100
AcDbRasterVariables
 90
        0
 70
     1
 71
     1
 72
     1
  0
DICTIONARY
  5
1E
102
{ACAD_REACTORS
330
19
102
}
330
19
100
AcDbDictionary
281
     1
  3
Layout1
350
21
  3
Model
350
20
  0
DICTIONARY
  5
288
102
{ACAD_REACTORS
330
19
102
}
330
19
100
AcDbDictionary
281
     1
  3
ByBlock
350
28A
  3
ByLayer
350
289
  3
Global
350
28B
  0
DICTIONARY
  5
2F7
102
{ACAD_REACTORS
330
19
102
}
330
19
100
AcDbDictionary
281
     1
  3
Standard
350
377
  0
DICTIONARY
  5
1B
102
{ACAD_REACTORS
330
19
102
}
330
19
100
AcDbDictionary
281
     1
  3
Standard
350
1C
  0
DICTIONARY
  5
22
102
{ACAD_REACTORS
330
19
102
}
330
19
100
AcDbDictionary
281
     1
  0
ACDBDICTIONARYWDFLT
  5
1F
102
{ACAD_REACTORS
330
19
102
}
330
19
100
AcDbDictionary
281
     1
  3
Normal
350
1D
100
AcDbDictionaryWithDefault
340
1D
  0
DICTIONARY
  5
24D
102
{ACAD_REACTORS
330
19
102
}
330
19
100
AcDbDictionary
281
     1
  3
A0
350
24E
  3
A1
350
24F
  3
A2
350
250
  3
A3
350
251
  3
A4
350
252
  3
A5
350
253
  3
A6
350
254
  3
A7
350
255
  3
A8
350
256
  3
A9
350
257
  3
B0
350
258
  3
B1
350
259
  3
B2
350
25A
  3
B3
350
25B
  3
B4
350
25C
  3
B5
350
25D
  3
B6
350
25E
  3
B7
350
25F
  3
B8
350
260
  3
B9
350
261
  3
C0
350
262
  3
C1
350
263
  3
C2
350
264
  3
C3
350
265
  3
C4
350
266
  3
C5
350
267
  3
C6
350
268
  3
C7
350
269
  3
C8
350
26A
  3
C9
350
26B
  3
D0
350
26C
  3
D1
350
26D
  3
D2
350
26E
  0
DICTIONARY
  5
347
102
{ACAD_REACTORS
330
19
102
}
330
19
100
AcDbDictionary
281
     1
  0
DICTIONARY
  5
28C
102
{ACAD_REACTORS
330
19
102
}
330
19
100
AcDbDictionary
281
     1
  3
Standard
350
28D
  0
DICTIONARY
  5
26F
102
{ACAD_REACTORS
330
19
102
}
330
19
100
AcDbDictionary
281
     1
  3
2dWireframe
350
274
  3
Basic
350
277
  3
Brighten
350
27B
  3
ColorChange
350
27F
  3
Conceptual
350
279
  3
Dim
350
27A
  3
EdgeColorOff
350
282
  3
Facepattern
350
27E
  3
Flat
350
270
  3
FlatWithEdges
350
271
  3
Gouraud
350
272
  3
GouraudWithEdges
350
273
  3
Hidden
350
276
  3
JitterOff
350
280
  3
Linepattern
350
27D
  3
OverhangOff
350
281
  3
Realistic
350
278
  3
Shaded
350
287
  3
Shaded with edges
350
286
  3
Shades of Gray
350
283
  3
Sketchy
350
284
  3
Thicken
350
27C
  3
Wireframe
350
275
  3
X-Ray
350
285
  0
XRECORD
  5
380
102
{ACAD_REACTORS
330
19
102
}
330
19
100
AcDbXrecord
280
     1
 90
        1
330
28D
  0
DICTIONARY
  5
33E
102
{ACAD_REACTORS
330
19
102
}
330
19
100
AcDbDictionary
281
     1
  3
CANNOSCALE
350
33F
  3
CMLEADERSTYLE
350
37C
  3
CTABLESTYLE
350
344
  3
LIGHTINGUNITS
350
340
  3
MSLTSCALE
350
345
  3
XCLIPFRAME
350
354
  0
DICTIONARY
  5
28E
102
{ACAD_REACTORS
330
19
102
}
330
19
100
AcDbDictionary
281
     1
  0
DICTIONARY
  5
34A
102
{ACAD_REACTORS
330
349
102
}
330
349
100
AcDbDictionary
281
     1
  3
ARGON_LAYERP_3
350
34D
  0
DICTIONARY
  5
366
102
{ACAD_REACTORS
330
349
102
}
330
349
100
AcDbDictionary
281
     1
1001
ACAD
1000
<All
  0
LAYOUT
  5
21
102
{ACAD_REACTORS
330
1E
102
}
330
1E
100
AcDbPlotSettings
  1

  2

  4

  6

 40
0.0
 41
0.0
 42
0.0
 43
0.0
 44
0.0
 45
0.0
 46
0.0
 47
0.0
 48
0.0
 49
0.0
140
0.0
141
0.0
142
1.0
143
1.0
 70
     0
 72
     0
 73
     0
 74
     0
  7

 75
     0
 76
     0
 77
     2
 78
   300
147
1.0
148
0.0
149
0.0
100
AcDbLayout
  1
Layout1
 70
     0
 71
     0
 10
0.0
 20
0.0
 11
0.0
 21
0.0
 12
0.0
 22
0.0
 32
0.0
 14
0.0
 24
0.0
 34
0.0
 15
0.0
 25
0.0
 35
0.0
146
0.0
 13
0.0
 23
0.0
 33
0.0
 16
0.0
 26
0.0
 36
0.0
 17
0.0
 27
0.0
 37
0.0
 76
     0
330
B
  0
LAYOUT
  5
20
102
{ACAD_REACTORS
330
1E
102
}
330
1E
100
AcDbPlotSettings
  1

  2

  4

  6

 40
0.0
 41
0.0
 42
0.0
 43
0.0
 44
0.0
 45
0.0
 46
0.0
 47
0.0
 48
0.0
 49
0.0
140
0.0
141
0.0
142
1.0
143
1.0
 70
  1024
 72
     0
 73
     0
 74
     0
  7

 75
     0
 76
     0
 77
     2
 78
   300
147
1.0
148
0.0
149
0.0
100
AcDbLayout
  1
Model
 70
     0
 71
     1
 10
9853.057220377974
 20
-5133.753487665335
 11
11953.05722037797
 21
-2163.753487665335
 12
0.0
 22
0.0
 32
0.0
 14
9853.057220377974
 24
-5133.753487665335
 34
-0.0000000044268816
 15
11953.05722037797
 25
-2163.753487665335
 35
0.0000001972557847
146
0.0
 13
0.0
 23
0.0
 33
0.0
 16
0.0
 26
0.0
 36
0.0
 17
0.0
 27
0.0
 37
0.0
 76
     0
330
A
331
15
  0
MATERIAL
  5
28A
102
{ACAD_REACTORS
330
288
102
}
330
288
100
AcDbMaterial
  1
ByBlock
 72
     1
 94
      127
  0
MATERIAL
  5
289
102
{ACAD_REACTORS
330
288
102
}
330
288
100
AcDbMaterial
  1
ByLayer
 72
     1
 94
      127
  0
MATERIAL
  5
28B
102
{ACAD_REACTORS
330
288
102
}
330
288
100
AcDbMaterial
  1
Global
 72
     1
 94
      127
  0
MLEADERSTYLE
  5
377
102
{ACAD_REACTORS
330
2F7
102
}
330
2F7
100
AcDbMLeaderStyle
170
     2
171
     1
172
     0
 90
        2
 40
0.0
 41
0.0
173
     1
 91
-1056964608
340
11
 92
       -2
290
     1
 42
2.0
291
     1
 43
8.0
  3
Standard
341
0
 44
4.0
300

342
17
174
     1
178
     6
175
     1
176
     0
 93
-1056964608
 45
4.0
292
     0
297
     0
 46
4.0
343
0
 94
-1056964608
 47
1.0
 49
1.0
140
1.0
293
     1
141
0.0
294
     1
177
     0
142
1.0
295
     0
296
     0
143
3.75
1001
ACAD_MLEADERVER
1070
     2
  0
MLINESTYLE
  5
1C
102
{ACAD_REACTORS
330
1B
102
}
330
1B
100
AcDbMlineStyle
  2
Standard
 70
     0
  3

 62
     0
 51
90.0
 52
90.0
 71
     2
 49
0.5
 62
   256
  6
BYLAYER
 49
-0.5
 62
   256
  6
BYLAYER
  0
ACDBPLACEHOLDER
  5
1D
102
{ACAD_REACTORS
330
1F
102
}
330
1F
  0
SCALE
  5
24E
102
{ACAD_REACTORS
330
24D
102
}
330
24D
100
AcDbScale
 70
     0
300
1:1
140
1.0
141
1.0
290
     1
  0
SCALE
  5
24F
102
{ACAD_REACTORS
330
24D
102
}
330
24D
100
AcDbScale
 70
     0
300
1:2
140
1.0
141
2.0
290
     0
  0
SCALE
  5
250
102
{ACAD_REACTORS
330
24D
102
}
330
24D
100
AcDbScale
 70
     0
300
1:4
140
1.0
141
4.0
290
     0
  0
SCALE
  5
251
102
{ACAD_REACTORS
330
24D
102
}
330
24D
100
AcDbScale
 70
     0
300
1:5
140
1.0
141
5.0
290
     0
  0
SCALE
  5
252
102
{ACAD_REACTORS
330
24D
102
}
330
24D
100
AcDbScale
 70
     0
300
1:8
140
1.0
141
8.0
290
     0
  0
SCALE
  5
253
102
{ACAD_REACTORS
330
24D
102
}
330
24D
100
AcDbScale
 70
     0
300
1:10
140
1.0
141
10.0
290
     0
  0
SCALE
  5
254
102
{ACAD_REACTORS
330
24D
102
}
330
24D
100
AcDbScale
 70
     0
300
1:16
140
1.0
141
16.0
290
     0
  0
SCALE
  5
255
102
{ACAD_REACTORS
330
24D
102
}
330
24D
100
AcDbScale
 70
     0
300
1:20
140
1.0
141
20.0
290
     0
  0
SCALE
  5
256
102
{ACAD_REACTORS
330
24D
102
}
330
24D
100
AcDbScale
 70
     0
300
1:30
140
1.0
141
30.0
290
     0
  0
SCALE
  5
257
102
{ACAD_REACTORS
330
24D
102
}
330
24D
100
AcDbScale
 70
     0
300
1:40
140
1.0
141
40.0
290
     0
  0
SCALE
  5
258
102
{ACAD_REACTORS
330
24D
102
}
330
24D
100
AcDbScale
 70
     0
300
1:50
140
1.0
141
50.0
290
     0
  0
SCALE
  5
259
102
{ACAD_REACTORS
330
24D
102
}
330
24D
100
AcDbScale
 70
     0
300
1:100
140
1.0
141
100.0
290
     0
  0
SCALE
  5
25A
102
{ACAD_REACTORS
330
24D
102
}
330
24D
100
AcDbScale
 70
     0
300
2:1
140
2.0
141
1.0
290
     0
  0
SCALE
  5
25B
102
{ACAD_REACTORS
330
24D
102
}
330
24D
100
AcDbScale
 70
     0
300
4:1
140
4.0
141
1.0
290
     0
  0
SCALE
  5
25C
102
{ACAD_REACTORS
330
24D
102
}
330
24D
100
AcDbScale
 70
     0
300
8:1
140
8.0
141
1.0
290
     0
  0
SCALE
  5
25D
102
{ACAD_REACTORS
330
24D
102
}
330
24D
100
AcDbScale
 70
     0
300
10:1
140
10.0
141
1.0
290
     0
  0
SCALE
  5
25E
102
{ACAD_REACTORS
330
24D
102
}
330
24D
100
AcDbScale
 70
     0
300
100:1
140
100.0
141
1.0
290
     0
  0
SCALE
  5
25F
102
{ACAD_REACTORS
330
24D
102
}
330
24D
100
AcDbScale
 70
     0
300
1/128" = 1'-0"
140
0.0078125
141
12.0
290
     0
  0
SCALE
  5
260
102
{ACAD_REACTORS
330
24D
102
}
330
24D
100
AcDbScale
 70
     0
300
1/64" = 1'-0"
140
0.015625
141
12.0
290
     0
  0
SCALE
  5
261
102
{ACAD_REACTORS
330
24D
102
}
330
24D
100
AcDbScale
 70
     0
300
1/32" = 1'-0"
140
0.03125
141
12.0
290
     0
  0
SCALE
  5
262
102
{ACAD_REACTORS
330
24D
102
}
330
24D
100
AcDbScale
 70
     0
300
1/16" = 1'-0"
140
0.0625
141
12.0
290
     0
  0
SCALE
  5
263
102
{ACAD_REACTORS
330
24D
102
}
330
24D
100
AcDbScale
 70
     0
300
3/32" = 1'-0"
140
0.09375
141
12.0
290
     0
  0
SCALE
  5
264
102
{ACAD_REACTORS
330
24D
102
}
330
24D
100
AcDbScale
 70
     0
300
1/8" = 1'-0"
140
0.125
141
12.0
290
     0
  0
SCALE
  5
265
102
{ACAD_REACTORS
330
24D
102
}
330
24D
100
AcDbScale
 70
     0
300
3/16" = 1'-0"
140
0.1875
141
12.0
290
     0
  0
SCALE
  5
266
102
{ACAD_REACTORS
330
24D
102
}
330
24D
100
AcDbScale
 70
     0
300
1/4" = 1'-0"
140
0.25
141
12.0
290
     0
  0
SCALE
  5
267
102
{ACAD_REACTORS
330
24D
102
}
330
24D
100
AcDbScale
 70
     0
300
3/8" = 1'-0"
140
0.375
141
12.0
290
     0
  0
SCALE
  5
268
102
{ACAD_REACTORS
330
24D
102
}
330
24D
100
AcDbScale
 70
     0
300
1/2" = 1'-0"
140
0.5
141
12.0
290
     0
  0
SCALE
  5
269
102
{ACAD_REACTORS
330
24D
102
}
330
24D
100
AcDbScale
 70
     0
300
3/4" = 1'-0"
140
0.75
141
12.0
290
     0
  0
SCALE
  5
26A
102
{ACAD_REACTORS
330
24D
102
}
330
24D
100
AcDbScale
 70
     0
300
1" = 1'-0"
140
1.0
141
12.0
290
     0
  0
SCALE
  5
26B
102
{ACAD_REACTORS
330
24D
102
}
330
24D
100
AcDbScale
 70
     0
300
1-1/2" = 1'-0"
140
1.5
141
12.0
290
     0
  0
SCALE
  5
26C
102
{ACAD_REACTORS
330
24D
102
}
330
24D
100
AcDbScale
 70
     0
300
3" = 1'-0"
140
3.0
141
12.0
290
     0
  0
SCALE
  5
26D
102
{ACAD_REACTORS
330
24D
102
}
330
24D
100
AcDbScale
 70
     0
300
6" = 1'-0"
140
6.0
141
12.0
290
     0
  0
SCALE
  5
26E
102
{ACAD_REACTORS
330
24D
102
}
330
24D
100
AcDbScale
 70
     0
300
1'-0" = 1'-0"
140
12.0
141
12.0
290
     0
  0
TABLESTYLE
  5
28D
102
{ACAD_REACTORS
330
28C
102
}
102
{ACAD_XDICTIONARY
360
37E
102
}
330
28C
100
AcDbTableStyle
  3
Standard
 70
     0
 71
     0
 40
0.06
 41
0.06
280
     0
281
     0
  7
Standard
140
4.5
170
     2
 62
     0
 63
   257
283
     0
 90
        4
 91
        0
  1

274
    -2
284
     1
 64
     0
275
    -2
285
     1
 65
     0
276
    -2
286
     1
 66
     0
277
    -2
287
     1
 67
     0
278
    -2
288
     1
 68
     0
279
    -2
289
     1
 69
     0
  7
Standard
140
6.0
170
     5
 62
     0
 63
   257
283
     0
 90
        4
 91
        0
  1

274
    -2
284
     1
 64
     0
275
    -2
285
     1
 65
     0
276
    -2
286
     1
 66
     0
277
    -2
287
     1
 67
     0
278
    -2
288
     1
 68
     0
279
    -2
289
     1
 69
     0
  7
Standard
140
4.5
170
     5
 62
     0
 63
   257
283
     0
 90
        4
 91
        0
  1

274
    -2
284
     1
 64
     0
275
    -2
285
     1
 65
     0
276
    -2
286
     1
 66
     0
277
    -2
287
     1
 67
     0
278
    -2
288
     1
 68
     0
279
    -2
289
     1
 69
     0
  0
VISUALSTYLE
  5
274
102
{ACAD_REACTORS
330
26F
102
}
330
26F
100
AcDbVisualStyle
  2
2dWireframe
 70
     4
 71
     0
 72
     2
 73
     0
 90
        0
 40
0.6
 41
30.0
 62
     5
 63
     7
421
 16777215
 74
     1
 91
        4
 64
     7
 65
   257
 75
     1
175
     1
 42
1.0
 92
        0
 66
   257
 43
1.0
 76
     1
 77
     6
 78
     2
 67
     7
 79
     5
170
     0
171
     0
290
     0
174
     0
 93
        1
 44
0.0
173
     0
291
     0
 45
0.0
  0
VISUALSTYLE
  5
277
102
{ACAD_REACTORS
330
26F
102
}
330
26F
100
AcDbVisualStyle
  2
Basic
 70
     7
 71
     1
 72
     0
 73
     1
 90
        0
 40
0.6
 41
30.0
 62
     5
 63
     7
421
 16777215
 74
     0
 91
        4
 64
     7
 65
   257
 75
     1
175
     1
 42
1.0
 92
        8
 66
     7
 43
1.0
 76
     1
 77
     6
 78
     2
 67
     7
 79
     5
170
     0
171
     0
290
     0
174
     0
 93
        1
 44
0.0
173
     0
291
     1
 45
0.0
  0
VISUALSTYLE
  5
27B
102
{ACAD_REACTORS
330
26F
102
}
330
26F
100
AcDbVisualStyle
  2
Brighten
 70
    12
 71
     2
 72
     2
 73
     0
 90
        0
 40
0.6
 41
30.0
 62
     5
 63
     7
421
 16777215
 74
     1
 91
        4
 64
     7
 65
   257
 75
     1
175
     1
 42
1.0
 92
        8
 66
     7
 43
1.0
 76
     1
 77
     6
 78
     2
 67
     7
 79
     5
170
     0
171
     0
290
     0
174
     0
 93
        1
 44
50.0
173
     0
291
     1
 45
0.0
  0
VISUALSTYLE
  5
27F
102
{ACAD_REACTORS
330
26F
102
}
330
26F
100
AcDbVisualStyle
  2
ColorChange
 70
    16
 71
     2
 72
     2
 73
     3
 90
        0
 40
0.6
 41
30.0
 62
     5
 63
     8
421
  8421504
 74
     1
 91
        4
 64
     7
 65
   257
 75
     1
175
     1
 42
1.0
 92
        8
 66
     8
424
  8421504
 43
1.0
 76
     1
 77
     6
 78
     2
 67
     7
 79
     5
170
     0
171
     0
290
     0
174
     0
 93
        1
 44
0.0
173
     0
291
     1
 45
0.0
  0
VISUALSTYLE
  5
279
102
{ACAD_REACTORS
330
26F
102
}
330
26F
100
AcDbVisualStyle
  2
Conceptual
 70
     9
 71
     3
 72
     2
 73
     0
 90
        0
 40
0.6
 41
30.0
 62
     5
 63
     7
421
 16777215
 74
     2
 91
        2
 64
     7
 65
   257
 75
     1
175
     1
 42
179.0
 92
        8
 66
     7
 43
1.0
 76
     1
 77
     6
 78
     2
 67
     7
 79
     3
170
     0
171
     0
290
     0
174
     0
 93
        1
 44
0.0
173
     0
291
     0
 45
0.0
  0
VISUALSTYLE
  5
27A
102
{ACAD_REACTORS
330
26F
102
}
330
26F
100
AcDbVisualStyle
  2
Dim
 70
    11
 71
     2
 72
     2
 73
     0
 90
        0
 40
0.6
 41
30.0
 62
     5
 63
     7
421
 16777215
 74
     1
 91
        4
 64
     7
 65
   257
 75
     1
175
     1
 42
1.0
 92
        8
 66
     7
 43
1.0
 76
     1
 77
     6
 78
     2
 67
     7
 79
     5
170
     0
171
     0
290
     0
174
     0
 93
        1
 44
-50.0
173
     0
291
     1
 45
0.0
  0
VISUALSTYLE
  5
282
102
{ACAD_REACTORS
330
26F
102
}
330
26F
100
AcDbVisualStyle
  2
EdgeColorOff
 70
    22
 71
     2
 72
     2
 73
     0
 90
        0
 40
0.6
 41
30.0
 62
     5
 63
     7
421
 16777215
 74
     1
 91
        4
 64
     7
 65
   257
 75
     1
175
     1
 42
1.0
 92
        8
 66
     7
 43
1.0
 76
     1
 77
     6
 78
     2
 67
     7
 79
     5
170
     0
171
     0
290
     0
174
     0
 93
        1
 44
0.0
173
     0
291
     1
 45
0.0
  0
VISUALSTYLE
  5
27E
102
{ACAD_REACTORS
330
26F
102
}
330
26F
100
AcDbVisualStyle
  2
Facepattern
 70
    15
 71
     2
 72
     2
 73
     0
 90
        0
 40
0.6
 41
30.0
 62
     5
 63
     7
421
 16777215
 74
     1
 91
        4
 64
     7
 65
   257
 75
     1
175
     1
 42
1.0
 92
        8
 66
     7
 43
1.0
 76
     1
 77
     6
 78
     2
 67
     7
 79
     5
170
     0
171
     0
290
     0
174
     0
 93
        1
 44
0.0
173
     0
291
     1
 45
0.0
  0
VISUALSTYLE
  5
270
102
{ACAD_REACTORS
330
26F
102
}
330
26F
100
AcDbVisualStyle
  2
Flat
 70
     0
 71
     2
 72
     1
 73
     1
 90
        2
 40
0.6
 41
30.0
 62
     5
 63
     7
421
 16777215
 74
     0
 91
        0
 64
     7
 65
   257
 75
     1
175
     1
 42
1.0
 92
        8
 66
     7
 43
1.0
 76
     1
 77
     6
 78
     2
 67
     7
 79
     5
170
     0
171
     0
290
     0
174
     0
 93
       13
 44
0.0
173
     0
291
     1
 45
0.0
  0
VISUALSTYLE
  5
271
102
{ACAD_REACTORS
330
26F
102
}
330
26F
100
AcDbVisualStyle
  2
FlatWithEdges
 70
     1
 71
     2
 72
     1
 73
     1
 90
        2
 40
0.6
 41
30.0
 62
     5
 63
     7
421
 16777215
 74
     1
 91
        0
 64
     7
 65
   257
 75
     1
175
     1
 42
1.0
 92
        0
 66
   257
 43
1.0
 76
     1
 77
     6
 78
     2
 67
     7
 79
     5
170
     0
171
     0
290
     0
174
     0
 93
       13
 44
0.0
173
     0
291
     1
 45
0.0
  0
VISUALSTYLE
  5
272
102
{ACAD_REACTORS
330
26F
102
}
330
26F
100
AcDbVisualStyle
  2
Gouraud
 70
     2
 71
     2
 72
     2
 73
     1
 90
        2
 40
0.6
 41
30.0
 62
     5
 63
     7
421
 16777215
 74
     0
 91
        0
 64
     7
 65
   257
 75
     1
175
     1
 42
1.0
 92
        0
 66
     7
 43
1.0
 76
     1
 77
     6
 78
     2
 67
     7
 79
     5
170
     0
171
     0
290
     0
174
     0
 93
       13
 44
0.0
173
     0
291
     1
 45
0.0
  0
VISUALSTYLE
  5
273
102
{ACAD_REACTORS
330
26F
102
}
330
26F
100
AcDbVisualStyle
  2
GouraudWithEdges
 70
     3
 71
     2
 72
     2
 73
     1
 90
        2
 40
0.6
 41
30.0
 62
     5
 63
     7
421
 16777215
 74
     1
 91
        0
 64
     7
 65
   257
 75
     1
175
     1
 42
1.0
 92
        0
 66
   257
 43
1.0
 76
     1
 77
     6
 78
     2
 67
     7
 79
     5
170
     0
171
     0
290
     0
174
     0
 93
       13
 44
0.0
173
     0
291
     1
 45
0.0
  0
VISUALSTYLE
  5
276
102
{ACAD_REACTORS
330
26F
102
}
330
26F
100
AcDbVisualStyle
  2
Hidden
 70
     6
 71
     1
 72
     2
 73
     2
 90
        0
 40
0.6
 41
30.0
 62
     5
 63
     7
421
 16777215
 74
     2
 91
        2
 64
     7
 65
   257
 75
     2
175
     1
 42
40.0
 92
        0
 66
   257
 43
1.0
 76
     1
 77
     6
 78
     2
 67
     7
 79
     3
170
     0
171
     0
290
     0
174
     0
 93
        1
 44
0.0
173
     0
291
     0
 45
0.0
  0
VISUALSTYLE
  5
280
102
{ACAD_REACTORS
330
26F
102
}
330
26F
100
AcDbVisualStyle
  2
JitterOff
 70
    20
 71
     2
 72
     2
 73
     0
 90
        0
 40
0.6
 41
30.0
 62
     5
 63
     7
421
 16777215
 74
     1
 91
        4
 64
     7
 65
   257
 75
     1
175
     1
 42
1.0
 92
       10
 66
     7
 43
1.0
 76
     1
 77
     6
 78
     2
 67
     7
 79
     5
170
     0
171
     0
290
     0
174
     0
 93
        1
 44
0.0
173
     0
291
     1
 45
0.0
  0
VISUALSTYLE
  5
27D
102
{ACAD_REACTORS
330
26F
102
}
330
26F
100
AcDbVisualStyle
  2
Linepattern
 70
    14
 71
     2
 72
     2
 73
     0
 90
        0
 40
0.6
 41
30.0
 62
     5
 63
     7
421
 16777215
 74
     1
 91
        4
 64
     7
 65
   257
 75
     7
175
     7
 42
1.0
 92
        8
 66
     7
 43
1.0
 76
     1
 77
     6
 78
     2
 67
     7
 79
     5
170
     0
171
     0
290
     0
174
     0
 93
        1
 44
0.0
173
     0
291
     1
 45
0.0
  0
VISUALSTYLE
  5
281
102
{ACAD_REACTORS
330
26F
102
}
330
26F
100
AcDbVisualStyle
  2
OverhangOff
 70
    21
 71
     2
 72
     2
 73
     0
 90
        0
 40
0.6
 41
30.0
 62
     5
 63
     7
421
 16777215
 74
     1
 91
        4
 64
     7
 65
   257
 75
     1
175
     1
 42
1.0
 92
        9
 66
     7
 43
1.0
 76
     1
 77
     6
 78
     2
 67
     7
 79
     5
170
     0
171
     0
290
     0
174
     0
 93
        1
 44
0.0
173
     0
291
     1
 45
0.0
  0
VISUALSTYLE
  5
278
102
{ACAD_REACTORS
330
26F
102
}
330
26F
100
AcDbVisualStyle
  2
Realistic
 70
     8
 71
     2
 72
     3
 73
     0
 90
        2
 40
0.6
 41
30.0
 62
     5
 63
     7
421
 16777215
 74
     0
 91
        0
 64
     7
 65
   257
 75
     1
175
     1
 42
1.0
 92
        8
 66
   257
 43
1.0
 76
     1
 77
     6
 78
     2
 67
     7
 79
     3
170
     0
171
     0
290
     0
174
     0
 93
       13
 44
0.0
173
     0
291
     0
 45
0.0
  0
VISUALSTYLE
  5
287
102
{ACAD_REACTORS
330
26F
102
}
330
26F
100
AcDbVisualStyle
  2
Shaded
 70
    27
 71
     2
 72
     2
 73
     1
 90
        2
 40
0.6
 41
30.0
 62
     5
 63
     7
421
 16777215
 74
     0
 91
        4
 64
     7
 65
   257
 75
     1
175
     1
 42
1.0
 92
        8
 66
   257
 43
1.0
 76
     1
 77
     6
 78
     2
 67
     8
425
  7895160
 79
     3
170
     0
171
     0
290
     0
174
     0
 93
        5
 44
0.0
173
     0
291
     0
 45
0.0
  0
VISUALSTYLE
  5
286
102
{ACAD_REACTORS
330
26F
102
}
330
26F
100
AcDbVisualStyle
  2
Shaded with edges
 70
    26
 71
     2
 72
     2
 73
     1
 90
        2
 40
0.6
 41
30.0
 62
     5
 63
     7
421
 16777215
 74
     1
 91
       10
 64
     7
 65
   257
 75
     2
175
     1
 42
1.0
 92
        8
 66
   257
 43
1.0
 76
     1
 77
     6
 78
     2
 67
     7
 79
     3
170
     0
171
     0
290
     0
174
     0
 93
        5
 44
0.0
173
     0
291
     0
 45
0.0
  0
VISUALSTYLE
  5
283
102
{ACAD_REACTORS
330
26F
102
}
330
26F
100
AcDbVisualStyle
  2
Shades of Gray
 70
    23
 71
     2
 72
     2
 73
     3
 90
        0
 40
0.6
 41
30.0
 62
     5
 63
     7
421
 16777215
 74
     2
 91
        2
 64
     7
 65
     7
 75
     1
175
     1
 42
40.0
 92
        8
 66
     7
 43
1.0
 76
     1
 77
     6
 78
     2
 67
     7
 79
     3
170
     0
171
     0
290
     0
174
     0
 93
        1
 44
0.0
173
     0
291
     0
 45
0.0
  0
VISUALSTYLE
  5
284
102
{ACAD_REACTORS
330
26F
102
}
330
26F
100
AcDbVisualStyle
  2
Sketchy
 70
    24
 71
     1
 72
     2
 73
     2
 90
        0
 40
0.6
 41
30.0
 62
     5
 63
     7
421
 16777215
 74
     2
 91
        2
 64
     7
 65
     7
 75
     1
175
     1
 42
40.0
 92
       11
 66
     7
 43
1.0
 76
     1
 77
     6
 78
     2
 67
     7
 79
     6
170
     0
171
     0
290
     0
174
     0
 93
        1
 44
0.0
173
     0
291
     0
 45
0.0
  0
VISUALSTYLE
  5
27C
102
{ACAD_REACTORS
330
26F
102
}
330
26F
100
AcDbVisualStyle
  2
Thicken
 70
    13
 71
     2
 72
     2
 73
     0
 90
        0
 40
0.6
 41
30.0
 62
     5
 63
     7
421
 16777215
 74
     1
 91
        4
 64
     7
 65
   257
 75
     1
175
     1
 42
1.0
 92
       12
 66
     7
 43
1.0
 76
     1
 77
     6
 78
     2
 67
     7
 79
     5
170
     0
171
     0
290
     0
174
     0
 93
        1
 44
0.0
173
     0
291
     1
 45
0.0
  0
VISUALSTYLE
  5
275
102
{ACAD_REACTORS
330
26F
102
}
330
26F
100
AcDbVisualStyle
  2
Wireframe
 70
     5
 71
     0
 72
     2
 73
     0
 90
        0
 40
0.6
 41
30.0
 62
     5
 63
     7
421
 16777215
 74
     1
 91
        4
 64
     7
 65
   257
 75
     1
175
     1
 42
1.0
 92
        0
 66
   257
 43
1.0
 76
     1
 77
     6
 78
     2
 67
     7
 79
     3
170
     0
171
     0
290
     0
174
     0
 93
        1
 44
0.0
173
     0
291
     0
 45
0.0
  0
VISUALSTYLE
  5
285
102
{ACAD_REACTORS
330
26F
102
}
330
26F
100
AcDbVisualStyle
  2
X-Ray
 70
    25
 71
     2
 72
     2
 73
     1
 90
        1
 40
0.5
 41
30.0
 62
     5
 63
     7
421
 16777215
 74
     1
 91
        0
 64
     7
 65
   257
 75
     1
175
     1
 42
1.0
 92
        8
 66
     7
 43
1.0
 76
     1
 77
     6
 78
     2
 67
     7
 79
     3
170
     0
171
     0
290
     0
174
     0
 93
       13
 44
0.0
173
     0
291
     0
 45
0.0
  0
DICTIONARYVAR
  5
33F
102
{ACAD_REACTORS
330
33E
102
}
330
33E
100
DictionaryVariables
280
     0
  1
1:1
  0
DICTIONARYVAR
  5
37C
102
{ACAD_REACTORS
330
33E
102
}
330
33E
100
DictionaryVariables
280
     0
  1
Standard
  0
DICTIONARYVAR
  5
344
102
{ACAD_REACTORS
330
33E
102
}
330
33E
100
DictionaryVariables
280
     0
  1
Standard
  0
DICTIONARYVAR
  5
340
102
{ACAD_REACTORS
330
33E
102
}
330
33E
100
DictionaryVariables
280
     0
  1
0
  0
DICTIONARYVAR
  5
345
102
{ACAD_REACTORS
330
33E
102
}
330
33E
100
DictionaryVariables
280
     0
  1
0
  0
DICTIONARYVAR
  5
354
102
{ACAD_REACTORS
330
33E
102
}
330
33E
100
DictionaryVariables
280
     0
  1
0
  0
XRECORD
  5
34D
102
{ACAD_REACTORS
330
34A
102
}
330
34A
100
AcDbXrecord
280
     1
 91
     1023
301

290
     0
302
template
330
14
 90
        8
 62
     7
370
    -3
331
13
  1
Color_7
330
42
 90
        0
 62
     7
370
    -3
331
13
  1
Color_7
330
43
 90
        8
 62
     7
370
    20
331
13
  1
Color_7
330
44
 90
        8
 62
     7
370
    -3
331
13
  1
Color_7
330
45
 90
        8
 62
     7
370
    -3
331
13
  1
Color_7
330
2E4
 90
       10
 62
     7
370
    20
331
13
  1
Color_7
330
2E6
 90
        9
 62
     7
370
    -3
331
13
  1
Color_7
330
364
 90
        8
 62
     7
370
    13
331
13
  1
Color_7
  0
DICTIONARY
  5
37E
330
28D
100
AcDbDictionary
280
     1
281
     1
  3
ACAD_ROUNDTRIP_2008_TABLESTYLE_CELLSTYLEMAP
360
37F
  0
CELLSTYLEMAP
  5
37F
102
{ACAD_REACTORS
330
37E
102
}
330
37E
100
AcDbCellStyleMap
 90
        3
300
CELLSTYLE
  1
TABLEFORMAT_BEGIN
 90
        5
170
     1
 91
        0
 92
        0
 62
   257
 93
        1
300
CONTENTFORMAT
  1
CONTENTFORMAT_BEGIN
 90
        0
 91
        0
 92
        4
 93
        0
300

 40
0.0
140
1.0
 94
        5
 62
     0
340
17
144
6.0
309
CONTENTFORMAT_END
171
     1
301
MARGIN
  1
CELLMARGIN_BEGIN
 40
1.5
 40
1.5
 40
1.5
 40
1.5
 40
1.5
 40
1.5
309
CELLMARGIN_END
 94
        6
 95
        1
302
GRIDFORMAT
  1
GRIDFORMAT_BEGIN
 90
        0
 91
        1
 62
     0
 92
       -2
340
11
 93
        0
 40
0.045
309
GRIDFORMAT_END
 95
        2
302
GRIDFORMAT
  1
GRIDFORMAT_BEGIN
 90
        0
 91
        1
 62
     0
 92
       -2
340
11
 93
        0
 40
0.045
309
GRIDFORMAT_END
 95
        4
302
GRIDFORMAT
  1
GRIDFORMAT_BEGIN
 90
        0
 91
        1
 62
     0
 92
       -2
340
11
 93
        0
 40
0.045
309
GRIDFORMAT_END
 95
        8
302
GRIDFORMAT
  1
GRIDFORMAT_BEGIN
 90
        0
 91
        1
 62
     0
 92
       -2
340
11
 93
        0
 40
0.045
309
GRIDFORMAT_END
 95
       16
302
GRIDFORMAT
  1
GRIDFORMAT_BEGIN
 90
        0
 91
        1
 62
     0
 92
       -2
340
11
 93
        0
 40
0.045
309
GRIDFORMAT_END
 95
       32
302
GRIDFORMAT
  1
GRIDFORMAT_BEGIN
 90
        0
 91
        1
 62
     0
 92
       -2
340
11
 93
        0
 40
0.045
309
GRIDFORMAT_END
309
TABLEFORMAT_END
  1
CELLSTYLE_BEGIN
 90
        1
 91
        1
300
_TITLE
309
CELLSTYLE_END
300
CELLSTYLE
  1
TABLEFORMAT_BEGIN
 90
        5
170
     1
 91
        0
 92
        0
 62
   257
 93
        1
300
CONTENTFORMAT
  1
CONTENTFORMAT_BEGIN
 90
        0
 91
        0
 92
        4
 93
        0
300

 40
0.0
140
1.0
 94
        5
 62
     0
340
17
144
4.5
309
CONTENTFORMAT_END
171
     1
301
MARGIN
  1
CELLMARGIN_BEGIN
 40
1.5
 40
1.5
 40
1.5
 40
1.5
 40
1.5
 40
1.5
309
CELLMARGIN_END
 94
        6
 95
        1
302
GRIDFORMAT
  1
GRIDFORMAT_BEGIN
 90
        0
 91
        1
 62
     0
 92
       -2
340
11
 93
        0
 40
0.045
309
GRIDFORMAT_END
 95
        2
302
GRIDFORMAT
  1
GRIDFORMAT_BEGIN
 90
        0
 91
        1
 62
     0
 92
       -2
340
11
 93
        0
 40
0.045
309
GRIDFORMAT_END
 95
        4
302
GRIDFORMAT
  1
GRIDFORMAT_BEGIN
 90
        0
 91
        1
 62
     0
 92
       -2
340
11
 93
        0
 40
0.045
309
GRIDFORMAT_END
 95
        8
302
GRIDFORMAT
  1
GRIDFORMAT_BEGIN
 90
        0
 91
        1
 62
     0
 92
       -2
340
11
 93
        0
 40
0.045
309
GRIDFORMAT_END
 95
       16
302
GRIDFORMAT
  1
GRIDFORMAT_BEGIN
 90
        0
 91
        1
 62
     0
 92
       -2
340
11
 93
        0
 40
0.045
309
GRIDFORMAT_END
 95
       32
302
GRIDFORMAT
  1
GRIDFORMAT_BEGIN
 90
        0
 91
        1
 62
     0
 92
       -2
340
11
 93
        0
 40
0.045
309
GRIDFORMAT_END
309
TABLEFORMAT_END
  1
CELLSTYLE_BEGIN
 90
        2
 91
        1
300
_HEADER
309
CELLSTYLE_END
300
CELLSTYLE
  1
TABLEFORMAT_BEGIN
 90
        5
170
     1
 91
        0
 92
        0
 62
   257
 93
        1
300
CONTENTFORMAT
  1
CONTENTFORMAT_BEGIN
 90
        0
 91
        0
 92
        4
 93
        0
300

 40
0.0
140
1.0
 94
        2
 62
     0
340
17
144
4.5
309
CONTENTFORMAT_END
171
     1
301
MARGIN
  1
CELLMARGIN_BEGIN
 40
1.5
 40
1.5
 40
1.5
 40
1.5
 40
1.5
 40
1.5
309
CELLMARGIN_END
 94
        6
 95
        1
302
GRIDFORMAT
  1
GRIDFORMAT_BEGIN
 90
        0
 91
        1
 62
     0
 92
       -2
340
11
 93
        0
 40
0.045
309
GRIDFORMAT_END
 95
        2
302
GRIDFORMAT
  1
GRIDFORMAT_BEGIN
 90
        0
 91
        1
 62
     0
 92
       -2
340
11
 93
        0
 40
0.045
309
GRIDFORMAT_END
 95
        4
302
GRIDFORMAT
  1
GRIDFORMAT_BEGIN
 90
        0
 91
        1
 62
     0
 92
       -2
340
11
 93
        0
 40
0.045
309
GRIDFORMAT_END
 95
        8
302
GRIDFORMAT
  1
GRIDFORMAT_BEGIN
 90
        0
 91
        1
 62
     0
 92
       -2
340
11
 93
        0
 40
0.045
309
GRIDFORMAT_END
 95
       16
302
GRIDFORMAT
  1
GRIDFORMAT_BEGIN
 90
        0
 91
        1
 62
     0
 92
       -2
340
11
 93
        0
 40
0.045
309
GRIDFORMAT_END
 95
       32
302
GRIDFORMAT
  1
GRIDFORMAT_BEGIN
 90
        0
 91
        1
 62
     0
 92
       -2
340
11
 93
        0
 40
0.045
309
GRIDFORMAT_END
309
TABLEFORMAT_END
  1
CELLSTYLE_BEGIN
 90
        3
 91
        2
300
_DATA
309
CELLSTYLE_END
  0
ENDSEC
  0
EOF
