  0
SECTION
  2
HEADER
  9
$ACADVER
  1
AC1021
  9
$ACADMAINTVER
 70
    25
  9
$DWGCODEPAGE
  3
ANSI_932
  9
$LASTSAVEDBY
  1
tform
  9
$INSBASE
 10
0.0
 20
0.0
 30
0.0
  9
$EXTMIN
 10
0.0
 20
0.0
 30
-0.0000000000000142
  9
$EXTMAX
 10
2100.0
 20
2970.0
 30
34.99521132346014
  9
$LIMMIN
 10
0.0
 20
0.0
  9
$LIMMAX
 10
2100.0
 20
2970.0
  9
$ORTHOMODE
 70
     1
  9
$REGENMODE
 70
     1
  9
$FILLMODE
 70
     1
  9
$QTEXTMODE
 70
     0
  9
$MIRRTEXT
 70
     1
  9
$LTSCALE
 40
5.0
  9
$ATTMODE
 70
     1
  9
$TEXTSIZE
 40
2.5
  9
$TRACEWID
 40
1.0
  9
$TEXTSTYLE
  7
ＭＳ ゴシック
  9
$CLAYER
  8
MODEL
  9
$CELTYPE
  6
ByLayer
  9
$CECOLOR
 62
   256
  9
$CELTSCALE
 40
1.0
  9
$DISPSILH
 70
     0
  9
$DIMSCALE
 40
1.0
  9
$DIMASZ
 40
10.0
  9
$DIMEXO
 40
30.0
  9
$DIMDLI
 40
0.9999999999999999
  9
$DIMRND
 40
0.0
  9
$DIMDLE
 40
0.0
  9
$DIMEXE
 40
0.0
  9
$DIMTP
 40
0.0
  9
$DIMTM
 40
0.0
  9
$DIMTXT
 40
24.0
  9
$DIMCEN
 40
0.0
  9
$DIMTSZ
 40
0.0
  9
$DIMTOL
 70
     0
  9
$DIMLIM
 70
     0
  9
$DIMTIH
 70
     0
  9
$DIMTOH
 70
     0
  9
$DIMSE1
 70
     0
  9
$DIMSE2
 70
     0
  9
$DIMTAD
 70
     1
  9
$DIMZIN
 70
    11
  9
$DIMBLK
  1
DOT
  9
$DIMASO
 70
     1
  9
$DIMSHO
 70
     1
  9
$DIMPOST
  1
<>
  9
$DIMAPOST
  1
[]
  9
$DIMALT
 70
     0
  9
$DIMALTD
 70
     1
  9
$DIMALTF
 40
1.0
  9
$DIMLFAC
 40
1.0
  9
$DIMTOFL
 70
     0
  9
$DIMTVP
 40
0.0
  9
$DIMTIX
 70
     1
  9
$DIMSOXD
 70
     0
  9
$DIMSAH
 70
     0
  9
$DIMBLK1
  1

  9
$DIMBLK2
  1

  9
$DIMSTYLE
  2
tfrom線あり
  9
$DIMCLRD
 70
     0
  9
$DIMCLRE
 70
     0
  9
$DIMCLRT
 70
     0
  9
$DIMTFAC
 40
1.0
  9
$DIMGAP
 40
20.0
  9
$DIMJUST
 70
     0
  9
$DIMSD1
 70
     0
  9
$DIMSD2
 70
     0
  9
$DIMTOLJ
 70
     1
  9
$DIMTZIN
 70
    11
  9
$DIMALTZ
 70
    11
  9
$DIMALTTZ
 70
    11
  9
$DIMUPT
 70
     0
  9
$DIMDEC
 70
     0
  9
$DIMTDEC
 70
     1
  9
$DIMALTU
 70
     2
  9
$DIMALTTD
 70
     2
  9
$DIMTXSTY
  7
ＭＳ ゴシック
  9
$DIMAUNIT
 70
     0
  9
$DIMADEC
 70
     2
  9
$DIMALTRND
 40
0.0
  9
$DIMAZIN
 70
     0
  9
$DIMDSEP
 70
    46
  9
$DIMATFIT
 70
     0
  9
$DIMFRAC
 70
     2
  9
$DIMLDRBLK
  1
DOT
  9
$DIMLUNIT
 70
     2
  9
$DIMLWD
 70
    -2
  9
$DIMLWE
 70
    -2
  9
$DIMTMOVE
 70
     0
  9
$DIMFXL
 40
1.0
  9
$DIMFXLON
 70
     0
  9
$DIMJOGANG
 40
0.7853981633974483
  9
$DIMTFILL
 70
     0
  9
$DIMTFILLCLR
 70
     0
  9
$DIMARCSYM
 70
     0
  9
$DIMLTYPE
  6

  9
$DIMLTEX1
  6

  9
$DIMLTEX2
  6

  9
$LUNITS
 70
     2
  9
$LUPREC
 70
     0
  9
$SKETCHINC
 40
0.1
  9
$FILLETRAD
 40
0.0
  9
$AUNITS
 70
     0
  9
$AUPREC
 70
     0
  9
$MENU
  1
acad
  9
$ELEVATION
 40
0.0
  9
$PELEVATION
 40
0.0
  9
$THICKNESS
 40
0.0
  9
$LIMCHECK
 70
     0
  9
$CHAMFERA
 40
0.0
  9
$CHAMFERB
 40
0.0
  9
$CHAMFERC
 40
0.0
  9
$CHAMFERD
 40
0.0
  9
$SKPOLY
 70
     0
  9
$TDCREATE
 40
2447893.375
  9
$TDUCREATE
 40
0.0
  9
$TDUPDATE
 40
2459493.69296287
  9
$TDUUPDATE
 40
2459493.31796287
  9
$TDINDWG
 40
0.3524168403
  9
$TDUSRTIMER
 40
0.0016868171
  9
$USRTIMER
 70
     1
  9
$ANGBASE
 50
0.0
  9
$ANGDIR
 70
     0
  9
$PDMODE
 70
     1
  9
$PDSIZE
 40
-2.0
  9
$PLINEWID
 40
0.0
  9
$SPLFRAME
 70
     0
  9
$SPLINETYPE
 70
     6
  9
$SPLINESEGS
 70
     8
  9
$HANDSEED
  5
4155
  9
$SURFTAB1
 70
     6
  9
$SURFTAB2
 70
     6
  9
$SURFTYPE
 70
     6
  9
$SURFU
 70
     6
  9
$SURFV
 70
     6
  9
$UCSBASE
  2

  9
$UCSNAME
  2

  9
$UCSORG
 10
0.0
 20
0.0
 30
0.0
  9
$UCSXDIR
 10
1.0
 20
0.0
 30
0.0
  9
$UCSYDIR
 10
0.0
 20
1.0
 30
0.0
  9
$UCSORTHOREF
  2

  9
$UCSORTHOVIEW
 70
     0
  9
$UCSORGTOP
 10
0.0
 20
0.0
 30
0.0
  9
$UCSORGBOTTOM
 10
0.0
 20
0.0
 30
0.0
  9
$UCSORGLEFT
 10
0.0
 20
0.0
 30
0.0
  9
$UCSORGRIGHT
 10
0.0
 20
0.0
 30
0.0
  9
$UCSORGFRONT
 10
0.0
 20
0.0
 30
0.0
  9
$UCSORGBACK
 10
0.0
 20
0.0
 30
0.0
  9
$PUCSBASE
  2

  9
$PUCSNAME
  2

  9
$PUCSORG
 10
0.0
 20
0.0
 30
0.0
  9
$PUCSXDIR
 10
1.0
 20
0.0
 30
0.0
  9
$PUCSYDIR
 10
0.0
 20
1.0
 30
0.0
  9
$PUCSORTHOREF
  2

  9
$PUCSORTHOVIEW
 70
     0
  9
$PUCSORGTOP
 10
0.0
 20
0.0
 30
0.0
  9
$PUCSORGBOTTOM
 10
0.0
 20
0.0
 30
0.0
  9
$PUCSORGLEFT
 10
0.0
 20
0.0
 30
0.0
  9
$PUCSORGRIGHT
 10
0.0
 20
0.0
 30
0.0
  9
$PUCSORGFRONT
 10
0.0
 20
0.0
 30
0.0
  9
$PUCSORGBACK
 10
0.0
 20
0.0
 30
0.0
  9
$USERI1
 70
     0
  9
$USERI2
 70
     0
  9
$USERI3
 70
     0
  9
$USERI4
 70
     0
  9
$USERI5
 70
     0
  9
$USERR1
 40
0.0
  9
$USERR2
 40
0.0
  9
$USERR3
 40
0.0
  9
$USERR4
 40
0.0
  9
$USERR5
 40
0.0
  9
$WORLDVIEW
 70
     1
  9
$SHADEDGE
 70
     3
  9
$SHADEDIF
 70
    70
  9
$TILEMODE
 70
     1
  9
$MAXACTVP
 70
    64
  9
$PINSBASE
 10
0.0
 20
0.0
 30
0.0
  9
$PLIMCHECK
 70
     0
  9
$PEXTMIN
 10
0.0
 20
0.0
 30
0.0
  9
$PEXTMAX
 10
0.0
 20
0.0
 30
0.0
  9
$PLIMMIN
 10
-7.5
 20
-20.0
  9
$PLIMMAX
 10
412.5
 20
277.0
  9
$UNITMODE
 70
     0
  9
$VISRETAIN
 70
     0
  9
$PLINEGEN
 70
     1
  9
$PSLTSCALE
 70
     0
  9
$TREEDEPTH
 70
  3020
  9
$CMLSTYLE
  2
Standard
  9
$CMLJUST
 70
     0
  9
$CMLSCALE
 40
1.0
  9
$PROXYGRAPHICS
 70
     0
  9
$MEASUREMENT
 70
     1
  9
$CELWEIGHT
370
    -1
  9
$ENDCAPS
280
     0
  9
$JOINSTYLE
280
     0
  9
$LWDISPLAY
290
     1
  9
$INSUNITS
 70
     4
  9
$HYPERLINKBASE
  1

  9
$STYLESHEET
  1

  9
$XEDIT
290
     1
  9
$CEPSNTYPE
380
     0
  9
$PSTYLEMODE
290
     1
  9
$FINGERPRINTGUID
  2

  9
$VERSIONGUID
  2

  9
$EXTNAMES
290
     1
  9
$PSVPSCALE
 40
0.0
  9
$OLESTARTUP
290
     0
  9
$SORTENTS
280
   127
  9
$INDEXCTL
280
     0
  9
$HIDETEXT
280
     1
  9
$XCLIPFRAME
290
     0
  9
$HALOGAP
280
     0
  9
$OBSCOLOR
 70
   257
  9
$OBSLTYPE
280
     0
  9
$INTERSECTIONDISPLAY
280
     0
  9
$INTERSECTIONCOLOR
 70
   257
  9
$DIMASSOC
280
     2
  9
$PROJECTNAME
  1

  9
$CAMERADISPLAY
290
     0
  9
$LENSLENGTH
 40
50.0
  9
$CAMERAHEIGHT
 40
0.0
  9
$STEPSPERSEC
 40
2.0
  9
$STEPSIZE
 40
6.0
  9
$3DDWFPREC
 40
2.0
  9
$PSOLWIDTH
 40
0.25
  9
$PSOLHEIGHT
 40
4.0
  9
$LOFTANG1
 40
1.570796326794897
  9
$LOFTANG2
 40
1.570796326794897
  9
$LOFTMAG1
 40
0.0
  9
$LOFTMAG2
 40
0.0
  9
$LOFTPARAM
 70
     7
  9
$LOFTNORMALS
280
     1
  9
$LATITUDE
 40
37.795
  9
$LONGITUDE
 40
-122.394
  9
$NORTHDIRECTION
 40
0.0
  9
$TIMEZONE
 70
 -8000
  9
$LIGHTGLYPHDISPLAY
280
     1
  9
$TILEMODELIGHTSYNCH
280
     1
  9
$SOLIDHIST
280
     1
  9
$SHOWHIST
280
     1
  9
$DWFFRAME
280
     2
  9
$DGNFRAME
280
     2
  9
$REALWORLDSCALE
290
     1
  9
$INTERFERECOLOR
 62
   256
  9
$CSHADOW
280
     0
  9
$SHADOWPLANELOCATION
 40
0.0
  0
ENDSEC
  0
SECTION
  2
CLASSES
  0
CLASS
  1
LWPOLYLINE
  2
AcDbPolyline
  3
ObjectDBX Classes
 90
        0
 91
        1
280
     0
281
     1
  0
CLASS
  1
IMAGE
  2
AcDbRasterImage
  3
ISM
 90
      127
 91
        4
280
     0
281
     1
  0
CLASS
  1
OLE2FRAME
  2
AcDbOle2Frame
  3
ObjectDBX Classes
 90
        0
 91
        1
280
     0
281
     1
  0
CLASS
  1
HATCH
  2
AcDbHatch
  3
ObjectDBX Classes
 90
        0
 91
        1
280
     0
281
     1
  0
CLASS
  1
DICTIONARYVAR
  2
AcDbDictionaryVar
  3
ObjectDBX Classes
 90
        0
 91
        3
280
     0
281
     0
  0
CLASS
  1
RASTERVARIABLES
  2
AcDbRasterVariables
  3
ISM
 90
        0
 91
        3
280
     0
281
     0
  0
CLASS
  1
IMAGEDEF
  2
AcDbRasterImageDef
  3
ISM
 90
        0
 91
        3
280
     0
281
     0
  0
CLASS
  1
IMAGEDEF_REACTOR
  2
AcDbRasterImageDefReactor
  3
ISM
 90
        1
 91
        3
280
     0
281
     0
  0
CLASS
  1
IDBUFFER
  2
AcDbIdBuffer
  3
ObjectDBX Classes
 90
        0
 91
        3
280
     0
281
     0
  0
CLASS
  1
SPATIAL_FILTER
  2
AcDbSpatialFilter
  3
ObjectDBX Classes
 90
        0
 91
        3
280
     0
281
     0
  0
CLASS
  1
XRECORD
  2
AcDbXrecord
  3
ObjectDBX Classes
 90
        0
 91
        1
280
     0
281
     0
  0
CLASS
  1
SORTENTSTABLE
  2
AcDbSortentsTable
  3
ObjectDBX Classes
 90
        0
 91
        3
280
     0
281
     0
  0
CLASS
  1
LAYER_INDEX
  2
AcDbLayerIndex
  3
ObjectDBX Classes
 90
        0
 91
        3
280
     0
281
     0
  0
CLASS
  1
SPATIAL_INDEX
  2
AcDbSpatialIndex
  3
AutoCAD 2000
 90
        0
 91
        3
280
     0
281
     0
  0
CLASS
  1
OBJECT_PTR
  2
CAseDLPNTableRecord
  3
ASE-LPNTableRecord
 90
        1
 91
        3
280
     0
281
     0
  0
CLASS
  1
LAYOUT
  2
AcDbLayout
  3
ObjectDBX Classes
 90
        0
 91
        1
280
     0
281
     0
  0
CLASS
  1
PLOTSETTINGS
  2
AcDbPlotSettings
  3
ObjectDBX Classes
 90
        0
 91
        3
280
     0
281
     0
  0
CLASS
  1
ACDBDICTIONARYWDFLT
  2
AcDbDictionaryWithDefault
  3
ObjectDBX Classes
 90
        0
 91
        3
280
     0
281
     0
  0
CLASS
  1
ACDBPLACEHOLDER
  2
AcDbPlaceHolder
  3
ObjectDBX Classes
 90
        0
 91
        1
280
     0
281
     0
  0
CLASS
  1
SCALE
  2
AcDbScale
  3
ObjectDBX Classes
 90
     1153
 91
        3
280
     0
281
     0
  0
CLASS
  1
MATERIAL
  2
AcDbMaterial
  3
ObjectDBX Classes
 90
     1153
 91
        3
280
     0
281
     0
  0
CLASS
  1
VISUALSTYLE
  2
AcDbVisualStyle
  3
ObjectDBX Classes
 90
     4095
 91
        3
280
     0
281
     0
  0
CLASS
  1
TABLESTYLE
  2
AcDbTableStyle
  3
ObjectDBX Classes
 90
     4095
 91
        3
280
     0
281
     0
  0
CLASS
  1
DIMASSOC
  2
AcDbDimAssoc
  3
"AcDbDimAssoc|Product Desc:     AcDim ARX App For Dimension|Company:          Autodesk, Inc.|WEB Address:      www.autodesk.com"
 90
        0
 91
        3
280
     0
281
     0
  0
CLASS
  1
CELLSTYLEMAP
  2
AcDbCellStyleMap
  3
ObjectDBX Classes
 90
     1152
 91
        3
280
     0
281
     0
  0
CLASS
  1
SUN
  2
AcDbSun
  3
SCENEOE
 90
     1153
 91
        3
280
     0
281
     0
  0
CLASS
  1
MLEADERSTYLE
  2
AcDbMLeaderStyle
  3
ACDB_MLEADERSTYLE_CLASS
 90
     4095
 91
        3
280
     0
281
     0
  0
CLASS
  1
FIELD
  2
AcDbField
  3
ObjectDBX Classes
 90
     1152
 91
        3
280
     0
281
     0
  0
CLASS
  1
FIELDLIST
  2
AcDbFieldList
  3
ObjectDBX Classes
 90
     1152
 91
        3
280
     0
281
     0
  0
CLASS
  1
MULTILEADER
  2
AcDbMLeader
  3
ACDB_MLEADER_CLASS
 90
     1025
 91
        3
280
     0
281
     1
  0
ENDSEC
  0
SECTION
  2
TABLES
  0
TABLE
  2
VPORT
  5
7
330
0
100
AcDbSymbolTable
 70
     1
  0
VPORT
  5
15
330
7
100
AcDbSymbolTableRecord
100
AcDbViewportTableRecord
  2
*ACTIVE
 70
     0
 10
0.0
 20
0.0
 11
1.0
 21
1.0
 12
1141.020135670896
 22
1411.401285469834
 13
0.0
 23
0.0
 14
1.0
 24
1.0
 15
0.0
 25
0.0
 16
0.0
 26
0.0
 36
1.0
 17
-91.02013567089557
 27
73.59871453016603
 37
-46.86809886248109
 40
3029.4
 41
2.333333333333333
 42
50.0
 43
0.0
 44
0.0
 50
0.0
 51
0.0
 71
    16
 72
  2000
 73
     1
 74
     1
 75
     1
 76
     0
 77
     0
 78
     0
281
     0
 65
     1
110
0.0
120
0.0
130
0.0
111
1.0
121
0.0
131
0.0
112
0.0
122
1.0
132
0.0
 79
     0
146
0.0
348
26C
 60
     3
 61
     5
292
     1
282
     1
141
0.0
142
0.0
 63
   256
361
904
  0
ENDTAB
  0
TABLE
  2
LTYPE
  5
4
330
0
100
AcDbSymbolTable
 70
     5
  0
LTYPE
  5
11
330
4
100
AcDbSymbolTableRecord
100
AcDbLinetypeTableRecord
  2
ByBlock
 70
     0
  3

 72
    65
 73
     0
 40
0.0
  0
LTYPE
  5
12
330
4
100
AcDbSymbolTableRecord
100
AcDbLinetypeTableRecord
  2
ByLayer
 70
     0
  3

 72
    65
 73
     0
 40
0.0
  0
LTYPE
  5
13
330
4
100
AcDbSymbolTableRecord
100
AcDbLinetypeTableRecord
  2
Continuous
 70
     0
  3
Solid line
 72
    65
 73
     0
 40
0.0
  0
LTYPE
  5
DAF
330
4
100
AcDbSymbolTableRecord
100
AcDbLinetypeTableRecord
  2
BORDER
 70
     0
  3
Border __  __  . __  __  . __  __  . __  __  . 
 72
    65
 73
     6
 40
44.45
 49
12.7
 74
     0
 49
-6.35
 74
     0
 49
12.7
 74
     0
 49
-6.35
 74
     0
 49
0.0
 74
     0
 49
-6.35
 74
     0
  0
LTYPE
  5
33DD
330
4
100
AcDbSymbolTableRecord
100
AcDbLinetypeTableRecord
  2
HIDDEN
 70
     0
  3
Hidden _ _ _ _ _ _ _ _ _ _ _ _ _ _ _ _ _ _ _ _ 
 72
    65
 73
     2
 40
9.524999999999999
 49
6.35
 74
     0
 49
-3.175
 74
     0
  0
LTYPE
  5
3B84
330
4
100
AcDbSymbolTableRecord
100
AcDbLinetypeTableRecord
  2
HIDDEN2
 70
     0
  3
Hidden (.5x) _ _ _ _ _ _ _ _ _ _ _ _ _ _ _ _ _ 
 72
    65
 73
     2
 40
4.762499999999999
 49
3.175
 74
     0
 49
-1.5875
 74
     0
  0
LTYPE
  5
3EB8
330
4
100
AcDbSymbolTableRecord
100
AcDbLinetypeTableRecord
  2
CENTER
 70
     0
  3
 Center _____  _  _____  _  _____  _  _____  _ 
 72
    65
 73
     4
 40
50.8
 49
31.75
 74
     0
 49
-6.35
 74
     0
 49
6.35
 74
     0
 49
-6.35
 74
     0
  0
ENDTAB
  0
TABLE
  2
LAYER
  5
2
102
{ACAD_XDICTIONARY
360
2E1
102
}
330
0
100
AcDbSymbolTable
 70
    10
  0
LAYER
  5
14
330
2
100
AcDbSymbolTableRecord
100
AcDbLayerTableRecord
  2
0
 70
     0
 62
     7
  6
Continuous
370
    -3
390
1D
347
266
  0
LAYER
  5
4B
330
2
100
AcDbSymbolTableRecord
100
AcDbLayerTableRecord
  2
TEMPLATE
 70
     0
 62
     7
  6
Continuous
370
    20
390
1D
347
266
  0
LAYER
  5
4C
330
2
100
AcDbSymbolTableRecord
100
AcDbLayerTableRecord
  2
DIM
 70
     0
 62
     3
  6
Continuous
370
    13
390
1D
347
266
  0
LAYER
  5
4D
330
2
100
AcDbSymbolTableRecord
100
AcDbLayerTableRecord
  2
MODEL
 70
     0
 62
     7
  6
Continuous
370
    20
390
1D
347
266
  0
LAYER
  5
D5D
330
2
100
AcDbSymbolTableRecord
100
AcDbLayerTableRecord
  2
Defpoints
 70
     0
 62
     7
  6
Continuous
290
     0
370
    -3
390
1D
347
266
  0
LAYER
  5
DAE
330
2
100
AcDbSymbolTableRecord
100
AcDbLayerTableRecord
  2
BORDER
 70
     0
 62
     4
  6
BORDER
290
     0
370
    20
390
1D
347
266
1001
AcAecLayerStandard
1000

1000

  0
LAYER
  5
157B
330
2
100
AcDbSymbolTableRecord
100
AcDbLayerTableRecord
  2
Layer3
 70
     0
 62
     7
  6
Continuous
370
    -3
390
1D
347
266
  0
LAYER
  5
157F
330
2
100
AcDbSymbolTableRecord
100
AcDbLayerTableRecord
  2
Layer9
 70
     0
 62
     7
  6
Continuous
370
    -3
390
1D
347
266
  0
LAYER
  5
1582
330
2
100
AcDbSymbolTableRecord
100
AcDbLayerTableRecord
  2
Standard
 70
     0
 62
     7
  6
Continuous
370
    -3
390
1D
347
266
  0
LAYER
  5
33DC
330
2
100
AcDbSymbolTableRecord
100
AcDbLayerTableRecord
  2
HIDDEN
 70
     0
 62
     8
  6
HIDDEN
370
    20
390
1D
347
266
1001
AcAecLayerStandard
1000

1000

  0
ENDTAB
  0
TABLE
  2
STYLE
  5
3
330
0
100
AcDbSymbolTable
 70
     2
  0
STYLE
  5
17
330
3
100
AcDbSymbolTableRecord
100
AcDbTextStyleTableRecord
  2
Standard
 70
     0
 40
0.0
 41
1.0
 50
0.0
 71
     0
 42
2.5
  3
txt
  4
BIGFONT.SHX
  0
STYLE
  5
39
330
3
100
AcDbSymbolTableRecord
100
AcDbTextStyleTableRecord
  2
ＭＳ ゴシック
 70
     0
 40
0.0
 41
1.0
 50
0.0
 71
     0
 42
2.5
  3
msgothic.ttc
  4
ＭＳ ゴシック
1001
ACAD
1000
ＭＳ ゴシック
1071
        0
  0
ENDTAB
  0
TABLE
  2
VIEW
  5
5
330
0
100
AcDbSymbolTable
 70
     0
  0
ENDTAB
  0
TABLE
  2
UCS
  5
6
330
0
100
AcDbSymbolTable
 70
     0
  0
ENDTAB
  0
TABLE
  2
APPID
  5
8
330
0
100
AcDbSymbolTable
 70
    13
  0
APPID
  5
16
330
8
100
AcDbSymbolTableRecord
100
AcDbRegAppTableRecord
  2
ACAD
 70
     0
  0
APPID
  5
7AC
330
8
100
AcDbSymbolTableRecord
100
AcDbRegAppTableRecord
  2
AcAecLayerStandard
 70
     0
  0
APPID
  5
F3A
330
8
100
AcDbSymbolTableRecord
100
AcDbRegAppTableRecord
  2
ACAD_MLEADERVER
 70
     0
  0
APPID
  5
37B5
330
8
100
AcDbSymbolTableRecord
100
AcDbRegAppTableRecord
  2
RAK
 70
     0
  0
APPID
  5
37BE
330
8
100
AcDbSymbolTableRecord
100
AcDbRegAppTableRecord
  2
ACAD_DSTYLE_DIMJAG
 70
     0
  0
APPID
  5
37BF
330
8
100
AcDbSymbolTableRecord
100
AcDbRegAppTableRecord
  2
ACAD_DSTYLE_DIMTALN
 70
     0
  0
APPID
  5
37C0
330
8
100
AcDbSymbolTableRecord
100
AcDbRegAppTableRecord
  2
ACAD_PSEXT
 70
     0
  0
APPID
  5
37C1
330
8
100
AcDbSymbolTableRecord
100
AcDbRegAppTableRecord
  2
AcLayerTools
 70
     0
  0
APPID
  5
37C2
330
8
100
AcDbSymbolTableRecord
100
AcDbRegAppTableRecord
  2
ACAD_NAV_VCDISPLAY
 70
     0
  0
APPID
  5
37C3
330
8
100
AcDbSymbolTableRecord
100
AcDbRegAppTableRecord
  2
GradientColor1ACI
 70
     0
  0
APPID
  5
37C4
330
8
100
AcDbSymbolTableRecord
100
AcDbRegAppTableRecord
  2
GradientColor2ACI
 70
     0
  0
APPID
  5
4088
330
8
100
AcDbSymbolTableRecord
100
AcDbRegAppTableRecord
  2
PLOTTRANSPARENCY
 70
     0
  0
APPID
  5
40A9
330
8
100
AcDbSymbolTableRecord
100
AcDbRegAppTableRecord
  2
HATCHBACKGROUNDCOLOR
 70
     0
  0
ENDTAB
  0
TABLE
  2
DIMSTYLE
  5
9
330
0
100
AcDbSymbolTable
 70
     1
100
AcDbDimStyleTable
  0
DIMSTYLE
105
57
102
{ACAD_REACTORS
330
40E7
330
4104
330
4131
102
}
330
9
100
AcDbSymbolTableRecord
100
AcDbDimStyleTableRecord
  2
tfrom線あり
 70
     0
  3
<>
  4
[]
 41
10.0
 42
30.0
 43
0.9999999999999999
 44
0.0
 73
     0
 74
     0
 77
     1
 78
    11
140
24.0
141
0.0
143
1.0
147
20.0
171
     1
174
     1
178
     0
179
     2
271
     0
272
     1
276
     2
284
    11
285
    11
286
    11
289
     0
340
39
341
4E
342
4E
  0
ENDTAB
  0
TABLE
  2
BLOCK_RECORD
  5
1
330
0
100
AcDbSymbolTable
 70
     7
  0
BLOCK_RECORD
  5
A
102
{ACAD_XDICTIONARY
360
374D
102
}
330
1
100
AcDbSymbolTableRecord
100
AcDbBlockTableRecord
  2
*MODEL_SPACE
340
20
 70
     0
280
     1
281
     0
  0
BLOCK_RECORD
  5
B
330
1
100
AcDbSymbolTableRecord
100
AcDbBlockTableRecord
  2
*PAPER_SPACE
340
21
 70
     0
280
     1
281
     0
  0
BLOCK_RECORD
  5
4E
330
1
100
AcDbSymbolTableRecord
100
AcDbBlockTableRecord
  2
_DOT
340
0
102
{BLKREFS
331
40F2
331
40F3
331
410D
331
410E
331
413A
331
413B
331
4026
331
4027
331
402C
331
402D
331
4032
331
4033
331
4038
331
4039
331
403E
331
403F
331
4044
331
4045
331
404A
331
404B
331
4050
331
4051
331
4056
331
4057
331
405C
331
405D
331
4062
331
4063
331
4068
331
4069
331
4070
331
4071
331
407F
331
4085
331
4086
102
}
 70
     0
280
     1
281
     0
  0
BLOCK_RECORD
  5
68D
330
1
100
AcDbSymbolTableRecord
100
AcDbBlockTableRecord
  2
block 2
340
0
102
{BLKREFS
331
68C
102
}
 70
     0
280
     1
281
     0
  0
BLOCK_RECORD
  5
199A
330
1
100
AcDbSymbolTableRecord
100
AcDbBlockTableRecord
  2
SEANNOT_GROUP
340
0
102
{BLKREFS
331
28CA
102
}
 70
     0
280
     1
281
     0
  0
BLOCK_RECORD
  5
1F2F
330
1
100
AcDbSymbolTableRecord
100
AcDbBlockTableRecord
  2
SEANNOT_GROUP1
340
0
102
{BLKREFS
331
2B9B
102
}
 70
     0
280
     1
281
     0
  0
BLOCK_RECORD
  5
40EA
330
1
100
AcDbSymbolTableRecord
100
AcDbBlockTableRecord
  2
*D4
340
0
 70
     0
280
     1
281
     0
  0
BLOCK_RECORD
  5
4107
330
1
100
AcDbSymbolTableRecord
100
AcDbBlockTableRecord
  2
*D5
340
0
 70
     0
280
     1
281
     0
  0
BLOCK_RECORD
  5
4134
330
1
100
AcDbSymbolTableRecord
100
AcDbBlockTableRecord
  2
*D6
340
0
 70
     0
280
     1
281
     0
  0
ENDTAB
  0
ENDSEC
  0
SECTION
  2
BLOCKS
  0
BLOCK
  5
D
330
A
100
AcDbEntity
  8
0
390
1D
100
AcDbBlockBegin
  2
*MODEL_SPACE
 70
     0
 10
0.0
 20
0.0
 30
0.0
  3
*MODEL_SPACE
  1
*MODEL_SPACE
  0
ENDBLK
  5
E
330
A
100
AcDbEntity
  8
0
390
1D
100
AcDbBlockEnd
  0
BLOCK
  5
F
330
B
100
AcDbEntity
 67
     1
  8
0
390
1D
100
AcDbBlockBegin
  2
*PAPER_SPACE
 70
     0
 10
0.0
 20
0.0
 30
0.0
  3
*PAPER_SPACE
  1
*PAPER_SPACE
  0
ENDBLK
  5
10
330
B
100
AcDbEntity
 67
     1
  8
0
390
1D
100
AcDbBlockEnd
  0
BLOCK
  5
EC4
330
4E
100
AcDbEntity
  8
0
390
1D
100
AcDbBlockBegin
  2
_DOT
 70
     0
 10
0.0
 20
0.0
 30
0.0
  3
_DOT
  1
_DOT
  0
POLYLINE
  5
EC6
330
4E
100
AcDbEntity
  8
0
  6
ByBlock
 62
     0
370
    -2
390
1D
100
AcDb2dPolyline
 66
     1
 10
0.0
 20
0.0
 30
0.0
 70
     1
 40
0.5
 41
0.5
  0
VERTEX
  5
EC7
330
EC6
100
AcDbEntity
  8
0
  6
ByBlock
 62
     0
370
    -2
390
1D
100
AcDbVertex
100
AcDb2dVertex
 10
-0.25
 20
0.0
 30
0.0
 42
1.0
  0
VERTEX
  5
EC8
330
EC6
100
AcDbEntity
  8
0
  6
ByBlock
 62
     0
370
    -2
390
1D
100
AcDbVertex
100
AcDb2dVertex
 10
0.25
 20
0.0
 30
0.0
 42
1.0
  0
SEQEND
  5
EC9
330
EC6
100
AcDbEntity
  8
0
390
1D
  0
LINE
  5
ECA
330
4E
100
AcDbEntity
  8
0
  6
ByBlock
 62
     0
370
    -2
390
1D
100
AcDbLine
 10
-0.5
 20
0.0
 30
0.0
 11
-1.0
 21
0.0
 31
0.0
  0
ENDBLK
  5
ECB
330
4E
100
AcDbEntity
  8
0
390
1D
100
AcDbBlockEnd
  0
BLOCK
  5
68E
330
68D
100
AcDbEntity
  8
0
100
AcDbBlockBegin
  2
block 2
 70
     0
 10
0.0
 20
0.0
 30
0.0
  3
block 2
  1
block 2
  0
ENDBLK
  5
6B0
330
68D
100
AcDbEntity
  8
0
100
AcDbBlockEnd
  0
BLOCK
  5
199B
330
199A
100
AcDbEntity
  8
0
100
AcDbBlockBegin
  2
SEANNOT_GROUP
 70
     0
 10
0.0
 20
0.0
 30
0.0
  3
SEANNOT_GROUP
  1
SEANNOT_GROUP
  0
ENDBLK
  5
199C
330
199A
100
AcDbEntity
  8
0
100
AcDbBlockEnd
  0
BLOCK
  5
1F30
330
1F2F
100
AcDbEntity
  8
0
100
AcDbBlockBegin
  2
SEANNOT_GROUP1
 70
     0
 10
0.0
 20
0.0
 30
0.0
  3
SEANNOT_GROUP1
  1
SEANNOT_GROUP1
  0
ENDBLK
  5
1F31
330
1F2F
100
AcDbEntity
  8
0
100
AcDbBlockEnd
  0
BLOCK
  5
40EB
330
40EA
100
AcDbEntity
  8
0
100
AcDbBlockBegin
  2
*D4
 70
     1
 10
0.0
 20
0.0
 30
0.0
  3
*D4
  1

  0
LINE
  5
40ED
330
40EA
100
AcDbEntity
  8
DIM
 62
     0
370
    -2
100
AcDbLine
 10
1818.388704787565
 20
2302.0
 30
0.0
 11
1855.0
 21
2302.0
 31
0.0
  0
LINE
  5
40EE
330
40EA
100
AcDbEntity
  8
DIM
 62
     0
370
    -2
100
AcDbLine
 10
1818.388704787565
 20
2332.0
 30
0.0
 11
1855.0
 21
2332.0
 31
0.0
  0
LINE
  5
40EF
330
40EA
100
AcDbEntity
  8
DIM
 62
     0
370
    -2
100
AcDbLine
 10
1855.0
 20
2332.0
 30
0.0
 11
1855.0
 21
2439.166328633597
 31
0.0
  0
LINE
  5
40F0
330
40EA
100
AcDbEntity
  8
DIM
 62
     0
370
    -2
100
AcDbLine
 10
1855.0
 20
2312.0
 30
0.0
 11
1855.0
 21
2322.0
 31
0.0
  0
LINE
  5
40F1
330
40EA
100
AcDbEntity
  8
DIM
 62
     0
370
    -2
100
AcDbLine
 10
1855.0
 20
2322.0
 30
0.0
 11
1855.0
 21
2312.0
 31
0.0
  0
INSERT
  5
40F2
330
40EA
100
AcDbEntity
  8
DIM
 62
     0
370
    -2
100
AcDbBlockReference
  2
_DOT
 10
1855.0
 20
2302.0
 30
0.0
 41
10.0
 42
10.0
 43
10.0
 50
270.0
  0
INSERT
  5
40F3
330
40EA
100
AcDbEntity
  8
DIM
 62
     0
370
    -2
100
AcDbBlockReference
  2
_DOT
 10
1855.0
 20
2332.0
 30
0.0
 41
10.0
 42
10.0
 43
10.0
 50
90.0
  0
MTEXT
  5
40F4
330
40EA
100
AcDbEntity
  8
DIM
 62
     0
100
AcDbMText
 10
1822.995498311867
 20
2404.847771674738
 30
0.0
 40
24.0
 41
0.0
 46
0.0
 71
     5
 72
     1
  1
\A1;30
  7
ＭＳ ゴシック
 11
0.0
 21
1.0
 31
0.0
 73
     1
 44
1.0
  0
POINT
  5
40F5
330
40EA
100
AcDbEntity
  8
Defpoints
 62
     0
100
AcDbPoint
 10
1788.388704787565
 20
2302.0
 30
0.0
  0
POINT
  5
40F6
330
40EA
100
AcDbEntity
  8
Defpoints
 62
     0
100
AcDbPoint
 10
1788.388704787565
 20
2332.0
 30
0.0
  0
POINT
  5
40F7
330
40EA
100
AcDbEntity
  8
Defpoints
 62
     0
100
AcDbPoint
 10
1855.0
 20
2332.0
 30
0.0
  0
ENDBLK
  5
40EC
330
40EA
100
AcDbEntity
  8
0
100
AcDbBlockEnd
  0
BLOCK
  5
4108
330
4107
100
AcDbEntity
  8
0
100
AcDbBlockBegin
  2
*D5
 70
     1
 10
0.0
 20
0.0
 30
0.0
  3
*D5
  1

  0
LINE
  5
410A
330
4107
100
AcDbEntity
  8
DIM
 62
     0
370
    -2
100
AcDbLine
 10
304.7917781007359
 20
2202.0
 30
0.0
 11
233.0
 21
2202.0
 31
0.0
  0
LINE
  5
410B
330
4107
100
AcDbEntity
  8
DIM
 62
     0
370
    -2
100
AcDbLine
 10
304.7917781007359
 20
1969.0
 30
0.0
 11
233.0
 21
1969.0
 31
0.0
  0
LINE
  5
410C
330
4107
100
AcDbEntity
  8
DIM
 62
     0
370
    -2
100
AcDbLine
 10
233.0
 20
2192.0
 30
0.0
 11
233.0
 21
1979.0
 31
0.0
  0
INSERT
  5
410D
330
4107
100
AcDbEntity
  8
DIM
 62
     0
370
    -2
100
AcDbBlockReference
  2
_DOT
 10
233.0
 20
2202.0
 30
0.0
 41
10.0
 42
10.0
 43
10.0
 50
90.0
  0
INSERT
  5
410E
330
4107
100
AcDbEntity
  8
DIM
 62
     0
370
    -2
100
AcDbBlockReference
  2
_DOT
 10
233.0
 20
1969.0
 30
0.0
 41
10.0
 42
10.0
 43
10.0
 50
270.0
  0
MTEXT
  5
410F
330
4107
100
AcDbEntity
  8
DIM
 62
     0
100
AcDbMText
 10
200.9954983118669
 20
2085.5
 30
0.0
 40
24.0
 41
0.0
 46
0.0
 71
     5
 72
     1
  1
\A1;230
  7
ＭＳ ゴシック
 11
1.219815855382146E-16
 21
1.0
 31
0.0
 73
     1
 44
1.0
  0
POINT
  5
4110
330
4107
100
AcDbEntity
  8
Defpoints
 62
     0
100
AcDbPoint
 10
334.7917781007359
 20
2202.0
 30
0.0
  0
POINT
  5
4111
330
4107
100
AcDbEntity
  8
Defpoints
 62
     0
100
AcDbPoint
 10
334.7917781007359
 20
1969.0
 30
0.0
  0
POINT
  5
4112
330
4107
100
AcDbEntity
  8
Defpoints
 62
     0
100
AcDbPoint
 10
233.0
 20
1969.0
 30
0.0
  0
ENDBLK
  5
4109
330
4107
100
AcDbEntity
  8
0
100
AcDbBlockEnd
  0
BLOCK
  5
4135
330
4134
100
AcDbEntity
  8
0
100
AcDbBlockBegin
  2
*D6
 70
     1
 10
0.0
 20
0.0
 30
0.0
  3
*D6
  1

  0
LINE
  5
4137
330
4134
100
AcDbEntity
  8
DIM
 62
     0
370
    -2
100
AcDbLine
 10
1692.070587006167
 20
2302.0
 30
0.0
 11
1855.0
 21
2302.0
 31
0.0
  0
LINE
  5
4138
330
4134
100
AcDbEntity
  8
DIM
 62
     0
370
    -2
100
AcDbLine
 10
1692.070587006167
 20
2052.0
 30
0.0
 11
1855.0
 21
2052.0
 31
0.0
  0
LINE
  5
4139
330
4134
100
AcDbEntity
  8
DIM
 62
     0
370
    -2
100
AcDbLine
 10
1855.0
 20
2292.0
 30
0.0
 11
1855.0
 21
2062.0
 31
0.0
  0
INSERT
  5
413A
330
4134
100
AcDbEntity
  8
DIM
 62
     0
370
    -2
100
AcDbBlockReference
  2
_DOT
 10
1855.0
 20
2302.0
 30
0.0
 41
10.0
 42
10.0
 43
10.0
 50
90.0
  0
INSERT
  5
413B
330
4134
100
AcDbEntity
  8
DIM
 62
     0
370
    -2
100
AcDbBlockReference
  2
_DOT
 10
1855.0
 20
2052.0
 30
0.0
 41
10.0
 42
10.0
 43
10.0
 50
270.0
  0
MTEXT
  5
413C
330
4134
100
AcDbEntity
  8
DIM
 62
     0
100
AcDbMText
 10
1822.995498311867
 20
2177.0
 30
0.0
 40
24.0
 41
0.0
 46
0.0
 71
     5
 72
     1
  1
\A1;250
  7
ＭＳ ゴシック
 11
0.0
 21
1.0
 31
0.0
 73
     1
 44
1.0
  0
POINT
  5
413D
330
4134
100
AcDbEntity
  8
Defpoints
 62
     0
100
AcDbPoint
 10
1662.070587006167
 20
2302.0
 30
0.0
  0
POINT
  5
413E
330
4134
100
AcDbEntity
  8
Defpoints
 62
     0
100
AcDbPoint
 10
1662.070587006167
 20
2052.0
 30
0.0
  0
POINT
  5
413F
330
4134
100
AcDbEntity
  8
Defpoints
 62
     0
100
AcDbPoint
 10
1855.0
 20
2052.0
 30
0.0
  0
ENDBLK
  5
4136
330
4134
100
AcDbEntity
  8
0
100
AcDbBlockEnd
  0
ENDSEC
  0
SECTION
  2
ENTITIES
  0
MTEXT
  5
177
330
A
100
AcDbEntity
  8
TEMPLATE
390
1D
100
AcDbMText
 10
79.20214454773075
 20
343.7317516314282
 30
0.0
 40
16.28841145833333
 41
0.0
 46
0.0
 71
     1
 72
     1
  1
品名
  7
ＭＳ ゴシック
 73
     1
 44
0.7828267384257843
  0
MTEXT
  5
178
330
A
100
AcDbEntity
  8
TEMPLATE
390
1D
100
AcDbMText
 10
79.20214454773075
 20
258.731751631428
 30
0.0
 40
16.28841145833333
 41
0.0
 46
0.0
 71
     1
 72
     1
  1
仕様
  7
ＭＳ ゴシック
 73
     1
 44
0.7828267384257843
  0
LINE
  5
179
330
A
100
AcDbEntity
  8
TEMPLATE
390
1D
100
AcDbLine
 10
2022.202144547248
 20
267.1466735064284
 30
0.0
 11
72.20214454724874
 21
267.1466735064284
 31
0.0
  0
LWPOLYLINE
  5
17A
330
A
100
AcDbEntity
  8
TEMPLATE
390
1D
100
AcDbPolyline
 90
        5
 70
   128
 43
0.0
 10
2022.202144547248
 20
2897.146673506426
 10
72.20214454724874
 20
2897.146673506426
 10
72.20214454724874
 20
97.14667350642826
 10
2022.202144547248
 20
97.14667350642826
 10
2022.202144547248
 20
2897.146673506426
  0
LINE
  5
17B
330
A
100
AcDbEntity
  8
TEMPLATE
390
1D
100
AcDbLine
 10
2022.202144547248
 20
352.1466735064282
 30
0.0
 11
72.20214454724874
 21
352.1466735064282
 31
0.0
  0
LINE
  5
17C
330
A
100
AcDbEntity
  8
TEMPLATE
390
1D
100
AcDbLine
 10
2022.202144547732
 20
182.1466735064282
 30
0.0
 11
1269.20214454773
 21
182.1466735064282
 31
0.0
  0
MTEXT
  5
17E
330
A
100
AcDbEntity
  8
TEMPLATE
390
1D
100
AcDbMText
 10
1299.073550799991
 20
152.2362790331201
 30
0.0
 40
24.4326171875
 41
0.0
 46
0.0
 71
     1
 72
     1
  1
大洋金物株式会社 ティーフォルム事業部
  7
ＭＳ ゴシック
 73
     1
 44
0.7828267384257843
  0
MTEXT
  5
180
330
A
100
AcDbEntity
  8
TEMPLATE
390
1D
100
AcDbMText
 10
1831.20214454799
 20
230.1492906939282
 30
0.0
 40
24.4326171875
 41
0.0
 46
24.4326171875
 71
     1
 72
     1
  1
{1:10}
  7
ＭＳ ゴシック
 73
     1
 44
0.7828267384257843
1001
ACAD
1000
ACAD_MTEXT_DEFINED_HEIGHT_BEGIN
1070
    46
1040
24.4326171875
1000
ACAD_MTEXT_DEFINED_HEIGHT_END
  0
MTEXT
  5
181
330
A
100
AcDbEntity
  8
TEMPLATE
390
1D
100
AcDbMText
 10
1778.20214454799
 20
258.731751631428
 30
0.0
 40
16.28841145833333
 41
0.0
 46
0.0
 71
     1
 72
     1
  1
縮尺
  7
ＭＳ ゴシック
 73
     1
 44
0.7828267384257843
  0
LINE
  5
182
330
A
100
AcDbEntity
  8
TEMPLATE
390
1D
100
AcDbLine
 10
1771.20214454799
 20
182.1466735064282
 30
0.0
 11
1771.20214454799
 21
267.1466735064284
 31
0.0
  0
MTEXT
  5
183
330
A
100
AcDbEntity
  8
TEMPLATE
390
1D
100
AcDbMText
 10
1527.20214454799
 20
258.731751631428
 30
0.0
 40
16.28841145833333
 41
0.0
 46
0.0
 71
     1
 72
     1
  1
容量
  7
ＭＳ ゴシック
 73
     1
 44
0.7828267384257843
  0
LINE
  5
184
330
A
100
AcDbEntity
  8
TEMPLATE
390
1D
100
AcDbLine
 10
1520.20214454799
 20
182.1466735064282
 30
0.0
 11
1520.20214454799
 21
267.1466735064284
 31
0.0
  0
MTEXT
  5
185
330
A
100
AcDbEntity
  8
TEMPLATE
390
1D
100
AcDbMText
 10
1276.20214454799
 20
343.7317516314282
 30
0.0
 40
16.28841145833333
 41
0.0
 46
0.0
 71
     1
 72
     1
  1
品番
  7
ＭＳ ゴシック
 73
     1
 44
0.7828267384257843
  0
MTEXT
  5
186
330
A
100
AcDbEntity
  8
TEMPLATE
390
1D
100
AcDbMText
 10
1276.20214454799
 20
258.731751631428
 30
0.0
 40
16.28841145833333
 41
0.0
 46
0.0
 71
     1
 72
     1
  1
重量
  7
ＭＳ ゴシック
 73
     1
 44
0.7828267384257843
  0
MTEXT
  5
187
330
A
100
AcDbEntity
  8
TEMPLATE
390
1D
100
AcDbMText
 10
1329.20214454799
 20
315.1492906939282
 30
0.0
 40
24.4326171875
 41
0.0
 46
24.4326171875
 71
     1
 72
     1
  1
{ADF70-2509-001}
  7
ＭＳ ゴシック
 73
     1
 44
0.7828267384257843
1001
ACAD
1000
ACAD_MTEXT_DEFINED_HEIGHT_BEGIN
1070
    46
1040
24.4326171875
1000
ACAD_MTEXT_DEFINED_HEIGHT_END
  0
LINE
  5
188
330
A
100
AcDbEntity
  8
TEMPLATE
390
1D
100
AcDbLine
 10
1269.20214454799
 20
97.14667350642826
 30
0.0
 11
1269.20214454799
 21
352.1466735064282
 31
0.0
  0
INSERT
  5
68C
330
A
100
AcDbEntity
  8
TEMPLATE
100
AcDbBlockReference
  2
block 2
 10
919.2743017702577
 20
8.373076514336368
 30
0.0
 41
0.3809999999999999
 42
0.3809999999999999
 43
0.3809999999999999
  0
LWPOLYLINE
  5
DAC
330
A
100
AcDbEntity
  8
BORDER
100
AcDbPolyline
 90
        4
 70
     1
 43
0.0
 10
0.0
 20
0.0
 10
0.0
 20
2970.0
 10
2100.0
 20
2970.0
 10
2100.0
 20
0.0
  0
MTEXT
  5
121B
330
A
100
AcDbEntity
  8
TEMPLATE
390
1D
100
AcDbMText
 10
1329.20214454799
 20
227.1688729773101
 30
0.0
 40
24.4326171875
 41
0.0
 46
28.40135167875453
 71
     1
 72
     1
  1
{15kg}
  7
ＭＳ ゴシック
 73
     1
 44
0.7828267384257843
1001
ACAD
1000
ACAD_MTEXT_DEFINED_HEIGHT_BEGIN
1070
    46
1040
28.40135167875453
1000
ACAD_MTEXT_DEFINED_HEIGHT_END
  0
MTEXT
  5
1466
102
{ACAD_XDICTIONARY
360
1468
102
}
330
A
100
AcDbEntity
  8
TEMPLATE
 48
0.05
100
AcDbMText
 10
74.728656548571
 20
83.86172105142839
 30
0.0
 40
22.0
 41
0.0
 46
22.0
 71
     1
 72
     1
  1
{20211004N}
  7
ＭＳ ゴシック
 73
     1
 44
1.0
1001
ACAD
1000
ACAD_MTEXT_DEFINED_HEIGHT_BEGIN
1070
    46
1040
22.0
1000
ACAD_MTEXT_DEFINED_HEIGHT_END
  0
MTEXT
  5
146D
330
A
100
AcDbEntity
  8
TEMPLATE
390
1D
100
AcDbMText
 10
1583.904999862276
 20
227.1688729773101
 30
0.0
 40
24.4326171875
 41
0.0
 46
24.4326171875
 71
     1
 72
     1
  1
{3.8L}
  7
ＭＳ ゴシック
 73
     1
 44
0.7828267384257843
1001
ACAD
1000
ACAD_MTEXT_DEFINED_HEIGHT_BEGIN
1070
    46
1040
24.4326171875
1000
ACAD_MTEXT_DEFINED_HEIGHT_END
  0
POINT
  5
262A
330
A
100
AcDbEntity
  8
Layer9
  6
Continuous
 62
     7
100
AcDbPoint
 10
1037.460145007193
 20
1010.220672371878
 30
0.0
  0
POINT
  5
262B
330
A
100
AcDbEntity
  8
Layer9
  6
Continuous
 62
     7
100
AcDbPoint
 10
1037.460146257193
 20
1010.220672788578
 30
0.0
  0
POINT
  5
262C
330
A
100
AcDbEntity
  8
Layer9
  6
Continuous
 62
     7
100
AcDbPoint
 10
1037.853693340493
 20
1015.267975288578
 30
0.0
  0
POINT
  5
2812
330
A
100
AcDbEntity
  8
Layer9
  6
Continuous
 62
     7
100
AcDbPoint
 10
925.7934783404928
 20
1010.220672371878
 30
0.0
  0
POINT
  5
2813
330
A
100
AcDbEntity
  8
Layer9
  6
Continuous
 62
     7
100
AcDbPoint
 10
925.7934795904928
 20
1010.220672788578
 30
0.0
  0
POINT
  5
2814
330
A
100
AcDbEntity
  8
Layer9
  6
Continuous
 62
     7
100
AcDbPoint
 10
926.1870266737928
 20
1015.267975288578
 30
0.0
  0
INSERT
  5
28CA
330
A
100
AcDbEntity
  8
Layer3
100
AcDbBlockReference
  2
SEANNOT_GROUP
 10
859.7083018867928
 20
826.1905269541776
 30
0.0
  0
POINT
  5
2A52
330
A
100
AcDbEntity
  8
Standard
  6
Continuous
 62
     7
100
AcDbPoint
 10
1036.111241014893
 20
1018.794321538578
 30
0.0
  0
INSERT
  5
2B9B
330
A
100
AcDbEntity
  8
Layer3
100
AcDbBlockReference
  2
SEANNOT_GROUP1
 10
859.7083018867928
 20
826.1905269541776
 30
0.0
  0
HATCH
  5
369B
102
{ACAD_REACTORS
330
36AC
102
}
330
A
100
AcDbEntity
  8
TEMPLATE
100
AcDbHatch
 10
0.0
 20
0.0
 30
0.0
210
0.0
220
0.0
230
1.0
  2
SOLID
 70
     1
 71
     1
 91
        6
 92
        1
 93
        8
 72
     1
 10
1934.476782902687
 20
153.1053194253001
 11
1934.476782902687
 21
147.1959117946397
 72
     1
 10
1934.476782902687
 20
147.1959117946397
 11
1925.116191352377
 21
147.1959117946397
 72
     1
 10
1925.116191352377
 20
147.1959117946397
 11
1925.116191352377
 21
123.105319426746
 72
     1
 10
1925.116191352377
 20
123.105319426746
 11
1916.883578199102
 21
123.105319426746
 72
     1
 10
1916.883578199102
 20
123.105319426746
 11
1916.883578199102
 21
147.1959117946397
 72
     1
 10
1916.883578199102
 20
147.1959117946397
 11
1907.688876764557
 21
147.1959117946397
 72
     1
 10
1907.688876764557
 20
147.1959117946397
 11
1907.688876764557
 21
153.1053194253001
 72
     1
 10
1907.688876764557
 20
153.1053194253001
 11
1934.476782902687
 21
153.1053194253001
 97
        1
330
369C
 92
        1
 93
        1
 72
     4
 94
        3
 73
     0
 74
     1
 95
       56
 96
       52
 40
0.0
 40
0.0
 40
0.0
 40
0.0
 40
1.0
 40
1.0
 40
1.0
 40
2.0
 40
2.0
 40
2.0
 40
3.0
 40
3.0
 40
3.0
 40
4.0
 40
4.0
 40
4.0
 40
5.0
 40
5.0
 40
5.0
 40
6.0
 40
6.0
 40
6.0
 40
7.0
 40
7.0
 40
7.0
 40
8.0
 40
8.0
 40
8.0
 40
9.0
 40
9.0
 40
9.0
 40
10.0
 40
10.0
 40
10.0
 40
11.0
 40
11.0
 40
11.0
 40
12.0
 40
12.0
 40
12.0
 40
13.0
 40
13.0
 40
13.0
 40
14.0
 40
14.0
 40
14.0
 40
15.0
 40
15.0
 40
15.0
 40
16.0
 40
16.0
 40
16.0
 40
17.0
 40
17.0
 40
17.0
 40
17.0
 10
1947.01896833698
 20
152.3909504648878
 10
1948.1728345189
 20
152.715738018898
 10
1949.662423612235
 20
152.4440650580081
 10
1949.662423612235
 20
152.4440650580081
 10
1949.662423612235
 20
152.4440650580081
 10
1948.946790018651
 20
150.2964947655846
 10
1948.946790018651
 20
150.2964947655846
 10
1948.946790018651
 20
150.2964947655846
 10
1947.484427733556
 20
150.6348957237139
 10
1946.356523726704
 20
149.7454866546012
 10
1945.480058550036
 20
149.0499384113589
 10
1944.912238256914
 20
147.2017886193686
 10
1944.69442379101
 20
146.4990989182278
 10
1944.69442379101
 20
146.4990989182278
 10
1943.723334297183
 20
143.518432927829
 10
1943.723334297183
 20
143.518432927829
 10
1943.723334297183
 20
143.518432927829
 10
1946.907457447503
 20
143.518432927829
 10
1946.907457447503
 20
143.518432927829
 10
1946.907457447503
 20
143.518432927829
 10
1946.412241976351
 20
141.642461206109
 10
1946.412241976351
 20
141.642461206109
 10
1946.412241976351
 20
141.642461206109
 10
1943.202156650962
 20
141.642461206109
 10
1943.202156650962
 20
141.642461206109
 10
1943.202156650962
 20
141.642461206109
 10
1937.458713526257
 20
123.105319426746
 10
1937.458713526257
 20
123.105319426746
 10
1937.458713526257
 20
123.105319426746
 10
1935.660479549369
 20
123.105319426746
 10
1935.660479549369
 20
123.105319426746
 10
1935.660479549369
 20
123.105319426746
 10
1941.409129987127
 20
141.642461206109
 10
1941.409129987127
 20
141.642461206109
 10
1941.409129987127
 20
141.642461206109
 10
1939.040397670409
 20
141.642461206109
 10
1939.040397670409
 20
141.642461206109
 10
1939.040397670409
 20
141.642461206109
 10
1939.536952164915
 20
143.518432927829
 10
1939.536952164915
 20
143.518432927829
 10
1939.536952164915
 20
143.518432927829
 10
1941.930307633347
 20
143.518432927829
 10
1941.930307633347
 20
143.518432927829
 10
1941.930307633347
 20
143.518432927829
 10
1942.77686795507
 20
146.1179236028939
 10
1942.77686795507
 20
146.1179236028939
 10
1943.461406450716
 20
148.2973328951149
 10
1944.042245026465
 20
149.4674161376772
 10
1944.540138544327
 20
150.3496093587049
 10
1945.032750358952
 20
151.232546481597
 10
1946.007708142475
 20
152.0998616653363
 10
1947.01896833698
 20
152.3909504648878
 97
        1
330
36A7
 92
        1
 93
        1
 72
     4
 94
        3
 73
     0
 74
     1
 95
       32
 96
       28
 40
0.0
 40
0.0
 40
0.0
 40
0.0
 40
1.0
 40
1.0
 40
1.0
 40
2.0
 40
2.0
 40
2.0
 40
3.0
 40
3.0
 40
3.0
 40
4.0
 40
4.0
 40
4.0
 40
5.0
 40
5.0
 40
5.0
 40
6.0
 40
6.0
 40
6.0
 40
7.0
 40
7.0
 40
7.0
 40
8.0
 40
8.0
 40
8.0
 40
9.0
 40
9.0
 40
9.0
 40
9.0
 10
1951.394524713372
 20
142.3847264864374
 10
1950.311998720255
 20
140.9844800070205
 10
1949.478382290974
 20
139.7243102486757
 10
1948.128795528524
 20
135.7635535518901
 10
1946.888041608841
 20
132.1406026917421
 10
1946.098464169936
 20
129.5048096056932
 10
1945.979216701069
 20
126.2947242803041
 10
1945.888460673606
 20
123.9059066132458
 10
1947.343086379314
 20
123.105319426746
 10
1949.475853024634
 20
123.105319426746
 10
1950.395018168326
 20
123.105319426746
 10
1952.714504181618
 20
123.1637901132903
 10
1954.3662638814
 20
125.2056519507783
 10
1955.522584939468
 20
126.6401923061455
 10
1956.588298750451
 20
128.1272521331414
 10
1958.017036671275
 20
133.0053142189559
 10
1959.205940631009
 20
137.0833842397621
 10
1960.029142434186
 20
139.7191029356247
 10
1959.968291261677
 20
141.2197761667398
 10
1959.968291261677
 20
141.2197761667398
 10
1959.968291261677
 20
141.2197761667398
 10
1959.968291261677
 20
141.2197761667398
 10
1959.580569609936
 20
143.7233035012931
 10
1957.762919794387
 20
144.2522921170894
 10
1956.724432791643
 20
144.2522921170894
 10
1955.70156772805
 20
144.2522921170894
 10
1952.960735698745
 20
144.4292663706373
 10
1951.394524713372
 20
142.3847264864374
 97
        1
330
36AA
 92
        1
 93
        1
 72
     4
 94
        3
 73
     0
 74
     1
 95
       38
 96
       34
 40
0.0
 40
0.0
 40
0.0
 40
0.0
 40
1.0
 40
1.0
 40
1.0
 40
2.0
 40
2.0
 40
2.0
 40
3.0
 40
3.0
 40
3.0
 40
4.0
 40
4.0
 40
4.0
 40
5.0
 40
5.0
 40
5.0
 40
6.0
 40
6.0
 40
6.0
 40
7.0
 40
7.0
 40
7.0
 40
8.0
 40
8.0
 40
8.0
 40
9.0
 40
9.0
 40
9.0
 40
10.0
 40
10.0
 40
10.0
 40
11.0
 40
11.0
 40
11.0
 40
11.0
 10
1966.542747159137
 20
143.4464976175386
 10
1966.542747159137
 20
143.4464976175386
 10
1968.39149207262
 20
143.4464976175386
 10
1968.39149207262
 20
143.4464976175386
 10
1968.39149207262
 20
143.4464976175386
 10
1967.56561222273
 20
140.8022984404216
 10
1967.56561222273
 20
140.8022984404216
 10
1968.193167835563
 20
141.54456372075
 10
1969.183598777865
 20
142.5331349083912
 10
1970.034176169654
 20
143.0316235477459
 10
1971.304760554101
 20
143.7738888280742
 10
1972.030808773784
 20
143.8717863134333
 10
1972.829313035064
 20
143.8522960845852
 10
1972.829313035064
 20
143.8522960845852
 10
1972.048959979278
 20
141.3520419182353
 10
1972.048959979278
 20
141.3520419182353
 10
1971.540726225497
 20
141.5672527276151
 10
1969.974515240128
 20
141.1575859708734
 10
1969.076030568268
 20
140.5112840310564
 10
1968.265772657532
 20
139.9285113104618
 10
1967.705614553615
 20
139.4326263276327
 10
1967.04190531017
 20
138.1859955832205
 10
1966.383254599404
 20
136.9375050841474
 10
1965.86341597654
 20
134.9467493047458
 10
1964.968799594376
 20
132.058773486655
 10
1964.968799594376
 20
132.058773486655
 10
1962.174852971949
 20
123.105319426746
 10
1962.174852971949
 20
123.105319426746
 10
1962.174852971949
 20
123.105319426746
 10
1960.380561674943
 20
123.105319426746
 10
1960.380561674943
 20
123.105319426746
 10
1960.380561674943
 20
123.105319426746
 10
1966.542747159137
 20
143.4464976175386
 10
1966.542747159137
 20
143.4464976175386
 97
        1
330
36A8
 92
        1
 93
        1
 72
     4
 94
        3
 73
     0
 74
     1
 95
      104
 96
      100
 40
0.0
 40
0.0
 40
0.0
 40
0.0
 40
1.0
 40
1.0
 40
1.0
 40
2.0
 40
2.0
 40
2.0
 40
3.0
 40
3.0
 40
3.0
 40
4.0
 40
4.0
 40
4.0
 40
5.0
 40
5.0
 40
5.0
 40
6.0
 40
6.0
 40
6.0
 40
7.0
 40
7.0
 40
7.0
 40
8.0
 40
8.0
 40
8.0
 40
9.0
 40
9.0
 40
9.0
 40
10.0
 40
10.0
 40
10.0
 40
11.0
 40
11.0
 40
11.0
 40
12.0
 40
12.0
 40
12.0
 40
13.0
 40
13.0
 40
13.0
 40
14.0
 40
14.0
 40
14.0
 40
15.0
 40
15.0
 40
15.0
 40
16.0
 40
16.0
 40
16.0
 40
17.0
 40
17.0
 40
17.0
 40
18.0
 40
18.0
 40
18.0
 40
19.0
 40
19.0
 40
19.0
 40
20.0
 40
20.0
 40
20.0
 40
21.0
 40
21.0
 40
21.0
 40
22.0
 40
22.0
 40
22.0
 40
23.0
 40
23.0
 40
23.0
 40
24.0
 40
24.0
 40
24.0
 40
25.0
 40
25.0
 40
25.0
 40
26.0
 40
26.0
 40
26.0
 40
27.0
 40
27.0
 40
27.0
 40
28.0
 40
28.0
 40
28.0
 40
29.0
 40
29.0
 40
29.0
 40
30.0
 40
30.0
 40
30.0
 40
31.0
 40
31.0
 40
31.0
 40
32.0
 40
32.0
 40
32.0
 40
33.0
 40
33.0
 40
33.0
 40
33.0
 10
1976.718878323425
 20
143.4575073651321
 10
1976.718878323425
 20
143.4575073651321
 10
1978.332996588864
 20
143.4575073651321
 10
1978.332996588864
 20
143.4575073651321
 10
1978.332996588864
 20
143.4575073651321
 10
1977.517531365076
 20
140.810778921676
 10
1977.517531365076
 20
140.810778921676
 10
1978.225279598895
 20
141.920531723033
 10
1978.860571791119
 20
142.4151520726926
 10
1979.704602846502
 20
143.054312554611
 10
1980.551163168223
 20
143.6843974337833
 10
1981.556025806694
 20
143.812794895584
 10
1982.253508194784
 20
143.812794895584
 10
1983.117029479015
 20
143.812794895584
 10
1983.950645908296
 20
143.6422925882567
 10
1984.388804106443
 20
142.6958262461422
 10
1984.72460140805
 20
141.9536353560001
 10
1984.740223347202
 20
141.8660781065566
 10
1984.644260006691
 20
140.4010377747479
 10
1985.521915426345
 20
141.9030500292188
 10
1986.170151511008
 20
142.5500214807137
 10
1987.272167732975
 20
143.1716258786317
 10
1988.42863757142
 20
143.812794895584
 10
1989.102761440966
 20
143.8607765658398
 10
1989.885941323838
 20
143.7453229964802
 10
1991.039733115569
 20
143.5748950793392
 10
1991.776195961356
 20
143.1632197875635
 10
1992.161239566385
 20
141.9121256319649
 10
1992.54762219477
 20
140.6648997660613
 10
1992.338883331611
 20
139.9959088193793
 10
1991.861744675765
 20
138.0103603530286
 10
1991.64393020986
 20
137.1060732466272
 10
1991.328813380087
 20
136.0111240923725
 10
1990.916542966819
 20
134.7082543670094
 10
1990.916542966819
 20
134.7082543670094
 10
1987.272167732975
 20
123.105319426746
 10
1987.272167732975
 20
123.105319426746
 10
1987.272167732975
 20
123.105319426746
 10
1985.376705782409
 20
123.105319426746
 10
1985.376705782409
 20
123.105319426746
 10
1985.376705782409
 20
123.105319426746
 10
1988.567449659321
 20
133.2490164697431
 10
1988.567449659321
 20
133.2490164697431
 10
1989.233836949479
 20
135.3713684889626
 10
1989.684939040069
 20
136.9212880235028
 10
1989.918375445127
 20
137.893047029008
 10
1990.211323999339
 20
139.1052351170969
 10
1990.327967811683
 20
139.505231149601
 10
1990.189304504152
 20
140.3874987608153
 10
1990.062246065708
 20
141.2087664191461
 10
1989.647297605728
 20
141.7435574694851
 10
1988.936871325198
 20
141.7435574694851
 10
1988.17972800758
 20
141.7435574694851
 10
1987.566455310545
 20
141.659273388245
 10
1986.708290119737
 20
140.7971655175569
 10
1985.84997614856
 20
139.9285113104618
 10
1985.140740111011
 20
138.9088450248874
 10
1984.584599077163
 20
137.7361581257997
 10
1984.029648286297
 20
136.5563297688134
 10
1983.466960916042
 20
135.0608638507494
 10
1982.896536966398
 20
133.2490164697431
 10
1982.896536966398
 20
133.2490164697431
 10
1979.704602846502
 20
123.105319426746
 10
1979.704602846502
 20
123.105319426746
 10
1979.704602846502
 20
123.105319426746
 10
1977.921916418581
 20
123.105319426746
 10
1977.921916418581
 20
123.105319426746
 10
1977.921916418581
 20
123.105319426746
 10
1981.571498965475
 20
134.7030470539584
 10
1981.571498965475
 20
134.7030470539584
 10
1981.956542570504
 20
135.9373290274211
 10
1982.245771615394
 20
136.9433819088763
 10
1982.436359273062
 20
137.729686179579
 10
1982.760402925207
 20
139.0832156219098
 10
1982.851158952669
 20
139.9985124759046
 10
1982.606117678524
 20
140.810778921676
 10
1982.364944694076
 20
141.6204417109219
 10
1981.941069411725
 20
141.8272464292334
 10
1981.233172397533
 20
141.8272464292334
 10
1980.639389929345
 20
141.8272464292334
 10
1980.059890376953
 20
141.5724600406662
 10
1979.398710399847
 20
141.0654909200569
 10
1978.566284213549
 20
140.4276694614944
 10
1978.233164958657
 20
139.9038881587491
 10
1977.824762835085
 20
139.2815398589669
 10
1977.273680333915
 20
138.458263665602
 10
1977.015695167332
 20
137.9040567766015
 10
1976.550310160944
 20
136.687926008631
 10
1976.084776374184
 20
135.4646537827621
 10
1975.644088909695
 20
134.0411231749885
 10
1975.336708659311
 20
133.0564946672286
 10
1975.336708659311
 20
133.0564946672286
 10
1972.205774492298
 20
123.105319426746
 10
1972.205774492298
 20
123.105319426746
 10
1972.205774492298
 20
123.105319426746
 10
1970.338878373326
 20
123.105319426746
 10
1970.338878373326
 20
123.105319426746
 10
1970.338878373326
 20
123.105319426746
 10
1976.718878323425
 20
143.4575073651321
 10
1976.718878323425
 20
143.4575073651321
 97
        1
330
36A9
 92
       16
 93
        1
 72
     4
 94
        3
 73
     0
 74
     1
 95
       29
 96
       25
 40
0.0
 40
0.0
 40
0.0
 40
0.0
 40
1.0
 40
1.0
 40
1.0
 40
2.0
 40
2.0
 40
2.0
 40
3.0
 40
3.0
 40
3.0
 40
4.0
 40
4.0
 40
4.0
 40
5.0
 40
5.0
 40
5.0
 40
6.0
 40
6.0
 40
6.0
 40
7.0
 40
7.0
 40
7.0
 40
8.0
 40
8.0
 40
8.0
 40
8.0
 10
1947.916188375669
 20
126.8949043045264
 10
1947.908303015907
 20
128.3120373562658
 10
1948.355685597176
 20
130.8298476066162
 10
1949.501740809517
 20
134.1986815898748
 10
1951.062744481836
 20
138.7603622127471
 10
1951.998870588036
 20
140.4276694614944
 10
1952.818055321147
 20
141.2392663955878
 10
1954.014844640642
 20
142.4210288974216
 10
1955.623755593032
 20
142.4799459250845
 10
1956.098364982539
 20
142.4210288974216
 10
1956.77382787544
 20
142.3399435941987
 10
1957.727956406759
 20
141.8978427161679
 10
1957.784939289575
 20
140.4095182560024
 10
1957.830466083678
 20
139.1357350935386
 10
1957.463424903768
 20
136.7501905946838
 10
1956.178706383896
 20
133.0053142189559
 10
1954.698044112936
 20
128.6536370924121
 10
1953.808635043822
 20
126.9429603649685
 10
1953.095679496951
 20
126.1974219164366
 10
1951.752490290537
 20
124.7997790935452
 10
1950.311998720255
 20
124.9339789898883
 10
1950.0993915674
 20
124.9339789898883
 10
1949.823255195324
 20
124.9339789898883
 10
1947.920056665365
 20
125.2336226608809
 10
1947.916188375669
 20
126.8949043045264
 97
        1
330
36AB
 75
     0
 76
     1
 98
        1
 10
1859.334883625664
 20
72.26751235270598
1001
ACAD
1010
0.0
1020
0.0
1030
0.0
  0
POLYLINE
  5
369C
102
{ACAD_REACTORS
330
369B
330
36AC
102
}
330
A
100
AcDbEntity
  8
TEMPLATE
100
AcDb2dPolyline
 66
     1
 10
0.0
 20
0.0
 30
0.0
  0
VERTEX
  5
369D
330
369C
100
AcDbEntity
  8
TEMPLATE
100
AcDbVertex
100
AcDb2dVertex
 10
1934.476782902687
 20
153.1053194253001
 30
0.0
  0
VERTEX
  5
369E
330
369C
100
AcDbEntity
  8
TEMPLATE
100
AcDbVertex
100
AcDb2dVertex
 10
1934.476782902687
 20
147.1959117946397
 30
0.0
  0
VERTEX
  5
369F
330
369C
100
AcDbEntity
  8
TEMPLATE
100
AcDbVertex
100
AcDb2dVertex
 10
1925.116191352377
 20
147.1959117946397
 30
0.0
  0
VERTEX
  5
36A0
330
369C
100
AcDbEntity
  8
TEMPLATE
100
AcDbVertex
100
AcDb2dVertex
 10
1925.116191352377
 20
123.105319426746
 30
0.0
  0
VERTEX
  5
36A1
330
369C
100
AcDbEntity
  8
TEMPLATE
100
AcDbVertex
100
AcDb2dVertex
 10
1916.883578199102
 20
123.105319426746
 30
0.0
  0
VERTEX
  5
36A2
330
369C
100
AcDbEntity
  8
TEMPLATE
100
AcDbVertex
100
AcDb2dVertex
 10
1916.883578199102
 20
147.1959117946397
 30
0.0
  0
VERTEX
  5
36A3
330
369C
100
AcDbEntity
  8
TEMPLATE
100
AcDbVertex
100
AcDb2dVertex
 10
1907.688876764557
 20
147.1959117946397
 30
0.0
  0
VERTEX
  5
36A4
330
369C
100
AcDbEntity
  8
TEMPLATE
100
AcDbVertex
100
AcDb2dVertex
 10
1907.688876764557
 20
153.1053194253001
 30
0.0
  0
VERTEX
  5
36A5
330
369C
100
AcDbEntity
  8
TEMPLATE
100
AcDbVertex
100
AcDb2dVertex
 10
1934.476782902687
 20
153.1053194253001
 30
0.0
  0
SEQEND
  5
36A6
330
369C
100
AcDbEntity
  8
TEMPLATE
  0
SPLINE
  5
36A7
102
{ACAD_REACTORS
330
369B
330
36AC
102
}
330
A
100
AcDbEntity
  8
TEMPLATE
100
AcDbSpline
210
0.0
220
0.0
230
1.0
 70
    11
 71
     3
 72
    56
 73
    52
 74
     0
 42
0.000000001
 43
0.0000000001
 40
0.0
 40
0.0
 40
0.0
 40
0.0
 40
1.0
 40
1.0
 40
1.0
 40
2.0
 40
2.0
 40
2.0
 40
3.0
 40
3.0
 40
3.0
 40
4.0
 40
4.0
 40
4.0
 40
5.0
 40
5.0
 40
5.0
 40
6.0
 40
6.0
 40
6.0
 40
7.0
 40
7.0
 40
7.0
 40
8.0
 40
8.0
 40
8.0
 40
9.0
 40
9.0
 40
9.0
 40
10.0
 40
10.0
 40
10.0
 40
11.0
 40
11.0
 40
11.0
 40
12.0
 40
12.0
 40
12.0
 40
13.0
 40
13.0
 40
13.0
 40
14.0
 40
14.0
 40
14.0
 40
15.0
 40
15.0
 40
15.0
 40
16.0
 40
16.0
 40
16.0
 40
17.0
 40
17.0
 40
17.0
 40
17.0
 10
1947.01896833698
 20
152.3909504648878
 30
0.0
 10
1948.1728345189
 20
152.715738018898
 30
0.0
 10
1949.662423612235
 20
152.4440650580081
 30
0.0
 10
1949.662423612235
 20
152.4440650580081
 30
0.0
 10
1949.662423612235
 20
152.4440650580081
 30
0.0
 10
1948.946790018651
 20
150.2964947655846
 30
0.0
 10
1948.946790018651
 20
150.2964947655846
 30
0.0
 10
1948.946790018651
 20
150.2964947655846
 30
0.0
 10
1947.484427733556
 20
150.6348957237139
 30
0.0
 10
1946.356523726704
 20
149.7454866546012
 30
0.0
 10
1945.480058550036
 20
149.0499384113589
 30
0.0
 10
1944.912238256914
 20
147.2017886193686
 30
0.0
 10
1944.69442379101
 20
146.4990989182278
 30
0.0
 10
1944.69442379101
 20
146.4990989182278
 30
0.0
 10
1943.723334297183
 20
143.518432927829
 30
0.0
 10
1943.723334297183
 20
143.518432927829
 30
0.0
 10
1943.723334297183
 20
143.518432927829
 30
0.0
 10
1946.907457447503
 20
143.518432927829
 30
0.0
 10
1946.907457447503
 20
143.518432927829
 30
0.0
 10
1946.907457447503
 20
143.518432927829
 30
0.0
 10
1946.412241976351
 20
141.642461206109
 30
0.0
 10
1946.412241976351
 20
141.642461206109
 30
0.0
 10
1946.412241976351
 20
141.642461206109
 30
0.0
 10
1943.202156650962
 20
141.642461206109
 30
0.0
 10
1943.202156650962
 20
141.642461206109
 30
0.0
 10
1943.202156650962
 20
141.642461206109
 30
0.0
 10
1937.458713526257
 20
123.105319426746
 30
0.0
 10
1937.458713526257
 20
123.105319426746
 30
0.0
 10
1937.458713526257
 20
123.105319426746
 30
0.0
 10
1935.660479549369
 20
123.105319426746
 30
0.0
 10
1935.660479549369
 20
123.105319426746
 30
0.0
 10
1935.660479549369
 20
123.105319426746
 30
0.0
 10
1941.409129987127
 20
141.642461206109
 30
0.0
 10
1941.409129987127
 20
141.642461206109
 30
0.0
 10
1941.409129987127
 20
141.642461206109
 30
0.0
 10
1939.040397670409
 20
141.642461206109
 30
0.0
 10
1939.040397670409
 20
141.642461206109
 30
0.0
 10
1939.040397670409
 20
141.642461206109
 30
0.0
 10
1939.536952164915
 20
143.518432927829
 30
0.0
 10
1939.536952164915
 20
143.518432927829
 30
0.0
 10
1939.536952164915
 20
143.518432927829
 30
0.0
 10
1941.930307633347
 20
143.518432927829
 30
0.0
 10
1941.930307633347
 20
143.518432927829
 30
0.0
 10
1941.930307633347
 20
143.518432927829
 30
0.0
 10
1942.77686795507
 20
146.1179236028939
 30
0.0
 10
1942.77686795507
 20
146.1179236028939
 30
0.0
 10
1943.461406450716
 20
148.2973328951149
 30
0.0
 10
1944.042245026465
 20
149.4674161376772
 30
0.0
 10
1944.540138544327
 20
150.3496093587049
 30
0.0
 10
1945.032750358952
 20
151.232546481597
 30
0.0
 10
1946.007708142475
 20
152.0998616653363
 30
0.0
 10
1947.01896833698
 20
152.3909504648878
 30
0.0
  0
SPLINE
  5
36A8
102
{ACAD_REACTORS
330
369B
330
36AC
102
}
330
A
100
AcDbEntity
  8
TEMPLATE
100
AcDbSpline
210
0.0
220
0.0
230
1.0
 70
    11
 71
     3
 72
    38
 73
    34
 74
     0
 42
0.000000001
 43
0.0000000001
 40
0.0
 40
0.0
 40
0.0
 40
0.0
 40
1.0
 40
1.0
 40
1.0
 40
2.0
 40
2.0
 40
2.0
 40
3.0
 40
3.0
 40
3.0
 40
4.0
 40
4.0
 40
4.0
 40
5.0
 40
5.0
 40
5.0
 40
6.0
 40
6.0
 40
6.0
 40
7.0
 40
7.0
 40
7.0
 40
8.0
 40
8.0
 40
8.0
 40
9.0
 40
9.0
 40
9.0
 40
10.0
 40
10.0
 40
10.0
 40
11.0
 40
11.0
 40
11.0
 40
11.0
 10
1966.542747159137
 20
143.4464976175386
 30
0.0
 10
1966.542747159137
 20
143.4464976175386
 30
0.0
 10
1968.39149207262
 20
143.4464976175386
 30
0.0
 10
1968.39149207262
 20
143.4464976175386
 30
0.0
 10
1968.39149207262
 20
143.4464976175386
 30
0.0
 10
1967.56561222273
 20
140.8022984404216
 30
0.0
 10
1967.56561222273
 20
140.8022984404216
 30
0.0
 10
1968.193167835563
 20
141.54456372075
 30
0.0
 10
1969.183598777865
 20
142.5331349083912
 30
0.0
 10
1970.034176169654
 20
143.0316235477459
 30
0.0
 10
1971.304760554101
 20
143.7738888280742
 30
0.0
 10
1972.030808773784
 20
143.8717863134333
 30
0.0
 10
1972.829313035064
 20
143.8522960845852
 30
0.0
 10
1972.829313035064
 20
143.8522960845852
 30
0.0
 10
1972.048959979278
 20
141.3520419182353
 30
0.0
 10
1972.048959979278
 20
141.3520419182353
 30
0.0
 10
1971.540726225497
 20
141.5672527276151
 30
0.0
 10
1969.974515240128
 20
141.1575859708734
 30
0.0
 10
1969.076030568268
 20
140.5112840310564
 30
0.0
 10
1968.265772657532
 20
139.9285113104618
 30
0.0
 10
1967.705614553615
 20
139.4326263276327
 30
0.0
 10
1967.04190531017
 20
138.1859955832205
 30
0.0
 10
1966.383254599404
 20
136.9375050841474
 30
0.0
 10
1965.86341597654
 20
134.9467493047458
 30
0.0
 10
1964.968799594376
 20
132.058773486655
 30
0.0
 10
1964.968799594376
 20
132.058773486655
 30
0.0
 10
1962.174852971949
 20
123.105319426746
 30
0.0
 10
1962.174852971949
 20
123.105319426746
 30
0.0
 10
1962.174852971949
 20
123.105319426746
 30
0.0
 10
1960.380561674943
 20
123.105319426746
 30
0.0
 10
1960.380561674943
 20
123.105319426746
 30
0.0
 10
1960.380561674943
 20
123.105319426746
 30
0.0
 10
1966.542747159137
 20
143.4464976175386
 30
0.0
 10
1966.542747159137
 20
143.4464976175386
 30
0.0
  0
SPLINE
  5
36A9
102
{ACAD_REACTORS
330
369B
330
36AC
102
}
330
A
100
AcDbEntity
  8
TEMPLATE
100
AcDbSpline
210
0.0
220
0.0
230
1.0
 70
    11
 71
     3
 72
   104
 73
   100
 74
     0
 42
0.000000001
 43
0.0000000001
 40
0.0
 40
0.0
 40
0.0
 40
0.0
 40
1.0
 40
1.0
 40
1.0
 40
2.0
 40
2.0
 40
2.0
 40
3.0
 40
3.0
 40
3.0
 40
4.0
 40
4.0
 40
4.0
 40
5.0
 40
5.0
 40
5.0
 40
6.0
 40
6.0
 40
6.0
 40
7.0
 40
7.0
 40
7.0
 40
8.0
 40
8.0
 40
8.0
 40
9.0
 40
9.0
 40
9.0
 40
10.0
 40
10.0
 40
10.0
 40
11.0
 40
11.0
 40
11.0
 40
12.0
 40
12.0
 40
12.0
 40
13.0
 40
13.0
 40
13.0
 40
14.0
 40
14.0
 40
14.0
 40
15.0
 40
15.0
 40
15.0
 40
16.0
 40
16.0
 40
16.0
 40
17.0
 40
17.0
 40
17.0
 40
18.0
 40
18.0
 40
18.0
 40
19.0
 40
19.0
 40
19.0
 40
20.0
 40
20.0
 40
20.0
 40
21.0
 40
21.0
 40
21.0
 40
22.0
 40
22.0
 40
22.0
 40
23.0
 40
23.0
 40
23.0
 40
24.0
 40
24.0
 40
24.0
 40
25.0
 40
25.0
 40
25.0
 40
26.0
 40
26.0
 40
26.0
 40
27.0
 40
27.0
 40
27.0
 40
28.0
 40
28.0
 40
28.0
 40
29.0
 40
29.0
 40
29.0
 40
30.0
 40
30.0
 40
30.0
 40
31.0
 40
31.0
 40
31.0
 40
32.0
 40
32.0
 40
32.0
 40
33.0
 40
33.0
 40
33.0
 40
33.0
 10
1976.718878323425
 20
143.4575073651321
 30
0.0
 10
1976.718878323425
 20
143.4575073651321
 30
0.0
 10
1978.332996588864
 20
143.4575073651321
 30
0.0
 10
1978.332996588864
 20
143.4575073651321
 30
0.0
 10
1978.332996588864
 20
143.4575073651321
 30
0.0
 10
1977.517531365076
 20
140.810778921676
 30
0.0
 10
1977.517531365076
 20
140.810778921676
 30
0.0
 10
1978.225279598895
 20
141.920531723033
 30
0.0
 10
1978.860571791119
 20
142.4151520726926
 30
0.0
 10
1979.704602846502
 20
143.054312554611
 30
0.0
 10
1980.551163168223
 20
143.6843974337833
 30
0.0
 10
1981.556025806694
 20
143.812794895584
 30
0.0
 10
1982.253508194784
 20
143.812794895584
 30
0.0
 10
1983.117029479015
 20
143.812794895584
 30
0.0
 10
1983.950645908296
 20
143.6422925882567
 30
0.0
 10
1984.388804106443
 20
142.6958262461422
 30
0.0
 10
1984.72460140805
 20
141.9536353560001
 30
0.0
 10
1984.740223347202
 20
141.8660781065566
 30
0.0
 10
1984.644260006691
 20
140.4010377747479
 30
0.0
 10
1985.521915426345
 20
141.9030500292188
 30
0.0
 10
1986.170151511008
 20
142.5500214807137
 30
0.0
 10
1987.272167732975
 20
143.1716258786317
 30
0.0
 10
1988.42863757142
 20
143.812794895584
 30
0.0
 10
1989.102761440966
 20
143.8607765658398
 30
0.0
 10
1989.885941323838
 20
143.7453229964802
 30
0.0
 10
1991.039733115569
 20
143.5748950793392
 30
0.0
 10
1991.776195961356
 20
143.1632197875635
 30
0.0
 10
1992.161239566385
 20
141.9121256319649
 30
0.0
 10
1992.54762219477
 20
140.6648997660613
 30
0.0
 10
1992.338883331611
 20
139.9959088193793
 30
0.0
 10
1991.861744675765
 20
138.0103603530286
 30
0.0
 10
1991.64393020986
 20
137.1060732466272
 30
0.0
 10
1991.328813380087
 20
136.0111240923725
 30
0.0
 10
1990.916542966819
 20
134.7082543670094
 30
0.0
 10
1990.916542966819
 20
134.7082543670094
 30
0.0
 10
1987.272167732975
 20
123.105319426746
 30
0.0
 10
1987.272167732975
 20
123.105319426746
 30
0.0
 10
1987.272167732975
 20
123.105319426746
 30
0.0
 10
1985.376705782409
 20
123.105319426746
 30
0.0
 10
1985.376705782409
 20
123.105319426746
 30
0.0
 10
1985.376705782409
 20
123.105319426746
 30
0.0
 10
1988.567449659321
 20
133.2490164697431
 30
0.0
 10
1988.567449659321
 20
133.2490164697431
 30
0.0
 10
1989.233836949479
 20
135.3713684889626
 30
0.0
 10
1989.684939040069
 20
136.9212880235028
 30
0.0
 10
1989.918375445127
 20
137.893047029008
 30
0.0
 10
1990.211323999339
 20
139.1052351170969
 30
0.0
 10
1990.327967811683
 20
139.505231149601
 30
0.0
 10
1990.189304504152
 20
140.3874987608153
 30
0.0
 10
1990.062246065708
 20
141.2087664191461
 30
0.0
 10
1989.647297605728
 20
141.7435574694851
 30
0.0
 10
1988.936871325198
 20
141.7435574694851
 30
0.0
 10
1988.17972800758
 20
141.7435574694851
 30
0.0
 10
1987.566455310545
 20
141.659273388245
 30
0.0
 10
1986.708290119737
 20
140.7971655175569
 30
0.0
 10
1985.84997614856
 20
139.9285113104618
 30
0.0
 10
1985.140740111011
 20
138.9088450248874
 30
0.0
 10
1984.584599077163
 20
137.7361581257997
 30
0.0
 10
1984.029648286297
 20
136.5563297688134
 30
0.0
 10
1983.466960916042
 20
135.0608638507494
 30
0.0
 10
1982.896536966398
 20
133.2490164697431
 30
0.0
 10
1982.896536966398
 20
133.2490164697431
 30
0.0
 10
1979.704602846502
 20
123.105319426746
 30
0.0
 10
1979.704602846502
 20
123.105319426746
 30
0.0
 10
1979.704602846502
 20
123.105319426746
 30
0.0
 10
1977.921916418581
 20
123.105319426746
 30
0.0
 10
1977.921916418581
 20
123.105319426746
 30
0.0
 10
1977.921916418581
 20
123.105319426746
 30
0.0
 10
1981.571498965475
 20
134.7030470539584
 30
0.0
 10
1981.571498965475
 20
134.7030470539584
 30
0.0
 10
1981.956542570504
 20
135.9373290274211
 30
0.0
 10
1982.245771615394
 20
136.9433819088763
 30
0.0
 10
1982.436359273062
 20
137.729686179579
 30
0.0
 10
1982.760402925207
 20
139.0832156219098
 30
0.0
 10
1982.851158952669
 20
139.9985124759046
 30
0.0
 10
1982.606117678524
 20
140.810778921676
 30
0.0
 10
1982.364944694076
 20
141.6204417109219
 30
0.0
 10
1981.941069411725
 20
141.8272464292334
 30
0.0
 10
1981.233172397533
 20
141.8272464292334
 30
0.0
 10
1980.639389929345
 20
141.8272464292334
 30
0.0
 10
1980.059890376953
 20
141.5724600406662
 30
0.0
 10
1979.398710399847
 20
141.0654909200569
 30
0.0
 10
1978.566284213549
 20
140.4276694614944
 30
0.0
 10
1978.233164958657
 20
139.9038881587491
 30
0.0
 10
1977.824762835085
 20
139.2815398589669
 30
0.0
 10
1977.273680333915
 20
138.458263665602
 30
0.0
 10
1977.015695167332
 20
137.9040567766015
 30
0.0
 10
1976.550310160944
 20
136.687926008631
 30
0.0
 10
1976.084776374184
 20
135.4646537827621
 30
0.0
 10
1975.644088909695
 20
134.0411231749885
 30
0.0
 10
1975.336708659311
 20
133.0564946672286
 30
0.0
 10
1975.336708659311
 20
133.0564946672286
 30
0.0
 10
1972.205774492298
 20
123.105319426746
 30
0.0
 10
1972.205774492298
 20
123.105319426746
 30
0.0
 10
1972.205774492298
 20
123.105319426746
 30
0.0
 10
1970.338878373326
 20
123.105319426746
 30
0.0
 10
1970.338878373326
 20
123.105319426746
 30
0.0
 10
1970.338878373326
 20
123.105319426746
 30
0.0
 10
1976.718878323425
 20
143.4575073651321
 30
0.0
 10
1976.718878323425
 20
143.4575073651321
 30
0.0
  0
SPLINE
  5
36AA
102
{ACAD_REACTORS
330
369B
330
36AC
102
}
330
A
100
AcDbEntity
  8
TEMPLATE
100
AcDbSpline
210
0.0
220
0.0
230
1.0
 70
    11
 71
     3
 72
    32
 73
    28
 74
     0
 42
0.000000001
 43
0.0000000001
 40
0.0
 40
0.0
 40
0.0
 40
0.0
 40
1.0
 40
1.0
 40
1.0
 40
2.0
 40
2.0
 40
2.0
 40
3.0
 40
3.0
 40
3.0
 40
4.0
 40
4.0
 40
4.0
 40
5.0
 40
5.0
 40
5.0
 40
6.0
 40
6.0
 40
6.0
 40
7.0
 40
7.0
 40
7.0
 40
8.0
 40
8.0
 40
8.0
 40
9.0
 40
9.0
 40
9.0
 40
9.0
 10
1951.394524713372
 20
142.3847264864374
 30
0.0
 10
1950.311998720255
 20
140.9844800070205
 30
0.0
 10
1949.478382290974
 20
139.7243102486757
 30
0.0
 10
1948.128795528524
 20
135.7635535518901
 30
0.0
 10
1946.888041608841
 20
132.1406026917421
 30
0.0
 10
1946.098464169936
 20
129.5048096056932
 30
0.0
 10
1945.979216701069
 20
126.2947242803041
 30
0.0
 10
1945.888460673606
 20
123.9059066132458
 30
0.0
 10
1947.343086379314
 20
123.105319426746
 30
0.0
 10
1949.475853024634
 20
123.105319426746
 30
0.0
 10
1950.395018168326
 20
123.105319426746
 30
0.0
 10
1952.714504181618
 20
123.1637901132903
 30
0.0
 10
1954.3662638814
 20
125.2056519507783
 30
0.0
 10
1955.522584939468
 20
126.6401923061455
 30
0.0
 10
1956.588298750451
 20
128.1272521331414
 30
0.0
 10
1958.017036671275
 20
133.0053142189559
 30
0.0
 10
1959.205940631009
 20
137.0833842397621
 30
0.0
 10
1960.029142434186
 20
139.7191029356247
 30
0.0
 10
1959.968291261677
 20
141.2197761667398
 30
0.0
 10
1959.968291261677
 20
141.2197761667398
 30
0.0
 10
1959.968291261677
 20
141.2197761667398
 30
0.0
 10
1959.968291261677
 20
141.2197761667398
 30
0.0
 10
1959.580569609936
 20
143.7233035012931
 30
0.0
 10
1957.762919794387
 20
144.2522921170894
 30
0.0
 10
1956.724432791643
 20
144.2522921170894
 30
0.0
 10
1955.70156772805
 20
144.2522921170894
 30
0.0
 10
1952.960735698745
 20
144.4292663706373
 30
0.0
 10
1951.394524713372
 20
142.3847264864374
 30
0.0
  0
SPLINE
  5
36AB
102
{ACAD_REACTORS
330
369B
330
36AC
102
}
330
A
100
AcDbEntity
  8
TEMPLATE
100
AcDbSpline
210
0.0
220
0.0
230
1.0
 70
    11
 71
     3
 72
    29
 73
    25
 74
     0
 42
0.000000001
 43
0.0000000001
 40
0.0
 40
0.0
 40
0.0
 40
0.0
 40
1.0
 40
1.0
 40
1.0
 40
2.0
 40
2.0
 40
2.0
 40
3.0
 40
3.0
 40
3.0
 40
4.0
 40
4.0
 40
4.0
 40
5.0
 40
5.0
 40
5.0
 40
6.0
 40
6.0
 40
6.0
 40
7.0
 40
7.0
 40
7.0
 40
8.0
 40
8.0
 40
8.0
 40
8.0
 10
1947.916188375669
 20
126.8949043045264
 30
0.0
 10
1947.908303015907
 20
128.3120373562658
 30
0.0
 10
1948.355685597176
 20
130.8298476066162
 30
0.0
 10
1949.501740809517
 20
134.1986815898748
 30
0.0
 10
1951.062744481836
 20
138.7603622127471
 30
0.0
 10
1951.998870588036
 20
140.4276694614944
 30
0.0
 10
1952.818055321147
 20
141.2392663955878
 30
0.0
 10
1954.014844640642
 20
142.4210288974216
 30
0.0
 10
1955.623755593032
 20
142.4799459250845
 30
0.0
 10
1956.098364982539
 20
142.4210288974216
 30
0.0
 10
1956.77382787544
 20
142.3399435941987
 30
0.0
 10
1957.727956406759
 20
141.8978427161679
 30
0.0
 10
1957.784939289575
 20
140.4095182560024
 30
0.0
 10
1957.830466083678
 20
139.1357350935386
 30
0.0
 10
1957.463424903768
 20
136.7501905946838
 30
0.0
 10
1956.178706383896
 20
133.0053142189559
 30
0.0
 10
1954.698044112936
 20
128.6536370924121
 30
0.0
 10
1953.808635043822
 20
126.9429603649685
 30
0.0
 10
1953.095679496951
 20
126.1974219164366
 30
0.0
 10
1951.752490290537
 20
124.7997790935452
 30
0.0
 10
1950.311998720255
 20
124.9339789898883
 30
0.0
 10
1950.0993915674
 20
124.9339789898883
 30
0.0
 10
1949.823255195324
 20
124.9339789898883
 30
0.0
 10
1947.920056665365
 20
125.2336226608809
 30
0.0
 10
1947.916188375669
 20
126.8949043045264
 30
0.0
  0
MTEXT
  5
3791
330
A
100
AcDbEntity
  8
TEMPLATE
390
1D
100
AcDbMText
 10
130.3241789892355
 20
314.1552119569445
 30
0.0
 40
24.4326171875
 41
0.0
 46
27.53672361022102
 71
     1
 72
     1
  1
{洗面器 -CATALANO, Premium-}
  7
ＭＳ ゴシック
 73
     1
 44
0.7828267384257843
1001
ACAD
1000
ACAD_MTEXT_DEFINED_HEIGHT_BEGIN
1070
    46
1040
27.53672361022102
1000
ACAD_MTEXT_DEFINED_HEIGHT_END
  0
MTEXT
  5
37AD
330
A
100
AcDbEntity
  8
TEMPLATE
 62
     1
390
1D
100
AcDbMText
 10
129.2635665064197
 20
223.9740171808398
 30
0.0
 40
24.4326171875
 41
0.0
 46
69.00885866868045
 71
     1
 72
     1
  1
{\C256;壁掛け,カウンター置き/オーバーフロー付き/壁取付ボルト付属/\P陶器/ホワイト}
  7
ＭＳ ゴシック
 73
     1
 44
0.9822934569727008
1001
ACAD
1000
ACAD_MTEXT_DEFINED_HEIGHT_BEGIN
1070
    46
1040
69.00885866868045
1000
ACAD_MTEXT_DEFINED_HEIGHT_END
  0
LINE
  5
3993
330
A
100
AcDbEntity
  8
MODEL
100
AcDbLine
 10
341.9917781007384
 20
2192.0
 30
0.0
 11
341.9917781007384
 21
1979.2
 31
0.0
  0
ARC
  5
3994
330
A
100
AcDbEntity
  8
MODEL
100
AcDbCircle
 10
351.9917781007384
 20
2192.0
 30
0.0
 40
10.0
100
AcDbArc
 50
90.0
 51
180.0
  0
ARC
  5
3995
330
A
100
AcDbEntity
  8
MODEL
100
AcDbCircle
 10
351.9917781007384
 20
1979.2
 30
0.0
 40
10.0
100
AcDbArc
 50
180.0
 51
270.0
  0
LINE
  5
3996
330
A
100
AcDbEntity
  8
MODEL
100
AcDbLine
 10
877.5917781007388
 20
2192.0
 30
0.0
 11
877.5917781007352
 21
1979.2
 31
0.0
  0
LINE
  5
3997
330
A
100
AcDbEntity
  8
MODEL
100
AcDbLine
 10
351.9917781007384
 20
1969.2
 30
0.0
 11
867.5917781007352
 21
1969.2
 31
0.0
  0
ARC
  5
3998
330
A
100
AcDbEntity
  8
MODEL
100
AcDbCircle
 10
867.5917781007352
 20
1979.2
 30
0.0
 40
10.0
100
AcDbArc
 50
270.0
 51
359.9999999999974
  0
LINE
  5
3999
330
A
100
AcDbEntity
  8
MODEL
100
AcDbLine
 10
334.7917781007359
 20
2329.0
 30
0.0
 11
334.7917781007359
 21
1969.0
 31
0.0
  0
ARC
  5
399A
330
A
100
AcDbEntity
  8
MODEL
100
AcDbCircle
 10
341.7917781007359
 20
1969.0
 30
0.0
 40
7.0
100
AcDbArc
 50
180.0
 51
270.0
  0
LINE
  5
399B
330
A
100
AcDbEntity
  8
MODEL
100
AcDbLine
 10
341.7917781007359
 20
1962.0
 30
0.0
 11
877.7917781007359
 21
1962.0
 31
0.0
  0
LINE
  5
399C
330
A
100
AcDbEntity
  8
MODEL
100
AcDbLine
 10
884.7917781007359
 20
1969.0
 30
0.0
 11
884.7917781007359
 21
2329.0
 31
0.0
  0
ARC
  5
399D
330
A
100
AcDbEntity
  8
MODEL
100
AcDbCircle
 10
881.7917781007359
 20
2329.0
 30
0.0
 40
3.0
100
AcDbArc
 50
0.0
 51
90.0
  0
ARC
  5
399E
330
A
100
AcDbEntity
  8
MODEL
100
AcDbCircle
 10
877.7917781007359
 20
1969.0
 30
0.0
 40
7.0
100
AcDbArc
 50
270.0
 51
0.0
  0
LINE
  5
399F
330
A
100
AcDbEntity
  8
MODEL
100
AcDbLine
 10
881.7917781007359
 20
2332.0
 30
0.0
 11
337.7917781007359
 21
2332.0
 31
0.0
  0
ARC
  5
39A0
330
A
100
AcDbEntity
  8
MODEL
100
AcDbCircle
 10
337.7917781007359
 20
2329.0
 30
0.0
 40
3.0
100
AcDbArc
 50
90.0
 51
180.0
  0
LINE
  5
39A1
330
A
100
AcDbEntity
  8
MODEL
100
AcDbLine
 10
351.9917781007384
 20
2202.0
 30
0.0
 11
867.5917781007388
 21
2202.0
 31
0.0
  0
ARC
  5
39A2
330
A
100
AcDbEntity
  8
MODEL
100
AcDbCircle
 10
867.5917781007388
 20
2192.0
 30
0.0
 40
10.0
100
AcDbArc
 50
0.0
 51
90.0
  0
LINE
  5
39A6
330
A
100
AcDbEntity
  8
MODEL
100
AcDbLine
 10
808.0939194216894
 20
2035.400459316388
 30
0.0
 11
418.192237417124
 21
2035.400459316388
 31
0.0
  0
LINE
  5
39A7
330
A
100
AcDbEntity
  8
MODEL
100
AcDbLine
 10
408.192237417124
 20
2183.196855558634
 30
0.0
 11
408.192237417124
 21
2045.400459316389
 31
0.0
  0
ARC
  5
39A8
330
A
100
AcDbEntity
  8
MODEL
100
AcDbCircle
 10
418.192237417124
 20
2045.400459316388
 30
0.0
 40
10.0
100
AcDbArc
 50
180.0
 51
270.0
  0
LINE
  5
39A9
330
A
100
AcDbEntity
  8
MODEL
100
AcDbLine
 10
818.0939194216894
 20
2183.196855558634
 30
0.0
 11
818.0939194216894
 21
2045.400459316388
 31
0.0
  0
ARC
  5
39AA
330
A
100
AcDbEntity
  8
MODEL
100
AcDbCircle
 10
808.0939194216894
 20
2045.400459316388
 30
0.0
 40
10.0
100
AcDbArc
 50
270.0
 51
0.0
  0
LINE
  5
39AB
330
A
100
AcDbEntity
  8
MODEL
100
AcDbLine
 10
808.0939194216894
 20
2193.196855558634
 30
0.0
 11
418.192237417124
 21
2193.196855558634
 31
0.0
  0
ARC
  5
39AC
330
A
100
AcDbEntity
  8
MODEL
100
AcDbCircle
 10
808.0939194216894
 20
2183.196855558634
 30
0.0
 40
10.0
100
AcDbArc
 50
0.0
 51
90.0
  0
ARC
  5
39AD
330
A
100
AcDbEntity
  8
MODEL
100
AcDbCircle
 10
418.192237417124
 20
2183.196855558634
 30
0.0
 40
10.0
100
AcDbArc
 50
90.0
 51
180.0
  0
LINE
  5
39AE
330
A
100
AcDbEntity
  8
MODEL
100
AcDbLine
 10
408.2498093061381
 20
2035.458031205402
 30
0.0
 11
348.0515186404805
 21
1975.259740539745
 31
0.0
  0
LINE
  5
39AF
330
A
100
AcDbEntity
  8
MODEL
100
AcDbLine
 10
406.1457806527392
 20
2190.929536115385
 30
0.0
 11
352.1481915603194
 21
2198.109978383834
 31
0.0
  0
LINE
  5
39B0
330
A
100
AcDbEntity
  8
MODEL
100
AcDbLine
 10
811.3337468953337
 20
2035.458031205402
 30
0.0
 11
871.5320375609895
 21
1975.259740539745
 31
0.0
  0
LINE
  5
39B1
330
A
100
AcDbEntity
  8
MODEL
100
AcDbLine
 10
813.4377755487308
 20
2190.929536115385
 30
0.0
 11
867.4353646411523
 21
2198.109978383834
 31
0.0
  0
LINE
  5
39B2
330
A
100
AcDbEntity
  8
MODEL
100
AcDbLine
 10
877.791778100735
 20
1029.999999999999
 30
0.0
 11
341.791778100735
 21
1029.999999999999
 31
0.0
  0
LINE
  5
39B3
330
A
100
AcDbEntity
  8
MODEL
100
AcDbLine
 10
884.7893793755652
 20
1022.816761361845
 30
0.0
 11
881.7008115654357
 21
904.8691152584602
 31
0.0
  0
ARC
  5
39B4
330
A
100
AcDbEntity
  8
MODEL
100
AcDbCircle
 10
876.7025249405565
 20
905.0000000000002
 30
0.0
 40
5.0
100
AcDbArc
 50
270.0
 51
358.5000000000025
  0
ARC
  5
39B5
330
A
100
AcDbEntity
  8
MODEL
100
AcDbCircle
 10
877.791778100735
 20
1022.999999999999
 30
0.0
 40
7.0
100
AcDbArc
 50
358.5000000000047
 51
90.0
  0
LINE
  5
39B6
330
A
100
AcDbEntity
  8
MODEL
100
AcDbLine
 10
342.8810312609135
 20
900.0000000000002
 30
0.0
 11
876.7025249405565
 21
900.0000000000002
 31
0.0
  0
ARC
  5
39B7
330
A
100
AcDbEntity
  8
MODEL
100
AcDbCircle
 10
342.8810312609135
 20
905.0000000000002
 30
0.0
 40
5.0
100
AcDbArc
 50
181.4999999999975
 51
270.0
  0
LINE
  5
39B8
330
A
100
AcDbEntity
  8
MODEL
100
AcDbLine
 10
334.7941768259047
 20
1022.816761361845
 30
0.0
 11
337.8827446360341
 21
904.8691152584602
 31
0.0
  0
ARC
  5
39B9
330
A
100
AcDbEntity
  8
MODEL
100
AcDbCircle
 10
341.791778100735
 20
1022.999999999999
 30
0.0
 40
7.0
100
AcDbArc
 50
90.0
 51
181.4999999999953
  0
LINE
  5
39C5
330
A
100
AcDbEntity
  8
MODEL
100
AcDbLine
 10
1529.269244443683
 20
869.9999999999959
 30
0.0
 11
1541.269244443685
 21
869.9999999999964
 31
0.0
  0
LINE
  5
39CD
330
A
100
AcDbEntity
  8
MODEL
100
AcDbLine
 10
1483.269244443683
 20
869.9999999999936
 30
0.0
 11
1474.072694819085
 21
869.9999999999932
 31
0.0
  0
LINE
  5
39CE
330
A
100
AcDbEntity
  8
MODEL
100
AcDbLine
 10
1471.079569068372
 20
872.7970265031441
 30
0.0
 11
1469.234847825365
 21
899.9999999999882
 31
0.0
  0
ARC
  5
39D0
330
A
100
AcDbEntity
  8
MODEL
100
AcDbCircle
 10
1474.072694819085
 20
872.9999999999932
 30
0.0
 40
3.0
100
AcDbArc
 50
183.8794718555746
 51
270.0
  0
LINE
  5
39D4
330
A
100
AcDbEntity
  8
MODEL
100
AcDbLine
 10
1353.980180262884
 20
1022.633648306286
 30
0.0
 11
1360.158812595796
 21
904.7383202187732
 31
0.0
  0
ARC
  5
39D6
330
A
100
AcDbEntity
  8
MODEL
100
AcDbCircle
 10
1360.970587006166
 20
1022.999999999988
 30
0.0
 40
7.0
100
AcDbArc
 50
90.0
 51
183.0000000000094
  0
LINE
  5
39D9
330
A
100
AcDbEntity
  8
MODEL
100
AcDbLine
 10
1723.970379419719
 20
902.9564789778412
 30
0.0
 11
1723.970379399768
 21
902.5000568709911
 31
0.0
  0
LINE
  5
39DA
330
A
100
AcDbEntity
  8
MODEL
100
AcDbLine
 10
1723.970379397947
 20
902.9564789778412
 30
0.0
 11
1723.970379458694
 21
904.4794134285071
 31
0.0
  0
LINE
  5
39DB
330
A
100
AcDbEntity
  8
MODEL
100
AcDbLine
 10
1723.970379438652
 20
909.5000566038982
 30
0.0
 11
1723.970379219195
 21
904.4794134285071
 31
0.0
  0
LINE
  5
39DC
330
A
100
AcDbEntity
  8
MODEL
100
AcDbLine
 10
1723.970377447441
 20
909.5000546126862
 30
0.0
 11
1723.970377587098
 21
912.6950093606613
 31
0.0
  0
LINE
  5
39DD
330
A
100
AcDbEntity
  8
MODEL
100
AcDbLine
 10
1723.97037743469
 20
912.6950093606613
 30
0.0
 11
1723.970379395978
 21
961.8660238380542
 31
0.0
  0
LINE
  5
39DE
330
A
100
AcDbEntity
  8
MODEL
100
AcDbLine
 10
1721.470379290492
 20
900.0000569802692
 30
0.0
 11
1465.612233386218
 21
899.9999999999882
 31
0.0
  0
ARC
  5
39DF
330
A
100
AcDbEntity
  8
MODEL
100
AcDbCircle
 10
1721.470379399768
 20
902.5000569802692
 30
0.0
 40
2.499999999999993
100
AcDbArc
 50
269.9999974955938
 51
359.9999974952916
  0
LINE
  5
39E1
330
A
100
AcDbEntity
  8
MODEL
100
AcDbLine
 10
1723.970587006166
 20
1027.000000000003
 30
0.0
 11
1723.970587006168
 21
962.5000000000032
 31
0.0
  0
ARC
  5
39E2
330
A
100
AcDbEntity
  8
MODEL
100
AcDbCircle
 10
1720.970587006166
 20
1027.000000000003
 30
0.0
 40
3.0
100
AcDbArc
 50
0.0
 51
90.0000000000087
  0
ARC
  5
39ED
330
A
100
AcDbEntity
  8
MODEL
100
AcDbCircle
 10
1568.19699611333
 20
930.4596332412482
 30
0.0
 40
50.0
100
AcDbArc
 50
280.0000000000015
 51
322.4689392712974
  0
LINE
  5
39FE
330
A
100
AcDbEntity
  8
MODEL
100
AcDbLine
 10
1365.151960269571
 20
899.9999999999882
 30
0.0
 11
1367.825481565905
 21
899.9999999999882
 31
0.0
  0
ARC
  5
39FF
330
A
100
AcDbEntity
  8
MODEL
100
AcDbCircle
 10
1365.151960269569
 20
904.9999999999882
 30
0.0
 40
5.0
100
AcDbArc
 50
183.0000000000107
 51
270.0000000000052
  0
LINE
  5
3A09
330
A
100
AcDbEntity
  8
MODEL
100
AcDbLine
 10
1483.269244443683
 20
869.9999999999936
 30
0.0
 11
1529.269244443683
 21
869.9999999999959
 31
0.0
  0
LINE
  5
3A0B
330
A
100
AcDbEntity
  8
MODEL
100
AcDbLine
 10
1467.751950360024
 20
920.2905864309432
 30
0.0
 11
1467.875146701478
 21
920.2905864309432
 31
0.0
  0
LINE
  5
3A0C
330
A
100
AcDbEntity
  8
MODEL
100
AcDbLine
 10
1361.170587006166
 20
1029.999999999988
 30
0.0
 11
1720.970587006165
 21
1030.000000000003
 31
0.0
  0
LINE
  5
3A0D
330
A
100
AcDbEntity
  8
MODEL
100
AcDbLine
 10
1543.921567401952
 20
875.4078895968781
 30
0.0
 11
1576.879404996678
 21
881.2192455906381
 31
0.0
  0
ARC
  5
3A0F
330
A
100
AcDbEntity
  8
MODEL
100
AcDbCircle
 10
1544.442511934946
 20
872.4534663378402
 30
0.0
 40
3.0
100
AcDbArc
 50
99.99999999999649
 51
176.1205281444254
  0
LINE
  5
3A10
330
A
100
AcDbEntity
  8
MODEL
100
AcDbLine
 10
1541.269244443685
 20
869.9999999999964
 30
0.0
 11
1541.449386184232
 21
872.6564398346892
 31
0.0
  0
ELLIPSE
  5
3A28
330
A
100
AcDbEntity
  8
MODEL
100
AcDbEllipse
 10
609.7917629098242
 20
2198.496625221887
 30
0.0
 11
-12.0
 21
0.0
 31
0.0
210
0.0
220
0.0
230
1.0
 40
0.0874886635259221
 41
0.0
 42
6.283185307179586
  0
LINE
  5
3A31
330
A
100
AcDbEntity
  8
HIDDEN
100
AcDbLine
 10
1591.954357778377
 20
1006.954394472001
 30
0.0
 11
1601.916304759294
 21
1006.082837044526
 31
0.0
  0
LINE
  5
3A32
330
A
100
AcDbEntity
  8
HIDDEN
100
AcDbLine
 10
1589.862619952434
 20
983.0457217177991
 30
0.0
 11
1599.824566933351
 21
982.1741642903241
 31
0.0
  0
CIRCLE
  5
3A3F
330
A
100
AcDbEntity
  8
MODEL
100
AcDbCircle
 10
609.7917781007359
 20
2114.298657437511
 30
0.0
 40
35.08333333331994
  0
LINE
  5
3B78
330
A
100
AcDbEntity
  8
MODEL
  6
HIDDEN
370
    -2
100
AcDbLine
 10
1221.070587006167
 20
2329.0
 30
0.0
 11
1221.070587006167
 21
1969.0
 31
0.0
  0
ARC
  5
3B79
330
A
100
AcDbEntity
  8
0
370
    -2
100
AcDbCircle
 10
1228.070587006167
 20
1969.0
 30
0.0
 40
7.0
100
AcDbArc
 50
180.0
 51
270.0
  0
LINE
  5
3B7A
330
A
100
AcDbEntity
  8
MODEL
  6
HIDDEN
370
    -2
100
AcDbLine
 10
1228.070587006167
 20
1962.0
 30
0.0
 11
1764.070587006167
 21
1962.0
 31
0.0
  0
LINE
  5
3B7B
330
A
100
AcDbEntity
  8
MODEL
  6
HIDDEN
370
    -2
100
AcDbLine
 10
1771.070587006167
 20
1969.0
 30
0.0
 11
1771.070587006167
 21
2329.0
 31
0.0
  0
ARC
  5
3B7C
330
A
100
AcDbEntity
  8
0
370
    -2
100
AcDbCircle
 10
1764.070587006167
 20
1969.0
 30
0.0
 40
7.0
100
AcDbArc
 50
270.0
 51
0.0
  0
LINE
  5
3B7E
102
{ACAD_REACTORS
330
40A8
102
}
330
A
100
AcDbEntity
  8
MODEL
100
AcDbLine
 10
1330.070587006165
 20
2302.0
 30
0.0
 11
1330.070587006165
 21
2052.0
 31
0.0
  0
LINE
  5
3B7F
102
{ACAD_REACTORS
330
40A8
102
}
330
A
100
AcDbEntity
  8
MODEL
100
AcDbLine
 10
1662.070587006167
 20
2302.0
 30
0.0
 11
1662.070587006167
 21
2061.798657437511
 31
0.0
  0
CIRCLE
  5
3B9F
330
A
100
AcDbEntity
  8
MODEL
  6
HIDDEN2
100
AcDbCircle
 10
709.8861170652171
 20
2265.258746510009
 30
0.0
 40
16.0
  0
CIRCLE
  5
3BA0
330
A
100
AcDbEntity
  8
MODEL
  6
HIDDEN2
100
AcDbCircle
 10
509.8861170652171
 20
2265.25874651001
 30
0.0
 40
16.0
  0
SPLINE
  5
3BD0
330
A
100
AcDbEntity
  8
HIDDEN
100
AcDbSpline
210
0.0
220
0.0
230
1.0
 70
     8
 71
     3
 72
    41
 73
    37
 74
     0
 42
0.000000001
 43
0.0000000001
 40
0.0
 40
0.0
 40
0.0
 40
0.0
 40
1.464390658586802
 40
2.620799515042409
 40
3.168841036391852
 40
3.842924320913766
 40
4.348212140464963
 40
4.746349355309744
 40
5.318435930700894
 40
5.812598981264991
 40
6.925942138901124
 40
8.033566105972183
 40
8.99871153600902
 40
10.6162567990198
 40
13.12450914097595
 40
18.07419091984139
 40
29.84704314877668
 40
42.38998632729347
 40
54.62548889036055
 40
69.41840832330135
 40
81.09356083284693
 40
89.46702975738927
 40
99.45827342625739
 40
112.796761307228
 40
117.0416776483423
 40
119.0517106024179
 40
120.2024673297642
 40
122.1767850107172
 40
122.518518344408
 40
125.7700287997068
 40
132.5315604056213
 40
140.6128295368804
 40
152.9242131544819
 40
158.7844186958443
 40
160.8423904412895
 40
162.1390175001255
 40
162.1390175001255
 40
162.1390175001255
 40
162.1390175001255
 10
1361.493973266754
 20
1029.999999999988
 30
0.0
 10
1361.98017413968
 20
1029.935986031521
 30
0.0
 10
1362.850321053348
 20
1029.821421125955
 30
0.0
 10
1363.831179976969
 20
1029.400187521618
 30
0.0
 10
1364.513194755805
 20
1028.995485788593
 30
0.0
 10
1364.976441936305
 20
1028.65097405848
 30
0.0
 10
1365.366265967172
 20
1028.297187482042
 30
0.0
 10
1365.70435068545
 20
1027.939628576552
 30
0.0
 10
1366.012461073253
 20
1027.55966991103
 30
0.0
 10
1366.407993133
 20
1026.949674603346
 30
0.0
 10
1366.88215528813
 20
1026.178984435354
 30
0.0
 10
1367.446674597436
 20
1025.279331193264
 30
0.0
 10
1368.098073611646
 20
1024.235876533931
 30
0.0
 10
1368.997549105587
 20
1022.796878928642
 30
0.0
 10
1370.600520664088
 20
1020.231328613946
 30
0.0
 10
1373.997530537396
 20
1014.795169653894
 30
0.0
 10
1379.166908648624
 20
1006.522285189038
 30
0.0
 10
1385.623397029434
 20
996.1899117599132
 30
0.0
 10
1392.613045987536
 20
985.0036320059182
 30
0.0
 10
1399.450556424064
 20
974.0633665679691
 30
0.0
 10
1405.60234570639
 20
964.2126611873362
 30
0.0
 10
1410.915682500156
 20
955.7252742376143
 30
0.0
 10
1416.482948388923
 20
946.7431905391602
 30
0.0
 10
1421.480435918646
 20
939.0261550877062
 30
0.0
 10
1424.758515750995
 20
933.3750689387082
 30
0.0
 10
1426.271910297389
 20
931.4077561661661
 30
0.0
 10
1427.554556933221
 20
930.2673335131192
 30
0.0
 10
1428.531061032942
 20
929.6343002851281
 30
0.0
 10
1430.194631588065
 20
928.8092268926212
 30
0.0
 10
1433.597750587424
 20
928.0394594482202
 30
0.0
 10
1439.479984605284
 20
926.8256170008463
 30
0.0
 10
1448.349921239565
 20
924.9649349209121
 30
0.0
 10
1456.877768881898
 20
923.0320667405902
 30
0.0
 10
1463.532059212686
 20
921.8707437085361
 30
0.0
 10
1466.469329268539
 20
920.9513368901621
 30
0.0
 10
1467.490937992986
 20
920.4889452565733
 30
0.0
 10
1467.875146701478
 20
920.2905864309441
 30
0.0
  0
SPLINE
  5
3BD4
330
A
100
AcDbEntity
  8
HIDDEN
100
AcDbSpline
210
0.0
220
0.0
230
1.0
 70
     8
 71
     3
 72
    33
 73
    29
 74
     0
 42
0.000000001
 43
0.0000000001
 40
0.0
 40
0.0
 40
0.0
 40
0.0
 40
2.255576732106613
 40
2.735277886906655
 40
3.779233098247171
 40
5.04388321228418
 40
6.907897933192741
 40
8.62283625378058
 40
10.22919032788361
 40
12.82721521284776
 40
20.66054050700804
 40
30.48003982548069
 40
39.15011523960696
 40
59.97399342772661
 40
79.94656126865057
 40
94.11977103884759
 40
99.25566205136191
 40
101.5713606209615
 40
103.0380292452617
 40
104.7341679319777
 40
106.3963958650894
 40
108.0020442870089
 40
110.3289798639763
 40
119.0812163469248
 40
130.7113322841815
 40
138.0048162333514
 40
141.8309165874479
 40
143.8311252424417
 40
143.8311252424417
 40
143.8311252424417
 40
143.8311252424417
 10
1599.468574050269
 20
1029.999999999998
 30
0.0
 10
1598.710680185422
 20
1029.922860074634
 30
0.0
 10
1597.791602461472
 20
1029.829314539674
 30
0.0
 10
1596.640220676507
 20
1029.308836787933
 30
0.0
 10
1595.840707670133
 20
1028.826721501061
 30
0.0
 10
1594.805730888876
 20
1027.883541255538
 30
0.0
 10
1593.909492072725
 20
1026.504025965852
 30
0.0
 10
1593.466917015494
 20
1024.810362091934
 30
0.0
 10
1593.365552284818
 20
1022.837875950199
 30
0.0
 10
1592.971921361514
 20
1018.844864543464
 30
0.0
 10
1592.416983535125
 20
1012.116965403002
 30
0.0
 10
1591.638188013468
 20
1003.377653937259
 30
0.0
 10
1590.503819236491
 20
990.3211476328702
 30
0.0
 10
1589.034554753059
 20
973.9083406931202
 30
0.0
 10
1587.547469676806
 20
955.6069024522271
 30
0.0
 10
1586.169136822837
 20
942.6667941348783
 30
0.0
 10
1585.845616936068
 20
935.3523169342361
 30
0.0
 10
1584.57481579007
 20
932.6200872203162
 30
0.0
 10
1583.507251439265
 20
931.1334700894593
 30
0.0
 10
1582.36911039269
 20
929.9842719136161
 30
0.0
 10
1581.017218533373
 20
929.0199522786252
 30
0.0
 10
1579.339667480898
 20
928.1772898609711
 30
0.0
 10
1575.196696618958
 20
927.2340223133062
 30
0.0
 10
1567.797435299649
 20
925.7247593638272
 30
0.0
 10
1558.761449103346
 20
923.8090731025072
 30
0.0
 10
1551.360393566853
 20
922.2075297733511
 30
0.0
 10
1547.053082762207
 20
921.3625948919203
 30
0.0
 10
1545.254969056992
 20
920.5974137308331
 30
0.0
 10
1544.66235841806
 20
920.2905864309471
 30
0.0
  0
SPLINE
  5
3BD5
330
A
100
AcDbEntity
  8
HIDDEN
100
AcDbSpline
210
0.0
220
0.0
230
1.0
 70
    24
 71
     3
 72
     8
 73
     4
 74
     0
 42
0.000000001
 43
0.0000000001
 40
0.0
 40
0.0
 40
0.0
 40
0.0
 40
0.12319634145355
 40
0.12319634145355
 40
0.12319634145355
 40
0.12319634145355
 10
1467.751950360024
 20
920.2905864309432
 30
0.0
 10
1467.793015807174
 20
920.2905864309432
 30
0.0
 10
1467.834081254327
 20
920.2905864309432
 30
0.0
 10
1467.875146701478
 20
920.2905864309432
 30
0.0
  0
LINE
  5
3C09
330
A
100
AcDbEntity
  8
MODEL
100
AcDbLine
 10
586.7638794947375
 20
869.6713303521001
 30
0.0
 11
577.5673298701381
 21
869.6713303520996
 31
0.0
  0
LINE
  5
3C0A
330
A
100
AcDbEntity
  8
MODEL
100
AcDbLine
 10
574.5742041194258
 20
872.4683568552501
 30
0.0
 11
572.6798645765762
 21
900.4030210076421
 31
0.0
  0
ARC
  5
3C0C
330
A
100
AcDbEntity
  8
MODEL
100
AcDbCircle
 10
577.5673298701381
 20
872.6713303520992
 30
0.0
 40
3.0
100
AcDbArc
 50
183.8794718555747
 51
270.0
  0
LINE
  5
3C0F
330
A
100
AcDbEntity
  8
MODEL
100
AcDbLine
 10
586.7638794947375
 20
869.6713303521001
 30
0.0
 11
632.7638794947375
 21
869.6713303521024
 31
0.0
  0
LINE
  5
3C10
330
A
100
AcDbEntity
  8
HIDDEN
100
AcDbLine
 10
585.825145471968
 20
907.9740632194162
 30
0.0
 11
633.7026135175042
 21
907.9740632194153
 31
0.0
  0
LINE
  5
3C11
330
A
100
AcDbEntity
  8
HIDDEN
100
AcDbLine
 10
571.2465854110778
 20
919.9619167830501
 30
0.0
 11
648.281173578393
 21
919.9619167830531
 31
0.0
  0
LINE
  5
3D7C
330
A
100
AcDbEntity
  8
MODEL
100
AcDbLine
 10
514.593204721205
 20
922.7880064274752
 30
0.0
 11
514.5985161259769
 21
922.7494987428802
 31
0.0
  0
SPLINE
  5
3DCC
330
A
100
AcDbEntity
  8
HIDDEN
100
AcDbSpline
210
0.0
220
0.0
230
1.0
 70
  1064
 71
     3
 72
    44
 73
    40
 74
    38
 42
0.000000001
 43
0.0000000001
 44
0.0
 40
0.0
 40
0.0
 40
0.0
 40
0.0
 40
1.605206467048813
 40
2.879964891464179
 40
3.643913841288601
 40
4.872527617238732
 40
6.001704147975243
 40
7.28321229068353
 40
9.424552655313715
 40
14.56604488726363
 40
19.05666728993744
 40
25.96691745300863
 40
29.63585336375989
 40
40.46101107544433
 40
83.81018853416467
 40
96.29441319077594
 40
106.2062266538617
 40
111.5051930529432
 40
114.645458029105
 40
117.0664878687553
 40
119.396322106018
 40
121.2661116697056
 40
121.6144427283813
 40
122.9676739198924
 40
123.0789659950468
 40
123.5229199179546
 40
124.0077416593723
 40
124.4487385501011
 40
124.962846722065
 40
125.4438340579968
 40
126.1535245692705
 40
126.7164489718798
 40
127.3039242895007
 40
129.9655161401564
 40
168.4465375702859
 40
200.2080244812323
 40
232.3528369111971
 40
275.8546607858221
 40
286.2907243137809
 40
286.2907243137809
 40
286.2907243137809
 40
286.2907243137809
 10
339.9818440734094
 20
1029.761962645321
 30
0.0
 10
340.5178227820881
 20
1029.775384018959
 30
0.0
 10
341.4794435425658
 20
1029.799463840257
 30
0.0
 10
342.6844677209962
 20
1029.580230229071
 30
0.0
 10
343.7087329110261
 20
1029.201774026483
 30
0.0
 10
344.6134214598645
 20
1028.673580942532
 30
0.0
 10
345.5388634477551
 20
1027.874787795386
 30
0.0
 10
346.4218684977151
 20
1026.630794492401
 30
0.0
 10
347.8865864311646
 20
1024.183697009357
 30
0.0
 10
349.9948242897946
 20
1020.871064000979
 30
0.0
 10
352.9074715233857
 20
1016.189722857413
 30
0.0
 10
355.5725549455771
 20
1011.931462614697
 30
0.0
 10
359.3528117310504
 20
1005.880504839779
 30
0.0
 10
369.5685059095907
 20
989.5280675342798
 30
0.0
 10
381.3707404497572
 20
970.7022804641279
 30
0.0
 10
392.936803786139
 20
952.0876105112698
 30
0.0
 10
397.8749134912975
 20
944.2877741641862
 30
0.0
 10
401.1417755078597
 20
939.1159113081144
 30
0.0
 10
403.0085210909924
 20
936.0139272383196
 30
0.0
 10
404.3525947951641
 20
933.753316389347
 30
0.0
 10
405.576376008739
 20
931.9127480604143
 30
0.0
 10
406.6114894988216
 20
930.7902791392752
 30
0.0
 10
407.5300936317074
 20
930.032939713186
 30
0.0
 10
408.0277270893556
 20
929.6860079918774
 30
0.0
 10
408.5745252170299
 20
929.3609150426641
 30
0.0
 10
408.8773813902667
 20
929.1919522211235
 30
0.0
 10
409.2859203482857
 20
928.9875104057649
 30
0.0
 10
409.7277483206421
 20
928.7993393297171
 30
0.0
 10
410.1779241392434
 20
928.6358794919279
 30
0.0
 10
410.7206530850899
 20
928.4670478060935
 30
0.0
 10
411.2858796812208
 20
928.3169651623948
 30
0.0
 10
411.8900299925008
 20
928.1783496591049
 30
0.0
 10
413.1280527911437
 20
927.8852769342759
 30
0.0
 10
427.1167370900789
 20
927.591957747725
 30
0.0
 10
451.2749808463471
 20
925.9106198589521
 30
0.0
 10
485.3990524632152
 20
924.3658631180912
 30
0.0
 10
521.1470099542466
 20
922.5392391894727
 30
0.0
 10
549.8086422348595
 20
921.1222786459589
 30
0.0
 10
567.7654788033702
 20
920.2259696227139
 30
0.0
 10
571.2398211666787
 20
920.0525490762723
 30
0.0
 11
339.9818440734094
 21
1029.761962645321
 31
0.0
 11
341.5869125767758
 21
1029.740917423619
 31
0.0
 11
342.8396743389213
 21
1029.505127245868
 31
0.0
 11
343.5561288720486
 21
1029.239965220119
 31
0.0
 11
344.6195037198091
 21
1028.624558246154
 31
0.0
 11
345.4682278497099
 21
1027.87977170701
 31
0.0
 11
346.2440637015542
 21
1026.859800211908
 31
0.0
 11
347.3785481465512
 21
1025.043682484101
 31
0.0
 11
350.1031538344051
 21
1020.683468473652
 31
0.0
 11
352.4828175114745
 21
1016.87520241842
 31
0.0
 11
356.1447066208307
 21
1011.014986938849
 31
0.0
 11
358.0889378454713
 21
1007.903547454891
 31
0.0
 11
363.825405016892
 21
998.7232977919432
 31
0.0
 11
386.7974189946099
 21
961.9613914192432
 31
0.0
 11
393.4059166836369
 21
951.3697143296192
 31
0.0
 11
398.6955727938371
 21
942.9873766865253
 31
0.0
 11
401.5056636278296
 21
938.4948902476692
 31
0.0
 11
403.1293816193793
 21
935.8069906951512
 31
0.0
 11
404.3860367571156
 21
933.7376421625743
 31
0.0
 11
405.7166763667478
 21
931.8251762668262
 31
0.0
 11
407.0044509495629
 21
930.4695400190333
 31
0.0
 11
407.2728513312099
 21
930.2475135305913
 31
0.0
 11
408.3836568297525
 21
929.4746320376792
 31
0.0
 11
408.4793185825138
 21
929.4177571306391
 31
0.0
 11
408.8669802351982
 21
929.2013927881442
 31
0.0
 11
409.3011714764893
 21
928.9856844504811
 31
0.0
 11
409.7066652520684
 21
928.8123262790582
 31
0.0
 11
410.1896036744155
 21
928.6360376160621
 31
0.0
 11
410.64861485226
 21
928.4923102493551
 31
0.0
 11
411.3341645665391
 21
928.3087831095531
 31
0.0
 11
411.8820488859051
 21
928.1795288808182
 31
0.0
 11
412.4555504933692
 21
928.0521587310582
 31
0.0
 11
415.1087505790492
 21
927.8409704623871
 31
0.0
 11
453.541983090844
 21
925.9237722461332
 31
0.0
 11
485.2640259577457
 21
924.3413541140733
 31
0.0
 11
517.3689182982998
 21
922.7398379702142
 31
0.0
 11
560.816718006432
 21
920.5724937564521
 31
0.0
 11
571.2398211666787
 21
920.0525490762723
 31
0.0
  0
SPLINE
  5
3DCD
330
A
100
AcDbEntity
  8
HIDDEN
100
AcDbSpline
210
0.0
220
0.0
230
1.0
 70
  1064
 71
     3
 72
    44
 73
    40
 74
    38
 42
0.000000001
 43
0.0000000001
 44
0.0
 40
0.0
 40
0.0
 40
0.0
 40
0.0
 40
1.605206467048927
 40
2.879964891464125
 40
3.64391384128876
 40
4.872527617238744
 40
6.001704147975254
 40
7.283212290683645
 40
9.424552655313708
 40
14.56604488726365
 40
19.05666728993747
 40
25.96691745300868
 40
29.63585336375991
 40
40.46101107544445
 40
83.8101885341647
 40
96.29441319077597
 40
106.2062266538617
 40
111.5051930529432
 40
114.6454580291051
 40
117.0664878687554
 40
119.3963221060181
 40
121.2661116697056
 40
121.6144427283813
 40
122.9676739198924
 40
123.0789659950468
 40
123.5229199179548
 40
124.0077416593724
 40
124.4487385501012
 40
124.9628467220651
 40
125.4438340579967
 40
126.1535245692706
 40
126.7164489718798
 40
127.3039242895008
 40
129.9655161401565
 40
168.446537570286
 40
200.2080244812323
 40
232.3528369111971
 40
275.8546607858221
 40
286.2907243137809
 40
286.2907243137809
 40
286.2907243137809
 40
286.2907243137809
 10
879.5459149160656
 20
1029.761962645321
 30
0.0
 10
879.0099362073868
 20
1029.775384018959
 30
0.0
 10
878.0483154469091
 20
1029.799463840257
 30
0.0
 10
876.8432912684787
 20
1029.580230229071
 30
0.0
 10
875.819026078449
 20
1029.201774026484
 30
0.0
 10
874.9143375296103
 20
1028.673580942532
 30
0.0
 10
873.9888955417199
 20
1027.874787795386
 30
0.0
 10
873.1058904917596
 20
1026.630794492401
 30
0.0
 10
871.6411725583108
 20
1024.183697009357
 30
0.0
 10
869.5329346996805
 20
1020.87106400098
 30
0.0
 10
866.6202874660893
 20
1016.189722857413
 30
0.0
 10
863.9552040438977
 20
1011.931462614697
 30
0.0
 10
860.1749472584248
 20
1005.880504839779
 30
0.0
 10
849.9592530798836
 20
989.5280675342801
 30
0.0
 10
838.1570185397178
 20
970.7022804641281
 30
0.0
 10
826.5909552033361
 20
952.0876105112698
 30
0.0
 10
821.6528454981769
 20
944.2877741641859
 30
0.0
 10
818.3859834816158
 20
939.1159113081146
 30
0.0
 10
816.5192378984823
 20
936.0139272383195
 30
0.0
 10
815.175164194311
 20
933.7533163893472
 30
0.0
 10
813.9513829807356
 20
931.9127480604143
 30
0.0
 10
812.9162694906535
 20
930.790279139275
 30
0.0
 10
811.9976653577676
 20
930.0329397131861
 30
0.0
 10
811.500031900119
 20
929.6860079918772
 30
0.0
 10
810.9532337724452
 20
929.3609150426643
 30
0.0
 10
810.6503775992082
 20
929.1919522211233
 30
0.0
 10
810.2418386411891
 20
928.9875104057649
 30
0.0
 10
809.8000106688328
 20
928.7993393297171
 30
0.0
 10
809.3498348502313
 20
928.6358794919281
 30
0.0
 10
808.8071059043851
 20
928.4670478060934
 30
0.0
 10
808.2418793082539
 20
928.3169651623948
 30
0.0
 10
807.6377289969739
 20
928.178349659105
 30
0.0
 10
806.3997061983315
 20
927.8852769342757
 30
0.0
 10
792.411021899394
 20
927.5919577477272
 30
0.0
 10
768.2527781431286
 20
925.9106198589511
 30
0.0
 10
734.1287065262594
 20
924.3658631180914
 30
0.0
 10
698.3807490352286
 20
922.5392391894725
 30
0.0
 10
669.7191167546152
 20
921.1222786459589
 30
0.0
 10
651.7622801861046
 20
920.2259696227139
 30
0.0
 10
648.2879378227963
 20
920.0525490762723
 30
0.0
 11
879.5459149160656
 21
1029.761962645321
 31
0.0
 11
877.9408464126991
 21
1029.740917423619
 31
0.0
 11
876.6880846505537
 21
1029.505127245868
 31
0.0
 11
875.9716301174262
 21
1029.239965220119
 31
0.0
 11
874.9082552696659
 21
1028.624558246154
 31
0.0
 11
874.0595311397651
 21
1027.87977170701
 31
0.0
 11
873.2836952879206
 21
1026.859800211908
 31
0.0
 11
872.1492108429238
 21
1025.043682484101
 31
0.0
 11
869.4246051550699
 21
1020.683468473652
 31
0.0
 11
867.0449414780005
 21
1016.87520241842
 31
0.0
 11
863.3830523686443
 21
1011.014986938849
 31
0.0
 11
861.4388211440037
 21
1007.903547454891
 31
0.0
 11
855.7023539725828
 21
998.7232977919432
 31
0.0
 11
832.7303399948651
 21
961.9613914192432
 31
0.0
 11
826.1218423058381
 21
951.3697143296192
 31
0.0
 11
820.8321861956379
 21
942.9873766865253
 31
0.0
 11
818.0220953616454
 21
938.4948902476692
 31
0.0
 11
816.3983773700957
 21
935.8069906951512
 31
0.0
 11
815.1417222323594
 21
933.7376421625743
 31
0.0
 11
813.8110826227271
 21
931.8251762668262
 31
0.0
 11
812.5233080399121
 21
930.4695400190333
 31
0.0
 11
812.254907658265
 21
930.2475135305913
 31
0.0
 11
811.1441021597225
 21
929.4746320376792
 31
0.0
 11
811.0484404069612
 21
929.4177571306391
 31
0.0
 11
810.6607787542766
 21
929.2013927881442
 31
0.0
 11
810.2265875129856
 21
928.9856844504811
 31
0.0
 11
809.8210937374065
 21
928.8123262790582
 31
0.0
 11
809.3381553150593
 21
928.6360376160621
 31
0.0
 11
808.879144137215
 21
928.4923102493551
 31
0.0
 11
808.1935944229358
 21
928.3087831095531
 31
0.0
 11
807.6457101035699
 21
928.1795288808182
 31
0.0
 11
807.0722084961058
 21
928.0521587310582
 31
0.0
 11
804.4190084104257
 21
927.8409704623871
 31
0.0
 11
765.9857758986309
 21
925.9237722461332
 31
0.0
 11
734.2637330317293
 21
924.3413541140733
 31
0.0
 11
702.1588406911751
 21
922.7398379702142
 31
0.0
 11
658.711040983043
 21
920.5724937564521
 31
0.0
 11
648.2879378227963
 21
920.0525490762723
 31
0.0
  0
SPLINE
  5
3DD0
330
A
100
AcDbEntity
  8
HIDDEN
100
AcDbSpline
210
0.0
220
0.0
230
1.0
 70
  1080
 71
     3
 72
     8
 73
     4
 74
     2
 42
0.000000001
 43
0.0000000001
 44
0.0
 40
0.0
 40
0.0
 40
0.0
 40
0.0
 40
18.93730460452917
 40
18.93730460452917
 40
18.93730460452917
 40
18.93730460452917
 10
648.2879378227981
 20
920.0525490762702
 30
0.0
 10
643.4261630543681
 20
916.0263871239852
 30
0.0
 10
638.5643882859382
 20
912.0002251717002
 30
0.0
 10
633.7026135175083
 20
907.9740632194153
 30
0.0
 11
648.2879378227981
 21
920.0525490762702
 31
0.0
 11
633.7026135175083
 21
907.9740632194153
 31
0.0
  0
SPLINE
  5
3DD1
330
A
100
AcDbEntity
  8
HIDDEN
  6
HIDDEN2
100
AcDbSpline
210
0.0
220
0.0
230
1.0
 70
  1080
 71
     3
 72
     8
 73
     4
 74
     2
 42
0.000000001
 43
0.0000000001
 44
0.0
 40
0.0
 40
0.0
 40
0.0
 40
0.0
 40
38.31423451761084
 40
38.31423451761084
 40
38.31423451761084
 40
38.31423451761084
 10
633.7026135175083
 20
907.9740632194153
 30
0.0
 10
633.3897021765849
 20
895.2064855969768
 30
0.0
 10
633.0767908356615
 20
882.4389079745381
 30
0.0
 10
632.7638794947379
 20
869.6713303520992
 30
0.0
 11
633.7026135175083
 21
907.9740632194153
 31
0.0
 11
632.7638794947379
 21
869.6713303520992
 31
0.0
  0
SPLINE
  5
3DD2
330
A
100
AcDbEntity
  8
HIDDEN
  6
HIDDEN2
100
AcDbSpline
210
0.0
220
0.0
230
1.0
 70
  1080
 71
     3
 72
     8
 73
     4
 74
     2
 42
0.000000001
 43
0.0000000001
 44
0.0
 40
0.0
 40
0.0
 40
0.0
 40
0.0
 40
38.31423451761105
 40
38.31423451761105
 40
38.31423451761105
 40
38.31423451761105
 10
585.8251454719675
 20
907.9740632194162
 30
0.0
 10
586.1380568128907
 20
895.2064855969774
 30
0.0
 10
586.4509681538138
 20
882.4389079745386
 30
0.0
 10
586.763879494737
 20
869.6713303520999
 30
0.0
 11
585.8251454719675
 21
907.9740632194162
 31
0.0
 11
586.763879494737
 21
869.6713303520999
 31
0.0
  0
SPLINE
  5
3DD3
330
A
100
AcDbEntity
  8
HIDDEN
100
AcDbSpline
210
0.0
220
0.0
230
1.0
 70
  1080
 71
     3
 72
     8
 73
     4
 74
     2
 42
0.000000001
 43
0.0000000001
 44
0.0
 40
0.0
 40
0.0
 40
0.0
 40
0.0
 40
18.93730460452917
 40
18.93730460452917
 40
18.93730460452917
 40
18.93730460452917
 10
571.2398211666778
 20
920.0525490762711
 30
0.0
 10
576.1015959351076
 20
916.0263871239861
 30
0.0
 10
580.9633707035375
 20
912.000225171701
 30
0.0
 10
585.8251454719675
 20
907.9740632194162
 30
0.0
 11
571.2398211666778
 21
920.0525490762711
 31
0.0
 11
585.8251454719675
 21
907.9740632194162
 31
0.0
  0
LINE
  5
3DF8
330
A
100
AcDbEntity
  8
HIDDEN
100
AcDbLine
 10
1482.182079039016
 20
907.8516681471851
 30
0.0
 11
1530.059547084552
 21
907.8516681471842
 31
0.0
  0
SPLINE
  5
3DFA
330
A
100
AcDbEntity
  8
HIDDEN
  6
HIDDEN2
100
AcDbSpline
210
0.0
220
0.0
230
1.0
 70
  1080
 71
     3
 72
     8
 73
     4
 74
     2
 42
0.000000001
 43
0.0000000001
 44
0.0
 40
0.0
 40
0.0
 40
0.0
 40
0.0
 40
38.31423451761036
 40
38.31423451761036
 40
38.31423451761036
 40
38.31423451761036
 10
1530.059547084556
 20
907.8516681471842
 30
0.0
 10
1529.746635743633
 20
895.0840905247456
 30
0.0
 10
1529.43372440271
 20
882.3165129023071
 30
0.0
 10
1529.120813061787
 20
869.5489352798686
 30
0.0
 11
1530.059547084556
 21
907.8516681471842
 31
0.0
 11
1529.120813061787
 21
869.5489352798686
 31
0.0
  0
SPLINE
  5
3DFB
330
A
100
AcDbEntity
  8
HIDDEN
  6
HIDDEN2
100
AcDbSpline
210
0.0
220
0.0
230
1.0
 70
  1080
 71
     3
 72
     8
 73
     4
 74
     2
 42
0.000000001
 43
0.0000000001
 44
0.0
 40
0.0
 40
0.0
 40
0.0
 40
0.0
 40
38.31423451761058
 40
38.31423451761058
 40
38.31423451761058
 40
38.31423451761058
 10
1482.182079039016
 20
907.8516681471851
 30
0.0
 10
1482.494990379939
 20
895.0840905247466
 30
0.0
 10
1482.807901720862
 20
882.316512902308
 30
0.0
 10
1483.120813061785
 20
869.5489352798693
 30
0.0
 11
1482.182079039016
 21
907.8516681471851
 31
0.0
 11
1483.120813061785
 21
869.5489352798693
 31
0.0
  0
SPLINE
  5
3DFC
330
A
100
AcDbEntity
  8
HIDDEN
100
AcDbSpline
210
0.0
220
0.0
230
1.0
 70
  1080
 71
     3
 72
     8
 73
     4
 74
     2
 42
0.000000001
 43
0.0000000001
 44
0.0
 40
0.0
 40
0.0
 40
0.0
 40
0.0
 40
18.95824361540124
 40
18.95824361540124
 40
18.95824361540124
 40
18.95824361540124
 10
1467.875146701478
 20
920.2905864309432
 30
0.0
 10
1472.644124147324
 20
916.1442803363573
 30
0.0
 10
1477.41310159317
 20
911.9979742417713
 30
0.0
 10
1482.182079039016
 20
907.8516681471851
 30
0.0
 11
1467.875146701478
 21
920.2905864309432
 31
0.0
 11
1482.182079039016
 21
907.8516681471851
 31
0.0
  0
LINE
  5
3DFD
330
A
100
AcDbEntity
  8
HIDDEN
100
AcDbLine
 10
1467.875146701478
 20
920.2905864309441
 30
0.0
 11
1544.66235841806
 21
920.2905864309471
 31
0.0
  0
LINE
  5
3DFE
330
A
100
AcDbEntity
  8
HIDDEN
100
AcDbLine
 10
1530.059547084556
 20
907.8516681471842
 30
0.0
 11
1544.66235841806
 21
920.2905864309471
 31
0.0
  0
LINE
  5
3E1D
330
A
100
AcDbEntity
  8
MODEL
100
AcDbLine
 10
1676.470587006168
 20
1011.999999999998
 30
0.0
 11
1676.470587006168
 21
1030.000000000002
 31
0.0
  0
LINE
  5
3E1E
330
A
100
AcDbEntity
  8
MODEL
100
AcDbLine
 10
1641.470587006168
 20
1011.999999999998
 30
0.0
 11
1641.470587006168
 21
1030.0
 31
0.0
  0
CIRCLE
  5
3E8E
330
A
100
AcDbEntity
  8
MODEL
  6
HIDDEN2
100
AcDbCircle
 10
1496.070587006167
 20
2265.258746510009
 30
0.0
 40
17.5
  0
CIRCLE
  5
3E8F
330
A
100
AcDbEntity
  8
MODEL
  6
HIDDEN2
100
AcDbCircle
 10
1596.070587006167
 20
2265.258746510009
 30
0.0
 40
16.0
  0
CIRCLE
  5
3E90
330
A
100
AcDbEntity
  8
MODEL
  6
HIDDEN2
100
AcDbCircle
 10
1396.070587006167
 20
2265.25874651001
 30
0.0
 40
16.0
  0
CIRCLE
  5
3E93
330
A
100
AcDbEntity
  8
MODEL
  6
HIDDEN2
100
AcDbCircle
 10
1496.070587006167
 20
2114.298657437511
 30
0.0
 40
22.5
  0
LINE
  5
3EEA
330
A
100
AcDbEntity
  8
MODEL
  6
CENTER
 48
0.15
100
AcDbLine
 10
444.5426533176446
 20
989.9999999999991
 30
0.0
 11
493.5416320699563
 21
990.0000000000002
 31
0.0
  0
LINE
  5
3EEB
330
A
100
AcDbEntity
  8
MODEL
  6
CENTER
 48
0.15
100
AcDbLine
 10
469.0421426938022
 20
1014.499489376154
 30
0.0
 11
469.0421426938022
 21
965.5005106238441
 31
0.0
  0
CIRCLE
  5
3EEC
330
A
100
AcDbEntity
  8
MODEL
  6
CENTER
 48
0.15
100
AcDbCircle
 10
469.0421426938022
 20
990.0000000000002
 30
0.0
 40
14.99999999998556
  0
LINE
  5
3EED
330
A
100
AcDbEntity
  8
MODEL
  6
CENTER
 48
0.15
100
AcDbLine
 10
724.5426571323854
 20
989.9999999999991
 30
0.0
 11
773.5416358846973
 21
990.0000000000002
 31
0.0
  0
LINE
  5
3EEE
330
A
100
AcDbEntity
  8
MODEL
  6
CENTER
 48
0.15
100
AcDbLine
 10
749.0421465085434
 20
1014.499489376154
 30
0.0
 11
749.0421465085434
 21
965.5005106238441
 31
0.0
  0
CIRCLE
  5
3EEF
330
A
100
AcDbEntity
  8
MODEL
  6
CENTER
 48
0.15
100
AcDbCircle
 10
749.0421465085434
 20
990.0000000000002
 30
0.0
 40
14.99999999998556
  0
LINE
  5
3F00
330
A
100
AcDbEntity
  8
MODEL
100
AcDbLine
 10
410.3934485269776
 20
1029.999999999999
 30
0.0
 11
370.3934485269776
 21
1029.999999999999
 31
0.0
  0
CIRCLE
  5
3F90
330
A
100
AcDbEntity
  8
HIDDEN
 48
0.58
390
1D
100
AcDbCircle
 10
211.0
 20
1745.0
 30
0.0
 40
17.5
  0
LINE
  5
3FAF
330
A
100
AcDbEntity
  8
DIM
100
AcDbLine
 10
850.9217515915583
 20
1192.973023909701
 30
0.0
 11
749.0421465085434
 21
989.9999999999991
 31
0.0
  0
LINE
  5
3FF5
330
A
100
AcDbEntity
  8
MODEL
100
AcDbLine
 10
1496.070587006167
 20
2302.0
 30
0.0
 11
1662.070587006167
 21
2302.0
 31
0.0
  0
LINE
  5
3FF6
102
{ACAD_REACTORS
330
40A8
102
}
330
A
100
AcDbEntity
  8
MODEL
100
AcDbLine
 10
1662.070587006167
 20
2302.0
 30
0.0
 11
1330.070587006165
 21
2302.0
 31
0.0
  0
LINE
  5
400A
102
{ACAD_REACTORS
330
40A8
102
}
330
A
100
AcDbEntity
  8
MODEL
100
AcDbLine
 10
1662.070587006167
 20
2052.0
 30
0.0
 11
1330.070587006165
 21
2052.0
 31
0.0
  0
LINE
  5
401F
330
A
100
AcDbEntity
  8
MODEL
100
AcDbLine
 10
1367.825481565905
 20
899.9999999999882
 30
0.0
 11
1469.234847825365
 21
899.9999999999882
 31
0.0
  0
LINE
  5
4023
330
A
100
AcDbEntity
  8
DIM
100
AcDbLine
 10
1725.374150920821
 20
1060.999999999998
 30
0.0
 11
1725.374150920821
 21
1106.004501688131
 31
0.0
  0
LINE
  5
4024
330
A
100
AcDbEntity
  8
DIM
100
AcDbLine
 10
1660.374150920821
 20
1060.999999999998
 30
0.0
 11
1660.374150920821
 21
1106.004501688131
 31
0.0
  0
LINE
  5
4025
330
A
100
AcDbEntity
  8
DIM
100
AcDbLine
 10
1715.374150920821
 20
1106.004501688131
 30
0.0
 11
1670.374150920821
 21
1106.004501688131
 31
0.0
  0
INSERT
  5
4026
330
A
100
AcDbEntity
  8
DIM
100
AcDbBlockReference
  2
_DOT
 10
1725.374150920821
 20
1106.004501688131
 30
0.0
 41
10.0
 42
10.0
 43
10.0
  0
INSERT
  5
4027
330
A
100
AcDbEntity
  8
DIM
100
AcDbBlockReference
  2
_DOT
 10
1660.374150920821
 20
1106.004501688131
 30
0.0
 41
10.0
 42
10.0
 43
10.0
 50
180.0
  0
MTEXT
  5
4028
330
A
100
AcDbEntity
  8
DIM
100
AcDbMText
 10
1692.874150920821
 20
1138.009003376264
 30
0.0
 40
24.0
 41
0.0
 46
0.0
 71
     5
 72
     1
  1
\A1;65
  7
ＭＳ ゴシック
 73
     1
 44
1.0
  0
LINE
  5
4029
330
A
100
AcDbEntity
  8
DIM
100
AcDbLine
 10
334.7917781007359
 20
2359.0
 30
0.0
 11
334.7917781007359
 21
2482.0
 31
0.0
  0
LINE
  5
402A
330
A
100
AcDbEntity
  8
DIM
100
AcDbLine
 10
884.7917781007359
 20
2359.0
 30
0.0
 11
884.7917781007359
 21
2482.0
 31
0.0
  0
LINE
  5
402B
330
A
100
AcDbEntity
  8
DIM
100
AcDbLine
 10
344.7917781007359
 20
2482.0
 30
0.0
 11
874.7917781007359
 21
2482.0
 31
0.0
  0
INSERT
  5
402C
330
A
100
AcDbEntity
  8
DIM
100
AcDbBlockReference
  2
_DOT
 10
334.7917781007359
 20
2482.0
 30
0.0
 41
10.0
 42
10.0
 43
10.0
 50
180.0
  0
INSERT
  5
402D
330
A
100
AcDbEntity
  8
DIM
100
AcDbBlockReference
  2
_DOT
 10
884.7917781007359
 20
2482.0
 30
0.0
 41
10.0
 42
10.0
 43
10.0
  0
MTEXT
  5
402E
330
A
100
AcDbEntity
  8
DIM
100
AcDbMText
 10
609.791778100736
 20
2514.004501688133
 30
0.0
 40
24.0
 41
0.0
 46
0.0
 71
     5
 72
     1
  1
\A1;550
  7
ＭＳ ゴシック
 73
     1
 44
1.0
  0
LINE
  5
402F
330
A
100
AcDbEntity
  8
DIM
100
AcDbLine
 10
509.8861170652171
 20
2295.25874651001
 30
0.0
 11
509.8861170652171
 21
2398.0
 31
0.0
  0
LINE
  5
4030
330
A
100
AcDbEntity
  8
DIM
100
AcDbLine
 10
609.8861170652171
 20
2295.258746510009
 30
0.0
 11
609.8861170652171
 21
2398.0
 31
0.0
  0
LINE
  5
4031
330
A
100
AcDbEntity
  8
DIM
100
AcDbLine
 10
519.8861170652171
 20
2398.0
 30
0.0
 11
599.8861170652171
 21
2398.0
 31
0.0
  0
INSERT
  5
4032
330
A
100
AcDbEntity
  8
DIM
100
AcDbBlockReference
  2
_DOT
 10
509.8861170652171
 20
2398.0
 30
0.0
 41
10.0
 42
10.0
 43
10.0
 50
180.0
  0
INSERT
  5
4033
330
A
100
AcDbEntity
  8
DIM
100
AcDbBlockReference
  2
_DOT
 10
609.8861170652171
 20
2398.0
 30
0.0
 41
10.0
 42
10.0
 43
10.0
  0
MTEXT
  5
4034
330
A
100
AcDbEntity
  8
DIM
100
AcDbMText
 10
559.8861170652171
 20
2430.004501688133
 30
0.0
 40
24.0
 41
0.0
 46
0.0
 71
     5
 72
     1
  1
\A1;100
  7
ＭＳ ゴシック
 73
     1
 44
1.0
  0
LINE
  5
4035
330
A
100
AcDbEntity
  8
DIM
100
AcDbLine
 10
609.8861170652171
 20
2295.258746510009
 30
0.0
 11
609.8861170652171
 21
2398.0
 31
0.0
  0
LINE
  5
4036
330
A
100
AcDbEntity
  8
DIM
100
AcDbLine
 10
709.8861170652171
 20
2295.258746510008
 30
0.0
 11
709.8861170652171
 21
2398.0
 31
0.0
  0
LINE
  5
4037
330
A
100
AcDbEntity
  8
DIM
100
AcDbLine
 10
619.8861170652171
 20
2398.0
 30
0.0
 11
699.8861170652171
 21
2398.0
 31
0.0
  0
INSERT
  5
4038
330
A
100
AcDbEntity
  8
DIM
100
AcDbBlockReference
  2
_DOT
 10
609.8861170652171
 20
2398.0
 30
0.0
 41
10.0
 42
10.0
 43
10.0
 50
180.0
  0
INSERT
  5
4039
330
A
100
AcDbEntity
  8
DIM
100
AcDbBlockReference
  2
_DOT
 10
709.8861170652171
 20
2398.0
 30
0.0
 41
10.0
 42
10.0
 43
10.0
  0
MTEXT
  5
403A
330
A
100
AcDbEntity
  8
DIM
100
AcDbMText
 10
659.8861170652171
 20
2430.004501688133
 30
0.0
 40
24.0
 41
0.0
 46
0.0
 71
     5
 72
     1
  1
\A1;100
  7
ＭＳ ゴシック
 73
     1
 44
1.0
  0
LINE
  5
403B
330
A
100
AcDbEntity
  8
DIM
100
AcDbLine
 10
911.7917781007359
 20
2332.0
 30
0.0
 11
982.9954983118669
 21
2332.0
 31
0.0
  0
LINE
  5
403C
330
A
100
AcDbEntity
  8
DIM
100
AcDbLine
 10
907.7917781007359
 20
1962.0
 30
0.0
 11
982.9954983118669
 21
1962.0
 31
0.0
  0
LINE
  5
403D
330
A
100
AcDbEntity
  8
DIM
100
AcDbLine
 10
982.9954983118669
 20
2322.0
 30
0.0
 11
982.9954983118669
 21
1972.0
 31
0.0
  0
INSERT
  5
403E
330
A
100
AcDbEntity
  8
DIM
100
AcDbBlockReference
  2
_DOT
 10
982.9954983118669
 20
2332.0
 30
0.0
 41
10.0
 42
10.0
 43
10.0
 50
90.0
  0
INSERT
  5
403F
330
A
100
AcDbEntity
  8
DIM
100
AcDbBlockReference
  2
_DOT
 10
982.9954983118669
 20
1962.0
 30
0.0
 41
10.0
 42
10.0
 43
10.0
 50
270.0
  0
MTEXT
  5
4040
330
A
100
AcDbEntity
  8
DIM
100
AcDbMText
 10
950.9909966237337
 20
2147.0
 30
0.0
 40
24.0
 41
0.0
 46
0.0
 71
     5
 72
     1
  1
\A1;370
  7
ＭＳ ゴシック
 11
0.0
 21
1.0
 31
0.0
 73
     1
 44
1.0
  0
LINE
  5
4041
330
A
100
AcDbEntity
  8
DIM
100
AcDbLine
 10
304.9999999999999
 20
2332.0
 30
0.0
 11
233.0
 21
2332.0
 31
0.0
  0
LINE
  5
4042
330
A
100
AcDbEntity
  8
DIM
100
AcDbLine
 10
304.7917781007359
 20
2201.948954744375
 30
0.0
 11
233.0
 21
2201.948954744375
 31
0.0
  0
LINE
  5
4043
330
A
100
AcDbEntity
  8
DIM
100
AcDbLine
 10
233.0
 20
2322.0
 30
0.0
 11
233.0
 21
2211.948954744375
 31
0.0
  0
INSERT
  5
4044
330
A
100
AcDbEntity
  8
DIM
100
AcDbBlockReference
  2
_DOT
 10
233.0
 20
2332.0
 30
0.0
 41
10.0
 42
10.0
 43
10.0
 50
90.0
  0
INSERT
  5
4045
330
A
100
AcDbEntity
  8
DIM
100
AcDbBlockReference
  2
_DOT
 10
233.0
 20
2201.948954744375
 30
0.0
 41
10.0
 42
10.0
 43
10.0
 50
270.0
  0
MTEXT
  5
4046
330
A
100
AcDbEntity
  8
DIM
100
AcDbMText
 10
200.9954983118669
 20
2266.974477372187
 30
0.0
 40
24.0
 41
0.0
 46
0.0
 71
     5
 72
     1
  1
\A1;130
  7
ＭＳ ゴシック
 11
0.0
 21
1.0
 31
0.0
 73
     1
 44
1.0
  0
LINE
  5
4047
330
A
100
AcDbEntity
  8
DIM
100
AcDbLine
 10
341.9917781007384
 20
1938.2
 30
0.0
 11
341.9917781007384
 21
1834.0
 31
0.0
  0
LINE
  5
4048
330
A
100
AcDbEntity
  8
DIM
100
AcDbLine
 10
877.5917781007352
 20
1938.2
 30
0.0
 11
877.5917781007352
 21
1834.0
 31
0.0
  0
LINE
  5
4049
330
A
100
AcDbEntity
  8
DIM
100
AcDbLine
 10
351.9917781007384
 20
1834.0
 30
0.0
 11
867.5917781007352
 21
1834.0
 31
0.0
  0
INSERT
  5
404A
330
A
100
AcDbEntity
  8
DIM
100
AcDbBlockReference
  2
_DOT
 10
341.9917781007384
 20
1834.0
 30
0.0
 41
10.0
 42
10.0
 43
10.0
 50
180.0
  0
INSERT
  5
404B
330
A
100
AcDbEntity
  8
DIM
100
AcDbBlockReference
  2
_DOT
 10
877.5917781007352
 20
1834.0
 30
0.0
 41
10.0
 42
10.0
 43
10.0
  0
MTEXT
  5
404C
330
A
100
AcDbEntity
  8
DIM
100
AcDbMText
 10
609.7917781007368
 20
1866.004501688133
 30
0.0
 40
24.0
 41
0.0
 46
24.0
 71
     5
 72
     1
  1
{530}
  7
ＭＳ ゴシック
 73
     1
 44
1.0
1001
ACAD
1000
ACAD_MTEXT_DEFINED_HEIGHT_BEGIN
1070
    46
1040
24.0
1000
ACAD_MTEXT_DEFINED_HEIGHT_END
  0
LINE
  5
404D
330
A
100
AcDbEntity
  8
DIM
100
AcDbLine
 10
305.0000000000005
 20
1029.761962645321
 30
0.0
 11
268.0000000000006
 21
1029.761962645321
 31
0.0
  0
LINE
  5
404E
330
A
100
AcDbEntity
  8
DIM
100
AcDbLine
 10
305.6535139650796
 20
989.9999999999991
 30
0.0
 11
268.0000000000006
 21
989.9999999999991
 31
0.0
  0
LINE
  5
404F
330
A
100
AcDbEntity
  8
DIM
100
AcDbLine
 10
268.0000000000006
 20
1019.761962645321
 30
0.0
 11
268.0000000000006
 21
999.9999999999991
 31
0.0
  0
INSERT
  5
4050
330
A
100
AcDbEntity
  8
DIM
100
AcDbBlockReference
  2
_DOT
 10
268.0000000000006
 20
1029.761962645321
 30
0.0
 41
10.0
 42
10.0
 43
10.0
 50
90.0
  0
INSERT
  5
4051
330
A
100
AcDbEntity
  8
DIM
100
AcDbBlockReference
  2
_DOT
 10
268.0000000000006
 20
989.9999999999991
 30
0.0
 41
10.0
 42
10.0
 43
10.0
 50
270.0
  0
MTEXT
  5
4052
330
A
100
AcDbEntity
  8
DIM
100
AcDbMText
 10
236.0000000000006
 20
1009.88098132266
 30
0.0
 40
24.0
 41
0.0
 46
0.0
 71
     5
 72
     1
  1
\A1;40
  7
ＭＳ ゴシック
 11
0.0
 21
1.0
 31
0.0
 73
     1
 44
1.0
  0
LINE
  5
4053
330
A
100
AcDbEntity
  8
DIM
100
AcDbLine
 10
469.0421426938022
 20
1059.499489376154
 30
0.0
 11
469.0421426938022
 21
1103.999999999998
 31
0.0
  0
LINE
  5
4054
330
A
100
AcDbEntity
  8
DIM
100
AcDbLine
 10
749.0421465085434
 20
1059.499489376154
 30
0.0
 11
749.0421465085434
 21
1103.999999999998
 31
0.0
  0
LINE
  5
4055
330
A
100
AcDbEntity
  8
DIM
100
AcDbLine
 10
479.0421426938022
 20
1103.999999999998
 30
0.0
 11
739.0421465085434
 21
1103.999999999998
 31
0.0
  0
INSERT
  5
4056
330
A
100
AcDbEntity
  8
DIM
100
AcDbBlockReference
  2
_DOT
 10
469.0421426938022
 20
1103.999999999998
 30
0.0
 41
10.0
 42
10.0
 43
10.0
 50
180.0
  0
INSERT
  5
4057
330
A
100
AcDbEntity
  8
DIM
100
AcDbBlockReference
  2
_DOT
 10
749.0421465085434
 20
1103.999999999998
 30
0.0
 41
10.0
 42
10.0
 43
10.0
  0
MTEXT
  5
4058
330
A
100
AcDbEntity
  8
DIM
100
AcDbMText
 10
609.0421446011728
 20
1136.004501688131
 30
0.0
 40
24.0
 41
0.0
 46
0.0
 71
     5
 72
     1
  1
\A1;280
  7
ＭＳ ゴシック
 73
     1
 44
1.0
  0
LINE
  5
4059
330
A
100
AcDbEntity
  8
DIM
100
AcDbLine
 10
907.791778100735
 20
1029.999999999999
 30
0.0
 11
982.9954983118676
 21
1029.999999999999
 31
0.0
1001
ACAD
1000
DSTYLE
1002
{
1070
   280
1070
     1
1002
}
  0
LINE
  5
405A
330
A
100
AcDbEntity
  8
DIM
100
AcDbLine
 10
674.7638794947379
 20
869.6713303521028
 30
0.0
 11
982.9954983118676
 21
869.6713303521028
 31
0.0
1001
ACAD
1000
DSTYLE
1002
{
1070
   280
1070
     1
1002
}
  0
LINE
  5
405B
330
A
100
AcDbEntity
  8
DIM
100
AcDbLine
 10
982.9954983118676
 20
1019.999999999999
 30
0.0
 11
982.9954983118676
 21
879.6713303521032
 31
0.0
1001
ACAD
1000
DSTYLE
1002
{
1070
   280
1070
     1
1002
}
  0
INSERT
  5
405C
330
A
100
AcDbEntity
  8
DIM
100
AcDbBlockReference
  2
_DOT
 10
982.9954983118676
 20
1029.999999999999
 30
0.0
 41
10.0
 42
10.0
 43
10.0
 50
90.0
1001
ACAD
1000
DSTYLE
1002
{
1070
   280
1070
     1
1002
}
  0
INSERT
  5
405D
330
A
100
AcDbEntity
  8
DIM
100
AcDbBlockReference
  2
_DOT
 10
982.9954983118676
 20
869.6713303521028
 30
0.0
 41
10.0
 42
10.0
 43
10.0
 50
270.0
1001
ACAD
1000
DSTYLE
1002
{
1070
   280
1070
     1
1002
}
  0
MTEXT
  5
405E
330
A
100
AcDbEntity
  8
DIM
100
AcDbMText
 10
950.9909966237344
 20
949.8356651760512
 30
0.0
 40
24.0
 41
0.0
 46
0.0
 71
     5
 72
     1
  1
\A1;160
  7
ＭＳ ゴシック
 11
0.0
 21
1.0
 31
0.0
 73
     1
 44
1.0
1001
ACAD
1000
DSTYLE
1002
{
1070
   280
1070
     1
1002
}
  0
LINE
  5
405F
330
A
100
AcDbEntity
  8
DIM
100
AcDbLine
 10
1329.342381416998
 20
1029.808006063396
 30
0.0
 11
1256.0
 21
1029.808006063396
 31
0.0
  0
LINE
  5
4060
330
A
100
AcDbEntity
  8
DIM
100
AcDbLine
 10
1336.488720917738
 20
899.9999999999882
 30
0.0
 11
1256.0
 21
899.9999999999882
 31
0.0
  0
LINE
  5
4061
330
A
100
AcDbEntity
  8
DIM
100
AcDbLine
 10
1256.0
 20
1019.808006063396
 30
0.0
 11
1256.0
 21
909.9999999999882
 31
0.0
  0
INSERT
  5
4062
330
A
100
AcDbEntity
  8
DIM
100
AcDbBlockReference
  2
_DOT
 10
1256.0
 20
1029.808006063396
 30
0.0
 41
10.0
 42
10.0
 43
10.0
 50
90.0
  0
INSERT
  5
4063
330
A
100
AcDbEntity
  8
DIM
100
AcDbBlockReference
  2
_DOT
 10
1256.0
 20
899.9999999999882
 30
0.0
 41
10.0
 42
10.0
 43
10.0
 50
270.0
  0
MTEXT
  5
4064
330
A
100
AcDbEntity
  8
DIM
100
AcDbMText
 10
1223.995498311868
 20
964.9040030316921
 30
0.0
 40
24.0
 41
0.0
 46
0.0
 71
     5
 72
     1
  1
\A1;130
  7
ＭＳ ゴシック
 11
0.0
 21
1.0
 31
0.0
 73
     1
 44
1.0
  0
LINE
  5
4065
330
A
100
AcDbEntity
  8
DIM
100
AcDbLine
 10
1723.970379399768
 20
872.5000568709802
 30
0.0
 11
1723.970379399768
 21
786.9999999999984
 31
0.0
  0
LINE
  5
4066
330
A
100
AcDbEntity
  8
DIM
100
AcDbLine
 10
1506.269244443683
 20
839.9999999999948
 30
0.0
 11
1506.269244443683
 21
786.9999999999984
 31
0.0
  0
LINE
  5
4067
330
A
100
AcDbEntity
  8
DIM
100
AcDbLine
 10
1713.970379399768
 20
786.9999999999984
 30
0.0
 11
1516.269244443683
 21
786.9999999999984
 31
0.0
  0
INSERT
  5
4068
330
A
100
AcDbEntity
  8
DIM
100
AcDbBlockReference
  2
_DOT
 10
1723.970379399768
 20
786.9999999999984
 30
0.0
 41
10.0
 42
10.0
 43
10.0
  0
INSERT
  5
4069
330
A
100
AcDbEntity
  8
DIM
100
AcDbBlockReference
  2
_DOT
 10
1506.269244443683
 20
786.9999999999984
 30
0.0
 41
10.0
 42
10.0
 43
10.0
 50
180.0
  0
MTEXT
  5
406A
330
A
100
AcDbEntity
  8
DIM
100
AcDbMText
 10
1601.612557085148
 20
819.0045016881314
 30
0.0
 40
24.0
 41
0.0
 46
0.0
 71
     5
 72
     1
  1
\A1; 215
  7
ＭＳ ゴシック
 73
     1
 44
1.0
  0
LINE
  5
406B
330
A
100
AcDbEntity
  8
DIM
100
AcDbLine
 10
1491.023421472112
 20
920.2905864309462
 30
0.0
 11
1519.0
 21
920.2905864309462
 31
0.0
1001
ACAD
1000
DSTYLE
1002
{
1070
   172
1070
     1
1070
     3
1000
<>（深さ）
1002
}
  0
LINE
  5
406C
330
A
100
AcDbEntity
  8
DIM
100
AcDbLine
 10
1491.023421472107
 20
1029.999999999995
 30
0.0
 11
1519.0
 21
1029.999999999995
 31
0.0
1001
ACAD
1000
DSTYLE
1002
{
1070
   172
1070
     1
1070
     3
1000
<>（深さ）
1002
}
  0
LINE
  5
406D
330
A
100
AcDbEntity
  8
DIM
100
AcDbLine
 10
1519.0
 20
1029.999999999995
 30
0.0
 11
1519.0
 21
1256.980640279064
 31
0.0
1001
ACAD
1000
DSTYLE
1002
{
1070
   172
1070
     1
1070
     3
1000
<>（深さ）
1002
}
  0
LINE
  5
406E
330
A
100
AcDbEntity
  8
DIM
100
AcDbLine
 10
1519.0
 20
930.2905864309462
 30
0.0
 11
1519.0
 21
1019.999999999995
 31
0.0
1001
ACAD
1000
DSTYLE
1002
{
1070
   172
1070
     1
1070
     3
1000
<>（深さ）
1002
}
  0
LINE
  5
406F
330
A
100
AcDbEntity
  8
DIM
100
AcDbLine
 10
1519.0
 20
1019.999999999995
 30
0.0
 11
1519.0
 21
1009.999999999995
 31
0.0
1001
ACAD
1000
DSTYLE
1002
{
1070
   172
1070
     1
1070
     3
1000
<>（深さ）
1002
}
  0
INSERT
  5
4070
330
A
100
AcDbEntity
  8
DIM
100
AcDbBlockReference
  2
_DOT
 10
1519.0
 20
920.2905864309462
 30
0.0
 41
10.0
 42
10.0
 43
10.0
 50
270.0
1001
ACAD
1000
DSTYLE
1002
{
1070
   172
1070
     1
1070
     3
1000
<>（深さ）
1002
}
  0
INSERT
  5
4071
330
A
100
AcDbEntity
  8
DIM
100
AcDbBlockReference
  2
_DOT
 10
1519.0
 20
1029.999999999995
 30
0.0
 41
10.0
 42
10.0
 43
10.0
 50
90.0
1001
ACAD
1000
DSTYLE
1002
{
1070
   172
1070
     1
1070
     3
1000
<>（深さ）
1002
}
  0
MTEXT
  5
4072
330
A
100
AcDbEntity
  8
DIM
100
AcDbMText
 10
1485.290859072152
 20
1163.345026924055
 30
0.0
 40
24.0
 41
0.0
 46
0.0
 71
     5
 72
     1
  1
\A1;110（深さ）
  7
ＭＳ ゴシック
 11
0.0
 21
1.0
 31
0.0
 73
     1
 44
1.0
1001
ACAD
1000
DSTYLE
1002
{
1070
   172
1070
     1
1070
     3
1000
<>（深さ）
1002
}
  0
TEXT
  5
4073
330
A
100
AcDbEntity
  8
DIM
  6
Continuous
100
AcDbText
 10
237.9022033954268
 20
1733.792050263128
 30
0.0
 40
24.4326171875
  1
＝φ30もしくはφ35の水栓取付用穴あけ加工を承ります。
 50
359.9999999999998
  7
ＭＳ ゴシック
100
AcDbText
  0
TEXT
  5
4074
330
A
100
AcDbEntity
  8
DIM
  6
Continuous
100
AcDbText
 10
242.3670296980881
 20
1691.831837522218
 30
0.0
 40
24.4326171875
  1
  必要な場合、ご注文の際にご指示ください。
 50
359.9999999999998
  7
ＭＳ ゴシック
100
AcDbText
  0
TEXT
  5
4075
330
A
100
AcDbEntity
  8
DIM
  6
Continuous
100
AcDbText
 10
857.5145252792641
 20
1207.339389960342
 30
34.99521132346015
 40
24.0
  1
壁取付ボルト穴(2ヶ所)
 50
359.9999999999998
  7
ＭＳ ゴシック
100
AcDbText
  0
TEXT
  5
4076
330
A
100
AcDbEntity
  8
DIM
  6
Continuous
100
AcDbText
 10
1183.076153557583
 20
1733.76151421494
 30
0.0
 40
24.0
  1
※陶器製品には寸法公差があります。
 50
0.00000000000058
  7
ＭＳ ゴシック
100
AcDbText
  0
TEXT
  5
4077
330
A
100
AcDbEntity
  8
DIM
  6
Continuous
100
AcDbText
 10
1185.999999999999
 20
1691.568816953467
 30
0.0
 40
24.0
  1
　洗面器の収め方をご確認の上、必ず現物を合わせて
 50
0.00000000000058
  7
ＭＳ ゴシック
100
AcDbText
  0
TEXT
  5
4078
330
A
100
AcDbEntity
  8
DIM
  6
Continuous
100
AcDbText
 10
1185.999999999999
 20
1650.472280752392
 30
0.0
 40
24.0
  1
  カウンターに切込を行ってください。
 50
0.00000000000058
  7
ＭＳ ゴシック
100
AcDbText
  0
TEXT
  5
407A
330
A
100
AcDbEntity
  8
DIM
  6
Continuous
100
AcDbText
 10
1358.110541453045
 20
2465.680192572214
 30
0.0
 40
24.0
  1
カウンター切込寸法
 50
0.0000000000006818
  7
ＭＳ ゴシック
100
AcDbText
  0
INSERT
  5
407F
330
A
100
AcDbEntity
  8
DIM
100
AcDbBlockReference
  2
_DOT
 10
1855.0
 20
2302.0
 30
0.0
 41
10.0
 42
10.0
 43
10.0
 50
90.0
  0
LINE
  5
4082
330
A
100
AcDbEntity
  8
DIM
100
AcDbLine
 10
1330.070587006165
 20
2031.798657437511
 30
0.0
 11
1330.070587006165
 21
1893.0
 31
0.0
  0
LINE
  5
4083
330
A
100
AcDbEntity
  8
DIM
100
AcDbLine
 10
1662.070587006167
 20
2031.798657437511
 30
0.0
 11
1662.070587006167
 21
1893.0
 31
0.0
  0
LINE
  5
4084
330
A
100
AcDbEntity
  8
DIM
100
AcDbLine
 10
1340.070587006165
 20
1893.0
 30
0.0
 11
1652.070587006167
 21
1893.0
 31
0.0
  0
INSERT
  5
4085
330
A
100
AcDbEntity
  8
DIM
100
AcDbBlockReference
  2
_DOT
 10
1330.070587006165
 20
1893.0
 30
0.0
 41
10.0
 42
10.0
 43
10.0
 50
180.0
  0
INSERT
  5
4086
330
A
100
AcDbEntity
  8
DIM
100
AcDbBlockReference
  2
_DOT
 10
1662.070587006167
 20
1893.0
 30
0.0
 41
10.0
 42
10.0
 43
10.0
  0
MTEXT
  5
4087
330
A
100
AcDbEntity
  8
DIM
100
AcDbMText
 10
1496.070587006166
 20
1925.004501688133
 30
0.0
 40
24.0
 41
0.0
 46
0.0
 71
     5
 72
     1
  1
\A1;330
  7
ＭＳ ゴシック
 73
     1
 44
1.0
  0
LINE
  5
4089
330
A
100
AcDbEntity
  8
MODEL
100
AcDbLine
 10
1166.179926955655
 20
2332.0
 30
0.0
 11
1897.345128417551
 21
2332.0
 31
0.0
  0
LINE
  5
408D
330
A
100
AcDbEntity
  8
MODEL
100
AcDbLine
 10
632.7638794947375
 20
869.6713303521001
 30
0.0
 11
641.9604291193368
 21
869.6713303520996
 31
0.0
  0
LINE
  5
408E
330
A
100
AcDbEntity
  8
MODEL
100
AcDbLine
 10
644.9535548700492
 20
872.4683568552501
 30
0.0
 11
646.8478944128988
 21
900.4030210076421
 31
0.0
  0
ARC
  5
408F
330
A
100
AcDbEntity
  8
MODEL
100
AcDbCircle
 10
641.9604291193368
 20
872.6713303520992
 30
0.0
 40
3.0
100
AcDbArc
 50
270.0
 51
356.1205281444253
  0
CIRCLE
  5
4096
330
A
100
AcDbEntity
  8
MODEL
100
AcDbCircle
 10
609.7917781007359
 20
2114.298657437511
 30
0.0
 40
22.5
  0
HATCH
  5
40A8
330
A
100
AcDbEntity
  8
DIM
100
AcDbHatch
 10
0.0
 20
0.0
 30
0.0
210
0.0
220
0.0
230
1.0
  2
ANSI31
 70
     0
 71
     1
 91
        1
 92
        1
 93
        4
 72
     1
 10
1662.070587006167
 20
2302.0
 11
1330.070587006165
 21
2302.0
 72
     1
 10
1330.070587006165
 20
2302.0
 11
1330.070587006165
 21
2052.0
 72
     1
 10
1662.070587006167
 20
2052.0
 11
1330.070587006165
 21
2052.0
 72
     1
 10
1662.070587006167
 20
2302.0
 11
1662.070587006167
 21
2061.798657437511
 97
        4
330
3FF6
330
3B7E
330
400A
330
3B7F
 75
     0
 76
     1
 52
0.0
 41
6.0
 77
     0
 78
     1
 53
45.0
 43
0.0
 44
0.0
 45
-13.47038418160373
 46
13.47038418160373
 79
     0
 98
        1
 10
0.0
 20
0.0
1001
ACAD
1010
0.0
1020
0.0
1030
0.0
1001
HATCHBACKGROUNDCOLOR
1071
-939524096
1000

1000

  0
LINE
  5
40CE
330
A
100
AcDbEntity
  8
MODEL
100
AcDbLine
 10
1802.522643919757
 20
2331.999999999999
 30
0.0
 11
1831.71449479392
 21
2369.379684645271
 31
0.0
  0
LINE
  5
40CF
330
A
100
AcDbEntity
  8
MODEL
100
AcDbLine
 10
1777.404074562917
 20
2331.999999999999
 30
0.0
 11
1806.595925437083
 21
2369.379684645271
 31
0.0
  0
LINE
  5
40D0
330
A
100
AcDbEntity
  8
MODEL
100
AcDbLine
 10
1750.927744700303
 20
2332.0
 30
0.0
 11
1780.119595574469
 21
2369.379684645271
 31
0.0
  0
DIMENSION
  5
40E7
330
A
100
AcDbEntity
  8
DIM
100
AcDbDimension
  2
*D4
 10
1855.0
 20
2332.0
 30
0.0
 11
1855.0
 21
2404.847771674738
 31
0.0
 70
   160
 71
     5
 42
30.0
 73
     0
 74
     1
 75
     1
  3
tfrom線あり
100
AcDbAlignedDimension
 13
1788.388704787565
 23
2302.0
 33
0.0
 14
1788.388704787565
 24
2332.0
 34
0.0
 50
90.0
100
AcDbRotatedDimension
1001
ACAD
1000
DSTYLE
1002
{
1070
   172
1070
     1
1002
}
  0
CIRCLE
  5
40FD
330
A
100
AcDbEntity
  8
MODEL
  6
HIDDEN2
100
AcDbCircle
 10
609.8861170652171
 20
2265.258746510009
 30
0.0
 40
16.0
  0
DIMENSION
  5
4104
330
A
100
AcDbEntity
  8
DIM
100
AcDbDimension
  2
*D5
 10
233.0
 20
1969.0
 30
0.0
 11
200.9954983118669
 21
2085.5
 31
0.0
 70
    32
  1
230
 71
     5
 42
233.0
 73
     0
 74
     0
 75
     0
  3
tfrom線あり
100
AcDbAlignedDimension
 13
334.7917781007359
 23
2202.0
 33
0.0
 14
334.7917781007359
 24
1969.0
 34
0.0
 50
90.0
100
AcDbRotatedDimension
  0
LINE
  5
412F
102
{ACAD_REACTORS
330
4133
102
}
330
A
100
AcDbEntity
  8
MODEL
100
AcDbLine
 10
1662.070587006167
 20
2302.0
 30
0.0
 11
1662.070587006167
 21
2052.0
 31
0.0
  0
DIMENSION
  5
4131
102
{ACAD_REACTORS
330
4133
102
}
102
{ACAD_XDICTIONARY
360
4132
102
}
330
A
100
AcDbEntity
  8
DIM
100
AcDbDimension
  2
*D6
 10
1855.0
 20
2052.0
 30
0.0
 11
1822.995498311867
 21
2177.0
 31
0.0
 70
    32
 71
     5
 42
250.0
 73
     0
 74
     0
 75
     0
  3
tfrom線あり
100
AcDbAlignedDimension
 13
1662.070587006167
 23
2302.0
 33
0.0
 14
1662.070587006167
 24
2052.0
 34
0.0
 50
90.0
100
AcDbRotatedDimension
  0
VIEWPORT
  5
349
330
B
100
AcDbEntity
 67
     1
  8
0
100
AcDbViewport
 10
202.5
 20
128.5
 30
0.0
 40
486.0
 41
308.4
 68
     1
 69
     1
 12
202.5
 22
128.5
 13
0.0
 23
0.0
 14
0.5
 24
0.5
 15
0.0
 25
0.0
 16
0.0
 26
0.0
 36
1.0
 17
0.0
 27
0.0
 37
0.0
 42
50.0
 43
0.0
 44
0.0
 45
308.4
 50
0.0
 51
0.0
 72
   100
 90
   557152
  1

281
     0
 71
     1
 74
     0
110
0.0
120
0.0
130
0.0
111
1.0
121
0.0
131
0.0
112
0.0
122
1.0
132
0.0
 79
     0
146
0.0
170
     0
 61
     5
348
26C
292
     1
282
     1
141
0.0
142
0.0
 63
   256
  0
VIEWPORT
  5
34A
330
B
100
AcDbEntity
 67
     1
  8
0
100
AcDbViewport
 10
202.5
 20
128.5
 30
0.0
 40
324.0
 41
205.6
 68
     2
 69
     2
 12
986.6781359294573
 22
1427.077061889956
 13
0.0
 23
0.0
 14
0.5
 24
0.5
 15
0.0
 25
0.0
 16
0.0
 26
0.0
 36
1.0
 17
0.0
 27
0.0
 37
0.0
 42
50.0
 43
0.0
 44
0.0
 45
2890.021615685494
 50
0.0
 51
0.0
 72
   100
 90
   557152
  1

281
     0
 71
     1
 74
     0
110
0.0
120
0.0
130
0.0
111
1.0
121
0.0
131
0.0
112
0.0
122
1.0
132
0.0
 79
     0
146
0.0
170
     0
 61
     5
348
26C
292
     1
282
     1
141
0.0
142
0.0
 63
   256
  0
ENDSEC
  0
SECTION
  2
OBJECTS
  0
DICTIONARY
  5
19
330
0
100
AcDbDictionary
281
     1
  3
ACAD_COLOR
350
674
  3
ACAD_DETAILVIEWSTYLE
350
BBF
  3
ACAD_FIELDLIST
350
146A
  3
ACAD_GROUP
350
1A
  3
ACAD_IMAGE_VARS
350
27B
  3
ACAD_LAYOUT
350
1E
  3
ACAD_MATERIAL
350
263
  3
ACAD_MLEADERSTYLE
350
336
  3
ACAD_MLINESTYLE
350
1B
  3
ACAD_PLOTSETTINGS
350
22
  3
ACAD_PLOTSTYLENAME
350
1F
  3
ACAD_SCALELIST
350
241
  3
ACAD_SECTIONVIEWSTYLE
350
BC0
  3
ACAD_TABLESTYLE
350
278
  3
ACAD_VISUALSTYLE
350
267
  3
ACDB_RECOMPOSE_DATA
350
4154
  3
AcDbVariableDictionary
350
330
  3
APPDATA
350
27A
  3
DimOffsetDictionary
350
E3E
  0
SUN
  5
904
330
15
100
AcDbSun
 90
        1
290
     0
 63
     7
421
 16777215
 40
1.0
291
     1
 91
  2455826
 92
 54000000
292
     0
 70
     2
 71
   256
280
     1
  0
DICTIONARY
  5
2E1
330
2
100
AcDbDictionary
280
     1
281
     1
  3
ACAD_LAYERSTATES
360
2E2
  3
ACLYDICTIONARY
360
DF9
  0
DICTIONARY
  5
374D
330
A
100
AcDbDictionary
280
     1
281
     1
  3
ACAD_SORTENTS
360
374E
  0
DICTIONARY
  5
1468
330
1466
100
AcDbDictionary
280
     1
281
     1
  3
ACAD_FIELD
360
401A
  0
DICTIONARY
  5
4132
330
4131
100
AcDbDictionary
280
     1
281
     1
  3
ACAD_DIMASSOC
360
4133
  0
DICTIONARY
  5
674
102
{ACAD_REACTORS
330
19
102
}
330
19
100
AcDbDictionary
281
     1
  0
DICTIONARY
  5
BBF
102
{ACAD_REACTORS
330
19
102
}
330
19
100
AcDbDictionary
281
     1
  0
FIELDLIST
  5
146A
102
{ACAD_REACTORS
330
19
102
}
330
19
100
AcDbIdSet
 90
        2
330
146B
330
1467
100
AcDbFieldList
  0
DICTIONARY
  5
1A
102
{ACAD_REACTORS
330
19
102
}
330
19
100
AcDbDictionary
281
     1
  3
*A1
350
36AC
  0
RASTERVARIABLES
  5
27B
102
{ACAD_REACTORS
330
19
102
}
330
19
100
AcDbRasterVariables
 90
        0
 70
     1
 71
     1
 72
     1
  0
DICTIONARY
  5
1E
102
{ACAD_REACTORS
330
19
102
}
330
19
100
AcDbDictionary
281
     1
  3
Layout1
350
21
  3
Model
350
20
  0
DICTIONARY
  5
263
102
{ACAD_REACTORS
330
19
102
}
330
19
100
AcDbDictionary
281
     1
  3
ByBlock
350
265
  3
ByLayer
350
264
  3
Global
350
266
  0
DICTIONARY
  5
336
102
{ACAD_REACTORS
330
19
102
}
330
19
100
AcDbDictionary
281
     1
  3
Standard
350
DAB
  0
DICTIONARY
  5
1B
102
{ACAD_REACTORS
330
19
102
}
330
19
100
AcDbDictionary
281
     1
  3
Standard
350
1C
  0
DICTIONARY
  5
22
102
{ACAD_REACTORS
330
19
102
}
330
19
100
AcDbDictionary
281
     1
  0
ACDBDICTIONARYWDFLT
  5
1F
102
{ACAD_REACTORS
330
19
102
}
330
19
100
AcDbDictionary
281
     1
  3
Normal
350
1D
100
AcDbDictionaryWithDefault
340
1D
  0
DICTIONARY
  5
241
102
{ACAD_REACTORS
330
19
102
}
330
19
100
AcDbDictionary
281
     1
  3
A0
350
242
  3
A1
350
243
  3
A2
350
244
  3
A3
350
245
  3
A4
350
246
  3
A5
350
247
  3
A6
350
248
  3
A7
350
249
  3
A8
350
24A
  3
A9
350
24B
  3
B0
350
24C
  3
B1
350
24D
  3
B2
350
24E
  3
B3
350
24F
  3
B4
350
250
  3
B5
350
251
  3
B6
350
252
  3
B7
350
253
  3
B8
350
254
  3
B9
350
255
  3
C0
350
256
  3
C1
350
257
  3
C2
350
258
  3
C3
350
259
  3
C4
350
25A
  3
C5
350
25B
  3
C6
350
25C
  3
C7
350
25D
  3
C8
350
25E
  3
C9
350
25F
  3
D0
350
260
  3
D1
350
261
  3
D2
350
262
  0
DICTIONARY
  5
BC0
102
{ACAD_REACTORS
330
19
102
}
330
19
100
AcDbDictionary
281
     1
  0
DICTIONARY
  5
278
102
{ACAD_REACTORS
330
19
102
}
330
19
100
AcDbDictionary
281
     1
  3
Standard
350
279
  0
DICTIONARY
  5
267
102
{ACAD_REACTORS
330
19
102
}
330
19
100
AcDbDictionary
281
     1
  3
2dWireframe
350
26C
  3
3D Hidden
350
26E
  3
3dWireframe
350
26D
  3
Basic
350
26F
  3
Brighten
350
273
  3
ColorChange
350
277
  3
Conceptual
350
271
  3
Dim
350
272
  3
EdgeColorOff
350
8FE
  3
Facepattern
350
276
  3
Flat
350
268
  3
FlatWithEdges
350
269
  3
Gouraud
350
26A
  3
GouraudWithEdges
350
26B
  3
Hidden
350
8FB
  3
JitterOff
350
8FC
  3
Linepattern
350
275
  3
OverhangOff
350
8FD
  3
Realistic
350
270
  3
Shaded
350
903
  3
Shaded with edges
350
902
  3
Shades of Gray
350
8FF
  3
Sketchy
350
900
  3
Thicken
350
274
  3
Wireframe
350
8FA
  3
X-Ray
350
901
  0
XRECORD
  5
4154
102
{ACAD_REACTORS
330
19
102
}
330
19
100
AcDbXrecord
280
     1
 90
        1
330
279
  0
DICTIONARY
  5
330
102
{ACAD_REACTORS
330
19
102
}
330
19
100
AcDbDictionary
281
     1
  3
CANNOSCALE
350
331
  3
CMLEADERSTYLE
350
DB1
  3
CTABLESTYLE
350
335
  3
HPTRANSPARENCY
350
D52
  3
XCLIPFRAME
350
896
  0
DICTIONARY
  5
27A
102
{ACAD_REACTORS
330
19
102
}
330
19
100
AcDbDictionary
281
     1
  0
DICTIONARY
  5
E3E
102
{ACAD_REACTORS
330
19
102
}
330
19
100
AcDbDictionary
281
     1
  3
DIMRAILANGLE
350
ECE
  3
DIMRAILFIRSTOFFSET
350
ECC
  3
DIMRAILOFFSET
350
ECD
  3
DIMRAILSENABLED
350
ECF
  0
DICTIONARY
  5
2E2
102
{ACAD_REACTORS
330
2E1
102
}
330
2E1
100
AcDbDictionary
281
     1
  0
DICTIONARY
  5
DF9
102
{ACAD_REACTORS
330
2E1
102
}
330
2E1
100
AcDbDictionary
281
     1
1001
ACAD
1000
<All
  0
SORTENTSTABLE
  5
374E
102
{ACAD_REACTORS
330
374D
102
}
330
374D
100
AcDbSortentsTable
330
A
331
369B
  5
35AE
331
369C
  5
369A
331
36A7
  5
369B
331
36A8
  5
369C
331
36A9
  5
36A7
331
36AA
  5
36A8
331
36AB
  5
36A9
331
3A0C
  5
3A0D
331
3A0D
  5
3A0E
331
3A0F
  5
3A10
331
3A10
  5
3A11
331
3A28
  5
3A29
331
3A31
  5
3A32
331
3A32
  5
3A33
331
3A3F
  5
3A40
331
3B78
  5
3B79
331
3B79
  5
3B7A
331
3B7A
  5
3B7B
331
3B7B
  5
3B7C
331
3B7C
  5
3B7D
331
3B7E
  5
3BD5
331
3B7F
  5
3BD6
331
3B9F
  5
3C0C
331
3BA0
  5
3C0E
331
3BD0
  5
3C11
331
3BD4
  5
3C12
331
3BD5
  5
3C13
331
3C09
  5
3DA1
331
3C0A
  5
3DCE
331
3C0C
  5
3DCF
331
3C0F
  5
3DD2
331
3C10
  5
3DD3
331
3C11
  5
3DD4
331
3D7C
  5
3DD5
331
3DCC
  5
3DF8
331
3DCD
  5
3DFA
331
3DD0
  5
3DFB
331
3DD1
  5
3DFC
331
3DD2
  5
3DFD
331
3DD3
  5
3DFE
331
3DF8
  5
3E1D
331
3DFA
  5
3E1E
331
3DFB
  5
3E8E
331
3DFC
  5
3E8F
331
3DFD
  5
3E90
331
3DFE
  5
3E93
331
3E1D
  5
3EEA
331
3E1E
  5
3EEB
331
3E8E
  5
3EEC
331
3E8F
  5
3EED
331
3E90
  5
3EEE
331
3E93
  5
3EEF
331
3EEA
  5
3F00
331
3EEB
  5
3F90
331
3EEC
  5
3FAF
331
3EED
  5
3FEE
331
3EEE
  5
3FF5
331
3EEF
  5
3FF6
331
3F00
  5
4009
331
3F90
  5
400A
331
3FAF
  5
401F
331
3FF5
  5
4024
331
3FF6
  5
4025
331
400A
  5
4027
331
401F
  5
4028
331
4023
  5
4029
331
4024
  5
402A
331
4025
  5
402B
331
4026
  5
402C
331
4027
  5
402D
331
4028
  5
402E
331
4029
  5
402F
331
402A
  5
4030
331
402B
  5
4031
331
402C
  5
4032
331
402D
  5
4033
331
402E
  5
4034
331
402F
  5
4035
331
4030
  5
4036
331
4031
  5
4037
331
4032
  5
4038
331
4033
  5
4039
331
4034
  5
403A
331
4035
  5
403B
331
4036
  5
403C
331
4037
  5
403D
331
4038
  5
403E
331
4039
  5
403F
331
403A
  5
4040
331
403B
  5
4041
331
403C
  5
4042
331
403D
  5
4043
331
403E
  5
4044
331
403F
  5
4045
331
4040
  5
4046
331
4041
  5
4047
331
4042
  5
4048
331
4043
  5
4049
331
4044
  5
404A
331
4045
  5
404B
331
4046
  5
404C
331
4047
  5
404D
331
4048
  5
404E
331
4049
  5
404F
331
404A
  5
4050
331
404B
  5
4051
331
404C
  5
4052
331
404D
  5
4053
331
404E
  5
4054
331
404F
  5
4055
331
4050
  5
4056
331
4051
  5
4057
331
4052
  5
4058
331
4053
  5
4059
331
4054
  5
405A
331
4055
  5
405B
331
4056
  5
405C
331
4057
  5
405D
331
4058
  5
405E
331
4059
  5
405F
331
405A
  5
4060
331
405B
  5
4061
331
405C
  5
4062
331
405D
  5
4063
331
405E
  5
4064
331
405F
  5
4065
331
4060
  5
4066
331
4061
  5
4067
331
4062
  5
4068
331
4063
  5
4069
331
4064
  5
406A
331
4065
  5
406B
331
4066
  5
406C
331
4067
  5
406D
331
4068
  5
406E
331
4069
  5
406F
331
406A
  5
4070
331
406B
  5
4071
331
406C
  5
4072
331
406D
  5
4073
331
406E
  5
4074
331
406F
  5
4075
331
4070
  5
4076
331
4071
  5
4077
331
4072
  5
4078
331
4073
  5
4079
331
4074
  5
407A
331
4075
  5
407B
331
4076
  5
407C
331
4077
  5
407D
331
4078
  5
407E
331
0
  5
407F
331
407A
  5
4080
331
407F
  5
4085
331
4082
  5
4089
331
4083
  5
408D
331
4084
  5
408E
331
4085
  5
408F
331
4086
  5
4096
331
4087
  5
40A3
331
4089
  5
40A4
331
408D
  5
40A5
331
408E
  5
40A6
331
408F
  5
40A7
331
4096
  5
40A8
331
40A8
  5
3BD4
  0
DICTIONARY
  5
401A
102
{ACAD_REACTORS
330
1468
102
}
330
1468
100
AcDbDictionary
280
     1
281
     1
  3
TEXT
360
1467
  0
DIMASSOC
  5
4133
102
{ACAD_REACTORS
330
4132
102
}
330
4132
100
AcDbDimAssoc
330
4131
 90
        3
 70
     0
 71
     1
  1
AcDbOsnapPointRef
 72
    13
331
412F
 73
     0
 91
        0
 40
0.0
 10
0.0
 20
0.0
 30
0.0
 75
     0
  1
AcDbOsnapPointRef
 72
     1
331
412F
 73
     0
 91
        0
 40
0.0
 10
0.0
 20
0.0
 30
0.0
 75
     0
  0
GROUP
  5
36AC
102
{ACAD_REACTORS
330
1A
102
}
330
1A
100
AcDbGroup
300

 70
     1
 71
     1
340
369B
340
369C
340
36A7
340
36A8
340
36A9
340
36AA
340
36AB
  0
LAYOUT
  5
21
102
{ACAD_REACTORS
330
1E
102
}
330
1E
100
AcDbPlotSettings
  1

  2
none_device
  4
ISO_A3_(420.00_x_297.00_MM)
  6

 40
7.5
 41
20.0
 42
7.5
 43
20.0
 44
420.0
 45
297.0
 46
0.0
 47
0.0
 48
0.0
 49
0.0
140
0.0
141
0.0
142
1.0
143
1.0
 70
     0
 72
     1
 73
     0
 74
     0
  7

 75
     0
 76
     0
 77
     2
 78
   300
147
1.0
148
0.0
149
0.0
100
AcDbLayout
  1
Layout1
 70
     0
 71
     0
 10
-7.5
 20
-20.0
 11
412.5
 21
277.0
 12
0.0
 22
0.0
 32
0.0
 14
0.0
 24
0.0
 34
0.0
 15
0.0
 25
0.0
 35
0.0
146
0.0
 13
0.0
 23
0.0
 33
0.0
 16
0.0
 26
0.0
 36
0.0
 17
0.0
 27
0.0
 37
0.0
 76
     0
330
B
331
349
  0
LAYOUT
  5
20
102
{ACAD_REACTORS
330
1E
102
}
330
1E
100
AcDbPlotSettings
  1

  2
none_device
  4
ISO_A3_(420.00_x_297.00_MM)
  6

 40
7.5
 41
20.0
 42
7.5
 43
20.0
 44
420.0
 45
297.0
 46
0.0
 47
0.0
 48
0.0
 49
0.0
140
0.0
141
0.0
142
1.0
143
1.0
 70
  1024
 72
     1
 73
     0
 74
     0
  7

 75
     0
 76
     0
 77
     2
 78
   300
147
1.0
148
0.0
149
0.0
100
AcDbLayout
  1
Model
 70
     0
 71
     1
 10
0.0
 20
0.0
 11
2100.0
 21
2970.0
 12
0.0
 22
0.0
 32
0.0
 14
0.0
 24
0.0
 34
-0.0000000000000142
 15
2100.0
 25
2970.0
 35
34.99521132346014
146
0.0
 13
0.0
 23
0.0
 33
0.0
 16
0.0
 26
0.0
 36
0.0
 17
0.0
 27
0.0
 37
0.0
 76
     0
330
A
331
15
  0
MATERIAL
  5
265
102
{ACAD_REACTORS
330
263
102
}
330
263
100
AcDbMaterial
  1
ByBlock
 72
     1
 94
      127
  0
MATERIAL
  5
264
102
{ACAD_REACTORS
330
263
102
}
330
263
100
AcDbMaterial
  1
ByLayer
 72
     1
 94
      127
  0
MATERIAL
  5
266
102
{ACAD_REACTORS
330
263
102
}
330
263
100
AcDbMaterial
  1
Global
 72
     1
 94
      127
  0
MLEADERSTYLE
  5
DAB
102
{ACAD_REACTORS
330
336
102
}
330
336
100
AcDbMLeaderStyle
170
     2
171
     1
172
     0
 90
        2
 40
0.0
 41
0.0
173
     1
 91
-1056964608
340
11
 92
       -2
290
     1
 42
2.0
291
     1
 43
8.0
  3
Standard
341
0
 44
4.0
300

342
17
174
     1
178
     6
175
     1
176
     0
 93
-1056964608
 45
4.0
292
     0
297
     0
 46
4.0
343
0
 94
-1056964608
 47
1.0
 49
1.0
140
1.0
293
     1
141
0.0
294
     1
177
     0
142
1.0
295
     0
296
     0
143
3.75
1001
ACAD_MLEADERVER
1070
     2
  0
MLINESTYLE
  5
1C
102
{ACAD_REACTORS
330
1B
102
}
330
1B
100
AcDbMlineStyle
  2
Standard
 70
     0
  3

 62
     0
 51
90.0
 52
90.0
 71
     2
 49
0.5
 62
   256
  6
BYLAYER
 49
-0.5
 62
   256
  6
BYLAYER
  0
ACDBPLACEHOLDER
  5
1D
102
{ACAD_REACTORS
330
1F
102
}
330
1F
  0
SCALE
  5
242
102
{ACAD_REACTORS
330
241
102
}
330
241
100
AcDbScale
 70
     0
300
1:1
140
1.0
141
1.0
290
     1
  0
SCALE
  5
243
102
{ACAD_REACTORS
330
241
102
}
330
241
100
AcDbScale
 70
     0
300
1:2
140
1.0
141
2.0
290
     0
  0
SCALE
  5
244
102
{ACAD_REACTORS
330
241
102
}
330
241
100
AcDbScale
 70
     0
300
1:4
140
1.0
141
4.0
290
     0
  0
SCALE
  5
245
102
{ACAD_REACTORS
330
241
102
}
330
241
100
AcDbScale
 70
     0
300
1:5
140
1.0
141
5.0
290
     0
  0
SCALE
  5
246
102
{ACAD_REACTORS
330
241
102
}
330
241
100
AcDbScale
 70
     0
300
1:8
140
1.0
141
8.0
290
     0
  0
SCALE
  5
247
102
{ACAD_REACTORS
330
241
102
}
330
241
100
AcDbScale
 70
     0
300
1:10
140
1.0
141
10.0
290
     0
  0
SCALE
  5
248
102
{ACAD_REACTORS
330
241
102
}
330
241
100
AcDbScale
 70
     0
300
1:16
140
1.0
141
16.0
290
     0
  0
SCALE
  5
249
102
{ACAD_REACTORS
330
241
102
}
330
241
100
AcDbScale
 70
     0
300
1:20
140
1.0
141
20.0
290
     0
  0
SCALE
  5
24A
102
{ACAD_REACTORS
330
241
102
}
330
241
100
AcDbScale
 70
     0
300
1:30
140
1.0
141
30.0
290
     0
  0
SCALE
  5
24B
102
{ACAD_REACTORS
330
241
102
}
330
241
100
AcDbScale
 70
     0
300
1:40
140
1.0
141
40.0
290
     0
  0
SCALE
  5
24C
102
{ACAD_REACTORS
330
241
102
}
330
241
100
AcDbScale
 70
     0
300
1:50
140
1.0
141
50.0
290
     0
  0
SCALE
  5
24D
102
{ACAD_REACTORS
330
241
102
}
330
241
100
AcDbScale
 70
     0
300
1:100
140
1.0
141
100.0
290
     0
  0
SCALE
  5
24E
102
{ACAD_REACTORS
330
241
102
}
330
241
100
AcDbScale
 70
     0
300
2:1
140
2.0
141
1.0
290
     0
  0
SCALE
  5
24F
102
{ACAD_REACTORS
330
241
102
}
330
241
100
AcDbScale
 70
     0
300
4:1
140
4.0
141
1.0
290
     0
  0
SCALE
  5
250
102
{ACAD_REACTORS
330
241
102
}
330
241
100
AcDbScale
 70
     0
300
8:1
140
8.0
141
1.0
290
     0
  0
SCALE
  5
251
102
{ACAD_REACTORS
330
241
102
}
330
241
100
AcDbScale
 70
     0
300
10:1
140
10.0
141
1.0
290
     0
  0
SCALE
  5
252
102
{ACAD_REACTORS
330
241
102
}
330
241
100
AcDbScale
 70
     0
300
100:1
140
100.0
141
1.0
290
     0
  0
SCALE
  5
253
102
{ACAD_REACTORS
330
241
102
}
330
241
100
AcDbScale
 70
     0
300
1/128" = 1'-0"
140
0.0078125
141
12.0
290
     0
  0
SCALE
  5
254
102
{ACAD_REACTORS
330
241
102
}
330
241
100
AcDbScale
 70
     0
300
1/64" = 1'-0"
140
0.015625
141
12.0
290
     0
  0
SCALE
  5
255
102
{ACAD_REACTORS
330
241
102
}
330
241
100
AcDbScale
 70
     0
300
1/32" = 1'-0"
140
0.03125
141
12.0
290
     0
  0
SCALE
  5
256
102
{ACAD_REACTORS
330
241
102
}
330
241
100
AcDbScale
 70
     0
300
1/16" = 1'-0"
140
0.0625
141
12.0
290
     0
  0
SCALE
  5
257
102
{ACAD_REACTORS
330
241
102
}
330
241
100
AcDbScale
 70
     0
300
3/32" = 1'-0"
140
0.09375
141
12.0
290
     0
  0
SCALE
  5
258
102
{ACAD_REACTORS
330
241
102
}
330
241
100
AcDbScale
 70
     0
300
1/8" = 1'-0"
140
0.125
141
12.0
290
     0
  0
SCALE
  5
259
102
{ACAD_REACTORS
330
241
102
}
330
241
100
AcDbScale
 70
     0
300
3/16" = 1'-0"
140
0.1875
141
12.0
290
     0
  0
SCALE
  5
25A
102
{ACAD_REACTORS
330
241
102
}
330
241
100
AcDbScale
 70
     0
300
1/4" = 1'-0"
140
0.25
141
12.0
290
     0
  0
SCALE
  5
25B
102
{ACAD_REACTORS
330
241
102
}
330
241
100
AcDbScale
 70
     0
300
3/8" = 1'-0"
140
0.375
141
12.0
290
     0
  0
SCALE
  5
25C
102
{ACAD_REACTORS
330
241
102
}
330
241
100
AcDbScale
 70
     0
300
1/2" = 1'-0"
140
0.5
141
12.0
290
     0
  0
SCALE
  5
25D
102
{ACAD_REACTORS
330
241
102
}
330
241
100
AcDbScale
 70
     0
300
3/4" = 1'-0"
140
0.75
141
12.0
290
     0
  0
SCALE
  5
25E
102
{ACAD_REACTORS
330
241
102
}
330
241
100
AcDbScale
 70
     0
300
1" = 1'-0"
140
1.0
141
12.0
290
     0
  0
SCALE
  5
25F
102
{ACAD_REACTORS
330
241
102
}
330
241
100
AcDbScale
 70
     0
300
1-1/2" = 1'-0"
140
1.5
141
12.0
290
     0
  0
SCALE
  5
260
102
{ACAD_REACTORS
330
241
102
}
330
241
100
AcDbScale
 70
     0
300
3" = 1'-0"
140
3.0
141
12.0
290
     0
  0
SCALE
  5
261
102
{ACAD_REACTORS
330
241
102
}
330
241
100
AcDbScale
 70
     0
300
6" = 1'-0"
140
6.0
141
12.0
290
     0
  0
SCALE
  5
262
102
{ACAD_REACTORS
330
241
102
}
330
241
100
AcDbScale
 70
     0
300
1'-0" = 1'-0"
140
12.0
141
12.0
290
     0
  0
TABLESTYLE
  5
279
102
{ACAD_REACTORS
330
278
102
}
102
{ACAD_XDICTIONARY
360
4152
102
}
330
278
100
AcDbTableStyle
  3
Standard
 70
     0
 71
     0
 40
0.06
 41
0.06
280
     0
281
     0
  7
Standard
140
4.5
170
     2
 62
     0
 63
   257
283
     0
 90
        4
 91
        0
  1

274
    -2
284
     1
 64
     0
275
    -2
285
     1
 65
     0
276
    -2
286
     1
 66
     0
277
    -2
287
     1
 67
     0
278
    -2
288
     1
 68
     0
279
    -2
289
     1
 69
     0
  7
Standard
140
6.0
170
     5
 62
     0
 63
   257
283
     0
 90
        4
 91
        0
  1

274
    -2
284
     1
 64
     0
275
    -2
285
     1
 65
     0
276
    -2
286
     1
 66
     0
277
    -2
287
     1
 67
     0
278
    -2
288
     1
 68
     0
279
    -2
289
     1
 69
     0
  7
Standard
140
4.5
170
     5
 62
     0
 63
   257
283
     0
 90
        4
 91
        0
  1

274
    -2
284
     1
 64
     0
275
    -2
285
     1
 65
     0
276
    -2
286
     1
 66
     0
277
    -2
287
     1
 67
     0
278
    -2
288
     1
 68
     0
279
    -2
289
     1
 69
     0
  0
VISUALSTYLE
  5
26C
102
{ACAD_REACTORS
330
267
102
}
330
267
100
AcDbVisualStyle
  2
2dWireframe
 70
     4
 71
     0
 72
     2
 73
     0
 90
        0
 40
-0.6
 41
-30.0
 62
     5
 63
     7
421
 16777215
 74
     1
 91
        4
 64
     7
 65
   257
 75
     1
175
     1
 42
1.0
 92
        0
 66
   257
 43
1.0
 76
     1
 77
     6
 78
     2
 67
     7
 79
     5
170
     0
171
     0
290
     0
174
     0
 93
        1
 44
0.0
173
     0
291
     0
 45
0.0
  0
VISUALSTYLE
  5
26E
102
{ACAD_REACTORS
330
267
102
}
330
267
100
AcDbVisualStyle
  2
3D Hidden
 70
     6
 71
     1
 72
     2
 73
     2
 90
        0
 40
-0.6
 41
-30.0
 62
     5
 63
     7
421
 16777215
 74
     2
 91
        2
 64
     7
 65
   257
 75
     2
175
     1
 42
40.0
 92
        0
 66
   257
 43
1.0
 76
     1
 77
     6
 78
     2
 67
     7
 79
     3
170
     0
171
     0
290
     0
174
     0
 93
        1
 44
0.0
173
     0
291
     0
 45
0.0
  0
VISUALSTYLE
  5
26D
102
{ACAD_REACTORS
330
267
102
}
330
267
100
AcDbVisualStyle
  2
3dWireframe
 70
     5
 71
     0
 72
     2
 73
     0
 90
        0
 40
-0.6
 41
-30.0
 62
     5
 63
     7
421
 16777215
 74
     1
 91
        4
 64
     7
 65
   257
 75
     1
175
     1
 42
1.0
 92
        0
 66
   257
 43
1.0
 76
     1
 77
     6
 78
     2
 67
     7
 79
     5
170
     0
171
     0
290
     0
174
     0
 93
        1
 44
0.0
173
     0
291
     0
 45
0.0
  0
VISUALSTYLE
  5
26F
102
{ACAD_REACTORS
330
267
102
}
330
267
100
AcDbVisualStyle
  2
Basic
 70
     7
 71
     1
 72
     0
 73
     1
 90
        0
 40
-0.6
 41
-30.0
 62
     5
 63
     7
421
 16777215
 74
     0
 91
        4
 64
     7
 65
   257
 75
     1
175
     1
 42
1.0
 92
        8
 66
     7
 43
1.0
 76
     1
 77
     6
 78
     2
 67
     7
 79
     5
170
     0
171
     0
290
     0
174
     0
 93
        1
 44
0.0
173
     0
291
     1
 45
0.0
  0
VISUALSTYLE
  5
273
102
{ACAD_REACTORS
330
267
102
}
330
267
100
AcDbVisualStyle
  2
Brighten
 70
    12
 71
     2
 72
     2
 73
     0
 90
        0
 40
-0.6
 41
-30.0
 62
     5
 63
     7
421
 16777215
 74
     1
 91
        4
 64
     7
 65
   257
 75
     1
175
     1
 42
1.0
 92
        8
 66
     7
 43
1.0
 76
     1
 77
     6
 78
     2
 67
     7
 79
     5
170
     0
171
     0
290
     0
174
     0
 93
        1
 44
50.0
173
     0
291
     1
 45
0.0
  0
VISUALSTYLE
  5
277
102
{ACAD_REACTORS
330
267
102
}
330
267
100
AcDbVisualStyle
  2
ColorChange
 70
    16
 71
     2
 72
     2
 73
     3
 90
        0
 40
-0.6
 41
-30.0
 62
     5
 63
     8
421
  8421504
 74
     1
 91
        4
 64
     7
 65
   257
 75
     1
175
     1
 42
1.0
 92
        8
 66
     8
424
  8421504
 43
1.0
 76
     1
 77
     6
 78
     2
 67
     7
 79
     5
170
     0
171
     0
290
     0
174
     0
 93
        1
 44
0.0
173
     0
291
     1
 45
0.0
  0
VISUALSTYLE
  5
271
102
{ACAD_REACTORS
330
267
102
}
330
267
100
AcDbVisualStyle
  2
Conceptual
 70
     9
 71
     3
 72
     2
 73
     0
 90
        0
 40
-0.6
 41
-30.0
 62
     5
 63
     7
421
 16777215
 74
     2
 91
        2
 64
     7
 65
   257
 75
     1
175
     1
 42
40.0
 92
        8
 66
     7
 43
1.0
 76
     1
 77
     6
 78
     2
 67
     7
 79
     3
170
     0
171
     0
290
     0
174
     0
 93
        1
 44
0.0
173
     0
291
     0
 45
0.0
  0
VISUALSTYLE
  5
272
102
{ACAD_REACTORS
330
267
102
}
330
267
100
AcDbVisualStyle
  2
Dim
 70
    11
 71
     2
 72
     2
 73
     0
 90
        0
 40
-0.6
 41
-30.0
 62
     5
 63
     7
421
 16777215
 74
     1
 91
        4
 64
     7
 65
   257
 75
     1
175
     1
 42
1.0
 92
        8
 66
     7
 43
1.0
 76
     1
 77
     6
 78
     2
 67
     7
 79
     5
170
     0
171
     0
290
     0
174
     0
 93
        1
 44
-50.0
173
     0
291
     1
 45
0.0
  0
VISUALSTYLE
  5
8FE
102
{ACAD_REACTORS
330
267
102
}
330
267
100
AcDbVisualStyle
  2
EdgeColorOff
 70
    22
 71
     2
 72
     2
 73
     0
 90
        0
 40
0.6
 41
30.0
 62
     5
 63
     7
421
 16777215
 74
     1
 91
        4
 64
     7
 65
   257
 75
     1
175
     1
 42
1.0
 92
        8
 66
     7
 43
1.0
 76
     1
 77
     6
 78
     2
 67
     7
 79
     5
170
     0
171
     0
290
     0
174
     0
 93
        1
 44
0.0
173
     0
291
     1
 45
0.0
  0
VISUALSTYLE
  5
276
102
{ACAD_REACTORS
330
267
102
}
330
267
100
AcDbVisualStyle
  2
Facepattern
 70
    15
 71
     2
 72
     2
 73
     0
 90
        0
 40
-0.6
 41
-30.0
 62
     5
 63
     7
421
 16777215
 74
     1
 91
        4
 64
     7
 65
   257
 75
     1
175
     1
 42
1.0
 92
        8
 66
     7
 43
1.0
 76
     1
 77
     6
 78
     2
 67
     7
 79
     5
170
     0
171
     0
290
     0
174
     0
 93
        1
 44
0.0
173
     0
291
     1
 45
0.0
  0
VISUALSTYLE
  5
268
102
{ACAD_REACTORS
330
267
102
}
330
267
100
AcDbVisualStyle
  2
Flat
 70
     0
 71
     2
 72
     1
 73
     1
 90
        2
 40
-0.6
 41
30.0
 62
     5
 63
     7
421
 16777215
 74
     0
 91
        4
 64
     7
 65
   257
 75
     1
175
     1
 42
1.0
 92
        8
 66
     7
 43
1.0
 76
     1
 77
     6
 78
     2
 67
     7
 79
     5
170
     0
171
     0
290
     0
174
     0
 93
       13
 44
0.0
173
     0
291
     1
 45
0.0
  0
VISUALSTYLE
  5
269
102
{ACAD_REACTORS
330
267
102
}
330
267
100
AcDbVisualStyle
  2
FlatWithEdges
 70
     1
 71
     2
 72
     1
 73
     1
 90
        2
 40
-0.6
 41
30.0
 62
     5
 63
     7
421
 16777215
 74
     1
 91
        4
 64
     7
 65
   257
 75
     1
175
     1
 42
1.0
 92
        0
 66
   257
 43
1.0
 76
     1
 77
     6
 78
     2
 67
     7
 79
     5
170
     0
171
     0
290
     0
174
     0
 93
       13
 44
0.0
173
     0
291
     1
 45
0.0
  0
VISUALSTYLE
  5
26A
102
{ACAD_REACTORS
330
267
102
}
330
267
100
AcDbVisualStyle
  2
Gouraud
 70
     2
 71
     2
 72
     2
 73
     1
 90
        2
 40
-0.6
 41
30.0
 62
     5
 63
     7
421
 16777215
 74
     0
 91
        4
 64
     7
 65
   257
 75
     1
175
     1
 42
1.0
 92
        0
 66
     7
 43
1.0
 76
     1
 77
     6
 78
     2
 67
     7
 79
     5
170
     0
171
     0
290
     0
174
     0
 93
       13
 44
0.0
173
     0
291
     1
 45
0.0
  0
VISUALSTYLE
  5
26B
102
{ACAD_REACTORS
330
267
102
}
330
267
100
AcDbVisualStyle
  2
GouraudWithEdges
 70
     3
 71
     2
 72
     2
 73
     1
 90
        2
 40
-0.6
 41
30.0
 62
     5
 63
     7
421
 16777215
 74
     1
 91
        4
 64
     7
 65
   257
 75
     1
175
     1
 42
1.0
 92
        0
 66
   257
 43
1.0
 76
     1
 77
     6
 78
     2
 67
     7
 79
     5
170
     0
171
     0
290
     0
174
     0
 93
       13
 44
0.0
173
     0
291
     1
 45
0.0
  0
VISUALSTYLE
  5
8FB
102
{ACAD_REACTORS
330
267
102
}
330
267
100
AcDbVisualStyle
  2
Hidden
 70
     6
 71
     1
 72
     2
 73
     2
 90
        0
 40
0.6
 41
30.0
 62
     5
 63
     7
421
 16777215
 74
     2
 91
        2
 64
     7
 65
   257
 75
     2
175
     1
 42
40.0
 92
        0
 66
   257
 43
1.0
 76
     1
 77
     6
 78
     2
 67
     7
 79
     3
170
     0
171
     0
290
     0
174
     0
 93
        1
 44
0.0
173
     0
291
     0
 45
0.0
  0
VISUALSTYLE
  5
8FC
102
{ACAD_REACTORS
330
267
102
}
330
267
100
AcDbVisualStyle
  2
JitterOff
 70
    20
 71
     2
 72
     2
 73
     0
 90
        0
 40
0.6
 41
30.0
 62
     5
 63
     7
421
 16777215
 74
     1
 91
        4
 64
     7
 65
   257
 75
     1
175
     1
 42
1.0
 92
       10
 66
     7
 43
1.0
 76
     1
 77
     6
 78
     2
 67
     7
 79
     5
170
     0
171
     0
290
     0
174
     0
 93
        1
 44
0.0
173
     0
291
     1
 45
0.0
  0
VISUALSTYLE
  5
275
102
{ACAD_REACTORS
330
267
102
}
330
267
100
AcDbVisualStyle
  2
Linepattern
 70
    14
 71
     2
 72
     2
 73
     0
 90
        0
 40
-0.6
 41
-30.0
 62
     5
 63
     7
421
 16777215
 74
     1
 91
        4
 64
     7
 65
   257
 75
     7
175
     7
 42
1.0
 92
        8
 66
     7
 43
1.0
 76
     1
 77
     6
 78
     2
 67
     7
 79
     5
170
     0
171
     0
290
     0
174
     0
 93
        1
 44
0.0
173
     0
291
     1
 45
0.0
  0
VISUALSTYLE
  5
8FD
102
{ACAD_REACTORS
330
267
102
}
330
267
100
AcDbVisualStyle
  2
OverhangOff
 70
    21
 71
     2
 72
     2
 73
     0
 90
        0
 40
0.6
 41
30.0
 62
     5
 63
     7
421
 16777215
 74
     1
 91
        4
 64
     7
 65
   257
 75
     1
175
     1
 42
1.0
 92
        9
 66
     7
 43
1.0
 76
     1
 77
     6
 78
     2
 67
     7
 79
     5
170
     0
171
     0
290
     0
174
     0
 93
        1
 44
0.0
173
     0
291
     1
 45
0.0
  0
VISUALSTYLE
  5
270
102
{ACAD_REACTORS
330
267
102
}
330
267
100
AcDbVisualStyle
  2
Realistic
 70
     8
 71
     2
 72
     2
 73
     0
 90
        0
 40
-0.6
 41
-30.0
 62
     5
 63
     7
421
 16777215
 74
     1
 91
        0
 64
     7
 65
   257
 75
     1
175
     1
 42
1.0
 92
        8
 66
     8
424
  7895160
 43
1.0
 76
     1
 77
     6
 78
     2
 67
     7
 79
     5
170
     0
171
     0
290
     0
174
     0
 93
       13
 44
0.0
173
     0
291
     0
 45
0.0
  0
VISUALSTYLE
  5
903
102
{ACAD_REACTORS
330
267
102
}
330
267
100
AcDbVisualStyle
  2
Shaded
 70
    27
 71
     2
 72
     2
 73
     1
 90
        2
 40
0.6
 41
30.0
 62
     5
 63
     7
421
 16777215
 74
     0
 91
        4
 64
     7
 65
   257
 75
     1
175
     1
 42
1.0
 92
        8
 66
   257
 43
1.0
 76
     1
 77
     6
 78
     2
 67
     8
425
  7895160
 79
     3
170
     0
171
     0
290
     0
174
     0
 93
        5
 44
0.0
173
     0
291
     0
 45
0.0
  0
VISUALSTYLE
  5
902
102
{ACAD_REACTORS
330
267
102
}
330
267
100
AcDbVisualStyle
  2
Shaded with edges
 70
    26
 71
     2
 72
     2
 73
     1
 90
        2
 40
0.6
 41
30.0
 62
     5
 63
     7
421
 16777215
 74
     1
 91
       10
 64
     7
 65
   257
 75
     2
175
     1
 42
1.0
 92
        8
 66
   257
 43
1.0
 76
     1
 77
     6
 78
     2
 67
     7
 79
     3
170
     0
171
     0
290
     0
174
     0
 93
        5
 44
0.0
173
     0
291
     0
 45
0.0
  0
VISUALSTYLE
  5
8FF
102
{ACAD_REACTORS
330
267
102
}
330
267
100
AcDbVisualStyle
  2
Shades of Gray
 70
    23
 71
     2
 72
     2
 73
     3
 90
        0
 40
0.6
 41
30.0
 62
     5
 63
     7
421
 16777215
 74
     2
 91
        2
 64
     7
 65
     7
 75
     1
175
     1
 42
40.0
 92
        8
 66
     7
 43
1.0
 76
     1
 77
     6
 78
     2
 67
     7
 79
     3
170
     0
171
     0
290
     0
174
     0
 93
        1
 44
0.0
173
     0
291
     0
 45
0.0
  0
VISUALSTYLE
  5
900
102
{ACAD_REACTORS
330
267
102
}
330
267
100
AcDbVisualStyle
  2
Sketchy
 70
    24
 71
     1
 72
     2
 73
     2
 90
        0
 40
0.6
 41
30.0
 62
     5
 63
     7
421
 16777215
 74
     2
 91
        2
 64
     7
 65
     7
 75
     1
175
     1
 42
40.0
 92
       11
 66
     7
 43
1.0
 76
     1
 77
     6
 78
     2
 67
     7
 79
     6
170
     0
171
     0
290
     0
174
     0
 93
        1
 44
0.0
173
     0
291
     0
 45
0.0
  0
VISUALSTYLE
  5
274
102
{ACAD_REACTORS
330
267
102
}
330
267
100
AcDbVisualStyle
  2
Thicken
 70
    13
 71
     2
 72
     2
 73
     0
 90
        0
 40
-0.6
 41
-30.0
 62
     5
 63
     7
421
 16777215
 74
     1
 91
        4
 64
     7
 65
   257
 75
     1
175
     1
 42
1.0
 92
       12
 66
     7
 43
1.0
 76
     1
 77
     6
 78
     2
 67
     7
 79
     5
170
     0
171
     0
290
     0
174
     0
 93
        1
 44
0.0
173
     0
291
     1
 45
0.0
  0
VISUALSTYLE
  5
8FA
102
{ACAD_REACTORS
330
267
102
}
330
267
100
AcDbVisualStyle
  2
Wireframe
 70
     5
 71
     0
 72
     2
 73
     0
 90
        0
 40
0.6
 41
30.0
 62
     5
 63
     7
421
 16777215
 74
     1
 91
        4
 64
     7
 65
   257
 75
     1
175
     1
 42
1.0
 92
        0
 66
   257
 43
1.0
 76
     1
 77
     6
 78
     2
 67
     7
 79
     3
170
     0
171
     0
290
     0
174
     0
 93
        1
 44
0.0
173
     0
291
     0
 45
0.0
  0
VISUALSTYLE
  5
901
102
{ACAD_REACTORS
330
267
102
}
330
267
100
AcDbVisualStyle
  2
X-Ray
 70
    25
 71
     2
 72
     2
 73
     1
 90
        1
 40
0.5
 41
30.0
 62
     5
 63
     7
421
 16777215
 74
     1
 91
        0
 64
     7
 65
   257
 75
     1
175
     1
 42
1.0
 92
        8
 66
     7
 43
1.0
 76
     1
 77
     6
 78
     2
 67
     7
 79
     3
170
     0
171
     0
290
     0
174
     0
 93
       13
 44
0.0
173
     0
291
     0
 45
0.0
  0
DICTIONARYVAR
  5
331
102
{ACAD_REACTORS
330
330
102
}
330
330
100
DictionaryVariables
280
     0
  1
1:1
  0
DICTIONARYVAR
  5
DB1
102
{ACAD_REACTORS
330
330
102
}
330
330
100
DictionaryVariables
280
     0
  1
Standard
  0
DICTIONARYVAR
  5
335
102
{ACAD_REACTORS
330
330
102
}
330
330
100
DictionaryVariables
280
     0
  1
Standard
  0
DICTIONARYVAR
  5
D52
102
{ACAD_REACTORS
330
330
102
}
330
330
100
DictionaryVariables
280
     0
  1
ByLayer
  0
DICTIONARYVAR
  5
896
102
{ACAD_REACTORS
330
330
102
}
330
330
100
DictionaryVariables
280
     0
  1
0
  0
DICTIONARYVAR
  5
ECE
102
{ACAD_REACTORS
330
E3E
102
}
330
E3E
100
DictionaryVariables
280
     0
  1
0.261799
  0
DICTIONARYVAR
  5
ECC
102
{ACAD_REACTORS
330
E3E
102
}
330
E3E
100
DictionaryVariables
280
     0
  1
0.400000
  0
DICTIONARYVAR
  5
ECD
102
{ACAD_REACTORS
330
E3E
102
}
330
E3E
100
DictionaryVariables
280
     0
  1
0.250000
  0
DICTIONARYVAR
  5
ECF
102
{ACAD_REACTORS
330
E3E
102
}
330
E3E
100
DictionaryVariables
280
     0
  1
1
  0
FIELD
  5
1467
102
{ACAD_REACTORS
330
401A
102
}
330
401A
100
AcDbField
  1
_text
  2
{%<\_FldIdx 0>%N}
 90
        1
360
146B
 97
        0
 91
       63
 92
        0
 94
       11
 95
        2
 96
        0
300

 93
        1
  6
ACFD_FIELDTEXT_CHECKSUM
 93
        2
 90
        2
140
4449.0
 94
        0
300

302

304
ACVALUE_END
  7
ACFD_FIELD_VALUE
 93
        6
 90
        4
  1
{20211004N}
 94
        0
300

302

304
ACVALUE_END
301
{20211004N}
 98
       11
  0
DICTIONARY
  5
4152
330
279
100
AcDbDictionary
280
     1
281
     1
  3
ACAD_ROUNDTRIP_2008_TABLESTYLE_CELLSTYLEMAP
360
4153
  0
FIELD
  5
146B
330
1467
100
AcDbField
  1
AcVar
  2
\AcVar Date \f "yyyyMMdd"
 90
        0
 97
        0
 91
       63
 92
        0
 94
        8
 95
       64
 96
        0
300
Variable not supported
 93
        1
  6
Variable
 93
        2
 90
        4
  1
Date
 94
        0
300

302

304
ACVALUE_END
  7
ACFD_FIELD_VALUE
 93
        6
 90
        8
 92
       16
310
E5070A0000000400040033002C000000
 94
        0
300
yyyyMMdd
302

304
ACVALUE_END
301
20211004
 98
        8
  0
CELLSTYLEMAP
  5
4153
102
{ACAD_REACTORS
330
4152
102
}
330
4152
100
AcDbCellStyleMap
 90
        3
300
CELLSTYLE
  1
TABLEFORMAT_BEGIN
 90
        5
170
     1
 91
        0
 92
    32768
 62
   257
 93
        1
300
CONTENTFORMAT
  1
CONTENTFORMAT_BEGIN
 90
        0
 91
        0
 92
        4
 93
        0
300

 40
0.0
140
1.0
 94
        5
 62
     0
340
17
144
6.0
309
CONTENTFORMAT_END
171
     1
301
MARGIN
  1
CELLMARGIN_BEGIN
 40
0.06
 40
0.06
 40
0.06
 40
0.06
 40
0.18
 40
0.18
309
CELLMARGIN_END
 94
        6
 95
        1
302
GRIDFORMAT
  1
GRIDFORMAT_BEGIN
 90
        0
 91
        1
 62
     0
 92
       -2
340
0
 93
        0
 40
0.045
309
GRIDFORMAT_END
 95
        2
302
GRIDFORMAT
  1
GRIDFORMAT_BEGIN
 90
        0
 91
        1
 62
     0
 92
       -2
340
0
 93
        0
 40
0.045
309
GRIDFORMAT_END
 95
        4
302
GRIDFORMAT
  1
GRIDFORMAT_BEGIN
 90
        0
 91
        1
 62
     0
 92
       -2
340
0
 93
        0
 40
0.045
309
GRIDFORMAT_END
 95
        8
302
GRIDFORMAT
  1
GRIDFORMAT_BEGIN
 90
        0
 91
        1
 62
     0
 92
       -2
340
0
 93
        0
 40
0.045
309
GRIDFORMAT_END
 95
       16
302
GRIDFORMAT
  1
GRIDFORMAT_BEGIN
 90
        0
 91
        1
 62
     0
 92
       -2
340
0
 93
        0
 40
0.045
309
GRIDFORMAT_END
 95
       32
302
GRIDFORMAT
  1
GRIDFORMAT_BEGIN
 90
        0
 91
        1
 62
     0
 92
       -2
340
0
 93
        0
 40
0.045
309
GRIDFORMAT_END
309
TABLEFORMAT_END
  1
CELLSTYLE_BEGIN
 90
        1
 91
        1
300
_TITLE
309
CELLSTYLE_END
300
CELLSTYLE
  1
TABLEFORMAT_BEGIN
 90
        5
170
     1
 91
        0
 92
        0
 62
   257
 93
        1
300
CONTENTFORMAT
  1
CONTENTFORMAT_BEGIN
 90
        0
 91
        0
 92
        4
 93
        0
300

 40
0.0
140
1.0
 94
        5
 62
     0
340
17
144
4.5
309
CONTENTFORMAT_END
171
     1
301
MARGIN
  1
CELLMARGIN_BEGIN
 40
0.06
 40
0.06
 40
0.06
 40
0.06
 40
0.18
 40
0.18
309
CELLMARGIN_END
 94
        6
 95
        1
302
GRIDFORMAT
  1
GRIDFORMAT_BEGIN
 90
        0
 91
        1
 62
     0
 92
       -2
340
0
 93
        0
 40
0.045
309
GRIDFORMAT_END
 95
        2
302
GRIDFORMAT
  1
GRIDFORMAT_BEGIN
 90
        0
 91
        1
 62
     0
 92
       -2
340
0
 93
        0
 40
0.045
309
GRIDFORMAT_END
 95
        4
302
GRIDFORMAT
  1
GRIDFORMAT_BEGIN
 90
        0
 91
        1
 62
     0
 92
       -2
340
0
 93
        0
 40
0.045
309
GRIDFORMAT_END
 95
        8
302
GRIDFORMAT
  1
GRIDFORMAT_BEGIN
 90
        0
 91
        1
 62
     0
 92
       -2
340
0
 93
        0
 40
0.045
309
GRIDFORMAT_END
 95
       16
302
GRIDFORMAT
  1
GRIDFORMAT_BEGIN
 90
        0
 91
        1
 62
     0
 92
       -2
340
0
 93
        0
 40
0.045
309
GRIDFORMAT_END
 95
       32
302
GRIDFORMAT
  1
GRIDFORMAT_BEGIN
 90
        0
 91
        1
 62
     0
 92
       -2
340
0
 93
        0
 40
0.045
309
GRIDFORMAT_END
309
TABLEFORMAT_END
  1
CELLSTYLE_BEGIN
 90
        2
 91
        1
300
_HEADER
309
CELLSTYLE_END
300
CELLSTYLE
  1
TABLEFORMAT_BEGIN
 90
        5
170
     1
 91
        0
 92
        0
 62
   257
 93
        1
300
CONTENTFORMAT
  1
CONTENTFORMAT_BEGIN
 90
        0
 91
        0
 92
        4
 93
        0
300

 40
0.0
140
1.0
 94
        2
 62
     0
340
17
144
4.5
309
CONTENTFORMAT_END
171
     1
301
MARGIN
  1
CELLMARGIN_BEGIN
 40
0.06
 40
0.06
 40
0.06
 40
0.06
 40
0.18
 40
0.18
309
CELLMARGIN_END
 94
        6
 95
        1
302
GRIDFORMAT
  1
GRIDFORMAT_BEGIN
 90
        0
 91
        1
 62
     0
 92
       -2
340
0
 93
        0
 40
0.045
309
GRIDFORMAT_END
 95
        2
302
GRIDFORMAT
  1
GRIDFORMAT_BEGIN
 90
        0
 91
        1
 62
     0
 92
       -2
340
0
 93
        0
 40
0.045
309
GRIDFORMAT_END
 95
        4
302
GRIDFORMAT
  1
GRIDFORMAT_BEGIN
 90
        0
 91
        1
 62
     0
 92
       -2
340
0
 93
        0
 40
0.045
309
GRIDFORMAT_END
 95
        8
302
GRIDFORMAT
  1
GRIDFORMAT_BEGIN
 90
        0
 91
        1
 62
     0
 92
       -2
340
0
 93
        0
 40
0.045
309
GRIDFORMAT_END
 95
       16
302
GRIDFORMAT
  1
GRIDFORMAT_BEGIN
 90
        0
 91
        1
 62
     0
 92
       -2
340
0
 93
        0
 40
0.045
309
GRIDFORMAT_END
 95
       32
302
GRIDFORMAT
  1
GRIDFORMAT_BEGIN
 90
        0
 91
        1
 62
     0
 92
       -2
340
0
 93
        0
 40
0.045
309
GRIDFORMAT_END
309
TABLEFORMAT_END
  1
CELLSTYLE_BEGIN
 90
        3
 91
        2
300
_DATA
309
CELLSTYLE_END
  0
ENDSEC
  0
EOF
