  0
SECTION
  2
HEADER
  9
$ACADVER
  1
AC1021
  9
$ACADMAINTVER
 70
    25
  9
$DWGCODEPAGE
  3
ANSI_932
  9
$LASTSAVEDBY
  1
tform
  9
$INSBASE
 10
0.0
 20
0.0
 30
0.0
  9
$EXTMIN
 10
0.0
 20
0.0
 30
-0.0000000000000142
  9
$EXTMAX
 10
2100.0
 20
2970.0
 30
34.99521132346014
  9
$LIMMIN
 10
0.0
 20
0.0
  9
$LIMMAX
 10
2100.0
 20
2970.0
  9
$ORTHOMODE
 70
     1
  9
$REGENMODE
 70
     1
  9
$FILLMODE
 70
     1
  9
$QTEXTMODE
 70
     0
  9
$MIRRTEXT
 70
     1
  9
$LTSCALE
 40
5.0
  9
$ATTMODE
 70
     1
  9
$TEXTSIZE
 40
2.5
  9
$TRACEWID
 40
1.0
  9
$TEXTSTYLE
  7
ＭＳ ゴシック
  9
$CLAYER
  8
MODEL
  9
$CELTYPE
  6
ByLayer
  9
$CECOLOR
 62
   256
  9
$CELTSCALE
 40
1.0
  9
$DISPSILH
 70
     0
  9
$DIMSCALE
 40
1.0
  9
$DIMASZ
 40
10.0
  9
$DIMEXO
 40
30.0
  9
$DIMDLI
 40
0.9999999999999999
  9
$DIMRND
 40
0.0
  9
$DIMDLE
 40
0.0
  9
$DIMEXE
 40
0.0
  9
$DIMTP
 40
0.0
  9
$DIMTM
 40
0.0
  9
$DIMTXT
 40
24.0
  9
$DIMCEN
 40
0.0
  9
$DIMTSZ
 40
0.0
  9
$DIMTOL
 70
     0
  9
$DIMLIM
 70
     0
  9
$DIMTIH
 70
     0
  9
$DIMTOH
 70
     0
  9
$DIMSE1
 70
     0
  9
$DIMSE2
 70
     0
  9
$DIMTAD
 70
     1
  9
$DIMZIN
 70
    11
  9
$DIMBLK
  1
DOT
  9
$DIMASO
 70
     1
  9
$DIMSHO
 70
     1
  9
$DIMPOST
  1
<>
  9
$DIMAPOST
  1
[]
  9
$DIMALT
 70
     0
  9
$DIMALTD
 70
     1
  9
$DIMALTF
 40
1.0
  9
$DIMLFAC
 40
1.0
  9
$DIMTOFL
 70
     0
  9
$DIMTVP
 40
0.0
  9
$DIMTIX
 70
     1
  9
$DIMSOXD
 70
     0
  9
$DIMSAH
 70
     0
  9
$DIMBLK1
  1

  9
$DIMBLK2
  1

  9
$DIMSTYLE
  2
tfrom線あり
  9
$DIMCLRD
 70
     0
  9
$DIMCLRE
 70
     0
  9
$DIMCLRT
 70
     0
  9
$DIMTFAC
 40
1.0
  9
$DIMGAP
 40
20.0
  9
$DIMJUST
 70
     0
  9
$DIMSD1
 70
     0
  9
$DIMSD2
 70
     0
  9
$DIMTOLJ
 70
     1
  9
$DIMTZIN
 70
    11
  9
$DIMALTZ
 70
    11
  9
$DIMALTTZ
 70
    11
  9
$DIMUPT
 70
     0
  9
$DIMDEC
 70
     0
  9
$DIMTDEC
 70
     1
  9
$DIMALTU
 70
     2
  9
$DIMALTTD
 70
     2
  9
$DIMTXSTY
  7
ＭＳ ゴシック
  9
$DIMAUNIT
 70
     0
  9
$DIMADEC
 70
     2
  9
$DIMALTRND
 40
0.0
  9
$DIMAZIN
 70
     0
  9
$DIMDSEP
 70
    46
  9
$DIMATFIT
 70
     0
  9
$DIMFRAC
 70
     2
  9
$DIMLDRBLK
  1
DOT
  9
$DIMLUNIT
 70
     2
  9
$DIMLWD
 70
    -2
  9
$DIMLWE
 70
    -2
  9
$DIMTMOVE
 70
     0
  9
$DIMFXL
 40
1.0
  9
$DIMFXLON
 70
     0
  9
$DIMJOGANG
 40
0.7853981633974483
  9
$DIMTFILL
 70
     0
  9
$DIMTFILLCLR
 70
     0
  9
$DIMARCSYM
 70
     0
  9
$DIMLTYPE
  6

  9
$DIMLTEX1
  6

  9
$DIMLTEX2
  6

  9
$LUNITS
 70
     2
  9
$LUPREC
 70
     0
  9
$SKETCHINC
 40
0.1
  9
$FILLETRAD
 40
0.0
  9
$AUNITS
 70
     0
  9
$AUPREC
 70
     0
  9
$MENU
  1
acad
  9
$ELEVATION
 40
0.0
  9
$PELEVATION
 40
0.0
  9
$THICKNESS
 40
0.0
  9
$LIMCHECK
 70
     0
  9
$CHAMFERA
 40
0.0
  9
$CHAMFERB
 40
0.0
  9
$CHAMFERC
 40
0.0
  9
$CHAMFERD
 40
0.0
  9
$SKPOLY
 70
     0
  9
$TDCREATE
 40
2447893.375
  9
$TDUCREATE
 40
0.0
  9
$TDUPDATE
 40
2459493.695639097
  9
$TDUUPDATE
 40
2459493.320639097
  9
$TDINDWG
 40
0.3565783796
  9
$TDUSRTIMER
 40
0.0025460069
  9
$USRTIMER
 70
     1
  9
$ANGBASE
 50
0.0
  9
$ANGDIR
 70
     0
  9
$PDMODE
 70
     1
  9
$PDSIZE
 40
-2.0
  9
$PLINEWID
 40
0.0
  9
$SPLFRAME
 70
     0
  9
$SPLINETYPE
 70
     6
  9
$SPLINESEGS
 70
     8
  9
$HANDSEED
  5
479E
  9
$SURFTAB1
 70
     6
  9
$SURFTAB2
 70
     6
  9
$SURFTYPE
 70
     6
  9
$SURFU
 70
     6
  9
$SURFV
 70
     6
  9
$UCSBASE
  2

  9
$UCSNAME
  2

  9
$UCSORG
 10
0.0
 20
0.0
 30
0.0
  9
$UCSXDIR
 10
1.0
 20
0.0
 30
0.0
  9
$UCSYDIR
 10
0.0
 20
1.0
 30
0.0
  9
$UCSORTHOREF
  2

  9
$UCSORTHOVIEW
 70
     0
  9
$UCSORGTOP
 10
0.0
 20
0.0
 30
0.0
  9
$UCSORGBOTTOM
 10
0.0
 20
0.0
 30
0.0
  9
$UCSORGLEFT
 10
0.0
 20
0.0
 30
0.0
  9
$UCSORGRIGHT
 10
0.0
 20
0.0
 30
0.0
  9
$UCSORGFRONT
 10
0.0
 20
0.0
 30
0.0
  9
$UCSORGBACK
 10
0.0
 20
0.0
 30
0.0
  9
$PUCSBASE
  2

  9
$PUCSNAME
  2

  9
$PUCSORG
 10
0.0
 20
0.0
 30
0.0
  9
$PUCSXDIR
 10
1.0
 20
0.0
 30
0.0
  9
$PUCSYDIR
 10
0.0
 20
1.0
 30
0.0
  9
$PUCSORTHOREF
  2

  9
$PUCSORTHOVIEW
 70
     0
  9
$PUCSORGTOP
 10
0.0
 20
0.0
 30
0.0
  9
$PUCSORGBOTTOM
 10
0.0
 20
0.0
 30
0.0
  9
$PUCSORGLEFT
 10
0.0
 20
0.0
 30
0.0
  9
$PUCSORGRIGHT
 10
0.0
 20
0.0
 30
0.0
  9
$PUCSORGFRONT
 10
0.0
 20
0.0
 30
0.0
  9
$PUCSORGBACK
 10
0.0
 20
0.0
 30
0.0
  9
$USERI1
 70
     0
  9
$USERI2
 70
     0
  9
$USERI3
 70
     0
  9
$USERI4
 70
     0
  9
$USERI5
 70
     0
  9
$USERR1
 40
0.0
  9
$USERR2
 40
0.0
  9
$USERR3
 40
0.0
  9
$USERR4
 40
0.0
  9
$USERR5
 40
0.0
  9
$WORLDVIEW
 70
     1
  9
$SHADEDGE
 70
     3
  9
$SHADEDIF
 70
    70
  9
$TILEMODE
 70
     1
  9
$MAXACTVP
 70
    64
  9
$PINSBASE
 10
0.0
 20
0.0
 30
0.0
  9
$PLIMCHECK
 70
     0
  9
$PEXTMIN
 10
0.0
 20
0.0
 30
0.0
  9
$PEXTMAX
 10
0.0
 20
0.0
 30
0.0
  9
$PLIMMIN
 10
-7.5
 20
-20.0
  9
$PLIMMAX
 10
412.5
 20
277.0
  9
$UNITMODE
 70
     0
  9
$VISRETAIN
 70
     0
  9
$PLINEGEN
 70
     1
  9
$PSLTSCALE
 70
     0
  9
$TREEDEPTH
 70
  3020
  9
$CMLSTYLE
  2
Standard
  9
$CMLJUST
 70
     0
  9
$CMLSCALE
 40
1.0
  9
$PROXYGRAPHICS
 70
     0
  9
$MEASUREMENT
 70
     1
  9
$CELWEIGHT
370
    -1
  9
$ENDCAPS
280
     0
  9
$JOINSTYLE
280
     0
  9
$LWDISPLAY
290
     1
  9
$INSUNITS
 70
     4
  9
$HYPERLINKBASE
  1

  9
$STYLESHEET
  1

  9
$XEDIT
290
     1
  9
$CEPSNTYPE
380
     0
  9
$PSTYLEMODE
290
     1
  9
$FINGERPRINTGUID
  2

  9
$VERSIONGUID
  2

  9
$EXTNAMES
290
     1
  9
$PSVPSCALE
 40
0.0
  9
$OLESTARTUP
290
     0
  9
$SORTENTS
280
   127
  9
$INDEXCTL
280
     0
  9
$HIDETEXT
280
     1
  9
$XCLIPFRAME
290
     0
  9
$HALOGAP
280
     0
  9
$OBSCOLOR
 70
   257
  9
$OBSLTYPE
280
     0
  9
$INTERSECTIONDISPLAY
280
     0
  9
$INTERSECTIONCOLOR
 70
   257
  9
$DIMASSOC
280
     2
  9
$PROJECTNAME
  1

  9
$CAMERADISPLAY
290
     0
  9
$LENSLENGTH
 40
50.0
  9
$CAMERAHEIGHT
 40
0.0
  9
$STEPSPERSEC
 40
2.0
  9
$STEPSIZE
 40
6.0
  9
$3DDWFPREC
 40
2.0
  9
$PSOLWIDTH
 40
0.25
  9
$PSOLHEIGHT
 40
4.0
  9
$LOFTANG1
 40
1.570796326794897
  9
$LOFTANG2
 40
1.570796326794897
  9
$LOFTMAG1
 40
0.0
  9
$LOFTMAG2
 40
0.0
  9
$LOFTPARAM
 70
     7
  9
$LOFTNORMALS
280
     1
  9
$LATITUDE
 40
37.795
  9
$LONGITUDE
 40
-122.394
  9
$NORTHDIRECTION
 40
0.0
  9
$TIMEZONE
 70
 -8000
  9
$LIGHTGLYPHDISPLAY
280
     1
  9
$TILEMODELIGHTSYNCH
280
     1
  9
$SOLIDHIST
280
     1
  9
$SHOWHIST
280
     1
  9
$DWFFRAME
280
     2
  9
$DGNFRAME
280
     2
  9
$REALWORLDSCALE
290
     1
  9
$INTERFERECOLOR
 62
   256
  9
$CSHADOW
280
     0
  9
$SHADOWPLANELOCATION
 40
0.0
  0
ENDSEC
  0
SECTION
  2
CLASSES
  0
CLASS
  1
LWPOLYLINE
  2
AcDbPolyline
  3
ObjectDBX Classes
 90
        0
 91
        1
280
     0
281
     1
  0
CLASS
  1
IMAGE
  2
AcDbRasterImage
  3
ISM
 90
      127
 91
        4
280
     0
281
     1
  0
CLASS
  1
OLE2FRAME
  2
AcDbOle2Frame
  3
ObjectDBX Classes
 90
        0
 91
        1
280
     0
281
     1
  0
CLASS
  1
HATCH
  2
AcDbHatch
  3
ObjectDBX Classes
 90
        0
 91
        1
280
     0
281
     1
  0
CLASS
  1
DICTIONARYVAR
  2
AcDbDictionaryVar
  3
ObjectDBX Classes
 90
        0
 91
        3
280
     0
281
     0
  0
CLASS
  1
RASTERVARIABLES
  2
AcDbRasterVariables
  3
ISM
 90
        0
 91
        3
280
     0
281
     0
  0
CLASS
  1
IMAGEDEF
  2
AcDbRasterImageDef
  3
ISM
 90
        0
 91
        3
280
     0
281
     0
  0
CLASS
  1
IMAGEDEF_REACTOR
  2
AcDbRasterImageDefReactor
  3
ISM
 90
        1
 91
        3
280
     0
281
     0
  0
CLASS
  1
IDBUFFER
  2
AcDbIdBuffer
  3
ObjectDBX Classes
 90
        0
 91
        3
280
     0
281
     0
  0
CLASS
  1
SPATIAL_FILTER
  2
AcDbSpatialFilter
  3
ObjectDBX Classes
 90
        0
 91
        3
280
     0
281
     0
  0
CLASS
  1
XRECORD
  2
AcDbXrecord
  3
ObjectDBX Classes
 90
        0
 91
        1
280
     0
281
     0
  0
CLASS
  1
SORTENTSTABLE
  2
AcDbSortentsTable
  3
ObjectDBX Classes
 90
        0
 91
        3
280
     0
281
     0
  0
CLASS
  1
LAYER_INDEX
  2
AcDbLayerIndex
  3
ObjectDBX Classes
 90
        0
 91
        3
280
     0
281
     0
  0
CLASS
  1
SPATIAL_INDEX
  2
AcDbSpatialIndex
  3
AutoCAD 2000
 90
        0
 91
        3
280
     0
281
     0
  0
CLASS
  1
OBJECT_PTR
  2
CAseDLPNTableRecord
  3
ASE-LPNTableRecord
 90
        1
 91
        3
280
     0
281
     0
  0
CLASS
  1
LAYOUT
  2
AcDbLayout
  3
ObjectDBX Classes
 90
        0
 91
        1
280
     0
281
     0
  0
CLASS
  1
PLOTSETTINGS
  2
AcDbPlotSettings
  3
ObjectDBX Classes
 90
        0
 91
        3
280
     0
281
     0
  0
CLASS
  1
ACDBDICTIONARYWDFLT
  2
AcDbDictionaryWithDefault
  3
ObjectDBX Classes
 90
        0
 91
        3
280
     0
281
     0
  0
CLASS
  1
ACDBPLACEHOLDER
  2
AcDbPlaceHolder
  3
ObjectDBX Classes
 90
        0
 91
        1
280
     0
281
     0
  0
CLASS
  1
SCALE
  2
AcDbScale
  3
ObjectDBX Classes
 90
     1153
 91
        3
280
     0
281
     0
  0
CLASS
  1
MATERIAL
  2
AcDbMaterial
  3
ObjectDBX Classes
 90
     1153
 91
        3
280
     0
281
     0
  0
CLASS
  1
VISUALSTYLE
  2
AcDbVisualStyle
  3
ObjectDBX Classes
 90
     4095
 91
        3
280
     0
281
     0
  0
CLASS
  1
TABLESTYLE
  2
AcDbTableStyle
  3
ObjectDBX Classes
 90
     4095
 91
        3
280
     0
281
     0
  0
CLASS
  1
DIMASSOC
  2
AcDbDimAssoc
  3
"AcDbDimAssoc|Product Desc:     AcDim ARX App For Dimension|Company:          Autodesk, Inc.|WEB Address:      www.autodesk.com"
 90
        0
 91
        3
280
     0
281
     0
  0
CLASS
  1
CELLSTYLEMAP
  2
AcDbCellStyleMap
  3
ObjectDBX Classes
 90
     1152
 91
        3
280
     0
281
     0
  0
CLASS
  1
SUN
  2
AcDbSun
  3
SCENEOE
 90
     1153
 91
        3
280
     0
281
     0
  0
CLASS
  1
MLEADERSTYLE
  2
AcDbMLeaderStyle
  3
ACDB_MLEADERSTYLE_CLASS
 90
     4095
 91
        3
280
     0
281
     0
  0
CLASS
  1
FIELD
  2
AcDbField
  3
ObjectDBX Classes
 90
     1152
 91
        3
280
     0
281
     0
  0
CLASS
  1
FIELDLIST
  2
AcDbFieldList
  3
ObjectDBX Classes
 90
     1152
 91
        3
280
     0
281
     0
  0
CLASS
  1
MULTILEADER
  2
AcDbMLeader
  3
ACDB_MLEADER_CLASS
 90
     1025
 91
        3
280
     0
281
     1
  0
ENDSEC
  0
SECTION
  2
TABLES
  0
TABLE
  2
VPORT
  5
7
330
0
100
AcDbSymbolTable
 70
     1
  0
VPORT
  5
15
330
7
100
AcDbSymbolTableRecord
100
AcDbViewportTableRecord
  2
*ACTIVE
 70
     0
 10
0.0
 20
0.0
 11
1.0
 21
1.0
 12
1141.020135670895
 22
1411.401285469834
 13
0.0
 23
0.0
 14
1.0
 24
1.0
 15
0.0
 25
0.0
 16
0.0
 26
0.0
 36
1.0
 17
-91.02013567089489
 27
73.59871453016603
 37
-46.86809886248109
 40
3029.4
 41
2.333333333333333
 42
50.0
 43
0.0
 44
0.0
 50
0.0
 51
0.0
 71
    16
 72
  2000
 73
     1
 74
     1
 75
     1
 76
     0
 77
     0
 78
     0
281
     0
 65
     1
110
0.0
120
0.0
130
0.0
111
1.0
121
0.0
131
0.0
112
0.0
122
1.0
132
0.0
 79
     0
146
0.0
348
26C
 60
     3
 61
     5
292
     1
282
     1
141
0.0
142
0.0
 63
   256
361
904
  0
ENDTAB
  0
TABLE
  2
LTYPE
  5
4
330
0
100
AcDbSymbolTable
 70
     5
  0
LTYPE
  5
11
330
4
100
AcDbSymbolTableRecord
100
AcDbLinetypeTableRecord
  2
ByBlock
 70
     0
  3

 72
    65
 73
     0
 40
0.0
  0
LTYPE
  5
12
330
4
100
AcDbSymbolTableRecord
100
AcDbLinetypeTableRecord
  2
ByLayer
 70
     0
  3

 72
    65
 73
     0
 40
0.0
  0
LTYPE
  5
13
330
4
100
AcDbSymbolTableRecord
100
AcDbLinetypeTableRecord
  2
Continuous
 70
     0
  3
Solid line
 72
    65
 73
     0
 40
0.0
  0
LTYPE
  5
DAF
330
4
100
AcDbSymbolTableRecord
100
AcDbLinetypeTableRecord
  2
BORDER
 70
     0
  3
Border __  __  . __  __  . __  __  . __  __  . 
 72
    65
 73
     6
 40
44.45
 49
12.7
 74
     0
 49
-6.35
 74
     0
 49
12.7
 74
     0
 49
-6.35
 74
     0
 49
0.0
 74
     0
 49
-6.35
 74
     0
  0
LTYPE
  5
33DD
330
4
100
AcDbSymbolTableRecord
100
AcDbLinetypeTableRecord
  2
HIDDEN
 70
     0
  3
Hidden _ _ _ _ _ _ _ _ _ _ _ _ _ _ _ _ _ _ _ _ 
 72
    65
 73
     2
 40
9.524999999999999
 49
6.35
 74
     0
 49
-3.175
 74
     0
  0
LTYPE
  5
3B84
330
4
100
AcDbSymbolTableRecord
100
AcDbLinetypeTableRecord
  2
HIDDEN2
 70
     0
  3
Hidden (.5x) _ _ _ _ _ _ _ _ _ _ _ _ _ _ _ _ _ 
 72
    65
 73
     2
 40
4.762499999999999
 49
3.175
 74
     0
 49
-1.5875
 74
     0
  0
LTYPE
  5
3EB8
330
4
100
AcDbSymbolTableRecord
100
AcDbLinetypeTableRecord
  2
CENTER
 70
     0
  3
 Center _____  _  _____  _  _____  _  _____  _ 
 72
    65
 73
     4
 40
50.8
 49
31.75
 74
     0
 49
-6.35
 74
     0
 49
6.35
 74
     0
 49
-6.35
 74
     0
  0
ENDTAB
  0
TABLE
  2
LAYER
  5
2
102
{ACAD_XDICTIONARY
360
2E1
102
}
330
0
100
AcDbSymbolTable
 70
    10
  0
LAYER
  5
14
330
2
100
AcDbSymbolTableRecord
100
AcDbLayerTableRecord
  2
0
 70
     0
 62
     7
  6
Continuous
370
    -3
390
1D
347
266
  0
LAYER
  5
4B
330
2
100
AcDbSymbolTableRecord
100
AcDbLayerTableRecord
  2
TEMPLATE
 70
     0
 62
     7
  6
Continuous
370
    20
390
1D
347
266
  0
LAYER
  5
4C
330
2
100
AcDbSymbolTableRecord
100
AcDbLayerTableRecord
  2
DIM
 70
     0
 62
     3
  6
Continuous
370
    13
390
1D
347
266
  0
LAYER
  5
4D
330
2
100
AcDbSymbolTableRecord
100
AcDbLayerTableRecord
  2
MODEL
 70
     0
 62
     7
  6
Continuous
370
    20
390
1D
347
266
  0
LAYER
  5
D5D
330
2
100
AcDbSymbolTableRecord
100
AcDbLayerTableRecord
  2
Defpoints
 70
     0
 62
     7
  6
Continuous
290
     0
370
    -3
390
1D
347
266
  0
LAYER
  5
DAE
330
2
100
AcDbSymbolTableRecord
100
AcDbLayerTableRecord
  2
BORDER
 70
     0
 62
     4
  6
BORDER
290
     0
370
    20
390
1D
347
266
1001
AcAecLayerStandard
1000

1000

  0
LAYER
  5
157B
330
2
100
AcDbSymbolTableRecord
100
AcDbLayerTableRecord
  2
Layer3
 70
     0
 62
     7
  6
Continuous
370
    -3
390
1D
347
266
  0
LAYER
  5
157F
330
2
100
AcDbSymbolTableRecord
100
AcDbLayerTableRecord
  2
Layer9
 70
     0
 62
     7
  6
Continuous
370
    -3
390
1D
347
266
  0
LAYER
  5
1582
330
2
100
AcDbSymbolTableRecord
100
AcDbLayerTableRecord
  2
Standard
 70
     0
 62
     7
  6
Continuous
370
    -3
390
1D
347
266
  0
LAYER
  5
33DC
330
2
100
AcDbSymbolTableRecord
100
AcDbLayerTableRecord
  2
HIDDEN
 70
     0
 62
     8
  6
HIDDEN
370
    20
390
1D
347
266
1001
AcAecLayerStandard
1000

1000

  0
ENDTAB
  0
TABLE
  2
STYLE
  5
3
330
0
100
AcDbSymbolTable
 70
     2
  0
STYLE
  5
17
330
3
100
AcDbSymbolTableRecord
100
AcDbTextStyleTableRecord
  2
Standard
 70
     0
 40
0.0
 41
1.0
 50
0.0
 71
     0
 42
2.5
  3
txt
  4
BIGFONT.SHX
  0
STYLE
  5
39
330
3
100
AcDbSymbolTableRecord
100
AcDbTextStyleTableRecord
  2
ＭＳ ゴシック
 70
     0
 40
0.0
 41
1.0
 50
0.0
 71
     0
 42
2.5
  3
msgothic.ttc
  4
ＭＳ ゴシック
1001
ACAD
1000
ＭＳ ゴシック
1071
        0
  0
ENDTAB
  0
TABLE
  2
VIEW
  5
5
330
0
100
AcDbSymbolTable
 70
     0
  0
ENDTAB
  0
TABLE
  2
UCS
  5
6
330
0
100
AcDbSymbolTable
 70
     0
  0
ENDTAB
  0
TABLE
  2
APPID
  5
8
330
0
100
AcDbSymbolTable
 70
    14
  0
APPID
  5
16
330
8
100
AcDbSymbolTableRecord
100
AcDbRegAppTableRecord
  2
ACAD
 70
     0
  0
APPID
  5
7AC
330
8
100
AcDbSymbolTableRecord
100
AcDbRegAppTableRecord
  2
AcAecLayerStandard
 70
     0
  0
APPID
  5
F3A
330
8
100
AcDbSymbolTableRecord
100
AcDbRegAppTableRecord
  2
ACAD_MLEADERVER
 70
     0
  0
APPID
  5
37B5
330
8
100
AcDbSymbolTableRecord
100
AcDbRegAppTableRecord
  2
RAK
 70
     0
  0
APPID
  5
37BE
330
8
100
AcDbSymbolTableRecord
100
AcDbRegAppTableRecord
  2
ACAD_DSTYLE_DIMJAG
 70
     0
  0
APPID
  5
37BF
330
8
100
AcDbSymbolTableRecord
100
AcDbRegAppTableRecord
  2
ACAD_DSTYLE_DIMTALN
 70
     0
  0
APPID
  5
37C0
330
8
100
AcDbSymbolTableRecord
100
AcDbRegAppTableRecord
  2
ACAD_PSEXT
 70
     0
  0
APPID
  5
37C1
330
8
100
AcDbSymbolTableRecord
100
AcDbRegAppTableRecord
  2
AcLayerTools
 70
     0
  0
APPID
  5
37C2
330
8
100
AcDbSymbolTableRecord
100
AcDbRegAppTableRecord
  2
ACAD_NAV_VCDISPLAY
 70
     0
  0
APPID
  5
37C3
330
8
100
AcDbSymbolTableRecord
100
AcDbRegAppTableRecord
  2
GradientColor1ACI
 70
     0
  0
APPID
  5
37C4
330
8
100
AcDbSymbolTableRecord
100
AcDbRegAppTableRecord
  2
GradientColor2ACI
 70
     0
  0
APPID
  5
4088
330
8
100
AcDbSymbolTableRecord
100
AcDbRegAppTableRecord
  2
PLOTTRANSPARENCY
 70
     0
  0
APPID
  5
40A9
330
8
100
AcDbSymbolTableRecord
100
AcDbRegAppTableRecord
  2
HATCHBACKGROUNDCOLOR
 70
     0
  0
APPID
  5
4114
330
8
100
AcDbSymbolTableRecord
100
AcDbRegAppTableRecord
  2
ACAD_DSTYLE_DIMJOGGED_JOGANGLE_SYMBOL
 70
     0
  0
ENDTAB
  0
TABLE
  2
DIMSTYLE
  5
9
330
0
100
AcDbSymbolTable
 70
     1
100
AcDbDimStyleTable
  0
DIMSTYLE
105
57
102
{ACAD_REACTORS
330
45FE
330
46C1
330
46D0
330
46E4
330
46F6
330
4705
330
4714
330
4732
330
4741
330
4750
330
4761
330
4789
102
}
330
9
100
AcDbSymbolTableRecord
100
AcDbDimStyleTableRecord
  2
tfrom線あり
 70
     0
  3
<>
  4
[]
 41
10.0
 42
30.0
 43
0.9999999999999999
 44
0.0
 73
     0
 74
     0
 77
     1
 78
    11
140
24.0
141
0.0
143
1.0
147
20.0
171
     1
174
     1
178
     0
179
     2
271
     0
272
     1
276
     2
284
    11
285
    11
286
    11
289
     0
340
39
341
4E
342
4E
  0
ENDTAB
  0
TABLE
  2
BLOCK_RECORD
  5
1
330
0
100
AcDbSymbolTable
 70
    17
  0
BLOCK_RECORD
  5
A
102
{ACAD_XDICTIONARY
360
374D
102
}
330
1
100
AcDbSymbolTableRecord
100
AcDbBlockTableRecord
  2
*MODEL_SPACE
340
20
 70
     0
280
     1
281
     0
  0
BLOCK_RECORD
  5
B
330
1
100
AcDbSymbolTableRecord
100
AcDbBlockTableRecord
  2
*PAPER_SPACE
340
21
 70
     0
280
     1
281
     0
  0
BLOCK_RECORD
  5
4E
330
1
100
AcDbSymbolTableRecord
100
AcDbBlockTableRecord
  2
_DOT
340
0
102
{BLKREFS
331
4607
331
4608
331
46CA
331
46CB
331
46DC
331
46DD
331
46ED
331
46EE
331
46FF
331
4700
331
470E
331
470F
331
471D
331
471E
331
472C
331
472D
331
473B
331
473C
331
474A
331
474B
331
4759
331
475A
331
476A
331
476B
331
44FE
331
44FF
331
4504
331
4505
331
450A
331
450B
331
4512
331
4513
331
46A7
331
46A8
331
4793
331
4792
102
}
 70
     0
280
     1
281
     0
  0
BLOCK_RECORD
  5
68D
330
1
100
AcDbSymbolTableRecord
100
AcDbBlockTableRecord
  2
block 2
340
0
102
{BLKREFS
331
68C
102
}
 70
     0
280
     1
281
     0
  0
BLOCK_RECORD
  5
199A
330
1
100
AcDbSymbolTableRecord
100
AcDbBlockTableRecord
  2
SEANNOT_GROUP
340
0
102
{BLKREFS
331
28CA
102
}
 70
     0
280
     1
281
     0
  0
BLOCK_RECORD
  5
1F2F
330
1
100
AcDbSymbolTableRecord
100
AcDbBlockTableRecord
  2
SEANNOT_GROUP1
340
0
102
{BLKREFS
331
2B9B
102
}
 70
     0
280
     1
281
     0
  0
BLOCK_RECORD
  5
4601
330
1
100
AcDbSymbolTableRecord
100
AcDbBlockTableRecord
  2
*D4
340
0
 70
     0
280
     1
281
     0
  0
BLOCK_RECORD
  5
46C4
330
1
100
AcDbSymbolTableRecord
100
AcDbBlockTableRecord
  2
*D5
340
0
 70
     0
280
     1
281
     0
  0
BLOCK_RECORD
  5
46D3
330
1
100
AcDbSymbolTableRecord
100
AcDbBlockTableRecord
  2
*D6
340
0
 70
     0
280
     1
281
     0
  0
BLOCK_RECORD
  5
46E7
330
1
100
AcDbSymbolTableRecord
100
AcDbBlockTableRecord
  2
*D7
340
0
 70
     0
280
     1
281
     0
  0
BLOCK_RECORD
  5
46F9
330
1
100
AcDbSymbolTableRecord
100
AcDbBlockTableRecord
  2
*D8
340
0
 70
     0
280
     1
281
     0
  0
BLOCK_RECORD
  5
4708
330
1
100
AcDbSymbolTableRecord
100
AcDbBlockTableRecord
  2
*D9
340
0
 70
     0
280
     1
281
     0
  0
BLOCK_RECORD
  5
4717
330
1
100
AcDbSymbolTableRecord
100
AcDbBlockTableRecord
  2
*D10
340
0
 70
     0
280
     1
281
     0
  0
BLOCK_RECORD
  5
4726
330
1
100
AcDbSymbolTableRecord
100
AcDbBlockTableRecord
  2
*D11
340
0
 70
     0
280
     1
281
     0
  0
BLOCK_RECORD
  5
4735
330
1
100
AcDbSymbolTableRecord
100
AcDbBlockTableRecord
  2
*D12
340
0
 70
     0
280
     1
281
     0
  0
BLOCK_RECORD
  5
4744
330
1
100
AcDbSymbolTableRecord
100
AcDbBlockTableRecord
  2
*D13
340
0
 70
     0
280
     1
281
     0
  0
BLOCK_RECORD
  5
4753
330
1
100
AcDbSymbolTableRecord
100
AcDbBlockTableRecord
  2
*D14
340
0
 70
     0
280
     1
281
     0
  0
BLOCK_RECORD
  5
4764
330
1
100
AcDbSymbolTableRecord
100
AcDbBlockTableRecord
  2
*D15
340
0
 70
     0
280
     1
281
     0
  0
BLOCK_RECORD
  5
478C
330
1
100
AcDbSymbolTableRecord
100
AcDbBlockTableRecord
  2
*D16
340
0
 70
     0
280
     1
281
     0
  0
ENDTAB
  0
ENDSEC
  0
SECTION
  2
BLOCKS
  0
BLOCK
  5
D
330
A
100
AcDbEntity
  8
0
390
1D
100
AcDbBlockBegin
  2
*MODEL_SPACE
 70
     0
 10
0.0
 20
0.0
 30
0.0
  3
*MODEL_SPACE
  1
*MODEL_SPACE
  0
ENDBLK
  5
E
330
A
100
AcDbEntity
  8
0
390
1D
100
AcDbBlockEnd
  0
BLOCK
  5
F
330
B
100
AcDbEntity
 67
     1
  8
0
390
1D
100
AcDbBlockBegin
  2
*PAPER_SPACE
 70
     0
 10
0.0
 20
0.0
 30
0.0
  3
*PAPER_SPACE
  1
*PAPER_SPACE
  0
ENDBLK
  5
10
330
B
100
AcDbEntity
 67
     1
  8
0
390
1D
100
AcDbBlockEnd
  0
BLOCK
  5
EC4
330
4E
100
AcDbEntity
  8
0
390
1D
100
AcDbBlockBegin
  2
_DOT
 70
     0
 10
0.0
 20
0.0
 30
0.0
  3
_DOT
  1
_DOT
  0
POLYLINE
  5
EC6
330
4E
100
AcDbEntity
  8
0
  6
ByBlock
 62
     0
370
    -2
390
1D
100
AcDb2dPolyline
 66
     1
 10
0.0
 20
0.0
 30
0.0
 70
     1
 40
0.5
 41
0.5
  0
VERTEX
  5
EC7
330
EC6
100
AcDbEntity
  8
0
  6
ByBlock
 62
     0
370
    -2
390
1D
100
AcDbVertex
100
AcDb2dVertex
 10
-0.25
 20
0.0
 30
0.0
 42
1.0
  0
VERTEX
  5
EC8
330
EC6
100
AcDbEntity
  8
0
  6
ByBlock
 62
     0
370
    -2
390
1D
100
AcDbVertex
100
AcDb2dVertex
 10
0.25
 20
0.0
 30
0.0
 42
1.0
  0
SEQEND
  5
EC9
330
EC6
100
AcDbEntity
  8
0
390
1D
  0
LINE
  5
ECA
330
4E
100
AcDbEntity
  8
0
  6
ByBlock
 62
     0
370
    -2
390
1D
100
AcDbLine
 10
-0.5
 20
0.0
 30
0.0
 11
-1.0
 21
0.0
 31
0.0
  0
ENDBLK
  5
ECB
330
4E
100
AcDbEntity
  8
0
390
1D
100
AcDbBlockEnd
  0
BLOCK
  5
68E
330
68D
100
AcDbEntity
  8
0
100
AcDbBlockBegin
  2
block 2
 70
     0
 10
0.0
 20
0.0
 30
0.0
  3
block 2
  1
block 2
  0
ENDBLK
  5
6B0
330
68D
100
AcDbEntity
  8
0
100
AcDbBlockEnd
  0
BLOCK
  5
199B
330
199A
100
AcDbEntity
  8
0
100
AcDbBlockBegin
  2
SEANNOT_GROUP
 70
     0
 10
0.0
 20
0.0
 30
0.0
  3
SEANNOT_GROUP
  1
SEANNOT_GROUP
  0
ENDBLK
  5
199C
330
199A
100
AcDbEntity
  8
0
100
AcDbBlockEnd
  0
BLOCK
  5
1F30
330
1F2F
100
AcDbEntity
  8
0
100
AcDbBlockBegin
  2
SEANNOT_GROUP1
 70
     0
 10
0.0
 20
0.0
 30
0.0
  3
SEANNOT_GROUP1
  1
SEANNOT_GROUP1
  0
ENDBLK
  5
1F31
330
1F2F
100
AcDbEntity
  8
0
100
AcDbBlockEnd
  0
BLOCK
  5
4602
330
4601
100
AcDbEntity
  8
0
100
AcDbBlockBegin
  2
*D4
 70
     1
 10
0.0
 20
0.0
 30
0.0
  3
*D4
  1

  0
LINE
  5
4604
330
4601
100
AcDbEntity
  8
DIM
 62
     0
370
    -2
100
AcDbLine
 10
483.9976012748319
 20
1053.26358732491
 30
0.0
 11
483.9976012748319
 21
1138.0
 31
0.0
  0
LINE
  5
4605
330
4601
100
AcDbEntity
  8
DIM
 62
     0
370
    -2
100
AcDbLine
 10
763.9976012748283
 20
1053.26358732491
 30
0.0
 11
763.9976012748283
 21
1138.0
 31
0.0
  0
LINE
  5
4606
330
4601
100
AcDbEntity
  8
DIM
 62
     0
370
    -2
100
AcDbLine
 10
493.9976012748319
 20
1138.0
 30
0.0
 11
753.9976012748283
 21
1138.0
 31
0.0
  0
INSERT
  5
4607
330
4601
100
AcDbEntity
  8
DIM
 62
     0
370
    -2
100
AcDbBlockReference
  2
_DOT
 10
483.9976012748319
 20
1138.0
 30
0.0
 41
10.0
 42
10.0
 43
10.0
 50
180.0
  0
INSERT
  5
4608
330
4601
100
AcDbEntity
  8
DIM
 62
     0
370
    -2
100
AcDbBlockReference
  2
_DOT
 10
763.9976012748283
 20
1138.0
 30
0.0
 41
10.0
 42
10.0
 43
10.0
  0
MTEXT
  5
4609
330
4601
100
AcDbEntity
  8
DIM
 62
     0
100
AcDbMText
 10
623.9976012748301
 20
1170.004501688133
 30
0.0
 40
24.0
 41
0.0
 46
0.0
 71
     5
 72
     1
  1
\A1;280
  7
ＭＳ ゴシック
 73
     1
 44
1.0
  0
POINT
  5
460A
330
4601
100
AcDbEntity
  8
Defpoints
 62
     0
100
AcDbPoint
 10
483.9976012748319
 20
1023.26358732491
 30
0.0
  0
POINT
  5
460B
330
4601
100
AcDbEntity
  8
Defpoints
 62
     0
100
AcDbPoint
 10
763.9976012748283
 20
1023.26358732491
 30
0.0
  0
POINT
  5
460C
330
4601
100
AcDbEntity
  8
Defpoints
 62
     0
100
AcDbPoint
 10
763.9976012748283
 20
1138.0
 30
0.0
  0
ENDBLK
  5
4603
330
4601
100
AcDbEntity
  8
0
100
AcDbBlockEnd
  0
BLOCK
  5
46C5
330
46C4
100
AcDbEntity
  8
0
100
AcDbBlockBegin
  2
*D5
 70
     1
 10
0.0
 20
0.0
 30
0.0
  3
*D5
  1

  0
LINE
  5
46C7
330
46C4
100
AcDbEntity
  8
DIM
 62
     0
370
    -2
100
AcDbLine
 10
1755.499999999999
 20
2297.784675895809
 30
0.0
 11
1885.462102231578
 21
2297.784675895809
 31
0.0
  0
LINE
  5
46C8
330
46C4
100
AcDbEntity
  8
DIM
 62
     0
370
    -2
100
AcDbLine
 10
1755.412362591263
 20
2047.784675895809
 30
0.0
 11
1885.462102231578
 21
2047.784675895809
 31
0.0
  0
LINE
  5
46C9
330
46C4
100
AcDbEntity
  8
DIM
 62
     0
370
    -2
100
AcDbLine
 10
1885.462102231578
 20
2287.784675895809
 30
0.0
 11
1885.462102231578
 21
2057.784675895809
 31
0.0
  0
INSERT
  5
46CA
330
46C4
100
AcDbEntity
  8
DIM
 62
     0
370
    -2
100
AcDbBlockReference
  2
_DOT
 10
1885.462102231578
 20
2297.784675895809
 30
0.0
 41
10.0
 42
10.0
 43
10.0
 50
90.0
  0
INSERT
  5
46CB
330
46C4
100
AcDbEntity
  8
DIM
 62
     0
370
    -2
100
AcDbBlockReference
  2
_DOT
 10
1885.462102231578
 20
2047.784675895809
 30
0.0
 41
10.0
 42
10.0
 43
10.0
 50
270.0
  0
MTEXT
  5
46CC
330
46C4
100
AcDbEntity
  8
DIM
 62
     0
100
AcDbMText
 10
1853.457600543445
 20
2172.784675895809
 30
0.0
 40
24.0
 41
0.0
 46
0.0
 71
     5
 72
     1
  1
\A1;250
  7
ＭＳ ゴシック
 11
0.0
 21
1.0
 31
0.0
 73
     1
 44
1.0
  0
POINT
  5
46CD
330
46C4
100
AcDbEntity
  8
Defpoints
 62
     0
100
AcDbPoint
 10
1725.499999999999
 20
2297.784675895809
 30
0.0
  0
POINT
  5
46CE
330
46C4
100
AcDbEntity
  8
Defpoints
 62
     0
100
AcDbPoint
 10
1725.412362591263
 20
2047.784675895809
 30
0.0
  0
POINT
  5
46CF
330
46C4
100
AcDbEntity
  8
Defpoints
 62
     0
100
AcDbPoint
 10
1885.462102231578
 20
2047.784675895809
 30
0.0
  0
ENDBLK
  5
46C6
330
46C4
100
AcDbEntity
  8
0
100
AcDbBlockEnd
  0
BLOCK
  5
46D4
330
46D3
100
AcDbEntity
  8
0
100
AcDbBlockBegin
  2
*D6
 70
     1
 10
0.0
 20
0.0
 30
0.0
  3
*D6
  1

  0
LINE
  5
46D6
330
46D3
100
AcDbEntity
  8
DIM
 62
     0
370
    -2
100
AcDbLine
 10
1899.330438988366
 20
2297.784675895809
 30
0.0
 11
1885.799564855359
 21
2297.784675895809
 31
0.0
  0
LINE
  5
46D7
330
46D3
100
AcDbEntity
  8
DIM
 62
     0
370
    -2
100
AcDbLine
 10
1899.330438988366
 20
2327.784675895809
 30
0.0
 11
1885.799564855359
 21
2327.784675895809
 31
0.0
  0
LINE
  5
46D8
330
46D3
100
AcDbEntity
  8
DIM
 62
     0
370
    -2
100
AcDbLine
 10
1885.799564855359
 20
2327.784675895809
 30
0.0
 11
1885.799564855359
 21
2450.740346772388
 31
0.0
  0
LINE
  5
46D9
330
46D3
100
AcDbEntity
  8
DIM
 62
     0
370
    -2
100
AcDbLine
 10
1885.799564855359
 20
2297.784675895809
 30
0.0
 11
1885.799564855359
 21
2327.784675895809
 31
0.0
  0
LINE
  5
46DA
330
46D3
100
AcDbEntity
  8
DIM
 62
     0
370
    -2
100
AcDbLine
 10
1885.799564855359
 20
2287.784675895809
 30
0.0
 11
1885.799564855359
 21
2277.784675895809
 31
0.0
  0
LINE
  5
46DB
330
46D3
100
AcDbEntity
  8
DIM
 62
     0
370
    -2
100
AcDbLine
 10
1885.799564855359
 20
2337.784675895809
 30
0.0
 11
1885.799564855359
 21
2347.784675895809
 31
0.0
  0
INSERT
  5
46DC
330
46D3
100
AcDbEntity
  8
DIM
 62
     0
370
    -2
100
AcDbBlockReference
  2
_DOT
 10
1885.799564855359
 20
2297.784675895809
 30
0.0
 41
10.0
 42
10.0
 43
10.0
 50
90.0
  0
INSERT
  5
46DD
330
46D3
100
AcDbEntity
  8
DIM
 62
     0
370
    -2
100
AcDbBlockReference
  2
_DOT
 10
1885.799564855359
 20
2327.784675895809
 30
0.0
 41
10.0
 42
10.0
 43
10.0
 50
270.0
  0
MTEXT
  5
46DE
330
46D3
100
AcDbEntity
  8
DIM
 62
     0
100
AcDbMText
 10
1853.795063167226
 20
2416.421789813528
 30
0.0
 40
24.0
 41
0.0
 46
0.0
 71
     5
 72
     1
  1
\A1;30
  7
ＭＳ ゴシック
 11
0.0
 21
1.0
 31
0.0
 73
     1
 44
1.0
  0
POINT
  5
46DF
330
46D3
100
AcDbEntity
  8
Defpoints
 62
     0
100
AcDbPoint
 10
1929.330438988366
 20
2297.784675895809
 30
0.0
  0
POINT
  5
46E0
330
46D3
100
AcDbEntity
  8
Defpoints
 62
     0
100
AcDbPoint
 10
1929.330438988366
 20
2327.784675895809
 30
0.0
  0
POINT
  5
46E1
330
46D3
100
AcDbEntity
  8
Defpoints
 62
     0
100
AcDbPoint
 10
1885.799564855359
 20
2327.784675895809
 30
0.0
  0
ENDBLK
  5
46D5
330
46D3
100
AcDbEntity
  8
0
100
AcDbBlockEnd
  0
BLOCK
  5
46E8
330
46E7
100
AcDbEntity
  8
0
100
AcDbBlockBegin
  2
*D7
 70
     1
 10
0.0
 20
0.0
 30
0.0
  3
*D7
  1

  0
LINE
  5
46EA
330
46E7
100
AcDbEntity
  8
DIM
 62
     0
370
    -2
100
AcDbLine
 10
274.0000000000002
 20
2354.784675895809
 30
0.0
 11
274.0000000000002
 21
2537.0
 31
0.0
  0
LINE
  5
46EB
330
46E7
100
AcDbEntity
  8
DIM
 62
     0
370
    -2
100
AcDbLine
 10
974.0000000000002
 20
2354.784675895809
 30
0.0
 11
974.0000000000002
 21
2537.0
 31
0.0
  0
LINE
  5
46EC
330
46E7
100
AcDbEntity
  8
DIM
 62
     0
370
    -2
100
AcDbLine
 10
284.0000000000002
 20
2537.0
 30
0.0
 11
964.0000000000002
 21
2537.0
 31
0.0
  0
INSERT
  5
46ED
330
46E7
100
AcDbEntity
  8
DIM
 62
     0
370
    -2
100
AcDbBlockReference
  2
_DOT
 10
274.0000000000002
 20
2537.0
 30
0.0
 41
10.0
 42
10.0
 43
10.0
 50
180.0
  0
INSERT
  5
46EE
330
46E7
100
AcDbEntity
  8
DIM
 62
     0
370
    -2
100
AcDbBlockReference
  2
_DOT
 10
974.0000000000002
 20
2537.0
 30
0.0
 41
10.0
 42
10.0
 43
10.0
  0
MTEXT
  5
46EF
330
46E7
100
AcDbEntity
  8
DIM
 62
     0
100
AcDbMText
 10
624.0000000000005
 20
2569.004501688134
 30
0.0
 40
24.0
 41
0.0
 46
0.0
 71
     5
 72
     1
  1
\A1;700
  7
ＭＳ ゴシック
 73
     1
 44
1.0
  0
POINT
  5
46F0
330
46E7
100
AcDbEntity
  8
Defpoints
 62
     0
100
AcDbPoint
 10
274.0000000000002
 20
2324.784675895809
 30
0.0
  0
POINT
  5
46F1
330
46E7
100
AcDbEntity
  8
Defpoints
 62
     0
100
AcDbPoint
 10
974.0000000000002
 20
2324.784675895809
 30
0.0
  0
POINT
  5
46F2
330
46E7
100
AcDbEntity
  8
Defpoints
 62
     0
100
AcDbPoint
 10
974.0000000000002
 20
2537.0
 30
0.0
  0
ENDBLK
  5
46E9
330
46E7
100
AcDbEntity
  8
0
100
AcDbBlockEnd
  0
BLOCK
  5
46FA
330
46F9
100
AcDbEntity
  8
0
100
AcDbBlockBegin
  2
*D8
 70
     1
 10
0.0
 20
0.0
 30
0.0
  3
*D8
  1

  0
LINE
  5
46FC
330
46F9
100
AcDbEntity
  8
DIM
 62
     0
370
    -2
100
AcDbLine
 10
524.0000000000002
 20
2291.271359476185
 30
0.0
 11
524.0000000000002
 21
2405.0
 31
0.0
  0
LINE
  5
46FD
330
46F9
100
AcDbEntity
  8
DIM
 62
     0
370
    -2
100
AcDbLine
 10
624.0000000000002
 20
2291.271359476185
 30
0.0
 11
624.0000000000002
 21
2405.0
 31
0.0
  0
LINE
  5
46FE
330
46F9
100
AcDbEntity
  8
DIM
 62
     0
370
    -2
100
AcDbLine
 10
534.0000000000002
 20
2405.0
 30
0.0
 11
614.0000000000002
 21
2405.0
 31
0.0
  0
INSERT
  5
46FF
330
46F9
100
AcDbEntity
  8
DIM
 62
     0
370
    -2
100
AcDbBlockReference
  2
_DOT
 10
524.0000000000002
 20
2405.0
 30
0.0
 41
10.0
 42
10.0
 43
10.0
 50
180.0
  0
INSERT
  5
4700
330
46F9
100
AcDbEntity
  8
DIM
 62
     0
370
    -2
100
AcDbBlockReference
  2
_DOT
 10
624.0000000000002
 20
2405.0
 30
0.0
 41
10.0
 42
10.0
 43
10.0
  0
MTEXT
  5
4701
330
46F9
100
AcDbEntity
  8
DIM
 62
     0
100
AcDbMText
 10
574.0000000000003
 20
2437.004501688133
 30
0.0
 40
24.0
 41
0.0
 46
0.0
 71
     5
 72
     1
  1
\A1;100
  7
ＭＳ ゴシック
 73
     1
 44
1.0
  0
POINT
  5
4702
330
46F9
100
AcDbEntity
  8
Defpoints
 62
     0
100
AcDbPoint
 10
524.0000000000002
 20
2261.271359476185
 30
0.0
  0
POINT
  5
4703
330
46F9
100
AcDbEntity
  8
Defpoints
 62
     0
100
AcDbPoint
 10
624.0000000000002
 20
2261.271359476185
 30
0.0
  0
POINT
  5
4704
330
46F9
100
AcDbEntity
  8
Defpoints
 62
     0
100
AcDbPoint
 10
624.0000000000002
 20
2405.0
 30
0.0
  0
ENDBLK
  5
46FB
330
46F9
100
AcDbEntity
  8
0
100
AcDbBlockEnd
  0
BLOCK
  5
4709
330
4708
100
AcDbEntity
  8
0
100
AcDbBlockBegin
  2
*D9
 70
     1
 10
0.0
 20
0.0
 30
0.0
  3
*D9
  1

  0
LINE
  5
470B
330
4708
100
AcDbEntity
  8
DIM
 62
     0
370
    -2
100
AcDbLine
 10
724.0000000000002
 20
2291.271359476185
 30
0.0
 11
724.0000000000002
 21
2405.0
 31
0.0
  0
LINE
  5
470C
330
4708
100
AcDbEntity
  8
DIM
 62
     0
370
    -2
100
AcDbLine
 10
624.0000000000002
 20
2291.271359476185
 30
0.0
 11
624.0000000000002
 21
2405.0
 31
0.0
  0
LINE
  5
470D
330
4708
100
AcDbEntity
  8
DIM
 62
     0
370
    -2
100
AcDbLine
 10
714.0000000000002
 20
2405.0
 30
0.0
 11
634.0000000000002
 21
2405.0
 31
0.0
  0
INSERT
  5
470E
330
4708
100
AcDbEntity
  8
DIM
 62
     0
370
    -2
100
AcDbBlockReference
  2
_DOT
 10
724.0000000000002
 20
2405.0
 30
0.0
 41
10.0
 42
10.0
 43
10.0
  0
INSERT
  5
470F
330
4708
100
AcDbEntity
  8
DIM
 62
     0
370
    -2
100
AcDbBlockReference
  2
_DOT
 10
624.0000000000002
 20
2405.0
 30
0.0
 41
10.0
 42
10.0
 43
10.0
 50
180.0
  0
MTEXT
  5
4710
330
4708
100
AcDbEntity
  8
DIM
 62
     0
100
AcDbMText
 10
674.0000000000001
 20
2437.004501688133
 30
0.0
 40
24.0
 41
0.0
 46
0.0
 71
     5
 72
     1
  1
\A1;100
  7
ＭＳ ゴシック
 73
     1
 44
1.0
  0
POINT
  5
4711
330
4708
100
AcDbEntity
  8
Defpoints
 62
     0
100
AcDbPoint
 10
724.0000000000002
 20
2261.271359476185
 30
0.0
  0
POINT
  5
4712
330
4708
100
AcDbEntity
  8
Defpoints
 62
     0
100
AcDbPoint
 10
624.0000000000002
 20
2261.271359476185
 30
0.0
  0
POINT
  5
4713
330
4708
100
AcDbEntity
  8
Defpoints
 62
     0
100
AcDbPoint
 10
624.0000000000002
 20
2405.0
 30
0.0
  0
ENDBLK
  5
470A
330
4708
100
AcDbEntity
  8
0
100
AcDbBlockEnd
  0
BLOCK
  5
4718
330
4717
100
AcDbEntity
  8
0
100
AcDbBlockBegin
  2
*D10
 70
     1
 10
0.0
 20
0.0
 30
0.0
  3
*D10
  1

  0
LINE
  5
471A
330
4717
100
AcDbEntity
  8
DIM
 62
     0
370
    -2
100
AcDbLine
 10
997.3185815275625
 20
2327.784675895809
 30
0.0
 11
1092.0
 21
2327.784675895809
 31
0.0
  0
LINE
  5
471B
330
4717
100
AcDbEntity
  8
DIM
 62
     0
370
    -2
100
AcDbLine
 10
997.0000000000002
 20
1957.784675895809
 30
0.0
 11
1092.0
 21
1957.784675895809
 31
0.0
  0
LINE
  5
471C
330
4717
100
AcDbEntity
  8
DIM
 62
     0
370
    -2
100
AcDbLine
 10
1092.0
 20
2317.784675895809
 30
0.0
 11
1092.0
 21
1967.784675895809
 31
0.0
  0
INSERT
  5
471D
330
4717
100
AcDbEntity
  8
DIM
 62
     0
370
    -2
100
AcDbBlockReference
  2
_DOT
 10
1092.0
 20
2327.784675895809
 30
0.0
 41
10.0
 42
10.0
 43
10.0
 50
90.0
  0
INSERT
  5
471E
330
4717
100
AcDbEntity
  8
DIM
 62
     0
370
    -2
100
AcDbBlockReference
  2
_DOT
 10
1092.0
 20
1957.784675895809
 30
0.0
 41
10.0
 42
10.0
 43
10.0
 50
270.0
  0
MTEXT
  5
471F
330
4717
100
AcDbEntity
  8
DIM
 62
     0
100
AcDbMText
 10
1059.995498311867
 20
2142.784675895809
 30
0.0
 40
24.0
 41
0.0
 46
0.0
 71
     5
 72
     1
  1
\A1;370
  7
ＭＳ ゴシック
 11
0.0
 21
1.0
 31
0.0
 73
     1
 44
1.0
  0
POINT
  5
4720
330
4717
100
AcDbEntity
  8
Defpoints
 62
     0
100
AcDbPoint
 10
967.3185815275625
 20
2327.784675895809
 30
0.0
  0
POINT
  5
4721
330
4717
100
AcDbEntity
  8
Defpoints
 62
     0
100
AcDbPoint
 10
967.0000000000002
 20
1957.784675895809
 30
0.0
  0
POINT
  5
4722
330
4717
100
AcDbEntity
  8
Defpoints
 62
     0
100
AcDbPoint
 10
1092.0
 20
1957.784675895809
 30
0.0
  0
ENDBLK
  5
4719
330
4717
100
AcDbEntity
  8
0
100
AcDbBlockEnd
  0
BLOCK
  5
4727
330
4726
100
AcDbEntity
  8
0
100
AcDbBlockBegin
  2
*D11
 70
     1
 10
0.0
 20
0.0
 30
0.0
  3
*D11
  1

  0
LINE
  5
4729
330
4726
100
AcDbEntity
  8
DIM
 62
     0
370
    -2
100
AcDbLine
 10
244.8786796564405
 20
2326.905996239369
 30
0.0
 11
183.0
 21
2326.905996239369
 31
0.0
  0
LINE
  5
472A
330
4726
100
AcDbEntity
  8
DIM
 62
     0
370
    -2
100
AcDbLine
 10
244.0000000000002
 20
2197.784675895809
 30
0.0
 11
183.0
 21
2197.784675895809
 31
0.0
  0
LINE
  5
472B
330
4726
100
AcDbEntity
  8
DIM
 62
     0
370
    -2
100
AcDbLine
 10
183.0
 20
2316.905996239369
 30
0.0
 11
183.0
 21
2207.784675895809
 31
0.0
  0
INSERT
  5
472C
330
4726
100
AcDbEntity
  8
DIM
 62
     0
370
    -2
100
AcDbBlockReference
  2
_DOT
 10
183.0
 20
2326.905996239369
 30
0.0
 41
10.0
 42
10.0
 43
10.0
 50
90.0
  0
INSERT
  5
472D
330
4726
100
AcDbEntity
  8
DIM
 62
     0
370
    -2
100
AcDbBlockReference
  2
_DOT
 10
183.0
 20
2197.784675895809
 30
0.0
 41
10.0
 42
10.0
 43
10.0
 50
270.0
  0
MTEXT
  5
472E
330
4726
100
AcDbEntity
  8
DIM
 62
     0
100
AcDbMText
 10
150.9954983118669
 20
2262.345336067589
 30
0.0
 40
24.0
 41
0.0
 46
0.0
 71
     5
 72
     1
  1
\A1;130
  7
ＭＳ ゴシック
 11
0.0
 21
1.0
 31
0.0
 73
     1
 44
1.0
  0
POINT
  5
472F
330
4726
100
AcDbEntity
  8
Defpoints
 62
     0
100
AcDbPoint
 10
274.8786796564405
 20
2326.905996239369
 30
0.0
  0
POINT
  5
4730
330
4726
100
AcDbEntity
  8
Defpoints
 62
     0
100
AcDbPoint
 10
274.0000000000002
 20
2197.784675895809
 30
0.0
  0
POINT
  5
4731
330
4726
100
AcDbEntity
  8
Defpoints
 62
     0
100
AcDbPoint
 10
183.0
 20
2197.784675895809
 30
0.0
  0
ENDBLK
  5
4728
330
4726
100
AcDbEntity
  8
0
100
AcDbBlockEnd
  0
BLOCK
  5
4736
330
4735
100
AcDbEntity
  8
0
100
AcDbBlockBegin
  2
*D12
 70
     1
 10
0.0
 20
0.0
 30
0.0
  3
*D12
  1

  0
LINE
  5
4738
330
4735
100
AcDbEntity
  8
DIM
 62
     0
370
    -2
100
AcDbLine
 10
261.2000000000027
 20
2197.784675895809
 30
0.0
 11
183.0
 21
2197.784675895809
 31
0.0
  0
LINE
  5
4739
330
4735
100
AcDbEntity
  8
DIM
 62
     0
370
    -2
100
AcDbLine
 10
261.2000000000027
 20
1964.984675895809
 30
0.0
 11
183.0
 21
1964.984675895809
 31
0.0
  0
LINE
  5
473A
330
4735
100
AcDbEntity
  8
DIM
 62
     0
370
    -2
100
AcDbLine
 10
183.0
 20
2187.784675895809
 30
0.0
 11
183.0
 21
1974.984675895809
 31
0.0
  0
INSERT
  5
473B
330
4735
100
AcDbEntity
  8
DIM
 62
     0
370
    -2
100
AcDbBlockReference
  2
_DOT
 10
183.0
 20
2197.784675895809
 30
0.0
 41
10.0
 42
10.0
 43
10.0
 50
90.0
  0
INSERT
  5
473C
330
4735
100
AcDbEntity
  8
DIM
 62
     0
370
    -2
100
AcDbBlockReference
  2
_DOT
 10
183.0
 20
1964.984675895809
 30
0.0
 41
10.0
 42
10.0
 43
10.0
 50
270.0
  0
MTEXT
  5
473D
330
4735
100
AcDbEntity
  8
DIM
 62
     0
100
AcDbMText
 10
150.9954983118669
 20
2081.384675895809
 30
0.0
 40
24.0
 41
0.0
 46
0.0
 71
     5
 72
     1
  1
\A1;230
  7
ＭＳ ゴシック
 11
1.220863807147939E-16
 21
1.0
 31
0.0
 73
     1
 44
1.0
  0
POINT
  5
473E
330
4735
100
AcDbEntity
  8
Defpoints
 62
     0
100
AcDbPoint
 10
291.2000000000027
 20
2197.784675895809
 30
0.0
  0
POINT
  5
473F
330
4735
100
AcDbEntity
  8
Defpoints
 62
     0
100
AcDbPoint
 10
291.2000000000027
 20
1964.984675895809
 30
0.0
  0
POINT
  5
4740
330
4735
100
AcDbEntity
  8
Defpoints
 62
     0
100
AcDbPoint
 10
183.0
 20
1964.984675895809
 30
0.0
  0
ENDBLK
  5
4737
330
4735
100
AcDbEntity
  8
0
100
AcDbBlockEnd
  0
BLOCK
  5
4745
330
4744
100
AcDbEntity
  8
0
100
AcDbBlockBegin
  2
*D13
 70
     1
 10
0.0
 20
0.0
 30
0.0
  3
*D13
  1

  0
LINE
  5
4747
330
4744
100
AcDbEntity
  8
DIM
 62
     0
370
    -2
100
AcDbLine
 10
281.0000000000002
 20
1927.784675895809
 30
0.0
 11
281.0000000000002
 21
1847.0
 31
0.0
  0
LINE
  5
4748
330
4744
100
AcDbEntity
  8
DIM
 62
     0
370
    -2
100
AcDbLine
 10
967.0000000000002
 20
1927.784675895809
 30
0.0
 11
967.0000000000002
 21
1847.0
 31
0.0
  0
LINE
  5
4749
330
4744
100
AcDbEntity
  8
DIM
 62
     0
370
    -2
100
AcDbLine
 10
291.0000000000002
 20
1847.0
 30
0.0
 11
957.0000000000002
 21
1847.0
 31
0.0
  0
INSERT
  5
474A
330
4744
100
AcDbEntity
  8
DIM
 62
     0
370
    -2
100
AcDbBlockReference
  2
_DOT
 10
281.0000000000002
 20
1847.0
 30
0.0
 41
10.0
 42
10.0
 43
10.0
 50
180.0
  0
INSERT
  5
474B
330
4744
100
AcDbEntity
  8
DIM
 62
     0
370
    -2
100
AcDbBlockReference
  2
_DOT
 10
967.0000000000002
 20
1847.0
 30
0.0
 41
10.0
 42
10.0
 43
10.0
  0
MTEXT
  5
474C
330
4744
100
AcDbEntity
  8
DIM
 62
     0
100
AcDbMText
 10
624.0000000000002
 20
1879.0
 30
0.0
 40
24.0
 41
0.0
 46
0.0
 71
     5
 72
     1
  1
\A1;680
  7
ＭＳ ゴシック
 73
     1
 44
1.0
  0
POINT
  5
474D
330
4744
100
AcDbEntity
  8
Defpoints
 62
     0
100
AcDbPoint
 10
281.0000000000002
 20
1957.784675895809
 30
0.0
  0
POINT
  5
474E
330
4744
100
AcDbEntity
  8
Defpoints
 62
     0
100
AcDbPoint
 10
967.0000000000002
 20
1957.784675895809
 30
0.0
  0
POINT
  5
474F
330
4744
100
AcDbEntity
  8
Defpoints
 62
     0
100
AcDbPoint
 10
967.0000000000002
 20
1847.0
 30
0.0
  0
ENDBLK
  5
4746
330
4744
100
AcDbEntity
  8
0
100
AcDbBlockEnd
  0
BLOCK
  5
4754
330
4753
100
AcDbEntity
  8
0
100
AcDbBlockBegin
  2
*D14
 70
     1
 10
0.0
 20
0.0
 30
0.0
  3
*D14
  1

  0
LINE
  5
4756
330
4753
100
AcDbEntity
  8
DIM
 62
     0
370
    -2
100
AcDbLine
 10
1004.0
 20
1023.26358732491
 30
0.0
 11
1092.0
 21
1023.26358732491
 31
0.0
  0
LINE
  5
4757
330
4753
100
AcDbEntity
  8
DIM
 62
     0
370
    -2
100
AcDbLine
 10
690.0
 20
863.26358732491
 30
0.0
 11
1092.0
 21
863.26358732491
 31
0.0
  0
LINE
  5
4758
330
4753
100
AcDbEntity
  8
DIM
 62
     0
370
    -2
100
AcDbLine
 10
1092.0
 20
1013.26358732491
 30
0.0
 11
1092.0
 21
873.26358732491
 31
0.0
  0
INSERT
  5
4759
330
4753
100
AcDbEntity
  8
DIM
 62
     0
370
    -2
100
AcDbBlockReference
  2
_DOT
 10
1092.0
 20
1023.26358732491
 30
0.0
 41
10.0
 42
10.0
 43
10.0
 50
90.0
  0
INSERT
  5
475A
330
4753
100
AcDbEntity
  8
DIM
 62
     0
370
    -2
100
AcDbBlockReference
  2
_DOT
 10
1092.0
 20
863.26358732491
 30
0.0
 41
10.0
 42
10.0
 43
10.0
 50
270.0
  0
MTEXT
  5
475B
330
4753
100
AcDbEntity
  8
DIM
 62
     0
100
AcDbMText
 10
1059.995498311866
 20
950.4761242264112
 30
0.0
 40
24.0
 41
0.0
 46
0.0
 71
     5
 72
     1
  1
\A1;160
  7
ＭＳ ゴシック
 11
0.0
 21
1.0
 31
0.0
 73
     1
 44
1.0
  0
POINT
  5
475C
330
4753
100
AcDbEntity
  8
Defpoints
 62
     0
100
AcDbPoint
 10
974.0
 20
1023.26358732491
 30
0.0
  0
POINT
  5
475D
330
4753
100
AcDbEntity
  8
Defpoints
 62
     0
100
AcDbPoint
 10
660.0
 20
863.26358732491
 30
0.0
  0
POINT
  5
475E
330
4753
100
AcDbEntity
  8
Defpoints
 62
     0
100
AcDbPoint
 10
1092.0
 20
863.26358732491
 30
0.0
  0
ENDBLK
  5
4755
330
4753
100
AcDbEntity
  8
0
100
AcDbBlockEnd
  0
BLOCK
  5
4765
330
4764
100
AcDbEntity
  8
0
100
AcDbBlockBegin
  2
*D15
 70
     1
 10
0.0
 20
0.0
 30
0.0
  3
*D15
  1

  0
LINE
  5
4767
330
4764
100
AcDbEntity
  8
DIM
 62
     0
370
    -2
100
AcDbLine
 10
244.0
 20
1023.26358732491
 30
0.0
 11
207.0
 21
1023.26358732491
 31
0.0
  0
LINE
  5
4768
330
4764
100
AcDbEntity
  8
DIM
 62
     0
370
    -2
100
AcDbLine
 10
244.8635432780076
 20
983.1029613633016
 30
0.0
 11
207.0
 21
983.1029613633016
 31
0.0
  0
LINE
  5
4769
330
4764
100
AcDbEntity
  8
DIM
 62
     0
370
    -2
100
AcDbLine
 10
207.0
 20
1013.26358732491
 30
0.0
 11
207.0
 21
993.1029613633016
 31
0.0
  0
INSERT
  5
476A
330
4764
100
AcDbEntity
  8
DIM
 62
     0
370
    -2
100
AcDbBlockReference
  2
_DOT
 10
207.0
 20
1023.26358732491
 30
0.0
 41
10.0
 42
10.0
 43
10.0
 50
90.0
  0
INSERT
  5
476B
330
4764
100
AcDbEntity
  8
DIM
 62
     0
370
    -2
100
AcDbBlockReference
  2
_DOT
 10
207.0
 20
983.1029613633016
 30
0.0
 41
10.0
 42
10.0
 43
10.0
 50
270.0
  0
MTEXT
  5
476C
330
4764
100
AcDbEntity
  8
DIM
 62
     0
100
AcDbMText
 10
175.0
 20
1003.183274344106
 30
0.0
 40
24.0
 41
0.0
 46
0.0
 71
     5
 72
     1
  1
\A1;40
  7
ＭＳ ゴシック
 11
0.0
 21
1.0
 31
0.0
 73
     1
 44
1.0
  0
POINT
  5
476D
330
4764
100
AcDbEntity
  8
Defpoints
 62
     0
100
AcDbPoint
 10
274.0
 20
1023.26358732491
 30
0.0
  0
POINT
  5
476E
330
4764
100
AcDbEntity
  8
Defpoints
 62
     0
100
AcDbPoint
 10
274.8635432780076
 20
983.1029613633016
 30
0.0
  0
POINT
  5
476F
330
4764
100
AcDbEntity
  8
Defpoints
 62
     0
100
AcDbPoint
 10
207.0
 20
983.1029613633016
 30
0.0
  0
ENDBLK
  5
4766
330
4764
100
AcDbEntity
  8
0
100
AcDbBlockEnd
  0
BLOCK
  5
478D
330
478C
100
AcDbEntity
  8
0
100
AcDbBlockBegin
  2
*D16
 70
     1
 10
0.0
 20
0.0
 30
0.0
  3
*D16
  1

  0
LINE
  5
478F
330
478C
100
AcDbEntity
  8
DIM
 62
     0
370
    -2
100
AcDbLine
 10
244.0000000000002
 20
2197.784675895809
 30
0.0
 11
183.0
 21
2197.784675895809
 31
0.0
  0
LINE
  5
4790
330
478C
100
AcDbEntity
  8
DIM
 62
     0
370
    -2
100
AcDbLine
 10
244.0
 20
2327.784675895809
 30
0.0
 11
183.0
 21
2327.784675895809
 31
0.0
  0
LINE
  5
4791
330
478C
100
AcDbEntity
  8
DIM
 62
     0
370
    -2
100
AcDbLine
 10
183.0
 20
2207.784675895809
 30
0.0
 11
183.0
 21
2317.784675895809
 31
0.0
  0
INSERT
  5
4792
330
478C
100
AcDbEntity
  8
DIM
 62
     0
370
    -2
100
AcDbBlockReference
  2
_DOT
 10
183.0
 20
2197.784675895809
 30
0.0
 41
10.0
 42
10.0
 43
10.0
 50
270.0
  0
INSERT
  5
4793
330
478C
100
AcDbEntity
  8
DIM
 62
     0
370
    -2
100
AcDbBlockReference
  2
_DOT
 10
183.0
 20
2327.784675895809
 30
0.0
 41
10.0
 42
10.0
 43
10.0
 50
90.0
  0
MTEXT
  5
4794
330
478C
100
AcDbEntity
  8
DIM
 62
     0
100
AcDbMText
 10
150.9954983118669
 20
2262.784675895809
 30
0.0
 40
24.0
 41
0.0
 46
0.0
 71
     5
 72
     1
  1
\A1;130
  7
ＭＳ ゴシック
 11
0.0
 21
1.0
 31
0.0
 73
     1
 44
1.0
  0
POINT
  5
4795
330
478C
100
AcDbEntity
  8
Defpoints
 62
     0
100
AcDbPoint
 10
274.0000000000002
 20
2197.784675895809
 30
0.0
  0
POINT
  5
4796
330
478C
100
AcDbEntity
  8
Defpoints
 62
     0
100
AcDbPoint
 10
274.0
 20
2327.784675895809
 30
0.0
  0
POINT
  5
4797
330
478C
100
AcDbEntity
  8
Defpoints
 62
     0
100
AcDbPoint
 10
183.0
 20
2327.784675895809
 30
0.0
  0
ENDBLK
  5
478E
330
478C
100
AcDbEntity
  8
0
100
AcDbBlockEnd
  0
ENDSEC
  0
SECTION
  2
ENTITIES
  0
MTEXT
  5
177
330
A
100
AcDbEntity
  8
TEMPLATE
390
1D
100
AcDbMText
 10
79.20214454773075
 20
343.7317516314282
 30
0.0
 40
16.28841145833333
 41
0.0
 46
0.0
 71
     1
 72
     1
  1
品名
  7
ＭＳ ゴシック
 73
     1
 44
0.7828267384257843
  0
MTEXT
  5
178
330
A
100
AcDbEntity
  8
TEMPLATE
390
1D
100
AcDbMText
 10
79.20214454773075
 20
258.731751631428
 30
0.0
 40
16.28841145833333
 41
0.0
 46
0.0
 71
     1
 72
     1
  1
仕様
  7
ＭＳ ゴシック
 73
     1
 44
0.7828267384257843
  0
LINE
  5
179
330
A
100
AcDbEntity
  8
TEMPLATE
390
1D
100
AcDbLine
 10
2022.202144547248
 20
267.1466735064284
 30
0.0
 11
72.20214454724874
 21
267.1466735064284
 31
0.0
  0
LWPOLYLINE
  5
17A
330
A
100
AcDbEntity
  8
TEMPLATE
390
1D
100
AcDbPolyline
 90
        5
 70
   128
 43
0.0
 10
2022.202144547248
 20
2897.146673506426
 10
72.20214454724874
 20
2897.146673506426
 10
72.20214454724874
 20
97.14667350642826
 10
2022.202144547248
 20
97.14667350642826
 10
2022.202144547248
 20
2897.146673506426
  0
LINE
  5
17B
330
A
100
AcDbEntity
  8
TEMPLATE
390
1D
100
AcDbLine
 10
2022.202144547248
 20
352.1466735064282
 30
0.0
 11
72.20214454724874
 21
352.1466735064282
 31
0.0
  0
LINE
  5
17C
330
A
100
AcDbEntity
  8
TEMPLATE
390
1D
100
AcDbLine
 10
2022.202144547732
 20
182.1466735064282
 30
0.0
 11
1269.20214454773
 21
182.1466735064282
 31
0.0
  0
MTEXT
  5
17E
330
A
100
AcDbEntity
  8
TEMPLATE
390
1D
100
AcDbMText
 10
1299.073550799991
 20
152.2362790331201
 30
0.0
 40
24.4326171875
 41
0.0
 46
0.0
 71
     1
 72
     1
  1
大洋金物株式会社 ティーフォルム事業部
  7
ＭＳ ゴシック
 73
     1
 44
0.7828267384257843
  0
MTEXT
  5
180
330
A
100
AcDbEntity
  8
TEMPLATE
390
1D
100
AcDbMText
 10
1831.20214454799
 20
230.1492906939282
 30
0.0
 40
24.4326171875
 41
0.0
 46
24.4326171875
 71
     1
 72
     1
  1
{1:10}
  7
ＭＳ ゴシック
 73
     1
 44
0.7828267384257843
1001
ACAD
1000
ACAD_MTEXT_DEFINED_HEIGHT_BEGIN
1070
    46
1040
24.4326171875
1000
ACAD_MTEXT_DEFINED_HEIGHT_END
  0
MTEXT
  5
181
330
A
100
AcDbEntity
  8
TEMPLATE
390
1D
100
AcDbMText
 10
1778.20214454799
 20
258.731751631428
 30
0.0
 40
16.28841145833333
 41
0.0
 46
0.0
 71
     1
 72
     1
  1
縮尺
  7
ＭＳ ゴシック
 73
     1
 44
0.7828267384257843
  0
LINE
  5
182
330
A
100
AcDbEntity
  8
TEMPLATE
390
1D
100
AcDbLine
 10
1771.20214454799
 20
182.1466735064282
 30
0.0
 11
1771.20214454799
 21
267.1466735064284
 31
0.0
  0
MTEXT
  5
183
330
A
100
AcDbEntity
  8
TEMPLATE
390
1D
100
AcDbMText
 10
1527.20214454799
 20
258.731751631428
 30
0.0
 40
16.28841145833333
 41
0.0
 46
0.0
 71
     1
 72
     1
  1
容量
  7
ＭＳ ゴシック
 73
     1
 44
0.7828267384257843
  0
LINE
  5
184
330
A
100
AcDbEntity
  8
TEMPLATE
390
1D
100
AcDbLine
 10
1520.20214454799
 20
182.1466735064282
 30
0.0
 11
1520.20214454799
 21
267.1466735064284
 31
0.0
  0
MTEXT
  5
185
330
A
100
AcDbEntity
  8
TEMPLATE
390
1D
100
AcDbMText
 10
1276.20214454799
 20
343.7317516314282
 30
0.0
 40
16.28841145833333
 41
0.0
 46
0.0
 71
     1
 72
     1
  1
品番
  7
ＭＳ ゴシック
 73
     1
 44
0.7828267384257843
  0
MTEXT
  5
186
330
A
100
AcDbEntity
  8
TEMPLATE
390
1D
100
AcDbMText
 10
1276.20214454799
 20
258.731751631428
 30
0.0
 40
16.28841145833333
 41
0.0
 46
0.0
 71
     1
 72
     1
  1
重量
  7
ＭＳ ゴシック
 73
     1
 44
0.7828267384257843
  0
MTEXT
  5
187
330
A
100
AcDbEntity
  8
TEMPLATE
390
1D
100
AcDbMText
 10
1329.20214454799
 20
315.1492906939282
 30
0.0
 40
24.4326171875
 41
0.0
 46
24.4326171875
 71
     1
 72
     1
  1
{ADF70-2510-001}
  7
ＭＳ ゴシック
 73
     1
 44
0.7828267384257843
1001
ACAD
1000
ACAD_MTEXT_DEFINED_HEIGHT_BEGIN
1070
    46
1040
24.4326171875
1000
ACAD_MTEXT_DEFINED_HEIGHT_END
  0
LINE
  5
188
330
A
100
AcDbEntity
  8
TEMPLATE
390
1D
100
AcDbLine
 10
1269.20214454799
 20
97.14667350642826
 30
0.0
 11
1269.20214454799
 21
352.1466735064282
 31
0.0
  0
INSERT
  5
68C
330
A
100
AcDbEntity
  8
TEMPLATE
100
AcDbBlockReference
  2
block 2
 10
919.2743017702577
 20
8.373076514336368
 30
0.0
 41
0.3809999999999999
 42
0.3809999999999999
 43
0.3809999999999999
  0
LWPOLYLINE
  5
DAC
330
A
100
AcDbEntity
  8
BORDER
100
AcDbPolyline
 90
        4
 70
     1
 43
0.0
 10
0.0
 20
0.0
 10
0.0
 20
2970.0
 10
2100.0
 20
2970.0
 10
2100.0
 20
0.0
  0
MTEXT
  5
121B
330
A
100
AcDbEntity
  8
TEMPLATE
390
1D
100
AcDbMText
 10
1329.20214454799
 20
227.1688729773101
 30
0.0
 40
24.4326171875
 41
0.0
 46
28.40135167875453
 71
     1
 72
     1
  1
{18.5kg}
  7
ＭＳ ゴシック
 73
     1
 44
0.7828267384257843
1001
ACAD
1000
ACAD_MTEXT_DEFINED_HEIGHT_BEGIN
1070
    46
1040
28.40135167875453
1000
ACAD_MTEXT_DEFINED_HEIGHT_END
  0
MTEXT
  5
1466
102
{ACAD_XDICTIONARY
360
1468
102
}
330
A
100
AcDbEntity
  8
TEMPLATE
 48
0.05
100
AcDbMText
 10
74.728656548571
 20
83.86172105142839
 30
0.0
 40
22.0
 41
0.0
 46
22.0
 71
     1
 72
     1
  1
{20211005N}
  7
ＭＳ ゴシック
 73
     1
 44
1.0
1001
ACAD
1000
ACAD_MTEXT_DEFINED_HEIGHT_BEGIN
1070
    46
1040
22.0
1000
ACAD_MTEXT_DEFINED_HEIGHT_END
  0
MTEXT
  5
146D
330
A
100
AcDbEntity
  8
TEMPLATE
390
1D
100
AcDbMText
 10
1583.904999862276
 20
227.1688729773101
 30
0.0
 40
24.4326171875
 41
0.0
 46
24.4326171875
 71
     1
 72
     1
  1
{5.3L}
  7
ＭＳ ゴシック
 73
     1
 44
0.7828267384257843
1001
ACAD
1000
ACAD_MTEXT_DEFINED_HEIGHT_BEGIN
1070
    46
1040
24.4326171875
1000
ACAD_MTEXT_DEFINED_HEIGHT_END
  0
POINT
  5
262A
330
A
100
AcDbEntity
  8
Layer9
  6
Continuous
 62
     7
100
AcDbPoint
 10
1037.460145007193
 20
1010.220672371878
 30
0.0
  0
POINT
  5
262B
330
A
100
AcDbEntity
  8
Layer9
  6
Continuous
 62
     7
100
AcDbPoint
 10
1037.460146257193
 20
1010.220672788578
 30
0.0
  0
POINT
  5
262C
330
A
100
AcDbEntity
  8
Layer9
  6
Continuous
 62
     7
100
AcDbPoint
 10
1037.853693340493
 20
1015.267975288578
 30
0.0
  0
POINT
  5
2812
330
A
100
AcDbEntity
  8
Layer9
  6
Continuous
 62
     7
100
AcDbPoint
 10
925.7934783404928
 20
1010.220672371878
 30
0.0
  0
POINT
  5
2813
330
A
100
AcDbEntity
  8
Layer9
  6
Continuous
 62
     7
100
AcDbPoint
 10
925.7934795904928
 20
1010.220672788578
 30
0.0
  0
POINT
  5
2814
330
A
100
AcDbEntity
  8
Layer9
  6
Continuous
 62
     7
100
AcDbPoint
 10
926.1870266737928
 20
1015.267975288578
 30
0.0
  0
INSERT
  5
28CA
330
A
100
AcDbEntity
  8
Layer3
100
AcDbBlockReference
  2
SEANNOT_GROUP
 10
859.7083018867928
 20
826.1905269541776
 30
0.0
  0
POINT
  5
2A52
330
A
100
AcDbEntity
  8
Standard
  6
Continuous
 62
     7
100
AcDbPoint
 10
1036.111241014893
 20
1018.794321538578
 30
0.0
  0
INSERT
  5
2B9B
330
A
100
AcDbEntity
  8
Layer3
100
AcDbBlockReference
  2
SEANNOT_GROUP1
 10
859.7083018867928
 20
826.1905269541776
 30
0.0
  0
HATCH
  5
369B
102
{ACAD_REACTORS
330
36AC
102
}
330
A
100
AcDbEntity
  8
TEMPLATE
100
AcDbHatch
 10
0.0
 20
0.0
 30
0.0
210
0.0
220
0.0
230
1.0
  2
SOLID
 70
     1
 71
     1
 91
        6
 92
        1
 93
        8
 72
     1
 10
1934.476782902687
 20
153.1053194253001
 11
1934.476782902687
 21
147.1959117946397
 72
     1
 10
1934.476782902687
 20
147.1959117946397
 11
1925.116191352377
 21
147.1959117946397
 72
     1
 10
1925.116191352377
 20
147.1959117946397
 11
1925.116191352377
 21
123.105319426746
 72
     1
 10
1925.116191352377
 20
123.105319426746
 11
1916.883578199102
 21
123.105319426746
 72
     1
 10
1916.883578199102
 20
123.105319426746
 11
1916.883578199102
 21
147.1959117946397
 72
     1
 10
1916.883578199102
 20
147.1959117946397
 11
1907.688876764557
 21
147.1959117946397
 72
     1
 10
1907.688876764557
 20
147.1959117946397
 11
1907.688876764557
 21
153.1053194253001
 72
     1
 10
1907.688876764557
 20
153.1053194253001
 11
1934.476782902687
 21
153.1053194253001
 97
        1
330
369C
 92
        1
 93
        1
 72
     4
 94
        3
 73
     0
 74
     1
 95
       56
 96
       52
 40
0.0
 40
0.0
 40
0.0
 40
0.0
 40
1.0
 40
1.0
 40
1.0
 40
2.0
 40
2.0
 40
2.0
 40
3.0
 40
3.0
 40
3.0
 40
4.0
 40
4.0
 40
4.0
 40
5.0
 40
5.0
 40
5.0
 40
6.0
 40
6.0
 40
6.0
 40
7.0
 40
7.0
 40
7.0
 40
8.0
 40
8.0
 40
8.0
 40
9.0
 40
9.0
 40
9.0
 40
10.0
 40
10.0
 40
10.0
 40
11.0
 40
11.0
 40
11.0
 40
12.0
 40
12.0
 40
12.0
 40
13.0
 40
13.0
 40
13.0
 40
14.0
 40
14.0
 40
14.0
 40
15.0
 40
15.0
 40
15.0
 40
16.0
 40
16.0
 40
16.0
 40
17.0
 40
17.0
 40
17.0
 40
17.0
 10
1947.01896833698
 20
152.3909504648878
 10
1948.1728345189
 20
152.715738018898
 10
1949.662423612235
 20
152.4440650580081
 10
1949.662423612235
 20
152.4440650580081
 10
1949.662423612235
 20
152.4440650580081
 10
1948.946790018651
 20
150.2964947655846
 10
1948.946790018651
 20
150.2964947655846
 10
1948.946790018651
 20
150.2964947655846
 10
1947.484427733556
 20
150.6348957237139
 10
1946.356523726704
 20
149.7454866546012
 10
1945.480058550036
 20
149.0499384113589
 10
1944.912238256914
 20
147.2017886193686
 10
1944.69442379101
 20
146.4990989182278
 10
1944.69442379101
 20
146.4990989182278
 10
1943.723334297183
 20
143.518432927829
 10
1943.723334297183
 20
143.518432927829
 10
1943.723334297183
 20
143.518432927829
 10
1946.907457447503
 20
143.518432927829
 10
1946.907457447503
 20
143.518432927829
 10
1946.907457447503
 20
143.518432927829
 10
1946.412241976351
 20
141.642461206109
 10
1946.412241976351
 20
141.642461206109
 10
1946.412241976351
 20
141.642461206109
 10
1943.202156650962
 20
141.642461206109
 10
1943.202156650962
 20
141.642461206109
 10
1943.202156650962
 20
141.642461206109
 10
1937.458713526257
 20
123.105319426746
 10
1937.458713526257
 20
123.105319426746
 10
1937.458713526257
 20
123.105319426746
 10
1935.660479549369
 20
123.105319426746
 10
1935.660479549369
 20
123.105319426746
 10
1935.660479549369
 20
123.105319426746
 10
1941.409129987127
 20
141.642461206109
 10
1941.409129987127
 20
141.642461206109
 10
1941.409129987127
 20
141.642461206109
 10
1939.040397670409
 20
141.642461206109
 10
1939.040397670409
 20
141.642461206109
 10
1939.040397670409
 20
141.642461206109
 10
1939.536952164915
 20
143.518432927829
 10
1939.536952164915
 20
143.518432927829
 10
1939.536952164915
 20
143.518432927829
 10
1941.930307633347
 20
143.518432927829
 10
1941.930307633347
 20
143.518432927829
 10
1941.930307633347
 20
143.518432927829
 10
1942.77686795507
 20
146.1179236028939
 10
1942.77686795507
 20
146.1179236028939
 10
1943.461406450716
 20
148.2973328951149
 10
1944.042245026465
 20
149.4674161376772
 10
1944.540138544327
 20
150.3496093587049
 10
1945.032750358952
 20
151.232546481597
 10
1946.007708142475
 20
152.0998616653363
 10
1947.01896833698
 20
152.3909504648878
 97
        1
330
36A7
 92
        1
 93
        1
 72
     4
 94
        3
 73
     0
 74
     1
 95
       32
 96
       28
 40
0.0
 40
0.0
 40
0.0
 40
0.0
 40
1.0
 40
1.0
 40
1.0
 40
2.0
 40
2.0
 40
2.0
 40
3.0
 40
3.0
 40
3.0
 40
4.0
 40
4.0
 40
4.0
 40
5.0
 40
5.0
 40
5.0
 40
6.0
 40
6.0
 40
6.0
 40
7.0
 40
7.0
 40
7.0
 40
8.0
 40
8.0
 40
8.0
 40
9.0
 40
9.0
 40
9.0
 40
9.0
 10
1951.394524713372
 20
142.3847264864374
 10
1950.311998720255
 20
140.9844800070205
 10
1949.478382290974
 20
139.7243102486757
 10
1948.128795528524
 20
135.7635535518901
 10
1946.888041608841
 20
132.1406026917421
 10
1946.098464169936
 20
129.5048096056932
 10
1945.979216701069
 20
126.2947242803041
 10
1945.888460673606
 20
123.9059066132458
 10
1947.343086379314
 20
123.105319426746
 10
1949.475853024634
 20
123.105319426746
 10
1950.395018168326
 20
123.105319426746
 10
1952.714504181618
 20
123.1637901132903
 10
1954.3662638814
 20
125.2056519507783
 10
1955.522584939468
 20
126.6401923061455
 10
1956.588298750451
 20
128.1272521331414
 10
1958.017036671275
 20
133.0053142189559
 10
1959.205940631009
 20
137.0833842397621
 10
1960.029142434186
 20
139.7191029356247
 10
1959.968291261677
 20
141.2197761667398
 10
1959.968291261677
 20
141.2197761667398
 10
1959.968291261677
 20
141.2197761667398
 10
1959.968291261677
 20
141.2197761667398
 10
1959.580569609936
 20
143.7233035012931
 10
1957.762919794387
 20
144.2522921170894
 10
1956.724432791643
 20
144.2522921170894
 10
1955.70156772805
 20
144.2522921170894
 10
1952.960735698745
 20
144.4292663706373
 10
1951.394524713372
 20
142.3847264864374
 97
        1
330
36AA
 92
        1
 93
        1
 72
     4
 94
        3
 73
     0
 74
     1
 95
       38
 96
       34
 40
0.0
 40
0.0
 40
0.0
 40
0.0
 40
1.0
 40
1.0
 40
1.0
 40
2.0
 40
2.0
 40
2.0
 40
3.0
 40
3.0
 40
3.0
 40
4.0
 40
4.0
 40
4.0
 40
5.0
 40
5.0
 40
5.0
 40
6.0
 40
6.0
 40
6.0
 40
7.0
 40
7.0
 40
7.0
 40
8.0
 40
8.0
 40
8.0
 40
9.0
 40
9.0
 40
9.0
 40
10.0
 40
10.0
 40
10.0
 40
11.0
 40
11.0
 40
11.0
 40
11.0
 10
1966.542747159137
 20
143.4464976175386
 10
1966.542747159137
 20
143.4464976175386
 10
1968.39149207262
 20
143.4464976175386
 10
1968.39149207262
 20
143.4464976175386
 10
1968.39149207262
 20
143.4464976175386
 10
1967.56561222273
 20
140.8022984404216
 10
1967.56561222273
 20
140.8022984404216
 10
1968.193167835563
 20
141.54456372075
 10
1969.183598777865
 20
142.5331349083912
 10
1970.034176169654
 20
143.0316235477459
 10
1971.304760554101
 20
143.7738888280742
 10
1972.030808773784
 20
143.8717863134333
 10
1972.829313035064
 20
143.8522960845852
 10
1972.829313035064
 20
143.8522960845852
 10
1972.048959979278
 20
141.3520419182353
 10
1972.048959979278
 20
141.3520419182353
 10
1971.540726225497
 20
141.5672527276151
 10
1969.974515240128
 20
141.1575859708734
 10
1969.076030568268
 20
140.5112840310564
 10
1968.265772657532
 20
139.9285113104618
 10
1967.705614553615
 20
139.4326263276327
 10
1967.04190531017
 20
138.1859955832205
 10
1966.383254599404
 20
136.9375050841474
 10
1965.86341597654
 20
134.9467493047458
 10
1964.968799594376
 20
132.058773486655
 10
1964.968799594376
 20
132.058773486655
 10
1962.174852971949
 20
123.105319426746
 10
1962.174852971949
 20
123.105319426746
 10
1962.174852971949
 20
123.105319426746
 10
1960.380561674943
 20
123.105319426746
 10
1960.380561674943
 20
123.105319426746
 10
1960.380561674943
 20
123.105319426746
 10
1966.542747159137
 20
143.4464976175386
 10
1966.542747159137
 20
143.4464976175386
 97
        1
330
36A8
 92
        1
 93
        1
 72
     4
 94
        3
 73
     0
 74
     1
 95
      104
 96
      100
 40
0.0
 40
0.0
 40
0.0
 40
0.0
 40
1.0
 40
1.0
 40
1.0
 40
2.0
 40
2.0
 40
2.0
 40
3.0
 40
3.0
 40
3.0
 40
4.0
 40
4.0
 40
4.0
 40
5.0
 40
5.0
 40
5.0
 40
6.0
 40
6.0
 40
6.0
 40
7.0
 40
7.0
 40
7.0
 40
8.0
 40
8.0
 40
8.0
 40
9.0
 40
9.0
 40
9.0
 40
10.0
 40
10.0
 40
10.0
 40
11.0
 40
11.0
 40
11.0
 40
12.0
 40
12.0
 40
12.0
 40
13.0
 40
13.0
 40
13.0
 40
14.0
 40
14.0
 40
14.0
 40
15.0
 40
15.0
 40
15.0
 40
16.0
 40
16.0
 40
16.0
 40
17.0
 40
17.0
 40
17.0
 40
18.0
 40
18.0
 40
18.0
 40
19.0
 40
19.0
 40
19.0
 40
20.0
 40
20.0
 40
20.0
 40
21.0
 40
21.0
 40
21.0
 40
22.0
 40
22.0
 40
22.0
 40
23.0
 40
23.0
 40
23.0
 40
24.0
 40
24.0
 40
24.0
 40
25.0
 40
25.0
 40
25.0
 40
26.0
 40
26.0
 40
26.0
 40
27.0
 40
27.0
 40
27.0
 40
28.0
 40
28.0
 40
28.0
 40
29.0
 40
29.0
 40
29.0
 40
30.0
 40
30.0
 40
30.0
 40
31.0
 40
31.0
 40
31.0
 40
32.0
 40
32.0
 40
32.0
 40
33.0
 40
33.0
 40
33.0
 40
33.0
 10
1976.718878323425
 20
143.4575073651321
 10
1976.718878323425
 20
143.4575073651321
 10
1978.332996588864
 20
143.4575073651321
 10
1978.332996588864
 20
143.4575073651321
 10
1978.332996588864
 20
143.4575073651321
 10
1977.517531365076
 20
140.810778921676
 10
1977.517531365076
 20
140.810778921676
 10
1978.225279598895
 20
141.920531723033
 10
1978.860571791119
 20
142.4151520726926
 10
1979.704602846502
 20
143.054312554611
 10
1980.551163168223
 20
143.6843974337833
 10
1981.556025806694
 20
143.812794895584
 10
1982.253508194784
 20
143.812794895584
 10
1983.117029479015
 20
143.812794895584
 10
1983.950645908296
 20
143.6422925882567
 10
1984.388804106443
 20
142.6958262461422
 10
1984.72460140805
 20
141.9536353560001
 10
1984.740223347202
 20
141.8660781065566
 10
1984.644260006691
 20
140.4010377747479
 10
1985.521915426345
 20
141.9030500292188
 10
1986.170151511008
 20
142.5500214807137
 10
1987.272167732975
 20
143.1716258786317
 10
1988.42863757142
 20
143.812794895584
 10
1989.102761440966
 20
143.8607765658398
 10
1989.885941323838
 20
143.7453229964802
 10
1991.039733115569
 20
143.5748950793392
 10
1991.776195961356
 20
143.1632197875635
 10
1992.161239566385
 20
141.9121256319649
 10
1992.54762219477
 20
140.6648997660613
 10
1992.338883331611
 20
139.9959088193793
 10
1991.861744675765
 20
138.0103603530286
 10
1991.64393020986
 20
137.1060732466272
 10
1991.328813380087
 20
136.0111240923725
 10
1990.916542966819
 20
134.7082543670094
 10
1990.916542966819
 20
134.7082543670094
 10
1987.272167732975
 20
123.105319426746
 10
1987.272167732975
 20
123.105319426746
 10
1987.272167732975
 20
123.105319426746
 10
1985.376705782409
 20
123.105319426746
 10
1985.376705782409
 20
123.105319426746
 10
1985.376705782409
 20
123.105319426746
 10
1988.567449659321
 20
133.2490164697431
 10
1988.567449659321
 20
133.2490164697431
 10
1989.233836949479
 20
135.3713684889626
 10
1989.684939040069
 20
136.9212880235028
 10
1989.918375445127
 20
137.893047029008
 10
1990.211323999339
 20
139.1052351170969
 10
1990.327967811683
 20
139.505231149601
 10
1990.189304504152
 20
140.3874987608153
 10
1990.062246065708
 20
141.2087664191461
 10
1989.647297605728
 20
141.7435574694851
 10
1988.936871325198
 20
141.7435574694851
 10
1988.17972800758
 20
141.7435574694851
 10
1987.566455310545
 20
141.659273388245
 10
1986.708290119737
 20
140.7971655175569
 10
1985.84997614856
 20
139.9285113104618
 10
1985.140740111011
 20
138.9088450248874
 10
1984.584599077163
 20
137.7361581257997
 10
1984.029648286297
 20
136.5563297688134
 10
1983.466960916042
 20
135.0608638507494
 10
1982.896536966398
 20
133.2490164697431
 10
1982.896536966398
 20
133.2490164697431
 10
1979.704602846502
 20
123.105319426746
 10
1979.704602846502
 20
123.105319426746
 10
1979.704602846502
 20
123.105319426746
 10
1977.921916418581
 20
123.105319426746
 10
1977.921916418581
 20
123.105319426746
 10
1977.921916418581
 20
123.105319426746
 10
1981.571498965475
 20
134.7030470539584
 10
1981.571498965475
 20
134.7030470539584
 10
1981.956542570504
 20
135.9373290274211
 10
1982.245771615394
 20
136.9433819088763
 10
1982.436359273062
 20
137.729686179579
 10
1982.760402925207
 20
139.0832156219098
 10
1982.851158952669
 20
139.9985124759046
 10
1982.606117678524
 20
140.810778921676
 10
1982.364944694076
 20
141.6204417109219
 10
1981.941069411725
 20
141.8272464292334
 10
1981.233172397533
 20
141.8272464292334
 10
1980.639389929345
 20
141.8272464292334
 10
1980.059890376953
 20
141.5724600406662
 10
1979.398710399847
 20
141.0654909200569
 10
1978.566284213549
 20
140.4276694614944
 10
1978.233164958657
 20
139.9038881587491
 10
1977.824762835085
 20
139.2815398589669
 10
1977.273680333915
 20
138.458263665602
 10
1977.015695167332
 20
137.9040567766015
 10
1976.550310160944
 20
136.687926008631
 10
1976.084776374184
 20
135.4646537827621
 10
1975.644088909695
 20
134.0411231749885
 10
1975.336708659311
 20
133.0564946672286
 10
1975.336708659311
 20
133.0564946672286
 10
1972.205774492298
 20
123.105319426746
 10
1972.205774492298
 20
123.105319426746
 10
1972.205774492298
 20
123.105319426746
 10
1970.338878373326
 20
123.105319426746
 10
1970.338878373326
 20
123.105319426746
 10
1970.338878373326
 20
123.105319426746
 10
1976.718878323425
 20
143.4575073651321
 10
1976.718878323425
 20
143.4575073651321
 97
        1
330
36A9
 92
       16
 93
        1
 72
     4
 94
        3
 73
     0
 74
     1
 95
       29
 96
       25
 40
0.0
 40
0.0
 40
0.0
 40
0.0
 40
1.0
 40
1.0
 40
1.0
 40
2.0
 40
2.0
 40
2.0
 40
3.0
 40
3.0
 40
3.0
 40
4.0
 40
4.0
 40
4.0
 40
5.0
 40
5.0
 40
5.0
 40
6.0
 40
6.0
 40
6.0
 40
7.0
 40
7.0
 40
7.0
 40
8.0
 40
8.0
 40
8.0
 40
8.0
 10
1947.916188375669
 20
126.8949043045264
 10
1947.908303015907
 20
128.3120373562658
 10
1948.355685597176
 20
130.8298476066162
 10
1949.501740809517
 20
134.1986815898748
 10
1951.062744481836
 20
138.7603622127471
 10
1951.998870588036
 20
140.4276694614944
 10
1952.818055321147
 20
141.2392663955878
 10
1954.014844640642
 20
142.4210288974216
 10
1955.623755593032
 20
142.4799459250845
 10
1956.098364982539
 20
142.4210288974216
 10
1956.77382787544
 20
142.3399435941987
 10
1957.727956406759
 20
141.8978427161679
 10
1957.784939289575
 20
140.4095182560024
 10
1957.830466083678
 20
139.1357350935386
 10
1957.463424903768
 20
136.7501905946838
 10
1956.178706383896
 20
133.0053142189559
 10
1954.698044112936
 20
128.6536370924121
 10
1953.808635043822
 20
126.9429603649685
 10
1953.095679496951
 20
126.1974219164366
 10
1951.752490290537
 20
124.7997790935452
 10
1950.311998720255
 20
124.9339789898883
 10
1950.0993915674
 20
124.9339789898883
 10
1949.823255195324
 20
124.9339789898883
 10
1947.920056665365
 20
125.2336226608809
 10
1947.916188375669
 20
126.8949043045264
 97
        1
330
36AB
 75
     0
 76
     1
 98
        1
 10
1859.334883625664
 20
72.26751235270598
1001
ACAD
1010
0.0
1020
0.0
1030
0.0
  0
POLYLINE
  5
369C
102
{ACAD_REACTORS
330
369B
330
36AC
102
}
330
A
100
AcDbEntity
  8
TEMPLATE
100
AcDb2dPolyline
 66
     1
 10
0.0
 20
0.0
 30
0.0
  0
VERTEX
  5
369D
330
369C
100
AcDbEntity
  8
TEMPLATE
100
AcDbVertex
100
AcDb2dVertex
 10
1934.476782902687
 20
153.1053194253001
 30
0.0
  0
VERTEX
  5
369E
330
369C
100
AcDbEntity
  8
TEMPLATE
100
AcDbVertex
100
AcDb2dVertex
 10
1934.476782902687
 20
147.1959117946397
 30
0.0
  0
VERTEX
  5
369F
330
369C
100
AcDbEntity
  8
TEMPLATE
100
AcDbVertex
100
AcDb2dVertex
 10
1925.116191352377
 20
147.1959117946397
 30
0.0
  0
VERTEX
  5
36A0
330
369C
100
AcDbEntity
  8
TEMPLATE
100
AcDbVertex
100
AcDb2dVertex
 10
1925.116191352377
 20
123.105319426746
 30
0.0
  0
VERTEX
  5
36A1
330
369C
100
AcDbEntity
  8
TEMPLATE
100
AcDbVertex
100
AcDb2dVertex
 10
1916.883578199102
 20
123.105319426746
 30
0.0
  0
VERTEX
  5
36A2
330
369C
100
AcDbEntity
  8
TEMPLATE
100
AcDbVertex
100
AcDb2dVertex
 10
1916.883578199102
 20
147.1959117946397
 30
0.0
  0
VERTEX
  5
36A3
330
369C
100
AcDbEntity
  8
TEMPLATE
100
AcDbVertex
100
AcDb2dVertex
 10
1907.688876764557
 20
147.1959117946397
 30
0.0
  0
VERTEX
  5
36A4
330
369C
100
AcDbEntity
  8
TEMPLATE
100
AcDbVertex
100
AcDb2dVertex
 10
1907.688876764557
 20
153.1053194253001
 30
0.0
  0
VERTEX
  5
36A5
330
369C
100
AcDbEntity
  8
TEMPLATE
100
AcDbVertex
100
AcDb2dVertex
 10
1934.476782902687
 20
153.1053194253001
 30
0.0
  0
SEQEND
  5
36A6
330
369C
100
AcDbEntity
  8
TEMPLATE
  0
SPLINE
  5
36A7
102
{ACAD_REACTORS
330
369B
330
36AC
102
}
330
A
100
AcDbEntity
  8
TEMPLATE
100
AcDbSpline
210
0.0
220
0.0
230
1.0
 70
    11
 71
     3
 72
    56
 73
    52
 74
     0
 42
0.000000001
 43
0.0000000001
 40
0.0
 40
0.0
 40
0.0
 40
0.0
 40
1.0
 40
1.0
 40
1.0
 40
2.0
 40
2.0
 40
2.0
 40
3.0
 40
3.0
 40
3.0
 40
4.0
 40
4.0
 40
4.0
 40
5.0
 40
5.0
 40
5.0
 40
6.0
 40
6.0
 40
6.0
 40
7.0
 40
7.0
 40
7.0
 40
8.0
 40
8.0
 40
8.0
 40
9.0
 40
9.0
 40
9.0
 40
10.0
 40
10.0
 40
10.0
 40
11.0
 40
11.0
 40
11.0
 40
12.0
 40
12.0
 40
12.0
 40
13.0
 40
13.0
 40
13.0
 40
14.0
 40
14.0
 40
14.0
 40
15.0
 40
15.0
 40
15.0
 40
16.0
 40
16.0
 40
16.0
 40
17.0
 40
17.0
 40
17.0
 40
17.0
 10
1947.01896833698
 20
152.3909504648878
 30
0.0
 10
1948.1728345189
 20
152.715738018898
 30
0.0
 10
1949.662423612235
 20
152.4440650580081
 30
0.0
 10
1949.662423612235
 20
152.4440650580081
 30
0.0
 10
1949.662423612235
 20
152.4440650580081
 30
0.0
 10
1948.946790018651
 20
150.2964947655846
 30
0.0
 10
1948.946790018651
 20
150.2964947655846
 30
0.0
 10
1948.946790018651
 20
150.2964947655846
 30
0.0
 10
1947.484427733556
 20
150.6348957237139
 30
0.0
 10
1946.356523726704
 20
149.7454866546012
 30
0.0
 10
1945.480058550036
 20
149.0499384113589
 30
0.0
 10
1944.912238256914
 20
147.2017886193686
 30
0.0
 10
1944.69442379101
 20
146.4990989182278
 30
0.0
 10
1944.69442379101
 20
146.4990989182278
 30
0.0
 10
1943.723334297183
 20
143.518432927829
 30
0.0
 10
1943.723334297183
 20
143.518432927829
 30
0.0
 10
1943.723334297183
 20
143.518432927829
 30
0.0
 10
1946.907457447503
 20
143.518432927829
 30
0.0
 10
1946.907457447503
 20
143.518432927829
 30
0.0
 10
1946.907457447503
 20
143.518432927829
 30
0.0
 10
1946.412241976351
 20
141.642461206109
 30
0.0
 10
1946.412241976351
 20
141.642461206109
 30
0.0
 10
1946.412241976351
 20
141.642461206109
 30
0.0
 10
1943.202156650962
 20
141.642461206109
 30
0.0
 10
1943.202156650962
 20
141.642461206109
 30
0.0
 10
1943.202156650962
 20
141.642461206109
 30
0.0
 10
1937.458713526257
 20
123.105319426746
 30
0.0
 10
1937.458713526257
 20
123.105319426746
 30
0.0
 10
1937.458713526257
 20
123.105319426746
 30
0.0
 10
1935.660479549369
 20
123.105319426746
 30
0.0
 10
1935.660479549369
 20
123.105319426746
 30
0.0
 10
1935.660479549369
 20
123.105319426746
 30
0.0
 10
1941.409129987127
 20
141.642461206109
 30
0.0
 10
1941.409129987127
 20
141.642461206109
 30
0.0
 10
1941.409129987127
 20
141.642461206109
 30
0.0
 10
1939.040397670409
 20
141.642461206109
 30
0.0
 10
1939.040397670409
 20
141.642461206109
 30
0.0
 10
1939.040397670409
 20
141.642461206109
 30
0.0
 10
1939.536952164915
 20
143.518432927829
 30
0.0
 10
1939.536952164915
 20
143.518432927829
 30
0.0
 10
1939.536952164915
 20
143.518432927829
 30
0.0
 10
1941.930307633347
 20
143.518432927829
 30
0.0
 10
1941.930307633347
 20
143.518432927829
 30
0.0
 10
1941.930307633347
 20
143.518432927829
 30
0.0
 10
1942.77686795507
 20
146.1179236028939
 30
0.0
 10
1942.77686795507
 20
146.1179236028939
 30
0.0
 10
1943.461406450716
 20
148.2973328951149
 30
0.0
 10
1944.042245026465
 20
149.4674161376772
 30
0.0
 10
1944.540138544327
 20
150.3496093587049
 30
0.0
 10
1945.032750358952
 20
151.232546481597
 30
0.0
 10
1946.007708142475
 20
152.0998616653363
 30
0.0
 10
1947.01896833698
 20
152.3909504648878
 30
0.0
  0
SPLINE
  5
36A8
102
{ACAD_REACTORS
330
369B
330
36AC
102
}
330
A
100
AcDbEntity
  8
TEMPLATE
100
AcDbSpline
210
0.0
220
0.0
230
1.0
 70
    11
 71
     3
 72
    38
 73
    34
 74
     0
 42
0.000000001
 43
0.0000000001
 40
0.0
 40
0.0
 40
0.0
 40
0.0
 40
1.0
 40
1.0
 40
1.0
 40
2.0
 40
2.0
 40
2.0
 40
3.0
 40
3.0
 40
3.0
 40
4.0
 40
4.0
 40
4.0
 40
5.0
 40
5.0
 40
5.0
 40
6.0
 40
6.0
 40
6.0
 40
7.0
 40
7.0
 40
7.0
 40
8.0
 40
8.0
 40
8.0
 40
9.0
 40
9.0
 40
9.0
 40
10.0
 40
10.0
 40
10.0
 40
11.0
 40
11.0
 40
11.0
 40
11.0
 10
1966.542747159137
 20
143.4464976175386
 30
0.0
 10
1966.542747159137
 20
143.4464976175386
 30
0.0
 10
1968.39149207262
 20
143.4464976175386
 30
0.0
 10
1968.39149207262
 20
143.4464976175386
 30
0.0
 10
1968.39149207262
 20
143.4464976175386
 30
0.0
 10
1967.56561222273
 20
140.8022984404216
 30
0.0
 10
1967.56561222273
 20
140.8022984404216
 30
0.0
 10
1968.193167835563
 20
141.54456372075
 30
0.0
 10
1969.183598777865
 20
142.5331349083912
 30
0.0
 10
1970.034176169654
 20
143.0316235477459
 30
0.0
 10
1971.304760554101
 20
143.7738888280742
 30
0.0
 10
1972.030808773784
 20
143.8717863134333
 30
0.0
 10
1972.829313035064
 20
143.8522960845852
 30
0.0
 10
1972.829313035064
 20
143.8522960845852
 30
0.0
 10
1972.048959979278
 20
141.3520419182353
 30
0.0
 10
1972.048959979278
 20
141.3520419182353
 30
0.0
 10
1971.540726225497
 20
141.5672527276151
 30
0.0
 10
1969.974515240128
 20
141.1575859708734
 30
0.0
 10
1969.076030568268
 20
140.5112840310564
 30
0.0
 10
1968.265772657532
 20
139.9285113104618
 30
0.0
 10
1967.705614553615
 20
139.4326263276327
 30
0.0
 10
1967.04190531017
 20
138.1859955832205
 30
0.0
 10
1966.383254599404
 20
136.9375050841474
 30
0.0
 10
1965.86341597654
 20
134.9467493047458
 30
0.0
 10
1964.968799594376
 20
132.058773486655
 30
0.0
 10
1964.968799594376
 20
132.058773486655
 30
0.0
 10
1962.174852971949
 20
123.105319426746
 30
0.0
 10
1962.174852971949
 20
123.105319426746
 30
0.0
 10
1962.174852971949
 20
123.105319426746
 30
0.0
 10
1960.380561674943
 20
123.105319426746
 30
0.0
 10
1960.380561674943
 20
123.105319426746
 30
0.0
 10
1960.380561674943
 20
123.105319426746
 30
0.0
 10
1966.542747159137
 20
143.4464976175386
 30
0.0
 10
1966.542747159137
 20
143.4464976175386
 30
0.0
  0
SPLINE
  5
36A9
102
{ACAD_REACTORS
330
369B
330
36AC
102
}
330
A
100
AcDbEntity
  8
TEMPLATE
100
AcDbSpline
210
0.0
220
0.0
230
1.0
 70
    11
 71
     3
 72
   104
 73
   100
 74
     0
 42
0.000000001
 43
0.0000000001
 40
0.0
 40
0.0
 40
0.0
 40
0.0
 40
1.0
 40
1.0
 40
1.0
 40
2.0
 40
2.0
 40
2.0
 40
3.0
 40
3.0
 40
3.0
 40
4.0
 40
4.0
 40
4.0
 40
5.0
 40
5.0
 40
5.0
 40
6.0
 40
6.0
 40
6.0
 40
7.0
 40
7.0
 40
7.0
 40
8.0
 40
8.0
 40
8.0
 40
9.0
 40
9.0
 40
9.0
 40
10.0
 40
10.0
 40
10.0
 40
11.0
 40
11.0
 40
11.0
 40
12.0
 40
12.0
 40
12.0
 40
13.0
 40
13.0
 40
13.0
 40
14.0
 40
14.0
 40
14.0
 40
15.0
 40
15.0
 40
15.0
 40
16.0
 40
16.0
 40
16.0
 40
17.0
 40
17.0
 40
17.0
 40
18.0
 40
18.0
 40
18.0
 40
19.0
 40
19.0
 40
19.0
 40
20.0
 40
20.0
 40
20.0
 40
21.0
 40
21.0
 40
21.0
 40
22.0
 40
22.0
 40
22.0
 40
23.0
 40
23.0
 40
23.0
 40
24.0
 40
24.0
 40
24.0
 40
25.0
 40
25.0
 40
25.0
 40
26.0
 40
26.0
 40
26.0
 40
27.0
 40
27.0
 40
27.0
 40
28.0
 40
28.0
 40
28.0
 40
29.0
 40
29.0
 40
29.0
 40
30.0
 40
30.0
 40
30.0
 40
31.0
 40
31.0
 40
31.0
 40
32.0
 40
32.0
 40
32.0
 40
33.0
 40
33.0
 40
33.0
 40
33.0
 10
1976.718878323425
 20
143.4575073651321
 30
0.0
 10
1976.718878323425
 20
143.4575073651321
 30
0.0
 10
1978.332996588864
 20
143.4575073651321
 30
0.0
 10
1978.332996588864
 20
143.4575073651321
 30
0.0
 10
1978.332996588864
 20
143.4575073651321
 30
0.0
 10
1977.517531365076
 20
140.810778921676
 30
0.0
 10
1977.517531365076
 20
140.810778921676
 30
0.0
 10
1978.225279598895
 20
141.920531723033
 30
0.0
 10
1978.860571791119
 20
142.4151520726926
 30
0.0
 10
1979.704602846502
 20
143.054312554611
 30
0.0
 10
1980.551163168223
 20
143.6843974337833
 30
0.0
 10
1981.556025806694
 20
143.812794895584
 30
0.0
 10
1982.253508194784
 20
143.812794895584
 30
0.0
 10
1983.117029479015
 20
143.812794895584
 30
0.0
 10
1983.950645908296
 20
143.6422925882567
 30
0.0
 10
1984.388804106443
 20
142.6958262461422
 30
0.0
 10
1984.72460140805
 20
141.9536353560001
 30
0.0
 10
1984.740223347202
 20
141.8660781065566
 30
0.0
 10
1984.644260006691
 20
140.4010377747479
 30
0.0
 10
1985.521915426345
 20
141.9030500292188
 30
0.0
 10
1986.170151511008
 20
142.5500214807137
 30
0.0
 10
1987.272167732975
 20
143.1716258786317
 30
0.0
 10
1988.42863757142
 20
143.812794895584
 30
0.0
 10
1989.102761440966
 20
143.8607765658398
 30
0.0
 10
1989.885941323838
 20
143.7453229964802
 30
0.0
 10
1991.039733115569
 20
143.5748950793392
 30
0.0
 10
1991.776195961356
 20
143.1632197875635
 30
0.0
 10
1992.161239566385
 20
141.9121256319649
 30
0.0
 10
1992.54762219477
 20
140.6648997660613
 30
0.0
 10
1992.338883331611
 20
139.9959088193793
 30
0.0
 10
1991.861744675765
 20
138.0103603530286
 30
0.0
 10
1991.64393020986
 20
137.1060732466272
 30
0.0
 10
1991.328813380087
 20
136.0111240923725
 30
0.0
 10
1990.916542966819
 20
134.7082543670094
 30
0.0
 10
1990.916542966819
 20
134.7082543670094
 30
0.0
 10
1987.272167732975
 20
123.105319426746
 30
0.0
 10
1987.272167732975
 20
123.105319426746
 30
0.0
 10
1987.272167732975
 20
123.105319426746
 30
0.0
 10
1985.376705782409
 20
123.105319426746
 30
0.0
 10
1985.376705782409
 20
123.105319426746
 30
0.0
 10
1985.376705782409
 20
123.105319426746
 30
0.0
 10
1988.567449659321
 20
133.2490164697431
 30
0.0
 10
1988.567449659321
 20
133.2490164697431
 30
0.0
 10
1989.233836949479
 20
135.3713684889626
 30
0.0
 10
1989.684939040069
 20
136.9212880235028
 30
0.0
 10
1989.918375445127
 20
137.893047029008
 30
0.0
 10
1990.211323999339
 20
139.1052351170969
 30
0.0
 10
1990.327967811683
 20
139.505231149601
 30
0.0
 10
1990.189304504152
 20
140.3874987608153
 30
0.0
 10
1990.062246065708
 20
141.2087664191461
 30
0.0
 10
1989.647297605728
 20
141.7435574694851
 30
0.0
 10
1988.936871325198
 20
141.7435574694851
 30
0.0
 10
1988.17972800758
 20
141.7435574694851
 30
0.0
 10
1987.566455310545
 20
141.659273388245
 30
0.0
 10
1986.708290119737
 20
140.7971655175569
 30
0.0
 10
1985.84997614856
 20
139.9285113104618
 30
0.0
 10
1985.140740111011
 20
138.9088450248874
 30
0.0
 10
1984.584599077163
 20
137.7361581257997
 30
0.0
 10
1984.029648286297
 20
136.5563297688134
 30
0.0
 10
1983.466960916042
 20
135.0608638507494
 30
0.0
 10
1982.896536966398
 20
133.2490164697431
 30
0.0
 10
1982.896536966398
 20
133.2490164697431
 30
0.0
 10
1979.704602846502
 20
123.105319426746
 30
0.0
 10
1979.704602846502
 20
123.105319426746
 30
0.0
 10
1979.704602846502
 20
123.105319426746
 30
0.0
 10
1977.921916418581
 20
123.105319426746
 30
0.0
 10
1977.921916418581
 20
123.105319426746
 30
0.0
 10
1977.921916418581
 20
123.105319426746
 30
0.0
 10
1981.571498965475
 20
134.7030470539584
 30
0.0
 10
1981.571498965475
 20
134.7030470539584
 30
0.0
 10
1981.956542570504
 20
135.9373290274211
 30
0.0
 10
1982.245771615394
 20
136.9433819088763
 30
0.0
 10
1982.436359273062
 20
137.729686179579
 30
0.0
 10
1982.760402925207
 20
139.0832156219098
 30
0.0
 10
1982.851158952669
 20
139.9985124759046
 30
0.0
 10
1982.606117678524
 20
140.810778921676
 30
0.0
 10
1982.364944694076
 20
141.6204417109219
 30
0.0
 10
1981.941069411725
 20
141.8272464292334
 30
0.0
 10
1981.233172397533
 20
141.8272464292334
 30
0.0
 10
1980.639389929345
 20
141.8272464292334
 30
0.0
 10
1980.059890376953
 20
141.5724600406662
 30
0.0
 10
1979.398710399847
 20
141.0654909200569
 30
0.0
 10
1978.566284213549
 20
140.4276694614944
 30
0.0
 10
1978.233164958657
 20
139.9038881587491
 30
0.0
 10
1977.824762835085
 20
139.2815398589669
 30
0.0
 10
1977.273680333915
 20
138.458263665602
 30
0.0
 10
1977.015695167332
 20
137.9040567766015
 30
0.0
 10
1976.550310160944
 20
136.687926008631
 30
0.0
 10
1976.084776374184
 20
135.4646537827621
 30
0.0
 10
1975.644088909695
 20
134.0411231749885
 30
0.0
 10
1975.336708659311
 20
133.0564946672286
 30
0.0
 10
1975.336708659311
 20
133.0564946672286
 30
0.0
 10
1972.205774492298
 20
123.105319426746
 30
0.0
 10
1972.205774492298
 20
123.105319426746
 30
0.0
 10
1972.205774492298
 20
123.105319426746
 30
0.0
 10
1970.338878373326
 20
123.105319426746
 30
0.0
 10
1970.338878373326
 20
123.105319426746
 30
0.0
 10
1970.338878373326
 20
123.105319426746
 30
0.0
 10
1976.718878323425
 20
143.4575073651321
 30
0.0
 10
1976.718878323425
 20
143.4575073651321
 30
0.0
  0
SPLINE
  5
36AA
102
{ACAD_REACTORS
330
369B
330
36AC
102
}
330
A
100
AcDbEntity
  8
TEMPLATE
100
AcDbSpline
210
0.0
220
0.0
230
1.0
 70
    11
 71
     3
 72
    32
 73
    28
 74
     0
 42
0.000000001
 43
0.0000000001
 40
0.0
 40
0.0
 40
0.0
 40
0.0
 40
1.0
 40
1.0
 40
1.0
 40
2.0
 40
2.0
 40
2.0
 40
3.0
 40
3.0
 40
3.0
 40
4.0
 40
4.0
 40
4.0
 40
5.0
 40
5.0
 40
5.0
 40
6.0
 40
6.0
 40
6.0
 40
7.0
 40
7.0
 40
7.0
 40
8.0
 40
8.0
 40
8.0
 40
9.0
 40
9.0
 40
9.0
 40
9.0
 10
1951.394524713372
 20
142.3847264864374
 30
0.0
 10
1950.311998720255
 20
140.9844800070205
 30
0.0
 10
1949.478382290974
 20
139.7243102486757
 30
0.0
 10
1948.128795528524
 20
135.7635535518901
 30
0.0
 10
1946.888041608841
 20
132.1406026917421
 30
0.0
 10
1946.098464169936
 20
129.5048096056932
 30
0.0
 10
1945.979216701069
 20
126.2947242803041
 30
0.0
 10
1945.888460673606
 20
123.9059066132458
 30
0.0
 10
1947.343086379314
 20
123.105319426746
 30
0.0
 10
1949.475853024634
 20
123.105319426746
 30
0.0
 10
1950.395018168326
 20
123.105319426746
 30
0.0
 10
1952.714504181618
 20
123.1637901132903
 30
0.0
 10
1954.3662638814
 20
125.2056519507783
 30
0.0
 10
1955.522584939468
 20
126.6401923061455
 30
0.0
 10
1956.588298750451
 20
128.1272521331414
 30
0.0
 10
1958.017036671275
 20
133.0053142189559
 30
0.0
 10
1959.205940631009
 20
137.0833842397621
 30
0.0
 10
1960.029142434186
 20
139.7191029356247
 30
0.0
 10
1959.968291261677
 20
141.2197761667398
 30
0.0
 10
1959.968291261677
 20
141.2197761667398
 30
0.0
 10
1959.968291261677
 20
141.2197761667398
 30
0.0
 10
1959.968291261677
 20
141.2197761667398
 30
0.0
 10
1959.580569609936
 20
143.7233035012931
 30
0.0
 10
1957.762919794387
 20
144.2522921170894
 30
0.0
 10
1956.724432791643
 20
144.2522921170894
 30
0.0
 10
1955.70156772805
 20
144.2522921170894
 30
0.0
 10
1952.960735698745
 20
144.4292663706373
 30
0.0
 10
1951.394524713372
 20
142.3847264864374
 30
0.0
  0
SPLINE
  5
36AB
102
{ACAD_REACTORS
330
369B
330
36AC
102
}
330
A
100
AcDbEntity
  8
TEMPLATE
100
AcDbSpline
210
0.0
220
0.0
230
1.0
 70
    11
 71
     3
 72
    29
 73
    25
 74
     0
 42
0.000000001
 43
0.0000000001
 40
0.0
 40
0.0
 40
0.0
 40
0.0
 40
1.0
 40
1.0
 40
1.0
 40
2.0
 40
2.0
 40
2.0
 40
3.0
 40
3.0
 40
3.0
 40
4.0
 40
4.0
 40
4.0
 40
5.0
 40
5.0
 40
5.0
 40
6.0
 40
6.0
 40
6.0
 40
7.0
 40
7.0
 40
7.0
 40
8.0
 40
8.0
 40
8.0
 40
8.0
 10
1947.916188375669
 20
126.8949043045264
 30
0.0
 10
1947.908303015907
 20
128.3120373562658
 30
0.0
 10
1948.355685597176
 20
130.8298476066162
 30
0.0
 10
1949.501740809517
 20
134.1986815898748
 30
0.0
 10
1951.062744481836
 20
138.7603622127471
 30
0.0
 10
1951.998870588036
 20
140.4276694614944
 30
0.0
 10
1952.818055321147
 20
141.2392663955878
 30
0.0
 10
1954.014844640642
 20
142.4210288974216
 30
0.0
 10
1955.623755593032
 20
142.4799459250845
 30
0.0
 10
1956.098364982539
 20
142.4210288974216
 30
0.0
 10
1956.77382787544
 20
142.3399435941987
 30
0.0
 10
1957.727956406759
 20
141.8978427161679
 30
0.0
 10
1957.784939289575
 20
140.4095182560024
 30
0.0
 10
1957.830466083678
 20
139.1357350935386
 30
0.0
 10
1957.463424903768
 20
136.7501905946838
 30
0.0
 10
1956.178706383896
 20
133.0053142189559
 30
0.0
 10
1954.698044112936
 20
128.6536370924121
 30
0.0
 10
1953.808635043822
 20
126.9429603649685
 30
0.0
 10
1953.095679496951
 20
126.1974219164366
 30
0.0
 10
1951.752490290537
 20
124.7997790935452
 30
0.0
 10
1950.311998720255
 20
124.9339789898883
 30
0.0
 10
1950.0993915674
 20
124.9339789898883
 30
0.0
 10
1949.823255195324
 20
124.9339789898883
 30
0.0
 10
1947.920056665365
 20
125.2336226608809
 30
0.0
 10
1947.916188375669
 20
126.8949043045264
 30
0.0
  0
MTEXT
  5
3791
330
A
100
AcDbEntity
  8
TEMPLATE
390
1D
100
AcDbMText
 10
130.3241789892355
 20
314.1552119569445
 30
0.0
 40
24.4326171875
 41
0.0
 46
27.53672361022102
 71
     1
 72
     1
  1
{洗面器 -CATALANO, Premium-}
  7
ＭＳ ゴシック
 73
     1
 44
0.7828267384257843
1001
ACAD
1000
ACAD_MTEXT_DEFINED_HEIGHT_BEGIN
1070
    46
1040
27.53672361022102
1000
ACAD_MTEXT_DEFINED_HEIGHT_END
  0
MTEXT
  5
37AD
330
A
100
AcDbEntity
  8
TEMPLATE
 62
     1
390
1D
100
AcDbMText
 10
129.2635665064197
 20
223.9740171808398
 30
0.0
 40
24.4326171875
 41
0.0
 46
69.00885866868045
 71
     1
 72
     1
  1
{\C256;壁掛け,カウンター置き/オーバーフロー付き/壁取付ボルト付属/\P陶器/ホワイト}
  7
ＭＳ ゴシック
 73
     1
 44
0.9822934569727008
1001
ACAD
1000
ACAD_MTEXT_DEFINED_HEIGHT_BEGIN
1070
    46
1040
69.00885866868045
1000
ACAD_MTEXT_DEFINED_HEIGHT_END
  0
CIRCLE
  5
3F90
330
A
100
AcDbEntity
  8
HIDDEN
 48
0.58
390
1D
100
AcDbCircle
 10
222.0953978794032
 20
1745.0
 30
0.0
 40
17.5
  0
LINE
  5
3FAF
330
A
100
AcDbEntity
  8
DIM
100
AcDbLine
 10
876.0207681213778
 20
1197.706614976022
 30
0.0
 11
774.1411630383627
 21
994.7335910663196
 31
0.0
  0
TEXT
  5
4073
330
A
100
AcDbEntity
  8
DIM
  6
Continuous
100
AcDbText
 10
248.9976012748302
 20
1733.792050263128
 30
0.0
 40
24.4326171875
  1
＝φ30もしくはφ35の水栓取付用穴あけ加工を承ります。
 50
359.9999999999998
  7
ＭＳ ゴシック
100
AcDbText
  0
TEXT
  5
4074
330
A
100
AcDbEntity
  8
DIM
  6
Continuous
100
AcDbText
 10
253.4624275774913
 20
1691.831837522218
 30
0.0
 40
24.4326171875
  1
  必要な場合、ご注文の際にご指示ください。
 50
359.9999999999998
  7
ＭＳ ゴシック
100
AcDbText
  0
TEXT
  5
4075
330
A
100
AcDbEntity
  8
DIM
  6
Continuous
100
AcDbText
 10
882.6135418090835
 20
1212.072981026663
 30
34.99521132346015
 40
24.0
  1
壁取付ボルト穴(2ヶ所)
 50
359.9999999999998
  7
ＭＳ ゴシック
100
AcDbText
  0
TEXT
  5
4076
330
A
100
AcDbEntity
  8
DIM
  6
Continuous
100
AcDbText
 10
1239.462102231578
 20
1764.0
 30
0.0
 40
24.0
  1
※陶器製品には寸法公差があります。
  7
ＭＳ ゴシック
100
AcDbText
  0
TEXT
  5
4077
330
A
100
AcDbEntity
  8
DIM
  6
Continuous
100
AcDbText
 10
1242.385948673994
 20
1721.807302738527
 30
0.0
 40
24.0
  1
　洗面器の収め方をご確認の上、必ず現物を合わせて
  7
ＭＳ ゴシック
100
AcDbText
  0
TEXT
  5
4078
330
A
100
AcDbEntity
  8
DIM
  6
Continuous
100
AcDbText
 10
1242.385948673994
 20
1680.710766537452
 30
0.0
 40
24.0
  1
  カウンターに切込を行ってください。
  7
ＭＳ ゴシック
100
AcDbText
  0
LINE
  5
42D1
330
A
100
AcDbEntity
  8
0
100
AcDbLine
 10
281.2000000000027
 20
2187.784675895809
 30
0.0
 11
281.2000000000027
 21
1974.984675895809
 31
0.0
  0
ARC
  5
42D2
330
A
100
AcDbEntity
  8
0
100
AcDbCircle
 10
291.2000000000027
 20
2187.784675895809
 30
0.0
 40
10.0
100
AcDbArc
 50
90.0
 51
180.0
  0
ARC
  5
42D3
330
A
100
AcDbEntity
  8
0
100
AcDbCircle
 10
291.2000000000027
 20
1974.984675895809
 30
0.0
 40
10.0
100
AcDbArc
 50
180.0
 51
270.0
  0
LINE
  5
42D4
330
A
100
AcDbEntity
  8
0
100
AcDbLine
 10
966.8000000000031
 20
2187.784675895809
 30
0.0
 11
966.7999999999995
 21
1974.984675895809
 31
0.0
  0
LINE
  5
42D5
102
{ACAD_REACTORS
330
4734
102
}
330
A
100
AcDbEntity
  8
0
100
AcDbLine
 10
291.2000000000027
 20
1964.984675895809
 30
0.0
 11
956.7999999999995
 21
1964.984675895809
 31
0.0
  0
ARC
  5
42D6
330
A
100
AcDbEntity
  8
0
100
AcDbCircle
 10
956.7999999999995
 20
1974.984675895809
 30
0.0
 40
10.0
100
AcDbArc
 50
270.0
 51
359.9999999999987
  0
LINE
  5
42D7
330
A
100
AcDbEntity
  8
0
100
AcDbLine
 10
274.0000000000002
 20
2324.784675895809
 30
0.0
 11
274.0000000000002
 21
1964.784675895809
 31
0.0
  0
ARC
  5
42D8
330
A
100
AcDbEntity
  8
0
100
AcDbCircle
 10
281.0000000000002
 20
1964.784675895809
 30
0.0
 40
7.0
100
AcDbArc
 50
180.0
 51
270.0
  0
LINE
  5
42D9
330
A
100
AcDbEntity
  8
0
100
AcDbLine
 10
281.0000000000002
 20
1957.784675895809
 30
0.0
 11
967.0000000000002
 21
1957.784675895809
 31
0.0
  0
LINE
  5
42DA
330
A
100
AcDbEntity
  8
0
100
AcDbLine
 10
974.0000000000002
 20
1964.784675895809
 30
0.0
 11
974.0000000000002
 21
2324.784675895809
 31
0.0
  0
ARC
  5
42DB
102
{ACAD_REACTORS
330
46E6
102
}
330
A
100
AcDbEntity
  8
0
100
AcDbCircle
 10
971.0000000000002
 20
2324.784675895809
 30
0.0
 40
3.0
100
AcDbArc
 50
0.0
 51
90.0
  0
ARC
  5
42DC
102
{ACAD_REACTORS
330
4716
102
}
330
A
100
AcDbEntity
  8
0
100
AcDbCircle
 10
967.0000000000002
 20
1964.784675895809
 30
0.0
 40
7.0
100
AcDbArc
 50
270.0
 51
0.0
  0
LINE
  5
42DD
102
{ACAD_REACTORS
330
4716
102
}
330
A
100
AcDbEntity
  8
0
100
AcDbLine
 10
971.0000000000002
 20
2327.784675895809
 30
0.0
 11
277.0000000000002
 21
2327.784675895809
 31
0.0
  0
ARC
  5
42DE
102
{ACAD_REACTORS
330
46E6
102
}
330
A
100
AcDbEntity
  8
0
100
AcDbCircle
 10
277.0000000000002
 20
2324.784675895809
 30
0.0
 40
3.0
100
AcDbArc
 50
90.0
 51
180.0
  0
LINE
  5
42DF
102
{ACAD_REACTORS
330
4734
102
}
330
A
100
AcDbEntity
  8
0
100
AcDbLine
 10
291.2000000000027
 20
2197.784675895809
 30
0.0
 11
956.8000000000031
 21
2197.784675895809
 31
0.0
  0
ARC
  5
42E0
330
A
100
AcDbEntity
  8
0
100
AcDbCircle
 10
956.8000000000031
 20
2187.784675895809
 30
0.0
 40
10.0
100
AcDbArc
 50
359.9999999999974
 51
90.0
  0
CIRCLE
  5
42E1
102
{ACAD_REACTORS
330
46F8
102
}
330
A
100
AcDbEntity
  8
0
  6
HIDDEN2
 48
3.0
100
AcDbCircle
 10
624.0000000000002
 20
2261.271359476185
 30
0.0
 40
17.5
  0
ARC
  5
42E2
330
A
100
AcDbEntity
  8
0
100
AcDbCircle
 10
624.0000000000002
 20
2110.08333333332
 30
0.0
 40
22.5
100
AcDbArc
 50
89.99999999978694
 51
269.9999999992681
  0
ARC
  5
42E3
330
A
100
AcDbEntity
  8
0
100
AcDbCircle
 10
624.0000000000002
 20
2110.08333333332
 30
0.0
 40
22.5
100
AcDbArc
 50
270.0000000002038
 51
89.99999999978694
  0
LINE
  5
42E4
330
A
100
AcDbEntity
  8
0
100
AcDbLine
 10
897.3021413209538
 20
2031.185135212197
 30
0.0
 11
357.4004593163883
 21
2031.185135212197
 31
0.0
  0
LINE
  5
42E5
330
A
100
AcDbEntity
  8
0
100
AcDbLine
 10
347.4004593163883
 20
2178.981531454443
 30
0.0
 11
347.4004593163883
 21
2041.185135212197
 31
0.0
  0
ARC
  5
42E6
330
A
100
AcDbEntity
  8
0
100
AcDbCircle
 10
357.4004593163883
 20
2041.185135212197
 30
0.0
 40
10.0
100
AcDbArc
 50
180.0
 51
270.0
  0
LINE
  5
42E7
330
A
100
AcDbEntity
  8
0
100
AcDbLine
 10
907.3021413209538
 20
2178.981531454443
 30
0.0
 11
907.3021413209538
 21
2041.185135212197
 31
0.0
  0
ARC
  5
42E8
330
A
100
AcDbEntity
  8
0
100
AcDbCircle
 10
897.3021413209538
 20
2041.185135212197
 30
0.0
 40
10.0
100
AcDbArc
 50
270.0
 51
0.0
  0
LINE
  5
42E9
330
A
100
AcDbEntity
  8
0
100
AcDbLine
 10
897.3021413209538
 20
2188.981531454443
 30
0.0
 11
357.4004593163883
 21
2188.981531454443
 31
0.0
  0
ARC
  5
42EA
330
A
100
AcDbEntity
  8
0
100
AcDbCircle
 10
897.3021413209538
 20
2178.981531454443
 30
0.0
 40
10.0
100
AcDbArc
 50
0.0
 51
90.0
  0
ARC
  5
42EB
330
A
100
AcDbEntity
  8
0
100
AcDbCircle
 10
357.4004593163883
 20
2178.981531454443
 30
0.0
 40
10.0
100
AcDbArc
 50
90.0
 51
180.0
  0
LINE
  5
42EC
330
A
100
AcDbEntity
  8
0
100
AcDbLine
 10
347.4580312054024
 20
2031.24270710121
 30
0.0
 11
287.2597405397448
 21
1971.044416435553
 31
0.0
  0
LINE
  5
42ED
330
A
100
AcDbEntity
  8
0
100
AcDbLine
 10
345.3540025520035
 20
2186.714212011193
 30
0.0
 11
291.3564134595837
 21
2193.894654279643
 31
0.0
  0
LINE
  5
42EE
330
A
100
AcDbEntity
  8
0
100
AcDbLine
 10
900.541968794598
 20
2031.24270710121
 30
0.0
 11
960.7402594602538
 21
1971.044416435553
 31
0.0
  0
LINE
  5
42EF
330
A
100
AcDbEntity
  8
0
100
AcDbLine
 10
902.6459974479951
 20
2186.714212011193
 30
0.0
 11
956.6435865404167
 21
2193.894654279643
 31
0.0
  0
LINE
  5
42F0
330
A
100
AcDbEntity
  8
0
100
AcDbLine
 10
966.9976012748302
 20
1023.26358732491
 30
0.0
 11
280.9976012748302
 21
1023.26358732491
 31
0.0
  0
LINE
  5
42F1
330
A
100
AcDbEntity
  8
0
100
AcDbLine
 10
973.9952025496605
 20
1016.080348686756
 30
0.0
 11
970.906634739531
 21
898.1327025833714
 31
0.0
  0
ARC
  5
42F2
330
A
100
AcDbEntity
  8
0
100
AcDbCircle
 10
965.9083481146517
 20
898.2635873249105
 30
0.0
 40
5.0
100
AcDbArc
 50
270.0
 51
358.5000000000051
  0
ARC
  5
42F3
330
A
100
AcDbEntity
  8
0
100
AcDbCircle
 10
966.9976012748302
 20
1016.26358732491
 30
0.0
 40
7.0
100
AcDbArc
 50
358.5000000000047
 51
90.0
  0
LINE
  5
42F4
330
A
100
AcDbEntity
  8
0
100
AcDbLine
 10
282.0868544350087
 20
893.2635873249105
 30
0.0
 11
965.9083481146517
 21
893.2635873249105
 31
0.0
  0
ARC
  5
42F5
330
A
100
AcDbEntity
  8
0
100
AcDbCircle
 10
282.0868544350087
 20
898.2635873249105
 30
0.0
 40
5.0
100
AcDbArc
 50
181.4999999999949
 51
270.0
  0
LINE
  5
42F6
330
A
100
AcDbEntity
  8
0
100
AcDbLine
 10
274.0
 20
1016.080348686756
 30
0.0
 11
277.0885678101295
 21
898.1327025833714
 31
0.0
  0
ARC
  5
42F7
330
A
100
AcDbEntity
  8
0
100
AcDbCircle
 10
280.9976012748302
 20
1016.26358732491
 30
0.0
 40
7.0
100
AcDbArc
 50
90.0
 51
181.4999999999971
  0
LINE
  5
42F8
330
A
100
AcDbEntity
  8
0
100
AcDbLine
 10
659.1872766501438
 20
866.0606138280616
 30
0.0
 11
660.9587023043605
 21
892.1827422016725
 31
0.0
  0
ARC
  5
42F9
330
A
100
AcDbEntity
  8
0
100
AcDbCircle
 10
656.1941508994314
 20
866.2635873249098
 30
0.0
 40
3.0
100
AcDbArc
 50
270.0
 51
356.1205281444428
  0
LINE
  5
42FA
330
A
100
AcDbEntity
  8
0
100
AcDbLine
 10
656.1941508994314
 20
863.2635873249098
 30
0.0
 11
591.801051650229
 21
863.2635873249098
 31
0.0
  0
ARC
  5
42FB
330
A
100
AcDbEntity
  8
0
100
AcDbCircle
 10
591.801051650229
 20
866.2635873249098
 30
0.0
 40
3.0
100
AcDbArc
 50
183.8794718555572
 51
270.0
  0
LINE
  5
42FC
330
A
100
AcDbEntity
  8
0
100
AcDbLine
 10
588.8079258995167
 20
866.0606138280616
 30
0.0
 11
587.0365002453
 21
892.1827422016725
 31
0.0
  0
CIRCLE
  5
42FD
330
A
100
AcDbEntity
  8
0
  6
HIDDEN2
 48
3.0
100
AcDbCircle
 10
724.0000000000002
 20
2261.271359476185
 30
0.0
 40
16.0
  0
CIRCLE
  5
42FE
102
{ACAD_REACTORS
330
46F8
102
}
330
A
100
AcDbEntity
  8
0
  6
HIDDEN2
 48
3.0
100
AcDbCircle
 10
524.0000000000002
 20
2261.271359476185
 30
0.0
 40
16.0
  0
ELLIPSE
  5
42FF
330
A
100
AcDbEntity
  8
0
100
AcDbEllipse
 10
623.9999848090886
 20
2194.281301117696
 30
0.0
 11
-12.0
 21
0.0
 31
0.0
210
0.0
220
0.0
230
1.0
 40
0.0874886635259221
 41
0.0
 42
6.283185307179586
  0
CIRCLE
  5
4300
330
A
100
AcDbEntity
  8
0
100
AcDbCircle
 10
624.0000000000002
 20
2110.08333333332
 30
0.0
 40
35.08333333331994
  0
LINE
  5
44D5
330
A
100
AcDbEntity
  8
MODEL
100
AcDbLine
 10
1584.282749508082
 20
858.9240387650545
 30
0.0
 11
1596.282749508083
 21
858.924038765055
 31
0.0
  0
LINE
  5
44D6
330
A
100
AcDbEntity
  8
MODEL
100
AcDbLine
 10
1538.282749508082
 20
858.9240387650523
 30
0.0
 11
1529.086199883483
 21
858.9240387650518
 31
0.0
  0
LINE
  5
44D7
330
A
100
AcDbEntity
  8
MODEL
100
AcDbLine
 10
1526.093074132771
 20
861.7210652682028
 30
0.0
 11
1524.248352889764
 21
888.9240387650468
 31
0.0
  0
ARC
  5
44D8
330
A
100
AcDbEntity
  8
MODEL
100
AcDbCircle
 10
1529.086199883483
 20
861.9240387650518
 30
0.0
 40
3.0
100
AcDbArc
 50
183.8794718555748
 51
270.0
  0
LINE
  5
44D9
330
A
100
AcDbEntity
  8
MODEL
100
AcDbLine
 10
1408.993685327283
 20
1011.557687071345
 30
0.0
 11
1415.172317660195
 21
893.6623589838318
 31
0.0
  0
ARC
  5
44DA
330
A
100
AcDbEntity
  8
MODEL
100
AcDbCircle
 10
1415.984092070565
 20
1011.924038765047
 30
0.0
 40
7.0
100
AcDbArc
 50
90.0
 51
183.0000000000094
  0
LINE
  5
44DB
330
A
100
AcDbEntity
  8
MODEL
100
AcDbLine
 10
1778.983884484118
 20
891.8805177428999
 30
0.0
 11
1778.983884464167
 21
891.4240956360497
 31
0.0
  0
LINE
  5
44DC
330
A
100
AcDbEntity
  8
MODEL
100
AcDbLine
 10
1778.983884462346
 20
891.8805177428999
 30
0.0
 11
1778.983884523092
 21
893.4034521935657
 31
0.0
  0
LINE
  5
44DD
330
A
100
AcDbEntity
  8
MODEL
100
AcDbLine
 10
1778.983884503051
 20
898.4240953689568
 30
0.0
 11
1778.983884283594
 21
893.4034521935657
 31
0.0
  0
LINE
  5
44DE
330
A
100
AcDbEntity
  8
MODEL
100
AcDbLine
 10
1778.98388251184
 20
898.4240933777448
 30
0.0
 11
1778.983882651497
 21
901.6190481257199
 31
0.0
  0
LINE
  5
44DF
330
A
100
AcDbEntity
  8
MODEL
100
AcDbLine
 10
1778.983882499089
 20
901.6190481257199
 30
0.0
 11
1778.983884460377
 21
950.7900626031128
 31
0.0
  0
LINE
  5
44E0
330
A
100
AcDbEntity
  8
MODEL
100
AcDbLine
 10
1776.48388435489
 20
888.9240957453278
 30
0.0
 11
1520.625738450617
 21
888.9240387650468
 31
0.0
  0
ARC
  5
44E1
330
A
100
AcDbEntity
  8
MODEL
100
AcDbCircle
 10
1776.483884464167
 20
891.4240957453278
 30
0.0
 40
2.499999999999993
100
AcDbArc
 50
269.9999974955938
 51
359.9999974952916
  0
LINE
  5
44E2
330
A
100
AcDbEntity
  8
MODEL
100
AcDbLine
 10
1778.984092070565
 20
1015.924038765062
 30
0.0
 11
1778.984092070567
 21
951.4240387650618
 31
0.0
  0
ARC
  5
44E3
330
A
100
AcDbEntity
  8
MODEL
100
AcDbCircle
 10
1775.984092070565
 20
1015.924038765062
 30
0.0
 40
3.0
100
AcDbArc
 50
0.0
 51
90.0000000000087
  0
ARC
  5
44E4
330
A
100
AcDbEntity
  8
MODEL
100
AcDbCircle
 10
1623.210501177729
 20
919.3836720063068
 30
0.0
 40
50.0
100
AcDbArc
 50
280.0000000000015
 51
322.4689392712974
  0
LINE
  5
44E5
330
A
100
AcDbEntity
  8
MODEL
100
AcDbLine
 10
1420.165465333969
 20
888.9240387650468
 30
0.0
 11
1422.838986630304
 21
888.9240387650468
 31
0.0
  0
ARC
  5
44E6
330
A
100
AcDbEntity
  8
MODEL
100
AcDbCircle
 10
1420.165465333968
 20
893.9240387650468
 30
0.0
 40
5.0
100
AcDbArc
 50
183.0000000000107
 51
270.0000000000052
  0
LINE
  5
44E7
330
A
100
AcDbEntity
  8
MODEL
100
AcDbLine
 10
1538.282749508082
 20
858.9240387650523
 30
0.0
 11
1584.282749508082
 21
858.9240387650545
 31
0.0
  0
LINE
  5
44E8
330
A
100
AcDbEntity
  8
MODEL
100
AcDbLine
 10
1522.765455424423
 20
909.2146251960019
 30
0.0
 11
1522.888651765877
 21
909.2146251960019
 31
0.0
  0
LINE
  5
44E9
330
A
100
AcDbEntity
  8
MODEL
100
AcDbLine
 10
1416.184092070565
 20
1018.924038765047
 30
0.0
 11
1775.984092070564
 21
1018.924038765062
 31
0.0
  0
LINE
  5
44EA
330
A
100
AcDbEntity
  8
MODEL
100
AcDbLine
 10
1598.93507246635
 20
864.3319283619368
 30
0.0
 11
1631.892910061077
 21
870.1432843556968
 31
0.0
  0
ARC
  5
44EB
330
A
100
AcDbEntity
  8
MODEL
100
AcDbCircle
 10
1599.456016999344
 20
861.3775051028988
 30
0.0
 40
3.0
100
AcDbArc
 50
99.99999999999649
 51
176.1205281444254
  0
LINE
  5
44EC
330
A
100
AcDbEntity
  8
MODEL
100
AcDbLine
 10
1596.282749508083
 20
858.924038765055
 30
0.0
 11
1596.462891248631
 21
861.5804785997478
 31
0.0
  0
LINE
  5
44ED
330
A
100
AcDbEntity
  8
HIDDEN
100
AcDbLine
 10
1646.967862842775
 20
995.8784332370599
 30
0.0
 11
1656.929809823693
 21
995.0068758095849
 31
0.0
  0
LINE
  5
44EE
330
A
100
AcDbEntity
  8
HIDDEN
100
AcDbLine
 10
1644.876125016832
 20
971.9697604828577
 30
0.0
 11
1654.83807199775
 21
971.0982030553828
 31
0.0
  0
SPLINE
  5
44EF
330
A
100
AcDbEntity
  8
HIDDEN
100
AcDbSpline
210
0.0
220
0.0
230
1.0
 70
     8
 71
     3
 72
    41
 73
    37
 74
     0
 42
0.000000001
 43
0.0000000001
 40
0.0
 40
0.0
 40
0.0
 40
0.0
 40
1.464390658586802
 40
2.620799515042409
 40
3.168841036391852
 40
3.842924320913766
 40
4.348212140464963
 40
4.746349355309744
 40
5.318435930700894
 40
5.812598981264991
 40
6.925942138901124
 40
8.033566105972183
 40
8.99871153600902
 40
10.6162567990198
 40
13.12450914097595
 40
18.07419091984139
 40
29.84704314877668
 40
42.38998632729347
 40
54.62548889036055
 40
69.41840832330135
 40
81.09356083284693
 40
89.46702975738927
 40
99.45827342625739
 40
112.796761307228
 40
117.0416776483423
 40
119.0517106024179
 40
120.2024673297642
 40
122.1767850107172
 40
122.518518344408
 40
125.7700287997068
 40
132.5315604056213
 40
140.6128295368804
 40
152.9242131544819
 40
158.7844186958443
 40
160.8423904412895
 40
162.1390175001255
 40
162.1390175001255
 40
162.1390175001255
 40
162.1390175001255
 10
1416.507478331153
 20
1018.924038765047
 30
0.0
 10
1416.993679204078
 20
1018.86002479658
 30
0.0
 10
1417.863826117747
 20
1018.745459891014
 30
0.0
 10
1418.844685041368
 20
1018.324226286677
 30
0.0
 10
1419.526699820203
 20
1017.919524553652
 30
0.0
 10
1419.989947000704
 20
1017.575012823539
 30
0.0
 10
1420.379771031571
 20
1017.221226247101
 30
0.0
 10
1420.717855749849
 20
1016.863667341611
 30
0.0
 10
1421.025966137651
 20
1016.483708676089
 30
0.0
 10
1421.421498197399
 20
1015.873713368405
 30
0.0
 10
1421.895660352529
 20
1015.103023200413
 30
0.0
 10
1422.460179661834
 20
1014.203369958323
 30
0.0
 10
1423.111578676044
 20
1013.15991529899
 30
0.0
 10
1424.011054169986
 20
1011.720917693701
 30
0.0
 10
1425.614025728487
 20
1009.155367379005
 30
0.0
 10
1429.011035601794
 20
1003.719208418953
 30
0.0
 10
1434.180413713023
 20
995.4463239540969
 30
0.0
 10
1440.636902093833
 20
985.1139505249719
 30
0.0
 10
1447.626551051935
 20
973.9276707709769
 30
0.0
 10
1454.464061488462
 20
962.9874053330277
 30
0.0
 10
1460.615850770789
 20
953.1366999523948
 30
0.0
 10
1465.929187564555
 20
944.6493130026729
 30
0.0
 10
1471.496453453322
 20
935.6672293042188
 30
0.0
 10
1476.493940983045
 20
927.9501938527649
 30
0.0
 10
1479.772020815394
 20
922.2991077037668
 30
0.0
 10
1481.285415361787
 20
920.3317949312247
 30
0.0
 10
1482.568061997619
 20
919.1913722781778
 30
0.0
 10
1483.544566097341
 20
918.5583390501868
 30
0.0
 10
1485.208136652463
 20
917.7332656576798
 30
0.0
 10
1488.611255651823
 20
916.9634982132789
 30
0.0
 10
1494.493489669682
 20
915.7496557659049
 30
0.0
 10
1503.363426303964
 20
913.8889736859708
 30
0.0
 10
1511.891273946296
 20
911.9561055056488
 30
0.0
 10
1518.545564277085
 20
910.7947824735948
 30
0.0
 10
1521.482834332938
 20
909.8753756552208
 30
0.0
 10
1522.504443057385
 20
909.4129840216319
 30
0.0
 10
1522.888651765877
 20
909.2146251960028
 30
0.0
  0
SPLINE
  5
44F0
330
A
100
AcDbEntity
  8
HIDDEN
100
AcDbSpline
210
0.0
220
0.0
230
1.0
 70
     8
 71
     3
 72
    33
 73
    29
 74
     0
 42
0.000000001
 43
0.0000000001
 40
0.0
 40
0.0
 40
0.0
 40
0.0
 40
2.255576732106613
 40
2.735277886906655
 40
3.779233098247171
 40
5.04388321228418
 40
6.907897933192741
 40
8.62283625378058
 40
10.22919032788361
 40
12.82721521284776
 40
20.66054050700804
 40
30.48003982548069
 40
39.15011523960696
 40
59.97399342772661
 40
79.94656126865057
 40
94.11977103884759
 40
99.25566205136191
 40
101.5713606209615
 40
103.0380292452617
 40
104.7341679319777
 40
106.3963958650894
 40
108.0020442870089
 40
110.3289798639763
 40
119.0812163469248
 40
130.7113322841815
 40
138.0048162333514
 40
141.8309165874479
 40
143.8311252424417
 40
143.8311252424417
 40
143.8311252424417
 40
143.8311252424417
 10
1654.482079114668
 20
1018.924038765057
 30
0.0
 10
1653.72418524982
 20
1018.846898839693
 30
0.0
 10
1652.805107525871
 20
1018.753353304733
 30
0.0
 10
1651.653725740906
 20
1018.232875552992
 30
0.0
 10
1650.854212734532
 20
1017.75076026612
 30
0.0
 10
1649.819235953275
 20
1016.807580020597
 30
0.0
 10
1648.922997137123
 20
1015.428064730911
 30
0.0
 10
1648.480422079893
 20
1013.734400856993
 30
0.0
 10
1648.379057349217
 20
1011.761914715258
 30
0.0
 10
1647.985426425912
 20
1007.768903308523
 30
0.0
 10
1647.430488599524
 20
1001.041004168061
 30
0.0
 10
1646.651693077867
 20
992.3016927023177
 30
0.0
 10
1645.51732430089
 20
979.2451863979288
 30
0.0
 10
1644.048059817457
 20
962.8323794581788
 30
0.0
 10
1642.560974741205
 20
944.5309412172858
 30
0.0
 10
1641.182641887236
 20
931.5908328999369
 30
0.0
 10
1640.859122000467
 20
924.2763556992948
 30
0.0
 10
1639.588320854469
 20
921.5441259853749
 30
0.0
 10
1638.520756503664
 20
920.0575088545179
 30
0.0
 10
1637.382615457089
 20
918.9083106786748
 30
0.0
 10
1636.030723597772
 20
917.9439910436838
 30
0.0
 10
1634.353172545296
 20
917.1013286260297
 30
0.0
 10
1630.210201683357
 20
916.1580610783649
 30
0.0
 10
1622.810940364048
 20
914.6487981288858
 30
0.0
 10
1613.774954167745
 20
912.7331118675659
 30
0.0
 10
1606.373898631251
 20
911.1315685384097
 30
0.0
 10
1602.066587826606
 20
910.2866336569789
 30
0.0
 10
1600.26847412139
 20
909.5214524958917
 30
0.0
 10
1599.675863482459
 20
909.2146251960057
 30
0.0
  0
SPLINE
  5
44F1
330
A
100
AcDbEntity
  8
HIDDEN
100
AcDbSpline
210
0.0
220
0.0
230
1.0
 70
    24
 71
     3
 72
     8
 73
     4
 74
     0
 42
0.000000001
 43
0.0000000001
 40
0.0
 40
0.0
 40
0.0
 40
0.0
 40
0.12319634145355
 40
0.12319634145355
 40
0.12319634145355
 40
0.12319634145355
 10
1522.765455424423
 20
909.2146251960019
 30
0.0
 10
1522.806520871573
 20
909.2146251960019
 30
0.0
 10
1522.847586318726
 20
909.2146251960019
 30
0.0
 10
1522.888651765877
 20
909.2146251960019
 30
0.0
  0
LINE
  5
44F2
330
A
100
AcDbEntity
  8
HIDDEN
100
AcDbLine
 10
1537.195584103415
 20
896.7757069122438
 30
0.0
 11
1585.073052148951
 21
896.7757069122429
 31
0.0
  0
SPLINE
  5
44F3
330
A
100
AcDbEntity
  8
HIDDEN
  6
HIDDEN2
100
AcDbSpline
210
0.0
220
0.0
230
1.0
 70
  1080
 71
     3
 72
     8
 73
     4
 74
     2
 42
0.000000001
 43
0.0000000001
 44
0.0
 40
0.0
 40
0.0
 40
0.0
 40
0.0
 40
38.31423451761038
 40
38.31423451761038
 40
38.31423451761038
 40
38.31423451761038
 10
1585.073052148955
 20
896.7757069122429
 30
0.0
 10
1584.760140808032
 20
884.0081292898043
 30
0.0
 10
1584.447229467108
 20
871.2405516673657
 30
0.0
 10
1584.134318126185
 20
858.4729740449272
 30
0.0
 11
1585.073052148955
 21
896.7757069122429
 31
0.0
 11
1584.134318126185
 21
858.4729740449272
 31
0.0
  0
SPLINE
  5
44F4
330
A
100
AcDbEntity
  8
HIDDEN
  6
HIDDEN2
100
AcDbSpline
210
0.0
220
0.0
230
1.0
 70
  1080
 71
     3
 72
     8
 73
     4
 74
     2
 42
0.000000001
 43
0.0000000001
 44
0.0
 40
0.0
 40
0.0
 40
0.0
 40
0.0
 40
38.31423451761058
 40
38.31423451761058
 40
38.31423451761058
 40
38.31423451761058
 10
1537.195584103415
 20
896.7757069122438
 30
0.0
 10
1537.508495444338
 20
884.0081292898052
 30
0.0
 10
1537.821406785261
 20
871.2405516673666
 30
0.0
 10
1538.134318126184
 20
858.4729740449279
 30
0.0
 11
1537.195584103415
 21
896.7757069122438
 31
0.0
 11
1538.134318126184
 21
858.4729740449279
 31
0.0
  0
SPLINE
  5
44F5
330
A
100
AcDbEntity
  8
HIDDEN
100
AcDbSpline
210
0.0
220
0.0
230
1.0
 70
  1080
 71
     3
 72
     8
 73
     4
 74
     2
 42
0.000000001
 43
0.0000000001
 44
0.0
 40
0.0
 40
0.0
 40
0.0
 40
0.0
 40
18.95824361540124
 40
18.95824361540124
 40
18.95824361540124
 40
18.95824361540124
 10
1522.888651765877
 20
909.2146251960019
 30
0.0
 10
1527.657629211723
 20
905.0683191014159
 30
0.0
 10
1532.426606657569
 20
900.92201300683
 30
0.0
 10
1537.195584103415
 20
896.7757069122438
 30
0.0
 11
1522.888651765877
 21
909.2146251960019
 31
0.0
 11
1537.195584103415
 21
896.7757069122438
 31
0.0
  0
LINE
  5
44F6
330
A
100
AcDbEntity
  8
HIDDEN
100
AcDbLine
 10
1522.888651765877
 20
909.2146251960028
 30
0.0
 11
1599.675863482459
 21
909.2146251960057
 31
0.0
  0
LINE
  5
44F7
330
A
100
AcDbEntity
  8
HIDDEN
100
AcDbLine
 10
1585.073052148955
 20
896.7757069122429
 30
0.0
 11
1599.675863482459
 21
909.2146251960057
 31
0.0
  0
LINE
  5
44F8
330
A
100
AcDbEntity
  8
MODEL
100
AcDbLine
 10
1731.484092070566
 20
1000.924038765057
 30
0.0
 11
1731.484092070566
 21
1018.924038765061
 31
0.0
  0
LINE
  5
44F9
330
A
100
AcDbEntity
  8
MODEL
100
AcDbLine
 10
1696.484092070566
 20
1000.924038765057
 30
0.0
 11
1696.484092070566
 21
1018.924038765059
 31
0.0
  0
LINE
  5
44FA
330
A
100
AcDbEntity
  8
MODEL
100
AcDbLine
 10
1422.838986630304
 20
888.9240387650468
 30
0.0
 11
1524.248352889764
 21
888.9240387650468
 31
0.0
  0
LINE
  5
44FB
330
A
100
AcDbEntity
  8
DIM
100
AcDbLine
 10
1780.387655985219
 20
1049.924038765057
 30
0.0
 11
1780.387655985219
 21
1094.92854045319
 31
0.0
  0
LINE
  5
44FC
330
A
100
AcDbEntity
  8
DIM
100
AcDbLine
 10
1715.387655985219
 20
1049.924038765057
 30
0.0
 11
1715.387655985219
 21
1094.92854045319
 31
0.0
  0
LINE
  5
44FD
330
A
100
AcDbEntity
  8
DIM
100
AcDbLine
 10
1770.387655985219
 20
1094.92854045319
 30
0.0
 11
1725.387655985219
 21
1094.92854045319
 31
0.0
  0
INSERT
  5
44FE
330
A
100
AcDbEntity
  8
DIM
100
AcDbBlockReference
  2
_DOT
 10
1780.387655985219
 20
1094.92854045319
 30
0.0
 41
10.0
 42
10.0
 43
10.0
  0
INSERT
  5
44FF
330
A
100
AcDbEntity
  8
DIM
100
AcDbBlockReference
  2
_DOT
 10
1715.387655985219
 20
1094.92854045319
 30
0.0
 41
10.0
 42
10.0
 43
10.0
 50
180.0
  0
MTEXT
  5
4500
330
A
100
AcDbEntity
  8
DIM
100
AcDbMText
 10
1747.887655985219
 20
1126.933042141323
 30
0.0
 40
24.0
 41
0.0
 46
0.0
 71
     5
 72
     1
  1
\A1;65
  7
ＭＳ ゴシック
 73
     1
 44
1.0
  0
LINE
  5
4501
330
A
100
AcDbEntity
  8
DIM
100
AcDbLine
 10
1384.355886481397
 20
1018.732044828455
 30
0.0
 11
1311.013505064399
 21
1018.732044828455
 31
0.0
  0
LINE
  5
4502
330
A
100
AcDbEntity
  8
DIM
100
AcDbLine
 10
1391.502225982137
 20
888.9240387650468
 30
0.0
 11
1311.013505064399
 21
888.9240387650468
 31
0.0
  0
LINE
  5
4503
330
A
100
AcDbEntity
  8
DIM
100
AcDbLine
 10
1311.013505064399
 20
1008.732044828455
 30
0.0
 11
1311.013505064399
 21
898.9240387650468
 31
0.0
  0
INSERT
  5
4504
330
A
100
AcDbEntity
  8
DIM
100
AcDbBlockReference
  2
_DOT
 10
1311.013505064399
 20
1018.732044828455
 30
0.0
 41
10.0
 42
10.0
 43
10.0
 50
90.0
  0
INSERT
  5
4505
330
A
100
AcDbEntity
  8
DIM
100
AcDbBlockReference
  2
_DOT
 10
1311.013505064399
 20
888.9240387650468
 30
0.0
 41
10.0
 42
10.0
 43
10.0
 50
270.0
  0
MTEXT
  5
4506
330
A
100
AcDbEntity
  8
DIM
100
AcDbMText
 10
1279.009003376266
 20
953.8280417967508
 30
0.0
 40
24.0
 41
0.0
 46
0.0
 71
     5
 72
     1
  1
\A1;130
  7
ＭＳ ゴシック
 11
0.0
 21
1.0
 31
0.0
 73
     1
 44
1.0
  0
LINE
  5
4507
330
A
100
AcDbEntity
  8
DIM
100
AcDbLine
 10
1778.983884464167
 20
861.4240956360388
 30
0.0
 11
1778.983884464167
 21
775.924038765057
 31
0.0
  0
LINE
  5
4508
330
A
100
AcDbEntity
  8
DIM
100
AcDbLine
 10
1561.282749508082
 20
828.9240387650534
 30
0.0
 11
1561.282749508082
 21
775.924038765057
 31
0.0
  0
LINE
  5
4509
330
A
100
AcDbEntity
  8
DIM
100
AcDbLine
 10
1768.983884464167
 20
775.924038765057
 30
0.0
 11
1571.282749508082
 21
775.924038765057
 31
0.0
  0
INSERT
  5
450A
330
A
100
AcDbEntity
  8
DIM
100
AcDbBlockReference
  2
_DOT
 10
1778.983884464167
 20
775.924038765057
 30
0.0
 41
10.0
 42
10.0
 43
10.0
  0
INSERT
  5
450B
330
A
100
AcDbEntity
  8
DIM
100
AcDbBlockReference
  2
_DOT
 10
1561.282749508082
 20
775.924038765057
 30
0.0
 41
10.0
 42
10.0
 43
10.0
 50
180.0
  0
MTEXT
  5
450C
330
A
100
AcDbEntity
  8
DIM
100
AcDbMText
 10
1656.626062149546
 20
807.9285404531901
 30
0.0
 40
24.0
 41
0.0
 46
0.0
 71
     5
 72
     1
  1
\A1; 215
  7
ＭＳ ゴシック
 73
     1
 44
1.0
  0
LINE
  5
450D
330
A
100
AcDbEntity
  8
DIM
100
AcDbLine
 10
1546.036926536511
 20
909.2146251960048
 30
0.0
 11
1574.013505064399
 21
909.2146251960048
 31
0.0
1001
ACAD
1000
DSTYLE
1002
{
1070
   172
1070
     1
1070
     3
1000
<>（深さ）
1002
}
  0
LINE
  5
450E
330
A
100
AcDbEntity
  8
DIM
100
AcDbLine
 10
1546.036926536506
 20
1018.924038765054
 30
0.0
 11
1574.013505064399
 21
1018.924038765054
 31
0.0
1001
ACAD
1000
DSTYLE
1002
{
1070
   172
1070
     1
1070
     3
1000
<>（深さ）
1002
}
  0
LINE
  5
450F
330
A
100
AcDbEntity
  8
DIM
100
AcDbLine
 10
1574.013505064399
 20
1018.924038765054
 30
0.0
 11
1574.013505064399
 21
1245.904679044123
 31
0.0
1001
ACAD
1000
DSTYLE
1002
{
1070
   172
1070
     1
1070
     3
1000
<>（深さ）
1002
}
  0
LINE
  5
4510
330
A
100
AcDbEntity
  8
DIM
100
AcDbLine
 10
1574.013505064399
 20
919.2146251960048
 30
0.0
 11
1574.013505064399
 21
1008.924038765054
 31
0.0
1001
ACAD
1000
DSTYLE
1002
{
1070
   172
1070
     1
1070
     3
1000
<>（深さ）
1002
}
  0
LINE
  5
4511
330
A
100
AcDbEntity
  8
DIM
100
AcDbLine
 10
1574.013505064399
 20
1008.924038765054
 30
0.0
 11
1574.013505064399
 21
998.9240387650539
 31
0.0
1001
ACAD
1000
DSTYLE
1002
{
1070
   172
1070
     1
1070
     3
1000
<>（深さ）
1002
}
  0
INSERT
  5
4512
330
A
100
AcDbEntity
  8
DIM
100
AcDbBlockReference
  2
_DOT
 10
1574.013505064399
 20
909.2146251960048
 30
0.0
 41
10.0
 42
10.0
 43
10.0
 50
270.0
1001
ACAD
1000
DSTYLE
1002
{
1070
   172
1070
     1
1070
     3
1000
<>（深さ）
1002
}
  0
INSERT
  5
4513
330
A
100
AcDbEntity
  8
DIM
100
AcDbBlockReference
  2
_DOT
 10
1574.013505064399
 20
1018.924038765054
 30
0.0
 41
10.0
 42
10.0
 43
10.0
 50
90.0
1001
ACAD
1000
DSTYLE
1002
{
1070
   172
1070
     1
1070
     3
1000
<>（深さ）
1002
}
  0
MTEXT
  5
4514
330
A
100
AcDbEntity
  8
DIM
100
AcDbMText
 10
1540.304364136551
 20
1152.269065689114
 30
0.0
 40
24.0
 41
0.0
 46
0.0
 71
     5
 72
     1
  1
\A1;110（深さ）
  7
ＭＳ ゴシック
 11
0.0
 21
1.0
 31
0.0
 73
     1
 44
1.0
1001
ACAD
1000
DSTYLE
1002
{
1070
   172
1070
     1
1070
     3
1000
<>（深さ）
1002
}
  0
LINE
  5
456A
330
A
100
AcDbEntity
  8
HIDDEN
100
AcDbLine
 10
1209.499999999999
 20
2324.784675895809
 30
0.0
 11
1209.499999999999
 21
1964.784675895809
 31
0.0
  0
ARC
  5
456B
330
A
100
AcDbEntity
  8
HIDDEN
100
AcDbCircle
 10
1216.499999999999
 20
1964.784675895809
 30
0.0
 40
7.0
100
AcDbArc
 50
180.0
 51
270.0
  0
LINE
  5
456C
330
A
100
AcDbEntity
  8
HIDDEN
100
AcDbLine
 10
1216.499999999999
 20
1957.784675895809
 30
0.0
 11
1902.499999999999
 21
1957.784675895809
 31
0.0
  0
LINE
  5
456D
330
A
100
AcDbEntity
  8
HIDDEN
100
AcDbLine
 10
1909.499999999999
 20
1964.784675895809
 30
0.0
 11
1909.499999999999
 21
2324.784675895809
 31
0.0
  0
ARC
  5
456E
330
A
100
AcDbEntity
  8
HIDDEN
100
AcDbCircle
 10
1906.499999999999
 20
2324.784675895809
 30
0.0
 40
3.0
100
AcDbArc
 50
0.0
 51
90.0
  0
ARC
  5
456F
330
A
100
AcDbEntity
  8
HIDDEN
100
AcDbCircle
 10
1902.499999999999
 20
1964.784675895809
 30
0.0
 40
7.0
100
AcDbArc
 50
270.0
 51
0.0
  0
ARC
  5
4571
330
A
100
AcDbEntity
  8
HIDDEN
100
AcDbCircle
 10
1212.499999999999
 20
2324.784675895809
 30
0.0
 40
3.0
100
AcDbArc
 50
90.0
 51
180.0
  0
LINE
  5
45BC
330
A
100
AcDbEntity
  8
HIDDEN
100
AcDbLine
 10
600.0588672520628
 20
901.5663201922262
 30
0.0
 11
647.936335297599
 21
901.5663201922252
 31
0.0
  0
LINE
  5
45BD
330
A
100
AcDbEntity
  8
HIDDEN
100
AcDbLine
 10
585.4803071911726
 20
913.5541737558601
 30
0.0
 11
662.5148953584878
 21
913.5541737558631
 31
0.0
  0
SPLINE
  5
45BE
330
A
100
AcDbEntity
  8
HIDDEN
100
AcDbSpline
210
0.0
220
0.0
230
1.0
 70
  1064
 71
     3
 72
    44
 73
    40
 74
    38
 42
0.000000001
 43
0.0000000001
 44
0.0
 40
0.0
 40
0.0
 40
0.0
 40
0.0
 40
1.605206467048927
 40
2.879964891464083
 40
3.643913841288744
 40
4.87252761723872
 40
6.001704147975156
 40
7.283212290683512
 40
9.424552655313702
 40
14.56604488726365
 40
19.05666728993752
 40
25.96691745300865
 40
29.63585336375988
 40
40.46101107544441
 40
83.81018853416465
 40
96.29441319077593
 40
106.2062266538617
 40
111.5051930529431
 40
114.645458029105
 40
117.0664878687553
 40
119.3963221060181
 40
121.2661116697056
 40
121.6144427283813
 40
122.9676739198924
 40
123.0789659950468
 40
123.5229199179547
 40
124.0077416593724
 40
124.4487385501012
 40
124.9628467220651
 40
125.4438340579969
 40
126.1535245692706
 40
126.7164489718798
 40
127.3039242895007
 40
129.9655161401565
 40
168.446537570286
 40
200.2080244812323
 40
232.3528369111971
 40
275.8546607858221
 40
361.2245493242412
 40
361.2245493242412
 40
361.2245493242412
 40
361.2245493242412
 10
279.2703638496455
 20
1023.354219618131
 30
0.0
 10
279.8063425583243
 20
1023.367640991769
 30
0.0
 10
280.767963318802
 20
1023.391720813067
 30
0.0
 10
281.9729874972325
 20
1023.172487201881
 30
0.0
 10
282.9972526872622
 20
1022.794030999293
 30
0.0
 10
283.9019412361005
 20
1022.265837915342
 30
0.0
 10
284.8273832239913
 20
1021.467044768196
 30
0.0
 10
285.7103882739515
 20
1020.223051465211
 30
0.0
 10
287.1751062074003
 20
1017.775953982167
 30
0.0
 10
289.2833440660307
 20
1014.463320973789
 30
0.0
 10
292.1959912996218
 20
1009.781979830223
 30
0.0
 10
294.8610747218133
 20
1005.523719587507
 30
0.0
 10
298.6413315072864
 20
999.4727618125887
 30
0.0
 10
308.8570256858274
 20
983.12032450709
 30
0.0
 10
320.6592602259933
 20
964.2945374369381
 30
0.0
 10
332.2253235623749
 20
945.6798674840793
 30
0.0
 10
337.1634332675335
 20
937.8800311369962
 30
0.0
 10
340.4302952840958
 20
932.7081682809245
 30
0.0
 10
342.2970408672285
 20
929.6061842111296
 30
0.0
 10
343.6411145714001
 20
927.345573362157
 30
0.0
 10
344.8648957849753
 20
925.5050050332245
 30
0.0
 10
345.9000092750578
 20
924.3825361120846
 30
0.0
 10
346.8186134079436
 20
923.6251966859963
 30
0.0
 10
347.3162468655923
 20
923.2782649646854
 30
0.0
 10
347.8630449932658
 20
922.953172015475
 30
0.0
 10
348.1659011665025
 20
922.784209193915
 30
0.0
 10
348.574440124524
 20
922.5797673786439
 30
0.0
 10
349.0162680968709
 20
922.3915963022807
 30
0.0
 10
349.4664439155116
 20
922.2281364658018
 30
0.0
 10
350.0091728611936
 20
922.0593047745004
 30
0.0
 10
350.5743994581512
 20
921.9092221582966
 30
0.0
 10
351.1785497667199
 20
921.7706065648258
 30
0.0
 10
352.4165725872263
 20
921.4775345671501
 30
0.0
 10
366.4052540021745
 20
921.1841194637349
 30
0.0
 10
390.5636572749173
 20
919.5080868394555
 30
0.0
 10
424.6871206767161
 20
917.9431018319449
 30
0.0
 10
460.4374971714745
 20
916.196930123012
 30
0.0
 10
514.0321417513982
 20
912.9960764783042
 30
0.0
 10
557.0059417433101
 20
913.3863036345042
 30
0.0
 10
585.4735429467726
 20
913.6448060490811
 30
0.0
 11
279.2703638496455
 21
1023.354219618131
 31
0.0
 11
280.875432353012
 21
1023.333174396429
 31
0.0
 11
282.1281941151574
 21
1023.097384218678
 31
0.0
 11
282.8446486482848
 21
1022.832222192929
 31
0.0
 11
283.9080234960452
 21
1022.216815218964
 31
0.0
 11
284.756747625946
 21
1021.47202867982
 31
0.0
 11
285.5325834777904
 21
1020.452057184718
 31
0.0
 11
286.6670679227873
 21
1018.635939456911
 31
0.0
 11
289.3916736106412
 21
1014.275725446462
 31
0.0
 11
291.7713372877107
 21
1010.46745939123
 31
0.0
 11
295.4332263970668
 21
1004.607243911659
 31
0.0
 11
297.3774576217074
 21
1001.495804427701
 31
0.0
 11
303.1139247931282
 21
992.3155547647532
 31
0.0
 11
326.085938770846
 21
955.5536483920532
 31
0.0
 11
332.694436459873
 21
944.9619713024292
 31
0.0
 11
337.9840925700732
 21
936.5796336593353
 31
0.0
 11
340.7941834040657
 21
932.0871472204792
 31
0.0
 11
342.4179013956154
 21
929.3992476679612
 31
0.0
 11
343.6745565333517
 21
927.3298991353843
 31
0.0
 11
345.005196142984
 21
925.4174332396362
 31
0.0
 11
346.292970725799
 21
924.0617969918433
 31
0.0
 11
346.5613711074461
 21
923.8397705034013
 31
0.0
 11
347.6721766059886
 21
923.0668890104891
 31
0.0
 11
347.7678383587499
 21
923.0100141034491
 31
0.0
 11
348.1555000114344
 21
922.7936497609542
 31
0.0
 11
348.5896912527255
 21
922.5779414232911
 31
0.0
 11
348.9951850283046
 21
922.4045832518682
 31
0.0
 11
349.4781234506517
 21
922.2282945888721
 31
0.0
 11
349.9371346284962
 21
922.0845672221651
 31
0.0
 11
350.6226843427753
 21
921.9010400823631
 31
0.0
 11
351.1705686621412
 21
921.7717858536282
 31
0.0
 11
351.7440702696053
 21
921.6444157038682
 31
0.0
 11
354.3972703552854
 21
921.4332274351971
 31
0.0
 11
392.8305028670802
 21
919.5160292189432
 31
0.0
 11
424.5525457339818
 21
917.9336110868833
 31
0.0
 11
456.657438074536
 21
916.3320949430242
 31
0.0
 11
500.1052377826682
 21
914.1647507292621
 31
0.0
 11
585.4735429467726
 21
913.6448060490811
 31
0.0
  0
SPLINE
  5
45C0
330
A
100
AcDbEntity
  8
HIDDEN
100
AcDbSpline
210
0.0
220
0.0
230
1.0
 70
  1080
 71
     3
 72
     8
 73
     4
 74
     2
 42
0.000000001
 43
0.0000000001
 44
0.0
 40
0.0
 40
0.0
 40
0.0
 40
0.0
 40
18.93730460452917
 40
18.93730460452917
 40
18.93730460452917
 40
18.93730460452917
 10
662.5216596028929
 20
913.6448060490802
 30
0.0
 10
657.6598848344629
 20
909.6186440967952
 30
0.0
 10
652.798110066033
 20
905.5924821445101
 30
0.0
 10
647.9363352976031
 20
901.5663201922252
 30
0.0
 11
662.5216596028929
 21
913.6448060490802
 31
0.0
 11
647.9363352976031
 21
901.5663201922252
 31
0.0
  0
SPLINE
  5
45C1
330
A
100
AcDbEntity
  8
HIDDEN
  6
HIDDEN2
100
AcDbSpline
210
0.0
220
0.0
230
1.0
 70
  1080
 71
     3
 72
     8
 73
     4
 74
     2
 42
0.000000001
 43
0.0000000001
 44
0.0
 40
0.0
 40
0.0
 40
0.0
 40
0.0
 40
38.31423451761084
 40
38.31423451761084
 40
38.31423451761084
 40
38.31423451761084
 10
647.9363352976031
 20
901.5663201922252
 30
0.0
 10
647.6234239566797
 20
888.7987425697868
 30
0.0
 10
647.3105126157564
 20
876.0311649473481
 30
0.0
 10
646.9976012748327
 20
863.2635873249092
 30
0.0
 11
647.9363352976031
 21
901.5663201922252
 31
0.0
 11
646.9976012748327
 21
863.2635873249092
 31
0.0
  0
SPLINE
  5
45C2
330
A
100
AcDbEntity
  8
HIDDEN
  6
HIDDEN2
100
AcDbSpline
210
0.0
220
0.0
230
1.0
 70
  1080
 71
     3
 72
     8
 73
     4
 74
     2
 42
0.000000001
 43
0.0000000001
 44
0.0
 40
0.0
 40
0.0
 40
0.0
 40
0.0
 40
38.31423451761105
 40
38.31423451761105
 40
38.31423451761105
 40
38.31423451761105
 10
600.0588672520623
 20
901.5663201922262
 30
0.0
 10
600.3717785929855
 20
888.7987425697874
 30
0.0
 10
600.6846899339087
 20
876.0311649473485
 30
0.0
 10
600.9976012748318
 20
863.2635873249098
 30
0.0
 11
600.0588672520623
 21
901.5663201922262
 31
0.0
 11
600.9976012748318
 21
863.2635873249098
 31
0.0
  0
SPLINE
  5
45C3
330
A
100
AcDbEntity
  8
HIDDEN
100
AcDbSpline
210
0.0
220
0.0
230
1.0
 70
  1080
 71
     3
 72
     8
 73
     4
 74
     2
 42
0.000000001
 43
0.0000000001
 44
0.0
 40
0.0
 40
0.0
 40
0.0
 40
0.0
 40
18.93730460452917
 40
18.93730460452917
 40
18.93730460452917
 40
18.93730460452917
 10
585.4735429467726
 20
913.6448060490811
 30
0.0
 10
590.3353177152026
 20
909.6186440967962
 30
0.0
 10
595.1970924836324
 20
905.5924821445112
 30
0.0
 10
600.0588672520623
 20
901.5663201922262
 30
0.0
 11
585.4735429467726
 21
913.6448060490811
 31
0.0
 11
600.0588672520623
 21
901.5663201922262
 31
0.0
  0
SPLINE
  5
45C5
330
A
100
AcDbEntity
  8
HIDDEN
100
AcDbSpline
210
0.0
220
0.0
230
1.0
 70
  1064
 71
     3
 72
    44
 73
    40
 74
    38
 42
0.000000001
 43
0.0000000001
 44
0.0
 40
0.0
 40
0.0
 40
0.0
 40
0.0
 40
1.605206467048927
 40
2.879964891464083
 40
3.643913841288797
 40
4.872527617238724
 40
6.001704147975159
 40
7.28321229068355
 40
9.42455265531371
 40
14.56604488726365
 40
19.05666728993747
 40
25.96691745300869
 40
29.63585336375992
 40
40.46101107544445
 40
83.8101885341647
 40
96.29441319077597
 40
106.2062266538617
 40
111.5051930529432
 40
114.6454580291051
 40
117.0664878687554
 40
119.3963221060181
 40
121.2661116697056
 40
121.6144427283813
 40
122.9676739198924
 40
123.0789659950468
 40
123.5229199179548
 40
124.0077416593724
 40
124.4487385501012
 40
124.9628467220651
 40
125.4438340579967
 40
126.1535245692706
 40
126.7164489718798
 40
127.3039242895008
 40
129.9655161401565
 40
168.446537570286
 40
200.2080244812323
 40
232.3528369111971
 40
275.8546607858221
 40
361.2245493242412
 40
361.2245493242412
 40
361.2245493242412
 40
361.2245493242412
 10
968.724838700015
 20
1023.354219618131
 30
0.0
 10
968.188859991336
 20
1023.367640991769
 30
0.0
 10
967.2272392308582
 20
1023.391720813066
 30
0.0
 10
966.0222150524285
 20
1023.172487201881
 30
0.0
 10
964.997949862398
 20
1022.794030999293
 30
0.0
 10
964.0932613135601
 20
1022.265837915342
 30
0.0
 10
963.167819325669
 20
1021.467044768196
 30
0.0
 10
962.2848142757093
 20
1020.223051465211
 30
0.0
 10
960.8200963422598
 20
1017.775953982167
 30
0.0
 10
958.7118584836296
 20
1014.463320973789
 30
0.0
 10
955.7992112500388
 20
1009.781979830223
 30
0.0
 10
953.1341278278471
 20
1005.523719587507
 30
0.0
 10
949.3538710423742
 20
999.4727618125888
 30
0.0
 10
939.138176863833
 20
983.12032450709
 30
0.0
 10
927.3359423236673
 20
964.2945374369381
 30
0.0
 10
915.7698789872852
 20
945.6798674840793
 30
0.0
 10
910.8317692821266
 20
937.8800311369962
 30
0.0
 10
907.564907265565
 20
932.7081682809245
 30
0.0
 10
905.6981616824319
 20
929.6061842111296
 30
0.0
 10
904.3540879782604
 20
927.3455733621572
 30
0.0
 10
903.1303067646852
 20
925.5050050332243
 30
0.0
 10
902.0951932746027
 20
924.3825361120852
 30
0.0
 10
901.1765891417169
 20
923.6251966859961
 30
0.0
 10
900.6789556840686
 20
923.2782649646861
 30
0.0
 10
900.1321575563944
 20
922.9531720154749
 30
0.0
 10
899.8293013831582
 20
922.7842091939152
 30
0.0
 10
899.4207624251363
 20
922.5797673786437
 30
0.0
 10
898.9789344527895
 20
922.391596302281
 30
0.0
 10
898.528758634149
 20
922.228136465802
 30
0.0
 10
897.9860296884667
 20
922.0593047745006
 30
0.0
 10
897.420803091509
 20
921.9092221582964
 30
0.0
 10
896.8166527829407
 20
921.7706065648258
 30
0.0
 10
895.5786299624341
 20
921.4775345671501
 30
0.0
 10
881.5899485474858
 20
921.184119463735
 30
0.0
 10
857.431545274743
 20
919.5080868394554
 30
0.0
 10
823.3080818729443
 20
917.943101831945
 30
0.0
 10
787.557705378186
 20
916.1969301230118
 30
0.0
 10
733.9630607982623
 20
912.9960764783044
 30
0.0
 10
690.9892608063503
 20
913.3863036345042
 30
0.0
 10
662.5216596028879
 20
913.6448060490811
 30
0.0
 11
968.724838700015
 21
1023.354219618131
 31
0.0
 11
967.1197701966485
 21
1023.333174396429
 31
0.0
 11
965.8670084345031
 21
1023.097384218678
 31
0.0
 11
965.1505539013756
 21
1022.832222192929
 31
0.0
 11
964.0871790536153
 21
1022.216815218964
 31
0.0
 11
963.2384549237145
 21
1021.47202867982
 31
0.0
 11
962.46261907187
 21
1020.452057184718
 31
0.0
 11
961.3281346268732
 21
1018.635939456911
 31
0.0
 11
958.6035289390193
 21
1014.275725446462
 31
0.0
 11
956.2238652619499
 21
1010.46745939123
 31
0.0
 11
952.5619761525936
 21
1004.607243911659
 31
0.0
 11
950.617744927953
 21
1001.495804427701
 31
0.0
 11
944.8812777565322
 21
992.3155547647532
 31
0.0
 11
921.9092637788144
 21
955.5536483920532
 31
0.0
 11
915.3007660897874
 21
944.9619713024292
 31
0.0
 11
910.0111099795872
 21
936.5796336593353
 31
0.0
 11
907.2010191455947
 21
932.0871472204792
 31
0.0
 11
905.577301154045
 21
929.3992476679612
 31
0.0
 11
904.3206460163087
 21
927.3298991353843
 31
0.0
 11
902.9900064066765
 21
925.4174332396362
 31
0.0
 11
901.7022318238614
 21
924.0617969918433
 31
0.0
 11
901.4338314422143
 21
923.8397705034013
 31
0.0
 11
900.3230259436718
 21
923.0668890104891
 31
0.0
 11
900.2273641909105
 21
923.0100141034491
 31
0.0
 11
899.839702538226
 21
922.7936497609542
 31
0.0
 11
899.405511296935
 21
922.5779414232911
 31
0.0
 11
899.0000175213559
 21
922.4045832518682
 31
0.0
 11
898.5170790990087
 21
922.2282945888721
 31
0.0
 11
898.0580679211644
 21
922.0845672221651
 31
0.0
 11
897.3725182068852
 21
921.9010400823631
 31
0.0
 11
896.8246338875192
 21
921.7717858536282
 31
0.0
 11
896.2511322800551
 21
921.6444157038682
 31
0.0
 11
893.5979321943751
 21
921.4332274351971
 31
0.0
 11
855.1646996825802
 21
919.5160292189432
 31
0.0
 11
823.4426568156787
 21
917.9336110868833
 31
0.0
 11
791.3377644751245
 21
916.3320949430242
 31
0.0
 11
747.8899647669923
 21
914.1647507292621
 31
0.0
 11
662.5216596028879
 21
913.6448060490811
 31
0.0
  0
LINE
  5
45F0
102
{ACAD_REACTORS
330
45F7
102
}
330
A
100
AcDbEntity
  8
MODEL
  6
CENTER
 48
0.15
100
AcDbLine
 10
459.4981118986743
 20
983.263587324907
 30
0.0
 11
508.497090650986
 21
983.2635873249081
 31
0.0
  0
LINE
  5
45F1
102
{ACAD_REACTORS
330
45F7
102
}
330
A
100
AcDbEntity
  8
MODEL
  6
CENTER
 48
0.15
100
AcDbLine
 10
483.9976012748319
 20
1007.763076701062
 30
0.0
 11
483.9976012748319
 21
958.764097948752
 31
0.0
  0
CIRCLE
  5
45F2
102
{ACAD_REACTORS
330
45F7
102
}
330
A
100
AcDbEntity
  8
MODEL
  6
CENTER
 48
0.15
100
AcDbCircle
 10
483.9976012748319
 20
983.2635873249081
 30
0.0
 40
14.99999999998556
  0
LINE
  5
45FA
102
{ACAD_REACTORS
330
45FD
102
}
330
A
100
AcDbEntity
  8
MODEL
  6
CENTER
 48
0.15
100
AcDbLine
 10
788.4970906509859
 20
983.2635873249077
 30
0.0
 11
739.4981118986742
 21
983.2635873249087
 31
0.0
  0
LINE
  5
45FB
102
{ACAD_REACTORS
330
45FD
102
}
330
A
100
AcDbEntity
  8
MODEL
  6
CENTER
 48
0.15
100
AcDbLine
 10
763.9976012748282
 20
1007.763076701063
 30
0.0
 11
763.9976012748284
 21
958.7640979487527
 31
0.0
  0
CIRCLE
  5
45FC
102
{ACAD_REACTORS
330
45FD
102
}
330
A
100
AcDbEntity
  8
MODEL
  6
CENTER
 48
0.15
100
AcDbCircle
 10
763.9976012748282
 20
983.2635873249088
 30
0.0
 40
14.99999999998556
  0
DIMENSION
  5
45FE
330
A
100
AcDbEntity
  8
DIM
100
AcDbDimension
  2
*D4
 10
763.9976012748283
 20
1138.0
 30
0.0
 11
623.9976012748301
 21
1170.004501688133
 31
0.0
 70
    32
 71
     5
 42
279.9999999999964
 73
     0
 74
     0
 75
     0
  3
tfrom線あり
100
AcDbAlignedDimension
 13
483.9976012748319
 23
1023.26358732491
 33
0.0
 14
763.9976012748283
 24
1023.26358732491
 34
0.0
100
AcDbRotatedDimension
  0
HATCH
  5
4692
330
A
100
AcDbEntity
  8
DIM
100
AcDbHatch
 10
0.0
 20
0.0
 30
0.0
210
0.0
220
0.0
230
1.0
  2
ANSI31
 70
     0
 71
     1
 91
        1
 92
        1
 93
        4
 72
     1
 10
1725.499999999999
 20
2297.784675895809
 11
1393.499999999997
 21
2297.784675895809
 72
     1
 10
1393.499999999997
 20
2297.784675895809
 11
1393.412362591261
 21
2047.784675895809
 72
     1
 10
1725.412362591263
 20
2047.784675895809
 11
1393.412362591261
 21
2047.784675895809
 72
     1
 10
1725.499999999999
 20
2297.784675895809
 11
1725.499999999999
 21
2047.784675895809
 97
        4
330
469A
330
4693
330
469C
330
4694
 75
     0
 76
     1
 52
0.0
 41
6.0
 77
     0
 78
     1
 53
45.0
 43
63.4294129938321
 44
-4.215324104191041
 45
-13.47038418160373
 46
13.47038418160373
 79
     0
 98
        1
 10
63.4294129938321
 20
-4.215324104191041
1001
ACAD
1010
0.0
1020
0.0
1030
0.0
1001
HATCHBACKGROUNDCOLOR
1071
-939524096
1000

1000

  0
LINE
  5
4693
102
{ACAD_REACTORS
330
4692
102
}
330
A
100
AcDbEntity
  8
MODEL
100
AcDbLine
 10
1393.499999999997
 20
2297.784675895809
 30
0.0
 11
1393.412362591261
 21
2047.784675895809
 31
0.0
  0
LINE
  5
4694
102
{ACAD_REACTORS
330
4692
102
}
330
A
100
AcDbEntity
  8
MODEL
100
AcDbLine
 10
1725.499999999999
 20
2297.784675895809
 30
0.0
 11
1725.499999999999
 21
2047.784675895809
 31
0.0
  0
CIRCLE
  5
4695
330
A
100
AcDbEntity
  8
MODEL
  6
HIDDEN2
100
AcDbCircle
 10
1559.499999999999
 20
2261.043422405818
 30
0.0
 40
17.5
  0
CIRCLE
  5
4696
330
A
100
AcDbEntity
  8
MODEL
  6
HIDDEN2
100
AcDbCircle
 10
1659.499999999999
 20
2261.043422405818
 30
0.0
 40
16.0
  0
CIRCLE
  5
4697
330
A
100
AcDbEntity
  8
MODEL
  6
HIDDEN2
100
AcDbCircle
 10
1459.499999999999
 20
2261.043422405819
 30
0.0
 40
16.0
  0
CIRCLE
  5
4698
330
A
100
AcDbEntity
  8
MODEL
  6
HIDDEN2
100
AcDbCircle
 10
1559.499999999999
 20
2110.08333333332
 30
0.0
 40
22.5
  0
LINE
  5
4699
330
A
100
AcDbEntity
  8
MODEL
100
AcDbLine
 10
1559.499999999999
 20
2297.784675895809
 30
0.0
 11
1725.499999999999
 21
2297.784675895809
 31
0.0
  0
LINE
  5
469A
102
{ACAD_REACTORS
330
4692
330
46C3
102
}
330
A
100
AcDbEntity
  8
MODEL
100
AcDbLine
 10
1725.499999999999
 20
2297.784675895809
 30
0.0
 11
1393.499999999997
 21
2297.784675895809
 31
0.0
  0
LINE
  5
469C
102
{ACAD_REACTORS
330
4692
330
46C3
102
}
330
A
100
AcDbEntity
  8
MODEL
100
AcDbLine
 10
1725.412362591263
 20
2047.784675895809
 30
0.0
 11
1393.412362591261
 21
2047.784675895809
 31
0.0
  0
TEXT
  5
469D
330
A
100
AcDbEntity
  8
DIM
  6
Continuous
100
AcDbText
 10
1414.499999999999
 20
2450.784675895809
 30
0.0
 40
24.0
  1
カウンター切込寸法
  7
ＭＳ ゴシック
100
AcDbText
  0
LINE
  5
46A4
330
A
100
AcDbEntity
  8
DIM
100
AcDbLine
 10
1393.499999999997
 20
2027.58333333332
 30
0.0
 11
1393.499999999997
 21
1888.784675895809
 31
0.0
  0
LINE
  5
46A5
330
A
100
AcDbEntity
  8
DIM
100
AcDbLine
 10
1725.499999999999
 20
2027.58333333332
 30
0.0
 11
1725.499999999999
 21
1888.784675895809
 31
0.0
  0
LINE
  5
46A6
330
A
100
AcDbEntity
  8
DIM
100
AcDbLine
 10
1403.499999999997
 20
1888.784675895809
 30
0.0
 11
1715.499999999999
 21
1888.784675895809
 31
0.0
  0
INSERT
  5
46A7
330
A
100
AcDbEntity
  8
DIM
100
AcDbBlockReference
  2
_DOT
 10
1393.499999999997
 20
1888.784675895809
 30
0.0
 41
10.0
 42
10.0
 43
10.0
 50
180.0
  0
INSERT
  5
46A8
330
A
100
AcDbEntity
  8
DIM
100
AcDbBlockReference
  2
_DOT
 10
1725.499999999999
 20
1888.784675895809
 30
0.0
 41
10.0
 42
10.0
 43
10.0
  0
MTEXT
  5
46A9
330
A
100
AcDbEntity
  8
DIM
100
AcDbMText
 10
1559.499999999998
 20
1920.789177583942
 30
0.0
 40
24.0
 41
0.0
 46
0.0
 71
     5
 72
     1
  1
\A1;330
  7
ＭＳ ゴシック
 73
     1
 44
1.0
  0
LINE
  5
46AA
330
A
100
AcDbEntity
  8
MODEL
100
AcDbLine
 10
1187.956623006837
 20
2327.784675895809
 30
0.0
 11
1962.298386118902
 21
2327.784675895809
 31
0.0
  0
LINE
  5
46AB
330
A
100
AcDbEntity
  8
MODEL
100
AcDbLine
 10
1824.022643919757
 20
2327.784675895808
 30
0.0
 11
1853.21449479392
 21
2365.16436054108
 31
0.0
  0
LINE
  5
46AC
330
A
100
AcDbEntity
  8
MODEL
100
AcDbLine
 10
1798.904074562917
 20
2327.784675895808
 30
0.0
 11
1828.095925437083
 21
2365.16436054108
 31
0.0
  0
LINE
  5
46AD
330
A
100
AcDbEntity
  8
MODEL
100
AcDbLine
 10
1772.427744700303
 20
2327.784675895809
 30
0.0
 11
1801.619595574469
 21
2365.16436054108
 31
0.0
  0
DIMENSION
  5
46C1
102
{ACAD_REACTORS
330
46C3
102
}
102
{ACAD_XDICTIONARY
360
46C2
102
}
330
A
100
AcDbEntity
  8
DIM
100
AcDbDimension
  2
*D5
 10
1885.462102231578
 20
2047.784675895809
 30
0.0
 11
1885.462102231578
 21
2172.784675895809
 31
0.0
 70
   160
 71
     5
 42
250.0
 73
     0
 74
     0
 75
     0
  3
tfrom線あり
100
AcDbAlignedDimension
 13
1725.499999999999
 23
2297.784675895809
 33
0.0
 14
1725.412362591263
 24
2047.784675895809
 34
0.0
 50
90.0
100
AcDbRotatedDimension
  0
DIMENSION
  5
46D0
330
A
100
AcDbEntity
  8
DIM
100
AcDbDimension
  2
*D6
 10
1885.799564855359
 20
2327.784675895809
 30
0.0
 11
1885.799564855359
 21
2416.421789813528
 31
0.0
 70
   160
 71
     5
 42
30.0
 73
     0
 74
     0
 75
     0
  3
tfrom線あり
100
AcDbAlignedDimension
 13
1929.330438988366
 23
2297.784675895809
 33
0.0
 14
1929.330438988366
 24
2327.784675895809
 34
0.0
 50
90.0
100
AcDbRotatedDimension
1001
ACAD
1000
DSTYLE
1002
{
1070
   172
1070
     1
1002
}
  0
DIMENSION
  5
46E4
102
{ACAD_REACTORS
330
46E6
102
}
102
{ACAD_XDICTIONARY
360
46E5
102
}
330
A
100
AcDbEntity
  8
DIM
100
AcDbDimension
  2
*D7
 10
974.0000000000002
 20
2537.0
 30
0.0
 11
624.0000000000005
 21
2537.0
 31
0.0
 70
   160
 71
     5
 42
700.0
 73
     0
 74
     0
 75
     0
  3
tfrom線あり
100
AcDbAlignedDimension
 13
274.0000000000002
 23
2324.784675895809
 33
0.0
 14
974.0000000000002
 24
2324.784675895809
 34
0.0
100
AcDbRotatedDimension
  0
DIMENSION
  5
46F6
102
{ACAD_REACTORS
330
46F8
102
}
102
{ACAD_XDICTIONARY
360
46F7
102
}
330
A
100
AcDbEntity
  8
DIM
100
AcDbDimension
  2
*D8
 10
624.0000000000002
 20
2405.0
 30
0.0
 11
574.0000000000003
 21
2405.0
 31
0.0
 70
   160
 71
     5
 42
100.0
 73
     0
 74
     0
 75
     0
  3
tfrom線あり
100
AcDbAlignedDimension
 13
524.0000000000002
 23
2261.271359476185
 33
0.0
 14
624.0000000000002
 24
2261.271359476185
 34
0.0
100
AcDbRotatedDimension
  0
DIMENSION
  5
4705
102
{ACAD_XDICTIONARY
360
4706
102
}
330
A
100
AcDbEntity
  8
DIM
100
AcDbDimension
  2
*D9
 10
624.0000000000002
 20
2405.0
 30
0.0
 11
674.0000000000001
 21
2405.0
 31
0.0
 70
   160
 71
     5
 42
100.0
 73
     0
 74
     0
 75
     0
 52
-89.99999999999999
  3
tfrom線あり
100
AcDbAlignedDimension
 13
724.0000000000002
 23
2261.271359476185
 33
0.0
 14
624.0000000000002
 24
2261.271359476185
 34
0.0
 50
180.0
100
AcDbRotatedDimension
  0
DIMENSION
  5
4714
102
{ACAD_REACTORS
330
4716
102
}
102
{ACAD_XDICTIONARY
360
4715
102
}
330
A
100
AcDbEntity
  8
DIM
100
AcDbDimension
  2
*D10
 10
1092.0
 20
1957.784675895809
 30
0.0
 11
1059.995498311867
 21
2142.784675895809
 31
0.0
 70
    32
 71
     5
 42
370.0000000000002
 73
     0
 74
     0
 75
     0
  3
tfrom線あり
100
AcDbAlignedDimension
 13
967.3185815275625
 23
2327.784675895809
 33
0.0
 14
967.0000000000002
 24
1957.784675895809
 34
0.0
 50
90.0
100
AcDbRotatedDimension
  0
DIMENSION
  5
4732
102
{ACAD_REACTORS
330
4734
102
}
102
{ACAD_XDICTIONARY
360
4733
102
}
330
A
100
AcDbEntity
  8
DIM
100
AcDbDimension
  2
*D12
 10
183.0
 20
1964.984675895809
 30
0.0
 11
150.9954983118669
 21
2081.384675895809
 31
0.0
 70
    32
  1
230
 71
     5
 42
232.8
 73
     0
 74
     0
 75
     0
  3
tfrom線あり
100
AcDbAlignedDimension
 13
291.2000000000027
 23
2197.784675895809
 33
0.0
 14
291.2000000000027
 24
1964.984675895809
 34
0.0
 50
90.0
100
AcDbRotatedDimension
  0
DIMENSION
  5
4741
330
A
100
AcDbEntity
  8
DIM
100
AcDbDimension
  2
*D13
 10
967.0000000000002
 20
1847.0
 30
0.0
 11
624.0000000000002
 21
1879.0
 31
0.0
 70
    32
  1
680
 71
     5
 42
686.0
 73
     0
 74
     0
 75
     0
  3
tfrom線あり
100
AcDbAlignedDimension
 13
281.0000000000002
 23
1957.784675895809
 33
0.0
 14
967.0000000000002
 24
1957.784675895809
 34
0.0
100
AcDbRotatedDimension
  0
DIMENSION
  5
4750
330
A
100
AcDbEntity
  8
DIM
100
AcDbDimension
  2
*D14
 10
1092.0
 20
863.26358732491
 30
0.0
 11
1092.0
 21
950.4761242264112
 31
0.0
 70
   160
 71
     5
 42
160.0
 73
     0
 74
     0
 75
     0
  3
tfrom線あり
100
AcDbAlignedDimension
 13
974.0
 23
1023.26358732491
 33
0.0
 14
660.0
 24
863.26358732491
 34
0.0
 50
90.0
100
AcDbRotatedDimension
  0
DIMENSION
  5
4761
330
A
100
AcDbEntity
  8
DIM
100
AcDbDimension
  2
*D15
 10
207.0
 20
983.1029613633016
 30
0.0
 11
175.0
 21
1003.183274344106
 31
0.0
 70
    32
 71
     5
 42
40.16062596160862
 73
     0
 74
     1
 75
     1
  3
tfrom線あり
100
AcDbAlignedDimension
 13
274.0
 23
1023.26358732491
 33
0.0
 14
274.8635432780076
 24
983.1029613633016
 34
0.0
 50
90.0
100
AcDbRotatedDimension
1001
ACAD
1000
DSTYLE
1002
{
1070
   172
1070
     1
1002
}
  0
DIMENSION
  5
4789
102
{ACAD_XDICTIONARY
360
478A
102
}
330
A
100
AcDbEntity
  8
DIM
100
AcDbDimension
  2
*D16
 10
183.0
 20
2327.784675895809
 30
0.0
 11
150.9954983118669
 21
2262.784675895809
 31
0.0
 70
    32
 71
     5
 42
130.0
 73
     0
 74
     0
 75
     0
  3
tfrom線あり
100
AcDbAlignedDimension
 13
274.0000000000002
 23
2197.784675895809
 33
0.0
 14
274.0
 24
2327.784675895809
 34
0.0
 50
90.0
100
AcDbRotatedDimension
  0
VIEWPORT
  5
349
330
B
100
AcDbEntity
 67
     1
  8
0
100
AcDbViewport
 10
202.5
 20
128.5
 30
0.0
 40
486.0
 41
308.4
 68
     1
 69
     1
 12
202.5
 22
128.5
 13
0.0
 23
0.0
 14
0.5
 24
0.5
 15
0.0
 25
0.0
 16
0.0
 26
0.0
 36
1.0
 17
0.0
 27
0.0
 37
0.0
 42
50.0
 43
0.0
 44
0.0
 45
308.4
 50
0.0
 51
0.0
 72
   100
 90
   557152
  1

281
     0
 71
     1
 74
     0
110
0.0
120
0.0
130
0.0
111
1.0
121
0.0
131
0.0
112
0.0
122
1.0
132
0.0
 79
     0
146
0.0
170
     0
 61
     5
348
26C
292
     1
282
     1
141
0.0
142
0.0
 63
   256
  0
VIEWPORT
  5
34A
330
B
100
AcDbEntity
 67
     1
  8
0
100
AcDbViewport
 10
202.5
 20
128.5
 30
0.0
 40
324.0
 41
205.6
 68
     2
 69
     2
 12
986.6781359294573
 22
1427.077061889956
 13
0.0
 23
0.0
 14
0.5
 24
0.5
 15
0.0
 25
0.0
 16
0.0
 26
0.0
 36
1.0
 17
0.0
 27
0.0
 37
0.0
 42
50.0
 43
0.0
 44
0.0
 45
2890.021615685494
 50
0.0
 51
0.0
 72
   100
 90
   557152
  1

281
     0
 71
     1
 74
     0
110
0.0
120
0.0
130
0.0
111
1.0
121
0.0
131
0.0
112
0.0
122
1.0
132
0.0
 79
     0
146
0.0
170
     0
 61
     5
348
26C
292
     1
282
     1
141
0.0
142
0.0
 63
   256
  0
ENDSEC
  0
SECTION
  2
OBJECTS
  0
DICTIONARY
  5
19
330
0
100
AcDbDictionary
281
     1
  3
ACAD_COLOR
350
674
  3
ACAD_DETAILVIEWSTYLE
350
BBF
  3
ACAD_FIELDLIST
350
146A
  3
ACAD_GROUP
350
1A
  3
ACAD_IMAGE_VARS
350
27B
  3
ACAD_LAYOUT
350
1E
  3
ACAD_MATERIAL
350
263
  3
ACAD_MLEADERSTYLE
350
336
  3
ACAD_MLINESTYLE
350
1B
  3
ACAD_PLOTSETTINGS
350
22
  3
ACAD_PLOTSTYLENAME
350
1F
  3
ACAD_SCALELIST
350
241
  3
ACAD_SECTIONVIEWSTYLE
350
BC0
  3
ACAD_TABLESTYLE
350
278
  3
ACAD_VISUALSTYLE
350
267
  3
ACDB_RECOMPOSE_DATA
350
479D
  3
AcDbVariableDictionary
350
330
  3
APPDATA
350
27A
  3
DimOffsetDictionary
350
E3E
  0
SUN
  5
904
330
15
100
AcDbSun
 90
        1
290
     0
 63
     7
421
 16777215
 40
1.0
291
     1
 91
  2455826
 92
 54000000
292
     0
 70
     2
 71
   256
280
     1
  0
DICTIONARY
  5
2E1
330
2
100
AcDbDictionary
280
     1
281
     1
  3
ACAD_LAYERSTATES
360
2E2
  3
ACLYDICTIONARY
360
DF9
  0
DICTIONARY
  5
374D
330
A
100
AcDbDictionary
280
     1
281
     1
  3
ACAD_SORTENTS
360
374E
  0
DICTIONARY
  5
1468
330
1466
100
AcDbDictionary
280
     1
281
     1
  3
ACAD_FIELD
360
4772
  0
DICTIONARY
  5
46C2
330
46C1
100
AcDbDictionary
280
     1
281
     1
  3
ACAD_DIMASSOC
360
46C3
  0
DICTIONARY
  5
46E5
330
46E4
100
AcDbDictionary
280
     1
281
     1
  3
ACAD_DIMASSOC
360
46E6
  0
DICTIONARY
  5
46F7
330
46F6
100
AcDbDictionary
280
     1
281
     1
  3
ACAD_DIMASSOC
360
46F8
  0
DICTIONARY
  5
4706
330
4705
100
AcDbDictionary
280
     1
281
     1
  3
ACAD_DIMASSOC
360
4707
  0
DICTIONARY
  5
4715
330
4714
100
AcDbDictionary
280
     1
281
     1
  3
ACAD_DIMASSOC
360
4716
  0
DICTIONARY
  5
4733
330
4732
100
AcDbDictionary
280
     1
281
     1
  3
ACAD_DIMASSOC
360
4734
  0
DICTIONARY
  5
478A
330
4789
100
AcDbDictionary
280
     1
281
     1
  0
DICTIONARY
  5
674
102
{ACAD_REACTORS
330
19
102
}
330
19
100
AcDbDictionary
281
     1
  0
DICTIONARY
  5
BBF
102
{ACAD_REACTORS
330
19
102
}
330
19
100
AcDbDictionary
281
     1
  0
FIELDLIST
  5
146A
102
{ACAD_REACTORS
330
19
102
}
330
19
100
AcDbIdSet
 90
        2
330
146B
330
1467
100
AcDbFieldList
  0
DICTIONARY
  5
1A
102
{ACAD_REACTORS
330
19
102
}
330
19
100
AcDbDictionary
281
     1
  3
*A1
350
36AC
  3
*A2
350
45F7
  3
*A3
350
45FD
  0
RASTERVARIABLES
  5
27B
102
{ACAD_REACTORS
330
19
102
}
330
19
100
AcDbRasterVariables
 90
        0
 70
     1
 71
     1
 72
     1
  0
DICTIONARY
  5
1E
102
{ACAD_REACTORS
330
19
102
}
330
19
100
AcDbDictionary
281
     1
  3
Layout1
350
21
  3
Model
350
20
  0
DICTIONARY
  5
263
102
{ACAD_REACTORS
330
19
102
}
330
19
100
AcDbDictionary
281
     1
  3
ByBlock
350
265
  3
ByLayer
350
264
  3
Global
350
266
  0
DICTIONARY
  5
336
102
{ACAD_REACTORS
330
19
102
}
330
19
100
AcDbDictionary
281
     1
  3
Standard
350
DAB
  0
DICTIONARY
  5
1B
102
{ACAD_REACTORS
330
19
102
}
330
19
100
AcDbDictionary
281
     1
  3
Standard
350
1C
  0
DICTIONARY
  5
22
102
{ACAD_REACTORS
330
19
102
}
330
19
100
AcDbDictionary
281
     1
  0
ACDBDICTIONARYWDFLT
  5
1F
102
{ACAD_REACTORS
330
19
102
}
330
19
100
AcDbDictionary
281
     1
  3
Normal
350
1D
100
AcDbDictionaryWithDefault
340
1D
  0
DICTIONARY
  5
241
102
{ACAD_REACTORS
330
19
102
}
330
19
100
AcDbDictionary
281
     1
  3
A0
350
242
  3
A1
350
243
  3
A2
350
244
  3
A3
350
245
  3
A4
350
246
  3
A5
350
247
  3
A6
350
248
  3
A7
350
249
  3
A8
350
24A
  3
A9
350
24B
  3
B0
350
24C
  3
B1
350
24D
  3
B2
350
24E
  3
B3
350
24F
  3
B4
350
250
  3
B5
350
251
  3
B6
350
252
  3
B7
350
253
  3
B8
350
254
  3
B9
350
255
  3
C0
350
256
  3
C1
350
257
  3
C2
350
258
  3
C3
350
259
  3
C4
350
25A
  3
C5
350
25B
  3
C6
350
25C
  3
C7
350
25D
  3
C8
350
25E
  3
C9
350
25F
  3
D0
350
260
  3
D1
350
261
  3
D2
350
262
  0
DICTIONARY
  5
BC0
102
{ACAD_REACTORS
330
19
102
}
330
19
100
AcDbDictionary
281
     1
  0
DICTIONARY
  5
278
102
{ACAD_REACTORS
330
19
102
}
330
19
100
AcDbDictionary
281
     1
  3
Standard
350
279
  0
DICTIONARY
  5
267
102
{ACAD_REACTORS
330
19
102
}
330
19
100
AcDbDictionary
281
     1
  3
2dWireframe
350
26C
  3
3D Hidden
350
26E
  3
3dWireframe
350
26D
  3
Basic
350
26F
  3
Brighten
350
273
  3
ColorChange
350
277
  3
Conceptual
350
271
  3
Dim
350
272
  3
EdgeColorOff
350
8FE
  3
Facepattern
350
276
  3
Flat
350
268
  3
FlatWithEdges
350
269
  3
Gouraud
350
26A
  3
GouraudWithEdges
350
26B
  3
Hidden
350
8FB
  3
JitterOff
350
8FC
  3
Linepattern
350
275
  3
OverhangOff
350
8FD
  3
Realistic
350
270
  3
Shaded
350
903
  3
Shaded with edges
350
902
  3
Shades of Gray
350
8FF
  3
Sketchy
350
900
  3
Thicken
350
274
  3
Wireframe
350
8FA
  3
X-Ray
350
901
  0
XRECORD
  5
479D
102
{ACAD_REACTORS
330
19
102
}
330
19
100
AcDbXrecord
280
     1
 90
        1
330
279
  0
DICTIONARY
  5
330
102
{ACAD_REACTORS
330
19
102
}
330
19
100
AcDbDictionary
281
     1
  3
CANNOSCALE
350
331
  3
CMLEADERSTYLE
350
DB1
  3
CTABLESTYLE
350
335
  3
HPTRANSPARENCY
350
D52
  3
XCLIPFRAME
350
896
  0
DICTIONARY
  5
27A
102
{ACAD_REACTORS
330
19
102
}
330
19
100
AcDbDictionary
281
     1
  0
DICTIONARY
  5
E3E
102
{ACAD_REACTORS
330
19
102
}
330
19
100
AcDbDictionary
281
     1
  3
DIMRAILANGLE
350
ECE
  3
DIMRAILFIRSTOFFSET
350
ECC
  3
DIMRAILOFFSET
350
ECD
  3
DIMRAILSENABLED
350
ECF
  0
DICTIONARY
  5
2E2
102
{ACAD_REACTORS
330
2E1
102
}
330
2E1
100
AcDbDictionary
281
     1
  0
DICTIONARY
  5
DF9
102
{ACAD_REACTORS
330
2E1
102
}
330
2E1
100
AcDbDictionary
281
     1
1001
ACAD
1000
<All
  0
SORTENTSTABLE
  5
374E
102
{ACAD_REACTORS
330
374D
102
}
330
374D
100
AcDbSortentsTable
330
A
331
369B
  5
35AE
331
369C
  5
369A
331
36A7
  5
369B
331
36A8
  5
369C
331
36A9
  5
36A7
331
36AA
  5
36A8
331
36AB
  5
36A9
331
3F90
  5
400A
331
3FAF
  5
401F
331
4073
  5
4079
331
4074
  5
407A
331
4075
  5
407B
331
4076
  5
407C
331
4077
  5
407D
331
4078
  5
407E
331
0
  5
407F
  0
DICTIONARY
  5
4772
102
{ACAD_REACTORS
330
1468
102
}
330
1468
100
AcDbDictionary
280
     1
281
     1
  3
TEXT
360
1467
  0
DIMASSOC
  5
46C3
102
{ACAD_REACTORS
330
46C2
102
}
330
46C2
100
AcDbDimAssoc
330
46C1
 90
        3
 70
     0
 71
     1
  1
AcDbOsnapPointRef
 72
    13
331
469A
 73
     0
 91
        0
 40
0.0
 10
0.0
 20
0.0
 30
0.0
 75
     0
  1
AcDbOsnapPointRef
 72
    13
331
469C
 73
     0
 91
        0
 40
0.0
 10
0.0
 20
0.0
 30
0.0
 75
     0
  0
DIMASSOC
  5
46E6
102
{ACAD_REACTORS
330
46E5
102
}
330
46E5
100
AcDbDimAssoc
330
46E4
 90
        3
 70
     0
 71
     1
  1
AcDbOsnapPointRef
 72
     1
331
42DE
 73
     0
 91
        0
 40
0.0
 10
0.0
 20
0.0
 30
0.0
 75
     0
  1
AcDbOsnapPointRef
 72
    13
331
42DB
 73
     0
 91
        0
 40
0.0
 10
0.0
 20
0.0
 30
0.0
 75
     0
  0
DIMASSOC
  5
46F8
102
{ACAD_REACTORS
330
46F7
102
}
330
46F7
100
AcDbDimAssoc
330
46F6
 90
        3
 70
     0
 71
     1
  1
AcDbOsnapPointRef
 72
     3
331
42FE
 73
     0
 91
        0
 40
0.0
 10
0.0
 20
0.0
 30
0.0
 75
     0
  1
AcDbOsnapPointRef
 72
     3
331
42E1
 73
     0
 91
        0
 40
0.0
 10
0.0
 20
0.0
 30
0.0
 75
     0
  0
DIMASSOC
  5
4707
102
{ACAD_REACTORS
330
4706
102
}
330
4706
100
AcDbDimAssoc
330
4705
 90
        0
 70
     0
 71
     1
  0
DIMASSOC
  5
4716
102
{ACAD_REACTORS
330
4715
102
}
330
4715
100
AcDbDimAssoc
330
4714
 90
        3
 70
     0
 71
     1
  1
AcDbOsnapPointRef
 72
    10
331
42DD
 73
     0
 91
        0
 40
0.0053046375683541
 10
0.0
 20
0.0
 30
0.0
 75
     0
  1
AcDbOsnapPointRef
 72
    13
331
42DC
 73
     0
 91
        0
 40
0.0
 10
0.0
 20
0.0
 30
0.0
 75
     0
  0
DIMASSOC
  5
4734
102
{ACAD_REACTORS
330
4733
102
}
330
4733
100
AcDbDimAssoc
330
4732
 90
        3
 70
     0
 71
     1
  1
AcDbOsnapPointRef
 72
    13
331
42DF
 73
     0
 91
        0
 40
0.0
 10
0.0
 20
0.0
 30
0.0
 75
     0
  1
AcDbOsnapPointRef
 72
    13
331
42D5
 73
     0
 91
        0
 40
0.0
 10
0.0
 20
0.0
 30
0.0
 75
     0
  0
GROUP
  5
36AC
102
{ACAD_REACTORS
330
1A
102
}
330
1A
100
AcDbGroup
300

 70
     1
 71
     1
340
369B
340
369C
340
36A7
340
36A8
340
36A9
340
36AA
340
36AB
  0
GROUP
  5
45F7
102
{ACAD_REACTORS
330
1A
102
}
330
1A
100
AcDbGroup
300

 70
     1
 71
     1
340
45F0
340
45F1
340
45F2
  0
GROUP
  5
45FD
102
{ACAD_REACTORS
330
1A
102
}
330
1A
100
AcDbGroup
300

 70
     1
 71
     1
340
45FA
340
45FB
340
45FC
  0
LAYOUT
  5
21
102
{ACAD_REACTORS
330
1E
102
}
330
1E
100
AcDbPlotSettings
  1

  2
none_device
  4
ISO_A3_(420.00_x_297.00_MM)
  6

 40
7.5
 41
20.0
 42
7.5
 43
20.0
 44
420.0
 45
297.0
 46
0.0
 47
0.0
 48
0.0
 49
0.0
140
0.0
141
0.0
142
1.0
143
1.0
 70
     0
 72
     1
 73
     0
 74
     0
  7

 75
     0
 76
     0
 77
     2
 78
   300
147
1.0
148
0.0
149
0.0
100
AcDbLayout
  1
Layout1
 70
     0
 71
     0
 10
-7.5
 20
-20.0
 11
412.5
 21
277.0
 12
0.0
 22
0.0
 32
0.0
 14
0.0
 24
0.0
 34
0.0
 15
0.0
 25
0.0
 35
0.0
146
0.0
 13
0.0
 23
0.0
 33
0.0
 16
0.0
 26
0.0
 36
0.0
 17
0.0
 27
0.0
 37
0.0
 76
     0
330
B
331
349
  0
LAYOUT
  5
20
102
{ACAD_REACTORS
330
1E
102
}
330
1E
100
AcDbPlotSettings
  1

  2
none_device
  4
ISO_A3_(420.00_x_297.00_MM)
  6

 40
7.5
 41
20.0
 42
7.5
 43
20.0
 44
420.0
 45
297.0
 46
0.0
 47
0.0
 48
0.0
 49
0.0
140
0.0
141
0.0
142
1.0
143
1.0
 70
  1024
 72
     1
 73
     0
 74
     0
  7

 75
     0
 76
     0
 77
     2
 78
   300
147
1.0
148
0.0
149
0.0
100
AcDbLayout
  1
Model
 70
     0
 71
     1
 10
0.0
 20
0.0
 11
2100.0
 21
2970.0
 12
0.0
 22
0.0
 32
0.0
 14
0.0
 24
0.0
 34
-0.0000000000000142
 15
2100.0
 25
2970.0
 35
34.99521132346014
146
0.0
 13
0.0
 23
0.0
 33
0.0
 16
0.0
 26
0.0
 36
0.0
 17
0.0
 27
0.0
 37
0.0
 76
     0
330
A
331
15
  0
MATERIAL
  5
265
102
{ACAD_REACTORS
330
263
102
}
330
263
100
AcDbMaterial
  1
ByBlock
 72
     1
 94
      127
  0
MATERIAL
  5
264
102
{ACAD_REACTORS
330
263
102
}
330
263
100
AcDbMaterial
  1
ByLayer
 72
     1
 94
      127
  0
MATERIAL
  5
266
102
{ACAD_REACTORS
330
263
102
}
330
263
100
AcDbMaterial
  1
Global
 72
     1
 94
      127
  0
MLEADERSTYLE
  5
DAB
102
{ACAD_REACTORS
330
336
102
}
330
336
100
AcDbMLeaderStyle
170
     2
171
     1
172
     0
 90
        2
 40
0.0
 41
0.0
173
     1
 91
-1056964608
340
11
 92
       -2
290
     1
 42
2.0
291
     1
 43
8.0
  3
Standard
341
0
 44
4.0
300

342
17
174
     1
178
     6
175
     1
176
     0
 93
-1056964608
 45
4.0
292
     0
297
     0
 46
4.0
343
0
 94
-1056964608
 47
1.0
 49
1.0
140
1.0
293
     1
141
0.0
294
     1
177
     0
142
1.0
295
     0
296
     0
143
3.75
1001
ACAD_MLEADERVER
1070
     2
  0
MLINESTYLE
  5
1C
102
{ACAD_REACTORS
330
1B
102
}
330
1B
100
AcDbMlineStyle
  2
Standard
 70
     0
  3

 62
     0
 51
90.0
 52
90.0
 71
     2
 49
0.5
 62
   256
  6
BYLAYER
 49
-0.5
 62
   256
  6
BYLAYER
  0
ACDBPLACEHOLDER
  5
1D
102
{ACAD_REACTORS
330
1F
102
}
330
1F
  0
SCALE
  5
242
102
{ACAD_REACTORS
330
241
102
}
330
241
100
AcDbScale
 70
     0
300
1:1
140
1.0
141
1.0
290
     1
  0
SCALE
  5
243
102
{ACAD_REACTORS
330
241
102
}
330
241
100
AcDbScale
 70
     0
300
1:2
140
1.0
141
2.0
290
     0
  0
SCALE
  5
244
102
{ACAD_REACTORS
330
241
102
}
330
241
100
AcDbScale
 70
     0
300
1:4
140
1.0
141
4.0
290
     0
  0
SCALE
  5
245
102
{ACAD_REACTORS
330
241
102
}
330
241
100
AcDbScale
 70
     0
300
1:5
140
1.0
141
5.0
290
     0
  0
SCALE
  5
246
102
{ACAD_REACTORS
330
241
102
}
330
241
100
AcDbScale
 70
     0
300
1:8
140
1.0
141
8.0
290
     0
  0
SCALE
  5
247
102
{ACAD_REACTORS
330
241
102
}
330
241
100
AcDbScale
 70
     0
300
1:10
140
1.0
141
10.0
290
     0
  0
SCALE
  5
248
102
{ACAD_REACTORS
330
241
102
}
330
241
100
AcDbScale
 70
     0
300
1:16
140
1.0
141
16.0
290
     0
  0
SCALE
  5
249
102
{ACAD_REACTORS
330
241
102
}
330
241
100
AcDbScale
 70
     0
300
1:20
140
1.0
141
20.0
290
     0
  0
SCALE
  5
24A
102
{ACAD_REACTORS
330
241
102
}
330
241
100
AcDbScale
 70
     0
300
1:30
140
1.0
141
30.0
290
     0
  0
SCALE
  5
24B
102
{ACAD_REACTORS
330
241
102
}
330
241
100
AcDbScale
 70
     0
300
1:40
140
1.0
141
40.0
290
     0
  0
SCALE
  5
24C
102
{ACAD_REACTORS
330
241
102
}
330
241
100
AcDbScale
 70
     0
300
1:50
140
1.0
141
50.0
290
     0
  0
SCALE
  5
24D
102
{ACAD_REACTORS
330
241
102
}
330
241
100
AcDbScale
 70
     0
300
1:100
140
1.0
141
100.0
290
     0
  0
SCALE
  5
24E
102
{ACAD_REACTORS
330
241
102
}
330
241
100
AcDbScale
 70
     0
300
2:1
140
2.0
141
1.0
290
     0
  0
SCALE
  5
24F
102
{ACAD_REACTORS
330
241
102
}
330
241
100
AcDbScale
 70
     0
300
4:1
140
4.0
141
1.0
290
     0
  0
SCALE
  5
250
102
{ACAD_REACTORS
330
241
102
}
330
241
100
AcDbScale
 70
     0
300
8:1
140
8.0
141
1.0
290
     0
  0
SCALE
  5
251
102
{ACAD_REACTORS
330
241
102
}
330
241
100
AcDbScale
 70
     0
300
10:1
140
10.0
141
1.0
290
     0
  0
SCALE
  5
252
102
{ACAD_REACTORS
330
241
102
}
330
241
100
AcDbScale
 70
     0
300
100:1
140
100.0
141
1.0
290
     0
  0
SCALE
  5
253
102
{ACAD_REACTORS
330
241
102
}
330
241
100
AcDbScale
 70
     0
300
1/128" = 1'-0"
140
0.0078125
141
12.0
290
     0
  0
SCALE
  5
254
102
{ACAD_REACTORS
330
241
102
}
330
241
100
AcDbScale
 70
     0
300
1/64" = 1'-0"
140
0.015625
141
12.0
290
     0
  0
SCALE
  5
255
102
{ACAD_REACTORS
330
241
102
}
330
241
100
AcDbScale
 70
     0
300
1/32" = 1'-0"
140
0.03125
141
12.0
290
     0
  0
SCALE
  5
256
102
{ACAD_REACTORS
330
241
102
}
330
241
100
AcDbScale
 70
     0
300
1/16" = 1'-0"
140
0.0625
141
12.0
290
     0
  0
SCALE
  5
257
102
{ACAD_REACTORS
330
241
102
}
330
241
100
AcDbScale
 70
     0
300
3/32" = 1'-0"
140
0.09375
141
12.0
290
     0
  0
SCALE
  5
258
102
{ACAD_REACTORS
330
241
102
}
330
241
100
AcDbScale
 70
     0
300
1/8" = 1'-0"
140
0.125
141
12.0
290
     0
  0
SCALE
  5
259
102
{ACAD_REACTORS
330
241
102
}
330
241
100
AcDbScale
 70
     0
300
3/16" = 1'-0"
140
0.1875
141
12.0
290
     0
  0
SCALE
  5
25A
102
{ACAD_REACTORS
330
241
102
}
330
241
100
AcDbScale
 70
     0
300
1/4" = 1'-0"
140
0.25
141
12.0
290
     0
  0
SCALE
  5
25B
102
{ACAD_REACTORS
330
241
102
}
330
241
100
AcDbScale
 70
     0
300
3/8" = 1'-0"
140
0.375
141
12.0
290
     0
  0
SCALE
  5
25C
102
{ACAD_REACTORS
330
241
102
}
330
241
100
AcDbScale
 70
     0
300
1/2" = 1'-0"
140
0.5
141
12.0
290
     0
  0
SCALE
  5
25D
102
{ACAD_REACTORS
330
241
102
}
330
241
100
AcDbScale
 70
     0
300
3/4" = 1'-0"
140
0.75
141
12.0
290
     0
  0
SCALE
  5
25E
102
{ACAD_REACTORS
330
241
102
}
330
241
100
AcDbScale
 70
     0
300
1" = 1'-0"
140
1.0
141
12.0
290
     0
  0
SCALE
  5
25F
102
{ACAD_REACTORS
330
241
102
}
330
241
100
AcDbScale
 70
     0
300
1-1/2" = 1'-0"
140
1.5
141
12.0
290
     0
  0
SCALE
  5
260
102
{ACAD_REACTORS
330
241
102
}
330
241
100
AcDbScale
 70
     0
300
3" = 1'-0"
140
3.0
141
12.0
290
     0
  0
SCALE
  5
261
102
{ACAD_REACTORS
330
241
102
}
330
241
100
AcDbScale
 70
     0
300
6" = 1'-0"
140
6.0
141
12.0
290
     0
  0
SCALE
  5
262
102
{ACAD_REACTORS
330
241
102
}
330
241
100
AcDbScale
 70
     0
300
1'-0" = 1'-0"
140
12.0
141
12.0
290
     0
  0
TABLESTYLE
  5
279
102
{ACAD_REACTORS
330
278
102
}
102
{ACAD_XDICTIONARY
360
479B
102
}
330
278
100
AcDbTableStyle
  3
Standard
 70
     0
 71
     0
 40
0.06
 41
0.06
280
     0
281
     0
  7
Standard
140
4.5
170
     2
 62
     0
 63
   257
283
     0
 90
        4
 91
        0
  1

274
    -2
284
     1
 64
     0
275
    -2
285
     1
 65
     0
276
    -2
286
     1
 66
     0
277
    -2
287
     1
 67
     0
278
    -2
288
     1
 68
     0
279
    -2
289
     1
 69
     0
  7
Standard
140
6.0
170
     5
 62
     0
 63
   257
283
     0
 90
        4
 91
        0
  1

274
    -2
284
     1
 64
     0
275
    -2
285
     1
 65
     0
276
    -2
286
     1
 66
     0
277
    -2
287
     1
 67
     0
278
    -2
288
     1
 68
     0
279
    -2
289
     1
 69
     0
  7
Standard
140
4.5
170
     5
 62
     0
 63
   257
283
     0
 90
        4
 91
        0
  1

274
    -2
284
     1
 64
     0
275
    -2
285
     1
 65
     0
276
    -2
286
     1
 66
     0
277
    -2
287
     1
 67
     0
278
    -2
288
     1
 68
     0
279
    -2
289
     1
 69
     0
  0
VISUALSTYLE
  5
26C
102
{ACAD_REACTORS
330
267
102
}
330
267
100
AcDbVisualStyle
  2
2dWireframe
 70
     4
 71
     0
 72
     2
 73
     0
 90
        0
 40
-0.6
 41
-30.0
 62
     5
 63
     7
421
 16777215
 74
     1
 91
        4
 64
     7
 65
   257
 75
     1
175
     1
 42
1.0
 92
        0
 66
   257
 43
1.0
 76
     1
 77
     6
 78
     2
 67
     7
 79
     5
170
     0
171
     0
290
     0
174
     0
 93
        1
 44
0.0
173
     0
291
     0
 45
0.0
  0
VISUALSTYLE
  5
26E
102
{ACAD_REACTORS
330
267
102
}
330
267
100
AcDbVisualStyle
  2
3D Hidden
 70
     6
 71
     1
 72
     2
 73
     2
 90
        0
 40
-0.6
 41
-30.0
 62
     5
 63
     7
421
 16777215
 74
     2
 91
        2
 64
     7
 65
   257
 75
     2
175
     1
 42
40.0
 92
        0
 66
   257
 43
1.0
 76
     1
 77
     6
 78
     2
 67
     7
 79
     3
170
     0
171
     0
290
     0
174
     0
 93
        1
 44
0.0
173
     0
291
     0
 45
0.0
  0
VISUALSTYLE
  5
26D
102
{ACAD_REACTORS
330
267
102
}
330
267
100
AcDbVisualStyle
  2
3dWireframe
 70
     5
 71
     0
 72
     2
 73
     0
 90
        0
 40
-0.6
 41
-30.0
 62
     5
 63
     7
421
 16777215
 74
     1
 91
        4
 64
     7
 65
   257
 75
     1
175
     1
 42
1.0
 92
        0
 66
   257
 43
1.0
 76
     1
 77
     6
 78
     2
 67
     7
 79
     5
170
     0
171
     0
290
     0
174
     0
 93
        1
 44
0.0
173
     0
291
     0
 45
0.0
  0
VISUALSTYLE
  5
26F
102
{ACAD_REACTORS
330
267
102
}
330
267
100
AcDbVisualStyle
  2
Basic
 70
     7
 71
     1
 72
     0
 73
     1
 90
        0
 40
-0.6
 41
-30.0
 62
     5
 63
     7
421
 16777215
 74
     0
 91
        4
 64
     7
 65
   257
 75
     1
175
     1
 42
1.0
 92
        8
 66
     7
 43
1.0
 76
     1
 77
     6
 78
     2
 67
     7
 79
     5
170
     0
171
     0
290
     0
174
     0
 93
        1
 44
0.0
173
     0
291
     1
 45
0.0
  0
VISUALSTYLE
  5
273
102
{ACAD_REACTORS
330
267
102
}
330
267
100
AcDbVisualStyle
  2
Brighten
 70
    12
 71
     2
 72
     2
 73
     0
 90
        0
 40
-0.6
 41
-30.0
 62
     5
 63
     7
421
 16777215
 74
     1
 91
        4
 64
     7
 65
   257
 75
     1
175
     1
 42
1.0
 92
        8
 66
     7
 43
1.0
 76
     1
 77
     6
 78
     2
 67
     7
 79
     5
170
     0
171
     0
290
     0
174
     0
 93
        1
 44
50.0
173
     0
291
     1
 45
0.0
  0
VISUALSTYLE
  5
277
102
{ACAD_REACTORS
330
267
102
}
330
267
100
AcDbVisualStyle
  2
ColorChange
 70
    16
 71
     2
 72
     2
 73
     3
 90
        0
 40
-0.6
 41
-30.0
 62
     5
 63
     8
421
  8421504
 74
     1
 91
        4
 64
     7
 65
   257
 75
     1
175
     1
 42
1.0
 92
        8
 66
     8
424
  8421504
 43
1.0
 76
     1
 77
     6
 78
     2
 67
     7
 79
     5
170
     0
171
     0
290
     0
174
     0
 93
        1
 44
0.0
173
     0
291
     1
 45
0.0
  0
VISUALSTYLE
  5
271
102
{ACAD_REACTORS
330
267
102
}
330
267
100
AcDbVisualStyle
  2
Conceptual
 70
     9
 71
     3
 72
     2
 73
     0
 90
        0
 40
-0.6
 41
-30.0
 62
     5
 63
     7
421
 16777215
 74
     2
 91
        2
 64
     7
 65
   257
 75
     1
175
     1
 42
40.0
 92
        8
 66
     7
 43
1.0
 76
     1
 77
     6
 78
     2
 67
     7
 79
     3
170
     0
171
     0
290
     0
174
     0
 93
        1
 44
0.0
173
     0
291
     0
 45
0.0
  0
VISUALSTYLE
  5
272
102
{ACAD_REACTORS
330
267
102
}
330
267
100
AcDbVisualStyle
  2
Dim
 70
    11
 71
     2
 72
     2
 73
     0
 90
        0
 40
-0.6
 41
-30.0
 62
     5
 63
     7
421
 16777215
 74
     1
 91
        4
 64
     7
 65
   257
 75
     1
175
     1
 42
1.0
 92
        8
 66
     7
 43
1.0
 76
     1
 77
     6
 78
     2
 67
     7
 79
     5
170
     0
171
     0
290
     0
174
     0
 93
        1
 44
-50.0
173
     0
291
     1
 45
0.0
  0
VISUALSTYLE
  5
8FE
102
{ACAD_REACTORS
330
267
102
}
330
267
100
AcDbVisualStyle
  2
EdgeColorOff
 70
    22
 71
     2
 72
     2
 73
     0
 90
        0
 40
0.6
 41
30.0
 62
     5
 63
     7
421
 16777215
 74
     1
 91
        4
 64
     7
 65
   257
 75
     1
175
     1
 42
1.0
 92
        8
 66
     7
 43
1.0
 76
     1
 77
     6
 78
     2
 67
     7
 79
     5
170
     0
171
     0
290
     0
174
     0
 93
        1
 44
0.0
173
     0
291
     1
 45
0.0
  0
VISUALSTYLE
  5
276
102
{ACAD_REACTORS
330
267
102
}
330
267
100
AcDbVisualStyle
  2
Facepattern
 70
    15
 71
     2
 72
     2
 73
     0
 90
        0
 40
-0.6
 41
-30.0
 62
     5
 63
     7
421
 16777215
 74
     1
 91
        4
 64
     7
 65
   257
 75
     1
175
     1
 42
1.0
 92
        8
 66
     7
 43
1.0
 76
     1
 77
     6
 78
     2
 67
     7
 79
     5
170
     0
171
     0
290
     0
174
     0
 93
        1
 44
0.0
173
     0
291
     1
 45
0.0
  0
VISUALSTYLE
  5
268
102
{ACAD_REACTORS
330
267
102
}
330
267
100
AcDbVisualStyle
  2
Flat
 70
     0
 71
     2
 72
     1
 73
     1
 90
        2
 40
-0.6
 41
30.0
 62
     5
 63
     7
421
 16777215
 74
     0
 91
        4
 64
     7
 65
   257
 75
     1
175
     1
 42
1.0
 92
        8
 66
     7
 43
1.0
 76
     1
 77
     6
 78
     2
 67
     7
 79
     5
170
     0
171
     0
290
     0
174
     0
 93
       13
 44
0.0
173
     0
291
     1
 45
0.0
  0
VISUALSTYLE
  5
269
102
{ACAD_REACTORS
330
267
102
}
330
267
100
AcDbVisualStyle
  2
FlatWithEdges
 70
     1
 71
     2
 72
     1
 73
     1
 90
        2
 40
-0.6
 41
30.0
 62
     5
 63
     7
421
 16777215
 74
     1
 91
        4
 64
     7
 65
   257
 75
     1
175
     1
 42
1.0
 92
        0
 66
   257
 43
1.0
 76
     1
 77
     6
 78
     2
 67
     7
 79
     5
170
     0
171
     0
290
     0
174
     0
 93
       13
 44
0.0
173
     0
291
     1
 45
0.0
  0
VISUALSTYLE
  5
26A
102
{ACAD_REACTORS
330
267
102
}
330
267
100
AcDbVisualStyle
  2
Gouraud
 70
     2
 71
     2
 72
     2
 73
     1
 90
        2
 40
-0.6
 41
30.0
 62
     5
 63
     7
421
 16777215
 74
     0
 91
        4
 64
     7
 65
   257
 75
     1
175
     1
 42
1.0
 92
        0
 66
     7
 43
1.0
 76
     1
 77
     6
 78
     2
 67
     7
 79
     5
170
     0
171
     0
290
     0
174
     0
 93
       13
 44
0.0
173
     0
291
     1
 45
0.0
  0
VISUALSTYLE
  5
26B
102
{ACAD_REACTORS
330
267
102
}
330
267
100
AcDbVisualStyle
  2
GouraudWithEdges
 70
     3
 71
     2
 72
     2
 73
     1
 90
        2
 40
-0.6
 41
30.0
 62
     5
 63
     7
421
 16777215
 74
     1
 91
        4
 64
     7
 65
   257
 75
     1
175
     1
 42
1.0
 92
        0
 66
   257
 43
1.0
 76
     1
 77
     6
 78
     2
 67
     7
 79
     5
170
     0
171
     0
290
     0
174
     0
 93
       13
 44
0.0
173
     0
291
     1
 45
0.0
  0
VISUALSTYLE
  5
8FB
102
{ACAD_REACTORS
330
267
102
}
330
267
100
AcDbVisualStyle
  2
Hidden
 70
     6
 71
     1
 72
     2
 73
     2
 90
        0
 40
0.6
 41
30.0
 62
     5
 63
     7
421
 16777215
 74
     2
 91
        2
 64
     7
 65
   257
 75
     2
175
     1
 42
40.0
 92
        0
 66
   257
 43
1.0
 76
     1
 77
     6
 78
     2
 67
     7
 79
     3
170
     0
171
     0
290
     0
174
     0
 93
        1
 44
0.0
173
     0
291
     0
 45
0.0
  0
VISUALSTYLE
  5
8FC
102
{ACAD_REACTORS
330
267
102
}
330
267
100
AcDbVisualStyle
  2
JitterOff
 70
    20
 71
     2
 72
     2
 73
     0
 90
        0
 40
0.6
 41
30.0
 62
     5
 63
     7
421
 16777215
 74
     1
 91
        4
 64
     7
 65
   257
 75
     1
175
     1
 42
1.0
 92
       10
 66
     7
 43
1.0
 76
     1
 77
     6
 78
     2
 67
     7
 79
     5
170
     0
171
     0
290
     0
174
     0
 93
        1
 44
0.0
173
     0
291
     1
 45
0.0
  0
VISUALSTYLE
  5
275
102
{ACAD_REACTORS
330
267
102
}
330
267
100
AcDbVisualStyle
  2
Linepattern
 70
    14
 71
     2
 72
     2
 73
     0
 90
        0
 40
-0.6
 41
-30.0
 62
     5
 63
     7
421
 16777215
 74
     1
 91
        4
 64
     7
 65
   257
 75
     7
175
     7
 42
1.0
 92
        8
 66
     7
 43
1.0
 76
     1
 77
     6
 78
     2
 67
     7
 79
     5
170
     0
171
     0
290
     0
174
     0
 93
        1
 44
0.0
173
     0
291
     1
 45
0.0
  0
VISUALSTYLE
  5
8FD
102
{ACAD_REACTORS
330
267
102
}
330
267
100
AcDbVisualStyle
  2
OverhangOff
 70
    21
 71
     2
 72
     2
 73
     0
 90
        0
 40
0.6
 41
30.0
 62
     5
 63
     7
421
 16777215
 74
     1
 91
        4
 64
     7
 65
   257
 75
     1
175
     1
 42
1.0
 92
        9
 66
     7
 43
1.0
 76
     1
 77
     6
 78
     2
 67
     7
 79
     5
170
     0
171
     0
290
     0
174
     0
 93
        1
 44
0.0
173
     0
291
     1
 45
0.0
  0
VISUALSTYLE
  5
270
102
{ACAD_REACTORS
330
267
102
}
330
267
100
AcDbVisualStyle
  2
Realistic
 70
     8
 71
     2
 72
     2
 73
     0
 90
        0
 40
-0.6
 41
-30.0
 62
     5
 63
     7
421
 16777215
 74
     1
 91
        0
 64
     7
 65
   257
 75
     1
175
     1
 42
1.0
 92
        8
 66
     8
424
  7895160
 43
1.0
 76
     1
 77
     6
 78
     2
 67
     7
 79
     5
170
     0
171
     0
290
     0
174
     0
 93
       13
 44
0.0
173
     0
291
     0
 45
0.0
  0
VISUALSTYLE
  5
903
102
{ACAD_REACTORS
330
267
102
}
330
267
100
AcDbVisualStyle
  2
Shaded
 70
    27
 71
     2
 72
     2
 73
     1
 90
        2
 40
0.6
 41
30.0
 62
     5
 63
     7
421
 16777215
 74
     0
 91
        4
 64
     7
 65
   257
 75
     1
175
     1
 42
1.0
 92
        8
 66
   257
 43
1.0
 76
     1
 77
     6
 78
     2
 67
     8
425
  7895160
 79
     3
170
     0
171
     0
290
     0
174
     0
 93
        5
 44
0.0
173
     0
291
     0
 45
0.0
  0
VISUALSTYLE
  5
902
102
{ACAD_REACTORS
330
267
102
}
330
267
100
AcDbVisualStyle
  2
Shaded with edges
 70
    26
 71
     2
 72
     2
 73
     1
 90
        2
 40
0.6
 41
30.0
 62
     5
 63
     7
421
 16777215
 74
     1
 91
       10
 64
     7
 65
   257
 75
     2
175
     1
 42
1.0
 92
        8
 66
   257
 43
1.0
 76
     1
 77
     6
 78
     2
 67
     7
 79
     3
170
     0
171
     0
290
     0
174
     0
 93
        5
 44
0.0
173
     0
291
     0
 45
0.0
  0
VISUALSTYLE
  5
8FF
102
{ACAD_REACTORS
330
267
102
}
330
267
100
AcDbVisualStyle
  2
Shades of Gray
 70
    23
 71
     2
 72
     2
 73
     3
 90
        0
 40
0.6
 41
30.0
 62
     5
 63
     7
421
 16777215
 74
     2
 91
        2
 64
     7
 65
     7
 75
     1
175
     1
 42
40.0
 92
        8
 66
     7
 43
1.0
 76
     1
 77
     6
 78
     2
 67
     7
 79
     3
170
     0
171
     0
290
     0
174
     0
 93
        1
 44
0.0
173
     0
291
     0
 45
0.0
  0
VISUALSTYLE
  5
900
102
{ACAD_REACTORS
330
267
102
}
330
267
100
AcDbVisualStyle
  2
Sketchy
 70
    24
 71
     1
 72
     2
 73
     2
 90
        0
 40
0.6
 41
30.0
 62
     5
 63
     7
421
 16777215
 74
     2
 91
        2
 64
     7
 65
     7
 75
     1
175
     1
 42
40.0
 92
       11
 66
     7
 43
1.0
 76
     1
 77
     6
 78
     2
 67
     7
 79
     6
170
     0
171
     0
290
     0
174
     0
 93
        1
 44
0.0
173
     0
291
     0
 45
0.0
  0
VISUALSTYLE
  5
274
102
{ACAD_REACTORS
330
267
102
}
330
267
100
AcDbVisualStyle
  2
Thicken
 70
    13
 71
     2
 72
     2
 73
     0
 90
        0
 40
-0.6
 41
-30.0
 62
     5
 63
     7
421
 16777215
 74
     1
 91
        4
 64
     7
 65
   257
 75
     1
175
     1
 42
1.0
 92
       12
 66
     7
 43
1.0
 76
     1
 77
     6
 78
     2
 67
     7
 79
     5
170
     0
171
     0
290
     0
174
     0
 93
        1
 44
0.0
173
     0
291
     1
 45
0.0
  0
VISUALSTYLE
  5
8FA
102
{ACAD_REACTORS
330
267
102
}
330
267
100
AcDbVisualStyle
  2
Wireframe
 70
     5
 71
     0
 72
     2
 73
     0
 90
        0
 40
0.6
 41
30.0
 62
     5
 63
     7
421
 16777215
 74
     1
 91
        4
 64
     7
 65
   257
 75
     1
175
     1
 42
1.0
 92
        0
 66
   257
 43
1.0
 76
     1
 77
     6
 78
     2
 67
     7
 79
     3
170
     0
171
     0
290
     0
174
     0
 93
        1
 44
0.0
173
     0
291
     0
 45
0.0
  0
VISUALSTYLE
  5
901
102
{ACAD_REACTORS
330
267
102
}
330
267
100
AcDbVisualStyle
  2
X-Ray
 70
    25
 71
     2
 72
     2
 73
     1
 90
        1
 40
0.5
 41
30.0
 62
     5
 63
     7
421
 16777215
 74
     1
 91
        0
 64
     7
 65
   257
 75
     1
175
     1
 42
1.0
 92
        8
 66
     7
 43
1.0
 76
     1
 77
     6
 78
     2
 67
     7
 79
     3
170
     0
171
     0
290
     0
174
     0
 93
       13
 44
0.0
173
     0
291
     0
 45
0.0
  0
DICTIONARYVAR
  5
331
102
{ACAD_REACTORS
330
330
102
}
330
330
100
DictionaryVariables
280
     0
  1
1:1
  0
DICTIONARYVAR
  5
DB1
102
{ACAD_REACTORS
330
330
102
}
330
330
100
DictionaryVariables
280
     0
  1
Standard
  0
DICTIONARYVAR
  5
335
102
{ACAD_REACTORS
330
330
102
}
330
330
100
DictionaryVariables
280
     0
  1
Standard
  0
DICTIONARYVAR
  5
D52
102
{ACAD_REACTORS
330
330
102
}
330
330
100
DictionaryVariables
280
     0
  1
ByLayer
  0
DICTIONARYVAR
  5
896
102
{ACAD_REACTORS
330
330
102
}
330
330
100
DictionaryVariables
280
     0
  1
0
  0
DICTIONARYVAR
  5
ECE
102
{ACAD_REACTORS
330
E3E
102
}
330
E3E
100
DictionaryVariables
280
     0
  1
0.261799
  0
DICTIONARYVAR
  5
ECC
102
{ACAD_REACTORS
330
E3E
102
}
330
E3E
100
DictionaryVariables
280
     0
  1
0.400000
  0
DICTIONARYVAR
  5
ECD
102
{ACAD_REACTORS
330
E3E
102
}
330
E3E
100
DictionaryVariables
280
     0
  1
0.250000
  0
DICTIONARYVAR
  5
ECF
102
{ACAD_REACTORS
330
E3E
102
}
330
E3E
100
DictionaryVariables
280
     0
  1
1
  0
FIELD
  5
1467
102
{ACAD_REACTORS
330
4772
102
}
330
4772
100
AcDbField
  1
_text
  2
{%<\_FldIdx 0>%N}
 90
        1
360
146B
 97
        0
 91
       63
 92
        0
 94
       11
 95
        2
 96
        0
300

 93
        1
  6
ACFD_FIELDTEXT_CHECKSUM
 93
        2
 90
        2
140
4458.0
 94
        0
300

302

304
ACVALUE_END
  7
ACFD_FIELD_VALUE
 93
        6
 90
        4
  1
{20211005N}
 94
        0
300

302

304
ACVALUE_END
301
{20211005N}
 98
       11
  0
DICTIONARY
  5
479B
330
279
100
AcDbDictionary
280
     1
281
     1
  3
ACAD_ROUNDTRIP_2008_TABLESTYLE_CELLSTYLEMAP
360
479C
  0
FIELD
  5
146B
330
1467
100
AcDbField
  1
AcVar
  2
\AcVar Date \f "yyyyMMdd"
 90
        0
 97
        0
 91
       63
 92
        0
 94
        8
 95
       64
 96
        0
300
Variable not supported
 93
        1
  6
Variable
 93
        2
 90
        4
  1
Date
 94
        0
300

302

304
ACVALUE_END
  7
ACFD_FIELD_VALUE
 93
        6
 90
        8
 92
       16
310
E5070A000000050002002C002E000000
 94
        0
300
yyyyMMdd
302

304
ACVALUE_END
301
20211005
 98
        8
  0
CELLSTYLEMAP
  5
479C
102
{ACAD_REACTORS
330
479B
102
}
330
479B
100
AcDbCellStyleMap
 90
        3
300
CELLSTYLE
  1
TABLEFORMAT_BEGIN
 90
        5
170
     1
 91
        0
 92
    32768
 62
   257
 93
        1
300
CONTENTFORMAT
  1
CONTENTFORMAT_BEGIN
 90
        0
 91
        0
 92
        4
 93
        0
300

 40
0.0
140
1.0
 94
        5
 62
     0
340
17
144
6.0
309
CONTENTFORMAT_END
171
     1
301
MARGIN
  1
CELLMARGIN_BEGIN
 40
0.06
 40
0.06
 40
0.06
 40
0.06
 40
0.18
 40
0.18
309
CELLMARGIN_END
 94
        6
 95
        1
302
GRIDFORMAT
  1
GRIDFORMAT_BEGIN
 90
        0
 91
        1
 62
     0
 92
       -2
340
0
 93
        0
 40
0.045
309
GRIDFORMAT_END
 95
        2
302
GRIDFORMAT
  1
GRIDFORMAT_BEGIN
 90
        0
 91
        1
 62
     0
 92
       -2
340
0
 93
        0
 40
0.045
309
GRIDFORMAT_END
 95
        4
302
GRIDFORMAT
  1
GRIDFORMAT_BEGIN
 90
        0
 91
        1
 62
     0
 92
       -2
340
0
 93
        0
 40
0.045
309
GRIDFORMAT_END
 95
        8
302
GRIDFORMAT
  1
GRIDFORMAT_BEGIN
 90
        0
 91
        1
 62
     0
 92
       -2
340
0
 93
        0
 40
0.045
309
GRIDFORMAT_END
 95
       16
302
GRIDFORMAT
  1
GRIDFORMAT_BEGIN
 90
        0
 91
        1
 62
     0
 92
       -2
340
0
 93
        0
 40
0.045
309
GRIDFORMAT_END
 95
       32
302
GRIDFORMAT
  1
GRIDFORMAT_BEGIN
 90
        0
 91
        1
 62
     0
 92
       -2
340
0
 93
        0
 40
0.045
309
GRIDFORMAT_END
309
TABLEFORMAT_END
  1
CELLSTYLE_BEGIN
 90
        1
 91
        1
300
_TITLE
309
CELLSTYLE_END
300
CELLSTYLE
  1
TABLEFORMAT_BEGIN
 90
        5
170
     1
 91
        0
 92
        0
 62
   257
 93
        1
300
CONTENTFORMAT
  1
CONTENTFORMAT_BEGIN
 90
        0
 91
        0
 92
        4
 93
        0
300

 40
0.0
140
1.0
 94
        5
 62
     0
340
17
144
4.5
309
CONTENTFORMAT_END
171
     1
301
MARGIN
  1
CELLMARGIN_BEGIN
 40
0.06
 40
0.06
 40
0.06
 40
0.06
 40
0.18
 40
0.18
309
CELLMARGIN_END
 94
        6
 95
        1
302
GRIDFORMAT
  1
GRIDFORMAT_BEGIN
 90
        0
 91
        1
 62
     0
 92
       -2
340
0
 93
        0
 40
0.045
309
GRIDFORMAT_END
 95
        2
302
GRIDFORMAT
  1
GRIDFORMAT_BEGIN
 90
        0
 91
        1
 62
     0
 92
       -2
340
0
 93
        0
 40
0.045
309
GRIDFORMAT_END
 95
        4
302
GRIDFORMAT
  1
GRIDFORMAT_BEGIN
 90
        0
 91
        1
 62
     0
 92
       -2
340
0
 93
        0
 40
0.045
309
GRIDFORMAT_END
 95
        8
302
GRIDFORMAT
  1
GRIDFORMAT_BEGIN
 90
        0
 91
        1
 62
     0
 92
       -2
340
0
 93
        0
 40
0.045
309
GRIDFORMAT_END
 95
       16
302
GRIDFORMAT
  1
GRIDFORMAT_BEGIN
 90
        0
 91
        1
 62
     0
 92
       -2
340
0
 93
        0
 40
0.045
309
GRIDFORMAT_END
 95
       32
302
GRIDFORMAT
  1
GRIDFORMAT_BEGIN
 90
        0
 91
        1
 62
     0
 92
       -2
340
0
 93
        0
 40
0.045
309
GRIDFORMAT_END
309
TABLEFORMAT_END
  1
CELLSTYLE_BEGIN
 90
        2
 91
        1
300
_HEADER
309
CELLSTYLE_END
300
CELLSTYLE
  1
TABLEFORMAT_BEGIN
 90
        5
170
     1
 91
        0
 92
        0
 62
   257
 93
        1
300
CONTENTFORMAT
  1
CONTENTFORMAT_BEGIN
 90
        0
 91
        0
 92
        4
 93
        0
300

 40
0.0
140
1.0
 94
        2
 62
     0
340
17
144
4.5
309
CONTENTFORMAT_END
171
     1
301
MARGIN
  1
CELLMARGIN_BEGIN
 40
0.06
 40
0.06
 40
0.06
 40
0.06
 40
0.18
 40
0.18
309
CELLMARGIN_END
 94
        6
 95
        1
302
GRIDFORMAT
  1
GRIDFORMAT_BEGIN
 90
        0
 91
        1
 62
     0
 92
       -2
340
0
 93
        0
 40
0.045
309
GRIDFORMAT_END
 95
        2
302
GRIDFORMAT
  1
GRIDFORMAT_BEGIN
 90
        0
 91
        1
 62
     0
 92
       -2
340
0
 93
        0
 40
0.045
309
GRIDFORMAT_END
 95
        4
302
GRIDFORMAT
  1
GRIDFORMAT_BEGIN
 90
        0
 91
        1
 62
     0
 92
       -2
340
0
 93
        0
 40
0.045
309
GRIDFORMAT_END
 95
        8
302
GRIDFORMAT
  1
GRIDFORMAT_BEGIN
 90
        0
 91
        1
 62
     0
 92
       -2
340
0
 93
        0
 40
0.045
309
GRIDFORMAT_END
 95
       16
302
GRIDFORMAT
  1
GRIDFORMAT_BEGIN
 90
        0
 91
        1
 62
     0
 92
       -2
340
0
 93
        0
 40
0.045
309
GRIDFORMAT_END
 95
       32
302
GRIDFORMAT
  1
GRIDFORMAT_BEGIN
 90
        0
 91
        1
 62
     0
 92
       -2
340
0
 93
        0
 40
0.045
309
GRIDFORMAT_END
309
TABLEFORMAT_END
  1
CELLSTYLE_BEGIN
 90
        3
 91
        2
300
_DATA
309
CELLSTYLE_END
  0
ENDSEC
  0
EOF
