  0
SECTION
  2
HEADER
  9
$ACADVER
  1
AC1021
  9
$ACADMAINTVER
 70
    25
  9
$DWGCODEPAGE
  3
ANSI_932
  9
$LASTSAVEDBY
  1
howeNelson
  9
$INSBASE
 10
0.0
 20
0.0
 30
0.0
  9
$EXTMIN
 10
0.0
 20
0.0
 30
0.0
  9
$EXTMAX
 10
2100.0
 20
2970.0
 30
34.99521132346015
  9
$LIMMIN
 10
0.0
 20
0.0
  9
$LIMMAX
 10
2100.0
 20
2970.0
  9
$ORTHOMODE
 70
     0
  9
$REGENMODE
 70
     1
  9
$FILLMODE
 70
     1
  9
$QTEXTMODE
 70
     0
  9
$MIRRTEXT
 70
     1
  9
$LTSCALE
 40
5.0
  9
$ATTMODE
 70
     1
  9
$TEXTSIZE
 40
533.0403732820173
  9
$TRACEWID
 40
1.0
  9
$TEXTSTYLE
  7
Standard
  9
$CLAYER
  8
Dim
  9
$CELTYPE
  6
ByLayer
  9
$CECOLOR
 62
   256
  9
$CELTSCALE
 40
1.0
  9
$DISPSILH
 70
     0
  9
$DIMSCALE
 40
1.0
  9
$DIMASZ
 40
9.999389648437498
  9
$DIMEXO
 40
25.0
  9
$DIMDLI
 40
0.9999999999999999
  9
$DIMRND
 40
0.0
  9
$DIMDLE
 40
0.0
  9
$DIMEXE
 40
0.0
  9
$DIMTP
 40
0.0
  9
$DIMTM
 40
0.0
  9
$DIMTXT
 40
24.4326171875
  9
$DIMCEN
 40
0.0
  9
$DIMTSZ
 40
0.0
  9
$DIMTOL
 70
     0
  9
$DIMLIM
 70
     0
  9
$DIMTIH
 70
     0
  9
$DIMTOH
 70
     0
  9
$DIMSE1
 70
     0
  9
$DIMSE2
 70
     0
  9
$DIMTAD
 70
     1
  9
$DIMZIN
 70
    11
  9
$DIMBLK
  1
DOT
  9
$DIMASO
 70
     1
  9
$DIMSHO
 70
     1
  9
$DIMPOST
  1
<>
  9
$DIMAPOST
  1
[]
  9
$DIMALT
 70
     0
  9
$DIMALTD
 70
     1
  9
$DIMALTF
 40
1.0
  9
$DIMLFAC
 40
1.0
  9
$DIMTOFL
 70
     1
  9
$DIMTVP
 40
0.0
  9
$DIMTIX
 70
     1
  9
$DIMSOXD
 70
     0
  9
$DIMSAH
 70
     0
  9
$DIMBLK1
  1

  9
$DIMBLK2
  1

  9
$DIMSTYLE
  2
tform線あり
  9
$DIMCLRD
 70
     0
  9
$DIMCLRE
 70
     0
  9
$DIMCLRT
 70
     0
  9
$DIMTFAC
 40
0.8
  9
$DIMGAP
 40
10.0
  9
$DIMJUST
 70
     0
  9
$DIMSD1
 70
     0
  9
$DIMSD2
 70
     0
  9
$DIMTOLJ
 70
     1
  9
$DIMTZIN
 70
    11
  9
$DIMALTZ
 70
    11
  9
$DIMALTTZ
 70
    11
  9
$DIMUPT
 70
     0
  9
$DIMDEC
 70
     1
  9
$DIMTDEC
 70
     1
  9
$DIMALTU
 70
     2
  9
$DIMALTTD
 70
     2
  9
$DIMTXSTY
  7
ＭＳ ゴシック
  9
$DIMAUNIT
 70
     0
  9
$DIMADEC
 70
     2
  9
$DIMALTRND
 40
0.0
  9
$DIMAZIN
 70
     0
  9
$DIMDSEP
 70
    46
  9
$DIMATFIT
 70
     0
  9
$DIMFRAC
 70
     2
  9
$DIMLDRBLK
  1
DOT
  9
$DIMLUNIT
 70
     2
  9
$DIMLWD
 70
    -2
  9
$DIMLWE
 70
    -2
  9
$DIMTMOVE
 70
     0
  9
$DIMFXL
 40
1.0
  9
$DIMFXLON
 70
     0
  9
$DIMJOGANG
 40
0.7853981633974483
  9
$DIMTFILL
 70
     0
  9
$DIMTFILLCLR
 70
     0
  9
$DIMARCSYM
 70
     0
  9
$DIMLTYPE
  6

  9
$DIMLTEX1
  6

  9
$DIMLTEX2
  6

  9
$LUNITS
 70
     2
  9
$LUPREC
 70
     0
  9
$SKETCHINC
 40
0.1
  9
$FILLETRAD
 40
0.0
  9
$AUNITS
 70
     0
  9
$AUPREC
 70
     0
  9
$MENU
  1
acad
  9
$ELEVATION
 40
0.0
  9
$PELEVATION
 40
0.0
  9
$THICKNESS
 40
0.0
  9
$LIMCHECK
 70
     0
  9
$CHAMFERA
 40
0.0
  9
$CHAMFERB
 40
0.0
  9
$CHAMFERC
 40
0.0
  9
$CHAMFERD
 40
0.0
  9
$SKPOLY
 70
     0
  9
$TDCREATE
 40
2447893.375
  9
$TDUCREATE
 40
0.0
  9
$TDUPDATE
 40
2458578.694330752
  9
$TDUUPDATE
 40
2458578.319330752
  9
$TDINDWG
 40
0.0725458681
  9
$TDUSRTIMER
 40
0.00027125
  9
$USRTIMER
 70
     1
  9
$ANGBASE
 50
0.0
  9
$ANGDIR
 70
     0
  9
$PDMODE
 70
     1
  9
$PDSIZE
 40
-2.0
  9
$PLINEWID
 40
0.0
  9
$SPLFRAME
 70
     0
  9
$SPLINETYPE
 70
     6
  9
$SPLINESEGS
 70
     8
  9
$HANDSEED
  5
6B3C
  9
$SURFTAB1
 70
     6
  9
$SURFTAB2
 70
     6
  9
$SURFTYPE
 70
     6
  9
$SURFU
 70
     6
  9
$SURFV
 70
     6
  9
$UCSBASE
  2

  9
$UCSNAME
  2

  9
$UCSORG
 10
0.0
 20
0.0
 30
0.0
  9
$UCSXDIR
 10
1.0
 20
0.0
 30
0.0
  9
$UCSYDIR
 10
0.0
 20
1.0
 30
0.0
  9
$UCSORTHOREF
  2

  9
$UCSORTHOVIEW
 70
     0
  9
$UCSORGTOP
 10
0.0
 20
0.0
 30
0.0
  9
$UCSORGBOTTOM
 10
0.0
 20
0.0
 30
0.0
  9
$UCSORGLEFT
 10
0.0
 20
0.0
 30
0.0
  9
$UCSORGRIGHT
 10
0.0
 20
0.0
 30
0.0
  9
$UCSORGFRONT
 10
0.0
 20
0.0
 30
0.0
  9
$UCSORGBACK
 10
0.0
 20
0.0
 30
0.0
  9
$PUCSBASE
  2

  9
$PUCSNAME
  2

  9
$PUCSORG
 10
0.0
 20
0.0
 30
0.0
  9
$PUCSXDIR
 10
1.0
 20
0.0
 30
0.0
  9
$PUCSYDIR
 10
0.0
 20
1.0
 30
0.0
  9
$PUCSORTHOREF
  2

  9
$PUCSORTHOVIEW
 70
     0
  9
$PUCSORGTOP
 10
0.0
 20
0.0
 30
0.0
  9
$PUCSORGBOTTOM
 10
0.0
 20
0.0
 30
0.0
  9
$PUCSORGLEFT
 10
0.0
 20
0.0
 30
0.0
  9
$PUCSORGRIGHT
 10
0.0
 20
0.0
 30
0.0
  9
$PUCSORGFRONT
 10
0.0
 20
0.0
 30
0.0
  9
$PUCSORGBACK
 10
0.0
 20
0.0
 30
0.0
  9
$USERI1
 70
     0
  9
$USERI2
 70
     0
  9
$USERI3
 70
     0
  9
$USERI4
 70
     0
  9
$USERI5
 70
     0
  9
$USERR1
 40
0.0
  9
$USERR2
 40
0.0
  9
$USERR3
 40
0.0
  9
$USERR4
 40
0.0
  9
$USERR5
 40
0.0
  9
$WORLDVIEW
 70
     1
  9
$SHADEDGE
 70
     3
  9
$SHADEDIF
 70
    70
  9
$TILEMODE
 70
     1
  9
$MAXACTVP
 70
    64
  9
$PINSBASE
 10
0.0
 20
0.0
 30
0.0
  9
$PLIMCHECK
 70
     0
  9
$PEXTMIN
 10
0.0
 20
0.0
 30
0.0
  9
$PEXTMAX
 10
0.0
 20
0.0
 30
0.0
  9
$PLIMMIN
 10
-7.5
 20
-20.0
  9
$PLIMMAX
 10
412.5
 20
277.0
  9
$UNITMODE
 70
     0
  9
$VISRETAIN
 70
     0
  9
$PLINEGEN
 70
     1
  9
$PSLTSCALE
 70
     0
  9
$TREEDEPTH
 70
  3020
  9
$CMLSTYLE
  2
Standard
  9
$CMLJUST
 70
     0
  9
$CMLSCALE
 40
1.0
  9
$PROXYGRAPHICS
 70
     0
  9
$MEASUREMENT
 70
     1
  9
$CELWEIGHT
370
    -1
  9
$ENDCAPS
280
     0
  9
$JOINSTYLE
280
     0
  9
$LWDISPLAY
290
     1
  9
$INSUNITS
 70
     4
  9
$HYPERLINKBASE
  1

  9
$STYLESHEET
  1

  9
$XEDIT
290
     1
  9
$CEPSNTYPE
380
     0
  9
$PSTYLEMODE
290
     1
  9
$FINGERPRINTGUID
  2

  9
$VERSIONGUID
  2

  9
$EXTNAMES
290
     1
  9
$PSVPSCALE
 40
0.0
  9
$OLESTARTUP
290
     0
  9
$SORTENTS
280
   127
  9
$INDEXCTL
280
     0
  9
$HIDETEXT
280
     1
  9
$XCLIPFRAME
290
     0
  9
$HALOGAP
280
     0
  9
$OBSCOLOR
 70
   257
  9
$OBSLTYPE
280
     0
  9
$INTERSECTIONDISPLAY
280
     0
  9
$INTERSECTIONCOLOR
 70
   257
  9
$DIMASSOC
280
     2
  9
$PROJECTNAME
  1

  9
$CAMERADISPLAY
290
     0
  9
$LENSLENGTH
 40
50.0
  9
$CAMERAHEIGHT
 40
0.0
  9
$STEPSPERSEC
 40
2.0
  9
$STEPSIZE
 40
6.0
  9
$3DDWFPREC
 40
2.0
  9
$PSOLWIDTH
 40
0.25
  9
$PSOLHEIGHT
 40
4.0
  9
$LOFTANG1
 40
1.570796326794897
  9
$LOFTANG2
 40
1.570796326794897
  9
$LOFTMAG1
 40
0.0
  9
$LOFTMAG2
 40
0.0
  9
$LOFTPARAM
 70
     7
  9
$LOFTNORMALS
280
     1
  9
$LATITUDE
 40
37.795
  9
$LONGITUDE
 40
-122.394
  9
$NORTHDIRECTION
 40
0.0
  9
$TIMEZONE
 70
 -8000
  9
$LIGHTGLYPHDISPLAY
280
     1
  9
$TILEMODELIGHTSYNCH
280
     1
  9
$SOLIDHIST
280
     1
  9
$SHOWHIST
280
     1
  9
$DWFFRAME
280
     2
  9
$DGNFRAME
280
     2
  9
$REALWORLDSCALE
290
     1
  9
$INTERFERECOLOR
 62
   256
  9
$CSHADOW
280
     0
  9
$SHADOWPLANELOCATION
 40
0.0
  0
ENDSEC
  0
SECTION
  2
CLASSES
  0
CLASS
  1
LWPOLYLINE
  2
AcDbPolyline
  3
ObjectDBX Classes
 90
        0
 91
        1
280
     0
281
     1
  0
CLASS
  1
IMAGE
  2
AcDbRasterImage
  3
ISM
 90
      127
 91
        5
280
     0
281
     1
  0
CLASS
  1
OLE2FRAME
  2
AcDbOle2Frame
  3
ObjectDBX Classes
 90
        0
 91
        1
280
     0
281
     1
  0
CLASS
  1
HATCH
  2
AcDbHatch
  3
ObjectDBX Classes
 90
        0
 91
        1
280
     0
281
     1
  0
CLASS
  1
DICTIONARYVAR
  2
AcDbDictionaryVar
  3
ObjectDBX Classes
 90
        0
 91
        4
280
     0
281
     0
  0
CLASS
  1
RASTERVARIABLES
  2
AcDbRasterVariables
  3
ISM
 90
        0
 91
        4
280
     0
281
     0
  0
CLASS
  1
IMAGEDEF
  2
AcDbRasterImageDef
  3
ISM
 90
        0
 91
        4
280
     0
281
     0
  0
CLASS
  1
IMAGEDEF_REACTOR
  2
AcDbRasterImageDefReactor
  3
ISM
 90
        1
 91
        4
280
     0
281
     0
  0
CLASS
  1
IDBUFFER
  2
AcDbIdBuffer
  3
ObjectDBX Classes
 90
        0
 91
        4
280
     0
281
     0
  0
CLASS
  1
SPATIAL_FILTER
  2
AcDbSpatialFilter
  3
ObjectDBX Classes
 90
        0
 91
        4
280
     0
281
     0
  0
CLASS
  1
XRECORD
  2
AcDbXrecord
  3
ObjectDBX Classes
 90
        0
 91
        1
280
     0
281
     0
  0
CLASS
  1
SORTENTSTABLE
  2
AcDbSortentsTable
  3
ObjectDBX Classes
 90
        0
 91
        4
280
     0
281
     0
  0
CLASS
  1
LAYER_INDEX
  2
AcDbLayerIndex
  3
ObjectDBX Classes
 90
        0
 91
        4
280
     0
281
     0
  0
CLASS
  1
SPATIAL_INDEX
  2
AcDbSpatialIndex
  3
AutoCAD 2000
 90
        0
 91
        4
280
     0
281
     0
  0
CLASS
  1
OBJECT_PTR
  2
CAseDLPNTableRecord
  3
ASE-LPNTableRecord
 90
        1
 91
        4
280
     0
281
     0
  0
CLASS
  1
LAYOUT
  2
AcDbLayout
  3
ObjectDBX Classes
 90
        0
 91
        1
280
     0
281
     0
  0
CLASS
  1
PLOTSETTINGS
  2
AcDbPlotSettings
  3
ObjectDBX Classes
 90
        0
 91
        4
280
     0
281
     0
  0
CLASS
  1
ACDBDICTIONARYWDFLT
  2
AcDbDictionaryWithDefault
  3
ObjectDBX Classes
 90
        0
 91
        4
280
     0
281
     0
  0
CLASS
  1
ACDBPLACEHOLDER
  2
AcDbPlaceHolder
  3
ObjectDBX Classes
 90
        0
 91
        1
280
     0
281
     0
  0
CLASS
  1
SCALE
  2
AcDbScale
  3
ObjectDBX Classes
 90
     1153
 91
        4
280
     0
281
     0
  0
CLASS
  1
MATERIAL
  2
AcDbMaterial
  3
ObjectDBX Classes
 90
     1153
 91
        4
280
     0
281
     0
  0
CLASS
  1
VISUALSTYLE
  2
AcDbVisualStyle
  3
ObjectDBX Classes
 90
     4095
 91
        4
280
     0
281
     0
  0
CLASS
  1
TABLESTYLE
  2
AcDbTableStyle
  3
ObjectDBX Classes
 90
     4095
 91
        4
280
     0
281
     0
  0
CLASS
  1
DIMASSOC
  2
AcDbDimAssoc
  3
"AcDbDimAssoc|Product Desc:     AcDim ARX App For Dimension|Company:          Autodesk, Inc.|WEB Address:      www.autodesk.com"
 90
        0
 91
        4
280
     0
281
     0
  0
CLASS
  1
CELLSTYLEMAP
  2
AcDbCellStyleMap
  3
ObjectDBX Classes
 90
     1152
 91
        4
280
     0
281
     0
  0
CLASS
  1
SUN
  2
AcDbSun
  3
SCENEOE
 90
     1153
 91
        4
280
     0
281
     0
  0
CLASS
  1
MLEADERSTYLE
  2
AcDbMLeaderStyle
  3
ACDB_MLEADERSTYLE_CLASS
 90
     4095
 91
        4
280
     0
281
     0
  0
CLASS
  1
FIELD
  2
AcDbField
  3
ObjectDBX Classes
 90
     1152
 91
        4
280
     0
281
     0
  0
CLASS
  1
FIELDLIST
  2
AcDbFieldList
  3
ObjectDBX Classes
 90
     1152
 91
        4
280
     0
281
     0
  0
CLASS
  1
ACDB_ALDIMOBJECTCONTEXTDATA_CLASS
  2
AcDbAlignedDimensionObjectContextData
  3
ObjectDBX Classes
 90
     1153
 91
        4
280
     0
281
     0
  0
ENDSEC
  0
SECTION
  2
TABLES
  0
TABLE
  2
VPORT
  5
7
330
0
100
AcDbSymbolTable
 70
     1
  0
VPORT
  5
15
330
7
100
AcDbSymbolTableRecord
100
AcDbViewportTableRecord
  2
*ACTIVE
 70
     0
 10
0.0
 20
0.0
 11
1.0
 21
1.0
 12
672.9525617540367
 22
1782.612370234523
 13
0.0
 23
0.0
 14
1.0
 24
1.0
 15
0.0
 25
0.0
 16
0.0
 26
0.0
 36
1.0
 17
377.0474382459633
 27
-297.6123702345235
 37
0.0
 40
3029.4
 41
2.341176470588235
 42
50.0
 43
0.0
 44
0.0
 50
0.0
 51
0.0
 71
    16
 72
  2000
 73
     1
 74
     1
 75
     0
 76
     0
 77
     0
 78
     0
281
     0
 65
     1
110
0.0
120
0.0
130
0.0
111
1.0
121
0.0
131
0.0
112
0.0
122
1.0
132
0.0
 79
     0
146
0.0
348
26C
 60
     3
 61
     5
292
     1
282
     1
141
0.0
142
0.0
 63
   256
361
8C2
  0
ENDTAB
  0
TABLE
  2
LTYPE
  5
4
330
0
100
AcDbSymbolTable
 70
     3
  0
LTYPE
  5
11
330
4
100
AcDbSymbolTableRecord
100
AcDbLinetypeTableRecord
  2
ByBlock
 70
     0
  3

 72
    65
 73
     0
 40
0.0
  0
LTYPE
  5
12
330
4
100
AcDbSymbolTableRecord
100
AcDbLinetypeTableRecord
  2
ByLayer
 70
     0
  3

 72
    65
 73
     0
 40
0.0
  0
LTYPE
  5
13
330
4
100
AcDbSymbolTableRecord
100
AcDbLinetypeTableRecord
  2
Continuous
 70
     0
  3
Solid line
 72
    65
 73
     0
 40
0.0
  0
LTYPE
  5
8D4
330
4
100
AcDbSymbolTableRecord
100
AcDbLinetypeTableRecord
  2
HIDDEN
 70
     0
  3
Hidden _ _ _ _ _ _ _ _ _ _ _ _ _ _ _ _ _ _ _ _ 
 72
    65
 73
     2
 40
9.524999999999999
 49
6.35
 74
     0
 49
-3.175
 74
     0
  0
LTYPE
  5
BF2
330
4
100
AcDbSymbolTableRecord
100
AcDbLinetypeTableRecord
  2
BORDER
 70
     0
  3
Border __  __  . __  __  . __  __  . __  __  . 
 72
    65
 73
     6
 40
44.45
 49
12.7
 74
     0
 49
-6.35
 74
     0
 49
12.7
 74
     0
 49
-6.35
 74
     0
 49
0.0
 74
     0
 49
-6.35
 74
     0
  0
ENDTAB
  0
TABLE
  2
LAYER
  5
2
102
{ACAD_XDICTIONARY
360
2E1
102
}
330
0
100
AcDbSymbolTable
 70
     9
  0
LAYER
  5
14
330
2
100
AcDbSymbolTableRecord
100
AcDbLayerTableRecord
  2
0
 70
     0
 62
     7
  6
Continuous
370
    -3
390
1D
347
266
  0
LAYER
  5
4A
330
2
100
AcDbSymbolTableRecord
100
AcDbLayerTableRecord
  2
Defpoints
 70
     0
 62
     7
  6
Continuous
290
     0
370
    20
390
1D
347
266
  0
LAYER
  5
4B
330
2
100
AcDbSymbolTableRecord
100
AcDbLayerTableRecord
  2
template
 70
     0
 62
     7
  6
Continuous
370
    20
390
1D
347
266
  0
LAYER
  5
4D
330
2
100
AcDbSymbolTableRecord
100
AcDbLayerTableRecord
  2
MODEL
 70
     0
 62
     7
  6
Continuous
370
    20
390
1D
347
266
  0
LAYER
  5
382
330
2
100
AcDbSymbolTableRecord
100
AcDbLayerTableRecord
  2
レイヤー 1
 70
     0
 62
     7
  6
Continuous
370
    -3
390
1D
347
266
  0
LAYER
  5
5C4
330
2
100
AcDbSymbolTableRecord
100
AcDbLayerTableRecord
  2
HIDDEN
 70
     0
 62
   253
  6
HIDDEN
370
    20
390
1D
347
266
1001
AcAecLayerStandard
1000

1000

  0
LAYER
  5
5EB
330
2
100
AcDbSymbolTableRecord
100
AcDbLayerTableRecord
  2
Dim
 70
     0
 62
     3
  6
Continuous
370
    13
390
1D
347
266
1001
AcAecLayerStandard
1000

1000

  0
LAYER
  5
BF1
330
2
100
AcDbSymbolTableRecord
100
AcDbLayerTableRecord
  2
PRINT BORDER
 70
     0
 62
     4
  6
BORDER
290
     0
370
    20
390
1D
347
266
1001
AcAecLayerStandard
1000

1000

  0
LAYER
  5
1BD2
330
2
100
AcDbSymbolTableRecord
100
AcDbLayerTableRecord
  2
retino
 70
     0
 62
   253
  6
Continuous
370
     0
390
1D
347
266
  0
ENDTAB
  0
TABLE
  2
STYLE
  5
3
330
0
100
AcDbSymbolTable
 70
     2
  0
STYLE
  5
17
330
3
100
AcDbSymbolTableRecord
100
AcDbTextStyleTableRecord
  2
Standard
 70
     0
 40
0.0
 41
1.0
 50
0.0
 71
     0
 42
533.0403732820173
  3
txt
  4
BIGFONT.SHX
  0
STYLE
  5
39
330
3
100
AcDbSymbolTableRecord
100
AcDbTextStyleTableRecord
  2
ＭＳ ゴシック
 70
     0
 40
0.0
 41
1.0
 50
0.0
 71
     0
 42
533.0403732820173
  3
msgothic.ttc
  4
ＭＳ ゴシック
1001
ACAD
1000
ＭＳ ゴシック
1071
        0
  0
ENDTAB
  0
TABLE
  2
VIEW
  5
5
330
0
100
AcDbSymbolTable
 70
     0
  0
ENDTAB
  0
TABLE
  2
UCS
  5
6
330
0
100
AcDbSymbolTable
 70
     0
  0
ENDTAB
  0
TABLE
  2
APPID
  5
8
330
0
100
AcDbSymbolTable
 70
    16
  0
APPID
  5
16
330
8
100
AcDbSymbolTableRecord
100
AcDbRegAppTableRecord
  2
ACAD
 70
     0
  0
APPID
  5
5C5
330
8
100
AcDbSymbolTableRecord
100
AcDbRegAppTableRecord
  2
AcAecLayerStandard
 70
     0
  0
APPID
  5
913
330
8
100
AcDbSymbolTableRecord
100
AcDbRegAppTableRecord
  2
ACAD_DSTYLE_DIMBREAK
 70
     0
  0
APPID
  5
914
330
8
100
AcDbSymbolTableRecord
100
AcDbRegAppTableRecord
  2
ACAD_DSTYLE_DIMJAG
 70
     0
  0
APPID
  5
915
330
8
100
AcDbSymbolTableRecord
100
AcDbRegAppTableRecord
  2
ACAD_DSTYLE_DIMTALN
 70
     0
  0
APPID
  5
E4F
330
8
100
AcDbSymbolTableRecord
100
AcDbRegAppTableRecord
  2
ACAD_MLEADERVER
 70
     0
  0
APPID
  5
E79
330
8
100
AcDbSymbolTableRecord
100
AcDbRegAppTableRecord
  2
ACAD_PSEXT
 70
     0
  0
APPID
  5
E7A
330
8
100
AcDbSymbolTableRecord
100
AcDbRegAppTableRecord
  2
ACAD_NAV_VCDISPLAY
 70
     0
  0
APPID
  5
166E
330
8
100
AcDbSymbolTableRecord
100
AcDbRegAppTableRecord
  2
AcadAnnotative
 70
     0
  0
APPID
  5
166F
330
8
100
AcDbSymbolTableRecord
100
AcDbRegAppTableRecord
  2
GradientColor1ACI
 70
     0
  0
APPID
  5
1670
330
8
100
AcDbSymbolTableRecord
100
AcDbRegAppTableRecord
  2
GradientColor2ACI
 70
     0
  0
APPID
  5
20FE
330
8
100
AcDbSymbolTableRecord
100
AcDbRegAppTableRecord
  2
AcLayerTools
 70
     0
  0
APPID
  5
27AB
330
8
100
AcDbSymbolTableRecord
100
AcDbRegAppTableRecord
  2
ACAD_DSTYLE_DIMRADIAL_EXTENSION
 70
     0
  0
APPID
  5
4377
330
8
100
AcDbSymbolTableRecord
100
AcDbRegAppTableRecord
  2
RAK
 70
     0
  0
APPID
  5
500B
330
8
100
AcDbSymbolTableRecord
100
AcDbRegAppTableRecord
  2
AcadAnnoAV
 70
     0
  0
APPID
  5
5833
330
8
100
AcDbSymbolTableRecord
100
AcDbRegAppTableRecord
  2
AcCmTransparency
 70
     0
  0
ENDTAB
  0
TABLE
  2
DIMSTYLE
  5
9
330
0
100
AcDbSymbolTable
 70
     2
100
AcDbDimStyleTable
  0
DIMSTYLE
105
18
102
{ACAD_REACTORS
102
}
330
9
100
AcDbSymbolTableRecord
100
AcDbDimStyleTableRecord
  2
Standard
 70
     0
178
     0
340
17
  0
DIMSTYLE
105
56
102
{ACAD_REACTORS
330
68A2
330
68A8
330
68AA
330
68AB
330
6A3F
330
6A42
330
6A4D
330
6A50
330
6A53
330
6A93
330
6A94
330
6A95
330
6A96
330
6A99
330
6ADC
330
6ADD
330
6B26
102
}
330
9
100
AcDbSymbolTableRecord
100
AcDbDimStyleTableRecord
  2
tform線あり
 70
     0
  3
<>
  4
[]
 41
9.999389648437498
 42
25.0
 43
0.9999999999999999
 44
0.0
 73
     0
 74
     0
 77
     1
 78
    11
140
24.4326171875
141
0.0
143
1.0
146
0.8
147
10.0
171
     1
172
     1
174
     1
178
     0
179
     2
271
     1
272
     1
276
     2
284
    11
285
    11
286
    11
289
     0
340
39
341
4E
342
4E
  0
ENDTAB
  0
TABLE
  2
BLOCK_RECORD
  5
1
330
0
100
AcDbSymbolTable
 70
    27
  0
BLOCK_RECORD
  5
A
102
{ACAD_XDICTIONARY
360
560A
102
}
330
1
100
AcDbSymbolTableRecord
100
AcDbBlockTableRecord
  2
*MODEL_SPACE
340
20
 70
     0
280
     1
281
     0
  0
BLOCK_RECORD
  5
B
330
1
100
AcDbSymbolTableRecord
100
AcDbBlockTableRecord
  2
*PAPER_SPACE
340
21
 70
     0
280
     1
281
     0
  0
BLOCK_RECORD
  5
4E
330
1
100
AcDbSymbolTableRecord
100
AcDbBlockTableRecord
  2
_DOT
340
0
102
{BLKREFS
331
6941
331
6942
331
698F
331
6990
331
69A9
331
69AA
331
69B6
331
69B7
331
6A5D
331
6A5E
331
6A69
331
6A6A
331
6A75
331
6A76
331
6A81
331
6A82
331
6A8D
331
6A8E
331
6AA0
331
6AA1
331
6AAC
331
6AAD
331
6AB8
331
6AB9
331
6AC4
331
6AC5
331
6AD0
331
6AD1
331
6AE4
331
6AE5
331
6AF0
331
6AF1
331
6B2D
331
6B2E
102
}
 70
     0
280
     1
281
     0
  0
BLOCK_RECORD
  5
3A5
330
1
100
AcDbSymbolTableRecord
100
AcDbBlockTableRecord
  2
名称未設定-1
340
0
102
{BLKREFS
331
3D0
102
}
 70
     1
280
     1
281
     0
  0
BLOCK_RECORD
  5
3A8
330
1
100
AcDbSymbolTableRecord
100
AcDbBlockTableRecord
  2
block 2
340
0
102
{BLKREFS
331
3A7
102
}
 70
     0
280
     1
281
     0
  0
BLOCK_RECORD
  5
3AB
330
1
100
AcDbSymbolTableRecord
100
AcDbBlockTableRecord
  2
block 3
340
0
102
{BLKREFS
331
3AA
102
}
 70
     0
280
     1
281
     0
  0
BLOCK_RECORD
  5
3AE
330
1
100
AcDbSymbolTableRecord
100
AcDbBlockTableRecord
  2
block 4
340
0
102
{BLKREFS
331
3AD
102
}
 70
     0
280
     1
281
     0
  0
BLOCK_RECORD
  5
3BD
330
1
100
AcDbSymbolTableRecord
100
AcDbBlockTableRecord
  2
block 5
340
0
102
{BLKREFS
331
3BC
102
}
 70
     0
280
     1
281
     0
  0
BLOCK_RECORD
  5
11F0
330
1
100
AcDbSymbolTableRecord
100
AcDbBlockTableRecord
  2
BLOCK_2
340
0
102
{BLKREFS
331
1273
331
127B
331
127C
102
}
 70
     0
280
     1
281
     0
  0
BLOCK_RECORD
  5
38B6
330
1
100
AcDbSymbolTableRecord
100
AcDbBlockTableRecord
  2
mobile_latù
340
0
310
2800000020000000200000000100080000000000000400000000000000000000000000000000000000000000000080000080000000808000800000008000800080800000C0C0C000C0DCC000F0CAA6000020400000206000002080000020A0000020C0000020E00000400000004020000040400000406000004080000040A0
310
000040C0000040E00000600000006020000060400000606000006080000060A0000060C0000060E00000800000008020000080400000806000008080000080A0000080C0000080E00000A0000000A0200000A0400000A0600000A0800000A0A00000A0C00000A0E00000C0000000C0200000C0400000C0600000C0800000C0
310
A00000C0C00000C0E00000E0000000E0200000E0400000E0600000E0800000E0A00000E0C00000E0E00040000000400020004000400040006000400080004000A0004000C0004000E00040200000402020004020400040206000402080004020A0004020C0004020E000404000004040200040404000404060004040800040
310
40A0004040C0004040E00040600000406020004060400040606000406080004060A0004060C0004060E00040800000408020004080400040806000408080004080A0004080C0004080E00040A0000040A0200040A0400040A0600040A0800040A0A00040A0C00040A0E00040C0000040C0200040C0400040C0600040C08000
310
40C0A00040C0C00040C0E00040E0000040E0200040E0400040E0600040E0800040E0A00040E0C00040E0E00080000000800020008000400080006000800080008000A0008000C0008000E00080200000802020008020400080206000802080008020A0008020C0008020E00080400000804020008040400080406000804080
310
008040A0008040C0008040E00080600000806020008060400080606000806080008060A0008060C0008060E00080800000808020008080400080806000808080008080A0008080C0008080E00080A0000080A0200080A0400080A0600080A0800080A0A00080A0C00080A0E00080C0000080C0200080C0400080C0600080C0
310
800080C0A00080C0C00080C0E00080E0000080E0200080E0400080E0600080E0800080E0A00080E0C00080E0E000C0000000C0002000C0004000C0006000C0008000C000A000C000C000C000E000C0200000C0202000C0204000C0206000C0208000C020A000C020C000C020E000C0400000C0402000C0404000C0406000C0
310
408000C040A000C040C000C040E000C0600000C0602000C0604000C0606000C0608000C060A000C060C000C060E000C0800000C0802000C0804000C0806000C0808000C080A000C080C000C080E000C0A00000C0A02000C0A04000C0A06000C0A08000C0A0A000C0A0C000C0A0E000C0C00000C0C02000C0C04000C0C06000
310
C0C08000C0C0A000F0FBFF00A4A0A000808080000000FF0000FF000000FFFF00FF000000FF00FF00FFFF0000FFFFFF0049494949494949494949494949494949494949494949494949494949494949494949494949494949494949494949494949494949494949494949494949494949494949494949494949494949494949
310
49494949494949494949494949494949494949494949494949494949494949494949494949494949494949494949494949494949494949494949494949494949494949494949494949494949494949494949FAFAFAFAFAFAFAFAFAFAFAFAFAFAFAFAFAFAFAFAFAFAFAFAFAFAFAFAFAFA4949FAFA4949494949494949494949
310
494949494949494949494949494949FAFA4949FAFA4949494949494949494949494949494949494949494949494949FAFA4949FAFA4949494949494949494949494949494949494949494949494949FAFA4949FAFA4949494949494949494949494949494949494949494949494949FAFA4949FAFA49494949494949494949
310
49494949494949494949494949494949FAFA4949FAFA4949494949494949494949494949494949494949494949494949FAFA4949FAFA4949494949494949494949494949494949494949494949494949FAFA4949FAFA4949494949494949494949494949494949494949494949494949FAFA4949FAFA494949494949494949
310
4949494949494949494949494949494949FAFA4949FAFA4949494949494949494949494949494949494949494949494949FAFA4949FAFA4949494949494949494949494949494949494949494949494949FAFA4949FAFA4949494949494949494949494949494949494949494949494949FAFA4949FAFA4949494949494949
310
494949494949494949494949494949494949FAFA4949FAFA4949494949494949494949494949494949494949494949494949FAFA4949FAFA4949494949494949494949494949494949494949494949494949FAFA4949FAFA4949494949494949494949494949494949494949494949494949FAFA4949FAFA49494949494949
310
49494949494949494949494949494949494949FAFA4949FAFAFAFAFAFAFAFAFAFAFAFAFAFAFAFAFAFAFAFAFAFAFAFAFAFAFAFAFAFA4949FAFAFAFAFAFAFAFAFAFAFAFAFAFAFAFAFAFAFAFAFAFAFAFAFAFAFAFAFAFA4949FAFA4949494949494949494949494949494949494949494949494949FAFA4949FAFAFAFAFAFAFAFA
310
FAFAFAFAFAFAFAFAFAFAFAFAFAFAFAFAFAFAFAFAFAFA494949494949494949494949494949494949494949494949494949494949494949494949494949494949494949494949494949494949494949494949494949494949494949494949494949494949494949494949494949494949494949494949494949494949494949
310
4949494949494949494949494949494949494949494949494949494949494949494949494949494949494949494949494949494949494949
102
{BLKREFS
331
3B99
331
467E
331
527B
102
}
 70
     4
280
     1
281
     0
  0
BLOCK_RECORD
  5
5039
330
1
100
AcDbSymbolTableRecord
100
AcDbBlockTableRecord
  2
.TD_SECTION_1
340
0
102
{BLKREFS
331
527C
331
527E
331
5280
331
5282
331
5284
331
5286
102
}
 70
     0
280
     1
281
     0
  0
BLOCK_RECORD
  5
503D
330
1
100
AcDbSymbolTableRecord
100
AcDbBlockTableRecord
  2
.TD_SECTION_2
340
0
102
{BLKREFS
331
527D
331
527F
331
5281
331
5283
331
5285
331
5287
102
}
 70
     0
280
     1
281
     0
  0
BLOCK_RECORD
  5
693B
330
1
100
AcDbSymbolTableRecord
100
AcDbBlockTableRecord
  2
*D10
340
0
 70
     0
280
     1
281
     0
  0
BLOCK_RECORD
  5
6989
330
1
100
AcDbSymbolTableRecord
100
AcDbBlockTableRecord
  2
*D11
340
0
 70
     0
280
     1
281
     0
  0
BLOCK_RECORD
  5
69A3
330
1
100
AcDbSymbolTableRecord
100
AcDbBlockTableRecord
  2
*D12
340
0
 70
     0
280
     1
281
     0
  0
BLOCK_RECORD
  5
69B0
330
1
100
AcDbSymbolTableRecord
100
AcDbBlockTableRecord
  2
*D13
340
0
 70
     0
280
     1
281
     0
  0
BLOCK_RECORD
  5
6A57
330
1
100
AcDbSymbolTableRecord
100
AcDbBlockTableRecord
  2
*D14
340
0
 70
     0
280
     1
281
     0
  0
BLOCK_RECORD
  5
6A63
330
1
100
AcDbSymbolTableRecord
100
AcDbBlockTableRecord
  2
*D15
340
0
 70
     0
280
     1
281
     0
  0
BLOCK_RECORD
  5
6A6F
330
1
100
AcDbSymbolTableRecord
100
AcDbBlockTableRecord
  2
*D16
340
0
 70
     0
280
     1
281
     0
  0
BLOCK_RECORD
  5
6A7B
330
1
100
AcDbSymbolTableRecord
100
AcDbBlockTableRecord
  2
*D17
340
0
 70
     0
280
     1
281
     0
  0
BLOCK_RECORD
  5
6A87
330
1
100
AcDbSymbolTableRecord
100
AcDbBlockTableRecord
  2
*D18
340
0
 70
     0
280
     1
281
     0
  0
BLOCK_RECORD
  5
6A9A
330
1
100
AcDbSymbolTableRecord
100
AcDbBlockTableRecord
  2
*D19
340
0
 70
     0
280
     1
281
     0
  0
BLOCK_RECORD
  5
6AA6
330
1
100
AcDbSymbolTableRecord
100
AcDbBlockTableRecord
  2
*D20
340
0
 70
     0
280
     1
281
     0
  0
BLOCK_RECORD
  5
6AB2
330
1
100
AcDbSymbolTableRecord
100
AcDbBlockTableRecord
  2
*D21
340
0
 70
     0
280
     1
281
     0
  0
BLOCK_RECORD
  5
6ABE
330
1
100
AcDbSymbolTableRecord
100
AcDbBlockTableRecord
  2
*D22
340
0
 70
     0
280
     1
281
     0
  0
BLOCK_RECORD
  5
6ACA
330
1
100
AcDbSymbolTableRecord
100
AcDbBlockTableRecord
  2
*D23
340
0
 70
     0
280
     1
281
     0
  0
BLOCK_RECORD
  5
6ADE
330
1
100
AcDbSymbolTableRecord
100
AcDbBlockTableRecord
  2
*D24
340
0
 70
     0
280
     1
281
     0
  0
BLOCK_RECORD
  5
6AEA
330
1
100
AcDbSymbolTableRecord
100
AcDbBlockTableRecord
  2
*D25
340
0
 70
     0
280
     1
281
     0
  0
BLOCK_RECORD
  5
6B27
330
1
100
AcDbSymbolTableRecord
100
AcDbBlockTableRecord
  2
*D26
340
0
 70
     0
280
     1
281
     0
  0
ENDTAB
  0
ENDSEC
  0
SECTION
  2
BLOCKS
  0
BLOCK
  5
D
330
A
100
AcDbEntity
  8
0
390
1D
100
AcDbBlockBegin
  2
*MODEL_SPACE
 70
     0
 10
0.0
 20
0.0
 30
0.0
  3
*MODEL_SPACE
  1
*MODEL_SPACE
  0
ENDBLK
  5
E
330
A
100
AcDbEntity
  8
0
390
1D
100
AcDbBlockEnd
  0
BLOCK
  5
F
330
B
100
AcDbEntity
 67
     1
  8
0
390
1D
100
AcDbBlockBegin
  2
*PAPER_SPACE
 70
     0
 10
0.0
 20
0.0
 30
0.0
  3
*PAPER_SPACE
  1
*PAPER_SPACE
  0
ENDBLK
  5
10
330
B
100
AcDbEntity
 67
     1
  8
0
390
1D
100
AcDbBlockEnd
  0
BLOCK
  5
2C14
330
4E
100
AcDbEntity
  8
0
390
1D
100
AcDbBlockBegin
  2
_DOT
 70
     0
 10
0.0
 20
0.0
 30
0.0
  3
_DOT
  1
_DOT
  0
POLYLINE
  5
2C16
330
4E
100
AcDbEntity
  8
0
  6
ByBlock
 62
     0
370
    -2
390
1D
100
AcDb2dPolyline
 66
     1
 10
0.0
 20
0.0
 30
0.0
 70
     1
 40
0.5
 41
0.5
  0
VERTEX
  5
2C17
330
2C16
100
AcDbEntity
  8
0
  6
ByBlock
 62
     0
370
    -2
390
1D
100
AcDbVertex
100
AcDb2dVertex
 10
-0.25
 20
0.0
 30
0.0
 42
1.0
  0
VERTEX
  5
2C18
330
2C16
100
AcDbEntity
  8
0
  6
ByBlock
 62
     0
370
    -2
390
1D
100
AcDbVertex
100
AcDb2dVertex
 10
0.25
 20
0.0
 30
0.0
 42
1.0
  0
SEQEND
  5
2C19
330
2C16
100
AcDbEntity
  8
0
390
1D
  0
LINE
  5
2C1A
330
4E
100
AcDbEntity
  8
0
  6
ByBlock
 62
     0
370
    -2
390
1D
100
AcDbLine
 10
-0.5
 20
0.0
 30
0.0
 11
-1.0
 21
0.0
 31
0.0
  0
ENDBLK
  5
2C1B
330
4E
100
AcDbEntity
  8
0
390
1D
100
AcDbBlockEnd
  0
BLOCK
  5
3A6
330
3A5
100
AcDbEntity
  8
0
100
AcDbBlockBegin
  2
名称未設定-1
 70
     0
 10
0.0
 20
0.0
 30
0.0
  3
名称未設定-1
  1
名称未設定-1
  0
INSERT
  5
3A7
330
3A5
100
AcDbEntity
  8
レイヤー 1
100
AcDbBlockReference
  2
block 2
 10
0.0
 20
0.0
 30
0.0
  0
ENDBLK
  5
3CC
330
3A5
100
AcDbEntity
  8
0
100
AcDbBlockEnd
  0
BLOCK
  5
3A9
330
3A8
100
AcDbEntity
  8
0
100
AcDbBlockBegin
  2
block 2
 70
     0
 10
0.0
 20
0.0
 30
0.0
  3
block 2
  1
block 2
  0
INSERT
  5
3AA
330
3A8
100
AcDbEntity
  8
レイヤー 1
100
AcDbBlockReference
  2
block 3
 10
0.0
 20
0.0
 30
0.0
  0
ENDBLK
  5
3CB
330
3A8
100
AcDbEntity
  8
0
100
AcDbBlockEnd
  0
BLOCK
  5
3AC
330
3AB
100
AcDbEntity
  8
0
100
AcDbBlockBegin
  2
block 3
 70
     0
 10
0.0
 20
0.0
 30
0.0
  3
block 3
  1
block 3
  0
INSERT
  5
3AD
330
3AB
100
AcDbEntity
  8
レイヤー 1
100
AcDbBlockReference
  2
block 4
 10
0.0
 20
0.0
 30
0.0
  0
ENDBLK
  5
3CA
330
3AB
100
AcDbEntity
  8
0
100
AcDbBlockEnd
  0
BLOCK
  5
3AF
330
3AE
100
AcDbEntity
  8
0
100
AcDbBlockBegin
  2
block 4
 70
     0
 10
0.0
 20
0.0
 30
0.0
  3
block 4
  1
block 4
  0
POLYLINE
  5
3B0
330
3AE
100
AcDbEntity
  8
レイヤー 1
370
     0
100
AcDb2dPolyline
 66
     1
 10
0.0
 20
0.0
 30
0.0
  0
VERTEX
  5
3B1
330
3B0
100
AcDbEntity
  8
レイヤー 1
370
     0
100
AcDbVertex
100
AcDb2dVertex
 10
83.79545727667795
 20
167.6444858234922
 30
0.0
  0
VERTEX
  5
3B2
330
3B0
100
AcDbEntity
  8
レイヤー 1
370
     0
100
AcDbVertex
100
AcDb2dVertex
 10
83.79545727667795
 20
159.7968976406313
 30
0.0
  0
VERTEX
  5
3B3
330
3B0
100
AcDbEntity
  8
レイヤー 1
370
     0
100
AcDbVertex
100
AcDb2dVertex
 10
71.3631329975216
 20
159.7968976406313
 30
0.0
  0
VERTEX
  5
3B4
330
3B0
100
AcDbEntity
  8
レイヤー 1
370
     0
100
AcDbVertex
100
AcDb2dVertex
 10
71.3631329975216
 20
127.8027915271048
 30
0.0
  0
VERTEX
  5
3B5
330
3B0
100
AcDbEntity
  8
レイヤー 1
370
     0
100
AcDbVertex
100
AcDb2dVertex
 10
60.43011526263018
 20
127.8027915271048
 30
0.0
  0
VERTEX
  5
3B6
330
3B0
100
AcDbEntity
  8
レイヤー 1
370
     0
100
AcDbVertex
100
AcDb2dVertex
 10
60.43011526263018
 20
159.7968976406313
 30
0.0
  0
VERTEX
  5
3B7
330
3B0
100
AcDbEntity
  8
レイヤー 1
370
     0
100
AcDbVertex
100
AcDb2dVertex
 10
48.21793273020759
 20
159.7968976406313
 30
0.0
  0
VERTEX
  5
3B8
330
3B0
100
AcDbEntity
  8
レイヤー 1
370
     0
100
AcDbVertex
100
AcDb2dVertex
 10
48.21793273020759
 20
167.6444858234922
 30
0.0
  0
VERTEX
  5
3B9
330
3B0
100
AcDbEntity
  8
レイヤー 1
370
     0
100
AcDbVertex
100
AcDb2dVertex
 10
83.79545727667795
 20
167.6444858234922
 30
0.0
  0
SEQEND
  5
3BA
330
3B0
100
AcDbEntity
  8
レイヤー 1
370
     0
  0
HATCH
  5
3BB
330
3AE
100
AcDbEntity
  8
レイヤー 1
 62
   250
420
  2234388
100
AcDbHatch
 10
0.0
 20
0.0
 30
0.0
210
0.0
220
0.0
230
1.0
  2
SOLID
 70
     1
 71
     0
 91
        1
 92
        1
 93
        8
 72
     1
 10
83.79545727667795
 20
167.6444858234922
 11
83.79545727667795
 21
159.7968976406313
 72
     1
 10
83.79545727667795
 20
159.7968976406313
 11
71.3631329975216
 21
159.7968976406313
 72
     1
 10
71.3631329975216
 20
159.7968976406313
 11
71.3631329975216
 21
127.8027915271048
 72
     1
 10
71.3631329975216
 20
127.8027915271048
 11
60.43011526263018
 21
127.8027915271048
 72
     1
 10
60.43011526263018
 20
127.8027915271048
 11
60.43011526263018
 21
159.7968976406313
 72
     1
 10
60.43011526263018
 20
159.7968976406313
 11
48.21793273020759
 21
159.7968976406313
 72
     1
 10
48.21793273020759
 20
159.7968976406313
 11
48.21793273020759
 21
167.6444858234922
 72
     1
 10
48.21793273020759
 20
167.6444858234922
 11
83.79545727667795
 21
167.6444858234922
 97
        0
 75
     2
 76
     1
 98
        0
  0
INSERT
  5
3BC
330
3AE
100
AcDbEntity
  8
レイヤー 1
100
AcDbBlockReference
  2
block 5
 10
0.0
 20
0.0
 30
0.0
  0
ENDBLK
  5
3C9
330
3AE
100
AcDbEntity
  8
0
100
AcDbBlockEnd
  0
BLOCK
  5
3BE
330
3BD
100
AcDbEntity
  8
0
100
AcDbBlockBegin
  2
block 5
 70
     0
 10
0.0
 20
0.0
 30
0.0
  3
block 5
  1
block 5
  0
SPLINE
  5
3BF
330
3BD
100
AcDbEntity
  8
レイヤー 1
370
     0
100
AcDbSpline
210
0.0
220
0.0
230
1.0
 70
    11
 71
     3
 72
    56
 73
    52
 74
     0
 42
0.000000001
 43
0.0000000001
 40
0.0
 40
0.0
 40
0.0
 40
0.0
 40
1.0
 40
1.0
 40
1.0
 40
2.0
 40
2.0
 40
2.0
 40
3.0
 40
3.0
 40
3.0
 40
4.0
 40
4.0
 40
4.0
 40
5.0
 40
5.0
 40
5.0
 40
6.0
 40
6.0
 40
6.0
 40
7.0
 40
7.0
 40
7.0
 40
8.0
 40
8.0
 40
8.0
 40
9.0
 40
9.0
 40
9.0
 40
10.0
 40
10.0
 40
10.0
 40
11.0
 40
11.0
 40
11.0
 40
12.0
 40
12.0
 40
12.0
 40
13.0
 40
13.0
 40
13.0
 40
14.0
 40
14.0
 40
14.0
 40
15.0
 40
15.0
 40
15.0
 40
16.0
 40
16.0
 40
16.0
 40
17.0
 40
17.0
 40
17.0
 40
17.0
 10
100.4504378777679
 20
166.69157178364
 30
0.0
 10
101.9848844191641
 20
167.1313385124438
 30
0.0
 10
103.9637485713373
 20
166.7649523658846
 30
0.0
 10
103.9637485713373
 20
166.7649523658846
 30
0.0
 10
103.9637485713373
 20
166.7649523658846
 30
0.0
 10
103.0132460999156
 20
163.911205638077
 30
0.0
 10
103.0132460999156
 20
163.911205638077
 30
0.0
 10
103.0132460999156
 20
163.911205638077
 30
0.0
 10
101.0674548862189
 20
164.3601018759394
 30
0.0
 10
99.57090442016032
 20
163.1805004036133
 30
0.0
 10
98.40508333886608
 20
162.258247733807
 30
0.0
 10
97.65301849830304
 20
159.804132345923
 30
0.0
 10
97.3598406791005
 20
158.8699940888517
 30
0.0
 10
97.3598406791005
 20
158.8699940888517
 30
0.0
 10
96.07137411762282
 20
154.9119212747295
 30
0.0
 10
96.07137411762282
 20
154.9119212747295
 30
0.0
 10
96.07137411762282
 20
154.9119212747295
 30
0.0
 10
100.3012651448482
 20
154.9119212747295
 30
0.0
 10
100.3012651448482
 20
154.9119212747295
 30
0.0
 10
100.3012651448482
 20
154.9119212747295
 30
0.0
 10
99.64152892419852
 20
152.4199098115079
 30
0.0
 10
99.64152892419852
 20
152.4199098115079
 30
0.0
 10
99.64152892419852
 20
152.4199098115079
 30
0.0
 10
95.38097652692731
 20
152.4199098115079
 30
0.0
 10
95.38097652692731
 20
152.4199098115079
 30
0.0
 10
95.38097652692731
 20
152.4199098115079
 30
0.0
 10
87.75353009080013
 20
127.8027915271048
 30
0.0
 10
87.75353009080013
 20
127.8027915271048
 30
0.0
 10
87.75353009080013
 20
127.8027915271048
 30
0.0
 10
85.36538832498108
 20
127.8027915271048
 30
0.0
 10
85.36538832498108
 20
127.8027915271048
 30
0.0
 10
85.36538832498108
 20
127.8027915271048
 30
0.0
 10
93.00006946639998
 20
152.4199098115079
 30
0.0
 10
93.00006946639998
 20
152.4199098115079
 30
0.0
 10
93.00006946639998
 20
152.4199098115079
 30
0.0
 10
89.85297266450198
 20
152.4199098115079
 30
0.0
 10
89.85297266450198
 20
152.4199098115079
 30
0.0
 10
89.85297266450198
 20
152.4199098115079
 30
0.0
 10
90.51270888515164
 20
154.9119212747295
 30
0.0
 10
90.51270888515164
 20
154.9119212747295
 30
0.0
 10
90.51270888515164
 20
154.9119212747295
 30
0.0
 10
93.6904670570955
 20
154.9119212747295
 30
0.0
 10
93.6904670570955
 20
154.9119212747295
 30
0.0
 10
93.6904670570955
 20
154.9119212747295
 30
0.0
 10
94.81598049462158
 20
158.3616699146644
 30
0.0
 10
94.81598049462158
 20
158.3616699146644
 30
0.0
 10
95.7237637538445
 20
161.2605474231013
 30
0.0
 10
96.4968436907311
 20
162.8139420021662
 30
0.0
 10
97.15657991138076
 20
163.9844139654337
 30
0.0
 10
97.81183750494507
 20
165.1523021053827
 30
0.0
 10
99.1047826935081
 20
166.3084769129547
 30
0.0
 10
100.4504378777679
 20
166.69157178364
 30
0.0
  0
HATCH
  5
3C0
330
3BD
100
AcDbEntity
  8
レイヤー 1
 62
   250
420
  2234388
100
AcDbHatch
 10
0.0
 20
0.0
 30
0.0
210
0.0
220
0.0
230
1.0
  2
SOLID
 70
     1
 71
     0
 91
        1
 92
        1
 93
        1
 72
     4
 94
        3
 73
     0
 74
     1
 95
       56
 96
       52
 40
0.0
 40
0.0
 40
0.0
 40
0.0
 40
1.0
 40
1.0
 40
1.0
 40
2.0
 40
2.0
 40
2.0
 40
3.0
 40
3.0
 40
3.0
 40
4.0
 40
4.0
 40
4.0
 40
5.0
 40
5.0
 40
5.0
 40
6.0
 40
6.0
 40
6.0
 40
7.0
 40
7.0
 40
7.0
 40
8.0
 40
8.0
 40
8.0
 40
9.0
 40
9.0
 40
9.0
 40
10.0
 40
10.0
 40
10.0
 40
11.0
 40
11.0
 40
11.0
 40
12.0
 40
12.0
 40
12.0
 40
13.0
 40
13.0
 40
13.0
 40
14.0
 40
14.0
 40
14.0
 40
15.0
 40
15.0
 40
15.0
 40
16.0
 40
16.0
 40
16.0
 40
17.0
 40
17.0
 40
17.0
 40
17.0
 10
100.4504378777679
 20
166.69157178364
 10
101.9848844191641
 20
167.1313385124438
 10
103.9637485713373
 20
166.7649523658846
 10
103.9637485713373
 20
166.7649523658846
 10
103.9637485713373
 20
166.7649523658846
 10
103.0132460999156
 20
163.911205638077
 10
103.0132460999156
 20
163.911205638077
 10
103.0132460999156
 20
163.911205638077
 10
101.0674548862189
 20
164.3601018759394
 10
99.57090442016032
 20
163.1805004036133
 10
98.40508333886608
 20
162.258247733807
 10
97.65301849830304
 20
159.804132345923
 10
97.3598406791005
 20
158.8699940888517
 10
97.3598406791005
 20
158.8699940888517
 10
96.07137411762282
 20
154.9119212747295
 10
96.07137411762282
 20
154.9119212747295
 10
96.07137411762282
 20
154.9119212747295
 10
100.3012651448482
 20
154.9119212747295
 10
100.3012651448482
 20
154.9119212747295
 10
100.3012651448482
 20
154.9119212747295
 10
99.64152892419852
 20
152.4199098115079
 10
99.64152892419852
 20
152.4199098115079
 10
99.64152892419852
 20
152.4199098115079
 10
95.38097652692731
 20
152.4199098115079
 10
95.38097652692731
 20
152.4199098115079
 10
95.38097652692731
 20
152.4199098115079
 10
87.75353009080013
 20
127.8027915271048
 10
87.75353009080013
 20
127.8027915271048
 10
87.75353009080013
 20
127.8027915271048
 10
85.36538832498108
 20
127.8027915271048
 10
85.36538832498108
 20
127.8027915271048
 10
85.36538832498108
 20
127.8027915271048
 10
93.00006946639998
 20
152.4199098115079
 10
93.00006946639998
 20
152.4199098115079
 10
93.00006946639998
 20
152.4199098115079
 10
89.85297266450198
 20
152.4199098115079
 10
89.85297266450198
 20
152.4199098115079
 10
89.85297266450198
 20
152.4199098115079
 10
90.51270888515164
 20
154.9119212747295
 10
90.51270888515164
 20
154.9119212747295
 10
90.51270888515164
 20
154.9119212747295
 10
93.6904670570955
 20
154.9119212747295
 10
93.6904670570955
 20
154.9119212747295
 10
93.6904670570955
 20
154.9119212747295
 10
94.81598049462158
 20
158.3616699146644
 10
94.81598049462158
 20
158.3616699146644
 10
95.7237637538445
 20
161.2605474231013
 10
96.4968436907311
 20
162.8139420021662
 10
97.15657991138076
 20
163.9844139654337
 10
97.81183750494507
 20
165.1523021053827
 10
99.1047826935081
 20
166.3084769129547
 10
100.4504378777679
 20
166.69157178364
 97
        0
 75
     2
 76
     1
 98
        0
  0
SPLINE
  5
3C1
330
3BD
100
AcDbEntity
  8
レイヤー 1
370
     0
100
AcDbSpline
210
0.0
220
0.0
230
1.0
 70
    11
 71
     3
 72
    38
 73
    34
 74
     0
 42
0.000000001
 43
0.0000000001
 40
0.0
 40
0.0
 40
0.0
 40
0.0
 40
1.0
 40
1.0
 40
1.0
 40
2.0
 40
2.0
 40
2.0
 40
3.0
 40
3.0
 40
3.0
 40
4.0
 40
4.0
 40
4.0
 40
5.0
 40
5.0
 40
5.0
 40
6.0
 40
6.0
 40
6.0
 40
7.0
 40
7.0
 40
7.0
 40
8.0
 40
8.0
 40
8.0
 40
9.0
 40
9.0
 40
9.0
 40
10.0
 40
10.0
 40
10.0
 40
11.0
 40
11.0
 40
11.0
 40
11.0
 10
126.377554584636
 20
154.8151140277308
 30
0.0
 10
126.377554584636
 20
154.8151140277308
 30
0.0
 10
128.8311532078563
 20
154.8151140277308
 30
0.0
 10
128.8311532078563
 20
154.8151140277308
 30
0.0
 10
128.8311532078563
 20
154.8151140277308
 30
0.0
 10
127.7345785914971
 20
151.3062819612468
 30
0.0
 10
127.7345785914971
 20
151.3062819612468
 30
0.0
 10
128.571392836906
 20
152.2922689395754
 30
0.0
 10
129.8860421413442
 20
153.604506675583
 30
0.0
 10
131.0163787157314
 20
154.2664822097754
 30
0.0
 10
132.7044766171327
 20
155.2500576196734
 30
0.0
 10
133.6642808525008
 20
155.3847609420097
 30
0.0
 10
134.7284715499351
 20
155.3565111403944
 30
0.0
 10
134.7284715499351
 20
155.3565111403944
 30
0.0
 10
133.6877075172549
 20
152.0345756272799
 30
0.0
 10
133.6877075172549
 20
152.0345756272799
 30
0.0
 10
133.011434827367
 20
152.3184516825359
 30
0.0
 10
130.930940291334
 20
151.7768823149844
 30
0.0
 10
129.739280976855
 20
150.9162968950455
 30
0.0
 10
128.66613302525
 20
150.1454562717016
 30
0.0
 10
127.9192358313239
 20
149.4857200510519
 30
0.0
 10
127.0393578639405
 20
147.8282835196966
 30
0.0
 10
126.164647543194
 20
146.1699857139017
 30
0.0
 10
125.4742499524985
 20
143.5262176944419
 30
0.0
 10
124.2822461282437
 20
139.6959580071401
 30
0.0
 10
124.2822461282437
 20
139.6959580071401
 30
0.0
 10
120.5753209406769
 20
127.8027915271048
 30
0.0
 10
120.5753209406769
 20
127.8027915271048
 30
0.0
 10
120.5753209406769
 20
127.8027915271048
 30
0.0
 10
118.1964809388044
 20
127.8027915271048
 30
0.0
 10
118.1964809388044
 20
127.8027915271048
 30
0.0
 10
118.1964809388044
 20
127.8027915271048
 30
0.0
 10
126.377554584636
 20
154.8151140277308
 30
0.0
 10
126.377554584636
 20
154.8151140277308
 30
0.0
  0
HATCH
  5
3C2
330
3BD
100
AcDbEntity
  8
レイヤー 1
 62
   250
420
  2234388
100
AcDbHatch
 10
0.0
 20
0.0
 30
0.0
210
0.0
220
0.0
230
1.0
  2
SOLID
 70
     1
 71
     0
 91
        1
 92
        1
 93
        1
 72
     4
 94
        3
 73
     0
 74
     1
 95
       38
 96
       34
 40
0.0
 40
0.0
 40
0.0
 40
0.0
 40
1.0
 40
1.0
 40
1.0
 40
2.0
 40
2.0
 40
2.0
 40
3.0
 40
3.0
 40
3.0
 40
4.0
 40
4.0
 40
4.0
 40
5.0
 40
5.0
 40
5.0
 40
6.0
 40
6.0
 40
6.0
 40
7.0
 40
7.0
 40
7.0
 40
8.0
 40
8.0
 40
8.0
 40
9.0
 40
9.0
 40
9.0
 40
10.0
 40
10.0
 40
10.0
 40
11.0
 40
11.0
 40
11.0
 40
11.0
 10
126.377554584636
 20
154.8151140277308
 10
126.377554584636
 20
154.8151140277308
 10
128.8311532078563
 20
154.8151140277308
 10
128.8311532078563
 20
154.8151140277308
 10
128.8311532078563
 20
154.8151140277308
 10
127.7345785914971
 20
151.3062819612468
 10
127.7345785914971
 20
151.3062819612468
 10
128.571392836906
 20
152.2922689395754
 10
129.8860421413442
 20
153.604506675583
 10
131.0163787157314
 20
154.2664822097754
 10
132.7044766171327
 20
155.2500576196734
 10
133.6642808525008
 20
155.3847609420097
 10
134.7284715499351
 20
155.3565111403944
 10
134.7284715499351
 20
155.3565111403944
 10
133.6877075172549
 20
152.0345756272799
 10
133.6877075172549
 20
152.0345756272799
 10
133.011434827367
 20
152.3184516825359
 10
130.930940291334
 20
151.7768823149844
 10
129.739280976855
 20
150.9162968950455
 10
128.66613302525
 20
150.1454562717016
 10
127.9192358313239
 20
149.4857200510519
 10
127.0393578639405
 20
147.8282835196966
 10
126.164647543194
 20
146.1699857139017
 10
125.4742499524985
 20
143.5262176944419
 10
124.2822461282437
 20
139.6959580071401
 10
124.2822461282437
 20
139.6959580071401
 10
120.5753209406769
 20
127.8027915271048
 10
120.5753209406769
 20
127.8027915271048
 10
120.5753209406769
 20
127.8027915271048
 10
118.1964809388044
 20
127.8027915271048
 10
118.1964809388044
 20
127.8027915271048
 10
118.1964809388044
 20
127.8027915271048
 10
126.377554584636
 20
154.8151140277308
 10
126.377554584636
 20
154.8151140277308
 97
        0
 75
     2
 76
     1
 98
        0
  0
SPLINE
  5
3C3
330
3BD
100
AcDbEntity
  8
レイヤー 1
370
     0
100
AcDbSpline
210
0.0
220
0.0
230
1.0
 70
    11
 71
     3
 72
   104
 73
   100
 74
     0
 42
0.000000001
 43
0.0000000001
 40
0.0
 40
0.0
 40
0.0
 40
0.0
 40
1.0
 40
1.0
 40
1.0
 40
2.0
 40
2.0
 40
2.0
 40
3.0
 40
3.0
 40
3.0
 40
4.0
 40
4.0
 40
4.0
 40
5.0
 40
5.0
 40
5.0
 40
6.0
 40
6.0
 40
6.0
 40
7.0
 40
7.0
 40
7.0
 40
8.0
 40
8.0
 40
8.0
 40
9.0
 40
9.0
 40
9.0
 40
10.0
 40
10.0
 40
10.0
 40
11.0
 40
11.0
 40
11.0
 40
12.0
 40
12.0
 40
12.0
 40
13.0
 40
13.0
 40
13.0
 40
14.0
 40
14.0
 40
14.0
 40
15.0
 40
15.0
 40
15.0
 40
16.0
 40
16.0
 40
16.0
 40
17.0
 40
17.0
 40
17.0
 40
18.0
 40
18.0
 40
18.0
 40
19.0
 40
19.0
 40
19.0
 40
20.0
 40
20.0
 40
20.0
 40
21.0
 40
21.0
 40
21.0
 40
22.0
 40
22.0
 40
22.0
 40
23.0
 40
23.0
 40
23.0
 40
24.0
 40
24.0
 40
24.0
 40
25.0
 40
25.0
 40
25.0
 40
26.0
 40
26.0
 40
26.0
 40
27.0
 40
27.0
 40
27.0
 40
28.0
 40
28.0
 40
28.0
 40
29.0
 40
29.0
 40
29.0
 40
30.0
 40
30.0
 40
30.0
 40
31.0
 40
31.0
 40
31.0
 40
32.0
 40
32.0
 40
32.0
 40
33.0
 40
33.0
 40
33.0
 40
33.0
 10
139.8926730891197
 20
154.8294111834263
 30
0.0
 10
139.8926730891197
 20
154.8294111834263
 30
0.0
 10
142.0344903652445
 20
154.8294111834263
 30
0.0
 10
142.0344903652445
 20
154.8294111834263
 30
0.0
 10
142.0344903652445
 20
154.8294111834263
 30
0.0
 10
140.9516961399171
 20
151.3157559800812
 30
0.0
 10
140.9516961399171
 20
151.3157559800812
 30
0.0
 10
141.8928968473923
 20
152.7887075264977
 30
0.0
 10
142.7341897198865
 20
153.4484437471474
 30
0.0
 10
143.8552245303272
 20
154.2926649527359
 30
0.0
 10
144.9803934580775
 20
155.1296514530327
 30
0.0
 10
146.3139908001845
 20
155.3044901642492
 30
0.0
 10
147.241066606852
 20
155.3044901642492
 30
0.0
 10
148.3855280820469
 20
155.3044901642492
 30
0.0
 10
149.4969166187653
 20
155.0752189084569
 30
0.0
 10
150.0784491203092
 20
153.8172414621372
 30
0.0
 10
150.5228667310863
 20
152.833838307127
 30
0.0
 10
150.5414702589793
 20
152.7201500811143
 30
0.0
 10
150.4140016419347
 20
150.7765981809602
 30
0.0
 10
151.5818897818837
 20
152.7699317437168
 30
0.0
 10
152.4424752018226
 20
153.6256940267945
 30
0.0
 10
153.9038856707499
 20
154.4507949398263
 30
0.0
 10
155.4455669174378
 20
155.3044901642492
 30
0.0
 10
156.339225275853
 20
155.3659851592288
 30
0.0
 10
157.3748216618963
 20
155.2147453676543
 30
0.0
 10
158.911679771723
 20
154.9877134254046
 30
0.0
 10
159.8859534176746
 20
154.4390816074493
 30
0.0
 10
160.3965169054045
 20
152.7816450760939
 30
0.0
 10
160.9070803931344
 20
151.1219692311958
 30
0.0
 10
160.6328506116007
 20
150.2303779314354
 30
0.0
 10
159.9992971339115
 20
147.597634224801
 30
0.0
 10
159.7105979417943
 20
146.4014962832367
 30
0.0
 10
159.2947746424084
 20
144.9400858143094
 30
0.0
 10
158.7463150793409
 20
143.2092687007094
 30
0.0
 10
158.7463150793409
 20
143.2092687007094
 30
0.0
 10
153.9038856707499
 20
127.8027915271048
 30
0.0
 10
153.9038856707499
 20
127.8027915271048
 30
0.0
 10
153.9038856707499
 20
127.8027915271048
 30
0.0
 10
151.3882752878863
 20
127.8027915271048
 30
0.0
 10
151.3882752878863
 20
127.8027915271048
 30
0.0
 10
151.3882752878863
 20
127.8027915271048
 30
0.0
 10
155.6250565106276
 20
141.2751908193897
 30
0.0
 10
155.6250565106276
 20
141.2751908193897
 30
0.0
 10
156.5094131050963
 20
144.0936252951782
 30
0.0
 10
157.109893644309
 20
146.1506931664571
 30
0.0
 10
157.4220195011804
 20
147.4415712963654
 30
0.0
 10
157.8095929989511
 20
149.0530157726519
 30
0.0
 10
157.9656559273867
 20
149.5826995529385
 30
0.0
 10
157.7816877071116
 20
150.7529992613181
 30
0.0
 10
157.6111553680925
 20
151.8430281919372
 30
0.0
 10
157.0582171779396
 20
152.5547853887321
 30
0.0
 10
156.1170164704645
 20
152.5547853887321
 30
0.0
 10
155.1096698860365
 20
152.5547853887321
 30
0.0
 10
154.2962823053817
 20
152.4412694176073
 30
0.0
 10
153.156643967048
 20
151.2945686288697
 30
0.0
 10
152.0170056287143
 20
150.1476955852443
 30
0.0
 10
151.076149431015
 20
148.7930831468137
 30
0.0
 10
150.3337308641742
 20
147.2290087646991
 30
0.0
 10
149.5957909244188
 20
145.6683794803425
 30
0.0
 10
148.8530278478023
 20
143.6822806228776
 30
0.0
 10
148.0964843801539
 20
141.2751908193897
 30
0.0
 10
148.0964843801539
 20
141.2751908193897
 30
0.0
 10
143.8552245303272
 20
127.8027915271048
 30
0.0
 10
143.8552245303272
 20
127.8027915271048
 30
0.0
 10
143.8552245303272
 20
127.8027915271048
 30
0.0
 10
141.486030802177
 20
127.8027915271048
 30
0.0
 10
141.486030802177
 20
127.8027915271048
 30
0.0
 10
141.486030802177
 20
127.8027915271048
 30
0.0
 10
146.3329388378533
 20
143.2092687007094
 30
0.0
 10
146.3329388378533
 20
143.2092687007094
 30
0.0
 10
146.8483254624444
 20
144.8408669988801
 30
0.0
 10
147.2314203331297
 20
146.1837661049335
 30
0.0
 10
147.4867020769946
 20
147.224185627838
 30
0.0
 10
147.9169947869641
 20
149.0197705792876
 30
0.0
 10
148.0306830129768
 20
150.2400242051577
 30
0.0
 10
147.709255392159
 20
151.3157559800812
 30
0.0
 10
147.3874832615654
 20
152.3916600098926
 30
0.0
 10
146.8245542879144
 20
152.6683013598569
 30
0.0
 10
145.8840425999909
 20
152.6683013598569
 30
0.0
 10
145.0989048209514
 20
152.6683013598569
 30
0.0
 10
144.3282364524954
 20
152.3275811915945
 30
0.0
 10
143.4531816219731
 20
151.6538923250251
 30
0.0
 10
142.34627171234
 20
150.8074318058939
 30
0.0
 10
141.901854101563
 20
150.1097995099067
 30
0.0
 10
141.3578731655808
 20
149.289521733736
 30
0.0
 10
140.6299240093235
 20
148.192602607601
 30
0.0
 10
140.2850697237515
 20
147.455696197173
 30
0.0
 10
139.6652966370942
 20
145.8385673095858
 30
0.0
 10
139.0506911970739
 20
144.2214384219986
 30
0.0
 10
138.463991048893
 20
142.3252566160164
 30
0.0
 10
138.0571250036777
 20
141.0154304484394
 30
0.0
 10
138.0571250036777
 20
141.0154304484394
 30
0.0
 10
133.9009590684727
 20
127.8027915271048
 30
0.0
 10
133.9009590684727
 20
127.8027915271048
 30
0.0
 10
133.9009590684727
 20
127.8027915271048
 30
0.0
 10
131.4180771143097
 20
127.8027915271048
 30
0.0
 10
131.4180771143097
 20
127.8027915271048
 30
0.0
 10
131.4180771143097
 20
127.8027915271048
 30
0.0
 10
139.8926730891197
 20
154.8294111834263
 30
0.0
 10
139.8926730891197
 20
154.8294111834263
 30
0.0
  0
HATCH
  5
3C4
330
3BD
100
AcDbEntity
  8
レイヤー 1
 62
   250
420
  2234388
100
AcDbHatch
 10
0.0
 20
0.0
 30
0.0
210
0.0
220
0.0
230
1.0
  2
SOLID
 70
     1
 71
     0
 91
        1
 92
        1
 93
        1
 72
     4
 94
        3
 73
     0
 74
     1
 95
      104
 96
      100
 40
0.0
 40
0.0
 40
0.0
 40
0.0
 40
1.0
 40
1.0
 40
1.0
 40
2.0
 40
2.0
 40
2.0
 40
3.0
 40
3.0
 40
3.0
 40
4.0
 40
4.0
 40
4.0
 40
5.0
 40
5.0
 40
5.0
 40
6.0
 40
6.0
 40
6.0
 40
7.0
 40
7.0
 40
7.0
 40
8.0
 40
8.0
 40
8.0
 40
9.0
 40
9.0
 40
9.0
 40
10.0
 40
10.0
 40
10.0
 40
11.0
 40
11.0
 40
11.0
 40
12.0
 40
12.0
 40
12.0
 40
13.0
 40
13.0
 40
13.0
 40
14.0
 40
14.0
 40
14.0
 40
15.0
 40
15.0
 40
15.0
 40
16.0
 40
16.0
 40
16.0
 40
17.0
 40
17.0
 40
17.0
 40
18.0
 40
18.0
 40
18.0
 40
19.0
 40
19.0
 40
19.0
 40
20.0
 40
20.0
 40
20.0
 40
21.0
 40
21.0
 40
21.0
 40
22.0
 40
22.0
 40
22.0
 40
23.0
 40
23.0
 40
23.0
 40
24.0
 40
24.0
 40
24.0
 40
25.0
 40
25.0
 40
25.0
 40
26.0
 40
26.0
 40
26.0
 40
27.0
 40
27.0
 40
27.0
 40
28.0
 40
28.0
 40
28.0
 40
29.0
 40
29.0
 40
29.0
 40
30.0
 40
30.0
 40
30.0
 40
31.0
 40
31.0
 40
31.0
 40
32.0
 40
32.0
 40
32.0
 40
33.0
 40
33.0
 40
33.0
 40
33.0
 10
139.8926730891197
 20
154.8294111834263
 10
139.8926730891197
 20
154.8294111834263
 10
142.0344903652445
 20
154.8294111834263
 10
142.0344903652445
 20
154.8294111834263
 10
142.0344903652445
 20
154.8294111834263
 10
140.9516961399171
 20
151.3157559800812
 10
140.9516961399171
 20
151.3157559800812
 10
141.8928968473923
 20
152.7887075264977
 10
142.7341897198865
 20
153.4484437471474
 10
143.8552245303272
 20
154.2926649527359
 10
144.9803934580775
 20
155.1296514530327
 10
146.3139908001845
 20
155.3044901642492
 10
147.241066606852
 20
155.3044901642492
 10
148.3855280820469
 20
155.3044901642492
 10
149.4969166187653
 20
155.0752189084569
 10
150.0784491203092
 20
153.8172414621372
 10
150.5228667310863
 20
152.833838307127
 10
150.5414702589793
 20
152.7201500811143
 10
150.4140016419347
 20
150.7765981809602
 10
151.5818897818837
 20
152.7699317437168
 10
152.4424752018226
 20
153.6256940267945
 10
153.9038856707499
 20
154.4507949398263
 10
155.4455669174378
 20
155.3044901642492
 10
156.339225275853
 20
155.3659851592288
 10
157.3748216618963
 20
155.2147453676543
 10
158.911679771723
 20
154.9877134254046
 10
159.8859534176746
 20
154.4390816074493
 10
160.3965169054045
 20
152.7816450760939
 10
160.9070803931344
 20
151.1219692311958
 10
160.6328506116007
 20
150.2303779314354
 10
159.9992971339115
 20
147.597634224801
 10
159.7105979417943
 20
146.4014962832367
 10
159.2947746424084
 20
144.9400858143094
 10
158.7463150793409
 20
143.2092687007094
 10
158.7463150793409
 20
143.2092687007094
 10
153.9038856707499
 20
127.8027915271048
 10
153.9038856707499
 20
127.8027915271048
 10
153.9038856707499
 20
127.8027915271048
 10
151.3882752878863
 20
127.8027915271048
 10
151.3882752878863
 20
127.8027915271048
 10
151.3882752878863
 20
127.8027915271048
 10
155.6250565106276
 20
141.2751908193897
 10
155.6250565106276
 20
141.2751908193897
 10
156.5094131050963
 20
144.0936252951782
 10
157.109893644309
 20
146.1506931664571
 10
157.4220195011804
 20
147.4415712963654
 10
157.8095929989511
 20
149.0530157726519
 10
157.9656559273867
 20
149.5826995529385
 10
157.7816877071116
 20
150.7529992613181
 10
157.6111553680925
 20
151.8430281919372
 10
157.0582171779396
 20
152.5547853887321
 10
156.1170164704645
 20
152.5547853887321
 10
155.1096698860365
 20
152.5547853887321
 10
154.2962823053817
 20
152.4412694176073
 10
153.156643967048
 20
151.2945686288697
 10
152.0170056287143
 20
150.1476955852443
 10
151.076149431015
 20
148.7930831468137
 10
150.3337308641742
 20
147.2290087646991
 10
149.5957909244188
 20
145.6683794803425
 10
148.8530278478023
 20
143.6822806228776
 10
148.0964843801539
 20
141.2751908193897
 10
148.0964843801539
 20
141.2751908193897
 10
143.8552245303272
 20
127.8027915271048
 10
143.8552245303272
 20
127.8027915271048
 10
143.8552245303272
 20
127.8027915271048
 10
141.486030802177
 20
127.8027915271048
 10
141.486030802177
 20
127.8027915271048
 10
141.486030802177
 20
127.8027915271048
 10
146.3329388378533
 20
143.2092687007094
 10
146.3329388378533
 20
143.2092687007094
 10
146.8483254624444
 20
144.8408669988801
 10
147.2314203331297
 20
146.1837661049335
 10
147.4867020769946
 20
147.224185627838
 10
147.9169947869641
 20
149.0197705792876
 10
148.0306830129768
 20
150.2400242051577
 10
147.709255392159
 20
151.3157559800812
 10
147.3874832615654
 20
152.3916600098926
 10
146.8245542879144
 20
152.6683013598569
 10
145.8840425999909
 20
152.6683013598569
 10
145.0989048209514
 20
152.6683013598569
 10
144.3282364524954
 20
152.3275811915945
 10
143.4531816219731
 20
151.6538923250251
 10
142.34627171234
 20
150.8074318058939
 10
141.901854101563
 20
150.1097995099067
 10
141.3578731655808
 20
149.289521733736
 10
140.6299240093235
 20
148.192602607601
 10
140.2850697237515
 20
147.455696197173
 10
139.6652966370942
 20
145.8385673095858
 10
139.0506911970739
 20
144.2214384219986
 10
138.463991048893
 20
142.3252566160164
 10
138.0571250036777
 20
141.0154304484394
 10
138.0571250036777
 20
141.0154304484394
 10
133.9009590684727
 20
127.8027915271048
 10
133.9009590684727
 20
127.8027915271048
 10
133.9009590684727
 20
127.8027915271048
 10
131.4180771143097
 20
127.8027915271048
 10
131.4180771143097
 20
127.8027915271048
 10
131.4180771143097
 20
127.8027915271048
 10
139.8926730891197
 20
154.8294111834263
 10
139.8926730891197
 20
154.8294111834263
 97
        0
 75
     2
 76
     1
 98
        0
  0
SPLINE
  5
3C5
330
3BD
100
AcDbEntity
  8
レイヤー 1
370
     0
100
AcDbSpline
210
0.0
220
0.0
230
1.0
 70
    11
 71
     3
 72
    29
 73
    25
 74
     0
 42
0.000000001
 43
0.0000000001
 40
0.0
 40
0.0
 40
0.0
 40
0.0
 40
1.0
 40
1.0
 40
1.0
 40
2.0
 40
2.0
 40
2.0
 40
3.0
 40
3.0
 40
3.0
 40
4.0
 40
4.0
 40
4.0
 40
5.0
 40
5.0
 40
5.0
 40
6.0
 40
6.0
 40
6.0
 40
7.0
 40
7.0
 40
7.0
 40
8.0
 40
8.0
 40
8.0
 40
8.0
 10
101.6420971922469
 20
132.8388354296931
 30
0.0
 10
101.630039350094
 20
134.7164137077823
 30
0.0
 10
102.2236296937908
 20
138.0598810818841
 30
0.0
 10
103.7487744712405
 20
142.5378191476827
 30
0.0
 10
105.819967243327
 20
148.5896501242061
 30
0.0
 10
107.0602024361932
 20
150.8074318058939
 30
0.0
 10
108.1522984254671
 20
151.8833358357054
 30
0.0
 10
109.741177511439
 20
153.4532668840085
 30
0.0
 10
111.8740375333931
 20
153.5290590346837
 30
0.0
 10
112.5075910110823
 20
153.4532668840085
 30
0.0
 10
113.4012493694975
 20
153.3490526768302
 30
0.0
 10
114.6683563248758
 20
152.7580461564518
 30
0.0
 10
114.7493161221879
 20
150.7838328862519
 30
0.0
 10
114.8106388622796
 20
149.0909118479895
 30
0.0
 10
114.3186789024427
 20
145.9191825971221
 30
0.0
 10
112.6164561002338
 20
140.9489400617108
 30
0.0
 10
110.6444821435766
 20
135.1746117095912
 30
0.0
 10
109.4669477299053
 20
132.8960240524753
 30
0.0
 10
108.5212683953448
 20
131.9072809959403
 30
0.0
 10
106.7346406980658
 20
130.0538184021569
 30
0.0
 10
104.8222669326213
 20
130.2336525051225
 30
0.0
 10
104.5408024457958
 20
130.2336525051225
 30
0.0
 10
104.1721769856939
 20
130.2336525051225
 30
0.0
 10
101.6465758193322
 20
130.6305277668397
 30
0.0
 10
101.6420971922469
 20
132.8388354296931
 30
0.0
  0
SPLINE
  5
3C6
330
3BD
100
AcDbEntity
  8
レイヤー 1
370
     0
100
AcDbSpline
210
0.0
220
0.0
230
1.0
 70
    11
 71
     3
 72
    32
 73
    28
 74
     0
 42
0.000000001
 43
0.0000000001
 40
0.0
 40
0.0
 40
0.0
 40
0.0
 40
1.0
 40
1.0
 40
1.0
 40
2.0
 40
2.0
 40
2.0
 40
3.0
 40
3.0
 40
3.0
 40
4.0
 40
4.0
 40
4.0
 40
5.0
 40
5.0
 40
5.0
 40
6.0
 40
6.0
 40
6.0
 40
7.0
 40
7.0
 40
7.0
 40
8.0
 40
8.0
 40
8.0
 40
9.0
 40
9.0
 40
9.0
 40
9.0
 10
106.2595617172429
 20
153.4105476718098
 30
0.0
 10
104.8222669326213
 20
151.5474388043041
 30
0.0
 10
103.7177685914188
 20
149.8758773721411
 30
0.0
 10
101.9232171692965
 20
144.6141795664062
 30
0.0
 10
100.2754269116635
 20
139.7999999594306
 30
0.0
 10
99.22777268346732
 20
136.3052927937542
 30
0.0
 10
99.06964269637689
 20
132.039572749846
 30
0.0
 10
98.94665270641765
 20
128.8673267343149
 30
0.0
 10
100.8807305877373
 20
127.8027915271048
 30
0.0
 10
103.7129454545577
 20
127.8027915271048
 30
0.0
 10
104.9352661390825
 20
127.8027915271048
 30
0.0
 10
108.0151835347002
 20
127.8827177950895
 30
0.0
 10
110.2045431598849
 20
130.5926316915021
 30
0.0
 10
111.7417457794874
 20
132.4984597712065
 30
0.0
 10
113.155269389579
 20
134.475256864725
 30
0.0
 10
115.0562743324223
 20
140.9489400617108
 30
0.0
 10
116.6361961642235
 20
146.3680788349845
 30
0.0
 10
117.7282921534974
 20
149.8639917848761
 30
0.0
 10
117.6480213757369
 20
151.8595646611754
 30
0.0
 10
117.6480213757369
 20
151.8595646611754
 30
0.0
 10
117.6480213757369
 20
151.8595646611754
 30
0.0
 10
117.6480213757369
 20
151.8595646611754
 30
0.0
 10
117.13229024137
 20
155.18150017429
 30
0.0
 10
114.7162431837115
 20
155.886194920681
 30
0.0
 10
113.3351034925446
 20
155.886194920681
 30
0.0
 10
111.9829026225447
 20
155.886194920681
 30
0.0
 10
108.3414342923792
 20
156.1251124501957
 30
0.0
 10
106.2595617172429
 20
153.4105476718098
 30
0.0
  0
HATCH
  5
3C7
330
3BD
100
AcDbEntity
  8
レイヤー 1
 62
   250
420
  2234388
100
AcDbHatch
 10
0.0
 20
0.0
 30
0.0
210
0.0
220
0.0
230
1.0
  2
SOLID
 70
     1
 71
     0
 91
        2
 92
        1
 93
        1
 72
     4
 94
        3
 73
     0
 74
     1
 95
       29
 96
       25
 40
0.0
 40
0.0
 40
0.0
 40
0.0
 40
1.0
 40
1.0
 40
1.0
 40
2.0
 40
2.0
 40
2.0
 40
3.0
 40
3.0
 40
3.0
 40
4.0
 40
4.0
 40
4.0
 40
5.0
 40
5.0
 40
5.0
 40
6.0
 40
6.0
 40
6.0
 40
7.0
 40
7.0
 40
7.0
 40
8.0
 40
8.0
 40
8.0
 40
8.0
 10
101.6420971922469
 20
132.8388354296931
 10
101.630039350094
 20
134.7164137077823
 10
102.2236296937908
 20
138.0598810818841
 10
103.7487744712405
 20
142.5378191476827
 10
105.819967243327
 20
148.5896501242061
 10
107.0602024361932
 20
150.8074318058939
 10
108.1522984254671
 20
151.8833358357054
 10
109.741177511439
 20
153.4532668840085
 10
111.8740375333931
 20
153.5290590346837
 10
112.5075910110823
 20
153.4532668840085
 10
113.4012493694975
 20
153.3490526768302
 10
114.6683563248758
 20
152.7580461564518
 10
114.7493161221879
 20
150.7838328862519
 10
114.8106388622796
 20
149.0909118479895
 10
114.3186789024427
 20
145.9191825971221
 10
112.6164561002338
 20
140.9489400617108
 10
110.6444821435766
 20
135.1746117095912
 10
109.4669477299053
 20
132.8960240524753
 10
108.5212683953448
 20
131.9072809959403
 10
106.7346406980658
 20
130.0538184021569
 10
104.8222669326213
 20
130.2336525051225
 10
104.5408024457958
 20
130.2336525051225
 10
104.1721769856939
 20
130.2336525051225
 10
101.6465758193322
 20
130.6305277668397
 10
101.6420971922469
 20
132.8388354296931
 97
        0
 92
        1
 93
        1
 72
     4
 94
        3
 73
     0
 74
     1
 95
       32
 96
       28
 40
0.0
 40
0.0
 40
0.0
 40
0.0
 40
1.0
 40
1.0
 40
1.0
 40
2.0
 40
2.0
 40
2.0
 40
3.0
 40
3.0
 40
3.0
 40
4.0
 40
4.0
 40
4.0
 40
5.0
 40
5.0
 40
5.0
 40
6.0
 40
6.0
 40
6.0
 40
7.0
 40
7.0
 40
7.0
 40
8.0
 40
8.0
 40
8.0
 40
9.0
 40
9.0
 40
9.0
 40
9.0
 10
106.2595617172429
 20
153.4105476718098
 10
104.8222669326213
 20
151.5474388043041
 10
103.7177685914188
 20
149.8758773721411
 10
101.9232171692965
 20
144.6141795664062
 10
100.2754269116635
 20
139.7999999594306
 10
99.22777268346732
 20
136.3052927937542
 10
99.06964269637689
 20
132.039572749846
 10
98.94665270641765
 20
128.8673267343149
 10
100.8807305877373
 20
127.8027915271048
 10
103.7129454545577
 20
127.8027915271048
 10
104.9352661390825
 20
127.8027915271048
 10
108.0151835347002
 20
127.8827177950895
 10
110.2045431598849
 20
130.5926316915021
 10
111.7417457794874
 20
132.4984597712065
 10
113.155269389579
 20
134.475256864725
 10
115.0562743324223
 20
140.9489400617108
 10
116.6361961642235
 20
146.3680788349845
 10
117.7282921534974
 20
149.8639917848761
 10
117.6480213757369
 20
151.8595646611754
 10
117.6480213757369
 20
151.8595646611754
 10
117.6480213757369
 20
151.8595646611754
 10
117.6480213757369
 20
151.8595646611754
 10
117.13229024137
 20
155.18150017429
 10
114.7162431837115
 20
155.886194920681
 10
113.3351034925446
 20
155.886194920681
 10
111.9829026225447
 20
155.886194920681
 10
108.3414342923792
 20
156.1251124501957
 10
106.2595617172429
 20
153.4105476718098
 97
        0
 75
     2
 76
     1
 98
        0
  0
ENDBLK
  5
3C8
330
3BD
100
AcDbEntity
  8
0
100
AcDbBlockEnd
  0
BLOCK
  5
11F1
330
11F0
100
AcDbEntity
  8
0
100
AcDbBlockBegin
  2
BLOCK_2
 70
     0
 10
0.0
 20
0.0
 30
0.0
  3
BLOCK_2
  1
BLOCK_2
  0
ENDBLK
  5
11F2
330
11F0
100
AcDbEntity
  8
0
100
AcDbBlockEnd
  0
BLOCK
  5
38B7
330
38B6
100
AcDbEntity
  8
0
100
AcDbBlockBegin
  2
mobile_latù
 70
     0
 10
0.0
 20
0.0
 30
0.0
  3
mobile_latù
  1
mobile_latù
  0
ENDBLK
  5
38B8
330
38B6
100
AcDbEntity
  8
0
100
AcDbBlockEnd
  0
BLOCK
  5
503A
330
5039
100
AcDbEntity
  8
0
100
AcDbBlockBegin
  2
.TD_SECTION_1
 70
     0
 10
225818116096.0
 20
0.0
 30
0.0
  3
.TD_SECTION_1
  1

  0
ENDBLK
  5
503B
330
5039
100
AcDbEntity
  8
0
100
AcDbBlockEnd
  0
BLOCK
  5
503E
330
503D
100
AcDbEntity
  8
0
100
AcDbBlockBegin
  2
.TD_SECTION_2
 70
     0
 10
225818181632.0
 20
0.0
 30
0.0
  3
.TD_SECTION_2
  1

  0
ENDBLK
  5
503F
330
503D
100
AcDbEntity
  8
0
100
AcDbBlockEnd
  0
BLOCK
  5
693C
330
693B
100
AcDbEntity
  8
0
100
AcDbBlockBegin
  2
*D10
 70
     1
 10
0.0
 20
0.0
 30
0.0
  3
*D10
  1

  0
LINE
  5
693E
330
693B
100
AcDbEntity
  8
Dim
 62
     0
 48
0.5
370
    -2
100
AcDbLine
 10
852.636549655947
 20
1027.866166120205
 30
0.0
 11
915.3910109569472
 21
1027.866166120205
 31
0.0
  0
LINE
  5
693F
330
693B
100
AcDbEntity
  8
Dim
 62
     0
 48
0.5
370
    -2
100
AcDbLine
 10
798.7191642497471
 20
886.8661590268422
 30
0.0
 11
915.3910109569472
 21
886.8661590268422
 31
0.0
  0
LINE
  5
6940
330
693B
100
AcDbEntity
  8
Dim
 62
     0
 48
0.5
370
    -2
100
AcDbLine
 10
915.3910109569472
 20
1017.866776471767
 30
0.0
 11
915.3910109569472
 21
896.8655486752797
 31
0.0
  0
INSERT
  5
6941
330
693B
100
AcDbEntity
  8
Dim
 62
     0
370
    -2
100
AcDbBlockReference
  2
_DOT
 10
915.3910109569472
 20
1027.866166120205
 30
0.0
 41
9.999389648437498
 42
9.999389648437498
 43
9.999389648437498
 50
90.0
  0
INSERT
  5
6942
330
693B
100
AcDbEntity
  8
Dim
 62
     0
370
    -2
100
AcDbBlockReference
  2
_DOT
 10
915.3910109569472
 20
886.8661590268422
 30
0.0
 41
9.999389648437498
 42
9.999389648437498
 43
9.999389648437498
 50
270.0
  0
MTEXT
  5
6943
330
693B
100
AcDbEntity
  8
Dim
 62
     0
100
AcDbMText
 10
893.1747023631972
 20
957.3661625735236
 30
0.0
 40
24.4326171875
 41
0.0
 46
0.0
 71
     5
 72
     1
  1
\A1;140
  7
ＭＳ ゴシック
 11
0.0
 21
1.0
 31
0.0
 73
     1
 44
1.0
  0
POINT
  5
6944
330
693B
100
AcDbEntity
  8
Defpoints
 62
     0
100
AcDbPoint
 10
827.636549655947
 20
1027.866166120205
 30
0.0
  0
POINT
  5
6945
330
693B
100
AcDbEntity
  8
Defpoints
 62
     0
100
AcDbPoint
 10
773.7191642497471
 20
886.8661590268422
 30
0.0
  0
POINT
  5
6946
330
693B
100
AcDbEntity
  8
Defpoints
 62
     0
100
AcDbPoint
 10
915.3910109569472
 20
886.8661590268422
 30
0.0
  0
ENDBLK
  5
693D
330
693B
100
AcDbEntity
  8
0
100
AcDbBlockEnd
  0
BLOCK
  5
698A
330
6989
100
AcDbEntity
  8
0
100
AcDbBlockBegin
  2
*D11
 70
     1
 10
0.0
 20
0.0
 30
0.0
  3
*D11
  1

  0
LINE
  5
698C
330
6989
100
AcDbEntity
  8
Dim
 62
     0
 48
0.5
370
    -2
100
AcDbLine
 10
1738.12308979589
 20
1050.462087672238
 30
0.0
 11
1738.12308979589
 21
1083.320037532711
 31
0.0
  0
LINE
  5
698D
330
6989
100
AcDbEntity
  8
Dim
 62
     0
 48
0.5
370
    -2
100
AcDbLine
 10
1798.743741581065
 20
1050.906071756068
 30
0.0
 11
1798.743741581065
 21
1083.320037532711
 31
0.0
  0
LINE
  5
698E
330
6989
100
AcDbEntity
  8
Dim
 62
     0
 48
0.5
370
    -2
100
AcDbLine
 10
1748.122479444328
 20
1083.320037532711
 30
0.0
 11
1788.744351932627
 21
1083.320037532711
 31
0.0
  0
INSERT
  5
698F
330
6989
100
AcDbEntity
  8
Dim
 62
     0
370
    -2
100
AcDbBlockReference
  2
_DOT
 10
1738.12308979589
 20
1083.320037532711
 30
0.0
 41
9.999389648437498
 42
9.999389648437498
 43
9.999389648437498
 50
180.0
  0
INSERT
  5
6990
330
6989
100
AcDbEntity
  8
Dim
 62
     0
370
    -2
100
AcDbBlockReference
  2
_DOT
 10
1798.743741581065
 20
1083.320037532711
 30
0.0
 41
9.999389648437498
 42
9.999389648437498
 43
9.999389648437498
  0
MTEXT
  5
6991
330
6989
100
AcDbEntity
  8
Dim
 62
     0
100
AcDbMText
 10
1768.433415688477
 20
1105.536346126461
 30
0.0
 40
24.4326171875
 41
0.0
 46
0.0
 71
     5
 72
     1
  1
\A1;60
  7
ＭＳ ゴシック
 73
     1
 44
1.0
  0
POINT
  5
6992
330
6989
100
AcDbEntity
  8
Defpoints
 62
     0
100
AcDbPoint
 10
1738.12308979589
 20
1025.462087672238
 30
0.0
  0
POINT
  5
6993
330
6989
100
AcDbEntity
  8
Defpoints
 62
     0
100
AcDbPoint
 10
1798.743741581065
 20
1025.906071756068
 30
0.0
  0
POINT
  5
6994
330
6989
100
AcDbEntity
  8
Defpoints
 62
     0
100
AcDbPoint
 10
1798.743741581065
 20
1083.320037532711
 30
0.0
  0
ENDBLK
  5
698B
330
6989
100
AcDbEntity
  8
0
100
AcDbBlockEnd
  0
BLOCK
  5
69A4
330
69A3
100
AcDbEntity
  8
0
100
AcDbBlockBegin
  2
*D12
 70
     1
 10
0.0
 20
0.0
 30
0.0
  3
*D12
  1

  0
LINE
  5
69A6
330
69A3
100
AcDbEntity
  8
Dim
 62
     0
 48
0.5
370
    -2
100
AcDbLine
 10
1351.706742720549
 20
947.8659911616857
 30
0.0
 11
1300.579861883612
 21
947.8659911616857
 31
0.0
  0
LINE
  5
69A7
330
69A3
100
AcDbEntity
  8
Dim
 62
     0
 48
0.5
370
    -2
100
AcDbLine
 10
1351.706742720549
 20
1027.865997723955
 30
0.0
 11
1300.579861883612
 21
1027.865997723955
 31
0.0
  0
LINE
  5
69A8
330
69A3
100
AcDbEntity
  8
Dim
 62
     0
 48
0.5
370
    -2
100
AcDbLine
 10
1300.579861883612
 20
957.8653808101232
 30
0.0
 11
1300.579861883612
 21
1017.866608075518
 31
0.0
  0
INSERT
  5
69A9
330
69A3
100
AcDbEntity
  8
Dim
 62
     0
370
    -2
100
AcDbBlockReference
  2
_DOT
 10
1300.579861883612
 20
947.8659911616857
 30
0.0
 41
9.999389648437498
 42
9.999389648437498
 43
9.999389648437498
 50
270.0
  0
INSERT
  5
69AA
330
69A3
100
AcDbEntity
  8
Dim
 62
     0
370
    -2
100
AcDbBlockReference
  2
_DOT
 10
1300.579861883612
 20
1027.865997723955
 30
0.0
 41
9.999389648437498
 42
9.999389648437498
 43
9.999389648437498
 50
90.0
  0
MTEXT
  5
69AB
330
69A3
100
AcDbEntity
  8
Dim
 62
     0
100
AcDbMText
 10
1278.363553289862
 20
987.8659944428205
 30
0.0
 40
24.4326171875
 41
0.0
 46
0.0
 71
     5
 72
     1
  1
\A1;80
  7
ＭＳ ゴシック
 11
0.0
 21
1.0
 31
0.0
 73
     1
 44
1.0
  0
POINT
  5
69AC
330
69A3
100
AcDbEntity
  8
Defpoints
 62
     0
100
AcDbPoint
 10
1376.706742720549
 20
947.8659911616857
 30
0.0
  0
POINT
  5
69AD
330
69A3
100
AcDbEntity
  8
Defpoints
 62
     0
100
AcDbPoint
 10
1376.706742720549
 20
1027.865997723955
 30
0.0
  0
POINT
  5
69AE
330
69A3
100
AcDbEntity
  8
Defpoints
 62
     0
100
AcDbPoint
 10
1300.579861883612
 20
1027.865997723955
 30
0.0
  0
ENDBLK
  5
69A5
330
69A3
100
AcDbEntity
  8
0
100
AcDbBlockEnd
  0
BLOCK
  5
69B1
330
69B0
100
AcDbEntity
  8
0
100
AcDbBlockBegin
  2
*D13
 70
     1
 10
0.0
 20
0.0
 30
0.0
  3
*D13
  1

  0
LINE
  5
69B3
330
69B0
100
AcDbEntity
  8
Dim
 62
     0
 48
0.5
370
    -2
100
AcDbLine
 10
1402.556996723705
 20
887.8659935905804
 30
0.0
 11
1300.579861883612
 21
887.8659935905804
 31
0.0
  0
LINE
  5
69B4
330
69B0
100
AcDbEntity
  8
Dim
 62
     0
 48
0.5
370
    -2
100
AcDbLine
 10
1351.706742720549
 20
947.8659911616857
 30
0.0
 11
1300.579861883612
 21
947.8659911616857
 31
0.0
  0
LINE
  5
69B5
330
69B0
100
AcDbEntity
  8
Dim
 62
     0
 48
0.5
370
    -2
100
AcDbLine
 10
1300.579861883612
 20
897.8653832390179
 30
0.0
 11
1300.579861883612
 21
937.8666015132482
 31
0.0
  0
INSERT
  5
69B6
330
69B0
100
AcDbEntity
  8
Dim
 62
     0
370
    -2
100
AcDbBlockReference
  2
_DOT
 10
1300.579861883612
 20
887.8659935905804
 30
0.0
 41
9.999389648437498
 42
9.999389648437498
 43
9.999389648437498
 50
270.0
  0
INSERT
  5
69B7
330
69B0
100
AcDbEntity
  8
Dim
 62
     0
370
    -2
100
AcDbBlockReference
  2
_DOT
 10
1300.579861883612
 20
947.8659911616857
 30
0.0
 41
9.999389648437498
 42
9.999389648437498
 43
9.999389648437498
 50
90.0
  0
MTEXT
  5
69B8
330
69B0
100
AcDbEntity
  8
Dim
 62
     0
100
AcDbMText
 10
1278.363553289862
 20
917.865992376133
 30
0.0
 40
24.4326171875
 41
0.0
 46
0.0
 71
     5
 72
     1
  1
\A1;60
  7
ＭＳ ゴシック
 11
0.0
 21
1.0
 31
0.0
 73
     1
 44
1.0
  0
POINT
  5
69B9
330
69B0
100
AcDbEntity
  8
Defpoints
 62
     0
100
AcDbPoint
 10
1427.556996723705
 20
887.8659935905804
 30
0.0
  0
POINT
  5
69BA
330
69B0
100
AcDbEntity
  8
Defpoints
 62
     0
100
AcDbPoint
 10
1376.706742720549
 20
947.8659911616857
 30
0.0
  0
POINT
  5
69BB
330
69B0
100
AcDbEntity
  8
Defpoints
 62
     0
100
AcDbPoint
 10
1300.579861883612
 20
947.8659911616857
 30
0.0
  0
ENDBLK
  5
69B2
330
69B0
100
AcDbEntity
  8
0
100
AcDbBlockEnd
  0
BLOCK
  5
6A58
330
6A57
100
AcDbEntity
  8
0
100
AcDbBlockBegin
  2
*D14
 70
     1
 10
0.0
 20
0.0
 30
0.0
  3
*D14
  1

  0
LINE
  5
6A5A
330
6A57
100
AcDbEntity
  8
Dim
 62
     0
370
    -2
100
AcDbLine
 10
1236.085105306168
 20
2072.738767316381
 30
0.0
 11
1236.085105306168
 21
2328.589809192446
 31
0.0
  0
LINE
  5
6A5B
330
6A57
100
AcDbEntity
  8
Dim
 62
     0
370
    -2
100
AcDbLine
 10
1611.085105306168
 20
2072.738767316381
 30
0.0
 11
1611.085105306168
 21
2328.589809192446
 31
0.0
  0
LINE
  5
6A5C
330
6A57
100
AcDbEntity
  8
Dim
 62
     0
370
    -2
100
AcDbLine
 10
1246.084494954605
 20
2328.589809192446
 30
0.0
 11
1601.08571565773
 21
2328.589809192446
 31
0.0
  0
INSERT
  5
6A5D
330
6A57
100
AcDbEntity
  8
Dim
 62
     0
370
    -2
100
AcDbBlockReference
  2
_DOT
 10
1236.085105306168
 20
2328.589809192446
 30
0.0
 41
9.999389648437498
 42
9.999389648437498
 43
9.999389648437498
 50
180.0
  0
INSERT
  5
6A5E
330
6A57
100
AcDbEntity
  8
Dim
 62
     0
370
    -2
100
AcDbBlockReference
  2
_DOT
 10
1611.085105306168
 20
2328.589809192446
 30
0.0
 41
9.999389648437498
 42
9.999389648437498
 43
9.999389648437498
  0
MTEXT
  5
6A5F
330
6A57
100
AcDbEntity
  8
Dim
 62
     0
100
AcDbMText
 10
1423.585105306168
 20
2350.806117786196
 30
0.0
 40
24.4326171875
 41
0.0
 46
0.0
 71
     5
 72
     1
  1
\A1;375
  7
ＭＳ ゴシック
 73
     1
 44
1.0
  0
POINT
  5
6A60
330
6A57
100
AcDbEntity
  8
Defpoints
 62
     0
100
AcDbPoint
 10
1236.085105306168
 20
2047.738767316381
 30
0.0
  0
POINT
  5
6A61
330
6A57
100
AcDbEntity
  8
Defpoints
 62
     0
100
AcDbPoint
 10
1611.085105306168
 20
2047.738767316381
 30
0.0
  0
POINT
  5
6A62
330
6A57
100
AcDbEntity
  8
Defpoints
 62
     0
100
AcDbPoint
 10
1611.085105306168
 20
2328.589809192446
 30
0.0
  0
ENDBLK
  5
6A59
330
6A57
100
AcDbEntity
  8
0
100
AcDbBlockEnd
  0
BLOCK
  5
6A64
330
6A63
100
AcDbEntity
  8
0
100
AcDbBlockBegin
  2
*D15
 70
     1
 10
0.0
 20
0.0
 30
0.0
  3
*D15
  1

  0
LINE
  5
6A66
330
6A63
100
AcDbEntity
  8
Dim
 62
     0
370
    -2
100
AcDbLine
 10
1490.23480755616
 20
2145.698290098165
 30
0.0
 11
1724.592609665552
 21
2145.698290098165
 31
0.0
  0
LINE
  5
6A67
330
6A63
100
AcDbEntity
  8
Dim
 62
     0
370
    -2
100
AcDbLine
 10
1490.23480755616
 20
1770.698290098165
 30
0.0
 11
1724.592609665552
 21
1770.698290098165
 31
0.0
  0
LINE
  5
6A68
330
6A63
100
AcDbEntity
  8
Dim
 62
     0
370
    -2
100
AcDbLine
 10
1724.592609665552
 20
2135.698900449727
 30
0.0
 11
1724.592609665552
 21
1780.697679746602
 31
0.0
  0
INSERT
  5
6A69
330
6A63
100
AcDbEntity
  8
Dim
 62
     0
370
    -2
100
AcDbBlockReference
  2
_DOT
 10
1724.592609665552
 20
2145.698290098165
 30
0.0
 41
9.999389648437498
 42
9.999389648437498
 43
9.999389648437498
 50
90.0
  0
INSERT
  5
6A6A
330
6A63
100
AcDbEntity
  8
Dim
 62
     0
370
    -2
100
AcDbBlockReference
  2
_DOT
 10
1724.592609665552
 20
1770.698290098165
 30
0.0
 41
9.999389648437498
 42
9.999389648437498
 43
9.999389648437498
 50
270.0
  0
MTEXT
  5
6A6B
330
6A63
100
AcDbEntity
  8
Dim
 62
     0
100
AcDbMText
 10
1702.376301071802
 20
1958.198290098165
 30
0.0
 40
24.4326171875
 41
0.0
 46
0.0
 71
     5
 72
     1
  1
\A1;375
  7
ＭＳ ゴシック
 11
0.0
 21
1.0
 31
0.0
 73
     1
 44
1.0
  0
POINT
  5
6A6C
330
6A63
100
AcDbEntity
  8
Defpoints
 62
     0
100
AcDbPoint
 10
1465.23480755616
 20
2145.698290098165
 30
0.0
  0
POINT
  5
6A6D
330
6A63
100
AcDbEntity
  8
Defpoints
 62
     0
100
AcDbPoint
 10
1465.23480755616
 20
1770.698290098165
 30
0.0
  0
POINT
  5
6A6E
330
6A63
100
AcDbEntity
  8
Defpoints
 62
     0
100
AcDbPoint
 10
1724.592609665552
 20
1770.698290098165
 30
0.0
  0
ENDBLK
  5
6A65
330
6A63
100
AcDbEntity
  8
0
100
AcDbBlockEnd
  0
BLOCK
  5
6A70
330
6A6F
100
AcDbEntity
  8
0
100
AcDbBlockBegin
  2
*D16
 70
     1
 10
0.0
 20
0.0
 30
0.0
  3
*D16
  1

  0
LINE
  5
6A72
330
6A6F
100
AcDbEntity
  8
Dim
 62
     0
370
    -2
100
AcDbLine
 10
1498.585105306168
 20
1908.194428654608
 30
0.0
 11
1533.916916650473
 21
1908.194428654608
 31
0.0
  0
LINE
  5
6A73
330
6A6F
100
AcDbEntity
  8
Dim
 62
     0
370
    -2
100
AcDbLine
 10
1498.585105306168
 20
2108.194428654608
 30
0.0
 11
1533.916916650473
 21
2108.194428654608
 31
0.0
  0
LINE
  5
6A74
330
6A6F
100
AcDbEntity
  8
Dim
 62
     0
370
    -2
100
AcDbLine
 10
1533.916916650473
 20
1918.193818303045
 30
0.0
 11
1533.916916650473
 21
2098.19503900617
 31
0.0
  0
INSERT
  5
6A75
330
6A6F
100
AcDbEntity
  8
Dim
 62
     0
370
    -2
100
AcDbBlockReference
  2
_DOT
 10
1533.916916650473
 20
1908.194428654608
 30
0.0
 41
9.999389648437498
 42
9.999389648437498
 43
9.999389648437498
 50
270.0
  0
INSERT
  5
6A76
330
6A6F
100
AcDbEntity
  8
Dim
 62
     0
370
    -2
100
AcDbBlockReference
  2
_DOT
 10
1533.916916650473
 20
2108.194428654608
 30
0.0
 41
9.999389648437498
 42
9.999389648437498
 43
9.999389648437498
 50
90.0
  0
MTEXT
  5
6A77
330
6A6F
100
AcDbEntity
  8
Dim
 62
     0
100
AcDbMText
 10
1511.700608056723
 20
2008.194428654608
 30
0.0
 40
24.4326171875
 41
0.0
 46
0.0
 71
     5
 72
     1
  1
\A1;200
  7
ＭＳ ゴシック
 11
0.0
 21
1.0
 31
0.0
 73
     1
 44
1.0
  0
POINT
  5
6A78
330
6A6F
100
AcDbEntity
  8
Defpoints
 62
     0
100
AcDbPoint
 10
1473.585105306168
 20
1908.194428654608
 30
0.0
  0
POINT
  5
6A79
330
6A6F
100
AcDbEntity
  8
Defpoints
 62
     0
100
AcDbPoint
 10
1473.585105306168
 20
2108.194428654608
 30
0.0
  0
POINT
  5
6A7A
330
6A6F
100
AcDbEntity
  8
Defpoints
 62
     0
100
AcDbPoint
 10
1533.916916650473
 20
2108.194428654608
 30
0.0
  0
ENDBLK
  5
6A71
330
6A6F
100
AcDbEntity
  8
0
100
AcDbBlockEnd
  0
BLOCK
  5
6A7C
330
6A7B
100
AcDbEntity
  8
0
100
AcDbBlockBegin
  2
*D17
 70
     1
 10
0.0
 20
0.0
 30
0.0
  3
*D17
  1

  0
LINE
  5
6A7E
330
6A7B
100
AcDbEntity
  8
Dim
 62
     0
370
    -2
100
AcDbLine
 10
1348.585105306168
 20
1908.194428654608
 30
0.0
 11
1311.482673641541
 21
1908.194428654608
 31
0.0
  0
LINE
  5
6A7F
330
6A7B
100
AcDbEntity
  8
Dim
 62
     0
370
    -2
100
AcDbLine
 10
1376.685105306168
 20
1958.194428654608
 30
0.0
 11
1311.482673641541
 21
1958.194428654608
 31
0.0
  0
LINE
  5
6A80
330
6A7B
100
AcDbEntity
  8
Dim
 62
     0
370
    -2
100
AcDbLine
 10
1311.482673641541
 20
1918.193818303045
 30
0.0
 11
1311.482673641541
 21
1948.19503900617
 31
0.0
  0
INSERT
  5
6A81
330
6A7B
100
AcDbEntity
  8
Dim
 62
     0
370
    -2
100
AcDbBlockReference
  2
_DOT
 10
1311.482673641541
 20
1908.194428654608
 30
0.0
 41
9.999389648437498
 42
9.999389648437498
 43
9.999389648437498
 50
270.0
  0
INSERT
  5
6A82
330
6A7B
100
AcDbEntity
  8
Dim
 62
     0
370
    -2
100
AcDbBlockReference
  2
_DOT
 10
1311.482673641541
 20
1958.194428654608
 30
0.0
 41
9.999389648437498
 42
9.999389648437498
 43
9.999389648437498
 50
90.0
  0
MTEXT
  5
6A83
330
6A7B
100
AcDbEntity
  8
Dim
 62
     0
100
AcDbMText
 10
1289.266365047791
 20
1933.194428654608
 30
0.0
 40
24.4326171875
 41
0.0
 46
0.0
 71
     5
 72
     1
  1
\A1;50
  7
ＭＳ ゴシック
 11
0.0
 21
1.0
 31
0.0
 73
     1
 44
1.0
  0
POINT
  5
6A84
330
6A7B
100
AcDbEntity
  8
Defpoints
 62
     0
100
AcDbPoint
 10
1373.585105306168
 20
1908.194428654608
 30
0.0
  0
POINT
  5
6A85
330
6A7B
100
AcDbEntity
  8
Defpoints
 62
     0
100
AcDbPoint
 10
1401.685105306168
 20
1958.194428654608
 30
0.0
  0
POINT
  5
6A86
330
6A7B
100
AcDbEntity
  8
Defpoints
 62
     0
100
AcDbPoint
 10
1311.482673641541
 20
1958.194428654608
 30
0.0
  0
ENDBLK
  5
6A7D
330
6A7B
100
AcDbEntity
  8
0
100
AcDbBlockEnd
  0
BLOCK
  5
6A88
330
6A87
100
AcDbEntity
  8
0
100
AcDbBlockBegin
  2
*D18
 70
     1
 10
0.0
 20
0.0
 30
0.0
  3
*D18
  1

  0
LINE
  5
6A8A
330
6A87
100
AcDbEntity
  8
Dim
 62
     0
370
    -2
100
AcDbLine
 10
1373.585105306168
 20
2133.194428654608
 30
0.0
 11
1373.585105306168
 21
2201.072739242353
 31
0.0
  0
LINE
  5
6A8B
330
6A87
100
AcDbEntity
  8
Dim
 62
     0
370
    -2
100
AcDbLine
 10
1473.585105306168
 20
2133.194428654608
 30
0.0
 11
1473.585105306168
 21
2201.072739242353
 31
0.0
  0
LINE
  5
6A8C
330
6A87
100
AcDbEntity
  8
Dim
 62
     0
370
    -2
100
AcDbLine
 10
1383.584494954605
 20
2201.072739242353
 30
0.0
 11
1463.58571565773
 21
2201.072739242353
 31
0.0
  0
INSERT
  5
6A8D
330
6A87
100
AcDbEntity
  8
Dim
 62
     0
370
    -2
100
AcDbBlockReference
  2
_DOT
 10
1373.585105306168
 20
2201.072739242353
 30
0.0
 41
9.999389648437498
 42
9.999389648437498
 43
9.999389648437498
 50
180.0
  0
INSERT
  5
6A8E
330
6A87
100
AcDbEntity
  8
Dim
 62
     0
370
    -2
100
AcDbBlockReference
  2
_DOT
 10
1473.585105306168
 20
2201.072739242353
 30
0.0
 41
9.999389648437498
 42
9.999389648437498
 43
9.999389648437498
  0
MTEXT
  5
6A8F
330
6A87
100
AcDbEntity
  8
Dim
 62
     0
100
AcDbMText
 10
1423.585105306168
 20
2223.289047836103
 30
0.0
 40
24.4326171875
 41
0.0
 46
0.0
 71
     5
 72
     1
  1
\A1;100
  7
ＭＳ ゴシック
 73
     1
 44
1.0
  0
POINT
  5
6A90
330
6A87
100
AcDbEntity
  8
Defpoints
 62
     0
100
AcDbPoint
 10
1373.585105306168
 20
2108.194428654608
 30
0.0
  0
POINT
  5
6A91
330
6A87
100
AcDbEntity
  8
Defpoints
 62
     0
100
AcDbPoint
 10
1473.585105306168
 20
2108.194428654608
 30
0.0
  0
POINT
  5
6A92
330
6A87
100
AcDbEntity
  8
Defpoints
 62
     0
100
AcDbPoint
 10
1473.585105306168
 20
2201.072739242353
 30
0.0
  0
ENDBLK
  5
6A89
330
6A87
100
AcDbEntity
  8
0
100
AcDbBlockEnd
  0
BLOCK
  5
6A9B
330
6A9A
100
AcDbEntity
  8
0
100
AcDbBlockBegin
  2
*D19
 70
     1
 10
0.0
 20
0.0
 30
0.0
  3
*D19
  1

  0
LINE
  5
6A9D
330
6A9A
100
AcDbEntity
  8
Dim
 62
     0
370
    -2
100
AcDbLine
 10
399.6514586596359
 20
2063.190690251287
 30
0.0
 11
286.1939377861891
 21
2063.190690251287
 31
0.0
  0
LINE
  5
6A9E
330
6A9A
100
AcDbEntity
  8
Dim
 62
     0
370
    -2
100
AcDbLine
 10
568.6668093570506
 20
1753.195466252264
 30
0.0
 11
286.1939377861891
 21
1753.195466252264
 31
0.0
  0
LINE
  5
6A9F
330
6A9A
100
AcDbEntity
  8
Dim
 62
     0
370
    -2
100
AcDbLine
 10
286.1939377861891
 20
2053.191300602849
 30
0.0
 11
286.1939377861891
 21
1763.194855900701
 31
0.0
  0
INSERT
  5
6AA0
330
6A9A
100
AcDbEntity
  8
Dim
 62
     0
370
    -2
100
AcDbBlockReference
  2
_DOT
 10
286.1939377861891
 20
2063.190690251287
 30
0.0
 41
9.999389648437498
 42
9.999389648437498
 43
9.999389648437498
 50
90.0
  0
INSERT
  5
6AA1
330
6A9A
100
AcDbEntity
  8
Dim
 62
     0
370
    -2
100
AcDbBlockReference
  2
_DOT
 10
286.1939377861891
 20
1753.195466252264
 30
0.0
 41
9.999389648437498
 42
9.999389648437498
 43
9.999389648437498
 50
270.0
  0
MTEXT
  5
6AA2
330
6A9A
100
AcDbEntity
  8
Dim
 62
     0
100
AcDbMText
 10
263.9776291924391
 20
1908.193078251775
 30
0.0
 40
24.4326171875
 41
0.0
 46
0.0
 71
     5
 72
     1
  1
\A1;310
  7
ＭＳ ゴシック
 11
0.0
 21
1.0
 31
0.0
 73
     1
 44
1.0
  0
POINT
  5
6AA3
330
6A9A
100
AcDbEntity
  8
Defpoints
 62
     0
100
AcDbPoint
 10
424.6514586596359
 20
2063.190690251287
 30
0.0
  0
POINT
  5
6AA4
330
6A9A
100
AcDbEntity
  8
Defpoints
 62
     0
100
AcDbPoint
 10
593.6668093570506
 20
1753.195466252264
 30
0.0
  0
POINT
  5
6AA5
330
6A9A
100
AcDbEntity
  8
Defpoints
 62
     0
100
AcDbPoint
 10
286.1939377861891
 20
1753.195466252264
 30
0.0
  0
ENDBLK
  5
6A9C
330
6A9A
100
AcDbEntity
  8
0
100
AcDbBlockEnd
  0
BLOCK
  5
6AA7
330
6AA6
100
AcDbEntity
  8
0
100
AcDbBlockBegin
  2
*D20
 70
     1
 10
0.0
 20
0.0
 30
0.0
  3
*D20
  1

  0
LINE
  5
6AA9
330
6AA6
100
AcDbEntity
  8
Dim
 62
     0
370
    -2
100
AcDbLine
 10
482.5646957212193
 20
2168.190690251286
 30
0.0
 11
286.1939377861891
 21
2168.190690251286
 31
0.0
  0
LINE
  5
6AAA
330
6AA6
100
AcDbEntity
  8
Dim
 62
     0
370
    -2
100
AcDbLine
 10
424.6514586596359
 20
2063.190690251287
 30
0.0
 11
286.1939377861891
 21
2063.190690251287
 31
0.0
  0
LINE
  5
6AAB
330
6AA6
100
AcDbEntity
  8
Dim
 62
     0
370
    -2
100
AcDbLine
 10
286.1939377861891
 20
2158.191300602849
 30
0.0
 11
286.1939377861891
 21
2073.190079899724
 31
0.0
  0
INSERT
  5
6AAC
330
6AA6
100
AcDbEntity
  8
Dim
 62
     0
370
    -2
100
AcDbBlockReference
  2
_DOT
 10
286.1939377861891
 20
2168.190690251286
 30
0.0
 41
9.999389648437498
 42
9.999389648437498
 43
9.999389648437498
 50
90.0
  0
INSERT
  5
6AAD
330
6AA6
100
AcDbEntity
  8
Dim
 62
     0
370
    -2
100
AcDbBlockReference
  2
_DOT
 10
286.1939377861891
 20
2063.190690251287
 30
0.0
 41
9.999389648437498
 42
9.999389648437498
 43
9.999389648437498
 50
270.0
  0
MTEXT
  5
6AAE
330
6AA6
100
AcDbEntity
  8
Dim
 62
     0
100
AcDbMText
 10
263.9776291924391
 20
2115.690690251286
 30
0.0
 40
24.4326171875
 41
0.0
 46
0.0
 71
     5
 72
     1
  1
\A1;105
  7
ＭＳ ゴシック
 11
0.0
 21
1.0
 31
0.0
 73
     1
 44
1.0
  0
POINT
  5
6AAF
330
6AA6
100
AcDbEntity
  8
Defpoints
 62
     0
100
AcDbPoint
 10
507.5646957212193
 20
2168.190690251286
 30
0.0
  0
POINT
  5
6AB0
330
6AA6
100
AcDbEntity
  8
Defpoints
 62
     0
100
AcDbPoint
 10
449.6514586596359
 20
2063.190690251287
 30
0.0
  0
POINT
  5
6AB1
330
6AA6
100
AcDbEntity
  8
Defpoints
 62
     0
100
AcDbPoint
 10
286.1939377861891
 20
2063.190690251287
 30
0.0
  0
ENDBLK
  5
6AA8
330
6AA6
100
AcDbEntity
  8
0
100
AcDbBlockEnd
  0
BLOCK
  5
6AB3
330
6AB2
100
AcDbEntity
  8
0
100
AcDbBlockBegin
  2
*D21
 70
     1
 10
0.0
 20
0.0
 30
0.0
  3
*D21
  1

  0
LINE
  5
6AB5
330
6AB2
100
AcDbEntity
  8
Dim
 62
     0
370
    -2
100
AcDbLine
 10
388.6668398746283
 20
1933.195084782538
 30
0.0
 11
388.6668398746283
 21
1645.957907025266
 31
0.0
  0
LINE
  5
6AB6
330
6AB2
100
AcDbEntity
  8
Dim
 62
     0
370
    -2
100
AcDbLine
 10
798.6668398746287
 20
1933.195084782538
 30
0.0
 11
798.6668398746287
 21
1645.957907025266
 31
0.0
  0
LINE
  5
6AB7
330
6AB2
100
AcDbEntity
  8
Dim
 62
     0
370
    -2
100
AcDbLine
 10
398.6662295230658
 20
1645.957907025266
 30
0.0
 11
788.6674502261912
 21
1645.957907025266
 31
0.0
  0
INSERT
  5
6AB8
330
6AB2
100
AcDbEntity
  8
Dim
 62
     0
370
    -2
100
AcDbBlockReference
  2
_DOT
 10
388.6668398746283
 20
1645.957907025266
 30
0.0
 41
9.999389648437498
 42
9.999389648437498
 43
9.999389648437498
 50
180.0
  0
INSERT
  5
6AB9
330
6AB2
100
AcDbEntity
  8
Dim
 62
     0
370
    -2
100
AcDbBlockReference
  2
_DOT
 10
798.6668398746287
 20
1645.957907025266
 30
0.0
 41
9.999389648437498
 42
9.999389648437498
 43
9.999389648437498
  0
MTEXT
  5
6ABA
330
6AB2
100
AcDbEntity
  8
Dim
 62
     0
100
AcDbMText
 10
593.6668398746285
 20
1668.174215619016
 30
0.0
 40
24.4326171875
 41
0.0
 46
0.0
 71
     5
 72
     1
  1
\A1;410
  7
ＭＳ ゴシック
 73
     1
 44
1.0
  0
POINT
  5
6ABB
330
6AB2
100
AcDbEntity
  8
Defpoints
 62
     0
100
AcDbPoint
 10
388.6668398746283
 20
1958.195084782538
 30
0.0
  0
POINT
  5
6ABC
330
6AB2
100
AcDbEntity
  8
Defpoints
 62
     0
100
AcDbPoint
 10
798.6668398746287
 20
1958.195084782538
 30
0.0
  0
POINT
  5
6ABD
330
6AB2
100
AcDbEntity
  8
Defpoints
 62
     0
100
AcDbPoint
 10
798.6668398746287
 20
1645.957907025266
 30
0.0
  0
ENDBLK
  5
6AB4
330
6AB2
100
AcDbEntity
  8
0
100
AcDbBlockEnd
  0
BLOCK
  5
6ABF
330
6ABE
100
AcDbEntity
  8
0
100
AcDbBlockBegin
  2
*D22
 70
     1
 10
0.0
 20
0.0
 30
0.0
  3
*D22
  1

  0
LINE
  5
6AC1
330
6ABE
100
AcDbEntity
  8
Dim
 62
     0
370
    -2
100
AcDbLine
 10
618.6668398746287
 20
2168.195573063786
 30
0.0
 11
910.4999765125694
 21
2168.195573063786
 31
0.0
  0
LINE
  5
6AC2
330
6ABE
100
AcDbEntity
  8
Dim
 62
     0
370
    -2
100
AcDbLine
 10
618.6668398746287
 20
1748.195573063788
 30
0.0
 11
910.4999765125694
 21
1748.195573063788
 31
0.0
  0
LINE
  5
6AC3
330
6ABE
100
AcDbEntity
  8
Dim
 62
     0
370
    -2
100
AcDbLine
 10
910.4999765125694
 20
2158.196183415349
 30
0.0
 11
910.4999765125694
 21
1758.194962712226
 31
0.0
  0
INSERT
  5
6AC4
330
6ABE
100
AcDbEntity
  8
Dim
 62
     0
370
    -2
100
AcDbBlockReference
  2
_DOT
 10
910.4999765125694
 20
2168.195573063786
 30
0.0
 41
9.999389648437498
 42
9.999389648437498
 43
9.999389648437498
 50
90.0
  0
INSERT
  5
6AC5
330
6ABE
100
AcDbEntity
  8
Dim
 62
     0
370
    -2
100
AcDbBlockReference
  2
_DOT
 10
910.4999765125694
 20
1748.195573063788
 30
0.0
 41
9.999389648437498
 42
9.999389648437498
 43
9.999389648437498
 50
270.0
  0
MTEXT
  5
6AC6
330
6ABE
100
AcDbEntity
  8
Dim
 62
     0
100
AcDbMText
 10
888.2836679188194
 20
1958.195573063787
 30
0.0
 40
24.4326171875
 41
0.0
 46
0.0
 71
     5
 72
     1
  1
\A1;420
  7
ＭＳ ゴシック
 11
0.0
 21
1.0
 31
0.0
 73
     1
 44
1.0
  0
POINT
  5
6AC7
330
6ABE
100
AcDbEntity
  8
Defpoints
 62
     0
100
AcDbPoint
 10
593.6668398746287
 20
2168.195573063786
 30
0.0
  0
POINT
  5
6AC8
330
6ABE
100
AcDbEntity
  8
Defpoints
 62
     0
100
AcDbPoint
 10
593.6668398746287
 20
1748.195573063788
 30
0.0
  0
POINT
  5
6AC9
330
6ABE
100
AcDbEntity
  8
Defpoints
 62
     0
100
AcDbPoint
 10
910.4999765125694
 20
1748.195573063788
 30
0.0
  0
ENDBLK
  5
6AC0
330
6ABE
100
AcDbEntity
  8
0
100
AcDbBlockEnd
  0
BLOCK
  5
6ACB
330
6ACA
100
AcDbEntity
  8
0
100
AcDbBlockBegin
  2
*D23
 70
     1
 10
0.0
 20
0.0
 30
0.0
  3
*D23
  1

  0
LINE
  5
6ACD
330
6ACA
100
AcDbEntity
  8
Dim
 62
     0
370
    -2
100
AcDbLine
 10
383.6716807254588
 20
1986.323991032538
 30
0.0
 11
383.6716807254588
 21
2274.636399862788
 31
0.0
  0
LINE
  5
6ACE
330
6ACA
100
AcDbEntity
  8
Dim
 62
     0
370
    -2
100
AcDbLine
 10
803.6716807254588
 20
1986.323991032538
 30
0.0
 11
803.6716807254588
 21
2274.636399862788
 31
0.0
  0
LINE
  5
6ACF
330
6ACA
100
AcDbEntity
  8
Dim
 62
     0
370
    -2
100
AcDbLine
 10
393.6710703738963
 20
2274.636399862788
 30
0.0
 11
793.6722910770213
 21
2274.636399862788
 31
0.0
  0
INSERT
  5
6AD0
330
6ACA
100
AcDbEntity
  8
Dim
 62
     0
370
    -2
100
AcDbBlockReference
  2
_DOT
 10
383.6716807254588
 20
2274.636399862788
 30
0.0
 41
9.999389648437498
 42
9.999389648437498
 43
9.999389648437498
 50
180.0
  0
INSERT
  5
6AD1
330
6ACA
100
AcDbEntity
  8
Dim
 62
     0
370
    -2
100
AcDbBlockReference
  2
_DOT
 10
803.6716807254588
 20
2274.636399862788
 30
0.0
 41
9.999389648437498
 42
9.999389648437498
 43
9.999389648437498
  0
MTEXT
  5
6AD2
330
6ACA
100
AcDbEntity
  8
Dim
 62
     0
100
AcDbMText
 10
593.6716807254588
 20
2296.852708456538
 30
0.0
 40
24.4326171875
 41
0.0
 46
0.0
 71
     5
 72
     1
  1
\A1;420
  7
ＭＳ ゴシック
 73
     1
 44
1.0
  0
POINT
  5
6AD3
330
6ACA
100
AcDbEntity
  8
Defpoints
 62
     0
100
AcDbPoint
 10
383.6716807254588
 20
1961.323991032538
 30
0.0
  0
POINT
  5
6AD4
330
6ACA
100
AcDbEntity
  8
Defpoints
 62
     0
100
AcDbPoint
 10
803.6716807254588
 20
1961.323991032538
 30
0.0
  0
POINT
  5
6AD5
330
6ACA
100
AcDbEntity
  8
Defpoints
 62
     0
100
AcDbPoint
 10
803.6716807254588
 20
2274.636399862788
 30
0.0
  0
ENDBLK
  5
6ACC
330
6ACA
100
AcDbEntity
  8
0
100
AcDbBlockEnd
  0
BLOCK
  5
6ADF
330
6ADE
100
AcDbEntity
  8
0
100
AcDbBlockBegin
  2
*D24
 70
     1
 10
0.0
 20
0.0
 30
0.0
  3
*D24
  1

  0
LINE
  5
6AE1
330
6ADE
100
AcDbEntity
  8
Dim
 62
     0
370
    -2
100
AcDbLine
 10
1427.998671553817
 20
840.9247246577161
 30
0.0
 11
1427.998671553817
 21
776.0779516191856
 31
0.0
  0
LINE
  5
6AE2
330
6ADE
100
AcDbEntity
  8
Dim
 62
     0
370
    -2
100
AcDbLine
 10
1747.998671553817
 20
840.9247246577161
 30
0.0
 11
1747.998671553817
 21
776.0779516191856
 31
0.0
  0
LINE
  5
6AE3
330
6ADE
100
AcDbEntity
  8
Dim
 62
     0
370
    -2
100
AcDbLine
 10
1437.998061202255
 20
776.0779516191856
 30
0.0
 11
1737.99928190538
 21
776.0779516191856
 31
0.0
  0
INSERT
  5
6AE4
330
6ADE
100
AcDbEntity
  8
Dim
 62
     0
370
    -2
100
AcDbBlockReference
  2
_DOT
 10
1427.998671553817
 20
776.0779516191856
 30
0.0
 41
9.999389648437498
 42
9.999389648437498
 43
9.999389648437498
 50
180.0
  0
INSERT
  5
6AE5
330
6ADE
100
AcDbEntity
  8
Dim
 62
     0
370
    -2
100
AcDbBlockReference
  2
_DOT
 10
1747.998671553817
 20
776.0779516191856
 30
0.0
 41
9.999389648437498
 42
9.999389648437498
 43
9.999389648437498
  0
MTEXT
  5
6AE6
330
6ADE
100
AcDbEntity
  8
Dim
 62
     0
100
AcDbMText
 10
1587.998671553817
 20
798.2942602129356
 30
0.0
 40
24.4326171875
 41
0.0
 46
0.0
 71
     5
 72
     1
  1
\A1;320
  7
ＭＳ ゴシック
 73
     1
 44
1.0
  0
POINT
  5
6AE7
330
6ADE
100
AcDbEntity
  8
Defpoints
 62
     0
100
AcDbPoint
 10
1427.998671553817
 20
865.9247246577161
 30
0.0
  0
POINT
  5
6AE8
330
6ADE
100
AcDbEntity
  8
Defpoints
 62
     0
100
AcDbPoint
 10
1747.998671553817
 20
865.9247246577161
 30
0.0
  0
POINT
  5
6AE9
330
6ADE
100
AcDbEntity
  8
Defpoints
 62
     0
100
AcDbPoint
 10
1747.998671553817
 20
776.0779516191856
 30
0.0
  0
ENDBLK
  5
6AE0
330
6ADE
100
AcDbEntity
  8
0
100
AcDbBlockEnd
  0
BLOCK
  5
6AEB
330
6AEA
100
AcDbEntity
  8
0
100
AcDbBlockBegin
  2
*D25
 70
     1
 10
0.0
 20
0.0
 30
0.0
  3
*D25
  1

  0
LINE
  5
6AED
330
6AEA
100
AcDbEntity
  8
Dim
 62
     0
370
    -2
100
AcDbLine
 10
1587.998671553817
 20
751.0779516191856
 30
0.0
 11
1587.998671553817
 21
670.2905317573217
 31
0.0
  0
LINE
  5
6AEE
330
6AEA
100
AcDbEntity
  8
Dim
 62
     0
370
    -2
100
AcDbLine
 10
1797.998671553817
 20
979.9129138677029
 30
0.0
 11
1797.998671553817
 21
670.2905317573217
 31
0.0
  0
LINE
  5
6AEF
330
6AEA
100
AcDbEntity
  8
Dim
 62
     0
370
    -2
100
AcDbLine
 10
1597.998061202255
 20
670.2905317573217
 30
0.0
 11
1787.99928190538
 21
670.2905317573217
 31
0.0
  0
INSERT
  5
6AF0
330
6AEA
100
AcDbEntity
  8
Dim
 62
     0
370
    -2
100
AcDbBlockReference
  2
_DOT
 10
1587.998671553817
 20
670.2905317573217
 30
0.0
 41
9.999389648437498
 42
9.999389648437498
 43
9.999389648437498
 50
180.0
  0
INSERT
  5
6AF1
330
6AEA
100
AcDbEntity
  8
Dim
 62
     0
370
    -2
100
AcDbBlockReference
  2
_DOT
 10
1797.998671553817
 20
670.2905317573217
 30
0.0
 41
9.999389648437498
 42
9.999389648437498
 43
9.999389648437498
  0
MTEXT
  5
6AF2
330
6AEA
100
AcDbEntity
  8
Dim
 62
     0
100
AcDbMText
 10
1692.998671553817
 20
692.5068403510717
 30
0.0
 40
24.4326171875
 41
0.0
 46
0.0
 71
     5
 72
     1
  1
\A1;210
  7
ＭＳ ゴシック
 73
     1
 44
1.0
  0
POINT
  5
6AF3
330
6AEA
100
AcDbEntity
  8
Defpoints
 62
     0
100
AcDbPoint
 10
1587.998671553817
 20
776.0779516191856
 30
0.0
  0
POINT
  5
6AF4
330
6AEA
100
AcDbEntity
  8
Defpoints
 62
     0
100
AcDbPoint
 10
1797.998671553817
 20
1004.912913867703
 30
0.0
  0
POINT
  5
6AF5
330
6AEA
100
AcDbEntity
  8
Defpoints
 62
     0
100
AcDbPoint
 10
1797.998671553817
 20
670.2905317573217
 30
0.0
  0
ENDBLK
  5
6AEC
330
6AEA
100
AcDbEntity
  8
0
100
AcDbBlockEnd
  0
BLOCK
  5
6B28
330
6B27
100
AcDbEntity
  8
0
100
AcDbBlockBegin
  2
*D26
 70
     1
 10
0.0
 20
0.0
 30
0.0
  3
*D26
  1

  0
LINE
  5
6B2A
330
6B27
100
AcDbEntity
  8
Dim
 62
     0
370
    -2
100
AcDbLine
 10
433.0629982215828
 20
843.9247667017521
 30
0.0
 11
433.0629982215828
 21
779.0779936632216
 31
0.0
  0
LINE
  5
6B2B
330
6B27
100
AcDbEntity
  8
Dim
 62
     0
370
    -2
100
AcDbLine
 10
753.0629982215828
 20
843.9247667017521
 30
0.0
 11
753.0629982215828
 21
779.0779936632216
 31
0.0
  0
LINE
  5
6B2C
330
6B27
100
AcDbEntity
  8
Dim
 62
     0
370
    -2
100
AcDbLine
 10
443.0623878700203
 20
779.0779936632216
 30
0.0
 11
743.0636085731453
 21
779.0779936632216
 31
0.0
  0
INSERT
  5
6B2D
330
6B27
100
AcDbEntity
  8
Dim
 62
     0
370
    -2
100
AcDbBlockReference
  2
_DOT
 10
433.0629982215828
 20
779.0779936632216
 30
0.0
 41
9.999389648437498
 42
9.999389648437498
 43
9.999389648437498
 50
180.0
  0
INSERT
  5
6B2E
330
6B27
100
AcDbEntity
  8
Dim
 62
     0
370
    -2
100
AcDbBlockReference
  2
_DOT
 10
753.0629982215828
 20
779.0779936632216
 30
0.0
 41
9.999389648437498
 42
9.999389648437498
 43
9.999389648437498
  0
MTEXT
  5
6B2F
330
6B27
100
AcDbEntity
  8
Dim
 62
     0
100
AcDbMText
 10
593.0629982215828
 20
801.2943022569716
 30
0.0
 40
24.4326171875
 41
0.0
 46
0.0
 71
     5
 72
     1
  1
\A1;320
  7
ＭＳ ゴシック
 73
     1
 44
1.0
  0
POINT
  5
6B30
330
6B27
100
AcDbEntity
  8
Defpoints
 62
     0
100
AcDbPoint
 10
433.0629982215828
 20
868.9247667017521
 30
0.0
  0
POINT
  5
6B31
330
6B27
100
AcDbEntity
  8
Defpoints
 62
     0
100
AcDbPoint
 10
753.0629982215828
 20
868.9247667017521
 30
0.0
  0
POINT
  5
6B32
330
6B27
100
AcDbEntity
  8
Defpoints
 62
     0
100
AcDbPoint
 10
753.0629982215828
 20
779.0779936632216
 30
0.0
  0
ENDBLK
  5
6B29
330
6B27
100
AcDbEntity
  8
0
100
AcDbBlockEnd
  0
ENDSEC
  0
SECTION
  2
ENTITIES
  0
MTEXT
  5
177
330
A
100
AcDbEntity
  8
template
390
1D
100
AcDbMText
 10
82.00000000048226
 20
348.023957835319
 30
0.0
 40
16.28841145833333
 41
0.0
 46
0.0
 71
     1
 72
     1
  1
品名
  7
ＭＳ ゴシック
 73
     1
 44
0.7828267384257843
  0
MTEXT
  5
178
330
A
100
AcDbEntity
  8
template
390
1D
100
AcDbMText
 10
82.00000000048226
 20
263.0239578353188
 30
0.0
 40
16.28841145833333
 41
0.0
 46
0.0
 71
     1
 72
     1
  1
仕様
  7
ＭＳ ゴシック
 73
     1
 44
0.7828267384257843
  0
LINE
  5
179
330
A
100
AcDbEntity
  8
template
390
1D
100
AcDbLine
 10
2025.0
 20
271.4388797103189
 30
0.0
 11
75.00000000000023
 21
271.4388797103189
 31
0.0
  0
LWPOLYLINE
  5
17A
330
A
100
AcDbEntity
  8
template
390
1D
100
AcDbPolyline
 90
        5
 70
   128
 43
0.0
 10
2025.0
 20
2901.438879710319
 10
75.00000000000023
 20
2901.438879710319
 10
75.00000000000023
 20
101.4388797103188
 10
2025.0
 20
101.4388797103188
 10
2025.0
 20
2901.438879710319
  0
LINE
  5
17B
330
A
100
AcDbEntity
  8
template
390
1D
100
AcDbLine
 10
2025.0
 20
356.4388797103188
 30
0.0
 11
75.00000000000023
 21
356.4388797103188
 31
0.0
  0
LINE
  5
17C
330
A
100
AcDbEntity
  8
template
390
1D
100
AcDbLine
 10
2025.000000000482
 20
186.4388797103189
 30
0.0
 11
1272.000000000482
 21
186.4388797103189
 31
0.0
  0
MTEXT
  5
17E
330
A
100
AcDbEntity
  8
template
390
1D
100
AcDbMText
 10
1301.871406252743
 20
156.5284852370108
 30
0.0
 40
24.4326171875
 41
0.0
 46
0.0
 71
     1
 72
     1
  1
大洋金物株式会社 ティーフォルム事業部
  7
ＭＳ ゴシック
 73
     1
 44
0.7828267384257843
  0
MTEXT
  5
180
330
A
100
AcDbEntity
  8
template
390
1D
100
AcDbMText
 10
1834.000000000742
 20
234.4414968978188
 30
0.0
 40
24.4326171875
 41
0.0
 46
0.0
 71
     1
 72
     1
  1
1:10
  7
ＭＳ ゴシック
 73
     1
 44
0.7828267384257843
  0
MTEXT
  5
181
330
A
100
AcDbEntity
  8
template
390
1D
100
AcDbMText
 10
1781.000000000742
 20
263.0239578353188
 30
0.0
 40
16.28841145833333
 41
0.0
 46
0.0
 71
     1
 72
     1
  1
縮尺
  7
ＭＳ ゴシック
 73
     1
 44
0.7828267384257843
  0
LINE
  5
182
330
A
100
AcDbEntity
  8
template
390
1D
100
AcDbLine
 10
1774.000000000742
 20
186.4388797103189
 30
0.0
 11
1774.000000000742
 21
271.4388797103189
 31
0.0
  0
MTEXT
  5
183
330
A
100
AcDbEntity
  8
template
390
1D
100
AcDbMText
 10
1530.000000000742
 20
263.0239578353188
 30
0.0
 40
16.28841145833333
 41
0.0
 46
0.0
 71
     1
 72
     1
  1
容量
  7
ＭＳ ゴシック
 73
     1
 44
0.7828267384257843
  0
LINE
  5
184
330
A
100
AcDbEntity
  8
template
390
1D
100
AcDbLine
 10
1523.000000000742
 20
186.4388797103189
 30
0.0
 11
1523.000000000742
 21
271.4388797103189
 31
0.0
  0
MTEXT
  5
185
330
A
100
AcDbEntity
  8
template
390
1D
100
AcDbMText
 10
1279.000000000742
 20
348.023957835319
 30
0.0
 40
16.28841145833333
 41
0.0
 46
0.0
 71
     1
 72
     1
  1
品番
  7
ＭＳ ゴシック
 73
     1
 44
0.7828267384257843
  0
MTEXT
  5
186
330
A
100
AcDbEntity
  8
template
390
1D
100
AcDbMText
 10
1279.000000000742
 20
263.0239578353188
 30
0.0
 40
16.28841145833333
 41
0.0
 46
0.0
 71
     1
 72
     1
  1
重量
  7
ＭＳ ゴシック
 73
     1
 44
0.7828267384257843
  0
MTEXT
  5
187
330
A
100
AcDbEntity
  8
template
390
1D
100
AcDbMText
 10
1332.000000000742
 20
319.4414968978188
 30
0.0
 40
24.4326171875
 41
0.0
 46
24.4326171875
 71
     1
 72
     1
  1
{ADF70-2622}
  7
ＭＳ ゴシック
 73
     1
 44
0.7828267384257843
1001
ACAD
1000
ACAD_MTEXT_DEFINED_HEIGHT_BEGIN
1070
    46
1040
24.4326171875
1000
ACAD_MTEXT_DEFINED_HEIGHT_END
  0
LINE
  5
188
330
A
100
AcDbEntity
  8
template
390
1D
100
AcDbLine
 10
1272.000000000742
 20
101.4388797103188
 30
0.0
 11
1272.000000000742
 21
356.4388797103188
 31
0.0
  0
MTEXT
  5
189
330
A
100
AcDbEntity
  8
template
390
1D
100
AcDbMText
 10
135.0000000004822
 20
319.4414968978188
 30
0.0
 40
24.4326171875
 41
0.0
 46
27.5355595703125
 71
     1
 72
     1
  1
{洗面器 -CATALANO, Green-}
  7
ＭＳ ゴシック
 73
     1
 44
0.7828267384257843
1001
ACAD
1000
ACAD_MTEXT_DEFINED_HEIGHT_BEGIN
1070
    46
1040
27.5355595703125
1000
ACAD_MTEXT_DEFINED_HEIGHT_END
  0
MTEXT
  5
18A
330
A
100
AcDbEntity
  8
template
 62
     1
390
1D
100
AcDbMText
 10
135.0000000004822
 20
234.4414968978188
 30
0.0
 40
24.4326171875
 41
0.0
 46
68.396517578125
 71
     1
 72
     1
  1
{{\C256;カウンター置き、半埋め込み/オーバーフロー無し/\P陶器/ホワイト}}
  7
ＭＳ ゴシック
 73
     1
 44
0.9822934569727008
1001
ACAD
1000
ACAD_MTEXT_DEFINED_HEIGHT_BEGIN
1070
    46
1040
68.396517578125
1000
ACAD_MTEXT_DEFINED_HEIGHT_END
  0
INSERT
  5
3D0
330
A
100
AcDbEntity
  8
template
100
AcDbBlockReference
  2
名称未設定-1
 10
1873.559250554905
 20
30.23897196054438
 30
0.0
 41
0.7619999999999999
 42
0.7619999999999999
 43
0.7619999999999999
  0
MTEXT
  5
BDB
102
{ACAD_XDICTIONARY
360
BDC
102
}
330
A
100
AcDbEntity
  8
template
  6
Continuous
100
AcDbMText
 10
78.95663872901252
 20
86.10730750352229
 30
0.0
 40
23.0
 41
0.0
 46
23.0
 71
     1
 72
     1
  1
{20190405N}
  7
ＭＳ ゴシック
 73
     1
 44
1.0
1001
ACAD
1000
ACAD_MTEXT_DEFINED_HEIGHT_BEGIN
1070
    46
1040
23.0
1000
ACAD_MTEXT_DEFINED_HEIGHT_END
  0
LWPOLYLINE
  5
BEE
330
A
100
AcDbEntity
  8
PRINT BORDER
100
AcDbPolyline
 90
        4
 70
     1
 43
0.0
 10
0.0
 20
0.0
 10
0.0
 20
2970.0
 10
2100.0
 20
2970.0
 10
2100.0
 20
0.0
  0
INSERT
  5
1273
330
A
100
AcDbEntity
  8
0
 62
     7
100
AcDbBlockReference
  2
BLOCK_2
 10
591.2037060744204
 20
943.564364962162
 30
0.0
  0
INSERT
  5
127B
330
A
100
AcDbEntity
  8
0
 62
     7
100
AcDbBlockReference
  2
BLOCK_2
 10
1291.863324028138
 20
1038.76992320659
 30
0.0
  0
INSERT
  5
127C
330
A
100
AcDbEntity
  8
0
 62
     7
100
AcDbBlockReference
  2
BLOCK_2
 10
652.1648429406905
 20
1595.641631888467
 30
0.0
  0
INSERT
  5
3B99
330
A
100
AcDbEntity
  8
retino
100
AcDbBlockReference
  2
mobile_latù
 10
-92101.31485198285
 20
1730.415535296608
 30
0.0
  0
INSERT
  5
467E
330
A
100
AcDbEntity
  8
retino
100
AcDbBlockReference
  2
mobile_latù
 10
-100894.893236163
 20
1696.039721945452
 30
0.0
  0
INSERT
  5
527B
330
A
100
AcDbEntity
  8
retino
100
AcDbBlockReference
  2
mobile_latù
 10
-89900.42748460227
 20
2057.97116653715
 30
0.0
  0
INSERT
  5
527C
330
A
100
AcDbEntity
  8
0
100
AcDbBlockReference
  2
.TD_SECTION_1
 10
225818104807.5758
 20
2467.422636311911
 30
0.0
  0
INSERT
  5
527D
330
A
100
AcDbEntity
  8
0
100
AcDbBlockReference
  2
.TD_SECTION_2
 10
225818170343.5758
 20
2467.422636311911
 30
0.0
  0
INSERT
  5
527E
330
A
100
AcDbEntity
  8
0
  6
Continuous
 62
     0
370
     0
100
AcDbBlockReference
  2
.TD_SECTION_1
 10
-8769.816836312122
 20
2681.893749185237
 30
0.0
  0
INSERT
  5
527F
330
A
100
AcDbEntity
  8
0
  6
Continuous
 62
     0
370
     0
100
AcDbBlockReference
  2
.TD_SECTION_2
 10
-9327.194994881458
 20
2989.447269387873
 30
0.0
  0
INSERT
  5
5280
330
A
100
AcDbEntity
  8
0
  6
Continuous
 62
     0
370
     0
100
AcDbBlockReference
  2
.TD_SECTION_1
 10
-11193.31175928566
 20
763.8992218647024
 30
0.0
  0
INSERT
  5
5281
330
A
100
AcDbEntity
  8
0
  6
Continuous
 62
     0
370
     0
100
AcDbBlockReference
  2
.TD_SECTION_2
 10
-10905.35097055885
 20
465.7910675678274
 30
0.0
  0
INSERT
  5
5282
330
A
100
AcDbEntity
  8
0
  6
Continuous
 62
     0
370
     0
100
AcDbBlockReference
  2
.TD_SECTION_1
 10
-11064.96092844183
 20
698.0103962023752
 30
0.0
  0
INSERT
  5
5283
330
A
100
AcDbEntity
  8
0
  6
Continuous
 62
     0
370
     0
100
AcDbBlockReference
  2
.TD_SECTION_2
 10
-10776.90956354314
 20
399.8117572863596
 30
0.0
  0
INSERT
  5
5284
330
A
100
AcDbEntity
  8
0
  6
Continuous
 62
     0
370
     0
100
AcDbBlockReference
  2
.TD_SECTION_1
 10
-1462.487522281953
 20
1958.724372419401
 30
0.0
  0
INSERT
  5
5285
330
A
100
AcDbEntity
  8
0
  6
Continuous
 62
     0
370
     0
100
AcDbBlockReference
  2
.TD_SECTION_2
 10
-1135.18037048752
 20
1672.677238019987
 30
0.0
  0
INSERT
  5
5286
330
A
100
AcDbEntity
  8
0
  6
Continuous
 62
     0
370
     0
100
AcDbBlockReference
  2
.TD_SECTION_1
 10
704.608903935718
 20
-713.9911611042783
 30
0.0
  0
INSERT
  5
5287
330
A
100
AcDbEntity
  8
0
  6
Continuous
 62
     0
370
     0
100
AcDbBlockReference
  2
.TD_SECTION_2
 10
1319.461252263355
 20
-1311.565746065216
 30
0.0
  0
LINE
  5
6831
330
A
100
AcDbEntity
  8
HIDDEN
 48
0.5
100
AcDbLine
 10
556.7168061267789
 20
913.3662787718522
 30
0.0
 11
593.6668093570502
 21
913.3662820021245
 31
0.0
  0
LINE
  5
6832
330
A
100
AcDbEntity
  8
HIDDEN
 48
0.5
100
AcDbLine
 10
593.6668093570502
 20
913.3662820021245
 30
0.0
 11
630.6168061267786
 21
913.366285232396
 31
0.0
  0
LINE
  5
6833
330
A
100
AcDbEntity
  8
HIDDEN
 48
0.5
100
AcDbLine
 10
615.7593915309812
 20
900.8994319114149
 30
0.0
 11
571.5742229023494
 21
900.8994280486245
 31
0.0
  0
ARC
  5
6834
330
A
100
AcDbEntity
  8
MODEL
100
AcDbCircle
 10
801.1665808982912
 20
1025.366039031692
 30
0.0
 40
2.500001711244944
100
AcDbArc
 50
356.6580064812883
 51
89.99996343291645
  0
ARC
  5
6835
330
A
100
AcDbEntity
  8
MODEL
100
AcDbCircle
 10
386.1665845264729
 20
1025.366002751236
 30
0.0
 40
2.500001711246146
100
AcDbArc
 50
90.0000465850766
 51
183.3420035366322
  0
LWPOLYLINE
  5
6836
330
A
100
AcDbEntity
  8
MODEL
100
AcDbPolyline
 90
       98
 70
     0
 43
0.0
 10
801.1665824938232
 20
1027.865976826342
 10
801.1595329332763
 20
1027.865976826342
 10
801.1384452867919
 20
1027.865976826342
 10
801.1031974840575
 20
1027.865976826342
 10
801.0538200426513
 20
1027.865976826342
 10
800.9901908922607
 20
1027.865976826342
 10
800.9122489977294
 20
1027.865976826342
 10
800.8198417711669
 20
1027.865976826342
 10
800.7128166246825
 20
1027.865976826342
 10
800.5910209703857
 20
1027.865976826342
 10
800.4542106676513
 20
1027.865976826342
 10
800.3020805406982
 20
1027.865976826342
 10
800.1343559313232
 20
1027.865976826342
 10
799.9506706285888
 20
1027.865976826342
 10
799.7505973864013
 20
1027.865976826342
 10
799.5336784410888
 20
1027.865976826342
 10
799.299364476245
 20
1027.865976826342
 10
799.0470451403075
 20
1027.865976826342
 10
798.7759880114013
 20
1027.865976826342
 10
798.4854911852294
 20
1027.865976826342
 10
798.1746696520263
 20
1027.865976826342
 10
797.8425163317138
 20
1027.865976826342
 10
797.4879631090575
 20
1027.865976826342
 10
797.1096977281982
 20
1027.865976826342
 10
796.7063163805419
 20
1027.865976826342
 10
796.2761100817138
 20
1027.865976826342
 10
795.8172782946044
 20
1027.865976826342
 10
795.327684788745
 20
1027.865976826342
 10
794.80497971062
 20
1027.865976826342
 10
794.2465385485107
 20
1027.865976826342
 10
793.6493705797607
 20
1027.865976826342
 10
793.01005783562
 20
1027.865976826342
 10
792.324755101245
 20
1027.865976826342
 10
791.5890983629638
 20
1027.865976826342
 10
790.7980522203857
 20
1027.865976826342
 10
789.9460624742919
 20
1027.865976826342
 10
789.0268119860107
 20
1027.865976826342
 10
788.0332817125732
 20
1027.865976826342
 10
786.9576591539794
 20
1027.865976826342
 10
785.7912773180419
 20
1027.865976826342
 10
784.5247367906982
 20
1027.865976826342
 10
783.1479057360107
 20
1027.865976826342
 10
781.6502555895263
 20
1027.865976826342
 10
780.0211967516357
 20
1027.865976826342
 10
778.2507499742919
 20
1027.865976826342
 10
776.32988205437
 20
1027.865976826342
 10
774.2517265367919
 20
1027.865976826342
 10
772.0122856188232
 20
1027.865976826342
 10
769.6108268785888
 20
1027.865976826342
 10
767.0504325914794
 20
1027.865976826342
 10
764.3382133531982
 20
1027.865976826342
 10
761.484423069995
 20
1027.865976826342
 10
758.5017875719482
 20
1027.865976826342
 10
755.4043754625732
 20
1027.865976826342
 10
752.2066825914794
 20
1027.865976826342
 10
748.9226249742919
 20
1027.865976826342
 10
745.5649589586669
 20
1027.865976826342
 10
742.1451591539794
 20
1027.865976826342
 10
738.6732048082763
 20
1027.865976826342
 10
735.1574882555419
 20
1027.865976826342
 10
731.6050590563232
 20
1027.865976826342
 10
728.0218681383544
 20
1027.865976826342
 10
724.4129203844482
 20
1027.865976826342
 10
720.7824272203857
 20
1027.865976826342
 10
717.1337455797607
 20
1027.865976826342
 10
713.4697135973388
 20
1027.865976826342
 10
709.792528538745
 20
1027.865976826342
 10
706.104051976245
 20
1027.865976826342
 10
702.405809788745
 20
1027.865976826342
 10
698.6991142321044
 20
1027.865976826342
 10
694.9852165270263
 20
1027.865976826342
 10
691.2650016832763
 20
1027.865976826342
 10
687.5393241930419
 20
1027.865976826342
 10
683.808870701831
 20
1027.865976826342
 10
680.0742210436279
 20
1027.865976826342
 10
676.3358787584716
 20
1027.865976826342
 10
672.5943168688232
 20
1027.865976826342
 10
668.849886326831
 20
1027.865976826342
 10
665.1028923082763
 20
1027.865976826342
 10
661.3536399889404
 20
1027.865976826342
 10
657.6023582506591
 20
1027.865976826342
 10
653.8492454576904
 20
1027.865976826342
 10
650.0944999742919
 20
1027.865976826342
 10
646.3383354235107
 20
1027.865976826342
 10
642.5808738756591
 20
1027.865976826342
 10
638.8222831774169
 20
1027.865976826342
 10
635.0626853990966
 20
1027.865976826342
 10
631.3021873522216
 20
1027.865976826342
 10
627.5409263658935
 20
1027.865976826342
 10
623.7789634752685
 20
1027.865976826342
 10
620.0164360094482
 20
1027.865976826342
 10
616.2533897447997
 20
1027.865976826342
 10
612.4899314928466
 20
1027.865976826342
 10
608.726122288745
 20
1027.865976826342
 10
604.9620536852294
 20
1027.865976826342
 10
601.1977714586669
 20
1027.865976826342
 10
597.4333519030029
 20
1027.865976826342
 10
593.6665977526122
 20
1027.865976826342
  0
LINE
  5
6837
330
A
100
AcDbEntity
  8
MODEL
100
AcDbLine
 10
386.166582493825
 20
1027.866004462482
 30
0.0
 11
593.6666006340497
 21
1027.866013532598
 31
0.0
  0
ARC
  5
6838
330
A
100
AcDbEntity
  8
MODEL
100
AcDbCircle
 10
801.1665829176986
 20
1025.36604043854
 30
0.0
 40
2.500000304398142
100
AcDbArc
 50
90.00000971450883
 51
158.0000003032292
  0
ARC
  5
6839
330
A
100
AcDbEntity
  8
MODEL
100
AcDbCircle
 10
386.1665825070618
 20
1025.366004158083
 30
0.0
 40
2.500000304399224
100
AcDbArc
 50
22.0000097147285
 51
90.00000030340644
  0
ARC
  5
683A
330
A
100
AcDbEntity
  8
MODEL
100
AcDbCircle
 10
782.9905567909086
 20
1048.538911001872
 30
0.0
 40
400.0000000012058
100
AcDbArc
 50
183.342045112547
 51
194.2425621186829
  0
ARC
  5
683B
330
A
100
AcDbEntity
  8
MODEL
100
AcDbCircle
 10
404.3426045821784
 20
1048.538877899417
 30
0.0
 40
400.000000001206
100
AcDbArc
 50
345.7574478992469
 51
356.6579649053772
  0
ARC
  5
683D
330
A
100
AcDbEntity
  8
MODEL
100
AcDbCircle
 10
789.1399755157313
 20
950.8660396915375
 30
0.0
 40
2.999999999999986
100
AcDbArc
 50
270.0000050089374
 51
345.75744789903
  0
ARC
  5
683E
330
A
100
AcDbEntity
  8
MODEL
100
AcDbCircle
 10
398.1932029350232
 20
950.8660055138826
 30
0.0
 40
2.999999999999986
100
AcDbArc
 50
194.2425621188952
 51
270.0000050089374
  0
ARC
  5
6843
330
A
100
AcDbEntity
  8
MODEL
100
AcDbCircle
 10
460.5549367201876
 20
889.865967157658
 30
0.0
 40
2.999956191971729
100
AcDbArc
 50
221.810077088528
 51
270.0002709384478
  0
ARC
  5
6844
330
A
100
AcDbEntity
  8
MODEL
100
AcDbCircle
 10
726.7782020181446
 20
889.866148934128
 30
0.0
 40
3.000114694652013
100
AcDbArc
 50
270.0007012055254
 51
318.1885791687398
  0
LINE
  5
684E
330
A
100
AcDbEntity
  8
MODEL
100
AcDbLine
 10
401.6175959655943
 20
947.8660058132523
 30
0.0
 11
398.1932031972906
 21
947.8660055138821
 31
0.0
  0
LINE
  5
684F
330
A
100
AcDbEntity
  8
MODEL
100
AcDbLine
 10
775.0534800281206
 20
947.8660329263694
 30
0.0
 11
401.6175959655943
 21
947.8660058132523
 31
0.0
  0
LINE
  5
6850
330
A
100
AcDbEntity
  8
MODEL
100
AcDbLine
 10
775.0534800281207
 20
947.8660329263698
 30
0.0
 11
785.7155830096967
 21
947.8660393921677
 31
0.0
  0
LINE
  5
6851
330
A
100
AcDbEntity
  8
MODEL
100
AcDbLine
 10
785.7155830096967
 20
947.8660393921677
 30
0.0
 11
789.1399757780005
 21
947.8660396915375
 31
0.0
  0
ARC
  5
685B
330
A
100
AcDbEntity
  8
MODEL
100
AcDbCircle
 10
404.3438411734414
 20
1048.53849854201
 30
0.0
 40
384.1361499167957
100
AcDbArc
 50
335.5631125964497
 51
344.8067814557758
  0
LINE
  5
685D
330
A
100
AcDbEntity
  8
MODEL
100
AcDbLine
 10
660.3023384911653
 20
886.8660230408004
 30
0.0
 11
655.7541647165858
 21
886.8660224142177
 31
0.0
  0
LWPOLYLINE
  5
685E
330
A
100
AcDbEntity
  8
MODEL
100
AcDbPolyline
 90
       69
 70
     0
 43
0.0
 10
719.3641532946044
 20
886.8659768263424
 10
719.36113205437
 20
886.8659768263424
 10
719.3521598864013
 20
886.8659768263424
 10
719.3372673082763
 20
886.8659768263424
 10
719.316454319995
 20
886.8659768263424
 10
719.2897819567138
 20
886.8659768263424
 10
719.2573112535888
 20
886.8659768263424
 10
719.21904221062
 20
886.8659768263424
 10
719.1750358629638
 20
886.8659768263424
 10
719.1253532457763
 20
886.8659768263424
 10
719.0699638414794
 20
886.8659768263424
 10
719.0088981676513
 20
886.8659768263424
 10
718.9421562242919
 20
886.8659768263424
 10
718.8697074938232
 20
886.8659768263424
 10
718.7915824938232
 20
886.8659768263424
 10
718.7077507067138
 20
886.8659768263424
 10
718.6180900621825
 20
886.8659768263424
 10
718.522509007495
 20
886.8659768263424
 10
718.4208244371825
 20
886.8659768263424
 10
718.3129447985107
 20
886.8659768263424
 10
718.19853439812
 20
886.8659768263424
 10
718.0772575426513
 20
886.8659768263424
 10
717.9487480211669
 20
886.8659768263424
 10
717.8126091051513
 20
886.8659768263424
 10
717.6683219957763
 20
886.8659768263424
 10
717.5151542711669
 20
886.8659768263424
 10
717.352098851245
 20
886.8659768263424
 10
717.1781181383544
 20
886.8659768263424
 10
716.9921134996825
 20
886.8659768263424
 10
716.7929557848388
 20
886.8659768263424
 10
716.5788444567138
 20
886.8659768263424
 10
716.3477958727294
 20
886.8659768263424
 10
716.0974296617919
 20
886.8659768263424
 10
715.8250907946044
 20
886.8659768263424
 10
715.5272697496825
 20
886.8659768263424
 10
715.1999382067138
 20
886.8659768263424
 10
714.8386100817138
 20
886.8659768263424
 10
714.4372123766357
 20
886.8659768263424
 10
713.9890922594482
 20
886.8659768263424
 10
713.4860099840575
 20
886.8659768263424
 10
712.9183830309325
 20
886.8659768263424
 10
712.2744316149169
 20
886.8659768263424
 10
711.5411857653075
 20
886.8659768263424
 10
710.7038749742919
 20
886.8659768263424
 10
709.7467826891357
 20
886.8659768263424
 10
708.6544670153075
 20
886.8659768263424
 10
707.414110569995
 20
886.8659768263424
 10
706.0170463610107
 20
886.8659768263424
 10
704.46318283562
 20
886.8659768263424
 10
702.7587760973388
 20
886.8659768263424
 10
700.91972580437
 20
886.8659768263424
 10
698.965380101245
 20
886.8659768263424
 10
696.9176811266357
 20
886.8659768263424
 10
694.7968620348388
 20
886.8659768263424
 10
692.6204704332763
 20
886.8659768263424
 10
690.4023307848388
 20
886.8659768263424
 10
688.1532768297607
 20
886.8659768263424
 10
685.8812583971435
 20
886.8659768263424
 10
683.5922264147216
 20
886.8659768263424
 10
681.2904380846435
 20
886.8659768263424
 10
678.9789146471435
 20
886.8659768263424
 10
676.6601738024169
 20
886.8659768263424
 10
674.3357719469482
 20
886.8659768263424
 10
672.0070671129638
 20
886.8659768263424
 10
669.6749137926513
 20
886.8659768263424
 10
667.3399986315185
 20
886.8659768263424
 10
665.0029319811279
 20
886.8659768263424
 10
662.6641410875732
 20
886.8659768263424
 10
660.3023399401122
 20
886.8659768263424
  0
LINE
  5
685F
330
A
100
AcDbEntity
  8
MODEL
100
AcDbLine
 10
467.969046917417
 20
886.8660116138808
 30
0.0
 11
527.0308718626916
 21
886.8660113898381
 31
0.0
  0
LINE
  5
6860
330
A
100
AcDbEntity
  8
MODEL
100
AcDbLine
 10
527.0308726992739
 20
886.8660113898381
 30
0.0
 11
531.5790473897255
 21
886.8660115584839
 31
0.0
  0
LINE
  5
6861
330
A
100
AcDbEntity
  8
MODEL
100
AcDbLine
 10
652.7559919902565
 20
889.7613234373916
 30
0.0
 11
652.2276524804115
 21
904.8909360544699
 31
0.0
  0
LINE
  5
6865
330
A
100
AcDbEntity
  8
MODEL
100
AcDbLine
 10
534.5772196176663
 20
889.7613133304849
 30
0.0
 11
535.1055555158696
 21
904.8909258153303
 31
0.0
  0
LINE
  5
6866
330
A
100
AcDbEntity
  8
MODEL
100
AcDbLine
 10
435.9963229544851
 20
887.8660088187362
 30
0.0
 11
443.9234914794256
 21
887.8660095117511
 31
0.0
  0
LINE
  5
6867
330
A
100
AcDbEntity
  8
MODEL
100
AcDbLine
 10
458.3188930943656
 20
887.8660056437357
 30
0.0
 11
443.9234914794256
 21
887.8660095117516
 31
0.0
  0
ARC
  5
6868
330
A
100
AcDbEntity
  8
MODEL
100
AcDbCircle
 10
782.9861806766339
 20
1048.537259525479
 30
0.0
 40
384.1327653764149
100
AcDbArc
 50
195.1931690394009
 51
204.4369183977032
  0
LINE
  5
6869
330
A
100
AcDbEntity
  8
MODEL
100
AcDbLine
 10
751.3368665115381
 20
887.8660363866843
 30
0.0
 11
743.4096979865994
 21
887.8660356936689
 31
0.0
  0
ARC
  5
686A
330
A
100
AcDbEntity
  8
MODEL
100
AcDbCircle
 10
751.3368662492708
 20
890.8660363866843
 30
0.0
 40
3.0
100
AcDbArc
 50
270.0000050089374
 51
335.5631373845718
  0
ARC
  5
686B
330
A
100
AcDbEntity
  8
MODEL
100
AcDbCircle
 10
435.9963226922177
 20
890.8660088187362
 30
0.0
 40
3.0
100
AcDbArc
 50
204.4368726333695
 51
270.0000050089374
  0
ARC
  5
686C
330
A
100
AcDbEntity
  8
MODEL
100
AcDbCircle
 10
531.5790471274563
 20
889.8660115584835
 30
0.0
 40
3.0
100
AcDbArc
 50
270.0000050089374
 51
358.0000050087542
  0
ARC
  5
686F
330
A
100
AcDbEntity
  8
MODEL
100
AcDbCircle
 10
655.7541644543185
 20
889.8660224142182
 30
0.0
 40
2.999999999999972
100
AcDbArc
 50
182.0000050091786
 51
270.0000050089374
  0
ARC
  5
6872
330
A
100
AcDbEntity
  8
MODEL
100
AcDbCircle
 10
550.6641183685119
 20
894.8514320523323
 30
0.0
 40
8.000000000000016
100
AcDbArc
 50
10.00000500911933
 51
84.25988081737123
  0
ARC
  5
6873
330
A
100
AcDbEntity
  8
MODEL
100
AcDbCircle
 10
636.6690698761436
 20
894.8514395711245
 30
0.0
 40
7.999999999999987
100
AcDbArc
 50
95.74012920050123
 51
170.0000050087915
  0
ARC
  5
6877
330
A
100
AcDbEntity
  8
HIDDEN
 48
0.5
100
AcDbCircle
 10
636.6803198625898
 20
898.8729873503262
 30
0.0
 40
14.99999999999999
100
AcDbArc
 50
95.81157073755394
 51
130.0000050089446
  0
ARC
  5
6878
330
A
100
AcDbEntity
  8
HIDDEN
 48
0.5
100
AcDbCircle
 10
550.6528676789171
 20
898.8729798295672
 30
0.0
 40
14.99999999999999
100
AcDbArc
 50
50.00000500897642
 51
84.18843928032501
  0
LINE
  5
6879
330
A
100
AcDbEntity
  8
MODEL
100
AcDbLine
 10
729.0143168776672
 20
887.8660293086832
 30
0.0
 11
743.4096979865994
 21
887.8660356936693
 31
0.0
  0
LINE
  5
687D
330
A
100
AcDbEntity
  8
MODEL
100
AcDbLine
 10
571.7665945581671
 20
889.8660206881514
 30
0.0
 11
615.5665945581663
 21
889.8660245172687
 31
0.0
  0
LINE
  5
6881
330
A
100
AcDbEntity
  8
MODEL
100
AcDbLine
 10
460.5549509062844
 20
886.8660109657199
 30
0.0
 11
467.969046917417
 21
886.8660116138808
 31
0.0
  0
LINE
  5
6882
330
A
100
AcDbEntity
  8
MODEL
100
AcDbLine
 10
719.3641427234529
 20
886.8660335915397
 30
0.0
 11
726.7782387345856
 21
886.8660342397006
 31
0.0
  0
LINE
  5
6883
330
A
100
AcDbEntity
  8
MODEL
100
AcDbLine
 10
625.1492956646348
 20
889.8660253550156
 30
0.0
 11
615.5665945581663
 21
889.8660245172691
 31
0.0
  0
LINE
  5
6884
330
A
100
AcDbEntity
  8
MODEL
100
AcDbLine
 10
571.7665945581671
 20
889.8660206881514
 30
0.0
 11
562.1838934516986
 21
889.8660198504049
 31
0.0
  0
ARC
  5
6885
330
A
100
AcDbEntity
  8
MODEL
100
AcDbCircle
 10
562.183895399538
 20
892.8660224843093
 30
0.0
 40
3.000002633905236
100
AcDbArc
 50
190.0000472190651
 51
269.9999627990416
  0
ARC
  5
6886
330
A
100
AcDbEntity
  8
MODEL
100
AcDbCircle
 10
625.1492931922589
 20
892.8660279889173
 30
0.0
 40
3.000002633903074
100
AcDbArc
 50
270.000047219033
 51
349.999962799057
  0
LINE
  5
6887
330
A
100
AcDbEntity
  8
MODEL
100
AcDbLine
 10
559.2294699759373
 20
892.3450750591201
 30
0.0
 11
558.5425802711638
 21
896.2406181624247
 31
0.0
  0
LINE
  5
6888
330
A
100
AcDbEntity
  8
MODEL
100
AcDbLine
 10
628.7906077306002
 20
896.240624303703
 30
0.0
 11
628.1037187069455
 21
892.3450810802988
 31
0.0
  0
LINE
  5
6889
330
A
100
AcDbEntity
  8
HIDDEN
 48
0.5
100
AcDbLine
 10
560.2946808196689
 20
910.363647319266
 30
0.0
 11
570.5266895055724
 21
901.7779741290469
 31
0.0
  0
LINE
  5
688A
330
A
100
AcDbEntity
  8
HIDDEN
 48
0.5
100
AcDbLine
 10
616.8064975280108
 20
901.7779781749564
 30
0.0
 11
627.0385047127461
 21
910.363653154197
 31
0.0
  0
LINE
  5
688B
330
A
100
AcDbEntity
  8
HIDDEN
 48
0.5
100
AcDbLine
 10
571.7665945581671
 20
889.8660206881514
 30
0.0
 11
571.5978699583125
 21
899.5321981126472
 31
0.0
  0
LINE
  5
688C
330
A
100
AcDbEntity
  8
HIDDEN
 48
0.5
100
AcDbLine
 10
615.7353174679324
 20
899.5322019712657
 30
0.0
 11
615.5665945581663
 21
889.8660245172691
 31
0.0
  0
ARC
  5
688D
330
A
100
AcDbEntity
  8
HIDDEN
 48
0.5
100
AcDbCircle
 10
618.7348618075453
 20
899.4798444181688
 30
0.0
 40
3.000001259778624
100
AcDbArc
 50
130.0000159737337
 51
178.9999940440658
  0
ARC
  5
688E
330
A
100
AcDbEntity
  8
HIDDEN
 48
0.5
100
AcDbCircle
 10
568.5983256278528
 20
899.4798400350928
 30
0.0
 40
3.000001259780428
100
AcDbArc
 50
1.000015973718914
 51
49.99999404403167
  0
DIMENSION
  5
68A2
330
A
100
AcDbEntity
  8
Dim
 48
0.5
100
AcDbDimension
  2
*D10
 10
915.3910109569472
 20
886.8661590268422
 30
0.0
 11
915.3910109569472
 21
957.3661625735236
 31
0.0
 70
   160
  1
140
 71
     5
 42
141.0000070933623
 73
     0
 74
     0
 75
     0
  3
tform線あり
100
AcDbAlignedDimension
 13
827.636549655947
 23
1027.866166120205
 33
0.0
 14
773.7191642497471
 24
886.8661590268422
 34
0.0
 50
90.0
100
AcDbRotatedDimension
  0
DIMENSION
  5
68A8
330
A
100
AcDbEntity
  8
Dim
 48
0.5
100
AcDbDimension
  2
*D11
 10
1798.743741581065
 20
1083.320037532711
 30
0.0
 11
1768.433415688477
 21
1105.536346126461
 31
0.0
 70
    32
  1
60
 71
     5
 42
60.62065178517446
 73
     0
 74
     0
 75
     0
  3
tform線あり
100
AcDbAlignedDimension
 13
1738.12308979589
 23
1025.462087672238
 33
0.0
 14
1798.743741581065
 24
1025.906071756068
 34
0.0
 50
-0.000000000000014
100
AcDbRotatedDimension
  0
DIMENSION
  5
68AA
330
A
100
AcDbEntity
  8
Dim
 48
0.5
100
AcDbDimension
  2
*D12
 10
1300.579861883612
 20
1027.865997723955
 30
0.0
 11
1278.363553289862
 21
987.8659944428205
 31
0.0
 70
    32
 71
     5
 42
80.00000656226973
 73
     0
 74
     0
 75
     0
  3
tform線あり
100
AcDbAlignedDimension
 13
1376.706742720549
 23
947.8659911616857
 33
0.0
 14
1376.706742720549
 24
1027.865997723955
 34
0.0
 50
-90.00000000000001
100
AcDbRotatedDimension
  0
DIMENSION
  5
68AB
330
A
100
AcDbEntity
  8
Dim
 48
0.5
100
AcDbDimension
  2
*D13
 10
1300.579861883612
 20
947.8659911616857
 30
0.0
 11
1278.363553289862
 21
917.865992376133
 31
0.0
 70
    32
 71
     5
 42
59.99999757110526
 73
     0
 74
     0
 75
     0
  3
tform線あり
100
AcDbAlignedDimension
 13
1427.556996723705
 23
887.8659935905804
 33
0.0
 14
1376.706742720549
 24
947.8659911616857
 34
0.0
 50
-90.00000000000001
100
AcDbRotatedDimension
  0
ARC
  5
68AE
330
A
100
AcDbEntity
  8
MODEL
100
AcDbCircle
 10
593.6667788394725
 20
1958.194428654608
 30
0.0
 40
36.95000000000001
100
AcDbArc
 50
180.0000000002084
 51
270.0
  0
ARC
  5
68AF
330
A
100
AcDbEntity
  8
MODEL
100
AcDbCircle
 10
593.6667788394725
 20
1958.194428654608
 30
0.0
 40
36.95000000000001
100
AcDbArc
 50
90.00000000041744
 51
180.0000000002084
  0
ARC
  5
68B0
330
A
100
AcDbEntity
  8
MODEL
100
AcDbCircle
 10
593.6667788394725
 20
1958.194428654608
 30
0.0
 40
36.95000000000001
100
AcDbArc
 50
0.0000000006776442
 51
90.00000000041744
  0
ARC
  5
68B1
330
A
100
AcDbEntity
  8
MODEL
100
AcDbCircle
 10
593.6667788394725
 20
1958.194428654608
 30
0.0
 40
36.95000000000001
100
AcDbArc
 50
270.0000000009392
 51
0.0000000006776442
  0
LWPOLYLINE
  5
68B2
330
A
100
AcDbEntity
  8
MODEL
100
AcDbPolyline
 90
       44
 70
     0
 43
0.0
 10
785.9929201968944
 20
2066.032944889959
 10
783.5510867008006
 20
2065.874253483709
 10
780.9511111148631
 20
2065.718491764959
 10
778.1920779117381
 20
2065.566148014959
 10
775.2733767398631
 20
2065.417710514959
 10
772.1951907047069
 20
2065.273179264959
 10
768.9584963687694
 20
2065.133042546209
 10
765.5652773746287
 20
2064.997300358709
 10
762.0185854800975
 20
2064.866440983709
 10
758.3227541812694
 20
2064.740464421209
 10
754.4834292300975
 20
2064.620347233709
 10
750.5076907047069
 20
2064.505601139959
 10
746.4037783511912
 20
2064.396226139959
 10
742.1810305484569
 20
2064.292710514959
 10
737.8496401675975
 20
2064.194565983709
 10
733.420318878535
 20
2064.102280827459
 10
728.9034121402537
 20
2064.014878483709
 10
724.3086550601756
 20
2063.932847233709
 10
719.6448061832225
 20
2063.855698796209
 10
714.9201357730662
 20
2063.783433171209
 10
710.142486847285
 20
2063.715073796209
 10
705.3187868961131
 20
2063.651108952459
 10
700.4552615054881
 20
2063.590562077459
 10
695.5569460758006
 20
2063.533921452459
 10
690.6278078922069
 20
2063.480210514959
 10
685.6706850894725
 20
2063.430405827459
 10
680.6877291568553
 20
2063.383042546209
 10
675.6801607974803
 20
2063.339585514959
 10
670.6490633853709
 20
2063.299546452459
 10
665.59585598791
 20
2063.262437077459
 10
660.52212551916
 20
2063.229722233709
 10
655.4299013980662
 20
2063.199937077459
 10
650.3216555484569
 20
2063.174546452459
 10
645.1999667056834
 20
2063.152085514959
 10
640.0674136050975
 20
2063.133042546209
 10
634.9264529117381
 20
2063.116929264959
 10
629.7790072330272
 20
2063.103745671209
 10
624.6268160709178
 20
2063.092515202459
 10
619.4713290103709
 20
2063.084214421209
 10
614.313385284785
 20
2063.077378483709
 10
609.1537630924022
 20
2063.072007389959
 10
603.9930880435741
 20
2063.068589421209
 10
598.8318179019725
 20
2063.066636296209
 10
593.6667788394725
 20
2063.066148014959
  0
LINE
  5
68B3
330
A
100
AcDbEntity
  8
MODEL
100
AcDbLine
 10
786.8412806081224
 20
2066.194428654608
 30
0.0
 11
593.6667788394707
 21
2066.194428654608
 31
0.0
  0
LWPOLYLINE
  5
68B4
330
A
100
AcDbEntity
  8
MODEL
100
AcDbPolyline
 90
      118
 70
     0
 43
0.0
 10
803.6667788394725
 20
1958.194565983709
 10
803.6619265445506
 20
1961.322983952459
 10
803.6474001773631
 20
1964.451890202459
 10
803.6231387027537
 20
1967.580308171209
 10
803.5891116031444
 20
1970.708726139959
 10
803.5453493961131
 20
1973.837144108709
 10
803.4917605289256
 20
1976.965562077459
 10
803.4283450015819
 20
1980.093491764959
 10
803.3549502261912
 20
1983.220933171209
 10
803.2715151675975
 20
1986.348862858709
 10
803.1779482730662
 20
1989.475815983709
 10
803.0741579898631
 20
1992.602769108709
 10
802.9599917300975
 20
1995.729233952459
 10
802.8352969058787
 20
1998.855698796209
 10
802.6998904117381
 20
2001.981187077459
 10
802.5535586246287
 20
2005.106675358709
 10
802.39614895666
 20
2008.231187077459
 10
802.2273257144725
 20
2011.355210514959
 10
802.0468447574412
 20
2014.478745671209
 10
801.8543398746287
 20
2017.601792546209
 10
801.6495364078319
 20
2020.723374577459
 10
801.432037628535
 20
2023.844468327459
 10
801.2014162906444
 20
2026.964585514959
 10
800.9571535953319
 20
2030.083726139959
 10
800.6987917789256
 20
2033.201890202459
 10
800.4258425601756
 20
2036.318589421209
 10
800.137604034785
 20
2039.433823796209
 10
799.8332827457225
 20
2042.547593327459
 10
799.5121462711131
 20
2045.659898014959
 10
799.1733096011912
 20
2048.770249577459
 10
798.8159792789256
 20
2051.878159733709
 10
798.4390261539256
 20
2054.984116764959
 10
798.0411379703319
 20
2058.087632389959
 10
797.6208498843944
 20
2061.187730046209
 10
797.1767275699412
 20
2064.284898014959
 10
796.7072756656444
 20
2067.378159733709
 10
796.2109072574412
 20
2070.467026921209
 10
795.6854861148631
 20
2073.551011296209
 10
795.1287539371287
 20
2076.630112858709
 10
794.53823880041
 20
2079.702378483709
 10
793.9112246402537
 20
2082.767319889959
 10
793.2447512515819
 20
2085.824448796209
 10
792.5351565250194
 20
2088.871323796209
 10
791.7786867984569
 20
2091.907456608709
 10
790.9714663394725
 20
2094.929917546209
 10
790.1087649234569
 20
2097.937241764959
 10
789.1854861148631
 20
2100.926499577459
 10
788.1963198550975
 20
2103.894761296209
 10
787.1352541812694
 20
2106.838120671209
 10
785.9959719547069
 20
2109.751694889959
 10
784.7719424136912
 20
2112.630601139959
 10
783.4562991031444
 20
2115.468980046209
 10
782.0423281558787
 20
2118.259995671209
 10
780.5239565738475
 20
2120.995347233709
 10
778.8952944644725
 20
2123.666245671209
 10
777.1516726383006
 20
2126.263901921209
 10
775.2905886539256
 20
2128.778550358709
 10
773.3103335269725
 20
2131.199937077459
 10
771.2126772769725
 20
2133.521226139959
 10
769.0010378726756
 20
2135.733628483709
 10
766.6803591617381
 20
2137.831284733709
 10
764.2587283023631
 20
2139.811753483709
 10
761.7446596988475
 20
2141.673569889959
 10
759.1473086246287
 20
2143.417222233709
 10
756.4765322574412
 20
2145.046616764959
 10
753.7416994937694
 20
2146.565171452459
 10
750.9509890445506
 20
2147.979233952459
 10
748.1124880679881
 20
2149.295151921209
 10
745.2335207828319
 20
2150.519761296209
 10
742.3198550113475
 20
2151.659409733709
 10
739.3767702945506
 20
2152.720444889959
 10
736.4087527164256
 20
2153.710190983709
 10
733.4195254215037
 20
2154.633530827459
 10
730.41226223791
 20
2155.496323796209
 10
727.3896181949412
 20
2156.303940983709
 10
724.3537905582225
 20
2157.060288639959
 10
721.3068240054881
 20
2157.770249577459
 10
718.2501833804881
 20
2158.437241764959
 10
715.1850283511912
 20
2159.064194889959
 10
712.1124880679881
 20
2159.654526921209
 10
709.0337221988475
 20
2160.211167546209
 10
705.9495242008006
 20
2160.737046452459
 10
702.8605349429881
 20
2161.233140202459
 10
699.7673037418162
 20
2161.702866764959
 10
696.670318878535
 20
2162.146714421209
 10
693.5700381168162
 20
2162.567124577459
 10
690.4668276675975
 20
2162.965073796209
 10
687.3609774478709
 20
2163.342515202459
 10
684.2527926334178
 20
2163.699937077459
 10
681.1425326236522
 20
2164.038804264959
 10
678.03042630041
 20
2164.360093327459
 10
674.9166262515819
 20
2164.664292546209
 10
671.8012698062694
 20
2164.952866764959
 10
668.6845248111522
 20
2165.225815983709
 10
665.5665438541209
 20
2165.484116764959
 10
662.4474337466991
 20
2165.728257389959
 10
659.32730130041
 20
2165.959214421209
 10
656.2062228091991
 20
2166.176499577459
 10
653.0842745670116
 20
2166.381577702459
 10
649.9615176090037
 20
2166.573960514959
 10
646.8380740054881
 20
2166.754136296209
 10
643.7139742740428
 20
2166.923081608709
 10
640.5892794498241
 20
2167.080796452459
 10
637.4640353091991
 20
2167.227280827459
 10
634.3383028873241
 20
2167.362534733709
 10
631.2121432193553
 20
2167.487046452459
 10
628.0855715640819
 20
2167.601304264959
 10
624.9586336978709
 20
2167.705308171209
 10
621.8313601383006
 20
2167.799058171209
 10
618.7037966617381
 20
2167.882554264959
 10
615.5759737857616
 20
2167.955796452459
 10
612.4479372867381
 20
2168.019273014959
 10
609.3197024234569
 20
2168.072983952459
 10
606.1913302310741
 20
2168.116929264959
 10
603.0628359683787
 20
2168.150620671209
 10
599.9342806705272
 20
2168.175034733709
 10
596.8056948550975
 20
2168.189683171209
 10
593.6667788394725
 20
2168.194565983709
  0
CIRCLE
  5
68B5
330
A
100
AcDbEntity
  8
MODEL
100
AcDbCircle
 10
593.6668093570506
 20
1958.194947453436
 30
0.0
 40
21.90000000000001
  0
LWPOLYLINE
  5
68B6
330
A
100
AcDbEntity
  8
MODEL
100
AcDbPolyline
 90
      118
 70
     0
 43
0.0
 10
383.6668093570506
 20
1958.195054264959
 10
383.6716502078807
 20
1961.323472233709
 10
383.6861918338573
 20
1964.452378483709
 10
383.7104533084666
 20
1967.580796452459
 10
383.744465149287
 20
1970.709214421209
 10
383.7882426151073
 20
1973.837632389959
 10
383.8418162235057
 20
1976.966050358709
 10
383.9052508243358
 20
1980.093980046209
 10
383.9786379703319
 20
1983.221421452459
 10
384.0620692142284
 20
1986.349351139959
 10
384.1556399234569
 20
1989.476304264959
 10
384.2594416507518
 20
1992.603257389959
 10
384.3735964664256
 20
1995.730210514959
 10
384.4982874759471
 20
1998.856187077459
 10
384.6337015994823
 20
2001.981675358709
 10
384.7800219424998
 20
2005.107163639959
 10
384.9374468692577
 20
2008.231675358709
 10
385.1062472232616
 20
2011.355698796209
 10
385.2867434390819
 20
2014.479233952459
 10
385.4792368778026
 20
2017.602280827459
 10
385.6840441592967
 20
2020.723862858709
 10
385.9015391238963
 20
2023.844956608709
 10
386.132175720576
 20
2026.965073796209
 10
386.3764346011912
 20
2030.084214421209
 10
386.634788788203
 20
2033.202378483709
 10
386.907738006953
 20
2036.319077702459
 10
387.1959803470409
 20
2039.434312077459
 10
387.5002940067088
 20
2042.548081608709
 10
387.8214571841991
 20
2045.660386296209
 10
388.1602633365428
 20
2048.770737858709
 10
388.5176203616893
 20
2051.878648014959
 10
388.8945582279002
 20
2054.984605046209
 10
389.2924425967967
 20
2058.088120671209
 10
389.7127306827342
 20
2061.188218327459
 10
390.1568720706737
 20
2064.285386296209
 10
390.6263125308787
 20
2067.378648014959
 10
391.1226733096873
 20
2070.467515202459
 10
391.6480944522655
 20
2073.551987858709
 10
392.2048418887889
 20
2076.630601139959
 10
392.7953608402049
 20
2079.702866764959
 10
393.4223673709666
 20
2082.768296452459
 10
394.0888407596385
 20
2085.824937077459
 10
394.7984316715037
 20
2088.871812077459
 10
395.5549013980662
 20
2091.907944889959
 10
396.3621180423534
 20
2094.930405827459
 10
397.2248118289745
 20
2097.937730046209
 10
398.14810208166
 20
2100.926987858709
 10
399.1372568973338
 20
2103.895249577459
 10
400.1983206638133
 20
2106.838608952459
 10
401.3376257785594
 20
2109.752183171209
 10
402.5616610416209
 20
2112.631089421209
 10
403.8772814639842
 20
2115.469468327459
 10
405.2912524112498
 20
2118.260483952459
 10
406.8096411594188
 20
2120.995835514959
 10
408.4383051761424
 20
2123.666733952459
 10
410.1819270023143
 20
2126.264390202459
 10
412.0429900058543
 20
2128.779038639959
 10
414.0232489475047
 20
2131.200913639959
 10
416.1209042438304
 20
2133.521714421209
 10
418.3325493701732
 20
2135.734116764959
 10
420.6532194980418
 20
2137.831773014959
 10
423.0748465427196
 20
2139.812241764959
 10
425.5889432796275
 20
2141.674058171209
 10
428.1862783798015
 20
2143.417710514959
 10
430.857041991595
 20
2145.047105046209
 10
433.5918926366603
 20
2146.565659733709
 10
436.3825996288097
 20
2147.979722233709
 10
439.2210972675121
 20
2149.296128483709
 10
442.100081718806
 20
2150.520249577459
 10
445.0137408145702
 20
2151.659898014959
 10
447.9568140872752
 20
2152.720933171209
 10
450.9248354800975
 20
2153.710679264959
 10
453.9140513309276
 20
2154.634019108709
 10
456.9213240512645
 20
2155.496812077459
 10
459.9439776309764
 20
2156.304429264959
 10
462.9797861942088
 20
2157.060776921209
 10
466.0267718204295
 20
2157.770737858709
 10
469.0834162601268
 20
2158.437730046209
 10
472.1485712894237
 20
2159.064683171209
 10
475.2210924991405
 20
2159.655015202459
 10
478.2998698123729
 20
2160.211655827459
 10
481.384056366328
 20
2160.737534733709
 10
484.473053253535
 20
2161.233628483709
 10
487.5662920841014
 20
2161.703355046209
 10
490.6632807620799
 20
2162.147202702459
 10
493.7635577091014
 20
2162.567612858709
 10
496.8667681583202
 20
2162.966050358709
 10
499.9726107486522
 20
2163.343003483709
 10
503.0807955631053
 20
2163.700425358709
 10
506.1910479434764
 20
2164.039292546209
 10
509.3031542667186
 20
2164.360581608709
 10
512.4169619449412
 20
2164.664780827459
 10
515.5323107608592
 20
2164.953355046209
 10
518.6490633853709
 20
2165.226304264959
 10
521.7670519717967
 20
2165.484605046209
 10
524.8861544498241
 20
2165.728745671209
 10
528.0062868961131
 20
2165.959702702459
 10
531.1273653873241
 20
2166.176987858709
 10
534.2493212589061
 20
2166.382065983709
 10
537.3720629581248
 20
2166.574448796209
 10
540.4955218204295
 20
2166.755112858709
 10
543.6196215518748
 20
2166.923569889959
 10
546.7443163760936
 20
2167.081284733709
 10
549.8695528873241
 20
2167.227769108709
 10
552.9952776798045
 20
2167.363023014959
 10
556.1214449771678
 20
2167.487534733709
 10
559.2480166324412
 20
2167.601792546209
 10
562.3749544986522
 20
2167.705796452459
 10
565.5022280582225
 20
2167.799546452459
 10
568.629791534785
 20
2167.883042546209
 10
571.7576144107616
 20
2167.956284733709
 10
574.885650909785
 20
2168.019761296209
 10
578.0138857730662
 20
2168.073472233709
 10
581.1422579654491
 20
2168.117417546209
 10
584.2707522281444
 20
2168.151108952459
 10
587.3993075259959
 20
2168.175523014959
 10
590.5278933414256
 20
2168.190171452459
 10
593.6668093570506
 20
2168.195054264959
  0
LWPOLYLINE
  5
68B7
330
A
100
AcDbEntity
  8
MODEL
100
AcDbPolyline
 90
      118
 70
     0
 43
0.0
 10
803.6668093570506
 20
1958.195054264959
 10
803.6619570621287
 20
1961.323472233709
 10
803.6474306949412
 20
1964.452378483709
 10
803.6231692203319
 20
1967.580796452459
 10
803.5891421207225
 20
1970.709214421209
 10
803.5453799136912
 20
1973.837632389959
 10
803.4917910465037
 20
1976.966050358709
 10
803.42837551916
 20
1980.093980046209
 10
803.3549807437694
 20
1983.221421452459
 10
803.2715456851756
 20
1986.349351139959
 10
803.1779787906444
 20
1989.476304264959
 10
803.0741885074412
 20
1992.603257389959
 10
802.9600222476756
 20
1995.730210514959
 10
802.8353274234569
 20
1998.856187077459
 10
802.6999209293162
 20
2001.981675358709
 10
802.5535891422069
 20
2005.107163639959
 10
802.3961794742381
 20
2008.231675358709
 10
802.2273562320506
 20
2011.355698796209
 10
802.0468752750194
 20
2014.479233952459
 10
801.8543703922069
 20
2017.602280827459
 10
801.64956692541
 20
2020.723862858709
 10
801.4320681461131
 20
2023.844956608709
 10
801.2014468082225
 20
2026.965073796209
 10
800.95718411291
 20
2030.084214421209
 10
800.6988222965037
 20
2033.202378483709
 10
800.4258730777537
 20
2036.319077702459
 10
800.1376345523631
 20
2039.434312077459
 10
799.8333132633006
 20
2042.548081608709
 10
799.5121767886912
 20
2045.660386296209
 10
799.1733401187694
 20
2048.770737858709
 10
798.8160097965037
 20
2051.878648014959
 10
798.4390566715037
 20
2054.984605046209
 10
798.04116848791
 20
2058.088120671209
 10
797.6208804019725
 20
2061.188218327459
 10
797.1767580875194
 20
2064.285386296209
 10
796.7073061832225
 20
2067.378648014959
 10
796.2109377750194
 20
2070.467515202459
 10
795.6855166324412
 20
2073.551987858709
 10
795.1287844547069
 20
2076.630601139959
 10
794.5382693179881
 20
2079.702866764959
 10
793.9112551578319
 20
2082.768296452459
 10
793.24478176916
 20
2085.824937077459
 10
792.5351870425975
 20
2088.871812077459
 10
791.778717316035
 20
2091.907944889959
 10
790.9714968570506
 20
2094.930405827459
 10
790.108795441035
 20
2097.937730046209
 10
789.1855166324412
 20
2100.926987858709
 10
788.1963503726756
 20
2103.895249577459
 10
787.1352846988475
 20
2106.838608952459
 10
785.996002472285
 20
2109.752183171209
 10
784.7719729312694
 20
2112.631089421209
 10
783.4563296207225
 20
2115.469468327459
 10
782.0423586734569
 20
2118.260483952459
 10
780.5239870914256
 20
2120.995835514959
 10
778.8953249820506
 20
2123.666733952459
 10
777.1517031558787
 20
2126.264390202459
 10
775.2906191715037
 20
2128.779038639959
 10
773.3103640445506
 20
2131.200913639959
 10
771.2127077945506
 20
2133.521714421209
 10
769.0010683902537
 20
2135.734116764959
 10
766.6803896793162
 20
2137.831773014959
 10
764.2587588199412
 20
2139.812241764959
 10
761.7446902164256
 20
2141.674058171209
 10
759.1473391422069
 20
2143.417710514959
 10
756.4765627750194
 20
2145.047105046209
 10
753.7417300113475
 20
2146.565659733709
 10
750.9510195621287
 20
2147.979722233709
 10
748.1125185855662
 20
2149.296128483709
 10
745.23355130041
 20
2150.520249577459
 10
742.3198855289256
 20
2151.659898014959
 10
739.3768008121287
 20
2152.720933171209
 10
736.4087832340037
 20
2153.710679264959
 10
733.4195559390819
 20
2154.634019108709
 10
730.4122927554881
 20
2155.496812077459
 10
727.3896487125194
 20
2156.304429264959
 10
724.3538210758006
 20
2157.060776921209
 10
721.3068545230662
 20
2157.770737858709
 10
718.2502138980662
 20
2158.437730046209
 10
715.1850588687694
 20
2159.064683171209
 10
712.1125185855662
 20
2159.655015202459
 10
709.0337527164256
 20
2160.211655827459
 10
705.9495547183787
 20
2160.737534733709
 10
702.8605654605662
 20
2161.233628483709
 10
699.7673342593944
 20
2161.703355046209
 10
696.6703493961131
 20
2162.147202702459
 10
693.5700686343944
 20
2162.567612858709
 10
690.4668581851756
 20
2162.966050358709
 10
687.3610079654491
 20
2163.343003483709
 10
684.2528231509959
 20
2163.700425358709
 10
681.1425631412303
 20
2164.039292546209
 10
678.0304568179881
 20
2164.360581608709
 10
674.91665676916
 20
2164.664780827459
 10
671.8013003238475
 20
2164.953355046209
 10
668.6845553287303
 20
2165.226304264959
 10
665.5665743716991
 20
2165.484605046209
 10
662.4474642642772
 20
2165.728745671209
 10
659.3273318179881
 20
2165.959702702459
 10
656.2062533267772
 20
2166.176987858709
 10
653.0843050845897
 20
2166.382065983709
 10
649.9615481265819
 20
2166.574448796209
 10
646.8381045230662
 20
2166.755112858709
 10
643.7140047916209
 20
2166.923569889959
 10
640.5893099674022
 20
2167.081284733709
 10
637.4640658267772
 20
2167.227769108709
 10
634.3383334049022
 20
2167.363023014959
 10
631.2121737369334
 20
2167.487534733709
 10
628.08560208166
 20
2167.601792546209
 10
624.9586642154491
 20
2167.705796452459
 10
621.8313906558787
 20
2167.799546452459
 10
618.7038271793162
 20
2167.883042546209
 10
615.5760043033397
 20
2167.956284733709
 10
612.4479678043162
 20
2168.019761296209
 10
609.319732941035
 20
2168.073472233709
 10
606.1913607486522
 20
2168.117417546209
 10
603.0628664859569
 20
2168.151108952459
 10
599.9343111881053
 20
2168.175523014959
 10
596.8057253726756
 20
2168.190171452459
 10
593.6668093570506
 20
2168.195054264959
  0
LWPOLYLINE
  5
68B8
330
A
100
AcDbEntity
  8
MODEL
100
AcDbPolyline
 90
      118
 70
     0
 43
0.0
 10
383.6668093570506
 20
1958.195054264959
 10
383.6716502078807
 20
1955.066148014959
 10
383.6861918338573
 20
1951.937730046209
 10
383.7104533084666
 20
1948.809312077459
 10
383.744465149287
 20
1945.680405827459
 10
383.7882426151073
 20
1942.552476139959
 10
383.8418162235057
 20
1939.424058171209
 10
383.9052508243358
 20
1936.296128483709
 10
383.9786379703319
 20
1933.168198796209
 10
384.0620692142284
 20
1930.040757389959
 10
384.1556399234569
 20
1926.913315983709
 10
384.2594416507518
 20
1923.786362858709
 10
384.3735964664256
 20
1920.659898014959
 10
384.4982874759471
 20
1917.533921452459
 10
384.6337015994823
 20
1914.407944889959
 10
384.7800219424998
 20
1911.282944889959
 10
384.9374468692577
 20
1908.157944889959
 10
385.1062472232616
 20
1905.033921452459
 10
385.2867434390819
 20
1901.910386296209
 10
385.4792368778026
 20
1898.787827702459
 10
385.6840441592967
 20
1895.665757389959
 10
385.9015391238963
 20
1892.544663639959
 10
386.132175720576
 20
1889.424546452459
 10
386.3764346011912
 20
1886.305405827459
 10
386.634788788203
 20
1883.187730046209
 10
386.907738006953
 20
1880.070542546209
 10
387.1959803470409
 20
1876.955308171209
 10
387.5002940067088
 20
1873.841538639959
 10
387.8214571841991
 20
1870.729233952459
 10
388.1602633365428
 20
1867.619370671209
 10
388.5176203616893
 20
1864.510972233709
 10
388.8945582279002
 20
1861.405015202459
 10
389.2924425967967
 20
1858.301987858709
 10
389.7127306827342
 20
1855.201401921209
 10
390.1568720706737
 20
1852.104722233709
 10
390.6263125308787
 20
1849.011460514959
 10
391.1226733096873
 20
1845.922593327459
 10
391.6480944522655
 20
1842.838120671209
 10
392.2048418887889
 20
1839.759507389959
 10
392.7953608402049
 20
1836.687241764959
 10
393.4223673709666
 20
1833.621812077459
 10
394.0888407596385
 20
1830.565171452459
 10
394.7984316715037
 20
1827.517808171209
 10
395.5549013980662
 20
1824.482163639959
 10
396.3621180423534
 20
1821.459214421209
 10
397.2248118289745
 20
1818.451890202459
 10
398.14810208166
 20
1815.462632389959
 10
399.1372568973338
 20
1812.494858952459
 10
400.1983206638133
 20
1809.551499577459
 10
401.3376257785594
 20
1806.637925358709
 10
402.5616610416209
 20
1803.758530827459
 10
403.8772814639842
 20
1800.920151921209
 10
405.2912524112498
 20
1798.129136296209
 10
406.8096411594188
 20
1795.393784733709
 10
408.4383051761424
 20
1792.722886296209
 10
410.1819270023143
 20
1790.125718327459
 10
412.0429900058543
 20
1787.611069889959
 10
414.0232489475047
 20
1785.189194889959
 10
416.1209042438304
 20
1782.868394108709
 10
418.3325493701732
 20
1780.655991764959
 10
420.6532194980418
 20
1778.558335514959
 10
423.0748465427196
 20
1776.577378483709
 10
425.5889432796275
 20
1774.716050358709
 10
428.1862783798015
 20
1772.971909733709
 10
430.857041991595
 20
1771.343003483709
 10
433.5918926366603
 20
1769.824448796209
 10
436.3825996288097
 20
1768.409898014959
 10
439.2210972675121
 20
1767.093980046209
 10
442.100081718806
 20
1765.869858952459
 10
445.0137408145702
 20
1764.730210514959
 10
447.9568140872752
 20
1763.668687077459
 10
450.9248354800975
 20
1762.679429264959
 10
453.9140513309276
 20
1761.756089421209
 10
456.9213240512645
 20
1760.892808171209
 10
459.9439776309764
 20
1760.085679264959
 10
462.9797861942088
 20
1759.329331608709
 10
466.0267718204295
 20
1758.619370671209
 10
469.0834162601268
 20
1757.952378483709
 10
472.1485712894237
 20
1757.324937077459
 10
475.2210924991405
 20
1756.734605046209
 10
478.2998698123729
 20
1756.177964421209
 10
481.384056366328
 20
1755.652573796209
 10
484.473053253535
 20
1755.155991764959
 10
487.5662920841014
 20
1754.686753483709
 10
490.6632807620799
 20
1754.242417546209
 10
493.7635577091014
 20
1753.822007389959
 10
496.8667681583202
 20
1753.424058171209
 10
499.9726107486522
 20
1753.047105046209
 10
503.0807955631053
 20
1752.689683171209
 10
506.1910479434764
 20
1752.350815983709
 10
509.3031542667186
 20
1752.029526921209
 10
512.4169619449412
 20
1751.724839421209
 10
515.5323107608592
 20
1751.436753483709
 10
518.6490633853709
 20
1751.163804264959
 10
521.7670519717967
 20
1750.905503483709
 10
524.8861544498241
 20
1750.660874577459
 10
528.0062868961131
 20
1750.430405827459
 10
531.1273653873241
 20
1750.212632389959
 10
534.2493212589061
 20
1750.008042546209
 10
537.3720629581248
 20
1749.815659733709
 10
540.4955218204295
 20
1749.634995671209
 10
543.6196215518748
 20
1749.466050358709
 10
546.7443163760936
 20
1749.308823796209
 10
549.8695528873241
 20
1749.162339421209
 10
552.9952776798045
 20
1749.027085514959
 10
556.1214449771678
 20
1748.902085514959
 10
559.2480166324412
 20
1748.787827702459
 10
562.3749544986522
 20
1748.684312077459
 10
565.5022280582225
 20
1748.590562077459
 10
568.629791534785
 20
1748.507065983709
 10
571.7576144107616
 20
1748.433335514959
 10
574.885650909785
 20
1748.369858952459
 10
578.0138857730662
 20
1748.316148014959
 10
581.1422579654491
 20
1748.272690983709
 10
584.2707522281444
 20
1748.238511296209
 10
587.3993075259959
 20
1748.214097233709
 10
590.5278933414256
 20
1748.199937077459
 10
593.6668093570506
 20
1748.195054264959
  0
LWPOLYLINE
  5
68B9
330
A
100
AcDbEntity
  8
MODEL
100
AcDbPolyline
 90
      118
 70
     0
 43
0.0
 10
803.6668093570506
 20
1958.195054264959
 10
803.6619570621287
 20
1955.066148014959
 10
803.6474306949412
 20
1951.937730046209
 10
803.6231692203319
 20
1948.809312077459
 10
803.5891421207225
 20
1945.680405827459
 10
803.5453799136912
 20
1942.552476139959
 10
803.4917910465037
 20
1939.424058171209
 10
803.42837551916
 20
1936.296128483709
 10
803.3549807437694
 20
1933.168198796209
 10
803.2715456851756
 20
1930.040757389959
 10
803.1779787906444
 20
1926.913315983709
 10
803.0741885074412
 20
1923.786362858709
 10
802.9600222476756
 20
1920.659898014959
 10
802.8353274234569
 20
1917.533921452459
 10
802.6999209293162
 20
1914.407944889959
 10
802.5535891422069
 20
1911.282944889959
 10
802.3961794742381
 20
1908.157944889959
 10
802.2273562320506
 20
1905.033921452459
 10
802.0468752750194
 20
1901.910386296209
 10
801.8543703922069
 20
1898.787827702459
 10
801.64956692541
 20
1895.665757389959
 10
801.4320681461131
 20
1892.544663639959
 10
801.2014468082225
 20
1889.424546452459
 10
800.95718411291
 20
1886.305405827459
 10
800.6988222965037
 20
1883.187730046209
 10
800.4258730777537
 20
1880.070542546209
 10
800.1376345523631
 20
1876.955308171209
 10
799.8333132633006
 20
1873.841538639959
 10
799.5121767886912
 20
1870.729233952459
 10
799.1733401187694
 20
1867.619370671209
 10
798.8160097965037
 20
1864.510972233709
 10
798.4390566715037
 20
1861.405015202459
 10
798.04116848791
 20
1858.301987858709
 10
797.6208804019725
 20
1855.201401921209
 10
797.1767580875194
 20
1852.104722233709
 10
796.7073061832225
 20
1849.011460514959
 10
796.2109377750194
 20
1845.922593327459
 10
795.6855166324412
 20
1842.838120671209
 10
795.1287844547069
 20
1839.759507389959
 10
794.5382693179881
 20
1836.687241764959
 10
793.9112551578319
 20
1833.621812077459
 10
793.24478176916
 20
1830.565171452459
 10
792.5351870425975
 20
1827.517808171209
 10
791.778717316035
 20
1824.482163639959
 10
790.9714968570506
 20
1821.459214421209
 10
790.108795441035
 20
1818.451890202459
 10
789.1855166324412
 20
1815.462632389959
 10
788.1963503726756
 20
1812.494858952459
 10
787.1352846988475
 20
1809.551499577459
 10
785.996002472285
 20
1806.637925358709
 10
784.7719729312694
 20
1803.758530827459
 10
783.4563296207225
 20
1800.920151921209
 10
782.0423586734569
 20
1798.129136296209
 10
780.5239870914256
 20
1795.393784733709
 10
778.8953249820506
 20
1792.722886296209
 10
777.1517031558787
 20
1790.125718327459
 10
775.2906191715037
 20
1787.611069889959
 10
773.3103640445506
 20
1785.189194889959
 10
771.2127077945506
 20
1782.868394108709
 10
769.0010683902537
 20
1780.655991764959
 10
766.6803896793162
 20
1778.558335514959
 10
764.2587588199412
 20
1776.577378483709
 10
761.7446902164256
 20
1774.716050358709
 10
759.1473391422069
 20
1772.971909733709
 10
756.4765627750194
 20
1771.343003483709
 10
753.7417300113475
 20
1769.824448796209
 10
750.9510195621287
 20
1768.409898014959
 10
748.1125185855662
 20
1767.093980046209
 10
745.23355130041
 20
1765.869858952459
 10
742.3198855289256
 20
1764.730210514959
 10
739.3768008121287
 20
1763.668687077459
 10
736.4087832340037
 20
1762.679429264959
 10
733.4195559390819
 20
1761.756089421209
 10
730.4122927554881
 20
1760.892808171209
 10
727.3896487125194
 20
1760.085679264959
 10
724.3538210758006
 20
1759.329331608709
 10
721.3068545230662
 20
1758.619370671209
 10
718.2502138980662
 20
1757.952378483709
 10
715.1850588687694
 20
1757.324937077459
 10
712.1125185855662
 20
1756.734605046209
 10
709.0337527164256
 20
1756.177964421209
 10
705.9495547183787
 20
1755.652573796209
 10
702.8605654605662
 20
1755.155991764959
 10
699.7673342593944
 20
1754.686753483709
 10
696.6703493961131
 20
1754.242417546209
 10
693.5700686343944
 20
1753.822007389959
 10
690.4668581851756
 20
1753.424058171209
 10
687.3610079654491
 20
1753.047105046209
 10
684.2528231509959
 20
1752.689683171209
 10
681.1425631412303
 20
1752.350815983709
 10
678.0304568179881
 20
1752.029526921209
 10
674.91665676916
 20
1751.724839421209
 10
671.8013003238475
 20
1751.436753483709
 10
668.6845553287303
 20
1751.163804264959
 10
665.5665743716991
 20
1750.905503483709
 10
662.4474642642772
 20
1750.660874577459
 10
659.3273318179881
 20
1750.430405827459
 10
656.2062533267772
 20
1750.212632389959
 10
653.0843050845897
 20
1750.008042546209
 10
649.9615481265819
 20
1749.815659733709
 10
646.8381045230662
 20
1749.634995671209
 10
643.7140047916209
 20
1749.466050358709
 10
640.5893099674022
 20
1749.308823796209
 10
637.4640658267772
 20
1749.162339421209
 10
634.3383334049022
 20
1749.027085514959
 10
631.2121737369334
 20
1748.902085514959
 10
628.08560208166
 20
1748.787827702459
 10
624.9586642154491
 20
1748.684312077459
 10
621.8313906558787
 20
1748.590562077459
 10
618.7038271793162
 20
1748.507065983709
 10
615.5760043033397
 20
1748.433335514959
 10
612.4479678043162
 20
1748.369858952459
 10
609.319732941035
 20
1748.316148014959
 10
606.1913607486522
 20
1748.272690983709
 10
603.0628664859569
 20
1748.238511296209
 10
599.9343111881053
 20
1748.214097233709
 10
596.8057253726756
 20
1748.199937077459
 10
593.6668093570506
 20
1748.195054264959
  0
LWPOLYLINE
  5
68BA
330
A
100
AcDbEntity
  8
MODEL
100
AcDbPolyline
 90
      113
 70
     0
 43
0.0
 10
798.8498232730626
 20
1958.19456598371
 10
798.8445742496251
 20
1954.94163629621
 10
798.8287661441564
 20
1951.68919488996
 10
798.8023989566564
 20
1948.43626520246
 10
798.7654726871251
 20
1945.18382379621
 10
798.7179263004064
 20
1941.93187067121
 10
798.6596987613439
 20
1938.67991754621
 10
798.5907595523595
 20
1935.42796442121
 10
798.5109560855626
 20
1932.17698785871
 10
798.4202883609532
 20
1928.92601129621
 10
798.3185427554845
 20
1925.67601129621
 10
798.205627716422
 20
1922.42601129621
 10
798.0813906558751
 20
1919.17698785871
 10
797.9456484683751
 20
1915.92894098371
 10
797.7981264957189
 20
1912.68138238996
 10
797.6386721500157
 20
1909.43480035871
 10
797.4669802554845
 20
1906.18968317121
 10
797.2827151187657
 20
1902.94554254621
 10
797.0856020816564
 20
1899.70237848371
 10
796.8752444156407
 20
1896.46067926496
 10
796.6512148746251
 20
1893.22093317121
 10
796.4130251773595
 20
1889.98314020246
 10
796.160217560172
 20
1886.74681207746
 10
795.8922121890782
 20
1883.51292535871
 10
795.6083681949376
 20
1880.28148004621
 10
795.3080141910314
 20
1877.05247613996
 10
794.9903567203282
 20
1873.82640192121
 10
794.6545412906407
 20
1870.60325738996
 10
794.2995608218907
 20
1867.38450738996
 10
793.9243471988439
 20
1864.16917535871
 10
793.5277102359532
 20
1860.95872613996
 10
793.1082766422032
 20
1857.75364801496
 10
792.664612091422
 20
1854.55394098371
 10
792.1950686343907
 20
1851.36106988996
 10
791.6978762515782
 20
1848.17552301496
 10
791.1710513004064
 20
1844.99778863996
 10
790.6123049625157
 20
1841.83030817121
 10
790.0191958316564
 20
1838.67308160871
 10
789.3889162906407
 20
1835.52806207746
 10
788.7184145816564
 20
1832.39671442121
 10
788.0042422183751
 20
1829.28196832746
 10
787.242737091422
 20
1826.18528863996
 10
786.4297793277501
 20
1823.10960504621
 10
785.5609133609532
 20
1820.05833551496
 10
784.6313479312657
 20
1817.03538629621
 10
783.6357424625157
 20
1814.04515192121
 10
782.5685427554845
 20
1811.09251520246
 10
781.4238284000157
 20
1808.18333551496
 10
780.1954348453282
 20
1805.32347223371
 10
778.877258575797
 20
1802.52024957746
 10
777.4633181461095
 20
1799.78196832746
 10
775.9479983218907
 20
1797.11595270246
 10
774.3262942203282
 20
1794.53148004621
 10
772.5941470035314
 20
1792.03538629621
 10
770.7487795718907
 20
1789.63646051496
 10
768.7887881168126
 20
1787.34056207746
 10
766.714416778922
 20
1785.15355035871
 10
764.527649200797
 20
1783.07884332746
 10
762.2322085269689
 20
1781.11888238996
 10
759.8334353336095
 20
1779.27317926496
 10
757.337951935172
 20
1777.54075738996
 10
754.7533266910314
 20
1775.91868707746
 10
752.0876772769689
 20
1774.40306207746
 10
749.349426544547
 20
1772.98851129621
 10
746.5466311343907
 20
1771.67015192121
 10
743.6869814761876
 20
1770.44163629621
 10
740.777649200797
 20
1769.29661676496
 10
737.8250735172032
 20
1768.22923395246
 10
734.8349001773595
 20
1767.23362848371
 10
731.8121340640782
 20
1766.30394098371
 10
728.7611086734532
 20
1765.43480035871
 10
725.685608185172
 20
1764.62181207746
 10
722.588928497672
 20
1763.86009332746
 10
719.4738772281407
 20
1763.14573785871
 10
716.3428652652501
 20
1762.47483942121
 10
713.1979067691564
 20
1761.84446832746
 10
710.0407412418126
 20
1761.25169488996
 10
706.8728945621251
 20
1760.69261285871
 10
703.6955874332189
 20
1760.16575738996
 10
700.5099490054845
 20
1759.66868707746
 10
697.3169253238439
 20
1759.19896051496
 10
694.1174319156407
 20
1758.75511285871
 10
690.9121401675939
 20
1758.33567926496
 10
687.7016909488439
 20
1757.93870660871
 10
684.4866640933751
 20
1757.56370660871
 10
681.2675631412267
 20
1757.20872613996
 10
678.0448000797032
 20
1756.87278863996
 10
674.8187868961095
 20
1756.55491754621
 10
671.5898287662267
 20
1756.25462457746
 10
668.358230865836
 20
1755.97093317121
 10
665.1242678531407
 20
1755.70286676496
 10
661.8881380923985
 20
1755.44993707746
 10
658.6500552066564
 20
1755.21165582746
 10
655.4102023013829
 20
1754.98753473371
 10
652.1687319644689
 20
1754.77708551496
 10
648.9258120425939
 20
1754.57981988996
 10
645.6815798648595
 20
1754.39573785871
 10
642.4361727603673
 20
1754.22386285871
 10
639.1897280582189
 20
1754.06468317121
 10
635.9423220523595
 20
1753.91673395246
 10
632.6940615543126
 20
1753.78099176496
 10
629.4450381168126
 20
1753.65696832746
 10
626.1953585513829
 20
1753.54417535871
 10
622.9450686343907
 20
1753.44212457746
 10
619.6942751773595
 20
1753.35130426496
 10
616.4430239566564
 20
1753.27171442121
 10
613.1913760074376
 20
1753.20286676496
 10
609.9394228824376
 20
1753.14427301496
 10
606.6871950992345
 20
1753.09690973371
 10
603.4347536929845
 20
1753.05980035871
 10
600.1821596988439
 20
1753.03343317121
 10
596.9294588931798
 20
1753.01780817121
 10
593.667785919547
 20
1753.01243707746
  0
LWPOLYLINE
  5
68BB
330
A
100
AcDbEntity
  8
MODEL
100
AcDbPolyline
 90
      113
 70
     0
 43
0.0
 10
388.4857447513341
 20
1958.19456598371
 10
388.4910090335607
 20
1954.94163629621
 10
388.5068095096349
 20
1951.68919488996
 10
388.5331614383458
 20
1948.43626520246
 10
388.5700953372716
 20
1945.18382379621
 10
388.6176493533849
 20
1941.93187067121
 10
388.6758692630528
 20
1938.67991754621
 10
388.7448275455235
 20
1935.42796442121
 10
388.8246043094396
 20
1932.17698785871
 10
388.9152949222325
 20
1928.92601129621
 10
389.0170252689122
 20
1925.67601129621
 10
389.1299288638829
 20
1922.42601129621
 10
389.2541697391271
 20
1919.17698785871
 10
389.3899348148107
 20
1915.92894098371
 10
389.537430084586
 20
1912.68138238996
 10
389.6968996890782
 20
1909.43480035871
 10
389.8686068423985
 20
1906.18968317121
 10
390.0528490909337
 20
1902.94554254621
 10
390.2499583133458
 20
1899.70237848371
 10
390.4603274234532
 20
1896.46067926496
 10
390.6843722232579
 20
1893.22093317121
 10
390.9225466617345
 20
1889.98314020246
 10
391.1753619083165
 20
1886.74681207746
 10
391.4433710941075
 20
1883.51292535871
 10
391.7271998294591
 20
1880.28148004621
 10
392.0275500186681
 20
1877.05247613996
 10
392.3451998599767
 20
1873.82640192121
 10
392.681026733756
 20
1870.60325738996
 10
393.0359995731114
 20
1867.38450738996
 10
393.411209381461
 20
1864.16917535871
 10
393.8078616031407
 20
1860.95872613996
 10
394.2272875674962
 20
1857.75364801496
 10
394.670959747672
 20
1854.55394098371
 10
395.140499390006
 20
1851.36106988996
 10
395.6376917728185
 20
1848.17552301496
 10
396.1645281680821
 20
1844.99778863996
 10
396.7232554324864
 20
1841.83030817121
 10
397.3163645633458
 20
1838.67308160871
 10
397.9466441043614
 20
1835.52806207746
 10
398.6171610721349
 20
1832.39671442121
 10
399.3313143619298
 20
1829.28196832746
 10
400.0928328403234
 20
1826.18528863996
 10
400.9057925113439
 20
1823.10960504621
 10
401.7746470340489
 20
1820.05833551496
 10
402.7042372592687
 20
1817.03538629621
 10
403.6998141177892
 20
1814.04515192121
 10
404.7670176395177
 20
1811.09251520246
 10
405.91175488317
 20
1808.18333551496
 10
407.1401369937657
 20
1805.32347223371
 10
408.4583094485997
 20
1802.52024957746
 10
409.8722517856359
 20
1799.78196832746
 10
411.3875754245519
 20
1797.11595270246
 10
413.0092890628575
 20
1794.53148004621
 10
414.7414267429112
 20
1792.03538629621
 10
416.5867922672032
 20
1789.63646051496
 10
418.5467770465611
 20
1787.34056207746
 10
420.621152199149
 20
1785.15355035871
 10
422.8079235919713
 20
1783.07884332746
 10
425.1033661731481
 20
1781.11888238996
 10
427.5021446117162
 20
1779.27317926496
 10
429.9976308711766
 20
1777.54075738996
 10
432.5822598108052
 20
1775.91868707746
 10
435.2478862174748
 20
1774.40306207746
 10
437.9861591228246
 20
1772.98851129621
 10
440.7889492877721
 20
1771.67015192121
 10
443.6485760577916
 20
1770.44163629621
 10
446.5579140552281
 20
1769.29661676496
 10
449.5105097659825
 20
1768.22923395246
 10
452.5006716617345
 20
1767.23362848371
 10
455.5234377750157
 20
1766.30394098371
 10
458.5744593509435
 20
1765.43480035871
 10
461.6499483951329
 20
1764.62181207746
 10
464.7466318973302
 20
1763.86009332746
 10
467.861690796256
 20
1763.14573785871
 10
470.9927180179357
 20
1762.47483942121
 10
474.1376726993321
 20
1761.84446832746
 10
477.2948153384923
 20
1761.25169488996
 10
480.4626734622716
 20
1760.69261285871
 10
483.6399844058751
 20
1760.16575738996
 10
486.8256380923985
 20
1759.66868707746
 10
490.0186465152501
 20
1759.19896051496
 10
493.218151367545
 20
1758.75511285871
 10
496.4234393008946
 20
1758.33567926496
 10
499.6338808902501
 20
1757.93870660871
 10
502.8489001163243
 20
1757.56370660871
 10
506.0680086978673
 20
1757.20872613996
 10
509.2907717593907
 20
1756.87278863996
 10
512.516792572379
 20
1756.55491754621
 10
515.7457430728673
 20
1756.25462457746
 10
518.9773333438634
 20
1755.97093317121
 10
522.2113039859532
 20
1755.70286676496
 10
525.4474261173009
 20
1755.44993707746
 10
528.6855090030431
 20
1755.21165582746
 10
531.925369537711
 20
1754.98753473371
 10
535.1668398746251
 20
1754.77708551496
 10
538.4097674258946
 20
1754.57981988996
 10
541.6539919742345
 20
1754.39573785871
 10
544.8993914493321
 20
1754.22386285871
 10
548.1458514102696
 20
1754.06468317121
 10
551.393257416129
 20
1753.91673395246
 10
554.6415102847814
 20
1753.78099176496
 10
557.8905260928868
 20
1753.65696832746
 10
561.140213287711
 20
1753.54417535871
 10
564.3905032047032
 20
1753.44212457746
 10
567.6412966617345
 20
1753.35130426496
 10
570.8925478824376
 20
1753.27171442121
 10
574.1441958316564
 20
1753.20286676496
 10
577.3961489566564
 20
1753.14427301496
 10
580.6483767398595
 20
1753.09690973371
 10
583.9008181461095
 20
1753.05980035871
 10
587.1534121402501
 20
1753.03343317121
 10
590.4061129459142
 20
1753.01780817121
 10
593.667785919547
 20
1753.01243707746
  0
LWPOLYLINE
  5
68BC
330
A
100
AcDbEntity
  8
MODEL
100
AcDbPolyline
 90
       33
 70
     0
 43
0.0
 10
798.8498232730626
 20
1958.19456598371
 10
798.8445742496251
 20
1961.44700738996
 10
798.8287661441564
 20
1964.69993707746
 10
798.8023989566564
 20
1967.95237848371
 10
798.7654726871251
 20
1971.20481988996
 10
798.7179263004064
 20
1974.45726129621
 10
798.6596987613439
 20
1977.70921442121
 10
798.5907595523595
 20
1980.96067926496
 10
798.5109560855626
 20
1984.21214410871
 10
798.4202883609532
 20
1987.46263238996
 10
798.3185427554845
 20
1990.71312067121
 10
798.205627716422
 20
1993.96263238996
 10
798.0813906558751
 20
1997.21165582746
 10
797.9456484683751
 20
2000.46019098371
 10
797.7981264957189
 20
2003.70726129621
 10
797.6386721500157
 20
2006.95384332746
 10
797.4669802554845
 20
2010.19944879621
 10
797.2827151187657
 20
2013.44358942121
 10
797.0856020816564
 20
2016.68626520246
 10
796.8752444156407
 20
2019.92796442121
 10
796.6512148746251
 20
2023.16771051496
 10
796.4130251773595
 20
2026.40599176496
 10
796.160217560172
 20
2029.64183160871
 10
795.8922121890782
 20
2032.87620660871
 10
795.6083681949376
 20
2036.10765192121
 10
795.3080141910314
 20
2039.33665582746
 10
794.9903567203282
 20
2042.56273004621
 10
794.6545412906407
 20
2045.78538629621
 10
794.2995608218907
 20
2049.00462457746
 10
793.9243471988439
 20
2052.21946832746
 10
793.5277102359532
 20
2055.42991754621
 10
793.1082766422032
 20
2058.63548395246
 10
792.7393958550192
 20
2061.295444791788
  0
CIRCLE
  5
68BD
330
A
100
AcDbEntity
  8
MODEL
100
AcDbCircle
 10
593.6668093570506
 20
2107.715753268142
 30
0.0
 40
17.5
  0
ARC
  5
68C2
330
A
100
AcDbEntity
  8
MODEL
100
AcDbCircle
 10
786.8412806081224
 20
2060.194428654608
 30
0.0
 40
6.0
100
AcDbArc
 50
5.216883263773567
 51
90.0
  0
LWPOLYLINE
  5
68C3
330
A
100
AcDbEntity
  8
MODEL
100
AcDbPolyline
 90
       44
 70
     0
 43
0.0
 10
401.3406374820506
 20
2066.032944889959
 10
403.7824709781444
 20
2065.874253483709
 10
406.3824465640819
 20
2065.718491764959
 10
409.1414797672069
 20
2065.566148014959
 10
412.0601809390819
 20
2065.417710514959
 10
415.1383669742381
 20
2065.273179264959
 10
418.3750613101756
 20
2065.133042546209
 10
421.7682803043162
 20
2064.997300358709
 10
425.3149721988475
 20
2064.866440983709
 10
429.0108034976756
 20
2064.740464421209
 10
432.8501284488475
 20
2064.620347233709
 10
436.8258669742381
 20
2064.505601139959
 10
440.9297793277537
 20
2064.396226139959
 10
445.1525271304881
 20
2064.292710514959
 10
449.4839175113475
 20
2064.194565983709
 10
453.91323880041
 20
2064.102280827459
 10
458.4301455386912
 20
2064.014878483709
 10
463.0249026187694
 20
2063.932847233709
 10
467.6887514957225
 20
2063.855698796209
 10
472.4134219058787
 20
2063.783433171209
 10
477.19107083166
 20
2063.715073796209
 10
482.0147707828319
 20
2063.651108952459
 10
486.8782961734569
 20
2063.590562077459
 10
491.7766116031444
 20
2063.533921452459
 10
496.7057497867381
 20
2063.480210514959
 10
501.6628725894725
 20
2063.430405827459
 10
506.6458285220897
 20
2063.383042546209
 10
511.6533968814647
 20
2063.339585514959
 10
516.6844942935741
 20
2063.299546452459
 10
521.737701691035
 20
2063.262437077459
 10
526.811432159785
 20
2063.229722233709
 10
531.9036562808787
 20
2063.199937077459
 10
537.0119021304881
 20
2063.174546452459
 10
542.1335909732616
 20
2063.152085514959
 10
547.2661440738475
 20
2063.133042546209
 10
552.4071047672069
 20
2063.116929264959
 10
557.5545504459178
 20
2063.103745671209
 10
562.7067416080272
 20
2063.092515202459
 10
567.8622286685741
 20
2063.084214421209
 10
573.02017239416
 20
2063.077378483709
 10
578.1797945865428
 20
2063.072007389959
 10
583.3404696353709
 20
2063.068589421209
 10
588.5017397769725
 20
2063.066636296209
 10
593.6667788394725
 20
2063.066148014959
  0
LINE
  5
68C4
330
A
100
AcDbEntity
  8
MODEL
100
AcDbLine
 10
400.4922770708226
 20
2066.194428654608
 30
0.0
 11
593.6667788394743
 21
2066.194428654608
 31
0.0
  0
LWPOLYLINE
  5
68C5
330
A
100
AcDbEntity
  8
MODEL
100
AcDbPolyline
 90
       33
 70
     0
 43
0.0
 10
388.4837344058824
 20
1958.19456598371
 10
388.4889834293199
 20
1961.44700738996
 10
388.5047915347886
 20
1964.69993707746
 10
388.5311587222886
 20
1967.95237848371
 10
388.5680849918199
 20
1971.20481988996
 10
388.6156313785386
 20
1974.45726129621
 10
388.6738589176011
 20
1977.70921442121
 10
388.7427981265855
 20
1980.96067926496
 10
388.8226015933824
 20
1984.21214410871
 10
388.9132693179918
 20
1987.46263238996
 10
389.0150149234605
 20
1990.71312067121
 10
389.127929962523
 20
1993.96263238996
 10
389.2521670230699
 20
1997.21165582746
 10
389.3879092105699
 20
2000.46019098371
 10
389.5354311832261
 20
2003.70726129621
 10
389.6948855289293
 20
2006.95384332746
 10
389.8665774234605
 20
2010.19944879621
 10
390.0508425601793
 20
2013.44358942121
 10
390.2479555972886
 20
2016.68626520246
 10
390.4583132633043
 20
2019.92796442121
 10
390.6823428043199
 20
2023.16771051496
 10
390.9205325015855
 20
2026.40599176496
 10
391.173340118773
 20
2029.64183160871
 10
391.4413454898668
 20
2032.87620660871
 10
391.7251894840074
 20
2036.10765192121
 10
392.0255434879136
 20
2039.33665582746
 10
392.3432009586168
 20
2042.56273004621
 10
392.6790163883043
 20
2045.78538629621
 10
393.0339968570543
 20
2049.00462457746
 10
393.4092104801011
 20
2052.21946832746
 10
393.8058474429918
 20
2055.42991754621
 10
394.2252810367418
 20
2058.63548395246
 10
394.5941618239258
 20
2061.295444791788
  0
ARC
  5
68C6
330
A
100
AcDbEntity
  8
MODEL
 48
0.5
100
AcDbCircle
 10
400.4922770708226
 20
2060.194428654608
 30
0.0
 40
6.0
100
AcDbArc
 50
90.0
 51
174.7831167362264
  0
ARC
  5
68C8
330
A
100
AcDbEntity
  8
MODEL
100
AcDbCircle
 10
1381.102286123112
 20
1025.36599828213
 30
0.0
 40
2.500001711248219
100
AcDbArc
 50
90.00003907139944
 51
183.3419960229412
  0
LINE
  5
68C9
330
A
100
AcDbEntity
  8
MODEL
100
AcDbLine
 10
1588.602270321375
 20
1027.865976826342
 30
0.0
 11
1381.102284418299
 21
1027.865999993379
 31
0.0
  0
LINE
  5
68CA
330
A
100
AcDbEntity
  8
MODEL
100
AcDbLine
 10
1588.602270321375
 20
1027.865976826342
 30
0.0
 11
1702.745624132956
 21
1027.865979591532
 31
0.0
  0
ARC
  5
68CB
330
A
100
AcDbEntity
  8
MODEL
100
AcDbCircle
 10
1381.102284103699
 20
1025.365999688975
 30
0.0
 40
2.500000304402622
100
AcDbArc
 50
22.0000022011997
 51
89.99999278971984
  0
ARC
  5
68CC
330
A
100
AcDbEntity
  8
MODEL
100
AcDbCircle
 10
1777.926261426335
 20
1048.538854495591
 30
0.0
 40
400.0000000012373
100
AcDbArc
 50
183.3420375990255
 51
194.2425546051294
  0
ARC
  5
68CE
330
A
100
AcDbEntity
  8
MODEL
100
AcDbCircle
 10
1393.128894762167
 20
950.8659994676784
 30
0.0
 40
2.999999999999986
100
AcDbArc
 50
194.2425546054523
 51
269.9999974954792
  0
ARC
  5
68D1
330
A
100
AcDbEntity
  8
HIDDEN
 48
0.5
100
AcDbCircle
 10
1545.590115553703
 20
898.8716423905373
 30
0.0
 40
15.00000000000001
100
AcDbArc
 50
49.99999749553047
 51
84.21642556711504
  0
LINE
  5
68D2
330
A
100
AcDbEntity
  8
HIDDEN
 48
0.5
100
AcDbLine
 10
1555.231930201275
 20
910.3623086158643
 30
0.0
 11
1565.462374895596
 21
901.7779454840331
 31
0.0
  0
LINE
  5
68D3
330
A
100
AcDbEntity
  8
HIDDEN
 48
0.5
100
AcDbLine
 10
1566.702278386126
 20
889.8659918805445
 30
0.0
 11
1566.53355505384
 21
899.5321693271655
 31
0.0
  0
ARC
  5
68D4
330
A
100
AcDbEntity
  8
HIDDEN
 48
0.5
100
AcDbCircle
 10
1563.534011966081
 20
899.4798122389677
 30
0.0
 40
2.999999999999997
100
AcDbArc
 50
0.9999974954903675
 51
49.99999749537023
  0
LINE
  5
68DB
330
A
100
AcDbEntity
  8
MODEL
100
AcDbLine
 10
1393.128894631032
 20
947.8659994676784
 30
0.0
 11
1396.553287399336
 21
947.8659993179938
 31
0.0
  0
LWPOLYLINE
  5
68DC
330
A
100
AcDbEntity
  8
MODEL
100
AcDbPolyline
 90
       15
 70
     0
 43
0.0
 10
1396.553334222986
 20
947.8659911616835
 10
1396.611439691736
 20
947.8659911616835
 10
1396.784779535486
 20
947.8659911616835
 10
1397.067982660486
 20
947.8659911616835
 10
1397.457631097986
 20
947.8659911616835
 10
1397.950306879236
 20
947.8659911616835
 10
1398.543568597986
 20
947.8659911616835
 10
1399.235951410486
 20
947.8659911616835
 10
1400.029896722986
 20
947.8659911616835
 10
1400.926869379236
 20
947.8659911616835
 10
1401.930775629236
 20
947.8659911616835
 10
1403.047963129236
 20
947.8659911616835
 10
1404.284779535486
 20
947.8659911616835
 10
1766.936852110692
 20
947.8659768011299
 10
1768.500328673192
 20
947.8659768011299
  0
LINE
  5
68DD
330
A
100
AcDbEntity
  8
MODEL
100
AcDbLine
 10
1453.254612496468
 20
887.8659898909247
 30
0.0
 11
1438.94309526202
 21
887.8659974650765
 31
0.0
  0
LINE
  5
68E4
330
A
100
AcDbEntity
  8
MODEL
100
AcDbLine
 10
1588.602267890401
 20
886.865980558674
 30
0.0
 11
1462.904730351971
 21
886.8659964176807
 31
0.0
  0
LINE
  5
68E5
330
A
100
AcDbEntity
  8
MODEL
100
AcDbLine
 10
1588.602267890401
 20
886.865980558674
 30
0.0
 11
1707.774670038334
 21
886.8659824924234
 31
0.0
  0
LINE
  5
68E6
330
A
100
AcDbEntity
  8
MODEL
100
AcDbLine
 10
1438.943095106717
 20
887.8659974650766
 30
0.0
 11
1430.932006520175
 21
887.8659978152521
 31
0.0
  0
ARC
  5
68E7
330
A
100
AcDbEntity
  8
MODEL
100
AcDbCircle
 10
1777.91755984533
 20
1048.535450363429
 30
0.0
 40
384.1281023385701
100
AcDbArc
 50
195.1930798503637
 51
204.4369397848237
  0
ARC
  5
68E9
330
A
100
AcDbEntity
  8
MODEL
100
AcDbCircle
 10
1430.93200665131
 20
890.8659978152521
 30
0.0
 40
2.999999999999965
100
AcDbArc
 50
204.4368651197162
 51
269.999997495375
  0
LINE
  5
68EA
330
A
100
AcDbEntity
  8
HIDDEN
 48
0.5
100
AcDbLine
 10
1566.702278386126
 20
889.8659918805445
 30
0.0
 11
1610.502278386126
 21
889.8659899659851
 31
0.0
  0
LINE
  5
68EC
330
A
100
AcDbEntity
  8
HIDDEN
 48
0.5
100
AcDbLine
 10
1551.651409662368
 20
913.3660795611816
 30
0.0
 11
1588.601408047232
 21
913.3660779460461
 31
0.0
  0
LINE
  5
68ED
330
A
100
AcDbEntity
  8
HIDDEN
 48
0.5
100
AcDbLine
 10
1588.601408047232
 20
913.3660779460461
 30
0.0
 11
1625.551409662368
 21
913.3660763309108
 31
0.0
  0
LINE
  5
68EF
330
A
100
AcDbEntity
  8
HIDDEN
 48
0.5
100
AcDbLine
 10
1610.695053502153
 20
900.8992476440799
 30
0.0
 11
1566.509884873521
 21
900.8992437812888
 31
0.0
  0
ARC
  5
68F0
330
A
100
AcDbEntity
  8
MODEL
100
AcDbCircle
 10
1796.10228249493
 20
1025.365980141907
 30
0.0
 40
2.500001711244604
100
AcDbArc
 50
356.6579989680433
 51
89.99995591966137
  0
LINE
  5
68F1
330
A
100
AcDbEntity
  8
MODEL
100
AcDbLine
 10
1588.602270321375
 20
1027.865976826342
 30
0.0
 11
1702.745624132956
 21
1027.865979591532
 31
0.0
  0
ARC
  5
68F2
330
A
100
AcDbEntity
  8
MODEL
100
AcDbCircle
 10
1399.278309217543
 20
1048.538871046818
 30
0.0
 40
400.000000001236
100
AcDbArc
 50
345.7574403857909
 51
356.6579573920644
  0
ARC
  5
68F7
330
A
100
AcDbEntity
  8
MODEL
100
AcDbCircle
 10
1784.075667342876
 20
950.8659823788512
 30
0.0
 40
2.999999999999986
100
AcDbArc
 50
269.9999974954792
 51
345.7574403855829
  0
LINE
  5
68FD
330
A
100
AcDbEntity
  8
MODEL
100
AcDbLine
 10
1784.075667211742
 20
947.8659823788512
 30
0.0
 11
1780.651274443438
 21
947.8659825285358
 31
0.0
  0
LINE
  5
6908
330
A
100
AcDbEntity
  8
MODEL
100
AcDbLine
 10
1740.42857385263
 20
887.8659813557624
 30
0.0
 11
1743.677994756457
 21
887.8659810843619
 31
0.0
  0
LINE
  5
6909
330
A
100
AcDbEntity
  8
MODEL
100
AcDbLine
 10
1731.827289460598
 20
887.8659817317366
 30
0.0
 11
1740.428576471451
 21
887.8659813557624
 31
0.0
  0
LINE
  5
690A
330
A
100
AcDbEntity
  8
MODEL
100
AcDbLine
 10
1719.794171462899
 20
886.8659822561949
 30
0.0
 11
1712.964990802429
 21
886.8659825547074
 31
0.0
  0
LINE
  5
690B
330
A
100
AcDbEntity
  8
MODEL
100
AcDbLine
 10
1707.935111034852
 20
886.8659825739542
 30
0.0
 11
1712.964999552345
 21
886.8659825547074
 31
0.0
  0
LINE
  5
690D
330
A
100
AcDbEntity
  8
HIDDEN
 48
0.5
100
AcDbLine
 10
1610.671002563458
 20
899.532167397856
 30
0.0
 11
1610.502278386126
 21
889.8659899659851
 31
0.0
  0
ARC
  5
690E
330
A
100
AcDbEntity
  8
HIDDEN
 48
0.5
100
AcDbCircle
 10
1613.670546896202
 20
899.4798094514172
 30
0.0
 40
3.000001259775736
100
AcDbArc
 50
130.0000084602339
 51
178.9999865306162
  0
LWPOLYLINE
  5
6915
330
A
100
AcDbEntity
  8
MODEL
100
AcDbPolyline
 90
        7
 70
     0
 43
0.0
 10
1731.827473627281
 20
887.8659911616833
 10
1729.819661127281
 20
887.8223510249645
 10
1727.816731439781
 20
887.6782470210583
 10
1725.823567377281
 20
887.433068798402
 10
1723.835774408531
 20
887.1480651362926
 10
1721.838704096031
 20
886.9371581538708
 10
1719.794270502281
 20
886.8659911616833
  0
ARC
  5
6916
330
A
100
AcDbEntity
  8
MODEL
100
AcDbCircle
 10
1743.677962726857
 20
890.8660068961235
 30
0.0
 40
3.000025811925581
100
AcDbArc
 50
270.0006115741556
 51
335.5711306610627
  0
LINE
  5
6918
330
A
100
AcDbEntity
  8
MODEL
100
AcDbLine
 10
1780.651274443438
 20
947.8659825285358
 30
0.0
 11
1767.718590391942
 21
947.8659768011299
 31
0.0
  0
LWPOLYLINE
  5
691C
330
A
100
AcDbEntity
  8
MODEL
100
AcDbPolyline
 90
        9
 70
     0
 43
0.0
 10
1746.409504877283
 20
889.6252685054333
 10
1749.641438471033
 20
896.9265685542614
 10
1752.732747064783
 20
904.2888732417614
 10
1755.680500971033
 20
911.709435985902
 10
1758.483723627283
 20
919.1857238276989
 10
1761.140461908533
 20
926.7152343257458
 10
1763.649250971033
 20
934.2953429683239
 10
1766.008625971033
 20
941.9233336909801
 10
1767.718590391942
 20
947.8659768011299
  0
LINE
  5
6922
330
A
100
AcDbEntity
  8
MODEL
100
AcDbLine
 10
1455.490634340842
 20
886.8659967417591
 30
0.0
 11
1462.904730351973
 21
886.8659964176807
 31
0.0
  0
ARC
  5
6927
330
A
100
AcDbEntity
  8
MODEL
100
AcDbCircle
 10
1455.490537120129
 20
889.8656898979712
 30
0.0
 40
2.999693157787408
100
AcDbArc
 50
221.8078694084606
 51
270.0018569687665
  0
LINE
  5
692F
330
A
100
AcDbEntity
  8
MODEL
 48
0.5
100
AcDbLine
 10
1702.745624132956
 20
1027.865979591532
 30
0.0
 11
1720.623089795892
 21
1027.865980024624
 31
0.0
  0
LINE
  5
6930
330
A
100
AcDbEntity
  8
MODEL
 48
0.5
100
AcDbLine
 10
1755.62308979589
 20
1027.865980872519
 30
0.0
 11
1796.102282434367
 21
1027.865981853151
 31
0.0
  0
LINE
  5
6935
330
A
100
AcDbEntity
  8
MODEL
100
AcDbLine
 10
1720.623089795892
 20
1027.865980024624
 30
0.0
 11
1755.623089795892
 21
1027.865980872519
 31
0.0
  0
LINE
  5
6936
330
A
100
AcDbEntity
  8
MODEL
100
AcDbLine
 10
1720.623089795892
 20
1027.865980024624
 30
0.0
 11
1755.623089795892
 21
1027.865978494725
 31
0.0
  0
CIRCLE
  5
6A39
102
{ACAD_REACTORS
330
6A52
102
}
330
A
100
AcDbEntity
  8
HIDDEN
100
AcDbCircle
 10
1423.585105306168
 20
1958.194428654608
 30
0.0
 40
21.90000000000001
  0
CIRCLE
  5
6A3A
330
A
100
AcDbEntity
  8
HIDDEN
100
AcDbCircle
 10
1423.585105306168
 20
2107.715234469314
 30
0.0
 40
17.5
  0
SPLINE
  5
6A3B
330
A
100
AcDbEntity
  8
HIDDEN
100
AcDbSpline
210
0.0
220
0.0
230
1.0
 70
  1064
 71
     3
 72
    21
 73
    17
 74
    15
 42
0.000000001
 43
0.0000000001
 44
0.0
 40
0.0
 40
0.0
 40
0.0
 40
0.0
 40
68.82485864530821
 40
125.1018921342179
 40
171.715086345558
 40
223.8436807137885
 40
283.2004610755913
 40
345.7587070478827
 40
433.3301673120224
 40
492.7249022969893
 40
542.2865798190531
 40
579.4212082380789
 40
623.142949382327
 40
660.6793294417347
 40
695.0922031556969
 40
729.5160999857752
 40
729.5160999857752
 40
729.5160999857752
 40
729.5160999857752
 10
1423.585105306168
 20
2168.19453546613
 30
0.0
 10
1400.570976191879
 20
2167.774044825368
 30
0.0
 10
1358.738545952445
 20
2167.009725423637
 30
0.0
 10
1302.506244139226
 20
2160.496629759773
 30
0.0
 10
1250.029907729352
 20
2146.09130769314
 30
0.0
 10
1222.449965735593
 20
2095.976904557146
 30
0.0
 10
1216.59581530422
 20
2038.445452873887
 30
0.0
 10
1212.527183115143
 20
1968.691184679379
 30
0.0
 10
1214.46297896445
 20
1898.486315948687
 30
0.0
 10
1221.277229783391
 20
1834.06293846624
 30
0.0
 10
1237.121959331909
 20
1784.932621984929
 30
0.0
 10
1276.453711470991
 20
1761.488884158005
 30
0.0
 10
1315.386025592745
 20
1754.484423543641
 30
0.0
 10
1353.740785566073
 20
1750.432617184552
 30
0.0
 10
1389.164381541317
 20
1748.537880417503
 30
0.0
 10
1412.110305909367
 20
1748.308996000658
 30
0.0
 10
1423.585105306168
 20
1748.194535466132
 30
0.0
 11
1423.585105306168
 21
2168.19453546613
 31
0.0
 11
1354.804450398941
 21
2165.72822687238
 31
0.0
 11
1299.001712209244
 21
2158.43721124738
 31
0.0
 11
1255.507239228744
 21
2141.67353937238
 31
0.0
 11
1227.143107778091
 21
2097.937211247381
 31
0.0
 11
1217.114276296158
 21
2039.433793278631
 31
0.0
 11
1213.760112172623
 21
1976.965531559882
 31
0.0
 11
1216.050471669693
 21
1889.424027653632
 31
0.0
 11
1224.007136708755
 21
1830.564652653632
 31
0.0
 11
1243.941544896622
 21
1785.188676091132
 31
0.0
 11
1274.932036763687
 21
1764.729691716132
 31
0.0
 11
1317.484588033218
 21
1754.686234684882
 31
0.0
 11
1354.804450398941
 21
1750.660355778632
 31
0.0
 11
1389.166312581558
 21
1748.787308903632
 31
0.0
 11
1423.585105306168
 21
1748.194535466132
 31
0.0
  0
SPLINE
  5
6A3C
330
A
100
AcDbEntity
  8
HIDDEN
100
AcDbSpline
210
0.0
220
0.0
230
1.0
 70
  1064
 71
     3
 72
    21
 73
    17
 74
    15
 42
0.000000001
 43
0.0000000001
 44
0.0
 40
0.0
 40
0.0
 40
0.0
 40
0.0
 40
68.82485864530707
 40
125.1018921342168
 40
171.7150863455569
 40
223.8436807137874
 40
283.2004610755902
 40
345.7587070478816
 40
433.3301673120213
 40
492.7249022969882
 40
542.286579819052
 40
579.4212082380777
 40
623.1429493823258
 40
660.6793294417336
 40
695.0922031556958
 40
729.5160999857729
 40
729.5160999857729
 40
729.5160999857729
 40
729.5160999857729
 10
1423.585105306168
 20
2168.19453546613
 30
0.0
 10
1446.599234420456
 20
2167.774044825368
 30
0.0
 10
1488.43166465989
 20
2167.009725423637
 30
0.0
 10
1544.66396647311
 20
2160.496629759773
 30
0.0
 10
1597.140302882983
 20
2146.091307693141
 30
0.0
 10
1624.720244876742
 20
2095.976904557146
 30
0.0
 10
1630.574395308116
 20
2038.445452873887
 30
0.0
 10
1634.643027497192
 20
1968.691184679379
 30
0.0
 10
1632.707231647885
 20
1898.486315948687
 30
0.0
 10
1625.892980828944
 20
1834.06293846624
 30
0.0
 10
1610.048251280426
 20
1784.932621984929
 30
0.0
 10
1570.716499141344
 20
1761.488884158005
 30
0.0
 10
1531.78418501959
 20
1754.484423543641
 30
0.0
 10
1493.429425046263
 20
1750.432617184551
 30
0.0
 10
1458.005829071018
 20
1748.537880417503
 30
0.0
 10
1435.059904702969
 20
1748.308996000658
 30
0.0
 10
1423.585105306168
 20
1748.194535466132
 30
0.0
 11
1423.585105306168
 21
2168.19453546613
 31
0.0
 11
1492.365760213394
 21
2165.72822687238
 31
0.0
 11
1548.168498403091
 21
2158.43721124738
 31
0.0
 11
1591.662971383591
 21
2141.67353937238
 31
0.0
 11
1620.027102834244
 21
2097.937211247381
 31
0.0
 11
1630.055934316177
 21
2039.433793278631
 31
0.0
 11
1633.410098439712
 21
1976.965531559882
 31
0.0
 11
1631.119738942642
 21
1889.424027653632
 31
0.0
 11
1623.16307390358
 21
1830.564652653632
 31
0.0
 11
1603.228665715713
 21
1785.188676091132
 31
0.0
 11
1572.238173848648
 21
1764.729691716132
 31
0.0
 11
1529.685622579117
 21
1754.686234684882
 31
0.0
 11
1492.365760213394
 21
1750.660355778632
 31
0.0
 11
1458.003898030777
 21
1748.787308903632
 31
0.0
 11
1423.585105306168
 21
1748.194535466132
 31
0.0
  0
MTEXT
  5
6A3D
330
A
100
AcDbEntity
  8
Dim
390
1D
100
AcDbMText
 10
1285.292338488118
 20
2486.323870315546
 30
34.99521132346015
 40
24.0
 41
0.0
 46
27.413396484375
 71
     1
 72
     1
  1
{カウンター切込寸法}
  7
ＭＳ ゴシック
 73
     1
 44
0.7828267384257843
1001
ACAD
1000
ACAD_MTEXT_DEFINED_HEIGHT_BEGIN
1070
    46
1040
27.413396484375
1000
ACAD_MTEXT_DEFINED_HEIGHT_END
  0
MTEXT
  5
6A3E
330
A
100
AcDbEntity
  8
Dim
390
1D
100
AcDbMText
 10
1110.129020922015
 20
1619.033467272133
 30
34.99521132346015
 40
24.0
 41
1169.771715461011
 46
0.0
 71
     1
 72
     1
  1
※陶器製品には寸法公差があります。\P  洗面器の収め方をご確認の上、必ず現物を合わせて\P  カウンターに切込を行ってください。
  7
ＭＳ ゴシック
 73
     1
 44
1.174240107638677
  0
DIMENSION
  5
6A3F
330
A
100
AcDbEntity
  8
Dim
100
AcDbDimension
  2
*D14
 10
1611.085105306168
 20
2328.589809192446
 30
0.0
 11
1423.585105306168
 21
2328.589809192446
 31
0.0
 70
   160
 71
     5
 42
375.0
 73
     0
 74
     0
 75
     0
  3
tform線あり
100
AcDbAlignedDimension
 13
1236.085105306168
 23
2047.738767316381
 33
0.0
 14
1611.085105306168
 24
2047.738767316381
 34
0.0
100
AcDbRotatedDimension
  0
SPLINE
  5
6A40
102
{ACAD_REACTORS
330
6A43
102
}
330
A
100
AcDbEntity
  8
MODEL
100
AcDbSpline
210
0.0
220
0.0
230
1.0
 70
  1064
 71
     3
 72
    50
 73
    46
 74
    44
 42
0.000000001
 43
0.0000000001
 44
0.0000000001
 12
-0.9998331274651648
 22
-0.01826792881602704
 32
0.0
 13
0.9999502539121679
 23
-0.00997445241560886
 33
0.0
 40
0.0
 40
0.0
 40
0.0
 40
0.0
 40
45.1570562435941
 40
67.22287205538876
 40
88.91626359572226
 40
110.4624250430793
 40
131.8277617509743
 40
141.5002295872295
 40
150.0696193345351
 40
153.9090698665941
 40
157.4711545714297
 40
160.9577832744426
 40
164.656334813835
 40
172.7354589095382
 40
181.6440964526207
 40
191.1443752437447
 40
200.923108028599
 40
210.8157445308993
 40
220.9225499498526
 40
242.0500867952344
 40
286.6545031274304
 40
308.9407138719265
 40
331.2044162237498
 40
353.4810292481747
 40
375.7318420811254
 40
397.9158620703554
 40
419.7426948377071
 40
441.1351263289853
 40
451.7890600115247
 40
462.3102016096802
 40
472.1599965036527
 40
481.0672091600602
 40
488.893596804554
 40
492.4345766295676
 40
495.936618894674
 40
503.6692765337565
 40
512.2689245475243
 40
521.4144105222729
 40
530.8751015026261
 40
540.7545853204393
 40
551.1214063845756
 40
572.9222204605004
 40
594.9277210035226
 40
617.0190967773526
 40
661.7989712538294
 40
661.7989712538294
 40
661.7989712538294
 40
661.7989712538294
 10
1423.996133704528
 20
2145.698290098165
 30
0.0
 10
1408.946293447477
 20
2145.423314801832
 30
0.0
 10
1386.538132734627
 20
2145.020518839473
 30
0.0
 10
1356.937888604131
 20
2143.449192619626
 30
0.0
 10
1335.24402068626
 20
2141.545329165561
 30
0.0
 10
1313.915870853084
 20
2138.531176515778
 30
0.0
 10
1296.687768412914
 20
2135.171836241973
 30
0.0
 10
1284.000305247907
 20
2131.476937694375
 30
0.0
 10
1277.167072309338
 20
2128.679334437646
 30
0.0
 10
1272.496918635335
 20
2126.112890213317
 30
0.0
 10
1269.472354901343
 20
2124.097005657857
 30
0.0
 10
1266.700689999162
 20
2121.818312648804
 30
0.0
 10
1263.077748109328
 20
2118.237356716427
 30
0.0
 10
1258.80545303809
 20
2112.788068380662
 30
0.0
 10
1254.315445469568
 20
2105.162869895271
 30
0.0
 10
1250.444505364737
 20
2096.584392639338
 30
0.0
 10
1247.255119640724
 20
2087.386425770751
 30
0.0
 10
1244.746612374005
 20
2077.773928667956
 30
0.0
 10
1242.154747455652
 20
2064.303169440402
 30
0.0
 10
1239.382027771436
 20
2039.153910344643
 30
0.0
 10
1237.450008928929
 20
2009.874789900685
 30
0.0
 10
1236.24516977478
 20
1980.178575351672
 30
0.0
 10
1235.945331077315
 20
1957.902295548506
 30
0.0
 10
1236.208391380023
 20
1935.637921799
 30
0.0
 10
1237.026644648838
 20
1913.413427862861
 30
0.0
 10
1238.380338030245
 20
1891.36593178635
 30
0.0
 10
1240.237325745299
 20
1869.640656470779
 30
0.0
 10
1242.659468891624
 20
1851.833024061266
 30
0.0
 10
1245.359199589837
 20
1837.899872328219
 30
0.0
 10
1247.728407767565
 20
1827.829338623409
 30
0.0
 10
1250.563235372021
 20
1818.47987463786
 30
0.0
 10
1253.943919131657
 20
1810.270092575812
 30
0.0
 10
1257.342674573933
 20
1804.393094973907
 30
0.0
 10
1260.386433456859
 20
1800.471839457222
 30
0.0
 10
1263.79193783512
 20
1796.903322791002
 30
0.0
 10
1269.006502339937
 20
1792.78492308722
 30
0.0
 10
1276.374085861855
 20
1788.517583362974
 30
0.0
 10
1284.712816000785
 20
1784.907885673324
 30
0.0
 10
1293.767618462158
 20
1782.009252537091
 30
0.0
 10
1303.413803610076
 20
1779.737384983947
 30
0.0
 10
1317.22344665931
 20
1777.319116050111
 30
0.0
 10
1335.139781355384
 20
1775.010752542992
 30
0.0
 10
1357.010169009333
 20
1772.934585572257
 30
0.0
 10
1386.586312254164
 20
1771.112074638254
 30
0.0
 10
1408.883648201216
 20
1770.842301088202
 30
0.0
 10
1423.809530485519
 20
1770.693416179155
 30
0.0
 11
1423.996133704528
 21
2145.698290098165
 31
0.0
 11
1378.8542484714
 21
2144.527851639195
 31
0.0
 11
1356.82179781609
 21
2143.31486130066
 31
0.0
 11
1335.217522150326
 21
2141.350552394229
 31
0.0
 11
1313.883240398026
 21
2138.336336869577
 31
0.0
 11
1292.96416333525
 21
2133.992395400891
 31
0.0
 11
1283.702725500346
 21
2131.202699490294
 31
0.0
 11
1275.80420773605
 21
2127.878867700277
 31
0.0
 11
1272.444953342345
 21
2126.019623147643
 31
0.0
 11
1269.487197901895
 21
2124.034647027154
 31
0.0
 11
1266.790108188631
 21
2121.825057293452
 31
0.0
 11
1264.153261130334
 21
2119.231542095754
 31
0.0
 11
1259.119000779716
 21
2112.912644337761
 31
0.0
 11
1254.55448211385
 21
2105.262220021229
 31
0.0
 11
1250.61380812215
 21
2096.617777552208
 31
0.0
 11
1247.389546051602
 21
2087.385889934932
 31
0.0
 11
1244.868484696811
 21
2077.819882062678
 31
0.0
 11
1242.935820138118
 21
2067.899583504663
 31
0.0
 11
1240.339576397382
 21
2046.932172324652
 31
0.0
 11
1237.211038729561
 21
2002.437608517408
 31
0.0
 11
1236.345508161288
 21
1980.168211440175
 31
0.0
 11
1236.039151818412
 21
1957.906616973431
 31
0.0
 11
1236.301295512908
 21
1935.63154641185
 31
0.0
 11
1237.118427689598
 21
1913.39574269953
 31
0.0
 11
1238.476681860459
 21
1891.253342457237
 31
0.0
 11
1240.43228164002
 21
1869.514293302407
 31
0.0
 11
1243.405921713983
 21
1848.329544311221
 31
0.0
 11
1245.436998041299
 21
1837.871005605237
 31
0.0
 11
1247.890849053952
 21
1827.640021501245
 31
0.0
 11
1250.811475408615
 21
1818.233194132266
 31
0.0
 11
1254.273218967713
 21
1810.026199016055
 31
0.0
 11
1258.26077653946
 21
1803.291829841894
 31
0.0
 11
1260.440301321698
 21
1800.501093407767
 31
0.0
 11
1262.852260963326
 21
1797.962048171118
 31
0.0
 11
1268.874745706954
 21
1793.111927381279
 31
0.0
 11
1276.288460381551
 21
1788.754086094086
 31
0.0
 11
1284.667301693803
 21
1785.088716811405
 31
0.0
 11
1293.666144249841
 21
1782.168869815863
 31
0.0
 11
1303.273501475571
 21
1779.866069858497
 31
0.0
 11
1313.475805319788
 21
1778.026511420693
 31
0.0
 11
1335.084676156934
 21
1775.139957157115
 31
0.0
 11
1356.99147554154
 21
1773.058084233142
 31
0.0
 11
1379.040915392609
 21
1771.697538080062
 31
0.0
 11
1423.809530485519
 21
1770.693416179155
 31
0.0
  0
SPLINE
  5
6A41
102
{ACAD_REACTORS
330
6A43
102
}
330
A
100
AcDbEntity
  8
MODEL
100
AcDbSpline
210
0.0
220
0.0
230
1.0
 70
  1064
 71
     3
 72
    50
 73
    46
 74
    44
 42
0.000000001
 43
0.0000000001
 44
0.0000000001
 12
0.9998331274651648
 22
-0.01826792881602704
 32
0.0
 13
-0.9999502539121679
 23
-0.00997445241560886
 33
0.0
 40
0.0
 40
0.0
 40
0.0
 40
0.0
 40
45.15705624359433
 40
67.22287205538899
 40
88.9162635957234
 40
110.4624250430796
 40
131.8277617509745
 40
141.5002295872308
 40
150.0696193345364
 40
153.9090698665942
 40
157.4711545714307
 40
160.9577832744437
 40
164.656334813836
 40
172.7354589095393
 40
181.6440964526224
 40
191.1443752437459
 40
200.9231080286002
 40
210.8157445309003
 40
220.9225499498535
 40
242.0500867952355
 40
286.6545031274313
 40
308.9407138719275
 40
331.2044162237508
 40
353.4810292481757
 40
375.7318420811264
 40
397.9158620703564
 40
419.7426948377082
 40
441.1351263289864
 40
451.7890600115258
 40
462.3102016096811
 40
472.1599965036538
 40
481.0672091600609
 40
488.8935968045548
 40
492.4345766295691
 40
495.9366188946749
 40
503.6692765337574
 40
512.2689245475259
 40
521.4144105222745
 40
530.8751015026277
 40
540.7545853204398
 40
551.1214063845771
 40
572.922220460501
 40
594.9277210035241
 40
617.0190967773543
 40
661.7989712538299
 40
661.7989712538299
 40
661.7989712538299
 40
661.7989712538299
 10
1423.996133704528
 20
2145.698290098165
 30
0.0
 10
1439.045973961579
 20
2145.423314801832
 30
0.0
 10
1461.454134674429
 20
2145.020518839473
 30
0.0
 10
1491.054378804925
 20
2143.449192619625
 30
0.0
 10
1512.748246722797
 20
2141.545329165561
 30
0.0
 10
1534.076396555973
 20
2138.531176515778
 30
0.0
 10
1551.304498996143
 20
2135.171836241972
 30
0.0
 10
1563.99196216115
 20
2131.476937694376
 30
0.0
 10
1570.825195099719
 20
2128.679334437646
 30
0.0
 10
1575.495348773721
 20
2126.112890213316
 30
0.0
 10
1578.519912507714
 20
2124.097005657858
 30
0.0
 10
1581.291577409895
 20
2121.818312648803
 30
0.0
 10
1584.914519299729
 20
2118.237356716427
 30
0.0
 10
1589.186814370967
 20
2112.788068380662
 30
0.0
 10
1593.67682193949
 20
2105.162869895272
 30
0.0
 10
1597.54776204432
 20
2096.584392639338
 30
0.0
 10
1600.737147768333
 20
2087.386425770751
 30
0.0
 10
1603.245655035051
 20
2077.773928667956
 30
0.0
 10
1605.837519953404
 20
2064.303169440401
 30
0.0
 10
1608.610239637622
 20
2039.153910344643
 30
0.0
 10
1610.542258480126
 20
2009.874789900684
 30
0.0
 10
1611.747097634278
 20
1980.178575351673
 30
0.0
 10
1612.04693633174
 20
1957.902295548506
 30
0.0
 10
1611.783876029035
 20
1935.637921799
 30
0.0
 10
1610.965622760217
 20
1913.413427862862
 30
0.0
 10
1609.611929378813
 20
1891.365931786349
 30
0.0
 10
1607.754941663756
 20
1869.64065647078
 30
0.0
 10
1605.332798517432
 20
1851.833024061266
 30
0.0
 10
1602.633067819218
 20
1837.899872328219
 30
0.0
 10
1600.263859641492
 20
1827.829338623409
 30
0.0
 10
1597.429032037034
 20
1818.479874637861
 30
0.0
 10
1594.048348277401
 20
1810.270092575812
 30
0.0
 10
1590.649592835123
 20
1804.393094973906
 30
0.0
 10
1587.605833952196
 20
1800.471839457223
 30
0.0
 10
1584.200329573937
 20
1796.903322791
 30
0.0
 10
1578.985765069119
 20
1792.78492308722
 30
0.0
 10
1571.618181547201
 20
1788.517583362974
 30
0.0
 10
1563.27945140827
 20
1784.907885673324
 30
0.0
 10
1554.224648946898
 20
1782.009252537091
 30
0.0
 10
1544.57846379898
 20
1779.737384983947
 30
0.0
 10
1530.768820749747
 20
1777.319116050112
 30
0.0
 10
1512.852486053672
 20
1775.010752542991
 30
0.0
 10
1490.982098399724
 20
1772.934585572257
 30
0.0
 10
1461.405955154892
 20
1771.112074638254
 30
0.0
 10
1439.10861920784
 20
1770.842301088202
 30
0.0
 10
1424.182736923538
 20
1770.693416179155
 30
0.0
 11
1423.996133704528
 21
2145.698290098165
 31
0.0
 11
1469.138018937656
 21
2144.527851639195
 31
0.0
 11
1491.170469592966
 21
2143.31486130066
 31
0.0
 11
1512.774745258731
 21
2141.350552394229
 31
0.0
 11
1534.10902701103
 21
2138.336336869577
 31
0.0
 11
1555.028104073806
 21
2133.992395400891
 31
0.0
 11
1564.289541908711
 21
2131.202699490294
 31
0.0
 11
1572.188059673007
 21
2127.878867700277
 31
0.0
 11
1575.547314066711
 21
2126.019623147643
 31
0.0
 11
1578.505069507162
 21
2124.034647027154
 31
0.0
 11
1581.202159220426
 21
2121.825057293452
 31
0.0
 11
1583.839006278723
 21
2119.231542095754
 31
0.0
 11
1588.873266629341
 21
2112.912644337761
 31
0.0
 11
1593.437785295208
 21
2105.262220021229
 31
0.0
 11
1597.378459286907
 21
2096.617777552208
 31
0.0
 11
1600.602721357455
 21
2087.385889934932
 31
0.0
 11
1603.123782712245
 21
2077.819882062678
 31
0.0
 11
1605.056447270938
 21
2067.899583504663
 31
0.0
 11
1607.652691011675
 21
2046.932172324652
 31
0.0
 11
1610.781228679495
 21
2002.437608517408
 31
0.0
 11
1611.646759247769
 21
1980.168211440175
 31
0.0
 11
1611.953115590644
 21
1957.906616973431
 31
0.0
 11
1611.690971896149
 21
1935.63154641185
 31
0.0
 11
1610.873839719458
 21
1913.39574269953
 31
0.0
 11
1609.515585548598
 21
1891.253342457237
 31
0.0
 11
1607.559985769036
 21
1869.514293302407
 31
0.0
 11
1604.586345695073
 21
1848.329544311221
 31
0.0
 11
1602.555269367757
 21
1837.871005605237
 31
0.0
 11
1600.101418355105
 21
1827.640021501245
 31
0.0
 11
1597.180792000441
 21
1818.233194132266
 31
0.0
 11
1593.719048441344
 21
1810.026199016055
 31
0.0
 11
1589.731490869597
 21
1803.291829841894
 31
0.0
 11
1587.551966087358
 21
1800.501093407767
 31
0.0
 11
1585.140006445731
 21
1797.962048171118
 31
0.0
 11
1579.117521702103
 21
1793.111927381279
 31
0.0
 11
1571.703807027505
 21
1788.754086094086
 31
0.0
 11
1563.324965715253
 21
1785.088716811405
 31
0.0
 11
1554.326123159215
 21
1782.168869815863
 31
0.0
 11
1544.718765933486
 21
1779.866069858497
 31
0.0
 11
1534.516462089268
 21
1778.026511420693
 31
0.0
 11
1512.907591252123
 21
1775.139957157115
 31
0.0
 11
1491.000791867516
 21
1773.058084233142
 31
0.0
 11
1468.951352016447
 21
1771.697538080062
 31
0.0
 11
1424.182736923538
 21
1770.693416179155
 31
0.0
  0
DIMENSION
  5
6A42
330
A
100
AcDbEntity
  8
Dim
100
AcDbDimension
  2
*D15
 10
1724.592609665552
 20
1770.698290098165
 30
0.0
 11
1702.376301071802
 21
1958.198290098165
 31
0.0
 70
    32
 71
     5
 42
375.0
 73
     0
 74
     0
 75
     0
  3
tform線あり
100
AcDbAlignedDimension
 13
1465.23480755616
 23
2145.698290098165
 33
0.0
 14
1465.23480755616
 24
1770.698290098165
 34
0.0
 50
90.0
100
AcDbRotatedDimension
  0
HATCH
  5
6A43
330
A
100
AcDbEntity
  8
Dim
100
AcDbHatch
 10
0.0
 20
0.0
 30
0.0
210
0.0
220
0.0
230
1.0
  2
ANSI31
 70
     0
 71
     1
 91
        1
 92
        1
 93
        2
 72
     4
 94
        3
 73
     0
 74
     0
 95
       50
 96
       46
 40
0.0
 40
0.0
 40
0.0
 40
0.0
 40
45.1570562435943
 40
67.22287205538878
 40
88.91626359572206
 40
110.4624250430793
 40
131.8277617509741
 40
141.5002295872296
 40
150.0696193345353
 40
153.9090698665941
 40
157.471154571429
 40
160.9577832744429
 40
164.6563348138349
 40
172.7354589095384
 40
181.6440964526213
 40
191.1443752437447
 40
200.9231080285994
 40
210.8157445308999
 40
220.922549949853
 40
242.0500867952347
 40
286.6545031274308
 40
308.9407138719267
 40
331.20441622375
 40
353.4810292481749
 40
375.7318420811256
 40
397.9158620703557
 40
419.7426948377073
 40
441.1351263289855
 40
451.7890600115252
 40
462.3102016096804
 40
472.1599965036528
 40
481.0672091600604
 40
488.8935968045542
 40
492.4345766295678
 40
495.9366188946744
 40
503.6692765337568
 40
512.2689245475245
 40
521.4144105222731
 40
530.8751015026265
 40
540.7545853204393
 40
551.1214063845763
 40
572.9222204605009
 40
594.9277210035231
 40
617.0190967773533
 40
661.7989712538299
 40
661.7989712538299
 40
661.7989712538299
 40
661.7989712538299
 10
1423.996133704528
 20
2145.698290098165
 10
1408.946293447477
 20
2145.423314801832
 10
1386.538132734627
 20
2145.020518839474
 10
1356.937888604131
 20
2143.449192619626
 10
1335.24402068626
 20
2141.545329165559
 10
1313.915870853083
 20
2138.53117651578
 10
1296.687768412914
 20
2135.171836241971
 10
1284.000305247907
 20
2131.476937694378
 10
1277.167072309338
 20
2128.679334437643
 10
1272.496918635335
 20
2126.112890213318
 10
1269.472354901343
 20
2124.097005657857
 10
1266.700689999162
 20
2121.818312648803
 10
1263.077748109328
 20
2118.237356716427
 10
1258.80545303809
 20
2112.788068380663
 10
1254.315445469568
 20
2105.162869895271
 10
1250.444505364737
 20
2096.584392639338
 10
1247.255119640724
 20
2087.38642577075
 10
1244.746612374004
 20
2077.773928667956
 10
1242.154747455652
 20
2064.3031694404
 10
1239.382027771436
 20
2039.153910344643
 10
1237.450008928928
 20
2009.874789900684
 10
1236.245169774781
 20
1980.178575351672
 10
1235.945331077315
 20
1957.902295548506
 10
1236.208391380023
 20
1935.637921799
 10
1237.026644648839
 20
1913.413427862861
 10
1238.380338030245
 20
1891.36593178635
 10
1240.2373257453
 20
1869.640656470779
 10
1242.659468891623
 20
1851.833024061265
 10
1245.359199589838
 20
1837.899872328219
 10
1247.728407767565
 20
1827.829338623408
 10
1250.563235372021
 20
1818.479874637861
 10
1253.943919131657
 20
1810.270092575811
 10
1257.342674573933
 20
1804.393094973906
 10
1260.386433456859
 20
1800.471839457222
 10
1263.791937835119
 20
1796.903322791001
 10
1269.006502339937
 20
1792.784923087219
 10
1276.374085861856
 20
1788.517583362974
 10
1284.712816000786
 20
1784.907885673323
 10
1293.767618462158
 20
1782.009252537091
 10
1303.413803610076
 20
1779.737384983947
 10
1317.223446659311
 20
1777.319116050111
 10
1335.139781355384
 20
1775.010752542992
 10
1357.010169009333
 20
1772.934585572257
 10
1386.586312254165
 20
1771.112074638254
 10
1408.883648201217
 20
1770.842301088202
 10
1423.809530485519
 20
1770.693416179155
 72
     4
 94
        3
 73
     0
 74
     0
 95
       50
 96
       46
 40
0.0
 40
0.0
 40
0.0
 40
0.0
 40
45.1570562435943
 40
67.22287205538923
 40
88.91626359572341
 40
110.4624250430793
 40
131.827761750975
 40
141.5002295872305
 40
150.0696193345366
 40
153.9090698665942
 40
157.4711545714306
 40
160.9577832744438
 40
164.6563348138362
 40
172.7354589095393
 40
181.6440964526227
 40
191.1443752437459
 40
200.9231080286008
 40
210.8157445309008
 40
220.9225499498541
 40
242.0500867952359
 40
286.654503127432
 40
308.9407138719279
 40
331.2044162237512
 40
353.4810292481761
 40
375.7318420811268
 40
397.9158620703568
 40
419.7426948377087
 40
441.1351263289868
 40
451.7890600115264
 40
462.3102016096814
 40
472.1599965036542
 40
481.0672091600613
 40
488.8935968045552
 40
492.4345766295695
 40
495.9366188946752
 40
503.669276533758
 40
512.2689245475265
 40
521.414410522275
 40
530.875101502628
 40
540.7545853204404
 40
551.1214063845773
 40
572.9222204605014
 40
594.9277210035245
 40
617.0190967773543
 40
661.7989712538304
 40
661.7989712538304
 40
661.7989712538304
 40
661.7989712538304
 10
1423.996133704528
 20
2145.698290098165
 10
1439.045973961579
 20
2145.423314801832
 10
1461.454134674429
 20
2145.020518839474
 10
1491.054378804925
 20
2143.449192619625
 10
1512.748246722797
 20
2141.545329165559
 10
1534.076396555973
 20
2138.53117651578
 10
1551.304498996143
 20
2135.171836241972
 10
1563.99196216115
 20
2131.476937694377
 10
1570.825195099719
 20
2128.679334437646
 10
1575.495348773721
 20
2126.112890213316
 10
1578.519912507714
 20
2124.097005657858
 10
1581.291577409894
 20
2121.818312648803
 10
1584.914519299729
 20
2118.237356716427
 10
1589.186814370967
 20
2112.788068380662
 10
1593.676821939489
 20
2105.162869895272
 10
1597.54776204432
 20
2096.584392639338
 10
1600.737147768334
 20
2087.38642577075
 10
1603.245655035051
 20
2077.773928667956
 10
1605.837519953405
 20
2064.3031694404
 10
1608.610239637621
 20
2039.153910344642
 10
1610.542258480127
 20
2009.874789900684
 10
1611.747097634278
 20
1980.178575351672
 10
1612.046936331741
 20
1957.902295548506
 10
1611.783876029035
 20
1935.637921798999
 10
1610.965622760217
 20
1913.413427862862
 10
1609.611929378813
 20
1891.365931786349
 10
1607.754941663756
 20
1869.640656470779
 10
1605.332798517432
 20
1851.833024061265
 10
1602.633067819219
 20
1837.899872328219
 10
1600.263859641492
 20
1827.829338623408
 10
1597.429032037035
 20
1818.479874637861
 10
1594.0483482774
 20
1810.270092575811
 10
1590.649592835124
 20
1804.393094973906
 10
1587.605833952196
 20
1800.471839457223
 10
1584.200329573938
 20
1796.903322791
 10
1578.985765069119
 20
1792.784923087219
 10
1571.618181547201
 20
1788.517583362974
 10
1563.27945140827
 20
1784.907885673323
 10
1554.224648946898
 20
1782.009252537091
 10
1544.578463798981
 20
1779.737384983947
 10
1530.768820749746
 20
1777.319116050111
 10
1512.852486053673
 20
1775.010752542991
 10
1490.982098399723
 20
1772.934585572257
 10
1461.405955154892
 20
1771.112074638254
 10
1439.10861920784
 20
1770.842301088202
 10
1424.182736923538
 20
1770.693416179155
 97
        2
330
6A40
330
6A41
 75
     0
 76
     1
 52
0.0
 41
4.0
 77
     0
 78
     1
 53
45.0
 43
-101.3427115907407
 44
-50.49390590236726
 45
-8.980256121069152
 46
8.980256121069154
 79
     0
 98
        1
 10
-101.3427115907407
 20
-50.49390590236726
1001
ACAD
1010
0.0
1020
0.0
1030
0.0
  0
MTEXT
  5
6A44
330
A
100
AcDbEntity
  8
Dim
390
1D
100
AcDbMText
 10
1447.628245799601
 20
2281.46700262333
 30
0.0
 40
24.4326171875
 41
0.0
 46
26.28949609375
 71
     1
 72
     1
  1
{カウンター置き}
  7
ＭＳ ゴシック
 73
     1
 44
0.7828267384257843
1001
ACAD
1000
ACAD_MTEXT_DEFINED_HEIGHT_BEGIN
1070
    46
1040
26.28949609375
1000
ACAD_MTEXT_DEFINED_HEIGHT_END
  0
LINE
  5
6A45
330
A
100
AcDbEntity
  8
Dim
  6
Continuous
100
AcDbLine
 10
1459.36794553599
 20
2108.194428654608
 30
0.0
 11
1459.36794553599
 21
2247.290709313515
 31
0.0
  0
MTEXT
  5
6A46
330
A
100
AcDbEntity
  8
Dim
390
1D
100
AcDbMText
 10
1286.819386218959
 20
2314.369822637144
 30
0.0
 40
24.4326171875
 41
0.0
 46
26.1673330078125
 71
     1
 72
     1
  1
{半埋め込み}
  7
ＭＳ ゴシック
 73
     1
 44
0.7828267384257843
1001
ACAD
1000
ACAD_MTEXT_DEFINED_HEIGHT_BEGIN
1070
    46
1040
26.1673330078125
1000
ACAD_MTEXT_DEFINED_HEIGHT_END
  0
LINE
  5
6A47
330
A
100
AcDbEntity
  8
Dim
  6
Continuous
100
AcDbLine
 10
1301.482737075455
 20
2276.988201351617
 30
0.0
 11
1301.482737075455
 21
2140.909069750196
 31
0.0
  0
LINE
  5
6A48
102
{ACAD_REACTORS
330
6A4F
330
6A56
102
}
330
A
100
AcDbEntity
  8
Dim
100
AcDbLine
 10
1423.585105306168
 20
1908.194428654608
 30
0.0
 11
1473.585105306168
 21
1908.194428654608
 31
0.0
  0
LINE
  5
6A49
102
{ACAD_REACTORS
330
6A56
102
}
330
A
100
AcDbEntity
  8
Dim
100
AcDbLine
 10
1473.585105306168
 20
1908.194428654608
 30
0.0
 11
1473.585105306168
 21
2108.194428654608
 31
0.0
  0
LINE
  5
6A4A
102
{ACAD_REACTORS
330
6A4F
330
6A55
330
6A56
102
}
330
A
100
AcDbEntity
  8
Dim
100
AcDbLine
 10
1473.585105306168
 20
2108.194428654608
 30
0.0
 11
1373.585105306168
 21
2108.194428654608
 31
0.0
  0
LINE
  5
6A4B
102
{ACAD_REACTORS
330
6A56
102
}
330
A
100
AcDbEntity
  8
Dim
100
AcDbLine
 10
1373.585105306168
 20
2108.194428654608
 30
0.0
 11
1373.585105306168
 21
1908.194428654608
 31
0.0
  0
LINE
  5
6A4C
102
{ACAD_REACTORS
330
6A52
330
6A56
102
}
330
A
100
AcDbEntity
  8
Dim
100
AcDbLine
 10
1373.585105306168
 20
1908.194428654608
 30
0.0
 11
1423.585105306168
 21
1908.194428654608
 31
0.0
  0
DIMENSION
  5
6A4D
102
{ACAD_REACTORS
330
6A4F
102
}
102
{ACAD_XDICTIONARY
360
6A4E
102
}
330
A
100
AcDbEntity
  8
Dim
100
AcDbDimension
  2
*D16
 10
1533.916916650473
 20
2108.194428654608
 30
0.0
 11
1511.700608056723
 21
2008.194428654608
 31
0.0
 70
    32
 71
     5
 42
200.0
 73
     0
 74
     0
 75
     0
  3
tform線あり
100
AcDbAlignedDimension
 13
1473.585105306168
 23
1908.194428654608
 33
0.0
 14
1473.585105306168
 24
2108.194428654608
 34
0.0
 50
90.0
100
AcDbRotatedDimension
  0
DIMENSION
  5
6A50
102
{ACAD_REACTORS
330
6A52
102
}
102
{ACAD_XDICTIONARY
360
6A51
102
}
330
A
100
AcDbEntity
  8
Dim
100
AcDbDimension
  2
*D17
 10
1311.482673641541
 20
1958.194428654608
 30
0.0
 11
1289.266365047791
 21
1933.194428654608
 31
0.0
 70
    32
 71
     5
 42
50.0
 73
     0
 74
     0
 75
     0
  3
tform線あり
100
AcDbAlignedDimension
 13
1373.585105306168
 23
1908.194428654608
 33
0.0
 14
1401.685105306168
 24
1958.194428654608
 34
0.0
 50
90.0
100
AcDbRotatedDimension
  0
DIMENSION
  5
6A53
102
{ACAD_REACTORS
330
6A55
102
}
102
{ACAD_XDICTIONARY
360
6A54
102
}
330
A
100
AcDbEntity
  8
Dim
100
AcDbDimension
  2
*D18
 10
1473.585105306168
 20
2201.072739242353
 30
0.0
 11
1423.585105306168
 21
2223.289047836103
 31
0.0
 70
    32
 71
     5
 42
100.0
 73
     0
 74
     0
 75
     0
  3
tform線あり
100
AcDbAlignedDimension
 13
1373.585105306168
 23
2108.194428654608
 33
0.0
 14
1473.585105306168
 24
2108.194428654608
 34
0.0
100
AcDbRotatedDimension
  0
HATCH
  5
6A56
330
A
100
AcDbEntity
  8
Dim
100
AcDbHatch
 10
0.0
 20
0.0
 30
0.0
210
0.0
220
0.0
230
1.0
  2
ANSI31
 70
     0
 71
     1
 91
        1
 92
        1
 93
        5
 72
     1
 10
1473.585105306168
 20
2108.194428654608
 11
1373.585105306168
 21
2108.194428654608
 72
     1
 10
1373.585105306168
 20
2108.194428654608
 11
1373.585105306168
 21
1908.194428654608
 72
     1
 10
1473.585105306168
 20
1908.194428654608
 11
1473.585105306168
 21
2108.194428654608
 72
     1
 10
1423.585105306168
 20
1908.194428654608
 11
1473.585105306168
 21
1908.194428654608
 72
     1
 10
1373.585105306168
 20
1908.194428654608
 11
1423.585105306168
 21
1908.194428654608
 97
        5
330
6A4A
330
6A4B
330
6A49
330
6A48
330
6A4C
 75
     0
 76
     1
 52
0.0
 41
1.0
 77
     0
 78
     1
 53
45.0
 43
-62.01444749578513
 44
-50.49390590236726
 45
-2.245064030267288
 46
2.245064030267288
 79
     0
 98
        1
 10
-62.01444749578513
 20
-50.49390590236726
1001
ACAD
1010
0.0
1020
0.0
1030
0.0
  0
DIMENSION
  5
6A93
330
A
100
AcDbEntity
  8
Dim
100
AcDbDimension
  2
*D19
 10
286.1939377861891
 20
1753.195466252264
 30
0.0
 11
263.9776291924391
 21
1908.193078251775
 31
0.0
 70
    32
 71
     5
 42
309.995223999023
 73
     0
 74
     0
 75
     0
  3
tform線あり
100
AcDbAlignedDimension
 13
424.6514586596359
 23
2063.190690251287
 33
0.0
 14
593.6668093570506
 24
1753.195466252264
 34
0.0
 50
90.0
100
AcDbRotatedDimension
  0
DIMENSION
  5
6A94
330
A
100
AcDbEntity
  8
Dim
100
AcDbDimension
  2
*D20
 10
286.1939377861891
 20
2063.190690251287
 30
0.0
 11
263.9776291924391
 21
2115.690690251286
 31
0.0
 70
    32
 71
     5
 42
104.9999999999995
 73
     0
 74
     0
 75
     0
  3
tform線あり
100
AcDbAlignedDimension
 13
507.5646957212193
 23
2168.190690251286
 33
0.0
 14
449.6514586596359
 24
2063.190690251287
 34
0.0
 50
90.0
100
AcDbRotatedDimension
  0
DIMENSION
  5
6A95
330
A
100
AcDbEntity
  8
Dim
100
AcDbDimension
  2
*D21
 10
798.6668398746287
 20
1645.957907025266
 30
0.0
 11
593.6668398746285
 21
1668.174215619016
 31
0.0
 70
    32
 71
     5
 42
410.0000000000005
 73
     0
 74
     0
 75
     0
  3
tform線あり
100
AcDbAlignedDimension
 13
388.6668398746283
 23
1958.195084782538
 33
0.0
 14
798.6668398746287
 24
1958.195084782538
 34
0.0
100
AcDbRotatedDimension
  0
DIMENSION
  5
6A96
330
A
100
AcDbEntity
  8
Dim
100
AcDbDimension
  2
*D22
 10
910.4999765125694
 20
1748.195573063788
 30
0.0
 11
888.2836679188194
 21
1958.195573063787
 31
0.0
 70
    32
 71
     5
 42
419.9999999999984
 73
     0
 74
     0
 75
     0
  3
tform線あり
100
AcDbAlignedDimension
 13
593.6668398746287
 23
2168.195573063786
 33
0.0
 14
593.6668398746287
 24
1748.195573063788
 34
0.0
 50
90.0
100
AcDbRotatedDimension
  0
LINE
  5
6A97
330
A
100
AcDbEntity
  8
Dim
100
AcDbLine
 10
606.7513197938056
 20
2119.337218037271
 30
0.0
 11
889.997031294808
 21
2253.491158643174
 31
0.0
  0
MTEXT
  5
6A98
330
A
100
AcDbEntity
  8
Dim
390
1D
100
AcDbMText
 10
908.0271062154493
 20
2280.490061427646
 30
34.99521132346015
 40
24.4326171875
 41
833.9297986418389
 46
28.390701171875
 71
     1
 72
     1
  1
{φ35}
  7
ＭＳ ゴシック
 73
     1
 44
1.043768984567712
1001
ACAD
1000
ACAD_MTEXT_DEFINED_HEIGHT_BEGIN
1070
    46
1040
28.390701171875
1000
ACAD_MTEXT_DEFINED_HEIGHT_END
  0
DIMENSION
  5
6A99
330
A
100
AcDbEntity
  8
Dim
100
AcDbDimension
  2
*D23
 10
803.6716807254588
 20
2274.636399862788
 30
0.0
 11
593.6716807254588
 21
2296.852708456538
 31
0.0
 70
    32
 71
     5
 42
420.0
 73
     0
 74
     0
 75
     0
  3
tform線あり
100
AcDbAlignedDimension
 13
383.6716807254588
 23
1961.323991032538
 33
0.0
 14
803.6716807254588
 24
1961.323991032538
 34
0.0
100
AcDbRotatedDimension
  0
ARC
  5
6AD6
330
A
100
AcDbEntity
  8
MODEL
100
AcDbCircle
 10
587.4641141022938
 20
1251.375461269895
 30
0.0
 40
350.4182529013201
100
AcDbArc
 50
261.4068386901369
 51
264.1033725603577
  0
ARC
  5
6AD7
330
A
100
AcDbEntity
  8
MODEL
100
AcDbCircle
 10
600.6670826775517
 20
1245.098186252274
 30
0.0
 40
344.0922339221663
100
AcDbArc
 50
275.87183412353
 51
278.6179558143107
  0
ARC
  5
6AD8
330
A
100
AcDbEntity
  8
HIDDEN
 48
0.5
100
AcDbCircle
 10
558.1264824845695
 20
1097.186674625702
 30
0.0
 40
183.8557977740769
100
AcDbArc
 50
202.6774067168351
 51
268.875603865356
  0
ARC
  5
6AD9
330
A
100
AcDbEntity
  8
HIDDEN
 48
0.5
100
AcDbCircle
 10
629.2071362295309
 20
1097.186674625702
 30
0.0
 40
183.8557977740769
100
AcDbArc
 50
271.124396134644
 51
337.3225932831648
  0
SPLINE
  5
6ADA
330
A
100
AcDbEntity
  8
HIDDEN
 48
0.5
100
AcDbSpline
210
0.0
220
0.0
230
1.0
 70
  1064
 71
     3
 72
    34
 73
    30
 74
    28
 42
0.000000001
 43
0.0000000001
 44
0.0
 40
0.0
 40
0.0
 40
0.0
 40
0.0
 40
1.46185850525627
 40
2.923585900295715
 40
4.482430743765429
 40
9.118222610327049
 40
21.5143365216446
 40
42.06462224066897
 40
53.12226469146827
 40
68.60810342391824
 40
85.27084232151257
 40
109.816853530694
 40
132.7332649673716
 40
153.1012460977
 40
168.994228572214
 40
191.9404776717599
 40
206.6900422731035
 40
214.4770995376433
 40
217.8392522000511
 40
222.032663114069
 40
225.4672727346457
 40
231.1450286052202
 40
234.5679955079647
 40
235.7993230481688
 40
236.8270113184457
 40
237.5689910651038
 40
239.1183542113957
 40
246.9508323207385
 40
247.2366409342511
 40
247.2366409342511
 40
247.2366409342511
 40
247.2366409342511
 10
1381.102284418307
 20
1027.865999993377
 30
0.0
 10
1381.602818190967
 20
1027.781794462492
 30
0.0
 10
1382.603840844739
 20
1027.613390952893
 30
0.0
 10
1383.503188234706
 20
1026.283344549075
 30
0.0
 10
1384.350205558738
 20
1023.907097088672
 30
0.0
 10
1386.89376706089
 20
1018.218710001291
 30
0.0
 10
1392.160552434157
 20
1006.878299259186
 30
0.0
 10
1399.698866962882
 20
994.2281876978531
 30
0.0
 10
1408.902532454943
 20
981.5053483675306
 30
0.0
 10
1418.287910048977
 20
970.5488356905208
 30
0.0
 10
1431.945661813245
 20
957.443396699534
 30
0.0
 10
1449.195812695294
 20
944.6807627832152
 30
0.0
 10
1469.082262672525
 20
933.7968049852564
 30
0.0
 10
1487.402553038198
 20
926.3901588060861
 30
0.0
 10
1506.289356489849
 20
920.5970170793352
 30
0.0
 10
1523.80049654908
 20
916.9609022685686
 30
0.0
 10
1538.755740678208
 20
914.4603253946466
 30
0.0
 10
1547.42728092673
 20
914.0617135658041
 30
0.0
 10
1552.350169266285
 20
912.480859846079
 30
0.0
 10
1555.362113318868
 20
910.3218786013067
 30
0.0
 10
1558.703860777375
 20
907.4198366687283
 30
0.0
 10
1561.927922035186
 20
904.7447836528328
 30
0.0
 10
1564.555807984686
 20
902.545639538863
 30
0.0
 10
1566.015979590751
 20
901.3050447189337
 30
0.0
 10
1566.452742690854
 20
900.3682633080145
 30
0.0
 10
1566.572296620961
 20
899.2635939137108
 30
0.0
 10
1566.529974000399
 20
895.8879804544725
 30
0.0
 10
1566.654088572268
 20
892.6669408576927
 30
0.0
 10
1566.700639534669
 20
889.9612472663578
 30
0.0
 10
1566.702278386126
 20
889.8659918805445
 30
0.0
 11
1381.102284418307
 21
1027.865999993377
 31
0.0
 11
1382.500266623194
 21
1027.438593811614
 31
0.0
 11
1383.420033441736
 21
1026.302514599183
 31
0.0
 11
1384.020078874041
 21
1024.863785046702
 31
0.0
 11
1385.836201621861
 21
1020.598545968417
 31
0.0
 11
1391.163197504236
 21
1009.405389355043
 31
0.0
 11
1401.647358182167
 21
991.7306441514237
 31
0.0
 11
1408.137492793365
 21
982.778012733888
 31
0.0
 11
1418.208882785563
 21
971.014581904725
 31
0.0
 11
1430.235951410486
 21
959.4821715816054
 31
0.0
 11
1449.941029535486
 21
944.8460326655897
 31
0.0
 11
1470.028431879236
 21
933.8161559566054
 31
0.0
 11
1488.895619379236
 21
926.1425719722304
 31
0.0
 11
1504.089955316736
 21
921.4822020991835
 31
0.0
 11
1526.507435785486
 21
916.5845580562147
 31
0.0
 11
1541.103138910486
 21
914.4596801265272
 31
0.0
 11
1548.832917011594
 21
913.5169228147797
 31
0.0
 11
1552.013421623893
 21
912.4267572601597
 31
0.0
 11
1555.517260028141
 21
910.1228884421231
 31
0.0
 11
1558.148323545764
 21
907.9151638188986
 31
0.0
 11
1562.497736720275
 21
904.2655725043494
 31
0.0
 11
1565.119881398927
 21
902.0653316762805
 31
0.0
 11
1565.993514729329
 21
901.197614951032
 31
0.0
 11
1566.428963467274
 21
900.2667403206511
 31
0.0
 11
1566.53355505384
 21
899.5321693271655
 31
0.0
 11
1566.560595101473
 21
897.9830421552033
 31
0.0
 11
1566.697290350531
 21
890.1517569642389
 31
0.0
 11
1566.702278386126
 21
889.8659918805445
 31
0.0
  0
SPLINE
  5
6ADB
330
A
100
AcDbEntity
  8
HIDDEN
 48
0.5
100
AcDbSpline
210
0.0
220
0.0
230
1.0
 70
  1064
 71
     3
 72
    37
 73
    33
 74
    31
 42
0.000000001
 43
0.0000000001
 44
0.0
 40
0.0
 40
0.0
 40
0.0
 40
0.0
 40
3.631364362736738
 40
5.71116527167859
 40
8.377013734715531
 40
10.1367801764285
 40
13.03263747109751
 40
63.92632098810729
 40
93.63891365936468
 40
97.8411922625126
 40
100.2290337659292
 40
102.6264715236631
 40
105.1705259846626
 40
108.6886576977637
 40
112.4425591863374
 40
118.9413156433106
 40
154.3836197170759
 40
160.6374933764668
 40
165.3953363824226
 40
170.3203742094615
 40
174.1796467960496
 40
178.042216899552
 40
181.0209241951513
 40
185.6268592361568
 40
188.4444741809113
 40
189.8221912689754
 40
190.5541718017474
 40
191.8272378082414
 40
193.9662640835911
 40
195.1076647781699
 40
200.5975683207877
 40
201.4947510113045
 40
201.4947510113045
 40
201.4947510113045
 40
201.4947510113045
 10
1702.745624132956
 20
1027.865979591532
 30
0.0
 10
1701.514497160862
 20
1027.644590636398
 30
0.0
 10
1699.578263584247
 20
1027.296404999872
 30
0.0
 10
1697.580960947904
 20
1025.208454058243
 30
0.0
 10
1696.73356500257
 20
1023.134007719778
 30
0.0
 10
1696.720162606137
 20
1020.679836548742
 30
0.0
 10
1695.92227153654
 20
1002.205960585345
 30
0.0
 10
1695.336583504234
 20
974.3575713681971
 30
0.0
 10
1693.814449965401
 20
946.105329613943
 30
0.0
 10
1693.780874149737
 20
934.0174748817847
 30
0.0
 10
1693.349505974971
 20
931.0185115686733
 30
0.0
 10
1692.164541369055
 20
928.8342012784505
 30
0.0
 10
1690.133181978901
 20
926.7876150039511
 30
0.0
 10
1686.983630443934
 20
925.6845888805855
 30
0.0
 10
1682.64918728149
 20
924.2455965073718
 30
0.0
 10
1668.061056172348
 20
919.7784642514802
 30
0.0
 10
1652.268600558506
 20
916.579354902
 30
0.0
 10
1636.909967226174
 20
914.5341690167668
 30
0.0
 10
1631.641022336569
 20
913.9641825151593
 30
0.0
 10
1627.113267750292
 20
913.4421904097179
 30
0.0
 10
1623.266937474027
 20
911.537266258683
 30
0.0
 10
1620.579760052949
 20
909.177247540639
 30
0.0
 10
1617.64968862353
 20
906.7372671047509
 30
0.0
 10
1614.980202538978
 20
904.5170131431794
 30
0.0
 10
1612.770234872931
 20
902.6009652762422
 30
0.0
 10
1611.454822874028
 20
901.5921035118479
 30
0.0
 10
1610.828952865672
 20
900.6315939400813
 30
0.0
 10
1610.585260396997
 20
899.239549521503
 30
0.0
 10
1610.651290037646
 20
897.7265731237642
 30
0.0
 10
1610.576715249942
 20
894.8022433097592
 30
0.0
 10
1610.515005876025
 20
892.2941460717111
 30
0.0
 10
1610.517577532247
 20
890.1650590484685
 30
0.0
 10
1610.517938768241
 20
889.8659899653006
 30
0.0
 11
1702.745624132956
 21
1027.865979591532
 31
0.0
 11
1699.28452251152
 21
1026.767078913105
 31
0.0
 11
1697.819282018223
 21
1025.291056515701
 31
0.0
 11
1696.821773579181
 21
1022.81886620306
 31
0.0
 11
1696.713905659467
 21
1021.062408847678
 31
0.0
 11
1696.612841570857
 21
1018.168315635447
 31
0.0
 11
1694.836675407498
 21
967.3056352529732
 31
0.0
 11
1693.799719579557
 21
937.6111427356905
 31
0.0
 11
1693.653061987728
 21
933.4114240535364
 31
0.0
 11
1693.214516077697
 21
931.0641991963414
 31
0.0
 11
1692.096996434526
 21
928.9431481245058
 31
0.0
 11
1690.280888908603
 21
927.1615851716981
 31
0.0
 11
1687.069660625657
 21
925.7244826473332
 31
0.0
 11
1683.506970977171
 21
924.5416813730327
 31
0.0
 11
1677.292805658531
 21
922.6395812495739
 31
0.0
 11
1642.615559564781
 21
915.3152709468395
 31
0.0
 11
1636.415364252281
 21
914.4976439937145
 31
0.0
 11
1631.687581049156
 21
913.9636626704723
 31
0.0
 11
1626.840359621704
 21
913.0916293964432
 31
0.0
 11
1623.370181987879
 21
911.4028866430045
 31
0.0
 11
1620.347247884051
 21
908.9984496593461
 31
0.0
 11
1618.065425628886
 21
907.0837736165938
 31
0.0
 11
1614.537074555943
 21
904.1231357954437
 31
0.0
 11
1612.378656205498
 21
902.3120079144353
 31
0.0
 11
1611.356162056679
 21
901.3886390334485
 31
0.0
 11
1610.962789962555
 21
900.7713434025538
 31
0.0
 11
1610.671002563458
 21
899.532167397856
 31
0.0
 11
1610.633671314035
 21
897.3934669082005
 31
0.0
 11
1610.613751075321
 21
896.2522400553466
 31
0.0
 11
1610.517938807458
 21
890.7631726558175
 31
0.0
 11
1610.517938768241
 21
889.8659899653006
 31
0.0
  0
DIMENSION
  5
6ADC
330
A
100
AcDbEntity
  8
Dim
100
AcDbDimension
  2
*D24
 10
1747.998671553817
 20
776.0779516191856
 30
0.0
 11
1587.998671553817
 21
798.2942602129356
 31
0.0
 70
    32
 71
     5
 42
320.0
 73
     0
 74
     0
 75
     0
  3
tform線あり
100
AcDbAlignedDimension
 13
1427.998671553817
 23
865.9247246577161
 33
0.0
 14
1747.998671553817
 24
865.9247246577161
 34
0.0
100
AcDbRotatedDimension
  0
DIMENSION
  5
6ADD
330
A
100
AcDbEntity
  8
Dim
100
AcDbDimension
  2
*D25
 10
1797.998671553817
 20
670.2905317573217
 30
0.0
 11
1692.998671553817
 21
692.5068403510717
 31
0.0
 70
    32
 71
     5
 42
210.0
 73
     0
 74
     0
 75
     0
  3
tform線あり
100
AcDbAlignedDimension
 13
1587.998671553817
 23
776.0779516191856
 33
0.0
 14
1797.998671553817
 24
1004.912913867703
 34
0.0
100
AcDbRotatedDimension
  0
LINE
  5
6B05
330
A
100
AcDbEntity
  8
Dim
  6
Continuous
100
AcDbLine
 10
377.2609760600067
 20
886.8659747056274
 30
0.0
 11
377.2609760600067
 21
710.8426316912124
 31
0.0
  0
LINE
  5
6B06
330
A
100
AcDbEntity
  8
Dim
  6
Continuous
100
AcDbLine
 10
316.1278366455222
 20
947.86596902526
 30
0.0
 11
316.1278366455222
 21
641.7153430411133
 31
0.0
  0
MTEXT
  5
6B07
330
A
100
AcDbEntity
  8
template
390
1D
100
AcDbMText
 10
365.3821468330389
 20
695.4761660533485
 30
0.0
 40
24.4326171875
 41
0.0
 46
26.28949609375
 71
     1
 72
     1
  1
{カウンター置き}
  7
ＭＳ ゴシック
 73
     1
 44
0.7828267384257843
1001
ACAD
1000
ACAD_MTEXT_DEFINED_HEIGHT_BEGIN
1070
    46
1040
26.28949609375
1000
ACAD_MTEXT_DEFINED_HEIGHT_END
  0
MTEXT
  5
6B08
330
A
100
AcDbEntity
  8
template
390
1D
100
AcDbMText
 10
300.7429231679225
 20
632.8889812347437
 30
0.0
 40
24.4326171875
 41
0.0
 46
26.1673330078125
 71
     1
 72
     1
  1
{半埋め込み}
  7
ＭＳ ゴシック
 73
     1
 44
0.7828267384257843
1001
ACAD
1000
ACAD_MTEXT_DEFINED_HEIGHT_BEGIN
1070
    46
1040
26.1673330078125
1000
ACAD_MTEXT_DEFINED_HEIGHT_END
  0
LINE
  5
6B09
330
A
100
AcDbEntity
  8
Dim
  6
Continuous
100
AcDbLine
 10
413.1716558739604
 20
886.8659747056274
 30
0.0
 11
341.3502962460534
 21
886.8659747056274
 31
0.0
  0
LINE
  5
6B0A
330
A
100
AcDbEntity
  8
Dim
  6
Continuous
100
AcDbLine
 10
352.0385164594754
 20
947.86596902526
 30
0.0
 11
280.2171568315684
 21
947.86596902526
 31
0.0
  0
DIMENSION
  5
6B26
330
A
100
AcDbEntity
  8
Dim
100
AcDbDimension
  2
*D26
 10
753.0629982215828
 20
779.0779936632216
 30
0.0
 11
593.0629982215828
 21
801.2943022569716
 31
0.0
 70
    32
 71
     5
 42
320.0
 73
     0
 74
     0
 75
     0
  3
tform線あり
100
AcDbAlignedDimension
 13
433.0629982215828
 23
868.9247667017521
 33
0.0
 14
753.0629982215828
 24
868.9247667017521
 34
0.0
100
AcDbRotatedDimension
  0
VIEWPORT
  5
349
330
B
100
AcDbEntity
 67
     1
  8
0
100
AcDbViewport
 10
202.5
 20
128.5
 30
0.0
 40
486.0
 41
308.4
 68
     1
 69
     1
 12
202.5
 22
128.5
 13
0.0
 23
0.0
 14
0.5
 24
0.5
 15
0.0
 25
0.0
 16
0.0
 26
0.0
 36
1.0
 17
0.0
 27
0.0
 37
0.0
 42
50.0
 43
0.0
 44
0.0
 45
308.4
 50
0.0
 51
0.0
 72
   100
 90
   557152
  1

281
     0
 71
     1
 74
     0
110
0.0
120
0.0
130
0.0
111
1.0
121
0.0
131
0.0
112
0.0
122
1.0
132
0.0
 79
     0
146
0.0
170
     0
 61
     5
348
26C
292
     1
282
     1
141
0.0
142
0.0
 63
   256
  0
VIEWPORT
  5
34A
330
B
100
AcDbEntity
 67
     1
  8
0
100
AcDbViewport
 10
202.5
 20
128.5
 30
0.0
 40
324.0
 41
205.6
 68
     2
 69
     2
 12
986.6781359294573
 22
1427.077061889956
 13
0.0
 23
0.0
 14
0.5
 24
0.5
 15
0.0
 25
0.0
 16
0.0
 26
0.0
 36
1.0
 17
0.0
 27
0.0
 37
0.0
 42
50.0
 43
0.0
 44
0.0
 45
2890.021615685494
 50
0.0
 51
0.0
 72
   100
 90
   557152
  1

281
     0
 71
     1
 74
     0
110
0.0
120
0.0
130
0.0
111
1.0
121
0.0
131
0.0
112
0.0
122
1.0
132
0.0
 79
     0
146
0.0
170
     0
 61
     5
348
26C
292
     1
282
     1
141
0.0
142
0.0
 63
   256
  0
ENDSEC
  0
SECTION
  2
OBJECTS
  0
DICTIONARY
  5
19
330
0
100
AcDbDictionary
281
     1
  3
ACAD_COLOR
350
38F
  3
ACAD_DETAILVIEWSTYLE
350
8CF
  3
ACAD_FIELDLIST
350
BA6
  3
ACAD_GROUP
350
1A
  3
ACAD_IMAGE_VARS
350
27B
  3
ACAD_LAYOUT
350
1E
  3
ACAD_MATERIAL
350
263
  3
ACAD_MLEADERSTYLE
350
336
  3
ACAD_MLINESTYLE
350
1B
  3
ACAD_PLOTSETTINGS
350
22
  3
ACAD_PLOTSTYLENAME
350
1F
  3
ACAD_SCALELIST
350
241
  3
ACAD_SECTIONVIEWSTYLE
350
8D0
  3
ACAD_TABLESTYLE
350
278
  3
ACAD_VISUALSTYLE
350
267
  3
ACDB_RECOMPOSE_DATA
350
6B3B
  3
AcDbVariableDictionary
350
330
  3
APPDATA
350
27A
  3
DimOffsetDictionary
350
C08
  0
SUN
  5
8C2
330
15
100
AcDbSun
 90
        1
290
     0
 63
     7
421
 16777215
 40
1.0
291
     1
 91
  2455826
 92
 54000000
292
     0
 70
     2
 71
   256
280
     1
  0
DICTIONARY
  5
2E1
330
2
100
AcDbDictionary
280
     1
281
     1
  3
ACAD_LAYERSTATES
360
2E2
  3
ACLYDICTIONARY
360
BFE
  0
DICTIONARY
  5
560A
330
A
100
AcDbDictionary
280
     1
281
     1
  3
ACAD_SORTENTS
360
560B
  0
DICTIONARY
  5
BDC
330
BDB
100
AcDbDictionary
280
     1
281
     1
  3
ACAD_FIELD
360
6B0B
  0
DICTIONARY
  5
6A4E
330
6A4D
100
AcDbDictionary
280
     1
281
     1
  3
ACAD_DIMASSOC
360
6A4F
  0
DICTIONARY
  5
6A51
330
6A50
100
AcDbDictionary
280
     1
281
     1
  3
ACAD_DIMASSOC
360
6A52
  0
DICTIONARY
  5
6A54
330
6A53
100
AcDbDictionary
280
     1
281
     1
  3
ACAD_DIMASSOC
360
6A55
  0
DICTIONARY
  5
38F
102
{ACAD_REACTORS
330
19
102
}
330
19
100
AcDbDictionary
281
     1
  0
DICTIONARY
  5
8CF
102
{ACAD_REACTORS
330
19
102
}
330
19
100
AcDbDictionary
281
     1
  0
FIELDLIST
  5
BA6
102
{ACAD_REACTORS
330
19
102
}
330
19
100
AcDbIdSet
 90
        2
330
BDF
330
BDE
100
AcDbFieldList
  0
DICTIONARY
  5
1A
102
{ACAD_REACTORS
330
19
102
}
330
19
100
AcDbDictionary
281
     1
  0
RASTERVARIABLES
  5
27B
102
{ACAD_REACTORS
330
19
102
}
330
19
100
AcDbRasterVariables
 90
        0
 70
     1
 71
     1
 72
     1
  0
DICTIONARY
  5
1E
102
{ACAD_REACTORS
330
19
102
}
330
19
100
AcDbDictionary
281
     1
  3
Layout1
350
21
  3
Model
350
20
  0
DICTIONARY
  5
263
102
{ACAD_REACTORS
330
19
102
}
330
19
100
AcDbDictionary
281
     1
  3
ByBlock
350
4FEC
  3
ByLayer
350
264
  3
Global
350
266
  0
DICTIONARY
  5
336
102
{ACAD_REACTORS
330
19
102
}
330
19
100
AcDbDictionary
281
     1
  3
Standard
350
8D1
  0
DICTIONARY
  5
1B
102
{ACAD_REACTORS
330
19
102
}
330
19
100
AcDbDictionary
281
     1
  3
Standard
350
1C
  0
DICTIONARY
  5
22
102
{ACAD_REACTORS
330
19
102
}
330
19
100
AcDbDictionary
281
     1
  0
ACDBDICTIONARYWDFLT
  5
1F
102
{ACAD_REACTORS
330
19
102
}
330
19
100
AcDbDictionary
281
     1
  3
Normal
350
1D
100
AcDbDictionaryWithDefault
340
1D
  0
DICTIONARY
  5
241
102
{ACAD_REACTORS
330
19
102
}
330
19
100
AcDbDictionary
281
     1
  3
A0
350
242
  3
A1
350
243
  3
A2
350
244
  3
A3
350
245
  3
A4
350
246
  3
A5
350
247
  3
A6
350
248
  3
A7
350
249
  3
A8
350
24A
  3
A9
350
24B
  3
B0
350
24C
  3
B1
350
24D
  3
B2
350
24E
  3
B3
350
24F
  3
B4
350
250
  3
B5
350
251
  3
B6
350
252
  3
B7
350
253
  3
B8
350
254
  3
B9
350
255
  3
C0
350
256
  3
C1
350
257
  3
C2
350
258
  3
C3
350
259
  3
C4
350
25A
  3
C5
350
25B
  3
C6
350
25C
  3
C7
350
25D
  3
C8
350
25E
  3
C9
350
25F
  3
D0
350
260
  3
D1
350
261
  3
D2
350
262
  0
DICTIONARY
  5
8D0
102
{ACAD_REACTORS
330
19
102
}
330
19
100
AcDbDictionary
281
     1
  0
DICTIONARY
  5
278
102
{ACAD_REACTORS
330
19
102
}
330
19
100
AcDbDictionary
281
     1
  3
Standard
350
279
  0
DICTIONARY
  5
267
102
{ACAD_REACTORS
330
19
102
}
330
19
100
AcDbDictionary
281
     1
  3
2dWireframe
350
26C
  3
3D Hidden
350
26E
  3
3dWireframe
350
26D
  3
Basic
350
26F
  3
Brighten
350
273
  3
ColorChange
350
277
  3
Conceptual
350
271
  3
Dim
350
272
  3
EdgeColorOff
350
8BC
  3
Facepattern
350
276
  3
Flat
350
268
  3
FlatWithEdges
350
269
  3
Gouraud
350
26A
  3
GouraudWithEdges
350
26B
  3
Hidden
350
8B9
  3
JitterOff
350
8BA
  3
Linepattern
350
275
  3
OverhangOff
350
8BB
  3
Realistic
350
270
  3
Shaded
350
8C1
  3
Shaded with edges
350
8C0
  3
Shades of Gray
350
8BD
  3
Sketchy
350
8BE
  3
Thicken
350
274
  3
Wireframe
350
8B8
  3
X-Ray
350
8BF
  0
XRECORD
  5
6B3B
102
{ACAD_REACTORS
330
19
102
}
330
19
100
AcDbXrecord
280
     1
 90
        1
330
279
  0
DICTIONARY
  5
330
102
{ACAD_REACTORS
330
19
102
}
330
19
100
AcDbDictionary
281
     1
  3
CANNOSCALE
350
331
  3
CMLEADERSTYLE
350
8DA
  3
CTABLESTYLE
350
335
  3
HPTRANSPARENCY
350
C07
  3
XCLIPFRAME
350
64A
  0
DICTIONARY
  5
27A
102
{ACAD_REACTORS
330
19
102
}
330
19
100
AcDbDictionary
281
     1
  0
DICTIONARY
  5
C08
102
{ACAD_REACTORS
330
19
102
}
330
19
100
AcDbDictionary
281
     1
  3
DIMRAILANGLE
350
4342
  3
DIMRAILFIRSTOFFSET
350
4340
  3
DIMRAILOFFSET
350
4341
  3
DIMRAILSENABLED
350
4343
  0
DICTIONARY
  5
2E2
102
{ACAD_REACTORS
330
2E1
102
}
330
2E1
100
AcDbDictionary
281
     1
  0
DICTIONARY
  5
BFE
102
{ACAD_REACTORS
330
2E1
102
}
330
2E1
100
AcDbDictionary
281
     1
1001
ACAD
1000
<All
  0
SORTENTSTABLE
  5
560B
102
{ACAD_REACTORS
330
560A
102
}
330
560A
100
AcDbSortentsTable
330
A
331
0
  5
5607
  0
DICTIONARY
  5
6B0B
102
{ACAD_REACTORS
330
BDC
102
}
330
BDC
100
AcDbDictionary
280
     1
281
     1
  3
TEXT
360
BDE
  0
DIMASSOC
  5
6A4F
102
{ACAD_REACTORS
330
6A4E
102
}
330
6A4E
100
AcDbDimAssoc
330
6A4D
 90
        3
 70
     0
 71
     1
  1
AcDbOsnapPointRef
 72
     1
331
6A48
 73
     0
 91
        0
 40
0.0
 10
0.0
 20
0.0
 30
0.0
 75
     0
  1
AcDbOsnapPointRef
 72
    13
331
6A4A
 73
     0
 91
        0
 40
0.0
 10
0.0
 20
0.0
 30
0.0
 75
     0
  0
DIMASSOC
  5
6A52
102
{ACAD_REACTORS
330
6A51
102
}
330
6A51
100
AcDbDimAssoc
330
6A50
 90
        3
 70
     0
 71
     1
  1
AcDbOsnapPointRef
 72
    13
331
6A4C
 73
     0
 91
        0
 40
0.0
 10
0.0
 20
0.0
 30
0.0
 75
     0
  1
AcDbOsnapPointRef
 72
     5
331
6A39
 73
     0
 91
        0
 40
3.141592653589793
 10
0.0
 20
0.0
 30
0.0
 75
     0
  0
DIMASSOC
  5
6A55
102
{ACAD_REACTORS
330
6A54
102
}
330
6A54
100
AcDbDimAssoc
330
6A53
 90
        3
 70
     0
 71
     1
  1
AcDbOsnapPointRef
 72
     1
331
6A4A
 73
     0
 91
        0
 40
0.0
 10
0.0
 20
0.0
 30
0.0
 75
     0
  1
AcDbOsnapPointRef
 72
    13
331
6A4A
 73
     0
 91
        0
 40
0.0
 10
0.0
 20
0.0
 30
0.0
 75
     0
  0
LAYOUT
  5
21
102
{ACAD_REACTORS
330
1E
102
}
330
1E
100
AcDbPlotSettings
  1

  2
none_device
  4
ISO_A3_(420.00_x_297.00_MM)
  6

 40
7.5
 41
20.0
 42
7.5
 43
20.0
 44
420.0
 45
297.0
 46
0.0
 47
0.0
 48
0.0
 49
0.0
140
0.0
141
0.0
142
1.0
143
1.0
 70
     0
 72
     1
 73
     0
 74
     0
  7

 75
     0
 76
     0
 77
     2
 78
   300
147
1.0
148
0.0
149
0.0
100
AcDbLayout
  1
Layout1
 70
     0
 71
     0
 10
0.0
 20
0.0
 11
0.0
 21
0.0
 12
0.0
 22
0.0
 32
0.0
 14
0.0
 24
0.0
 34
0.0
 15
0.0
 25
0.0
 35
0.0
146
0.0
 13
0.0
 23
0.0
 33
0.0
 16
0.0
 26
0.0
 36
0.0
 17
0.0
 27
0.0
 37
0.0
 76
     0
330
B
331
349
  0
LAYOUT
  5
20
102
{ACAD_REACTORS
330
1E
102
}
330
1E
100
AcDbPlotSettings
  1

  2
none_device
  4
ISO_A3_(420.00_x_297.00_MM)
  6

 40
7.5
 41
20.0
 42
7.5
 43
20.0
 44
420.0
 45
297.0
 46
0.0
 47
0.0
 48
0.0
 49
0.0
140
0.0
141
0.0
142
1.0
143
1.0
 70
  1024
 72
     1
 73
     0
 74
     0
  7

 75
     0
 76
     0
 77
     2
 78
   300
147
1.0
148
0.0
149
0.0
100
AcDbLayout
  1
Model
 70
     0
 71
     1
 10
0.0
 20
0.0
 11
2100.0
 21
2970.0
 12
0.0
 22
0.0
 32
0.0
 14
0.0
 24
0.0
 34
0.0
 15
2100.0
 25
2970.0
 35
34.99521132346015
146
0.0
 13
0.0
 23
0.0
 33
0.0
 16
0.0
 26
0.0
 36
0.0
 17
0.0
 27
0.0
 37
0.0
 76
     0
330
A
331
15
  0
MATERIAL
  5
4FEC
102
{ACAD_REACTORS
330
263
102
}
330
263
100
AcDbMaterial
  1
ByBlock
 72
     1
 94
      127
  0
MATERIAL
  5
264
102
{ACAD_REACTORS
330
263
102
}
330
263
100
AcDbMaterial
  1
ByLayer
 72
     1
 94
      127
  0
MATERIAL
  5
266
102
{ACAD_REACTORS
330
263
102
}
330
263
100
AcDbMaterial
  1
Global
 72
     1
 94
      127
  0
MLEADERSTYLE
  5
8D1
102
{ACAD_REACTORS
330
336
102
}
330
336
100
AcDbMLeaderStyle
170
     2
171
     1
172
     0
 90
        2
 40
0.0
 41
0.0
173
     1
 91
-1056964608
340
11
 92
       -2
290
     1
 42
2.0
291
     1
 43
8.0
  3
Standard
341
0
 44
4.0
300

342
17
174
     1
178
     6
175
     1
176
     0
 93
-1056964608
 45
4.0
292
     0
297
     0
 46
4.0
343
0
 94
-1056964608
 47
1.0
 49
1.0
140
1.0
293
     1
141
0.0
294
     1
177
     0
142
1.0
295
     0
296
     0
143
3.75
1001
ACAD_MLEADERVER
1070
     2
  0
MLINESTYLE
  5
1C
102
{ACAD_REACTORS
330
1B
102
}
330
1B
100
AcDbMlineStyle
  2
Standard
 70
     0
  3

 62
     0
 51
90.0
 52
90.0
 71
     2
 49
0.5
 62
   256
  6
BYLAYER
 49
-0.5
 62
   256
  6
BYLAYER
  0
ACDBPLACEHOLDER
  5
1D
102
{ACAD_REACTORS
330
1F
102
}
330
1F
  0
SCALE
  5
242
102
{ACAD_REACTORS
330
241
102
}
330
241
100
AcDbScale
 70
     0
300
1:1
140
1.0
141
1.0
290
     1
  0
SCALE
  5
243
102
{ACAD_REACTORS
330
241
102
}
330
241
100
AcDbScale
 70
     0
300
1:2
140
1.0
141
2.0
290
     0
  0
SCALE
  5
244
102
{ACAD_REACTORS
330
241
102
}
330
241
100
AcDbScale
 70
     0
300
1:4
140
1.0
141
4.0
290
     0
  0
SCALE
  5
245
102
{ACAD_REACTORS
330
241
102
}
330
241
100
AcDbScale
 70
     0
300
1:5
140
1.0
141
5.0
290
     0
  0
SCALE
  5
246
102
{ACAD_REACTORS
330
241
102
}
330
241
100
AcDbScale
 70
     0
300
1:8
140
1.0
141
8.0
290
     0
  0
SCALE
  5
247
102
{ACAD_REACTORS
330
241
102
}
330
241
100
AcDbScale
 70
     0
300
1:10
140
1.0
141
10.0
290
     0
  0
SCALE
  5
248
102
{ACAD_REACTORS
330
241
102
}
330
241
100
AcDbScale
 70
     0
300
1:16
140
1.0
141
16.0
290
     0
  0
SCALE
  5
249
102
{ACAD_REACTORS
330
241
102
}
330
241
100
AcDbScale
 70
     0
300
1:20
140
1.0
141
20.0
290
     0
  0
SCALE
  5
24A
102
{ACAD_REACTORS
330
241
102
}
330
241
100
AcDbScale
 70
     0
300
1:30
140
1.0
141
30.0
290
     0
  0
SCALE
  5
24B
102
{ACAD_REACTORS
330
241
102
}
330
241
100
AcDbScale
 70
     0
300
1:40
140
1.0
141
40.0
290
     0
  0
SCALE
  5
24C
102
{ACAD_REACTORS
330
241
102
}
330
241
100
AcDbScale
 70
     0
300
1:50
140
1.0
141
50.0
290
     0
  0
SCALE
  5
24D
102
{ACAD_REACTORS
330
241
102
}
330
241
100
AcDbScale
 70
     0
300
1:100
140
1.0
141
100.0
290
     0
  0
SCALE
  5
24E
102
{ACAD_REACTORS
330
241
102
}
330
241
100
AcDbScale
 70
     0
300
2:1
140
2.0
141
1.0
290
     0
  0
SCALE
  5
24F
102
{ACAD_REACTORS
330
241
102
}
330
241
100
AcDbScale
 70
     0
300
4:1
140
4.0
141
1.0
290
     0
  0
SCALE
  5
250
102
{ACAD_REACTORS
330
241
102
}
330
241
100
AcDbScale
 70
     0
300
8:1
140
8.0
141
1.0
290
     0
  0
SCALE
  5
251
102
{ACAD_REACTORS
330
241
102
}
330
241
100
AcDbScale
 70
     0
300
10:1
140
10.0
141
1.0
290
     0
  0
SCALE
  5
252
102
{ACAD_REACTORS
330
241
102
}
330
241
100
AcDbScale
 70
     0
300
100:1
140
100.0
141
1.0
290
     0
  0
SCALE
  5
253
102
{ACAD_REACTORS
330
241
102
}
330
241
100
AcDbScale
 70
     0
300
1/128" = 1'-0"
140
0.0078125
141
12.0
290
     0
  0
SCALE
  5
254
102
{ACAD_REACTORS
330
241
102
}
330
241
100
AcDbScale
 70
     0
300
1/64" = 1'-0"
140
0.015625
141
12.0
290
     0
  0
SCALE
  5
255
102
{ACAD_REACTORS
330
241
102
}
330
241
100
AcDbScale
 70
     0
300
1/32" = 1'-0"
140
0.03125
141
12.0
290
     0
  0
SCALE
  5
256
102
{ACAD_REACTORS
330
241
102
}
330
241
100
AcDbScale
 70
     0
300
1/16" = 1'-0"
140
0.0625
141
12.0
290
     0
  0
SCALE
  5
257
102
{ACAD_REACTORS
330
241
102
}
330
241
100
AcDbScale
 70
     0
300
3/32" = 1'-0"
140
0.09375
141
12.0
290
     0
  0
SCALE
  5
258
102
{ACAD_REACTORS
330
241
102
}
330
241
100
AcDbScale
 70
     0
300
1/8" = 1'-0"
140
0.125
141
12.0
290
     0
  0
SCALE
  5
259
102
{ACAD_REACTORS
330
241
102
}
330
241
100
AcDbScale
 70
     0
300
3/16" = 1'-0"
140
0.1875
141
12.0
290
     0
  0
SCALE
  5
25A
102
{ACAD_REACTORS
330
241
102
}
330
241
100
AcDbScale
 70
     0
300
1/4" = 1'-0"
140
0.25
141
12.0
290
     0
  0
SCALE
  5
25B
102
{ACAD_REACTORS
330
241
102
}
330
241
100
AcDbScale
 70
     0
300
3/8" = 1'-0"
140
0.375
141
12.0
290
     0
  0
SCALE
  5
25C
102
{ACAD_REACTORS
330
241
102
}
330
241
100
AcDbScale
 70
     0
300
1/2" = 1'-0"
140
0.5
141
12.0
290
     0
  0
SCALE
  5
25D
102
{ACAD_REACTORS
330
241
102
}
330
241
100
AcDbScale
 70
     0
300
3/4" = 1'-0"
140
0.75
141
12.0
290
     0
  0
SCALE
  5
25E
102
{ACAD_REACTORS
330
241
102
}
330
241
100
AcDbScale
 70
     0
300
1" = 1'-0"
140
1.0
141
12.0
290
     0
  0
SCALE
  5
25F
102
{ACAD_REACTORS
330
241
102
}
330
241
100
AcDbScale
 70
     0
300
1-1/2" = 1'-0"
140
1.5
141
12.0
290
     0
  0
SCALE
  5
260
102
{ACAD_REACTORS
330
241
102
}
330
241
100
AcDbScale
 70
     0
300
3" = 1'-0"
140
3.0
141
12.0
290
     0
  0
SCALE
  5
261
102
{ACAD_REACTORS
330
241
102
}
330
241
100
AcDbScale
 70
     0
300
6" = 1'-0"
140
6.0
141
12.0
290
     0
  0
SCALE
  5
262
102
{ACAD_REACTORS
330
241
102
}
330
241
100
AcDbScale
 70
     0
300
1'-0" = 1'-0"
140
12.0
141
12.0
290
     0
  0
TABLESTYLE
  5
279
102
{ACAD_REACTORS
330
278
102
}
102
{ACAD_XDICTIONARY
360
6B39
102
}
330
278
100
AcDbTableStyle
  3
Standard
 70
     0
 71
     0
 40
0.06
 41
0.06
280
     0
281
     0
  7
Standard
140
4.5
170
     2
 62
     0
 63
   257
283
     0
 90
        4
 91
        0
  1

274
    -2
284
     1
 64
     0
275
    -2
285
     1
 65
     0
276
    -2
286
     1
 66
     0
277
    -2
287
     1
 67
     0
278
    -2
288
     1
 68
     0
279
    -2
289
     1
 69
     0
  7
Standard
140
6.0
170
     5
 62
     0
 63
   257
283
     0
 90
        4
 91
        0
  1

274
    -2
284
     1
 64
     0
275
    -2
285
     1
 65
     0
276
    -2
286
     1
 66
     0
277
    -2
287
     1
 67
     0
278
    -2
288
     1
 68
     0
279
    -2
289
     1
 69
     0
  7
Standard
140
4.5
170
     5
 62
     0
 63
   257
283
     0
 90
        4
 91
        0
  1

274
    -2
284
     1
 64
     0
275
    -2
285
     1
 65
     0
276
    -2
286
     1
 66
     0
277
    -2
287
     1
 67
     0
278
    -2
288
     1
 68
     0
279
    -2
289
     1
 69
     0
  0
VISUALSTYLE
  5
26C
102
{ACAD_REACTORS
330
267
102
}
330
267
100
AcDbVisualStyle
  2
2dWireframe
 70
     4
 71
     0
 72
     2
 73
     0
 90
        0
 40
-0.6
 41
-30.0
 62
     5
 63
     7
421
 16777215
 74
     1
 91
        4
 64
     7
 65
   257
 75
     1
175
     1
 42
1.0
 92
        0
 66
   257
 43
1.0
 76
     1
 77
     6
 78
     2
 67
     7
 79
     5
170
     0
171
     0
290
     0
174
     0
 93
        1
 44
0.0
173
     0
291
     0
 45
0.0
  0
VISUALSTYLE
  5
26E
102
{ACAD_REACTORS
330
267
102
}
330
267
100
AcDbVisualStyle
  2
3D Hidden
 70
     6
 71
     1
 72
     2
 73
     2
 90
        0
 40
-0.6
 41
-30.0
 62
     5
 63
     7
421
 16777215
 74
     2
 91
        2
 64
     7
 65
   257
 75
     2
175
     1
 42
40.0
 92
        0
 66
   257
 43
1.0
 76
     1
 77
     6
 78
     2
 67
     7
 79
     3
170
     0
171
     0
290
     0
174
     0
 93
        1
 44
0.0
173
     0
291
     0
 45
0.0
  0
VISUALSTYLE
  5
26D
102
{ACAD_REACTORS
330
267
102
}
330
267
100
AcDbVisualStyle
  2
3dWireframe
 70
     5
 71
     0
 72
     2
 73
     0
 90
        0
 40
-0.6
 41
-30.0
 62
     5
 63
     7
421
 16777215
 74
     1
 91
        4
 64
     7
 65
   257
 75
     1
175
     1
 42
1.0
 92
        0
 66
   257
 43
1.0
 76
     1
 77
     6
 78
     2
 67
     7
 79
     5
170
     0
171
     0
290
     0
174
     0
 93
        1
 44
0.0
173
     0
291
     0
 45
0.0
  0
VISUALSTYLE
  5
26F
102
{ACAD_REACTORS
330
267
102
}
330
267
100
AcDbVisualStyle
  2
Basic
 70
     7
 71
     1
 72
     0
 73
     1
 90
        0
 40
-0.6
 41
-30.0
 62
     5
 63
     7
421
 16777215
 74
     0
 91
        4
 64
     7
 65
   257
 75
     1
175
     1
 42
1.0
 92
        8
 66
     7
 43
1.0
 76
     1
 77
     6
 78
     2
 67
     7
 79
     5
170
     0
171
     0
290
     0
174
     0
 93
        1
 44
0.0
173
     0
291
     1
 45
0.0
  0
VISUALSTYLE
  5
273
102
{ACAD_REACTORS
330
267
102
}
330
267
100
AcDbVisualStyle
  2
Brighten
 70
    12
 71
     2
 72
     2
 73
     0
 90
        0
 40
-0.6
 41
-30.0
 62
     5
 63
     7
421
 16777215
 74
     1
 91
        4
 64
     7
 65
   257
 75
     1
175
     1
 42
1.0
 92
        8
 66
     7
 43
1.0
 76
     1
 77
     6
 78
     2
 67
     7
 79
     5
170
     0
171
     0
290
     0
174
     0
 93
        1
 44
50.0
173
     0
291
     1
 45
0.0
  0
VISUALSTYLE
  5
277
102
{ACAD_REACTORS
330
267
102
}
330
267
100
AcDbVisualStyle
  2
ColorChange
 70
    16
 71
     2
 72
     2
 73
     3
 90
        0
 40
-0.6
 41
-30.0
 62
     5
 63
     8
421
  8421504
 74
     1
 91
        4
 64
     7
 65
   257
 75
     1
175
     1
 42
1.0
 92
        8
 66
     8
424
  8421504
 43
1.0
 76
     1
 77
     6
 78
     2
 67
     7
 79
     5
170
     0
171
     0
290
     0
174
     0
 93
        1
 44
0.0
173
     0
291
     1
 45
0.0
  0
VISUALSTYLE
  5
271
102
{ACAD_REACTORS
330
267
102
}
330
267
100
AcDbVisualStyle
  2
Conceptual
 70
     9
 71
     3
 72
     2
 73
     0
 90
        0
 40
-0.6
 41
-30.0
 62
     5
 63
     7
421
 16777215
 74
     2
 91
        2
 64
     7
 65
   257
 75
     1
175
     1
 42
40.0
 92
        8
 66
     7
 43
1.0
 76
     1
 77
     6
 78
     2
 67
     7
 79
     3
170
     0
171
     0
290
     0
174
     0
 93
        1
 44
0.0
173
     0
291
     0
 45
0.0
  0
VISUALSTYLE
  5
272
102
{ACAD_REACTORS
330
267
102
}
330
267
100
AcDbVisualStyle
  2
Dim
 70
    11
 71
     2
 72
     2
 73
     0
 90
        0
 40
-0.6
 41
-30.0
 62
     5
 63
     7
421
 16777215
 74
     1
 91
        4
 64
     7
 65
   257
 75
     1
175
     1
 42
1.0
 92
        8
 66
     7
 43
1.0
 76
     1
 77
     6
 78
     2
 67
     7
 79
     5
170
     0
171
     0
290
     0
174
     0
 93
        1
 44
-50.0
173
     0
291
     1
 45
0.0
  0
VISUALSTYLE
  5
8BC
102
{ACAD_REACTORS
330
267
102
}
330
267
100
AcDbVisualStyle
  2
EdgeColorOff
 70
    22
 71
     2
 72
     2
 73
     0
 90
        0
 40
0.6
 41
30.0
 62
     5
 63
     7
421
 16777215
 74
     1
 91
        4
 64
     7
 65
   257
 75
     1
175
     1
 42
1.0
 92
        8
 66
     7
 43
1.0
 76
     1
 77
     6
 78
     2
 67
     7
 79
     5
170
     0
171
     0
290
     0
174
     0
 93
        1
 44
0.0
173
     0
291
     1
 45
0.0
  0
VISUALSTYLE
  5
276
102
{ACAD_REACTORS
330
267
102
}
330
267
100
AcDbVisualStyle
  2
Facepattern
 70
    15
 71
     2
 72
     2
 73
     0
 90
        0
 40
-0.6
 41
-30.0
 62
     5
 63
     7
421
 16777215
 74
     1
 91
        4
 64
     7
 65
   257
 75
     1
175
     1
 42
1.0
 92
        8
 66
     7
 43
1.0
 76
     1
 77
     6
 78
     2
 67
     7
 79
     5
170
     0
171
     0
290
     0
174
     0
 93
        1
 44
0.0
173
     0
291
     1
 45
0.0
  0
VISUALSTYLE
  5
268
102
{ACAD_REACTORS
330
267
102
}
330
267
100
AcDbVisualStyle
  2
Flat
 70
     0
 71
     2
 72
     1
 73
     1
 90
        2
 40
-0.6
 41
30.0
 62
     5
 63
     7
421
 16777215
 74
     0
 91
        4
 64
     7
 65
   257
 75
     1
175
     1
 42
1.0
 92
        8
 66
     7
 43
1.0
 76
     1
 77
     6
 78
     2
 67
     7
 79
     5
170
     0
171
     0
290
     0
174
     0
 93
       13
 44
0.0
173
     0
291
     1
 45
0.0
  0
VISUALSTYLE
  5
269
102
{ACAD_REACTORS
330
267
102
}
330
267
100
AcDbVisualStyle
  2
FlatWithEdges
 70
     1
 71
     2
 72
     1
 73
     1
 90
        2
 40
-0.6
 41
30.0
 62
     5
 63
     7
421
 16777215
 74
     1
 91
        4
 64
     7
 65
   257
 75
     1
175
     1
 42
1.0
 92
        0
 66
   257
 43
1.0
 76
     1
 77
     6
 78
     2
 67
     7
 79
     5
170
     0
171
     0
290
     0
174
     0
 93
       13
 44
0.0
173
     0
291
     1
 45
0.0
  0
VISUALSTYLE
  5
26A
102
{ACAD_REACTORS
330
267
102
}
330
267
100
AcDbVisualStyle
  2
Gouraud
 70
     2
 71
     2
 72
     2
 73
     1
 90
        2
 40
-0.6
 41
30.0
 62
     5
 63
     7
421
 16777215
 74
     0
 91
        4
 64
     7
 65
   257
 75
     1
175
     1
 42
1.0
 92
        0
 66
     7
 43
1.0
 76
     1
 77
     6
 78
     2
 67
     7
 79
     5
170
     0
171
     0
290
     0
174
     0
 93
       13
 44
0.0
173
     0
291
     1
 45
0.0
  0
VISUALSTYLE
  5
26B
102
{ACAD_REACTORS
330
267
102
}
330
267
100
AcDbVisualStyle
  2
GouraudWithEdges
 70
     3
 71
     2
 72
     2
 73
     1
 90
        2
 40
-0.6
 41
30.0
 62
     5
 63
     7
421
 16777215
 74
     1
 91
        4
 64
     7
 65
   257
 75
     1
175
     1
 42
1.0
 92
        0
 66
   257
 43
1.0
 76
     1
 77
     6
 78
     2
 67
     7
 79
     5
170
     0
171
     0
290
     0
174
     0
 93
       13
 44
0.0
173
     0
291
     1
 45
0.0
  0
VISUALSTYLE
  5
8B9
102
{ACAD_REACTORS
330
267
102
}
330
267
100
AcDbVisualStyle
  2
Hidden
 70
     6
 71
     1
 72
     2
 73
     2
 90
        0
 40
0.6
 41
30.0
 62
     5
 63
     7
421
 16777215
 74
     2
 91
        2
 64
     7
 65
   257
 75
     2
175
     1
 42
40.0
 92
        0
 66
   257
 43
1.0
 76
     1
 77
     6
 78
     2
 67
     7
 79
     3
170
     0
171
     0
290
     0
174
     0
 93
        1
 44
0.0
173
     0
291
     0
 45
0.0
  0
VISUALSTYLE
  5
8BA
102
{ACAD_REACTORS
330
267
102
}
330
267
100
AcDbVisualStyle
  2
JitterOff
 70
    20
 71
     2
 72
     2
 73
     0
 90
        0
 40
0.6
 41
30.0
 62
     5
 63
     7
421
 16777215
 74
     1
 91
        4
 64
     7
 65
   257
 75
     1
175
     1
 42
1.0
 92
       10
 66
     7
 43
1.0
 76
     1
 77
     6
 78
     2
 67
     7
 79
     5
170
     0
171
     0
290
     0
174
     0
 93
        1
 44
0.0
173
     0
291
     1
 45
0.0
  0
VISUALSTYLE
  5
275
102
{ACAD_REACTORS
330
267
102
}
330
267
100
AcDbVisualStyle
  2
Linepattern
 70
    14
 71
     2
 72
     2
 73
     0
 90
        0
 40
-0.6
 41
-30.0
 62
     5
 63
     7
421
 16777215
 74
     1
 91
        4
 64
     7
 65
   257
 75
     7
175
     7
 42
1.0
 92
        8
 66
     7
 43
1.0
 76
     1
 77
     6
 78
     2
 67
     7
 79
     5
170
     0
171
     0
290
     0
174
     0
 93
        1
 44
0.0
173
     0
291
     1
 45
0.0
  0
VISUALSTYLE
  5
8BB
102
{ACAD_REACTORS
330
267
102
}
330
267
100
AcDbVisualStyle
  2
OverhangOff
 70
    21
 71
     2
 72
     2
 73
     0
 90
        0
 40
0.6
 41
30.0
 62
     5
 63
     7
421
 16777215
 74
     1
 91
        4
 64
     7
 65
   257
 75
     1
175
     1
 42
1.0
 92
        9
 66
     7
 43
1.0
 76
     1
 77
     6
 78
     2
 67
     7
 79
     5
170
     0
171
     0
290
     0
174
     0
 93
        1
 44
0.0
173
     0
291
     1
 45
0.0
  0
VISUALSTYLE
  5
270
102
{ACAD_REACTORS
330
267
102
}
330
267
100
AcDbVisualStyle
  2
Realistic
 70
     8
 71
     2
 72
     2
 73
     0
 90
        0
 40
-0.6
 41
-30.0
 62
     5
 63
     7
421
 16777215
 74
     1
 91
        0
 64
     7
 65
   257
 75
     1
175
     1
 42
1.0
 92
        8
 66
     8
424
  7895160
 43
1.0
 76
     1
 77
     6
 78
     2
 67
     7
 79
     5
170
     0
171
     0
290
     0
174
     0
 93
       13
 44
0.0
173
     0
291
     0
 45
0.0
  0
VISUALSTYLE
  5
8C1
102
{ACAD_REACTORS
330
267
102
}
330
267
100
AcDbVisualStyle
  2
Shaded
 70
    27
 71
     2
 72
     2
 73
     1
 90
        2
 40
0.6
 41
30.0
 62
     5
 63
     7
421
 16777215
 74
     0
 91
        4
 64
     7
 65
   257
 75
     1
175
     1
 42
1.0
 92
        8
 66
   257
 43
1.0
 76
     1
 77
     6
 78
     2
 67
     8
425
  7895160
 79
     3
170
     0
171
     0
290
     0
174
     0
 93
        5
 44
0.0
173
     0
291
     0
 45
0.0
  0
VISUALSTYLE
  5
8C0
102
{ACAD_REACTORS
330
267
102
}
330
267
100
AcDbVisualStyle
  2
Shaded with edges
 70
    26
 71
     2
 72
     2
 73
     1
 90
        2
 40
0.6
 41
30.0
 62
     5
 63
     7
421
 16777215
 74
     1
 91
       10
 64
     7
 65
   257
 75
     2
175
     1
 42
1.0
 92
        8
 66
   257
 43
1.0
 76
     1
 77
     6
 78
     2
 67
     7
 79
     3
170
     0
171
     0
290
     0
174
     0
 93
        5
 44
0.0
173
     0
291
     0
 45
0.0
  0
VISUALSTYLE
  5
8BD
102
{ACAD_REACTORS
330
267
102
}
330
267
100
AcDbVisualStyle
  2
Shades of Gray
 70
    23
 71
     2
 72
     2
 73
     3
 90
        0
 40
0.6
 41
30.0
 62
     5
 63
     7
421
 16777215
 74
     2
 91
        2
 64
     7
 65
     7
 75
     1
175
     1
 42
40.0
 92
        8
 66
     7
 43
1.0
 76
     1
 77
     6
 78
     2
 67
     7
 79
     3
170
     0
171
     0
290
     0
174
     0
 93
        1
 44
0.0
173
     0
291
     0
 45
0.0
  0
VISUALSTYLE
  5
8BE
102
{ACAD_REACTORS
330
267
102
}
330
267
100
AcDbVisualStyle
  2
Sketchy
 70
    24
 71
     1
 72
     2
 73
     2
 90
        0
 40
0.6
 41
30.0
 62
     5
 63
     7
421
 16777215
 74
     2
 91
        2
 64
     7
 65
     7
 75
     1
175
     1
 42
40.0
 92
       11
 66
     7
 43
1.0
 76
     1
 77
     6
 78
     2
 67
     7
 79
     6
170
     0
171
     0
290
     0
174
     0
 93
        1
 44
0.0
173
     0
291
     0
 45
0.0
  0
VISUALSTYLE
  5
274
102
{ACAD_REACTORS
330
267
102
}
330
267
100
AcDbVisualStyle
  2
Thicken
 70
    13
 71
     2
 72
     2
 73
     0
 90
        0
 40
-0.6
 41
-30.0
 62
     5
 63
     7
421
 16777215
 74
     1
 91
        4
 64
     7
 65
   257
 75
     1
175
     1
 42
1.0
 92
       12
 66
     7
 43
1.0
 76
     1
 77
     6
 78
     2
 67
     7
 79
     5
170
     0
171
     0
290
     0
174
     0
 93
        1
 44
0.0
173
     0
291
     1
 45
0.0
  0
VISUALSTYLE
  5
8B8
102
{ACAD_REACTORS
330
267
102
}
330
267
100
AcDbVisualStyle
  2
Wireframe
 70
     5
 71
     0
 72
     2
 73
     0
 90
        0
 40
0.6
 41
30.0
 62
     5
 63
     7
421
 16777215
 74
     1
 91
        4
 64
     7
 65
   257
 75
     1
175
     1
 42
1.0
 92
        0
 66
   257
 43
1.0
 76
     1
 77
     6
 78
     2
 67
     7
 79
     3
170
     0
171
     0
290
     0
174
     0
 93
        1
 44
0.0
173
     0
291
     0
 45
0.0
  0
VISUALSTYLE
  5
8BF
102
{ACAD_REACTORS
330
267
102
}
330
267
100
AcDbVisualStyle
  2
X-Ray
 70
    25
 71
     2
 72
     2
 73
     1
 90
        1
 40
0.5
 41
30.0
 62
     5
 63
     7
421
 16777215
 74
     1
 91
        0
 64
     7
 65
   257
 75
     1
175
     1
 42
1.0
 92
        8
 66
     7
 43
1.0
 76
     1
 77
     6
 78
     2
 67
     7
 79
     3
170
     0
171
     0
290
     0
174
     0
 93
       13
 44
0.0
173
     0
291
     0
 45
0.0
  0
DICTIONARYVAR
  5
331
102
{ACAD_REACTORS
330
330
102
}
330
330
100
DictionaryVariables
280
     0
  1
1:1
  0
DICTIONARYVAR
  5
8DA
102
{ACAD_REACTORS
330
330
102
}
330
330
100
DictionaryVariables
280
     0
  1
Standard
  0
DICTIONARYVAR
  5
335
102
{ACAD_REACTORS
330
330
102
}
330
330
100
DictionaryVariables
280
     0
  1
Standard
  0
DICTIONARYVAR
  5
C07
102
{ACAD_REACTORS
330
330
102
}
330
330
100
DictionaryVariables
280
     0
  1
ByLayer
  0
DICTIONARYVAR
  5
64A
102
{ACAD_REACTORS
330
330
102
}
330
330
100
DictionaryVariables
280
     0
  1
0
  0
DICTIONARYVAR
  5
4342
102
{ACAD_REACTORS
330
C08
102
}
330
C08
100
DictionaryVariables
280
     0
  1
0.261799
  0
DICTIONARYVAR
  5
4340
102
{ACAD_REACTORS
330
C08
102
}
330
C08
100
DictionaryVariables
280
     0
  1
0.400000
  0
DICTIONARYVAR
  5
4341
102
{ACAD_REACTORS
330
C08
102
}
330
C08
100
DictionaryVariables
280
     0
  1
0.250000
  0
DICTIONARYVAR
  5
4343
102
{ACAD_REACTORS
330
C08
102
}
330
C08
100
DictionaryVariables
280
     0
  1
1
  0
FIELD
  5
BDE
102
{ACAD_REACTORS
330
6B0B
102
}
330
6B0B
100
AcDbField
  1
_text
  2
{%<\_FldIdx 0>%N}
 90
        1
360
BDF
 97
        0
 91
       63
 92
        0
 94
       11
 95
        2
 96
        0
300

 93
        1
  6
ACFD_FIELDTEXT_CHECKSUM
 93
        2
 90
        2
140
4516.0
 94
        0
300

302

304
ACVALUE_END
  7
ACFD_FIELD_VALUE
 93
        6
 90
        4
  1
{20190405N}
 94
        0
300

302

304
ACVALUE_END
301
{20190405N}
 98
       11
  0
DICTIONARY
  5
6B39
330
279
100
AcDbDictionary
280
     1
281
     1
  3
ACAD_ROUNDTRIP_2008_TABLESTYLE_CELLSTYLEMAP
360
6B3A
  0
FIELD
  5
BDF
330
BDE
100
AcDbField
  1
AcVar
  2
\AcVar Date \f "yyyyMMdd"
 90
        0
 97
        0
 91
       63
 92
        0
 94
        8
 95
       64
 96
        0
300
Variable not supported
 93
        1
  6
Variable
 93
        2
 90
        4
  1
Date
 94
        0
300

302

304
ACVALUE_END
  7
ACFD_FIELD_VALUE
 93
        6
 90
        8
 92
       16
310
E30704000000040010001D0030000000
 94
        0
300
yyyyMMdd
302

304
ACVALUE_END
301
20190405
 98
        8
  0
CELLSTYLEMAP
  5
6B3A
102
{ACAD_REACTORS
330
6B39
102
}
330
6B39
100
AcDbCellStyleMap
 90
        3
300
CELLSTYLE
  1
TABLEFORMAT_BEGIN
 90
        5
170
     1
 91
        0
 92
    32768
 62
   257
 93
        1
300
CONTENTFORMAT
  1
CONTENTFORMAT_BEGIN
 90
        0
 91
        0
 92
        4
 93
        0
300

 40
0.0
140
1.0
 94
        5
 62
     0
340
17
144
6.0
309
CONTENTFORMAT_END
171
     1
301
MARGIN
  1
CELLMARGIN_BEGIN
 40
0.06
 40
0.06
 40
0.06
 40
0.06
 40
0.18
 40
0.18
309
CELLMARGIN_END
 94
        6
 95
        1
302
GRIDFORMAT
  1
GRIDFORMAT_BEGIN
 90
        0
 91
        1
 62
     0
 92
       -2
340
0
 93
        0
 40
0.045
309
GRIDFORMAT_END
 95
        2
302
GRIDFORMAT
  1
GRIDFORMAT_BEGIN
 90
        0
 91
        1
 62
     0
 92
       -2
340
0
 93
        0
 40
0.045
309
GRIDFORMAT_END
 95
        4
302
GRIDFORMAT
  1
GRIDFORMAT_BEGIN
 90
        0
 91
        1
 62
     0
 92
       -2
340
0
 93
        0
 40
0.045
309
GRIDFORMAT_END
 95
        8
302
GRIDFORMAT
  1
GRIDFORMAT_BEGIN
 90
        0
 91
        1
 62
     0
 92
       -2
340
0
 93
        0
 40
0.045
309
GRIDFORMAT_END
 95
       16
302
GRIDFORMAT
  1
GRIDFORMAT_BEGIN
 90
        0
 91
        1
 62
     0
 92
       -2
340
0
 93
        0
 40
0.045
309
GRIDFORMAT_END
 95
       32
302
GRIDFORMAT
  1
GRIDFORMAT_BEGIN
 90
        0
 91
        1
 62
     0
 92
       -2
340
0
 93
        0
 40
0.045
309
GRIDFORMAT_END
309
TABLEFORMAT_END
  1
CELLSTYLE_BEGIN
 90
        1
 91
        1
300
_TITLE
309
CELLSTYLE_END
300
CELLSTYLE
  1
TABLEFORMAT_BEGIN
 90
        5
170
     1
 91
        0
 92
        0
 62
   257
 93
        1
300
CONTENTFORMAT
  1
CONTENTFORMAT_BEGIN
 90
        0
 91
        0
 92
        4
 93
        0
300

 40
0.0
140
1.0
 94
        5
 62
     0
340
17
144
4.5
309
CONTENTFORMAT_END
171
     1
301
MARGIN
  1
CELLMARGIN_BEGIN
 40
0.06
 40
0.06
 40
0.06
 40
0.06
 40
0.18
 40
0.18
309
CELLMARGIN_END
 94
        6
 95
        1
302
GRIDFORMAT
  1
GRIDFORMAT_BEGIN
 90
        0
 91
        1
 62
     0
 92
       -2
340
0
 93
        0
 40
0.045
309
GRIDFORMAT_END
 95
        2
302
GRIDFORMAT
  1
GRIDFORMAT_BEGIN
 90
        0
 91
        1
 62
     0
 92
       -2
340
0
 93
        0
 40
0.045
309
GRIDFORMAT_END
 95
        4
302
GRIDFORMAT
  1
GRIDFORMAT_BEGIN
 90
        0
 91
        1
 62
     0
 92
       -2
340
0
 93
        0
 40
0.045
309
GRIDFORMAT_END
 95
        8
302
GRIDFORMAT
  1
GRIDFORMAT_BEGIN
 90
        0
 91
        1
 62
     0
 92
       -2
340
0
 93
        0
 40
0.045
309
GRIDFORMAT_END
 95
       16
302
GRIDFORMAT
  1
GRIDFORMAT_BEGIN
 90
        0
 91
        1
 62
     0
 92
       -2
340
0
 93
        0
 40
0.045
309
GRIDFORMAT_END
 95
       32
302
GRIDFORMAT
  1
GRIDFORMAT_BEGIN
 90
        0
 91
        1
 62
     0
 92
       -2
340
0
 93
        0
 40
0.045
309
GRIDFORMAT_END
309
TABLEFORMAT_END
  1
CELLSTYLE_BEGIN
 90
        2
 91
        1
300
_HEADER
309
CELLSTYLE_END
300
CELLSTYLE
  1
TABLEFORMAT_BEGIN
 90
        5
170
     1
 91
        0
 92
        0
 62
   257
 93
        1
300
CONTENTFORMAT
  1
CONTENTFORMAT_BEGIN
 90
        0
 91
        0
 92
        4
 93
        0
300

 40
0.0
140
1.0
 94
        2
 62
     0
340
17
144
4.5
309
CONTENTFORMAT_END
171
     1
301
MARGIN
  1
CELLMARGIN_BEGIN
 40
0.06
 40
0.06
 40
0.06
 40
0.06
 40
0.18
 40
0.18
309
CELLMARGIN_END
 94
        6
 95
        1
302
GRIDFORMAT
  1
GRIDFORMAT_BEGIN
 90
        0
 91
        1
 62
     0
 92
       -2
340
0
 93
        0
 40
0.045
309
GRIDFORMAT_END
 95
        2
302
GRIDFORMAT
  1
GRIDFORMAT_BEGIN
 90
        0
 91
        1
 62
     0
 92
       -2
340
0
 93
        0
 40
0.045
309
GRIDFORMAT_END
 95
        4
302
GRIDFORMAT
  1
GRIDFORMAT_BEGIN
 90
        0
 91
        1
 62
     0
 92
       -2
340
0
 93
        0
 40
0.045
309
GRIDFORMAT_END
 95
        8
302
GRIDFORMAT
  1
GRIDFORMAT_BEGIN
 90
        0
 91
        1
 62
     0
 92
       -2
340
0
 93
        0
 40
0.045
309
GRIDFORMAT_END
 95
       16
302
GRIDFORMAT
  1
GRIDFORMAT_BEGIN
 90
        0
 91
        1
 62
     0
 92
       -2
340
0
 93
        0
 40
0.045
309
GRIDFORMAT_END
 95
       32
302
GRIDFORMAT
  1
GRIDFORMAT_BEGIN
 90
        0
 91
        1
 62
     0
 92
       -2
340
0
 93
        0
 40
0.045
309
GRIDFORMAT_END
309
TABLEFORMAT_END
  1
CELLSTYLE_BEGIN
 90
        3
 91
        2
300
_DATA
309
CELLSTYLE_END
  0
ENDSEC
  0
EOF
