  0
SECTION
  2
HEADER
  9
$ACADVER
  1
AC1021
  9
$ACADMAINTVER
 70
    25
  9
$DWGCODEPAGE
  3
ANSI_932
  9
$LASTSAVEDBY
  1
howeNelson
  9
$INSBASE
 10
0.0
 20
0.0
 30
0.0
  9
$EXTMIN
 10
0.0
 20
0.0
 30
0.0
  9
$EXTMAX
 10
2100.0
 20
2970.0
 30
34.99521132346015
  9
$LIMMIN
 10
0.0
 20
0.0
  9
$LIMMAX
 10
2100.0
 20
2970.0
  9
$ORTHOMODE
 70
     0
  9
$REGENMODE
 70
     1
  9
$FILLMODE
 70
     1
  9
$QTEXTMODE
 70
     0
  9
$MIRRTEXT
 70
     1
  9
$LTSCALE
 40
5.0
  9
$ATTMODE
 70
     1
  9
$TEXTSIZE
 40
533.0403732820173
  9
$TRACEWID
 40
1.0
  9
$TEXTSTYLE
  7
Standard
  9
$CLAYER
  8
Dim
  9
$CELTYPE
  6
Continuous
  9
$CECOLOR
 62
   256
  9
$CELTSCALE
 40
1.0
  9
$DISPSILH
 70
     0
  9
$DIMSCALE
 40
1.0
  9
$DIMASZ
 40
9.999389648437498
  9
$DIMEXO
 40
25.0
  9
$DIMDLI
 40
0.9999999999999999
  9
$DIMRND
 40
0.0
  9
$DIMDLE
 40
0.0
  9
$DIMEXE
 40
0.0
  9
$DIMTP
 40
0.0
  9
$DIMTM
 40
0.0
  9
$DIMTXT
 40
24.4326171875
  9
$DIMCEN
 40
0.0
  9
$DIMTSZ
 40
0.0
  9
$DIMTOL
 70
     0
  9
$DIMLIM
 70
     0
  9
$DIMTIH
 70
     0
  9
$DIMTOH
 70
     0
  9
$DIMSE1
 70
     0
  9
$DIMSE2
 70
     0
  9
$DIMTAD
 70
     1
  9
$DIMZIN
 70
    11
  9
$DIMBLK
  1
DOT
  9
$DIMASO
 70
     1
  9
$DIMSHO
 70
     1
  9
$DIMPOST
  1
<>
  9
$DIMAPOST
  1
[]
  9
$DIMALT
 70
     0
  9
$DIMALTD
 70
     1
  9
$DIMALTF
 40
1.0
  9
$DIMLFAC
 40
1.0
  9
$DIMTOFL
 70
     1
  9
$DIMTVP
 40
0.0
  9
$DIMTIX
 70
     1
  9
$DIMSOXD
 70
     0
  9
$DIMSAH
 70
     0
  9
$DIMBLK1
  1

  9
$DIMBLK2
  1

  9
$DIMSTYLE
  2
tform線あり
  9
$DIMCLRD
 70
     0
  9
$DIMCLRE
 70
     0
  9
$DIMCLRT
 70
     0
  9
$DIMTFAC
 40
0.8
  9
$DIMGAP
 40
10.0
  9
$DIMJUST
 70
     0
  9
$DIMSD1
 70
     0
  9
$DIMSD2
 70
     0
  9
$DIMTOLJ
 70
     1
  9
$DIMTZIN
 70
    11
  9
$DIMALTZ
 70
    11
  9
$DIMALTTZ
 70
    11
  9
$DIMUPT
 70
     0
  9
$DIMDEC
 70
     1
  9
$DIMTDEC
 70
     1
  9
$DIMALTU
 70
     2
  9
$DIMALTTD
 70
     2
  9
$DIMTXSTY
  7
ＭＳ ゴシック
  9
$DIMAUNIT
 70
     0
  9
$DIMADEC
 70
     2
  9
$DIMALTRND
 40
0.0
  9
$DIMAZIN
 70
     0
  9
$DIMDSEP
 70
    46
  9
$DIMATFIT
 70
     0
  9
$DIMFRAC
 70
     2
  9
$DIMLDRBLK
  1
DOT
  9
$DIMLUNIT
 70
     2
  9
$DIMLWD
 70
    -2
  9
$DIMLWE
 70
    -2
  9
$DIMTMOVE
 70
     0
  9
$DIMFXL
 40
1.0
  9
$DIMFXLON
 70
     0
  9
$DIMJOGANG
 40
0.7853981633974483
  9
$DIMTFILL
 70
     0
  9
$DIMTFILLCLR
 70
     0
  9
$DIMARCSYM
 70
     0
  9
$DIMLTYPE
  6

  9
$DIMLTEX1
  6

  9
$DIMLTEX2
  6

  9
$LUNITS
 70
     2
  9
$LUPREC
 70
     0
  9
$SKETCHINC
 40
0.1
  9
$FILLETRAD
 40
0.0
  9
$AUNITS
 70
     0
  9
$AUPREC
 70
     0
  9
$MENU
  1
acad
  9
$ELEVATION
 40
0.0
  9
$PELEVATION
 40
0.0
  9
$THICKNESS
 40
0.0
  9
$LIMCHECK
 70
     0
  9
$CHAMFERA
 40
0.0
  9
$CHAMFERB
 40
0.0
  9
$CHAMFERC
 40
0.0
  9
$CHAMFERD
 40
0.0
  9
$SKPOLY
 70
     0
  9
$TDCREATE
 40
2447893.375
  9
$TDUCREATE
 40
0.0
  9
$TDUPDATE
 40
2458880.465851377
  9
$TDUUPDATE
 40
2458880.090851377
  9
$TDINDWG
 40
0.0113585417
  9
$TDUSRTIMER
 40
0.0038450926
  9
$USRTIMER
 70
     1
  9
$ANGBASE
 50
0.0
  9
$ANGDIR
 70
     0
  9
$PDMODE
 70
     1
  9
$PDSIZE
 40
-2.0
  9
$PLINEWID
 40
0.0
  9
$SPLFRAME
 70
     0
  9
$SPLINETYPE
 70
     6
  9
$SPLINESEGS
 70
     8
  9
$HANDSEED
  5
3D1F
  9
$SURFTAB1
 70
     6
  9
$SURFTAB2
 70
     6
  9
$SURFTYPE
 70
     6
  9
$SURFU
 70
     6
  9
$SURFV
 70
     6
  9
$UCSBASE
  2

  9
$UCSNAME
  2

  9
$UCSORG
 10
0.0
 20
0.0
 30
0.0
  9
$UCSXDIR
 10
1.0
 20
0.0
 30
0.0
  9
$UCSYDIR
 10
0.0
 20
1.0
 30
0.0
  9
$UCSORTHOREF
  2

  9
$UCSORTHOVIEW
 70
     0
  9
$UCSORGTOP
 10
0.0
 20
0.0
 30
0.0
  9
$UCSORGBOTTOM
 10
0.0
 20
0.0
 30
0.0
  9
$UCSORGLEFT
 10
0.0
 20
0.0
 30
0.0
  9
$UCSORGRIGHT
 10
0.0
 20
0.0
 30
0.0
  9
$UCSORGFRONT
 10
0.0
 20
0.0
 30
0.0
  9
$UCSORGBACK
 10
0.0
 20
0.0
 30
0.0
  9
$PUCSBASE
  2

  9
$PUCSNAME
  2

  9
$PUCSORG
 10
0.0
 20
0.0
 30
0.0
  9
$PUCSXDIR
 10
1.0
 20
0.0
 30
0.0
  9
$PUCSYDIR
 10
0.0
 20
1.0
 30
0.0
  9
$PUCSORTHOREF
  2

  9
$PUCSORTHOVIEW
 70
     0
  9
$PUCSORGTOP
 10
0.0
 20
0.0
 30
0.0
  9
$PUCSORGBOTTOM
 10
0.0
 20
0.0
 30
0.0
  9
$PUCSORGLEFT
 10
0.0
 20
0.0
 30
0.0
  9
$PUCSORGRIGHT
 10
0.0
 20
0.0
 30
0.0
  9
$PUCSORGFRONT
 10
0.0
 20
0.0
 30
0.0
  9
$PUCSORGBACK
 10
0.0
 20
0.0
 30
0.0
  9
$USERI1
 70
     0
  9
$USERI2
 70
     0
  9
$USERI3
 70
     0
  9
$USERI4
 70
     0
  9
$USERI5
 70
     0
  9
$USERR1
 40
0.0
  9
$USERR2
 40
0.0
  9
$USERR3
 40
0.0
  9
$USERR4
 40
0.0
  9
$USERR5
 40
0.0
  9
$WORLDVIEW
 70
     1
  9
$SHADEDGE
 70
     3
  9
$SHADEDIF
 70
    70
  9
$TILEMODE
 70
     1
  9
$MAXACTVP
 70
    64
  9
$PINSBASE
 10
0.0
 20
0.0
 30
0.0
  9
$PLIMCHECK
 70
     0
  9
$PEXTMIN
 10
0.0
 20
0.0
 30
0.0
  9
$PEXTMAX
 10
0.0
 20
0.0
 30
0.0
  9
$PLIMMIN
 10
-7.5
 20
-20.0
  9
$PLIMMAX
 10
412.5
 20
277.0
  9
$UNITMODE
 70
     0
  9
$VISRETAIN
 70
     0
  9
$PLINEGEN
 70
     1
  9
$PSLTSCALE
 70
     0
  9
$TREEDEPTH
 70
  3020
  9
$CMLSTYLE
  2
Standard
  9
$CMLJUST
 70
     0
  9
$CMLSCALE
 40
1.0
  9
$PROXYGRAPHICS
 70
     0
  9
$MEASUREMENT
 70
     1
  9
$CELWEIGHT
370
    -1
  9
$ENDCAPS
280
     0
  9
$JOINSTYLE
280
     0
  9
$LWDISPLAY
290
     1
  9
$INSUNITS
 70
     4
  9
$HYPERLINKBASE
  1

  9
$STYLESHEET
  1

  9
$XEDIT
290
     1
  9
$CEPSNTYPE
380
     0
  9
$PSTYLEMODE
290
     1
  9
$FINGERPRINTGUID
  2

  9
$VERSIONGUID
  2

  9
$EXTNAMES
290
     1
  9
$PSVPSCALE
 40
0.0
  9
$OLESTARTUP
290
     0
  9
$SORTENTS
280
   127
  9
$INDEXCTL
280
     0
  9
$HIDETEXT
280
     1
  9
$XCLIPFRAME
290
     0
  9
$HALOGAP
280
     0
  9
$OBSCOLOR
 70
   257
  9
$OBSLTYPE
280
     0
  9
$INTERSECTIONDISPLAY
280
     0
  9
$INTERSECTIONCOLOR
 70
   257
  9
$DIMASSOC
280
     2
  9
$PROJECTNAME
  1

  9
$CAMERADISPLAY
290
     0
  9
$LENSLENGTH
 40
50.0
  9
$CAMERAHEIGHT
 40
0.0
  9
$STEPSPERSEC
 40
2.0
  9
$STEPSIZE
 40
6.0
  9
$3DDWFPREC
 40
2.0
  9
$PSOLWIDTH
 40
0.25
  9
$PSOLHEIGHT
 40
4.0
  9
$LOFTANG1
 40
1.570796326794897
  9
$LOFTANG2
 40
1.570796326794897
  9
$LOFTMAG1
 40
0.0
  9
$LOFTMAG2
 40
0.0
  9
$LOFTPARAM
 70
     7
  9
$LOFTNORMALS
280
     1
  9
$LATITUDE
 40
37.795
  9
$LONGITUDE
 40
-122.394
  9
$NORTHDIRECTION
 40
0.0
  9
$TIMEZONE
 70
 -8000
  9
$LIGHTGLYPHDISPLAY
280
     1
  9
$TILEMODELIGHTSYNCH
280
     1
  9
$SOLIDHIST
280
     1
  9
$SHOWHIST
280
     1
  9
$DWFFRAME
280
     2
  9
$DGNFRAME
280
     2
  9
$REALWORLDSCALE
290
     1
  9
$INTERFERECOLOR
 62
   256
  9
$CSHADOW
280
     0
  9
$SHADOWPLANELOCATION
 40
0.0
  0
ENDSEC
  0
SECTION
  2
CLASSES
  0
CLASS
  1
LWPOLYLINE
  2
AcDbPolyline
  3
ObjectDBX Classes
 90
        0
 91
        1
280
     0
281
     1
  0
CLASS
  1
IMAGE
  2
AcDbRasterImage
  3
ISM
 90
      127
 91
        5
280
     0
281
     1
  0
CLASS
  1
OLE2FRAME
  2
AcDbOle2Frame
  3
ObjectDBX Classes
 90
        0
 91
        1
280
     0
281
     1
  0
CLASS
  1
HATCH
  2
AcDbHatch
  3
ObjectDBX Classes
 90
        0
 91
        1
280
     0
281
     1
  0
CLASS
  1
DICTIONARYVAR
  2
AcDbDictionaryVar
  3
ObjectDBX Classes
 90
        0
 91
        4
280
     0
281
     0
  0
CLASS
  1
RASTERVARIABLES
  2
AcDbRasterVariables
  3
ISM
 90
        0
 91
        4
280
     0
281
     0
  0
CLASS
  1
IMAGEDEF
  2
AcDbRasterImageDef
  3
ISM
 90
        0
 91
        4
280
     0
281
     0
  0
CLASS
  1
IMAGEDEF_REACTOR
  2
AcDbRasterImageDefReactor
  3
ISM
 90
        1
 91
        4
280
     0
281
     0
  0
CLASS
  1
IDBUFFER
  2
AcDbIdBuffer
  3
ObjectDBX Classes
 90
        0
 91
        4
280
     0
281
     0
  0
CLASS
  1
SPATIAL_FILTER
  2
AcDbSpatialFilter
  3
ObjectDBX Classes
 90
        0
 91
        4
280
     0
281
     0
  0
CLASS
  1
XRECORD
  2
AcDbXrecord
  3
ObjectDBX Classes
 90
        0
 91
        1
280
     0
281
     0
  0
CLASS
  1
SORTENTSTABLE
  2
AcDbSortentsTable
  3
ObjectDBX Classes
 90
        0
 91
        4
280
     0
281
     0
  0
CLASS
  1
LAYER_INDEX
  2
AcDbLayerIndex
  3
ObjectDBX Classes
 90
        0
 91
        4
280
     0
281
     0
  0
CLASS
  1
SPATIAL_INDEX
  2
AcDbSpatialIndex
  3
AutoCAD 2000
 90
        0
 91
        4
280
     0
281
     0
  0
CLASS
  1
OBJECT_PTR
  2
CAseDLPNTableRecord
  3
ASE-LPNTableRecord
 90
        1
 91
        4
280
     0
281
     0
  0
CLASS
  1
LAYOUT
  2
AcDbLayout
  3
ObjectDBX Classes
 90
        0
 91
        1
280
     0
281
     0
  0
CLASS
  1
PLOTSETTINGS
  2
AcDbPlotSettings
  3
ObjectDBX Classes
 90
        0
 91
        4
280
     0
281
     0
  0
CLASS
  1
ACDBDICTIONARYWDFLT
  2
AcDbDictionaryWithDefault
  3
ObjectDBX Classes
 90
        0
 91
        4
280
     0
281
     0
  0
CLASS
  1
ACDBPLACEHOLDER
  2
AcDbPlaceHolder
  3
ObjectDBX Classes
 90
        0
 91
        1
280
     0
281
     0
  0
CLASS
  1
SCALE
  2
AcDbScale
  3
ObjectDBX Classes
 90
     1153
 91
        4
280
     0
281
     0
  0
CLASS
  1
MATERIAL
  2
AcDbMaterial
  3
ObjectDBX Classes
 90
     1153
 91
        4
280
     0
281
     0
  0
CLASS
  1
VISUALSTYLE
  2
AcDbVisualStyle
  3
ObjectDBX Classes
 90
     4095
 91
        4
280
     0
281
     0
  0
CLASS
  1
TABLESTYLE
  2
AcDbTableStyle
  3
ObjectDBX Classes
 90
     4095
 91
        4
280
     0
281
     0
  0
CLASS
  1
DIMASSOC
  2
AcDbDimAssoc
  3
"AcDbDimAssoc|Product Desc:     AcDim ARX App For Dimension|Company:          Autodesk, Inc.|WEB Address:      www.autodesk.com"
 90
        0
 91
        4
280
     0
281
     0
  0
CLASS
  1
CELLSTYLEMAP
  2
AcDbCellStyleMap
  3
ObjectDBX Classes
 90
     1152
 91
        4
280
     0
281
     0
  0
CLASS
  1
SUN
  2
AcDbSun
  3
SCENEOE
 90
     1153
 91
        4
280
     0
281
     0
  0
CLASS
  1
MLEADERSTYLE
  2
AcDbMLeaderStyle
  3
ACDB_MLEADERSTYLE_CLASS
 90
     4095
 91
        4
280
     0
281
     0
  0
CLASS
  1
FIELD
  2
AcDbField
  3
ObjectDBX Classes
 90
     1152
 91
        4
280
     0
281
     0
  0
CLASS
  1
FIELDLIST
  2
AcDbFieldList
  3
ObjectDBX Classes
 90
     1152
 91
        4
280
     0
281
     0
  0
CLASS
  1
ACDB_ALDIMOBJECTCONTEXTDATA_CLASS
  2
AcDbAlignedDimensionObjectContextData
  3
ObjectDBX Classes
 90
     1153
 91
        4
280
     0
281
     0
  0
ENDSEC
  0
SECTION
  2
TABLES
  0
TABLE
  2
VPORT
  5
7
330
0
100
AcDbSymbolTable
 70
     1
  0
VPORT
  5
15
330
7
100
AcDbSymbolTableRecord
100
AcDbViewportTableRecord
  2
*ACTIVE
 70
     0
 10
0.0
 20
0.0
 11
1.0
 21
1.0
 12
672.9525617540357
 22
1782.612370234528
 13
0.0
 23
0.0
 14
1.0
 24
1.0
 15
0.0
 25
0.0
 16
0.0
 26
0.0
 36
1.0
 17
377.0474382459643
 27
-297.6123702345278
 37
0.0
 40
3029.4
 41
2.311764705882353
 42
50.0
 43
0.0
 44
0.0
 50
0.0
 51
0.0
 71
    16
 72
  2000
 73
     1
 74
     1
 75
     0
 76
     0
 77
     0
 78
     0
281
     0
 65
     1
110
0.0
120
0.0
130
0.0
111
1.0
121
0.0
131
0.0
112
0.0
122
1.0
132
0.0
 79
     0
146
0.0
348
26C
 60
     3
 61
     5
292
     1
282
     1
141
0.0
142
0.0
 63
   256
361
8C2
  0
ENDTAB
  0
TABLE
  2
LTYPE
  5
4
330
0
100
AcDbSymbolTable
 70
     3
  0
LTYPE
  5
11
330
4
100
AcDbSymbolTableRecord
100
AcDbLinetypeTableRecord
  2
ByBlock
 70
     0
  3

 72
    65
 73
     0
 40
0.0
  0
LTYPE
  5
12
330
4
100
AcDbSymbolTableRecord
100
AcDbLinetypeTableRecord
  2
ByLayer
 70
     0
  3

 72
    65
 73
     0
 40
0.0
  0
LTYPE
  5
13
330
4
100
AcDbSymbolTableRecord
100
AcDbLinetypeTableRecord
  2
Continuous
 70
     0
  3
Solid line
 72
    65
 73
     0
 40
0.0
  0
LTYPE
  5
8D4
330
4
100
AcDbSymbolTableRecord
100
AcDbLinetypeTableRecord
  2
HIDDEN
 70
     0
  3
Hidden _ _ _ _ _ _ _ _ _ _ _ _ _ _ _ _ _ _ _ _ 
 72
    65
 73
     2
 40
9.524999999999999
 49
6.35
 74
     0
 49
-3.175
 74
     0
  0
LTYPE
  5
BF2
330
4
100
AcDbSymbolTableRecord
100
AcDbLinetypeTableRecord
  2
BORDER
 70
     0
  3
Border __  __  . __  __  . __  __  . __  __  . 
 72
    65
 73
     6
 40
44.45
 49
12.7
 74
     0
 49
-6.35
 74
     0
 49
12.7
 74
     0
 49
-6.35
 74
     0
 49
0.0
 74
     0
 49
-6.35
 74
     0
  0
ENDTAB
  0
TABLE
  2
LAYER
  5
2
102
{ACAD_XDICTIONARY
360
2E1
102
}
330
0
100
AcDbSymbolTable
 70
     8
  0
LAYER
  5
14
330
2
100
AcDbSymbolTableRecord
100
AcDbLayerTableRecord
  2
0
 70
     0
 62
     7
  6
Continuous
370
    -3
390
1D
347
266
  0
LAYER
  5
4A
330
2
100
AcDbSymbolTableRecord
100
AcDbLayerTableRecord
  2
Defpoints
 70
     0
 62
     7
  6
Continuous
290
     0
370
    20
390
1D
347
266
  0
LAYER
  5
4B
330
2
100
AcDbSymbolTableRecord
100
AcDbLayerTableRecord
  2
template
 70
     0
 62
     7
  6
Continuous
370
    20
390
1D
347
266
  0
LAYER
  5
4D
330
2
100
AcDbSymbolTableRecord
100
AcDbLayerTableRecord
  2
MODEL
 70
     0
 62
     7
  6
Continuous
370
    20
390
1D
347
266
  0
LAYER
  5
382
330
2
100
AcDbSymbolTableRecord
100
AcDbLayerTableRecord
  2
レイヤー 1
 70
     0
 62
     7
  6
Continuous
370
    -3
390
1D
347
266
  0
LAYER
  5
5C4
330
2
100
AcDbSymbolTableRecord
100
AcDbLayerTableRecord
  2
HIDDEN
 70
     0
 62
   253
  6
HIDDEN
370
    20
390
1D
347
266
1001
AcAecLayerStandard
1000

1000

  0
LAYER
  5
5EB
330
2
100
AcDbSymbolTableRecord
100
AcDbLayerTableRecord
  2
Dim
 70
     0
 62
     3
  6
Continuous
370
    13
390
1D
347
266
1001
AcAecLayerStandard
1000

1000

  0
LAYER
  5
BF1
330
2
100
AcDbSymbolTableRecord
100
AcDbLayerTableRecord
  2
PRINT BORDER
 70
     0
 62
     4
  6
BORDER
290
     0
370
    20
390
1D
347
266
1001
AcAecLayerStandard
1000

1000

  0
ENDTAB
  0
TABLE
  2
STYLE
  5
3
330
0
100
AcDbSymbolTable
 70
     2
  0
STYLE
  5
17
330
3
100
AcDbSymbolTableRecord
100
AcDbTextStyleTableRecord
  2
Standard
 70
     0
 40
0.0
 41
1.0
 50
0.0
 71
     0
 42
533.0403732820173
  3
txt
  4
BIGFONT.SHX
  0
STYLE
  5
39
330
3
100
AcDbSymbolTableRecord
100
AcDbTextStyleTableRecord
  2
ＭＳ ゴシック
 70
     0
 40
0.0
 41
1.0
 50
0.0
 71
     0
 42
533.0403732820173
  3
msgothic.ttc
  4
ＭＳ ゴシック
1001
ACAD
1000
ＭＳ ゴシック
1071
        0
  0
ENDTAB
  0
TABLE
  2
VIEW
  5
5
330
0
100
AcDbSymbolTable
 70
     0
  0
ENDTAB
  0
TABLE
  2
UCS
  5
6
330
0
100
AcDbSymbolTable
 70
     0
  0
ENDTAB
  0
TABLE
  2
APPID
  5
8
330
0
100
AcDbSymbolTable
 70
    14
  0
APPID
  5
16
330
8
100
AcDbSymbolTableRecord
100
AcDbRegAppTableRecord
  2
ACAD
 70
     0
  0
APPID
  5
5C5
330
8
100
AcDbSymbolTableRecord
100
AcDbRegAppTableRecord
  2
AcAecLayerStandard
 70
     0
  0
APPID
  5
913
330
8
100
AcDbSymbolTableRecord
100
AcDbRegAppTableRecord
  2
ACAD_DSTYLE_DIMBREAK
 70
     0
  0
APPID
  5
914
330
8
100
AcDbSymbolTableRecord
100
AcDbRegAppTableRecord
  2
ACAD_DSTYLE_DIMJAG
 70
     0
  0
APPID
  5
915
330
8
100
AcDbSymbolTableRecord
100
AcDbRegAppTableRecord
  2
ACAD_DSTYLE_DIMTALN
 70
     0
  0
APPID
  5
E4F
330
8
100
AcDbSymbolTableRecord
100
AcDbRegAppTableRecord
  2
ACAD_MLEADERVER
 70
     0
  0
APPID
  5
E79
330
8
100
AcDbSymbolTableRecord
100
AcDbRegAppTableRecord
  2
ACAD_PSEXT
 70
     0
  0
APPID
  5
E7A
330
8
100
AcDbSymbolTableRecord
100
AcDbRegAppTableRecord
  2
ACAD_NAV_VCDISPLAY
 70
     0
  0
APPID
  5
166E
330
8
100
AcDbSymbolTableRecord
100
AcDbRegAppTableRecord
  2
AcadAnnotative
 70
     0
  0
APPID
  5
166F
330
8
100
AcDbSymbolTableRecord
100
AcDbRegAppTableRecord
  2
GradientColor1ACI
 70
     0
  0
APPID
  5
1670
330
8
100
AcDbSymbolTableRecord
100
AcDbRegAppTableRecord
  2
GradientColor2ACI
 70
     0
  0
APPID
  5
20FE
330
8
100
AcDbSymbolTableRecord
100
AcDbRegAppTableRecord
  2
AcLayerTools
 70
     0
  0
APPID
  5
27AB
330
8
100
AcDbSymbolTableRecord
100
AcDbRegAppTableRecord
  2
ACAD_DSTYLE_DIMRADIAL_EXTENSION
 70
     0
  0
APPID
  5
38DC
330
8
100
AcDbSymbolTableRecord
100
AcDbRegAppTableRecord
  2
AcCmTransparency
 70
     0
  0
ENDTAB
  0
TABLE
  2
DIMSTYLE
  5
9
330
0
100
AcDbSymbolTable
 70
     2
100
AcDbDimStyleTable
  0
DIMSTYLE
105
18
330
9
100
AcDbSymbolTableRecord
100
AcDbDimStyleTableRecord
  2
Standard
 70
     0
178
     0
340
17
  0
DIMSTYLE
105
56
102
{ACAD_REACTORS
330
3ACC
330
3AD0
330
3AD8
330
3AD6
330
3BE4
330
3C50
330
3C89
330
3C98
330
3CB0
102
}
330
9
100
AcDbSymbolTableRecord
100
AcDbDimStyleTableRecord
  2
tform線あり
 70
     0
  3
<>
  4
[]
 41
9.999389648437498
 42
25.0
 43
0.9999999999999999
 44
0.0
 73
     0
 74
     0
 77
     1
 78
    11
140
24.4326171875
141
0.0
143
1.0
146
0.8
147
10.0
171
     1
172
     1
174
     1
178
     0
179
     2
271
     1
272
     1
276
     2
284
    11
285
    11
286
    11
289
     0
340
39
341
4E
342
4E
  0
ENDTAB
  0
TABLE
  2
BLOCK_RECORD
  5
1
330
0
100
AcDbSymbolTable
 70
    44
  0
BLOCK_RECORD
  5
A
102
{ACAD_XDICTIONARY
360
3C74
102
}
330
1
100
AcDbSymbolTableRecord
100
AcDbBlockTableRecord
  2
*MODEL_SPACE
340
20
 70
     0
280
     1
281
     0
  0
BLOCK_RECORD
  5
B
330
1
100
AcDbSymbolTableRecord
100
AcDbBlockTableRecord
  2
*PAPER_SPACE
340
21
 70
     0
280
     1
281
     0
  0
BLOCK_RECORD
  5
4E
330
1
100
AcDbSymbolTableRecord
100
AcDbBlockTableRecord
  2
_DOT
340
0
102
{BLKREFS
331
37C3
331
37C4
331
37CF
331
37D0
331
37DB
331
37DC
331
37F3
331
37F4
331
380D
331
380E
331
381A
331
381B
331
382D
331
382E
331
383A
331
383B
331
3856
331
3857
331
388C
331
388D
331
389D
331
389E
331
3AE7
331
3AE8
331
3AF4
331
3AF5
331
3B01
331
3B02
331
3B0E
331
3B0F
331
3B1B
331
3B1C
331
3B28
331
3B29
331
3B35
331
3B36
331
3B42
331
3B43
331
3B77
331
3B78
331
3B83
331
3B84
331
3BFE
331
3BFF
331
3C0A
331
3C0B
331
3C46
331
3C47
331
3C57
331
3C58
331
3C83
331
3C84
331
3C92
331
3C93
331
3CA1
331
3CA2
331
3CB7
331
3CB8
102
}
 70
     0
280
     1
281
     0
  0
BLOCK_RECORD
  5
3A5
330
1
100
AcDbSymbolTableRecord
100
AcDbBlockTableRecord
  2
名称未設定-1
340
0
102
{BLKREFS
331
3D0
102
}
 70
     1
280
     1
281
     0
  0
BLOCK_RECORD
  5
3A8
330
1
100
AcDbSymbolTableRecord
100
AcDbBlockTableRecord
  2
block 2
340
0
102
{BLKREFS
331
3A7
102
}
 70
     0
280
     1
281
     0
  0
BLOCK_RECORD
  5
3AB
330
1
100
AcDbSymbolTableRecord
100
AcDbBlockTableRecord
  2
block 3
340
0
102
{BLKREFS
331
3AA
102
}
 70
     0
280
     1
281
     0
  0
BLOCK_RECORD
  5
3AE
330
1
100
AcDbSymbolTableRecord
100
AcDbBlockTableRecord
  2
block 4
340
0
102
{BLKREFS
331
3AD
102
}
 70
     0
280
     1
281
     0
  0
BLOCK_RECORD
  5
3BD
330
1
100
AcDbSymbolTableRecord
100
AcDbBlockTableRecord
  2
block 5
340
0
102
{BLKREFS
331
3BC
102
}
 70
     0
280
     1
281
     0
  0
BLOCK_RECORD
  5
11F0
330
1
100
AcDbSymbolTableRecord
100
AcDbBlockTableRecord
  2
BLOCK_2
340
0
102
{BLKREFS
331
1273
331
127B
331
127C
102
}
 70
     0
280
     1
281
     0
  0
BLOCK_RECORD
  5
37BD
330
1
100
AcDbSymbolTableRecord
100
AcDbBlockTableRecord
  2
*D7
340
0
 70
     0
280
     1
281
     0
  0
BLOCK_RECORD
  5
37C9
330
1
100
AcDbSymbolTableRecord
100
AcDbBlockTableRecord
  2
*D8
340
0
 70
     0
280
     1
281
     0
  0
BLOCK_RECORD
  5
37D5
330
1
100
AcDbSymbolTableRecord
100
AcDbBlockTableRecord
  2
*D9
340
0
 70
     0
280
     1
281
     0
  0
BLOCK_RECORD
  5
37ED
330
1
100
AcDbSymbolTableRecord
100
AcDbBlockTableRecord
  2
*D10
340
0
 70
     0
280
     1
281
     0
  0
BLOCK_RECORD
  5
3807
330
1
100
AcDbSymbolTableRecord
100
AcDbBlockTableRecord
  2
*D11
340
0
 70
     0
280
     1
281
     0
  0
BLOCK_RECORD
  5
3814
330
1
100
AcDbSymbolTableRecord
100
AcDbBlockTableRecord
  2
*D12
340
0
 70
     0
280
     1
281
     0
  0
BLOCK_RECORD
  5
3827
330
1
100
AcDbSymbolTableRecord
100
AcDbBlockTableRecord
  2
*D13
340
0
 70
     0
280
     1
281
     0
  0
BLOCK_RECORD
  5
3834
330
1
100
AcDbSymbolTableRecord
100
AcDbBlockTableRecord
  2
*D14
340
0
 70
     0
280
     1
281
     0
  0
BLOCK_RECORD
  5
3850
330
1
100
AcDbSymbolTableRecord
100
AcDbBlockTableRecord
  2
*D15
340
0
 70
     0
280
     1
281
     0
  0
BLOCK_RECORD
  5
3886
330
1
100
AcDbSymbolTableRecord
100
AcDbBlockTableRecord
  2
*D16
340
0
 70
     0
280
     1
281
     0
  0
BLOCK_RECORD
  5
3897
330
1
100
AcDbSymbolTableRecord
100
AcDbBlockTableRecord
  2
*D17
340
0
 70
     0
280
     1
281
     0
  0
BLOCK_RECORD
  5
39AE
330
1
100
AcDbSymbolTableRecord
100
AcDbBlockTableRecord
  2
*D18
340
0
 70
     0
280
     1
281
     0
  0
BLOCK_RECORD
  5
39BB
330
1
100
AcDbSymbolTableRecord
100
AcDbBlockTableRecord
  2
*D19
340
0
 70
     0
280
     1
281
     0
  0
BLOCK_RECORD
  5
39C8
330
1
100
AcDbSymbolTableRecord
100
AcDbBlockTableRecord
  2
*D20
340
0
 70
     0
280
     1
281
     0
  0
BLOCK_RECORD
  5
39D3
330
1
100
AcDbSymbolTableRecord
100
AcDbBlockTableRecord
  2
*D21
340
0
 70
     0
280
     1
281
     0
  0
BLOCK_RECORD
  5
39DE
330
1
100
AcDbSymbolTableRecord
100
AcDbBlockTableRecord
  2
*D22
340
0
 70
     0
280
     1
281
     0
  0
BLOCK_RECORD
  5
39EB
330
1
100
AcDbSymbolTableRecord
100
AcDbBlockTableRecord
  2
*D23
340
0
 70
     0
280
     1
281
     0
  0
BLOCK_RECORD
  5
39F8
330
1
100
AcDbSymbolTableRecord
100
AcDbBlockTableRecord
  2
*D24
340
0
 70
     0
280
     1
281
     0
  0
BLOCK_RECORD
  5
3A05
330
1
100
AcDbSymbolTableRecord
100
AcDbBlockTableRecord
  2
*D25
340
0
 70
     0
280
     1
281
     0
  0
BLOCK_RECORD
  5
3AE1
330
1
100
AcDbSymbolTableRecord
100
AcDbBlockTableRecord
  2
*D26
340
0
 70
     0
280
     1
281
     0
  0
BLOCK_RECORD
  5
3AEE
330
1
100
AcDbSymbolTableRecord
100
AcDbBlockTableRecord
  2
*D27
340
0
 70
     0
280
     1
281
     0
  0
BLOCK_RECORD
  5
3AFB
330
1
100
AcDbSymbolTableRecord
100
AcDbBlockTableRecord
  2
*D28
340
0
 70
     0
280
     1
281
     0
  0
BLOCK_RECORD
  5
3B08
330
1
100
AcDbSymbolTableRecord
100
AcDbBlockTableRecord
  2
*D29
340
0
 70
     0
280
     1
281
     0
  0
BLOCK_RECORD
  5
3B15
330
1
100
AcDbSymbolTableRecord
100
AcDbBlockTableRecord
  2
*D30
340
0
 70
     0
280
     1
281
     0
  0
BLOCK_RECORD
  5
3B22
330
1
100
AcDbSymbolTableRecord
100
AcDbBlockTableRecord
  2
*D31
340
0
 70
     0
280
     1
281
     0
  0
BLOCK_RECORD
  5
3B2F
330
1
100
AcDbSymbolTableRecord
100
AcDbBlockTableRecord
  2
*D32
340
0
 70
     0
280
     1
281
     0
  0
BLOCK_RECORD
  5
3B3C
330
1
100
AcDbSymbolTableRecord
100
AcDbBlockTableRecord
  2
*D33
340
0
 70
     0
280
     1
281
     0
  0
BLOCK_RECORD
  5
3B71
330
1
100
AcDbSymbolTableRecord
100
AcDbBlockTableRecord
  2
*D34
340
0
 70
     0
280
     1
281
     0
  0
BLOCK_RECORD
  5
3B7D
330
1
100
AcDbSymbolTableRecord
100
AcDbBlockTableRecord
  2
*D35
340
0
 70
     0
280
     1
281
     0
  0
BLOCK_RECORD
  5
3BF8
330
1
100
AcDbSymbolTableRecord
100
AcDbBlockTableRecord
  2
*D36
340
0
 70
     0
280
     1
281
     0
  0
BLOCK_RECORD
  5
3C04
330
1
100
AcDbSymbolTableRecord
100
AcDbBlockTableRecord
  2
*D37
340
0
 70
     0
280
     1
281
     0
  0
BLOCK_RECORD
  5
3C41
330
1
100
AcDbSymbolTableRecord
100
AcDbBlockTableRecord
  2
*D38
340
0
 70
     0
280
     1
281
     0
  0
BLOCK_RECORD
  5
3C51
330
1
100
AcDbSymbolTableRecord
100
AcDbBlockTableRecord
  2
*D39
340
0
 70
     0
280
     1
281
     0
  0
BLOCK_RECORD
  5
3C7D
330
1
100
AcDbSymbolTableRecord
100
AcDbBlockTableRecord
  2
*D40
340
0
 70
     0
280
     1
281
     0
  0
BLOCK_RECORD
  5
3C8C
330
1
100
AcDbSymbolTableRecord
100
AcDbBlockTableRecord
  2
*D41
340
0
 70
     0
280
     1
281
     0
  0
BLOCK_RECORD
  5
3C9B
330
1
100
AcDbSymbolTableRecord
100
AcDbBlockTableRecord
  2
*D42
340
0
 70
     0
280
     1
281
     0
  0
BLOCK_RECORD
  5
3CB1
330
1
100
AcDbSymbolTableRecord
100
AcDbBlockTableRecord
  2
*D43
340
0
 70
     0
280
     1
281
     0
  0
ENDTAB
  0
ENDSEC
  0
SECTION
  2
BLOCKS
  0
BLOCK
  5
D
330
A
100
AcDbEntity
  8
0
390
1D
100
AcDbBlockBegin
  2
*MODEL_SPACE
 70
     0
 10
0.0
 20
0.0
 30
0.0
  3
*MODEL_SPACE
  1
*MODEL_SPACE
  0
ENDBLK
  5
E
330
A
100
AcDbEntity
  8
0
390
1D
100
AcDbBlockEnd
  0
BLOCK
  5
F
330
B
100
AcDbEntity
 67
     1
  8
0
390
1D
100
AcDbBlockBegin
  2
*PAPER_SPACE
 70
     0
 10
0.0
 20
0.0
 30
0.0
  3
*PAPER_SPACE
  1
*PAPER_SPACE
  0
ENDBLK
  5
10
330
B
100
AcDbEntity
 67
     1
  8
0
390
1D
100
AcDbBlockEnd
  0
BLOCK
  5
2C14
330
4E
100
AcDbEntity
  8
0
390
1D
100
AcDbBlockBegin
  2
_DOT
 70
     0
 10
0.0
 20
0.0
 30
0.0
  3
_DOT
  1
_DOT
  0
POLYLINE
  5
2C16
330
4E
100
AcDbEntity
  8
0
  6
ByBlock
 62
     0
370
    -2
390
1D
100
AcDb2dPolyline
 66
     1
 10
0.0
 20
0.0
 30
0.0
 70
     1
 40
0.5
 41
0.5
  0
VERTEX
  5
2C17
330
2C16
100
AcDbEntity
  8
0
  6
ByBlock
 62
     0
370
    -2
390
1D
100
AcDbVertex
100
AcDb2dVertex
 10
-0.25
 20
0.0
 30
0.0
 42
1.0
  0
VERTEX
  5
2C18
330
2C16
100
AcDbEntity
  8
0
  6
ByBlock
 62
     0
370
    -2
390
1D
100
AcDbVertex
100
AcDb2dVertex
 10
0.25
 20
0.0
 30
0.0
 42
1.0
  0
SEQEND
  5
2C19
330
2C16
100
AcDbEntity
  8
0
390
1D
  0
LINE
  5
2C1A
330
4E
100
AcDbEntity
  8
0
  6
ByBlock
 62
     0
370
    -2
390
1D
100
AcDbLine
 10
-0.5
 20
0.0
 30
0.0
 11
-1.0
 21
0.0
 31
0.0
  0
ENDBLK
  5
2C1B
330
4E
100
AcDbEntity
  8
0
390
1D
100
AcDbBlockEnd
  0
BLOCK
  5
3A6
330
3A5
100
AcDbEntity
  8
0
100
AcDbBlockBegin
  2
名称未設定-1
 70
     0
 10
0.0
 20
0.0
 30
0.0
  3
名称未設定-1
  1
名称未設定-1
  0
INSERT
  5
3A7
330
3A5
100
AcDbEntity
  8
レイヤー 1
100
AcDbBlockReference
  2
block 2
 10
0.0
 20
0.0
 30
0.0
  0
ENDBLK
  5
3CC
330
3A5
100
AcDbEntity
  8
0
100
AcDbBlockEnd
  0
BLOCK
  5
3A9
330
3A8
100
AcDbEntity
  8
0
100
AcDbBlockBegin
  2
block 2
 70
     0
 10
0.0
 20
0.0
 30
0.0
  3
block 2
  1
block 2
  0
INSERT
  5
3AA
330
3A8
100
AcDbEntity
  8
レイヤー 1
100
AcDbBlockReference
  2
block 3
 10
0.0
 20
0.0
 30
0.0
  0
ENDBLK
  5
3CB
330
3A8
100
AcDbEntity
  8
0
100
AcDbBlockEnd
  0
BLOCK
  5
3AC
330
3AB
100
AcDbEntity
  8
0
100
AcDbBlockBegin
  2
block 3
 70
     0
 10
0.0
 20
0.0
 30
0.0
  3
block 3
  1
block 3
  0
INSERT
  5
3AD
330
3AB
100
AcDbEntity
  8
レイヤー 1
100
AcDbBlockReference
  2
block 4
 10
0.0
 20
0.0
 30
0.0
  0
ENDBLK
  5
3CA
330
3AB
100
AcDbEntity
  8
0
100
AcDbBlockEnd
  0
BLOCK
  5
3AF
330
3AE
100
AcDbEntity
  8
0
100
AcDbBlockBegin
  2
block 4
 70
     0
 10
0.0
 20
0.0
 30
0.0
  3
block 4
  1
block 4
  0
POLYLINE
  5
3B0
330
3AE
100
AcDbEntity
  8
レイヤー 1
370
     0
100
AcDb2dPolyline
 66
     1
 10
0.0
 20
0.0
 30
0.0
  0
VERTEX
  5
3B1
330
3B0
100
AcDbEntity
  8
レイヤー 1
370
     0
100
AcDbVertex
100
AcDb2dVertex
 10
83.79545727667795
 20
167.6444858234922
 30
0.0
  0
VERTEX
  5
3B2
330
3B0
100
AcDbEntity
  8
レイヤー 1
370
     0
100
AcDbVertex
100
AcDb2dVertex
 10
83.79545727667795
 20
159.7968976406313
 30
0.0
  0
VERTEX
  5
3B3
330
3B0
100
AcDbEntity
  8
レイヤー 1
370
     0
100
AcDbVertex
100
AcDb2dVertex
 10
71.3631329975216
 20
159.7968976406313
 30
0.0
  0
VERTEX
  5
3B4
330
3B0
100
AcDbEntity
  8
レイヤー 1
370
     0
100
AcDbVertex
100
AcDb2dVertex
 10
71.3631329975216
 20
127.8027915271048
 30
0.0
  0
VERTEX
  5
3B5
330
3B0
100
AcDbEntity
  8
レイヤー 1
370
     0
100
AcDbVertex
100
AcDb2dVertex
 10
60.43011526263018
 20
127.8027915271048
 30
0.0
  0
VERTEX
  5
3B6
330
3B0
100
AcDbEntity
  8
レイヤー 1
370
     0
100
AcDbVertex
100
AcDb2dVertex
 10
60.43011526263018
 20
159.7968976406313
 30
0.0
  0
VERTEX
  5
3B7
330
3B0
100
AcDbEntity
  8
レイヤー 1
370
     0
100
AcDbVertex
100
AcDb2dVertex
 10
48.21793273020759
 20
159.7968976406313
 30
0.0
  0
VERTEX
  5
3B8
330
3B0
100
AcDbEntity
  8
レイヤー 1
370
     0
100
AcDbVertex
100
AcDb2dVertex
 10
48.21793273020759
 20
167.6444858234922
 30
0.0
  0
VERTEX
  5
3B9
330
3B0
100
AcDbEntity
  8
レイヤー 1
370
     0
100
AcDbVertex
100
AcDb2dVertex
 10
83.79545727667795
 20
167.6444858234922
 30
0.0
  0
SEQEND
  5
3BA
330
3B0
100
AcDbEntity
  8
レイヤー 1
370
     0
  0
HATCH
  5
3BB
330
3AE
100
AcDbEntity
  8
レイヤー 1
 62
   250
420
  2234388
100
AcDbHatch
 10
0.0
 20
0.0
 30
0.0
210
0.0
220
0.0
230
1.0
  2
SOLID
 70
     1
 71
     0
 91
        1
 92
        1
 93
        8
 72
     1
 10
83.79545727667795
 20
167.6444858234922
 11
83.79545727667795
 21
159.7968976406313
 72
     1
 10
83.79545727667795
 20
159.7968976406313
 11
71.3631329975216
 21
159.7968976406313
 72
     1
 10
71.3631329975216
 20
159.7968976406313
 11
71.3631329975216
 21
127.8027915271048
 72
     1
 10
71.3631329975216
 20
127.8027915271048
 11
60.43011526263018
 21
127.8027915271048
 72
     1
 10
60.43011526263018
 20
127.8027915271048
 11
60.43011526263018
 21
159.7968976406313
 72
     1
 10
60.43011526263018
 20
159.7968976406313
 11
48.21793273020759
 21
159.7968976406313
 72
     1
 10
48.21793273020759
 20
159.7968976406313
 11
48.21793273020759
 21
167.6444858234922
 72
     1
 10
48.21793273020759
 20
167.6444858234922
 11
83.79545727667795
 21
167.6444858234922
 97
        0
 75
     2
 76
     1
 98
        0
  0
INSERT
  5
3BC
330
3AE
100
AcDbEntity
  8
レイヤー 1
100
AcDbBlockReference
  2
block 5
 10
0.0
 20
0.0
 30
0.0
  0
ENDBLK
  5
3C9
330
3AE
100
AcDbEntity
  8
0
100
AcDbBlockEnd
  0
BLOCK
  5
3BE
330
3BD
100
AcDbEntity
  8
0
100
AcDbBlockBegin
  2
block 5
 70
     0
 10
0.0
 20
0.0
 30
0.0
  3
block 5
  1
block 5
  0
SPLINE
  5
3BF
330
3BD
100
AcDbEntity
  8
レイヤー 1
370
     0
100
AcDbSpline
210
0.0
220
0.0
230
1.0
 70
    11
 71
     3
 72
    56
 73
    52
 74
     0
 42
0.000000001
 43
0.0000000001
 40
0.0
 40
0.0
 40
0.0
 40
0.0
 40
1.0
 40
1.0
 40
1.0
 40
2.0
 40
2.0
 40
2.0
 40
3.0
 40
3.0
 40
3.0
 40
4.0
 40
4.0
 40
4.0
 40
5.0
 40
5.0
 40
5.0
 40
6.0
 40
6.0
 40
6.0
 40
7.0
 40
7.0
 40
7.0
 40
8.0
 40
8.0
 40
8.0
 40
9.0
 40
9.0
 40
9.0
 40
10.0
 40
10.0
 40
10.0
 40
11.0
 40
11.0
 40
11.0
 40
12.0
 40
12.0
 40
12.0
 40
13.0
 40
13.0
 40
13.0
 40
14.0
 40
14.0
 40
14.0
 40
15.0
 40
15.0
 40
15.0
 40
16.0
 40
16.0
 40
16.0
 40
17.0
 40
17.0
 40
17.0
 40
17.0
 10
100.4504378777679
 20
166.69157178364
 30
0.0
 10
101.9848844191641
 20
167.1313385124438
 30
0.0
 10
103.9637485713373
 20
166.7649523658846
 30
0.0
 10
103.9637485713373
 20
166.7649523658846
 30
0.0
 10
103.9637485713373
 20
166.7649523658846
 30
0.0
 10
103.0132460999156
 20
163.911205638077
 30
0.0
 10
103.0132460999156
 20
163.911205638077
 30
0.0
 10
103.0132460999156
 20
163.911205638077
 30
0.0
 10
101.0674548862189
 20
164.3601018759394
 30
0.0
 10
99.57090442016032
 20
163.1805004036133
 30
0.0
 10
98.40508333886608
 20
162.258247733807
 30
0.0
 10
97.65301849830304
 20
159.804132345923
 30
0.0
 10
97.3598406791005
 20
158.8699940888517
 30
0.0
 10
97.3598406791005
 20
158.8699940888517
 30
0.0
 10
96.07137411762282
 20
154.9119212747295
 30
0.0
 10
96.07137411762282
 20
154.9119212747295
 30
0.0
 10
96.07137411762282
 20
154.9119212747295
 30
0.0
 10
100.3012651448482
 20
154.9119212747295
 30
0.0
 10
100.3012651448482
 20
154.9119212747295
 30
0.0
 10
100.3012651448482
 20
154.9119212747295
 30
0.0
 10
99.64152892419852
 20
152.4199098115079
 30
0.0
 10
99.64152892419852
 20
152.4199098115079
 30
0.0
 10
99.64152892419852
 20
152.4199098115079
 30
0.0
 10
95.38097652692731
 20
152.4199098115079
 30
0.0
 10
95.38097652692731
 20
152.4199098115079
 30
0.0
 10
95.38097652692731
 20
152.4199098115079
 30
0.0
 10
87.75353009080013
 20
127.8027915271048
 30
0.0
 10
87.75353009080013
 20
127.8027915271048
 30
0.0
 10
87.75353009080013
 20
127.8027915271048
 30
0.0
 10
85.36538832498108
 20
127.8027915271048
 30
0.0
 10
85.36538832498108
 20
127.8027915271048
 30
0.0
 10
85.36538832498108
 20
127.8027915271048
 30
0.0
 10
93.00006946639998
 20
152.4199098115079
 30
0.0
 10
93.00006946639998
 20
152.4199098115079
 30
0.0
 10
93.00006946639998
 20
152.4199098115079
 30
0.0
 10
89.85297266450198
 20
152.4199098115079
 30
0.0
 10
89.85297266450198
 20
152.4199098115079
 30
0.0
 10
89.85297266450198
 20
152.4199098115079
 30
0.0
 10
90.51270888515164
 20
154.9119212747295
 30
0.0
 10
90.51270888515164
 20
154.9119212747295
 30
0.0
 10
90.51270888515164
 20
154.9119212747295
 30
0.0
 10
93.6904670570955
 20
154.9119212747295
 30
0.0
 10
93.6904670570955
 20
154.9119212747295
 30
0.0
 10
93.6904670570955
 20
154.9119212747295
 30
0.0
 10
94.81598049462158
 20
158.3616699146644
 30
0.0
 10
94.81598049462158
 20
158.3616699146644
 30
0.0
 10
95.7237637538445
 20
161.2605474231013
 30
0.0
 10
96.4968436907311
 20
162.8139420021662
 30
0.0
 10
97.15657991138076
 20
163.9844139654337
 30
0.0
 10
97.81183750494507
 20
165.1523021053827
 30
0.0
 10
99.1047826935081
 20
166.3084769129547
 30
0.0
 10
100.4504378777679
 20
166.69157178364
 30
0.0
  0
HATCH
  5
3C0
330
3BD
100
AcDbEntity
  8
レイヤー 1
 62
   250
420
  2234388
100
AcDbHatch
 10
0.0
 20
0.0
 30
0.0
210
0.0
220
0.0
230
1.0
  2
SOLID
 70
     1
 71
     0
 91
        1
 92
        1
 93
        1
 72
     4
 94
        3
 73
     0
 74
     1
 95
       56
 96
       52
 40
0.0
 40
0.0
 40
0.0
 40
0.0
 40
1.0
 40
1.0
 40
1.0
 40
2.0
 40
2.0
 40
2.0
 40
3.0
 40
3.0
 40
3.0
 40
4.0
 40
4.0
 40
4.0
 40
5.0
 40
5.0
 40
5.0
 40
6.0
 40
6.0
 40
6.0
 40
7.0
 40
7.0
 40
7.0
 40
8.0
 40
8.0
 40
8.0
 40
9.0
 40
9.0
 40
9.0
 40
10.0
 40
10.0
 40
10.0
 40
11.0
 40
11.0
 40
11.0
 40
12.0
 40
12.0
 40
12.0
 40
13.0
 40
13.0
 40
13.0
 40
14.0
 40
14.0
 40
14.0
 40
15.0
 40
15.0
 40
15.0
 40
16.0
 40
16.0
 40
16.0
 40
17.0
 40
17.0
 40
17.0
 40
17.0
 10
100.4504378777679
 20
166.69157178364
 10
101.9848844191641
 20
167.1313385124438
 10
103.9637485713373
 20
166.7649523658846
 10
103.9637485713373
 20
166.7649523658846
 10
103.9637485713373
 20
166.7649523658846
 10
103.0132460999156
 20
163.911205638077
 10
103.0132460999156
 20
163.911205638077
 10
103.0132460999156
 20
163.911205638077
 10
101.0674548862189
 20
164.3601018759394
 10
99.57090442016032
 20
163.1805004036133
 10
98.40508333886608
 20
162.258247733807
 10
97.65301849830304
 20
159.804132345923
 10
97.3598406791005
 20
158.8699940888517
 10
97.3598406791005
 20
158.8699940888517
 10
96.07137411762282
 20
154.9119212747295
 10
96.07137411762282
 20
154.9119212747295
 10
96.07137411762282
 20
154.9119212747295
 10
100.3012651448482
 20
154.9119212747295
 10
100.3012651448482
 20
154.9119212747295
 10
100.3012651448482
 20
154.9119212747295
 10
99.64152892419852
 20
152.4199098115079
 10
99.64152892419852
 20
152.4199098115079
 10
99.64152892419852
 20
152.4199098115079
 10
95.38097652692731
 20
152.4199098115079
 10
95.38097652692731
 20
152.4199098115079
 10
95.38097652692731
 20
152.4199098115079
 10
87.75353009080013
 20
127.8027915271048
 10
87.75353009080013
 20
127.8027915271048
 10
87.75353009080013
 20
127.8027915271048
 10
85.36538832498108
 20
127.8027915271048
 10
85.36538832498108
 20
127.8027915271048
 10
85.36538832498108
 20
127.8027915271048
 10
93.00006946639998
 20
152.4199098115079
 10
93.00006946639998
 20
152.4199098115079
 10
93.00006946639998
 20
152.4199098115079
 10
89.85297266450198
 20
152.4199098115079
 10
89.85297266450198
 20
152.4199098115079
 10
89.85297266450198
 20
152.4199098115079
 10
90.51270888515164
 20
154.9119212747295
 10
90.51270888515164
 20
154.9119212747295
 10
90.51270888515164
 20
154.9119212747295
 10
93.6904670570955
 20
154.9119212747295
 10
93.6904670570955
 20
154.9119212747295
 10
93.6904670570955
 20
154.9119212747295
 10
94.81598049462158
 20
158.3616699146644
 10
94.81598049462158
 20
158.3616699146644
 10
95.7237637538445
 20
161.2605474231013
 10
96.4968436907311
 20
162.8139420021662
 10
97.15657991138076
 20
163.9844139654337
 10
97.81183750494507
 20
165.1523021053827
 10
99.1047826935081
 20
166.3084769129547
 10
100.4504378777679
 20
166.69157178364
 97
        0
 75
     2
 76
     1
 98
        0
  0
SPLINE
  5
3C1
330
3BD
100
AcDbEntity
  8
レイヤー 1
370
     0
100
AcDbSpline
210
0.0
220
0.0
230
1.0
 70
    11
 71
     3
 72
    38
 73
    34
 74
     0
 42
0.000000001
 43
0.0000000001
 40
0.0
 40
0.0
 40
0.0
 40
0.0
 40
1.0
 40
1.0
 40
1.0
 40
2.0
 40
2.0
 40
2.0
 40
3.0
 40
3.0
 40
3.0
 40
4.0
 40
4.0
 40
4.0
 40
5.0
 40
5.0
 40
5.0
 40
6.0
 40
6.0
 40
6.0
 40
7.0
 40
7.0
 40
7.0
 40
8.0
 40
8.0
 40
8.0
 40
9.0
 40
9.0
 40
9.0
 40
10.0
 40
10.0
 40
10.0
 40
11.0
 40
11.0
 40
11.0
 40
11.0
 10
126.377554584636
 20
154.8151140277308
 30
0.0
 10
126.377554584636
 20
154.8151140277308
 30
0.0
 10
128.8311532078563
 20
154.8151140277308
 30
0.0
 10
128.8311532078563
 20
154.8151140277308
 30
0.0
 10
128.8311532078563
 20
154.8151140277308
 30
0.0
 10
127.7345785914971
 20
151.3062819612468
 30
0.0
 10
127.7345785914971
 20
151.3062819612468
 30
0.0
 10
128.571392836906
 20
152.2922689395754
 30
0.0
 10
129.8860421413442
 20
153.604506675583
 30
0.0
 10
131.0163787157314
 20
154.2664822097754
 30
0.0
 10
132.7044766171327
 20
155.2500576196734
 30
0.0
 10
133.6642808525008
 20
155.3847609420097
 30
0.0
 10
134.7284715499351
 20
155.3565111403944
 30
0.0
 10
134.7284715499351
 20
155.3565111403944
 30
0.0
 10
133.6877075172549
 20
152.0345756272799
 30
0.0
 10
133.6877075172549
 20
152.0345756272799
 30
0.0
 10
133.011434827367
 20
152.3184516825359
 30
0.0
 10
130.930940291334
 20
151.7768823149844
 30
0.0
 10
129.739280976855
 20
150.9162968950455
 30
0.0
 10
128.66613302525
 20
150.1454562717016
 30
0.0
 10
127.9192358313239
 20
149.4857200510519
 30
0.0
 10
127.0393578639405
 20
147.8282835196966
 30
0.0
 10
126.164647543194
 20
146.1699857139017
 30
0.0
 10
125.4742499524985
 20
143.5262176944419
 30
0.0
 10
124.2822461282437
 20
139.6959580071401
 30
0.0
 10
124.2822461282437
 20
139.6959580071401
 30
0.0
 10
120.5753209406769
 20
127.8027915271048
 30
0.0
 10
120.5753209406769
 20
127.8027915271048
 30
0.0
 10
120.5753209406769
 20
127.8027915271048
 30
0.0
 10
118.1964809388044
 20
127.8027915271048
 30
0.0
 10
118.1964809388044
 20
127.8027915271048
 30
0.0
 10
118.1964809388044
 20
127.8027915271048
 30
0.0
 10
126.377554584636
 20
154.8151140277308
 30
0.0
 10
126.377554584636
 20
154.8151140277308
 30
0.0
  0
HATCH
  5
3C2
330
3BD
100
AcDbEntity
  8
レイヤー 1
 62
   250
420
  2234388
100
AcDbHatch
 10
0.0
 20
0.0
 30
0.0
210
0.0
220
0.0
230
1.0
  2
SOLID
 70
     1
 71
     0
 91
        1
 92
        1
 93
        1
 72
     4
 94
        3
 73
     0
 74
     1
 95
       38
 96
       34
 40
0.0
 40
0.0
 40
0.0
 40
0.0
 40
1.0
 40
1.0
 40
1.0
 40
2.0
 40
2.0
 40
2.0
 40
3.0
 40
3.0
 40
3.0
 40
4.0
 40
4.0
 40
4.0
 40
5.0
 40
5.0
 40
5.0
 40
6.0
 40
6.0
 40
6.0
 40
7.0
 40
7.0
 40
7.0
 40
8.0
 40
8.0
 40
8.0
 40
9.0
 40
9.0
 40
9.0
 40
10.0
 40
10.0
 40
10.0
 40
11.0
 40
11.0
 40
11.0
 40
11.0
 10
126.377554584636
 20
154.8151140277308
 10
126.377554584636
 20
154.8151140277308
 10
128.8311532078563
 20
154.8151140277308
 10
128.8311532078563
 20
154.8151140277308
 10
128.8311532078563
 20
154.8151140277308
 10
127.7345785914971
 20
151.3062819612468
 10
127.7345785914971
 20
151.3062819612468
 10
128.571392836906
 20
152.2922689395754
 10
129.8860421413442
 20
153.604506675583
 10
131.0163787157314
 20
154.2664822097754
 10
132.7044766171327
 20
155.2500576196734
 10
133.6642808525008
 20
155.3847609420097
 10
134.7284715499351
 20
155.3565111403944
 10
134.7284715499351
 20
155.3565111403944
 10
133.6877075172549
 20
152.0345756272799
 10
133.6877075172549
 20
152.0345756272799
 10
133.011434827367
 20
152.3184516825359
 10
130.930940291334
 20
151.7768823149844
 10
129.739280976855
 20
150.9162968950455
 10
128.66613302525
 20
150.1454562717016
 10
127.9192358313239
 20
149.4857200510519
 10
127.0393578639405
 20
147.8282835196966
 10
126.164647543194
 20
146.1699857139017
 10
125.4742499524985
 20
143.5262176944419
 10
124.2822461282437
 20
139.6959580071401
 10
124.2822461282437
 20
139.6959580071401
 10
120.5753209406769
 20
127.8027915271048
 10
120.5753209406769
 20
127.8027915271048
 10
120.5753209406769
 20
127.8027915271048
 10
118.1964809388044
 20
127.8027915271048
 10
118.1964809388044
 20
127.8027915271048
 10
118.1964809388044
 20
127.8027915271048
 10
126.377554584636
 20
154.8151140277308
 10
126.377554584636
 20
154.8151140277308
 97
        0
 75
     2
 76
     1
 98
        0
  0
SPLINE
  5
3C3
330
3BD
100
AcDbEntity
  8
レイヤー 1
370
     0
100
AcDbSpline
210
0.0
220
0.0
230
1.0
 70
    11
 71
     3
 72
   104
 73
   100
 74
     0
 42
0.000000001
 43
0.0000000001
 40
0.0
 40
0.0
 40
0.0
 40
0.0
 40
1.0
 40
1.0
 40
1.0
 40
2.0
 40
2.0
 40
2.0
 40
3.0
 40
3.0
 40
3.0
 40
4.0
 40
4.0
 40
4.0
 40
5.0
 40
5.0
 40
5.0
 40
6.0
 40
6.0
 40
6.0
 40
7.0
 40
7.0
 40
7.0
 40
8.0
 40
8.0
 40
8.0
 40
9.0
 40
9.0
 40
9.0
 40
10.0
 40
10.0
 40
10.0
 40
11.0
 40
11.0
 40
11.0
 40
12.0
 40
12.0
 40
12.0
 40
13.0
 40
13.0
 40
13.0
 40
14.0
 40
14.0
 40
14.0
 40
15.0
 40
15.0
 40
15.0
 40
16.0
 40
16.0
 40
16.0
 40
17.0
 40
17.0
 40
17.0
 40
18.0
 40
18.0
 40
18.0
 40
19.0
 40
19.0
 40
19.0
 40
20.0
 40
20.0
 40
20.0
 40
21.0
 40
21.0
 40
21.0
 40
22.0
 40
22.0
 40
22.0
 40
23.0
 40
23.0
 40
23.0
 40
24.0
 40
24.0
 40
24.0
 40
25.0
 40
25.0
 40
25.0
 40
26.0
 40
26.0
 40
26.0
 40
27.0
 40
27.0
 40
27.0
 40
28.0
 40
28.0
 40
28.0
 40
29.0
 40
29.0
 40
29.0
 40
30.0
 40
30.0
 40
30.0
 40
31.0
 40
31.0
 40
31.0
 40
32.0
 40
32.0
 40
32.0
 40
33.0
 40
33.0
 40
33.0
 40
33.0
 10
139.8926730891197
 20
154.8294111834263
 30
0.0
 10
139.8926730891197
 20
154.8294111834263
 30
0.0
 10
142.0344903652445
 20
154.8294111834263
 30
0.0
 10
142.0344903652445
 20
154.8294111834263
 30
0.0
 10
142.0344903652445
 20
154.8294111834263
 30
0.0
 10
140.9516961399171
 20
151.3157559800812
 30
0.0
 10
140.9516961399171
 20
151.3157559800812
 30
0.0
 10
141.8928968473923
 20
152.7887075264977
 30
0.0
 10
142.7341897198865
 20
153.4484437471474
 30
0.0
 10
143.8552245303272
 20
154.2926649527359
 30
0.0
 10
144.9803934580775
 20
155.1296514530327
 30
0.0
 10
146.3139908001845
 20
155.3044901642492
 30
0.0
 10
147.241066606852
 20
155.3044901642492
 30
0.0
 10
148.3855280820469
 20
155.3044901642492
 30
0.0
 10
149.4969166187653
 20
155.0752189084569
 30
0.0
 10
150.0784491203092
 20
153.8172414621372
 30
0.0
 10
150.5228667310863
 20
152.833838307127
 30
0.0
 10
150.5414702589793
 20
152.7201500811143
 30
0.0
 10
150.4140016419347
 20
150.7765981809602
 30
0.0
 10
151.5818897818837
 20
152.7699317437168
 30
0.0
 10
152.4424752018226
 20
153.6256940267945
 30
0.0
 10
153.9038856707499
 20
154.4507949398263
 30
0.0
 10
155.4455669174378
 20
155.3044901642492
 30
0.0
 10
156.339225275853
 20
155.3659851592288
 30
0.0
 10
157.3748216618963
 20
155.2147453676543
 30
0.0
 10
158.911679771723
 20
154.9877134254046
 30
0.0
 10
159.8859534176746
 20
154.4390816074493
 30
0.0
 10
160.3965169054045
 20
152.7816450760939
 30
0.0
 10
160.9070803931344
 20
151.1219692311958
 30
0.0
 10
160.6328506116007
 20
150.2303779314354
 30
0.0
 10
159.9992971339115
 20
147.597634224801
 30
0.0
 10
159.7105979417943
 20
146.4014962832367
 30
0.0
 10
159.2947746424084
 20
144.9400858143094
 30
0.0
 10
158.7463150793409
 20
143.2092687007094
 30
0.0
 10
158.7463150793409
 20
143.2092687007094
 30
0.0
 10
153.9038856707499
 20
127.8027915271048
 30
0.0
 10
153.9038856707499
 20
127.8027915271048
 30
0.0
 10
153.9038856707499
 20
127.8027915271048
 30
0.0
 10
151.3882752878863
 20
127.8027915271048
 30
0.0
 10
151.3882752878863
 20
127.8027915271048
 30
0.0
 10
151.3882752878863
 20
127.8027915271048
 30
0.0
 10
155.6250565106276
 20
141.2751908193897
 30
0.0
 10
155.6250565106276
 20
141.2751908193897
 30
0.0
 10
156.5094131050963
 20
144.0936252951782
 30
0.0
 10
157.109893644309
 20
146.1506931664571
 30
0.0
 10
157.4220195011804
 20
147.4415712963654
 30
0.0
 10
157.8095929989511
 20
149.0530157726519
 30
0.0
 10
157.9656559273867
 20
149.5826995529385
 30
0.0
 10
157.7816877071116
 20
150.7529992613181
 30
0.0
 10
157.6111553680925
 20
151.8430281919372
 30
0.0
 10
157.0582171779396
 20
152.5547853887321
 30
0.0
 10
156.1170164704645
 20
152.5547853887321
 30
0.0
 10
155.1096698860365
 20
152.5547853887321
 30
0.0
 10
154.2962823053817
 20
152.4412694176073
 30
0.0
 10
153.156643967048
 20
151.2945686288697
 30
0.0
 10
152.0170056287143
 20
150.1476955852443
 30
0.0
 10
151.076149431015
 20
148.7930831468137
 30
0.0
 10
150.3337308641742
 20
147.2290087646991
 30
0.0
 10
149.5957909244188
 20
145.6683794803425
 30
0.0
 10
148.8530278478023
 20
143.6822806228776
 30
0.0
 10
148.0964843801539
 20
141.2751908193897
 30
0.0
 10
148.0964843801539
 20
141.2751908193897
 30
0.0
 10
143.8552245303272
 20
127.8027915271048
 30
0.0
 10
143.8552245303272
 20
127.8027915271048
 30
0.0
 10
143.8552245303272
 20
127.8027915271048
 30
0.0
 10
141.486030802177
 20
127.8027915271048
 30
0.0
 10
141.486030802177
 20
127.8027915271048
 30
0.0
 10
141.486030802177
 20
127.8027915271048
 30
0.0
 10
146.3329388378533
 20
143.2092687007094
 30
0.0
 10
146.3329388378533
 20
143.2092687007094
 30
0.0
 10
146.8483254624444
 20
144.8408669988801
 30
0.0
 10
147.2314203331297
 20
146.1837661049335
 30
0.0
 10
147.4867020769946
 20
147.224185627838
 30
0.0
 10
147.9169947869641
 20
149.0197705792876
 30
0.0
 10
148.0306830129768
 20
150.2400242051577
 30
0.0
 10
147.709255392159
 20
151.3157559800812
 30
0.0
 10
147.3874832615654
 20
152.3916600098926
 30
0.0
 10
146.8245542879144
 20
152.6683013598569
 30
0.0
 10
145.8840425999909
 20
152.6683013598569
 30
0.0
 10
145.0989048209514
 20
152.6683013598569
 30
0.0
 10
144.3282364524954
 20
152.3275811915945
 30
0.0
 10
143.4531816219731
 20
151.6538923250251
 30
0.0
 10
142.34627171234
 20
150.8074318058939
 30
0.0
 10
141.901854101563
 20
150.1097995099067
 30
0.0
 10
141.3578731655808
 20
149.289521733736
 30
0.0
 10
140.6299240093235
 20
148.192602607601
 30
0.0
 10
140.2850697237515
 20
147.455696197173
 30
0.0
 10
139.6652966370942
 20
145.8385673095858
 30
0.0
 10
139.0506911970739
 20
144.2214384219986
 30
0.0
 10
138.463991048893
 20
142.3252566160164
 30
0.0
 10
138.0571250036777
 20
141.0154304484394
 30
0.0
 10
138.0571250036777
 20
141.0154304484394
 30
0.0
 10
133.9009590684727
 20
127.8027915271048
 30
0.0
 10
133.9009590684727
 20
127.8027915271048
 30
0.0
 10
133.9009590684727
 20
127.8027915271048
 30
0.0
 10
131.4180771143097
 20
127.8027915271048
 30
0.0
 10
131.4180771143097
 20
127.8027915271048
 30
0.0
 10
131.4180771143097
 20
127.8027915271048
 30
0.0
 10
139.8926730891197
 20
154.8294111834263
 30
0.0
 10
139.8926730891197
 20
154.8294111834263
 30
0.0
  0
HATCH
  5
3C4
330
3BD
100
AcDbEntity
  8
レイヤー 1
 62
   250
420
  2234388
100
AcDbHatch
 10
0.0
 20
0.0
 30
0.0
210
0.0
220
0.0
230
1.0
  2
SOLID
 70
     1
 71
     0
 91
        1
 92
        1
 93
        1
 72
     4
 94
        3
 73
     0
 74
     1
 95
      104
 96
      100
 40
0.0
 40
0.0
 40
0.0
 40
0.0
 40
1.0
 40
1.0
 40
1.0
 40
2.0
 40
2.0
 40
2.0
 40
3.0
 40
3.0
 40
3.0
 40
4.0
 40
4.0
 40
4.0
 40
5.0
 40
5.0
 40
5.0
 40
6.0
 40
6.0
 40
6.0
 40
7.0
 40
7.0
 40
7.0
 40
8.0
 40
8.0
 40
8.0
 40
9.0
 40
9.0
 40
9.0
 40
10.0
 40
10.0
 40
10.0
 40
11.0
 40
11.0
 40
11.0
 40
12.0
 40
12.0
 40
12.0
 40
13.0
 40
13.0
 40
13.0
 40
14.0
 40
14.0
 40
14.0
 40
15.0
 40
15.0
 40
15.0
 40
16.0
 40
16.0
 40
16.0
 40
17.0
 40
17.0
 40
17.0
 40
18.0
 40
18.0
 40
18.0
 40
19.0
 40
19.0
 40
19.0
 40
20.0
 40
20.0
 40
20.0
 40
21.0
 40
21.0
 40
21.0
 40
22.0
 40
22.0
 40
22.0
 40
23.0
 40
23.0
 40
23.0
 40
24.0
 40
24.0
 40
24.0
 40
25.0
 40
25.0
 40
25.0
 40
26.0
 40
26.0
 40
26.0
 40
27.0
 40
27.0
 40
27.0
 40
28.0
 40
28.0
 40
28.0
 40
29.0
 40
29.0
 40
29.0
 40
30.0
 40
30.0
 40
30.0
 40
31.0
 40
31.0
 40
31.0
 40
32.0
 40
32.0
 40
32.0
 40
33.0
 40
33.0
 40
33.0
 40
33.0
 10
139.8926730891197
 20
154.8294111834263
 10
139.8926730891197
 20
154.8294111834263
 10
142.0344903652445
 20
154.8294111834263
 10
142.0344903652445
 20
154.8294111834263
 10
142.0344903652445
 20
154.8294111834263
 10
140.9516961399171
 20
151.3157559800812
 10
140.9516961399171
 20
151.3157559800812
 10
141.8928968473923
 20
152.7887075264977
 10
142.7341897198865
 20
153.4484437471474
 10
143.8552245303272
 20
154.2926649527359
 10
144.9803934580775
 20
155.1296514530327
 10
146.3139908001845
 20
155.3044901642492
 10
147.241066606852
 20
155.3044901642492
 10
148.3855280820469
 20
155.3044901642492
 10
149.4969166187653
 20
155.0752189084569
 10
150.0784491203092
 20
153.8172414621372
 10
150.5228667310863
 20
152.833838307127
 10
150.5414702589793
 20
152.7201500811143
 10
150.4140016419347
 20
150.7765981809602
 10
151.5818897818837
 20
152.7699317437168
 10
152.4424752018226
 20
153.6256940267945
 10
153.9038856707499
 20
154.4507949398263
 10
155.4455669174378
 20
155.3044901642492
 10
156.339225275853
 20
155.3659851592288
 10
157.3748216618963
 20
155.2147453676543
 10
158.911679771723
 20
154.9877134254046
 10
159.8859534176746
 20
154.4390816074493
 10
160.3965169054045
 20
152.7816450760939
 10
160.9070803931344
 20
151.1219692311958
 10
160.6328506116007
 20
150.2303779314354
 10
159.9992971339115
 20
147.597634224801
 10
159.7105979417943
 20
146.4014962832367
 10
159.2947746424084
 20
144.9400858143094
 10
158.7463150793409
 20
143.2092687007094
 10
158.7463150793409
 20
143.2092687007094
 10
153.9038856707499
 20
127.8027915271048
 10
153.9038856707499
 20
127.8027915271048
 10
153.9038856707499
 20
127.8027915271048
 10
151.3882752878863
 20
127.8027915271048
 10
151.3882752878863
 20
127.8027915271048
 10
151.3882752878863
 20
127.8027915271048
 10
155.6250565106276
 20
141.2751908193897
 10
155.6250565106276
 20
141.2751908193897
 10
156.5094131050963
 20
144.0936252951782
 10
157.109893644309
 20
146.1506931664571
 10
157.4220195011804
 20
147.4415712963654
 10
157.8095929989511
 20
149.0530157726519
 10
157.9656559273867
 20
149.5826995529385
 10
157.7816877071116
 20
150.7529992613181
 10
157.6111553680925
 20
151.8430281919372
 10
157.0582171779396
 20
152.5547853887321
 10
156.1170164704645
 20
152.5547853887321
 10
155.1096698860365
 20
152.5547853887321
 10
154.2962823053817
 20
152.4412694176073
 10
153.156643967048
 20
151.2945686288697
 10
152.0170056287143
 20
150.1476955852443
 10
151.076149431015
 20
148.7930831468137
 10
150.3337308641742
 20
147.2290087646991
 10
149.5957909244188
 20
145.6683794803425
 10
148.8530278478023
 20
143.6822806228776
 10
148.0964843801539
 20
141.2751908193897
 10
148.0964843801539
 20
141.2751908193897
 10
143.8552245303272
 20
127.8027915271048
 10
143.8552245303272
 20
127.8027915271048
 10
143.8552245303272
 20
127.8027915271048
 10
141.486030802177
 20
127.8027915271048
 10
141.486030802177
 20
127.8027915271048
 10
141.486030802177
 20
127.8027915271048
 10
146.3329388378533
 20
143.2092687007094
 10
146.3329388378533
 20
143.2092687007094
 10
146.8483254624444
 20
144.8408669988801
 10
147.2314203331297
 20
146.1837661049335
 10
147.4867020769946
 20
147.224185627838
 10
147.9169947869641
 20
149.0197705792876
 10
148.0306830129768
 20
150.2400242051577
 10
147.709255392159
 20
151.3157559800812
 10
147.3874832615654
 20
152.3916600098926
 10
146.8245542879144
 20
152.6683013598569
 10
145.8840425999909
 20
152.6683013598569
 10
145.0989048209514
 20
152.6683013598569
 10
144.3282364524954
 20
152.3275811915945
 10
143.4531816219731
 20
151.6538923250251
 10
142.34627171234
 20
150.8074318058939
 10
141.901854101563
 20
150.1097995099067
 10
141.3578731655808
 20
149.289521733736
 10
140.6299240093235
 20
148.192602607601
 10
140.2850697237515
 20
147.455696197173
 10
139.6652966370942
 20
145.8385673095858
 10
139.0506911970739
 20
144.2214384219986
 10
138.463991048893
 20
142.3252566160164
 10
138.0571250036777
 20
141.0154304484394
 10
138.0571250036777
 20
141.0154304484394
 10
133.9009590684727
 20
127.8027915271048
 10
133.9009590684727
 20
127.8027915271048
 10
133.9009590684727
 20
127.8027915271048
 10
131.4180771143097
 20
127.8027915271048
 10
131.4180771143097
 20
127.8027915271048
 10
131.4180771143097
 20
127.8027915271048
 10
139.8926730891197
 20
154.8294111834263
 10
139.8926730891197
 20
154.8294111834263
 97
        0
 75
     2
 76
     1
 98
        0
  0
SPLINE
  5
3C5
330
3BD
100
AcDbEntity
  8
レイヤー 1
370
     0
100
AcDbSpline
210
0.0
220
0.0
230
1.0
 70
    11
 71
     3
 72
    29
 73
    25
 74
     0
 42
0.000000001
 43
0.0000000001
 40
0.0
 40
0.0
 40
0.0
 40
0.0
 40
1.0
 40
1.0
 40
1.0
 40
2.0
 40
2.0
 40
2.0
 40
3.0
 40
3.0
 40
3.0
 40
4.0
 40
4.0
 40
4.0
 40
5.0
 40
5.0
 40
5.0
 40
6.0
 40
6.0
 40
6.0
 40
7.0
 40
7.0
 40
7.0
 40
8.0
 40
8.0
 40
8.0
 40
8.0
 10
101.6420971922469
 20
132.8388354296931
 30
0.0
 10
101.630039350094
 20
134.7164137077823
 30
0.0
 10
102.2236296937908
 20
138.0598810818841
 30
0.0
 10
103.7487744712405
 20
142.5378191476827
 30
0.0
 10
105.819967243327
 20
148.5896501242061
 30
0.0
 10
107.0602024361932
 20
150.8074318058939
 30
0.0
 10
108.1522984254671
 20
151.8833358357054
 30
0.0
 10
109.741177511439
 20
153.4532668840085
 30
0.0
 10
111.8740375333931
 20
153.5290590346837
 30
0.0
 10
112.5075910110823
 20
153.4532668840085
 30
0.0
 10
113.4012493694975
 20
153.3490526768302
 30
0.0
 10
114.6683563248758
 20
152.7580461564518
 30
0.0
 10
114.7493161221879
 20
150.7838328862519
 30
0.0
 10
114.8106388622796
 20
149.0909118479895
 30
0.0
 10
114.3186789024427
 20
145.9191825971221
 30
0.0
 10
112.6164561002338
 20
140.9489400617108
 30
0.0
 10
110.6444821435766
 20
135.1746117095912
 30
0.0
 10
109.4669477299053
 20
132.8960240524753
 30
0.0
 10
108.5212683953448
 20
131.9072809959403
 30
0.0
 10
106.7346406980658
 20
130.0538184021569
 30
0.0
 10
104.8222669326213
 20
130.2336525051225
 30
0.0
 10
104.5408024457958
 20
130.2336525051225
 30
0.0
 10
104.1721769856939
 20
130.2336525051225
 30
0.0
 10
101.6465758193322
 20
130.6305277668397
 30
0.0
 10
101.6420971922469
 20
132.8388354296931
 30
0.0
  0
SPLINE
  5
3C6
330
3BD
100
AcDbEntity
  8
レイヤー 1
370
     0
100
AcDbSpline
210
0.0
220
0.0
230
1.0
 70
    11
 71
     3
 72
    32
 73
    28
 74
     0
 42
0.000000001
 43
0.0000000001
 40
0.0
 40
0.0
 40
0.0
 40
0.0
 40
1.0
 40
1.0
 40
1.0
 40
2.0
 40
2.0
 40
2.0
 40
3.0
 40
3.0
 40
3.0
 40
4.0
 40
4.0
 40
4.0
 40
5.0
 40
5.0
 40
5.0
 40
6.0
 40
6.0
 40
6.0
 40
7.0
 40
7.0
 40
7.0
 40
8.0
 40
8.0
 40
8.0
 40
9.0
 40
9.0
 40
9.0
 40
9.0
 10
106.2595617172429
 20
153.4105476718098
 30
0.0
 10
104.8222669326213
 20
151.5474388043041
 30
0.0
 10
103.7177685914188
 20
149.8758773721411
 30
0.0
 10
101.9232171692965
 20
144.6141795664062
 30
0.0
 10
100.2754269116635
 20
139.7999999594306
 30
0.0
 10
99.22777268346732
 20
136.3052927937542
 30
0.0
 10
99.06964269637689
 20
132.039572749846
 30
0.0
 10
98.94665270641765
 20
128.8673267343149
 30
0.0
 10
100.8807305877373
 20
127.8027915271048
 30
0.0
 10
103.7129454545577
 20
127.8027915271048
 30
0.0
 10
104.9352661390825
 20
127.8027915271048
 30
0.0
 10
108.0151835347002
 20
127.8827177950895
 30
0.0
 10
110.2045431598849
 20
130.5926316915021
 30
0.0
 10
111.7417457794874
 20
132.4984597712065
 30
0.0
 10
113.155269389579
 20
134.475256864725
 30
0.0
 10
115.0562743324223
 20
140.9489400617108
 30
0.0
 10
116.6361961642235
 20
146.3680788349845
 30
0.0
 10
117.7282921534974
 20
149.8639917848761
 30
0.0
 10
117.6480213757369
 20
151.8595646611754
 30
0.0
 10
117.6480213757369
 20
151.8595646611754
 30
0.0
 10
117.6480213757369
 20
151.8595646611754
 30
0.0
 10
117.6480213757369
 20
151.8595646611754
 30
0.0
 10
117.13229024137
 20
155.18150017429
 30
0.0
 10
114.7162431837115
 20
155.886194920681
 30
0.0
 10
113.3351034925446
 20
155.886194920681
 30
0.0
 10
111.9829026225447
 20
155.886194920681
 30
0.0
 10
108.3414342923792
 20
156.1251124501957
 30
0.0
 10
106.2595617172429
 20
153.4105476718098
 30
0.0
  0
HATCH
  5
3C7
330
3BD
100
AcDbEntity
  8
レイヤー 1
 62
   250
420
  2234388
100
AcDbHatch
 10
0.0
 20
0.0
 30
0.0
210
0.0
220
0.0
230
1.0
  2
SOLID
 70
     1
 71
     0
 91
        2
 92
        1
 93
        1
 72
     4
 94
        3
 73
     0
 74
     1
 95
       29
 96
       25
 40
0.0
 40
0.0
 40
0.0
 40
0.0
 40
1.0
 40
1.0
 40
1.0
 40
2.0
 40
2.0
 40
2.0
 40
3.0
 40
3.0
 40
3.0
 40
4.0
 40
4.0
 40
4.0
 40
5.0
 40
5.0
 40
5.0
 40
6.0
 40
6.0
 40
6.0
 40
7.0
 40
7.0
 40
7.0
 40
8.0
 40
8.0
 40
8.0
 40
8.0
 10
101.6420971922469
 20
132.8388354296931
 10
101.630039350094
 20
134.7164137077823
 10
102.2236296937908
 20
138.0598810818841
 10
103.7487744712405
 20
142.5378191476827
 10
105.819967243327
 20
148.5896501242061
 10
107.0602024361932
 20
150.8074318058939
 10
108.1522984254671
 20
151.8833358357054
 10
109.741177511439
 20
153.4532668840085
 10
111.8740375333931
 20
153.5290590346837
 10
112.5075910110823
 20
153.4532668840085
 10
113.4012493694975
 20
153.3490526768302
 10
114.6683563248758
 20
152.7580461564518
 10
114.7493161221879
 20
150.7838328862519
 10
114.8106388622796
 20
149.0909118479895
 10
114.3186789024427
 20
145.9191825971221
 10
112.6164561002338
 20
140.9489400617108
 10
110.6444821435766
 20
135.1746117095912
 10
109.4669477299053
 20
132.8960240524753
 10
108.5212683953448
 20
131.9072809959403
 10
106.7346406980658
 20
130.0538184021569
 10
104.8222669326213
 20
130.2336525051225
 10
104.5408024457958
 20
130.2336525051225
 10
104.1721769856939
 20
130.2336525051225
 10
101.6465758193322
 20
130.6305277668397
 10
101.6420971922469
 20
132.8388354296931
 97
        0
 92
        1
 93
        1
 72
     4
 94
        3
 73
     0
 74
     1
 95
       32
 96
       28
 40
0.0
 40
0.0
 40
0.0
 40
0.0
 40
1.0
 40
1.0
 40
1.0
 40
2.0
 40
2.0
 40
2.0
 40
3.0
 40
3.0
 40
3.0
 40
4.0
 40
4.0
 40
4.0
 40
5.0
 40
5.0
 40
5.0
 40
6.0
 40
6.0
 40
6.0
 40
7.0
 40
7.0
 40
7.0
 40
8.0
 40
8.0
 40
8.0
 40
9.0
 40
9.0
 40
9.0
 40
9.0
 10
106.2595617172429
 20
153.4105476718098
 10
104.8222669326213
 20
151.5474388043041
 10
103.7177685914188
 20
149.8758773721411
 10
101.9232171692965
 20
144.6141795664062
 10
100.2754269116635
 20
139.7999999594306
 10
99.22777268346732
 20
136.3052927937542
 10
99.06964269637689
 20
132.039572749846
 10
98.94665270641765
 20
128.8673267343149
 10
100.8807305877373
 20
127.8027915271048
 10
103.7129454545577
 20
127.8027915271048
 10
104.9352661390825
 20
127.8027915271048
 10
108.0151835347002
 20
127.8827177950895
 10
110.2045431598849
 20
130.5926316915021
 10
111.7417457794874
 20
132.4984597712065
 10
113.155269389579
 20
134.475256864725
 10
115.0562743324223
 20
140.9489400617108
 10
116.6361961642235
 20
146.3680788349845
 10
117.7282921534974
 20
149.8639917848761
 10
117.6480213757369
 20
151.8595646611754
 10
117.6480213757369
 20
151.8595646611754
 10
117.6480213757369
 20
151.8595646611754
 10
117.6480213757369
 20
151.8595646611754
 10
117.13229024137
 20
155.18150017429
 10
114.7162431837115
 20
155.886194920681
 10
113.3351034925446
 20
155.886194920681
 10
111.9829026225447
 20
155.886194920681
 10
108.3414342923792
 20
156.1251124501957
 10
106.2595617172429
 20
153.4105476718098
 97
        0
 75
     2
 76
     1
 98
        0
  0
ENDBLK
  5
3C8
330
3BD
100
AcDbEntity
  8
0
100
AcDbBlockEnd
  0
BLOCK
  5
11F1
330
11F0
100
AcDbEntity
  8
0
100
AcDbBlockBegin
  2
BLOCK_2
 70
     0
 10
0.0
 20
0.0
 30
0.0
  3
BLOCK_2
  1
BLOCK_2
  0
ENDBLK
  5
11F2
330
11F0
100
AcDbEntity
  8
0
100
AcDbBlockEnd
  0
BLOCK
  5
37BE
330
37BD
100
AcDbEntity
  8
0
100
AcDbBlockBegin
  2
*D7
 70
     1
 10
0.0
 20
0.0
 30
0.0
  3
*D7
  1
*D412
  0
LINE
  5
37C0
330
37BD
100
AcDbEntity
  8
Dim
  6
Continuous
 62
     0
370
    -2
100
AcDbLine
 10
1541.349781572101
 20
1862.78857583828
 30
0.0
 11
1608.453372277059
 21
1862.78857583828
 31
0.0
  0
LINE
  5
37C1
330
37BD
100
AcDbEntity
  8
Dim
  6
Continuous
 62
     0
370
    -2
100
AcDbLine
 10
1541.349781572101
 20
2012.78857583828
 30
0.0
 11
1608.453372277059
 21
2012.78857583828
 31
0.0
  0
LINE
  5
37C2
330
37BD
100
AcDbEntity
  8
Dim
  6
Continuous
 62
     0
370
    -2
100
AcDbLine
 10
1608.453372277059
 20
1872.787965486717
 30
0.0
 11
1608.453372277059
 21
2002.789186189842
 31
0.0
  0
INSERT
  5
37C3
330
37BD
100
AcDbEntity
  8
Dim
 62
     0
370
    -2
100
AcDbBlockReference
  2
_DOT
 10
1608.453372277059
 20
1862.78857583828
 30
0.0
 41
9.999389648437498
 42
9.999389648437498
 43
9.999389648437498
 50
270.0
  0
INSERT
  5
37C4
330
37BD
100
AcDbEntity
  8
Dim
 62
     0
370
    -2
100
AcDbBlockReference
  2
_DOT
 10
1608.453372277059
 20
2012.78857583828
 30
0.0
 41
9.999389648437498
 42
9.999389648437498
 43
9.999389648437498
 50
90.0
  0
MTEXT
  5
37C5
330
37BD
100
AcDbEntity
  8
Dim
  6
Continuous
 62
     0
100
AcDbMText
 10
1586.237063683309
 20
1937.78857583828
 30
0.0
 40
24.4326171875
 41
0.0
 46
0.0
 71
     5
 72
     1
  1
\A1;150
  7
ＭＳ ゴシック
 11
0.0
 21
1.0
 31
0.0
 73
     1
 44
1.0
  0
POINT
  5
37C6
330
37BD
100
AcDbEntity
  8
Defpoints
 62
     0
100
AcDbPoint
 10
1516.349781572101
 20
1862.78857583828
 30
0.0
  0
POINT
  5
37C7
330
37BD
100
AcDbEntity
  8
Defpoints
 62
     0
100
AcDbPoint
 10
1516.349781572101
 20
2012.78857583828
 30
0.0
  0
POINT
  5
37C8
330
37BD
100
AcDbEntity
  8
Defpoints
 62
     0
100
AcDbPoint
 10
1608.453372277059
 20
2012.78857583828
 30
0.0
  0
ENDBLK
  5
37BF
330
37BD
100
AcDbEntity
  8
0
100
AcDbBlockEnd
  0
BLOCK
  5
37CA
330
37C9
100
AcDbEntity
  8
0
100
AcDbBlockBegin
  2
*D8
 70
     1
 10
0.0
 20
0.0
 30
0.0
  3
*D8
  1
*D413
  0
LINE
  5
37CC
330
37C9
100
AcDbEntity
  8
Dim
  6
Continuous
 62
     0
370
    -2
100
AcDbLine
 10
1416.349781572101
 20
1837.78857583828
 30
0.0
 11
1416.349781572101
 21
1775.039293585909
 31
0.0
  0
LINE
  5
37CD
330
37C9
100
AcDbEntity
  8
Dim
  6
Continuous
 62
     0
370
    -2
100
AcDbLine
 10
1516.349781572101
 20
1837.78857583828
 30
0.0
 11
1516.349781572101
 21
1775.039293585909
 31
0.0
  0
LINE
  5
37CE
330
37C9
100
AcDbEntity
  8
Dim
  6
Continuous
 62
     0
370
    -2
100
AcDbLine
 10
1426.349171220538
 20
1775.039293585909
 30
0.0
 11
1506.350391923663
 21
1775.039293585909
 31
0.0
  0
INSERT
  5
37CF
330
37C9
100
AcDbEntity
  8
Dim
 62
     0
370
    -2
100
AcDbBlockReference
  2
_DOT
 10
1416.349781572101
 20
1775.039293585909
 30
0.0
 41
9.999389648437498
 42
9.999389648437498
 43
9.999389648437498
 50
180.0
  0
INSERT
  5
37D0
330
37C9
100
AcDbEntity
  8
Dim
 62
     0
370
    -2
100
AcDbBlockReference
  2
_DOT
 10
1516.349781572101
 20
1775.039293585909
 30
0.0
 41
9.999389648437498
 42
9.999389648437498
 43
9.999389648437498
  0
MTEXT
  5
37D1
330
37C9
100
AcDbEntity
  8
Dim
  6
Continuous
 62
     0
100
AcDbMText
 10
1466.349781572101
 20
1797.255602179659
 30
0.0
 40
24.4326171875
 41
0.0
 46
0.0
 71
     5
 72
     1
  1
\A1;100
  7
ＭＳ ゴシック
 73
     1
 44
1.0
  0
POINT
  5
37D2
330
37C9
100
AcDbEntity
  8
Defpoints
 62
     0
100
AcDbPoint
 10
1416.349781572101
 20
1862.78857583828
 30
0.0
  0
POINT
  5
37D3
330
37C9
100
AcDbEntity
  8
Defpoints
 62
     0
100
AcDbPoint
 10
1516.349781572101
 20
1862.78857583828
 30
0.0
  0
POINT
  5
37D4
330
37C9
100
AcDbEntity
  8
Defpoints
 62
     0
100
AcDbPoint
 10
1516.349781572101
 20
1775.039293585909
 30
0.0
  0
ENDBLK
  5
37CB
330
37C9
100
AcDbEntity
  8
0
100
AcDbBlockEnd
  0
BLOCK
  5
37D6
330
37D5
100
AcDbEntity
  8
0
100
AcDbBlockBegin
  2
*D9
 70
     1
 10
0.0
 20
0.0
 30
0.0
  3
*D9
  1
*D414
  0
LINE
  5
37D8
330
37D5
100
AcDbEntity
  8
Dim
  6
Continuous
 62
     0
370
    -2
100
AcDbLine
 10
1419.4497815721
 20
1902.78857583828
 30
0.0
 11
1359.843081342934
 21
1902.78857583828
 31
0.0
  0
LINE
  5
37D9
330
37D5
100
AcDbEntity
  8
Dim
  6
Continuous
 62
     0
370
    -2
100
AcDbLine
 10
1391.349781572101
 20
1862.78857583828
 30
0.0
 11
1359.843081342934
 21
1862.78857583828
 31
0.0
  0
LINE
  5
37DA
330
37D5
100
AcDbEntity
  8
Dim
  6
Continuous
 62
     0
370
    -2
100
AcDbLine
 10
1359.843081342934
 20
1892.789186189842
 30
0.0
 11
1359.843081342934
 21
1872.787965486717
 31
0.0
  0
INSERT
  5
37DB
330
37D5
100
AcDbEntity
  8
Dim
 62
     0
370
    -2
100
AcDbBlockReference
  2
_DOT
 10
1359.843081342934
 20
1902.78857583828
 30
0.0
 41
9.999389648437498
 42
9.999389648437498
 43
9.999389648437498
 50
90.0
  0
INSERT
  5
37DC
330
37D5
100
AcDbEntity
  8
Dim
 62
     0
370
    -2
100
AcDbBlockReference
  2
_DOT
 10
1359.843081342934
 20
1862.78857583828
 30
0.0
 41
9.999389648437498
 42
9.999389648437498
 43
9.999389648437498
 50
270.0
  0
MTEXT
  5
37DD
330
37D5
100
AcDbEntity
  8
Dim
  6
Continuous
 62
     0
100
AcDbMText
 10
1337.626772749184
 20
1882.78857583828
 30
0.0
 40
24.4326171875
 41
0.0
 46
0.0
 71
     5
 72
     1
  1
\A1;40
  7
ＭＳ ゴシック
 11
0.0
 21
1.0
 31
0.0
 73
     1
 44
1.0
  0
POINT
  5
37DE
330
37D5
100
AcDbEntity
  8
Defpoints
 62
     0
100
AcDbPoint
 10
1444.4497815721
 20
1902.78857583828
 30
0.0
  0
POINT
  5
37DF
330
37D5
100
AcDbEntity
  8
Defpoints
 62
     0
100
AcDbPoint
 10
1416.349781572101
 20
1862.78857583828
 30
0.0
  0
POINT
  5
37E0
330
37D5
100
AcDbEntity
  8
Defpoints
 62
     0
100
AcDbPoint
 10
1359.843081342934
 20
1862.78857583828
 30
0.0
  0
ENDBLK
  5
37D7
330
37D5
100
AcDbEntity
  8
0
100
AcDbBlockEnd
  0
BLOCK
  5
37EE
330
37ED
100
AcDbEntity
  8
0
100
AcDbBlockBegin
  2
*D10
 70
     1
 10
0.0
 20
0.0
 30
0.0
  3
*D10
  1
*D415
  0
LINE
  5
37F0
330
37ED
100
AcDbEntity
  8
Dim
  6
Continuous
 62
     0
370
    -2
100
AcDbLine
 10
383.1868234906683
 20
1981.502094957282
 30
0.0
 11
383.1868234906683
 21
2207.794927375198
 31
0.0
  0
LINE
  5
37F1
330
37ED
100
AcDbEntity
  8
Dim
  6
Continuous
 62
     0
370
    -2
100
AcDbLine
 10
803.1868053677158
 20
1981.502094957282
 30
0.0
 11
803.1868053677158
 21
2207.794927375198
 31
0.0
  0
LINE
  5
37F2
330
37ED
100
AcDbEntity
  8
Dim
  6
Continuous
 62
     0
370
    -2
100
AcDbLine
 10
393.1862131391058
 20
2207.794927375198
 30
0.0
 11
793.1874157192783
 21
2207.794927375198
 31
0.0
  0
INSERT
  5
37F3
330
37ED
100
AcDbEntity
  8
Dim
 62
     0
370
    -2
100
AcDbBlockReference
  2
_DOT
 10
383.1868234906683
 20
2207.794927375198
 30
0.0
 41
9.999389648437498
 42
9.999389648437498
 43
9.999389648437498
 50
180.0
  0
INSERT
  5
37F4
330
37ED
100
AcDbEntity
  8
Dim
 62
     0
370
    -2
100
AcDbBlockReference
  2
_DOT
 10
803.1868053677158
 20
2207.794927375198
 30
0.0
 41
9.999389648437498
 42
9.999389648437498
 43
9.999389648437498
  0
MTEXT
  5
37F5
330
37ED
100
AcDbEntity
  8
Dim
  6
Continuous
 62
     0
100
AcDbMText
 10
593.186814429192
 20
2230.011235968948
 30
0.0
 40
24.4326171875
 41
0.0
 46
0.0
 71
     5
 72
     1
  1
\A1;%%c420
  7
ＭＳ ゴシック
 73
     1
 44
1.0
  0
POINT
  5
37F6
330
37ED
100
AcDbEntity
  8
Defpoints
 62
     0
100
AcDbPoint
 10
383.1868234906683
 20
1956.502094957282
 30
0.0
  0
POINT
  5
37F7
330
37ED
100
AcDbEntity
  8
Defpoints
 62
     0
100
AcDbPoint
 10
803.1868053677158
 20
1956.502094957282
 30
0.0
  0
POINT
  5
37F8
330
37ED
100
AcDbEntity
  8
Defpoints
 62
     0
100
AcDbPoint
 10
803.1868053677158
 20
2207.794927375198
 30
0.0
  0
ENDBLK
  5
37EF
330
37ED
100
AcDbEntity
  8
0
100
AcDbBlockEnd
  0
BLOCK
  5
3808
330
3807
100
AcDbEntity
  8
0
100
AcDbBlockBegin
  2
*D11
 70
     1
 10
0.0
 20
0.0
 30
0.0
  3
*D11
  1
*D416
  0
LINE
  5
380A
330
3807
100
AcDbEntity
  8
Dim
  6
Continuous
 62
     0
370
    -2
100
AcDbLine
 10
443.1868144680238
 20
972.8647554514483
 30
0.0
 11
443.1868144680238
 21
894.5559862139885
 31
0.0
  0
LINE
  5
380B
330
3807
100
AcDbEntity
  8
Dim
  6
Continuous
 62
     0
370
    -2
100
AcDbLine
 10
743.1868144680238
 20
972.8647554514483
 30
0.0
 11
743.1868144680238
 21
894.5559862139885
 31
0.0
  0
LINE
  5
380C
330
3807
100
AcDbEntity
  8
Dim
  6
Continuous
 62
     0
370
    -2
100
AcDbLine
 10
453.1862041164613
 20
894.5559862139885
 30
0.0
 11
733.1874248195863
 21
894.5559862139885
 31
0.0
  0
INSERT
  5
380D
330
3807
100
AcDbEntity
  8
Dim
 62
     0
370
    -2
100
AcDbBlockReference
  2
_DOT
 10
443.1868144680238
 20
894.5559862139885
 30
0.0
 41
9.999389648437498
 42
9.999389648437498
 43
9.999389648437498
 50
180.0
  0
INSERT
  5
380E
330
3807
100
AcDbEntity
  8
Dim
 62
     0
370
    -2
100
AcDbBlockReference
  2
_DOT
 10
743.1868144680238
 20
894.5559862139885
 30
0.0
 41
9.999389648437498
 42
9.999389648437498
 43
9.999389648437498
  0
MTEXT
  5
380F
330
3807
100
AcDbEntity
  8
Dim
  6
Continuous
 62
     0
100
AcDbMText
 10
593.1868144680238
 20
916.7722948077385
 30
0.0
 40
24.4326171875
 41
0.0
 46
0.0
 71
     5
 72
     1
  1
\A1;300
  7
ＭＳ ゴシック
 73
     1
 44
1.0
  0
POINT
  5
3810
330
3807
100
AcDbEntity
  8
Defpoints
 62
     0
100
AcDbPoint
 10
443.1868144680238
 20
997.8647554514483
 30
0.0
  0
POINT
  5
3811
330
3807
100
AcDbEntity
  8
Defpoints
 62
     0
100
AcDbPoint
 10
743.1868144680238
 20
997.8647554514483
 30
0.0
  0
POINT
  5
3812
330
3807
100
AcDbEntity
  8
Defpoints
 62
     0
100
AcDbPoint
 10
743.1868144680238
 20
894.5559862139885
 30
0.0
  0
ENDBLK
  5
3809
330
3807
100
AcDbEntity
  8
0
100
AcDbBlockEnd
  0
BLOCK
  5
3815
330
3814
100
AcDbEntity
  8
0
100
AcDbBlockBegin
  2
*D12
 70
     1
 10
0.0
 20
0.0
 30
0.0
  3
*D12
  1
*D417
  0
LINE
  5
3817
330
3814
100
AcDbEntity
  8
Dim
  6
Continuous
 62
     0
370
    -2
100
AcDbLine
 10
1466.349781533269
 20
869.5559862139885
 30
0.0
 11
1466.349781533269
 21
821.381859125582
 31
0.0
  0
LINE
  5
3818
330
3814
100
AcDbEntity
  8
Dim
  6
Continuous
 62
     0
370
    -2
100
AcDbLine
 10
1676.349781533269
 20
1107.773247651633
 30
0.0
 11
1676.349781533269
 21
821.381859125582
 31
0.0
  0
LINE
  5
3819
330
3814
100
AcDbEntity
  8
Dim
  6
Continuous
 62
     0
370
    -2
100
AcDbLine
 10
1476.349171181706
 20
821.381859125582
 30
0.0
 11
1666.350391884831
 21
821.381859125582
 31
0.0
  0
INSERT
  5
381A
330
3814
100
AcDbEntity
  8
Dim
 62
     0
370
    -2
100
AcDbBlockReference
  2
_DOT
 10
1466.349781533269
 20
821.381859125582
 30
0.0
 41
9.999389648437498
 42
9.999389648437498
 43
9.999389648437498
 50
180.0
  0
INSERT
  5
381B
330
3814
100
AcDbEntity
  8
Dim
 62
     0
370
    -2
100
AcDbBlockReference
  2
_DOT
 10
1676.349781533269
 20
821.381859125582
 30
0.0
 41
9.999389648437498
 42
9.999389648437498
 43
9.999389648437498
  0
MTEXT
  5
381C
330
3814
100
AcDbEntity
  8
Dim
  6
Continuous
 62
     0
100
AcDbMText
 10
1571.349781533269
 20
843.598167719332
 30
0.0
 40
24.4326171875
 41
0.0
 46
0.0
 71
     5
 72
     1
  1
\A1;210
  7
ＭＳ ゴシック
 73
     1
 44
1.0
  0
POINT
  5
381D
330
3814
100
AcDbEntity
  8
Defpoints
 62
     0
100
AcDbPoint
 10
1466.349781533269
 20
894.5559862139885
 30
0.0
  0
POINT
  5
381E
330
3814
100
AcDbEntity
  8
Defpoints
 62
     0
100
AcDbPoint
 10
1676.349781533269
 20
1132.773247651633
 30
0.0
  0
POINT
  5
381F
330
3814
100
AcDbEntity
  8
Defpoints
 62
     0
100
AcDbPoint
 10
1676.349781533269
 20
821.381859125582
 30
0.0
  0
ENDBLK
  5
3816
330
3814
100
AcDbEntity
  8
0
100
AcDbBlockEnd
  0
BLOCK
  5
3828
330
3827
100
AcDbEntity
  8
0
100
AcDbBlockBegin
  2
*D13
 70
     1
 10
0.0
 20
0.0
 30
0.0
  3
*D13
  1
*D418
  0
LINE
  5
382A
330
3827
100
AcDbEntity
  8
Dim
  6
Continuous
 62
     0
370
    -2
100
AcDbLine
 10
824.2923018502306
 20
1141.125955450934
 30
0.0
 11
917.874612425057
 21
1141.125955450934
 31
0.0
  0
LINE
  5
382B
330
3827
100
AcDbEntity
  8
Dim
  6
Continuous
 62
     0
370
    -2
100
AcDbLine
 10
661.7988809392789
 20
966.1259554509336
 30
0.0
 11
917.874612425057
 21
966.1259554509336
 31
0.0
  0
LINE
  5
382C
330
3827
100
AcDbEntity
  8
Dim
  6
Continuous
 62
     0
370
    -2
100
AcDbLine
 10
917.874612425057
 20
1131.126565802497
 30
0.0
 11
917.874612425057
 21
976.1253450993711
 31
0.0
  0
INSERT
  5
382D
330
3827
100
AcDbEntity
  8
Dim
 62
     0
370
    -2
100
AcDbBlockReference
  2
_DOT
 10
917.874612425057
 20
1141.125955450934
 30
0.0
 41
9.999389648437498
 42
9.999389648437498
 43
9.999389648437498
 50
90.0
  0
INSERT
  5
382E
330
3827
100
AcDbEntity
  8
Dim
 62
     0
370
    -2
100
AcDbBlockReference
  2
_DOT
 10
917.874612425057
 20
966.1259554509336
 30
0.0
 41
9.999389648437498
 42
9.999389648437498
 43
9.999389648437498
 50
270.0
  0
MTEXT
  5
382F
330
3827
100
AcDbEntity
  8
Dim
  6
Continuous
 62
     0
100
AcDbMText
 10
895.658303831307
 20
1053.625955450934
 30
0.0
 40
24.4326171875
 41
0.0
 46
0.0
 71
     5
 72
     1
  1
\A1;175
  7
ＭＳ ゴシック
 11
0.0
 21
1.0
 31
0.0
 73
     1
 44
1.0
  0
POINT
  5
3830
330
3827
100
AcDbEntity
  8
Defpoints
 62
     0
100
AcDbPoint
 10
799.2923018502306
 20
1141.125955450934
 30
0.0
  0
POINT
  5
3831
330
3827
100
AcDbEntity
  8
Defpoints
 62
     0
100
AcDbPoint
 10
636.7988809392789
 20
966.1259554509336
 30
0.0
  0
POINT
  5
3832
330
3827
100
AcDbEntity
  8
Defpoints
 62
     0
100
AcDbPoint
 10
917.874612425057
 20
966.1259554509336
 30
0.0
  0
ENDBLK
  5
3829
330
3827
100
AcDbEntity
  8
0
100
AcDbBlockEnd
  0
BLOCK
  5
3835
330
3834
100
AcDbEntity
  8
0
100
AcDbBlockBegin
  2
*D14
 70
     1
 10
0.0
 20
0.0
 30
0.0
  3
*D14
  1
*D419
  0
LINE
  5
3837
330
3834
100
AcDbEntity
  8
Dim
  6
Continuous
 62
     0
370
    -2
100
AcDbLine
 10
1239.972429780451
 20
1141.125948134719
 30
0.0
 11
1156.988373176041
 21
1141.125948134719
 31
0.0
  0
LINE
  5
3838
330
3834
100
AcDbEntity
  8
Dim
  6
Continuous
 62
     0
370
    -2
100
AcDbLine
 10
1290.043249323278
 20
991.1259481347192
 30
0.0
 11
1156.988373176041
 21
991.1259481347192
 31
0.0
  0
LINE
  5
3839
330
3834
100
AcDbEntity
  8
Dim
  6
Continuous
 62
     0
370
    -2
100
AcDbLine
 10
1156.988373176041
 20
1131.126558486282
 30
0.0
 11
1156.988373176041
 21
1001.125337783157
 31
0.0
  0
INSERT
  5
383A
330
3834
100
AcDbEntity
  8
Dim
 62
     0
370
    -2
100
AcDbBlockReference
  2
_DOT
 10
1156.988373176041
 20
1141.125948134719
 30
0.0
 41
9.999389648437498
 42
9.999389648437498
 43
9.999389648437498
 50
90.0
  0
INSERT
  5
383B
330
3834
100
AcDbEntity
  8
Dim
 62
     0
370
    -2
100
AcDbBlockReference
  2
_DOT
 10
1156.988373176041
 20
991.1259481347192
 30
0.0
 41
9.999389648437498
 42
9.999389648437498
 43
9.999389648437498
 50
270.0
  0
MTEXT
  5
383C
330
3834
100
AcDbEntity
  8
Dim
  6
Continuous
 62
     0
100
AcDbMText
 10
1134.772064582291
 20
1066.125948134719
 30
0.0
 40
24.4326171875
 41
0.0
 46
0.0
 71
     5
 72
     1
  1
\A1;150
  7
ＭＳ ゴシック
 11
0.0
 21
1.0
 31
0.0
 73
     1
 44
1.0
  0
POINT
  5
383D
330
3834
100
AcDbEntity
  8
Defpoints
 62
     0
100
AcDbPoint
 10
1264.972429780451
 20
1141.125948134719
 30
0.0
  0
POINT
  5
383E
330
3834
100
AcDbEntity
  8
Defpoints
 62
     0
100
AcDbPoint
 10
1315.043249323278
 20
991.1259481347192
 30
0.0
  0
POINT
  5
383F
330
3834
100
AcDbEntity
  8
Defpoints
 62
     0
100
AcDbPoint
 10
1156.988373176041
 20
991.1259481347192
 30
0.0
  0
ENDBLK
  5
3836
330
3834
100
AcDbEntity
  8
0
100
AcDbBlockEnd
  0
BLOCK
  5
3851
330
3850
100
AcDbEntity
  8
0
100
AcDbBlockBegin
  2
*D15
 70
     1
 10
0.0
 20
0.0
 30
0.0
  3
*D15
  1
*D420
  0
LINE
  5
3853
330
3850
100
AcDbEntity
  8
Dim
  6
Continuous
 62
     0
370
    -2
100
AcDbLine
 10
1466.349787701834
 20
1141.125948134719
 30
0.0
 11
1466.349787701834
 21
1313.50064735347
 31
0.0
  0
LINE
  5
3854
330
3850
100
AcDbEntity
  8
Dim
  6
Continuous
 62
     0
370
    -2
100
AcDbLine
 10
1466.349787701834
 20
1026.405717870372
 30
0.0
 11
1466.349787701834
 21
1131.126558486282
 31
0.0
  0
LINE
  5
3855
330
3850
100
AcDbEntity
  8
Dim
  6
Continuous
 62
     0
370
    -2
100
AcDbLine
 10
1466.349787701834
 20
1131.126558486282
 30
0.0
 11
1466.349787701834
 21
1121.127168837844
 31
0.0
  0
INSERT
  5
3856
330
3850
100
AcDbEntity
  8
Dim
 62
     0
370
    -2
100
AcDbBlockReference
  2
_DOT
 10
1466.349787701834
 20
1016.406328221934
 30
0.0
 41
9.999389648437498
 42
9.999389648437498
 43
9.999389648437498
 50
270.0
  0
INSERT
  5
3857
330
3850
100
AcDbEntity
  8
Dim
 62
     0
370
    -2
100
AcDbBlockReference
  2
_DOT
 10
1466.349787701834
 20
1141.125948134719
 30
0.0
 41
9.999389648437498
 42
9.999389648437498
 43
9.999389648437498
 50
90.0
  0
MTEXT
  5
3858
330
3850
100
AcDbEntity
  8
Dim
  6
Continuous
 62
     0
100
AcDbMText
 10
1441.97119248699
 20
1237.312687392532
 30
0.0
 40
24.4326171875
 41
0.0
 46
0.0
 71
     5
 72
     1
  1
\A1;125(深さ)
  7
ＭＳ ゴシック
 11
0.0
 21
1.0
 31
0.0
 73
     1
 44
1.0
  0
POINT
  5
3859
330
3850
100
AcDbEntity
  8
Defpoints
 62
     0
100
AcDbPoint
 10
1466.349787701834
 20
1016.406328221934
 30
0.0
  0
POINT
  5
385A
330
3850
100
AcDbEntity
  8
Defpoints
 62
     0
100
AcDbPoint
 10
1466.349787701834
 20
1141.125948134719
 30
0.0
  0
POINT
  5
3B8C
330
3850
100
AcDbEntity
  8
Defpoints
 62
     0
100
AcDbPoint
 10
1466.349787701834
 20
1141.125948134719
 30
0.0
  0
ENDBLK
  5
3852
330
3850
100
AcDbEntity
  8
0
100
AcDbBlockEnd
  0
BLOCK
  5
3887
330
3886
100
AcDbEntity
  8
0
100
AcDbBlockBegin
  2
*D16
 70
     1
 10
0.0
 20
0.0
 30
0.0
  3
*D16
  1
*D417
  0
LINE
  5
3889
330
3886
100
AcDbEntity
  8
Dim
  6
Continuous
 62
     0
370
    -2
100
AcDbLine
 10
398.1868234906682
 20
1842.352070505879
 30
0.0
 11
398.1868234906682
 21
1591.309826278932
 31
0.0
  0
LINE
  5
388A
330
3886
100
AcDbEntity
  8
Dim
  6
Continuous
 62
     0
370
    -2
100
AcDbLine
 10
788.1868053677158
 20
1842.352070505879
 30
0.0
 11
788.1868053677158
 21
1591.309826278932
 31
0.0
  0
LINE
  5
388B
330
3886
100
AcDbEntity
  8
Dim
  6
Continuous
 62
     0
370
    -2
100
AcDbLine
 10
408.1862131391057
 20
1591.309826278932
 30
0.0
 11
778.1874157192783
 21
1591.309826278932
 31
0.0
  0
INSERT
  5
388C
330
3886
100
AcDbEntity
  8
Dim
 62
     0
370
    -2
100
AcDbBlockReference
  2
_DOT
 10
398.1868234906682
 20
1591.309826278932
 30
0.0
 41
9.999389648437498
 42
9.999389648437498
 43
9.999389648437498
 50
180.0
  0
INSERT
  5
388D
330
3886
100
AcDbEntity
  8
Dim
 62
     0
370
    -2
100
AcDbBlockReference
  2
_DOT
 10
788.1868053677158
 20
1591.309826278932
 30
0.0
 41
9.999389648437498
 42
9.999389648437498
 43
9.999389648437498
  0
MTEXT
  5
388E
330
3886
100
AcDbEntity
  8
Dim
  6
Continuous
 62
     0
100
AcDbMText
 10
593.186814429192
 20
1613.526134872682
 30
0.0
 40
24.4326171875
 41
0.0
 46
0.0
 71
     5
 72
     1
  1
\A1;390
  7
ＭＳ ゴシック
 73
     1
 44
1.0
  0
POINT
  5
388F
330
3886
100
AcDbEntity
  8
Defpoints
 62
     0
100
AcDbPoint
 10
398.1868234906682
 20
1867.352070505879
 30
0.0
  0
POINT
  5
3890
330
3886
100
AcDbEntity
  8
Defpoints
 62
     0
100
AcDbPoint
 10
788.1868053677158
 20
1867.352070505879
 30
0.0
  0
POINT
  5
3891
330
3886
100
AcDbEntity
  8
Defpoints
 62
     0
100
AcDbPoint
 10
788.1868053677158
 20
1591.309826278932
 30
0.0
  0
ENDBLK
  5
3888
330
3886
100
AcDbEntity
  8
0
100
AcDbBlockEnd
  0
BLOCK
  5
3898
330
3897
100
AcDbEntity
  8
0
100
AcDbBlockBegin
  2
*D17
 70
     1
 10
0.0
 20
0.0
 30
0.0
  3
*D17
  1
*D418
  0
LINE
  5
389A
330
3897
100
AcDbEntity
  8
Dim
  6
Continuous
 62
     0
370
    -2
100
AcDbLine
 10
1316.349781533269
 20
966.9242887048883
 30
0.0
 11
1316.349781533269
 21
894.5559862139885
 31
0.0
  0
LINE
  5
389B
330
3897
100
AcDbEntity
  8
Dim
  6
Continuous
 62
     0
370
    -2
100
AcDbLine
 10
1616.349781533269
 20
966.9242887048883
 30
0.0
 11
1616.349781533269
 21
894.5559862139885
 31
0.0
  0
LINE
  5
389C
330
3897
100
AcDbEntity
  8
Dim
  6
Continuous
 62
     0
370
    -2
100
AcDbLine
 10
1326.349171181706
 20
894.5559862139885
 30
0.0
 11
1606.350391884831
 21
894.5559862139885
 31
0.0
  0
INSERT
  5
389D
330
3897
100
AcDbEntity
  8
Dim
 62
     0
370
    -2
100
AcDbBlockReference
  2
_DOT
 10
1316.349781533269
 20
894.5559862139885
 30
0.0
 41
9.999389648437498
 42
9.999389648437498
 43
9.999389648437498
 50
180.0
  0
INSERT
  5
389E
330
3897
100
AcDbEntity
  8
Dim
 62
     0
370
    -2
100
AcDbBlockReference
  2
_DOT
 10
1616.349781533269
 20
894.5559862139885
 30
0.0
 41
9.999389648437498
 42
9.999389648437498
 43
9.999389648437498
  0
MTEXT
  5
389F
330
3897
100
AcDbEntity
  8
Dim
  6
Continuous
 62
     0
100
AcDbMText
 10
1466.349781533269
 20
916.7722948077385
 30
0.0
 40
24.4326171875
 41
0.0
 46
0.0
 71
     5
 72
     1
  1
\A1;300
  7
ＭＳ ゴシック
 73
     1
 44
1.0
  0
POINT
  5
38A0
330
3897
100
AcDbEntity
  8
Defpoints
 62
     0
100
AcDbPoint
 10
1316.349781533269
 20
991.9242887048883
 30
0.0
  0
POINT
  5
38A1
330
3897
100
AcDbEntity
  8
Defpoints
 62
     0
100
AcDbPoint
 10
1616.349781533269
 20
991.9242887048883
 30
0.0
  0
POINT
  5
38A2
330
3897
100
AcDbEntity
  8
Defpoints
 62
     0
100
AcDbPoint
 10
1616.349781533269
 20
894.5559862139885
 30
0.0
  0
ENDBLK
  5
3899
330
3897
100
AcDbEntity
  8
0
100
AcDbBlockEnd
  0
BLOCK
  5
39AF
330
39AE
100
AcDbEntity
  8
0
 62
     0
100
AcDbBlockBegin
  2
*D18
 70
     1
 10
0.0
 20
0.0
 30
0.0
  3
*D18
  1

  0
LINE
  5
39B0
330
39AE
100
AcDbEntity
  8
0
 62
     0
370
    -2
100
AcDbLine
 10
65.16427977121975
 20
783.3183114800232
 30
0.0
 11
18.59931377899042
 21
783.3183114800232
 31
0.0
  0
LINE
  5
39B1
330
39AE
100
AcDbEntity
  8
0
 62
     0
370
    -2
100
AcDbLine
 10
110.2836341999009
 20
383.3256356987732
 30
0.0
 11
18.5993137789904
 21
383.3256356987732
 31
0.0
  0
LINE
  5
39B2
330
39AE
100
AcDbEntity
  8
0
 62
     0
370
    -2
100
AcDbLine
 10
18.77931377899042
 20
783.1383114800233
 30
0.0
 11
18.77931377899041
 21
583.5019735893983
 31
0.0
  0
LINE
  5
39B3
330
39AE
100
AcDbEntity
  8
0
 62
     0
370
    -2
100
AcDbLine
 10
18.7793137789904
 20
383.5056356987732
 30
0.0
 11
18.77931377899041
 21
583.1419735893982
 31
0.0
  0
SOLID
  5
39B4
330
39AE
100
AcDbEntity
  8
0
 62
     0
100
AcDbTrace
 10
18.80931377899043
 20
783.1383114800233
 30
0.0
 11
18.74931377899042
 21
783.1383114800233
 31
0.0
 12
18.77931377899042
 22
783.3183114800232
 32
0.0
 13
18.77931377899042
 23
783.3183114800232
 33
0.0
  0
SOLID
  5
39B5
330
39AE
100
AcDbEntity
  8
0
 62
     0
100
AcDbTrace
 10
18.7493137789904
 20
383.5056356987732
 30
0.0
 11
18.8093137789904
 21
383.5056356987732
 31
0.0
 12
18.7793137789904
 22
383.3256356987732
 32
0.0
 13
18.7793137789904
 23
383.3256356987732
 33
0.0
  0
MTEXT
  5
39B6
330
39AE
100
AcDbEntity
  8
0
  6
Continuous
 62
     0
100
AcDbMText
 10
18.77931377899041
 20
583.3219735893982
 30
0.0
 40
0.18
 41
0.0
 46
0.0
 71
     5
 72
     1
  1
\A1;399.9927
 73
     1
 44
1.0
  0
POINT
  5
3A11
330
39AE
100
AcDbEntity
  8
Defpoints
 62
     0
100
AcDbPoint
 10
65.22677977121975
 20
783.3183114800232
 30
0.0
  0
POINT
  5
3A12
330
39AE
100
AcDbEntity
  8
Defpoints
 62
     0
100
AcDbPoint
 10
110.3461341999009
 20
383.3256356987732
 30
0.0
  0
POINT
  5
3A13
330
39AE
100
AcDbEntity
  8
Defpoints
 62
     0
100
AcDbPoint
 10
18.7793137789904
 20
383.3256356987732
 30
0.0
  0
ENDBLK
  5
39B7
330
39AE
100
AcDbEntity
  8
0
 62
     0
100
AcDbBlockEnd
  0
BLOCK
  5
39BC
330
39BB
100
AcDbEntity
  8
0
 62
     0
100
AcDbBlockBegin
  2
*D19
 70
     1
 10
0.0
 20
0.0
 30
0.0
  3
*D19
  1

  0
LINE
  5
39BD
330
39BB
100
AcDbEntity
  8
0
 62
     0
370
    -2
100
AcDbLine
 10
84.43427890258698
 20
583.2405164240566
 30
0.0
 11
84.43427890258698
 21
338.5935661902641
 31
0.0
  0
LINE
  5
39BE
330
39BB
100
AcDbEntity
  8
0
 62
     0
370
    -2
100
AcDbLine
 10
484.4342789025931
 20
583.2405164240566
 30
0.0
 11
484.4342789025931
 21
338.5935661902641
 31
0.0
  0
LINE
  5
39BF
330
39BB
100
AcDbEntity
  8
0
 62
     0
370
    -2
100
AcDbLine
 10
84.61427890258699
 20
338.7735661902641
 30
0.0
 11
283.8042789025901
 21
338.7735661902641
 31
0.0
  0
LINE
  5
39C0
330
39BB
100
AcDbEntity
  8
0
 62
     0
370
    -2
100
AcDbLine
 10
484.2542789025931
 20
338.7735661902641
 30
0.0
 11
285.06427890259
 21
338.7735661902641
 31
0.0
  0
SOLID
  5
39C1
330
39BB
100
AcDbEntity
  8
0
 62
     0
100
AcDbTrace
 10
84.61427890258699
 20
338.8035661902641
 30
0.0
 11
84.61427890258699
 21
338.7435661902641
 31
0.0
 12
84.43427890258698
 22
338.7735661902641
 32
0.0
 13
84.43427890258698
 23
338.7735661902641
 33
0.0
  0
SOLID
  5
39C2
330
39BB
100
AcDbEntity
  8
0
 62
     0
100
AcDbTrace
 10
484.2542789025931
 20
338.7435661902641
 30
0.0
 11
484.2542789025931
 21
338.8035661902641
 31
0.0
 12
484.4342789025931
 22
338.7735661902641
 32
0.0
 13
484.4342789025931
 23
338.7735661902641
 33
0.0
  0
MTEXT
  5
39C3
330
39BB
100
AcDbEntity
  8
0
  6
Continuous
 62
     0
100
AcDbMText
 10
284.4342789025901
 20
338.7735661902641
 30
0.0
 40
0.18
 41
0.0
 46
0.0
 71
     5
 72
     1
  1
\A1;400.0000
 73
     1
 44
1.0
  0
POINT
  5
3A14
330
39BB
100
AcDbEntity
  8
Defpoints
 62
     0
100
AcDbPoint
 10
84.43427890258698
 20
583.3030164240566
 30
0.0
  0
POINT
  5
3A15
330
39BB
100
AcDbEntity
  8
Defpoints
 62
     0
100
AcDbPoint
 10
484.4342789025931
 20
583.3030164240566
 30
0.0
  0
POINT
  5
3A16
330
39BB
100
AcDbEntity
  8
Defpoints
 62
     0
100
AcDbPoint
 10
484.4342789025931
 20
338.7735661902641
 30
0.0
  0
ENDBLK
  5
39C4
330
39BB
100
AcDbEntity
  8
0
 62
     0
100
AcDbBlockEnd
  0
BLOCK
  5
39C9
330
39C8
100
AcDbEntity
  8
0
100
AcDbBlockBegin
  2
*D20
 70
     1
 10
0.0
 20
0.0
 30
0.0
  3
*D20
  1

  0
LINE
  5
39CA
330
39C8
100
AcDbEntity
  8
0
 62
     0
370
    -2
100
AcDbLine
 10
284.5037639549297
 20
202.6379966171306
 30
0.0
 11
518.8484836547211
 21
202.6379966171306
 31
0.0
  0
LINE
  5
39CB
330
39C8
100
AcDbEntity
  8
0
 62
     0
370
    -2
100
AcDbLine
 10
284.5037639549297
 20
61.57107435964861
 30
0.0
 11
518.8484836547211
 21
61.57107435964859
 31
0.0
  0
LINE
  5
39CC
330
39C8
100
AcDbEntity
  8
0
 62
     0
370
    -2
100
AcDbLine
 10
518.6684836547212
 20
202.4579966171306
 30
0.0
 11
518.6684836547212
 21
132.2845354883896
 31
0.0
  0
LINE
  5
39CD
330
39C8
100
AcDbEntity
  8
0
 62
     0
370
    -2
100
AcDbLine
 10
518.6684836547212
 20
61.75107435964859
 30
0.0
 11
518.6684836547212
 21
131.9245354883896
 31
0.0
  0
SOLID
  5
39CE
330
39C8
100
AcDbEntity
  8
0
 62
     0
100
AcDbTrace
 10
518.6984836547211
 20
202.4579966171306
 30
0.0
 11
518.6384836547212
 21
202.4579966171306
 31
0.0
 12
518.6684836547212
 22
202.6379966171306
 32
0.0
 13
518.6684836547212
 23
202.6379966171306
 33
0.0
  0
SOLID
  5
39CF
330
39C8
100
AcDbEntity
  8
0
 62
     0
100
AcDbTrace
 10
518.6384836547212
 20
61.75107435964859
 30
0.0
 11
518.6984836547211
 21
61.75107435964859
 31
0.0
 12
518.6684836547212
 22
61.57107435964859
 32
0.0
 13
518.6684836547212
 23
61.57107435964859
 33
0.0
  0
MTEXT
  5
39D0
330
39C8
100
AcDbEntity
  8
0
  6
Continuous
 62
     0
100
AcDbMText
 10
518.6684836547212
 20
132.1045354883896
 30
0.0
 40
0.18
 41
0.0
 46
0.0
 71
     5
 72
     1
  1
\A1;140
 73
     1
 44
1.0
  0
POINT
  5
3A17
330
39C8
100
AcDbEntity
  8
Defpoints
 62
     0
100
AcDbPoint
 10
284.4412639549297
 20
202.6379966171306
 30
0.0
  0
POINT
  5
3A18
330
39C8
100
AcDbEntity
  8
Defpoints
 62
     0
100
AcDbPoint
 10
284.4412639549297
 20
61.57107435964861
 30
0.0
  0
POINT
  5
3A19
330
39C8
100
AcDbEntity
  8
Defpoints
 62
     0
100
AcDbPoint
 10
518.6684836547212
 20
61.57107435964859
 30
0.0
  0
ENDBLK
  5
39D1
330
39C8
100
AcDbEntity
  8
0
100
AcDbBlockEnd
  0
BLOCK
  5
39D4
330
39D3
100
AcDbEntity
  8
0
100
AcDbBlockBegin
  2
*D21
 70
     1
 10
0.0
 20
0.0
 30
0.0
  3
*D21
  1

  0
LINE
  5
39D5
330
39D3
100
AcDbEntity
  8
0
 62
     0
370
    -2
100
AcDbLine
 10
132.0616611427232
 20
62.33624328660699
 30
0.0
 11
132.0616611427232
 21
18.60545293315142
 31
0.0
  0
LINE
  5
39D6
330
39D3
100
AcDbEntity
  8
0
 62
     0
370
    -2
100
AcDbLine
 10
436.9179206151986
 20
52.75038865382589
 30
0.0
 11
436.9179206151986
 21
18.60545293315142
 31
0.0
  0
LINE
  5
39D7
330
39D3
100
AcDbEntity
  8
0
 62
     0
370
    -2
100
AcDbLine
 10
132.2416611427232
 20
18.78545293315142
 30
0.0
 11
283.784790878961
 21
18.78545293315142
 31
0.0
  0
LINE
  5
39D8
330
39D3
100
AcDbEntity
  8
0
 62
     0
370
    -2
100
AcDbLine
 10
436.7379206151986
 20
18.78545293315142
 30
0.0
 11
285.1947908789609
 21
18.78545293315142
 31
0.0
  0
SOLID
  5
39D9
330
39D3
100
AcDbEntity
  8
0
 62
     0
100
AcDbTrace
 10
132.2416611427232
 20
18.81545293315142
 30
0.0
 11
132.2416611427232
 21
18.75545293315142
 31
0.0
 12
132.0616611427232
 22
18.78545293315142
 32
0.0
 13
132.0616611427232
 23
18.78545293315142
 33
0.0
  0
SOLID
  5
39DA
330
39D3
100
AcDbEntity
  8
0
 62
     0
100
AcDbTrace
 10
436.7379206151986
 20
18.75545293315142
 30
0.0
 11
436.7379206151986
 21
18.81545293315142
 31
0.0
 12
436.9179206151986
 22
18.78545293315142
 32
0.0
 13
436.9179206151986
 23
18.78545293315142
 33
0.0
  0
MTEXT
  5
39DB
330
39D3
100
AcDbEntity
  8
0
  6
Continuous
 62
     0
100
AcDbMText
 10
284.4897908789609
 20
18.78545293315142
 30
0.0
 40
0.18
 41
0.0
 46
0.0
 71
     5
 72
     1
  1
\A1;304.8563
 73
     1
 44
1.0
  0
POINT
  5
3A1A
330
39D3
100
AcDbEntity
  8
Defpoints
 62
     0
100
AcDbPoint
 10
132.0616611427232
 20
62.39874328660699
 30
0.0
  0
POINT
  5
3A1B
330
39D3
100
AcDbEntity
  8
Defpoints
 62
     0
100
AcDbPoint
 10
436.9179206151986
 20
52.81288865382589
 30
0.0
  0
POINT
  5
3A1C
330
39D3
100
AcDbEntity
  8
Defpoints
 62
     0
100
AcDbPoint
 10
436.9179206151986
 20
18.78545293315142
 30
0.0
  0
ENDBLK
  5
39DC
330
39D3
100
AcDbEntity
  8
0
100
AcDbBlockEnd
  0
BLOCK
  5
39DF
330
39DE
100
AcDbEntity
  8
0
100
AcDbBlockBegin
  2
*D22
 70
     1
 10
0.0
 20
0.0
 30
0.0
  3
*D22
  1

  0
LINE
  5
39E0
330
39DE
100
AcDbEntity
  8
0
 62
     0
370
    -2
100
AcDbLine
 10
875.6698954578758
 20
430.9711810577771
 30
0.0
 11
919.4006858113314
 21
430.9711810577771
 31
0.0
  0
LINE
  5
39E1
330
39DE
100
AcDbEntity
  8
0
 62
     0
370
    -2
100
AcDbLine
 10
885.255750090657
 20
735.8274405302525
 30
0.0
 11
919.4006858113314
 21
735.8274405302525
 31
0.0
  0
LINE
  5
39E2
330
39DE
100
AcDbEntity
  8
0
 62
     0
370
    -2
100
AcDbLine
 10
919.2206858113315
 20
431.1511810577771
 30
0.0
 11
919.2206858113315
 21
583.2193107940147
 31
0.0
  0
LINE
  5
39E3
330
39DE
100
AcDbEntity
  8
0
 62
     0
370
    -2
100
AcDbLine
 10
919.2206858113315
 20
735.6474405302525
 30
0.0
 11
919.2206858113315
 21
583.5793107940149
 31
0.0
  0
SOLID
  5
39E4
330
39DE
100
AcDbEntity
  8
0
 62
     0
100
AcDbTrace
 10
919.1906858113315
 20
431.1511810577771
 30
0.0
 11
919.2506858113314
 21
431.1511810577771
 31
0.0
 12
919.2206858113315
 22
430.9711810577771
 32
0.0
 13
919.2206858113315
 23
430.9711810577771
 33
0.0
  0
SOLID
  5
39E5
330
39DE
100
AcDbEntity
  8
0
 62
     0
100
AcDbTrace
 10
919.2506858113314
 20
735.6474405302525
 30
0.0
 11
919.1906858113315
 21
735.6474405302525
 31
0.0
 12
919.2206858113315
 22
735.8274405302525
 32
0.0
 13
919.2206858113315
 23
735.8274405302525
 33
0.0
  0
MTEXT
  5
39E6
330
39DE
100
AcDbEntity
  8
0
  6
Continuous
 62
     0
100
AcDbMText
 10
919.2206858113315
 20
583.3993107940148
 30
0.0
 40
0.18
 41
0.0
 46
0.0
 71
     5
 72
     1
  1
\A1;304.8563
 73
     1
 44
1.0
  0
POINT
  5
3A1D
330
39DE
100
AcDbEntity
  8
Defpoints
 62
     0
100
AcDbPoint
 10
875.6073954578758
 20
430.9711810577771
 30
0.0
  0
POINT
  5
3A1E
330
39DE
100
AcDbEntity
  8
Defpoints
 62
     0
100
AcDbPoint
 10
885.193250090657
 20
735.8274405302525
 30
0.0
  0
POINT
  5
3A1F
330
39DE
100
AcDbEntity
  8
Defpoints
 62
     0
100
AcDbPoint
 10
919.2206858113315
 20
735.8274405302525
 30
0.0
  0
ENDBLK
  5
39E7
330
39DE
100
AcDbEntity
  8
0
100
AcDbBlockEnd
  0
BLOCK
  5
39EC
330
39EB
100
AcDbEntity
  8
0
100
AcDbBlockBegin
  2
*D23
 70
     1
 10
0.0
 20
0.0
 30
0.0
  3
*D23
  1

  0
LINE
  5
39ED
330
39EB
100
AcDbEntity
  8
0
 62
     0
370
    -2
100
AcDbLine
 10
875.3641219486722
 20
583.3882649098769
 30
0.0
 11
875.3641219486722
 21
830.5713372299982
 31
0.0
  0
LINE
  5
39EE
330
39EB
100
AcDbEntity
  8
0
 62
     0
370
    -2
100
AcDbLine
 10
735.3641219486722
 20
583.3882649098769
 30
0.0
 11
735.3641219486722
 21
830.5713372299982
 31
0.0
  0
LINE
  5
39EF
330
39EB
100
AcDbEntity
  8
0
 62
     0
370
    -2
100
AcDbLine
 10
875.1841219486722
 20
830.3913372299983
 30
0.0
 11
805.9791219486722
 21
830.3913372299983
 31
0.0
  0
LINE
  5
39F0
330
39EB
100
AcDbEntity
  8
0
 62
     0
370
    -2
100
AcDbLine
 10
735.5441219486721
 20
830.3913372299983
 30
0.0
 11
804.7491219486722
 21
830.3913372299983
 31
0.0
  0
SOLID
  5
39F1
330
39EB
100
AcDbEntity
  8
0
 62
     0
100
AcDbTrace
 10
875.1841219486722
 20
830.3613372299983
 30
0.0
 11
875.1841219486722
 21
830.4213372299982
 31
0.0
 12
875.3641219486722
 22
830.3913372299983
 32
0.0
 13
875.3641219486722
 23
830.3913372299983
 33
0.0
  0
SOLID
  5
39F2
330
39EB
100
AcDbEntity
  8
0
 62
     0
100
AcDbTrace
 10
735.5441219486721
 20
830.4213372299982
 30
0.0
 11
735.5441219486721
 21
830.3613372299983
 31
0.0
 12
735.3641219486722
 22
830.3913372299983
 32
0.0
 13
735.3641219486722
 23
830.3913372299983
 33
0.0
  0
MTEXT
  5
39F3
330
39EB
100
AcDbEntity
  8
0
  6
Continuous
 62
     0
100
AcDbMText
 10
805.3641219486722
 20
830.3913372299983
 30
0.0
 40
0.18
 41
0.0
 46
0.0
 71
     5
 72
     1
  1
\A1;140.0000
 73
     1
 44
1.0
  0
POINT
  5
3A20
330
39EB
100
AcDbEntity
  8
Defpoints
 62
     0
100
AcDbPoint
 10
875.3641219486722
 20
583.3257649098769
 30
0.0
  0
POINT
  5
3A21
330
39EB
100
AcDbEntity
  8
Defpoints
 62
     0
100
AcDbPoint
 10
735.3641219486722
 20
583.3257649098769
 30
0.0
  0
POINT
  5
3A22
330
39EB
100
AcDbEntity
  8
Defpoints
 62
     0
100
AcDbPoint
 10
735.3641219486722
 20
830.3913372299983
 30
0.0
  0
ENDBLK
  5
39F4
330
39EB
100
AcDbEntity
  8
0
100
AcDbBlockEnd
  0
BLOCK
  5
39F9
330
39F8
100
AcDbEntity
  8
0
100
AcDbBlockBegin
  2
*D24
 70
     1
 10
0.0
 20
0.0
 30
0.0
  3
*D24
  1

  0
LINE
  5
39FA
330
39F8
100
AcDbEntity
  8
0
 62
     0
370
    -2
100
AcDbLine
 10
849.3912250198964
 20
583.3258510435654
 30
0.0
 11
682.4545870303269
 21
583.3258510435654
 31
0.0
  0
LINE
  5
39FB
330
39F8
100
AcDbEntity
  8
0
 62
     0
370
    -2
100
AcDbLine
 10
849.3912250198964
 20
783.3258510435654
 30
0.0
 11
682.4545870303269
 21
783.3258510435654
 31
0.0
  0
LINE
  5
39FC
330
39F8
100
AcDbEntity
  8
0
 62
     0
370
    -2
100
AcDbLine
 10
682.6345870303269
 20
583.5058510435654
 30
0.0
 11
682.6345870303269
 21
683.1458510435654
 31
0.0
  0
LINE
  5
39FD
330
39F8
100
AcDbEntity
  8
0
 62
     0
370
    -2
100
AcDbLine
 10
682.6345870303269
 20
783.1458510435655
 30
0.0
 11
682.6345870303269
 21
683.5058510435655
 31
0.0
  0
SOLID
  5
39FE
330
39F8
100
AcDbEntity
  8
0
 62
     0
100
AcDbTrace
 10
682.6045870303269
 20
583.5058510435654
 30
0.0
 11
682.6645870303269
 21
583.5058510435654
 31
0.0
 12
682.6345870303269
 22
583.3258510435654
 32
0.0
 13
682.6345870303269
 23
583.3258510435654
 33
0.0
  0
SOLID
  5
39FF
330
39F8
100
AcDbEntity
  8
0
 62
     0
100
AcDbTrace
 10
682.6645870303269
 20
783.1458510435655
 30
0.0
 11
682.6045870303269
 21
783.1458510435655
 31
0.0
 12
682.6345870303269
 22
783.3258510435654
 32
0.0
 13
682.6345870303269
 23
783.3258510435654
 33
0.0
  0
MTEXT
  5
3A00
330
39F8
100
AcDbEntity
  8
0
  6
Continuous
 62
     0
100
AcDbMText
 10
682.6345870303269
 20
683.3258510435654
 30
0.0
 40
0.18
 41
0.0
 46
0.0
 71
     5
 72
     1
  1
\A1;200.0000
 73
     1
 44
1.0
  0
POINT
  5
3A23
330
39F8
100
AcDbEntity
  8
Defpoints
 62
     0
100
AcDbPoint
 10
849.4537250198964
 20
583.3258510435654
 30
0.0
  0
POINT
  5
3A24
330
39F8
100
AcDbEntity
  8
Defpoints
 62
     0
100
AcDbPoint
 10
849.4537250198964
 20
783.3258510435654
 30
0.0
  0
POINT
  5
3A25
330
39F8
100
AcDbEntity
  8
Defpoints
 62
     0
100
AcDbPoint
 10
682.6345870303269
 20
783.3258510435654
 30
0.0
  0
ENDBLK
  5
3A01
330
39F8
100
AcDbEntity
  8
0
100
AcDbBlockEnd
  0
BLOCK
  5
3A06
330
3A05
100
AcDbEntity
  8
0
100
AcDbBlockBegin
  2
*D25
 70
     1
 10
0.0
 20
0.0
 30
0.0
  3
*D25
  1

  0
LINE
  5
3A07
330
3A05
100
AcDbEntity
  8
0
 62
     0
370
    -2
100
AcDbLine
 10
284.4412209166751
 20
88.5599318610573
 30
0.0
 11
284.4412209166751
 21
257.148045227092
 31
0.0
  0
LINE
  5
3A08
330
3A05
100
AcDbEntity
  8
0
 62
     0
370
    -2
100
AcDbLine
 10
84.44122091667509
 20
88.5599318610573
 30
0.0
 11
84.44122091667509
 21
257.148045227092
 31
0.0
  0
LINE
  5
3A09
330
3A05
100
AcDbEntity
  8
0
 62
     0
370
    -2
100
AcDbLine
 10
284.2612209166751
 20
256.968045227092
 30
0.0
 11
185.0712209166751
 21
256.968045227092
 31
0.0
  0
LINE
  5
3A0A
330
3A05
100
AcDbEntity
  8
0
 62
     0
370
    -2
100
AcDbLine
 10
84.6212209166751
 20
256.968045227092
 30
0.0
 11
183.8112209166751
 21
256.968045227092
 31
0.0
  0
SOLID
  5
3A0B
330
3A05
100
AcDbEntity
  8
0
 62
     0
100
AcDbTrace
 10
284.2612209166751
 20
256.9380452270921
 30
0.0
 11
284.2612209166751
 21
256.998045227092
 31
0.0
 12
284.4412209166751
 22
256.968045227092
 32
0.0
 13
284.4412209166751
 23
256.968045227092
 33
0.0
  0
SOLID
  5
3A0C
330
3A05
100
AcDbEntity
  8
0
 62
     0
100
AcDbTrace
 10
84.6212209166751
 20
256.998045227092
 30
0.0
 11
84.6212209166751
 21
256.9380452270921
 31
0.0
 12
84.44122091667509
 22
256.968045227092
 32
0.0
 13
84.44122091667509
 23
256.968045227092
 33
0.0
  0
MTEXT
  5
3A0D
330
3A05
100
AcDbEntity
  8
0
  6
Continuous
 62
     0
100
AcDbMText
 10
184.4412209166751
 20
256.968045227092
 30
0.0
 40
0.18
 41
0.0
 46
0.0
 71
     5
 72
     1
  1
\A1;200.0000
 73
     1
 44
1.0
  0
POINT
  5
3A26
330
3A05
100
AcDbEntity
  8
Defpoints
 62
     0
100
AcDbPoint
 10
284.4412209166751
 20
88.4974318610573
 30
0.0
  0
POINT
  5
3A27
330
3A05
100
AcDbEntity
  8
Defpoints
 62
     0
100
AcDbPoint
 10
84.44122091667509
 20
88.4974318610573
 30
0.0
  0
POINT
  5
3A28
330
3A05
100
AcDbEntity
  8
Defpoints
 62
     0
100
AcDbPoint
 10
84.44122091667509
 20
256.968045227092
 30
0.0
  0
ENDBLK
  5
3A0E
330
3A05
100
AcDbEntity
  8
0
100
AcDbBlockEnd
  0
BLOCK
  5
3AE2
330
3AE1
100
AcDbEntity
  8
0
100
AcDbBlockBegin
  2
*D26
 70
     1
 10
0.0
 20
0.0
 30
0.0
  3
*D26
  1

  0
LINE
  5
3AE4
330
3AE1
100
AcDbEntity
  8
Dim
 62
     0
370
    -2
100
AcDbLine
 10
786.3029951488788
 20
2176.180173952
 30
0.0
 11
786.3029951488788
 21
2306.865587283358
 31
0.0
  0
LINE
  5
3AE5
330
3AE1
100
AcDbEntity
  8
Dim
 62
     0
370
    -2
100
AcDbLine
 10
386.3103193676284
 20
2163.277255592465
 30
0.0
 11
386.3103193676284
 21
2306.865587283358
 31
0.0
  0
LINE
  5
3AE6
330
3AE1
100
AcDbEntity
  8
Dim
 62
     0
370
    -2
100
AcDbLine
 10
776.3036055004413
 20
2306.865587283358
 30
0.0
 11
396.3097090160659
 21
2306.865587283358
 31
0.0
  0
INSERT
  5
3AE7
330
3AE1
100
AcDbEntity
  8
Dim
 62
     0
370
    -2
100
AcDbBlockReference
  2
_DOT
 10
786.3029951488788
 20
2306.865587283358
 30
0.0
 41
9.999389648437498
 42
9.999389648437498
 43
9.999389648437498
  0
INSERT
  5
3AE8
330
3AE1
100
AcDbEntity
  8
Dim
 62
     0
370
    -2
100
AcDbBlockReference
  2
_DOT
 10
386.3103193676284
 20
2306.865587283358
 30
0.0
 41
9.999389648437498
 42
9.999389648437498
 43
9.999389648437498
 50
180.0
  0
MTEXT
  5
3AE9
330
3AE1
100
AcDbEntity
  8
Dim
  6
Continuous
 62
     0
100
AcDbMText
 10
586.3066572582525
 20
2329.081895877108
 30
0.0
 40
24.4326171875
 41
0.0
 46
0.0
 71
     5
 72
     1
  1
\A1;400
  7
ＭＳ ゴシック
 73
     1
 44
1.0
  0
POINT
  5
3AEA
330
3AE1
100
AcDbEntity
  8
Defpoints
 62
     0
100
AcDbPoint
 10
786.3029951488788
 20
2151.180173952
 30
0.0
  0
POINT
  5
3AEB
330
3AE1
100
AcDbEntity
  8
Defpoints
 62
     0
100
AcDbPoint
 10
386.3103193676284
 20
2138.277255592465
 30
0.0
  0
POINT
  5
3AEC
330
3AE1
100
AcDbEntity
  8
Defpoints
 62
     0
100
AcDbPoint
 10
386.3103193676284
 20
2306.865587283358
 30
0.0
  0
ENDBLK
  5
3AE3
330
3AE1
100
AcDbEntity
  8
0
100
AcDbBlockEnd
  0
BLOCK
  5
3AEF
330
3AEE
100
AcDbEntity
  8
0
100
AcDbBlockBegin
  2
*D27
 70
     1
 10
0.0
 20
0.0
 30
0.0
  3
*D27
  1

  0
LINE
  5
3AF1
330
3AEE
100
AcDbEntity
  8
Dim
 62
     0
370
    -2
100
AcDbLine
 10
733.7789915265162
 20
1819.341155702934
 30
0.0
 11
890.3479019855981
 21
1819.341155702934
 31
0.0
  0
LINE
  5
3AF2
330
3AEE
100
AcDbEntity
  8
Dim
 62
     0
370
    -2
100
AcDbLine
 10
733.7789915265162
 20
2219.341155702941
 30
0.0
 11
890.3479019855981
 21
2219.341155702941
 31
0.0
  0
LINE
  5
3AF3
330
3AEE
100
AcDbEntity
  8
Dim
 62
     0
370
    -2
100
AcDbLine
 10
890.3479019855981
 20
1829.340545351372
 30
0.0
 11
890.3479019855981
 21
2209.341766054503
 31
0.0
  0
INSERT
  5
3AF4
330
3AEE
100
AcDbEntity
  8
Dim
 62
     0
370
    -2
100
AcDbBlockReference
  2
_DOT
 10
890.3479019855981
 20
1819.341155702934
 30
0.0
 41
9.999389648437498
 42
9.999389648437498
 43
9.999389648437498
 50
270.0
  0
INSERT
  5
3AF5
330
3AEE
100
AcDbEntity
  8
Dim
 62
     0
370
    -2
100
AcDbBlockReference
  2
_DOT
 10
890.3479019855981
 20
2219.341155702941
 30
0.0
 41
9.999389648437498
 42
9.999389648437498
 43
9.999389648437498
 50
90.0
  0
MTEXT
  5
3AF6
330
3AEE
100
AcDbEntity
  8
Dim
  6
Continuous
 62
     0
100
AcDbMText
 10
868.1315933918481
 20
2019.341155702938
 30
0.0
 40
24.4326171875
 41
0.0
 46
0.0
 71
     5
 72
     1
  1
\A1;400
  7
ＭＳ ゴシック
 11
0.0
 21
1.0
 31
0.0
 73
     1
 44
1.0
  0
POINT
  5
3AF7
330
3AEE
100
AcDbEntity
  8
Defpoints
 62
     0
100
AcDbPoint
 10
708.7789915265162
 20
1819.341155702934
 30
0.0
  0
POINT
  5
3AF8
330
3AEE
100
AcDbEntity
  8
Defpoints
 62
     0
100
AcDbPoint
 10
708.7789915265162
 20
2219.341155702941
 30
0.0
  0
POINT
  5
3AF9
330
3AEE
100
AcDbEntity
  8
Defpoints
 62
     0
100
AcDbPoint
 10
890.3479019855981
 20
2219.341155702941
 30
0.0
  0
ENDBLK
  5
3AF0
330
3AEE
100
AcDbEntity
  8
0
100
AcDbBlockEnd
  0
BLOCK
  5
3AFC
330
3AFB
100
AcDbEntity
  8
0
100
AcDbBlockBegin
  2
*D28
 70
     1
 10
0.0
 20
0.0
 30
0.0
  3
*D28
  1

  0
LINE
  5
3AFE
330
3AFB
100
AcDbEntity
  8
Dim
 62
     0
370
    -2
100
AcDbLine
 10
3489.45648264293
 20
1251.587996617131
 30
0.0
 11
3698.683702342721
 21
1251.587996617131
 31
0.0
  0
LINE
  5
3AFF
330
3AFB
100
AcDbEntity
  8
Dim
 62
     0
370
    -2
100
AcDbLine
 10
3489.45648264293
 20
1110.521074359649
 30
0.0
 11
3698.683702342721
 21
1110.521074359649
 31
0.0
  0
LINE
  5
3B00
330
3AFB
100
AcDbEntity
  8
Dim
 62
     0
370
    -2
100
AcDbLine
 10
3698.683702342721
 20
1241.588606968693
 30
0.0
 11
3698.683702342721
 21
1120.520464008086
 31
0.0
  0
INSERT
  5
3B01
330
3AFB
100
AcDbEntity
  8
Dim
 62
     0
370
    -2
100
AcDbBlockReference
  2
_DOT
 10
3698.683702342721
 20
1251.587996617131
 30
0.0
 41
9.999389648437498
 42
9.999389648437498
 43
9.999389648437498
 50
90.0
  0
INSERT
  5
3B02
330
3AFB
100
AcDbEntity
  8
Dim
 62
     0
370
    -2
100
AcDbBlockReference
  2
_DOT
 10
3698.683702342721
 20
1110.521074359649
 30
0.0
 41
9.999389648437498
 42
9.999389648437498
 43
9.999389648437498
 50
270.0
  0
MTEXT
  5
3B03
330
3AFB
100
AcDbEntity
  8
Dim
  6
Continuous
 62
     0
100
AcDbMText
 10
3676.467393748971
 20
1181.05453548839
 30
0.0
 40
24.4326171875
 41
0.0
 46
0.0
 71
     5
 72
     1
  1
\A1;141
  7
ＭＳ ゴシック
 11
0.0
 21
1.0
 31
0.0
 73
     1
 44
1.0
  0
POINT
  5
3B04
330
3AFB
100
AcDbEntity
  8
Defpoints
 62
     0
100
AcDbPoint
 10
3464.45648264293
 20
1251.587996617131
 30
0.0
  0
POINT
  5
3B05
330
3AFB
100
AcDbEntity
  8
Defpoints
 62
     0
100
AcDbPoint
 10
3464.45648264293
 20
1110.521074359649
 30
0.0
  0
POINT
  5
3B06
330
3AFB
100
AcDbEntity
  8
Defpoints
 62
     0
100
AcDbPoint
 10
3698.683702342721
 20
1110.521074359649
 30
0.0
  0
ENDBLK
  5
3AFD
330
3AFB
100
AcDbEntity
  8
0
100
AcDbBlockEnd
  0
BLOCK
  5
3B09
330
3B08
100
AcDbEntity
  8
0
100
AcDbBlockBegin
  2
*D29
 70
     1
 10
0.0
 20
0.0
 30
0.0
  3
*D29
  1

  0
LINE
  5
3B0B
330
3B08
100
AcDbEntity
  8
Dim
 62
     0
370
    -2
100
AcDbLine
 10
433.8916611427244
 20
1028.514743286607
 30
0.0
 11
433.8916611427244
 21
917.2442315520002
 31
0.0
  0
LINE
  5
3B0C
330
3B08
100
AcDbEntity
  8
Dim
 62
     0
370
    -2
100
AcDbLine
 10
738.7479206151997
 20
1018.928888653826
 30
0.0
 11
738.7479206151997
 21
917.2442315520002
 31
0.0
  0
LINE
  5
3B0D
330
3B08
100
AcDbEntity
  8
Dim
 62
     0
370
    -2
100
AcDbLine
 10
443.8910507911619
 20
917.2442315520002
 30
0.0
 11
728.7485309667622
 21
917.2442315520002
 31
0.0
  0
INSERT
  5
3B0E
330
3B08
100
AcDbEntity
  8
Dim
 62
     0
370
    -2
100
AcDbBlockReference
  2
_DOT
 10
433.8916611427244
 20
917.2442315520002
 30
0.0
 41
9.999389648437498
 42
9.999389648437498
 43
9.999389648437498
 50
180.0
  0
INSERT
  5
3B0F
330
3B08
100
AcDbEntity
  8
Dim
 62
     0
370
    -2
100
AcDbBlockReference
  2
_DOT
 10
738.7479206151997
 20
917.2442315520002
 30
0.0
 41
9.999389648437498
 42
9.999389648437498
 43
9.999389648437498
  0
MTEXT
  5
3B10
330
3B08
100
AcDbEntity
  8
Dim
  6
Continuous
 62
     0
100
AcDbMText
 10
586.3197908789621
 20
939.4605401457502
 30
0.0
 40
24.4326171875
 41
0.0
 46
0.0
 71
     5
 72
     1
  1
\A1;305
  7
ＭＳ ゴシック
 73
     1
 44
1.0
  0
POINT
  5
3B11
330
3B08
100
AcDbEntity
  8
Defpoints
 62
     0
100
AcDbPoint
 10
433.8916611427244
 20
1053.514743286607
 30
0.0
  0
POINT
  5
3B12
330
3B08
100
AcDbEntity
  8
Defpoints
 62
     0
100
AcDbPoint
 10
738.7479206151997
 20
1043.928888653826
 30
0.0
  0
POINT
  5
3B13
330
3B08
100
AcDbEntity
  8
Defpoints
 62
     0
100
AcDbPoint
 10
738.7479206151997
 20
917.2442315520002
 30
0.0
  0
ENDBLK
  5
3B0A
330
3B08
100
AcDbEntity
  8
0
100
AcDbBlockEnd
  0
BLOCK
  5
3B16
330
3B15
100
AcDbEntity
  8
0
100
AcDbBlockBegin
  2
*D30
 70
     1
 10
0.0
 20
0.0
 30
0.0
  3
*D30
  1

  0
LINE
  5
3B18
330
3B15
100
AcDbEntity
  8
Dim
 62
     0
370
    -2
100
AcDbLine
 10
4035.281080529038
 20
803.6345181194156
 30
0.0
 11
4035.281080529038
 21
692.3342315520001
 31
0.0
  0
LINE
  5
3B19
330
3B15
100
AcDbEntity
  8
Dim
 62
     0
370
    -2
100
AcDbLine
 10
4340.137340001513
 20
794.0486634866347
 30
0.0
 11
4340.137340001513
 21
692.3342315520001
 31
0.0
  0
LINE
  5
3B1A
330
3B15
100
AcDbEntity
  8
Dim
 62
     0
370
    -2
100
AcDbLine
 10
4045.280470177475
 20
692.3342315520001
 30
0.0
 11
4330.137950353075
 21
692.3342315520001
 31
0.0
  0
INSERT
  5
3B1B
330
3B15
100
AcDbEntity
  8
Dim
 62
     0
370
    -2
100
AcDbBlockReference
  2
_DOT
 10
4035.281080529038
 20
692.3342315520001
 30
0.0
 41
9.999389648437498
 42
9.999389648437498
 43
9.999389648437498
 50
180.0
  0
INSERT
  5
3B1C
330
3B15
100
AcDbEntity
  8
Dim
 62
     0
370
    -2
100
AcDbBlockReference
  2
_DOT
 10
4340.137340001513
 20
692.3342315520001
 30
0.0
 41
9.999389648437498
 42
9.999389648437498
 43
9.999389648437498
  0
MTEXT
  5
3B1D
330
3B15
100
AcDbEntity
  8
Dim
  6
Continuous
 62
     0
100
AcDbMText
 10
4187.709210265275
 20
714.5505401457501
 30
0.0
 40
24.4326171875
 41
0.0
 46
0.0
 71
     5
 72
     1
  1
\A1;305
  7
ＭＳ ゴシック
 73
     1
 44
1.0
  0
POINT
  5
3B1E
330
3B15
100
AcDbEntity
  8
Defpoints
 62
     0
100
AcDbPoint
 10
4035.281080529038
 20
828.6345181194156
 30
0.0
  0
POINT
  5
3B1F
330
3B15
100
AcDbEntity
  8
Defpoints
 62
     0
100
AcDbPoint
 10
4340.137340001513
 20
819.0486634866347
 30
0.0
  0
POINT
  5
3B20
330
3B15
100
AcDbEntity
  8
Defpoints
 62
     0
100
AcDbPoint
 10
4340.137340001513
 20
692.3342315520001
 30
0.0
  0
ENDBLK
  5
3B17
330
3B15
100
AcDbEntity
  8
0
100
AcDbBlockEnd
  0
BLOCK
  5
3B23
330
3B22
100
AcDbEntity
  8
0
100
AcDbBlockBegin
  2
*D31
 70
     1
 10
0.0
 20
0.0
 30
0.0
  3
*D31
  1

  0
LINE
  5
3B25
330
3B22
100
AcDbEntity
  8
Dim
 62
     0
370
    -2
100
AcDbLine
 10
784.1405862400002
 20
1053.78779162862
 30
0.0
 11
932.1064742400008
 21
1053.78779162862
 31
0.0
  0
LINE
  5
3B26
330
3B22
100
AcDbEntity
  8
Dim
 62
     0
370
    -2
100
AcDbLine
 10
818.9218563811369
 20
1193.78779162862
 30
0.0
 11
932.1064742400008
 21
1193.78779162862
 31
0.0
  0
LINE
  5
3B27
330
3B22
100
AcDbEntity
  8
Dim
 62
     0
370
    -2
100
AcDbLine
 10
932.1064742400008
 20
1063.787181277057
 30
0.0
 11
932.1064742400008
 21
1183.788401980182
 31
0.0
  0
INSERT
  5
3B28
330
3B22
100
AcDbEntity
  8
Dim
 62
     0
370
    -2
100
AcDbBlockReference
  2
_DOT
 10
932.1064742400008
 20
1053.78779162862
 30
0.0
 41
9.999389648437498
 42
9.999389648437498
 43
9.999389648437498
 50
270.0
  0
INSERT
  5
3B29
330
3B22
100
AcDbEntity
  8
Dim
 62
     0
370
    -2
100
AcDbBlockReference
  2
_DOT
 10
932.1064742400008
 20
1193.78779162862
 30
0.0
 41
9.999389648437498
 42
9.999389648437498
 43
9.999389648437498
 50
90.0
  0
MTEXT
  5
3B2A
330
3B22
100
AcDbEntity
  8
Dim
  6
Continuous
 62
     0
100
AcDbMText
 10
909.8901656462508
 20
1123.78779162862
 30
0.0
 40
24.4326171875
 41
0.0
 46
0.0
 71
     5
 72
     1
  1
\A1;140
  7
ＭＳ ゴシック
 11
0.0
 21
1.0
 31
0.0
 73
     1
 44
1.0
  0
POINT
  5
3B2B
330
3B22
100
AcDbEntity
  8
Defpoints
 62
     0
100
AcDbPoint
 10
759.1405862400002
 20
1053.78779162862
 30
0.0
  0
POINT
  5
3B2C
330
3B22
100
AcDbEntity
  8
Defpoints
 62
     0
100
AcDbPoint
 10
793.9218563811369
 20
1193.78779162862
 30
0.0
  0
POINT
  5
3B2D
330
3B22
100
AcDbEntity
  8
Defpoints
 62
     0
100
AcDbPoint
 10
932.1064742400008
 20
1193.78779162862
 30
0.0
  0
ENDBLK
  5
3B24
330
3B22
100
AcDbEntity
  8
0
100
AcDbBlockEnd
  0
BLOCK
  5
3B30
330
3B2F
100
AcDbEntity
  8
0
100
AcDbBlockBegin
  2
*D32
 70
     1
 10
0.0
 20
0.0
 30
0.0
  3
*D32
  1

  0
LINE
  5
3B32
330
3B2F
100
AcDbEntity
  8
Dim
 62
     0
370
    -2
100
AcDbLine
 10
4187.635750514826
 20
1162.532188557394
 30
0.0
 11
4187.635750514826
 21
1304.351326546964
 31
0.0
  0
LINE
  5
3B33
330
3B2F
100
AcDbEntity
  8
Dim
 62
     0
370
    -2
100
AcDbLine
 10
4387.635750514826
 20
1162.532188557394
 30
0.0
 11
4387.635750514826
 21
1304.351326546964
 31
0.0
  0
LINE
  5
3B34
330
3B2F
100
AcDbEntity
  8
Dim
 62
     0
370
    -2
100
AcDbLine
 10
4197.635140163264
 20
1304.351326546964
 30
0.0
 11
4377.636360866389
 21
1304.351326546964
 31
0.0
  0
INSERT
  5
3B35
330
3B2F
100
AcDbEntity
  8
Dim
 62
     0
370
    -2
100
AcDbBlockReference
  2
_DOT
 10
4187.635750514826
 20
1304.351326546964
 30
0.0
 41
9.999389648437498
 42
9.999389648437498
 43
9.999389648437498
 50
180.0
  0
INSERT
  5
3B36
330
3B2F
100
AcDbEntity
  8
Dim
 62
     0
370
    -2
100
AcDbBlockReference
  2
_DOT
 10
4387.635750514826
 20
1304.351326546964
 30
0.0
 41
9.999389648437498
 42
9.999389648437498
 43
9.999389648437498
  0
MTEXT
  5
3B37
330
3B2F
100
AcDbEntity
  8
Dim
  6
Continuous
 62
     0
100
AcDbMText
 10
4287.635750514826
 20
1326.567635140714
 30
0.0
 40
24.4326171875
 41
0.0
 46
0.0
 71
     5
 72
     1
  1
\A1;200
  7
ＭＳ ゴシック
 73
     1
 44
1.0
  0
POINT
  5
3B38
330
3B2F
100
AcDbEntity
  8
Defpoints
 62
     0
100
AcDbPoint
 10
4187.635750514826
 20
1137.532188557394
 30
0.0
  0
POINT
  5
3B39
330
3B2F
100
AcDbEntity
  8
Defpoints
 62
     0
100
AcDbPoint
 10
4387.635750514826
 20
1137.532188557394
 30
0.0
  0
POINT
  5
3B3A
330
3B2F
100
AcDbEntity
  8
Defpoints
 62
     0
100
AcDbPoint
 10
4387.635750514826
 20
1304.351326546964
 30
0.0
  0
ENDBLK
  5
3B31
330
3B2F
100
AcDbEntity
  8
0
100
AcDbBlockEnd
  0
BLOCK
  5
3B3D
330
3B3C
100
AcDbEntity
  8
0
100
AcDbBlockBegin
  2
*D33
 70
     1
 10
0.0
 20
0.0
 30
0.0
  3
*D33
  1

  0
LINE
  5
3B3F
330
3B3C
100
AcDbEntity
  8
Dim
 62
     0
370
    -2
100
AcDbLine
 10
3280.601220916676
 20
1162.447431861057
 30
0.0
 11
3280.601220916676
 21
1305.918045227092
 31
0.0
  0
LINE
  5
3B40
330
3B3C
100
AcDbEntity
  8
Dim
 62
     0
370
    -2
100
AcDbLine
 10
3080.601220916676
 20
1162.447431861057
 30
0.0
 11
3080.601220916676
 21
1305.918045227092
 31
0.0
  0
LINE
  5
3B41
330
3B3C
100
AcDbEntity
  8
Dim
 62
     0
370
    -2
100
AcDbLine
 10
3270.601831268238
 20
1305.918045227092
 30
0.0
 11
3090.600610565113
 21
1305.918045227092
 31
0.0
  0
INSERT
  5
3B42
330
3B3C
100
AcDbEntity
  8
Dim
 62
     0
370
    -2
100
AcDbBlockReference
  2
_DOT
 10
3280.601220916676
 20
1305.918045227092
 30
0.0
 41
9.999389648437498
 42
9.999389648437498
 43
9.999389648437498
  0
INSERT
  5
3B43
330
3B3C
100
AcDbEntity
  8
Dim
 62
     0
370
    -2
100
AcDbBlockReference
  2
_DOT
 10
3080.601220916676
 20
1305.918045227092
 30
0.0
 41
9.999389648437498
 42
9.999389648437498
 43
9.999389648437498
 50
180.0
  0
MTEXT
  5
3B44
330
3B3C
100
AcDbEntity
  8
Dim
  6
Continuous
 62
     0
100
AcDbMText
 10
3180.601220916676
 20
1328.134353820842
 30
0.0
 40
24.4326171875
 41
0.0
 46
0.0
 71
     5
 72
     1
  1
\A1;200
  7
ＭＳ ゴシック
 73
     1
 44
1.0
  0
POINT
  5
3B45
330
3B3C
100
AcDbEntity
  8
Defpoints
 62
     0
100
AcDbPoint
 10
3280.601220916676
 20
1137.447431861057
 30
0.0
  0
POINT
  5
3B46
330
3B3C
100
AcDbEntity
  8
Defpoints
 62
     0
100
AcDbPoint
 10
3080.601220916676
 20
1137.447431861057
 30
0.0
  0
POINT
  5
3B47
330
3B3C
100
AcDbEntity
  8
Defpoints
 62
     0
100
AcDbPoint
 10
3080.601220916676
 20
1305.918045227092
 30
0.0
  0
ENDBLK
  5
3B3E
330
3B3C
100
AcDbEntity
  8
0
100
AcDbBlockEnd
  0
BLOCK
  5
3B72
330
3B71
100
AcDbEntity
  8
0
100
AcDbBlockBegin
  2
*D34
 70
     1
 10
0.0
 20
0.0
 30
0.0
  3
*D34
  1

  0
LINE
  5
3B74
330
3B71
100
AcDbEntity
  8
Dim
 62
     0
370
    -2
100
AcDbLine
 10
4343.552995148879
 20
1951.270173952
 30
0.0
 11
4343.552995148879
 21
2110.673987552366
 31
0.0
  0
LINE
  5
3B75
330
3B71
100
AcDbEntity
  8
Dim
 62
     0
370
    -2
100
AcDbLine
 10
3943.560319367628
 20
1938.367255592465
 30
0.0
 11
3943.560319367628
 21
2110.673987552366
 31
0.0
  0
LINE
  5
3B76
330
3B71
100
AcDbEntity
  8
Dim
 62
     0
370
    -2
100
AcDbLine
 10
4333.553605500441
 20
2110.673987552366
 30
0.0
 11
3953.559709016065
 21
2110.673987552366
 31
0.0
  0
INSERT
  5
3B77
330
3B71
100
AcDbEntity
  8
Dim
 62
     0
370
    -2
100
AcDbBlockReference
  2
_DOT
 10
4343.552995148879
 20
2110.673987552366
 30
0.0
 41
9.999389648437498
 42
9.999389648437498
 43
9.999389648437498
  0
INSERT
  5
3B78
330
3B71
100
AcDbEntity
  8
Dim
 62
     0
370
    -2
100
AcDbBlockReference
  2
_DOT
 10
3943.560319367628
 20
2110.673987552366
 30
0.0
 41
9.999389648437498
 42
9.999389648437498
 43
9.999389648437498
 50
180.0
  0
MTEXT
  5
3B79
330
3B71
100
AcDbEntity
  8
Dim
  6
Continuous
 62
     0
100
AcDbMText
 10
4143.556657258252
 20
2132.890296146116
 30
0.0
 40
24.4326171875
 41
0.0
 46
0.0
 71
     5
 72
     1
  1
\A1;400
  7
ＭＳ ゴシック
 73
     1
 44
1.0
  0
POINT
  5
3B7A
330
3B71
100
AcDbEntity
  8
Defpoints
 62
     0
100
AcDbPoint
 10
4343.552995148879
 20
1926.270173952
 30
0.0
  0
POINT
  5
3B7B
330
3B71
100
AcDbEntity
  8
Defpoints
 62
     0
100
AcDbPoint
 10
3943.560319367628
 20
1913.367255592465
 30
0.0
  0
POINT
  5
3B7C
330
3B71
100
AcDbEntity
  8
Defpoints
 62
     0
100
AcDbPoint
 10
3943.560319367628
 20
2110.673987552366
 30
0.0
  0
ENDBLK
  5
3B73
330
3B71
100
AcDbEntity
  8
0
100
AcDbBlockEnd
  0
BLOCK
  5
3B7E
330
3B7D
100
AcDbEntity
  8
0
100
AcDbBlockBegin
  2
*D35
 70
     1
 10
0.0
 20
0.0
 30
0.0
  3
*D35
  1

  0
LINE
  5
3B80
330
3B7D
100
AcDbEntity
  8
Dim
 62
     0
370
    -2
100
AcDbLine
 10
3943.514278902587
 20
1769.408536424057
 30
0.0
 11
3943.514278902587
 21
1549.879086190264
 31
0.0
  0
LINE
  5
3B81
330
3B7D
100
AcDbEntity
  8
Dim
 62
     0
370
    -2
100
AcDbLine
 10
4343.514278902593
 20
1769.408536424057
 30
0.0
 11
4343.514278902593
 21
1549.879086190264
 31
0.0
  0
LINE
  5
3B82
330
3B7D
100
AcDbEntity
  8
Dim
 62
     0
370
    -2
100
AcDbLine
 10
3953.513668551024
 20
1549.879086190264
 30
0.0
 11
4333.514889254156
 21
1549.879086190264
 31
0.0
  0
INSERT
  5
3B83
330
3B7D
100
AcDbEntity
  8
Dim
 62
     0
370
    -2
100
AcDbBlockReference
  2
_DOT
 10
3943.514278902587
 20
1549.879086190264
 30
0.0
 41
9.999389648437498
 42
9.999389648437498
 43
9.999389648437498
 50
180.0
  0
INSERT
  5
3B84
330
3B7D
100
AcDbEntity
  8
Dim
 62
     0
370
    -2
100
AcDbBlockReference
  2
_DOT
 10
4343.514278902593
 20
1549.879086190264
 30
0.0
 41
9.999389648437498
 42
9.999389648437498
 43
9.999389648437498
  0
MTEXT
  5
3B85
330
3B7D
100
AcDbEntity
  8
Dim
  6
Continuous
 62
     0
100
AcDbMText
 10
4143.51427890259
 20
1572.095394784014
 30
0.0
 40
24.4326171875
 41
0.0
 46
0.0
 71
     5
 72
     1
  1
\A1;400
  7
ＭＳ ゴシック
 73
     1
 44
1.0
  0
POINT
  5
3B86
330
3B7D
100
AcDbEntity
  8
Defpoints
 62
     0
100
AcDbPoint
 10
3943.514278902587
 20
1794.408536424057
 30
0.0
  0
POINT
  5
3B87
330
3B7D
100
AcDbEntity
  8
Defpoints
 62
     0
100
AcDbPoint
 10
4343.514278902593
 20
1794.408536424057
 30
0.0
  0
POINT
  5
3B88
330
3B7D
100
AcDbEntity
  8
Defpoints
 62
     0
100
AcDbPoint
 10
4343.514278902593
 20
1549.879086190264
 30
0.0
  0
ENDBLK
  5
3B7F
330
3B7D
100
AcDbEntity
  8
0
100
AcDbBlockEnd
  0
BLOCK
  5
3BF9
330
3BF8
100
AcDbEntity
  8
0
100
AcDbBlockBegin
  2
*D36
 70
     1
 10
0.0
 20
0.0
 30
0.0
  3
*D36
  1

  0
LINE
  5
3BFB
330
3BF8
100
AcDbEntity
  8
Dim
 62
     0
370
    -2
100
AcDbLine
 10
1296.847054446048
 20
1028.514743286607
 30
0.0
 11
1296.847054446048
 21
954.1309038317561
 31
0.0
  0
LINE
  5
3BFC
330
3BF8
100
AcDbEntity
  8
Dim
 62
     0
370
    -2
100
AcDbLine
 10
1601.703313918523
 20
1018.928888653826
 30
0.0
 11
1601.703313918523
 21
954.1309038317561
 31
0.0
  0
LINE
  5
3BFD
330
3BF8
100
AcDbEntity
  8
Dim
 62
     0
370
    -2
100
AcDbLine
 10
1306.846444094485
 20
954.1309038317561
 30
0.0
 11
1591.703924270085
 21
954.1309038317561
 31
0.0
  0
INSERT
  5
3BFE
330
3BF8
100
AcDbEntity
  8
Dim
 62
     0
370
    -2
100
AcDbBlockReference
  2
_DOT
 10
1296.847054446048
 20
954.1309038317561
 30
0.0
 41
9.999389648437498
 42
9.999389648437498
 43
9.999389648437498
 50
180.0
  0
INSERT
  5
3BFF
330
3BF8
100
AcDbEntity
  8
Dim
 62
     0
370
    -2
100
AcDbBlockReference
  2
_DOT
 10
1601.703313918523
 20
954.1309038317561
 30
0.0
 41
9.999389648437498
 42
9.999389648437498
 43
9.999389648437498
  0
MTEXT
  5
3C00
330
3BF8
100
AcDbEntity
  8
Dim
  6
Continuous
 62
     0
100
AcDbMText
 10
1449.275184182285
 20
976.3472124255061
 30
0.0
 40
24.4326171875
 41
0.0
 46
0.0
 71
     5
 72
     1
  1
\A1;305
  7
ＭＳ ゴシック
 73
     1
 44
1.0
  0
POINT
  5
3C01
330
3BF8
100
AcDbEntity
  8
Defpoints
 62
     0
100
AcDbPoint
 10
1296.847054446048
 20
1053.514743286607
 30
0.0
  0
POINT
  5
3C02
330
3BF8
100
AcDbEntity
  8
Defpoints
 62
     0
100
AcDbPoint
 10
1601.703313918523
 20
1043.928888653826
 30
0.0
  0
POINT
  5
3C03
330
3BF8
100
AcDbEntity
  8
Defpoints
 62
     0
100
AcDbPoint
 10
1601.703313918523
 20
954.1309038317561
 30
0.0
  0
ENDBLK
  5
3BFA
330
3BF8
100
AcDbEntity
  8
0
100
AcDbBlockEnd
  0
BLOCK
  5
3C05
330
3C04
100
AcDbEntity
  8
0
100
AcDbBlockBegin
  2
*D37
 70
     1
 10
0.0
 20
0.0
 30
0.0
  3
*D37
  1

  0
LINE
  5
3C07
330
3C04
100
AcDbEntity
  8
Dim
 62
     0
370
    -2
100
AcDbLine
 10
4341.425979543323
 20
828.8777916286197
 30
0.0
 11
4489.391867543323
 21
828.8777916286197
 31
0.0
  0
LINE
  5
3C08
330
3C04
100
AcDbEntity
  8
Dim
 62
     0
370
    -2
100
AcDbLine
 10
4376.207249684459
 20
968.8777916286194
 30
0.0
 11
4489.391867543323
 21
968.8777916286194
 31
0.0
  0
LINE
  5
3C09
330
3C04
100
AcDbEntity
  8
Dim
 62
     0
370
    -2
100
AcDbLine
 10
4489.391867543323
 20
838.8771812770572
 30
0.0
 11
4489.391867543323
 21
958.8784019801819
 31
0.0
  0
INSERT
  5
3C0A
330
3C04
100
AcDbEntity
  8
Dim
 62
     0
370
    -2
100
AcDbBlockReference
  2
_DOT
 10
4489.391867543323
 20
828.8777916286197
 30
0.0
 41
9.999389648437498
 42
9.999389648437498
 43
9.999389648437498
 50
270.0
  0
INSERT
  5
3C0B
330
3C04
100
AcDbEntity
  8
Dim
 62
     0
370
    -2
100
AcDbBlockReference
  2
_DOT
 10
4489.391867543323
 20
968.8777916286194
 30
0.0
 41
9.999389648437498
 42
9.999389648437498
 43
9.999389648437498
 50
90.0
  0
MTEXT
  5
3C0C
330
3C04
100
AcDbEntity
  8
Dim
  6
Continuous
 62
     0
100
AcDbMText
 10
4467.175558949573
 20
898.8777916286195
 30
0.0
 40
24.4326171875
 41
0.0
 46
0.0
 71
     5
 72
     1
  1
\A1;140
  7
ＭＳ ゴシック
 11
0.0
 21
1.0
 31
0.0
 73
     1
 44
1.0
  0
POINT
  5
3C0D
330
3C04
100
AcDbEntity
  8
Defpoints
 62
     0
100
AcDbPoint
 10
4316.425979543323
 20
828.8777916286197
 30
0.0
  0
POINT
  5
3C0E
330
3C04
100
AcDbEntity
  8
Defpoints
 62
     0
100
AcDbPoint
 10
4351.207249684459
 20
968.8777916286194
 30
0.0
  0
POINT
  5
3C0F
330
3C04
100
AcDbEntity
  8
Defpoints
 62
     0
100
AcDbPoint
 10
4489.391867543323
 20
968.8777916286194
 30
0.0
  0
ENDBLK
  5
3C06
330
3C04
100
AcDbEntity
  8
0
100
AcDbBlockEnd
  0
BLOCK
  5
3C42
330
3C41
100
AcDbEntity
  8
0
100
AcDbBlockBegin
  2
*D38
 70
     1
 10
0.0
 20
0.0
 30
0.0
  3
*D38
  1
*D420
  0
LINE
  5
3C43
330
3C41
100
AcDbEntity
  8
Dim
  6
Continuous
 62
     0
370
    -2
100
AcDbLine
 10
39.36800585937498
 20
129.7193147370037
 30
0.0
 11
39.368005859375
 21
302.0940139557543
 31
0.0
  0
LINE
  5
3C44
330
3C41
100
AcDbEntity
  8
Dim
  6
Continuous
 62
     0
370
    -2
100
AcDbLine
 10
39.36800585937497
 20
14.99908447265625
 30
0.0
 11
39.36800585937498
 21
119.7199250885662
 31
0.0
  0
LINE
  5
3C45
330
3C41
100
AcDbEntity
  8
Dim
  6
Continuous
 62
     0
370
    -2
100
AcDbLine
 10
39.36800585937498
 20
119.7199250885662
 30
0.0
 11
39.36800585937498
 21
109.7205354401287
 31
0.0
  0
INSERT
  5
3C46
330
3C41
100
AcDbEntity
  8
Dim
 62
     0
370
    -2
100
AcDbBlockReference
  2
_DOT
 10
39.36800585937497
 20
4.99969482421875
 30
0.0
 41
9.999389648437498
 42
9.999389648437498
 43
9.999389648437498
 50
270.0
  0
INSERT
  5
3C47
330
3C41
100
AcDbEntity
  8
Dim
 62
     0
370
    -2
100
AcDbBlockReference
  2
_DOT
 10
39.36800585937498
 20
129.7193147370037
 30
0.0
 41
9.999389648437498
 42
9.999389648437498
 43
9.999389648437498
 50
90.0
  0
MTEXT
  5
3C48
330
3C41
100
AcDbEntity
  8
Dim
  6
Continuous
 62
     0
100
AcDbMText
 10
14.98941064453123
 20
225.9060539948168
 30
0.0
 40
24.4326171875
 41
0.0
 46
0.0
 71
     5
 72
     1
  1
\A1;125(深さ)
  7
ＭＳ ゴシック
 11
5.697120759804870E-17
 21
1.0
 31
0.0
 73
     1
 44
1.0
  0
POINT
  5
3C49
330
3C41
100
AcDbEntity
  8
Defpoints
 62
     0
100
AcDbPoint
 10
39.36800585937499
 20
4.99969482421875
 30
0.0
  0
POINT
  5
3C4A
330
3C41
100
AcDbEntity
  8
Defpoints
 62
     0
100
AcDbPoint
 10
39.36800585937499
 20
129.7193147370037
 30
0.0
  0
POINT
  5
3C4B
330
3C41
100
AcDbEntity
  8
Defpoints
 62
     0
100
AcDbPoint
 10
39.36800585937499
 20
129.7193147370037
 30
0.0
  0
ENDBLK
  5
3C4C
330
3C41
100
AcDbEntity
  8
0
100
AcDbBlockEnd
  0
BLOCK
  5
3C52
330
3C51
100
AcDbEntity
  8
0
100
AcDbBlockBegin
  2
*D39
 70
     1
 10
0.0
 20
0.0
 30
0.0
  3
*D39
  1

  0
LINE
  5
3C54
330
3C51
100
AcDbEntity
  8
Dim
  6
Continuous
 62
     0
370
    -2
100
AcDbLine
 10
1449.226657258254
 20
1193.753996617131
 30
0.0
 11
1449.226657258254
 21
1376.707750992593
 31
0.0
  0
LINE
  5
3C55
330
3C51
100
AcDbEntity
  8
Dim
  6
Continuous
 62
     0
370
    -2
100
AcDbLine
 10
1449.226657258254
 20
1089.612821509495
 30
0.0
 11
1449.226657258254
 21
1183.754606968693
 31
0.0
  0
LINE
  5
3C56
330
3C51
100
AcDbEntity
  8
Dim
  6
Continuous
 62
     0
370
    -2
100
AcDbLine
 10
1449.226657258254
 20
1183.754606968693
 30
0.0
 11
1449.226657258254
 21
1173.755217320256
 31
0.0
  0
INSERT
  5
3C57
330
3C51
100
AcDbEntity
  8
Dim
 62
     0
370
    -2
100
AcDbBlockReference
  2
_DOT
 10
1449.226657258254
 20
1079.613431861057
 30
0.0
 41
9.999389648437498
 42
9.999389648437498
 43
9.999389648437498
 50
270.0
  0
INSERT
  5
3C58
330
3C51
100
AcDbEntity
  8
Dim
 62
     0
370
    -2
100
AcDbBlockReference
  2
_DOT
 10
1449.226657258254
 20
1193.753996617131
 30
0.0
 41
9.999389648437498
 42
9.999389648437498
 43
9.999389648437498
 50
90.0
  0
MTEXT
  5
3C59
330
3C51
100
AcDbEntity
  8
Dim
  6
Continuous
 62
     0
100
AcDbMText
 10
1424.848062043411
 20
1300.519791031655
 30
0.0
 40
24.4326171875
 41
0.0
 46
0.0
 71
     5
 72
     1
  1
\A1;110(深さ)
  7
ＭＳ ゴシック
 11
0.0
 21
1.0
 31
0.0
 73
     1
 44
1.0
  0
POINT
  5
3C5A
330
3C51
100
AcDbEntity
  8
Defpoints
 62
     0
100
AcDbPoint
 10
1449.226614195953
 20
1079.613431861057
 30
0.0
  0
POINT
  5
3C5B
330
3C51
100
AcDbEntity
  8
Defpoints
 62
     0
100
AcDbPoint
 10
1449.226657258254
 20
1193.753996617131
 30
0.0
  0
POINT
  5
3C5C
330
3C51
100
AcDbEntity
  8
Defpoints
 62
     0
100
AcDbPoint
 10
1449.226657258254
 20
1193.753996617131
 30
0.0
  0
ENDBLK
  5
3C53
330
3C51
100
AcDbEntity
  8
0
100
AcDbBlockEnd
  0
BLOCK
  5
3C7E
330
3C7D
100
AcDbEntity
  8
0
100
AcDbBlockBegin
  2
*D40
 70
     1
 10
0.0
 20
0.0
 30
0.0
  3
*D40
  1

  0
LINE
  5
3C80
330
3C7D
100
AcDbEntity
  8
Dim
  6
Continuous
 62
     0
370
    -2
100
AcDbLine
 10
4083.605184182285
 20
1879.431155702937
 30
0.0
 11
4083.605184182285
 21
2035.557154997105
 31
0.0
  0
LINE
  5
3C81
330
3C7D
100
AcDbEntity
  8
Dim
  6
Continuous
 62
     0
370
    -2
100
AcDbLine
 10
4203.605184182285
 20
1879.431155702937
 30
0.0
 11
4203.605184182285
 21
2035.557154997105
 31
0.0
  0
LINE
  5
3C82
330
3C7D
100
AcDbEntity
  8
Dim
  6
Continuous
 62
     0
370
    -2
100
AcDbLine
 10
4093.604573830722
 20
2035.557154997105
 30
0.0
 11
4193.605794533847
 21
2035.557154997105
 31
0.0
  0
INSERT
  5
3C83
330
3C7D
100
AcDbEntity
  8
Dim
 62
     0
370
    -2
100
AcDbBlockReference
  2
_DOT
 10
4083.605184182285
 20
2035.557154997105
 30
0.0
 41
9.999389648437498
 42
9.999389648437498
 43
9.999389648437498
 50
180.0
  0
INSERT
  5
3C84
330
3C7D
100
AcDbEntity
  8
Dim
 62
     0
370
    -2
100
AcDbBlockReference
  2
_DOT
 10
4203.605184182285
 20
2035.557154997105
 30
0.0
 41
9.999389648437498
 42
9.999389648437498
 43
9.999389648437498
  0
MTEXT
  5
3C85
330
3C7D
100
AcDbEntity
  8
Dim
  6
Continuous
 62
     0
100
AcDbMText
 10
4143.605184182285
 20
2057.773463590855
 30
0.0
 40
24.4326171875
 41
0.0
 46
0.0
 71
     5
 72
     1
  1
\A1;120
  7
ＭＳ ゴシック
 73
     1
 44
1.0
  0
POINT
  5
3C86
330
3C7D
100
AcDbEntity
  8
Defpoints
 62
     0
100
AcDbPoint
 10
4083.605184182285
 20
1854.431155702937
 30
0.0
  0
POINT
  5
3C87
330
3C7D
100
AcDbEntity
  8
Defpoints
 62
     0
100
AcDbPoint
 10
4203.605184182285
 20
1854.431155702937
 30
0.0
  0
POINT
  5
3C88
330
3C7D
100
AcDbEntity
  8
Defpoints
 62
     0
100
AcDbPoint
 10
4203.605184182285
 20
2035.557154997105
 30
0.0
  0
ENDBLK
  5
3C7F
330
3C7D
100
AcDbEntity
  8
0
100
AcDbBlockEnd
  0
BLOCK
  5
3C8D
330
3C8C
100
AcDbEntity
  8
0
100
AcDbBlockBegin
  2
*D41
 70
     1
 10
0.0
 20
0.0
 30
0.0
  3
*D41
  1

  0
LINE
  5
3C8F
330
3C8C
100
AcDbEntity
  8
Dim
  6
Continuous
 62
     0
370
    -2
100
AcDbLine
 10
1534.275184182285
 20
2079.341155702937
 30
0.0
 11
1720.260950677341
 21
2079.341155702937
 31
0.0
  0
LINE
  5
3C90
330
3C8C
100
AcDbEntity
  8
Dim
  6
Continuous
 62
     0
370
    -2
100
AcDbLine
 10
1534.275184182285
 20
1959.341155702937
 30
0.0
 11
1720.260950677341
 21
1959.341155702937
 31
0.0
  0
LINE
  5
3C91
330
3C8C
100
AcDbEntity
  8
Dim
  6
Continuous
 62
     0
370
    -2
100
AcDbLine
 10
1720.260950677341
 20
2069.3417660545
 30
0.0
 11
1720.260950677341
 21
1969.340545351375
 31
0.0
  0
INSERT
  5
3C92
330
3C8C
100
AcDbEntity
  8
Dim
 62
     0
370
    -2
100
AcDbBlockReference
  2
_DOT
 10
1720.260950677341
 20
2079.341155702937
 30
0.0
 41
9.999389648437498
 42
9.999389648437498
 43
9.999389648437498
 50
90.0
  0
INSERT
  5
3C93
330
3C8C
100
AcDbEntity
  8
Dim
 62
     0
370
    -2
100
AcDbBlockReference
  2
_DOT
 10
1720.260950677341
 20
1959.341155702937
 30
0.0
 41
9.999389648437498
 42
9.999389648437498
 43
9.999389648437498
 50
270.0
  0
MTEXT
  5
3C94
330
3C8C
100
AcDbEntity
  8
Dim
  6
Continuous
 62
     0
100
AcDbMText
 10
1698.044642083591
 20
2019.341155702937
 30
0.0
 40
24.4326171875
 41
0.0
 46
0.0
 71
     5
 72
     1
  1
\A1;120
  7
ＭＳ ゴシック
 11
0.0
 21
1.0
 31
0.0
 73
     1
 44
1.0
  0
POINT
  5
3C95
330
3C8C
100
AcDbEntity
  8
Defpoints
 62
     0
100
AcDbPoint
 10
1509.275184182285
 20
2079.341155702937
 30
0.0
  0
POINT
  5
3C96
330
3C8C
100
AcDbEntity
  8
Defpoints
 62
     0
100
AcDbPoint
 10
1509.275184182285
 20
1959.341155702937
 30
0.0
  0
POINT
  5
3C97
330
3C8C
100
AcDbEntity
  8
Defpoints
 62
     0
100
AcDbPoint
 10
1720.260950677341
 20
1959.341155702937
 30
0.0
  0
ENDBLK
  5
3C8E
330
3C8C
100
AcDbEntity
  8
0
100
AcDbBlockEnd
  0
BLOCK
  5
3C9C
330
3C9B
100
AcDbEntity
  8
0
100
AcDbBlockBegin
  2
*D42
 70
     1
 10
0.0
 20
0.0
 30
0.0
  3
*D42
  1

  0
LINE
  5
3C9E
330
3C9B
100
AcDbEntity
  8
Dim
  6
Continuous
 62
     0
370
    -2
100
AcDbLine
 10
1389.275184182285
 20
1934.341155702937
 30
0.0
 11
1389.275184182285
 21
1751.799682997106
 31
0.0
  0
LINE
  5
3C9F
330
3C9B
100
AcDbEntity
  8
Dim
  6
Continuous
 62
     0
370
    -2
100
AcDbLine
 10
1509.275184182285
 20
1934.341155702937
 30
0.0
 11
1509.275184182285
 21
1751.799682997106
 31
0.0
  0
LINE
  5
3CA0
330
3C9B
100
AcDbEntity
  8
Dim
  6
Continuous
 62
     0
370
    -2
100
AcDbLine
 10
1399.274573830723
 20
1751.799682997106
 30
0.0
 11
1499.275794533848
 21
1751.799682997106
 31
0.0
  0
INSERT
  5
3CA1
330
3C9B
100
AcDbEntity
  8
Dim
 62
     0
370
    -2
100
AcDbBlockReference
  2
_DOT
 10
1389.275184182285
 20
1751.799682997106
 30
0.0
 41
9.999389648437498
 42
9.999389648437498
 43
9.999389648437498
 50
180.0
  0
INSERT
  5
3CA2
330
3C9B
100
AcDbEntity
  8
Dim
 62
     0
370
    -2
100
AcDbBlockReference
  2
_DOT
 10
1509.275184182285
 20
1751.799682997106
 30
0.0
 41
9.999389648437498
 42
9.999389648437498
 43
9.999389648437498
  0
MTEXT
  5
3CA3
330
3C9B
100
AcDbEntity
  8
Dim
  6
Continuous
 62
     0
100
AcDbMText
 10
1449.275184182285
 20
1774.015991590856
 30
0.0
 40
24.4326171875
 41
0.0
 46
0.0
 71
     5
 72
     1
  1
\A1;120
  7
ＭＳ ゴシック
 73
     1
 44
1.0
  0
POINT
  5
3CA4
330
3C9B
100
AcDbEntity
  8
Defpoints
 62
     0
100
AcDbPoint
 10
1389.275184182285
 20
1959.341155702937
 30
0.0
  0
POINT
  5
3CA5
330
3C9B
100
AcDbEntity
  8
Defpoints
 62
     0
100
AcDbPoint
 10
1509.275184182285
 20
1959.341155702937
 30
0.0
  0
POINT
  5
3CA6
330
3C9B
100
AcDbEntity
  8
Defpoints
 62
     0
100
AcDbPoint
 10
1509.275184182285
 20
1751.799682997106
 30
0.0
  0
ENDBLK
  5
3C9D
330
3C9B
100
AcDbEntity
  8
0
100
AcDbBlockEnd
  0
BLOCK
  5
3CB2
330
3CB1
100
AcDbEntity
  8
0
100
AcDbBlockBegin
  2
*D43
 70
     1
 10
0.0
 20
0.0
 30
0.0
  3
*D43
  1

  0
LINE
  5
3CB4
330
3CB1
100
AcDbEntity
  8
Dim
  6
Continuous
 62
     0
370
    -2
100
AcDbLine
 10
1449.226657264588
 20
919.0810217197561
 30
0.0
 11
1449.226657264588
 21
861.6830807789561
 31
0.0
  0
LINE
  5
3CB5
330
3CB1
100
AcDbEntity
  8
Dim
  6
Continuous
 62
     0
370
    -2
100
AcDbLine
 10
1649.226657264588
 20
1151.386194711756
 30
0.0
 11
1649.226657264588
 21
861.6830807789561
 31
0.0
  0
LINE
  5
3CB6
330
3CB1
100
AcDbEntity
  8
Dim
  6
Continuous
 62
     0
370
    -2
100
AcDbLine
 10
1459.226046913026
 20
861.6830807789561
 30
0.0
 11
1639.227267616151
 21
861.6830807789561
 31
0.0
  0
INSERT
  5
3CB7
330
3CB1
100
AcDbEntity
  8
Dim
 62
     0
370
    -2
100
AcDbBlockReference
  2
_DOT
 10
1449.226657264588
 20
861.6830807789561
 30
0.0
 41
9.999389648437498
 42
9.999389648437498
 43
9.999389648437498
 50
180.0
  0
INSERT
  5
3CB8
330
3CB1
100
AcDbEntity
  8
Dim
 62
     0
370
    -2
100
AcDbBlockReference
  2
_DOT
 10
1649.226657264588
 20
861.6830807789561
 30
0.0
 41
9.999389648437498
 42
9.999389648437498
 43
9.999389648437498
  0
MTEXT
  5
3CB9
330
3CB1
100
AcDbEntity
  8
Dim
  6
Continuous
 62
     0
100
AcDbMText
 10
1549.226657264588
 20
883.8993893727061
 30
0.0
 40
24.4326171875
 41
0.0
 46
0.0
 71
     5
 72
     1
  1
\A1;200
  7
ＭＳ ゴシック
 73
     1
 44
1.0
  0
POINT
  5
3CBA
330
3CB1
100
AcDbEntity
  8
Defpoints
 62
     0
100
AcDbPoint
 10
1449.226657264588
 20
944.0810217197561
 30
0.0
  0
POINT
  5
3CBB
330
3CB1
100
AcDbEntity
  8
Defpoints
 62
     0
100
AcDbPoint
 10
1649.226657264588
 20
1176.386194711756
 30
0.0
  0
POINT
  5
3CBC
330
3CB1
100
AcDbEntity
  8
Defpoints
 62
     0
100
AcDbPoint
 10
1649.226657264588
 20
861.6830807789561
 30
0.0
  0
ENDBLK
  5
3CB3
330
3CB1
100
AcDbEntity
  8
0
100
AcDbBlockEnd
  0
ENDSEC
  0
SECTION
  2
ENTITIES
  0
MTEXT
  5
177
330
A
100
AcDbEntity
  8
template
390
1D
100
AcDbMText
 10
82.00000000048226
 20
348.023957835319
 30
0.0
 40
16.28841145833333
 41
0.0
 46
0.0
 71
     1
 72
     1
  1
品名
  7
ＭＳ ゴシック
 73
     1
 44
0.7828267384257843
  0
MTEXT
  5
178
330
A
100
AcDbEntity
  8
template
390
1D
100
AcDbMText
 10
82.00000000048226
 20
263.0239578353188
 30
0.0
 40
16.28841145833333
 41
0.0
 46
0.0
 71
     1
 72
     1
  1
仕様
  7
ＭＳ ゴシック
 73
     1
 44
0.7828267384257843
  0
LINE
  5
179
330
A
100
AcDbEntity
  8
template
390
1D
100
AcDbLine
 10
2025.0
 20
271.4388797103189
 30
0.0
 11
75.00000000000023
 21
271.4388797103189
 31
0.0
  0
LWPOLYLINE
  5
17A
330
A
100
AcDbEntity
  8
template
390
1D
100
AcDbPolyline
 90
        5
 70
   128
 43
0.0
 10
2025.0
 20
2901.438879710319
 10
75.00000000000023
 20
2901.438879710319
 10
75.00000000000023
 20
101.4388797103188
 10
2025.0
 20
101.4388797103188
 10
2025.0
 20
2901.438879710319
  0
LINE
  5
17B
330
A
100
AcDbEntity
  8
template
390
1D
100
AcDbLine
 10
2025.0
 20
356.4388797103188
 30
0.0
 11
75.00000000000023
 21
356.4388797103188
 31
0.0
  0
LINE
  5
17C
330
A
100
AcDbEntity
  8
template
390
1D
100
AcDbLine
 10
2025.000000000482
 20
186.4388797103189
 30
0.0
 11
1272.000000000482
 21
186.4388797103189
 31
0.0
  0
MTEXT
  5
17E
330
A
100
AcDbEntity
  8
template
390
1D
100
AcDbMText
 10
1301.871406252743
 20
156.5284852370108
 30
0.0
 40
24.4326171875
 41
0.0
 46
0.0
 71
     1
 72
     1
  1
大洋金物株式会社 ティーフォルム事業部
  7
ＭＳ ゴシック
 73
     1
 44
0.7828267384257843
  0
MTEXT
  5
180
330
A
100
AcDbEntity
  8
template
390
1D
100
AcDbMText
 10
1834.000000000742
 20
234.4414968978188
 30
0.0
 40
24.4326171875
 41
0.0
 46
0.0
 71
     1
 72
     1
  1
1:10
  7
ＭＳ ゴシック
 73
     1
 44
0.7828267384257843
  0
MTEXT
  5
181
330
A
100
AcDbEntity
  8
template
390
1D
100
AcDbMText
 10
1781.000000000742
 20
263.0239578353188
 30
0.0
 40
16.28841145833333
 41
0.0
 46
0.0
 71
     1
 72
     1
  1
縮尺
  7
ＭＳ ゴシック
 73
     1
 44
0.7828267384257843
  0
LINE
  5
182
330
A
100
AcDbEntity
  8
template
390
1D
100
AcDbLine
 10
1774.000000000742
 20
186.4388797103189
 30
0.0
 11
1774.000000000742
 21
271.4388797103189
 31
0.0
  0
MTEXT
  5
183
330
A
100
AcDbEntity
  8
template
390
1D
100
AcDbMText
 10
1530.000000000742
 20
263.0239578353188
 30
0.0
 40
16.28841145833333
 41
0.0
 46
0.0
 71
     1
 72
     1
  1
容量
  7
ＭＳ ゴシック
 73
     1
 44
0.7828267384257843
  0
LINE
  5
184
330
A
100
AcDbEntity
  8
template
390
1D
100
AcDbLine
 10
1523.000000000742
 20
186.4388797103189
 30
0.0
 11
1523.000000000742
 21
271.4388797103189
 31
0.0
  0
MTEXT
  5
185
330
A
100
AcDbEntity
  8
template
390
1D
100
AcDbMText
 10
1279.000000000742
 20
348.023957835319
 30
0.0
 40
16.28841145833333
 41
0.0
 46
0.0
 71
     1
 72
     1
  1
品番
  7
ＭＳ ゴシック
 73
     1
 44
0.7828267384257843
  0
MTEXT
  5
186
330
A
100
AcDbEntity
  8
template
390
1D
100
AcDbMText
 10
1279.000000000742
 20
263.0239578353188
 30
0.0
 40
16.28841145833333
 41
0.0
 46
0.0
 71
     1
 72
     1
  1
重量
  7
ＭＳ ゴシック
 73
     1
 44
0.7828267384257843
  0
MTEXT
  5
187
330
A
100
AcDbEntity
  8
template
390
1D
100
AcDbMText
 10
1332.000000000742
 20
319.4414968978188
 30
0.0
 40
24.4326171875
 41
0.0
 46
24.4326171875
 71
     1
 72
     1
  1
{ADF70-2625}
  7
ＭＳ ゴシック
 73
     1
 44
0.7828267384257843
1001
ACAD
1000
ACAD_MTEXT_DEFINED_HEIGHT_BEGIN
1070
    46
1040
24.4326171875
1000
ACAD_MTEXT_DEFINED_HEIGHT_END
  0
LINE
  5
188
330
A
100
AcDbEntity
  8
template
390
1D
100
AcDbLine
 10
1272.000000000742
 20
101.4388797103188
 30
0.0
 11
1272.000000000742
 21
356.4388797103188
 31
0.0
  0
MTEXT
  5
189
330
A
100
AcDbEntity
  8
template
390
1D
100
AcDbMText
 10
135.0000000004822
 20
319.4414968978188
 30
0.0
 40
24.4326171875
 41
0.0
 46
27.5355595703125
 71
     1
 72
     1
  1
{洗面器 -CATALANO, Green-}
  7
ＭＳ ゴシック
 73
     1
 44
0.7828267384257843
1001
ACAD
1000
ACAD_MTEXT_DEFINED_HEIGHT_BEGIN
1070
    46
1040
27.5355595703125
1000
ACAD_MTEXT_DEFINED_HEIGHT_END
  0
MTEXT
  5
18A
330
A
100
AcDbEntity
  8
template
390
1D
100
AcDbMText
 10
135.0000000004822
 20
234.4414968978188
 30
0.0
 40
24.4326171875
 41
0.0
 46
69.8869072265625
 71
     1
 72
     1
  1
{カウンター置き/オーバーフローなし/\P陶器}
  7
ＭＳ ゴシック
 73
     1
 44
0.9822934569727008
1001
ACAD
1000
ACAD_MTEXT_DEFINED_HEIGHT_BEGIN
1070
    46
1040
69.8869072265625
1000
ACAD_MTEXT_DEFINED_HEIGHT_END
  0
MTEXT
  5
1A6
330
A
100
AcDbEntity
  8
template
390
1D
100
AcDbMText
 10
1332.000000000742
 20
234.4414968978188
 30
0.0
 40
24.4326171875
 41
0.0
 46
28.390701171875
 71
     1
 72
     1
  1
{8kg}
  7
ＭＳ ゴシック
 73
     1
 44
0.7828267384257843
1001
ACAD
1000
ACAD_MTEXT_DEFINED_HEIGHT_BEGIN
1070
    46
1040
28.390701171875
1000
ACAD_MTEXT_DEFINED_HEIGHT_END
  0
MTEXT
  5
374
330
A
100
AcDbEntity
  8
template
390
1D
100
AcDbMText
 10
1581.992122669024
 20
234.4414968978188
 30
0.0
 40
24.4326171875
 41
0.0
 46
24.4326171875
 71
     1
 72
     1
  1
{7L}
  7
ＭＳ ゴシック
 73
     1
 44
0.7828267384257843
1001
ACAD
1000
ACAD_MTEXT_DEFINED_HEIGHT_BEGIN
1070
    46
1040
24.4326171875
1000
ACAD_MTEXT_DEFINED_HEIGHT_END
  0
INSERT
  5
3D0
330
A
100
AcDbEntity
  8
template
100
AcDbBlockReference
  2
名称未設定-1
 10
1873.559250554905
 20
30.23897196054438
 30
0.0
 41
0.7619999999999999
 42
0.7619999999999999
 43
0.7619999999999999
  0
MTEXT
  5
BDB
102
{ACAD_XDICTIONARY
360
BDC
102
}
330
A
100
AcDbEntity
  8
template
  6
Continuous
100
AcDbMText
 10
78.95663872901252
 20
86.10730750352229
 30
0.0
 40
23.0
 41
0.0
 46
23.0
 71
     1
 72
     1
  1
{20200131N}
  7
ＭＳ ゴシック
 73
     1
 44
1.0
1001
ACAD
1000
ACAD_MTEXT_DEFINED_HEIGHT_BEGIN
1070
    46
1040
23.0
1000
ACAD_MTEXT_DEFINED_HEIGHT_END
  0
LWPOLYLINE
  5
BEE
330
A
100
AcDbEntity
  8
PRINT BORDER
100
AcDbPolyline
 90
        4
 70
     1
 43
0.0
 10
0.0
 20
0.0
 10
0.0
 20
2970.0
 10
2100.0
 20
2970.0
 10
2100.0
 20
0.0
  0
INSERT
  5
1273
330
A
100
AcDbEntity
  8
0
 62
     7
100
AcDbBlockReference
  2
BLOCK_2
 10
591.2037060744204
 20
943.564364962162
 30
0.0
  0
INSERT
  5
127B
330
A
100
AcDbEntity
  8
0
 62
     7
100
AcDbBlockReference
  2
BLOCK_2
 10
1291.863324028138
 20
1038.76992320659
 30
0.0
  0
INSERT
  5
127C
330
A
100
AcDbEntity
  8
0
 62
     7
100
AcDbBlockReference
  2
BLOCK_2
 10
652.1648429406905
 20
1595.641631888467
 30
0.0
  0
CIRCLE
  5
142C
330
A
100
AcDbEntity
  8
Dim
  6
Continuous
100
AcDbCircle
 10
1366.841726484681
 20
1758.85027442579
 30
0.0
 40
0.0
  0
HATCH
  5
3A2D
330
A
100
AcDbEntity
  8
MODEL
100
AcDbHatch
 10
0.0
 20
0.0
 30
0.0
210
0.0
220
0.0
230
1.0
  2
SOLID
 70
     1
 71
     0
 91
        0
 75
     1
 76
     1
 98
        2
 10
3836.164168380596
 20
1531.439623595344
 10
3836.164168380596
 20
1531.439623595344
450
        0
451
        0
460
0.0
461
0.0
452
        0
462
1.0
453
        2
463
0.0
 63
     5
421
      255
463
1.0
 63
     2
421
 16776960
470
LINEAR
1001
GradientColor1ACI
1070
     5
1001
GradientColor2ACI
1070
     2
1001
ACAD
1010
0.0
1020
0.0
1030
0.0
  0
SPLINE
  5
3A31
330
A
100
AcDbEntity
  8
MODEL
100
AcDbSpline
210
0.0
220
0.0
230
1.0
 70
    11
 71
     3
 72
   200
 73
   196
 74
     0
 42
0.000000001
 43
0.0000000001
 40
0.0
 40
0.0
 40
0.0
 40
0.0
 40
1.0
 40
1.0
 40
1.0
 40
2.0
 40
2.0
 40
2.0
 40
3.0
 40
3.0
 40
3.0
 40
4.0
 40
4.0
 40
4.0
 40
5.0
 40
5.0
 40
5.0
 40
6.0
 40
6.0
 40
6.0
 40
7.0
 40
7.0
 40
7.0
 40
8.0
 40
8.0
 40
8.0
 40
9.0
 40
9.0
 40
9.0
 40
10.0
 40
10.0
 40
10.0
 40
11.0
 40
11.0
 40
11.0
 40
12.0
 40
12.0
 40
12.0
 40
13.0
 40
13.0
 40
13.0
 40
14.0
 40
14.0
 40
14.0
 40
15.0
 40
15.0
 40
15.0
 40
16.0
 40
16.0
 40
16.0
 40
17.0
 40
17.0
 40
17.0
 40
18.0
 40
18.0
 40
18.0
 40
19.0
 40
19.0
 40
19.0
 40
20.0
 40
20.0
 40
20.0
 40
21.0
 40
21.0
 40
21.0
 40
22.0
 40
22.0
 40
22.0
 40
23.0
 40
23.0
 40
23.0
 40
24.0
 40
24.0
 40
24.0
 40
25.0
 40
25.0
 40
25.0
 40
26.0
 40
26.0
 40
26.0
 40
27.0
 40
27.0
 40
27.0
 40
28.0
 40
28.0
 40
28.0
 40
29.0
 40
29.0
 40
29.0
 40
30.0
 40
30.0
 40
30.0
 40
31.0
 40
31.0
 40
31.0
 40
32.0
 40
32.0
 40
32.0
 40
33.0
 40
33.0
 40
33.0
 40
34.0
 40
34.0
 40
34.0
 40
35.0
 40
35.0
 40
35.0
 40
36.0
 40
36.0
 40
36.0
 40
37.0
 40
37.0
 40
37.0
 40
38.0
 40
38.0
 40
38.0
 40
39.0
 40
39.0
 40
39.0
 40
40.0
 40
40.0
 40
40.0
 40
41.0
 40
41.0
 40
41.0
 40
42.0
 40
42.0
 40
42.0
 40
43.0
 40
43.0
 40
43.0
 40
44.0
 40
44.0
 40
44.0
 40
45.0
 40
45.0
 40
45.0
 40
46.0
 40
46.0
 40
46.0
 40
47.0
 40
47.0
 40
47.0
 40
48.0
 40
48.0
 40
48.0
 40
49.0
 40
49.0
 40
49.0
 40
50.0
 40
50.0
 40
50.0
 40
51.0
 40
51.0
 40
51.0
 40
52.0
 40
52.0
 40
52.0
 40
53.0
 40
53.0
 40
53.0
 40
54.0
 40
54.0
 40
54.0
 40
55.0
 40
55.0
 40
55.0
 40
56.0
 40
56.0
 40
56.0
 40
57.0
 40
57.0
 40
57.0
 40
58.0
 40
58.0
 40
58.0
 40
59.0
 40
59.0
 40
59.0
 40
60.0
 40
60.0
 40
60.0
 40
61.0
 40
61.0
 40
61.0
 40
62.0
 40
62.0
 40
62.0
 40
63.0
 40
63.0
 40
63.0
 40
64.0
 40
64.0
 40
64.0
 40
65.0
 40
65.0
 40
65.0
 40
65.0
 10
586.2643219612492
 20
2214.514761572719
 30
0.0
 10
586.2643219612492
 20
2214.514761572719
 30
0.0
 10
592.8688839644515
 20
2214.514761573015
 30
0.0
 10
592.8688839644515
 20
2214.514761573015
 30
0.0
 10
592.8688839644515
 20
2214.514761573015
 30
0.0
 10
599.3887754087009
 20
2214.430091014351
 30
0.0
 10
599.3887754087009
 20
2214.430091014351
 30
0.0
 10
599.3887754087009
 20
2214.430091014351
 30
0.0
 10
605.9087099203798
 20
2214.345420455688
 30
0.0
 10
605.9087099203798
 20
2214.345420455688
 30
0.0
 10
605.9087099203798
 20
2214.345420455688
 30
0.0
 10
612.5132719235976
 20
2214.176057804355
 30
0.0
 10
612.5132719235976
 20
2214.176057804355
 30
0.0
 10
612.5132719235976
 20
2214.176057804355
 30
0.0
 10
619.033163367847
 20
2214.006716686734
 30
0.0
 10
619.033163367847
 20
2214.006716686734
 30
0.0
 10
650.5276396475583
 20
2212.629355812621
 30
0.0
 10
684.0614016023492
 20
2210.883660780168
 30
0.0
 10
714.714771058103
 20
2203.168454470272
 30
0.0
 10
714.714771058103
 20
2203.168454470272
 30
0.0
 10
717.0010053522551
 20
2202.491046931292
 30
0.0
 10
717.0010053522551
 20
2202.491046931292
 30
0.0
 10
717.0010053522551
 20
2202.491046931292
 30
0.0
 10
719.2025260200257
 20
2201.898331484979
 30
0.0
 10
719.2025260200257
 20
2201.898331484979
 30
0.0
 10
730.4203845311913
 20
2198.437993031503
 30
0.0
 10
741.2008071994119
 20
2193.867010269941
 30
0.0
 10
749.9391878774895
 20
2185.810279273134
 30
0.0
 10
749.9391878774895
 20
2185.810279273134
 30
0.0
 10
752.7334024580496
 20
2183.0160216254
 30
0.0
 10
752.7334024580496
 20
2183.0160216254
 30
0.0
 10
752.7334024580496
 20
2183.0160216254
 30
0.0
 10
755.2736484291845
 20
2179.967773834497
 30
0.0
 10
755.2736484291845
 20
2179.967773834497
 30
0.0
 10
762.5711222451168
 20
2171.123576492127
 30
0.0
 10
767.2479432064124
 20
2158.711781271918
 30
0.0
 10
770.0915991920674
 20
2147.706977316043
 30
0.0
 10
770.0915991920674
 20
2147.706977316043
 30
0.0
 10
771.2770300851034
 20
2143.134573329
 30
0.0
 10
771.2770300851034
 20
2143.134573329
 30
0.0
 10
771.2770300851034
 20
2143.134573329
 30
0.0
 10
772.2931198602191
 20
2138.562169341949
 30
0.0
 10
772.2931198602191
 20
2138.562169341949
 30
0.0
 10
778.7438450202076
 20
2106.342308411264
 30
0.0
 10
780.4684370171226
 20
2071.795320665531
 30
0.0
 10
781.2685436535407
 20
2038.985543670851
 30
0.0
 10
781.2685436535407
 20
2038.985543670851
 30
0.0
 10
781.4378847720386
 20
2025.861090223408
 30
0.0
 10
781.4378847720386
 20
2025.861090223408
 30
0.0
 10
781.4378847720386
 20
2025.861090223408
 30
0.0
 10
781.4378847726302
 20
2012.821307334915
 30
0.0
 10
781.4378847726302
 20
2012.821307334915
 30
0.0
 10
781.4378847726302
 20
2012.821307334915
 30
0.0
 10
781.2685436553056
 20
1999.696810820031
 30
0.0
 10
781.2685436553056
 20
1999.696810820031
 30
0.0
 10
780.4684370218224
 20
1966.905402082346
 30
0.0
 10
778.7480656357366
 20
1932.321699356037
 30
0.0
 10
772.293119870917
 20
1900.120185148126
 30
0.0
 10
772.293119870917
 20
1900.120185148126
 30
0.0
 10
771.2770300962211
 20
1895.463089068315
 30
0.0
 10
771.2770300962211
 20
1895.463089068315
 30
0.0
 10
771.2770300962211
 20
1895.463089068315
 30
0.0
 10
770.0915992035957
 20
1890.890706614876
 30
0.0
 10
770.0915992035957
 20
1890.890706614876
 30
0.0
 10
767.0461292620603
 20
1879.427277642294
 30
0.0
 10
762.746105209415
 20
1867.98779415835
 30
0.0
 10
755.2736484436073
 20
1858.629931628807
 30
0.0
 10
755.2736484436073
 20
1858.629931628807
 30
0.0
 10
754.0035039244603
 20
1857.19044599163
 30
0.0
 10
754.0035039244603
 20
1857.19044599163
 30
0.0
 10
754.0035039244603
 20
1857.19044599163
 30
0.0
 10
752.7334024727561
 20
1855.666332862918
 30
0.0
 10
752.7334024727561
 20
1855.666332862918
 30
0.0
 10
752.7334024727561
 20
1855.666332862918
 30
0.0
 10
751.3786304620699
 20
1854.226890293163
 30
0.0
 10
751.3786304620699
 20
1854.226890293163
 30
0.0
 10
751.3786304620699
 20
1854.226890293163
 30
0.0
 10
749.939187892448
 20
1852.872075214935
 30
0.0
 10
749.939187892448
 20
1852.872075214935
 30
0.0
 10
741.3221712207492
 20
1844.909898750508
 30
0.0
 10
730.3329146056531
 20
1840.086304002432
 30
0.0
 10
719.2025260364121
 20
1836.78402300033
 30
0.0
 10
719.2025260364121
 20
1836.78402300033
 30
0.0
 10
717.0010053687083
 20
1836.10661546115
 30
0.0
 10
717.0010053687083
 20
1836.10661546115
 30
0.0
 10
717.0010053687083
 20
1836.10661546115
 30
0.0
 10
714.7147710746144
 20
1835.513921548348
 30
0.0
 10
714.7147710746144
 20
1835.513921548348
 30
0.0
 10
682.5160993174541
 20
1827.420475569279
 30
0.0
 10
645.6447841395579
 20
1825.592952424806
 30
0.0
 10
612.5132719410958
 20
1824.506318205086
 30
0.0
 10
612.5132719410958
 20
1824.506318205086
 30
0.0
 10
605.908709937893
 20
1824.33693401945
 30
0.0
 10
605.908709937893
 20
1824.33693401945
 30
0.0
 10
605.908709937893
 20
1824.33693401945
 30
0.0
 10
592.8688839819793
 20
1824.167592900948
 30
0.0
 10
592.8688839819793
 20
1824.167592900948
 30
0.0
 10
592.8688839819793
 20
1824.167592900948
 30
0.0
 10
579.7444305345261
 20
1824.167592900361
 30
0.0
 10
579.7444305345261
 20
1824.167592900361
 30
0.0
 10
579.7444305345261
 20
1824.167592900361
 30
0.0
 10
573.1398685313247
 20
1824.25226345902
 30
0.0
 10
573.1398685313247
 20
1824.25226345902
 30
0.0
 10
573.1398685313247
 20
1824.25226345902
 30
0.0
 10
566.6199340196458
 20
1824.336934017684
 30
0.0
 10
566.6199340196458
 20
1824.336934017684
 30
0.0
 10
566.6199340196458
 20
1824.336934017684
 30
0.0
 10
560.1000425753955
 20
1824.506318202731
 30
0.0
 10
560.1000425753955
 20
1824.506318202731
 30
0.0
 10
528.0918580417688
 20
1825.4828720794
 30
0.0
 10
493.7720725002387
 20
1827.365435390741
 30
0.0
 10
462.4709258943076
 20
1834.328490644198
 30
0.0
 10
462.4709258943076
 20
1834.328490644198
 30
0.0
 10
455.6123091467366
 20
1836.106615449414
 30
0.0
 10
455.6123091467366
 20
1836.106615449414
 30
0.0
 10
444.614611315837
 20
1839.221208609254
 30
0.0
 10
432.755995644809
 20
1843.931923633502
 30
0.0
 10
424.1136122586654
 20
1851.601973748524
 30
0.0
 10
424.1136122586654
 20
1851.601973748524
 30
0.0
 10
422.5894560625361
 20
1852.872075200234
 30
0.0
 10
422.5894560625361
 20
1852.872075200234
 30
0.0
 10
422.5894560625361
 20
1852.872075200234
 30
0.0
 10
419.7952414819752
 20
1855.666332847973
 30
0.0
 10
419.7952414819752
 20
1855.666332847973
 30
0.0
 10
419.7952414819752
 20
1855.666332847973
 30
0.0
 10
418.5251400301295
 20
1857.190445976566
 30
0.0
 10
418.5251400301295
 20
1857.190445976566
 30
0.0
 10
410.9171500747893
 20
1865.742516970292
 30
0.0
 10
406.1514379468294
 20
1877.692866257668
 30
0.0
 10
403.1144522871432
 20
1888.604515371711
 30
0.0
 10
403.1144522871432
 20
1888.604515371711
 30
0.0
 10
402.4370662816741
 20
1890.890706598371
 30
0.0
 10
402.4370662816741
 20
1890.890706598371
 30
0.0
 10
402.4370662816741
 20
1890.890706598371
 30
0.0
 10
401.3363059476037
 20
1895.463089051705
 30
0.0
 10
401.3363059476037
 20
1895.463089051705
 30
0.0
 10
394.1954468242689
 20
1926.706439171683
 30
0.0
 10
392.5259595985699
 20
1961.109474046963
 30
0.0
 10
391.4294414046981
 20
1993.092248799325
 30
0.0
 10
391.4294414046981
 20
1993.092248799325
 30
0.0
 10
391.2601002864981
 20
1999.696810802521
 30
0.0
 10
391.2601002864981
 20
1999.696810802521
 30
0.0
 10
391.2601002864981
 20
1999.696810802521
 30
0.0
 10
391.0907376342743
 20
2012.82130731739
 30
0.0
 10
391.0907376342743
 20
2012.82130731739
 30
0.0
 10
391.0907376342743
 20
2012.82130731739
 30
0.0
 10
391.0907376336941
 20
2025.861090205883
 30
0.0
 10
391.0907376336941
 20
2025.861090205883
 30
0.0
 10
391.0907376336941
 20
2025.861090205883
 30
0.0
 10
391.1754081923509
 20
2032.46565220909
 30
0.0
 10
391.1754081923509
 20
2032.46565220909
 30
0.0
 10
391.7582611967709
 20
2065.96267764969
 30
0.0
 10
393.333193886197
 20
2100.820160001269
 30
0.0
 10
399.3041263870828
 20
2133.820445753906
 30
0.0
 10
399.3041263870828
 20
2133.820445753906
 30
0.0
 10
400.2355240691086
 20
2138.562169325246
 30
0.0
 10
400.2355240691086
 20
2138.562169325246
 30
0.0
 10
400.2355240691086
 20
2138.562169325246
 30
0.0
 10
401.3363059364838
 20
2143.134573312391
 30
0.0
 10
401.3363059364838
 20
2143.134573312391
 30
0.0
 10
404.2378014738119
 20
2155.567536172682
 30
0.0
 10
408.4376291604844
 20
2167.999099341694
 30
0.0
 10
415.9848940447141
 20
2178.443639156897
 30
0.0
 10
415.9848940447141
 20
2178.443639156897
 30
0.0
 10
419.7952414672855
 20
2183.016021610453
 30
0.0
 10
419.7952414672855
 20
2183.016021610453
 30
0.0
 10
419.7952414672855
 20
2183.016021610453
 30
0.0
 10
421.2346840369205
 20
2184.370815154968
 30
0.0
 10
421.2346840369205
 20
2184.370815154968
 30
0.0
 10
428.9442700487689
 20
2192.452955933684
 30
0.0
 10
440.5586934155335
 20
2197.907359266247
 30
0.0
 10
451.1245972359134
 20
2201.136274908617
 30
0.0
 10
451.1245972359134
 20
2201.136274908617
 30
0.0
 10
453.3261179036149
 20
2201.898331473042
 30
0.0
 10
453.3261179036149
 20
2201.898331473042
 30
0.0
 10
453.3261179036149
 20
2201.898331473042
 30
0.0
 10
455.612309130282
 20
2202.491046919557
 30
0.0
 10
455.612309130282
 20
2202.491046919557
 30
0.0
 10
486.4745986674716
 20
2210.899186578267
 30
0.0
 10
521.6270067502055
 20
2212.554547688367
 30
0.0
 10
553.4954805547077
 20
2214.006716683792
 30
0.0
 10
553.4954805547077
 20
2214.006716683792
 30
0.0
 10
560.1000425578959
 20
2214.176057802003
 30
0.0
 10
560.1000425578959
 20
2214.176057802003
 30
0.0
 10
560.1000425578959
 20
2214.176057802003
 30
0.0
 10
566.619934002134
 20
2214.345420453923
 30
0.0
 10
566.619934002134
 20
2214.345420453923
 30
0.0
 10
566.619934002134
 20
2214.345420453923
 30
0.0
 10
573.1398685138101
 20
2214.430091013172
 30
0.0
 10
573.1398685138101
 20
2214.430091013172
 30
0.0
 10
573.1398685138101
 20
2214.430091013172
 30
0.0
 10
579.7444305169984
 20
2214.514761572426
 30
0.0
 10
579.7444305169984
 20
2214.514761572426
 30
0.0
 10
579.7444305169984
 20
2214.514761572426
 30
0.0
 10
586.2643219612492
 20
2214.514761572719
 30
0.0
 10
586.2643219612492
 20
2214.514761572719
 30
0.0
  0
SPLINE
  5
3A32
330
A
100
AcDbEntity
  8
MODEL
100
AcDbSpline
210
0.0
220
0.0
230
1.0
 70
    11
 71
     3
 72
   218
 73
   214
 74
     0
 42
0.000000001
 43
0.0000000001
 40
0.0
 40
0.0
 40
0.0
 40
0.0
 40
1.0
 40
1.0
 40
1.0
 40
2.0
 40
2.0
 40
2.0
 40
3.0
 40
3.0
 40
3.0
 40
4.0
 40
4.0
 40
4.0
 40
5.0
 40
5.0
 40
5.0
 40
6.0
 40
6.0
 40
6.0
 40
7.0
 40
7.0
 40
7.0
 40
8.0
 40
8.0
 40
8.0
 40
9.0
 40
9.0
 40
9.0
 40
10.0
 40
10.0
 40
10.0
 40
11.0
 40
11.0
 40
11.0
 40
12.0
 40
12.0
 40
12.0
 40
13.0
 40
13.0
 40
13.0
 40
14.0
 40
14.0
 40
14.0
 40
15.0
 40
15.0
 40
15.0
 40
16.0
 40
16.0
 40
16.0
 40
17.0
 40
17.0
 40
17.0
 40
18.0
 40
18.0
 40
18.0
 40
19.0
 40
19.0
 40
19.0
 40
20.0
 40
20.0
 40
20.0
 40
21.0
 40
21.0
 40
21.0
 40
22.0
 40
22.0
 40
22.0
 40
23.0
 40
23.0
 40
23.0
 40
24.0
 40
24.0
 40
24.0
 40
25.0
 40
25.0
 40
25.0
 40
26.0
 40
26.0
 40
26.0
 40
27.0
 40
27.0
 40
27.0
 40
28.0
 40
28.0
 40
28.0
 40
29.0
 40
29.0
 40
29.0
 40
30.0
 40
30.0
 40
30.0
 40
31.0
 40
31.0
 40
31.0
 40
32.0
 40
32.0
 40
32.0
 40
33.0
 40
33.0
 40
33.0
 40
34.0
 40
34.0
 40
34.0
 40
35.0
 40
35.0
 40
35.0
 40
36.0
 40
36.0
 40
36.0
 40
37.0
 40
37.0
 40
37.0
 40
38.0
 40
38.0
 40
38.0
 40
39.0
 40
39.0
 40
39.0
 40
40.0
 40
40.0
 40
40.0
 40
41.0
 40
41.0
 40
41.0
 40
42.0
 40
42.0
 40
42.0
 40
43.0
 40
43.0
 40
43.0
 40
44.0
 40
44.0
 40
44.0
 40
45.0
 40
45.0
 40
45.0
 40
46.0
 40
46.0
 40
46.0
 40
47.0
 40
47.0
 40
47.0
 40
48.0
 40
48.0
 40
48.0
 40
49.0
 40
49.0
 40
49.0
 40
50.0
 40
50.0
 40
50.0
 40
51.0
 40
51.0
 40
51.0
 40
52.0
 40
52.0
 40
52.0
 40
53.0
 40
53.0
 40
53.0
 40
54.0
 40
54.0
 40
54.0
 40
55.0
 40
55.0
 40
55.0
 40
56.0
 40
56.0
 40
56.0
 40
57.0
 40
57.0
 40
57.0
 40
58.0
 40
58.0
 40
58.0
 40
59.0
 40
59.0
 40
59.0
 40
60.0
 40
60.0
 40
60.0
 40
61.0
 40
61.0
 40
61.0
 40
62.0
 40
62.0
 40
62.0
 40
63.0
 40
63.0
 40
63.0
 40
64.0
 40
64.0
 40
64.0
 40
65.0
 40
65.0
 40
65.0
 40
66.0
 40
66.0
 40
66.0
 40
67.0
 40
67.0
 40
67.0
 40
68.0
 40
68.0
 40
68.0
 40
69.0
 40
69.0
 40
69.0
 40
70.0
 40
70.0
 40
70.0
 40
71.0
 40
71.0
 40
71.0
 40
71.0
 10
786.2642789025936
 20
2019.341155711952
 30
0.0
 10
786.2642789025936
 20
2019.341155711952
 30
0.0
 10
786.2642789022984
 20
2025.945717715157
 30
0.0
 10
786.2642789022984
 20
2025.945717715157
 30
0.0
 10
786.2642789022984
 20
2025.945717715157
 30
0.0
 10
786.1796083430368
 20
2032.634993344739
 30
0.0
 10
786.1796083430368
 20
2032.634993344739
 30
0.0
 10
786.1796083430368
 20
2032.634993344739
 30
0.0
 10
786.0949377838015
 20
2038.900830044685
 30
0.0
 10
786.0949377838015
 20
2038.900830044685
 30
0.0
 10
786.0949377838015
 20
2038.900830044685
 30
0.0
 10
785.925596665601
 20
2045.082039253095
 30
0.0
 10
785.925596665601
 20
2045.082039253095
 30
0.0
 10
785.925596665601
 20
2045.082039253095
 30
0.0
 10
785.7562555474306
 20
2050.924566225679
 30
0.0
 10
785.7562555474306
 20
2050.924566225679
 30
0.0
 10
784.9109281143774
 20
2075.480018873976
 30
0.0
 10
783.4319065793047
 20
2100.962670130476
 30
0.0
 10
779.5750463356708
 20
2125.268331709487
 30
0.0
 10
779.5750463356708
 20
2125.268331709487
 30
0.0
 10
779.405705217709
 20
2126.453762602303
 30
0.0
 10
779.405705217709
 20
2126.453762602303
 30
0.0
 10
779.405705217709
 20
2126.453762602303
 30
0.0
 10
779.2363210323219
 20
2127.554522936163
 30
0.0
 10
779.2363210323219
 20
2127.554522936163
 30
0.0
 10
776.3560146671084
 20
2144.789934437749
 30
0.0
 10
771.8570191062563
 20
2164.346809387616
 30
0.0
 10
761.878167365001
 20
2179.036333085127
 30
0.0
 10
761.878167365001
 20
2179.036333085127
 30
0.0
 10
760.2693406098642
 20
2181.322524311746
 30
0.0
 10
760.2693406098642
 20
2181.322524311746
 30
0.0
 10
760.2693406098642
 20
2181.322524311746
 30
0.0
 10
758.5758863632013
 20
2183.524044979403
 30
0.0
 10
758.5758863632013
 20
2183.524044979403
 30
0.0
 10
758.5758863632013
 20
2183.524044979403
 30
0.0
 10
754.8502094992009
 20
2187.588404078878
 30
0.0
 10
754.8502094992009
 20
2187.588404078878
 30
0.0
 10
742.8886196129583
 20
2199.699610200979
 30
0.0
 10
726.3263950423516
 20
2205.360069630613
 30
0.0
 10
710.1423455370295
 20
2209.264950052102
 30
0.0
 10
710.1423455370295
 20
2209.264950052102
 30
0.0
 10
708.5335187819778
 20
2209.603653821571
 30
0.0
 10
708.5335187819778
 20
2209.603653821571
 30
0.0
 10
708.5335187819778
 20
2209.603653821571
 30
0.0
 10
706.5860528585172
 20
2210.027006616269
 30
0.0
 10
706.5860528585172
 20
2210.027006616269
 30
0.0
 10
674.817753885879
 20
2216.493279114073
 30
0.0
 10
640.7618855291471
 20
2218.19945978341
 30
0.0
 10
608.4488697563052
 20
2219.087122493385
 30
0.0
 10
608.4488697563052
 20
2219.087122493385
 30
0.0
 10
601.33628439935
 20
2219.256485144692
 30
0.0
 10
601.33628439935
 20
2219.256485144692
 30
0.0
 10
601.33628439935
 20
2219.256485144692
 30
0.0
 10
593.8002601127646
 20
2219.341155703312
 30
0.0
 10
593.8002601127646
 20
2219.341155703312
 30
0.0
 10
593.8002601127646
 20
2219.341155703312
 30
0.0
 10
579.6597168904063
 20
2219.341155702676
 30
0.0
 10
579.6597168904063
 20
2219.341155702676
 30
0.0
 10
579.6597168904063
 20
2219.341155702676
 30
0.0
 10
572.9704412608262
 20
2219.256485143419
 30
0.0
 10
572.9704412608262
 20
2219.256485143419
 30
0.0
 10
572.9704412608262
 20
2219.256485143419
 30
0.0
 10
566.7045614934586
 20
2219.171814584181
 30
0.0
 10
566.7045614934586
 20
2219.171814584181
 30
0.0
 10
538.8863637403524
 20
2218.501470101668
 30
0.0
 10
510.6913260122669
 20
2217.12128830849
 30
0.0
 10
483.13136054391
 20
2213.075275930967
 30
0.0
 10
483.13136054391
 20
2213.075275930967
 30
0.0
 10
481.6918749068032
 20
2212.905934812988
 30
0.0
 10
481.6918749068032
 20
2212.905934812988
 30
0.0
 10
481.6918749068032
 20
2212.905934812988
 30
0.0
 10
480.337102896076
 20
2212.651901602344
 30
0.0
 10
480.337102896076
 20
2212.651901602344
 30
0.0
 10
463.3796916274755
 20
2209.959283078412
 30
0.0
 10
443.6803065659115
 20
2205.691710329646
 30
0.0
 10
428.9399633060152
 20
2196.479157294142
 30
0.0
 10
428.9399633060152
 20
2196.479157294142
 30
0.0
 10
426.5691015204397
 20
2194.955044165383
 30
0.0
 10
426.5691015204397
 20
2194.955044165383
 30
0.0
 10
426.5691015204397
 20
2194.955044165383
 30
0.0
 10
424.2829102938144
 20
2193.346238943958
 30
0.0
 10
424.2829102938144
 20
2193.346238943958
 30
0.0
 10
424.2829102938144
 20
2193.346238943958
 30
0.0
 10
420.049210076415
 20
2189.789924731582
 30
0.0
 10
420.049210076415
 20
2189.789924731582
 30
0.0
 10
407.0136477961628
 20
2178.220636026139
 30
0.0
 10
400.7858827013001
 20
2161.346517158474
 30
0.0
 10
396.7638588818795
 20
2144.828027558753
 30
0.0
 10
396.7638588818795
 20
2144.828027558753
 30
0.0
 10
396.3405060871778
 20
2143.219222337412
 30
0.0
 10
396.3405060871778
 20
2143.219222337412
 30
0.0
 10
396.3405060871778
 20
2143.219222337412
 30
0.0
 10
396.0017807839995
 20
2141.525746557117
 30
0.0
 10
396.0017807839995
 20
2141.525746557117
 30
0.0
 10
389.5637605173811
 20
2111.505985068539
 30
0.0
 10
387.7841714208407
 20
2079.140750041979
 30
0.0
 10
386.6876316960634
 20
2048.553704422113
 30
0.0
 10
386.6876316960634
 20
2048.553704422113
 30
0.0
 10
386.348949460863
 20
2034.413118132311
 30
0.0
 10
386.348949460863
 20
2034.413118132311
 30
0.0
 10
386.348949460863
 20
2034.413118132311
 30
0.0
 10
386.2642789022498
 20
2026.87713691315
 30
0.0
 10
386.2642789022498
 20
2026.87713691315
 30
0.0
 10
386.2642789022498
 20
2026.87713691315
 30
0.0
 10
386.2642789028851
 20
2012.651923131831
 30
0.0
 10
386.2642789028851
 20
2012.651923131831
 30
0.0
 10
386.2642789028851
 20
2012.651923131831
 30
0.0
 10
386.3489494621476
 20
2006.047318061207
 30
0.0
 10
386.3489494621476
 20
2006.047318061207
 30
0.0
 10
386.3489494621476
 20
2006.047318061207
 30
0.0
 10
386.4336200213829
 20
1999.78148136126
 30
0.0
 10
386.4336200213829
 20
1999.78148136126
 30
0.0
 10
386.4336200213829
 20
1999.78148136126
 30
0.0
 10
386.602961139582
 20
1993.515601593893
 30
0.0
 10
386.602961139582
 20
1993.515601593893
 30
0.0
 10
387.3057784610187
 20
1967.196064120849
 30
0.0
 10
388.8905735936842
 20
1940.835655660842
 30
0.0
 10
392.6994997925735
 20
1914.768751707185
 30
0.0
 10
392.6994997925735
 20
1914.768751707185
 30
0.0
 10
392.9535114695127
 20
1913.329309137502
 30
0.0
 10
392.9535114695127
 20
1913.329309137502
 30
0.0
 10
392.9535114695127
 20
1913.329309137502
 30
0.0
 10
393.1228956549012
 20
1912.228548803643
 30
0.0
 10
393.1228956549012
 20
1912.228548803643
 30
0.0
 10
395.9523824577523
 20
1895.230223480619
 30
0.0
 10
399.9941742271576
 20
1876.793876813002
 30
0.0
 10
409.1262773114258
 20
1861.932169547443
 30
0.0
 10
409.1262773114258
 20
1861.932169547443
 30
0.0
 10
410.6503904401825
 20
1859.64597832082
 30
0.0
 10
410.6503904401825
 20
1859.64597832082
 30
0.0
 10
410.6503904401825
 20
1859.64597832082
 30
0.0
 10
412.2592171953202
 20
1857.359787094201
 30
0.0
 10
412.2592171953202
 20
1857.359787094201
 30
0.0
 10
412.2592171953202
 20
1857.359787094201
 30
0.0
 10
414.0373420009469
 20
1855.158266426545
 30
0.0
 10
414.0373420009469
 20
1855.158266426545
 30
0.0
 10
414.0373420009469
 20
1855.158266426545
 30
0.0
 10
415.8155098739744
 20
1853.126086876804
 30
0.0
 10
415.8155098739744
 20
1853.126086876804
 30
0.0
 10
427.1110189541432
 20
1840.252802656634
 30
0.0
 10
444.4988460757531
 20
1833.684934100923
 30
0.0
 10
460.7773855131013
 20
1829.840735682269
 30
0.0
 10
460.7773855131013
 20
1829.840735682269
 30
0.0
 10
462.3862122681535
 20
1829.417382887556
 30
0.0
 10
462.3862122681535
 20
1829.417382887556
 30
0.0
 10
462.3862122681535
 20
1829.417382887556
 30
0.0
 10
464.0797095821572
 20
1829.078657584379
 30
0.0
 10
464.0797095821572
 20
1829.078657584379
 30
0.0
 10
493.8679836575125
 20
1822.564407974239
 30
0.0
 10
526.6919083016546
 20
1820.831417832338
 30
0.0
 10
557.0517732508752
 20
1819.764508496445
 30
0.0
 10
557.0517732508752
 20
1819.764508496445
 30
0.0
 10
564.1643586078299
 20
1819.59516737885
 30
0.0
 10
564.1643586078299
 20
1819.59516737885
 30
0.0
 10
564.1643586078299
 20
1819.59516737885
 30
0.0
 10
571.1923164732475
 20
1819.425826261252
 30
0.0
 10
571.1923164732475
 20
1819.425826261252
 30
0.0
 10
571.1923164732475
 20
1819.425826261252
 30
0.0
 10
578.7282976924184
 20
1819.341155702634
 30
0.0
 10
578.7282976924184
 20
1819.341155702634
 30
0.0
 10
578.7282976924184
 20
1819.341155702634
 30
0.0
 10
592.9535545411554
 20
1819.341155703273
 30
0.0
 10
592.9535545411554
 20
1819.341155703273
 30
0.0
 10
592.9535545411554
 20
1819.341155703273
 30
0.0
 10
599.5581165443582
 20
1819.425826262528
 30
0.0
 10
599.5581165443582
 20
1819.425826262528
 30
0.0
 10
628.7748858801542
 20
1819.915502894225
 30
0.0
 10
658.8214353071799
 20
1821.212435353577
 30
0.0
 10
687.7884135736622
 20
1825.353023798036
 30
0.0
 10
687.7884135736622
 20
1825.353023798036
 30
0.0
 10
689.481867820225
 20
1825.607035474982
 30
0.0
 10
689.481867820225
 20
1825.607035474982
 30
0.0
 10
689.481867820225
 20
1825.607035474982
 30
0.0
 10
690.8366828983803
 20
1825.776376592958
 30
0.0
 10
690.8366828983803
 20
1825.776376592958
 30
0.0
 10
707.812397822905
 20
1828.481700007477
 30
0.0
 10
726.1146755942736
 20
1832.24971215159
 30
0.0
 10
741.2176896461488
 20
1840.763668474576
 30
0.0
 10
741.2176896461488
 20
1840.763668474576
 30
0.0
 10
743.6732650581189
 20
1842.203154111808
 30
0.0
 10
743.6732650581189
 20
1842.203154111808
 30
0.0
 10
743.6732650581189
 20
1842.203154111808
 30
0.0
 10
745.9594562847424
 20
1843.727267240562
 30
0.0
 10
745.9594562847424
 20
1843.727267240562
 30
0.0
 10
745.9594562847424
 20
1843.727267240562
 30
0.0
 10
748.2456475113686
 20
1845.336050928275
 30
0.0
 10
748.2456475113686
 20
1845.336050928275
 30
0.0
 10
748.2456475113686
 20
1845.336050928275
 30
0.0
 10
750.447168179026
 20
1847.029548242365
 30
0.0
 10
750.447168179026
 20
1847.029548242365
 30
0.0
 10
764.6201842398441
 20
1858.826060685935
 30
0.0
 10
770.914273170346
 20
1874.874620070061
 30
0.0
 10
775.4260166875374
 20
1892.245478625856
 30
0.0
 10
775.4260166875374
 20
1892.245478625856
 30
0.0
 10
775.764698923288
 20
1893.854262313481
 30
0.0
 10
775.764698923288
 20
1893.854262313481
 30
0.0
 10
775.764698923288
 20
1893.854262313481
 30
0.0
 10
776.188051718007
 20
1895.463089068534
 30
0.0
 10
776.188051718007
 20
1895.463089068534
 30
0.0
 10
782.5781379398618
 20
1923.9206227567
 30
0.0
 10
784.3464003035333
 20
1954.401851711613
 30
0.0
 10
785.6715849914999
 20
1983.439374421664
 30
0.0
 10
785.6715849914999
 20
1983.439374421664
 30
0.0
 10
785.8409261091201
 20
1990.128606983833
 30
0.0
 10
785.8409261091201
 20
1990.128606983833
 30
0.0
 10
785.8409261091201
 20
1990.128606983833
 30
0.0
 10
786.179608344305
 20
2004.269193273635
 30
0.0
 10
786.179608344305
 20
2004.269193273635
 30
0.0
 10
786.179608344305
 20
2004.269193273635
 30
0.0
 10
786.2642789029323
 20
2011.805174492797
 30
0.0
 10
786.2642789029323
 20
2011.805174492797
 30
0.0
 10
786.2642789029323
 20
2011.805174492797
 30
0.0
 10
786.2642789025936
 20
2019.341155711952
 30
0.0
 10
786.2642789025936
 20
2019.341155711952
 30
0.0
  0
SPLINE
  5
3A33
330
A
100
AcDbEntity
  8
MODEL
100
AcDbSpline
210
0.0
220
0.0
230
1.0
 70
    11
 71
     3
 72
    29
 73
    25
 74
     0
 42
0.000000001
 43
0.0000000001
 40
0.0
 40
0.0
 40
0.0
 40
0.0
 40
1.0
 40
1.0
 40
1.0
 40
2.0
 40
2.0
 40
2.0
 40
3.0
 40
3.0
 40
3.0
 40
4.0
 40
4.0
 40
4.0
 40
5.0
 40
5.0
 40
5.0
 40
6.0
 40
6.0
 40
6.0
 40
7.0
 40
7.0
 40
7.0
 40
8.0
 40
8.0
 40
8.0
 40
8.0
 10
608.1948580884095
 20
2019.341155703958
 30
0.0
 10
608.1948580884095
 20
2019.341155703958
 30
0.0
 10
608.1948580883682
 20
2020.27257491991
 30
0.0
 10
608.1948580883682
 20
2020.27257491991
 30
0.0
 10
608.1948580883682
 20
2020.27257491991
 30
0.0
 10
608.1101875293598
 20
2021.288664694817
 30
0.0
 10
608.1101875293598
 20
2021.288664694817
 30
0.0
 10
604.599029511819
 20
2048.398446362191
 30
0.0
 10
566.5719568973809
 20
2047.507984266387
 30
0.0
 10
564.4184133431104
 20
2020.272574917946
 30
0.0
 10
564.4184133431104
 20
2020.272574917946
 30
0.0
 10
564.3337427842007
 20
2019.341155701989
 30
0.0
 10
564.3337427842007
 20
2019.341155701989
 30
0.0
 10
564.3337427842007
 20
2019.341155701989
 30
0.0
 10
564.4184133432091
 20
2018.325065927082
 30
0.0
 10
564.4184133432091
 20
2018.325065927082
 30
0.0
 10
566.6566274588718
 20
1991.113645134961
 30
0.0
 10
604.6315023534244
 20
1990.297991161036
 30
0.0
 10
608.1101875295294
 20
2017.39364671309
 30
0.0
 10
608.1101875295294
 20
2017.39364671309
 30
0.0
 10
608.1948580884532
 20
2018.325065929047
 30
0.0
 10
608.1948580884532
 20
2018.325065929047
 30
0.0
 10
608.1948580884532
 20
2018.325065929047
 30
0.0
 10
608.1948580884095
 20
2019.341155703958
 30
0.0
 10
608.1948580884095
 20
2019.341155703958
 30
0.0
  0
SPLINE
  5
3A42
330
A
100
AcDbEntity
  8
MODEL
100
AcDbSpline
210
0.0
220
0.0
230
1.0
 70
    11
 71
     3
 72
    44
 73
    40
 74
     0
 42
0.000000001
 43
0.0000000001
 40
0.0
 40
0.0
 40
0.0
 40
0.0
 40
1.0
 40
1.0
 40
1.0
 40
2.0
 40
2.0
 40
2.0
 40
3.0
 40
3.0
 40
3.0
 40
4.0
 40
4.0
 40
4.0
 40
5.0
 40
5.0
 40
5.0
 40
6.0
 40
6.0
 40
6.0
 40
7.0
 40
7.0
 40
7.0
 40
8.0
 40
8.0
 40
8.0
 40
9.0
 40
9.0
 40
9.0
 40
10.0
 40
10.0
 40
10.0
 40
11.0
 40
11.0
 40
11.0
 40
12.0
 40
12.0
 40
12.0
 40
13.0
 40
13.0
 40
13.0
 40
13.0
 10
549.3464078374118
 20
2019.341198768742
 30
0.0
 10
549.3464078374118
 20
2019.341198768742
 30
0.0
 10
549.3464078374964
 20
2017.647701454749
 30
0.0
 10
549.3464078374964
 20
2017.647701454749
 30
0.0
 10
549.3464078374964
 20
2017.647701454749
 30
0.0
 10
549.4310783965188
 20
2016.038917767144
 30
0.0
 10
549.4310783965188
 20
2016.038917767144
 30
0.0
 10
555.4471670968023
 20
1970.343173195147
 30
0.0
 10
619.2476391587875
 20
1971.724776214971
 30
0.0
 10
623.1821499678422
 20
2017.647701458064
 30
0.0
 10
623.1821499678422
 20
2017.647701458064
 30
0.0
 10
623.2668205267219
 20
2019.34119877206
 30
0.0
 10
623.2668205267219
 20
2019.34119877206
 30
0.0
 10
623.2668205267219
 20
2019.34119877206
 30
0.0
 10
623.1821499676853
 20
2020.950025527091
 30
0.0
 10
623.1821499676853
 20
2020.950025527091
 30
0.0
 10
623.1821499676853
 20
2020.950025527091
 30
0.0
 10
623.0974794086501
 20
2022.643479773652
 30
0.0
 10
623.0974794086501
 20
2022.643479773652
 30
0.0
 10
621.3757729300146
 20
2040.537909023594
 30
0.0
 10
607.4511267121466
 20
2054.438566684093
 30
0.0
 10
589.566559902536
 20
2056.174399276762
 30
0.0
 10
589.566559902536
 20
2056.174399276762
 30
0.0
 10
587.9577331474957
 20
2056.259069835645
 30
0.0
 10
587.9577331474957
 20
2056.259069835645
 30
0.0
 10
587.9577331474957
 20
2056.259069835645
 30
0.0
 10
586.2642789009324
 20
2056.25906983557
 30
0.0
 10
586.2642789009324
 20
2056.25906983557
 30
0.0
 10
567.9253076826767
 20
2056.388896589566
 30
0.0
 10
552.0475106424137
 20
2042.522111458055
 30
0.0
 10
549.6850900730228
 20
2024.33697708435
 30
0.0
 10
549.6850900730228
 20
2024.33697708435
 30
0.0
 10
549.4310783962223
 20
2022.643479770347
 30
0.0
 10
549.4310783962223
 20
2022.643479770347
 30
0.0
 10
549.4310783962223
 20
2022.643479770347
 30
0.0
 10
549.3464078373413
 20
2020.950025523777
 30
0.0
 10
549.3464078373413
 20
2020.950025523777
 30
0.0
 10
549.3464078373413
 20
2020.950025523777
 30
0.0
 10
549.3464078374118
 20
2019.341198768742
 30
0.0
 10
549.3464078374118
 20
2019.341198768742
 30
0.0
  0
SPLINE
  5
3A53
330
A
100
AcDbEntity
  8
MODEL
100
AcDbSpline
210
0.0
220
0.0
230
1.0
 70
    24
 71
     3
 72
    14
 73
    10
 74
     0
 42
0.000000001
 43
0.0000000001
 40
0.0
 40
0.0
 40
0.0
 40
0.0
 40
1.0
 40
1.0
 40
1.0
 40
2.0
 40
2.0
 40
2.0
 40
3.0
 40
3.0
 40
3.0
 40
3.0
 10
462.5625815035937
 20
1053.70320719643
 30
0.0
 10
462.5625815035937
 20
1053.70320719643
 30
0.0
 10
462.4779109446367
 20
1053.703207196427
 30
0.0
 10
462.4779109446367
 20
1053.703207196427
 30
0.0
 10
456.6071748082022
 20
1053.703207196163
 30
0.0
 10
450.7364386717682
 20
1053.703207195901
 30
0.0
 10
444.8657025353341
 20
1053.703207195636
 30
0.0
 10
444.8657025353341
 20
1053.703207195636
 30
0.0
 10
444.7810319763771
 20
1053.703207195631
 30
0.0
 10
444.7810319763771
 20
1053.703207195631
 30
0.0
  0
HATCH
  5
3A54
330
A
100
AcDbEntity
  8
MODEL
100
AcDbHatch
 10
0.0
 20
0.0
 30
0.0
210
0.0
220
0.0
230
1.0
  2
SOLID
 70
     1
 71
     0
 91
        0
 75
     1
 76
     1
 98
        2
 10
3183.006891978769
 20
1144.702280440211
 10
3165.239871790022
 20
1112.47007599204
450
        0
451
        0
460
0.0
461
0.0
452
        0
462
1.0
453
        2
463
0.0
 63
     5
421
      255
463
1.0
 63
     2
421
 16776960
470
LINEAR
1001
GradientColor1ACI
1070
     5
1001
GradientColor2ACI
1070
     2
1001
ACAD
1010
0.0
1020
0.0
1030
0.0
  0
POLYLINE
  5
3A7F
330
A
100
AcDbEntity
  8
MODEL
100
AcDb2dPolyline
 66
     1
 10
0.0
 20
0.0
 30
0.0
  0
VERTEX
  5
3A80
330
3A7F
100
AcDbEntity
  8
MODEL
100
AcDbVertex
100
AcDb2dVertex
 10
517.6006843318546
 20
1052.687074356566
 30
0.0
  0
VERTEX
  5
3A81
330
3A7F
100
AcDbEntity
  8
MODEL
100
AcDbVertex
100
AcDb2dVertex
 10
483.053675052332
 20
1052.687074355015
 30
0.0
  0
SEQEND
  5
3A82
330
3A7F
100
AcDbEntity
  8
MODEL
  0
POLYLINE
  5
3A83
330
A
100
AcDbEntity
  8
MODEL
100
AcDb2dPolyline
 66
     1
 10
0.0
 20
0.0
 30
0.0
  0
VERTEX
  5
3A84
330
3A83
100
AcDbEntity
  8
MODEL
100
AcDbVertex
100
AcDb2dVertex
 10
707.7785118860074
 20
1052.687074365103
 30
0.0
  0
VERTEX
  5
3A85
330
3A83
100
AcDbEntity
  8
MODEL
100
AcDbVertex
100
AcDb2dVertex
 10
697.6176141369046
 20
1052.687074364649
 30
0.0
  0
SEQEND
  5
3A86
330
3A83
100
AcDbEntity
  8
MODEL
  0
POLYLINE
  5
3A87
330
A
100
AcDbEntity
  8
MODEL
100
AcDb2dPolyline
 66
     1
 10
0.0
 20
0.0
 30
0.0
  0
VERTEX
  5
3A88
330
3A87
100
AcDbEntity
  8
MODEL
100
AcDbVertex
100
AcDb2dVertex
 10
474.9249999204758
 20
1052.687074354651
 30
0.0
  0
VERTEX
  5
3A89
330
3A87
100
AcDbEntity
  8
MODEL
100
AcDbVertex
100
AcDb2dVertex
 10
464.764102171373
 20
1052.687074354194
 30
0.0
  0
SEQEND
  5
3A8A
330
3A87
100
AcDbEntity
  8
MODEL
  0
SPLINE
  5
3AAB
330
A
100
AcDbEntity
  8
MODEL
100
AcDbSpline
210
0.0
220
0.0
230
1.0
 70
     8
 71
     3
 72
    11
 73
     7
 74
     0
 42
0.000000001
 43
0.0000000001
 40
1.419912497941286
 40
1.419912497941286
 40
1.419912497941286
 40
1.419912497941286
 40
2.0
 40
2.0
 40
2.0
 40
3.0
 40
3.0
 40
3.0
 40
3.0
 10
462.5395939925261
 20
1053.703207196429
 30
0.0
 10
462.9851666558438
 20
1053.222601125991
 30
0.0
 10
463.5994427171659
 20
1052.89695908462
 30
0.0
 10
464.2559926827757
 20
1052.771744913128
 30
0.0
 10
464.2559926827757
 20
1052.771744913128
 30
0.0
 10
464.7640591039476
 20
1052.687074354194
 30
0.0
 10
464.7640591039476
 20
1052.687074354194
 30
0.0
  0
SPLINE
  5
3AB7
330
A
100
AcDbEntity
  8
MODEL
100
AcDbSpline
210
0.0
220
0.0
230
1.0
 70
    24
 71
     3
 72
    14
 73
    10
 74
     0
 42
0.000000001
 43
0.0000000001
 40
0.0
 40
0.0
 40
0.0
 40
0.0
 40
1.0
 40
1.0
 40
1.0
 40
2.0
 40
2.0
 40
2.0
 40
3.0
 40
3.0
 40
3.0
 40
3.0
 10
586.271263961265
 20
1052.687074359649
 30
0.0
 10
586.271263961265
 20
1052.687074359649
 30
0.0
 10
578.904666927448
 20
1052.687074359318
 30
0.0
 10
578.904666927448
 20
1052.687074359318
 30
0.0
 10
563.070583323668
 20
1052.687074358606
 30
0.0
 10
547.2365858547405
 20
1052.687074357896
 30
0.0
 10
531.4025022509618
 20
1052.687074357184
 30
0.0
 10
531.4025022509618
 20
1052.687074357184
 30
0.0
 10
527.7615390135315
 20
1052.687074357023
 30
0.0
 10
527.7615390135315
 20
1052.687074357023
 30
0.0
  0
SPLINE
  5
3AB8
330
A
100
AcDbEntity
  8
MODEL
100
AcDbSpline
210
0.0
220
0.0
230
1.0
 70
    24
 71
     3
 72
    14
 73
    10
 74
     0
 42
0.000000001
 43
0.0000000001
 40
0.0
 40
0.0
 40
0.0
 40
0.0
 40
1.0
 40
1.0
 40
1.0
 40
2.0
 40
2.0
 40
2.0
 40
3.0
 40
3.0
 40
3.0
 40
3.0
 10
517.6006412644292
 20
1052.687074356566
 30
0.0
 10
517.6006412644292
 20
1052.687074356566
 30
0.0
 10
517.6853118233862
 20
1052.687074356571
 30
0.0
 10
517.6853118233862
 20
1052.687074356571
 30
0.0
 10
520.7617903119608
 20
1052.687074356707
 30
0.0
 10
523.8383118679621
 20
1052.687074356846
 30
0.0
 10
526.9147903565354
 20
1052.687074356984
 30
0.0
 10
526.9147903565354
 20
1052.687074356984
 30
0.0
 10
527.7615390135315
 20
1052.687074357023
 30
0.0
 10
527.7615390135315
 20
1052.687074357023
 30
0.0
  0
SPLINE
  5
3AB9
330
A
100
AcDbEntity
  8
MODEL
100
AcDbSpline
210
0.0
220
0.0
230
1.0
 70
    24
 71
     3
 72
    14
 73
    10
 74
     0
 42
0.000000001
 43
0.0000000001
 40
0.0
 40
0.0
 40
0.0
 40
0.0
 40
1.0
 40
1.0
 40
1.0
 40
2.0
 40
2.0
 40
2.0
 40
3.0
 40
3.0
 40
3.0
 40
3.0
 10
476.3643994227455
 20
1052.687074354715
 30
0.0
 10
476.3643994227455
 20
1052.687074354715
 30
0.0
 10
476.4490699817025
 20
1052.687074354717
 30
0.0
 10
476.4490699817025
 20
1052.687074354717
 30
0.0
 10
478.4247881364095
 20
1052.687074354807
 30
0.0
 10
480.4005062911183
 20
1052.687074354894
 30
0.0
 10
482.3762675132498
 20
1052.687074354984
 30
0.0
 10
482.3762675132498
 20
1052.687074354984
 30
0.0
 10
483.0536319849061
 20
1052.687074355015
 30
0.0
 10
483.0536319849061
 20
1052.687074355015
 30
0.0
  0
SPLINE
  5
3ABA
330
A
100
AcDbEntity
  8
MODEL
100
AcDbSpline
210
0.0
220
0.0
230
1.0
 70
    24
 71
     3
 72
    14
 73
    10
 74
     0
 42
0.000000001
 43
0.0000000001
 40
0.0
 40
0.0
 40
0.0
 40
0.0
 40
1.0
 40
1.0
 40
1.0
 40
2.0
 40
2.0
 40
2.0
 40
3.0
 40
3.0
 40
3.0
 40
3.0
 10
476.3643994227455
 20
1052.687074354715
 30
0.0
 10
476.3643994227455
 20
1052.687074354715
 30
0.0
 10
476.110387745874
 20
1052.687074354702
 30
0.0
 10
476.110387745874
 20
1052.687074354702
 30
0.0
 10
475.7434532787765
 20
1052.687074354687
 30
0.0
 10
475.376518811679
 20
1052.687074354671
 30
0.0
 10
475.0096274120069
 20
1052.687074354653
 30
0.0
 10
475.0096274120069
 20
1052.687074354653
 30
0.0
 10
474.9249568530499
 20
1052.687074354651
 30
0.0
 10
474.9249568530499
 20
1052.687074354651
 30
0.0
  0
SPLINE
  5
3ABB
330
A
100
AcDbEntity
  8
MODEL
100
AcDbSpline
210
0.0
220
0.0
230
1.0
 70
    24
 71
     3
 72
    14
 73
    10
 74
     0
 42
0.000000001
 43
0.0000000001
 40
0.0
 40
0.0
 40
0.0
 40
0.0
 40
1.0
 40
1.0
 40
1.0
 40
2.0
 40
2.0
 40
2.0
 40
3.0
 40
3.0
 40
3.0
 40
3.0
 10
697.6176141369046
 20
1052.687074364649
 30
0.0
 10
697.6176141369046
 20
1052.687074364649
 30
0.0
 10
697.4482730189907
 20
1052.687074364641
 30
0.0
 10
697.4482730189907
 20
1052.687074364641
 30
0.0
 10
664.0302763046034
 20
1052.68707436314
 30
0.0
 10
630.6122795902174
 20
1052.687074361641
 30
0.0
 10
597.1941967409812
 20
1052.687074360139
 30
0.0
 10
597.1941967409812
 20
1052.687074360139
 30
0.0
 10
586.271263961265
 20
1052.687074359649
 30
0.0
 10
586.271263961265
 20
1052.687074359649
 30
0.0
  0
SPLINE
  5
3AC0
102
{ACAD_REACTORS
330
3BC9
102
}
330
A
100
AcDbEntity
  8
HIDDEN
 48
0.5
100
AcDbSpline
210
0.0
220
0.0
230
1.0
 70
    24
 71
     3
 72
    14
 73
    10
 74
     0
 42
0.000000001
 43
0.0000000001
 40
0.0
 40
0.0
 40
0.0
 40
0.0
 40
1.0
 40
1.0
 40
1.0
 40
2.0
 40
2.0
 40
2.0
 40
3.0
 40
3.0
 40
3.0
 40
3.0
 10
544.8656379330314
 20
1079.613431859199
 30
0.0
 10
544.8656379330314
 20
1079.613431859199
 30
0.0
 10
544.9503084919884
 20
1079.613431859202
 30
0.0
 10
544.9503084919884
 20
1079.613431859202
 30
0.0
 10
572.4976121373656
 20
1079.613431860439
 30
0.0
 10
600.0448296478935
 20
1079.613431861676
 30
0.0
 10
627.5921332932712
 20
1079.613431862914
 30
0.0
 10
627.5921332932712
 20
1079.613431862914
 30
0.0
 10
627.6768038522268
 20
1079.613431862916
 30
0.0
 10
627.6768038522268
 20
1079.613431862916
 30
0.0
  0
SPLINE
  5
3AC3
330
A
100
AcDbEntity
  8
MODEL
100
AcDbSpline
210
0.0
220
0.0
230
1.0
 70
    24
 71
     3
 72
    14
 73
    10
 74
     0
 42
0.000000001
 43
0.0000000001
 40
0.0
 40
0.0
 40
0.0
 40
0.0
 40
1.0
 40
1.0
 40
1.0
 40
2.0
 40
2.0
 40
2.0
 40
3.0
 40
3.0
 40
3.0
 40
3.0
 10
586.2712639549309
 20
1193.753996617131
 30
0.0
 10
586.2712639549309
 20
1193.753996617131
 30
0.0
 10
608.0324589554057
 20
1193.753996618109
 30
0.0
 10
608.0324589554057
 20
1193.753996618109
 30
0.0
 10
666.542226970565
 20
1193.753996620735
 30
0.0
 10
725.051908850869
 20
1193.753996623361
 30
0.0
 10
783.561676866027
 20
1193.75399662599
 30
0.0
 10
783.561676866027
 20
1193.75399662599
 30
0.0
 10
783.731017983941
 20
1193.753996625997
 30
0.0
 10
783.731017983941
 20
1193.753996625997
 30
0.0
  0
SPLINE
  5
3AC4
330
A
100
AcDbEntity
  8
MODEL
100
AcDbSpline
210
0.0
220
0.0
230
1.0
 70
    24
 71
     3
 72
    14
 73
    10
 74
     0
 42
0.000000001
 43
0.0000000001
 40
0.0
 40
0.0
 40
0.0
 40
0.0
 40
1.0
 40
1.0
 40
1.0
 40
2.0
 40
2.0
 40
2.0
 40
3.0
 40
3.0
 40
3.0
 40
3.0
 10
388.7268393669628
 20
1193.753996608262
 30
0.0
 10
388.7268393669628
 20
1193.753996608262
 30
0.0
 10
388.8115099259198
 20
1193.753996608267
 30
0.0
 10
388.8115099259198
 20
1193.753996608267
 30
0.0
 10
447.3776962687652
 20
1193.753996610896
 30
0.0
 10
505.9438826116107
 20
1193.753996613525
 30
0.0
 10
564.5100689544561
 20
1193.753996616156
 30
0.0
 10
564.5100689544561
 20
1193.753996616156
 30
0.0
 10
586.2712639549309
 20
1193.753996617131
 30
0.0
 10
586.2712639549309
 20
1193.753996617131
 30
0.0
  0
SPLINE
  5
3AC5
330
A
100
AcDbEntity
  8
MODEL
100
AcDbSpline
210
0.0
220
0.0
230
1.0
 70
    24
 71
     3
 72
    14
 73
    10
 74
     0
 42
0.000000001
 43
0.0000000001
 40
0.0
 40
0.0
 40
0.0
 40
0.0
 40
1.0
 40
1.0
 40
1.0
 40
2.0
 40
2.0
 40
2.0
 40
3.0
 40
3.0
 40
3.0
 40
3.0
 10
727.7615390134865
 20
1053.703207208338
 30
0.0
 10
727.7615390134865
 20
1053.703207208338
 30
0.0
 10
727.5921978955726
 20
1053.70320720833
 30
0.0
 10
727.5921978955726
 20
1053.70320720833
 30
0.0
 10
721.9755165034353
 20
1053.703207208079
 30
0.0
 10
716.3587489764463
 20
1053.703207207825
 30
0.0
 10
710.7420675843091
 20
1053.703207207573
 30
0.0
 10
710.7420675843091
 20
1053.703207207573
 30
0.0
 10
709.4281919441651
 20
1053.70320720754
 30
0.0
 10
709.4281919441651
 20
1053.70320720754
 30
0.0
  0
DIMENSION
  5
3ACC
102
{ACAD_XDICTIONARY
360
3ACD
102
}
330
A
100
AcDbEntity
  8
Dim
100
AcDbDimension
  2
*D26
 10
386.3103193676284
 20
2306.865587283358
 30
0.0
 11
586.3066572582525
 21
2306.865587283358
 31
0.0
 70
   160
 71
     5
 42
399.9926757812505
 73
     0
 74
     0
 75
     0
  3
tform線あり
100
AcDbAlignedDimension
 13
786.3029951488788
 23
2151.180173952
 33
0.0
 14
386.3103193676284
 24
2138.277255592465
 34
0.0
 50
0.0000000000001895
100
AcDbRotatedDimension
1001
AcadAnnotative
1000
AnnotativeData
1002
{
1070
     1
1070
     0
1002
}
1001
ACAD
1000
DSTYLE
1002
{
1070
   271
1070
     0
1002
}
  0
DIMENSION
  5
3AD0
330
A
100
AcDbEntity
  8
Dim
100
AcDbDimension
  2
*D27
 10
890.3479019855981
 20
2219.341155702941
 30
0.0
 11
868.1315933918481
 21
2019.341155702938
 31
0.0
 70
    32
 71
     5
 42
400.0000000000066
 73
     0
 74
     0
 75
     0
  3
tform線あり
100
AcDbAlignedDimension
 13
708.7789915265162
 23
1819.341155702934
 33
0.0
 14
708.7789915265162
 24
2219.341155702941
 34
0.0
 50
90.0
100
AcDbRotatedDimension
1001
ACAD
1000
DSTYLE
1002
{
1070
   271
1070
     0
1002
}
  0
DIMENSION
  5
3AD6
330
A
100
AcDbEntity
  8
Dim
100
AcDbDimension
  2
*D29
 10
738.7479206151997
 20
917.2442315520002
 30
0.0
 11
586.3197908789621
 21
939.4605401457502
 31
0.0
 70
    32
 71
     5
 42
304.8562594724754
 73
     0
 74
     0
 75
     0
  3
tform線あり
100
AcDbAlignedDimension
 13
433.8916611427244
 23
1053.514743286607
 33
0.0
 14
738.7479206151997
 24
1043.928888653826
 34
0.0
100
AcDbRotatedDimension
1001
ACAD
1000
DSTYLE
1002
{
1070
   271
1070
     0
1002
}
  0
DIMENSION
  5
3AD8
330
A
100
AcDbEntity
  8
Dim
100
AcDbDimension
  2
*D31
 10
932.1064742400008
 20
1193.78779162862
 30
0.0
 11
909.8901656462508
 21
1123.78779162862
 31
0.0
 70
    32
 71
     5
 42
139.9999999999998
 73
     0
 74
     0
 75
     0
  3
tform線あり
100
AcDbAlignedDimension
 13
759.1405862400002
 23
1053.78779162862
 33
0.0
 14
793.9218563811369
 24
1193.78779162862
 34
0.0
 50
-90.00000000000001
100
AcDbRotatedDimension
1001
ACAD
1000
DSTYLE
1002
{
1070
   271
1070
     0
1002
}
  0
MTEXT
  5
3B5F
330
A
100
AcDbEntity
  8
Dim
390
1D
100
AcDbMText
 10
1317.35056410696
 20
2476.900072428228
 30
34.99521132346015
 40
24.0
 41
0.0
 46
27.413396484375
 71
     1
 72
     1
  1
{カウンター切込寸法}
  7
ＭＳ ゴシック
 73
     1
 44
0.7828267384257843
1001
ACAD
1000
ACAD_MTEXT_DEFINED_HEIGHT_BEGIN
1070
    46
1040
27.413396484375
1000
ACAD_MTEXT_DEFINED_HEIGHT_END
  0
MTEXT
  5
3B60
330
A
100
AcDbEntity
  8
Dim
390
1D
100
AcDbMText
 10
1163.504789794295
 20
1670.912349670417
 30
34.99521132346015
 40
24.0
 41
1169.771715461011
 46
120.6272086110942
 71
     1
 72
     1
  1
{※陶器製品には寸法公差があります。\P  必ず現物を合わせてカウンターに切込を\P  行ってください。}
  7
ＭＳ ゴシック
 73
     1
 44
1.174240107638677
1001
ACAD
1000
ACAD_MTEXT_DEFINED_HEIGHT_BEGIN
1070
    46
1040
120.6272086110942
1000
ACAD_MTEXT_DEFINED_HEIGHT_END
  0
SPLINE
  5
3B67
330
A
100
AcDbEntity
  8
HIDDEN
100
AcDbSpline
210
0.0
220
0.0
230
1.0
 70
    11
 71
     3
 72
   200
 73
   196
 74
     0
 42
0.000000001
 43
0.0000000001
 40
0.0
 40
0.0
 40
0.0
 40
0.0
 40
1.0
 40
1.0
 40
1.0
 40
2.0
 40
2.0
 40
2.0
 40
3.0
 40
3.0
 40
3.0
 40
4.0
 40
4.0
 40
4.0
 40
5.0
 40
5.0
 40
5.0
 40
6.0
 40
6.0
 40
6.0
 40
7.0
 40
7.0
 40
7.0
 40
8.0
 40
8.0
 40
8.0
 40
9.0
 40
9.0
 40
9.0
 40
10.0
 40
10.0
 40
10.0
 40
11.0
 40
11.0
 40
11.0
 40
12.0
 40
12.0
 40
12.0
 40
13.0
 40
13.0
 40
13.0
 40
14.0
 40
14.0
 40
14.0
 40
15.0
 40
15.0
 40
15.0
 40
16.0
 40
16.0
 40
16.0
 40
17.0
 40
17.0
 40
17.0
 40
18.0
 40
18.0
 40
18.0
 40
19.0
 40
19.0
 40
19.0
 40
20.0
 40
20.0
 40
20.0
 40
21.0
 40
21.0
 40
21.0
 40
22.0
 40
22.0
 40
22.0
 40
23.0
 40
23.0
 40
23.0
 40
24.0
 40
24.0
 40
24.0
 40
25.0
 40
25.0
 40
25.0
 40
26.0
 40
26.0
 40
26.0
 40
27.0
 40
27.0
 40
27.0
 40
28.0
 40
28.0
 40
28.0
 40
29.0
 40
29.0
 40
29.0
 40
30.0
 40
30.0
 40
30.0
 40
31.0
 40
31.0
 40
31.0
 40
32.0
 40
32.0
 40
32.0
 40
33.0
 40
33.0
 40
33.0
 40
34.0
 40
34.0
 40
34.0
 40
35.0
 40
35.0
 40
35.0
 40
36.0
 40
36.0
 40
36.0
 40
37.0
 40
37.0
 40
37.0
 40
38.0
 40
38.0
 40
38.0
 40
39.0
 40
39.0
 40
39.0
 40
40.0
 40
40.0
 40
40.0
 40
41.0
 40
41.0
 40
41.0
 40
42.0
 40
42.0
 40
42.0
 40
43.0
 40
43.0
 40
43.0
 40
44.0
 40
44.0
 40
44.0
 40
45.0
 40
45.0
 40
45.0
 40
46.0
 40
46.0
 40
46.0
 40
47.0
 40
47.0
 40
47.0
 40
48.0
 40
48.0
 40
48.0
 40
49.0
 40
49.0
 40
49.0
 40
50.0
 40
50.0
 40
50.0
 40
51.0
 40
51.0
 40
51.0
 40
52.0
 40
52.0
 40
52.0
 40
53.0
 40
53.0
 40
53.0
 40
54.0
 40
54.0
 40
54.0
 40
55.0
 40
55.0
 40
55.0
 40
56.0
 40
56.0
 40
56.0
 40
57.0
 40
57.0
 40
57.0
 40
58.0
 40
58.0
 40
58.0
 40
59.0
 40
59.0
 40
59.0
 40
60.0
 40
60.0
 40
60.0
 40
61.0
 40
61.0
 40
61.0
 40
62.0
 40
62.0
 40
62.0
 40
63.0
 40
63.0
 40
63.0
 40
64.0
 40
64.0
 40
64.0
 40
65.0
 40
65.0
 40
65.0
 40
65.0
 10
1449.18432196125
 20
2214.514761572719
 30
0.0
 10
1449.18432196125
 20
2214.514761572719
 30
0.0
 10
1455.788883964452
 20
2214.514761573015
 30
0.0
 10
1455.788883964452
 20
2214.514761573015
 30
0.0
 10
1455.788883964452
 20
2214.514761573015
 30
0.0
 10
1462.308775408701
 20
2214.430091014351
 30
0.0
 10
1462.308775408701
 20
2214.430091014351
 30
0.0
 10
1462.308775408701
 20
2214.430091014351
 30
0.0
 10
1468.828709920379
 20
2214.345420455688
 30
0.0
 10
1468.828709920379
 20
2214.345420455688
 30
0.0
 10
1468.828709920379
 20
2214.345420455688
 30
0.0
 10
1475.433271923598
 20
2214.176057804355
 30
0.0
 10
1475.433271923598
 20
2214.176057804355
 30
0.0
 10
1475.433271923598
 20
2214.176057804355
 30
0.0
 10
1481.953163367848
 20
2214.006716686734
 30
0.0
 10
1481.953163367848
 20
2214.006716686734
 30
0.0
 10
1513.447639647559
 20
2212.629355812621
 30
0.0
 10
1546.981401602349
 20
2210.883660780168
 30
0.0
 10
1577.634771058104
 20
2203.168454470272
 30
0.0
 10
1577.634771058104
 20
2203.168454470272
 30
0.0
 10
1579.921005352255
 20
2202.491046931292
 30
0.0
 10
1579.921005352255
 20
2202.491046931292
 30
0.0
 10
1579.921005352255
 20
2202.491046931292
 30
0.0
 10
1582.122526020026
 20
2201.898331484979
 30
0.0
 10
1582.122526020026
 20
2201.898331484979
 30
0.0
 10
1593.340384531192
 20
2198.437993031503
 30
0.0
 10
1604.120807199412
 20
2193.867010269941
 30
0.0
 10
1612.85918787749
 20
2185.810279273134
 30
0.0
 10
1612.85918787749
 20
2185.810279273134
 30
0.0
 10
1615.653402458049
 20
2183.0160216254
 30
0.0
 10
1615.653402458049
 20
2183.0160216254
 30
0.0
 10
1615.653402458049
 20
2183.0160216254
 30
0.0
 10
1618.193648429184
 20
2179.967773834497
 30
0.0
 10
1618.193648429184
 20
2179.967773834497
 30
0.0
 10
1625.491122245117
 20
2171.123576492127
 30
0.0
 10
1630.167943206412
 20
2158.711781271918
 30
0.0
 10
1633.011599192067
 20
2147.706977316043
 30
0.0
 10
1633.011599192067
 20
2147.706977316043
 30
0.0
 10
1634.197030085103
 20
2143.134573329
 30
0.0
 10
1634.197030085103
 20
2143.134573329
 30
0.0
 10
1634.197030085103
 20
2143.134573329
 30
0.0
 10
1635.213119860219
 20
2138.562169341949
 30
0.0
 10
1635.213119860219
 20
2138.562169341949
 30
0.0
 10
1641.663845020208
 20
2106.342308411264
 30
0.0
 10
1643.388437017122
 20
2071.795320665531
 30
0.0
 10
1644.188543653541
 20
2038.985543670851
 30
0.0
 10
1644.188543653541
 20
2038.985543670851
 30
0.0
 10
1644.357884772039
 20
2025.861090223408
 30
0.0
 10
1644.357884772039
 20
2025.861090223408
 30
0.0
 10
1644.357884772039
 20
2025.861090223408
 30
0.0
 10
1644.35788477263
 20
2012.821307334915
 30
0.0
 10
1644.35788477263
 20
2012.821307334915
 30
0.0
 10
1644.35788477263
 20
2012.821307334915
 30
0.0
 10
1644.188543655306
 20
1999.696810820031
 30
0.0
 10
1644.188543655306
 20
1999.696810820031
 30
0.0
 10
1643.388437021822
 20
1966.905402082346
 30
0.0
 10
1641.668065635737
 20
1932.321699356037
 30
0.0
 10
1635.213119870917
 20
1900.120185148126
 30
0.0
 10
1635.213119870917
 20
1900.120185148126
 30
0.0
 10
1634.197030096221
 20
1895.463089068315
 30
0.0
 10
1634.197030096221
 20
1895.463089068315
 30
0.0
 10
1634.197030096221
 20
1895.463089068315
 30
0.0
 10
1633.011599203596
 20
1890.890706614876
 30
0.0
 10
1633.011599203596
 20
1890.890706614876
 30
0.0
 10
1629.966129262061
 20
1879.427277642294
 30
0.0
 10
1625.666105209415
 20
1867.98779415835
 30
0.0
 10
1618.193648443607
 20
1858.629931628807
 30
0.0
 10
1618.193648443607
 20
1858.629931628807
 30
0.0
 10
1616.92350392446
 20
1857.19044599163
 30
0.0
 10
1616.92350392446
 20
1857.19044599163
 30
0.0
 10
1616.92350392446
 20
1857.19044599163
 30
0.0
 10
1615.653402472756
 20
1855.666332862918
 30
0.0
 10
1615.653402472756
 20
1855.666332862918
 30
0.0
 10
1615.653402472756
 20
1855.666332862918
 30
0.0
 10
1614.29863046207
 20
1854.226890293163
 30
0.0
 10
1614.29863046207
 20
1854.226890293163
 30
0.0
 10
1614.29863046207
 20
1854.226890293163
 30
0.0
 10
1612.859187892448
 20
1852.872075214935
 30
0.0
 10
1612.859187892448
 20
1852.872075214935
 30
0.0
 10
1604.242171220749
 20
1844.909898750508
 30
0.0
 10
1593.252914605654
 20
1840.086304002432
 30
0.0
 10
1582.122526036412
 20
1836.78402300033
 30
0.0
 10
1582.122526036412
 20
1836.78402300033
 30
0.0
 10
1579.921005368708
 20
1836.10661546115
 30
0.0
 10
1579.921005368708
 20
1836.10661546115
 30
0.0
 10
1579.921005368708
 20
1836.10661546115
 30
0.0
 10
1577.634771074614
 20
1835.513921548348
 30
0.0
 10
1577.634771074614
 20
1835.513921548348
 30
0.0
 10
1545.436099317455
 20
1827.420475569279
 30
0.0
 10
1508.564784139558
 20
1825.592952424806
 30
0.0
 10
1475.433271941096
 20
1824.506318205086
 30
0.0
 10
1475.433271941096
 20
1824.506318205086
 30
0.0
 10
1468.828709937893
 20
1824.33693401945
 30
0.0
 10
1468.828709937893
 20
1824.33693401945
 30
0.0
 10
1468.828709937893
 20
1824.33693401945
 30
0.0
 10
1455.788883981979
 20
1824.167592900948
 30
0.0
 10
1455.788883981979
 20
1824.167592900948
 30
0.0
 10
1455.788883981979
 20
1824.167592900948
 30
0.0
 10
1442.664430534526
 20
1824.167592900361
 30
0.0
 10
1442.664430534526
 20
1824.167592900361
 30
0.0
 10
1442.664430534526
 20
1824.167592900361
 30
0.0
 10
1436.059868531325
 20
1824.25226345902
 30
0.0
 10
1436.059868531325
 20
1824.25226345902
 30
0.0
 10
1436.059868531325
 20
1824.25226345902
 30
0.0
 10
1429.539934019646
 20
1824.336934017684
 30
0.0
 10
1429.539934019646
 20
1824.336934017684
 30
0.0
 10
1429.539934019646
 20
1824.336934017684
 30
0.0
 10
1423.020042575396
 20
1824.506318202731
 30
0.0
 10
1423.020042575396
 20
1824.506318202731
 30
0.0
 10
1391.011858041769
 20
1825.4828720794
 30
0.0
 10
1356.692072500239
 20
1827.365435390741
 30
0.0
 10
1325.390925894308
 20
1834.328490644198
 30
0.0
 10
1325.390925894308
 20
1834.328490644198
 30
0.0
 10
1318.532309146737
 20
1836.106615449414
 30
0.0
 10
1318.532309146737
 20
1836.106615449414
 30
0.0
 10
1307.534611315837
 20
1839.221208609254
 30
0.0
 10
1295.675995644809
 20
1843.931923633502
 30
0.0
 10
1287.033612258665
 20
1851.601973748524
 30
0.0
 10
1287.033612258665
 20
1851.601973748524
 30
0.0
 10
1285.509456062536
 20
1852.872075200234
 30
0.0
 10
1285.509456062536
 20
1852.872075200234
 30
0.0
 10
1285.509456062536
 20
1852.872075200234
 30
0.0
 10
1282.715241481975
 20
1855.666332847973
 30
0.0
 10
1282.715241481975
 20
1855.666332847973
 30
0.0
 10
1282.715241481975
 20
1855.666332847973
 30
0.0
 10
1281.44514003013
 20
1857.190445976566
 30
0.0
 10
1281.44514003013
 20
1857.190445976566
 30
0.0
 10
1273.837150074789
 20
1865.742516970292
 30
0.0
 10
1269.07143794683
 20
1877.692866257668
 30
0.0
 10
1266.034452287143
 20
1888.604515371711
 30
0.0
 10
1266.034452287143
 20
1888.604515371711
 30
0.0
 10
1265.357066281674
 20
1890.890706598371
 30
0.0
 10
1265.357066281674
 20
1890.890706598371
 30
0.0
 10
1265.357066281674
 20
1890.890706598371
 30
0.0
 10
1264.256305947604
 20
1895.463089051705
 30
0.0
 10
1264.256305947604
 20
1895.463089051705
 30
0.0
 10
1257.115446824269
 20
1926.706439171683
 30
0.0
 10
1255.44595959857
 20
1961.109474046963
 30
0.0
 10
1254.349441404698
 20
1993.092248799325
 30
0.0
 10
1254.349441404698
 20
1993.092248799325
 30
0.0
 10
1254.180100286498
 20
1999.696810802521
 30
0.0
 10
1254.180100286498
 20
1999.696810802521
 30
0.0
 10
1254.180100286498
 20
1999.696810802521
 30
0.0
 10
1254.010737634274
 20
2012.82130731739
 30
0.0
 10
1254.010737634274
 20
2012.82130731739
 30
0.0
 10
1254.010737634274
 20
2012.82130731739
 30
0.0
 10
1254.010737633694
 20
2025.861090205883
 30
0.0
 10
1254.010737633694
 20
2025.861090205883
 30
0.0
 10
1254.010737633694
 20
2025.861090205883
 30
0.0
 10
1254.095408192351
 20
2032.46565220909
 30
0.0
 10
1254.095408192351
 20
2032.46565220909
 30
0.0
 10
1254.678261196771
 20
2065.96267764969
 30
0.0
 10
1256.253193886197
 20
2100.820160001269
 30
0.0
 10
1262.224126387083
 20
2133.820445753906
 30
0.0
 10
1262.224126387083
 20
2133.820445753906
 30
0.0
 10
1263.155524069109
 20
2138.562169325246
 30
0.0
 10
1263.155524069109
 20
2138.562169325246
 30
0.0
 10
1263.155524069109
 20
2138.562169325246
 30
0.0
 10
1264.256305936484
 20
2143.134573312391
 30
0.0
 10
1264.256305936484
 20
2143.134573312391
 30
0.0
 10
1267.157801473812
 20
2155.567536172682
 30
0.0
 10
1271.357629160485
 20
2167.999099341694
 30
0.0
 10
1278.904894044714
 20
2178.443639156897
 30
0.0
 10
1278.904894044714
 20
2178.443639156897
 30
0.0
 10
1282.715241467286
 20
2183.016021610453
 30
0.0
 10
1282.715241467286
 20
2183.016021610453
 30
0.0
 10
1282.715241467286
 20
2183.016021610453
 30
0.0
 10
1284.154684036921
 20
2184.370815154968
 30
0.0
 10
1284.154684036921
 20
2184.370815154968
 30
0.0
 10
1291.864270048769
 20
2192.452955933684
 30
0.0
 10
1303.478693415534
 20
2197.907359266247
 30
0.0
 10
1314.044597235913
 20
2201.136274908617
 30
0.0
 10
1314.044597235913
 20
2201.136274908617
 30
0.0
 10
1316.246117903615
 20
2201.898331473042
 30
0.0
 10
1316.246117903615
 20
2201.898331473042
 30
0.0
 10
1316.246117903615
 20
2201.898331473042
 30
0.0
 10
1318.532309130282
 20
2202.491046919557
 30
0.0
 10
1318.532309130282
 20
2202.491046919557
 30
0.0
 10
1349.394598667472
 20
2210.899186578267
 30
0.0
 10
1384.547006750206
 20
2212.554547688367
 30
0.0
 10
1416.415480554708
 20
2214.006716683792
 30
0.0
 10
1416.415480554708
 20
2214.006716683792
 30
0.0
 10
1423.020042557896
 20
2214.176057802003
 30
0.0
 10
1423.020042557896
 20
2214.176057802003
 30
0.0
 10
1423.020042557896
 20
2214.176057802003
 30
0.0
 10
1429.539934002134
 20
2214.345420453923
 30
0.0
 10
1429.539934002134
 20
2214.345420453923
 30
0.0
 10
1429.539934002134
 20
2214.345420453923
 30
0.0
 10
1436.059868513811
 20
2214.430091013172
 30
0.0
 10
1436.059868513811
 20
2214.430091013172
 30
0.0
 10
1436.059868513811
 20
2214.430091013172
 30
0.0
 10
1442.664430516998
 20
2214.514761572426
 30
0.0
 10
1442.664430516998
 20
2214.514761572426
 30
0.0
 10
1442.664430516998
 20
2214.514761572426
 30
0.0
 10
1449.18432196125
 20
2214.514761572719
 30
0.0
 10
1449.18432196125
 20
2214.514761572719
 30
0.0
  0
SPLINE
  5
3B68
330
A
100
AcDbEntity
  8
HIDDEN
100
AcDbSpline
210
0.0
220
0.0
230
1.0
 70
    11
 71
     3
 72
   218
 73
   214
 74
     0
 42
0.000000001
 43
0.0000000001
 40
0.0
 40
0.0
 40
0.0
 40
0.0
 40
1.0
 40
1.0
 40
1.0
 40
2.0
 40
2.0
 40
2.0
 40
3.0
 40
3.0
 40
3.0
 40
4.0
 40
4.0
 40
4.0
 40
5.0
 40
5.0
 40
5.0
 40
6.0
 40
6.0
 40
6.0
 40
7.0
 40
7.0
 40
7.0
 40
8.0
 40
8.0
 40
8.0
 40
9.0
 40
9.0
 40
9.0
 40
10.0
 40
10.0
 40
10.0
 40
11.0
 40
11.0
 40
11.0
 40
12.0
 40
12.0
 40
12.0
 40
13.0
 40
13.0
 40
13.0
 40
14.0
 40
14.0
 40
14.0
 40
15.0
 40
15.0
 40
15.0
 40
16.0
 40
16.0
 40
16.0
 40
17.0
 40
17.0
 40
17.0
 40
18.0
 40
18.0
 40
18.0
 40
19.0
 40
19.0
 40
19.0
 40
20.0
 40
20.0
 40
20.0
 40
21.0
 40
21.0
 40
21.0
 40
22.0
 40
22.0
 40
22.0
 40
23.0
 40
23.0
 40
23.0
 40
24.0
 40
24.0
 40
24.0
 40
25.0
 40
25.0
 40
25.0
 40
26.0
 40
26.0
 40
26.0
 40
27.0
 40
27.0
 40
27.0
 40
28.0
 40
28.0
 40
28.0
 40
29.0
 40
29.0
 40
29.0
 40
30.0
 40
30.0
 40
30.0
 40
31.0
 40
31.0
 40
31.0
 40
32.0
 40
32.0
 40
32.0
 40
33.0
 40
33.0
 40
33.0
 40
34.0
 40
34.0
 40
34.0
 40
35.0
 40
35.0
 40
35.0
 40
36.0
 40
36.0
 40
36.0
 40
37.0
 40
37.0
 40
37.0
 40
38.0
 40
38.0
 40
38.0
 40
39.0
 40
39.0
 40
39.0
 40
40.0
 40
40.0
 40
40.0
 40
41.0
 40
41.0
 40
41.0
 40
42.0
 40
42.0
 40
42.0
 40
43.0
 40
43.0
 40
43.0
 40
44.0
 40
44.0
 40
44.0
 40
45.0
 40
45.0
 40
45.0
 40
46.0
 40
46.0
 40
46.0
 40
47.0
 40
47.0
 40
47.0
 40
48.0
 40
48.0
 40
48.0
 40
49.0
 40
49.0
 40
49.0
 40
50.0
 40
50.0
 40
50.0
 40
51.0
 40
51.0
 40
51.0
 40
52.0
 40
52.0
 40
52.0
 40
53.0
 40
53.0
 40
53.0
 40
54.0
 40
54.0
 40
54.0
 40
55.0
 40
55.0
 40
55.0
 40
56.0
 40
56.0
 40
56.0
 40
57.0
 40
57.0
 40
57.0
 40
58.0
 40
58.0
 40
58.0
 40
59.0
 40
59.0
 40
59.0
 40
60.0
 40
60.0
 40
60.0
 40
61.0
 40
61.0
 40
61.0
 40
62.0
 40
62.0
 40
62.0
 40
63.0
 40
63.0
 40
63.0
 40
64.0
 40
64.0
 40
64.0
 40
65.0
 40
65.0
 40
65.0
 40
66.0
 40
66.0
 40
66.0
 40
67.0
 40
67.0
 40
67.0
 40
68.0
 40
68.0
 40
68.0
 40
69.0
 40
69.0
 40
69.0
 40
70.0
 40
70.0
 40
70.0
 40
71.0
 40
71.0
 40
71.0
 40
71.0
 10
1649.184278902594
 20
2019.341155711952
 30
0.0
 10
1649.184278902594
 20
2019.341155711952
 30
0.0
 10
1649.184278902298
 20
2025.945717715157
 30
0.0
 10
1649.184278902298
 20
2025.945717715157
 30
0.0
 10
1649.184278902298
 20
2025.945717715157
 30
0.0
 10
1649.099608343037
 20
2032.634993344739
 30
0.0
 10
1649.099608343037
 20
2032.634993344739
 30
0.0
 10
1649.099608343037
 20
2032.634993344739
 30
0.0
 10
1649.014937783801
 20
2038.900830044685
 30
0.0
 10
1649.014937783801
 20
2038.900830044685
 30
0.0
 10
1649.014937783801
 20
2038.900830044685
 30
0.0
 10
1648.845596665601
 20
2045.082039253095
 30
0.0
 10
1648.845596665601
 20
2045.082039253095
 30
0.0
 10
1648.845596665601
 20
2045.082039253095
 30
0.0
 10
1648.676255547431
 20
2050.924566225679
 30
0.0
 10
1648.676255547431
 20
2050.924566225679
 30
0.0
 10
1647.830928114378
 20
2075.480018873976
 30
0.0
 10
1646.351906579305
 20
2100.962670130476
 30
0.0
 10
1642.495046335671
 20
2125.268331709487
 30
0.0
 10
1642.495046335671
 20
2125.268331709487
 30
0.0
 10
1642.325705217709
 20
2126.453762602303
 30
0.0
 10
1642.325705217709
 20
2126.453762602303
 30
0.0
 10
1642.325705217709
 20
2126.453762602303
 30
0.0
 10
1642.156321032322
 20
2127.554522936163
 30
0.0
 10
1642.156321032322
 20
2127.554522936163
 30
0.0
 10
1639.276014667108
 20
2144.789934437749
 30
0.0
 10
1634.777019106256
 20
2164.346809387616
 30
0.0
 10
1624.798167365002
 20
2179.036333085127
 30
0.0
 10
1624.798167365002
 20
2179.036333085127
 30
0.0
 10
1623.189340609865
 20
2181.322524311746
 30
0.0
 10
1623.189340609865
 20
2181.322524311746
 30
0.0
 10
1623.189340609865
 20
2181.322524311746
 30
0.0
 10
1621.495886363201
 20
2183.524044979403
 30
0.0
 10
1621.495886363201
 20
2183.524044979403
 30
0.0
 10
1621.495886363201
 20
2183.524044979403
 30
0.0
 10
1617.770209499201
 20
2187.588404078878
 30
0.0
 10
1617.770209499201
 20
2187.588404078878
 30
0.0
 10
1605.808619612958
 20
2199.699610200979
 30
0.0
 10
1589.246395042352
 20
2205.360069630613
 30
0.0
 10
1573.06234553703
 20
2209.264950052102
 30
0.0
 10
1573.06234553703
 20
2209.264950052102
 30
0.0
 10
1571.453518781978
 20
2209.603653821571
 30
0.0
 10
1571.453518781978
 20
2209.603653821571
 30
0.0
 10
1571.453518781978
 20
2209.603653821571
 30
0.0
 10
1569.506052858517
 20
2210.027006616269
 30
0.0
 10
1569.506052858517
 20
2210.027006616269
 30
0.0
 10
1537.737753885879
 20
2216.493279114073
 30
0.0
 10
1503.681885529147
 20
2218.19945978341
 30
0.0
 10
1471.368869756305
 20
2219.087122493385
 30
0.0
 10
1471.368869756305
 20
2219.087122493385
 30
0.0
 10
1464.25628439935
 20
2219.256485144692
 30
0.0
 10
1464.25628439935
 20
2219.256485144692
 30
0.0
 10
1464.25628439935
 20
2219.256485144692
 30
0.0
 10
1456.720260112765
 20
2219.341155703312
 30
0.0
 10
1456.720260112765
 20
2219.341155703312
 30
0.0
 10
1456.720260112765
 20
2219.341155703312
 30
0.0
 10
1442.579716890407
 20
2219.341155702676
 30
0.0
 10
1442.579716890407
 20
2219.341155702676
 30
0.0
 10
1442.579716890407
 20
2219.341155702676
 30
0.0
 10
1435.890441260827
 20
2219.256485143419
 30
0.0
 10
1435.890441260827
 20
2219.256485143419
 30
0.0
 10
1435.890441260827
 20
2219.256485143419
 30
0.0
 10
1429.624561493458
 20
2219.171814584181
 30
0.0
 10
1429.624561493458
 20
2219.171814584181
 30
0.0
 10
1401.806363740352
 20
2218.501470101668
 30
0.0
 10
1373.611326012267
 20
2217.12128830849
 30
0.0
 10
1346.05136054391
 20
2213.075275930967
 30
0.0
 10
1346.05136054391
 20
2213.075275930967
 30
0.0
 10
1344.611874906803
 20
2212.905934812988
 30
0.0
 10
1344.611874906803
 20
2212.905934812988
 30
0.0
 10
1344.611874906803
 20
2212.905934812988
 30
0.0
 10
1343.257102896076
 20
2212.651901602344
 30
0.0
 10
1343.257102896076
 20
2212.651901602344
 30
0.0
 10
1326.299691627476
 20
2209.959283078412
 30
0.0
 10
1306.600306565912
 20
2205.691710329646
 30
0.0
 10
1291.859963306015
 20
2196.479157294142
 30
0.0
 10
1291.859963306015
 20
2196.479157294142
 30
0.0
 10
1289.48910152044
 20
2194.955044165383
 30
0.0
 10
1289.48910152044
 20
2194.955044165383
 30
0.0
 10
1289.48910152044
 20
2194.955044165383
 30
0.0
 10
1287.202910293815
 20
2193.346238943958
 30
0.0
 10
1287.202910293815
 20
2193.346238943958
 30
0.0
 10
1287.202910293815
 20
2193.346238943958
 30
0.0
 10
1282.969210076415
 20
2189.789924731582
 30
0.0
 10
1282.969210076415
 20
2189.789924731582
 30
0.0
 10
1269.933647796163
 20
2178.220636026139
 30
0.0
 10
1263.7058827013
 20
2161.346517158474
 30
0.0
 10
1259.68385888188
 20
2144.828027558753
 30
0.0
 10
1259.68385888188
 20
2144.828027558753
 30
0.0
 10
1259.260506087178
 20
2143.219222337412
 30
0.0
 10
1259.260506087178
 20
2143.219222337412
 30
0.0
 10
1259.260506087178
 20
2143.219222337412
 30
0.0
 10
1258.921780784
 20
2141.525746557117
 30
0.0
 10
1258.921780784
 20
2141.525746557117
 30
0.0
 10
1252.483760517381
 20
2111.505985068539
 30
0.0
 10
1250.704171420841
 20
2079.140750041979
 30
0.0
 10
1249.607631696063
 20
2048.553704422113
 30
0.0
 10
1249.607631696063
 20
2048.553704422113
 30
0.0
 10
1249.268949460863
 20
2034.413118132311
 30
0.0
 10
1249.268949460863
 20
2034.413118132311
 30
0.0
 10
1249.268949460863
 20
2034.413118132311
 30
0.0
 10
1249.18427890225
 20
2026.87713691315
 30
0.0
 10
1249.18427890225
 20
2026.87713691315
 30
0.0
 10
1249.18427890225
 20
2026.87713691315
 30
0.0
 10
1249.184278902885
 20
2012.651923131831
 30
0.0
 10
1249.184278902885
 20
2012.651923131831
 30
0.0
 10
1249.184278902885
 20
2012.651923131831
 30
0.0
 10
1249.268949462148
 20
2006.047318061207
 30
0.0
 10
1249.268949462148
 20
2006.047318061207
 30
0.0
 10
1249.268949462148
 20
2006.047318061207
 30
0.0
 10
1249.353620021383
 20
1999.78148136126
 30
0.0
 10
1249.353620021383
 20
1999.78148136126
 30
0.0
 10
1249.353620021383
 20
1999.78148136126
 30
0.0
 10
1249.522961139582
 20
1993.515601593893
 30
0.0
 10
1249.522961139582
 20
1993.515601593893
 30
0.0
 10
1250.225778461019
 20
1967.196064120849
 30
0.0
 10
1251.810573593684
 20
1940.835655660842
 30
0.0
 10
1255.619499792574
 20
1914.768751707185
 30
0.0
 10
1255.619499792574
 20
1914.768751707185
 30
0.0
 10
1255.873511469513
 20
1913.329309137502
 30
0.0
 10
1255.873511469513
 20
1913.329309137502
 30
0.0
 10
1255.873511469513
 20
1913.329309137502
 30
0.0
 10
1256.042895654901
 20
1912.228548803643
 30
0.0
 10
1256.042895654901
 20
1912.228548803643
 30
0.0
 10
1258.872382457752
 20
1895.230223480619
 30
0.0
 10
1262.914174227158
 20
1876.793876813002
 30
0.0
 10
1272.046277311426
 20
1861.932169547443
 30
0.0
 10
1272.046277311426
 20
1861.932169547443
 30
0.0
 10
1273.570390440183
 20
1859.64597832082
 30
0.0
 10
1273.570390440183
 20
1859.64597832082
 30
0.0
 10
1273.570390440183
 20
1859.64597832082
 30
0.0
 10
1275.17921719532
 20
1857.359787094201
 30
0.0
 10
1275.17921719532
 20
1857.359787094201
 30
0.0
 10
1275.17921719532
 20
1857.359787094201
 30
0.0
 10
1276.957342000947
 20
1855.158266426545
 30
0.0
 10
1276.957342000947
 20
1855.158266426545
 30
0.0
 10
1276.957342000947
 20
1855.158266426545
 30
0.0
 10
1278.735509873974
 20
1853.126086876804
 30
0.0
 10
1278.735509873974
 20
1853.126086876804
 30
0.0
 10
1290.031018954143
 20
1840.252802656634
 30
0.0
 10
1307.418846075753
 20
1833.684934100923
 30
0.0
 10
1323.697385513101
 20
1829.840735682269
 30
0.0
 10
1323.697385513101
 20
1829.840735682269
 30
0.0
 10
1325.306212268154
 20
1829.417382887556
 30
0.0
 10
1325.306212268154
 20
1829.417382887556
 30
0.0
 10
1325.306212268154
 20
1829.417382887556
 30
0.0
 10
1326.999709582157
 20
1829.078657584379
 30
0.0
 10
1326.999709582157
 20
1829.078657584379
 30
0.0
 10
1356.787983657513
 20
1822.564407974239
 30
0.0
 10
1389.611908301655
 20
1820.831417832338
 30
0.0
 10
1419.971773250875
 20
1819.764508496445
 30
0.0
 10
1419.971773250875
 20
1819.764508496445
 30
0.0
 10
1427.08435860783
 20
1819.59516737885
 30
0.0
 10
1427.08435860783
 20
1819.59516737885
 30
0.0
 10
1427.08435860783
 20
1819.59516737885
 30
0.0
 10
1434.112316473248
 20
1819.425826261252
 30
0.0
 10
1434.112316473248
 20
1819.425826261252
 30
0.0
 10
1434.112316473248
 20
1819.425826261252
 30
0.0
 10
1441.648297692419
 20
1819.341155702634
 30
0.0
 10
1441.648297692419
 20
1819.341155702634
 30
0.0
 10
1441.648297692419
 20
1819.341155702634
 30
0.0
 10
1455.873554541155
 20
1819.341155703273
 30
0.0
 10
1455.873554541155
 20
1819.341155703273
 30
0.0
 10
1455.873554541155
 20
1819.341155703273
 30
0.0
 10
1462.478116544359
 20
1819.425826262528
 30
0.0
 10
1462.478116544359
 20
1819.425826262528
 30
0.0
 10
1491.694885880154
 20
1819.915502894225
 30
0.0
 10
1521.74143530718
 20
1821.212435353577
 30
0.0
 10
1550.708413573663
 20
1825.353023798036
 30
0.0
 10
1550.708413573663
 20
1825.353023798036
 30
0.0
 10
1552.401867820225
 20
1825.607035474982
 30
0.0
 10
1552.401867820225
 20
1825.607035474982
 30
0.0
 10
1552.401867820225
 20
1825.607035474982
 30
0.0
 10
1553.75668289838
 20
1825.776376592958
 30
0.0
 10
1553.75668289838
 20
1825.776376592958
 30
0.0
 10
1570.732397822906
 20
1828.481700007477
 30
0.0
 10
1589.034675594274
 20
1832.24971215159
 30
0.0
 10
1604.137689646148
 20
1840.763668474576
 30
0.0
 10
1604.137689646148
 20
1840.763668474576
 30
0.0
 10
1606.593265058119
 20
1842.203154111808
 30
0.0
 10
1606.593265058119
 20
1842.203154111808
 30
0.0
 10
1606.593265058119
 20
1842.203154111808
 30
0.0
 10
1608.879456284742
 20
1843.727267240562
 30
0.0
 10
1608.879456284742
 20
1843.727267240562
 30
0.0
 10
1608.879456284742
 20
1843.727267240562
 30
0.0
 10
1611.165647511369
 20
1845.336050928275
 30
0.0
 10
1611.165647511369
 20
1845.336050928275
 30
0.0
 10
1611.165647511369
 20
1845.336050928275
 30
0.0
 10
1613.367168179026
 20
1847.029548242365
 30
0.0
 10
1613.367168179026
 20
1847.029548242365
 30
0.0
 10
1627.540184239845
 20
1858.826060685935
 30
0.0
 10
1633.834273170346
 20
1874.874620070061
 30
0.0
 10
1638.346016687538
 20
1892.245478625856
 30
0.0
 10
1638.346016687538
 20
1892.245478625856
 30
0.0
 10
1638.684698923288
 20
1893.854262313481
 30
0.0
 10
1638.684698923288
 20
1893.854262313481
 30
0.0
 10
1638.684698923288
 20
1893.854262313481
 30
0.0
 10
1639.108051718008
 20
1895.463089068534
 30
0.0
 10
1639.108051718008
 20
1895.463089068534
 30
0.0
 10
1645.498137939862
 20
1923.9206227567
 30
0.0
 10
1647.266400303534
 20
1954.401851711613
 30
0.0
 10
1648.5915849915
 20
1983.439374421664
 30
0.0
 10
1648.5915849915
 20
1983.439374421664
 30
0.0
 10
1648.760926109121
 20
1990.128606983833
 30
0.0
 10
1648.760926109121
 20
1990.128606983833
 30
0.0
 10
1648.760926109121
 20
1990.128606983833
 30
0.0
 10
1649.099608344305
 20
2004.269193273635
 30
0.0
 10
1649.099608344305
 20
2004.269193273635
 30
0.0
 10
1649.099608344305
 20
2004.269193273635
 30
0.0
 10
1649.184278902933
 20
2011.805174492797
 30
0.0
 10
1649.184278902933
 20
2011.805174492797
 30
0.0
 10
1649.184278902933
 20
2011.805174492797
 30
0.0
 10
1649.184278902594
 20
2019.341155711952
 30
0.0
 10
1649.184278902594
 20
2019.341155711952
 30
0.0
  0
SPLINE
  5
3B69
330
A
100
AcDbEntity
  8
HIDDEN
 48
0.5
100
AcDbSpline
210
0.0
220
0.0
230
1.0
 70
    11
 71
     3
 72
    29
 73
    25
 74
     0
 42
0.000000001
 43
0.0000000001
 40
0.0
 40
0.0
 40
0.0
 40
0.0
 40
1.0
 40
1.0
 40
1.0
 40
2.0
 40
2.0
 40
2.0
 40
3.0
 40
3.0
 40
3.0
 40
4.0
 40
4.0
 40
4.0
 40
5.0
 40
5.0
 40
5.0
 40
6.0
 40
6.0
 40
6.0
 40
7.0
 40
7.0
 40
7.0
 40
8.0
 40
8.0
 40
8.0
 40
8.0
 10
1471.11485808841
 20
2019.341155703958
 30
0.0
 10
1471.11485808841
 20
2019.341155703958
 30
0.0
 10
1471.114858088368
 20
2020.27257491991
 30
0.0
 10
1471.114858088368
 20
2020.27257491991
 30
0.0
 10
1471.114858088368
 20
2020.27257491991
 30
0.0
 10
1471.030187529359
 20
2021.288664694817
 30
0.0
 10
1471.030187529359
 20
2021.288664694817
 30
0.0
 10
1467.51902951182
 20
2048.398446362191
 30
0.0
 10
1429.491956897381
 20
2047.507984266387
 30
0.0
 10
1427.33841334311
 20
2020.272574917946
 30
0.0
 10
1427.33841334311
 20
2020.272574917946
 30
0.0
 10
1427.2537427842
 20
2019.341155701989
 30
0.0
 10
1427.2537427842
 20
2019.341155701989
 30
0.0
 10
1427.2537427842
 20
2019.341155701989
 30
0.0
 10
1427.338413343209
 20
2018.325065927082
 30
0.0
 10
1427.338413343209
 20
2018.325065927082
 30
0.0
 10
1429.576627458872
 20
1991.113645134961
 30
0.0
 10
1467.551502353425
 20
1990.297991161036
 30
0.0
 10
1471.030187529529
 20
2017.39364671309
 30
0.0
 10
1471.030187529529
 20
2017.39364671309
 30
0.0
 10
1471.114858088453
 20
2018.325065929047
 30
0.0
 10
1471.114858088453
 20
2018.325065929047
 30
0.0
 10
1471.114858088453
 20
2018.325065929047
 30
0.0
 10
1471.11485808841
 20
2019.341155703958
 30
0.0
 10
1471.11485808841
 20
2019.341155703958
 30
0.0
  0
SPLINE
  5
3B95
330
A
100
AcDbEntity
  8
MODEL
100
AcDbSpline
210
0.0
220
0.0
230
1.0
 70
     8
 71
     3
 72
    23
 73
    19
 74
     0
 42
0.000000001
 43
0.0000000001
 40
14.07964001553029
 40
14.07964001553029
 40
14.07964001553029
 40
14.07964001553029
 40
15.0
 40
15.0
 40
15.0
 40
16.0
 40
16.0
 40
16.0
 40
17.0
 40
17.0
 40
17.0
 40
18.0
 40
18.0
 40
18.0
 40
19.0
 40
19.0
 40
19.0
 40
20.0
 40
20.0
 40
20.0
 40
20.0
 10
444.7810319763771
 20
1053.703207195631
 30
0.0
 10
443.5129477100527
 20
1053.703207195574
 30
0.0
 10
435.5515965106533
 20
1053.703207195218
 30
0.0
 10
435.5515965106533
 20
1053.703207195218
 30
0.0
 10
435.5515965106533
 20
1053.703207195218
 30
0.0
 10
435.3822123253099
 20
1053.787877754167
 30
0.0
 10
435.3822123253099
 20
1053.787877754167
 30
0.0
 10
435.3822123253099
 20
1053.787877754167
 30
0.0
 10
435.2128712073959
 20
1053.78787775416
 30
0.0
 10
435.2128712073959
 20
1053.78787775416
 30
0.0
 10
435.2128712073959
 20
1053.78787775416
 30
0.0
 10
435.0435300894778
 20
1053.872548313109
 30
0.0
 10
435.0435300894778
 20
1053.872548313109
 30
0.0
 10
435.0435300894778
 20
1053.872548313109
 30
0.0
 10
434.7895184126028
 20
1053.957218872055
 30
0.0
 10
434.7895184126028
 20
1053.957218872055
 30
0.0
 10
434.7895184126028
 20
1053.957218872055
 30
0.0
 10
434.6201772946847
 20
1054.041889431005
 30
0.0
 10
434.6201772946847
 20
1054.041889431005
 30
0.0
  0
SPLINE
  5
3B96
330
A
100
AcDbEntity
  8
MODEL
100
AcDbSpline
210
0.0
220
0.0
230
1.0
 70
     8
 71
     3
 72
    20
 73
    16
 74
     0
 42
0.000000001
 43
0.0000000001
 40
20.0
 40
20.0
 40
20.0
 40
20.0
 40
21.0
 40
21.0
 40
21.0
 40
22.0
 40
22.0
 40
22.0
 40
23.0
 40
23.0
 40
23.0
 40
24.0
 40
24.0
 40
24.0
 40
25.0
 40
25.0
 40
25.0
 40
25.0
 10
434.6201772946847
 20
1054.041889431005
 30
0.0
 10
434.1347212720084
 20
1054.262050111241
 30
0.0
 10
433.7776492453804
 20
1054.682646590765
 30
0.0
 10
433.4347464018142
 20
1055.058022273287
 30
0.0
 10
433.4347464018142
 20
1055.058022273287
 30
0.0
 10
433.3500758428495
 20
1055.227363391199
 30
0.0
 10
433.3500758428495
 20
1055.227363391199
 30
0.0
 10
433.3500758428495
 20
1055.227363391199
 30
0.0
 10
431.1485121075148
 20
1059.122381372825
 30
0.0
 10
431.1485121075148
 20
1059.122381372825
 30
0.0
 10
431.1485121075148
 20
1059.122381372825
 30
0.0
 10
426.9148118896028
 20
1067.081672319152
 30
0.0
 10
426.9148118896028
 20
1067.081672319152
 30
0.0
 10
426.9148118896028
 20
1067.081672319152
 30
0.0
 10
424.8826323396024
 20
1071.061360859744
 30
0.0
 10
424.8826323396024
 20
1071.061360859744
 30
0.0
  0
SPLINE
  5
3B97
330
A
100
AcDbEntity
  8
MODEL
100
AcDbSpline
210
0.0
220
0.0
230
1.0
 70
     8
 71
     3
 72
    14
 73
    10
 74
     0
 42
0.000000001
 43
0.0000000001
 40
25.0
 40
25.0
 40
25.0
 40
25.0
 40
26.0
 40
26.0
 40
26.0
 40
27.0
 40
27.0
 40
27.0
 40
28.0
 40
28.0
 40
28.0
 40
28.0
 10
424.8826323396024
 20
1071.061360859744
 30
0.0
 10
411.5973220559281
 20
1097.299070223363
 30
0.0
 10
401.0850371791626
 20
1125.100342477714
 30
0.0
 10
393.8919588022732
 20
1153.618515100677
 30
0.0
 10
393.8919588022732
 20
1153.618515100677
 30
0.0
 10
392.7065279092431
 20
1158.190940621434
 30
0.0
 10
392.7065279092431
 20
1158.190940621434
 30
0.0
 10
392.7065279092431
 20
1158.190940621434
 30
0.0
 10
390.6743483590121
 20
1167.335705528109
 30
0.0
 10
390.6743483590121
 20
1167.335705528109
 30
0.0
  0
SPLINE
  5
3B98
330
A
100
AcDbEntity
  8
MODEL
100
AcDbSpline
210
0.0
220
0.0
230
1.0
 70
     8
 71
     3
 72
    11
 73
     7
 74
     0
 42
0.000000001
 43
0.0000000001
 40
28.0
 40
28.0
 40
28.0
 40
28.0
 40
29.0
 40
29.0
 40
29.0
 40
30.0
 40
30.0
 40
30.0
 40
30.0
 10
390.6743483590121
 20
1167.335705528109
 30
0.0
 10
388.9244327169922
 20
1174.923927534582
 30
0.0
 10
387.5893855868862
 20
1182.59819825765
 30
0.0
 10
386.3559775814692
 20
1190.282374488641
 30
0.0
 10
386.3559775814692
 20
1190.282374488641
 30
0.0
 10
386.3559775814615
 20
1190.451715606555
 30
0.0
 10
386.3559775814615
 20
1190.451715606555
 30
0.0
  0
SPLINE
  5
3B99
330
A
100
AcDbEntity
  8
MODEL
100
AcDbSpline
210
0.0
220
0.0
230
1.0
 70
     8
 71
     3
 72
    32
 73
    28
 74
     0
 42
0.000000001
 43
0.0000000001
 40
30.0
 40
30.0
 40
30.0
 40
30.0
 40
31.0
 40
31.0
 40
31.0
 40
32.0
 40
32.0
 40
32.0
 40
33.0
 40
33.0
 40
33.0
 40
34.0
 40
34.0
 40
34.0
 40
35.0
 40
35.0
 40
35.0
 40
36.0
 40
36.0
 40
36.0
 40
37.0
 40
37.0
 40
37.0
 40
38.0
 40
38.0
 40
38.0
 40
39.0
 40
39.0
 40
39.0
 40
39.0
 10
386.3559775814615
 20
1190.451715606555
 30
0.0
 10
386.1654472900786
 20
1190.824291906411
 30
0.0
 10
386.2825906879789
 20
1191.867212687547
 30
0.0
 10
386.4406481403389
 20
1192.229883479506
 30
0.0
 10
386.4406481403389
 20
1192.229883479506
 30
0.0
 10
386.6946598171871
 20
1192.737906833262
 30
0.0
 10
386.6946598171871
 20
1192.737906833262
 30
0.0
 10
386.6946598171871
 20
1192.737906833262
 30
0.0
 10
387.1180556793802
 20
1193.161302695491
 30
0.0
 10
387.1180556793802
 20
1193.161302695491
 30
0.0
 10
387.1180556793802
 20
1193.161302695491
 30
0.0
 10
387.6260790331107
 20
1193.415314372385
 30
0.0
 10
387.6260790331107
 20
1193.415314372385
 30
0.0
 10
387.6260790331107
 20
1193.415314372385
 30
0.0
 10
387.8801337773998
 20
1193.584655490309
 30
0.0
 10
387.8801337773998
 20
1193.584655490309
 30
0.0
 10
387.8801337773998
 20
1193.584655490309
 30
0.0
 10
388.1341454542671
 20
1193.669326049279
 30
0.0
 10
388.1341454542671
 20
1193.669326049279
 30
0.0
 10
388.1341454542671
 20
1193.669326049279
 30
0.0
 10
388.4728276900951
 20
1193.669326049295
 30
0.0
 10
388.4728276900951
 20
1193.669326049295
 30
0.0
 10
388.4728276900951
 20
1193.669326049295
 30
0.0
 10
388.7268393669628
 20
1193.753996608262
 30
0.0
 10
388.7268393669628
 20
1193.753996608262
 30
0.0
 10
388.7268393669628
 20
1193.753996608262
 30
0.0
 10
389.0655646702203
 20
1193.66932604932
 30
0.0
 10
389.0655646702203
 20
1193.66932604932
 30
0.0
  0
SPLINE
  5
3BAF
330
A
100
AcDbEntity
  8
MODEL
100
AcDbSpline
210
0.0
220
0.0
230
1.0
 70
     8
 71
     3
 72
    20
 73
    16
 74
     0
 42
0.000000001
 43
0.0000000001
 40
77.0
 40
77.0
 40
77.0
 40
77.0
 40
78.0
 40
78.0
 40
78.0
 40
79.0
 40
79.0
 40
79.0
 40
80.0
 40
80.0
 40
80.0
 40
81.0
 40
81.0
 40
81.0
 40
82.0
 40
82.0
 40
82.0
 40
82.0
 10
786.2713070224786
 20
1191.044452604634
 30
0.0
 10
784.6074400978687
 20
1180.114456767026
 30
0.0
 10
782.3960139227202
 20
1168.953016583596
 30
0.0
 10
779.7514155797053
 20
1158.19094063881
 30
0.0
 10
779.7514155797053
 20
1158.19094063881
 30
0.0
 10
778.6506121786174
 20
1153.618515117953
 30
0.0
 10
778.6506121786174
 20
1153.618515117953
 30
0.0
 10
778.6506121786174
 20
1153.618515117953
 30
0.0
 10
777.4651382185702
 20
1149.130803223472
 30
0.0
 10
777.4651382185702
 20
1149.130803223472
 30
0.0
 10
777.4651382185702
 20
1149.130803223472
 30
0.0
 10
776.1950798344201
 20
1144.558420770033
 30
0.0
 10
776.1950798344201
 20
1144.558420770033
 30
0.0
 10
776.1950798344201
 20
1144.558420770033
 30
0.0
 10
774.9249353154132
 20
1140.07070887555
 30
0.0
 10
774.9249353154132
 20
1140.07070887555
 30
0.0
  0
SPLINE
  5
3BB0
330
A
100
AcDbEntity
  8
MODEL
100
AcDbSpline
210
0.0
220
0.0
230
1.0
 70
     8
 71
     3
 72
    35
 73
    31
 74
     0
 42
0.000000001
 43
0.0000000001
 40
82.0
 40
82.0
 40
82.0
 40
82.0
 40
83.0
 40
83.0
 40
83.0
 40
84.0
 40
84.0
 40
84.0
 40
85.0
 40
85.0
 40
85.0
 40
86.0
 40
86.0
 40
86.0
 40
87.0
 40
87.0
 40
87.0
 40
88.0
 40
88.0
 40
88.0
 40
89.0
 40
89.0
 40
89.0
 40
90.0
 40
90.0
 40
90.0
 40
91.0
 40
91.0
 40
91.0
 40
92.0
 40
92.0
 40
92.0
 40
92.0
 10
774.9249353154132
 20
1140.07070887555
 30
0.0
 10
768.088928967476
 20
1116.401497713285
 30
0.0
 10
758.8340837216329
 20
1092.976392719869
 30
0.0
 10
747.5752250223177
 20
1071.061360874232
 30
0.0
 10
747.5752250223177
 20
1071.061360874232
 30
0.0
 10
745.5430454726766
 20
1067.081672333458
 30
0.0
 10
745.5430454726766
 20
1067.081672333458
 30
0.0
 10
745.5430454726766
 20
1067.081672333458
 30
0.0
 10
741.3093452554785
 20
1059.122381386751
 30
0.0
 10
741.3093452554785
 20
1059.122381386751
 30
0.0
 10
741.3093452554785
 20
1059.122381386751
 30
0.0
 10
739.1078245879185
 20
1055.227363404925
 30
0.0
 10
739.1078245879185
 20
1055.227363404925
 30
0.0
 10
739.1078245879185
 20
1055.227363404925
 30
0.0
 10
738.9384834700195
 20
1054.888681169089
 30
0.0
 10
738.9384834700195
 20
1054.888681169089
 30
0.0
 10
738.9384834700195
 20
1054.888681169089
 30
0.0
 10
738.7691423521132
 20
1054.719253916315
 30
0.0
 10
738.7691423521132
 20
1054.719253916315
 30
0.0
 10
738.7691423521132
 20
1054.719253916315
 30
0.0
 10
738.6844717931613
 20
1054.634583357356
 30
0.0
 10
738.6844717931613
 20
1054.634583357356
 30
0.0
 10
738.6844717931613
 20
1054.634583357356
 30
0.0
 10
738.5151306752523
 20
1054.465242239434
 30
0.0
 10
738.5151306752523
 20
1054.465242239434
 30
0.0
 10
738.5151306752523
 20
1054.465242239434
 30
0.0
 10
738.3457895573433
 20
1054.38057168047
 30
0.0
 10
738.3457895573433
 20
1054.38057168047
 30
0.0
 10
738.3457895573433
 20
1054.38057168047
 30
0.0
 10
738.1764484394371
 20
1054.211230562547
 30
0.0
 10
738.1764484394371
 20
1054.211230562547
 30
0.0
  0
SPLINE
  5
3BB1
330
A
100
AcDbEntity
  8
MODEL
100
AcDbSpline
210
0.0
220
0.0
230
1.0
 70
     8
 71
     3
 72
    11
 73
     7
 74
     0
 42
0.000000001
 43
0.0000000001
 40
92.0
 40
92.0
 40
92.0
 40
92.0
 40
93.0
 40
93.0
 40
93.0
 40
94.0
 40
94.0
 40
94.0
 40
94.0
 10
738.1764484394371
 20
1054.211230562547
 30
0.0
 10
737.5752271764591
 20
1053.923367889035
 30
0.0
 10
737.5724708612156
 20
1053.844296095422
 30
0.0
 10
736.9063039202529
 20
1053.703207208749
 30
0.0
 10
736.9063039202529
 20
1053.703207208749
 30
0.0
 10
727.7615390134865
 20
1053.703207208338
 30
0.0
 10
727.7615390134865
 20
1053.703207208338
 30
0.0
  0
SPLINE
  5
3BB9
102
{ACAD_REACTORS
330
3BC9
102
}
330
A
100
AcDbEntity
  8
HIDDEN
 48
0.5
100
AcDbSpline
210
0.0
220
0.0
230
1.0
 70
  1064
 71
     3
 72
    32
 73
    28
 74
    26
 42
0.000000001
 43
0.0000000001
 44
0.0
 40
0.0
 40
0.0
 40
0.0
 40
0.0
 40
1.409123839332446
 40
3.334872850058869
 40
6.213814894553831
 40
16.4566414951298
 40
33.27047004819757
 40
62.14448535182565
 40
81.85454515639083
 40
105.8618756613297
 40
129.0633864506444
 40
144.2280061216545
 40
161.8234743020618
 40
179.7811429495669
 40
188.8951479975156
 40
199.2303710716569
 40
203.3205794233567
 40
207.1240437601593
 40
210.8615929476197
 40
216.7144426232805
 40
221.9579780894844
 40
225.5448322450078
 40
227.1811386420109
 40
229.5977059537081
 40
234.4664421035331
 40
236.4250756910242
 40
237.6632751954421
 40
237.6632751954421
 40
237.6632751954421
 40
237.6632751954421
 10
388.7268393669628
 20
1193.753996608262
 30
0.0
 10
389.2114014795515
 20
1193.675667738923
 30
0.0
 10
390.3581800580791
 20
1193.490292392594
 30
0.0
 10
391.4479082094114
 20
1191.501087371246
 30
0.0
 10
393.1156197817404
 20
1186.901231649431
 30
0.0
 10
397.5033679371781
 20
1177.794201245064
 30
0.0
 10
406.3057919971924
 20
1161.429296643192
 30
0.0
 10
419.3337459879965
 20
1143.748857524211
 30
0.0
 10
436.2570506110265
 20
1126.407746545224
 30
0.0
 10
453.7598649912095
 20
1112.464343982005
 30
0.0
 10
471.5753049420928
 20
1101.637102771921
 30
0.0
 10
488.4609297947184
 20
1093.669554380426
 30
0.0
 10
504.3387123785902
 20
1087.774873503826
 30
0.0
 10
518.7612428473067
 20
1084.026772105546
 30
0.0
 10
530.945183937388
 20
1081.335625665976
 30
0.0
 10
538.761054203092
 20
1080.482339666848
 30
0.0
 10
544.7690637642027
 20
1079.663025031376
 30
0.0
 10
548.6139087267229
 20
1078.938811090156
 30
0.0
 10
552.5564850829762
 20
1076.709619942972
 30
0.0
 10
556.214853273238
 20
1073.372699544469
 30
0.0
 10
559.9101587304485
 20
1070.15614364924
 30
0.0
 10
562.8011105064082
 20
1068.190283242931
 30
0.0
 10
564.3386646785003
 20
1066.029153747209
 30
0.0
 10
564.0891459349382
 20
1062.926943358376
 30
0.0
 10
564.3101725298216
 20
1059.906262785973
 30
0.0
 10
564.2822379047388
 20
1057.208138148949
 30
0.0
 10
564.3759270728115
 20
1056.146558486698
 30
0.0
 10
564.4122148232636
 20
1055.735386750824
 30
0.0
 11
388.7268393669628
 21
1193.753996608262
 31
0.0
 11
390.0801967105308
 21
1193.361499608037
 31
0.0
 11
391.2309280136806
 21
1191.817373084638
 31
0.0
 11
392.3220598752259
 21
1189.153214951891
 31
0.0
 11
396.582146502571
 21
1179.83832586522
 31
0.0
 11
404.6665788409814
 21
1165.095640072678
 31
0.0
 11
421.7413809784121
 21
1141.811312903491
 31
0.0
 11
435.5077875259208
 21
1127.705551376078
 31
0.0
 11
454.264522183747
 21
1112.720998564957
 31
0.0
 11
474.0968903189687
 21
1100.67993228926
 31
0.0
 11
487.8069582690982
 21
1094.199212686529
 31
0.0
 11
504.3108995920416
 21
1088.098358541693
 31
0.0
 11
521.6504130066623
 21
1083.427262546343
 31
0.0
 11
530.5744051498427
 21
1081.575924586248
 31
0.0
 11
540.8164941226282
 21
1080.191565721716
 31
0.0
 11
544.8656379330314
 21
1079.613431859199
 31
0.0
 11
548.5662427838702
 21
1078.734873551926
 31
0.0
 11
551.8643009301309
 21
1076.976440615312
 31
0.0
 11
556.3807030606818
 21
1073.253812360834
 31
0.0
 11
560.4034908243584
 21
1069.890504049996
 31
0.0
 11
563.155253881956
 21
1067.589781813863
 31
0.0
 11
564.0301950755515
 21
1066.207039418251
 31
0.0
 11
564.1993129190919
 21
1063.796397029393
 31
0.0
 11
564.2847123917982
 21
1058.928409906703
 31
0.0
 11
564.3190675653891
 21
1056.970077643757
 31
0.0
 11
564.4122148232636
 21
1055.735386750824
 31
0.0
  0
LINE
  5
3BBC
102
{ACAD_REACTORS
330
3BC9
102
}
330
A
100
AcDbEntity
  8
HIDDEN
 48
0.5
100
AcDbLine
 10
563.748033929538
 20
1066.912331207381
 30
0.0
 11
608.3301693569147
 21
1066.912331207381
 31
0.0
  0
LINE
  5
3BBD
102
{ACAD_REACTORS
330
3BC9
102
}
330
A
100
AcDbEntity
  8
HIDDEN
 48
0.5
100
AcDbLine
 10
564.4122148232636
 20
1055.735386750824
 30
0.0
 11
586.2712639612655
 21
1055.735386750824
 31
0.0
  0
SPLINE
  5
3BC2
330
A
100
AcDbEntity
  8
MODEL
100
AcDbSpline
210
0.0
220
0.0
230
1.0
 70
     8
 71
     3
 72
    32
 73
    28
 74
     0
 42
0.000000001
 43
0.0000000001
 40
30.0
 40
30.0
 40
30.0
 40
30.0
 40
31.0
 40
31.0
 40
31.0
 40
32.0
 40
32.0
 40
32.0
 40
33.0
 40
33.0
 40
33.0
 40
34.0
 40
34.0
 40
34.0
 40
35.0
 40
35.0
 40
35.0
 40
36.0
 40
36.0
 40
36.0
 40
37.0
 40
37.0
 40
37.0
 40
38.0
 40
38.0
 40
38.0
 40
39.0
 40
39.0
 40
39.0
 40
39.0
 10
786.2713070224786
 20
1191.044452604634
 30
0.0
 10
786.3000112698905
 20
1191.459980224628
 30
0.0
 10
786.2599372218829
 20
1191.867212687551
 30
0.0
 10
786.1018797695228
 20
1192.22988347951
 30
0.0
 10
786.1018797695228
 20
1192.22988347951
 30
0.0
 10
785.8138514016614
 20
1192.724387062177
 30
0.0
 10
785.8138514016614
 20
1192.724387062177
 30
0.0
 10
785.8138514016614
 20
1192.724387062177
 30
0.0
 10
785.4244722304816
 20
1193.161302695494
 30
0.0
 10
785.4244722304816
 20
1193.161302695494
 30
0.0
 10
785.4244722304816
 20
1193.161302695494
 30
0.0
 10
785.0310223152778
 20
1193.439215080903
 30
0.0
 10
785.0310223152778
 20
1193.439215080903
 30
0.0
 10
785.0310223152778
 20
1193.439215080903
 30
0.0
 10
784.6623941324619
 20
1193.584655490313
 30
0.0
 10
784.6623941324619
 20
1193.584655490313
 30
0.0
 10
784.6623941324619
 20
1193.584655490313
 30
0.0
 10
784.4083824555946
 20
1193.669326049283
 30
0.0
 10
784.4083824555946
 20
1193.669326049283
 30
0.0
 10
784.4083824555946
 20
1193.669326049283
 30
0.0
 10
784.1107989681054
 20
1193.734402502241
 30
0.0
 10
784.1107989681054
 20
1193.734402502241
 30
0.0
 10
784.1107989681054
 20
1193.734402502241
 30
0.0
 10
783.8156885428989
 20
1193.753996608266
 30
0.0
 10
783.8156885428989
 20
1193.753996608266
 30
0.0
 10
783.8156885428989
 20
1193.753996608266
 30
0.0
 10
783.5971330647158
 20
1193.753996625991
 30
0.0
 10
783.5971330647158
 20
1193.753996625991
 30
0.0
  0
SPLINE
  5
3BC3
330
A
100
AcDbEntity
  8
MODEL
100
AcDbSpline
210
0.0
220
0.0
230
1.0
 70
     8
 71
     3
 72
    11
 73
     7
 74
     0
 42
0.000000001
 43
0.0000000001
 40
1.419912497941286
 40
1.419912497941286
 40
1.419912497941286
 40
1.419912497941286
 40
2.0
 40
2.0
 40
2.0
 40
3.0
 40
3.0
 40
3.0
 40
3.0
 10
710.0029339300045
 20
1053.703207196427
 30
0.0
 10
709.5573612666867
 20
1053.222601125988
 30
0.0
 10
708.9430852053647
 20
1052.896959084618
 30
0.0
 10
708.2865352397548
 20
1052.771744913125
 30
0.0
 10
708.2865352397548
 20
1052.771744913125
 30
0.0
 10
707.778468818583
 20
1052.687074354191
 30
0.0
 10
707.778468818583
 20
1052.687074354191
 30
0.0
  0
SPLINE
  5
3BC4
102
{ACAD_REACTORS
330
3BC9
102
}
330
A
100
AcDbEntity
  8
HIDDEN
 48
0.5
100
AcDbSpline
210
0.0
220
0.0
230
1.0
 70
  1064
 71
     3
 72
    32
 73
    28
 74
    26
 42
0.000000001
 43
0.0000000001
 44
0.0
 40
0.0
 40
0.0
 40
0.0
 40
0.0
 40
1.409123839332455
 40
3.334872850059391
 40
6.213814894554606
 40
16.45664149513039
 40
33.27047004819768
 40
62.14448535182592
 40
81.85454515639081
 40
105.8618756613296
 40
129.063386450645
 40
144.2280061216553
 40
161.8234743020623
 40
179.781142949567
 40
188.8951479975159
 40
199.2303710716571
 40
203.320579423357
 40
207.1240437601596
 40
210.86159294762
 40
216.7144426232811
 40
221.9579780894851
 40
225.5448322450085
 40
227.1811386420116
 40
229.5977059537086
 40
234.4664421035337
 40
236.4250756910246
 40
237.6632751954428
 40
237.6632751954428
 40
237.6632751954428
 40
237.6632751954428
 10
783.8156885555659
 20
1193.753996608271
 30
0.0
 10
783.3311264429773
 20
1193.675667738932
 30
0.0
 10
782.1843478644494
 20
1193.490292392603
 30
0.0
 10
781.0946197131176
 20
1191.501087371254
 30
0.0
 10
779.4269081407881
 20
1186.901231649438
 30
0.0
 10
775.0391599853511
 20
1177.794201245072
 30
0.0
 10
766.2367359253378
 20
1161.4292966432
 30
0.0
 10
753.2087819345347
 20
1143.748857524217
 30
0.0
 10
736.2854773115049
 20
1126.407746545231
 30
0.0
 10
718.7826629313224
 20
1112.464343982012
 30
0.0
 10
700.9672229804403
 20
1101.637102771924
 30
0.0
 10
684.0815981278145
 20
1093.66955438043
 30
0.0
 10
668.2038155439433
 20
1087.774873503828
 30
0.0
 10
653.7812850752267
 20
1084.026772105549
 30
0.0
 10
641.5973439851457
 20
1081.335625665978
 30
0.0
 10
633.7814737194419
 20
1080.48233966685
 30
0.0
 10
627.7734641583309
 20
1079.663025031378
 30
0.0
 10
623.9286191958109
 20
1078.938811090158
 30
0.0
 10
619.9860428395575
 20
1076.709619942974
 30
0.0
 10
616.3276746492966
 20
1073.372699544471
 30
0.0
 10
612.6323691920857
 20
1070.156143649241
 30
0.0
 10
609.7414174161258
 20
1068.190283242933
 30
0.0
 10
608.2038632440339
 20
1066.02915374721
 30
0.0
 10
608.4533819875958
 20
1062.926943358377
 30
0.0
 10
608.2323553927134
 20
1059.906262785974
 30
0.0
 10
608.2602900177956
 20
1057.20813814895
 30
0.0
 10
608.1666008497232
 20
1056.146558486699
 30
0.0
 10
608.130313099271
 20
1055.735386750825
 30
0.0
 11
783.8156885555659
 21
1193.753996608271
 31
0.0
 11
782.4623312119979
 21
1193.361499608046
 31
0.0
 11
781.3115999088482
 21
1191.817373084646
 31
0.0
 11
780.2204680473028
 21
1189.153214951899
 31
0.0
 11
775.9603814199581
 21
1179.838325865228
 31
0.0
 11
767.8759490815487
 21
1165.095640072686
 31
0.0
 11
750.801146944119
 21
1141.811312903498
 31
0.0
 11
737.0347403966107
 21
1127.705551376085
 31
0.0
 11
718.2780057387854
 21
1112.720998564963
 31
0.0
 11
698.4456376035641
 21
1100.679932289264
 31
0.0
 11
684.7355696534346
 21
1094.199212686533
 31
0.0
 11
668.2316283304917
 21
1088.098358541696
 31
0.0
 11
650.8921149158714
 21
1083.427262546346
 31
0.0
 11
641.968122772691
 21
1081.57592458625
 31
0.0
 11
631.7260337999055
 21
1080.191565721718
 31
0.0
 11
627.6768899895023
 21
1079.613431859201
 31
0.0
 11
623.9762851386636
 21
1078.734873551928
 31
0.0
 11
620.6782269924029
 21
1076.976440615314
 31
0.0
 11
616.1618248618524
 21
1073.253812360835
 31
0.0
 11
612.1390370981758
 21
1069.890504049997
 31
0.0
 11
609.3872740405782
 21
1067.589781813864
 31
0.0
 11
608.5123328469826
 21
1066.207039418252
 31
0.0
 11
608.3432150034423
 21
1063.796397029394
 31
0.0
 11
608.2578155307365
 21
1058.928409906704
 31
0.0
 11
608.2234603571455
 21
1056.970077643758
 31
0.0
 11
608.130313099271
 21
1055.735386750825
 31
0.0
  0
LINE
  5
3BC5
102
{ACAD_REACTORS
330
3BC9
102
}
330
A
100
AcDbEntity
  8
HIDDEN
 48
0.5
100
AcDbLine
 10
607.665988463189
 20
1055.735386750824
 30
0.0
 11
585.8069393251872
 21
1055.735386750824
 31
0.0
  0
SPLINE
  5
3BCE
330
A
100
AcDbEntity
  8
MODEL
100
AcDbSpline
210
0.0
220
0.0
230
1.0
 70
    24
 71
     3
 72
    14
 73
    10
 74
     0
 42
0.000000001
 43
0.0000000001
 40
0.0
 40
0.0
 40
0.0
 40
0.0
 40
1.0
 40
1.0
 40
1.0
 40
2.0
 40
2.0
 40
2.0
 40
3.0
 40
3.0
 40
3.0
 40
3.0
 10
1325.517974806917
 20
1053.70320719643
 30
0.0
 10
1325.517974806917
 20
1053.70320719643
 30
0.0
 10
1325.43330424796
 20
1053.703207196427
 30
0.0
 10
1325.43330424796
 20
1053.703207196427
 30
0.0
 10
1319.562568111526
 20
1053.703207196163
 30
0.0
 10
1313.691831975092
 20
1053.703207195901
 30
0.0
 10
1307.821095838658
 20
1053.703207195636
 30
0.0
 10
1307.821095838658
 20
1053.703207195636
 30
0.0
 10
1307.736425279701
 20
1053.703207195631
 30
0.0
 10
1307.736425279701
 20
1053.703207195631
 30
0.0
  0
POLYLINE
  5
3BCF
330
A
100
AcDbEntity
  8
MODEL
100
AcDb2dPolyline
 66
     1
 10
0.0
 20
0.0
 30
0.0
  0
VERTEX
  5
3BD0
330
3BCF
100
AcDbEntity
  8
MODEL
100
AcDbVertex
100
AcDb2dVertex
 10
1380.556077635178
 20
1052.687074356566
 30
0.0
  0
VERTEX
  5
3BD1
330
3BCF
100
AcDbEntity
  8
MODEL
100
AcDbVertex
100
AcDb2dVertex
 10
1346.009068355655
 20
1052.687074355015
 30
0.0
  0
SEQEND
  5
3BD2
330
3BCF
100
AcDbEntity
  8
MODEL
  0
POLYLINE
  5
3BD3
330
A
100
AcDbEntity
  8
MODEL
100
AcDb2dPolyline
 66
     1
 10
0.0
 20
0.0
 30
0.0
  0
VERTEX
  5
3BD4
330
3BD3
100
AcDbEntity
  8
MODEL
100
AcDbVertex
100
AcDb2dVertex
 10
1570.733905189331
 20
1052.687074365103
 30
0.0
  0
VERTEX
  5
3BD5
330
3BD3
100
AcDbEntity
  8
MODEL
100
AcDbVertex
100
AcDb2dVertex
 10
1560.573007440228
 20
1052.687074364649
 30
0.0
  0
SEQEND
  5
3BD6
330
3BD3
100
AcDbEntity
  8
MODEL
  0
POLYLINE
  5
3BD7
330
A
100
AcDbEntity
  8
MODEL
100
AcDb2dPolyline
 66
     1
 10
0.0
 20
0.0
 30
0.0
  0
VERTEX
  5
3BD8
330
3BD7
100
AcDbEntity
  8
MODEL
100
AcDbVertex
100
AcDb2dVertex
 10
1337.880393223799
 20
1052.687074354651
 30
0.0
  0
VERTEX
  5
3BD9
330
3BD7
100
AcDbEntity
  8
MODEL
100
AcDbVertex
100
AcDb2dVertex
 10
1327.719495474696
 20
1052.687074354194
 30
0.0
  0
SEQEND
  5
3BDA
330
3BD7
100
AcDbEntity
  8
MODEL
  0
SPLINE
  5
3BDB
330
A
100
AcDbEntity
  8
MODEL
100
AcDbSpline
210
0.0
220
0.0
230
1.0
 70
    24
 71
     3
 72
    14
 73
    10
 74
     0
 42
0.000000001
 43
0.0000000001
 40
0.0
 40
0.0
 40
0.0
 40
0.0
 40
1.0
 40
1.0
 40
1.0
 40
2.0
 40
2.0
 40
2.0
 40
3.0
 40
3.0
 40
3.0
 40
3.0
 10
1449.226657264588
 20
1052.687074359649
 30
0.0
 10
1449.226657264588
 20
1052.687074359649
 30
0.0
 10
1441.860060230771
 20
1052.687074359318
 30
0.0
 10
1441.860060230771
 20
1052.687074359318
 30
0.0
 10
1426.025976626991
 20
1052.687074358606
 30
0.0
 10
1410.191979158064
 20
1052.687074357896
 30
0.0
 10
1394.357895554285
 20
1052.687074357184
 30
0.0
 10
1394.357895554285
 20
1052.687074357184
 30
0.0
 10
1390.716932316855
 20
1052.687074357023
 30
0.0
 10
1390.716932316855
 20
1052.687074357023
 30
0.0
  0
SPLINE
  5
3BDC
330
A
100
AcDbEntity
  8
MODEL
100
AcDbSpline
210
0.0
220
0.0
230
1.0
 70
    24
 71
     3
 72
    14
 73
    10
 74
     0
 42
0.000000001
 43
0.0000000001
 40
0.0
 40
0.0
 40
0.0
 40
0.0
 40
1.0
 40
1.0
 40
1.0
 40
2.0
 40
2.0
 40
2.0
 40
3.0
 40
3.0
 40
3.0
 40
3.0
 10
1380.556034567753
 20
1052.687074356566
 30
0.0
 10
1380.556034567753
 20
1052.687074356566
 30
0.0
 10
1380.64070512671
 20
1052.687074356571
 30
0.0
 10
1380.64070512671
 20
1052.687074356571
 30
0.0
 10
1383.717183615284
 20
1052.687074356707
 30
0.0
 10
1386.793705171286
 20
1052.687074356846
 30
0.0
 10
1389.870183659859
 20
1052.687074356984
 30
0.0
 10
1389.870183659859
 20
1052.687074356984
 30
0.0
 10
1390.716932316855
 20
1052.687074357023
 30
0.0
 10
1390.716932316855
 20
1052.687074357023
 30
0.0
  0
SPLINE
  5
3BDD
330
A
100
AcDbEntity
  8
MODEL
100
AcDbSpline
210
0.0
220
0.0
230
1.0
 70
    24
 71
     3
 72
    14
 73
    10
 74
     0
 42
0.000000001
 43
0.0000000001
 40
0.0
 40
0.0
 40
0.0
 40
0.0
 40
1.0
 40
1.0
 40
1.0
 40
2.0
 40
2.0
 40
2.0
 40
3.0
 40
3.0
 40
3.0
 40
3.0
 10
1339.319792726069
 20
1052.687074354715
 30
0.0
 10
1339.319792726069
 20
1052.687074354715
 30
0.0
 10
1339.404463285026
 20
1052.687074354717
 30
0.0
 10
1339.404463285026
 20
1052.687074354717
 30
0.0
 10
1341.380181439733
 20
1052.687074354807
 30
0.0
 10
1343.355899594442
 20
1052.687074354894
 30
0.0
 10
1345.331660816573
 20
1052.687074354984
 30
0.0
 10
1345.331660816573
 20
1052.687074354984
 30
0.0
 10
1346.00902528823
 20
1052.687074355015
 30
0.0
 10
1346.00902528823
 20
1052.687074355015
 30
0.0
  0
SPLINE
  5
3BDE
330
A
100
AcDbEntity
  8
MODEL
100
AcDbSpline
210
0.0
220
0.0
230
1.0
 70
    24
 71
     3
 72
    14
 73
    10
 74
     0
 42
0.000000001
 43
0.0000000001
 40
0.0
 40
0.0
 40
0.0
 40
0.0
 40
1.0
 40
1.0
 40
1.0
 40
2.0
 40
2.0
 40
2.0
 40
3.0
 40
3.0
 40
3.0
 40
3.0
 10
1339.319792726069
 20
1052.687074354715
 30
0.0
 10
1339.319792726069
 20
1052.687074354715
 30
0.0
 10
1339.065781049198
 20
1052.687074354702
 30
0.0
 10
1339.065781049198
 20
1052.687074354702
 30
0.0
 10
1338.6988465821
 20
1052.687074354687
 30
0.0
 10
1338.331912115003
 20
1052.687074354671
 30
0.0
 10
1337.96502071533
 20
1052.687074354653
 30
0.0
 10
1337.96502071533
 20
1052.687074354653
 30
0.0
 10
1337.880350156373
 20
1052.687074354651
 30
0.0
 10
1337.880350156373
 20
1052.687074354651
 30
0.0
  0
SPLINE
  5
3BDF
330
A
100
AcDbEntity
  8
MODEL
100
AcDbSpline
210
0.0
220
0.0
230
1.0
 70
    24
 71
     3
 72
    14
 73
    10
 74
     0
 42
0.000000001
 43
0.0000000001
 40
0.0
 40
0.0
 40
0.0
 40
0.0
 40
1.0
 40
1.0
 40
1.0
 40
2.0
 40
2.0
 40
2.0
 40
3.0
 40
3.0
 40
3.0
 40
3.0
 10
1560.573007440228
 20
1052.687074364649
 30
0.0
 10
1560.573007440228
 20
1052.687074364649
 30
0.0
 10
1560.403666322315
 20
1052.687074364641
 30
0.0
 10
1560.403666322315
 20
1052.687074364641
 30
0.0
 10
1526.985669607926
 20
1052.68707436314
 30
0.0
 10
1493.567672893541
 20
1052.687074361641
 30
0.0
 10
1460.149590044305
 20
1052.687074360139
 30
0.0
 10
1460.149590044305
 20
1052.687074360139
 30
0.0
 10
1449.226657264588
 20
1052.687074359649
 30
0.0
 10
1449.226657264588
 20
1052.687074359649
 30
0.0
  0
SPLINE
  5
3BE0
102
{ACAD_REACTORS
330
3BF7
102
}
330
A
100
AcDbEntity
  8
HIDDEN
 48
0.5
100
AcDbSpline
210
0.0
220
0.0
230
1.0
 70
    24
 71
     3
 72
    14
 73
    10
 74
     0
 42
0.000000001
 43
0.0000000001
 40
0.0
 40
0.0
 40
0.0
 40
0.0
 40
1.0
 40
1.0
 40
1.0
 40
2.0
 40
2.0
 40
2.0
 40
3.0
 40
3.0
 40
3.0
 40
3.0
 10
1407.821031236355
 20
1079.613431859199
 30
0.0
 10
1407.821031236355
 20
1079.613431859199
 30
0.0
 10
1407.905701795311
 20
1079.613431859202
 30
0.0
 10
1407.905701795311
 20
1079.613431859202
 30
0.0
 10
1435.453005440689
 20
1079.613431860439
 30
0.0
 10
1463.000222951217
 20
1079.613431861676
 30
0.0
 10
1490.547526596595
 20
1079.613431862914
 30
0.0
 10
1490.547526596595
 20
1079.613431862914
 30
0.0
 10
1490.63219715555
 20
1079.613431862916
 30
0.0
 10
1490.63219715555
 20
1079.613431862916
 30
0.0
  0
SPLINE
  5
3BE1
330
A
100
AcDbEntity
  8
MODEL
100
AcDbSpline
210
0.0
220
0.0
230
1.0
 70
    24
 71
     3
 72
    14
 73
    10
 74
     0
 42
0.000000001
 43
0.0000000001
 40
0.0
 40
0.0
 40
0.0
 40
0.0
 40
1.0
 40
1.0
 40
1.0
 40
2.0
 40
2.0
 40
2.0
 40
3.0
 40
3.0
 40
3.0
 40
3.0
 10
1449.226657258254
 20
1193.753996617131
 30
0.0
 10
1449.226657258254
 20
1193.753996617131
 30
0.0
 10
1470.987852258729
 20
1193.753996618109
 30
0.0
 10
1470.987852258729
 20
1193.753996618109
 30
0.0
 10
1529.497620273889
 20
1193.753996620735
 30
0.0
 10
1588.007302154193
 20
1193.753996623361
 30
0.0
 10
1646.51707016935
 20
1193.75399662599
 30
0.0
 10
1646.51707016935
 20
1193.75399662599
 30
0.0
 10
1646.686411287265
 20
1193.753996625997
 30
0.0
 10
1646.686411287265
 20
1193.753996625997
 30
0.0
  0
SPLINE
  5
3BE2
330
A
100
AcDbEntity
  8
MODEL
100
AcDbSpline
210
0.0
220
0.0
230
1.0
 70
    24
 71
     3
 72
    14
 73
    10
 74
     0
 42
0.000000001
 43
0.0000000001
 40
0.0
 40
0.0
 40
0.0
 40
0.0
 40
1.0
 40
1.0
 40
1.0
 40
2.0
 40
2.0
 40
2.0
 40
3.0
 40
3.0
 40
3.0
 40
3.0
 10
1251.682232670286
 20
1193.753996608262
 30
0.0
 10
1251.682232670286
 20
1193.753996608262
 30
0.0
 10
1251.766903229243
 20
1193.753996608267
 30
0.0
 10
1251.766903229243
 20
1193.753996608267
 30
0.0
 10
1310.333089572089
 20
1193.753996610896
 30
0.0
 10
1368.899275914934
 20
1193.753996613525
 30
0.0
 10
1427.46546225778
 20
1193.753996616156
 30
0.0
 10
1427.46546225778
 20
1193.753996616156
 30
0.0
 10
1449.226657258254
 20
1193.753996617131
 30
0.0
 10
1449.226657258254
 20
1193.753996617131
 30
0.0
  0
SPLINE
  5
3BE3
330
A
100
AcDbEntity
  8
MODEL
100
AcDbSpline
210
0.0
220
0.0
230
1.0
 70
    24
 71
     3
 72
    14
 73
    10
 74
     0
 42
0.000000001
 43
0.0000000001
 40
0.0
 40
0.0
 40
0.0
 40
0.0
 40
1.0
 40
1.0
 40
1.0
 40
2.0
 40
2.0
 40
2.0
 40
3.0
 40
3.0
 40
3.0
 40
3.0
 10
1590.71693231681
 20
1053.703207208338
 30
0.0
 10
1590.71693231681
 20
1053.703207208338
 30
0.0
 10
1590.547591198896
 20
1053.70320720833
 30
0.0
 10
1590.547591198896
 20
1053.70320720833
 30
0.0
 10
1584.930909806759
 20
1053.703207208079
 30
0.0
 10
1579.314142279769
 20
1053.703207207825
 30
0.0
 10
1573.697460887632
 20
1053.703207207573
 30
0.0
 10
1573.697460887632
 20
1053.703207207573
 30
0.0
 10
1572.383585247488
 20
1053.70320720754
 30
0.0
 10
1572.383585247488
 20
1053.70320720754
 30
0.0
  0
DIMENSION
  5
3BE4
330
A
100
AcDbEntity
  8
Dim
100
AcDbDimension
  2
*D36
 10
1601.703313918523
 20
954.1309038317561
 30
0.0
 11
1449.275184182285
 21
976.3472124255061
 31
0.0
 70
    32
 71
     5
 42
304.8562594724749
 73
     0
 74
     0
 75
     0
  3
tform線あり
100
AcDbAlignedDimension
 13
1296.847054446048
 23
1053.514743286607
 33
0.0
 14
1601.703313918523
 24
1043.928888653826
 34
0.0
100
AcDbRotatedDimension
1001
ACAD
1000
DSTYLE
1002
{
1070
   271
1070
     0
1002
}
  0
SPLINE
  5
3BE7
330
A
100
AcDbEntity
  8
MODEL
100
AcDbSpline
210
0.0
220
0.0
230
1.0
 70
     8
 71
     3
 72
    20
 73
    16
 74
     0
 42
0.000000001
 43
0.0000000001
 40
20.0
 40
20.0
 40
20.0
 40
20.0
 40
21.0
 40
21.0
 40
21.0
 40
22.0
 40
22.0
 40
22.0
 40
23.0
 40
23.0
 40
23.0
 40
24.0
 40
24.0
 40
24.0
 40
25.0
 40
25.0
 40
25.0
 40
25.0
 10
1297.575570598008
 20
1054.041889431005
 30
0.0
 10
1297.090114575332
 20
1054.262050111241
 30
0.0
 10
1296.733042548704
 20
1054.682646590765
 30
0.0
 10
1296.390139705138
 20
1055.058022273287
 30
0.0
 10
1296.390139705138
 20
1055.058022273287
 30
0.0
 10
1296.305469146173
 20
1055.227363391199
 30
0.0
 10
1296.305469146173
 20
1055.227363391199
 30
0.0
 10
1296.305469146173
 20
1055.227363391199
 30
0.0
 10
1294.103905410838
 20
1059.122381372825
 30
0.0
 10
1294.103905410838
 20
1059.122381372825
 30
0.0
 10
1294.103905410838
 20
1059.122381372825
 30
0.0
 10
1289.870205192926
 20
1067.081672319152
 30
0.0
 10
1289.870205192926
 20
1067.081672319152
 30
0.0
 10
1289.870205192926
 20
1067.081672319152
 30
0.0
 10
1287.838025642926
 20
1071.061360859744
 30
0.0
 10
1287.838025642926
 20
1071.061360859744
 30
0.0
  0
SPLINE
  5
3BE8
330
A
100
AcDbEntity
  8
MODEL
100
AcDbSpline
210
0.0
220
0.0
230
1.0
 70
     8
 71
     3
 72
    14
 73
    10
 74
     0
 42
0.000000001
 43
0.0000000001
 40
25.0
 40
25.0
 40
25.0
 40
25.0
 40
26.0
 40
26.0
 40
26.0
 40
27.0
 40
27.0
 40
27.0
 40
28.0
 40
28.0
 40
28.0
 40
28.0
 10
1287.838025642926
 20
1071.061360859744
 30
0.0
 10
1274.552715359252
 20
1097.299070223363
 30
0.0
 10
1264.040430482486
 20
1125.100342477714
 30
0.0
 10
1256.847352105597
 20
1153.618515100677
 30
0.0
 10
1256.847352105597
 20
1153.618515100677
 30
0.0
 10
1255.661921212567
 20
1158.190940621434
 30
0.0
 10
1255.661921212567
 20
1158.190940621434
 30
0.0
 10
1255.661921212567
 20
1158.190940621434
 30
0.0
 10
1253.629741662336
 20
1167.335705528109
 30
0.0
 10
1253.629741662336
 20
1167.335705528109
 30
0.0
  0
SPLINE
  5
3BE9
330
A
100
AcDbEntity
  8
MODEL
100
AcDbSpline
210
0.0
220
0.0
230
1.0
 70
     8
 71
     3
 72
    11
 73
     7
 74
     0
 42
0.000000001
 43
0.0000000001
 40
28.0
 40
28.0
 40
28.0
 40
28.0
 40
29.0
 40
29.0
 40
29.0
 40
30.0
 40
30.0
 40
30.0
 40
30.0
 10
1253.629741662336
 20
1167.335705528109
 30
0.0
 10
1251.879826020316
 20
1174.923927534582
 30
0.0
 10
1250.54477889021
 20
1182.59819825765
 30
0.0
 10
1249.311370884793
 20
1190.282374488641
 30
0.0
 10
1249.311370884793
 20
1190.282374488641
 30
0.0
 10
1249.311370884785
 20
1190.451715606555
 30
0.0
 10
1249.311370884785
 20
1190.451715606555
 30
0.0
  0
SPLINE
  5
3BEA
330
A
100
AcDbEntity
  8
MODEL
100
AcDbSpline
210
0.0
220
0.0
230
1.0
 70
     8
 71
     3
 72
    32
 73
    28
 74
     0
 42
0.000000001
 43
0.0000000001
 40
30.0
 40
30.0
 40
30.0
 40
30.0
 40
31.0
 40
31.0
 40
31.0
 40
32.0
 40
32.0
 40
32.0
 40
33.0
 40
33.0
 40
33.0
 40
34.0
 40
34.0
 40
34.0
 40
35.0
 40
35.0
 40
35.0
 40
36.0
 40
36.0
 40
36.0
 40
37.0
 40
37.0
 40
37.0
 40
38.0
 40
38.0
 40
38.0
 40
39.0
 40
39.0
 40
39.0
 40
39.0
 10
1249.311370884785
 20
1190.451715606555
 30
0.0
 10
1249.120840593402
 20
1190.824291906411
 30
0.0
 10
1249.237983991302
 20
1191.867212687547
 30
0.0
 10
1249.396041443662
 20
1192.229883479506
 30
0.0
 10
1249.396041443662
 20
1192.229883479506
 30
0.0
 10
1249.650053120511
 20
1192.737906833262
 30
0.0
 10
1249.650053120511
 20
1192.737906833262
 30
0.0
 10
1249.650053120511
 20
1192.737906833262
 30
0.0
 10
1250.073448982704
 20
1193.161302695491
 30
0.0
 10
1250.073448982704
 20
1193.161302695491
 30
0.0
 10
1250.073448982704
 20
1193.161302695491
 30
0.0
 10
1250.581472336434
 20
1193.415314372385
 30
0.0
 10
1250.581472336434
 20
1193.415314372385
 30
0.0
 10
1250.581472336434
 20
1193.415314372385
 30
0.0
 10
1250.835527080723
 20
1193.584655490309
 30
0.0
 10
1250.835527080723
 20
1193.584655490309
 30
0.0
 10
1250.835527080723
 20
1193.584655490309
 30
0.0
 10
1251.089538757591
 20
1193.669326049279
 30
0.0
 10
1251.089538757591
 20
1193.669326049279
 30
0.0
 10
1251.089538757591
 20
1193.669326049279
 30
0.0
 10
1251.428220993419
 20
1193.669326049295
 30
0.0
 10
1251.428220993419
 20
1193.669326049295
 30
0.0
 10
1251.428220993419
 20
1193.669326049295
 30
0.0
 10
1251.682232670286
 20
1193.753996608262
 30
0.0
 10
1251.682232670286
 20
1193.753996608262
 30
0.0
 10
1251.682232670286
 20
1193.753996608262
 30
0.0
 10
1252.020957973544
 20
1193.66932604932
 30
0.0
 10
1252.020957973544
 20
1193.66932604932
 30
0.0
  0
SPLINE
  5
3BEB
330
A
100
AcDbEntity
  8
MODEL
100
AcDbSpline
210
0.0
220
0.0
230
1.0
 70
     8
 71
     3
 72
    20
 73
    16
 74
     0
 42
0.000000001
 43
0.0000000001
 40
77.0
 40
77.0
 40
77.0
 40
77.0
 40
78.0
 40
78.0
 40
78.0
 40
79.0
 40
79.0
 40
79.0
 40
80.0
 40
80.0
 40
80.0
 40
81.0
 40
81.0
 40
81.0
 40
82.0
 40
82.0
 40
82.0
 40
82.0
 10
1649.226700325803
 20
1191.044452604634
 30
0.0
 10
1647.562833401192
 20
1180.114456767026
 30
0.0
 10
1645.351407226044
 20
1168.953016583596
 30
0.0
 10
1642.706808883029
 20
1158.19094063881
 30
0.0
 10
1642.706808883029
 20
1158.19094063881
 30
0.0
 10
1641.606005481941
 20
1153.618515117953
 30
0.0
 10
1641.606005481941
 20
1153.618515117953
 30
0.0
 10
1641.606005481941
 20
1153.618515117953
 30
0.0
 10
1640.420531521894
 20
1149.130803223472
 30
0.0
 10
1640.420531521894
 20
1149.130803223472
 30
0.0
 10
1640.420531521894
 20
1149.130803223472
 30
0.0
 10
1639.150473137743
 20
1144.558420770033
 30
0.0
 10
1639.150473137743
 20
1144.558420770033
 30
0.0
 10
1639.150473137743
 20
1144.558420770033
 30
0.0
 10
1637.880328618736
 20
1140.07070887555
 30
0.0
 10
1637.880328618736
 20
1140.07070887555
 30
0.0
  0
SPLINE
  5
3BEC
330
A
100
AcDbEntity
  8
MODEL
100
AcDbSpline
210
0.0
220
0.0
230
1.0
 70
     8
 71
     3
 72
    35
 73
    31
 74
     0
 42
0.000000001
 43
0.0000000001
 40
82.0
 40
82.0
 40
82.0
 40
82.0
 40
83.0
 40
83.0
 40
83.0
 40
84.0
 40
84.0
 40
84.0
 40
85.0
 40
85.0
 40
85.0
 40
86.0
 40
86.0
 40
86.0
 40
87.0
 40
87.0
 40
87.0
 40
88.0
 40
88.0
 40
88.0
 40
89.0
 40
89.0
 40
89.0
 40
90.0
 40
90.0
 40
90.0
 40
91.0
 40
91.0
 40
91.0
 40
92.0
 40
92.0
 40
92.0
 40
92.0
 10
1637.880328618736
 20
1140.07070887555
 30
0.0
 10
1631.0443222708
 20
1116.401497713285
 30
0.0
 10
1621.789477024956
 20
1092.976392719869
 30
0.0
 10
1610.530618325641
 20
1071.061360874232
 30
0.0
 10
1610.530618325641
 20
1071.061360874232
 30
0.0
 10
1608.498438776
 20
1067.081672333458
 30
0.0
 10
1608.498438776
 20
1067.081672333458
 30
0.0
 10
1608.498438776
 20
1067.081672333458
 30
0.0
 10
1604.264738558802
 20
1059.122381386751
 30
0.0
 10
1604.264738558802
 20
1059.122381386751
 30
0.0
 10
1604.264738558802
 20
1059.122381386751
 30
0.0
 10
1602.063217891242
 20
1055.227363404925
 30
0.0
 10
1602.063217891242
 20
1055.227363404925
 30
0.0
 10
1602.063217891242
 20
1055.227363404925
 30
0.0
 10
1601.893876773343
 20
1054.888681169089
 30
0.0
 10
1601.893876773343
 20
1054.888681169089
 30
0.0
 10
1601.893876773343
 20
1054.888681169089
 30
0.0
 10
1601.724535655436
 20
1054.719253916315
 30
0.0
 10
1601.724535655436
 20
1054.719253916315
 30
0.0
 10
1601.724535655436
 20
1054.719253916315
 30
0.0
 10
1601.639865096484
 20
1054.634583357356
 30
0.0
 10
1601.639865096484
 20
1054.634583357356
 30
0.0
 10
1601.639865096484
 20
1054.634583357356
 30
0.0
 10
1601.470523978576
 20
1054.465242239434
 30
0.0
 10
1601.470523978576
 20
1054.465242239434
 30
0.0
 10
1601.470523978576
 20
1054.465242239434
 30
0.0
 10
1601.301182860667
 20
1054.38057168047
 30
0.0
 10
1601.301182860667
 20
1054.38057168047
 30
0.0
 10
1601.301182860667
 20
1054.38057168047
 30
0.0
 10
1601.131841742761
 20
1054.211230562547
 30
0.0
 10
1601.131841742761
 20
1054.211230562547
 30
0.0
  0
SPLINE
  5
3BED
330
A
100
AcDbEntity
  8
MODEL
100
AcDbSpline
210
0.0
220
0.0
230
1.0
 70
     8
 71
     3
 72
    11
 73
     7
 74
     0
 42
0.000000001
 43
0.0000000001
 40
92.0
 40
92.0
 40
92.0
 40
92.0
 40
93.0
 40
93.0
 40
93.0
 40
94.0
 40
94.0
 40
94.0
 40
94.0
 10
1601.131841742761
 20
1054.211230562547
 30
0.0
 10
1600.530620479782
 20
1053.923367889035
 30
0.0
 10
1600.527864164539
 20
1053.844296095422
 30
0.0
 10
1599.861697223576
 20
1053.703207208749
 30
0.0
 10
1599.861697223576
 20
1053.703207208749
 30
0.0
 10
1590.71693231681
 20
1053.703207208338
 30
0.0
 10
1590.71693231681
 20
1053.703207208338
 30
0.0
  0
SPLINE
  5
3BEE
330
A
100
AcDbEntity
  8
MODEL
100
AcDbSpline
210
0.0
220
0.0
230
1.0
 70
     8
 71
     3
 72
    11
 73
     7
 74
     0
 42
0.000000001
 43
0.0000000001
 40
1.419912497941286
 40
1.419912497941286
 40
1.419912497941286
 40
1.419912497941286
 40
2.0
 40
2.0
 40
2.0
 40
3.0
 40
3.0
 40
3.0
 40
3.0
 10
1325.49498729585
 20
1053.703207196429
 30
0.0
 10
1325.940559959167
 20
1053.222601125991
 30
0.0
 10
1326.554836020489
 20
1052.89695908462
 30
0.0
 10
1327.211385986099
 20
1052.771744913128
 30
0.0
 10
1327.211385986099
 20
1052.771744913128
 30
0.0
 10
1327.719452407271
 20
1052.687074354194
 30
0.0
 10
1327.719452407271
 20
1052.687074354194
 30
0.0
  0
SPLINE
  5
3BEF
330
A
100
AcDbEntity
  8
MODEL
100
AcDbSpline
210
0.0
220
0.0
230
1.0
 70
     8
 71
     3
 72
    23
 73
    19
 74
     0
 42
0.000000001
 43
0.0000000001
 40
14.07964001553029
 40
14.07964001553029
 40
14.07964001553029
 40
14.07964001553029
 40
15.0
 40
15.0
 40
15.0
 40
16.0
 40
16.0
 40
16.0
 40
17.0
 40
17.0
 40
17.0
 40
18.0
 40
18.0
 40
18.0
 40
19.0
 40
19.0
 40
19.0
 40
20.0
 40
20.0
 40
20.0
 40
20.0
 10
1307.736425279701
 20
1053.703207195631
 30
0.0
 10
1306.468341013376
 20
1053.703207195574
 30
0.0
 10
1298.506989813977
 20
1053.703207195218
 30
0.0
 10
1298.506989813977
 20
1053.703207195218
 30
0.0
 10
1298.506989813977
 20
1053.703207195218
 30
0.0
 10
1298.337605628633
 20
1053.787877754167
 30
0.0
 10
1298.337605628633
 20
1053.787877754167
 30
0.0
 10
1298.337605628633
 20
1053.787877754167
 30
0.0
 10
1298.168264510719
 20
1053.78787775416
 30
0.0
 10
1298.168264510719
 20
1053.78787775416
 30
0.0
 10
1298.168264510719
 20
1053.78787775416
 30
0.0
 10
1297.998923392801
 20
1053.872548313109
 30
0.0
 10
1297.998923392801
 20
1053.872548313109
 30
0.0
 10
1297.998923392801
 20
1053.872548313109
 30
0.0
 10
1297.744911715926
 20
1053.957218872055
 30
0.0
 10
1297.744911715926
 20
1053.957218872055
 30
0.0
 10
1297.744911715926
 20
1053.957218872055
 30
0.0
 10
1297.575570598008
 20
1054.041889431005
 30
0.0
 10
1297.575570598008
 20
1054.041889431005
 30
0.0
  0
SPLINE
  5
3BF0
102
{ACAD_REACTORS
330
3BF7
102
}
330
A
100
AcDbEntity
  8
HIDDEN
 48
0.5
100
AcDbSpline
210
0.0
220
0.0
230
1.0
 70
  1064
 71
     3
 72
    32
 73
    28
 74
    26
 42
0.000000001
 43
0.0000000001
 44
0.0
 40
0.0
 40
0.0
 40
0.0
 40
0.0
 40
1.409123839332392
 40
3.334872850058916
 40
6.213814894553749
 40
16.4566414951301
 40
33.27047004819762
 40
62.14448535182594
 40
81.85454515639067
 40
105.8618756613294
 40
129.0633864506443
 40
144.2280061216549
 40
161.8234743020618
 40
179.7811429495672
 40
188.8951479975154
 40
199.2303710716571
 40
203.320579423357
 40
207.1240437601587
 40
210.8615929476204
 40
216.7144426232804
 40
221.9579780894845
 40
225.5448322450083
 40
227.1811386420111
 40
229.5977059537083
 40
234.4664421035332
 40
236.4250756910243
 40
237.6632751954423
 40
237.6632751954423
 40
237.6632751954423
 40
237.6632751954423
 10
1251.682232670286
 20
1193.753996608262
 30
0.0
 10
1252.166794782875
 20
1193.675667738922
 30
0.0
 10
1253.313573361402
 20
1193.490292392594
 30
0.0
 10
1254.403301512735
 20
1191.501087371246
 30
0.0
 10
1256.071013085063
 20
1186.90123164943
 30
0.0
 10
1260.458761240503
 20
1177.794201245065
 30
0.0
 10
1269.261185300515
 20
1161.429296643191
 30
0.0
 10
1282.289139291321
 20
1143.748857524211
 30
0.0
 10
1299.21244391435
 20
1126.407746545224
 30
0.0
 10
1316.715258294532
 20
1112.464343982005
 30
0.0
 10
1334.530698245416
 20
1101.637102771921
 30
0.0
 10
1351.416323098042
 20
1093.669554380426
 30
0.0
 10
1367.294105681914
 20
1087.774873503826
 30
0.0
 10
1381.71663615063
 20
1084.026772105546
 30
0.0
 10
1393.900577240712
 20
1081.335625665976
 30
0.0
 10
1401.716447506416
 20
1080.482339666848
 30
0.0
 10
1407.724457067526
 20
1079.663025031376
 30
0.0
 10
1411.569302030047
 20
1078.938811090156
 30
0.0
 10
1415.511878386299
 20
1076.709619942972
 30
0.0
 10
1419.170246576561
 20
1073.372699544469
 30
0.0
 10
1422.865552033772
 20
1070.15614364924
 30
0.0
 10
1425.756503809733
 20
1068.190283242932
 30
0.0
 10
1427.294057981824
 20
1066.029153747209
 30
0.0
 10
1427.044539238261
 20
1062.926943358376
 30
0.0
 10
1427.265565833147
 20
1059.906262785972
 30
0.0
 10
1427.237631208061
 20
1057.208138148949
 30
0.0
 10
1427.331320376134
 20
1056.146558486698
 30
0.0
 10
1427.367608126587
 20
1055.735386750824
 30
0.0
 11
1251.682232670286
 21
1193.753996608262
 31
0.0
 11
1253.035590013854
 21
1193.361499608037
 31
0.0
 11
1254.186321317004
 21
1191.817373084638
 31
0.0
 11
1255.277453178549
 21
1189.153214951891
 31
0.0
 11
1259.537539805895
 21
1179.83832586522
 31
0.0
 11
1267.621972144305
 21
1165.095640072678
 31
0.0
 11
1284.696774281736
 21
1141.811312903491
 31
0.0
 11
1298.463180829244
 21
1127.705551376078
 31
0.0
 11
1317.21991548707
 21
1112.720998564957
 31
0.0
 11
1337.052283622292
 21
1100.67993228926
 31
0.0
 11
1350.762351572422
 21
1094.199212686529
 31
0.0
 11
1367.266292895365
 21
1088.098358541693
 31
0.0
 11
1384.605806309986
 21
1083.427262546343
 31
0.0
 11
1393.529798453166
 21
1081.575924586248
 31
0.0
 11
1403.771887425952
 21
1080.191565721716
 31
0.0
 11
1407.821031236355
 21
1079.613431859199
 31
0.0
 11
1411.521636087193
 21
1078.734873551926
 31
0.0
 11
1414.819694233455
 21
1076.976440615312
 31
0.0
 11
1419.336096364005
 21
1073.253812360834
 31
0.0
 11
1423.358884127682
 21
1069.890504049996
 31
0.0
 11
1426.11064718528
 21
1067.589781813863
 31
0.0
 11
1426.985588378875
 21
1066.207039418251
 31
0.0
 11
1427.154706222415
 21
1063.796397029393
 31
0.0
 11
1427.240105695122
 21
1058.928409906703
 31
0.0
 11
1427.274460868712
 21
1056.970077643757
 31
0.0
 11
1427.367608126587
 21
1055.735386750824
 31
0.0
  0
LINE
  5
3BF1
102
{ACAD_REACTORS
330
3BF7
102
}
330
A
100
AcDbEntity
  8
HIDDEN
 48
0.5
100
AcDbLine
 10
1426.703427232861
 20
1066.912331207381
 30
0.0
 11
1471.285562660238
 21
1066.912331207381
 31
0.0
  0
LINE
  5
3BF2
102
{ACAD_REACTORS
330
3BF7
102
}
330
A
100
AcDbEntity
  8
HIDDEN
 48
0.5
100
AcDbLine
 10
1427.367608126587
 20
1055.735386750824
 30
0.0
 11
1449.226657264589
 21
1055.735386750824
 31
0.0
  0
SPLINE
  5
3BF3
330
A
100
AcDbEntity
  8
MODEL
100
AcDbSpline
210
0.0
220
0.0
230
1.0
 70
     8
 71
     3
 72
    32
 73
    28
 74
     0
 42
0.000000001
 43
0.0000000001
 40
30.0
 40
30.0
 40
30.0
 40
30.0
 40
31.0
 40
31.0
 40
31.0
 40
32.0
 40
32.0
 40
32.0
 40
33.0
 40
33.0
 40
33.0
 40
34.0
 40
34.0
 40
34.0
 40
35.0
 40
35.0
 40
35.0
 40
36.0
 40
36.0
 40
36.0
 40
37.0
 40
37.0
 40
37.0
 40
38.0
 40
38.0
 40
38.0
 40
39.0
 40
39.0
 40
39.0
 40
39.0
 10
1649.226700325803
 20
1191.044452604634
 30
0.0
 10
1649.255404573214
 20
1191.459980224628
 30
0.0
 10
1649.215330525206
 20
1191.867212687551
 30
0.0
 10
1649.057273072846
 20
1192.22988347951
 30
0.0
 10
1649.057273072846
 20
1192.22988347951
 30
0.0
 10
1648.769244704985
 20
1192.724387062177
 30
0.0
 10
1648.769244704985
 20
1192.724387062177
 30
0.0
 10
1648.769244704985
 20
1192.724387062177
 30
0.0
 10
1648.379865533806
 20
1193.161302695494
 30
0.0
 10
1648.379865533806
 20
1193.161302695494
 30
0.0
 10
1648.379865533806
 20
1193.161302695494
 30
0.0
 10
1647.986415618602
 20
1193.439215080903
 30
0.0
 10
1647.986415618602
 20
1193.439215080903
 30
0.0
 10
1647.986415618602
 20
1193.439215080903
 30
0.0
 10
1647.617787435786
 20
1193.584655490313
 30
0.0
 10
1647.617787435786
 20
1193.584655490313
 30
0.0
 10
1647.617787435786
 20
1193.584655490313
 30
0.0
 10
1647.363775758918
 20
1193.669326049283
 30
0.0
 10
1647.363775758918
 20
1193.669326049283
 30
0.0
 10
1647.363775758918
 20
1193.669326049283
 30
0.0
 10
1647.066192271428
 20
1193.734402502241
 30
0.0
 10
1647.066192271428
 20
1193.734402502241
 30
0.0
 10
1647.066192271428
 20
1193.734402502241
 30
0.0
 10
1646.771081846222
 20
1193.753996608266
 30
0.0
 10
1646.771081846222
 20
1193.753996608266
 30
0.0
 10
1646.771081846222
 20
1193.753996608266
 30
0.0
 10
1646.55252636804
 20
1193.753996625991
 30
0.0
 10
1646.55252636804
 20
1193.753996625991
 30
0.0
  0
SPLINE
  5
3BF4
330
A
100
AcDbEntity
  8
MODEL
100
AcDbSpline
210
0.0
220
0.0
230
1.0
 70
     8
 71
     3
 72
    11
 73
     7
 74
     0
 42
0.000000001
 43
0.0000000001
 40
1.419912497941286
 40
1.419912497941286
 40
1.419912497941286
 40
1.419912497941286
 40
2.0
 40
2.0
 40
2.0
 40
3.0
 40
3.0
 40
3.0
 40
3.0
 10
1572.958327233328
 20
1053.703207196427
 30
0.0
 10
1572.51275457001
 20
1053.222601125988
 30
0.0
 10
1571.898478508688
 20
1052.896959084618
 30
0.0
 10
1571.241928543078
 20
1052.771744913125
 30
0.0
 10
1571.241928543078
 20
1052.771744913125
 30
0.0
 10
1570.733862121906
 20
1052.687074354191
 30
0.0
 10
1570.733862121906
 20
1052.687074354191
 30
0.0
  0
SPLINE
  5
3BF5
102
{ACAD_REACTORS
330
3BF7
102
}
330
A
100
AcDbEntity
  8
HIDDEN
 48
0.5
100
AcDbSpline
210
0.0
220
0.0
230
1.0
 70
  1064
 71
     3
 72
    32
 73
    28
 74
    26
 42
0.000000001
 43
0.0000000001
 44
0.0
 40
0.0
 40
0.0
 40
0.0
 40
0.0
 40
1.409123839333547
 40
3.334872850059939
 40
6.213814894555068
 40
16.45664149513095
 40
33.27047004819802
 40
62.14448535182707
 40
81.85454515639181
 40
105.8618756613302
 40
129.0633864506455
 40
144.2280061216553
 40
161.8234743020633
 40
179.7811429495676
 40
188.8951479975163
 40
199.230371071658
 40
203.3205794233576
 40
207.1240437601605
 40
210.8615929476203
 40
216.7144426232819
 40
221.9579780894853
 40
225.5448322450098
 40
227.1811386420126
 40
229.5977059537096
 40
234.4664421035347
 40
236.4250756910257
 40
237.6632751954438
 40
237.6632751954438
 40
237.6632751954438
 40
237.6632751954438
 10
1646.77108185889
 20
1193.753996608271
 30
0.0
 10
1646.286519746301
 20
1193.675667738932
 30
0.0
 10
1645.139741167773
 20
1193.490292392604
 30
0.0
 10
1644.050013016442
 20
1191.501087371254
 30
0.0
 10
1642.382301444111
 20
1186.901231649438
 30
0.0
 10
1637.994553288676
 20
1177.794201245073
 30
0.0
 10
1629.192129228662
 20
1161.429296643198
 30
0.0
 10
1616.164175237858
 20
1143.748857524218
 30
0.0
 10
1599.240870614828
 20
1126.407746545231
 30
0.0
 10
1581.738056234646
 20
1112.464343982012
 30
0.0
 10
1563.922616283765
 20
1101.637102771924
 30
0.0
 10
1547.036991431138
 20
1093.66955438043
 30
0.0
 10
1531.159208847267
 20
1087.774873503829
 30
0.0
 10
1516.73667837855
 20
1084.026772105549
 30
0.0
 10
1504.55273728847
 20
1081.335625665978
 30
0.0
 10
1496.736867022766
 20
1080.48233966685
 30
0.0
 10
1490.728857461654
 20
1079.663025031378
 30
0.0
 10
1486.884012499135
 20
1078.938811090158
 30
0.0
 10
1482.941436142881
 20
1076.709619942973
 30
0.0
 10
1479.28306795262
 20
1073.372699544471
 30
0.0
 10
1475.58776249541
 20
1070.15614364924
 30
0.0
 10
1472.696810719449
 20
1068.190283242933
 30
0.0
 10
1471.159256547357
 20
1066.02915374721
 30
0.0
 10
1471.408775290919
 20
1062.926943358377
 30
0.0
 10
1471.187748696036
 20
1059.906262785973
 30
0.0
 10
1471.21568332112
 20
1057.20813814895
 30
0.0
 10
1471.121994153046
 20
1056.146558486699
 30
0.0
 10
1471.085706402594
 20
1055.735386750825
 30
0.0
 11
1646.77108185889
 21
1193.753996608271
 31
0.0
 11
1645.417724515321
 21
1193.361499608046
 31
0.0
 11
1644.266993212172
 21
1191.817373084646
 31
0.0
 11
1643.175861350627
 21
1189.153214951899
 31
0.0
 11
1638.915774723282
 21
1179.838325865228
 31
0.0
 11
1630.831342384873
 21
1165.095640072686
 31
0.0
 11
1613.756540247442
 21
1141.811312903498
 31
0.0
 11
1599.990133699934
 21
1127.705551376085
 31
0.0
 11
1581.233399042109
 21
1112.720998564963
 31
0.0
 11
1561.401030906888
 21
1100.679932289264
 31
0.0
 11
1547.690962956759
 21
1094.199212686533
 31
0.0
 11
1531.187021633815
 21
1088.098358541696
 31
0.0
 11
1513.847508219195
 21
1083.427262546346
 31
0.0
 11
1504.923516076015
 21
1081.57592458625
 31
0.0
 11
1494.681427103229
 21
1080.191565721718
 31
0.0
 11
1490.632283292826
 21
1079.613431859201
 31
0.0
 11
1486.931678441987
 21
1078.734873551928
 31
0.0
 11
1483.633620295727
 21
1076.976440615314
 31
0.0
 11
1479.117218165176
 21
1073.253812360835
 31
0.0
 11
1475.0944304015
 21
1069.890504049997
 31
0.0
 11
1472.342667343901
 21
1067.589781813864
 31
0.0
 11
1471.467726150306
 21
1066.207039418252
 31
0.0
 11
1471.298608306766
 21
1063.796397029394
 31
0.0
 11
1471.21320883406
 21
1058.928409906704
 31
0.0
 11
1471.178853660469
 21
1056.970077643758
 31
0.0
 11
1471.085706402594
 21
1055.735386750825
 31
0.0
  0
LINE
  5
3BF6
102
{ACAD_REACTORS
330
3BF7
102
}
330
A
100
AcDbEntity
  8
HIDDEN
 48
0.5
100
AcDbLine
 10
1470.621381766513
 20
1055.735386750824
 30
0.0
 11
1448.762332628511
 21
1055.735386750824
 31
0.0
  0
DIMENSION
  5
3C50
330
A
100
AcDbEntity
  8
Dim
  6
Continuous
100
AcDbDimension
  2
*D39
 10
1449.226657258254
 20
1193.753996617131
 30
0.0
 11
1449.226657258254
 21
1300.519791031655
 31
0.0
 70
   160
  1
110(深さ)
 71
     5
 42
114.1405647560734
 73
     0
 74
     1
 75
     1
  3
tform線あり
100
AcDbAlignedDimension
 13
1449.226614195953
 23
1079.613431861057
 33
0.0
 14
1449.226657258254
 24
1193.753996617131
 34
0.0
 50
90.0
100
AcDbRotatedDimension
1001
ACAD
1000
DSTYLE
1002
{
1070
   271
1070
     0
1070
    76
1070
     1
1070
    75
1070
     1
1002
}
  0
LINE
  5
3C68
102
{ACAD_REACTORS
330
3C6C
330
3C76
330
3C8B
102
}
330
A
100
AcDbEntity
  8
MODEL
  6
Continuous
100
AcDbLine
 10
1389.275184182285
 20
2079.341155702937
 30
0.0
 11
1509.275184182285
 21
2079.341155702937
 31
0.0
  0
LINE
  5
3C69
102
{ACAD_REACTORS
330
3C6C
330
3C76
330
3C8B
102
}
330
A
100
AcDbEntity
  8
MODEL
  6
Continuous
100
AcDbLine
 10
1509.275184182285
 20
2079.341155702937
 30
0.0
 11
1509.275184182285
 21
1959.341155702937
 31
0.0
  0
LINE
  5
3C6A
102
{ACAD_REACTORS
330
3C6C
330
3C76
102
}
330
A
100
AcDbEntity
  8
MODEL
  6
Continuous
100
AcDbLine
 10
1509.275184182285
 20
1959.341155702937
 30
0.0
 11
1389.275184182285
 21
1959.341155702937
 31
0.0
  0
LINE
  5
3C6B
102
{ACAD_REACTORS
330
3C6C
330
3C76
102
}
330
A
100
AcDbEntity
  8
MODEL
  6
Continuous
100
AcDbLine
 10
1389.275184182285
 20
1959.341155702937
 30
0.0
 11
1389.275184182285
 21
2079.341155702937
 31
0.0
  0
HATCH
  5
3C76
330
A
100
AcDbEntity
  8
Dim
  6
Continuous
100
AcDbHatch
 10
0.0
 20
0.0
 30
0.0
210
0.0
220
0.0
230
1.0
  2
ANSI31
 70
     0
 71
     1
 91
        1
 92
        1
 93
        4
 72
     1
 10
1389.275184182285
 20
2079.341155702937
 11
1509.275184182285
 21
2079.341155702937
 72
     1
 10
1509.275184182285
 20
2079.341155702937
 11
1509.275184182285
 21
1959.341155702937
 72
     1
 10
1509.275184182285
 20
1959.341155702937
 11
1389.275184182285
 21
1959.341155702937
 72
     1
 10
1389.275184182285
 20
1959.341155702937
 11
1389.275184182285
 21
2079.341155702937
 97
        4
330
3C68
330
3C69
330
3C6A
330
3C6B
 75
     0
 76
     1
 52
0.0
 41
6.0
 77
     0
 78
     1
 53
45.0
 43
-2694.329999999999
 44
224.9100000000001
 45
-13.47038418160373
 46
13.47038418160373
 79
     0
 98
        1
 10
-2694.329999999999
 20
224.9100000000001
1001
ACAD
1010
0.0
1020
0.0
1030
0.0
  0
DIMENSION
  5
3C89
102
{ACAD_REACTORS
330
3C8B
102
}
102
{ACAD_XDICTIONARY
360
3C8A
102
}
330
A
100
AcDbEntity
  8
Dim
  6
Continuous
100
AcDbDimension
  2
*D41
 10
1720.260950677341
 20
1959.341155702937
 30
0.0
 11
1698.044642083591
 21
2019.341155702937
 31
0.0
 70
    32
 71
     5
 42
119.9999999999998
 73
     0
 74
     0
 75
     0
  3
tform線あり
100
AcDbAlignedDimension
 13
1509.275184182285
 23
2079.341155702937
 33
0.0
 14
1509.275184182285
 24
1959.341155702937
 34
0.0
 50
90.0
100
AcDbRotatedDimension
1001
ACAD
1000
DSTYLE
1002
{
1070
   144
1040
1.0
1002
}
  0
DIMENSION
  5
3C98
102
{ACAD_XDICTIONARY
360
3C99
102
}
330
A
100
AcDbEntity
  8
Dim
  6
Continuous
100
AcDbDimension
  2
*D42
 10
1509.275184182285
 20
1751.799682997106
 30
0.0
 11
1449.275184182285
 21
1774.015991590856
 31
0.0
 70
    32
 71
     5
 42
120.0
 73
     0
 74
     0
 75
     0
 52
-90.0
  3
tform線あり
100
AcDbAlignedDimension
 13
1389.275184182285
 23
1959.341155702937
 33
0.0
 14
1509.275184182285
 24
1959.341155702937
 34
0.0
100
AcDbRotatedDimension
1001
ACAD
1000
DSTYLE
1002
{
1070
   144
1040
1.0
1002
}
  0
DIMENSION
  5
3CB0
330
A
100
AcDbEntity
  8
Dim
  6
Continuous
100
AcDbDimension
  2
*D43
 10
1649.226657264588
 20
861.6830807789561
 30
0.0
 11
1549.226657264588
 21
883.8993893727061
 31
0.0
 70
    32
 71
     5
 42
200.0
 73
     0
 74
     0
 75
     0
  3
tform線あり
100
AcDbAlignedDimension
 13
1449.226657264588
 23
944.0810217197561
 33
0.0
 14
1649.226657264588
 24
1176.386194711756
 34
0.0
100
AcDbRotatedDimension
1001
ACAD
1000
DSTYLE
1002
{
1070
   144
1040
1.0
1002
}
  0
MTEXT
  5
3D00
330
A
100
AcDbEntity
  8
template
390
1D
100
AcDbMText
 10
1332.000000000742
 20
450.4670209030379
 30
0.0
 40
24.4326171875
 41
0.0
 46
24.92126953125
 71
     1
 72
     1
  1
{ADF70-2625-007 セメントグレー}
  7
ＭＳ ゴシック
 73
     1
 44
0.7828267384257843
1001
ACAD
1000
ACAD_MTEXT_DEFINED_HEIGHT_BEGIN
1070
    46
1040
24.92126953125
1000
ACAD_MTEXT_DEFINED_HEIGHT_END
  0
MTEXT
  5
3D01
330
A
100
AcDbEntity
  8
template
390
1D
100
AcDbMText
 10
1332.000000000742
 20
497.3880864037765
 30
0.0
 40
24.4326171875
 41
0.0
 46
26.7781484375
 71
     1
 72
     1
  1
{ADF70-2625-006 マットブラック}
  7
ＭＳ ゴシック
 73
     1
 44
0.7828267384257843
1001
ACAD
1000
ACAD_MTEXT_DEFINED_HEIGHT_BEGIN
1070
    46
1040
26.7781484375
1000
ACAD_MTEXT_DEFINED_HEIGHT_END
  0
MTEXT
  5
3D02
330
A
100
AcDbEntity
  8
template
390
1D
100
AcDbMText
 10
1332.000000000742
 20
401.134141543038
 30
0.0
 40
24.4326171875
 41
0.0
 46
25.556517578125
 71
     1
 72
     1
  1
{ADF70-2625-008 マットホワイト}
  7
ＭＳ ゴシック
 73
     1
 44
0.7828267384257843
1001
ACAD
1000
ACAD_MTEXT_DEFINED_HEIGHT_BEGIN
1070
    46
1040
25.556517578125
1000
ACAD_MTEXT_DEFINED_HEIGHT_END
  0
MTEXT
  5
3D17
330
A
100
AcDbEntity
  8
template
390
1D
100
AcDbMText
 10
1332.000000000742
 20
541.1825184037765
 30
0.0
 40
24.4326171875
 41
0.0
 46
25.556517578125
 71
     1
 72
     1
  1
{ADF70-2625-001 ホワイト}
  7
ＭＳ ゴシック
 73
     1
 44
0.7828267384257843
1001
ACAD
1000
ACAD_MTEXT_DEFINED_HEIGHT_BEGIN
1070
    46
1040
25.556517578125
1000
ACAD_MTEXT_DEFINED_HEIGHT_END
  0
VIEWPORT
  5
349
330
B
100
AcDbEntity
 67
     1
  8
0
100
AcDbViewport
 10
202.5
 20
128.5
 30
0.0
 40
486.0
 41
308.4
 68
     1
 69
     1
 12
202.5
 22
128.5
 13
0.0
 23
0.0
 14
0.5
 24
0.5
 15
0.0
 25
0.0
 16
0.0
 26
0.0
 36
1.0
 17
0.0
 27
0.0
 37
0.0
 42
50.0
 43
0.0
 44
0.0
 45
308.4
 50
0.0
 51
0.0
 72
   100
 90
   557152
  1

281
     0
 71
     1
 74
     0
110
0.0
120
0.0
130
0.0
111
1.0
121
0.0
131
0.0
112
0.0
122
1.0
132
0.0
 79
     0
146
0.0
170
     0
 61
     5
348
26C
292
     1
282
     1
141
0.0
142
0.0
 63
   256
  0
VIEWPORT
  5
34A
330
B
100
AcDbEntity
 67
     1
  8
0
100
AcDbViewport
 10
202.5
 20
128.5
 30
0.0
 40
324.0
 41
205.6
 68
     2
 69
     2
 12
986.6781359294573
 22
1427.077061889956
 13
0.0
 23
0.0
 14
0.5
 24
0.5
 15
0.0
 25
0.0
 16
0.0
 26
0.0
 36
1.0
 17
0.0
 27
0.0
 37
0.0
 42
50.0
 43
0.0
 44
0.0
 45
2890.021615685494
 50
0.0
 51
0.0
 72
   100
 90
   557152
  1

281
     0
 71
     1
 74
     0
110
0.0
120
0.0
130
0.0
111
1.0
121
0.0
131
0.0
112
0.0
122
1.0
132
0.0
 79
     0
146
0.0
170
     0
 61
     5
348
26C
292
     1
282
     1
141
0.0
142
0.0
 63
   256
  0
ENDSEC
  0
SECTION
  2
OBJECTS
  0
DICTIONARY
  5
19
330
0
100
AcDbDictionary
281
     1
  3
ACAD_COLOR
350
38F
  3
ACAD_DETAILVIEWSTYLE
350
8CF
  3
ACAD_FIELDLIST
350
BA6
  3
ACAD_GROUP
350
1A
  3
ACAD_IMAGE_VARS
350
27B
  3
ACAD_LAYOUT
350
1E
  3
ACAD_MATERIAL
350
263
  3
ACAD_MLEADERSTYLE
350
336
  3
ACAD_MLINESTYLE
350
1B
  3
ACAD_PLOTSETTINGS
350
22
  3
ACAD_PLOTSTYLENAME
350
1F
  3
ACAD_SCALELIST
350
241
  3
ACAD_SECTIONVIEWSTYLE
350
8D0
  3
ACAD_TABLESTYLE
350
278
  3
ACAD_VISUALSTYLE
350
267
  3
ACDB_RECOMPOSE_DATA
350
3D1E
  3
AcDbVariableDictionary
350
330
  3
APPDATA
350
27A
  3
DimOffsetDictionary
350
C08
  0
SUN
  5
8C2
330
15
100
AcDbSun
 90
        1
290
     0
 63
     7
421
 16777215
 40
1.0
291
     1
 91
  2455826
 92
 54000000
292
     0
 70
     2
 71
   256
280
     1
  0
DICTIONARY
  5
2E1
330
2
100
AcDbDictionary
280
     1
281
     1
  3
ACAD_LAYERSTATES
360
2E2
  3
ACLYDICTIONARY
360
BFE
  0
DICTIONARY
  5
3C74
330
A
100
AcDbDictionary
280
     1
281
     1
  3
ACAD_SORTENTS
360
3C75
  0
DICTIONARY
  5
BDC
330
BDB
100
AcDbDictionary
280
     1
281
     1
  3
ACAD_FIELD
360
3D1B
  0
DICTIONARY
  5
3ACD
330
3ACC
100
AcDbDictionary
280
     1
281
     1
  3
AcDbContextDataManager
360
3ACE
  0
DICTIONARY
  5
3C8A
330
3C89
100
AcDbDictionary
280
     1
281
     1
  3
ACAD_DIMASSOC
360
3C8B
  0
DICTIONARY
  5
3C99
330
3C98
100
AcDbDictionary
280
     1
281
     1
  3
ACAD_DIMASSOC
360
3C9A
  0
DICTIONARY
  5
38F
102
{ACAD_REACTORS
330
19
102
}
330
19
100
AcDbDictionary
281
     1
  0
DICTIONARY
  5
8CF
102
{ACAD_REACTORS
330
19
102
}
330
19
100
AcDbDictionary
281
     1
  0
FIELDLIST
  5
BA6
102
{ACAD_REACTORS
330
19
102
}
330
19
100
AcDbIdSet
 90
        2
330
BDF
330
BDE
100
AcDbFieldList
  0
DICTIONARY
  5
1A
102
{ACAD_REACTORS
330
19
102
}
330
19
100
AcDbDictionary
281
     1
  3
*A1
350
3BC9
  3
*A2
350
3BF7
  3
*A3
350
3C6C
  0
RASTERVARIABLES
  5
27B
102
{ACAD_REACTORS
330
19
102
}
330
19
100
AcDbRasterVariables
 90
        0
 70
     1
 71
     1
 72
     1
  0
DICTIONARY
  5
1E
102
{ACAD_REACTORS
330
19
102
}
330
19
100
AcDbDictionary
281
     1
  3
Layout1
350
21
  3
Model
350
20
  0
DICTIONARY
  5
263
102
{ACAD_REACTORS
330
19
102
}
330
19
100
AcDbDictionary
281
     1
  3
ByBlock
350
265
  3
ByLayer
350
264
  3
Global
350
266
  0
DICTIONARY
  5
336
102
{ACAD_REACTORS
330
19
102
}
330
19
100
AcDbDictionary
281
     1
  3
Standard
350
8D1
  0
DICTIONARY
  5
1B
102
{ACAD_REACTORS
330
19
102
}
330
19
100
AcDbDictionary
281
     1
  3
Standard
350
1C
  0
DICTIONARY
  5
22
102
{ACAD_REACTORS
330
19
102
}
330
19
100
AcDbDictionary
281
     1
  0
ACDBDICTIONARYWDFLT
  5
1F
102
{ACAD_REACTORS
330
19
102
}
330
19
100
AcDbDictionary
281
     1
  3
Normal
350
1D
100
AcDbDictionaryWithDefault
340
1D
  0
DICTIONARY
  5
241
102
{ACAD_REACTORS
330
19
102
}
330
19
100
AcDbDictionary
281
     1
  3
A0
350
242
  3
A1
350
243
  3
A2
350
244
  3
A3
350
245
  3
A4
350
246
  3
A5
350
247
  3
A6
350
248
  3
A7
350
249
  3
A8
350
24A
  3
A9
350
24B
  3
B0
350
24C
  3
B1
350
24D
  3
B2
350
24E
  3
B3
350
24F
  3
B4
350
250
  3
B5
350
251
  3
B6
350
252
  3
B7
350
253
  3
B8
350
254
  3
B9
350
255
  3
C0
350
256
  3
C1
350
257
  3
C2
350
258
  3
C3
350
259
  3
C4
350
25A
  3
C5
350
25B
  3
C6
350
25C
  3
C7
350
25D
  3
C8
350
25E
  3
C9
350
25F
  3
D0
350
260
  3
D1
350
261
  3
D2
350
262
  0
DICTIONARY
  5
8D0
102
{ACAD_REACTORS
330
19
102
}
330
19
100
AcDbDictionary
281
     1
  0
DICTIONARY
  5
278
102
{ACAD_REACTORS
330
19
102
}
330
19
100
AcDbDictionary
281
     1
  3
Standard
350
279
  0
DICTIONARY
  5
267
102
{ACAD_REACTORS
330
19
102
}
330
19
100
AcDbDictionary
281
     1
  3
2dWireframe
350
26C
  3
3D Hidden
350
26E
  3
3dWireframe
350
26D
  3
Basic
350
26F
  3
Brighten
350
273
  3
ColorChange
350
277
  3
Conceptual
350
271
  3
Dim
350
272
  3
EdgeColorOff
350
8BC
  3
Facepattern
350
276
  3
Flat
350
268
  3
FlatWithEdges
350
269
  3
Gouraud
350
26A
  3
GouraudWithEdges
350
26B
  3
Hidden
350
8B9
  3
JitterOff
350
8BA
  3
Linepattern
350
275
  3
OverhangOff
350
8BB
  3
Realistic
350
270
  3
Shaded
350
8C1
  3
Shaded with edges
350
8C0
  3
Shades of Gray
350
8BD
  3
Sketchy
350
8BE
  3
Thicken
350
274
  3
Wireframe
350
8B8
  3
X-Ray
350
8BF
  0
XRECORD
  5
3D1E
102
{ACAD_REACTORS
330
19
102
}
330
19
100
AcDbXrecord
280
     1
 90
        1
330
279
  0
DICTIONARY
  5
330
102
{ACAD_REACTORS
330
19
102
}
330
19
100
AcDbDictionary
281
     1
  3
CANNOSCALE
350
331
  3
CMLEADERSTYLE
350
8DA
  3
CTABLESTYLE
350
335
  3
HPTRANSPARENCY
350
C07
  3
XCLIPFRAME
350
64A
  0
DICTIONARY
  5
27A
102
{ACAD_REACTORS
330
19
102
}
330
19
100
AcDbDictionary
281
     1
  0
DICTIONARY
  5
C08
102
{ACAD_REACTORS
330
19
102
}
330
19
100
AcDbDictionary
281
     1
  3
DIMRAILANGLE
350
2C1E
  3
DIMRAILFIRSTOFFSET
350
2C1C
  3
DIMRAILOFFSET
350
2C1D
  3
DIMRAILSENABLED
350
2C1F
  0
DICTIONARY
  5
2E2
102
{ACAD_REACTORS
330
2E1
102
}
330
2E1
100
AcDbDictionary
281
     1
  0
DICTIONARY
  5
BFE
102
{ACAD_REACTORS
330
2E1
102
}
330
2E1
100
AcDbDictionary
281
     1
1001
ACAD
1000
<All
  0
SORTENTSTABLE
  5
3C75
102
{ACAD_REACTORS
330
3C74
102
}
330
3C74
100
AcDbSortentsTable
330
A
331
0
  5
3C68
331
3C68
  5
3C6A
331
3C69
  5
3C6B
331
3C6A
  5
3C73
331
3C6B
  5
3C76
331
3C76
  5
3C69
  0
DICTIONARY
  5
3D1B
102
{ACAD_REACTORS
330
BDC
102
}
330
BDC
100
AcDbDictionary
280
     1
281
     1
  3
TEXT
360
BDE
  0
DICTIONARY
  5
3ACE
102
{ACAD_REACTORS
330
3ACD
102
}
330
3ACD
100
AcDbDictionary
281
     1
  3
ACDB_ANNOTATIONSCALES
350
3ACF
  0
DIMASSOC
  5
3C8B
102
{ACAD_REACTORS
330
3C8A
102
}
330
3C8A
100
AcDbDimAssoc
330
3C89
 90
        3
 70
     0
 71
     1
  1
AcDbOsnapPointRef
 72
     1
331
3C68
 73
     0
 91
        0
 40
0.0
 10
0.0
 20
0.0
 30
0.0
 75
     0
  1
AcDbOsnapPointRef
 72
     1
331
3C69
 73
     0
 91
        0
 40
0.0
 10
0.0
 20
0.0
 30
0.0
 75
     0
  0
DIMASSOC
  5
3C9A
102
{ACAD_REACTORS
330
3C99
102
}
330
3C99
100
AcDbDimAssoc
330
3C98
 90
        0
 70
     0
 71
     1
  0
GROUP
  5
3BC9
102
{ACAD_REACTORS
330
1A
102
}
330
1A
100
AcDbGroup
300

 70
     1
 71
     1
340
3AC0
340
3BB9
340
3BBC
340
3BC4
340
3BC5
340
3BBD
  0
GROUP
  5
3BF7
102
{ACAD_REACTORS
330
1A
102
}
330
1A
100
AcDbGroup
300

 70
     1
 71
     1
340
3BE0
340
3BF0
340
3BF1
340
3BF2
340
3BF5
340
3BF6
  0
GROUP
  5
3C6C
102
{ACAD_REACTORS
330
1A
102
}
330
1A
100
AcDbGroup
300

 70
     1
 71
     1
340
3C68
340
3C69
340
3C6A
340
3C6B
  0
LAYOUT
  5
21
102
{ACAD_REACTORS
330
1E
102
}
330
1E
100
AcDbPlotSettings
  1

  2
none_device
  4
ISO_A3_(420.00_x_297.00_MM)
  6

 40
7.5
 41
20.0
 42
7.5
 43
20.0
 44
420.0
 45
297.0
 46
0.0
 47
0.0
 48
0.0
 49
0.0
140
0.0
141
0.0
142
1.0
143
1.0
 70
     0
 72
     1
 73
     0
 74
     0
  7

 75
     0
 76
     0
 77
     2
 78
   300
147
1.0
148
0.0
149
0.0
100
AcDbLayout
  1
Layout1
 70
     0
 71
     0
 10
0.0
 20
0.0
 11
0.0
 21
0.0
 12
0.0
 22
0.0
 32
0.0
 14
0.0
 24
0.0
 34
0.0
 15
0.0
 25
0.0
 35
0.0
146
0.0
 13
0.0
 23
0.0
 33
0.0
 16
0.0
 26
0.0
 36
0.0
 17
0.0
 27
0.0
 37
0.0
 76
     0
330
B
331
349
  0
LAYOUT
  5
20
102
{ACAD_REACTORS
330
1E
102
}
330
1E
100
AcDbPlotSettings
  1

  2
none_device
  4
ISO_A3_(420.00_x_297.00_MM)
  6

 40
7.5
 41
20.0
 42
7.5
 43
20.0
 44
420.0
 45
297.0
 46
0.0
 47
0.0
 48
0.0
 49
0.0
140
0.0
141
0.0
142
1.0
143
1.0
 70
  1024
 72
     1
 73
     0
 74
     0
  7

 75
     0
 76
     0
 77
     2
 78
   300
147
1.0
148
0.0
149
0.0
100
AcDbLayout
  1
Model
 70
     0
 71
     1
 10
0.0
 20
0.0
 11
2100.0
 21
2970.0
 12
0.0
 22
0.0
 32
0.0
 14
0.0
 24
0.0
 34
0.0
 15
2100.0
 25
2970.0
 35
34.99521132346015
146
0.0
 13
0.0
 23
0.0
 33
0.0
 16
0.0
 26
0.0
 36
0.0
 17
0.0
 27
0.0
 37
0.0
 76
     0
330
A
331
15
  0
MATERIAL
  5
265
102
{ACAD_REACTORS
330
263
102
}
330
263
100
AcDbMaterial
  1
ByBlock
 72
     1
 94
      127
  0
MATERIAL
  5
264
102
{ACAD_REACTORS
330
263
102
}
330
263
100
AcDbMaterial
  1
ByLayer
 72
     1
 94
      127
  0
MATERIAL
  5
266
102
{ACAD_REACTORS
330
263
102
}
330
263
100
AcDbMaterial
  1
Global
 72
     1
 94
      127
  0
MLEADERSTYLE
  5
8D1
102
{ACAD_REACTORS
330
336
102
}
330
336
100
AcDbMLeaderStyle
170
     2
171
     1
172
     0
 90
        2
 40
0.0
 41
0.0
173
     1
 91
-1056964608
340
11
 92
       -2
290
     1
 42
2.0
291
     1
 43
8.0
  3
Standard
341
0
 44
4.0
300

342
17
174
     1
178
     6
175
     1
176
     0
 93
-1056964608
 45
4.0
292
     0
297
     0
 46
4.0
343
0
 94
-1056964608
 47
1.0
 49
1.0
140
1.0
293
     1
141
0.0
294
     1
177
     0
142
1.0
295
     0
296
     0
143
3.75
1001
ACAD_MLEADERVER
1070
     2
  0
MLINESTYLE
  5
1C
102
{ACAD_REACTORS
330
1B
102
}
330
1B
100
AcDbMlineStyle
  2
Standard
 70
     0
  3

 62
     0
 51
90.0
 52
90.0
 71
     2
 49
0.5
 62
   256
  6
BYLAYER
 49
-0.5
 62
   256
  6
BYLAYER
  0
ACDBPLACEHOLDER
  5
1D
102
{ACAD_REACTORS
330
1F
102
}
330
1F
  0
SCALE
  5
242
102
{ACAD_REACTORS
330
241
102
}
330
241
100
AcDbScale
 70
     0
300
1:1
140
1.0
141
1.0
290
     1
  0
SCALE
  5
243
102
{ACAD_REACTORS
330
241
102
}
330
241
100
AcDbScale
 70
     0
300
1:2
140
1.0
141
2.0
290
     0
  0
SCALE
  5
244
102
{ACAD_REACTORS
330
241
102
}
330
241
100
AcDbScale
 70
     0
300
1:4
140
1.0
141
4.0
290
     0
  0
SCALE
  5
245
102
{ACAD_REACTORS
330
241
102
}
330
241
100
AcDbScale
 70
     0
300
1:5
140
1.0
141
5.0
290
     0
  0
SCALE
  5
246
102
{ACAD_REACTORS
330
241
102
}
330
241
100
AcDbScale
 70
     0
300
1:8
140
1.0
141
8.0
290
     0
  0
SCALE
  5
247
102
{ACAD_REACTORS
330
241
102
}
330
241
100
AcDbScale
 70
     0
300
1:10
140
1.0
141
10.0
290
     0
  0
SCALE
  5
248
102
{ACAD_REACTORS
330
241
102
}
330
241
100
AcDbScale
 70
     0
300
1:16
140
1.0
141
16.0
290
     0
  0
SCALE
  5
249
102
{ACAD_REACTORS
330
241
102
}
330
241
100
AcDbScale
 70
     0
300
1:20
140
1.0
141
20.0
290
     0
  0
SCALE
  5
24A
102
{ACAD_REACTORS
330
241
102
}
330
241
100
AcDbScale
 70
     0
300
1:30
140
1.0
141
30.0
290
     0
  0
SCALE
  5
24B
102
{ACAD_REACTORS
330
241
102
}
330
241
100
AcDbScale
 70
     0
300
1:40
140
1.0
141
40.0
290
     0
  0
SCALE
  5
24C
102
{ACAD_REACTORS
330
241
102
}
330
241
100
AcDbScale
 70
     0
300
1:50
140
1.0
141
50.0
290
     0
  0
SCALE
  5
24D
102
{ACAD_REACTORS
330
241
102
}
330
241
100
AcDbScale
 70
     0
300
1:100
140
1.0
141
100.0
290
     0
  0
SCALE
  5
24E
102
{ACAD_REACTORS
330
241
102
}
330
241
100
AcDbScale
 70
     0
300
2:1
140
2.0
141
1.0
290
     0
  0
SCALE
  5
24F
102
{ACAD_REACTORS
330
241
102
}
330
241
100
AcDbScale
 70
     0
300
4:1
140
4.0
141
1.0
290
     0
  0
SCALE
  5
250
102
{ACAD_REACTORS
330
241
102
}
330
241
100
AcDbScale
 70
     0
300
8:1
140
8.0
141
1.0
290
     0
  0
SCALE
  5
251
102
{ACAD_REACTORS
330
241
102
}
330
241
100
AcDbScale
 70
     0
300
10:1
140
10.0
141
1.0
290
     0
  0
SCALE
  5
252
102
{ACAD_REACTORS
330
241
102
}
330
241
100
AcDbScale
 70
     0
300
100:1
140
100.0
141
1.0
290
     0
  0
SCALE
  5
253
102
{ACAD_REACTORS
330
241
102
}
330
241
100
AcDbScale
 70
     0
300
1/128" = 1'-0"
140
0.0078125
141
12.0
290
     0
  0
SCALE
  5
254
102
{ACAD_REACTORS
330
241
102
}
330
241
100
AcDbScale
 70
     0
300
1/64" = 1'-0"
140
0.015625
141
12.0
290
     0
  0
SCALE
  5
255
102
{ACAD_REACTORS
330
241
102
}
330
241
100
AcDbScale
 70
     0
300
1/32" = 1'-0"
140
0.03125
141
12.0
290
     0
  0
SCALE
  5
256
102
{ACAD_REACTORS
330
241
102
}
330
241
100
AcDbScale
 70
     0
300
1/16" = 1'-0"
140
0.0625
141
12.0
290
     0
  0
SCALE
  5
257
102
{ACAD_REACTORS
330
241
102
}
330
241
100
AcDbScale
 70
     0
300
3/32" = 1'-0"
140
0.09375
141
12.0
290
     0
  0
SCALE
  5
258
102
{ACAD_REACTORS
330
241
102
}
330
241
100
AcDbScale
 70
     0
300
1/8" = 1'-0"
140
0.125
141
12.0
290
     0
  0
SCALE
  5
259
102
{ACAD_REACTORS
330
241
102
}
330
241
100
AcDbScale
 70
     0
300
3/16" = 1'-0"
140
0.1875
141
12.0
290
     0
  0
SCALE
  5
25A
102
{ACAD_REACTORS
330
241
102
}
330
241
100
AcDbScale
 70
     0
300
1/4" = 1'-0"
140
0.25
141
12.0
290
     0
  0
SCALE
  5
25B
102
{ACAD_REACTORS
330
241
102
}
330
241
100
AcDbScale
 70
     0
300
3/8" = 1'-0"
140
0.375
141
12.0
290
     0
  0
SCALE
  5
25C
102
{ACAD_REACTORS
330
241
102
}
330
241
100
AcDbScale
 70
     0
300
1/2" = 1'-0"
140
0.5
141
12.0
290
     0
  0
SCALE
  5
25D
102
{ACAD_REACTORS
330
241
102
}
330
241
100
AcDbScale
 70
     0
300
3/4" = 1'-0"
140
0.75
141
12.0
290
     0
  0
SCALE
  5
25E
102
{ACAD_REACTORS
330
241
102
}
330
241
100
AcDbScale
 70
     0
300
1" = 1'-0"
140
1.0
141
12.0
290
     0
  0
SCALE
  5
25F
102
{ACAD_REACTORS
330
241
102
}
330
241
100
AcDbScale
 70
     0
300
1-1/2" = 1'-0"
140
1.5
141
12.0
290
     0
  0
SCALE
  5
260
102
{ACAD_REACTORS
330
241
102
}
330
241
100
AcDbScale
 70
     0
300
3" = 1'-0"
140
3.0
141
12.0
290
     0
  0
SCALE
  5
261
102
{ACAD_REACTORS
330
241
102
}
330
241
100
AcDbScale
 70
     0
300
6" = 1'-0"
140
6.0
141
12.0
290
     0
  0
SCALE
  5
262
102
{ACAD_REACTORS
330
241
102
}
330
241
100
AcDbScale
 70
     0
300
1'-0" = 1'-0"
140
12.0
141
12.0
290
     0
  0
TABLESTYLE
  5
279
102
{ACAD_REACTORS
330
278
102
}
102
{ACAD_XDICTIONARY
360
3D1C
102
}
330
278
100
AcDbTableStyle
  3
Standard
 70
     0
 71
     0
 40
0.06
 41
0.06
280
     0
281
     0
  7
Standard
140
4.5
170
     2
 62
     0
 63
   257
283
     0
 90
        4
 91
        0
  1

274
    -2
284
     1
 64
     0
275
    -2
285
     1
 65
     0
276
    -2
286
     1
 66
     0
277
    -2
287
     1
 67
     0
278
    -2
288
     1
 68
     0
279
    -2
289
     1
 69
     0
  7
Standard
140
6.0
170
     5
 62
     0
 63
   257
283
     0
 90
        4
 91
        0
  1

274
    -2
284
     1
 64
     0
275
    -2
285
     1
 65
     0
276
    -2
286
     1
 66
     0
277
    -2
287
     1
 67
     0
278
    -2
288
     1
 68
     0
279
    -2
289
     1
 69
     0
  7
Standard
140
4.5
170
     5
 62
     0
 63
   257
283
     0
 90
        4
 91
        0
  1

274
    -2
284
     1
 64
     0
275
    -2
285
     1
 65
     0
276
    -2
286
     1
 66
     0
277
    -2
287
     1
 67
     0
278
    -2
288
     1
 68
     0
279
    -2
289
     1
 69
     0
  0
VISUALSTYLE
  5
26C
102
{ACAD_REACTORS
330
267
102
}
330
267
100
AcDbVisualStyle
  2
2dWireframe
 70
     4
 71
     0
 72
     2
 73
     0
 90
        0
 40
-0.6
 41
-30.0
 62
     5
 63
     7
421
 16777215
 74
     1
 91
        4
 64
     7
 65
   257
 75
     1
175
     1
 42
1.0
 92
        0
 66
   257
 43
1.0
 76
     1
 77
     6
 78
     2
 67
     7
 79
     5
170
     0
171
     0
290
     0
174
     0
 93
        1
 44
0.0
173
     0
291
     0
 45
0.0
  0
VISUALSTYLE
  5
26E
102
{ACAD_REACTORS
330
267
102
}
330
267
100
AcDbVisualStyle
  2
3D Hidden
 70
     6
 71
     1
 72
     2
 73
     2
 90
        0
 40
-0.6
 41
-30.0
 62
     5
 63
     7
421
 16777215
 74
     2
 91
        2
 64
     7
 65
   257
 75
     2
175
     1
 42
40.0
 92
        0
 66
   257
 43
1.0
 76
     1
 77
     6
 78
     2
 67
     7
 79
     3
170
     0
171
     0
290
     0
174
     0
 93
        1
 44
0.0
173
     0
291
     0
 45
0.0
  0
VISUALSTYLE
  5
26D
102
{ACAD_REACTORS
330
267
102
}
330
267
100
AcDbVisualStyle
  2
3dWireframe
 70
     5
 71
     0
 72
     2
 73
     0
 90
        0
 40
-0.6
 41
-30.0
 62
     5
 63
     7
421
 16777215
 74
     1
 91
        4
 64
     7
 65
   257
 75
     1
175
     1
 42
1.0
 92
        0
 66
   257
 43
1.0
 76
     1
 77
     6
 78
     2
 67
     7
 79
     5
170
     0
171
     0
290
     0
174
     0
 93
        1
 44
0.0
173
     0
291
     0
 45
0.0
  0
VISUALSTYLE
  5
26F
102
{ACAD_REACTORS
330
267
102
}
330
267
100
AcDbVisualStyle
  2
Basic
 70
     7
 71
     1
 72
     0
 73
     1
 90
        0
 40
-0.6
 41
-30.0
 62
     5
 63
     7
421
 16777215
 74
     0
 91
        4
 64
     7
 65
   257
 75
     1
175
     1
 42
1.0
 92
        8
 66
     7
 43
1.0
 76
     1
 77
     6
 78
     2
 67
     7
 79
     5
170
     0
171
     0
290
     0
174
     0
 93
        1
 44
0.0
173
     0
291
     1
 45
0.0
  0
VISUALSTYLE
  5
273
102
{ACAD_REACTORS
330
267
102
}
330
267
100
AcDbVisualStyle
  2
Brighten
 70
    12
 71
     2
 72
     2
 73
     0
 90
        0
 40
-0.6
 41
-30.0
 62
     5
 63
     7
421
 16777215
 74
     1
 91
        4
 64
     7
 65
   257
 75
     1
175
     1
 42
1.0
 92
        8
 66
     7
 43
1.0
 76
     1
 77
     6
 78
     2
 67
     7
 79
     5
170
     0
171
     0
290
     0
174
     0
 93
        1
 44
50.0
173
     0
291
     1
 45
0.0
  0
VISUALSTYLE
  5
277
102
{ACAD_REACTORS
330
267
102
}
330
267
100
AcDbVisualStyle
  2
ColorChange
 70
    16
 71
     2
 72
     2
 73
     3
 90
        0
 40
-0.6
 41
-30.0
 62
     5
 63
     8
421
  8421504
 74
     1
 91
        4
 64
     7
 65
   257
 75
     1
175
     1
 42
1.0
 92
        8
 66
     8
424
  8421504
 43
1.0
 76
     1
 77
     6
 78
     2
 67
     7
 79
     5
170
     0
171
     0
290
     0
174
     0
 93
        1
 44
0.0
173
     0
291
     1
 45
0.0
  0
VISUALSTYLE
  5
271
102
{ACAD_REACTORS
330
267
102
}
330
267
100
AcDbVisualStyle
  2
Conceptual
 70
     9
 71
     3
 72
     2
 73
     0
 90
        0
 40
-0.6
 41
-30.0
 62
     5
 63
     7
421
 16777215
 74
     2
 91
        2
 64
     7
 65
   257
 75
     1
175
     1
 42
40.0
 92
        8
 66
     7
 43
1.0
 76
     1
 77
     6
 78
     2
 67
     7
 79
     3
170
     0
171
     0
290
     0
174
     0
 93
        1
 44
0.0
173
     0
291
     0
 45
0.0
  0
VISUALSTYLE
  5
272
102
{ACAD_REACTORS
330
267
102
}
330
267
100
AcDbVisualStyle
  2
Dim
 70
    11
 71
     2
 72
     2
 73
     0
 90
        0
 40
-0.6
 41
-30.0
 62
     5
 63
     7
421
 16777215
 74
     1
 91
        4
 64
     7
 65
   257
 75
     1
175
     1
 42
1.0
 92
        8
 66
     7
 43
1.0
 76
     1
 77
     6
 78
     2
 67
     7
 79
     5
170
     0
171
     0
290
     0
174
     0
 93
        1
 44
-50.0
173
     0
291
     1
 45
0.0
  0
VISUALSTYLE
  5
8BC
102
{ACAD_REACTORS
330
267
102
}
330
267
100
AcDbVisualStyle
  2
EdgeColorOff
 70
    22
 71
     2
 72
     2
 73
     0
 90
        0
 40
0.6
 41
30.0
 62
     5
 63
     7
421
 16777215
 74
     1
 91
        4
 64
     7
 65
   257
 75
     1
175
     1
 42
1.0
 92
        8
 66
     7
 43
1.0
 76
     1
 77
     6
 78
     2
 67
     7
 79
     5
170
     0
171
     0
290
     0
174
     0
 93
        1
 44
0.0
173
     0
291
     1
 45
0.0
  0
VISUALSTYLE
  5
276
102
{ACAD_REACTORS
330
267
102
}
330
267
100
AcDbVisualStyle
  2
Facepattern
 70
    15
 71
     2
 72
     2
 73
     0
 90
        0
 40
-0.6
 41
-30.0
 62
     5
 63
     7
421
 16777215
 74
     1
 91
        4
 64
     7
 65
   257
 75
     1
175
     1
 42
1.0
 92
        8
 66
     7
 43
1.0
 76
     1
 77
     6
 78
     2
 67
     7
 79
     5
170
     0
171
     0
290
     0
174
     0
 93
        1
 44
0.0
173
     0
291
     1
 45
0.0
  0
VISUALSTYLE
  5
268
102
{ACAD_REACTORS
330
267
102
}
330
267
100
AcDbVisualStyle
  2
Flat
 70
     0
 71
     2
 72
     1
 73
     1
 90
        2
 40
-0.6
 41
30.0
 62
     5
 63
     7
421
 16777215
 74
     0
 91
        4
 64
     7
 65
   257
 75
     1
175
     1
 42
1.0
 92
        8
 66
     7
 43
1.0
 76
     1
 77
     6
 78
     2
 67
     7
 79
     5
170
     0
171
     0
290
     0
174
     0
 93
       13
 44
0.0
173
     0
291
     1
 45
0.0
  0
VISUALSTYLE
  5
269
102
{ACAD_REACTORS
330
267
102
}
330
267
100
AcDbVisualStyle
  2
FlatWithEdges
 70
     1
 71
     2
 72
     1
 73
     1
 90
        2
 40
-0.6
 41
30.0
 62
     5
 63
     7
421
 16777215
 74
     1
 91
        4
 64
     7
 65
   257
 75
     1
175
     1
 42
1.0
 92
        0
 66
   257
 43
1.0
 76
     1
 77
     6
 78
     2
 67
     7
 79
     5
170
     0
171
     0
290
     0
174
     0
 93
       13
 44
0.0
173
     0
291
     1
 45
0.0
  0
VISUALSTYLE
  5
26A
102
{ACAD_REACTORS
330
267
102
}
330
267
100
AcDbVisualStyle
  2
Gouraud
 70
     2
 71
     2
 72
     2
 73
     1
 90
        2
 40
-0.6
 41
30.0
 62
     5
 63
     7
421
 16777215
 74
     0
 91
        4
 64
     7
 65
   257
 75
     1
175
     1
 42
1.0
 92
        0
 66
     7
 43
1.0
 76
     1
 77
     6
 78
     2
 67
     7
 79
     5
170
     0
171
     0
290
     0
174
     0
 93
       13
 44
0.0
173
     0
291
     1
 45
0.0
  0
VISUALSTYLE
  5
26B
102
{ACAD_REACTORS
330
267
102
}
330
267
100
AcDbVisualStyle
  2
GouraudWithEdges
 70
     3
 71
     2
 72
     2
 73
     1
 90
        2
 40
-0.6
 41
30.0
 62
     5
 63
     7
421
 16777215
 74
     1
 91
        4
 64
     7
 65
   257
 75
     1
175
     1
 42
1.0
 92
        0
 66
   257
 43
1.0
 76
     1
 77
     6
 78
     2
 67
     7
 79
     5
170
     0
171
     0
290
     0
174
     0
 93
       13
 44
0.0
173
     0
291
     1
 45
0.0
  0
VISUALSTYLE
  5
8B9
102
{ACAD_REACTORS
330
267
102
}
330
267
100
AcDbVisualStyle
  2
Hidden
 70
     6
 71
     1
 72
     2
 73
     2
 90
        0
 40
0.6
 41
30.0
 62
     5
 63
     7
421
 16777215
 74
     2
 91
        2
 64
     7
 65
   257
 75
     2
175
     1
 42
40.0
 92
        0
 66
   257
 43
1.0
 76
     1
 77
     6
 78
     2
 67
     7
 79
     3
170
     0
171
     0
290
     0
174
     0
 93
        1
 44
0.0
173
     0
291
     0
 45
0.0
  0
VISUALSTYLE
  5
8BA
102
{ACAD_REACTORS
330
267
102
}
330
267
100
AcDbVisualStyle
  2
JitterOff
 70
    20
 71
     2
 72
     2
 73
     0
 90
        0
 40
0.6
 41
30.0
 62
     5
 63
     7
421
 16777215
 74
     1
 91
        4
 64
     7
 65
   257
 75
     1
175
     1
 42
1.0
 92
       10
 66
     7
 43
1.0
 76
     1
 77
     6
 78
     2
 67
     7
 79
     5
170
     0
171
     0
290
     0
174
     0
 93
        1
 44
0.0
173
     0
291
     1
 45
0.0
  0
VISUALSTYLE
  5
275
102
{ACAD_REACTORS
330
267
102
}
330
267
100
AcDbVisualStyle
  2
Linepattern
 70
    14
 71
     2
 72
     2
 73
     0
 90
        0
 40
-0.6
 41
-30.0
 62
     5
 63
     7
421
 16777215
 74
     1
 91
        4
 64
     7
 65
   257
 75
     7
175
     7
 42
1.0
 92
        8
 66
     7
 43
1.0
 76
     1
 77
     6
 78
     2
 67
     7
 79
     5
170
     0
171
     0
290
     0
174
     0
 93
        1
 44
0.0
173
     0
291
     1
 45
0.0
  0
VISUALSTYLE
  5
8BB
102
{ACAD_REACTORS
330
267
102
}
330
267
100
AcDbVisualStyle
  2
OverhangOff
 70
    21
 71
     2
 72
     2
 73
     0
 90
        0
 40
0.6
 41
30.0
 62
     5
 63
     7
421
 16777215
 74
     1
 91
        4
 64
     7
 65
   257
 75
     1
175
     1
 42
1.0
 92
        9
 66
     7
 43
1.0
 76
     1
 77
     6
 78
     2
 67
     7
 79
     5
170
     0
171
     0
290
     0
174
     0
 93
        1
 44
0.0
173
     0
291
     1
 45
0.0
  0
VISUALSTYLE
  5
270
102
{ACAD_REACTORS
330
267
102
}
330
267
100
AcDbVisualStyle
  2
Realistic
 70
     8
 71
     2
 72
     2
 73
     0
 90
        0
 40
-0.6
 41
-30.0
 62
     5
 63
     7
421
 16777215
 74
     1
 91
        0
 64
     7
 65
   257
 75
     1
175
     1
 42
1.0
 92
        8
 66
     8
424
  7895160
 43
1.0
 76
     1
 77
     6
 78
     2
 67
     7
 79
     5
170
     0
171
     0
290
     0
174
     0
 93
       13
 44
0.0
173
     0
291
     0
 45
0.0
  0
VISUALSTYLE
  5
8C1
102
{ACAD_REACTORS
330
267
102
}
330
267
100
AcDbVisualStyle
  2
Shaded
 70
    27
 71
     2
 72
     2
 73
     1
 90
        2
 40
0.6
 41
30.0
 62
     5
 63
     7
421
 16777215
 74
     0
 91
        4
 64
     7
 65
   257
 75
     1
175
     1
 42
1.0
 92
        8
 66
   257
 43
1.0
 76
     1
 77
     6
 78
     2
 67
     8
425
  7895160
 79
     3
170
     0
171
     0
290
     0
174
     0
 93
        5
 44
0.0
173
     0
291
     0
 45
0.0
  0
VISUALSTYLE
  5
8C0
102
{ACAD_REACTORS
330
267
102
}
330
267
100
AcDbVisualStyle
  2
Shaded with edges
 70
    26
 71
     2
 72
     2
 73
     1
 90
        2
 40
0.6
 41
30.0
 62
     5
 63
     7
421
 16777215
 74
     1
 91
       10
 64
     7
 65
   257
 75
     2
175
     1
 42
1.0
 92
        8
 66
   257
 43
1.0
 76
     1
 77
     6
 78
     2
 67
     7
 79
     3
170
     0
171
     0
290
     0
174
     0
 93
        5
 44
0.0
173
     0
291
     0
 45
0.0
  0
VISUALSTYLE
  5
8BD
102
{ACAD_REACTORS
330
267
102
}
330
267
100
AcDbVisualStyle
  2
Shades of Gray
 70
    23
 71
     2
 72
     2
 73
     3
 90
        0
 40
0.6
 41
30.0
 62
     5
 63
     7
421
 16777215
 74
     2
 91
        2
 64
     7
 65
     7
 75
     1
175
     1
 42
40.0
 92
        8
 66
     7
 43
1.0
 76
     1
 77
     6
 78
     2
 67
     7
 79
     3
170
     0
171
     0
290
     0
174
     0
 93
        1
 44
0.0
173
     0
291
     0
 45
0.0
  0
VISUALSTYLE
  5
8BE
102
{ACAD_REACTORS
330
267
102
}
330
267
100
AcDbVisualStyle
  2
Sketchy
 70
    24
 71
     1
 72
     2
 73
     2
 90
        0
 40
0.6
 41
30.0
 62
     5
 63
     7
421
 16777215
 74
     2
 91
        2
 64
     7
 65
     7
 75
     1
175
     1
 42
40.0
 92
       11
 66
     7
 43
1.0
 76
     1
 77
     6
 78
     2
 67
     7
 79
     6
170
     0
171
     0
290
     0
174
     0
 93
        1
 44
0.0
173
     0
291
     0
 45
0.0
  0
VISUALSTYLE
  5
274
102
{ACAD_REACTORS
330
267
102
}
330
267
100
AcDbVisualStyle
  2
Thicken
 70
    13
 71
     2
 72
     2
 73
     0
 90
        0
 40
-0.6
 41
-30.0
 62
     5
 63
     7
421
 16777215
 74
     1
 91
        4
 64
     7
 65
   257
 75
     1
175
     1
 42
1.0
 92
       12
 66
     7
 43
1.0
 76
     1
 77
     6
 78
     2
 67
     7
 79
     5
170
     0
171
     0
290
     0
174
     0
 93
        1
 44
0.0
173
     0
291
     1
 45
0.0
  0
VISUALSTYLE
  5
8B8
102
{ACAD_REACTORS
330
267
102
}
330
267
100
AcDbVisualStyle
  2
Wireframe
 70
     5
 71
     0
 72
     2
 73
     0
 90
        0
 40
0.6
 41
30.0
 62
     5
 63
     7
421
 16777215
 74
     1
 91
        4
 64
     7
 65
   257
 75
     1
175
     1
 42
1.0
 92
        0
 66
   257
 43
1.0
 76
     1
 77
     6
 78
     2
 67
     7
 79
     3
170
     0
171
     0
290
     0
174
     0
 93
        1
 44
0.0
173
     0
291
     0
 45
0.0
  0
VISUALSTYLE
  5
8BF
102
{ACAD_REACTORS
330
267
102
}
330
267
100
AcDbVisualStyle
  2
X-Ray
 70
    25
 71
     2
 72
     2
 73
     1
 90
        1
 40
0.5
 41
30.0
 62
     5
 63
     7
421
 16777215
 74
     1
 91
        0
 64
     7
 65
   257
 75
     1
175
     1
 42
1.0
 92
        8
 66
     7
 43
1.0
 76
     1
 77
     6
 78
     2
 67
     7
 79
     3
170
     0
171
     0
290
     0
174
     0
 93
       13
 44
0.0
173
     0
291
     0
 45
0.0
  0
DICTIONARYVAR
  5
331
102
{ACAD_REACTORS
330
330
102
}
330
330
100
DictionaryVariables
280
     0
  1
1:1
  0
DICTIONARYVAR
  5
8DA
102
{ACAD_REACTORS
330
330
102
}
330
330
100
DictionaryVariables
280
     0
  1
Standard
  0
DICTIONARYVAR
  5
335
102
{ACAD_REACTORS
330
330
102
}
330
330
100
DictionaryVariables
280
     0
  1
Standard
  0
DICTIONARYVAR
  5
C07
102
{ACAD_REACTORS
330
330
102
}
330
330
100
DictionaryVariables
280
     0
  1
ByLayer
  0
DICTIONARYVAR
  5
64A
102
{ACAD_REACTORS
330
330
102
}
330
330
100
DictionaryVariables
280
     0
  1
0
  0
DICTIONARYVAR
  5
2C1E
102
{ACAD_REACTORS
330
C08
102
}
330
C08
100
DictionaryVariables
280
     0
  1
0.261799
  0
DICTIONARYVAR
  5
2C1C
102
{ACAD_REACTORS
330
C08
102
}
330
C08
100
DictionaryVariables
280
     0
  1
0.400000
  0
DICTIONARYVAR
  5
2C1D
102
{ACAD_REACTORS
330
C08
102
}
330
C08
100
DictionaryVariables
280
     0
  1
0.250000
  0
DICTIONARYVAR
  5
2C1F
102
{ACAD_REACTORS
330
C08
102
}
330
C08
100
DictionaryVariables
280
     0
  1
1
  0
FIELD
  5
BDE
102
{ACAD_REACTORS
330
3D10
330
3D1B
102
}
330
3D1B
100
AcDbField
  1
_text
  2
{%<\_FldIdx 0>%N}
 90
        1
360
BDF
 97
        0
 91
       63
 92
        0
 94
       11
 95
        2
 96
        0
300

 93
        1
  6
ACFD_FIELDTEXT_CHECKSUM
 93
        2
 90
        2
140
4442.0
 94
        0
300

302

304
ACVALUE_END
  7
ACFD_FIELD_VALUE
 93
        6
 90
        4
  1
{20200131N}
 94
        0
300

302

304
ACVALUE_END
301
{20200131N}
 98
       11
  0
DICTIONARY
  5
3ACF
102
{ACAD_REACTORS
330
3ACE
102
}
330
3ACE
100
AcDbDictionary
281
     1
  0
DICTIONARY
  5
3D1C
330
279
100
AcDbDictionary
280
     1
281
     1
  3
ACAD_ROUNDTRIP_2008_TABLESTYLE_CELLSTYLEMAP
360
3D1D
  0
FIELD
  5
BDF
330
BDE
100
AcDbField
  1
AcVar
  2
\AcVar Date \f "yyyyMMdd"
 90
        0
 97
        0
 91
       63
 92
        0
 94
        8
 95
       64
 96
        0
300
Variable not supported
 93
        1
  6
Variable
 93
        2
 90
        4
  1
Date
 94
        0
300

302

304
ACVALUE_END
  7
ACFD_FIELD_VALUE
 93
        6
 90
        8
 92
       16
310
E407010000001F000B00080030000000
 94
        0
300
yyyyMMdd
302

304
ACVALUE_END
301
20200131
 98
        8
  0
CELLSTYLEMAP
  5
3D1D
102
{ACAD_REACTORS
330
3D1C
102
}
330
3D1C
100
AcDbCellStyleMap
 90
        3
300
CELLSTYLE
  1
TABLEFORMAT_BEGIN
 90
        5
170
     1
 91
        0
 92
    32768
 62
   257
 93
        1
300
CONTENTFORMAT
  1
CONTENTFORMAT_BEGIN
 90
        0
 91
        0
 92
        4
 93
        0
300

 40
0.0
140
1.0
 94
        5
 62
     0
340
17
144
6.0
309
CONTENTFORMAT_END
171
     1
301
MARGIN
  1
CELLMARGIN_BEGIN
 40
0.06
 40
0.06
 40
0.06
 40
0.06
 40
0.18
 40
0.18
309
CELLMARGIN_END
 94
        6
 95
        1
302
GRIDFORMAT
  1
GRIDFORMAT_BEGIN
 90
        0
 91
        1
 62
     0
 92
       -2
340
0
 93
        0
 40
0.045
309
GRIDFORMAT_END
 95
        2
302
GRIDFORMAT
  1
GRIDFORMAT_BEGIN
 90
        0
 91
        1
 62
     0
 92
       -2
340
0
 93
        0
 40
0.045
309
GRIDFORMAT_END
 95
        4
302
GRIDFORMAT
  1
GRIDFORMAT_BEGIN
 90
        0
 91
        1
 62
     0
 92
       -2
340
0
 93
        0
 40
0.045
309
GRIDFORMAT_END
 95
        8
302
GRIDFORMAT
  1
GRIDFORMAT_BEGIN
 90
        0
 91
        1
 62
     0
 92
       -2
340
0
 93
        0
 40
0.045
309
GRIDFORMAT_END
 95
       16
302
GRIDFORMAT
  1
GRIDFORMAT_BEGIN
 90
        0
 91
        1
 62
     0
 92
       -2
340
0
 93
        0
 40
0.045
309
GRIDFORMAT_END
 95
       32
302
GRIDFORMAT
  1
GRIDFORMAT_BEGIN
 90
        0
 91
        1
 62
     0
 92
       -2
340
0
 93
        0
 40
0.045
309
GRIDFORMAT_END
309
TABLEFORMAT_END
  1
CELLSTYLE_BEGIN
 90
        1
 91
        1
300
_TITLE
309
CELLSTYLE_END
300
CELLSTYLE
  1
TABLEFORMAT_BEGIN
 90
        5
170
     1
 91
        0
 92
        0
 62
   257
 93
        1
300
CONTENTFORMAT
  1
CONTENTFORMAT_BEGIN
 90
        0
 91
        0
 92
        4
 93
        0
300

 40
0.0
140
1.0
 94
        5
 62
     0
340
17
144
4.5
309
CONTENTFORMAT_END
171
     1
301
MARGIN
  1
CELLMARGIN_BEGIN
 40
0.06
 40
0.06
 40
0.06
 40
0.06
 40
0.18
 40
0.18
309
CELLMARGIN_END
 94
        6
 95
        1
302
GRIDFORMAT
  1
GRIDFORMAT_BEGIN
 90
        0
 91
        1
 62
     0
 92
       -2
340
0
 93
        0
 40
0.045
309
GRIDFORMAT_END
 95
        2
302
GRIDFORMAT
  1
GRIDFORMAT_BEGIN
 90
        0
 91
        1
 62
     0
 92
       -2
340
0
 93
        0
 40
0.045
309
GRIDFORMAT_END
 95
        4
302
GRIDFORMAT
  1
GRIDFORMAT_BEGIN
 90
        0
 91
        1
 62
     0
 92
       -2
340
0
 93
        0
 40
0.045
309
GRIDFORMAT_END
 95
        8
302
GRIDFORMAT
  1
GRIDFORMAT_BEGIN
 90
        0
 91
        1
 62
     0
 92
       -2
340
0
 93
        0
 40
0.045
309
GRIDFORMAT_END
 95
       16
302
GRIDFORMAT
  1
GRIDFORMAT_BEGIN
 90
        0
 91
        1
 62
     0
 92
       -2
340
0
 93
        0
 40
0.045
309
GRIDFORMAT_END
 95
       32
302
GRIDFORMAT
  1
GRIDFORMAT_BEGIN
 90
        0
 91
        1
 62
     0
 92
       -2
340
0
 93
        0
 40
0.045
309
GRIDFORMAT_END
309
TABLEFORMAT_END
  1
CELLSTYLE_BEGIN
 90
        2
 91
        1
300
_HEADER
309
CELLSTYLE_END
300
CELLSTYLE
  1
TABLEFORMAT_BEGIN
 90
        5
170
     1
 91
        0
 92
        0
 62
   257
 93
        1
300
CONTENTFORMAT
  1
CONTENTFORMAT_BEGIN
 90
        0
 91
        0
 92
        4
 93
        0
300

 40
0.0
140
1.0
 94
        2
 62
     0
340
17
144
4.5
309
CONTENTFORMAT_END
171
     1
301
MARGIN
  1
CELLMARGIN_BEGIN
 40
0.06
 40
0.06
 40
0.06
 40
0.06
 40
0.18
 40
0.18
309
CELLMARGIN_END
 94
        6
 95
        1
302
GRIDFORMAT
  1
GRIDFORMAT_BEGIN
 90
        0
 91
        1
 62
     0
 92
       -2
340
0
 93
        0
 40
0.045
309
GRIDFORMAT_END
 95
        2
302
GRIDFORMAT
  1
GRIDFORMAT_BEGIN
 90
        0
 91
        1
 62
     0
 92
       -2
340
0
 93
        0
 40
0.045
309
GRIDFORMAT_END
 95
        4
302
GRIDFORMAT
  1
GRIDFORMAT_BEGIN
 90
        0
 91
        1
 62
     0
 92
       -2
340
0
 93
        0
 40
0.045
309
GRIDFORMAT_END
 95
        8
302
GRIDFORMAT
  1
GRIDFORMAT_BEGIN
 90
        0
 91
        1
 62
     0
 92
       -2
340
0
 93
        0
 40
0.045
309
GRIDFORMAT_END
 95
       16
302
GRIDFORMAT
  1
GRIDFORMAT_BEGIN
 90
        0
 91
        1
 62
     0
 92
       -2
340
0
 93
        0
 40
0.045
309
GRIDFORMAT_END
 95
       32
302
GRIDFORMAT
  1
GRIDFORMAT_BEGIN
 90
        0
 91
        1
 62
     0
 92
       -2
340
0
 93
        0
 40
0.045
309
GRIDFORMAT_END
309
TABLEFORMAT_END
  1
CELLSTYLE_BEGIN
 90
        3
 91
        2
300
_DATA
309
CELLSTYLE_END
  0
ENDSEC
  0
EOF
