  0
SECTION
  2
HEADER
  9
$ACADVER
  1
AC1021
  9
$ACADMAINTVER
 70
    25
  9
$DWGCODEPAGE
  3
ANSI_932
  9
$LASTSAVEDBY
  1
howeNelson
  9
$INSBASE
 10
0.0
 20
0.0
 30
0.0
  9
$EXTMIN
 10
0.0
 20
0.0
 30
-0.0666226581190458
  9
$EXTMAX
 10
2100.0
 20
2970.0
 30
34.99521132346015
  9
$LIMMIN
 10
0.0
 20
0.0
  9
$LIMMAX
 10
2100.0
 20
2970.0
  9
$ORTHOMODE
 70
     0
  9
$REGENMODE
 70
     1
  9
$FILLMODE
 70
     1
  9
$QTEXTMODE
 70
     0
  9
$MIRRTEXT
 70
     1
  9
$LTSCALE
 40
5.0
  9
$ATTMODE
 70
     1
  9
$TEXTSIZE
 40
533.0403732820173
  9
$TRACEWID
 40
1.0
  9
$TEXTSTYLE
  7
Standard
  9
$CLAYER
  8
Dim
  9
$CELTYPE
  6
Continuous
  9
$CECOLOR
 62
   256
  9
$CELTSCALE
 40
1.0
  9
$DISPSILH
 70
     0
  9
$DIMSCALE
 40
1.0
  9
$DIMASZ
 40
9.999389648437498
  9
$DIMEXO
 40
25.0
  9
$DIMDLI
 40
0.9999999999999999
  9
$DIMRND
 40
0.0
  9
$DIMDLE
 40
0.0
  9
$DIMEXE
 40
0.0
  9
$DIMTP
 40
0.0
  9
$DIMTM
 40
0.0
  9
$DIMTXT
 40
24.4326171875
  9
$DIMCEN
 40
0.0
  9
$DIMTSZ
 40
0.0
  9
$DIMTOL
 70
     0
  9
$DIMLIM
 70
     0
  9
$DIMTIH
 70
     0
  9
$DIMTOH
 70
     0
  9
$DIMSE1
 70
     0
  9
$DIMSE2
 70
     0
  9
$DIMTAD
 70
     1
  9
$DIMZIN
 70
    11
  9
$DIMBLK
  1
DOT
  9
$DIMASO
 70
     1
  9
$DIMSHO
 70
     1
  9
$DIMPOST
  1
<>
  9
$DIMAPOST
  1
[]
  9
$DIMALT
 70
     0
  9
$DIMALTD
 70
     1
  9
$DIMALTF
 40
1.0
  9
$DIMLFAC
 40
1.0
  9
$DIMTOFL
 70
     1
  9
$DIMTVP
 40
0.0
  9
$DIMTIX
 70
     1
  9
$DIMSOXD
 70
     0
  9
$DIMSAH
 70
     0
  9
$DIMBLK1
  1

  9
$DIMBLK2
  1

  9
$DIMSTYLE
  2
tform線あり
  9
$DIMCLRD
 70
     0
  9
$DIMCLRE
 70
     0
  9
$DIMCLRT
 70
     0
  9
$DIMTFAC
 40
0.8
  9
$DIMGAP
 40
10.0
  9
$DIMJUST
 70
     0
  9
$DIMSD1
 70
     0
  9
$DIMSD2
 70
     0
  9
$DIMTOLJ
 70
     1
  9
$DIMTZIN
 70
    11
  9
$DIMALTZ
 70
    11
  9
$DIMALTTZ
 70
    11
  9
$DIMUPT
 70
     0
  9
$DIMDEC
 70
     1
  9
$DIMTDEC
 70
     1
  9
$DIMALTU
 70
     2
  9
$DIMALTTD
 70
     2
  9
$DIMTXSTY
  7
ＭＳ ゴシック
  9
$DIMAUNIT
 70
     0
  9
$DIMADEC
 70
     2
  9
$DIMALTRND
 40
0.0
  9
$DIMAZIN
 70
     0
  9
$DIMDSEP
 70
    46
  9
$DIMATFIT
 70
     0
  9
$DIMFRAC
 70
     2
  9
$DIMLDRBLK
  1
DOT
  9
$DIMLUNIT
 70
     2
  9
$DIMLWD
 70
    -2
  9
$DIMLWE
 70
    -2
  9
$DIMTMOVE
 70
     0
  9
$DIMFXL
 40
1.0
  9
$DIMFXLON
 70
     0
  9
$DIMJOGANG
 40
0.7853981633974483
  9
$DIMTFILL
 70
     0
  9
$DIMTFILLCLR
 70
     0
  9
$DIMARCSYM
 70
     0
  9
$DIMLTYPE
  6

  9
$DIMLTEX1
  6

  9
$DIMLTEX2
  6

  9
$LUNITS
 70
     2
  9
$LUPREC
 70
     0
  9
$SKETCHINC
 40
0.1
  9
$FILLETRAD
 40
0.0
  9
$AUNITS
 70
     0
  9
$AUPREC
 70
     0
  9
$MENU
  1
acad
  9
$ELEVATION
 40
0.0
  9
$PELEVATION
 40
0.0
  9
$THICKNESS
 40
0.0
  9
$LIMCHECK
 70
     0
  9
$CHAMFERA
 40
0.0
  9
$CHAMFERB
 40
0.0
  9
$CHAMFERC
 40
0.0
  9
$CHAMFERD
 40
0.0
  9
$SKPOLY
 70
     0
  9
$TDCREATE
 40
2447893.375
  9
$TDUCREATE
 40
0.0
  9
$TDUPDATE
 40
2458816.470912419
  9
$TDUUPDATE
 40
2458816.095912419
  9
$TDINDWG
 40
0.0212211227
  9
$TDUSRTIMER
 40
0.0005902546
  9
$USRTIMER
 70
     1
  9
$ANGBASE
 50
0.0
  9
$ANGDIR
 70
     0
  9
$PDMODE
 70
     1
  9
$PDSIZE
 40
-2.0
  9
$PLINEWID
 40
0.0
  9
$SPLFRAME
 70
     0
  9
$SPLINETYPE
 70
     6
  9
$SPLINESEGS
 70
     8
  9
$HANDSEED
  5
4430
  9
$SURFTAB1
 70
     6
  9
$SURFTAB2
 70
     6
  9
$SURFTYPE
 70
     6
  9
$SURFU
 70
     6
  9
$SURFV
 70
     6
  9
$UCSBASE
  2

  9
$UCSNAME
  2

  9
$UCSORG
 10
0.0
 20
0.0
 30
0.0
  9
$UCSXDIR
 10
1.0
 20
0.0
 30
0.0
  9
$UCSYDIR
 10
0.0
 20
1.0
 30
0.0
  9
$UCSORTHOREF
  2

  9
$UCSORTHOVIEW
 70
     0
  9
$UCSORGTOP
 10
0.0
 20
0.0
 30
0.0
  9
$UCSORGBOTTOM
 10
0.0
 20
0.0
 30
0.0
  9
$UCSORGLEFT
 10
0.0
 20
0.0
 30
0.0
  9
$UCSORGRIGHT
 10
0.0
 20
0.0
 30
0.0
  9
$UCSORGFRONT
 10
0.0
 20
0.0
 30
0.0
  9
$UCSORGBACK
 10
0.0
 20
0.0
 30
0.0
  9
$PUCSBASE
  2

  9
$PUCSNAME
  2

  9
$PUCSORG
 10
0.0
 20
0.0
 30
0.0
  9
$PUCSXDIR
 10
1.0
 20
0.0
 30
0.0
  9
$PUCSYDIR
 10
0.0
 20
1.0
 30
0.0
  9
$PUCSORTHOREF
  2

  9
$PUCSORTHOVIEW
 70
     0
  9
$PUCSORGTOP
 10
0.0
 20
0.0
 30
0.0
  9
$PUCSORGBOTTOM
 10
0.0
 20
0.0
 30
0.0
  9
$PUCSORGLEFT
 10
0.0
 20
0.0
 30
0.0
  9
$PUCSORGRIGHT
 10
0.0
 20
0.0
 30
0.0
  9
$PUCSORGFRONT
 10
0.0
 20
0.0
 30
0.0
  9
$PUCSORGBACK
 10
0.0
 20
0.0
 30
0.0
  9
$USERI1
 70
     0
  9
$USERI2
 70
     0
  9
$USERI3
 70
     0
  9
$USERI4
 70
     0
  9
$USERI5
 70
     0
  9
$USERR1
 40
0.0
  9
$USERR2
 40
0.0
  9
$USERR3
 40
0.0
  9
$USERR4
 40
0.0
  9
$USERR5
 40
0.0
  9
$WORLDVIEW
 70
     1
  9
$SHADEDGE
 70
     3
  9
$SHADEDIF
 70
    70
  9
$TILEMODE
 70
     1
  9
$MAXACTVP
 70
    64
  9
$PINSBASE
 10
0.0
 20
0.0
 30
0.0
  9
$PLIMCHECK
 70
     0
  9
$PEXTMIN
 10
0.0
 20
0.0
 30
0.0
  9
$PEXTMAX
 10
0.0
 20
0.0
 30
0.0
  9
$PLIMMIN
 10
-7.5
 20
-20.0
  9
$PLIMMAX
 10
412.5
 20
277.0
  9
$UNITMODE
 70
     0
  9
$VISRETAIN
 70
     0
  9
$PLINEGEN
 70
     1
  9
$PSLTSCALE
 70
     0
  9
$TREEDEPTH
 70
  3020
  9
$CMLSTYLE
  2
Standard
  9
$CMLJUST
 70
     0
  9
$CMLSCALE
 40
1.0
  9
$PROXYGRAPHICS
 70
     0
  9
$MEASUREMENT
 70
     1
  9
$CELWEIGHT
370
    -1
  9
$ENDCAPS
280
     0
  9
$JOINSTYLE
280
     0
  9
$LWDISPLAY
290
     1
  9
$INSUNITS
 70
     4
  9
$HYPERLINKBASE
  1

  9
$STYLESHEET
  1

  9
$XEDIT
290
     1
  9
$CEPSNTYPE
380
     0
  9
$PSTYLEMODE
290
     1
  9
$FINGERPRINTGUID
  2

  9
$VERSIONGUID
  2

  9
$EXTNAMES
290
     1
  9
$PSVPSCALE
 40
0.0
  9
$OLESTARTUP
290
     0
  9
$SORTENTS
280
   127
  9
$INDEXCTL
280
     0
  9
$HIDETEXT
280
     1
  9
$XCLIPFRAME
290
     0
  9
$HALOGAP
280
     0
  9
$OBSCOLOR
 70
   257
  9
$OBSLTYPE
280
     0
  9
$INTERSECTIONDISPLAY
280
     0
  9
$INTERSECTIONCOLOR
 70
   257
  9
$DIMASSOC
280
     2
  9
$PROJECTNAME
  1

  9
$CAMERADISPLAY
290
     0
  9
$LENSLENGTH
 40
50.0
  9
$CAMERAHEIGHT
 40
0.0
  9
$STEPSPERSEC
 40
2.0
  9
$STEPSIZE
 40
6.0
  9
$3DDWFPREC
 40
2.0
  9
$PSOLWIDTH
 40
0.25
  9
$PSOLHEIGHT
 40
4.0
  9
$LOFTANG1
 40
1.570796326794897
  9
$LOFTANG2
 40
1.570796326794897
  9
$LOFTMAG1
 40
0.0
  9
$LOFTMAG2
 40
0.0
  9
$LOFTPARAM
 70
     7
  9
$LOFTNORMALS
280
     1
  9
$LATITUDE
 40
37.795
  9
$LONGITUDE
 40
-122.394
  9
$NORTHDIRECTION
 40
0.0
  9
$TIMEZONE
 70
 -8000
  9
$LIGHTGLYPHDISPLAY
280
     1
  9
$TILEMODELIGHTSYNCH
280
     1
  9
$SOLIDHIST
280
     1
  9
$SHOWHIST
280
     1
  9
$DWFFRAME
280
     2
  9
$DGNFRAME
280
     2
  9
$REALWORLDSCALE
290
     1
  9
$INTERFERECOLOR
 62
   256
  9
$CSHADOW
280
     0
  9
$SHADOWPLANELOCATION
 40
0.0
  0
ENDSEC
  0
SECTION
  2
CLASSES
  0
CLASS
  1
LWPOLYLINE
  2
AcDbPolyline
  3
ObjectDBX Classes
 90
        0
 91
        1
280
     0
281
     1
  0
CLASS
  1
IMAGE
  2
AcDbRasterImage
  3
ISM
 90
      127
 91
        5
280
     0
281
     1
  0
CLASS
  1
OLE2FRAME
  2
AcDbOle2Frame
  3
ObjectDBX Classes
 90
        0
 91
        1
280
     0
281
     1
  0
CLASS
  1
HATCH
  2
AcDbHatch
  3
ObjectDBX Classes
 90
        0
 91
        1
280
     0
281
     1
  0
CLASS
  1
DICTIONARYVAR
  2
AcDbDictionaryVar
  3
ObjectDBX Classes
 90
        0
 91
        4
280
     0
281
     0
  0
CLASS
  1
RASTERVARIABLES
  2
AcDbRasterVariables
  3
ISM
 90
        0
 91
        4
280
     0
281
     0
  0
CLASS
  1
IMAGEDEF
  2
AcDbRasterImageDef
  3
ISM
 90
        0
 91
        4
280
     0
281
     0
  0
CLASS
  1
IMAGEDEF_REACTOR
  2
AcDbRasterImageDefReactor
  3
ISM
 90
        1
 91
        4
280
     0
281
     0
  0
CLASS
  1
IDBUFFER
  2
AcDbIdBuffer
  3
ObjectDBX Classes
 90
        0
 91
        4
280
     0
281
     0
  0
CLASS
  1
SPATIAL_FILTER
  2
AcDbSpatialFilter
  3
ObjectDBX Classes
 90
        0
 91
        4
280
     0
281
     0
  0
CLASS
  1
XRECORD
  2
AcDbXrecord
  3
ObjectDBX Classes
 90
        0
 91
        1
280
     0
281
     0
  0
CLASS
  1
SORTENTSTABLE
  2
AcDbSortentsTable
  3
ObjectDBX Classes
 90
        0
 91
        4
280
     0
281
     0
  0
CLASS
  1
LAYER_INDEX
  2
AcDbLayerIndex
  3
ObjectDBX Classes
 90
        0
 91
        4
280
     0
281
     0
  0
CLASS
  1
SPATIAL_INDEX
  2
AcDbSpatialIndex
  3
AutoCAD 2000
 90
        0
 91
        4
280
     0
281
     0
  0
CLASS
  1
OBJECT_PTR
  2
CAseDLPNTableRecord
  3
ASE-LPNTableRecord
 90
        1
 91
        4
280
     0
281
     0
  0
CLASS
  1
LAYOUT
  2
AcDbLayout
  3
ObjectDBX Classes
 90
        0
 91
        1
280
     0
281
     0
  0
CLASS
  1
PLOTSETTINGS
  2
AcDbPlotSettings
  3
ObjectDBX Classes
 90
        0
 91
        4
280
     0
281
     0
  0
CLASS
  1
ACDBDICTIONARYWDFLT
  2
AcDbDictionaryWithDefault
  3
ObjectDBX Classes
 90
        0
 91
        4
280
     0
281
     0
  0
CLASS
  1
ACDBPLACEHOLDER
  2
AcDbPlaceHolder
  3
ObjectDBX Classes
 90
        0
 91
        1
280
     0
281
     0
  0
CLASS
  1
SCALE
  2
AcDbScale
  3
ObjectDBX Classes
 90
     1153
 91
        4
280
     0
281
     0
  0
CLASS
  1
MATERIAL
  2
AcDbMaterial
  3
ObjectDBX Classes
 90
     1153
 91
        4
280
     0
281
     0
  0
CLASS
  1
VISUALSTYLE
  2
AcDbVisualStyle
  3
ObjectDBX Classes
 90
     4095
 91
        4
280
     0
281
     0
  0
CLASS
  1
TABLESTYLE
  2
AcDbTableStyle
  3
ObjectDBX Classes
 90
     4095
 91
        4
280
     0
281
     0
  0
CLASS
  1
DIMASSOC
  2
AcDbDimAssoc
  3
"AcDbDimAssoc|Product Desc:     AcDim ARX App For Dimension|Company:          Autodesk, Inc.|WEB Address:      www.autodesk.com"
 90
        0
 91
        4
280
     0
281
     0
  0
CLASS
  1
CELLSTYLEMAP
  2
AcDbCellStyleMap
  3
ObjectDBX Classes
 90
     1152
 91
        4
280
     0
281
     0
  0
CLASS
  1
SUN
  2
AcDbSun
  3
SCENEOE
 90
     1153
 91
        4
280
     0
281
     0
  0
CLASS
  1
MLEADERSTYLE
  2
AcDbMLeaderStyle
  3
ACDB_MLEADERSTYLE_CLASS
 90
     4095
 91
        4
280
     0
281
     0
  0
CLASS
  1
FIELD
  2
AcDbField
  3
ObjectDBX Classes
 90
     1152
 91
        4
280
     0
281
     0
  0
CLASS
  1
FIELDLIST
  2
AcDbFieldList
  3
ObjectDBX Classes
 90
     1152
 91
        4
280
     0
281
     0
  0
CLASS
  1
ACDB_ALDIMOBJECTCONTEXTDATA_CLASS
  2
AcDbAlignedDimensionObjectContextData
  3
ObjectDBX Classes
 90
     1153
 91
        4
280
     0
281
     0
  0
ENDSEC
  0
SECTION
  2
TABLES
  0
TABLE
  2
VPORT
  5
7
330
0
100
AcDbSymbolTable
 70
     1
  0
VPORT
  5
15
330
7
100
AcDbSymbolTableRecord
100
AcDbViewportTableRecord
  2
*ACTIVE
 70
     0
 10
0.0
 20
0.0
 11
1.0
 21
1.0
 12
672.9525617540355
 22
1782.612370234525
 13
0.0
 23
0.0
 14
1.0
 24
1.0
 15
0.0
 25
0.0
 16
0.0
 26
0.0
 36
1.0
 17
377.0474382459645
 27
-297.6123702345253
 37
0.0
 40
3029.4
 41
2.310294117647059
 42
50.0
 43
0.0
 44
0.0
 50
0.0
 51
0.0
 71
    16
 72
  2000
 73
     1
 74
     1
 75
     0
 76
     0
 77
     0
 78
     0
281
     0
 65
     1
110
0.0
120
0.0
130
0.0
111
1.0
121
0.0
131
0.0
112
0.0
122
1.0
132
0.0
 79
     0
146
0.0
348
26C
 60
     3
 61
     5
292
     1
282
     1
141
0.0
142
0.0
 63
   256
361
8C2
  0
ENDTAB
  0
TABLE
  2
LTYPE
  5
4
330
0
100
AcDbSymbolTable
 70
     3
  0
LTYPE
  5
11
330
4
100
AcDbSymbolTableRecord
100
AcDbLinetypeTableRecord
  2
ByBlock
 70
     0
  3

 72
    65
 73
     0
 40
0.0
  0
LTYPE
  5
12
330
4
100
AcDbSymbolTableRecord
100
AcDbLinetypeTableRecord
  2
ByLayer
 70
     0
  3

 72
    65
 73
     0
 40
0.0
  0
LTYPE
  5
13
330
4
100
AcDbSymbolTableRecord
100
AcDbLinetypeTableRecord
  2
Continuous
 70
     0
  3
Solid line
 72
    65
 73
     0
 40
0.0
  0
LTYPE
  5
8D4
330
4
100
AcDbSymbolTableRecord
100
AcDbLinetypeTableRecord
  2
HIDDEN
 70
     0
  3
Hidden _ _ _ _ _ _ _ _ _ _ _ _ _ _ _ _ _ _ _ _ 
 72
    65
 73
     2
 40
9.524999999999999
 49
6.35
 74
     0
 49
-3.175
 74
     0
  0
LTYPE
  5
BF2
330
4
100
AcDbSymbolTableRecord
100
AcDbLinetypeTableRecord
  2
BORDER
 70
     0
  3
Border __  __  . __  __  . __  __  . __  __  . 
 72
    65
 73
     6
 40
44.45
 49
12.7
 74
     0
 49
-6.35
 74
     0
 49
12.7
 74
     0
 49
-6.35
 74
     0
 49
0.0
 74
     0
 49
-6.35
 74
     0
  0
ENDTAB
  0
TABLE
  2
LAYER
  5
2
102
{ACAD_XDICTIONARY
360
2E1
102
}
330
0
100
AcDbSymbolTable
 70
     8
  0
LAYER
  5
14
330
2
100
AcDbSymbolTableRecord
100
AcDbLayerTableRecord
  2
0
 70
     0
 62
     7
  6
Continuous
370
    -3
390
1D
347
266
  0
LAYER
  5
4A
330
2
100
AcDbSymbolTableRecord
100
AcDbLayerTableRecord
  2
Defpoints
 70
     0
 62
     7
  6
Continuous
290
     0
370
    20
390
1D
347
266
  0
LAYER
  5
4B
330
2
100
AcDbSymbolTableRecord
100
AcDbLayerTableRecord
  2
template
 70
     0
 62
     7
  6
Continuous
370
    20
390
1D
347
266
  0
LAYER
  5
4D
330
2
100
AcDbSymbolTableRecord
100
AcDbLayerTableRecord
  2
MODEL
 70
     0
 62
     7
  6
Continuous
370
    20
390
1D
347
266
  0
LAYER
  5
382
330
2
100
AcDbSymbolTableRecord
100
AcDbLayerTableRecord
  2
レイヤー 1
 70
     0
 62
     7
  6
Continuous
370
    -3
390
1D
347
266
  0
LAYER
  5
5C4
330
2
100
AcDbSymbolTableRecord
100
AcDbLayerTableRecord
  2
HIDDEN
 70
     0
 62
   253
  6
HIDDEN
370
    20
390
1D
347
266
1001
AcAecLayerStandard
1000

1000

  0
LAYER
  5
5EB
330
2
100
AcDbSymbolTableRecord
100
AcDbLayerTableRecord
  2
Dim
 70
     0
 62
     3
  6
Continuous
370
    13
390
1D
347
266
1001
AcAecLayerStandard
1000

1000

  0
LAYER
  5
BF1
330
2
100
AcDbSymbolTableRecord
100
AcDbLayerTableRecord
  2
PRINT BORDER
 70
     0
 62
     4
  6
BORDER
290
     0
370
    20
390
1D
347
266
1001
AcAecLayerStandard
1000

1000

  0
ENDTAB
  0
TABLE
  2
STYLE
  5
3
330
0
100
AcDbSymbolTable
 70
     2
  0
STYLE
  5
17
330
3
100
AcDbSymbolTableRecord
100
AcDbTextStyleTableRecord
  2
Standard
 70
     0
 40
0.0
 41
1.0
 50
0.0
 71
     0
 42
533.0403732820173
  3
txt
  4
BIGFONT.SHX
  0
STYLE
  5
39
330
3
100
AcDbSymbolTableRecord
100
AcDbTextStyleTableRecord
  2
ＭＳ ゴシック
 70
     0
 40
0.0
 41
1.0
 50
0.0
 71
     0
 42
533.0403732820173
  3
msgothic.ttc
  4
ＭＳ ゴシック
1001
ACAD
1000
ＭＳ ゴシック
1071
        0
  0
ENDTAB
  0
TABLE
  2
VIEW
  5
5
330
0
100
AcDbSymbolTable
 70
     0
  0
ENDTAB
  0
TABLE
  2
UCS
  5
6
330
0
100
AcDbSymbolTable
 70
     0
  0
ENDTAB
  0
TABLE
  2
APPID
  5
8
330
0
100
AcDbSymbolTable
 70
    14
  0
APPID
  5
16
330
8
100
AcDbSymbolTableRecord
100
AcDbRegAppTableRecord
  2
ACAD
 70
     0
  0
APPID
  5
5C5
330
8
100
AcDbSymbolTableRecord
100
AcDbRegAppTableRecord
  2
AcAecLayerStandard
 70
     0
  0
APPID
  5
913
330
8
100
AcDbSymbolTableRecord
100
AcDbRegAppTableRecord
  2
ACAD_DSTYLE_DIMBREAK
 70
     0
  0
APPID
  5
914
330
8
100
AcDbSymbolTableRecord
100
AcDbRegAppTableRecord
  2
ACAD_DSTYLE_DIMJAG
 70
     0
  0
APPID
  5
915
330
8
100
AcDbSymbolTableRecord
100
AcDbRegAppTableRecord
  2
ACAD_DSTYLE_DIMTALN
 70
     0
  0
APPID
  5
E4F
330
8
100
AcDbSymbolTableRecord
100
AcDbRegAppTableRecord
  2
ACAD_MLEADERVER
 70
     0
  0
APPID
  5
E79
330
8
100
AcDbSymbolTableRecord
100
AcDbRegAppTableRecord
  2
ACAD_PSEXT
 70
     0
  0
APPID
  5
E7A
330
8
100
AcDbSymbolTableRecord
100
AcDbRegAppTableRecord
  2
ACAD_NAV_VCDISPLAY
 70
     0
  0
APPID
  5
166E
330
8
100
AcDbSymbolTableRecord
100
AcDbRegAppTableRecord
  2
AcadAnnotative
 70
     0
  0
APPID
  5
166F
330
8
100
AcDbSymbolTableRecord
100
AcDbRegAppTableRecord
  2
GradientColor1ACI
 70
     0
  0
APPID
  5
1670
330
8
100
AcDbSymbolTableRecord
100
AcDbRegAppTableRecord
  2
GradientColor2ACI
 70
     0
  0
APPID
  5
20FE
330
8
100
AcDbSymbolTableRecord
100
AcDbRegAppTableRecord
  2
AcLayerTools
 70
     0
  0
APPID
  5
27AB
330
8
100
AcDbSymbolTableRecord
100
AcDbRegAppTableRecord
  2
ACAD_DSTYLE_DIMRADIAL_EXTENSION
 70
     0
  0
APPID
  5
3ADC
330
8
100
AcDbSymbolTableRecord
100
AcDbRegAppTableRecord
  2
AcCmTransparency
 70
     0
  0
ENDTAB
  0
TABLE
  2
DIMSTYLE
  5
9
330
0
100
AcDbSymbolTable
 70
     2
100
AcDbDimStyleTable
  0
DIMSTYLE
105
18
330
9
100
AcDbSymbolTableRecord
100
AcDbDimStyleTableRecord
  2
Standard
 70
     0
178
     0
340
17
  0
DIMSTYLE
105
56
102
{ACAD_REACTORS
330
4285
330
4302
330
4312
330
431F
330
4356
330
4359
330
437B
330
43A0
330
43AD
330
43CE
330
43DD
330
440D
102
}
330
9
100
AcDbSymbolTableRecord
100
AcDbDimStyleTableRecord
  2
tform線あり
 70
     0
  3
<>
  4
[]
 41
9.999389648437498
 42
25.0
 43
0.9999999999999999
 44
0.0
 73
     0
 74
     0
 77
     1
 78
    11
140
24.4326171875
141
0.0
143
1.0
146
0.8
147
10.0
171
     1
172
     1
174
     1
178
     0
179
     2
271
     1
272
     1
276
     2
284
    11
285
    11
286
    11
289
     0
340
39
341
4E
342
4E
  0
ENDTAB
  0
TABLE
  2
BLOCK_RECORD
  5
1
330
0
100
AcDbSymbolTable
 70
    21
  0
BLOCK_RECORD
  5
A
330
1
100
AcDbSymbolTableRecord
100
AcDbBlockTableRecord
  2
*MODEL_SPACE
340
20
 70
     0
280
     1
281
     0
  0
BLOCK_RECORD
  5
B
330
1
100
AcDbSymbolTableRecord
100
AcDbBlockTableRecord
  2
*PAPER_SPACE
340
21
 70
     0
280
     1
281
     0
  0
BLOCK_RECORD
  5
4E
330
1
100
AcDbSymbolTableRecord
100
AcDbBlockTableRecord
  2
_DOT
340
0
102
{BLKREFS
331
42C3
331
42C4
331
430B
331
430C
331
4319
331
431A
331
4326
331
4327
331
4367
331
4368
331
4373
331
4374
331
4382
331
4383
331
439A
331
439B
331
43A7
331
43A8
331
43B6
331
43B7
331
43C5
331
43C6
331
43D7
331
43D8
331
43E4
331
43E5
331
4416
331
4417
102
}
 70
     0
280
     1
281
     0
  0
BLOCK_RECORD
  5
3A5
330
1
100
AcDbSymbolTableRecord
100
AcDbBlockTableRecord
  2
名称未設定-1
340
0
102
{BLKREFS
331
3D0
102
}
 70
     1
280
     1
281
     0
  0
BLOCK_RECORD
  5
3A8
330
1
100
AcDbSymbolTableRecord
100
AcDbBlockTableRecord
  2
block 2
340
0
102
{BLKREFS
331
3A7
102
}
 70
     0
280
     1
281
     0
  0
BLOCK_RECORD
  5
3AB
330
1
100
AcDbSymbolTableRecord
100
AcDbBlockTableRecord
  2
block 3
340
0
102
{BLKREFS
331
3AA
102
}
 70
     0
280
     1
281
     0
  0
BLOCK_RECORD
  5
3AE
330
1
100
AcDbSymbolTableRecord
100
AcDbBlockTableRecord
  2
block 4
340
0
102
{BLKREFS
331
3AD
102
}
 70
     0
280
     1
281
     0
  0
BLOCK_RECORD
  5
3BD
330
1
100
AcDbSymbolTableRecord
100
AcDbBlockTableRecord
  2
block 5
340
0
102
{BLKREFS
331
3BC
102
}
 70
     0
280
     1
281
     0
  0
BLOCK_RECORD
  5
11F0
330
1
100
AcDbSymbolTableRecord
100
AcDbBlockTableRecord
  2
BLOCK_2
340
0
102
{BLKREFS
331
1273
331
127B
331
127C
102
}
 70
     0
280
     1
281
     0
  0
BLOCK_RECORD
  5
42BD
330
1
100
AcDbSymbolTableRecord
100
AcDbBlockTableRecord
  2
*D7
340
0
 70
     0
280
     1
281
     0
  0
BLOCK_RECORD
  5
4303
330
1
100
AcDbSymbolTableRecord
100
AcDbBlockTableRecord
  2
*D8
340
0
 70
     0
280
     1
281
     0
  0
BLOCK_RECORD
  5
4313
330
1
100
AcDbSymbolTableRecord
100
AcDbBlockTableRecord
  2
*D9
340
0
 70
     0
280
     1
281
     0
  0
BLOCK_RECORD
  5
4320
330
1
100
AcDbSymbolTableRecord
100
AcDbBlockTableRecord
  2
*D10
340
0
 70
     0
280
     1
281
     0
  0
BLOCK_RECORD
  5
4361
330
1
100
AcDbSymbolTableRecord
100
AcDbBlockTableRecord
  2
*D11
340
0
 70
     0
280
     1
281
     0
  0
BLOCK_RECORD
  5
436D
330
1
100
AcDbSymbolTableRecord
100
AcDbBlockTableRecord
  2
*D12
340
0
 70
     0
280
     1
281
     0
  0
BLOCK_RECORD
  5
437C
330
1
100
AcDbSymbolTableRecord
100
AcDbBlockTableRecord
  2
*D13
340
0
 70
     0
280
     1
281
     0
  0
BLOCK_RECORD
  5
4394
330
1
100
AcDbSymbolTableRecord
100
AcDbBlockTableRecord
  2
*D14
340
0
 70
     0
280
     1
281
     0
  0
BLOCK_RECORD
  5
43A1
330
1
100
AcDbSymbolTableRecord
100
AcDbBlockTableRecord
  2
*D15
340
0
 70
     0
280
     1
281
     0
  0
BLOCK_RECORD
  5
43B0
330
1
100
AcDbSymbolTableRecord
100
AcDbBlockTableRecord
  2
*D16
340
0
 70
     0
280
     1
281
     0
  0
BLOCK_RECORD
  5
43BF
330
1
100
AcDbSymbolTableRecord
100
AcDbBlockTableRecord
  2
*D17
340
0
 70
     0
280
     1
281
     0
  0
BLOCK_RECORD
  5
43D1
330
1
100
AcDbSymbolTableRecord
100
AcDbBlockTableRecord
  2
*D18
340
0
 70
     0
280
     1
281
     0
  0
BLOCK_RECORD
  5
43DE
330
1
100
AcDbSymbolTableRecord
100
AcDbBlockTableRecord
  2
*D19
340
0
 70
     0
280
     1
281
     0
  0
BLOCK_RECORD
  5
4410
330
1
100
AcDbSymbolTableRecord
100
AcDbBlockTableRecord
  2
*D20
340
0
 70
     0
280
     1
281
     0
  0
ENDTAB
  0
ENDSEC
  0
SECTION
  2
BLOCKS
  0
BLOCK
  5
D
330
A
100
AcDbEntity
  8
0
390
1D
100
AcDbBlockBegin
  2
*MODEL_SPACE
 70
     0
 10
0.0
 20
0.0
 30
0.0
  3
*MODEL_SPACE
  1
*MODEL_SPACE
  0
ENDBLK
  5
E
330
A
100
AcDbEntity
  8
0
390
1D
100
AcDbBlockEnd
  0
BLOCK
  5
F
330
B
100
AcDbEntity
 67
     1
  8
0
390
1D
100
AcDbBlockBegin
  2
*PAPER_SPACE
 70
     0
 10
0.0
 20
0.0
 30
0.0
  3
*PAPER_SPACE
  1
*PAPER_SPACE
  0
ENDBLK
  5
10
330
B
100
AcDbEntity
 67
     1
  8
0
390
1D
100
AcDbBlockEnd
  0
BLOCK
  5
2C14
330
4E
100
AcDbEntity
  8
0
390
1D
100
AcDbBlockBegin
  2
_DOT
 70
     0
 10
0.0
 20
0.0
 30
0.0
  3
_DOT
  1
_DOT
  0
POLYLINE
  5
2C16
330
4E
100
AcDbEntity
  8
0
  6
ByBlock
 62
     0
370
    -2
390
1D
100
AcDb2dPolyline
 66
     1
 10
0.0
 20
0.0
 30
0.0
 70
     1
 40
0.5
 41
0.5
  0
VERTEX
  5
2C17
330
2C16
100
AcDbEntity
  8
0
  6
ByBlock
 62
     0
370
    -2
390
1D
100
AcDbVertex
100
AcDb2dVertex
 10
-0.25
 20
0.0
 30
0.0
 42
1.0
  0
VERTEX
  5
2C18
330
2C16
100
AcDbEntity
  8
0
  6
ByBlock
 62
     0
370
    -2
390
1D
100
AcDbVertex
100
AcDb2dVertex
 10
0.25
 20
0.0
 30
0.0
 42
1.0
  0
SEQEND
  5
2C19
330
2C16
100
AcDbEntity
  8
0
390
1D
  0
LINE
  5
2C1A
330
4E
100
AcDbEntity
  8
0
  6
ByBlock
 62
     0
370
    -2
390
1D
100
AcDbLine
 10
-0.5
 20
0.0
 30
0.0
 11
-1.0
 21
0.0
 31
0.0
  0
ENDBLK
  5
2C1B
330
4E
100
AcDbEntity
  8
0
390
1D
100
AcDbBlockEnd
  0
BLOCK
  5
3A6
330
3A5
100
AcDbEntity
  8
0
100
AcDbBlockBegin
  2
名称未設定-1
 70
     0
 10
0.0
 20
0.0
 30
0.0
  3
名称未設定-1
  1
名称未設定-1
  0
INSERT
  5
3A7
330
3A5
100
AcDbEntity
  8
レイヤー 1
100
AcDbBlockReference
  2
block 2
 10
0.0
 20
0.0
 30
0.0
  0
ENDBLK
  5
3CC
330
3A5
100
AcDbEntity
  8
0
100
AcDbBlockEnd
  0
BLOCK
  5
3A9
330
3A8
100
AcDbEntity
  8
0
100
AcDbBlockBegin
  2
block 2
 70
     0
 10
0.0
 20
0.0
 30
0.0
  3
block 2
  1
block 2
  0
INSERT
  5
3AA
330
3A8
100
AcDbEntity
  8
レイヤー 1
100
AcDbBlockReference
  2
block 3
 10
0.0
 20
0.0
 30
0.0
  0
ENDBLK
  5
3CB
330
3A8
100
AcDbEntity
  8
0
100
AcDbBlockEnd
  0
BLOCK
  5
3AC
330
3AB
100
AcDbEntity
  8
0
100
AcDbBlockBegin
  2
block 3
 70
     0
 10
0.0
 20
0.0
 30
0.0
  3
block 3
  1
block 3
  0
INSERT
  5
3AD
330
3AB
100
AcDbEntity
  8
レイヤー 1
100
AcDbBlockReference
  2
block 4
 10
0.0
 20
0.0
 30
0.0
  0
ENDBLK
  5
3CA
330
3AB
100
AcDbEntity
  8
0
100
AcDbBlockEnd
  0
BLOCK
  5
3AF
330
3AE
100
AcDbEntity
  8
0
100
AcDbBlockBegin
  2
block 4
 70
     0
 10
0.0
 20
0.0
 30
0.0
  3
block 4
  1
block 4
  0
POLYLINE
  5
3B0
330
3AE
100
AcDbEntity
  8
レイヤー 1
370
     0
100
AcDb2dPolyline
 66
     1
 10
0.0
 20
0.0
 30
0.0
  0
VERTEX
  5
3B1
330
3B0
100
AcDbEntity
  8
レイヤー 1
370
     0
100
AcDbVertex
100
AcDb2dVertex
 10
83.79545727667795
 20
167.6444858234922
 30
0.0
  0
VERTEX
  5
3B2
330
3B0
100
AcDbEntity
  8
レイヤー 1
370
     0
100
AcDbVertex
100
AcDb2dVertex
 10
83.79545727667795
 20
159.7968976406313
 30
0.0
  0
VERTEX
  5
3B3
330
3B0
100
AcDbEntity
  8
レイヤー 1
370
     0
100
AcDbVertex
100
AcDb2dVertex
 10
71.3631329975216
 20
159.7968976406313
 30
0.0
  0
VERTEX
  5
3B4
330
3B0
100
AcDbEntity
  8
レイヤー 1
370
     0
100
AcDbVertex
100
AcDb2dVertex
 10
71.3631329975216
 20
127.8027915271048
 30
0.0
  0
VERTEX
  5
3B5
330
3B0
100
AcDbEntity
  8
レイヤー 1
370
     0
100
AcDbVertex
100
AcDb2dVertex
 10
60.43011526263018
 20
127.8027915271048
 30
0.0
  0
VERTEX
  5
3B6
330
3B0
100
AcDbEntity
  8
レイヤー 1
370
     0
100
AcDbVertex
100
AcDb2dVertex
 10
60.43011526263018
 20
159.7968976406313
 30
0.0
  0
VERTEX
  5
3B7
330
3B0
100
AcDbEntity
  8
レイヤー 1
370
     0
100
AcDbVertex
100
AcDb2dVertex
 10
48.21793273020759
 20
159.7968976406313
 30
0.0
  0
VERTEX
  5
3B8
330
3B0
100
AcDbEntity
  8
レイヤー 1
370
     0
100
AcDbVertex
100
AcDb2dVertex
 10
48.21793273020759
 20
167.6444858234922
 30
0.0
  0
VERTEX
  5
3B9
330
3B0
100
AcDbEntity
  8
レイヤー 1
370
     0
100
AcDbVertex
100
AcDb2dVertex
 10
83.79545727667795
 20
167.6444858234922
 30
0.0
  0
SEQEND
  5
3BA
330
3B0
100
AcDbEntity
  8
レイヤー 1
370
     0
  0
HATCH
  5
3BB
330
3AE
100
AcDbEntity
  8
レイヤー 1
 62
   250
420
  2234388
100
AcDbHatch
 10
0.0
 20
0.0
 30
0.0
210
0.0
220
0.0
230
1.0
  2
SOLID
 70
     1
 71
     0
 91
        1
 92
        1
 93
        8
 72
     1
 10
83.79545727667795
 20
167.6444858234922
 11
83.79545727667795
 21
159.7968976406313
 72
     1
 10
83.79545727667795
 20
159.7968976406313
 11
71.3631329975216
 21
159.7968976406313
 72
     1
 10
71.3631329975216
 20
159.7968976406313
 11
71.3631329975216
 21
127.8027915271048
 72
     1
 10
71.3631329975216
 20
127.8027915271048
 11
60.43011526263018
 21
127.8027915271048
 72
     1
 10
60.43011526263018
 20
127.8027915271048
 11
60.43011526263018
 21
159.7968976406313
 72
     1
 10
60.43011526263018
 20
159.7968976406313
 11
48.21793273020759
 21
159.7968976406313
 72
     1
 10
48.21793273020759
 20
159.7968976406313
 11
48.21793273020759
 21
167.6444858234922
 72
     1
 10
48.21793273020759
 20
167.6444858234922
 11
83.79545727667795
 21
167.6444858234922
 97
        0
 75
     2
 76
     1
 98
        0
  0
INSERT
  5
3BC
330
3AE
100
AcDbEntity
  8
レイヤー 1
100
AcDbBlockReference
  2
block 5
 10
0.0
 20
0.0
 30
0.0
  0
ENDBLK
  5
3C9
330
3AE
100
AcDbEntity
  8
0
100
AcDbBlockEnd
  0
BLOCK
  5
3BE
330
3BD
100
AcDbEntity
  8
0
100
AcDbBlockBegin
  2
block 5
 70
     0
 10
0.0
 20
0.0
 30
0.0
  3
block 5
  1
block 5
  0
SPLINE
  5
3BF
330
3BD
100
AcDbEntity
  8
レイヤー 1
370
     0
100
AcDbSpline
210
0.0
220
0.0
230
1.0
 70
    11
 71
     3
 72
    56
 73
    52
 74
     0
 42
0.000000001
 43
0.0000000001
 40
0.0
 40
0.0
 40
0.0
 40
0.0
 40
1.0
 40
1.0
 40
1.0
 40
2.0
 40
2.0
 40
2.0
 40
3.0
 40
3.0
 40
3.0
 40
4.0
 40
4.0
 40
4.0
 40
5.0
 40
5.0
 40
5.0
 40
6.0
 40
6.0
 40
6.0
 40
7.0
 40
7.0
 40
7.0
 40
8.0
 40
8.0
 40
8.0
 40
9.0
 40
9.0
 40
9.0
 40
10.0
 40
10.0
 40
10.0
 40
11.0
 40
11.0
 40
11.0
 40
12.0
 40
12.0
 40
12.0
 40
13.0
 40
13.0
 40
13.0
 40
14.0
 40
14.0
 40
14.0
 40
15.0
 40
15.0
 40
15.0
 40
16.0
 40
16.0
 40
16.0
 40
17.0
 40
17.0
 40
17.0
 40
17.0
 10
100.4504378777679
 20
166.69157178364
 30
0.0
 10
101.9848844191641
 20
167.1313385124438
 30
0.0
 10
103.9637485713373
 20
166.7649523658846
 30
0.0
 10
103.9637485713373
 20
166.7649523658846
 30
0.0
 10
103.9637485713373
 20
166.7649523658846
 30
0.0
 10
103.0132460999156
 20
163.911205638077
 30
0.0
 10
103.0132460999156
 20
163.911205638077
 30
0.0
 10
103.0132460999156
 20
163.911205638077
 30
0.0
 10
101.0674548862189
 20
164.3601018759394
 30
0.0
 10
99.57090442016032
 20
163.1805004036133
 30
0.0
 10
98.40508333886608
 20
162.258247733807
 30
0.0
 10
97.65301849830304
 20
159.804132345923
 30
0.0
 10
97.3598406791005
 20
158.8699940888517
 30
0.0
 10
97.3598406791005
 20
158.8699940888517
 30
0.0
 10
96.07137411762282
 20
154.9119212747295
 30
0.0
 10
96.07137411762282
 20
154.9119212747295
 30
0.0
 10
96.07137411762282
 20
154.9119212747295
 30
0.0
 10
100.3012651448482
 20
154.9119212747295
 30
0.0
 10
100.3012651448482
 20
154.9119212747295
 30
0.0
 10
100.3012651448482
 20
154.9119212747295
 30
0.0
 10
99.64152892419852
 20
152.4199098115079
 30
0.0
 10
99.64152892419852
 20
152.4199098115079
 30
0.0
 10
99.64152892419852
 20
152.4199098115079
 30
0.0
 10
95.38097652692731
 20
152.4199098115079
 30
0.0
 10
95.38097652692731
 20
152.4199098115079
 30
0.0
 10
95.38097652692731
 20
152.4199098115079
 30
0.0
 10
87.75353009080013
 20
127.8027915271048
 30
0.0
 10
87.75353009080013
 20
127.8027915271048
 30
0.0
 10
87.75353009080013
 20
127.8027915271048
 30
0.0
 10
85.36538832498108
 20
127.8027915271048
 30
0.0
 10
85.36538832498108
 20
127.8027915271048
 30
0.0
 10
85.36538832498108
 20
127.8027915271048
 30
0.0
 10
93.00006946639998
 20
152.4199098115079
 30
0.0
 10
93.00006946639998
 20
152.4199098115079
 30
0.0
 10
93.00006946639998
 20
152.4199098115079
 30
0.0
 10
89.85297266450198
 20
152.4199098115079
 30
0.0
 10
89.85297266450198
 20
152.4199098115079
 30
0.0
 10
89.85297266450198
 20
152.4199098115079
 30
0.0
 10
90.51270888515164
 20
154.9119212747295
 30
0.0
 10
90.51270888515164
 20
154.9119212747295
 30
0.0
 10
90.51270888515164
 20
154.9119212747295
 30
0.0
 10
93.6904670570955
 20
154.9119212747295
 30
0.0
 10
93.6904670570955
 20
154.9119212747295
 30
0.0
 10
93.6904670570955
 20
154.9119212747295
 30
0.0
 10
94.81598049462158
 20
158.3616699146644
 30
0.0
 10
94.81598049462158
 20
158.3616699146644
 30
0.0
 10
95.7237637538445
 20
161.2605474231013
 30
0.0
 10
96.4968436907311
 20
162.8139420021662
 30
0.0
 10
97.15657991138076
 20
163.9844139654337
 30
0.0
 10
97.81183750494507
 20
165.1523021053827
 30
0.0
 10
99.1047826935081
 20
166.3084769129547
 30
0.0
 10
100.4504378777679
 20
166.69157178364
 30
0.0
  0
HATCH
  5
3C0
330
3BD
100
AcDbEntity
  8
レイヤー 1
 62
   250
420
  2234388
100
AcDbHatch
 10
0.0
 20
0.0
 30
0.0
210
0.0
220
0.0
230
1.0
  2
SOLID
 70
     1
 71
     0
 91
        1
 92
        1
 93
        1
 72
     4
 94
        3
 73
     0
 74
     1
 95
       56
 96
       52
 40
0.0
 40
0.0
 40
0.0
 40
0.0
 40
1.0
 40
1.0
 40
1.0
 40
2.0
 40
2.0
 40
2.0
 40
3.0
 40
3.0
 40
3.0
 40
4.0
 40
4.0
 40
4.0
 40
5.0
 40
5.0
 40
5.0
 40
6.0
 40
6.0
 40
6.0
 40
7.0
 40
7.0
 40
7.0
 40
8.0
 40
8.0
 40
8.0
 40
9.0
 40
9.0
 40
9.0
 40
10.0
 40
10.0
 40
10.0
 40
11.0
 40
11.0
 40
11.0
 40
12.0
 40
12.0
 40
12.0
 40
13.0
 40
13.0
 40
13.0
 40
14.0
 40
14.0
 40
14.0
 40
15.0
 40
15.0
 40
15.0
 40
16.0
 40
16.0
 40
16.0
 40
17.0
 40
17.0
 40
17.0
 40
17.0
 10
100.4504378777679
 20
166.69157178364
 10
101.9848844191641
 20
167.1313385124438
 10
103.9637485713373
 20
166.7649523658846
 10
103.9637485713373
 20
166.7649523658846
 10
103.9637485713373
 20
166.7649523658846
 10
103.0132460999156
 20
163.911205638077
 10
103.0132460999156
 20
163.911205638077
 10
103.0132460999156
 20
163.911205638077
 10
101.0674548862189
 20
164.3601018759394
 10
99.57090442016032
 20
163.1805004036133
 10
98.40508333886608
 20
162.258247733807
 10
97.65301849830304
 20
159.804132345923
 10
97.3598406791005
 20
158.8699940888517
 10
97.3598406791005
 20
158.8699940888517
 10
96.07137411762282
 20
154.9119212747295
 10
96.07137411762282
 20
154.9119212747295
 10
96.07137411762282
 20
154.9119212747295
 10
100.3012651448482
 20
154.9119212747295
 10
100.3012651448482
 20
154.9119212747295
 10
100.3012651448482
 20
154.9119212747295
 10
99.64152892419852
 20
152.4199098115079
 10
99.64152892419852
 20
152.4199098115079
 10
99.64152892419852
 20
152.4199098115079
 10
95.38097652692731
 20
152.4199098115079
 10
95.38097652692731
 20
152.4199098115079
 10
95.38097652692731
 20
152.4199098115079
 10
87.75353009080013
 20
127.8027915271048
 10
87.75353009080013
 20
127.8027915271048
 10
87.75353009080013
 20
127.8027915271048
 10
85.36538832498108
 20
127.8027915271048
 10
85.36538832498108
 20
127.8027915271048
 10
85.36538832498108
 20
127.8027915271048
 10
93.00006946639998
 20
152.4199098115079
 10
93.00006946639998
 20
152.4199098115079
 10
93.00006946639998
 20
152.4199098115079
 10
89.85297266450198
 20
152.4199098115079
 10
89.85297266450198
 20
152.4199098115079
 10
89.85297266450198
 20
152.4199098115079
 10
90.51270888515164
 20
154.9119212747295
 10
90.51270888515164
 20
154.9119212747295
 10
90.51270888515164
 20
154.9119212747295
 10
93.6904670570955
 20
154.9119212747295
 10
93.6904670570955
 20
154.9119212747295
 10
93.6904670570955
 20
154.9119212747295
 10
94.81598049462158
 20
158.3616699146644
 10
94.81598049462158
 20
158.3616699146644
 10
95.7237637538445
 20
161.2605474231013
 10
96.4968436907311
 20
162.8139420021662
 10
97.15657991138076
 20
163.9844139654337
 10
97.81183750494507
 20
165.1523021053827
 10
99.1047826935081
 20
166.3084769129547
 10
100.4504378777679
 20
166.69157178364
 97
        0
 75
     2
 76
     1
 98
        0
  0
SPLINE
  5
3C1
330
3BD
100
AcDbEntity
  8
レイヤー 1
370
     0
100
AcDbSpline
210
0.0
220
0.0
230
1.0
 70
    11
 71
     3
 72
    38
 73
    34
 74
     0
 42
0.000000001
 43
0.0000000001
 40
0.0
 40
0.0
 40
0.0
 40
0.0
 40
1.0
 40
1.0
 40
1.0
 40
2.0
 40
2.0
 40
2.0
 40
3.0
 40
3.0
 40
3.0
 40
4.0
 40
4.0
 40
4.0
 40
5.0
 40
5.0
 40
5.0
 40
6.0
 40
6.0
 40
6.0
 40
7.0
 40
7.0
 40
7.0
 40
8.0
 40
8.0
 40
8.0
 40
9.0
 40
9.0
 40
9.0
 40
10.0
 40
10.0
 40
10.0
 40
11.0
 40
11.0
 40
11.0
 40
11.0
 10
126.377554584636
 20
154.8151140277308
 30
0.0
 10
126.377554584636
 20
154.8151140277308
 30
0.0
 10
128.8311532078563
 20
154.8151140277308
 30
0.0
 10
128.8311532078563
 20
154.8151140277308
 30
0.0
 10
128.8311532078563
 20
154.8151140277308
 30
0.0
 10
127.7345785914971
 20
151.3062819612468
 30
0.0
 10
127.7345785914971
 20
151.3062819612468
 30
0.0
 10
128.571392836906
 20
152.2922689395754
 30
0.0
 10
129.8860421413442
 20
153.604506675583
 30
0.0
 10
131.0163787157314
 20
154.2664822097754
 30
0.0
 10
132.7044766171327
 20
155.2500576196734
 30
0.0
 10
133.6642808525008
 20
155.3847609420097
 30
0.0
 10
134.7284715499351
 20
155.3565111403944
 30
0.0
 10
134.7284715499351
 20
155.3565111403944
 30
0.0
 10
133.6877075172549
 20
152.0345756272799
 30
0.0
 10
133.6877075172549
 20
152.0345756272799
 30
0.0
 10
133.011434827367
 20
152.3184516825359
 30
0.0
 10
130.930940291334
 20
151.7768823149844
 30
0.0
 10
129.739280976855
 20
150.9162968950455
 30
0.0
 10
128.66613302525
 20
150.1454562717016
 30
0.0
 10
127.9192358313239
 20
149.4857200510519
 30
0.0
 10
127.0393578639405
 20
147.8282835196966
 30
0.0
 10
126.164647543194
 20
146.1699857139017
 30
0.0
 10
125.4742499524985
 20
143.5262176944419
 30
0.0
 10
124.2822461282437
 20
139.6959580071401
 30
0.0
 10
124.2822461282437
 20
139.6959580071401
 30
0.0
 10
120.5753209406769
 20
127.8027915271048
 30
0.0
 10
120.5753209406769
 20
127.8027915271048
 30
0.0
 10
120.5753209406769
 20
127.8027915271048
 30
0.0
 10
118.1964809388044
 20
127.8027915271048
 30
0.0
 10
118.1964809388044
 20
127.8027915271048
 30
0.0
 10
118.1964809388044
 20
127.8027915271048
 30
0.0
 10
126.377554584636
 20
154.8151140277308
 30
0.0
 10
126.377554584636
 20
154.8151140277308
 30
0.0
  0
HATCH
  5
3C2
330
3BD
100
AcDbEntity
  8
レイヤー 1
 62
   250
420
  2234388
100
AcDbHatch
 10
0.0
 20
0.0
 30
0.0
210
0.0
220
0.0
230
1.0
  2
SOLID
 70
     1
 71
     0
 91
        1
 92
        1
 93
        1
 72
     4
 94
        3
 73
     0
 74
     1
 95
       38
 96
       34
 40
0.0
 40
0.0
 40
0.0
 40
0.0
 40
1.0
 40
1.0
 40
1.0
 40
2.0
 40
2.0
 40
2.0
 40
3.0
 40
3.0
 40
3.0
 40
4.0
 40
4.0
 40
4.0
 40
5.0
 40
5.0
 40
5.0
 40
6.0
 40
6.0
 40
6.0
 40
7.0
 40
7.0
 40
7.0
 40
8.0
 40
8.0
 40
8.0
 40
9.0
 40
9.0
 40
9.0
 40
10.0
 40
10.0
 40
10.0
 40
11.0
 40
11.0
 40
11.0
 40
11.0
 10
126.377554584636
 20
154.8151140277308
 10
126.377554584636
 20
154.8151140277308
 10
128.8311532078563
 20
154.8151140277308
 10
128.8311532078563
 20
154.8151140277308
 10
128.8311532078563
 20
154.8151140277308
 10
127.7345785914971
 20
151.3062819612468
 10
127.7345785914971
 20
151.3062819612468
 10
128.571392836906
 20
152.2922689395754
 10
129.8860421413442
 20
153.604506675583
 10
131.0163787157314
 20
154.2664822097754
 10
132.7044766171327
 20
155.2500576196734
 10
133.6642808525008
 20
155.3847609420097
 10
134.7284715499351
 20
155.3565111403944
 10
134.7284715499351
 20
155.3565111403944
 10
133.6877075172549
 20
152.0345756272799
 10
133.6877075172549
 20
152.0345756272799
 10
133.011434827367
 20
152.3184516825359
 10
130.930940291334
 20
151.7768823149844
 10
129.739280976855
 20
150.9162968950455
 10
128.66613302525
 20
150.1454562717016
 10
127.9192358313239
 20
149.4857200510519
 10
127.0393578639405
 20
147.8282835196966
 10
126.164647543194
 20
146.1699857139017
 10
125.4742499524985
 20
143.5262176944419
 10
124.2822461282437
 20
139.6959580071401
 10
124.2822461282437
 20
139.6959580071401
 10
120.5753209406769
 20
127.8027915271048
 10
120.5753209406769
 20
127.8027915271048
 10
120.5753209406769
 20
127.8027915271048
 10
118.1964809388044
 20
127.8027915271048
 10
118.1964809388044
 20
127.8027915271048
 10
118.1964809388044
 20
127.8027915271048
 10
126.377554584636
 20
154.8151140277308
 10
126.377554584636
 20
154.8151140277308
 97
        0
 75
     2
 76
     1
 98
        0
  0
SPLINE
  5
3C3
330
3BD
100
AcDbEntity
  8
レイヤー 1
370
     0
100
AcDbSpline
210
0.0
220
0.0
230
1.0
 70
    11
 71
     3
 72
   104
 73
   100
 74
     0
 42
0.000000001
 43
0.0000000001
 40
0.0
 40
0.0
 40
0.0
 40
0.0
 40
1.0
 40
1.0
 40
1.0
 40
2.0
 40
2.0
 40
2.0
 40
3.0
 40
3.0
 40
3.0
 40
4.0
 40
4.0
 40
4.0
 40
5.0
 40
5.0
 40
5.0
 40
6.0
 40
6.0
 40
6.0
 40
7.0
 40
7.0
 40
7.0
 40
8.0
 40
8.0
 40
8.0
 40
9.0
 40
9.0
 40
9.0
 40
10.0
 40
10.0
 40
10.0
 40
11.0
 40
11.0
 40
11.0
 40
12.0
 40
12.0
 40
12.0
 40
13.0
 40
13.0
 40
13.0
 40
14.0
 40
14.0
 40
14.0
 40
15.0
 40
15.0
 40
15.0
 40
16.0
 40
16.0
 40
16.0
 40
17.0
 40
17.0
 40
17.0
 40
18.0
 40
18.0
 40
18.0
 40
19.0
 40
19.0
 40
19.0
 40
20.0
 40
20.0
 40
20.0
 40
21.0
 40
21.0
 40
21.0
 40
22.0
 40
22.0
 40
22.0
 40
23.0
 40
23.0
 40
23.0
 40
24.0
 40
24.0
 40
24.0
 40
25.0
 40
25.0
 40
25.0
 40
26.0
 40
26.0
 40
26.0
 40
27.0
 40
27.0
 40
27.0
 40
28.0
 40
28.0
 40
28.0
 40
29.0
 40
29.0
 40
29.0
 40
30.0
 40
30.0
 40
30.0
 40
31.0
 40
31.0
 40
31.0
 40
32.0
 40
32.0
 40
32.0
 40
33.0
 40
33.0
 40
33.0
 40
33.0
 10
139.8926730891197
 20
154.8294111834263
 30
0.0
 10
139.8926730891197
 20
154.8294111834263
 30
0.0
 10
142.0344903652445
 20
154.8294111834263
 30
0.0
 10
142.0344903652445
 20
154.8294111834263
 30
0.0
 10
142.0344903652445
 20
154.8294111834263
 30
0.0
 10
140.9516961399171
 20
151.3157559800812
 30
0.0
 10
140.9516961399171
 20
151.3157559800812
 30
0.0
 10
141.8928968473923
 20
152.7887075264977
 30
0.0
 10
142.7341897198865
 20
153.4484437471474
 30
0.0
 10
143.8552245303272
 20
154.2926649527359
 30
0.0
 10
144.9803934580775
 20
155.1296514530327
 30
0.0
 10
146.3139908001845
 20
155.3044901642492
 30
0.0
 10
147.241066606852
 20
155.3044901642492
 30
0.0
 10
148.3855280820469
 20
155.3044901642492
 30
0.0
 10
149.4969166187653
 20
155.0752189084569
 30
0.0
 10
150.0784491203092
 20
153.8172414621372
 30
0.0
 10
150.5228667310863
 20
152.833838307127
 30
0.0
 10
150.5414702589793
 20
152.7201500811143
 30
0.0
 10
150.4140016419347
 20
150.7765981809602
 30
0.0
 10
151.5818897818837
 20
152.7699317437168
 30
0.0
 10
152.4424752018226
 20
153.6256940267945
 30
0.0
 10
153.9038856707499
 20
154.4507949398263
 30
0.0
 10
155.4455669174378
 20
155.3044901642492
 30
0.0
 10
156.339225275853
 20
155.3659851592288
 30
0.0
 10
157.3748216618963
 20
155.2147453676543
 30
0.0
 10
158.911679771723
 20
154.9877134254046
 30
0.0
 10
159.8859534176746
 20
154.4390816074493
 30
0.0
 10
160.3965169054045
 20
152.7816450760939
 30
0.0
 10
160.9070803931344
 20
151.1219692311958
 30
0.0
 10
160.6328506116007
 20
150.2303779314354
 30
0.0
 10
159.9992971339115
 20
147.597634224801
 30
0.0
 10
159.7105979417943
 20
146.4014962832367
 30
0.0
 10
159.2947746424084
 20
144.9400858143094
 30
0.0
 10
158.7463150793409
 20
143.2092687007094
 30
0.0
 10
158.7463150793409
 20
143.2092687007094
 30
0.0
 10
153.9038856707499
 20
127.8027915271048
 30
0.0
 10
153.9038856707499
 20
127.8027915271048
 30
0.0
 10
153.9038856707499
 20
127.8027915271048
 30
0.0
 10
151.3882752878863
 20
127.8027915271048
 30
0.0
 10
151.3882752878863
 20
127.8027915271048
 30
0.0
 10
151.3882752878863
 20
127.8027915271048
 30
0.0
 10
155.6250565106276
 20
141.2751908193897
 30
0.0
 10
155.6250565106276
 20
141.2751908193897
 30
0.0
 10
156.5094131050963
 20
144.0936252951782
 30
0.0
 10
157.109893644309
 20
146.1506931664571
 30
0.0
 10
157.4220195011804
 20
147.4415712963654
 30
0.0
 10
157.8095929989511
 20
149.0530157726519
 30
0.0
 10
157.9656559273867
 20
149.5826995529385
 30
0.0
 10
157.7816877071116
 20
150.7529992613181
 30
0.0
 10
157.6111553680925
 20
151.8430281919372
 30
0.0
 10
157.0582171779396
 20
152.5547853887321
 30
0.0
 10
156.1170164704645
 20
152.5547853887321
 30
0.0
 10
155.1096698860365
 20
152.5547853887321
 30
0.0
 10
154.2962823053817
 20
152.4412694176073
 30
0.0
 10
153.156643967048
 20
151.2945686288697
 30
0.0
 10
152.0170056287143
 20
150.1476955852443
 30
0.0
 10
151.076149431015
 20
148.7930831468137
 30
0.0
 10
150.3337308641742
 20
147.2290087646991
 30
0.0
 10
149.5957909244188
 20
145.6683794803425
 30
0.0
 10
148.8530278478023
 20
143.6822806228776
 30
0.0
 10
148.0964843801539
 20
141.2751908193897
 30
0.0
 10
148.0964843801539
 20
141.2751908193897
 30
0.0
 10
143.8552245303272
 20
127.8027915271048
 30
0.0
 10
143.8552245303272
 20
127.8027915271048
 30
0.0
 10
143.8552245303272
 20
127.8027915271048
 30
0.0
 10
141.486030802177
 20
127.8027915271048
 30
0.0
 10
141.486030802177
 20
127.8027915271048
 30
0.0
 10
141.486030802177
 20
127.8027915271048
 30
0.0
 10
146.3329388378533
 20
143.2092687007094
 30
0.0
 10
146.3329388378533
 20
143.2092687007094
 30
0.0
 10
146.8483254624444
 20
144.8408669988801
 30
0.0
 10
147.2314203331297
 20
146.1837661049335
 30
0.0
 10
147.4867020769946
 20
147.224185627838
 30
0.0
 10
147.9169947869641
 20
149.0197705792876
 30
0.0
 10
148.0306830129768
 20
150.2400242051577
 30
0.0
 10
147.709255392159
 20
151.3157559800812
 30
0.0
 10
147.3874832615654
 20
152.3916600098926
 30
0.0
 10
146.8245542879144
 20
152.6683013598569
 30
0.0
 10
145.8840425999909
 20
152.6683013598569
 30
0.0
 10
145.0989048209514
 20
152.6683013598569
 30
0.0
 10
144.3282364524954
 20
152.3275811915945
 30
0.0
 10
143.4531816219731
 20
151.6538923250251
 30
0.0
 10
142.34627171234
 20
150.8074318058939
 30
0.0
 10
141.901854101563
 20
150.1097995099067
 30
0.0
 10
141.3578731655808
 20
149.289521733736
 30
0.0
 10
140.6299240093235
 20
148.192602607601
 30
0.0
 10
140.2850697237515
 20
147.455696197173
 30
0.0
 10
139.6652966370942
 20
145.8385673095858
 30
0.0
 10
139.0506911970739
 20
144.2214384219986
 30
0.0
 10
138.463991048893
 20
142.3252566160164
 30
0.0
 10
138.0571250036777
 20
141.0154304484394
 30
0.0
 10
138.0571250036777
 20
141.0154304484394
 30
0.0
 10
133.9009590684727
 20
127.8027915271048
 30
0.0
 10
133.9009590684727
 20
127.8027915271048
 30
0.0
 10
133.9009590684727
 20
127.8027915271048
 30
0.0
 10
131.4180771143097
 20
127.8027915271048
 30
0.0
 10
131.4180771143097
 20
127.8027915271048
 30
0.0
 10
131.4180771143097
 20
127.8027915271048
 30
0.0
 10
139.8926730891197
 20
154.8294111834263
 30
0.0
 10
139.8926730891197
 20
154.8294111834263
 30
0.0
  0
HATCH
  5
3C4
330
3BD
100
AcDbEntity
  8
レイヤー 1
 62
   250
420
  2234388
100
AcDbHatch
 10
0.0
 20
0.0
 30
0.0
210
0.0
220
0.0
230
1.0
  2
SOLID
 70
     1
 71
     0
 91
        1
 92
        1
 93
        1
 72
     4
 94
        3
 73
     0
 74
     1
 95
      104
 96
      100
 40
0.0
 40
0.0
 40
0.0
 40
0.0
 40
1.0
 40
1.0
 40
1.0
 40
2.0
 40
2.0
 40
2.0
 40
3.0
 40
3.0
 40
3.0
 40
4.0
 40
4.0
 40
4.0
 40
5.0
 40
5.0
 40
5.0
 40
6.0
 40
6.0
 40
6.0
 40
7.0
 40
7.0
 40
7.0
 40
8.0
 40
8.0
 40
8.0
 40
9.0
 40
9.0
 40
9.0
 40
10.0
 40
10.0
 40
10.0
 40
11.0
 40
11.0
 40
11.0
 40
12.0
 40
12.0
 40
12.0
 40
13.0
 40
13.0
 40
13.0
 40
14.0
 40
14.0
 40
14.0
 40
15.0
 40
15.0
 40
15.0
 40
16.0
 40
16.0
 40
16.0
 40
17.0
 40
17.0
 40
17.0
 40
18.0
 40
18.0
 40
18.0
 40
19.0
 40
19.0
 40
19.0
 40
20.0
 40
20.0
 40
20.0
 40
21.0
 40
21.0
 40
21.0
 40
22.0
 40
22.0
 40
22.0
 40
23.0
 40
23.0
 40
23.0
 40
24.0
 40
24.0
 40
24.0
 40
25.0
 40
25.0
 40
25.0
 40
26.0
 40
26.0
 40
26.0
 40
27.0
 40
27.0
 40
27.0
 40
28.0
 40
28.0
 40
28.0
 40
29.0
 40
29.0
 40
29.0
 40
30.0
 40
30.0
 40
30.0
 40
31.0
 40
31.0
 40
31.0
 40
32.0
 40
32.0
 40
32.0
 40
33.0
 40
33.0
 40
33.0
 40
33.0
 10
139.8926730891197
 20
154.8294111834263
 10
139.8926730891197
 20
154.8294111834263
 10
142.0344903652445
 20
154.8294111834263
 10
142.0344903652445
 20
154.8294111834263
 10
142.0344903652445
 20
154.8294111834263
 10
140.9516961399171
 20
151.3157559800812
 10
140.9516961399171
 20
151.3157559800812
 10
141.8928968473923
 20
152.7887075264977
 10
142.7341897198865
 20
153.4484437471474
 10
143.8552245303272
 20
154.2926649527359
 10
144.9803934580775
 20
155.1296514530327
 10
146.3139908001845
 20
155.3044901642492
 10
147.241066606852
 20
155.3044901642492
 10
148.3855280820469
 20
155.3044901642492
 10
149.4969166187653
 20
155.0752189084569
 10
150.0784491203092
 20
153.8172414621372
 10
150.5228667310863
 20
152.833838307127
 10
150.5414702589793
 20
152.7201500811143
 10
150.4140016419347
 20
150.7765981809602
 10
151.5818897818837
 20
152.7699317437168
 10
152.4424752018226
 20
153.6256940267945
 10
153.9038856707499
 20
154.4507949398263
 10
155.4455669174378
 20
155.3044901642492
 10
156.339225275853
 20
155.3659851592288
 10
157.3748216618963
 20
155.2147453676543
 10
158.911679771723
 20
154.9877134254046
 10
159.8859534176746
 20
154.4390816074493
 10
160.3965169054045
 20
152.7816450760939
 10
160.9070803931344
 20
151.1219692311958
 10
160.6328506116007
 20
150.2303779314354
 10
159.9992971339115
 20
147.597634224801
 10
159.7105979417943
 20
146.4014962832367
 10
159.2947746424084
 20
144.9400858143094
 10
158.7463150793409
 20
143.2092687007094
 10
158.7463150793409
 20
143.2092687007094
 10
153.9038856707499
 20
127.8027915271048
 10
153.9038856707499
 20
127.8027915271048
 10
153.9038856707499
 20
127.8027915271048
 10
151.3882752878863
 20
127.8027915271048
 10
151.3882752878863
 20
127.8027915271048
 10
151.3882752878863
 20
127.8027915271048
 10
155.6250565106276
 20
141.2751908193897
 10
155.6250565106276
 20
141.2751908193897
 10
156.5094131050963
 20
144.0936252951782
 10
157.109893644309
 20
146.1506931664571
 10
157.4220195011804
 20
147.4415712963654
 10
157.8095929989511
 20
149.0530157726519
 10
157.9656559273867
 20
149.5826995529385
 10
157.7816877071116
 20
150.7529992613181
 10
157.6111553680925
 20
151.8430281919372
 10
157.0582171779396
 20
152.5547853887321
 10
156.1170164704645
 20
152.5547853887321
 10
155.1096698860365
 20
152.5547853887321
 10
154.2962823053817
 20
152.4412694176073
 10
153.156643967048
 20
151.2945686288697
 10
152.0170056287143
 20
150.1476955852443
 10
151.076149431015
 20
148.7930831468137
 10
150.3337308641742
 20
147.2290087646991
 10
149.5957909244188
 20
145.6683794803425
 10
148.8530278478023
 20
143.6822806228776
 10
148.0964843801539
 20
141.2751908193897
 10
148.0964843801539
 20
141.2751908193897
 10
143.8552245303272
 20
127.8027915271048
 10
143.8552245303272
 20
127.8027915271048
 10
143.8552245303272
 20
127.8027915271048
 10
141.486030802177
 20
127.8027915271048
 10
141.486030802177
 20
127.8027915271048
 10
141.486030802177
 20
127.8027915271048
 10
146.3329388378533
 20
143.2092687007094
 10
146.3329388378533
 20
143.2092687007094
 10
146.8483254624444
 20
144.8408669988801
 10
147.2314203331297
 20
146.1837661049335
 10
147.4867020769946
 20
147.224185627838
 10
147.9169947869641
 20
149.0197705792876
 10
148.0306830129768
 20
150.2400242051577
 10
147.709255392159
 20
151.3157559800812
 10
147.3874832615654
 20
152.3916600098926
 10
146.8245542879144
 20
152.6683013598569
 10
145.8840425999909
 20
152.6683013598569
 10
145.0989048209514
 20
152.6683013598569
 10
144.3282364524954
 20
152.3275811915945
 10
143.4531816219731
 20
151.6538923250251
 10
142.34627171234
 20
150.8074318058939
 10
141.901854101563
 20
150.1097995099067
 10
141.3578731655808
 20
149.289521733736
 10
140.6299240093235
 20
148.192602607601
 10
140.2850697237515
 20
147.455696197173
 10
139.6652966370942
 20
145.8385673095858
 10
139.0506911970739
 20
144.2214384219986
 10
138.463991048893
 20
142.3252566160164
 10
138.0571250036777
 20
141.0154304484394
 10
138.0571250036777
 20
141.0154304484394
 10
133.9009590684727
 20
127.8027915271048
 10
133.9009590684727
 20
127.8027915271048
 10
133.9009590684727
 20
127.8027915271048
 10
131.4180771143097
 20
127.8027915271048
 10
131.4180771143097
 20
127.8027915271048
 10
131.4180771143097
 20
127.8027915271048
 10
139.8926730891197
 20
154.8294111834263
 10
139.8926730891197
 20
154.8294111834263
 97
        0
 75
     2
 76
     1
 98
        0
  0
SPLINE
  5
3C5
330
3BD
100
AcDbEntity
  8
レイヤー 1
370
     0
100
AcDbSpline
210
0.0
220
0.0
230
1.0
 70
    11
 71
     3
 72
    29
 73
    25
 74
     0
 42
0.000000001
 43
0.0000000001
 40
0.0
 40
0.0
 40
0.0
 40
0.0
 40
1.0
 40
1.0
 40
1.0
 40
2.0
 40
2.0
 40
2.0
 40
3.0
 40
3.0
 40
3.0
 40
4.0
 40
4.0
 40
4.0
 40
5.0
 40
5.0
 40
5.0
 40
6.0
 40
6.0
 40
6.0
 40
7.0
 40
7.0
 40
7.0
 40
8.0
 40
8.0
 40
8.0
 40
8.0
 10
101.6420971922469
 20
132.8388354296931
 30
0.0
 10
101.630039350094
 20
134.7164137077823
 30
0.0
 10
102.2236296937908
 20
138.0598810818841
 30
0.0
 10
103.7487744712405
 20
142.5378191476827
 30
0.0
 10
105.819967243327
 20
148.5896501242061
 30
0.0
 10
107.0602024361932
 20
150.8074318058939
 30
0.0
 10
108.1522984254671
 20
151.8833358357054
 30
0.0
 10
109.741177511439
 20
153.4532668840085
 30
0.0
 10
111.8740375333931
 20
153.5290590346837
 30
0.0
 10
112.5075910110823
 20
153.4532668840085
 30
0.0
 10
113.4012493694975
 20
153.3490526768302
 30
0.0
 10
114.6683563248758
 20
152.7580461564518
 30
0.0
 10
114.7493161221879
 20
150.7838328862519
 30
0.0
 10
114.8106388622796
 20
149.0909118479895
 30
0.0
 10
114.3186789024427
 20
145.9191825971221
 30
0.0
 10
112.6164561002338
 20
140.9489400617108
 30
0.0
 10
110.6444821435766
 20
135.1746117095912
 30
0.0
 10
109.4669477299053
 20
132.8960240524753
 30
0.0
 10
108.5212683953448
 20
131.9072809959403
 30
0.0
 10
106.7346406980658
 20
130.0538184021569
 30
0.0
 10
104.8222669326213
 20
130.2336525051225
 30
0.0
 10
104.5408024457958
 20
130.2336525051225
 30
0.0
 10
104.1721769856939
 20
130.2336525051225
 30
0.0
 10
101.6465758193322
 20
130.6305277668397
 30
0.0
 10
101.6420971922469
 20
132.8388354296931
 30
0.0
  0
SPLINE
  5
3C6
330
3BD
100
AcDbEntity
  8
レイヤー 1
370
     0
100
AcDbSpline
210
0.0
220
0.0
230
1.0
 70
    11
 71
     3
 72
    32
 73
    28
 74
     0
 42
0.000000001
 43
0.0000000001
 40
0.0
 40
0.0
 40
0.0
 40
0.0
 40
1.0
 40
1.0
 40
1.0
 40
2.0
 40
2.0
 40
2.0
 40
3.0
 40
3.0
 40
3.0
 40
4.0
 40
4.0
 40
4.0
 40
5.0
 40
5.0
 40
5.0
 40
6.0
 40
6.0
 40
6.0
 40
7.0
 40
7.0
 40
7.0
 40
8.0
 40
8.0
 40
8.0
 40
9.0
 40
9.0
 40
9.0
 40
9.0
 10
106.2595617172429
 20
153.4105476718098
 30
0.0
 10
104.8222669326213
 20
151.5474388043041
 30
0.0
 10
103.7177685914188
 20
149.8758773721411
 30
0.0
 10
101.9232171692965
 20
144.6141795664062
 30
0.0
 10
100.2754269116635
 20
139.7999999594306
 30
0.0
 10
99.22777268346732
 20
136.3052927937542
 30
0.0
 10
99.06964269637689
 20
132.039572749846
 30
0.0
 10
98.94665270641765
 20
128.8673267343149
 30
0.0
 10
100.8807305877373
 20
127.8027915271048
 30
0.0
 10
103.7129454545577
 20
127.8027915271048
 30
0.0
 10
104.9352661390825
 20
127.8027915271048
 30
0.0
 10
108.0151835347002
 20
127.8827177950895
 30
0.0
 10
110.2045431598849
 20
130.5926316915021
 30
0.0
 10
111.7417457794874
 20
132.4984597712065
 30
0.0
 10
113.155269389579
 20
134.475256864725
 30
0.0
 10
115.0562743324223
 20
140.9489400617108
 30
0.0
 10
116.6361961642235
 20
146.3680788349845
 30
0.0
 10
117.7282921534974
 20
149.8639917848761
 30
0.0
 10
117.6480213757369
 20
151.8595646611754
 30
0.0
 10
117.6480213757369
 20
151.8595646611754
 30
0.0
 10
117.6480213757369
 20
151.8595646611754
 30
0.0
 10
117.6480213757369
 20
151.8595646611754
 30
0.0
 10
117.13229024137
 20
155.18150017429
 30
0.0
 10
114.7162431837115
 20
155.886194920681
 30
0.0
 10
113.3351034925446
 20
155.886194920681
 30
0.0
 10
111.9829026225447
 20
155.886194920681
 30
0.0
 10
108.3414342923792
 20
156.1251124501957
 30
0.0
 10
106.2595617172429
 20
153.4105476718098
 30
0.0
  0
HATCH
  5
3C7
330
3BD
100
AcDbEntity
  8
レイヤー 1
 62
   250
420
  2234388
100
AcDbHatch
 10
0.0
 20
0.0
 30
0.0
210
0.0
220
0.0
230
1.0
  2
SOLID
 70
     1
 71
     0
 91
        2
 92
        1
 93
        1
 72
     4
 94
        3
 73
     0
 74
     1
 95
       29
 96
       25
 40
0.0
 40
0.0
 40
0.0
 40
0.0
 40
1.0
 40
1.0
 40
1.0
 40
2.0
 40
2.0
 40
2.0
 40
3.0
 40
3.0
 40
3.0
 40
4.0
 40
4.0
 40
4.0
 40
5.0
 40
5.0
 40
5.0
 40
6.0
 40
6.0
 40
6.0
 40
7.0
 40
7.0
 40
7.0
 40
8.0
 40
8.0
 40
8.0
 40
8.0
 10
101.6420971922469
 20
132.8388354296931
 10
101.630039350094
 20
134.7164137077823
 10
102.2236296937908
 20
138.0598810818841
 10
103.7487744712405
 20
142.5378191476827
 10
105.819967243327
 20
148.5896501242061
 10
107.0602024361932
 20
150.8074318058939
 10
108.1522984254671
 20
151.8833358357054
 10
109.741177511439
 20
153.4532668840085
 10
111.8740375333931
 20
153.5290590346837
 10
112.5075910110823
 20
153.4532668840085
 10
113.4012493694975
 20
153.3490526768302
 10
114.6683563248758
 20
152.7580461564518
 10
114.7493161221879
 20
150.7838328862519
 10
114.8106388622796
 20
149.0909118479895
 10
114.3186789024427
 20
145.9191825971221
 10
112.6164561002338
 20
140.9489400617108
 10
110.6444821435766
 20
135.1746117095912
 10
109.4669477299053
 20
132.8960240524753
 10
108.5212683953448
 20
131.9072809959403
 10
106.7346406980658
 20
130.0538184021569
 10
104.8222669326213
 20
130.2336525051225
 10
104.5408024457958
 20
130.2336525051225
 10
104.1721769856939
 20
130.2336525051225
 10
101.6465758193322
 20
130.6305277668397
 10
101.6420971922469
 20
132.8388354296931
 97
        0
 92
        1
 93
        1
 72
     4
 94
        3
 73
     0
 74
     1
 95
       32
 96
       28
 40
0.0
 40
0.0
 40
0.0
 40
0.0
 40
1.0
 40
1.0
 40
1.0
 40
2.0
 40
2.0
 40
2.0
 40
3.0
 40
3.0
 40
3.0
 40
4.0
 40
4.0
 40
4.0
 40
5.0
 40
5.0
 40
5.0
 40
6.0
 40
6.0
 40
6.0
 40
7.0
 40
7.0
 40
7.0
 40
8.0
 40
8.0
 40
8.0
 40
9.0
 40
9.0
 40
9.0
 40
9.0
 10
106.2595617172429
 20
153.4105476718098
 10
104.8222669326213
 20
151.5474388043041
 10
103.7177685914188
 20
149.8758773721411
 10
101.9232171692965
 20
144.6141795664062
 10
100.2754269116635
 20
139.7999999594306
 10
99.22777268346732
 20
136.3052927937542
 10
99.06964269637689
 20
132.039572749846
 10
98.94665270641765
 20
128.8673267343149
 10
100.8807305877373
 20
127.8027915271048
 10
103.7129454545577
 20
127.8027915271048
 10
104.9352661390825
 20
127.8027915271048
 10
108.0151835347002
 20
127.8827177950895
 10
110.2045431598849
 20
130.5926316915021
 10
111.7417457794874
 20
132.4984597712065
 10
113.155269389579
 20
134.475256864725
 10
115.0562743324223
 20
140.9489400617108
 10
116.6361961642235
 20
146.3680788349845
 10
117.7282921534974
 20
149.8639917848761
 10
117.6480213757369
 20
151.8595646611754
 10
117.6480213757369
 20
151.8595646611754
 10
117.6480213757369
 20
151.8595646611754
 10
117.6480213757369
 20
151.8595646611754
 10
117.13229024137
 20
155.18150017429
 10
114.7162431837115
 20
155.886194920681
 10
113.3351034925446
 20
155.886194920681
 10
111.9829026225447
 20
155.886194920681
 10
108.3414342923792
 20
156.1251124501957
 10
106.2595617172429
 20
153.4105476718098
 97
        0
 75
     2
 76
     1
 98
        0
  0
ENDBLK
  5
3C8
330
3BD
100
AcDbEntity
  8
0
100
AcDbBlockEnd
  0
BLOCK
  5
11F1
330
11F0
100
AcDbEntity
  8
0
100
AcDbBlockBegin
  2
BLOCK_2
 70
     0
 10
0.0
 20
0.0
 30
0.0
  3
BLOCK_2
  1
BLOCK_2
  0
ENDBLK
  5
11F2
330
11F0
100
AcDbEntity
  8
0
100
AcDbBlockEnd
  0
BLOCK
  5
42BE
330
42BD
100
AcDbEntity
  8
0
100
AcDbBlockBegin
  2
*D7
 70
     1
 10
0.0
 20
0.0
 30
0.0
  3
*D7
  1

  0
LINE
  5
42C0
330
42BD
100
AcDbEntity
  8
Dim
 62
     0
 48
0.5
370
    -2
100
AcDbLine
 10
1356.581819662624
 20
1072.826568500154
 30
0.0
 11
1304.852772768
 21
1072.826568500154
 31
0.0
  0
LINE
  5
42C1
330
42BD
100
AcDbEntity
  8
Dim
 62
     0
 48
0.5
370
    -2
100
AcDbLine
 10
1356.581819662624
 20
942.826568500154
 30
0.0
 11
1304.852772768
 21
942.826568500154
 31
0.0
  0
LINE
  5
42C2
330
42BD
100
AcDbEntity
  8
Dim
 62
     0
 48
0.5
370
    -2
100
AcDbLine
 10
1304.852772768
 20
1062.827178851717
 30
0.0
 11
1304.852772768
 21
952.8259581485916
 31
0.0
  0
INSERT
  5
42C3
330
42BD
100
AcDbEntity
  8
Dim
 62
     0
370
    -2
100
AcDbBlockReference
  2
_DOT
 10
1304.852772768
 20
1072.826568500154
 30
0.0
 41
9.999389648437498
 42
9.999389648437498
 43
9.999389648437498
 50
90.0
  0
INSERT
  5
42C4
330
42BD
100
AcDbEntity
  8
Dim
 62
     0
370
    -2
100
AcDbBlockReference
  2
_DOT
 10
1304.852772768
 20
942.826568500154
 30
0.0
 41
9.999389648437498
 42
9.999389648437498
 43
9.999389648437498
 50
270.0
  0
MTEXT
  5
42C5
330
42BD
100
AcDbEntity
  8
Dim
  6
Continuous
 62
     0
100
AcDbMText
 10
1282.63646417425
 20
1007.826568500154
 30
0.0
 40
24.4326171875
 41
0.0
 46
0.0
 71
     5
 72
     1
  1
\A1;130
  7
ＭＳ ゴシック
 11
0.0
 21
1.0
 31
0.0
 73
     1
 44
1.0
  0
POINT
  5
42C6
330
42BD
100
AcDbEntity
  8
Defpoints
 62
     0
100
AcDbPoint
 10
1381.581819662624
 20
1072.826568500154
 30
0.0
  0
POINT
  5
42C7
330
42BD
100
AcDbEntity
  8
Defpoints
 62
     0
100
AcDbPoint
 10
1381.581819662624
 20
942.826568500154
 30
0.0
  0
POINT
  5
42C8
330
42BD
100
AcDbEntity
  8
Defpoints
 62
     0
100
AcDbPoint
 10
1304.852772768
 20
942.826568500154
 30
0.0
  0
ENDBLK
  5
42BF
330
42BD
100
AcDbEntity
  8
0
100
AcDbBlockEnd
  0
BLOCK
  5
4304
330
4303
100
AcDbEntity
  8
0
100
AcDbBlockBegin
  2
*D8
 70
     1
 10
0.0
 20
0.0
 30
0.0
  3
*D8
  1

  0
LINE
  5
4306
330
4303
100
AcDbEntity
  8
Dim
  6
Continuous
 62
     0
370
    -2
100
AcDbLine
 10
1537.876917053783
 20
968.1585108690642
 30
0.0
 11
1562.83585312528
 21
968.1585108690642
 31
0.0
  0
LINE
  5
4307
330
4303
100
AcDbEntity
  8
Dim
  6
Continuous
 62
     0
370
    -2
100
AcDbLine
 10
1537.876916576142
 20
1072.826568500154
 30
0.0
 11
1562.83585312528
 21
1072.826568500154
 31
0.0
  0
LINE
  5
4308
330
4303
100
AcDbEntity
  8
Dim
  6
Continuous
 62
     0
370
    -2
100
AcDbLine
 10
1562.83585312528
 20
1072.826568500154
 30
0.0
 11
1562.83585312528
 21
1261.082468890779
 31
0.0
  0
LINE
  5
4309
330
4303
100
AcDbEntity
  8
Dim
  6
Continuous
 62
     0
370
    -2
100
AcDbLine
 10
1562.83585312528
 20
978.1579005175017
 30
0.0
 11
1562.83585312528
 21
1062.827178851717
 31
0.0
  0
LINE
  5
430A
330
4303
100
AcDbEntity
  8
Dim
  6
Continuous
 62
     0
370
    -2
100
AcDbLine
 10
1562.83585312528
 20
1062.827178851717
 30
0.0
 11
1562.83585312528
 21
1052.827789203279
 31
0.0
  0
INSERT
  5
430B
330
4303
100
AcDbEntity
  8
Dim
 62
     0
370
    -2
100
AcDbBlockReference
  2
_DOT
 10
1562.83585312528
 20
968.1585108690642
 30
0.0
 41
9.999389648437498
 42
9.999389648437498
 43
9.999389648437498
 50
270.0
  0
INSERT
  5
430C
330
4303
100
AcDbEntity
  8
Dim
 62
     0
370
    -2
100
AcDbBlockReference
  2
_DOT
 10
1562.83585312528
 20
1072.826568500154
 30
0.0
 41
9.999389648437498
 42
9.999389648437498
 43
9.999389648437498
 50
90.0
  0
MTEXT
  5
430D
330
4303
100
AcDbEntity
  8
Dim
  6
Continuous
 62
     0
100
AcDbMText
 10
1538.457257910436
 20
1176.953908343904
 30
0.0
 40
24.4326171875
 41
0.0
 46
0.0
 71
     5
 72
     1
  1
\A1;105 (深さ)
  7
ＭＳ ゴシック
 11
0.0
 21
1.0
 31
0.0
 73
     1
 44
1.0
  0
POINT
  5
430E
330
4303
100
AcDbEntity
  8
Defpoints
 62
     0
100
AcDbPoint
 10
1562.876917053783
 20
968.1585108690642
 30
0.0
  0
POINT
  5
430F
330
4303
100
AcDbEntity
  8
Defpoints
 62
     0
100
AcDbPoint
 10
1562.876916576142
 20
1072.826568500154
 30
0.0
  0
POINT
  5
4310
330
4303
100
AcDbEntity
  8
Defpoints
 62
     0
100
AcDbPoint
 10
1562.83585312528
 20
1072.826568500154
 30
0.0
  0
ENDBLK
  5
4305
330
4303
100
AcDbEntity
  8
0
100
AcDbBlockEnd
  0
BLOCK
  5
4314
330
4313
100
AcDbEntity
  8
0
100
AcDbBlockBegin
  2
*D9
 70
     1
 10
0.0
 20
0.0
 30
0.0
  3
*D9
  1

  0
LINE
  5
4316
330
4313
100
AcDbEntity
  8
Dim
  6
Continuous
 62
     0
370
    -2
100
AcDbLine
 10
373.7043157223911
 20
2269.106209976733
 30
0.0
 11
373.7043157223911
 21
2347.043384095262
 31
0.0
  0
LINE
  5
4317
330
4313
100
AcDbEntity
  8
Dim
  6
Continuous
 62
     0
370
    -2
100
AcDbLine
 10
823.7043157223911
 20
2269.106209976733
 30
0.0
 11
823.7043157223911
 21
2347.043384095262
 31
0.0
  0
LINE
  5
4318
330
4313
100
AcDbEntity
  8
Dim
  6
Continuous
 62
     0
370
    -2
100
AcDbLine
 10
383.7037053708286
 20
2347.043384095262
 30
0.0
 11
813.7049260739536
 21
2347.043384095262
 31
0.0
  0
INSERT
  5
4319
330
4313
100
AcDbEntity
  8
Dim
 62
     0
370
    -2
100
AcDbBlockReference
  2
_DOT
 10
373.7043157223911
 20
2347.043384095262
 30
0.0
 41
9.999389648437498
 42
9.999389648437498
 43
9.999389648437498
 50
180.0
  0
INSERT
  5
431A
330
4313
100
AcDbEntity
  8
Dim
 62
     0
370
    -2
100
AcDbBlockReference
  2
_DOT
 10
823.7043157223911
 20
2347.043384095262
 30
0.0
 41
9.999389648437498
 42
9.999389648437498
 43
9.999389648437498
  0
MTEXT
  5
431B
330
4313
100
AcDbEntity
  8
Dim
  6
Continuous
 62
     0
100
AcDbMText
 10
598.704315722391
 20
2369.259692689012
 30
0.0
 40
24.4326171875
 41
0.0
 46
0.0
 71
     5
 72
     1
  1
\A1;450
  7
ＭＳ ゴシック
 73
     1
 44
1.0
  0
POINT
  5
431C
330
4313
100
AcDbEntity
  8
Defpoints
 62
     0
100
AcDbPoint
 10
373.7043157223911
 20
2244.106209976733
 30
0.0
  0
POINT
  5
431D
330
4313
100
AcDbEntity
  8
Defpoints
 62
     0
100
AcDbPoint
 10
823.7043157223911
 20
2244.106209976733
 30
0.0
  0
POINT
  5
431E
330
4313
100
AcDbEntity
  8
Defpoints
 62
     0
100
AcDbPoint
 10
823.7043157223911
 20
2347.043384095262
 30
0.0
  0
ENDBLK
  5
4315
330
4313
100
AcDbEntity
  8
0
100
AcDbBlockEnd
  0
BLOCK
  5
4321
330
4320
100
AcDbEntity
  8
0
100
AcDbBlockBegin
  2
*D10
 70
     1
 10
0.0
 20
0.0
 30
0.0
  3
*D10
  1

  0
LINE
  5
4323
330
4320
100
AcDbEntity
  8
Dim
  6
Continuous
 62
     0
370
    -2
100
AcDbLine
 10
860.7828366767379
 20
2241.057047449692
 30
0.0
 11
967.787534365385
 21
2241.057047449692
 31
0.0
  0
LINE
  5
4324
330
4320
100
AcDbEntity
  8
Dim
  6
Continuous
 62
     0
370
    -2
100
AcDbLine
 10
860.7828366767379
 20
1891.057047449692
 30
0.0
 11
967.787534365385
 21
1891.057047449692
 31
0.0
  0
LINE
  5
4325
330
4320
100
AcDbEntity
  8
Dim
  6
Continuous
 62
     0
370
    -2
100
AcDbLine
 10
967.787534365385
 20
2231.057657801254
 30
0.0
 11
967.787534365385
 21
1901.056437098129
 31
0.0
  0
INSERT
  5
4326
330
4320
100
AcDbEntity
  8
Dim
 62
     0
370
    -2
100
AcDbBlockReference
  2
_DOT
 10
967.787534365385
 20
2241.057047449692
 30
0.0
 41
9.999389648437498
 42
9.999389648437498
 43
9.999389648437498
 50
90.0
  0
INSERT
  5
4327
330
4320
100
AcDbEntity
  8
Dim
 62
     0
370
    -2
100
AcDbBlockReference
  2
_DOT
 10
967.787534365385
 20
1891.057047449692
 30
0.0
 41
9.999389648437498
 42
9.999389648437498
 43
9.999389648437498
 50
270.0
  0
MTEXT
  5
4328
330
4320
100
AcDbEntity
  8
Dim
  6
Continuous
 62
     0
100
AcDbMText
 10
945.571225771635
 20
2066.057047449692
 30
0.0
 40
24.4326171875
 41
0.0
 46
0.0
 71
     5
 72
     1
  1
\A1;350
  7
ＭＳ ゴシック
 11
0.0
 21
1.0
 31
0.0
 73
     1
 44
1.0
  0
POINT
  5
4329
330
4320
100
AcDbEntity
  8
Defpoints
 62
     0
100
AcDbPoint
 10
835.7828366767379
 20
2241.057047449692
 30
0.0
  0
POINT
  5
432A
330
4320
100
AcDbEntity
  8
Defpoints
 62
     0
100
AcDbPoint
 10
835.7828366767379
 20
1891.057047449692
 30
0.0
  0
POINT
  5
432B
330
4320
100
AcDbEntity
  8
Defpoints
 62
     0
100
AcDbPoint
 10
967.787534365385
 20
1891.057047449692
 30
0.0
  0
ENDBLK
  5
4322
330
4320
100
AcDbEntity
  8
0
100
AcDbBlockEnd
  0
BLOCK
  5
4362
330
4361
100
AcDbEntity
  8
0
100
AcDbBlockBegin
  2
*D11
 70
     1
 10
0.0
 20
0.0
 30
0.0
  3
*D11
  1

  0
LINE
  5
4364
330
4361
100
AcDbEntity
  8
Dim
  6
Continuous
 62
     0
370
    -2
100
AcDbLine
 10
1590.053947823672
 20
2126.11237777114
 30
0.0
 11
1776.039714318728
 21
2126.11237777114
 31
0.0
  0
LINE
  5
4365
330
4361
100
AcDbEntity
  8
Dim
  6
Continuous
 62
     0
370
    -2
100
AcDbLine
 10
1590.053947823672
 20
2006.11237777114
 30
0.0
 11
1776.039714318728
 21
2006.11237777114
 31
0.0
  0
LINE
  5
4366
330
4361
100
AcDbEntity
  8
Dim
  6
Continuous
 62
     0
370
    -2
100
AcDbLine
 10
1776.039714318728
 20
2116.112988122703
 30
0.0
 11
1776.039714318728
 21
2016.111767419578
 31
0.0
  0
INSERT
  5
4367
330
4361
100
AcDbEntity
  8
Dim
 62
     0
370
    -2
100
AcDbBlockReference
  2
_DOT
 10
1776.039714318728
 20
2126.11237777114
 30
0.0
 41
9.999389648437498
 42
9.999389648437498
 43
9.999389648437498
 50
90.0
  0
INSERT
  5
4368
330
4361
100
AcDbEntity
  8
Dim
 62
     0
370
    -2
100
AcDbBlockReference
  2
_DOT
 10
1776.039714318728
 20
2006.11237777114
 30
0.0
 41
9.999389648437498
 42
9.999389648437498
 43
9.999389648437498
 50
270.0
  0
MTEXT
  5
4369
330
4361
100
AcDbEntity
  8
Dim
  6
Continuous
 62
     0
100
AcDbMText
 10
1753.823405724978
 20
2066.11237777114
 30
0.0
 40
24.4326171875
 41
0.0
 46
0.0
 71
     5
 72
     1
  1
\A1;120
  7
ＭＳ ゴシック
 11
0.0
 21
1.0
 31
0.0
 73
     1
 44
1.0
  0
POINT
  5
436A
330
4361
100
AcDbEntity
  8
Defpoints
 62
     0
100
AcDbPoint
 10
1565.053947823672
 20
2126.11237777114
 30
0.0
  0
POINT
  5
436B
330
4361
100
AcDbEntity
  8
Defpoints
 62
     0
100
AcDbPoint
 10
1565.053947823672
 20
2006.11237777114
 30
0.0
  0
POINT
  5
436C
330
4361
100
AcDbEntity
  8
Defpoints
 62
     0
100
AcDbPoint
 10
1776.039714318728
 20
2006.11237777114
 30
0.0
  0
ENDBLK
  5
4363
330
4361
100
AcDbEntity
  8
0
100
AcDbBlockEnd
  0
BLOCK
  5
436E
330
436D
100
AcDbEntity
  8
0
100
AcDbBlockBegin
  2
*D12
 70
     1
 10
0.0
 20
0.0
 30
0.0
  3
*D12
  1

  0
LINE
  5
4370
330
436D
100
AcDbEntity
  8
Dim
  6
Continuous
 62
     0
370
    -2
100
AcDbLine
 10
1445.053947823672
 20
1981.11237777114
 30
0.0
 11
1445.053947823672
 21
1798.570905065308
 31
0.0
  0
LINE
  5
4371
330
436D
100
AcDbEntity
  8
Dim
  6
Continuous
 62
     0
370
    -2
100
AcDbLine
 10
1565.053947823672
 20
1981.11237777114
 30
0.0
 11
1565.053947823672
 21
1798.570905065308
 31
0.0
  0
LINE
  5
4372
330
436D
100
AcDbEntity
  8
Dim
  6
Continuous
 62
     0
370
    -2
100
AcDbLine
 10
1455.053337472109
 20
1798.570905065308
 30
0.0
 11
1555.054558175234
 21
1798.570905065308
 31
0.0
  0
INSERT
  5
4373
330
436D
100
AcDbEntity
  8
Dim
 62
     0
370
    -2
100
AcDbBlockReference
  2
_DOT
 10
1445.053947823672
 20
1798.570905065308
 30
0.0
 41
9.999389648437498
 42
9.999389648437498
 43
9.999389648437498
 50
180.0
  0
INSERT
  5
4374
330
436D
100
AcDbEntity
  8
Dim
 62
     0
370
    -2
100
AcDbBlockReference
  2
_DOT
 10
1565.053947823672
 20
1798.570905065308
 30
0.0
 41
9.999389648437498
 42
9.999389648437498
 43
9.999389648437498
  0
MTEXT
  5
4375
330
436D
100
AcDbEntity
  8
Dim
  6
Continuous
 62
     0
100
AcDbMText
 10
1505.053947823672
 20
1820.787213659058
 30
0.0
 40
24.4326171875
 41
0.0
 46
0.0
 71
     5
 72
     1
  1
\A1;120
  7
ＭＳ ゴシック
 73
     1
 44
1.0
  0
POINT
  5
4376
330
436D
100
AcDbEntity
  8
Defpoints
 62
     0
100
AcDbPoint
 10
1445.053947823672
 20
2006.11237777114
 30
0.0
  0
POINT
  5
4377
330
436D
100
AcDbEntity
  8
Defpoints
 62
     0
100
AcDbPoint
 10
1565.053947823672
 20
2006.11237777114
 30
0.0
  0
POINT
  5
4378
330
436D
100
AcDbEntity
  8
Defpoints
 62
     0
100
AcDbPoint
 10
1565.053947823672
 20
1798.570905065308
 30
0.0
  0
ENDBLK
  5
436F
330
436D
100
AcDbEntity
  8
0
100
AcDbBlockEnd
  0
BLOCK
  5
437D
330
437C
100
AcDbEntity
  8
0
100
AcDbBlockBegin
  2
*D13
 70
     1
 10
0.0
 20
0.0
 30
0.0
  3
*D13
  1

  0
LINE
  5
437F
330
437C
100
AcDbEntity
  8
Dim
  6
Continuous
 62
     0
370
    -2
100
AcDbLine
 10
1562.876916576142
 20
828.2588900342981
 30
0.0
 11
1562.876916576142
 21
767.5041876479986
 31
0.0
  0
LINE
  5
4380
330
437C
100
AcDbEntity
  8
Dim
  6
Continuous
 62
     0
370
    -2
100
AcDbLine
 10
1737.876916576142
 20
1005.961888968411
 30
0.0
 11
1737.876916576142
 21
767.5041876479986
 31
0.0
  0
LINE
  5
4381
330
437C
100
AcDbEntity
  8
Dim
  6
Continuous
 62
     0
370
    -2
100
AcDbLine
 10
1572.87630622458
 20
767.5041876479986
 30
0.0
 11
1727.877526927705
 21
767.5041876479986
 31
0.0
  0
INSERT
  5
4382
330
437C
100
AcDbEntity
  8
Dim
 62
     0
370
    -2
100
AcDbBlockReference
  2
_DOT
 10
1562.876916576142
 20
767.5041876479986
 30
0.0
 41
9.999389648437498
 42
9.999389648437498
 43
9.999389648437498
 50
180.0
  0
INSERT
  5
4383
330
437C
100
AcDbEntity
  8
Dim
 62
     0
370
    -2
100
AcDbBlockReference
  2
_DOT
 10
1737.876916576142
 20
767.5041876479986
 30
0.0
 41
9.999389648437498
 42
9.999389648437498
 43
9.999389648437498
  0
MTEXT
  5
4384
330
437C
100
AcDbEntity
  8
Dim
  6
Continuous
 62
     0
100
AcDbMText
 10
1650.376916576142
 20
789.7204962417486
 30
0.0
 40
24.4326171875
 41
0.0
 46
0.0
 71
     5
 72
     1
  1
\A1;175
  7
ＭＳ ゴシック
 73
     1
 44
1.0
  0
POINT
  5
4385
330
437C
100
AcDbEntity
  8
Defpoints
 62
     0
100
AcDbPoint
 10
1562.876916576142
 20
853.2588900342981
 30
0.0
  0
POINT
  5
4386
330
437C
100
AcDbEntity
  8
Defpoints
 62
     0
100
AcDbPoint
 10
1737.876916576142
 20
1030.961888968411
 30
0.0
  0
POINT
  5
4387
330
437C
100
AcDbEntity
  8
Defpoints
 62
     0
100
AcDbPoint
 10
1737.876916576142
 20
767.5041876479986
 30
0.0
  0
ENDBLK
  5
437E
330
437C
100
AcDbEntity
  8
0
100
AcDbBlockEnd
  0
BLOCK
  5
4395
330
4394
100
AcDbEntity
  8
0
100
AcDbBlockBegin
  2
*D14
 70
     1
 10
0.0
 20
0.0
 30
0.0
  3
*D14
  1

  0
LINE
  5
4397
330
4394
100
AcDbEntity
  8
Dim
  6
Continuous
 62
     0
370
    -2
100
AcDbLine
 10
402.1694025605998
 20
1897.695465910007
 30
0.0
 11
282.336382752
 21
1897.695465910007
 31
0.0
  0
LINE
  5
4398
330
4394
100
AcDbEntity
  8
Dim
  6
Continuous
 62
     0
370
    -2
100
AcDbLine
 10
394.6533101322775
 20
2234.483742198901
 30
0.0
 11
282.336382752
 21
2234.483742198901
 31
0.0
  0
LINE
  5
4399
330
4394
100
AcDbEntity
  8
Dim
  6
Continuous
 62
     0
370
    -2
100
AcDbLine
 10
282.336382752
 20
1907.694855558444
 30
0.0
 11
282.336382752
 21
2224.484352550464
 31
0.0
  0
INSERT
  5
439A
330
4394
100
AcDbEntity
  8
Dim
 62
     0
370
    -2
100
AcDbBlockReference
  2
_DOT
 10
282.336382752
 20
1897.695465910007
 30
0.0
 41
9.999389648437498
 42
9.999389648437498
 43
9.999389648437498
 50
270.0
  0
INSERT
  5
439B
330
4394
100
AcDbEntity
  8
Dim
 62
     0
370
    -2
100
AcDbBlockReference
  2
_DOT
 10
282.336382752
 20
2234.483742198901
 30
0.0
 41
9.999389648437498
 42
9.999389648437498
 43
9.999389648437498
 50
90.0
  0
MTEXT
  5
439C
330
4394
100
AcDbEntity
  8
Dim
  6
Continuous
 62
     0
100
AcDbMText
 10
260.12007415825
 20
2066.089604054454
 30
0.0
 40
24.4326171875
 41
0.0
 46
0.0
 71
     5
 72
     1
  1
\A1;336.8
  7
ＭＳ ゴシック
 11
0.0
 21
1.0
 31
0.0
 73
     1
 44
1.0
  0
POINT
  5
439D
330
4394
100
AcDbEntity
  8
Defpoints
 62
     0
100
AcDbPoint
 10
427.1694025605998
 20
1897.695465910007
 30
0.0
  0
POINT
  5
439E
330
4394
100
AcDbEntity
  8
Defpoints
 62
     0
100
AcDbPoint
 10
419.6533101322775
 20
2234.483742198901
 30
0.0
  0
POINT
  5
439F
330
4394
100
AcDbEntity
  8
Defpoints
 62
     0
100
AcDbPoint
 10
282.336382752
 20
2234.483742198901
 30
0.0
  0
ENDBLK
  5
4396
330
4394
100
AcDbEntity
  8
0
100
AcDbBlockEnd
  0
BLOCK
  5
43A2
330
43A1
100
AcDbEntity
  8
0
100
AcDbBlockBegin
  2
*D15
 70
     1
 10
0.0
 20
0.0
 30
0.0
  3
*D15
  1

  0
LINE
  5
43A4
330
43A1
100
AcDbEntity
  8
Dim
  6
Continuous
 62
     0
370
    -2
100
AcDbLine
 10
402.1706533832935
 20
2234.642536591352
 30
0.0
 11
293.547757344
 21
2234.642536591352
 31
0.0
  0
LINE
  5
43A5
330
43A1
100
AcDbEntity
  8
Dim
  6
Continuous
 62
     0
370
    -2
100
AcDbLine
 10
402.1706533832935
 20
1897.80015744
 30
0.0
 11
293.547757344
 21
1897.80015744
 31
0.0
  0
LINE
  5
43A6
330
43A1
100
AcDbEntity
  8
Dim
  6
Continuous
 62
     0
370
    -2
100
AcDbLine
 10
293.547757344
 20
2224.643146942914
 30
0.0
 11
293.547757344
 21
1907.799547088437
 31
0.0
  0
INSERT
  5
43A7
330
43A1
100
AcDbEntity
  8
Dim
 62
     0
370
    -2
100
AcDbBlockReference
  2
_DOT
 10
293.547757344
 20
2234.642536591352
 30
0.0
 41
9.999389648437498
 42
9.999389648437498
 43
9.999389648437498
 50
90.0
  0
INSERT
  5
43A8
330
43A1
100
AcDbEntity
  8
Dim
 62
     0
370
    -2
100
AcDbBlockReference
  2
_DOT
 10
293.547757344
 20
1897.80015744
 30
0.0
 41
9.999389648437498
 42
9.999389648437498
 43
9.999389648437498
 50
270.0
  0
MTEXT
  5
43A9
330
43A1
100
AcDbEntity
  8
Dim
  6
Continuous
 62
     0
100
AcDbMText
 10
271.33144875025
 20
2066.221347015676
 30
0.0
 40
24.4326171875
 41
0.0
 46
0.0
 71
     5
 72
     1
  1
\A1;330
  7
ＭＳ ゴシック
 11
0.0
 21
1.0
 31
0.0
 73
     1
 44
1.0
  0
POINT
  5
43AA
330
43A1
100
AcDbEntity
  8
Defpoints
 62
     0
100
AcDbPoint
 10
427.1706533832935
 20
2234.642536591352
 30
0.0
  0
POINT
  5
43AB
330
43A1
100
AcDbEntity
  8
Defpoints
 62
     0
100
AcDbPoint
 10
427.1706533832935
 20
1897.80015744
 30
0.0
  0
POINT
  5
43AC
330
43A1
100
AcDbEntity
  8
Defpoints
 62
     0
100
AcDbPoint
 10
293.547757344
 20
1897.80015744
 30
0.0
  0
ENDBLK
  5
43A3
330
43A1
100
AcDbEntity
  8
0
100
AcDbBlockEnd
  0
BLOCK
  5
43B1
330
43B0
100
AcDbEntity
  8
0
100
AcDbBlockBegin
  2
*D16
 70
     1
 10
0.0
 20
0.0
 30
0.0
  3
*D16
  1

  0
LINE
  5
43B3
330
43B0
100
AcDbEntity
  8
Dim
  6
Continuous
 62
     0
370
    -2
100
AcDbLine
 10
380.1989956377713
 20
1913.746046181219
 30
0.0
 11
380.1989956377713
 21
1806.240598272
 31
0.0
  0
LINE
  5
43B4
330
43B0
100
AcDbEntity
  8
Dim
  6
Continuous
 62
     0
370
    -2
100
AcDbLine
 10
817.0677247810186
 20
1913.746046181219
 30
0.0
 11
817.0677247810186
 21
1806.240598272
 31
0.0
  0
LINE
  5
43B5
330
43B0
100
AcDbEntity
  8
Dim
  6
Continuous
 62
     0
370
    -2
100
AcDbLine
 10
390.1983852862088
 20
1806.240598272
 30
0.0
 11
807.0683351325811
 21
1806.240598272
 31
0.0
  0
INSERT
  5
43B6
330
43B0
100
AcDbEntity
  8
Dim
 62
     0
370
    -2
100
AcDbBlockReference
  2
_DOT
 10
380.1989956377713
 20
1806.240598272
 30
0.0
 41
9.999389648437498
 42
9.999389648437498
 43
9.999389648437498
 50
180.0
  0
INSERT
  5
43B7
330
43B0
100
AcDbEntity
  8
Dim
 62
     0
370
    -2
100
AcDbBlockReference
  2
_DOT
 10
817.0677247810186
 20
1806.240598272
 30
0.0
 41
9.999389648437498
 42
9.999389648437498
 43
9.999389648437498
  0
MTEXT
  5
43B8
330
43B0
100
AcDbEntity
  8
Dim
  6
Continuous
 62
     0
100
AcDbMText
 10
598.6333602093949
 20
1828.45690686575
 30
0.0
 40
24.4326171875
 41
0.0
 46
0.0
 71
     5
 72
     1
  1
\A1;430
  7
ＭＳ ゴシック
 73
     1
 44
1.0
  0
POINT
  5
43B9
330
43B0
100
AcDbEntity
  8
Defpoints
 62
     0
100
AcDbPoint
 10
380.1989956377713
 20
1938.746046181219
 30
0.0
  0
POINT
  5
43BA
330
43B0
100
AcDbEntity
  8
Defpoints
 62
     0
100
AcDbPoint
 10
817.0677247810186
 20
1938.746046181219
 30
0.0
  0
POINT
  5
43BB
330
43B0
100
AcDbEntity
  8
Defpoints
 62
     0
100
AcDbPoint
 10
817.0677247810186
 20
1806.240598272
 30
0.0
  0
ENDBLK
  5
43B2
330
43B0
100
AcDbEntity
  8
0
100
AcDbBlockEnd
  0
BLOCK
  5
43C0
330
43BF
100
AcDbEntity
  8
0
100
AcDbBlockBegin
  2
*D17
 70
     1
 10
0.0
 20
0.0
 30
0.0
  3
*D17
  1

  0
LINE
  5
43C2
330
43BF
100
AcDbEntity
  8
Dim
  6
Continuous
 62
     0
370
    -2
100
AcDbLine
 10
1528.843539528529
 20
968.1877353390886
 30
0.0
 11
1485.918816343297
 21
968.1877353390886
 31
0.0
  0
LINE
  5
43C3
330
43BF
100
AcDbEntity
  8
Dim
  6
Continuous
 62
     0
370
    -2
100
AcDbLine
 10
1522.626222097665
 20
1072.826568500154
 30
0.0
 11
1485.918816343297
 21
1072.826568500154
 31
0.0
  0
LINE
  5
43C4
330
43BF
100
AcDbEntity
  8
Dim
  6
Continuous
 62
     0
370
    -2
100
AcDbLine
 10
1485.918816343297
 20
978.1871249875261
 30
0.0
 11
1485.918816343297
 21
1062.827178851717
 31
0.0
  0
INSERT
  5
43C5
330
43BF
100
AcDbEntity
  8
Dim
 62
     0
370
    -2
100
AcDbBlockReference
  2
_DOT
 10
1485.918816343297
 20
968.1877353390886
 30
0.0
 41
9.999389648437498
 42
9.999389648437498
 43
9.999389648437498
 50
270.0
  0
INSERT
  5
43C6
330
43BF
100
AcDbEntity
  8
Dim
 62
     0
370
    -2
100
AcDbBlockReference
  2
_DOT
 10
1485.918816343297
 20
1072.826568500154
 30
0.0
 41
9.999389648437498
 42
9.999389648437498
 43
9.999389648437498
 50
90.0
  0
MTEXT
  5
43C7
330
43BF
100
AcDbEntity
  8
Dim
  6
Continuous
 62
     0
100
AcDbMText
 10
1463.702507749547
 20
1020.507151919621
 30
0.0
 40
24.4326171875
 41
0.0
 46
0.0
 71
     5
 72
     1
  1
\A1;104.6
  7
ＭＳ ゴシック
 11
0.0
 21
1.0
 31
0.0
 73
     1
 44
1.0
  0
POINT
  5
43C8
330
43BF
100
AcDbEntity
  8
Defpoints
 62
     0
100
AcDbPoint
 10
1553.843539528529
 20
968.1877353390886
 30
0.0
  0
POINT
  5
43C9
330
43BF
100
AcDbEntity
  8
Defpoints
 62
     0
100
AcDbPoint
 10
1547.626222097665
 20
1072.826568500154
 30
0.0
  0
POINT
  5
43CA
330
43BF
100
AcDbEntity
  8
Defpoints
 62
     0
100
AcDbPoint
 10
1485.918816343297
 20
1072.826568500154
 30
0.0
  0
ENDBLK
  5
43C1
330
43BF
100
AcDbEntity
  8
0
100
AcDbBlockEnd
  0
BLOCK
  5
43D2
330
43D1
100
AcDbEntity
  8
0
100
AcDbBlockBegin
  2
*D18
 70
     1
 10
0.0
 20
0.0
 30
0.0
  3
*D18
  1

  0
LINE
  5
43D4
330
43D1
100
AcDbEntity
  8
Dim
  6
Continuous
 62
     0
370
    -2
100
AcDbLine
 10
818.2430721609923
 20
922.4123128279035
 30
0.0
 11
818.2430721609923
 21
844.5666365706236
 31
0.0
  0
LINE
  5
43D5
330
43D1
100
AcDbEntity
  8
Dim
  6
Continuous
 62
     0
370
    -2
100
AcDbLine
 10
377.8910801657495
 20
924.8851101686823
 30
0.0
 11
377.8910801657495
 21
844.5666365706236
 31
0.0
  0
LINE
  5
43D6
330
43D1
100
AcDbEntity
  8
Dim
  6
Continuous
 62
     0
370
    -2
100
AcDbLine
 10
808.2436825125548
 20
844.5666365706236
 30
0.0
 11
387.890469814187
 21
844.5666365706236
 31
0.0
  0
INSERT
  5
43D7
330
43D1
100
AcDbEntity
  8
Dim
 62
     0
370
    -2
100
AcDbBlockReference
  2
_DOT
 10
818.2430721609923
 20
844.5666365706236
 30
0.0
 41
9.999389648437498
 42
9.999389648437498
 43
9.999389648437498
  0
INSERT
  5
43D8
330
43D1
100
AcDbEntity
  8
Dim
 62
     0
370
    -2
100
AcDbBlockReference
  2
_DOT
 10
377.8910801657495
 20
844.5666365706236
 30
0.0
 41
9.999389648437498
 42
9.999389648437498
 43
9.999389648437498
 50
180.0
  0
MTEXT
  5
43D9
330
43D1
100
AcDbEntity
  8
Dim
  6
Continuous
 62
     0
100
AcDbMText
 10
598.0670761633709
 20
866.7829451643736
 30
0.0
 40
24.4326171875
 41
0.0
 46
0.0
 71
     5
 72
     1
  1
\A1;440
  7
ＭＳ ゴシック
 73
     1
 44
1.0
  0
POINT
  5
43DA
330
43D1
100
AcDbEntity
  8
Defpoints
 62
     0
100
AcDbPoint
 10
818.2430721609923
 20
947.4123128279035
 30
0.0
  0
POINT
  5
43DB
330
43D1
100
AcDbEntity
  8
Defpoints
 62
     0
100
AcDbPoint
 10
377.8910801657495
 20
949.8851101686823
 30
0.0
  0
POINT
  5
43DC
330
43D1
100
AcDbEntity
  8
Defpoints
 62
     0
100
AcDbPoint
 10
377.8910801657495
 20
844.5666365706236
 30
0.0
  0
ENDBLK
  5
43D3
330
43D1
100
AcDbEntity
  8
0
100
AcDbBlockEnd
  0
BLOCK
  5
43DF
330
43DE
100
AcDbEntity
  8
0
100
AcDbBlockBegin
  2
*D19
 70
     1
 10
0.0
 20
0.0
 30
0.0
  3
*D19
  1

  0
LINE
  5
43E1
330
43DE
100
AcDbEntity
  8
Dim
  6
Continuous
 62
     0
370
    -2
100
AcDbLine
 10
1733.696204123279
 20
912.249844545732
 30
0.0
 11
1733.696204123279
 21
853.2588900342981
 31
0.0
  0
LINE
  5
43E2
330
43DE
100
AcDbEntity
  8
Dim
  6
Continuous
 62
     0
370
    -2
100
AcDbLine
 10
1393.696204123279
 20
912.2498445457323
 30
0.0
 11
1393.696204123279
 21
853.2588900342981
 31
0.0
  0
LINE
  5
43E3
330
43DE
100
AcDbEntity
  8
Dim
  6
Continuous
 62
     0
370
    -2
100
AcDbLine
 10
1723.696814474841
 20
853.2588900342981
 30
0.0
 11
1403.695593771716
 21
853.2588900342981
 31
0.0
  0
INSERT
  5
43E4
330
43DE
100
AcDbEntity
  8
Dim
 62
     0
370
    -2
100
AcDbBlockReference
  2
_DOT
 10
1733.696204123279
 20
853.2588900342981
 30
0.0
 41
9.999389648437498
 42
9.999389648437498
 43
9.999389648437498
  0
INSERT
  5
43E5
330
43DE
100
AcDbEntity
  8
Dim
 62
     0
370
    -2
100
AcDbBlockReference
  2
_DOT
 10
1393.696204123279
 20
853.2588900342981
 30
0.0
 41
9.999389648437498
 42
9.999389648437498
 43
9.999389648437498
 50
180.0
  0
MTEXT
  5
43E6
330
43DE
100
AcDbEntity
  8
Dim
  6
Continuous
 62
     0
100
AcDbMText
 10
1563.696204123279
 20
875.4751986280481
 30
0.0
 40
24.4326171875
 41
0.0
 46
0.0
 71
     5
 72
     1
  1
\A1;340
  7
ＭＳ ゴシック
 73
     1
 44
1.0
  0
POINT
  5
43E7
330
43DE
100
AcDbEntity
  8
Defpoints
 62
     0
100
AcDbPoint
 10
1733.696204123279
 20
937.249844545732
 30
0.0
  0
POINT
  5
43E8
330
43DE
100
AcDbEntity
  8
Defpoints
 62
     0
100
AcDbPoint
 10
1393.696204123279
 20
937.2498445457323
 30
0.0
  0
POINT
  5
43E9
330
43DE
100
AcDbEntity
  8
Defpoints
 62
     0
100
AcDbPoint
 10
1393.696204123279
 20
853.2588900342981
 30
0.0
  0
ENDBLK
  5
43E0
330
43DE
100
AcDbEntity
  8
0
100
AcDbBlockEnd
  0
BLOCK
  5
4411
330
4410
100
AcDbEntity
  8
0
100
AcDbBlockBegin
  2
*D20
 70
     1
 10
0.0
 20
0.0
 30
0.0
  3
*D20
  1

  0
LINE
  5
4413
330
4410
100
AcDbEntity
  8
Dim
  6
Continuous
 62
     0
370
    -2
100
AcDbLine
 10
823.5978660908677
 20
967.7798946559996
 30
0.0
 11
823.5978660908677
 21
764.6303557255565
 31
0.0
  0
LINE
  5
4414
330
4410
100
AcDbEntity
  8
Dim
  6
Continuous
 62
     0
370
    -2
100
AcDbLine
 10
598.5978660908677
 20
816.6928046481814
 30
0.0
 11
598.5978660908677
 21
764.6303557255565
 31
0.0
  0
LINE
  5
4415
330
4410
100
AcDbEntity
  8
Dim
  6
Continuous
 62
     0
370
    -2
100
AcDbLine
 10
813.5984764424302
 20
764.6303557255565
 30
0.0
 11
608.5972557393052
 21
764.6303557255565
 31
0.0
  0
INSERT
  5
4416
330
4410
100
AcDbEntity
  8
Dim
 62
     0
370
    -2
100
AcDbBlockReference
  2
_DOT
 10
823.5978660908677
 20
764.6303557255565
 30
0.0
 41
9.999389648437498
 42
9.999389648437498
 43
9.999389648437498
  0
INSERT
  5
4417
330
4410
100
AcDbEntity
  8
Dim
 62
     0
370
    -2
100
AcDbBlockReference
  2
_DOT
 10
598.5978660908677
 20
764.6303557255565
 30
0.0
 41
9.999389648437498
 42
9.999389648437498
 43
9.999389648437498
 50
180.0
  0
MTEXT
  5
4418
330
4410
100
AcDbEntity
  8
Dim
  6
Continuous
 62
     0
100
AcDbMText
 10
711.0978660908677
 20
786.8466643193065
 30
0.0
 40
24.4326171875
 41
0.0
 46
0.0
 71
     5
 72
     1
  1
\A1;225
  7
ＭＳ ゴシック
 73
     1
 44
1.0
  0
POINT
  5
4419
330
4410
100
AcDbEntity
  8
Defpoints
 62
     0
100
AcDbPoint
 10
823.5978660908677
 20
992.7798946559996
 30
0.0
  0
POINT
  5
441A
330
4410
100
AcDbEntity
  8
Defpoints
 62
     0
100
AcDbPoint
 10
598.5978660908677
 20
841.6928046481814
 30
0.0
  0
POINT
  5
441B
330
4410
100
AcDbEntity
  8
Defpoints
 62
     0
100
AcDbPoint
 10
598.5978660908677
 20
764.6303557255565
 30
0.0
  0
ENDBLK
  5
4412
330
4410
100
AcDbEntity
  8
0
100
AcDbBlockEnd
  0
ENDSEC
  0
SECTION
  2
ENTITIES
  0
MTEXT
  5
177
330
A
100
AcDbEntity
  8
template
390
1D
100
AcDbMText
 10
82.00000000048226
 20
348.023957835319
 30
0.0
 40
16.28841145833333
 41
0.0
 46
0.0
 71
     1
 72
     1
  1
品名
  7
ＭＳ ゴシック
 73
     1
 44
0.7828267384257843
  0
MTEXT
  5
178
330
A
100
AcDbEntity
  8
template
390
1D
100
AcDbMText
 10
82.00000000048226
 20
263.0239578353188
 30
0.0
 40
16.28841145833333
 41
0.0
 46
0.0
 71
     1
 72
     1
  1
仕様
  7
ＭＳ ゴシック
 73
     1
 44
0.7828267384257843
  0
LINE
  5
179
330
A
100
AcDbEntity
  8
template
390
1D
100
AcDbLine
 10
2025.0
 20
271.4388797103189
 30
0.0
 11
75.00000000000023
 21
271.4388797103189
 31
0.0
  0
LWPOLYLINE
  5
17A
330
A
100
AcDbEntity
  8
template
390
1D
100
AcDbPolyline
 90
        5
 70
   128
 43
0.0
 10
2025.0
 20
2901.438879710319
 10
75.00000000000023
 20
2901.438879710319
 10
75.00000000000023
 20
101.4388797103188
 10
2025.0
 20
101.4388797103188
 10
2025.0
 20
2901.438879710319
  0
LINE
  5
17B
330
A
100
AcDbEntity
  8
template
390
1D
100
AcDbLine
 10
2025.0
 20
356.4388797103188
 30
0.0
 11
75.00000000000023
 21
356.4388797103188
 31
0.0
  0
LINE
  5
17C
330
A
100
AcDbEntity
  8
template
390
1D
100
AcDbLine
 10
2025.000000000482
 20
186.4388797103189
 30
0.0
 11
1272.000000000482
 21
186.4388797103189
 31
0.0
  0
MTEXT
  5
17E
330
A
100
AcDbEntity
  8
template
390
1D
100
AcDbMText
 10
1301.871406252743
 20
156.5284852370108
 30
0.0
 40
24.4326171875
 41
0.0
 46
0.0
 71
     1
 72
     1
  1
大洋金物株式会社 ティーフォルム事業部
  7
ＭＳ ゴシック
 73
     1
 44
0.7828267384257843
  0
MTEXT
  5
180
330
A
100
AcDbEntity
  8
template
390
1D
100
AcDbMText
 10
1834.000000000742
 20
234.4414968978188
 30
0.0
 40
24.4326171875
 41
0.0
 46
0.0
 71
     1
 72
     1
  1
1:10
  7
ＭＳ ゴシック
 73
     1
 44
0.7828267384257843
  0
MTEXT
  5
181
330
A
100
AcDbEntity
  8
template
390
1D
100
AcDbMText
 10
1781.000000000742
 20
263.0239578353188
 30
0.0
 40
16.28841145833333
 41
0.0
 46
0.0
 71
     1
 72
     1
  1
縮尺
  7
ＭＳ ゴシック
 73
     1
 44
0.7828267384257843
  0
LINE
  5
182
330
A
100
AcDbEntity
  8
template
390
1D
100
AcDbLine
 10
1774.000000000742
 20
186.4388797103189
 30
0.0
 11
1774.000000000742
 21
271.4388797103189
 31
0.0
  0
MTEXT
  5
183
330
A
100
AcDbEntity
  8
template
390
1D
100
AcDbMText
 10
1530.000000000742
 20
263.0239578353188
 30
0.0
 40
16.28841145833333
 41
0.0
 46
0.0
 71
     1
 72
     1
  1
容量
  7
ＭＳ ゴシック
 73
     1
 44
0.7828267384257843
  0
LINE
  5
184
330
A
100
AcDbEntity
  8
template
390
1D
100
AcDbLine
 10
1523.000000000742
 20
186.4388797103189
 30
0.0
 11
1523.000000000742
 21
271.4388797103189
 31
0.0
  0
MTEXT
  5
185
330
A
100
AcDbEntity
  8
template
390
1D
100
AcDbMText
 10
1279.000000000742
 20
348.023957835319
 30
0.0
 40
16.28841145833333
 41
0.0
 46
0.0
 71
     1
 72
     1
  1
品番
  7
ＭＳ ゴシック
 73
     1
 44
0.7828267384257843
  0
MTEXT
  5
186
330
A
100
AcDbEntity
  8
template
390
1D
100
AcDbMText
 10
1279.000000000742
 20
263.0239578353188
 30
0.0
 40
16.28841145833333
 41
0.0
 46
0.0
 71
     1
 72
     1
  1
重量
  7
ＭＳ ゴシック
 73
     1
 44
0.7828267384257843
  0
MTEXT
  5
187
330
A
100
AcDbEntity
  8
template
390
1D
100
AcDbMText
 10
1332.000000000742
 20
319.4414968978188
 30
0.0
 40
24.4326171875
 41
0.0
 46
24.4326171875
 71
     1
 72
     1
  1
{ADF70-3032}
  7
ＭＳ ゴシック
 73
     1
 44
0.7828267384257843
1001
ACAD
1000
ACAD_MTEXT_DEFINED_HEIGHT_BEGIN
1070
    46
1040
24.4326171875
1000
ACAD_MTEXT_DEFINED_HEIGHT_END
  0
LINE
  5
188
330
A
100
AcDbEntity
  8
template
390
1D
100
AcDbLine
 10
1272.000000000742
 20
101.4388797103188
 30
0.0
 11
1272.000000000742
 21
356.4388797103188
 31
0.0
  0
MTEXT
  5
189
330
A
100
AcDbEntity
  8
template
390
1D
100
AcDbMText
 10
135.0000000004822
 20
319.4414968978188
 30
0.0
 40
24.4326171875
 41
0.0
 46
27.5355595703125
 71
     1
 72
     1
  1
{洗面器 -CATALANO, New Zero-}
  7
ＭＳ ゴシック
 73
     1
 44
0.7828267384257843
1001
ACAD
1000
ACAD_MTEXT_DEFINED_HEIGHT_BEGIN
1070
    46
1040
27.5355595703125
1000
ACAD_MTEXT_DEFINED_HEIGHT_END
  0
MTEXT
  5
18A
330
A
100
AcDbEntity
  8
template
390
1D
100
AcDbMText
 10
135.0000000004822
 20
234.4414968978188
 30
0.0
 40
24.4326171875
 41
0.0
 46
69.8869072265625
 71
     1
 72
     1
  1
{カウンター置き/オーバーフローなし/\P陶器}
  7
ＭＳ ゴシック
 73
     1
 44
0.9822934569727008
1001
ACAD
1000
ACAD_MTEXT_DEFINED_HEIGHT_BEGIN
1070
    46
1040
69.8869072265625
1000
ACAD_MTEXT_DEFINED_HEIGHT_END
  0
INSERT
  5
3D0
330
A
100
AcDbEntity
  8
template
100
AcDbBlockReference
  2
名称未設定-1
 10
1873.559250554905
 20
30.23897196054438
 30
0.0
 41
0.7619999999999999
 42
0.7619999999999999
 43
0.7619999999999999
  0
MTEXT
  5
BDB
102
{ACAD_XDICTIONARY
360
BDC
102
}
330
A
100
AcDbEntity
  8
template
  6
Continuous
100
AcDbMText
 10
78.95663872901252
 20
86.10730750352229
 30
0.0
 40
23.0
 41
0.0
 46
23.0
 71
     1
 72
     1
  1
{20191128N}
  7
ＭＳ ゴシック
 73
     1
 44
1.0
1001
ACAD
1000
ACAD_MTEXT_DEFINED_HEIGHT_BEGIN
1070
    46
1040
23.0
1000
ACAD_MTEXT_DEFINED_HEIGHT_END
  0
LWPOLYLINE
  5
BEE
330
A
100
AcDbEntity
  8
PRINT BORDER
100
AcDbPolyline
 90
        4
 70
     1
 43
0.0
 10
0.0
 20
0.0
 10
0.0
 20
2970.0
 10
2100.0
 20
2970.0
 10
2100.0
 20
0.0
  0
INSERT
  5
1273
330
A
100
AcDbEntity
  8
0
 62
     7
100
AcDbBlockReference
  2
BLOCK_2
 10
591.2037060744204
 20
943.564364962162
 30
0.0
  0
INSERT
  5
127B
330
A
100
AcDbEntity
  8
0
 62
     7
100
AcDbBlockReference
  2
BLOCK_2
 10
1291.863324028138
 20
1038.76992320659
 30
0.0
  0
INSERT
  5
127C
330
A
100
AcDbEntity
  8
0
 62
     7
100
AcDbBlockReference
  2
BLOCK_2
 10
652.1648429406905
 20
1595.641631888467
 30
0.0
  0
CIRCLE
  5
142C
330
A
100
AcDbEntity
  8
Dim
  6
Continuous
100
AcDbCircle
 10
1529.945205168311
 20
2276.828066192629
 30
0.0
 40
0.0
  0
MTEXT
  5
38C3
330
A
100
AcDbEntity
  8
template
390
1D
100
AcDbMText
 10
1332.000000000742
 20
451.4123255579076
 30
0.0
 40
24.4326171875
 41
0.0
 46
24.92126953125
 71
     1
 72
     1
  1
{ADF70-3032-007 セメントグレー}
  7
ＭＳ ゴシック
 73
     1
 44
0.7828267384257843
1001
ACAD
1000
ACAD_MTEXT_DEFINED_HEIGHT_BEGIN
1070
    46
1040
24.92126953125
1000
ACAD_MTEXT_DEFINED_HEIGHT_END
  0
MTEXT
  5
38C4
330
A
100
AcDbEntity
  8
template
390
1D
100
AcDbMText
 10
1332.000000000742
 20
498.3333910586461
 30
0.0
 40
24.4326171875
 41
0.0
 46
26.7781484375
 71
     1
 72
     1
  1
{ADF70-3032-006 マットブラック}
  7
ＭＳ ゴシック
 73
     1
 44
0.7828267384257843
1001
ACAD
1000
ACAD_MTEXT_DEFINED_HEIGHT_BEGIN
1070
    46
1040
26.7781484375
1000
ACAD_MTEXT_DEFINED_HEIGHT_END
  0
HATCH
  5
3C37
330
A
100
AcDbEntity
  8
MODEL
100
AcDbHatch
 10
0.0
 20
0.0
 30
0.0
210
0.0
220
0.0
230
1.0
  2
SOLID
 70
     1
 71
     0
 91
        0
 75
     1
 76
     1
 98
        2
 10
3873.327547647713
 20
1770.521775814379
 10
3873.327547647713
 20
1770.521775814379
450
        0
451
        0
460
0.0
461
0.0
452
        0
462
1.0
453
        2
463
0.0
 63
     5
421
      255
463
1.0
 63
     2
421
 16776960
470
LINEAR
1001
GradientColor1ACI
1070
     5
1001
GradientColor2ACI
1070
     2
1001
ACAD
1010
0.0
1020
0.0
1030
0.0
  0
MTEXT
  5
3F2D
330
A
100
AcDbEntity
  8
template
390
1D
100
AcDbMText
 10
1332.000000000742
 20
543.2045518391528
 30
0.0
 40
24.4326171875
 41
0.0
 46
25.556517578125
 71
     1
 72
     1
  1
{ADF70-3032-001 ホワイト}
  7
ＭＳ ゴシック
 73
     1
 44
0.7828267384257843
1001
ACAD
1000
ACAD_MTEXT_DEFINED_HEIGHT_BEGIN
1070
    46
1040
25.556517578125
1000
ACAD_MTEXT_DEFINED_HEIGHT_END
  0
MTEXT
  5
3F2E
330
A
100
AcDbEntity
  8
template
390
1D
100
AcDbMText
 10
1332.000000000742
 20
407.5166247943685
 30
0.0
 40
24.4326171875
 41
0.0
 46
25.556517578125
 71
     1
 72
     1
  1
{ADF70-3032-008 マットホワイト}
  7
ＭＳ ゴシック
 73
     1
 44
0.7828267384257843
1001
ACAD
1000
ACAD_MTEXT_DEFINED_HEIGHT_BEGIN
1070
    46
1040
25.556517578125
1000
ACAD_MTEXT_DEFINED_HEIGHT_END
  0
LINE
  5
412C
330
A
100
AcDbEntity
  8
MODEL
100
AcDbLine
 10
817.0677247810186
 20
2066.165465910007
 30
0.0
 11
817.0677247810186
 21
2187.592443740813
 31
0.0
  0
LINE
  5
412D
330
A
100
AcDbEntity
  8
MODEL
100
AcDbLine
 10
817.0677247810186
 20
1944.737143322068
 30
0.0
 11
817.0677247810186
 21
2066.165465910007
 31
0.0
  0
LINE
  5
412E
330
A
100
AcDbEntity
  8
MODEL
100
AcDbLine
 10
770.0234442046008
 20
2234.635465910006
 30
0.0
 11
427.1706666640698
 21
2234.635465910006
 31
0.0
  0
LINE
  5
412F
330
A
100
AcDbEntity
  8
MODEL
100
AcDbLine
 10
427.1694025605998
 20
1897.695465910007
 30
0.0
 11
770.0208449635052
 21
1897.695465910007
 31
0.0
  0
LINE
  5
4130
330
A
100
AcDbEntity
  8
MODEL
100
AcDbLine
 10
380.1277247810235
 20
2066.165465910007
 30
0.0
 11
380.1277247810235
 21
1944.741853139131
 31
0.0
  0
LINE
  5
4131
330
A
100
AcDbEntity
  8
MODEL
100
AcDbLine
 10
380.1277247810235
 20
2187.593413969501
 30
0.0
 11
380.1277247810235
 21
2066.165465910007
 31
0.0
  0
LINE
  5
4132
330
A
100
AcDbEntity
  8
MODEL
100
AcDbLine
 10
823.491133839651
 20
1897.270229332436
 30
0.0
 11
823.491133839651
 21
2235.060702487578
 31
0.0
  0
LINE
  5
4133
330
A
100
AcDbEntity
  8
MODEL
100
AcDbLine
 10
373.7043157223911
 20
2235.060702487578
 30
0.0
 11
373.7043157223911
 21
1897.270229332436
 31
0.0
  0
LINE
  5
4134
330
A
100
AcDbEntity
  8
MODEL
100
AcDbLine
 10
379.702488203448
 20
1891.272056851377
 30
0.0
 11
817.4929613585941
 21
1891.272056851377
 31
0.0
  0
LINE
  5
4135
330
A
100
AcDbEntity
  8
MODEL
100
AcDbLine
 10
817.4929613585941
 20
2241.058874968635
 30
0.0
 11
379.702488203448
 21
2241.058874968635
 31
0.0
  0
CIRCLE
  5
4136
330
A
100
AcDbEntity
  8
MODEL
100
AcDbCircle
 10
598.5977247810247
 20
2066.165465910007
 30
0.0
 40
22.0
  0
ELLIPSE
  5
4137
330
A
100
AcDbEntity
  8
MODEL
100
AcDbEllipse
 10
379.7061443552907
 20
1897.273885484273
 30
0.0
 11
4.242643834021492
 21
4.242643834021492
 31
0.0
210
0.0
220
0.0
230
1.0
 40
0.9999992582684775
 41
2.35680347777785
 42
3.926381829401736
  0
ELLIPSE
  5
4138
330
A
100
AcDbEntity
  8
MODEL
100
AcDbEllipse
 10
379.7061443552907
 20
2235.057046335735
 30
0.0
 11
-4.24264383402336
 21
4.242643834023361
 31
0.0
210
0.0
220
0.0
230
1.0
 40
0.9999992582682146
 41
5.49839613136781
 42
7.06797448299136
  0
ELLIPSE
  5
4139
330
A
100
AcDbEntity
  8
MODEL
100
AcDbEllipse
 10
817.4893052067587
 20
1897.273885484275
 30
0.0
 11
-4.24264383402336
 21
4.242643834023361
 31
0.0
210
0.0
220
0.0
230
1.0
 40
0.9999992582682146
 41
2.356803477778016
 42
3.926381829401567
  0
ELLIPSE
  5
413A
330
A
100
AcDbEntity
  8
MODEL
100
AcDbEllipse
 10
817.4893052067587
 20
2235.057046335739
 30
0.0
 11
4.242643834021492
 21
4.242643834021492
 31
0.0
210
0.0
220
0.0
230
1.0
 40
0.9999992582684775
 41
5.498396131367643
 42
7.067974482991529
  0
SPLINE
  5
413B
330
A
100
AcDbEntity
  8
MODEL
100
AcDbSpline
210
0.0
220
0.0
230
1.0
 70
     8
 71
     3
 72
    32
 73
    28
 74
     0
 42
0.000000001
 43
0.0000000001
 40
0.0
 40
0.0
 40
0.0
 40
0.0
 40
0.0383276254126171
 40
0.0383276254126171
 40
0.1151989417119811
 40
0.1151989417119811
 40
0.192070258011345
 40
0.192070258011345
 40
0.3458128906100717
 40
0.3458128906100717
 40
0.4226842069094349
 40
0.4226842069094349
 40
0.499555523208798
 40
0.499555523208798
 40
0.5764268395081612
 40
0.5764268395081612
 40
0.6532981558075244
 40
0.6532981558075244
 40
0.7301694721068874
 40
0.7301694721068874
 40
0.8070407884062504
 40
0.8070407884062504
 40
0.8839121047056137
 40
0.8839121047056137
 40
0.9607834210049767
 40
0.9607834210049767
 40
1.0
 40
1.0
 40
1.0
 40
1.0
 10
770.0208568942494
 20
1897.68838913747
 30
0.0
 10
770.9930603298221
 20
1897.689890022427
 30
0.0
 10
771.9651876153825
 20
1897.693169195606
 30
0.0
 10
774.8866899899172
 20
1897.711424708595
 30
0.0
 10
776.8342274689444
 20
1897.769313709879
 30
0.0
 10
780.719452500964
 20
1898.115111441085
 30
0.0
 10
782.6651441564632
 20
1898.400779162707
 30
0.0
 10
788.4329379154683
 20
1899.639598832876
 30
0.0
 10
792.1061890850638
 20
1900.935042917047
 30
0.0
 10
797.3390356510813
 20
1903.63475176018
 30
0.0
 10
799.0273566096535
 20
1904.662260081194
 30
0.0
 10
802.1860557235073
 20
1906.931845006145
 30
0.0
 10
803.6696945562239
 20
1908.181251499128
 30
0.0
 10
806.4316762170661
 20
1910.925907390702
 30
0.0
 10
807.7199587136588
 20
1912.437027385065
 30
0.0
 10
810.0225789667115
 20
1915.613055828307
 30
0.0
 10
811.042530703739
 20
1917.276802507339
 30
0.0
 10
812.8478983805348
 20
1920.739513511907
 30
0.0
 10
813.6370125988492
 20
1922.549386297173
 30
0.0
 10
814.9657827133947
 20
1926.24860391462
 30
0.0
 10
815.5029073058927
 20
1928.127040763567
 30
0.0
 10
816.3343514993999
 20
1931.938916555579
 30
0.0
 10
816.626767987977
 20
1933.872786606625
 30
0.0
 10
816.9872529153458
 20
1937.7913477914
 30
0.0
 10
817.049652067903
 20
1939.761295396645
 30
0.0
 10
817.0702051822832
 20
1942.730753670749
 30
0.0
 10
817.0738845516121
 20
1943.733929522527
 30
0.0
 10
817.0755184719842
 20
1944.737130090026
 30
0.0
  0
SPLINE
  5
413C
330
A
100
AcDbEntity
  8
MODEL
100
AcDbSpline
210
0.0
220
0.0
230
1.0
 70
     8
 71
     3
 72
    32
 73
    28
 74
     0
 42
0.000000001
 43
0.0000000001
 40
0.0
 40
0.0
 40
0.0
 40
0.0
 40
0.0382714441866694
 40
0.0382714441866694
 40
0.1151440021869845
 40
0.1151440021869845
 40
0.1920165601872995
 40
0.1920165601872995
 40
0.345761676187931
 40
0.345761676187931
 40
0.4226342341882465
 40
0.4226342341882465
 40
0.4995067921885619
 40
0.4995067921885619
 40
0.5763793501888773
 40
0.5763793501888773
 40
0.653251908189193
 40
0.653251908189193
 40
0.7301244661895084
 40
0.7301244661895084
 40
0.8069970241898238
 40
0.8069970241898238
 40
0.8838695821901392
 40
0.8838695821901392
 40
0.9607421401904547
 40
0.9607421401904547
 40
1.0
 40
1.0
 40
1.0
 40
1.0
 10
817.074719638857
 20
2187.5924367901
 30
0.0
 10
817.0732262785118
 20
2188.563207771303
 30
0.0
 10
817.0699628636744
 20
2189.533903004513
 30
0.0
 10
817.0517576618172
 20
2192.453991349807
 30
0.0
 10
816.9938918469584
 20
2194.401547564238
 30
0.0
 10
816.648124239468
 20
2198.286815796989
 30
0.0
 10
816.3624592589717
 20
2200.23256574316
 30
0.0
 10
815.1237056502164
 20
2206.000279035533
 30
0.0
 10
813.828312130749
 20
2209.67352961262
 30
0.0
 10
811.1286336922008
 20
2214.906440282067
 30
0.0
 10
810.1011624114421
 20
2216.594736127355
 30
0.0
 10
807.8316340612314
 20
2219.753434496127
 30
0.0
 10
806.5822516929279
 20
2221.23708531013
 30
0.0
 10
803.8376252179391
 20
2223.999109162868
 30
0.0
 10
802.3265091696471
 20
2225.287419841349
 30
0.0
 10
799.1505315753479
 20
2227.590061722457
 30
0.0
 10
797.4868036477878
 20
2228.610029925566
 30
0.0
 10
794.0241156687866
 20
2230.415436181119
 30
0.0
 10
792.2142392355404
 20
2231.204575013747
 30
0.0
 10
788.5150578431371
 20
2232.533379259413
 30
0.0
 10
786.6366332476559
 20
2233.070524993128
 30
0.0
 10
782.8247691092715
 20
2233.902011854462
 30
0.0
 10
780.8908981115333
 20
2234.194448786483
 30
0.0
 10
776.9723233189166
 20
2234.554975670971
 30
0.0
 10
775.002393531659
 20
2234.617398779418
 30
0.0
 10
772.0319071744475
 20
2234.638002260564
 30
0.0
 10
771.0276954604656
 20
2234.641698028349
 30
0.0
 10
770.0234589275228
 20
2234.643340442707
 30
0.0
  0
SPLINE
  5
413D
330
A
100
AcDbEntity
  8
MODEL
100
AcDbSpline
210
0.0
220
0.0
230
1.0
 70
     8
 71
     3
 72
    26
 73
    22
 74
     0
 42
0.000000001
 43
0.0000000001
 40
0.0
 40
0.0
 40
0.0
 40
0.0
 40
0.0138109325356471
 40
0.0138109325356471
 40
0.1755158632483406
 40
0.1755158632483406
 40
0.3372207939610343
 40
0.3372207939610343
 40
0.4989257246737279
 40
0.4989257246737279
 40
0.5797781900300747
 40
0.5797781900300747
 40
0.6606306553864215
 40
0.6606306553864215
 40
0.741483120742768
 40
0.741483120742768
 40
0.8223355860991146
 40
0.8223355860991146
 40
0.9840405168118078
 40
0.9840405168118078
 40
1.0
 40
1.0
 40
1.0
 40
1.0
 10
635.3473918894183
 20
2066.163134551522
 30
0.0
 10
635.3476419920139
 20
2066.429258390836
 30
0.0
 10
635.3448683119518
 20
2066.695674851387
 30
0.0
 10
635.2713534949821
 20
2070.085123753907
 30
0.0
 10
634.8053329571726
 20
2073.180438620801
 30
0.0
 10
633.1154033711232
 20
2079.15508992621
 30
0.0
 10
631.8783355865912
 20
2082.065067514678
 30
0.0
 10
628.7033495377132
 20
2087.473865547799
 30
0.0
 10
626.8047944572195
 20
2089.925711615268
 30
0.0
 10
623.5178428309032
 20
2093.220162186058
 30
0.0
 10
622.3383999481616
 20
2094.261304096067
 30
0.0
 10
619.8721574121032
 20
2096.172039393478
 30
0.0
 10
618.588789556105
 20
2097.0412092744
 30
0.0
 10
615.9241349247554
 20
2098.611569624824
 30
0.0
 10
614.5428474258756
 20
2099.312758853142
 30
0.0
 10
611.6801439275318
 20
2100.54336737291
 30
0.0
 10
610.195915816987
 20
2101.071835331758
 30
0.0
 10
605.7179824897999
 20
2102.352557549199
 30
0.0
 10
602.659133618547
 20
2102.824704148753
 30
0.0
 10
599.215156454457
 20
2102.911582410205
 30
0.0
 10
598.9062181419454
 20
2102.915207656441
 30
0.0
 10
598.5977249037774
 20
2102.914627704303
 30
0.0
  0
SPLINE
  5
413E
330
A
100
AcDbEntity
  8
MODEL
100
AcDbSpline
210
0.0
220
0.0
230
1.0
 70
     8
 71
     3
 72
    26
 73
    22
 74
     0
 42
0.000000001
 43
0.0000000001
 40
0.0
 40
0.0
 40
0.0
 40
0.0
 40
0.0156544110444473
 40
0.0156544110444473
 40
0.1773925075953842
 40
0.1773925075953842
 40
0.2582615558708528
 40
0.2582615558708528
 40
0.3391306041463214
 40
0.3391306041463214
 40
0.4199996524217899
 40
0.4199996524217899
 40
0.5008687006972583
 40
0.5008687006972583
 40
0.6626067972481953
 40
0.6626067972481953
 40
0.8243448937991323
 40
0.8243448937991323
 40
0.9860829903500693
 40
0.9860829903500693
 40
1.0
 40
1.0
 40
1.0
 40
1.0
 10
598.5977248453732
 20
2029.416250607795
 30
0.0
 10
598.8990861355
 20
2029.41570615926
 30
0.0
 10
599.200844358284
 20
2029.419171871633
 30
0.0
 10
602.6247663056733
 20
2029.503536362187
 30
0.0
 10
605.7206061940183
 20
2029.978547655227
 30
0.0
 10
610.2040712615367
 20
2031.261718428027
 30
0.0
 10
611.6878128323756
 20
2031.790477660331
 30
0.0
 10
614.5504865691423
 20
2033.021842377399
 30
0.0
 10
615.9316264532704
 20
2033.723368050239
 30
0.0
 10
618.5957688270814
 20
2035.294246991921
 30
0.0
 10
619.87877171433
 20
2036.163599580897
 30
0.0
 10
622.3441052189614
 20
2038.074467318601
 30
0.0
 10
623.5235253119413
 20
2039.116001472407
 30
0.0
 10
626.8099067123717
 20
2042.41127483171
 30
0.0
 10
628.7072433301023
 20
2044.862550658093
 30
0.0
 10
631.8813488819819
 20
2050.272149101339
 30
0.0
 10
633.1180111957387
 20
2053.183509386346
 30
0.0
 10
634.8054518502781
 20
2059.15246837414
 30
0.0
 10
635.269758346973
 20
2062.223303250513
 30
0.0
 10
635.34474122451
 20
2065.625120027679
 30
0.0
 10
635.347606896134
 20
2065.894308250004
 30
0.0
 10
635.3473869314571
 20
2066.163160355924
 30
0.0
  0
SPLINE
  5
413F
330
A
100
AcDbEntity
  8
MODEL
100
AcDbSpline
210
0.0
220
0.0
230
1.0
 70
     8
 71
     3
 72
    26
 73
    22
 74
     0
 42
0.000000001
 43
0.0000000001
 40
0.0
 40
0.0
 40
0.0
 40
0.0
 40
0.0156531569049156
 40
0.0156531569049156
 40
0.177378331230336
 40
0.177378331230336
 40
0.2582409183930463
 40
0.2582409183930463
 40
0.3391035055557567
 40
0.3391035055557567
 40
0.4199660927184669
 40
0.4199660927184669
 40
0.5008286798811771
 40
0.5008286798811771
 40
0.6625538542065975
 40
0.6625538542065975
 40
0.8242790285320181
 40
0.8242790285320181
 40
0.9860042028574385
 40
0.9860042028574385
 40
1.0
 40
1.0
 40
1.0
 40
1.0
 10
598.5977245194395
 20
2102.914681212572
 30
0.0
 10
598.2963632948836
 20
2102.915225659238
 30
0.0
 10
597.9946051378379
 20
2102.911759946755
 30
0.0
 10
594.570683256376
 20
2102.827395457826
 30
0.0
 10
591.4748433680238
 20
2102.352384164785
 30
0.0
 10
586.9913783005127
 20
2101.069213391987
 30
0.0
 10
585.5076367296738
 20
2100.540454159683
 30
0.0
 10
582.6449629928998
 20
2099.309089442612
 30
0.0
 10
581.263823108779
 20
2098.607563769773
 30
0.0
 10
578.5996807349607
 20
2097.036684828093
 30
0.0
 10
577.3166778477121
 20
2096.167332239113
 30
0.0
 10
574.8513443430807
 20
2094.256464501411
 30
0.0
 10
573.6719242501008
 20
2093.214930347604
 30
0.0
 10
570.3855428496777
 20
2089.919656988303
 30
0.0
 10
568.4882062319398
 20
2087.468381161917
 30
0.0
 10
565.3141006800602
 20
2082.058782718671
 30
0.0
 10
564.0774383663033
 20
2079.147422433666
 30
0.0
 10
562.389997711764
 20
2073.178463445872
 30
0.0
 10
561.9256912150763
 20
2070.107628569501
 30
0.0
 10
561.8506742276973
 20
2066.704264300414
 30
0.0
 10
561.8478098602595
 20
2066.43353244321
 30
0.0
 10
561.848066724599
 20
2066.163140580099
 30
0.0
  0
SPLINE
  5
4140
330
A
100
AcDbEntity
  8
MODEL
100
AcDbSpline
210
0.0
220
0.0
230
1.0
 70
     8
 71
     3
 72
    26
 73
    22
 74
     0
 42
0.000000001
 43
0.0000000001
 40
0.0
 40
0.0
 40
0.0
 40
0.0
 40
0.0137317038054319
 40
0.0137317038054319
 40
0.1754496261710665
 40
0.1754496261710665
 40
0.3371675485367013
 40
0.3371675485367013
 40
0.4988854709023358
 40
0.4988854709023358
 40
0.5797444320851531
 40
0.5797444320851531
 40
0.6606033932679705
 40
0.6606033932679705
 40
0.7414623544507877
 40
0.7414623544507877
 40
0.8223213156336047
 40
0.8223213156336047
 40
0.9840392379992391
 40
0.9840392379992391
 40
1.0
 40
1.0
 40
1.0
 40
1.0
 10
561.8480536153243
 20
2066.163153477256
 30
0.0
 10
561.847839938348
 20
2065.898574174206
 30
0.0
 10
561.8506148970941
 20
2065.63370565147
 30
0.0
 10
561.92409606706
 20
2062.245808066104
 30
0.0
 10
562.3901166048768
 20
2059.150493199212
 30
0.0
 10
564.0800461909262
 20
2053.175841893803
 30
0.0
 10
565.3171139754581
 20
2050.265864305336
 30
0.0
 10
568.4921000243362
 20
2044.857066272215
 30
0.0
 10
570.3906551048226
 20
2042.405220204745
 30
0.0
 10
573.6776067311462
 20
2039.110769633956
 30
0.0
 10
574.8570496138877
 20
2038.069627723947
 30
0.0
 10
577.3232921499462
 20
2036.158892426533
 30
0.0
 10
578.6066600059371
 20
2035.289722545614
 30
0.0
 10
581.2713146372867
 20
2033.719362195187
 30
0.0
 10
582.6526021361665
 20
2033.018172966868
 30
0.0
 10
585.5153056345102
 20
2031.787564447103
 30
0.0
 10
586.999533745055
 20
2031.259096488256
 30
0.0
 10
591.4774670722495
 20
2029.978374270812
 30
0.0
 10
594.5363159434951
 20
2029.506227671261
 30
0.0
 10
597.9802930416868
 20
2029.419349411469
 30
0.0
 10
598.2892312884746
 20
2029.415724165116
 30
0.0
 10
598.5977244611299
 20
2029.416304115338
 30
0.0
  0
SPLINE
  5
4141
330
A
100
AcDbEntity
  8
MODEL
100
AcDbSpline
210
0.0
220
0.0
230
1.0
 70
     8
 71
     3
 72
    32
 73
    28
 74
     0
 42
0.000000001
 43
0.0000000001
 40
0.0
 40
0.0
 40
0.0
 40
0.0
 40
0.0382776534388891
 40
0.0382776534388891
 40
0.1151525742772254
 40
0.1151525742772254
 40
0.1920274951155617
 40
0.1920274951155617
 40
0.3457773367922332
 40
0.3457773367922332
 40
0.4226522576305688
 40
0.4226522576305688
 40
0.4995271784689043
 40
0.4995271784689043
 40
0.5764020993072398
 40
0.5764020993072398
 40
0.6532770201455752
 40
0.6532770201455752
 40
0.7301519409839108
 40
0.7301519409839108
 40
0.8070268618222461
 40
0.8070268618222461
 40
0.8839017826605817
 40
0.8839017826605817
 40
0.9607767034989172
 40
0.9607767034989172
 40
1.0
 40
1.0
 40
1.0
 40
1.0
 10
427.1706533832935
 20
2234.642536591352
 30
0.0
 10
426.1997632481894
 20
2234.641032934537
 30
0.0
 10
425.2289491161669
 20
2234.63775442096
 30
0.0
 10
422.3087595721249
 20
2234.619507111419
 30
0.0
 10
420.3612220930977
 20
2234.561618110135
 30
0.0
 10
416.475997061078
 20
2234.215820378929
 30
0.0
 10
414.5303054055789
 20
2233.930152657304
 30
0.0
 10
408.7625116465738
 20
2232.691332987138
 30
0.0
 10
405.0892604769783
 20
2231.395888902963
 30
0.0
 10
399.8564139109681
 20
2228.696180059832
 30
0.0
 10
398.1680929523959
 20
2227.668671738819
 30
0.0
 10
395.0093938385421
 20
2225.399086813869
 30
0.0
 10
393.5257550058254
 20
2224.149680320882
 30
0.0
 10
390.7637733449833
 20
2221.405024429309
 30
0.0
 10
389.4754908483833
 20
2219.893904434949
 30
0.0
 10
387.1728705953306
 20
2216.717875991705
 30
0.0
 10
386.1529188583104
 20
2215.054129312674
 30
0.0
 10
384.3475511815072
 20
2211.591418308107
 30
0.0
 10
383.5584369632002
 20
2209.78154552284
 30
0.0
 10
382.2296668486547
 20
2206.08232790539
 30
0.0
 10
381.6925422561494
 20
2204.203891056443
 30
0.0
 10
380.8610980626422
 20
2200.392015264432
 30
0.0
 10
380.5686815740723
 20
2198.458145213387
 30
0.0
 10
380.2081966467035
 20
2194.53958402861
 30
0.0
 10
380.1457974941463
 20
2192.569636423367
 30
0.0
 10
380.1252435160518
 20
2189.600053362991
 30
0.0
 10
380.1215640950854
 20
2188.596752715132
 30
0.0
 10
380.1199304803908
 20
2187.593427347233
 30
0.0
  0
SPLINE
  5
4142
102
{ACAD_REACTORS
330
43AF
102
}
330
A
100
AcDbEntity
  8
MODEL
100
AcDbSpline
210
0.0
220
0.0
230
1.0
 70
     8
 71
     3
 72
    32
 73
    28
 74
     0
 42
0.000000001
 43
0.0000000001
 40
0.0
 40
0.0
 40
0.0
 40
0.0
 40
0.0383151351737639
 40
0.0383151351737639
 40
0.115186910518624
 40
0.115186910518624
 40
0.1920586858634841
 40
0.1920586858634841
 40
0.3458022365532055
 40
0.3458022365532055
 40
0.422674011898066
 40
0.422674011898066
 40
0.4995457872429265
 40
0.4995457872429265
 40
0.5764175625877871
 40
0.5764175625877871
 40
0.6532893379326477
 40
0.6532893379326477
 40
0.7301611132775081
 40
0.7301611132775081
 40
0.8070328886223684
 40
0.8070328886223684
 40
0.8839046639672291
 40
0.8839046639672291
 40
0.9607764393120896
 40
0.9607764393120896
 40
1.0
 40
1.0
 40
1.0
 40
1.0
 10
380.1207247700609
 20
1944.741849435001
 30
0.0
 10
380.122215769627
 20
1943.769960144234
 30
0.0
 10
380.1254797288007
 20
1942.798146725779
 30
0.0
 10
380.1436919002322
 20
1939.876940470204
 30
0.0
 10
380.2015577150837
 20
1937.929384255775
 30
0.0
 10
380.5473253225814
 20
1934.044116023023
 30
0.0
 10
380.8329903030703
 20
1932.098366076853
 30
0.0
 10
382.071743911833
 20
1926.330652784481
 30
0.0
 10
383.3671374313003
 20
1922.65740220739
 30
0.0
 10
386.0668158698486
 20
1917.424491537945
 30
0.0
 10
387.0942871506072
 20
1915.736195692659
 30
0.0
 10
389.3638155008107
 20
1912.577497323887
 30
0.0
 10
390.6131978691142
 20
1911.093846509883
 30
0.0
 10
393.3578243441029
 20
1908.331822657144
 30
0.0
 10
394.8689403924022
 20
1907.043511978664
 30
0.0
 10
398.0449179867014
 20
1904.740870097557
 30
0.0
 10
399.7086459142542
 20
1903.720901894448
 30
0.0
 10
403.1713338932627
 20
1901.915495638893
 30
0.0
 10
404.981210326509
 20
1901.126356806267
 30
0.0
 10
408.6803917189122
 20
1899.797552560597
 30
0.0
 10
410.5588163143861
 20
1899.260406826886
 30
0.0
 10
414.3706804527778
 20
1898.42891996555
 30
0.0
 10
416.3045514505161
 20
1898.136483033529
 30
0.0
 10
420.2231262431328
 20
1897.775956149041
 30
0.0
 10
422.1930560303831
 20
1897.713533040594
 30
0.0
 10
425.1626752692414
 20
1897.692935573835
 30
0.0
 10
426.1660197966507
 20
1897.689240176808
 30
0.0
 10
427.1693891128402
 20
1897.687595636652
 30
0.0
  0
LINE
  5
4143
102
{ACAD_REACTORS
330
4330
102
}
330
A
100
AcDbEntity
  8
HIDDEN
100
AcDbLine
 10
601.8864047605584
 20
968.1351370311104
 30
0.0
 11
637.2512517880077
 21
968.169628245113
 31
0.0
  0
LINE
  5
4144
102
{ACAD_REACTORS
330
4330
102
}
330
A
100
AcDbEntity
  8
HIDDEN
100
AcDbLine
 10
559.677441548969
 20
968.2300047312465
 30
0.0
 11
601.8864047605584
 21
968.1351370311104
 31
0.0
  0
LINE
  5
4145
102
{ACAD_REACTORS
330
4330
102
}
330
A
100
AcDbEntity
  8
HIDDEN
100
AcDbLine
 10
621.1259028664263
 20
956.0190531619637
 30
0.0
 11
576.0698293153091
 21
956.0190531619637
 31
0.0
  0
LINE
  5
4146
330
A
100
AcDbEntity
  8
MODEL
100
AcDbLine
 10
414.2996961501685
 20
942.8265685001543
 30
0.0
 11
399.7529475803876
 21
942.8265685001543
 31
0.0
  0
LINE
  5
4147
330
A
100
AcDbEntity
  8
MODEL
100
AcDbLine
 10
762.0649715457675
 20
941.8265685001525
 30
0.0
 11
435.1307606359678
 21
941.8265685001525
 31
0.0
  0
LINE
  5
4149
330
A
100
AcDbEntity
  8
MODEL
100
AcDbLine
 10
418.4722577361372
 20
941.8265685001525
 30
0.0
 11
420.9748058777532
 21
941.8265685001525
 31
0.0
  0
LINE
  5
414A
330
A
100
AcDbEntity
  8
MODEL
100
AcDbLine
 10
427.1692593415337
 20
1072.826568500154
 30
0.0
 11
770.0261902205075
 21
1072.826568500154
 31
0.0
  0
LINE
  5
414B
330
A
100
AcDbEntity
  8
MODEL
100
AcDbLine
 10
414.2996961501685
 20
942.8265685001543
 30
0.0
 11
399.7529475803876
 21
942.8265685001543
 31
0.0
  0
LINE
  5
414C
330
A
100
AcDbEntity
  8
MODEL
100
AcDbLine
 10
399.7529475803876
 20
942.8265685001543
 30
0.0
 11
387.5369435101729
 21
942.8265685001543
 31
0.0
  0
LINE
  5
414D
330
A
100
AcDbEntity
  8
MODEL
100
AcDbLine
 10
762.0649715457675
 20
941.8265685001525
 30
0.0
 11
435.1307606359678
 21
941.8265685001525
 31
0.0
  0
LINE
  5
414E
330
A
100
AcDbEntity
  8
MODEL
100
AcDbLine
 10
435.1307606359678
 20
941.8265685001525
 30
0.0
 11
422.9147565657531
 21
941.8265685001525
 31
0.0
  0
LINE
  5
414F
330
A
100
AcDbEntity
  8
MODEL
100
AcDbLine
 10
418.4722577361372
 20
941.8265685001525
 30
0.0
 11
416.5326780739106
 21
941.8265685001525
 31
0.0
  0
LINE
  5
4150
330
A
100
AcDbEntity
  8
MODEL
100
AcDbLine
 10
420.9748058777532
 20
941.8265685001525
 30
0.0
 11
418.4722577361372
 21
941.8265685001525
 31
0.0
  0
LINE
  5
4151
330
A
100
AcDbEntity
  8
MODEL
100
AcDbLine
 10
422.9147565657531
 20
941.8265685001525
 30
0.0
 11
420.9748058777532
 21
941.8265685001525
 31
0.0
  0
LINE
  5
4154
102
{ACAD_REACTORS
330
4330
102
}
330
A
100
AcDbEntity
  8
HIDDEN
100
AcDbLine
 10
576.5978660908713
 20
944.8265685001525
 30
0.0
 11
620.5978660908713
 21
944.8265685001525
 31
0.0
  0
ARC
  5
4159
330
A
100
AcDbEntity
  8
MODEL
100
AcDbCircle
 10
416.5326780739106
 20
944.8265685001525
 30
0.0
 40
3.0
100
AcDbArc
 50
221.8103148957319
 51
270.0
  0
ARC
  5
415B
330
A
100
AcDbEntity
  8
MODEL
100
AcDbCircle
 10
376.7044570322378
 20
1069.826568500152
 30
0.0
 40
3.0
100
AcDbArc
 50
90.0
 51
182.0000000000036
  0
SPLINE
  5
415C
330
A
100
AcDbEntity
  8
MODEL
100
AcDbSpline
210
0.0
220
0.0
230
1.0
 70
    24
 71
     3
 72
    95
 73
    91
 74
     0
 42
0.000000001
 43
0.0000000001
 40
0.0
 40
0.0
 40
0.0
 40
0.0
 40
0.0130349462998818
 40
0.0287010582633809
 40
0.0287010582633809
 40
0.0443671702268801
 40
0.0443671702268801
 40
0.0600332821903788
 40
0.0600332821903788
 40
0.0756993941538774
 40
0.0756993941538774
 40
0.0913655061173761
 40
0.0913655061173761
 40
0.1226977300443733
 40
0.1226977300443733
 40
0.1540299539713706
 40
0.1540299539713706
 40
0.1853621778983678
 40
0.1853621778983678
 40
0.2010282898618664
 40
0.2088613458436161
 40
0.2088613458436161
 40
0.2127778738344908
 40
0.2127778738344908
 40
0.2166944018253655
 40
0.2480266257523587
 40
0.2480266257523587
 40
0.2793588496793519
 40
0.2793588496793519
 40
0.3106910736063452
 40
0.3106910736063452
 40
0.3420232975333384
 40
0.3420232975333384
 40
0.3733555214603317
 40
0.3733555214603317
 40
0.3772720494512059
 40
0.3772720494512059
 40
0.3811885774420801
 40
0.3811885774420801
 40
0.3890216334238278
 40
0.404687745387324
 40
0.404687745387324
 40
0.4360199693143161
 40
0.4360199693143161
 40
0.4673521932413082
 40
0.4673521932413082
 40
0.4986844171683003
 40
0.5300166410952925
 40
0.5300166410952925
 40
0.5613488650222844
 40
0.5613488650222844
 40
0.565265393013158
 40
0.565265393013158
 40
0.5691819210040315
 40
0.5770149769857777
 40
0.5926810889492694
 40
0.5926810889492694
 40
0.6240133128762543
 40
0.6553455368032389
 40
0.6866777607302238
 40
0.6866777607302238
 40
0.7180099846572086
 40
0.7180099846572086
 40
0.7336760966207002
 40
0.7336760966207002
 40
0.7415091526024459
 40
0.7415091526024459
 40
0.7454256805933183
 40
0.7454256805933183
 40
0.7493422085841906
 40
0.7806744325111669
 40
0.7806744325111669
 40
0.8120066564381431
 40
0.8120066564381431
 40
0.8433388803651193
 40
0.8433388803651193
 40
0.8746711042920955
 40
0.8746711042920955
 40
0.9060033282190717
 40
0.9060033282190717
 40
0.9216694401825597
 40
0.9216694401825597
 40
0.9373355521460478
 40
0.9373355521460478
 40
0.9530016641095359
 40
0.9530016641095359
 40
0.9686677760730239
 40
0.9686677760730239
 40
0.984333888036512
 40
1.0
 40
1.0
 40
1.0
 40
1.0
 10
377.7244793411937
 20
1072.826568500152
 30
0.0
 10
377.7245437299989
 20
1072.826568500154
 30
0.0
 10
377.7249721290991
 20
1072.826568500154
 30
0.0
 10
377.7295739004239
 20
1072.826568500152
 30
0.0
 10
377.7391253428414
 20
1072.826568500152
 30
0.0
 10
377.7461492687344
 20
1072.826568500154
 30
0.0
 10
377.7662601734464
 20
1072.826568500154
 30
0.0
 10
377.7793448260982
 20
1072.826568500154
 30
0.0
 10
377.8127753612989
 20
1072.826568500154
 30
0.0
 10
377.8331189845831
 20
1072.826568500152
 30
0.0
 10
377.8819712852983
 20
1072.826568500152
 30
0.0
 10
377.9104779582685
 20
1072.826568500154
 30
0.0
 10
378.0092565717259
 20
1072.826568500154
 30
0.0
 10
378.0928460261766
 20
1072.826568500154
 30
0.0
 10
378.2989934266643
 20
1072.826568500154
 30
0.0
 10
378.4215150874206
 20
1072.826568500152
 30
0.0
 10
378.7074711181904
 20
1072.826568500152
 30
0.0
 10
378.8708818104988
 20
1072.826568500154
 30
0.0
 10
379.1477176625831
 20
1072.826568500154
 30
0.0
 10
379.2940620257777
 20
1072.826568500154
 30
0.0
 10
379.4524894586193
 20
1072.826568500152
 30
0.0
 10
379.5337341301038
 20
1072.826568500152
 30
0.0
 10
379.561147784987
 20
1072.826568500154
 30
0.0
 10
379.6165841512029
 20
1072.826568500154
 30
0.0
 10
379.8688601409358
 20
1072.826568500152
 30
0.0
 10
380.1463750218081
 20
1072.826568500154
 30
0.0
 10
380.6793983373191
 20
1072.826568500152
 30
0.0
 10
380.9657368364842
 20
1072.826568500154
 30
0.0
 10
381.5783418086921
 20
1072.826568500154
 30
0.0
 10
381.9046050243105
 20
1072.826568500154
 30
0.0
 10
382.5979411798889
 20
1072.826568500154
 30
0.0
 10
382.9650115467139
 20
1072.826568500152
 30
0.0
 10
383.7415454495185
 20
1072.826568500152
 30
0.0
 10
384.1510068593179
 20
1072.826568500154
 30
0.0
 10
384.6368219809356
 20
1072.826568500154
 30
0.0
 10
384.6911515534357
 20
1072.826568500152
 30
0.0
 10
384.8005164297701
 20
1072.826568500152
 30
0.0
 10
384.8555606672944
 20
1072.826568500154
 30
0.0
 10
385.0214968374185
 20
1072.826568500152
 30
0.0
 10
385.3568304750133
 20
1072.826568500154
 30
0.0
 10
385.7025691974686
 20
1072.826568500154
 30
0.0
 10
386.4080084817087
 20
1072.826568500154
 30
0.0
 10
386.8969109759764
 20
1072.826568500154
 30
0.0
 10
387.9126145459795
 20
1072.826568500154
 30
0.0
 10
388.4394232845352
 20
1072.826568500154
 30
0.0
 10
389.5317371173496
 20
1072.826568500154
 30
0.0
 10
390.6627685785916
 20
1072.826568500154
 30
0.0
 10
391.872459318749
 20
1072.826568500154
 30
0.0
 10
393.1216727960837
 20
1072.826568500154
 30
0.0
 10
393.7660304661313
 20
1072.826568500154
 30
0.0
 10
394.5131560826394
 20
1072.826568500154
 30
0.0
 10
394.5964363652947
 20
1072.826568500154
 30
0.0
 10
394.7633227498136
 20
1072.826568500154
 30
0.0
 10
395.0142315894464
 20
1072.826568500152
 30
0.0
 10
395.6037078375793
 20
1072.826568500152
 30
0.0
 10
396.1157587301404
 20
1072.826568500154
 30
0.0
 10
397.1486399938931
 20
1072.826568500154
 30
0.0
 10
398.5492061166715
 20
1072.826568500154
 30
0.0
 10
400.7166687377594
 20
1072.826568500154
 30
0.0
 10
402.204366441094
 20
1072.826568500154
 30
0.0
 10
403.7129274226445
 20
1072.826568500154
 30
0.0
 10
404.4776400714891
 20
1072.826568500152
 30
0.0
 10
405.640234776647
 20
1072.826568500154
 30
0.0
 10
406.0303565409322
 20
1072.826568500154
 30
0.0
 10
406.6194314784207
 20
1072.826568500154
 30
0.0
 10
406.816438656364
 20
1072.826568500154
 30
0.0
 10
407.1129249087371
 20
1072.826568500154
 30
0.0
 10
407.2119531676271
 20
1072.826568500154
 30
0.0
 10
407.4100805698454
 20
1072.826568500154
 30
0.0
 10
408.3020874645572
 20
1072.826568500154
 30
0.0
 10
409.1979685895767
 20
1072.826568500154
 30
0.0
 10
410.7965558976848
 20
1072.826568500154
 30
0.0
 10
411.5988060142681
 20
1072.826568500154
 30
0.0
 10
413.2090570209821
 20
1072.826568500154
 30
0.0
 10
414.0170600708789
 20
1072.826568500152
 30
0.0
 10
415.6386540113654
 20
1072.826568500152
 30
0.0
 10
416.4522481557124
 20
1072.826568500154
 30
0.0
 10
418.0847784256457
 20
1072.826568500154
 30
0.0
 10
418.9037196112386
 20
1072.826568500154
 30
0.0
 10
420.1357999756056
 20
1072.826568500152
 30
0.0
 10
420.5471027903459
 20
1072.826568500154
 30
0.0
 10
421.3708356616971
 20
1072.826568500154
 30
0.0
 10
421.783265999924
 20
1072.826568500152
 30
0.0
 10
422.6091306443977
 20
1072.826568500152
 30
0.0
 10
423.0225652675272
 20
1072.826568500154
 30
0.0
 10
423.8502739111482
 20
1072.826568500154
 30
0.0
 10
424.2645482561329
 20
1072.826568500152
 30
0.0
 10
425.0937207201769
 20
1072.826568500152
 30
0.0
 10
425.9235173960897
 20
1072.826568500154
 30
0.0
 10
426.7540101544564
 20
1072.826568500154
 30
0.0
 10
427.1692593415337
 20
1072.826568500154
 30
0.0
  0
LINE
  5
415D
102
{ACAD_REACTORS
330
4332
102
}
330
A
100
AcDbEntity
  8
HIDDEN
 48
0.5
100
AcDbLine
 10
1562.876917053783
 20
968.1585108690642
 30
-0.0000000000000094
 11
1600.957778873388
 21
968.1214503094461
 31
-0.0000000000000098
  0
LINE
  5
415E
102
{ACAD_REACTORS
330
4332
102
}
330
A
100
AcDbEntity
  8
HIDDEN
 48
0.5
100
AcDbLine
 10
1524.44891585955
 20
968.2230459584034
 30
-0.0000000000000065
 11
1562.876917073454
 21
968.1768838936268
 31
-0.0000000000000108
  0
LINE
  5
4161
102
{ACAD_REACTORS
330
4332
102
}
330
A
100
AcDbEntity
  8
HIDDEN
 48
0.5
100
AcDbLine
 10
1685.094692052544
 20
994.9738772156279
 30
0.0000000000000002
 11
1685.102541789211
 21
994.9822908906872
 31
0.0000000000000002
  0
LINE
  5
4162
102
{ACAD_REACTORS
330
4332
102
}
330
A
100
AcDbEntity
  8
HIDDEN
 48
0.5
100
AcDbLine
 10
1585.404953351695
 20
956.0190531619528
 30
-0.0000000000000095
 11
1540.348879800587
 21
956.0190531619528
 31
-0.0000000000000095
  0
LINE
  5
4163
330
A
100
AcDbEntity
  8
MODEL
100
AcDbLine
 10
1462.223482689642
 20
941.8265685001475
 30
0.0000000000000001
 11
1440.794343915637
 21
941.8265685001475
 31
-0.0000000000000145
  0
LINE
  5
4167
330
A
100
AcDbEntity
  8
MODEL
100
AcDbLine
 10
1676.344022031044
 20
941.826568500147
 30
0.0000000000000038
 11
1591.673857013086
 21
941.826568500147
 31
0.0000000000000017
  0
LINE
  5
4168
330
A
100
AcDbEntity
  8
MODEL
100
AcDbLine
 10
1534.079976139197
 20
941.826568500147
 30
-0.000000000000018
 11
1470.838949895246
 21
941.8265685001475
 31
-0.0000000000000055
  0
LINE
  5
4169
330
A
100
AcDbEntity
  8
MODEL
100
AcDbLine
 10
1711.721835086628
 20
942.8265685001543
 30
-0.000000000000029
 11
1697.176895705928
 21
942.8265685001543
 31
-0.0000000000000279
  0
LINE
  5
416A
330
A
100
AcDbEntity
  8
MODEL
100
AcDbLine
 10
1587.547961819255
 20
942.8265685001543
 30
-0.0000000000000199
 11
1538.20587133303
 21
942.8265685001543
 31
-0.0000000000000163
  0
LINE
  5
416B
330
A
100
AcDbEntity
  8
MODEL
100
AcDbLine
 10
1428.576937446353
 20
942.8265685001547
 30
-0.0000000000000082
 11
1414.031998065657
 21
942.8265685001547
 31
-0.0000000000000071
  0
LINE
  5
416C
330
A
100
AcDbEntity
  8
MODEL
100
AcDbLine
 10
1562.876916576142
 20
1072.826568500154
 30
0.0
 11
1684.305250636635
 21
1072.826568500154
 31
0.0000000000000068
  0
LINE
  5
416D
330
A
100
AcDbEntity
  8
MODEL
100
AcDbLine
 10
1441.45191236075
 20
1072.826568500155
 30
-0.0000000000000068
 11
1562.876916576142
 21
1072.826568500154
 31
0.0
  0
LINE
  5
416E
330
A
100
AcDbEntity
  8
MODEL
100
AcDbLine
 10
1711.721835086628
 20
942.8265685001543
 30
-0.000000000000029
 11
1697.176895705928
 21
942.8265685001543
 31
-0.0000000000000279
  0
LINE
  5
416F
330
A
100
AcDbEntity
  8
MODEL
100
AcDbLine
 10
1587.547961819255
 20
942.8265685001543
 30
-0.0000000000000199
 11
1538.20587133303
 21
942.8265685001543
 31
-0.0000000000000163
  0
LINE
  5
4170
330
A
100
AcDbEntity
  8
MODEL
100
AcDbLine
 10
1428.576937446353
 20
942.8265685001547
 30
-0.0000000000000082
 11
1414.031998065657
 21
942.8265685001547
 31
-0.0000000000000071
  0
LINE
  5
4171
330
A
100
AcDbEntity
  8
MODEL
100
AcDbLine
 10
1723.937839156842
 20
942.8265685001543
 30
-0.0000000000000095
 11
1711.721835086628
 21
942.8265685001543
 31
-0.0000000000000095
  0
LINE
  5
4172
330
A
100
AcDbEntity
  8
MODEL
100
AcDbLine
 10
1414.031998065657
 20
942.8265685001547
 30
-0.0000000000000095
 11
1401.81599399544
 21
942.8265685001547
 31
-0.0000000000000095
  0
LINE
  5
4173
330
A
100
AcDbEntity
  8
MODEL
100
AcDbLine
 10
1591.673857013086
 20
941.826568500147
 30
-0.0000000000000095
 11
1589.786592694665
 21
941.826568500147
 31
-0.0000000000000095
  0
LINE
  5
4174
330
A
100
AcDbEntity
  8
MODEL
100
AcDbLine
 10
1676.344022031044
 20
941.826568500147
 30
0.0000000000000038
 11
1591.673857013086
 21
941.826568500147
 31
0.0000000000000017
  0
LINE
  5
4175
330
A
100
AcDbEntity
  8
MODEL
100
AcDbLine
 10
1535.967240457619
 20
941.826568500147
 30
-0.0000000000000095
 11
1534.079976139197
 21
941.826568500147
 31
-0.0000000000000095
  0
LINE
  5
4176
330
A
100
AcDbEntity
  8
MODEL
100
AcDbLine
 10
1534.079976139197
 20
941.826568500147
 30
-0.000000000000018
 11
1470.838949895246
 21
941.8265685001475
 31
-0.0000000000000055
  0
LINE
  5
4179
330
A
100
AcDbEntity
  8
MODEL
100
AcDbLine
 10
1470.838949895246
 20
941.8265685001475
 30
-0.0000000000000095
 11
1462.200930578194
 21
941.8265685001475
 31
-0.0000000000000095
  0
LINE
  5
417A
330
A
100
AcDbEntity
  8
MODEL
100
AcDbLine
 10
1688.560026101262
 20
941.826568500147
 30
-0.0000000000000095
 11
1676.344022031044
 21
941.826568500147
 31
-0.0000000000000095
  0
LINE
  5
417B
330
A
100
AcDbEntity
  8
MODEL
100
AcDbLine
 10
1462.200930578194
 20
941.8265685001475
 30
0.0000000000000001
 11
1440.771791804185
 21
941.8265685001475
 31
-0.0000000000000145
  0
LINE
  5
417C
330
A
100
AcDbEntity
  8
MODEL
100
AcDbLine
 10
1440.771791804185
 20
941.8265685001475
 30
-0.0000000000000095
 11
1437.193807051022
 21
941.8265685001475
 31
-0.0000000000000095
  0
LINE
  5
417D
102
{ACAD_REACTORS
330
4332
102
}
330
A
100
AcDbEntity
  8
HIDDEN
 48
0.5
100
AcDbLine
 10
1584.876916576141
 20
944.826568500147
 30
-0.0000000000000095
 11
1562.876916576142
 21
944.826568500147
 31
-0.0000000000000095
  0
LINE
  5
417E
102
{ACAD_REACTORS
330
4332
102
}
330
A
100
AcDbEntity
  8
HIDDEN
 48
0.5
100
AcDbLine
 10
1562.876916576142
 20
944.826568500147
 30
-0.0000000000000095
 11
1540.876916576142
 21
944.826568500147
 31
-0.0000000000000095
  0
ARC
  5
4181
330
A
100
AcDbEntity
  8
MODEL
100
AcDbCircle
 10
1589.794700015299
 20
944.8504518965669
 30
0.0000000000788551
 40
3.023894264658809
100
AcDbArc
 50
222.0128310269825
 51
269.8463849026109
  0
ARC
  5
4182
330
A
100
AcDbEntity
  8
MODEL
100
AcDbCircle
 10
1535.959133136986
 20
944.8504518965669
 30
0.0000000000788551
 40
3.023894264658737
100
AcDbArc
 50
270.1536150973891
 51
317.9871689730175
  0
SPLINE
  5
4184
330
A
100
AcDbEntity
  8
MODEL
100
AcDbSpline
210
0.0
220
0.0
230
1.0
 70
    24
 71
     3
 72
    82
 73
    78
 74
     0
 42
0.000000001
 43
0.0000000001
 40
0.0
 40
0.0
 40
0.0
 40
0.0
 40
0.0184080695423416
 40
0.0368161390846833
 40
0.0368161390846833
 40
0.0552242086270249
 40
0.0552242086270249
 40
0.0736322781693659
 40
0.0736322781693659
 40
0.0920403477117069
 40
0.0920403477117069
 40
0.1104484172540479
 40
0.1104484172540479
 40
0.1472645563387298
 40
0.1472645563387298
 40
0.1840806954234118
 40
0.1840806954234118
 40
0.2208968345080937
 40
0.2208968345080937
 40
0.2393049040504346
 40
0.2485089388216056
 40
0.2485089388216056
 40
0.2531109562071909
 40
0.2531109562071909
 40
0.2577129735927762
 40
0.2945291126774534
 40
0.2945291126774534
 40
0.3313452517621306
 40
0.3313452517621306
 40
0.3681613908468079
 40
0.3681613908468079
 40
0.4049775299314851
 40
0.4049775299314851
 40
0.4417936690161623
 40
0.4417936690161623
 40
0.4463956864017471
 40
0.4463956864017471
 40
0.4509977037873317
 40
0.4509977037873317
 40
0.4602017385585004
 40
0.4786098081008386
 40
0.4786098081008386
 40
0.5154259471855144
 40
0.5154259471855144
 40
0.5522420862701903
 40
0.5522420862701903
 40
0.5890582253548662
 40
0.6258743644395421
 40
0.6258743644395421
 40
0.662690503524218
 40
0.662690503524218
 40
0.6672925209098018
 40
0.6672925209098018
 40
0.6718945382953857
 40
0.6810985730665526
 40
0.6995066426088854
 40
0.6995066426088854
 40
0.7363227816935528
 40
0.77313892077822
 40
0.8099550598628873
 40
0.8099550598628873
 40
0.8467711989475546
 40
0.8467711989475546
 40
0.8651792684898875
 40
0.8651792684898875
 40
0.8743833032610537
 40
0.8743833032610537
 40
0.8789853206466363
 40
0.8789853206466363
 40
0.8835873380322187
 40
0.920403477116876
 40
0.920403477116876
 40
0.9572196162015333
 40
0.9572196162015333
 40
0.9940357552861905
 40
0.9940357552861905
 40
1.0
 40
1.0
 40
1.0
 40
1.0
 10
1684.305250636635
 20
1072.826568500154
 30
0.0000000000000068
 10
1684.721599510813
 20
1072.826568500154
 30
0.0000000000000065
 10
1685.554293211835
 20
1072.826568500154
 30
0.000000000000006
 10
1686.386448076473
 20
1072.826568500154
 30
0.0000000000000055
 10
1687.218118869923
 20
1072.826568500154
 30
0.0000000000000049
 10
1687.633712442853
 20
1072.826568500154
 30
0.0000000000000047
 10
1688.464247428132
 20
1072.826568500154
 30
0.0000000000000041
 10
1688.879189090694
 20
1072.826568500154
 30
0.0000000000000038
 10
1689.708291375646
 20
1072.826568500154
 30
0.0000000000000033
 10
1690.122452241048
 20
1072.826568500154
 30
0.000000000000003
 10
1690.949895713576
 20
1072.826568500154
 30
0.0000000000000025
 10
1691.363178536305
 20
1072.826568500154
 30
0.0000000000000022
 10
1692.601600869377
 20
1072.826568500154
 30
0.0000000000000014
 10
1693.425307907051
 20
1072.826568500154
 30
0.0000000000000009
 10
1695.068530411856
 20
1072.826568500154
 30
-0.0000000000000002
 10
1695.888049781944
 20
1072.826568500154
 30
-0.0000000000000007
 10
1697.522687825567
 20
1072.826568500154
 30
-0.0000000000000017
 10
1698.337809045948
 20
1072.826568500154
 30
-0.0000000000000023
 10
1699.557078996022
 20
1072.826568500154
 30
-0.0000000000000031
 10
1700.165861379155
 20
1072.826568500154
 30
-0.0000000000000034
 10
1700.773344070237
 20
1072.826568500154
 30
-0.0000000000000038
 10
1701.07686696002
 20
1072.826568500154
 30
-0.000000000000004
 10
1701.177980082973
 20
1072.826568500154
 30
-0.0000000000000041
 10
1701.379880964106
 20
1072.826568500154
 30
-0.0000000000000042
 10
1702.287230925398
 20
1072.826568500154
 30
-0.0000000000000048
 10
1703.183775755788
 20
1072.826568500154
 30
-0.0000000000000054
 10
1704.760652707718
 20
1072.826568500154
 30
-0.0000000000000064
 10
1705.540603028807
 20
1072.826568500154
 30
-0.0000000000000069
 10
1707.083409933304
 20
1072.826568500154
 30
-0.0000000000000079
 10
1707.846267911263
 20
1072.826568500154
 30
-0.0000000000000084
 10
1709.354512639493
 20
1072.826568500154
 30
-0.0000000000000094
 10
1710.099900491357
 20
1072.826568500154
 30
-0.0000000000000099
 10
1711.572527071985
 20
1072.826568500154
 30
-0.0000000000000108
 10
1712.299766710994
 20
1072.826568500154
 30
-0.0000000000000113
 10
1713.107135223912
 20
1072.826568500154
 30
-0.0000000000000118
 10
1713.196692947404
 20
1072.826568500154
 30
-0.0000000000000119
 10
1713.375506260698
 20
1072.826568500154
 30
-0.000000000000012
 10
1713.464775611319
 20
1072.826568500154
 30
-0.000000000000012
 10
1713.73170627074
 20
1072.826568500154
 30
-0.0000000000000122
 10
1714.262465622734
 20
1072.826568500154
 30
-0.0000000000000126
 10
1714.783900081485
 20
1072.826568500154
 30
-0.0000000000000129
 10
1715.814256591549
 20
1072.826568500154
 30
-0.0000000000000136
 10
1716.484483231113
 20
1072.826568500154
 30
-0.000000000000014
 10
1717.790972325345
 20
1072.826568500154
 30
0.0000000000000136
 10
1718.42722791268
 20
1072.826568500154
 30
0.0000000000000132
 10
1719.665059948205
 20
1072.826568500154
 30
0.0000000000000124
 10
1720.868193780245
 20
1072.826568500154
 30
0.0000000000000116
 10
1722.00083425366
 20
1072.826568500154
 30
0.0000000000000109
 10
1723.098054996277
 20
1072.826568500154
 30
0.0000000000000102
 10
1723.628964855843
 20
1072.826568500154
 30
0.0000000000000098
 10
1724.206322289385
 20
1072.826568500154
 30
0.0000000000000094
 10
1724.270163382707
 20
1072.826568500154
 30
0.0000000000000094
 10
1724.397074372127
 20
1072.826568500154
 30
0.0000000000000093
 10
1724.586354118422
 20
1072.826568500154
 30
0.0000000000000092
 10
1725.020460762986
 20
1072.826568500154
 30
0.0000000000000089
 10
1725.379822028279
 20
1072.826568500154
 30
0.0000000000000087
 10
1726.082073639916
 20
1072.826568500154
 30
0.0000000000000082
 10
1726.974525766258
 20
1072.826568500154
 30
0.0000000000000077
 10
1728.188232466491
 20
1072.826568500154
 30
0.0000000000000069
 10
1728.917219624087
 20
1072.826568500154
 30
0.0000000000000064
 10
1729.607065805492
 20
1072.826568500154
 30
0.000000000000006
 10
1729.932417434473
 20
1072.826568500154
 30
0.0000000000000057
 10
1730.391317513771
 20
1072.826568500154
 30
0.0000000000000054
 10
1730.539424817325
 20
1072.826568500154
 30
0.0000000000000053
 10
1730.754283561076
 20
1072.826568500154
 30
0.0000000000000052
 10
1730.824685825155
 20
1072.826568500154
 30
0.0000000000000052
 10
1730.928459141976
 20
1072.826568500154
 30
0.0000000000000051
 10
1730.962757739764
 20
1072.826568500154
 30
0.0000000000000051
 10
1731.030657205967
 20
1072.826568500154
 30
0.000000000000005
 10
1731.333104927098
 20
1072.826568500154
 30
0.0000000000000048
 10
1731.607854171181
 20
1072.826568500154
 30
0.0000000000000047
 10
1732.054046003622
 20
1072.826568500154
 30
0.0000000000000044
 10
1732.256004944869
 20
1072.826568500154
 30
0.0000000000000042
 10
1732.618808165542
 20
1072.826568500154
 30
0.000000000000004
 10
1732.779637003899
 20
1072.826568500154
 30
0.0000000000000039
 10
1732.943309403152
 20
1072.826568500154
 30
0.0000000000000038
 10
1732.965603020751
 20
1072.826568500154
 30
0.0000000000000038
 10
1732.987375636952
 20
1072.826568500154
 30
0.0000000000000038
  0
SPLINE
  5
4185
330
A
100
AcDbEntity
  8
MODEL
100
AcDbSpline
210
0.0
220
0.0
230
1.0
 70
    24
 71
     3
 72
    96
 73
    92
 74
     0
 42
0.000000001
 43
0.0000000001
 40
0.0
 40
0.0
 40
0.0
 40
0.0
 40
0.0125766505298896
 40
0.0125766505298896
 40
0.0282500370294111
 40
0.0282500370294111
 40
0.0439234235289327
 40
0.0439234235289327
 40
0.0595968100284543
 40
0.0595968100284543
 40
0.0752701965279758
 40
0.0752701965279758
 40
0.0909435830274974
 40
0.0909435830274974
 40
0.1222903560265405
 40
0.1222903560265405
 40
0.1536371290255837
 40
0.1536371290255837
 40
0.1849839020246268
 40
0.1849839020246268
 40
0.2006572885241484
 40
0.2084939817739092
 40
0.2084939817739092
 40
0.2124123283987895
 40
0.2124123283987895
 40
0.2163306750236699
 40
0.2476774480227191
 40
0.2476774480227191
 40
0.2790242210217683
 40
0.2790242210217683
 40
0.3103709940208174
 40
0.3103709940208174
 40
0.3417177670198665
 40
0.3417177670198665
 40
0.3730645400189157
 40
0.3730645400189157
 40
0.3769828866437976
 40
0.3769828866437976
 40
0.3809012332686797
 40
0.3809012332686797
 40
0.3887379265184432
 40
0.4044113130179697
 40
0.4044113130179697
 40
0.435758086017022
 40
0.435758086017022
 40
0.4671048590160743
 40
0.4671048590160743
 40
0.4984516320151268
 40
0.5297984050141791
 40
0.5297984050141791
 40
0.5611451780132315
 40
0.5611451780132315
 40
0.5650635246381128
 40
0.5650635246381128
 40
0.568981871262994
 40
0.5768185645127565
 40
0.5924919510122814
 40
0.5924919510122814
 40
0.6238387240113302
 40
0.6551854970103792
 40
0.6865322700094281
 40
0.6865322700094281
 40
0.717879043008477
 40
0.717879043008477
 40
0.7335524295080017
 40
0.7335524295080017
 40
0.7413891227577641
 40
0.7413891227577641
 40
0.7453074693826459
 40
0.7453074693826459
 40
0.7492258160075277
 40
0.7805725890065869
 40
0.7805725890065869
 40
0.8119193620056461
 40
0.8119193620056461
 40
0.8432661350047053
 40
0.8432661350047053
 40
0.8746129080037643
 40
0.8746129080037643
 40
0.9059596810028236
 40
0.9059596810028236
 40
0.9216330675023527
 40
0.9216330675023527
 40
0.9373064540018818
 40
0.9373064540018818
 40
0.952979840501411
 40
0.952979840501411
 40
0.9686532270009408
 40
0.9686532270009408
 40
0.9843266135004703
 40
1.0
 40
1.0
 40
1.0
 40
1.0
 10
1392.003477361708
 20
1072.826568500155
 30
-0.0000000000000033
 10
1392.003555252191
 20
1072.826568500155
 30
-0.0000000000000033
 10
1392.003786517911
 20
1072.826568500155
 30
-0.0000000000000033
 10
1392.006049678374
 20
1072.826568500155
 30
-0.0000000000000033
 10
1392.008578129648
 20
1072.826568500155
 30
-0.0000000000000033
 10
1392.01813725524
 20
1072.826568500155
 30
-0.0000000000000033
 10
1392.025165952433
 20
1072.826568500155
 30
-0.0000000000000033
 10
1392.045287470399
 20
1072.826568500155
 30
-0.0000000000000033
 10
1392.058377963904
 20
1072.826568500155
 30
-0.0000000000000033
 10
1392.091820764595
 20
1072.826568500155
 30
-0.0000000000000033
 10
1392.112170814617
 20
1072.826568500155
 30
-0.0000000000000033
 10
1392.161036354437
 20
1072.826568500155
 30
-0.0000000000000034
 10
1392.189549842771
 20
1072.826568500155
 30
-0.0000000000000034
 10
1392.288349489265
 20
1072.826568500155
 30
-0.0000000000000035
 10
1392.37195373455
 20
1072.826568500155
 30
-0.0000000000000035
 10
1392.578133378591
 20
1072.826568500155
 30
-0.0000000000000036
 10
1392.700672530522
 20
1072.826568500155
 30
-0.0000000000000037
 10
1392.986667448837
 20
1072.826568500155
 30
-0.0000000000000039
 10
1393.150099541137
 20
1072.826568500155
 30
-0.000000000000004
 10
1393.426970892959
 20
1072.826568500155
 30
-0.0000000000000042
 10
1393.573333849052
 20
1072.826568500155
 30
-0.0000000000000043
 10
1393.731781178069
 20
1072.826568500155
 30
-0.0000000000000044
 10
1393.813036016527
 20
1072.826568500155
 30
-0.0000000000000044
 10
1393.840452899734
 20
1072.826568500155
 30
-0.0000000000000045
 10
1393.895895871654
 20
1072.826568500155
 30
-0.0000000000000045
 10
1394.14820184256
 20
1072.826568500155
 30
-0.0000000000000047
 10
1394.425748984118
 20
1072.826568500155
 30
-0.0000000000000048
 10
1394.958833105376
 20
1072.826568500155
 30
-0.0000000000000052
 10
1395.245203728558
 20
1072.826568500155
 30
-0.0000000000000054
 10
1395.857876433167
 20
1072.826568500155
 30
-0.0000000000000058
 10
1396.184175256059
 20
1072.826568500155
 30
-0.000000000000006
 10
1396.877586437589
 20
1072.826568500155
 30
-0.0000000000000064
 10
1397.244696224408
 20
1072.826568500155
 30
-0.0000000000000067
 10
1398.021313391
 20
1072.826568500155
 30
-0.0000000000000072
 10
1398.430818646759
 20
1072.826568500155
 30
-0.0000000000000074
 10
1398.916686056153
 20
1072.826568500155
 30
-0.0000000000000077
 10
1398.971021479656
 20
1072.826568500155
 30
-0.0000000000000078
 10
1399.080398142307
 20
1072.826568500155
 30
-0.0000000000000078
 10
1399.135447835142
 20
1072.826568500155
 30
-0.0000000000000079
 10
1399.301400039441
 20
1072.826568500155
 30
-0.000000000000008
 10
1399.63676604588
 20
1072.826568500155
 30
-0.0000000000000082
 10
1399.98253806492
 20
1072.826568500155
 30
-0.0000000000000084
 10
1400.688045243554
 20
1072.826568500155
 30
-0.0000000000000089
 10
1401.176994740123
 20
1072.826568500155
 30
-0.0000000000000092
 10
1402.192796055808
 20
1072.826568500155
 30
-0.0000000000000099
 10
1402.719655540825
 20
1072.826568500155
 30
-0.0000000000000102
 10
1403.812074699345
 20
1072.826568500155
 30
-0.0000000000000109
 10
1404.943215519488
 20
1072.826568500155
 30
-0.0000000000000116
 10
1406.153022490755
 20
1072.826568500155
 30
-0.0000000000000124
 10
1407.402355683374
 20
1072.826568500155
 30
-0.0000000000000132
 10
1408.046774868451
 20
1072.826568500155
 30
-0.0000000000000136
 10
1408.793971538234
 20
1072.826568500155
 30
-0.0000000000000141
 10
1408.877257431859
 20
1072.826568500155
 30
-0.0000000000000142
 10
1409.044156499371
 20
1072.826568500155
 30
0.0000000000000141
 10
1409.295084379302
 20
1072.826568500155
 30
0.000000000000014
 10
1409.884605166342
 20
1072.826568500155
 30
0.0000000000000136
 10
1410.396694430961
 20
1072.826568500155
 30
0.0000000000000133
 10
1411.429652723273
 20
1072.826568500155
 30
0.0000000000000126
 10
1412.830322302298
 20
1072.826568500155
 30
0.0000000000000117
 10
1414.997942987477
 20
1072.826568500155
 30
0.0000000000000103
 10
1416.485748543093
 20
1072.826568500155
 30
0.0000000000000093
 10
1417.994418913147
 20
1072.826568500155
 30
0.0000000000000084
 10
1418.759187025771
 20
1072.826568500155
 30
0.0000000000000079
 10
1419.921866285586
 20
1072.826568500155
 30
0.0000000000000071
 10
1420.312016460921
 20
1072.826568500155
 30
0.0000000000000069
 10
1420.901134376081
 20
1072.826568500155
 30
0.0000000000000065
 10
1421.098155940064
 20
1072.826568500155
 30
0.0000000000000063
 10
1421.394663864201
 20
1072.826568500155
 30
0.0000000000000062
 10
1421.493698959406
 20
1072.826568500155
 30
0.0000000000000061
 10
1421.691836684206
 20
1072.826568500155
 30
0.000000000000006
 10
1422.583889964713
 20
1072.826568500155
 30
0.0000000000000054
 10
1423.479816891086
 20
1072.826568500155
 30
0.0000000000000048
 10
1425.078484734304
 20
1072.826568500155
 30
0.0000000000000038
 10
1425.880774672743
 20
1072.826568500155
 30
0.0000000000000033
 10
1427.491104447656
 20
1072.826568500155
 30
0.0000000000000022
 10
1428.299146443653
 20
1072.826568500155
 30
0.0000000000000017
 10
1429.920817418319
 20
1072.826568500155
 30
0.0000000000000006
 10
1430.734449653261
 20
1072.826568500155
 30
0.0000000000000001
 10
1432.367055242719
 20
1072.826568500155
 30
-0.0000000000000009
 10
1433.186033665779
 20
1072.826568500155
 30
-0.0000000000000015
 10
1434.418169106995
 20
1072.826568500155
 30
-0.0000000000000023
 10
1434.829490148613
 20
1072.826568500155
 30
-0.0000000000000025
 10
1435.653259139881
 20
1072.826568500155
 30
-0.0000000000000031
 10
1436.065707371712
 20
1072.826568500155
 30
-0.0000000000000033
 10
1436.891607350071
 20
1072.826568500155
 30
-0.0000000000000039
 10
1437.305059413904
 20
1072.826568500155
 30
-0.0000000000000041
 10
1438.13280229973
 20
1072.826568500155
 30
-0.0000000000000047
 10
1438.547093446083
 20
1072.826568500155
 30
-0.0000000000000049
 10
1439.376298615298
 20
1072.826568500155
 30
-0.0000000000000055
 10
1440.206127199661
 20
1072.826568500155
 30
-0.000000000000006
 10
1441.036649236634
 20
1072.826568500155
 30
-0.0000000000000065
 10
1441.45191236099
 20
1072.826568500155
 30
-0.0000000000000068
  0
LINE
  5
4190
330
A
100
AcDbEntity
  8
MODEL
100
AcDbLine
 10
782.8940473303501
 20
942.8265685001543
 30
0.0
 11
797.440795900131
 21
942.8265685001543
 31
0.0
  0
LINE
  5
4192
330
A
100
AcDbEntity
  8
MODEL
100
AcDbLine
 10
778.7214857443814
 20
941.8265685001525
 30
0.0
 11
776.2189376027654
 21
941.8265685001525
 31
0.0
  0
LINE
  5
4193
330
A
100
AcDbEntity
  8
MODEL
100
AcDbLine
 10
782.8940473303501
 20
942.8265685001543
 30
0.0
 11
797.440795900131
 21
942.8265685001543
 31
0.0
  0
LINE
  5
4194
330
A
100
AcDbEntity
  8
MODEL
100
AcDbLine
 10
797.440795900131
 20
942.8265685001543
 30
0.0
 11
809.6567999703457
 21
942.8265685001543
 31
0.0
  0
LINE
  5
4195
330
A
100
AcDbEntity
  8
MODEL
100
AcDbLine
 10
762.0629828445508
 20
941.8265685001525
 30
0.0
 11
774.2789869147655
 21
941.8265685001525
 31
0.0
  0
LINE
  5
4196
330
A
100
AcDbEntity
  8
MODEL
100
AcDbLine
 10
778.7214857443814
 20
941.8265685001525
 30
0.0
 11
780.661065406608
 21
941.8265685001525
 31
0.0
  0
LINE
  5
4197
330
A
100
AcDbEntity
  8
MODEL
100
AcDbLine
 10
776.2189376027654
 20
941.8265685001525
 30
0.0
 11
778.7214857443814
 21
941.8265685001525
 31
0.0
  0
LINE
  5
4198
330
A
100
AcDbEntity
  8
MODEL
100
AcDbLine
 10
774.2789869147655
 20
941.8265685001525
 30
0.0
 11
776.2189376027654
 21
941.8265685001525
 31
0.0
  0
ARC
  5
419C
330
A
100
AcDbEntity
  8
MODEL
100
AcDbCircle
 10
780.661065406608
 20
944.8265685001525
 30
0.0
 40
3.0
100
AcDbArc
 50
270.0
 51
318.1896851042681
  0
SPLINE
  5
419E
330
A
100
AcDbEntity
  8
MODEL
100
AcDbSpline
210
0.0
220
0.0
230
1.0
 70
    24
 71
     3
 72
    95
 73
    91
 74
     0
 42
0.000000001
 43
0.0000000001
 40
0.0
 40
0.0
 40
0.0
 40
0.0
 40
0.0130349462998818
 40
0.0287010582633809
 40
0.0287010582633809
 40
0.0443671702268801
 40
0.0443671702268801
 40
0.0600332821903788
 40
0.0600332821903788
 40
0.0756993941538774
 40
0.0756993941538774
 40
0.0913655061173761
 40
0.0913655061173761
 40
0.1226977300443733
 40
0.1226977300443733
 40
0.1540299539713706
 40
0.1540299539713706
 40
0.1853621778983678
 40
0.1853621778983678
 40
0.2010282898618664
 40
0.2088613458436161
 40
0.2088613458436161
 40
0.2127778738344908
 40
0.2127778738344908
 40
0.2166944018253655
 40
0.2480266257523587
 40
0.2480266257523587
 40
0.2793588496793519
 40
0.2793588496793519
 40
0.3106910736063452
 40
0.3106910736063452
 40
0.3420232975333384
 40
0.3420232975333384
 40
0.3733555214603317
 40
0.3733555214603317
 40
0.3772720494512059
 40
0.3772720494512059
 40
0.3811885774420801
 40
0.3811885774420801
 40
0.3890216334238278
 40
0.404687745387324
 40
0.404687745387324
 40
0.4360199693143161
 40
0.4360199693143161
 40
0.4673521932413082
 40
0.4673521932413082
 40
0.4986844171683003
 40
0.5300166410952925
 40
0.5300166410952925
 40
0.5613488650222844
 40
0.5613488650222844
 40
0.565265393013158
 40
0.565265393013158
 40
0.5691819210040315
 40
0.5770149769857777
 40
0.5926810889492694
 40
0.5926810889492694
 40
0.6240133128762543
 40
0.6553455368032389
 40
0.6866777607302238
 40
0.6866777607302238
 40
0.7180099846572086
 40
0.7180099846572086
 40
0.7336760966207002
 40
0.7336760966207002
 40
0.7415091526024459
 40
0.7415091526024459
 40
0.7454256805933183
 40
0.7454256805933183
 40
0.7493422085841906
 40
0.7806744325111669
 40
0.7806744325111669
 40
0.8120066564381431
 40
0.8120066564381431
 40
0.8433388803651193
 40
0.8433388803651193
 40
0.8746711042920955
 40
0.8746711042920955
 40
0.9060033282190717
 40
0.9060033282190717
 40
0.9216694401825597
 40
0.9216694401825597
 40
0.9373355521460478
 40
0.9373355521460478
 40
0.9530016641095359
 40
0.9530016641095359
 40
0.9686677760730239
 40
0.9686677760730239
 40
0.984333888036512
 40
1.0
 40
1.0
 40
1.0
 40
1.0
 10
819.4692641393249
 20
1072.826568500152
 30
0.0
 10
819.4691997505197
 20
1072.826568500154
 30
0.0
 10
819.4687713514195
 20
1072.826568500154
 30
0.0
 10
819.4641695800947
 20
1072.826568500152
 30
0.0
 10
819.4546181376772
 20
1072.826568500152
 30
0.0
 10
819.4475942117842
 20
1072.826568500154
 30
0.0
 10
819.4274833070722
 20
1072.826568500154
 30
0.0
 10
819.4143986544204
 20
1072.826568500154
 30
0.0
 10
819.3809681192197
 20
1072.826568500154
 30
0.0
 10
819.3606244959356
 20
1072.826568500152
 30
0.0
 10
819.3117721952203
 20
1072.826568500152
 30
0.0
 10
819.2832655222501
 20
1072.826568500154
 30
0.0
 10
819.1844869087927
 20
1072.826568500154
 30
0.0
 10
819.100897454342
 20
1072.826568500154
 30
0.0
 10
818.8947500538543
 20
1072.826568500154
 30
0.0
 10
818.772228393098
 20
1072.826568500152
 30
0.0
 10
818.4862723623282
 20
1072.826568500152
 30
0.0
 10
818.3228616700198
 20
1072.826568500154
 30
0.0
 10
818.0460258179355
 20
1072.826568500154
 30
0.0
 10
817.8996814547409
 20
1072.826568500154
 30
0.0
 10
817.7412540218993
 20
1072.826568500152
 30
0.0
 10
817.6600093504148
 20
1072.826568500152
 30
0.0
 10
817.6325956955316
 20
1072.826568500154
 30
0.0
 10
817.5771593293157
 20
1072.826568500154
 30
0.0
 10
817.3248833395828
 20
1072.826568500152
 30
0.0
 10
817.0473684587105
 20
1072.826568500154
 30
0.0
 10
816.5143451431995
 20
1072.826568500152
 30
0.0
 10
816.2280066440344
 20
1072.826568500154
 30
0.0
 10
815.6154016718265
 20
1072.826568500154
 30
0.0
 10
815.2891384562081
 20
1072.826568500154
 30
0.0
 10
814.5958023006297
 20
1072.826568500154
 30
0.0
 10
814.2287319338047
 20
1072.826568500152
 30
0.0
 10
813.4521980310001
 20
1072.826568500152
 30
0.0
 10
813.0427366212007
 20
1072.826568500154
 30
0.0
 10
812.556921499583
 20
1072.826568500154
 30
0.0
 10
812.5025919270829
 20
1072.826568500152
 30
0.0
 10
812.3932270507485
 20
1072.826568500152
 30
0.0
 10
812.3381828132242
 20
1072.826568500154
 30
0.0
 10
812.1722466431002
 20
1072.826568500152
 30
0.0
 10
811.8369130055053
 20
1072.826568500154
 30
0.0
 10
811.49117428305
 20
1072.826568500154
 30
0.0
 10
810.7857349988099
 20
1072.826568500154
 30
0.0
 10
810.2968325045422
 20
1072.826568500154
 30
0.0
 10
809.2811289345391
 20
1072.826568500154
 30
0.0
 10
808.7543201959834
 20
1072.826568500154
 30
0.0
 10
807.662006363169
 20
1072.826568500154
 30
0.0
 10
806.530974901927
 20
1072.826568500154
 30
0.0
 10
805.3212841617697
 20
1072.826568500154
 30
0.0
 10
804.072070684435
 20
1072.826568500154
 30
0.0
 10
803.4277130143873
 20
1072.826568500154
 30
0.0
 10
802.6805873978792
 20
1072.826568500154
 30
0.0
 10
802.5973071152239
 20
1072.826568500154
 30
0.0
 10
802.430420730705
 20
1072.826568500154
 30
0.0
 10
802.1795118910723
 20
1072.826568500152
 30
0.0
 10
801.5900356429393
 20
1072.826568500152
 30
0.0
 10
801.0779847503782
 20
1072.826568500154
 30
0.0
 10
800.0451034866255
 20
1072.826568500154
 30
0.0
 10
798.6445373638471
 20
1072.826568500154
 30
0.0
 10
796.4770747427592
 20
1072.826568500154
 30
0.0
 10
794.9893770394247
 20
1072.826568500154
 30
0.0
 10
793.4808160578741
 20
1072.826568500154
 30
0.0
 10
792.7161034090295
 20
1072.826568500152
 30
0.0
 10
791.5535087038716
 20
1072.826568500154
 30
0.0
 10
791.1633869395864
 20
1072.826568500154
 30
0.0
 10
790.5743120020979
 20
1072.826568500154
 30
0.0
 10
790.3773048241546
 20
1072.826568500154
 30
0.0
 10
790.0808185717815
 20
1072.826568500154
 30
0.0
 10
789.9817903128915
 20
1072.826568500154
 30
0.0
 10
789.7836629106732
 20
1072.826568500154
 30
0.0
 10
788.8916560159614
 20
1072.826568500154
 30
0.0
 10
787.9957748909419
 20
1072.826568500154
 30
0.0
 10
786.3971875828338
 20
1072.826568500154
 30
0.0
 10
785.5949374662505
 20
1072.826568500154
 30
0.0
 10
783.9846864595365
 20
1072.826568500154
 30
0.0
 10
783.1766834096397
 20
1072.826568500152
 30
0.0
 10
781.5550894691532
 20
1072.826568500152
 30
0.0
 10
780.7414953248062
 20
1072.826568500154
 30
0.0
 10
779.1089650548729
 20
1072.826568500154
 30
0.0
 10
778.29002386928
 20
1072.826568500154
 30
0.0
 10
777.057943504913
 20
1072.826568500152
 30
0.0
 10
776.6466406901727
 20
1072.826568500154
 30
0.0
 10
775.8229078188215
 20
1072.826568500154
 30
0.0
 10
775.4104774805946
 20
1072.826568500152
 30
0.0
 10
774.5846128361209
 20
1072.826568500152
 30
0.0
 10
774.1711782129914
 20
1072.826568500154
 30
0.0
 10
773.3434695693704
 20
1072.826568500154
 30
0.0
 10
772.9291952243857
 20
1072.826568500152
 30
0.0
 10
772.1000227603417
 20
1072.826568500152
 30
0.0
 10
771.2702260844289
 20
1072.826568500154
 30
0.0
 10
770.4397333260622
 20
1072.826568500154
 30
0.0
 10
770.0244841389849
 20
1072.826568500154
 30
0.0
  0
LINE
  5
41A2
330
A
100
AcDbEntity
  8
MODEL
100
AcDbLine
 10
376.7044570322378
 20
1072.826568500152
 30
0.0
 11
378.3252313037501
 21
1072.826568500154
 31
0.0
  0
LINE
  5
41A4
102
{ACAD_REACTORS
330
4330
102
}
330
A
100
AcDbEntity
  8
HIDDEN
100
AcDbLine
 10
564.8791241436284
 20
965.6883140497584
 30
0.0
 11
575.3551808474822
 21
956.8978587333604
 31
0.0
  0
LINE
  5
41AE
330
A
100
AcDbEntity
  8
MODEL
100
AcDbLine
 10
387.5369435101693
 20
942.8265685001525
 30
0.0
 11
381.0346547208555
 21
942.8265685001525
 31
0.0
  0
LINE
  5
41B0
330
A
100
AcDbEntity
  8
MODEL
100
AcDbLine
 10
376.7054331500276
 20
1072.826568500152
 30
0.0
 11
378.3968153034893
 21
1072.826568500152
 31
0.0
  0
LINE
  5
41B1
102
{ACAD_REACTORS
330
4330
102
}
330
A
100
AcDbEntity
  8
HIDDEN
100
AcDbLine
 10
576.4263611038932
 20
954.6520826233154
 30
0.0
 11
576.597866090875
 21
944.8265685001525
 31
0.0
  0
ARC
  5
41B3
330
A
100
AcDbEntity
  8
MODEL
100
AcDbCircle
 10
376.7063434577213
 20
1069.826568500149
 30
-0.0625618514332663
 40
3.0
210
1.077981943523967E-5
220
0.0
230
0.9999999999418978
100
AcDbArc
 50
90.03485493252863
 51
181.9987827415448
  0
ARC
  5
41B8
330
A
100
AcDbEntity
  8
MODEL
100
AcDbCircle
 10
381.0346547208555
 20
945.8265685001525
 30
-0.0000000000560579
 40
3.0
100
AcDbArc
 50
181.9995597999163
 51
270.0
  0
ARC
  5
41BA
102
{ACAD_REACTORS
330
4330
102
}
330
A
100
AcDbEntity
  8
HIDDEN
100
AcDbCircle
 10
573.4268180184245
 20
954.599725404004
 30
-0.0000000000596235
 40
3.0
100
AcDbArc
 50
1.000000000001762
 51
50.00000000004078
  0
SPLINE
  5
41BD
102
{ACAD_REACTORS
330
43D0
102
}
330
A
100
AcDbEntity
  8
MODEL
100
AcDbSpline
210
0.0
220
0.0
230
1.0
 70
     8
 71
     3
 72
    16
 73
    12
 74
     0
 42
0.000000001
 43
0.0000000001
 40
0.0
 40
0.0
 40
0.0
 40
0.0
 40
0.0716185311579424
 40
0.0716185311579424
 40
0.4582441340779712
 40
0.4582441340779712
 40
0.7407966763097109
 40
0.7407966763097109
 40
0.7595679718387051
 40
0.7595679718387051
 40
1.0
 40
1.0
 40
1.0
 40
1.0
 10
373.7063502472247
 20
1069.721872651159
 30
0.0
 10
373.8097223524255
 20
1066.761640008853
 30
0.0
 10
373.9130944550434
 20
1063.80140736631
 30
0.0
 10
374.5745106790873
 20
1044.860649686333
 30
0.0
 10
375.1325547270626
 20
1028.880124642274
 30
0.0
 10
376.0984266862233
 20
1001.220761083626
 30
0.0
 10
376.5062546338904
 20
989.5419225723172
 30
0.0
 10
376.9411764664856
 20
977.0872038351363
 30
0.0
 10
376.9682703939197
 20
976.3113236130857
 30
0.0
 10
377.3423967286381
 20
965.5975861390225
 30
0.0
 10
377.6894291051594
 20
955.6597288842468
 30
0.0
 10
378.0364614501614
 20
945.7218716266434
 30
0.0
  0
SPLINE
  5
41BE
102
{ACAD_REACTORS
330
4330
102
}
330
A
100
AcDbEntity
  8
HIDDEN
100
AcDbSpline
210
0.0
220
0.0
230
1.0
 70
     8
 71
     3
 72
    19
 73
    15
 74
     0
 42
0.000000001
 43
0.0000000001
 40
0.0
 40
0.0
 40
0.0
 40
0.0
 40
0.125
 40
0.25
 40
0.375
 40
0.4375
 40
0.5
 40
0.5625
 40
0.625
 40
0.6875
 40
0.75
 40
0.8125
 40
0.875
 40
1.0
 40
1.0
 40
1.0
 40
1.0
 10
421.1450227862606
 20
1002.826568506531
 30
0.0
 10
422.1838558243344
 20
1001.202933523129
 30
0.0
 10
424.3035151950262
 20
997.9709952392104
 30
0.0
 10
427.6824051412495
 20
993.2377635014482
 30
0.0
 10
430.7689551211315
 20
989.4913614431844
 30
0.0
 10
433.482549253562
 20
986.7218540629465
 30
0.0
 10
435.6560442310456
 20
984.7935572352644
 30
0.0
 10
437.9923483256371
 20
983.0332858095053
 30
0.0
 10
440.5051692082216
 20
981.4588041969137
 30
0.0
 10
443.2017909730293
 20
980.0772520279907
 30
0.0
 10
446.0630420911493
 20
978.8924903330744
 30
0.0
 10
449.0486335211917
 20
977.8986203342138
 30
0.0
 10
453.1513311656399
 20
976.7952229789771
 30
0.0
 10
456.3171462911214
 20
976.1789294872151
 30
0.0
 10
458.4365266018303
 20
975.8265685001525
 30
0.0
  0
SPLINE
  5
41C0
102
{ACAD_REACTORS
330
4330
102
}
330
A
100
AcDbEntity
  8
HIDDEN
100
AcDbSpline
210
0.0
220
0.0
230
1.0
 70
     8
 71
     3
 72
    17
 73
    13
 74
     0
 42
0.000000001
 43
0.0000000001
 40
0.0
 40
0.0
 40
0.0
 40
0.0
 40
0.06488818714789
 40
0.1297763742957799
 40
0.1946645614436699
 40
0.25955274859156
 40
0.3244409357394499
 40
0.3893291228873399
 40
0.5191054971831199
 40
0.6488818714788998
 40
0.7786582457746798
 40
1.0
 40
1.0
 40
1.0
 40
1.0
 10
458.4365266018303
 20
975.8265685001525
 30
0.0
 10
460.4662591190518
 20
975.489112051383
 30
0.0
 10
464.5429741183343
 20
974.9214051263052
 30
0.0
 10
470.6946293290985
 20
974.25840792505
 30
0.0
 10
476.8844619240863
 20
973.70071270072
 30
0.0
 10
483.122895462644
 20
973.2138283574614
 30
0.0
 10
489.4205844399421
 20
972.7615237689506
 30
0.0
 10
497.9110707572199
 20
972.1871462728777
 30
0.0
 10
508.6795296096916
 20
971.4988433708086
 30
0.0
 10
521.7994914067767
 20
970.683401644983
 30
0.0
 10
538.1875319661722
 20
969.6790279197403
 30
0.0
 10
550.2727912118662
 20
968.9397760790644
 30
0.0
 10
557.8982308927898
 20
968.4733998062866
 30
0.0
  0
SPLINE
  5
41C1
102
{ACAD_REACTORS
330
4330
102
}
330
A
100
AcDbEntity
  8
HIDDEN
100
AcDbSpline
210
0.0
220
0.0
230
1.0
 70
     8
 71
     3
 72
    14
 73
    10
 74
     0
 42
0.000000001
 43
0.0000000001
 40
0.0
 40
0.0
 40
0.0
 40
0.0
 40
0.25
 40
0.25
 40
0.5
 40
0.5
 40
0.75
 40
0.75
 40
1.0
 40
1.0
 40
1.0
 40
1.0
 10
557.8982308927898
 20
968.4733998062884
 30
0.0
 10
558.5340899654348
 20
968.4345103000132
 30
0.0
 10
559.1668388927665
 20
968.3448804252521
 30
0.0
 10
560.4101280382329
 20
968.0664047232322
 30
0.0
 10
561.0206549413288
 20
967.8775618783193
 30
0.0
 10
562.2040464999827
 20
967.4054379171021
 30
0.0
 10
562.7768984819722
 20
967.1221618570262
 30
0.0
 10
563.8704399199869
 20
966.4683394505364
 30
0.0
 10
564.3911176646743
 20
966.0978001062585
 30
0.0
 10
564.8791241436284
 20
965.6883140497584
 30
0.0
  0
SPLINE
  5
41C8
330
A
100
AcDbEntity
  8
MODEL
100
AcDbSpline
210
0.0
220
0.0
230
1.0
 70
    24
 71
     5
 72
    12
 73
     6
 74
     0
 42
0.000000001
 43
0.0000000001
 40
0.0
 40
0.0
 40
0.0
 40
0.0
 40
0.0
 40
0.0
 40
1.0
 40
1.0
 40
1.0
 40
1.0
 40
1.0
 40
1.0
 10
378.0364814354925
 20
945.7218930448298
 30
0.0
 10
377.170637121324
 20
970.5218930448291
 30
0.0
 10
376.3047928071701
 20
995.3218930448293
 30
0.0
 10
375.4389484930016
 20
1020.121893044829
 30
0.0
 10
374.5731041788404
 20
1044.92189304483
 30
0.0
 10
373.7072598646719
 20
1069.72189304483
 30
0.0
  0
SPLINE
  5
41CA
102
{ACAD_REACTORS
330
4330
102
}
330
A
100
AcDbEntity
  8
HIDDEN
100
AcDbSpline
210
0.0
220
0.0
230
1.0
 70
     8
 71
     3
 72
    22
 73
    18
 74
     0
 42
0.000000001
 43
0.0000000001
 40
0.0
 40
0.0
 40
0.0
 40
0.0
 40
0.125
 40
0.125
 40
0.25
 40
0.25
 40
0.375
 40
0.375
 40
0.5
 40
0.5
 40
0.625
 40
0.625
 40
0.75
 40
0.75
 40
0.875
 40
0.875
 40
1.0
 40
1.0
 40
1.0
 40
1.0
 10
378.3968153034893
 20
1072.826568500152
 30
0.0
 10
378.5277149923077
 20
1072.826568500152
 30
0.0
 10
378.6586140411182
 20
1072.817988923548
 30
0.0
 10
378.9181736889605
 20
1072.783817248976
 30
0.0
 10
379.0468330189342
 20
1072.758225318087
 30
0.0
 10
379.2997117997893
 20
1072.690466655728
 30
0.0
 10
379.4239300142744
 20
1072.648300255551
 30
0.0
 10
379.665801102421
 20
1072.54811397481
 30
0.0
 10
379.7834527934992
 20
1072.49009458409
 30
0.0
 10
380.0101777078908
 20
1072.359194899876
 30
0.0
 10
380.1192498226756
 20
1072.286315246394
 30
0.0
 10
380.326949237462
 20
1072.126941888424
 30
0.0
 10
380.425575521951
 20
1072.040448963162
 30
0.0
 10
380.6106956428357
 20
1071.855328853564
 30
0.0
 10
380.6971885741095
 20
1071.75670257434
 30
0.0
 10
380.8565619447418
 20
1071.549003169269
 30
0.0
 10
380.929441604867
 20
1071.439931058933
 30
0.0
 10
380.9948914538854
 20
1071.326568605728
 30
0.0
  0
SPLINE
  5
41CB
102
{ACAD_REACTORS
330
4330
102
}
330
A
100
AcDbEntity
  8
HIDDEN
100
AcDbSpline
210
0.0
220
0.0
230
1.0
 70
     8
 71
     7
 72
    16
 73
     8
 74
     0
 42
0.000000001
 43
0.0000000001
 40
0.0
 40
0.0
 40
0.0
 40
0.0
 40
0.0
 40
0.0
 40
0.0
 40
0.0
 40
1.0
 40
1.0
 40
1.0
 40
1.0
 40
1.0
 40
1.0
 40
1.0
 40
1.0
 10
380.9948914459692
 20
1071.326568619442
 30
0.0
 10
390.949320429123
 20
1054.08499347831
 30
0.0
 10
398.8534501196282
 20
1040.394706339905
 30
0.0
 10
405.1688548823022
 20
1029.458351020672
 30
0.0
 10
410.2785099354678
 20
1020.657028204264
 30
0.0
 10
414.4912994288479
 20
1013.513872165938
 30
0.0
 10
418.0502915379129
 20
1007.663451561695
 30
0.0
 10
421.1450227862606
 20
1002.826568506531
 30
0.0
  0
ARC
  5
41D3
330
A
100
AcDbEntity
  8
MODEL
100
AcDbCircle
 10
820.4892864482808
 20
1069.826568500152
 30
0.0
 40
3.0
100
AcDbArc
 50
357.9999999999964
 51
90.0
  0
LINE
  5
41DB
330
A
100
AcDbEntity
  8
MODEL
100
AcDbLine
 10
820.4892864482808
 20
1072.826568500152
 30
0.0
 11
818.8685121767685
 21
1072.826568500154
 31
0.0
  0
LINE
  5
41DD
102
{ACAD_REACTORS
330
4330
102
}
330
A
100
AcDbEntity
  8
HIDDEN
100
AcDbLine
 10
632.3146193368902
 20
965.6883140497584
 30
0.0
 11
621.8385626330364
 21
956.8978587333604
 31
0.0
  0
LINE
  5
41E7
330
A
100
AcDbEntity
  8
MODEL
100
AcDbLine
 10
809.6567999703493
 20
942.8265685001525
 30
0.0
 11
816.1590887596631
 21
942.8265685001525
 31
0.0
  0
LINE
  5
41E9
330
A
100
AcDbEntity
  8
MODEL
100
AcDbLine
 10
820.488310330491
 20
1072.826568500152
 30
0.0
 11
818.7969281770293
 21
1072.826568500152
 31
0.0
  0
LINE
  5
41EA
102
{ACAD_REACTORS
330
4330
102
}
330
A
100
AcDbEntity
  8
HIDDEN
100
AcDbLine
 10
620.7673823766254
 20
954.6520826233154
 30
0.0
 11
620.5958773896436
 21
944.8265685001525
 31
0.0
  0
ARC
  5
41EC
330
A
100
AcDbEntity
  8
MODEL
100
AcDbCircle
 10
820.4873999532283
 20
1069.826568500149
 30
-0.075467383816985
 40
3.0
210
-1.077981943523967E-5
220
0.0
230
0.9999999999418978
100
AcDbArc
 50
358.0012172584553
 51
89.96514506752024
  0
ARC
  5
41F1
330
A
100
AcDbEntity
  8
MODEL
100
AcDbCircle
 10
816.1590887596631
 20
945.8265685001525
 30
-0.0000000000560579
 40
3.0
100
AcDbArc
 50
270.0
 51
358.0004402000793
  0
ARC
  5
41F3
102
{ACAD_REACTORS
330
4330
102
}
330
A
100
AcDbEntity
  8
HIDDEN
100
AcDbCircle
 10
623.7669254620942
 20
954.599725404004
 30
-0.0000000000596235
 40
3.0
100
AcDbArc
 50
129.9999999999592
 51
178.9999999999983
  0
SPLINE
  5
41F6
330
A
100
AcDbEntity
  8
MODEL
100
AcDbSpline
210
0.0
220
0.0
230
1.0
 70
     8
 71
     3
 72
    16
 73
    12
 74
     0
 42
0.000000001
 43
0.0000000001
 40
0.0
 40
0.0
 40
0.0
 40
0.0
 40
0.0716185311579424
 40
0.0716185311579424
 40
0.4582441340779712
 40
0.4582441340779712
 40
0.7407966763097109
 40
0.7407966763097109
 40
0.7595679718387051
 40
0.7595679718387051
 40
1.0
 40
1.0
 40
1.0
 40
1.0
 10
823.4873932332939
 20
1069.721872651159
 30
0.0
 10
823.3840211280931
 20
1066.761640008853
 30
0.0
 10
823.2806490254752
 20
1063.80140736631
 30
0.0
 10
822.6192328014313
 20
1044.860649686333
 30
0.0
 10
822.061188753456
 20
1028.880124642274
 30
0.0
 10
821.0953167942953
 20
1001.220761083626
 30
0.0
 10
820.6874888466282
 20
989.5419225723172
 30
0.0
 10
820.252567014033
 20
977.0872038351363
 30
0.0
 10
820.2254730865989
 20
976.3113236130857
 30
0.0
 10
819.8513467518806
 20
965.5975861390225
 30
0.0
 10
819.5043143753592
 20
955.6597288842468
 30
0.0
 10
819.1572820303572
 20
945.7218716266434
 30
0.0
  0
SPLINE
  5
41F7
102
{ACAD_REACTORS
330
4330
102
}
330
A
100
AcDbEntity
  8
HIDDEN
100
AcDbSpline
210
0.0
220
0.0
230
1.0
 70
     8
 71
     3
 72
    19
 73
    15
 74
     0
 42
0.000000001
 43
0.0000000001
 40
0.0
 40
0.0
 40
0.0
 40
0.0
 40
0.125
 40
0.25
 40
0.375
 40
0.4375
 40
0.5
 40
0.5625
 40
0.625
 40
0.6875
 40
0.75
 40
0.8125
 40
0.875
 40
1.0
 40
1.0
 40
1.0
 40
1.0
 10
776.048720694258
 20
1002.826568506531
 30
0.0
 10
775.0098876561842
 20
1001.202933523129
 30
0.0
 10
772.8902282854924
 20
997.9709952392104
 30
0.0
 10
769.5113383392691
 20
993.2377635014482
 30
0.0
 10
766.4247883593871
 20
989.4913614431844
 30
0.0
 10
763.7111942269566
 20
986.7218540629465
 30
0.0
 10
761.537699249473
 20
984.7935572352644
 30
0.0
 10
759.2013951548815
 20
983.0332858095053
 30
0.0
 10
756.688574272297
 20
981.4588041969137
 30
0.0
 10
753.9919525074893
 20
980.0772520279907
 30
0.0
 10
751.1307013893693
 20
978.8924903330744
 30
0.0
 10
748.1451099593269
 20
977.8986203342138
 30
0.0
 10
744.0424123148787
 20
976.7952229789771
 30
0.0
 10
740.8765971893972
 20
976.1789294872151
 30
0.0
 10
738.7572168786883
 20
975.8265685001525
 30
0.0
  0
SPLINE
  5
41F9
102
{ACAD_REACTORS
330
4330
102
}
330
A
100
AcDbEntity
  8
HIDDEN
100
AcDbSpline
210
0.0
220
0.0
230
1.0
 70
     8
 71
     3
 72
    17
 73
    13
 74
     0
 42
0.000000001
 43
0.0000000001
 40
0.0
 40
0.0
 40
0.0
 40
0.0
 40
0.06488818714789
 40
0.1297763742957799
 40
0.1946645614436699
 40
0.25955274859156
 40
0.3244409357394499
 40
0.3893291228873399
 40
0.5191054971831199
 40
0.6488818714788998
 40
0.7786582457746798
 40
1.0
 40
1.0
 40
1.0
 40
1.0
 10
738.7572168786883
 20
975.8265685001525
 30
0.0
 10
736.7274843614668
 20
975.489112051383
 30
0.0
 10
732.6507693621843
 20
974.9214051263052
 30
0.0
 10
726.4991141514201
 20
974.25840792505
 30
0.0
 10
720.3092815564323
 20
973.70071270072
 30
0.0
 10
714.0708480178746
 20
973.2138283574614
 30
0.0
 10
707.7731590405765
 20
972.7615237689506
 30
0.0
 10
699.2826727232987
 20
972.1871462728777
 30
0.0
 10
688.514213870827
 20
971.4988433708086
 30
0.0
 10
675.3942520737419
 20
970.683401644983
 30
0.0
 10
659.0062115143464
 20
969.6790279197403
 30
0.0
 10
646.9209522686524
 20
968.9397760790644
 30
0.0
 10
639.2955125877288
 20
968.4733998062866
 30
0.0
  0
SPLINE
  5
41FA
102
{ACAD_REACTORS
330
4330
102
}
330
A
100
AcDbEntity
  8
HIDDEN
100
AcDbSpline
210
0.0
220
0.0
230
1.0
 70
     8
 71
     3
 72
    14
 73
    10
 74
     0
 42
0.000000001
 43
0.0000000001
 40
0.0
 40
0.0
 40
0.0
 40
0.0
 40
0.25
 40
0.25
 40
0.5
 40
0.5
 40
0.75
 40
0.75
 40
1.0
 40
1.0
 40
1.0
 40
1.0
 10
639.2955125877288
 20
968.4733998062884
 30
0.0
 10
638.6596535150838
 20
968.4345103000132
 30
0.0
 10
638.0269045877521
 20
968.3448804252521
 30
0.0
 10
636.7836154422857
 20
968.0664047232322
 30
0.0
 10
636.1730885391898
 20
967.8775618783193
 30
0.0
 10
634.9896969805359
 20
967.4054379171021
 30
0.0
 10
634.4168449985464
 20
967.1221618570262
 30
0.0
 10
633.3233035605317
 20
966.4683394505364
 30
0.0
 10
632.8026258158443
 20
966.0978001062585
 30
0.0
 10
632.3146193368902
 20
965.6883140497584
 30
0.0
  0
SPLINE
  5
4201
330
A
100
AcDbEntity
  8
MODEL
100
AcDbSpline
210
0.0
220
0.0
230
1.0
 70
    24
 71
     5
 72
    12
 73
     6
 74
     0
 42
0.000000001
 43
0.0000000001
 40
0.0
 40
0.0
 40
0.0
 40
0.0
 40
0.0
 40
0.0
 40
1.0
 40
1.0
 40
1.0
 40
1.0
 40
1.0
 40
1.0
 10
819.1572620450261
 20
945.7218930448298
 30
0.0
 10
820.0231063591946
 20
970.5218930448291
 30
0.0
 10
820.8889506733485
 20
995.3218930448293
 30
0.0
 10
821.754794987517
 20
1020.121893044829
 30
0.0
 10
822.6206393016782
 20
1044.92189304483
 30
0.0
 10
823.4864836158467
 20
1069.72189304483
 30
0.0
  0
SPLINE
  5
4203
102
{ACAD_REACTORS
330
4330
102
}
330
A
100
AcDbEntity
  8
HIDDEN
100
AcDbSpline
210
0.0
220
0.0
230
1.0
 70
     8
 71
     3
 72
    22
 73
    18
 74
     0
 42
0.000000001
 43
0.0000000001
 40
0.0
 40
0.0
 40
0.0
 40
0.0
 40
0.125
 40
0.125
 40
0.25
 40
0.25
 40
0.375
 40
0.375
 40
0.5
 40
0.5
 40
0.625
 40
0.625
 40
0.75
 40
0.75
 40
0.875
 40
0.875
 40
1.0
 40
1.0
 40
1.0
 40
1.0
 10
818.7969281770293
 20
1072.826568500152
 30
0.0
 10
818.6660284882109
 20
1072.826568500152
 30
0.0
 10
818.5351294394004
 20
1072.817988923548
 30
0.0
 10
818.2755697915582
 20
1072.783817248976
 30
0.0
 10
818.1469104615844
 20
1072.758225318087
 30
0.0
 10
817.8940316807293
 20
1072.690466655728
 30
0.0
 10
817.7698134662442
 20
1072.648300255551
 30
0.0
 10
817.5279423780976
 20
1072.54811397481
 30
0.0
 10
817.4102906870194
 20
1072.49009458409
 30
0.0
 10
817.1835657726278
 20
1072.359194899876
 30
0.0
 10
817.074493657843
 20
1072.286315246394
 30
0.0
 10
816.8667942430566
 20
1072.126941888424
 30
0.0
 10
816.7681679585676
 20
1072.040448963162
 30
0.0
 10
816.5830478376829
 20
1071.855328853564
 30
0.0
 10
816.4965549064091
 20
1071.75670257434
 30
0.0
 10
816.3371815357768
 20
1071.549003169269
 30
0.0
 10
816.2643018756517
 20
1071.439931058933
 30
0.0
 10
816.1988520266332
 20
1071.326568605728
 30
0.0
  0
SPLINE
  5
4204
102
{ACAD_REACTORS
330
4330
102
}
330
A
100
AcDbEntity
  8
HIDDEN
100
AcDbSpline
210
0.0
220
0.0
230
1.0
 70
     8
 71
     7
 72
    16
 73
     8
 74
     0
 42
0.000000001
 43
0.0000000001
 40
0.0
 40
0.0
 40
0.0
 40
0.0
 40
0.0
 40
0.0
 40
0.0
 40
0.0
 40
1.0
 40
1.0
 40
1.0
 40
1.0
 40
1.0
 40
1.0
 40
1.0
 40
1.0
 10
816.1988520345494
 20
1071.326568619442
 30
0.0
 10
806.2444230513956
 20
1054.08499347831
 30
0.0
 10
798.3402933608904
 20
1040.394706339905
 30
0.0
 10
792.0248885982164
 20
1029.458351020672
 30
0.0
 10
786.9152335450508
 20
1020.657028204264
 30
0.0
 10
782.7024440516707
 20
1013.513872165938
 30
0.0
 10
779.1434519426057
 20
1007.663451561695
 30
0.0
 10
776.048720694258
 20
1002.826568506531
 30
0.0
  0
LINE
  5
4209
102
{ACAD_REACTORS
330
4332
102
}
330
A
100
AcDbEntity
  8
HIDDEN
 48
0.5
100
AcDbLine
 10
1435.298982499518
 20
1002.826877549168
 30
-0.0000000000000191
 11
1435.29946434482
 21
1002.82656489184
 31
-0.0000000000000187
  0
LINE
  5
420B
102
{ACAD_REACTORS
330
4332
102
}
330
A
100
AcDbEntity
  8
HIDDEN
 48
0.5
100
AcDbLine
 10
1468.883267671261
 20
975.8265624067512
 30
-0.0000000000000095
 11
1468.885566440296
 21
975.8265647402382
 31
-0.0000000000000105
  0
LINE
  5
420F
102
{ACAD_REACTORS
330
4332
102
}
330
A
100
AcDbEntity
  8
HIDDEN
 48
0.5
100
AcDbLine
 10
1528.893911032528
 20
965.9100575359998
 30
-0.0000000000000095
 11
1539.63423133276
 21
956.8978587333486
 31
-0.0000000000000095
  0
LINE
  5
4215
330
A
100
AcDbEntity
  8
MODEL
100
AcDbLine
 10
1437.193807051019
 20
941.8265685001475
 30
-0.0000000000000095
 11
1430.811728559182
 21
941.8265685001475
 31
-0.0000000000000095
  0
LINE
  5
421A
330
A
100
AcDbEntity
  8
MODEL
100
AcDbLine
 10
1401.81599399544
 20
942.8265685001475
 30
-0.0000000000000095
 11
1395.31370520613
 21
942.8265685001475
 31
-0.0000000000000095
  0
LINE
  5
421D
330
A
100
AcDbEntity
  8
MODEL
100
AcDbLine
 10
1390.984483635308
 20
1072.826568500147
 30
-0.0000000000000095
 11
1392.675865782478
 21
1072.826568500147
 31
-0.0000000000000095
  0
LINE
  5
421E
102
{ACAD_REACTORS
330
4332
102
}
330
A
100
AcDbEntity
  8
HIDDEN
 48
0.5
100
AcDbLine
 10
1540.70541158917
 20
954.6520826233036
 30
-0.0000000000000095
 11
1540.876916576142
 21
944.826568500147
 31
-0.0000000000000095
  0
ARC
  5
4220
330
A
100
AcDbEntity
  8
MODEL
100
AcDbCircle
 10
1390.985407987615
 20
1069.826568500133
 30
0.0117528839530814
 40
3.0
210
8.449322261015646E-6
220
-1.850372069802786E-14
230
0.9999999999643046
100
AcDbArc
 50
90.03523690452442
 51
181.9986872486034
  0
ARC
  5
4222
330
A
100
AcDbEntity
  8
MODEL
100
AcDbCircle
 10
1430.811728559176
 20
944.8265685001475
 30
-0.0000000000788741
 40
3.0
100
AcDbArc
 50
221.8103148955921
 51
270.0000000001043
  0
ARC
  5
422A
330
A
100
AcDbEntity
  8
MODEL
100
AcDbCircle
 10
1395.31370520613
 20
945.8265685001402
 30
-0.0000000000788741
 40
3.0
100
AcDbArc
 50
181.9995597999163
 51
270.0
  0
ARC
  5
422B
102
{ACAD_REACTORS
330
4332
102
}
330
A
100
AcDbEntity
  8
HIDDEN
 48
0.5
100
AcDbCircle
 10
1537.705868503701
 20
954.5997254039912
 30
-0.0000000000788741
 40
3.0
100
AcDbArc
 50
0.9999999999757105
 51
49.99999999994515
  0
SPLINE
  5
422F
102
{ACAD_REACTORS
330
4332
102
}
330
A
100
AcDbEntity
  8
HIDDEN
 48
0.5
100
AcDbSpline
210
0.0
220
0.0
230
1.0
 70
     8
 71
     3
 72
    11
 73
     7
 74
     0
 42
0.000000001
 43
0.0000000001
 40
0.0
 40
0.0
 40
0.0
 40
0.0
 40
0.2271481154252753
 40
0.516967446110387
 40
0.8067867767955087
 40
1.0
 40
1.0
 40
1.0
 40
1.0
 10
1432.200659006332
 20
1007.847946616473
 30
-0.0000000000000023
 10
1432.423471557899
 20
1007.480915731563
 30
-0.0000000000000013
 10
1432.935086867721
 20
1006.64060315348
 30
-0.0000000000000018
 10
1433.752659328877
 20
1005.30795577122
 30
-0.0000000000000006
 10
1434.562190027917
 20
1004.001917803589
 30
-0.0000000000000253
 10
1435.086267762172
 20
1003.165249962849
 30
-0.0000000000000127
 10
1435.299458291269
 20
1002.826568466111
 30
-0.0000000000000191
  0
SPLINE
  5
4230
102
{ACAD_REACTORS
330
4332
102
}
330
A
100
AcDbEntity
  8
HIDDEN
 48
0.5
100
AcDbSpline
210
0.0
220
0.0
230
1.0
 70
     8
 71
     3
 72
    19
 73
    15
 74
     0
 42
0.000000001
 43
0.0000000001
 40
0.0
 40
0.0
 40
0.0
 40
0.0
 40
0.125
 40
0.25
 40
0.375
 40
0.4375
 40
0.5
 40
0.5625
 40
0.625
 40
0.6875
 40
0.75
 40
0.8125
 40
0.875
 40
1.0
 40
1.0
 40
1.0
 40
1.0
 10
1435.29945811484
 20
1002.826568500984
 30
-0.0000000000000095
 10
1436.325766912252
 20
1001.196113274259
 30
-0.0000000000000095
 10
1438.406806814493
 20
997.963507664253
 30
-0.0000000000000095
 10
1441.69683832348
 20
993.244820508547
 30
-0.0000000000000095
 10
1444.694979120728
 20
989.5045915246096
 30
-0.0000000000000095
 10
1447.337419291998
 20
986.7231520854125
 30
-0.0000000000000095
 10
1449.45860698899
 20
984.7745481856487
 30
-0.0000000000000095
 10
1451.709289012046
 20
983.005046435102
 30
-0.0000000000000095
 10
1454.063415872726
 20
981.4420409349927
 30
-0.0000000000000095
 10
1456.479325635084
 20
980.0959655898782
 30
-0.0000000000000095
 10
1458.927306229192
 20
978.9511190135031
 30
-0.0000000000000095
 10
1461.39705644879
 20
977.9780161405592
 30
-0.0000000000000095
 10
1464.708007942154
 20
976.871946231558
 30
-0.0000000000000095
 10
1467.20671021747
 20
976.2161102163241
 30
-0.0000000000000095
 10
1468.883267631221
 20
975.8265621292899
 30
-0.0000000000000095
  0
SPLINE
  5
4232
102
{ACAD_REACTORS
330
4332
102
}
330
A
100
AcDbEntity
  8
HIDDEN
 48
0.5
100
AcDbSpline
210
0.0
220
0.0
230
1.0
 70
     8
 71
     3
 72
    17
 73
    13
 74
     0
 42
0.000000001
 43
0.0000000001
 40
0.0
 40
0.0
 40
0.0
 40
0.0
 40
0.0668374822109191
 40
0.1336749644218383
 40
0.2005124466327574
 40
0.2673499288436766
 40
0.3341874110545957
 40
0.4010248932655149
 40
0.5346998576873532
 40
0.6683748221091914
 40
0.8020497865310298
 40
1.0
 40
1.0
 40
1.0
 40
1.0
 10
1468.883297697128
 20
975.8265621292899
 30
-0.0000000000000095
 10
1470.111508885459
 20
975.5411872802301
 30
-0.0000000000000095
 10
1472.579322213989
 20
975.0215065817843
 30
-0.0000000000000095
 10
1476.296147205145
 20
974.3573322067618
 30
-0.0000000000000095
 10
1480.009485296119
 20
973.7714478676148
 30
-0.0000000000000095
 10
1483.707940039711
 20
973.2439030949113
 30
-0.0000000000000095
 10
1487.379841514206
 20
972.7554756996046
 30
-0.0000000000000095
 10
1492.229520178378
 20
972.1440466044819
 30
-0.0000000000000095
 10
1498.211677434703
 20
971.4287186940574
 30
-0.0000000000000095
 10
1505.284413644224
 20
970.6081496528723
 30
-0.0000000000000095
 10
1513.397838782099
 20
969.681484934933
 30
-0.0000000000000095
 10
1519.124797803175
 20
969.0291504714487
 30
-0.0000000000000095
 10
1522.53812722397
 20
968.6404743123503
 30
-0.0000000000000095
  0
SPLINE
  5
4233
102
{ACAD_REACTORS
330
4332
102
}
330
A
100
AcDbEntity
  8
HIDDEN
 48
0.5
100
AcDbSpline
210
0.0
220
0.0
230
1.0
 70
     8
 71
     3
 72
    14
 73
    10
 74
     0
 42
0.000000001
 43
0.0000000001
 40
0.0
 40
0.0
 40
0.0
 40
0.0
 40
0.25
 40
0.25
 40
0.5
 40
0.5
 40
0.75
 40
0.75
 40
1.0
 40
1.0
 40
1.0
 40
1.0
 10
1522.53812722397
 20
968.6404743123503
 30
-0.0000000000000095
 10
1523.119122616128
 20
968.5743163095112
 30
-0.0000000000000095
 10
1523.69526926051
 20
968.4656162118854
 30
-0.0000000000000095
 10
1524.825591691875
 20
968.1654474104735
 30
-0.0000000000000095
 10
1525.379758883779
 20
967.9739809891989
 30
-0.0000000000000095
 10
1526.454300075389
 20
967.5123628182855
 30
-0.0000000000000095
 10
1526.974665904183
 20
967.2422145788232
 30
-0.0000000000000095
 10
1527.970502936527
 20
966.628994623833
 30
-0.0000000000000095
 10
1528.445966567637
 20
966.2859275712772
 30
-0.0000000000000095
 10
1528.893911032528
 20
965.9100575359998
 30
-0.0000000000000095
  0
SPLINE
  5
4239
102
{ACAD_REACTORS
330
4332
102
}
330
A
100
AcDbEntity
  8
HIDDEN
 48
0.5
100
AcDbSpline
210
0.0
220
0.0
230
1.0
 70
     8
 71
     3
 72
    22
 73
    18
 74
     0
 42
0.000000001
 43
0.0000000001
 40
0.0
 40
0.0
 40
0.0
 40
0.0
 40
0.125
 40
0.125
 40
0.25
 40
0.25
 40
0.375
 40
0.375
 40
0.5
 40
0.5
 40
0.625
 40
0.625
 40
0.75
 40
0.75
 40
0.875
 40
0.875
 40
1.0
 40
1.0
 40
1.0
 40
1.0
 10
1392.675865782478
 20
1072.826568500147
 30
-0.0000000000000095
 10
1392.806765472877
 20
1072.826568500147
 30
-0.0000000000000095
 10
1392.937664523268
 20
1072.81798892333
 30
-0.0000000000000095
 10
1393.197224174193
 20
1072.783817247933
 30
-0.0000000000000095
 10
1393.325883505659
 20
1072.758225316438
 30
-0.0000000000000095
 10
1393.578762289355
 20
1072.690466652458
 30
-0.0000000000000095
 10
1393.702980505181
 20
1072.648300251277
 30
-0.0000000000000095
 10
1393.944851595777
 20
1072.548113968174
 30
-0.0000000000000095
 10
1394.062503287965
 20
1072.490094576105
 30
-0.0000000000000095
 10
1394.289228204267
 20
1072.359194888873
 30
-0.0000000000000095
 10
1394.398300319848
 20
1072.286315233739
 30
-0.0000000000000095
 10
1394.605999735883
 20
1072.126941872202
 30
-0.0000000000000095
 10
1394.704626020823
 20
1072.040448945032
 30
-0.0000000000000095
 10
1394.889746142184
 20
1071.855328831437
 30
-0.0000000000000095
 10
1394.976239073492
 20
1071.756702550135
 30
-0.0000000000000095
 10
1395.13561244375
 20
1071.549003140791
 30
-0.0000000000000095
 10
1395.208492103471
 20
1071.439931028269
 30
-0.0000000000000095
 10
1395.273941951844
 20
1071.326568572863
 30
-0.0000000000000095
  0
SPLINE
  5
423A
102
{ACAD_REACTORS
330
4332
102
}
330
A
100
AcDbEntity
  8
HIDDEN
 48
0.5
100
AcDbSpline
210
0.0
220
0.0
230
1.0
 70
     8
 71
     7
 72
    16
 73
     8
 74
     0
 42
0.000000001
 43
0.0000000001
 40
0.0
 40
0.0
 40
0.0
 40
0.0
 40
0.0
 40
0.0
 40
0.0
 40
0.0
 40
1.0
 40
1.0
 40
1.0
 40
1.0
 40
1.0
 40
1.0
 40
1.0
 40
1.0
 10
1395.273941942374
 20
1071.326568589263
 30
-0.0000000000000095
 10
1405.588682112691
 20
1053.46091570228
 30
-0.0000000000000095
 10
1413.625999657277
 20
1039.53992293789
 30
-0.0000000000000095
 10
1419.93072127712
 20
1028.62154379827
 30
-0.0000000000000095
 10
1424.943120479191
 20
1019.978458231629
 30
-0.0000000000000095
 10
1429.008714912236
 20
1013.057664917878
 30
-0.0000000000000095
 10
1432.393202480418
 20
1007.443619140411
 30
-0.0000000000000095
 10
1435.299458115371
 20
1002.826568500147
 30
-0.0000000000000095
  0
LINE
  5
4240
330
A
100
AcDbEntity
  8
MODEL
100
AcDbLine
 10
1387.987233158268
 20
1069.721938703683
 30
0.0
 11
1392.315511604114
 21
945.7218712654808
 31
-0.0000000000000248
  0
LINE
  5
4245
102
{ACAD_REACTORS
330
4332
102
}
330
A
100
AcDbEntity
  8
HIDDEN
 48
0.5
100
AcDbLine
 10
1690.454850652766
 20
1002.826877549168
 30
-0.0000000000000191
 11
1690.454368807464
 21
1002.82656489184
 31
-0.0000000000000187
  0
LINE
  5
4247
102
{ACAD_REACTORS
330
4332
102
}
330
A
100
AcDbEntity
  8
HIDDEN
 48
0.5
100
AcDbLine
 10
1656.870565481024
 20
975.8265624067508
 30
-0.0000000000000095
 11
1656.868266711988
 21
975.8265647402377
 31
-0.0000000000000105
  0
LINE
  5
424B
102
{ACAD_REACTORS
330
4332
102
}
330
A
100
AcDbEntity
  8
HIDDEN
 48
0.5
100
AcDbLine
 10
1596.859922119756
 20
965.9100575359998
 30
-0.0000000000000095
 11
1586.119601819524
 21
956.8978587333486
 31
-0.0000000000000095
  0
LINE
  5
4251
330
A
100
AcDbEntity
  8
MODEL
100
AcDbLine
 10
1688.560026101266
 20
941.826568500147
 30
-0.0000000000000095
 11
1694.942104593103
 21
941.826568500147
 31
-0.0000000000000095
  0
LINE
  5
4256
330
A
100
AcDbEntity
  8
MODEL
100
AcDbLine
 10
1723.937839156844
 20
942.826568500147
 30
-0.0000000000000095
 11
1730.440127946154
 21
942.826568500147
 31
-0.0000000000000095
  0
LINE
  5
4259
330
A
100
AcDbEntity
  8
MODEL
100
AcDbLine
 10
1734.769349516977
 20
1072.826568500147
 30
-0.0000000000000095
 11
1733.077967369807
 21
1072.826568500147
 31
-0.0000000000000095
  0
LINE
  5
425A
102
{ACAD_REACTORS
330
4332
102
}
330
A
100
AcDbEntity
  8
HIDDEN
 48
0.5
100
AcDbLine
 10
1585.048421563115
 20
954.6520826233036
 30
-0.0000000000000095
 11
1584.876916576142
 21
944.826568500147
 31
-0.0000000000000095
  0
ARC
  5
425C
330
A
100
AcDbEntity
  8
MODEL
100
AcDbCircle
 10
1734.768425053094
 20
1069.826568500132
 30
-0.0146576174918272
 40
3.0
210
-8.449322261015646E-6
220
-1.850371655905367E-14
230
0.9999999999643046
100
AcDbArc
 50
358.0013127513966
 51
89.96476309563626
  0
ARC
  5
425E
330
A
100
AcDbEntity
  8
MODEL
100
AcDbCircle
 10
1694.942104593108
 20
944.826568500147
 30
-0.0000000000788741
 40
3.0
100
AcDbArc
 50
270.0
 51
318.189685104408
  0
ARC
  5
4266
330
A
100
AcDbEntity
  8
MODEL
100
AcDbCircle
 10
1730.440127946154
 20
945.8265685001397
 30
-0.0000000000788741
 40
3.0
100
AcDbArc
 50
270.0
 51
358.0004402000836
  0
ARC
  5
4267
102
{ACAD_REACTORS
330
4332
102
}
330
A
100
AcDbEntity
  8
HIDDEN
 48
0.5
100
AcDbCircle
 10
1588.047964648584
 20
954.5997254039912
 30
-0.0000000000788741
 40
3.0
100
AcDbArc
 50
129.999999999987
 51
179.0000000000243
  0
SPLINE
  5
426B
102
{ACAD_REACTORS
330
4332
102
}
330
A
100
AcDbEntity
  8
HIDDEN
 48
0.5
100
AcDbSpline
210
0.0
220
0.0
230
1.0
 70
     8
 71
     3
 72
    11
 73
     7
 74
     0
 42
0.000000001
 43
0.0000000001
 40
0.0
 40
0.0
 40
0.0
 40
0.0
 40
0.2271481154252753
 40
0.516967446110387
 40
0.8067867767955087
 40
1.0
 40
1.0
 40
1.0
 40
1.0
 10
1693.553174145952
 20
1007.847946616473
 30
-0.0000000000000023
 10
1693.330361594386
 20
1007.480915731562
 30
-0.0000000000000013
 10
1692.818746284563
 20
1006.64060315348
 30
-0.0000000000000018
 10
1692.001173823408
 20
1005.30795577122
 30
-0.0000000000000006
 10
1691.191643124368
 20
1004.001917803588
 30
-0.0000000000000253
 10
1690.667565390113
 20
1003.165249962848
 30
-0.0000000000000127
 10
1690.454374861016
 20
1002.82656846611
 30
-0.0000000000000191
  0
SPLINE
  5
426C
102
{ACAD_REACTORS
330
4332
102
}
330
A
100
AcDbEntity
  8
HIDDEN
 48
0.5
100
AcDbSpline
210
0.0
220
0.0
230
1.0
 70
     8
 71
     3
 72
    19
 73
    15
 74
     0
 42
0.000000001
 43
0.0000000001
 40
0.0
 40
0.0
 40
0.0
 40
0.0
 40
0.125
 40
0.25
 40
0.375
 40
0.4375
 40
0.5
 40
0.5625
 40
0.625
 40
0.6875
 40
0.75
 40
0.8125
 40
0.875
 40
1.0
 40
1.0
 40
1.0
 40
1.0
 10
1690.454375037445
 20
1002.826568500984
 30
-0.0000000000000095
 10
1689.428066240032
 20
1001.196113274259
 30
-0.0000000000000095
 10
1687.347026337791
 20
997.9635076642526
 30
-0.0000000000000095
 10
1684.056994828805
 20
993.2448205085466
 30
-0.0000000000000095
 10
1681.058854031557
 20
989.5045915246092
 30
-0.0000000000000095
 10
1678.416413860286
 20
986.723152085412
 30
-0.0000000000000095
 10
1676.295226163295
 20
984.7745481856482
 30
-0.0000000000000095
 10
1674.044544140239
 20
983.0050464351016
 30
-0.0000000000000095
 10
1671.690417279558
 20
981.4420409349923
 30
-0.0000000000000095
 10
1669.274507517201
 20
980.0959655898778
 30
-0.0000000000000095
 10
1666.826526923092
 20
978.9511190135026
 30
-0.0000000000000095
 10
1664.356776703495
 20
977.9780161405588
 30
-0.0000000000000095
 10
1661.045825210131
 20
976.8719462315576
 30
-0.0000000000000095
 10
1658.547122934815
 20
976.2161102163236
 30
-0.0000000000000095
 10
1656.870565521063
 20
975.8265621292894
 30
-0.0000000000000095
  0
SPLINE
  5
426E
102
{ACAD_REACTORS
330
4332
102
}
330
A
100
AcDbEntity
  8
HIDDEN
 48
0.5
100
AcDbSpline
210
0.0
220
0.0
230
1.0
 70
     8
 71
     3
 72
    17
 73
    13
 74
     0
 42
0.000000001
 43
0.0000000001
 40
0.0
 40
0.0
 40
0.0
 40
0.0
 40
0.0668374822109191
 40
0.1336749644218383
 40
0.2005124466327574
 40
0.2673499288436766
 40
0.3341874110545957
 40
0.4010248932655149
 40
0.5346998576873532
 40
0.6683748221091914
 40
0.8020497865310298
 40
1.0
 40
1.0
 40
1.0
 40
1.0
 10
1656.870535455157
 20
975.8265621292894
 30
-0.0000000000000095
 10
1655.642324266826
 20
975.5411872802297
 30
-0.0000000000000095
 10
1653.174510938295
 20
975.0215065817838
 30
-0.0000000000000095
 10
1649.45768594714
 20
974.3573322067614
 30
-0.0000000000000095
 10
1645.744347856165
 20
973.7714478676144
 30
-0.0000000000000095
 10
1642.045893112574
 20
973.2439030949108
 30
-0.0000000000000095
 10
1638.373991638078
 20
972.7554756996042
 30
-0.0000000000000095
 10
1633.524312973906
 20
972.1440466044814
 30
-0.0000000000000095
 10
1627.542155717581
 20
971.4287186940574
 30
-0.0000000000000095
 10
1620.469419508061
 20
970.6081496528723
 30
-0.0000000000000095
 10
1612.355994370186
 20
969.681484934933
 30
-0.0000000000000095
 10
1606.629035349109
 20
969.0291504714487
 30
-0.0000000000000095
 10
1603.215705928314
 20
968.6404743123503
 30
-0.0000000000000095
  0
SPLINE
  5
426F
102
{ACAD_REACTORS
330
4332
102
}
330
A
100
AcDbEntity
  8
HIDDEN
 48
0.5
100
AcDbSpline
210
0.0
220
0.0
230
1.0
 70
     8
 71
     3
 72
    14
 73
    10
 74
     0
 42
0.000000001
 43
0.0000000001
 40
0.0
 40
0.0
 40
0.0
 40
0.0
 40
0.25
 40
0.25
 40
0.5
 40
0.5
 40
0.75
 40
0.75
 40
1.0
 40
1.0
 40
1.0
 40
1.0
 10
1603.215705928314
 20
968.6404743123503
 30
-0.0000000000000095
 10
1602.634710536156
 20
968.5743163095112
 30
-0.0000000000000095
 10
1602.058563891775
 20
968.4656162118854
 30
-0.0000000000000095
 10
1600.928241460409
 20
968.1654474104735
 30
-0.0000000000000095
 10
1600.374074268506
 20
967.9739809891989
 30
-0.0000000000000095
 10
1599.299533076895
 20
967.5123628182855
 30
-0.0000000000000095
 10
1598.779167248102
 20
967.2422145788232
 30
-0.0000000000000095
 10
1597.783330215758
 20
966.628994623833
 30
-0.0000000000000095
 10
1597.307866584648
 20
966.2859275712772
 30
-0.0000000000000095
 10
1596.859922119756
 20
965.9100575359998
 30
-0.0000000000000095
  0
SPLINE
  5
4275
102
{ACAD_REACTORS
330
4332
102
}
330
A
100
AcDbEntity
  8
HIDDEN
 48
0.5
100
AcDbSpline
210
0.0
220
0.0
230
1.0
 70
     8
 71
     3
 72
    22
 73
    18
 74
     0
 42
0.000000001
 43
0.0000000001
 40
0.0
 40
0.0
 40
0.0
 40
0.0
 40
0.125
 40
0.125
 40
0.25
 40
0.25
 40
0.375
 40
0.375
 40
0.5
 40
0.5
 40
0.625
 40
0.625
 40
0.75
 40
0.75
 40
0.875
 40
0.875
 40
1.0
 40
1.0
 40
1.0
 40
1.0
 10
1733.077967369807
 20
1072.826568500147
 30
-0.0000000000000095
 10
1732.947067679408
 20
1072.826568500147
 30
-0.0000000000000095
 10
1732.816168629017
 20
1072.81798892333
 30
-0.0000000000000095
 10
1732.556608978091
 20
1072.783817247932
 30
-0.0000000000000095
 10
1732.427949646626
 20
1072.758225316437
 30
-0.0000000000000095
 10
1732.175070862929
 20
1072.690466652458
 30
-0.0000000000000095
 10
1732.050852647104
 20
1072.648300251277
 30
-0.0000000000000095
 10
1731.808981556507
 20
1072.548113968173
 30
-0.0000000000000095
 10
1731.691329864319
 20
1072.490094576105
 30
-0.0000000000000095
 10
1731.464604948018
 20
1072.359194888872
 30
-0.0000000000000095
 10
1731.355532832436
 20
1072.286315233739
 30
-0.0000000000000095
 10
1731.147833416402
 20
1072.126941872201
 30
-0.0000000000000095
 10
1731.049207131462
 20
1072.040448945031
 30
-0.0000000000000095
 10
1730.864087010101
 20
1071.855328831437
 30
-0.0000000000000095
 10
1730.777594078792
 20
1071.756702550135
 30
-0.0000000000000095
 10
1730.618220708535
 20
1071.549003140791
 30
-0.0000000000000095
 10
1730.545341048813
 20
1071.439931028269
 30
-0.0000000000000095
 10
1730.479891200441
 20
1071.326568572863
 30
-0.0000000000000095
  0
SPLINE
  5
4276
102
{ACAD_REACTORS
330
4332
102
}
330
A
100
AcDbEntity
  8
HIDDEN
 48
0.5
100
AcDbSpline
210
0.0
220
0.0
230
1.0
 70
     8
 71
     7
 72
    16
 73
     8
 74
     0
 42
0.000000001
 43
0.0000000001
 40
0.0
 40
0.0
 40
0.0
 40
0.0
 40
0.0
 40
0.0
 40
0.0
 40
0.0
 40
1.0
 40
1.0
 40
1.0
 40
1.0
 40
1.0
 40
1.0
 40
1.0
 40
1.0
 10
1730.47989120991
 20
1071.326568589263
 30
-0.0000000000000095
 10
1720.165151039593
 20
1053.46091570228
 30
-0.0000000000000095
 10
1712.127833495007
 20
1039.53992293789
 30
-0.0000000000000095
 10
1705.823111875164
 20
1028.621543798269
 30
-0.0000000000000095
 10
1700.810712673094
 20
1019.978458231629
 30
-0.0000000000000095
 10
1696.745118240049
 20
1013.057664917877
 30
-0.0000000000000095
 10
1693.360630671866
 20
1007.44361914041
 30
-0.0000000000000095
 10
1690.454375036914
 20
1002.826568500147
 30
-0.0000000000000095
  0
LINE
  5
427C
330
A
100
AcDbEntity
  8
MODEL
100
AcDbLine
 10
1737.766599994016
 20
1069.721938703683
 30
0.0
 11
1733.43832154817
 21
945.7218712654803
 31
-0.0000000000000248
  0
DIMENSION
  5
4285
330
A
100
AcDbEntity
  8
Dim
 48
0.5
100
AcDbDimension
  2
*D7
 10
1304.852772768
 20
942.826568500154
 30
0.0
 11
1304.852772768
 21
1007.826568500154
 31
0.0
 70
   160
 71
     5
 42
130.0
 73
     0
 74
     0
 75
     0
  3
tform線あり
100
AcDbAlignedDimension
 13
1381.581819662624
 23
1072.826568500154
 33
0.0
 14
1381.581819662624
 24
942.826568500154
 34
-0.0000000000000181
 50
-90.00000000000001
100
AcDbRotatedDimension
  0
DIMENSION
  5
4302
330
A
100
AcDbEntity
  8
Dim
  6
Continuous
100
AcDbDimension
  2
*D8
 10
1562.83585312528
 20
1072.826568500154
 30
0.0
 11
1562.83585312528
 21
1176.953908343904
 31
0.0
 70
   160
  1
105 (深さ)
 71
     5
 42
104.6680576310898
 73
     0
 74
     1
 75
     1
  3
tform線あり
100
AcDbAlignedDimension
 13
1562.876917053783
 23
968.1585108690642
 33
-0.0000000000000094
 14
1562.876916576142
 24
1072.826568500154
 34
0.0
 50
90.0
100
AcDbRotatedDimension
1001
ACAD
1000
DSTYLE
1002
{
1070
   144
1040
1.0
1002
}
  0
DIMENSION
  5
4312
330
A
100
AcDbEntity
  8
Dim
  6
Continuous
100
AcDbDimension
  2
*D9
 10
823.7043157223911
 20
2347.043384095262
 30
0.0
 11
598.704315722391
 21
2347.043384095262
 31
0.0
 70
   160
 71
     5
 42
450.0
 73
     0
 74
     0
 75
     0
  3
tform線あり
100
AcDbAlignedDimension
 13
373.7043157223911
 23
2244.106209976733
 33
0.0
 14
823.7043157223911
 24
2244.106209976733
 34
0.0
100
AcDbRotatedDimension
1001
ACAD
1000
DSTYLE
1002
{
1070
   144
1040
1.0
1002
}
  0
DIMENSION
  5
431F
330
A
100
AcDbEntity
  8
Dim
  6
Continuous
100
AcDbDimension
  2
*D10
 10
967.787534365385
 20
1891.057047449692
 30
0.0
 11
945.571225771635
 21
2066.057047449692
 31
0.0
 70
    32
 71
     5
 42
349.9999999999998
 73
     0
 74
     0
 75
     0
  3
tform線あり
100
AcDbAlignedDimension
 13
835.7828366767379
 23
2241.057047449692
 33
0.0
 14
835.7828366767379
 24
1891.057047449692
 34
0.0
 50
90.0
100
AcDbRotatedDimension
1001
ACAD
1000
DSTYLE
1002
{
1070
   144
1040
1.0
1002
}
  0
MTEXT
  5
432C
330
A
100
AcDbEntity
  8
Dim
390
1D
100
AcDbMText
 10
1212.540982289765
 20
1682.28889971568
 30
34.99521132346015
 40
24.0
 41
1169.771715461011
 46
120.6272086110942
 71
     1
 72
     1
  1
{※陶器製品には寸法公差があります。\P  必ず現物を合わせてカウンターに切込を\P  行ってください。}
  7
ＭＳ ゴシック
 73
     1
 44
1.174240107638677
1001
ACAD
1000
ACAD_MTEXT_DEFINED_HEIGHT_BEGIN
1070
    46
1040
120.6272086110942
1000
ACAD_MTEXT_DEFINED_HEIGHT_END
  0
LINE
  5
433C
102
{ACAD_REACTORS
330
4379
102
}
330
A
100
AcDbEntity
  8
HIDDEN
100
AcDbLine
 10
1723.523947823666
 20
2066.165465910007
 30
0.0
 11
1723.523947823666
 21
2187.592443740813
 31
0.0
  0
LINE
  5
433D
102
{ACAD_REACTORS
330
4379
102
}
330
A
100
AcDbEntity
  8
HIDDEN
100
AcDbLine
 10
1723.523947823666
 20
1944.737143322068
 30
0.0
 11
1723.523947823666
 21
2066.165465910007
 31
0.0
  0
LINE
  5
433E
102
{ACAD_REACTORS
330
4379
102
}
330
A
100
AcDbEntity
  8
HIDDEN
100
AcDbLine
 10
1676.479667247248
 20
2234.635465910006
 30
0.0
 11
1333.626889706717
 21
2234.635465910006
 31
0.0
  0
LINE
  5
433F
102
{ACAD_REACTORS
330
4379
102
}
330
A
100
AcDbEntity
  8
HIDDEN
100
AcDbLine
 10
1333.625625603247
 20
1897.695465910007
 30
0.0
 11
1676.477068006152
 21
1897.695465910007
 31
0.0
  0
LINE
  5
4340
102
{ACAD_REACTORS
330
4379
102
}
330
A
100
AcDbEntity
  8
HIDDEN
100
AcDbLine
 10
1286.583947823671
 20
2066.165465910007
 30
0.0
 11
1286.583947823671
 21
1944.741853139131
 31
0.0
  0
LINE
  5
4341
102
{ACAD_REACTORS
330
4379
102
}
330
A
100
AcDbEntity
  8
HIDDEN
100
AcDbLine
 10
1286.583947823671
 20
2187.593413969501
 30
0.0
 11
1286.583947823671
 21
2066.165465910007
 31
0.0
  0
LINE
  5
4342
102
{ACAD_REACTORS
330
4379
102
}
330
A
100
AcDbEntity
  8
HIDDEN
100
AcDbLine
 10
1729.947356882298
 20
1897.270229332436
 30
0.0
 11
1729.947356882298
 21
2235.060702487578
 31
0.0
  0
LINE
  5
4343
102
{ACAD_REACTORS
330
4379
102
}
330
A
100
AcDbEntity
  8
HIDDEN
100
AcDbLine
 10
1280.160538765038
 20
2235.060702487578
 30
0.0
 11
1280.160538765038
 21
1897.270229332436
 31
0.0
  0
LINE
  5
4344
102
{ACAD_REACTORS
330
4379
102
}
330
A
100
AcDbEntity
  8
HIDDEN
100
AcDbLine
 10
1286.158711246095
 20
1891.272056851377
 30
0.0
 11
1723.949184401241
 21
1891.272056851377
 31
0.0
  0
LINE
  5
4345
102
{ACAD_REACTORS
330
4379
102
}
330
A
100
AcDbEntity
  8
HIDDEN
100
AcDbLine
 10
1723.949184401241
 20
2241.058874968635
 30
0.0
 11
1286.158711246095
 21
2241.058874968635
 31
0.0
  0
CIRCLE
  5
4346
330
A
100
AcDbEntity
  8
HIDDEN
100
AcDbCircle
 10
1505.053947823672
 20
2066.165465910007
 30
0.0
 40
22.0
  0
ELLIPSE
  5
4347
102
{ACAD_REACTORS
330
4379
102
}
330
A
100
AcDbEntity
  8
HIDDEN
100
AcDbEllipse
 10
1286.162367397938
 20
1897.273885484273
 30
0.0
 11
4.242643834021492
 21
4.242643834021492
 31
0.0
210
0.0
220
0.0
230
1.0
 40
0.9999992582684775
 41
2.35680347777785
 42
3.926381829401736
  0
ELLIPSE
  5
4348
102
{ACAD_REACTORS
330
4379
102
}
330
A
100
AcDbEntity
  8
HIDDEN
100
AcDbEllipse
 10
1286.162367397938
 20
2235.057046335735
 30
0.0
 11
-4.24264383402336
 21
4.242643834023361
 31
0.0
210
0.0
220
0.0
230
1.0
 40
0.9999992582682146
 41
5.49839613136781
 42
7.06797448299136
  0
ELLIPSE
  5
4349
102
{ACAD_REACTORS
330
4379
102
}
330
A
100
AcDbEntity
  8
HIDDEN
100
AcDbEllipse
 10
1723.945528249406
 20
1897.273885484275
 30
0.0
 11
-4.24264383402336
 21
4.242643834023361
 31
0.0
210
0.0
220
0.0
230
1.0
 40
0.9999992582682146
 41
2.356803477778016
 42
3.926381829401567
  0
ELLIPSE
  5
434A
102
{ACAD_REACTORS
330
4379
102
}
330
A
100
AcDbEntity
  8
HIDDEN
100
AcDbEllipse
 10
1723.945528249406
 20
2235.057046335739
 30
0.0
 11
4.242643834021492
 21
4.242643834021492
 31
0.0
210
0.0
220
0.0
230
1.0
 40
0.9999992582684775
 41
5.498396131367643
 42
7.067974482991529
  0
SPLINE
  5
434B
102
{ACAD_REACTORS
330
4379
102
}
330
A
100
AcDbEntity
  8
HIDDEN
100
AcDbSpline
210
0.0
220
0.0
230
1.0
 70
     8
 71
     3
 72
    32
 73
    28
 74
     0
 42
0.000000001
 43
0.0000000001
 40
0.0
 40
0.0
 40
0.0
 40
0.0
 40
0.0383276254126171
 40
0.0383276254126171
 40
0.1151989417119811
 40
0.1151989417119811
 40
0.192070258011345
 40
0.192070258011345
 40
0.3458128906100717
 40
0.3458128906100717
 40
0.4226842069094349
 40
0.4226842069094349
 40
0.499555523208798
 40
0.499555523208798
 40
0.5764268395081612
 40
0.5764268395081612
 40
0.6532981558075244
 40
0.6532981558075244
 40
0.7301694721068874
 40
0.7301694721068874
 40
0.8070407884062504
 40
0.8070407884062504
 40
0.8839121047056137
 40
0.8839121047056137
 40
0.9607834210049767
 40
0.9607834210049767
 40
1.0
 40
1.0
 40
1.0
 40
1.0
 10
1676.477079936897
 20
1897.68838913747
 30
0.0
 10
1677.449283372469
 20
1897.689890022427
 30
0.0
 10
1678.42141065803
 20
1897.693169195606
 30
0.0
 10
1681.342913032564
 20
1897.711424708595
 30
0.0
 10
1683.290450511592
 20
1897.769313709879
 30
0.0
 10
1687.175675543611
 20
1898.115111441085
 30
0.0
 10
1689.12136719911
 20
1898.400779162707
 30
0.0
 10
1694.889160958116
 20
1899.639598832876
 30
0.0
 10
1698.562412127711
 20
1900.935042917047
 30
0.0
 10
1703.795258693729
 20
1903.63475176018
 30
0.0
 10
1705.483579652301
 20
1904.662260081194
 30
0.0
 10
1708.642278766155
 20
1906.931845006145
 30
0.0
 10
1710.125917598871
 20
1908.181251499128
 30
0.0
 10
1712.887899259713
 20
1910.925907390702
 30
0.0
 10
1714.176181756306
 20
1912.437027385065
 30
0.0
 10
1716.478802009359
 20
1915.613055828307
 30
0.0
 10
1717.498753746386
 20
1917.276802507339
 30
0.0
 10
1719.304121423182
 20
1920.739513511907
 30
0.0
 10
1720.093235641496
 20
1922.549386297173
 30
0.0
 10
1721.422005756042
 20
1926.24860391462
 30
0.0
 10
1721.95913034854
 20
1928.127040763567
 30
0.0
 10
1722.790574542047
 20
1931.938916555579
 30
0.0
 10
1723.082991030624
 20
1933.872786606625
 30
0.0
 10
1723.443475957993
 20
1937.7913477914
 30
0.0
 10
1723.50587511055
 20
1939.761295396645
 30
0.0
 10
1723.52642822493
 20
1942.730753670749
 30
0.0
 10
1723.530107594259
 20
1943.733929522527
 30
0.0
 10
1723.531741514631
 20
1944.737130090026
 30
0.0
  0
SPLINE
  5
434C
102
{ACAD_REACTORS
330
4379
102
}
330
A
100
AcDbEntity
  8
HIDDEN
100
AcDbSpline
210
0.0
220
0.0
230
1.0
 70
     8
 71
     3
 72
    32
 73
    28
 74
     0
 42
0.000000001
 43
0.0000000001
 40
0.0
 40
0.0
 40
0.0
 40
0.0
 40
0.0382714441866694
 40
0.0382714441866694
 40
0.1151440021869845
 40
0.1151440021869845
 40
0.1920165601872995
 40
0.1920165601872995
 40
0.345761676187931
 40
0.345761676187931
 40
0.4226342341882465
 40
0.4226342341882465
 40
0.4995067921885619
 40
0.4995067921885619
 40
0.5763793501888773
 40
0.5763793501888773
 40
0.653251908189193
 40
0.653251908189193
 40
0.7301244661895084
 40
0.7301244661895084
 40
0.8069970241898238
 40
0.8069970241898238
 40
0.8838695821901392
 40
0.8838695821901392
 40
0.9607421401904547
 40
0.9607421401904547
 40
1.0
 40
1.0
 40
1.0
 40
1.0
 10
1723.530942681504
 20
2187.5924367901
 30
0.0
 10
1723.529449321159
 20
2188.563207771303
 30
0.0
 10
1723.526185906322
 20
2189.533903004513
 30
0.0
 10
1723.507980704464
 20
2192.453991349807
 30
0.0
 10
1723.450114889606
 20
2194.401547564238
 30
0.0
 10
1723.104347282115
 20
2198.286815796989
 30
0.0
 10
1722.818682301619
 20
2200.23256574316
 30
0.0
 10
1721.579928692864
 20
2206.000279035533
 30
0.0
 10
1720.284535173396
 20
2209.67352961262
 30
0.0
 10
1717.584856734848
 20
2214.906440282067
 30
0.0
 10
1716.557385454089
 20
2216.594736127355
 30
0.0
 10
1714.287857103879
 20
2219.753434496127
 30
0.0
 10
1713.038474735575
 20
2221.23708531013
 30
0.0
 10
1710.293848260586
 20
2223.999109162868
 30
0.0
 10
1708.782732212294
 20
2225.287419841349
 30
0.0
 10
1705.606754617995
 20
2227.590061722457
 30
0.0
 10
1703.943026690435
 20
2228.610029925566
 30
0.0
 10
1700.480338711434
 20
2230.415436181119
 30
0.0
 10
1698.670462278188
 20
2231.204575013747
 30
0.0
 10
1694.971280885784
 20
2232.533379259413
 30
0.0
 10
1693.092856290303
 20
2233.070524993128
 30
0.0
 10
1689.280992151919
 20
2233.902011854462
 30
0.0
 10
1687.347121154181
 20
2234.194448786483
 30
0.0
 10
1683.428546361564
 20
2234.554975670971
 30
0.0
 10
1681.458616574306
 20
2234.617398779418
 30
0.0
 10
1678.488130217095
 20
2234.638002260564
 30
0.0
 10
1677.483918503113
 20
2234.641698028349
 30
0.0
 10
1676.47968197017
 20
2234.643340442707
 30
0.0
  0
SPLINE
  5
4351
102
{ACAD_REACTORS
330
4379
102
}
330
A
100
AcDbEntity
  8
HIDDEN
100
AcDbSpline
210
0.0
220
0.0
230
1.0
 70
     8
 71
     3
 72
    32
 73
    28
 74
     0
 42
0.000000001
 43
0.0000000001
 40
0.0
 40
0.0
 40
0.0
 40
0.0
 40
0.0382776534388891
 40
0.0382776534388891
 40
0.1151525742772254
 40
0.1151525742772254
 40
0.1920274951155617
 40
0.1920274951155617
 40
0.3457773367922332
 40
0.3457773367922332
 40
0.4226522576305688
 40
0.4226522576305688
 40
0.4995271784689043
 40
0.4995271784689043
 40
0.5764020993072398
 40
0.5764020993072398
 40
0.6532770201455752
 40
0.6532770201455752
 40
0.7301519409839108
 40
0.7301519409839108
 40
0.8070268618222461
 40
0.8070268618222461
 40
0.8839017826605817
 40
0.8839017826605817
 40
0.9607767034989172
 40
0.9607767034989172
 40
1.0
 40
1.0
 40
1.0
 40
1.0
 10
1333.626876425941
 20
2234.642536591352
 30
0.0
 10
1332.655986290837
 20
2234.641032934537
 30
0.0
 10
1331.685172158814
 20
2234.63775442096
 30
0.0
 10
1328.764982614772
 20
2234.619507111419
 30
0.0
 10
1326.817445135745
 20
2234.561618110135
 30
0.0
 10
1322.932220103725
 20
2234.215820378929
 30
0.0
 10
1320.986528448226
 20
2233.930152657304
 30
0.0
 10
1315.218734689221
 20
2232.691332987138
 30
0.0
 10
1311.545483519626
 20
2231.395888902963
 30
0.0
 10
1306.312636953615
 20
2228.696180059832
 30
0.0
 10
1304.624315995043
 20
2227.668671738819
 30
0.0
 10
1301.465616881189
 20
2225.399086813869
 30
0.0
 10
1299.981978048473
 20
2224.149680320882
 30
0.0
 10
1297.219996387631
 20
2221.405024429309
 30
0.0
 10
1295.931713891031
 20
2219.893904434949
 30
0.0
 10
1293.629093637978
 20
2216.717875991705
 30
0.0
 10
1292.609141900958
 20
2215.054129312674
 30
0.0
 10
1290.803774224154
 20
2211.591418308107
 30
0.0
 10
1290.014660005847
 20
2209.78154552284
 30
0.0
 10
1288.685889891302
 20
2206.08232790539
 30
0.0
 10
1288.148765298797
 20
2204.203891056443
 30
0.0
 10
1287.317321105289
 20
2200.392015264432
 30
0.0
 10
1287.02490461672
 20
2198.458145213387
 30
0.0
 10
1286.664419689351
 20
2194.53958402861
 30
0.0
 10
1286.602020536794
 20
2192.569636423367
 30
0.0
 10
1286.581466558699
 20
2189.600053362991
 30
0.0
 10
1286.577787137733
 20
2188.596752715132
 30
0.0
 10
1286.576153523038
 20
2187.593427347233
 30
0.0
  0
SPLINE
  5
4352
102
{ACAD_REACTORS
330
4379
102
}
330
A
100
AcDbEntity
  8
HIDDEN
100
AcDbSpline
210
0.0
220
0.0
230
1.0
 70
     8
 71
     3
 72
    32
 73
    28
 74
     0
 42
0.000000001
 43
0.0000000001
 40
0.0
 40
0.0
 40
0.0
 40
0.0
 40
0.0383151351737639
 40
0.0383151351737639
 40
0.115186910518624
 40
0.115186910518624
 40
0.1920586858634841
 40
0.1920586858634841
 40
0.3458022365532055
 40
0.3458022365532055
 40
0.422674011898066
 40
0.422674011898066
 40
0.4995457872429265
 40
0.4995457872429265
 40
0.5764175625877871
 40
0.5764175625877871
 40
0.6532893379326477
 40
0.6532893379326477
 40
0.7301611132775081
 40
0.7301611132775081
 40
0.8070328886223684
 40
0.8070328886223684
 40
0.8839046639672291
 40
0.8839046639672291
 40
0.9607764393120896
 40
0.9607764393120896
 40
1.0
 40
1.0
 40
1.0
 40
1.0
 10
1286.576947812708
 20
1944.741849435001
 30
0.0
 10
1286.578438812274
 20
1943.769960144234
 30
0.0
 10
1286.581702771448
 20
1942.798146725779
 30
0.0
 10
1286.599914942879
 20
1939.876940470204
 30
0.0
 10
1286.657780757731
 20
1937.929384255775
 30
0.0
 10
1287.003548365229
 20
1934.044116023023
 30
0.0
 10
1287.289213345718
 20
1932.098366076853
 30
0.0
 10
1288.52796695448
 20
1926.330652784481
 30
0.0
 10
1289.823360473948
 20
1922.65740220739
 30
0.0
 10
1292.523038912496
 20
1917.424491537945
 30
0.0
 10
1293.550510193254
 20
1915.736195692659
 30
0.0
 10
1295.820038543458
 20
1912.577497323887
 30
0.0
 10
1297.069420911761
 20
1911.093846509883
 30
0.0
 10
1299.81404738675
 20
1908.331822657144
 30
0.0
 10
1301.325163435049
 20
1907.043511978664
 30
0.0
 10
1304.501141029349
 20
1904.740870097557
 30
0.0
 10
1306.164868956902
 20
1903.720901894448
 30
0.0
 10
1309.62755693591
 20
1901.915495638893
 30
0.0
 10
1311.437433369156
 20
1901.126356806267
 30
0.0
 10
1315.136614761559
 20
1899.797552560597
 30
0.0
 10
1317.015039357033
 20
1899.260406826886
 30
0.0
 10
1320.826903495425
 20
1898.42891996555
 30
0.0
 10
1322.760774493163
 20
1898.136483033529
 30
0.0
 10
1326.67934928578
 20
1897.775956149041
 30
0.0
 10
1328.64927907303
 20
1897.713533040594
 30
0.0
 10
1331.618898311889
 20
1897.692935573835
 30
0.0
 10
1332.622242839298
 20
1897.689240176808
 30
0.0
 10
1333.625612155487
 20
1897.687595636652
 30
0.0
  0
DIMENSION
  5
4356
102
{ACAD_XDICTIONARY
360
4357
102
}
330
A
100
AcDbEntity
  8
Dim
  6
Continuous
100
AcDbDimension
  2
*D11
 10
1776.039714318728
 20
2006.11237777114
 30
0.0
 11
1753.823405724978
 21
2066.11237777114
 31
0.0
 70
    32
 71
     5
 42
120.0000000000002
 73
     0
 74
     0
 75
     0
  3
tform線あり
100
AcDbAlignedDimension
 13
1565.053947823672
 23
2126.11237777114
 33
0.0
 14
1565.053947823672
 24
2006.11237777114
 34
0.0
 50
90.0
100
AcDbRotatedDimension
1001
ACAD
1000
DSTYLE
1002
{
1070
   144
1040
1.0
1002
}
  0
DIMENSION
  5
4359
102
{ACAD_XDICTIONARY
360
435A
102
}
330
A
100
AcDbEntity
  8
Dim
  6
Continuous
100
AcDbDimension
  2
*D12
 10
1565.053947823672
 20
1798.570905065308
 30
0.0
 11
1505.053947823672
 21
1820.787213659058
 31
0.0
 70
    32
 71
     5
 42
120.0
 73
     0
 74
     0
 75
     0
 52
-90.0
  3
tform線あり
100
AcDbAlignedDimension
 13
1445.053947823672
 23
2006.11237777114
 33
0.0
 14
1565.053947823672
 24
2006.11237777114
 34
0.0
100
AcDbRotatedDimension
1001
ACAD
1000
DSTYLE
1002
{
1070
   144
1040
1.0
1002
}
  0
HATCH
  5
435C
330
A
100
AcDbEntity
  8
Dim
  6
Continuous
100
AcDbHatch
 10
0.0
 20
0.0
 30
0.0
210
0.0
220
0.0
230
1.0
  2
ANSI31
 70
     0
 71
     1
 91
        1
 92
        1
 93
        4
 72
     1
 10
1445.053947823672
 20
2126.11237777114
 11
1565.053947823672
 21
2126.11237777114
 72
     1
 10
1565.053947823672
 20
2126.11237777114
 11
1565.053947823672
 21
2006.11237777114
 72
     1
 10
1565.053947823672
 20
2006.11237777114
 11
1445.053947823672
 21
2006.11237777114
 72
     1
 10
1445.053947823672
 20
2006.11237777114
 11
1445.053947823672
 21
2126.11237777114
 97
        4
330
4360
330
435F
330
435D
330
435E
 75
     0
 76
     1
 52
0.0
 41
6.0
 77
     0
 78
     1
 53
45.0
 43
-2638.551236358613
 44
271.6812220682027
 45
-13.47038418160373
 46
13.47038418160373
 79
     0
 98
        1
 10
-2638.551236358613
 20
271.6812220682027
1001
ACAD
1010
0.0
1020
0.0
1030
0.0
  0
LINE
  5
435D
102
{ACAD_REACTORS
330
435C
102
}
330
A
100
AcDbEntity
  8
MODEL
  6
Continuous
100
AcDbLine
 10
1565.053947823672
 20
2006.11237777114
 30
0.0
 11
1445.053947823672
 21
2006.11237777114
 31
0.0
  0
LINE
  5
435E
102
{ACAD_REACTORS
330
435C
102
}
330
A
100
AcDbEntity
  8
MODEL
  6
Continuous
100
AcDbLine
 10
1445.053947823672
 20
2006.11237777114
 30
0.0
 11
1445.053947823672
 21
2126.11237777114
 31
0.0
  0
LINE
  5
435F
102
{ACAD_REACTORS
330
435C
330
4358
102
}
330
A
100
AcDbEntity
  8
MODEL
  6
Continuous
100
AcDbLine
 10
1565.053947823672
 20
2126.11237777114
 30
0.0
 11
1565.053947823672
 21
2006.11237777114
 31
0.0
  0
LINE
  5
4360
102
{ACAD_REACTORS
330
435C
330
4358
102
}
330
A
100
AcDbEntity
  8
MODEL
  6
Continuous
100
AcDbLine
 10
1445.053947823672
 20
2126.11237777114
 30
0.0
 11
1565.053947823672
 21
2126.11237777114
 31
0.0
  0
MTEXT
  5
437A
330
A
100
AcDbEntity
  8
Dim
390
1D
100
AcDbMText
 10
1355.908182201412
 20
2488.276622473491
 30
34.99521132346015
 40
24.0
 41
0.0
 46
27.413396484375
 71
     1
 72
     1
  1
{カウンター切込寸法}
  7
ＭＳ ゴシック
 73
     1
 44
0.7828267384257843
1001
ACAD
1000
ACAD_MTEXT_DEFINED_HEIGHT_BEGIN
1070
    46
1040
27.413396484375
1000
ACAD_MTEXT_DEFINED_HEIGHT_END
  0
DIMENSION
  5
437B
330
A
100
AcDbEntity
  8
Dim
  6
Continuous
100
AcDbDimension
  2
*D13
 10
1737.876916576142
 20
767.5041876479986
 30
0.0
 11
1650.376916576142
 21
789.7204962417486
 31
0.0
 70
    32
 71
     5
 42
175.0
 73
     0
 74
     0
 75
     0
  3
tform線あり
100
AcDbAlignedDimension
 13
1562.876916576142
 23
853.2588900342981
 33
0.0
 14
1737.876916576142
 24
1030.961888968411
 34
-0.0000000000000181
100
AcDbRotatedDimension
1001
ACAD
1000
DSTYLE
1002
{
1070
   144
1040
1.0
1002
}
  0
DIMENSION
  5
43A0
330
A
100
AcDbEntity
  8
Dim
  6
Continuous
100
AcDbDimension
  2
*D15
 10
293.547757344
 20
1897.80015744
 30
0.0
 11
271.33144875025
 21
2066.221347015676
 31
0.0
 70
    32
  1
330
 71
     5
 42
336.8423791513521
 73
     0
 74
     0
 75
     0
  3
tform線あり
100
AcDbAlignedDimension
 13
427.1706533832935
 23
2234.642536591352
 33
0.0
 14
427.1706533832935
 24
1897.80015744
 34
0.0
 50
90.0
100
AcDbRotatedDimension
1001
ACAD
1000
DSTYLE
1002
{
1070
   144
1040
1.0
1002
}
  0
DIMENSION
  5
43AD
102
{ACAD_REACTORS
330
43AF
102
}
102
{ACAD_XDICTIONARY
360
43AE
102
}
330
A
100
AcDbEntity
  8
Dim
  6
Continuous
100
AcDbDimension
  2
*D16
 10
817.0677247810186
 20
1806.240598272
 30
0.0
 11
598.6333602093949
 21
1828.45690686575
 31
0.0
 70
    32
  1
430
 71
     5
 42
436.8687291432473
 73
     0
 74
     0
 75
     0
  3
tform線あり
100
AcDbAlignedDimension
 13
380.1989956377713
 23
1938.746046181219
 33
0.0
 14
817.0677247810186
 24
1938.746046181219
 34
0.0
100
AcDbRotatedDimension
1001
ACAD
1000
DSTYLE
1002
{
1070
   144
1040
1.0
1002
}
  0
DIMENSION
  5
43CE
102
{ACAD_REACTORS
330
43D0
102
}
102
{ACAD_XDICTIONARY
360
43CF
102
}
330
A
100
AcDbEntity
  8
Dim
  6
Continuous
100
AcDbDimension
  2
*D18
 10
377.8910801657495
 20
844.5666365706236
 30
0.0
 11
598.0670761633709
 21
866.7829451643736
 31
0.0
 70
    32
  1
440
 71
     5
 42
440.3519919952427
 73
     0
 74
     0
 75
     0
  3
tform線あり
100
AcDbAlignedDimension
 13
818.2430721609923
 23
947.4123128279035
 33
-0.0000000000560579
 14
377.8910801657495
 24
949.8851101686823
 34
0.0
100
AcDbRotatedDimension
1001
ACAD
1000
DSTYLE
1002
{
1070
   144
1040
1.0
1002
}
  0
DIMENSION
  5
43DD
330
A
100
AcDbEntity
  8
Dim
  6
Continuous
100
AcDbDimension
  2
*D19
 10
1393.696204123279
 20
853.2588900342981
 30
0.0
 11
1563.696204123279
 21
875.4751986280481
 31
0.0
 70
    32
 71
     5
 42
340.0
 73
     0
 74
     0
 75
     0
  3
tform線あり
100
AcDbAlignedDimension
 13
1733.696204123279
 23
937.249844545732
 33
0.0
 14
1393.696204123279
 24
937.2498445457323
 34
0.0
100
AcDbRotatedDimension
1001
ACAD
1000
DSTYLE
1002
{
1070
   144
1040
1.0
1002
}
  0
MTEXT
  5
43EA
330
A
100
AcDbEntity
  8
template
390
1D
100
AcDbMText
 10
1332.000000000742
 20
235.3561874578188
 30
0.0
 40
24.4326171875
 41
0.0
 46
28.390701171875
 71
     1
 72
     1
  1
{11kg}
  7
ＭＳ ゴシック
 73
     1
 44
0.7828267384257843
1001
ACAD
1000
ACAD_MTEXT_DEFINED_HEIGHT_BEGIN
1070
    46
1040
28.390701171875
1000
ACAD_MTEXT_DEFINED_HEIGHT_END
  0
MTEXT
  5
43EB
330
A
100
AcDbEntity
  8
template
390
1D
100
AcDbMText
 10
1573.044553728742
 20
235.3561874578188
 30
0.0
 40
24.4326171875
 41
0.0
 46
24.4326171875
 71
     1
 72
     1
  1
{8L}
  7
ＭＳ ゴシック
 73
     1
 44
0.7828267384257843
1001
ACAD
1000
ACAD_MTEXT_DEFINED_HEIGHT_BEGIN
1070
    46
1040
24.4326171875
1000
ACAD_MTEXT_DEFINED_HEIGHT_END
  0
DIMENSION
  5
440D
330
A
100
AcDbEntity
  8
Dim
  6
Continuous
100
AcDbDimension
  2
*D20
 10
598.5978660908677
 20
764.6303557255565
 30
0.0
 11
711.0978660908677
 21
786.8466643193065
 31
0.0
 70
    32
 71
     5
 42
225.0
 73
     0
 74
     0
 75
     0
  3
tform線あり
100
AcDbAlignedDimension
 13
823.5978660908677
 23
992.7798946559996
 33
0.0
 14
598.5978660908677
 24
841.6928046481814
 34
0.0
100
AcDbRotatedDimension
1001
ACAD
1000
DSTYLE
1002
{
1070
   144
1040
1.0
1002
}
  0
VIEWPORT
  5
349
330
B
100
AcDbEntity
 67
     1
  8
0
100
AcDbViewport
 10
202.5
 20
128.5
 30
0.0
 40
486.0
 41
308.4
 68
     1
 69
     1
 12
202.5
 22
128.5
 13
0.0
 23
0.0
 14
0.5
 24
0.5
 15
0.0
 25
0.0
 16
0.0
 26
0.0
 36
1.0
 17
0.0
 27
0.0
 37
0.0
 42
50.0
 43
0.0
 44
0.0
 45
308.4
 50
0.0
 51
0.0
 72
   100
 90
   557152
  1

281
     0
 71
     1
 74
     0
110
0.0
120
0.0
130
0.0
111
1.0
121
0.0
131
0.0
112
0.0
122
1.0
132
0.0
 79
     0
146
0.0
170
     0
 61
     5
348
26C
292
     1
282
     1
141
0.0
142
0.0
 63
   256
  0
VIEWPORT
  5
34A
330
B
100
AcDbEntity
 67
     1
  8
0
100
AcDbViewport
 10
202.5
 20
128.5
 30
0.0
 40
324.0
 41
205.6
 68
     2
 69
     2
 12
986.6781359294573
 22
1427.077061889956
 13
0.0
 23
0.0
 14
0.5
 24
0.5
 15
0.0
 25
0.0
 16
0.0
 26
0.0
 36
1.0
 17
0.0
 27
0.0
 37
0.0
 42
50.0
 43
0.0
 44
0.0
 45
2890.021615685494
 50
0.0
 51
0.0
 72
   100
 90
   557152
  1

281
     0
 71
     1
 74
     0
110
0.0
120
0.0
130
0.0
111
1.0
121
0.0
131
0.0
112
0.0
122
1.0
132
0.0
 79
     0
146
0.0
170
     0
 61
     5
348
26C
292
     1
282
     1
141
0.0
142
0.0
 63
   256
  0
ENDSEC
  0
SECTION
  2
OBJECTS
  0
DICTIONARY
  5
19
330
0
100
AcDbDictionary
281
     1
  3
ACAD_COLOR
350
38F
  3
ACAD_DETAILVIEWSTYLE
350
8CF
  3
ACAD_FIELDLIST
350
BA6
  3
ACAD_GROUP
350
1A
  3
ACAD_IMAGE_VARS
350
27B
  3
ACAD_LAYOUT
350
1E
  3
ACAD_MATERIAL
350
263
  3
ACAD_MLEADERSTYLE
350
336
  3
ACAD_MLINESTYLE
350
1B
  3
ACAD_PLOTSETTINGS
350
22
  3
ACAD_PLOTSTYLENAME
350
1F
  3
ACAD_SCALELIST
350
241
  3
ACAD_SECTIONVIEWSTYLE
350
8D0
  3
ACAD_TABLESTYLE
350
278
  3
ACAD_VISUALSTYLE
350
267
  3
ACDB_RECOMPOSE_DATA
350
442F
  3
AcDbVariableDictionary
350
330
  3
APPDATA
350
27A
  3
DimOffsetDictionary
350
C08
  0
SUN
  5
8C2
330
15
100
AcDbSun
 90
        1
290
     0
 63
     7
421
 16777215
 40
1.0
291
     1
 91
  2455826
 92
 54000000
292
     0
 70
     2
 71
   256
280
     1
  0
DICTIONARY
  5
2E1
330
2
100
AcDbDictionary
280
     1
281
     1
  3
ACAD_LAYERSTATES
360
2E2
  3
ACLYDICTIONARY
360
BFE
  0
DICTIONARY
  5
BDC
330
BDB
100
AcDbDictionary
280
     1
281
     1
  3
ACAD_FIELD
360
440C
  0
DICTIONARY
  5
4357
330
4356
100
AcDbDictionary
280
     1
281
     1
  3
ACAD_DIMASSOC
360
4358
  0
DICTIONARY
  5
435A
330
4359
100
AcDbDictionary
280
     1
281
     1
  3
ACAD_DIMASSOC
360
435B
  0
DICTIONARY
  5
43AE
330
43AD
100
AcDbDictionary
280
     1
281
     1
  3
ACAD_DIMASSOC
360
43AF
  0
DICTIONARY
  5
43CF
330
43CE
100
AcDbDictionary
280
     1
281
     1
  3
ACAD_DIMASSOC
360
43D0
  0
DICTIONARY
  5
38F
102
{ACAD_REACTORS
330
19
102
}
330
19
100
AcDbDictionary
281
     1
  0
DICTIONARY
  5
8CF
102
{ACAD_REACTORS
330
19
102
}
330
19
100
AcDbDictionary
281
     1
  0
FIELDLIST
  5
BA6
102
{ACAD_REACTORS
330
19
102
}
330
19
100
AcDbIdSet
 90
        2
330
BDF
330
BDE
100
AcDbFieldList
  0
DICTIONARY
  5
1A
102
{ACAD_REACTORS
330
19
102
}
330
19
100
AcDbDictionary
281
     1
  3
*A1
350
4330
  3
*A2
350
4332
  3
*A3
350
4379
  0
RASTERVARIABLES
  5
27B
102
{ACAD_REACTORS
330
19
102
}
330
19
100
AcDbRasterVariables
 90
        0
 70
     1
 71
     1
 72
     1
  0
DICTIONARY
  5
1E
102
{ACAD_REACTORS
330
19
102
}
330
19
100
AcDbDictionary
281
     1
  3
Layout1
350
21
  3
Model
350
20
  0
DICTIONARY
  5
263
102
{ACAD_REACTORS
330
19
102
}
330
19
100
AcDbDictionary
281
     1
  3
ByBlock
350
265
  3
ByLayer
350
264
  3
Global
350
266
  0
DICTIONARY
  5
336
102
{ACAD_REACTORS
330
19
102
}
330
19
100
AcDbDictionary
281
     1
  3
Standard
350
8D1
  0
DICTIONARY
  5
1B
102
{ACAD_REACTORS
330
19
102
}
330
19
100
AcDbDictionary
281
     1
  3
Standard
350
1C
  0
DICTIONARY
  5
22
102
{ACAD_REACTORS
330
19
102
}
330
19
100
AcDbDictionary
281
     1
  0
ACDBDICTIONARYWDFLT
  5
1F
102
{ACAD_REACTORS
330
19
102
}
330
19
100
AcDbDictionary
281
     1
  3
Normal
350
1D
100
AcDbDictionaryWithDefault
340
1D
  0
DICTIONARY
  5
241
102
{ACAD_REACTORS
330
19
102
}
330
19
100
AcDbDictionary
281
     1
  3
A0
350
242
  3
A1
350
243
  3
A2
350
244
  3
A3
350
245
  3
A4
350
246
  3
A5
350
247
  3
A6
350
248
  3
A7
350
249
  3
A8
350
24A
  3
A9
350
24B
  3
B0
350
24C
  3
B1
350
24D
  3
B2
350
24E
  3
B3
350
24F
  3
B4
350
250
  3
B5
350
251
  3
B6
350
252
  3
B7
350
253
  3
B8
350
254
  3
B9
350
255
  3
C0
350
256
  3
C1
350
257
  3
C2
350
258
  3
C3
350
259
  3
C4
350
25A
  3
C5
350
25B
  3
C6
350
25C
  3
C7
350
25D
  3
C8
350
25E
  3
C9
350
25F
  3
D0
350
260
  3
D1
350
261
  3
D2
350
262
  0
DICTIONARY
  5
8D0
102
{ACAD_REACTORS
330
19
102
}
330
19
100
AcDbDictionary
281
     1
  0
DICTIONARY
  5
278
102
{ACAD_REACTORS
330
19
102
}
330
19
100
AcDbDictionary
281
     1
  3
Standard
350
279
  0
DICTIONARY
  5
267
102
{ACAD_REACTORS
330
19
102
}
330
19
100
AcDbDictionary
281
     1
  3
2dWireframe
350
26C
  3
3D Hidden
350
26E
  3
3dWireframe
350
26D
  3
Basic
350
26F
  3
Brighten
350
273
  3
ColorChange
350
277
  3
Conceptual
350
271
  3
Dim
350
272
  3
EdgeColorOff
350
8BC
  3
Facepattern
350
276
  3
Flat
350
268
  3
FlatWithEdges
350
269
  3
Gouraud
350
26A
  3
GouraudWithEdges
350
26B
  3
Hidden
350
8B9
  3
JitterOff
350
8BA
  3
Linepattern
350
275
  3
OverhangOff
350
8BB
  3
Realistic
350
270
  3
Shaded
350
8C1
  3
Shaded with edges
350
8C0
  3
Shades of Gray
350
8BD
  3
Sketchy
350
8BE
  3
Thicken
350
274
  3
Wireframe
350
8B8
  3
X-Ray
350
8BF
  0
XRECORD
  5
442F
102
{ACAD_REACTORS
330
19
102
}
330
19
100
AcDbXrecord
280
     1
 90
        1
330
279
  0
DICTIONARY
  5
330
102
{ACAD_REACTORS
330
19
102
}
330
19
100
AcDbDictionary
281
     1
  3
CANNOSCALE
350
331
  3
CMLEADERSTYLE
350
8DA
  3
CTABLESTYLE
350
335
  3
HPTRANSPARENCY
350
C07
  3
XCLIPFRAME
350
64A
  0
DICTIONARY
  5
27A
102
{ACAD_REACTORS
330
19
102
}
330
19
100
AcDbDictionary
281
     1
  0
DICTIONARY
  5
C08
102
{ACAD_REACTORS
330
19
102
}
330
19
100
AcDbDictionary
281
     1
  3
DIMRAILANGLE
350
2C1E
  3
DIMRAILFIRSTOFFSET
350
2C1C
  3
DIMRAILOFFSET
350
2C1D
  3
DIMRAILSENABLED
350
2C1F
  0
DICTIONARY
  5
2E2
102
{ACAD_REACTORS
330
2E1
102
}
330
2E1
100
AcDbDictionary
281
     1
  0
DICTIONARY
  5
BFE
102
{ACAD_REACTORS
330
2E1
102
}
330
2E1
100
AcDbDictionary
281
     1
1001
ACAD
1000
<All
  0
DICTIONARY
  5
440C
102
{ACAD_REACTORS
330
BDC
102
}
330
BDC
100
AcDbDictionary
280
     1
281
     1
  3
TEXT
360
BDE
  0
DIMASSOC
  5
4358
102
{ACAD_REACTORS
330
4357
102
}
330
4357
100
AcDbDimAssoc
330
4356
 90
        0
 70
     0
 71
     1
  0
DIMASSOC
  5
435B
102
{ACAD_REACTORS
330
435A
102
}
330
435A
100
AcDbDimAssoc
330
4359
 90
        0
 70
     0
 71
     1
  0
DIMASSOC
  5
43AF
102
{ACAD_REACTORS
330
43AE
102
}
330
43AE
100
AcDbDimAssoc
330
43AD
 90
        1
 70
     0
 71
     1
  1
AcDbOsnapPointRef
 72
    10
331
4142
 73
     0
 91
        0
 40
0.0788303985767935
 10
0.0
 20
0.0
 30
0.0
 75
     0
  0
DIMASSOC
  5
43D0
102
{ACAD_REACTORS
330
43CF
102
}
330
43CF
100
AcDbDimAssoc
330
43CE
 90
        2
 70
     0
 71
     1
  1
AcDbOsnapPointRef
 72
    10
331
41BD
 73
     0
 91
        0
 40
0.9664254959435649
 10
0.0
 20
0.0
 30
0.0
 75
     0
  0
GROUP
  5
4330
102
{ACAD_REACTORS
330
1A
102
}
330
1A
100
AcDbGroup
300

 70
     1
 71
     1
340
4143
340
4144
340
4145
340
41A4
340
41B1
340
41BA
340
41C0
340
41C1
340
41DD
340
41EA
340
41F3
340
41F7
340
41F9
340
41FA
340
4204
340
4154
340
4203
340
41BE
340
41CB
340
41CA
  0
GROUP
  5
4332
102
{ACAD_REACTORS
330
1A
102
}
330
1A
100
AcDbGroup
300

 70
     1
 71
     1
340
4239
340
423A
340
4209
340
420B
340
422F
340
4230
340
4232
340
415D
340
415E
340
4162
340
417D
340
417E
340
420F
340
421E
340
422B
340
4233
340
424B
340
425A
340
4267
340
426F
340
4247
340
426E
340
4161
340
4245
340
426B
340
426C
340
4276
340
4275
  0
GROUP
  5
4379
102
{ACAD_REACTORS
330
1A
102
}
330
1A
100
AcDbGroup
300

 70
     1
 71
     1
340
433C
340
433E
340
4342
340
4345
340
434A
340
434C
340
433F
340
4340
340
4341
340
4343
340
4344
340
4347
340
4348
340
4351
340
4352
340
433D
340
4349
340
434B
  0
LAYOUT
  5
21
102
{ACAD_REACTORS
330
1E
102
}
330
1E
100
AcDbPlotSettings
  1

  2
none_device
  4
ISO_A3_(420.00_x_297.00_MM)
  6

 40
7.5
 41
20.0
 42
7.5
 43
20.0
 44
420.0
 45
297.0
 46
0.0
 47
0.0
 48
0.0
 49
0.0
140
0.0
141
0.0
142
1.0
143
1.0
 70
     0
 72
     1
 73
     0
 74
     0
  7

 75
     0
 76
     0
 77
     2
 78
   300
147
1.0
148
0.0
149
0.0
100
AcDbLayout
  1
Layout1
 70
     0
 71
     0
 10
0.0
 20
0.0
 11
0.0
 21
0.0
 12
0.0
 22
0.0
 32
0.0
 14
0.0
 24
0.0
 34
0.0
 15
0.0
 25
0.0
 35
0.0
146
0.0
 13
0.0
 23
0.0
 33
0.0
 16
0.0
 26
0.0
 36
0.0
 17
0.0
 27
0.0
 37
0.0
 76
     0
330
B
331
349
  0
LAYOUT
  5
20
102
{ACAD_REACTORS
330
1E
102
}
330
1E
100
AcDbPlotSettings
  1

  2
none_device
  4
ISO_A3_(420.00_x_297.00_MM)
  6

 40
7.5
 41
20.0
 42
7.5
 43
20.0
 44
420.0
 45
297.0
 46
0.0
 47
0.0
 48
0.0
 49
0.0
140
0.0
141
0.0
142
1.0
143
1.0
 70
  1024
 72
     1
 73
     0
 74
     0
  7

 75
     0
 76
     0
 77
     2
 78
   300
147
1.0
148
0.0
149
0.0
100
AcDbLayout
  1
Model
 70
     0
 71
     1
 10
0.0
 20
0.0
 11
2100.0
 21
2970.0
 12
0.0
 22
0.0
 32
0.0
 14
0.0
 24
0.0
 34
-0.0666226581190458
 15
2100.0
 25
2970.0
 35
34.99521132346015
146
0.0
 13
0.0
 23
0.0
 33
0.0
 16
0.0
 26
0.0
 36
0.0
 17
0.0
 27
0.0
 37
0.0
 76
     0
330
A
331
15
  0
MATERIAL
  5
265
102
{ACAD_REACTORS
330
263
102
}
330
263
100
AcDbMaterial
  1
ByBlock
 72
     1
 94
      127
  0
MATERIAL
  5
264
102
{ACAD_REACTORS
330
263
102
}
330
263
100
AcDbMaterial
  1
ByLayer
 72
     1
 94
      127
  0
MATERIAL
  5
266
102
{ACAD_REACTORS
330
263
102
}
330
263
100
AcDbMaterial
  1
Global
 72
     1
 94
      127
  0
MLEADERSTYLE
  5
8D1
102
{ACAD_REACTORS
330
336
102
}
330
336
100
AcDbMLeaderStyle
170
     2
171
     1
172
     0
 90
        2
 40
0.0
 41
0.0
173
     1
 91
-1056964608
340
11
 92
       -2
290
     1
 42
2.0
291
     1
 43
8.0
  3
Standard
341
0
 44
4.0
300

342
17
174
     1
178
     6
175
     1
176
     0
 93
-1056964608
 45
4.0
292
     0
297
     0
 46
4.0
343
0
 94
-1056964608
 47
1.0
 49
1.0
140
1.0
293
     1
141
0.0
294
     1
177
     0
142
1.0
295
     0
296
     0
143
3.75
1001
ACAD_MLEADERVER
1070
     2
  0
MLINESTYLE
  5
1C
102
{ACAD_REACTORS
330
1B
102
}
330
1B
100
AcDbMlineStyle
  2
Standard
 70
     0
  3

 62
     0
 51
90.0
 52
90.0
 71
     2
 49
0.5
 62
   256
  6
BYLAYER
 49
-0.5
 62
   256
  6
BYLAYER
  0
ACDBPLACEHOLDER
  5
1D
102
{ACAD_REACTORS
330
1F
102
}
330
1F
  0
SCALE
  5
242
102
{ACAD_REACTORS
330
241
102
}
330
241
100
AcDbScale
 70
     0
300
1:1
140
1.0
141
1.0
290
     1
  0
SCALE
  5
243
102
{ACAD_REACTORS
330
241
102
}
330
241
100
AcDbScale
 70
     0
300
1:2
140
1.0
141
2.0
290
     0
  0
SCALE
  5
244
102
{ACAD_REACTORS
330
241
102
}
330
241
100
AcDbScale
 70
     0
300
1:4
140
1.0
141
4.0
290
     0
  0
SCALE
  5
245
102
{ACAD_REACTORS
330
241
102
}
330
241
100
AcDbScale
 70
     0
300
1:5
140
1.0
141
5.0
290
     0
  0
SCALE
  5
246
102
{ACAD_REACTORS
330
241
102
}
330
241
100
AcDbScale
 70
     0
300
1:8
140
1.0
141
8.0
290
     0
  0
SCALE
  5
247
102
{ACAD_REACTORS
330
241
102
}
330
241
100
AcDbScale
 70
     0
300
1:10
140
1.0
141
10.0
290
     0
  0
SCALE
  5
248
102
{ACAD_REACTORS
330
241
102
}
330
241
100
AcDbScale
 70
     0
300
1:16
140
1.0
141
16.0
290
     0
  0
SCALE
  5
249
102
{ACAD_REACTORS
330
241
102
}
330
241
100
AcDbScale
 70
     0
300
1:20
140
1.0
141
20.0
290
     0
  0
SCALE
  5
24A
102
{ACAD_REACTORS
330
241
102
}
330
241
100
AcDbScale
 70
     0
300
1:30
140
1.0
141
30.0
290
     0
  0
SCALE
  5
24B
102
{ACAD_REACTORS
330
241
102
}
330
241
100
AcDbScale
 70
     0
300
1:40
140
1.0
141
40.0
290
     0
  0
SCALE
  5
24C
102
{ACAD_REACTORS
330
241
102
}
330
241
100
AcDbScale
 70
     0
300
1:50
140
1.0
141
50.0
290
     0
  0
SCALE
  5
24D
102
{ACAD_REACTORS
330
241
102
}
330
241
100
AcDbScale
 70
     0
300
1:100
140
1.0
141
100.0
290
     0
  0
SCALE
  5
24E
102
{ACAD_REACTORS
330
241
102
}
330
241
100
AcDbScale
 70
     0
300
2:1
140
2.0
141
1.0
290
     0
  0
SCALE
  5
24F
102
{ACAD_REACTORS
330
241
102
}
330
241
100
AcDbScale
 70
     0
300
4:1
140
4.0
141
1.0
290
     0
  0
SCALE
  5
250
102
{ACAD_REACTORS
330
241
102
}
330
241
100
AcDbScale
 70
     0
300
8:1
140
8.0
141
1.0
290
     0
  0
SCALE
  5
251
102
{ACAD_REACTORS
330
241
102
}
330
241
100
AcDbScale
 70
     0
300
10:1
140
10.0
141
1.0
290
     0
  0
SCALE
  5
252
102
{ACAD_REACTORS
330
241
102
}
330
241
100
AcDbScale
 70
     0
300
100:1
140
100.0
141
1.0
290
     0
  0
SCALE
  5
253
102
{ACAD_REACTORS
330
241
102
}
330
241
100
AcDbScale
 70
     0
300
1/128" = 1'-0"
140
0.0078125
141
12.0
290
     0
  0
SCALE
  5
254
102
{ACAD_REACTORS
330
241
102
}
330
241
100
AcDbScale
 70
     0
300
1/64" = 1'-0"
140
0.015625
141
12.0
290
     0
  0
SCALE
  5
255
102
{ACAD_REACTORS
330
241
102
}
330
241
100
AcDbScale
 70
     0
300
1/32" = 1'-0"
140
0.03125
141
12.0
290
     0
  0
SCALE
  5
256
102
{ACAD_REACTORS
330
241
102
}
330
241
100
AcDbScale
 70
     0
300
1/16" = 1'-0"
140
0.0625
141
12.0
290
     0
  0
SCALE
  5
257
102
{ACAD_REACTORS
330
241
102
}
330
241
100
AcDbScale
 70
     0
300
3/32" = 1'-0"
140
0.09375
141
12.0
290
     0
  0
SCALE
  5
258
102
{ACAD_REACTORS
330
241
102
}
330
241
100
AcDbScale
 70
     0
300
1/8" = 1'-0"
140
0.125
141
12.0
290
     0
  0
SCALE
  5
259
102
{ACAD_REACTORS
330
241
102
}
330
241
100
AcDbScale
 70
     0
300
3/16" = 1'-0"
140
0.1875
141
12.0
290
     0
  0
SCALE
  5
25A
102
{ACAD_REACTORS
330
241
102
}
330
241
100
AcDbScale
 70
     0
300
1/4" = 1'-0"
140
0.25
141
12.0
290
     0
  0
SCALE
  5
25B
102
{ACAD_REACTORS
330
241
102
}
330
241
100
AcDbScale
 70
     0
300
3/8" = 1'-0"
140
0.375
141
12.0
290
     0
  0
SCALE
  5
25C
102
{ACAD_REACTORS
330
241
102
}
330
241
100
AcDbScale
 70
     0
300
1/2" = 1'-0"
140
0.5
141
12.0
290
     0
  0
SCALE
  5
25D
102
{ACAD_REACTORS
330
241
102
}
330
241
100
AcDbScale
 70
     0
300
3/4" = 1'-0"
140
0.75
141
12.0
290
     0
  0
SCALE
  5
25E
102
{ACAD_REACTORS
330
241
102
}
330
241
100
AcDbScale
 70
     0
300
1" = 1'-0"
140
1.0
141
12.0
290
     0
  0
SCALE
  5
25F
102
{ACAD_REACTORS
330
241
102
}
330
241
100
AcDbScale
 70
     0
300
1-1/2" = 1'-0"
140
1.5
141
12.0
290
     0
  0
SCALE
  5
260
102
{ACAD_REACTORS
330
241
102
}
330
241
100
AcDbScale
 70
     0
300
3" = 1'-0"
140
3.0
141
12.0
290
     0
  0
SCALE
  5
261
102
{ACAD_REACTORS
330
241
102
}
330
241
100
AcDbScale
 70
     0
300
6" = 1'-0"
140
6.0
141
12.0
290
     0
  0
SCALE
  5
262
102
{ACAD_REACTORS
330
241
102
}
330
241
100
AcDbScale
 70
     0
300
1'-0" = 1'-0"
140
12.0
141
12.0
290
     0
  0
TABLESTYLE
  5
279
102
{ACAD_REACTORS
330
278
102
}
102
{ACAD_XDICTIONARY
360
442D
102
}
330
278
100
AcDbTableStyle
  3
Standard
 70
     0
 71
     0
 40
0.06
 41
0.06
280
     0
281
     0
  7
Standard
140
4.5
170
     2
 62
     0
 63
   257
283
     0
 90
        4
 91
        0
  1

274
    -2
284
     1
 64
     0
275
    -2
285
     1
 65
     0
276
    -2
286
     1
 66
     0
277
    -2
287
     1
 67
     0
278
    -2
288
     1
 68
     0
279
    -2
289
     1
 69
     0
  7
Standard
140
6.0
170
     5
 62
     0
 63
   257
283
     0
 90
        4
 91
        0
  1

274
    -2
284
     1
 64
     0
275
    -2
285
     1
 65
     0
276
    -2
286
     1
 66
     0
277
    -2
287
     1
 67
     0
278
    -2
288
     1
 68
     0
279
    -2
289
     1
 69
     0
  7
Standard
140
4.5
170
     5
 62
     0
 63
   257
283
     0
 90
        4
 91
        0
  1

274
    -2
284
     1
 64
     0
275
    -2
285
     1
 65
     0
276
    -2
286
     1
 66
     0
277
    -2
287
     1
 67
     0
278
    -2
288
     1
 68
     0
279
    -2
289
     1
 69
     0
  0
VISUALSTYLE
  5
26C
102
{ACAD_REACTORS
330
267
102
}
330
267
100
AcDbVisualStyle
  2
2dWireframe
 70
     4
 71
     0
 72
     2
 73
     0
 90
        0
 40
-0.6
 41
-30.0
 62
     5
 63
     7
421
 16777215
 74
     1
 91
        4
 64
     7
 65
   257
 75
     1
175
     1
 42
1.0
 92
        0
 66
   257
 43
1.0
 76
     1
 77
     6
 78
     2
 67
     7
 79
     5
170
     0
171
     0
290
     0
174
     0
 93
        1
 44
0.0
173
     0
291
     0
 45
0.0
  0
VISUALSTYLE
  5
26E
102
{ACAD_REACTORS
330
267
102
}
330
267
100
AcDbVisualStyle
  2
3D Hidden
 70
     6
 71
     1
 72
     2
 73
     2
 90
        0
 40
-0.6
 41
-30.0
 62
     5
 63
     7
421
 16777215
 74
     2
 91
        2
 64
     7
 65
   257
 75
     2
175
     1
 42
40.0
 92
        0
 66
   257
 43
1.0
 76
     1
 77
     6
 78
     2
 67
     7
 79
     3
170
     0
171
     0
290
     0
174
     0
 93
        1
 44
0.0
173
     0
291
     0
 45
0.0
  0
VISUALSTYLE
  5
26D
102
{ACAD_REACTORS
330
267
102
}
330
267
100
AcDbVisualStyle
  2
3dWireframe
 70
     5
 71
     0
 72
     2
 73
     0
 90
        0
 40
-0.6
 41
-30.0
 62
     5
 63
     7
421
 16777215
 74
     1
 91
        4
 64
     7
 65
   257
 75
     1
175
     1
 42
1.0
 92
        0
 66
   257
 43
1.0
 76
     1
 77
     6
 78
     2
 67
     7
 79
     5
170
     0
171
     0
290
     0
174
     0
 93
        1
 44
0.0
173
     0
291
     0
 45
0.0
  0
VISUALSTYLE
  5
26F
102
{ACAD_REACTORS
330
267
102
}
330
267
100
AcDbVisualStyle
  2
Basic
 70
     7
 71
     1
 72
     0
 73
     1
 90
        0
 40
-0.6
 41
-30.0
 62
     5
 63
     7
421
 16777215
 74
     0
 91
        4
 64
     7
 65
   257
 75
     1
175
     1
 42
1.0
 92
        8
 66
     7
 43
1.0
 76
     1
 77
     6
 78
     2
 67
     7
 79
     5
170
     0
171
     0
290
     0
174
     0
 93
        1
 44
0.0
173
     0
291
     1
 45
0.0
  0
VISUALSTYLE
  5
273
102
{ACAD_REACTORS
330
267
102
}
330
267
100
AcDbVisualStyle
  2
Brighten
 70
    12
 71
     2
 72
     2
 73
     0
 90
        0
 40
-0.6
 41
-30.0
 62
     5
 63
     7
421
 16777215
 74
     1
 91
        4
 64
     7
 65
   257
 75
     1
175
     1
 42
1.0
 92
        8
 66
     7
 43
1.0
 76
     1
 77
     6
 78
     2
 67
     7
 79
     5
170
     0
171
     0
290
     0
174
     0
 93
        1
 44
50.0
173
     0
291
     1
 45
0.0
  0
VISUALSTYLE
  5
277
102
{ACAD_REACTORS
330
267
102
}
330
267
100
AcDbVisualStyle
  2
ColorChange
 70
    16
 71
     2
 72
     2
 73
     3
 90
        0
 40
-0.6
 41
-30.0
 62
     5
 63
     8
421
  8421504
 74
     1
 91
        4
 64
     7
 65
   257
 75
     1
175
     1
 42
1.0
 92
        8
 66
     8
424
  8421504
 43
1.0
 76
     1
 77
     6
 78
     2
 67
     7
 79
     5
170
     0
171
     0
290
     0
174
     0
 93
        1
 44
0.0
173
     0
291
     1
 45
0.0
  0
VISUALSTYLE
  5
271
102
{ACAD_REACTORS
330
267
102
}
330
267
100
AcDbVisualStyle
  2
Conceptual
 70
     9
 71
     3
 72
     2
 73
     0
 90
        0
 40
-0.6
 41
-30.0
 62
     5
 63
     7
421
 16777215
 74
     2
 91
        2
 64
     7
 65
   257
 75
     1
175
     1
 42
40.0
 92
        8
 66
     7
 43
1.0
 76
     1
 77
     6
 78
     2
 67
     7
 79
     3
170
     0
171
     0
290
     0
174
     0
 93
        1
 44
0.0
173
     0
291
     0
 45
0.0
  0
VISUALSTYLE
  5
272
102
{ACAD_REACTORS
330
267
102
}
330
267
100
AcDbVisualStyle
  2
Dim
 70
    11
 71
     2
 72
     2
 73
     0
 90
        0
 40
-0.6
 41
-30.0
 62
     5
 63
     7
421
 16777215
 74
     1
 91
        4
 64
     7
 65
   257
 75
     1
175
     1
 42
1.0
 92
        8
 66
     7
 43
1.0
 76
     1
 77
     6
 78
     2
 67
     7
 79
     5
170
     0
171
     0
290
     0
174
     0
 93
        1
 44
-50.0
173
     0
291
     1
 45
0.0
  0
VISUALSTYLE
  5
8BC
102
{ACAD_REACTORS
330
267
102
}
330
267
100
AcDbVisualStyle
  2
EdgeColorOff
 70
    22
 71
     2
 72
     2
 73
     0
 90
        0
 40
0.6
 41
30.0
 62
     5
 63
     7
421
 16777215
 74
     1
 91
        4
 64
     7
 65
   257
 75
     1
175
     1
 42
1.0
 92
        8
 66
     7
 43
1.0
 76
     1
 77
     6
 78
     2
 67
     7
 79
     5
170
     0
171
     0
290
     0
174
     0
 93
        1
 44
0.0
173
     0
291
     1
 45
0.0
  0
VISUALSTYLE
  5
276
102
{ACAD_REACTORS
330
267
102
}
330
267
100
AcDbVisualStyle
  2
Facepattern
 70
    15
 71
     2
 72
     2
 73
     0
 90
        0
 40
-0.6
 41
-30.0
 62
     5
 63
     7
421
 16777215
 74
     1
 91
        4
 64
     7
 65
   257
 75
     1
175
     1
 42
1.0
 92
        8
 66
     7
 43
1.0
 76
     1
 77
     6
 78
     2
 67
     7
 79
     5
170
     0
171
     0
290
     0
174
     0
 93
        1
 44
0.0
173
     0
291
     1
 45
0.0
  0
VISUALSTYLE
  5
268
102
{ACAD_REACTORS
330
267
102
}
330
267
100
AcDbVisualStyle
  2
Flat
 70
     0
 71
     2
 72
     1
 73
     1
 90
        2
 40
-0.6
 41
30.0
 62
     5
 63
     7
421
 16777215
 74
     0
 91
        4
 64
     7
 65
   257
 75
     1
175
     1
 42
1.0
 92
        8
 66
     7
 43
1.0
 76
     1
 77
     6
 78
     2
 67
     7
 79
     5
170
     0
171
     0
290
     0
174
     0
 93
       13
 44
0.0
173
     0
291
     1
 45
0.0
  0
VISUALSTYLE
  5
269
102
{ACAD_REACTORS
330
267
102
}
330
267
100
AcDbVisualStyle
  2
FlatWithEdges
 70
     1
 71
     2
 72
     1
 73
     1
 90
        2
 40
-0.6
 41
30.0
 62
     5
 63
     7
421
 16777215
 74
     1
 91
        4
 64
     7
 65
   257
 75
     1
175
     1
 42
1.0
 92
        0
 66
   257
 43
1.0
 76
     1
 77
     6
 78
     2
 67
     7
 79
     5
170
     0
171
     0
290
     0
174
     0
 93
       13
 44
0.0
173
     0
291
     1
 45
0.0
  0
VISUALSTYLE
  5
26A
102
{ACAD_REACTORS
330
267
102
}
330
267
100
AcDbVisualStyle
  2
Gouraud
 70
     2
 71
     2
 72
     2
 73
     1
 90
        2
 40
-0.6
 41
30.0
 62
     5
 63
     7
421
 16777215
 74
     0
 91
        4
 64
     7
 65
   257
 75
     1
175
     1
 42
1.0
 92
        0
 66
     7
 43
1.0
 76
     1
 77
     6
 78
     2
 67
     7
 79
     5
170
     0
171
     0
290
     0
174
     0
 93
       13
 44
0.0
173
     0
291
     1
 45
0.0
  0
VISUALSTYLE
  5
26B
102
{ACAD_REACTORS
330
267
102
}
330
267
100
AcDbVisualStyle
  2
GouraudWithEdges
 70
     3
 71
     2
 72
     2
 73
     1
 90
        2
 40
-0.6
 41
30.0
 62
     5
 63
     7
421
 16777215
 74
     1
 91
        4
 64
     7
 65
   257
 75
     1
175
     1
 42
1.0
 92
        0
 66
   257
 43
1.0
 76
     1
 77
     6
 78
     2
 67
     7
 79
     5
170
     0
171
     0
290
     0
174
     0
 93
       13
 44
0.0
173
     0
291
     1
 45
0.0
  0
VISUALSTYLE
  5
8B9
102
{ACAD_REACTORS
330
267
102
}
330
267
100
AcDbVisualStyle
  2
Hidden
 70
     6
 71
     1
 72
     2
 73
     2
 90
        0
 40
0.6
 41
30.0
 62
     5
 63
     7
421
 16777215
 74
     2
 91
        2
 64
     7
 65
   257
 75
     2
175
     1
 42
40.0
 92
        0
 66
   257
 43
1.0
 76
     1
 77
     6
 78
     2
 67
     7
 79
     3
170
     0
171
     0
290
     0
174
     0
 93
        1
 44
0.0
173
     0
291
     0
 45
0.0
  0
VISUALSTYLE
  5
8BA
102
{ACAD_REACTORS
330
267
102
}
330
267
100
AcDbVisualStyle
  2
JitterOff
 70
    20
 71
     2
 72
     2
 73
     0
 90
        0
 40
0.6
 41
30.0
 62
     5
 63
     7
421
 16777215
 74
     1
 91
        4
 64
     7
 65
   257
 75
     1
175
     1
 42
1.0
 92
       10
 66
     7
 43
1.0
 76
     1
 77
     6
 78
     2
 67
     7
 79
     5
170
     0
171
     0
290
     0
174
     0
 93
        1
 44
0.0
173
     0
291
     1
 45
0.0
  0
VISUALSTYLE
  5
275
102
{ACAD_REACTORS
330
267
102
}
330
267
100
AcDbVisualStyle
  2
Linepattern
 70
    14
 71
     2
 72
     2
 73
     0
 90
        0
 40
-0.6
 41
-30.0
 62
     5
 63
     7
421
 16777215
 74
     1
 91
        4
 64
     7
 65
   257
 75
     7
175
     7
 42
1.0
 92
        8
 66
     7
 43
1.0
 76
     1
 77
     6
 78
     2
 67
     7
 79
     5
170
     0
171
     0
290
     0
174
     0
 93
        1
 44
0.0
173
     0
291
     1
 45
0.0
  0
VISUALSTYLE
  5
8BB
102
{ACAD_REACTORS
330
267
102
}
330
267
100
AcDbVisualStyle
  2
OverhangOff
 70
    21
 71
     2
 72
     2
 73
     0
 90
        0
 40
0.6
 41
30.0
 62
     5
 63
     7
421
 16777215
 74
     1
 91
        4
 64
     7
 65
   257
 75
     1
175
     1
 42
1.0
 92
        9
 66
     7
 43
1.0
 76
     1
 77
     6
 78
     2
 67
     7
 79
     5
170
     0
171
     0
290
     0
174
     0
 93
        1
 44
0.0
173
     0
291
     1
 45
0.0
  0
VISUALSTYLE
  5
270
102
{ACAD_REACTORS
330
267
102
}
330
267
100
AcDbVisualStyle
  2
Realistic
 70
     8
 71
     2
 72
     2
 73
     0
 90
        0
 40
-0.6
 41
-30.0
 62
     5
 63
     7
421
 16777215
 74
     1
 91
        0
 64
     7
 65
   257
 75
     1
175
     1
 42
1.0
 92
        8
 66
     8
424
  7895160
 43
1.0
 76
     1
 77
     6
 78
     2
 67
     7
 79
     5
170
     0
171
     0
290
     0
174
     0
 93
       13
 44
0.0
173
     0
291
     0
 45
0.0
  0
VISUALSTYLE
  5
8C1
102
{ACAD_REACTORS
330
267
102
}
330
267
100
AcDbVisualStyle
  2
Shaded
 70
    27
 71
     2
 72
     2
 73
     1
 90
        2
 40
0.6
 41
30.0
 62
     5
 63
     7
421
 16777215
 74
     0
 91
        4
 64
     7
 65
   257
 75
     1
175
     1
 42
1.0
 92
        8
 66
   257
 43
1.0
 76
     1
 77
     6
 78
     2
 67
     8
425
  7895160
 79
     3
170
     0
171
     0
290
     0
174
     0
 93
        5
 44
0.0
173
     0
291
     0
 45
0.0
  0
VISUALSTYLE
  5
8C0
102
{ACAD_REACTORS
330
267
102
}
330
267
100
AcDbVisualStyle
  2
Shaded with edges
 70
    26
 71
     2
 72
     2
 73
     1
 90
        2
 40
0.6
 41
30.0
 62
     5
 63
     7
421
 16777215
 74
     1
 91
       10
 64
     7
 65
   257
 75
     2
175
     1
 42
1.0
 92
        8
 66
   257
 43
1.0
 76
     1
 77
     6
 78
     2
 67
     7
 79
     3
170
     0
171
     0
290
     0
174
     0
 93
        5
 44
0.0
173
     0
291
     0
 45
0.0
  0
VISUALSTYLE
  5
8BD
102
{ACAD_REACTORS
330
267
102
}
330
267
100
AcDbVisualStyle
  2
Shades of Gray
 70
    23
 71
     2
 72
     2
 73
     3
 90
        0
 40
0.6
 41
30.0
 62
     5
 63
     7
421
 16777215
 74
     2
 91
        2
 64
     7
 65
     7
 75
     1
175
     1
 42
40.0
 92
        8
 66
     7
 43
1.0
 76
     1
 77
     6
 78
     2
 67
     7
 79
     3
170
     0
171
     0
290
     0
174
     0
 93
        1
 44
0.0
173
     0
291
     0
 45
0.0
  0
VISUALSTYLE
  5
8BE
102
{ACAD_REACTORS
330
267
102
}
330
267
100
AcDbVisualStyle
  2
Sketchy
 70
    24
 71
     1
 72
     2
 73
     2
 90
        0
 40
0.6
 41
30.0
 62
     5
 63
     7
421
 16777215
 74
     2
 91
        2
 64
     7
 65
     7
 75
     1
175
     1
 42
40.0
 92
       11
 66
     7
 43
1.0
 76
     1
 77
     6
 78
     2
 67
     7
 79
     6
170
     0
171
     0
290
     0
174
     0
 93
        1
 44
0.0
173
     0
291
     0
 45
0.0
  0
VISUALSTYLE
  5
274
102
{ACAD_REACTORS
330
267
102
}
330
267
100
AcDbVisualStyle
  2
Thicken
 70
    13
 71
     2
 72
     2
 73
     0
 90
        0
 40
-0.6
 41
-30.0
 62
     5
 63
     7
421
 16777215
 74
     1
 91
        4
 64
     7
 65
   257
 75
     1
175
     1
 42
1.0
 92
       12
 66
     7
 43
1.0
 76
     1
 77
     6
 78
     2
 67
     7
 79
     5
170
     0
171
     0
290
     0
174
     0
 93
        1
 44
0.0
173
     0
291
     1
 45
0.0
  0
VISUALSTYLE
  5
8B8
102
{ACAD_REACTORS
330
267
102
}
330
267
100
AcDbVisualStyle
  2
Wireframe
 70
     5
 71
     0
 72
     2
 73
     0
 90
        0
 40
0.6
 41
30.0
 62
     5
 63
     7
421
 16777215
 74
     1
 91
        4
 64
     7
 65
   257
 75
     1
175
     1
 42
1.0
 92
        0
 66
   257
 43
1.0
 76
     1
 77
     6
 78
     2
 67
     7
 79
     3
170
     0
171
     0
290
     0
174
     0
 93
        1
 44
0.0
173
     0
291
     0
 45
0.0
  0
VISUALSTYLE
  5
8BF
102
{ACAD_REACTORS
330
267
102
}
330
267
100
AcDbVisualStyle
  2
X-Ray
 70
    25
 71
     2
 72
     2
 73
     1
 90
        1
 40
0.5
 41
30.0
 62
     5
 63
     7
421
 16777215
 74
     1
 91
        0
 64
     7
 65
   257
 75
     1
175
     1
 42
1.0
 92
        8
 66
     7
 43
1.0
 76
     1
 77
     6
 78
     2
 67
     7
 79
     3
170
     0
171
     0
290
     0
174
     0
 93
       13
 44
0.0
173
     0
291
     0
 45
0.0
  0
DICTIONARYVAR
  5
331
102
{ACAD_REACTORS
330
330
102
}
330
330
100
DictionaryVariables
280
     0
  1
1:1
  0
DICTIONARYVAR
  5
8DA
102
{ACAD_REACTORS
330
330
102
}
330
330
100
DictionaryVariables
280
     0
  1
Standard
  0
DICTIONARYVAR
  5
335
102
{ACAD_REACTORS
330
330
102
}
330
330
100
DictionaryVariables
280
     0
  1
Standard
  0
DICTIONARYVAR
  5
C07
102
{ACAD_REACTORS
330
330
102
}
330
330
100
DictionaryVariables
280
     0
  1
ByLayer
  0
DICTIONARYVAR
  5
64A
102
{ACAD_REACTORS
330
330
102
}
330
330
100
DictionaryVariables
280
     0
  1
0
  0
DICTIONARYVAR
  5
2C1E
102
{ACAD_REACTORS
330
C08
102
}
330
C08
100
DictionaryVariables
280
     0
  1
0.261799
  0
DICTIONARYVAR
  5
2C1C
102
{ACAD_REACTORS
330
C08
102
}
330
C08
100
DictionaryVariables
280
     0
  1
0.400000
  0
DICTIONARYVAR
  5
2C1D
102
{ACAD_REACTORS
330
C08
102
}
330
C08
100
DictionaryVariables
280
     0
  1
0.250000
  0
DICTIONARYVAR
  5
2C1F
102
{ACAD_REACTORS
330
C08
102
}
330
C08
100
DictionaryVariables
280
     0
  1
1
  0
FIELD
  5
BDE
102
{ACAD_REACTORS
330
440C
102
}
330
440C
100
AcDbField
  1
_text
  2
{%<\_FldIdx 0>%N}
 90
        1
360
BDF
 97
        0
 91
       63
 92
        0
 94
       11
 95
        2
 96
        0
300

 93
        1
  6
ACFD_FIELDTEXT_CHECKSUM
 93
        2
 90
        2
140
4544.0
 94
        0
300

302

304
ACVALUE_END
  7
ACFD_FIELD_VALUE
 93
        6
 90
        4
  1
{20191128N}
 94
        0
300

302

304
ACVALUE_END
301
{20191128N}
 98
       11
  0
DICTIONARY
  5
442D
330
279
100
AcDbDictionary
280
     1
281
     1
  3
ACAD_ROUNDTRIP_2008_TABLESTYLE_CELLSTYLEMAP
360
442E
  0
FIELD
  5
BDF
330
BDE
100
AcDbField
  1
AcVar
  2
\AcVar Date \f "yyyyMMdd"
 90
        0
 97
        0
 91
       63
 92
        0
 94
        8
 95
       64
 96
        0
300
Variable not supported
 93
        1
  6
Variable
 93
        2
 90
        4
  1
Date
 94
        0
300

302

304
ACVALUE_END
  7
ACFD_FIELD_VALUE
 93
        6
 90
        8
 92
       16
310
E3070B0000001C000B000F0012000000
 94
        0
300
yyyyMMdd
302

304
ACVALUE_END
301
20191128
 98
        8
  0
CELLSTYLEMAP
  5
442E
102
{ACAD_REACTORS
330
442D
102
}
330
442D
100
AcDbCellStyleMap
 90
        3
300
CELLSTYLE
  1
TABLEFORMAT_BEGIN
 90
        5
170
     1
 91
        0
 92
    32768
 62
   257
 93
        1
300
CONTENTFORMAT
  1
CONTENTFORMAT_BEGIN
 90
        0
 91
        0
 92
        4
 93
        0
300

 40
0.0
140
1.0
 94
        5
 62
     0
340
17
144
6.0
309
CONTENTFORMAT_END
171
     1
301
MARGIN
  1
CELLMARGIN_BEGIN
 40
0.06
 40
0.06
 40
0.06
 40
0.06
 40
0.18
 40
0.18
309
CELLMARGIN_END
 94
        6
 95
        1
302
GRIDFORMAT
  1
GRIDFORMAT_BEGIN
 90
        0
 91
        1
 62
     0
 92
       -2
340
0
 93
        0
 40
0.045
309
GRIDFORMAT_END
 95
        2
302
GRIDFORMAT
  1
GRIDFORMAT_BEGIN
 90
        0
 91
        1
 62
     0
 92
       -2
340
0
 93
        0
 40
0.045
309
GRIDFORMAT_END
 95
        4
302
GRIDFORMAT
  1
GRIDFORMAT_BEGIN
 90
        0
 91
        1
 62
     0
 92
       -2
340
0
 93
        0
 40
0.045
309
GRIDFORMAT_END
 95
        8
302
GRIDFORMAT
  1
GRIDFORMAT_BEGIN
 90
        0
 91
        1
 62
     0
 92
       -2
340
0
 93
        0
 40
0.045
309
GRIDFORMAT_END
 95
       16
302
GRIDFORMAT
  1
GRIDFORMAT_BEGIN
 90
        0
 91
        1
 62
     0
 92
       -2
340
0
 93
        0
 40
0.045
309
GRIDFORMAT_END
 95
       32
302
GRIDFORMAT
  1
GRIDFORMAT_BEGIN
 90
        0
 91
        1
 62
     0
 92
       -2
340
0
 93
        0
 40
0.045
309
GRIDFORMAT_END
309
TABLEFORMAT_END
  1
CELLSTYLE_BEGIN
 90
        1
 91
        1
300
_TITLE
309
CELLSTYLE_END
300
CELLSTYLE
  1
TABLEFORMAT_BEGIN
 90
        5
170
     1
 91
        0
 92
        0
 62
   257
 93
        1
300
CONTENTFORMAT
  1
CONTENTFORMAT_BEGIN
 90
        0
 91
        0
 92
        4
 93
        0
300

 40
0.0
140
1.0
 94
        5
 62
     0
340
17
144
4.5
309
CONTENTFORMAT_END
171
     1
301
MARGIN
  1
CELLMARGIN_BEGIN
 40
0.06
 40
0.06
 40
0.06
 40
0.06
 40
0.18
 40
0.18
309
CELLMARGIN_END
 94
        6
 95
        1
302
GRIDFORMAT
  1
GRIDFORMAT_BEGIN
 90
        0
 91
        1
 62
     0
 92
       -2
340
0
 93
        0
 40
0.045
309
GRIDFORMAT_END
 95
        2
302
GRIDFORMAT
  1
GRIDFORMAT_BEGIN
 90
        0
 91
        1
 62
     0
 92
       -2
340
0
 93
        0
 40
0.045
309
GRIDFORMAT_END
 95
        4
302
GRIDFORMAT
  1
GRIDFORMAT_BEGIN
 90
        0
 91
        1
 62
     0
 92
       -2
340
0
 93
        0
 40
0.045
309
GRIDFORMAT_END
 95
        8
302
GRIDFORMAT
  1
GRIDFORMAT_BEGIN
 90
        0
 91
        1
 62
     0
 92
       -2
340
0
 93
        0
 40
0.045
309
GRIDFORMAT_END
 95
       16
302
GRIDFORMAT
  1
GRIDFORMAT_BEGIN
 90
        0
 91
        1
 62
     0
 92
       -2
340
0
 93
        0
 40
0.045
309
GRIDFORMAT_END
 95
       32
302
GRIDFORMAT
  1
GRIDFORMAT_BEGIN
 90
        0
 91
        1
 62
     0
 92
       -2
340
0
 93
        0
 40
0.045
309
GRIDFORMAT_END
309
TABLEFORMAT_END
  1
CELLSTYLE_BEGIN
 90
        2
 91
        1
300
_HEADER
309
CELLSTYLE_END
300
CELLSTYLE
  1
TABLEFORMAT_BEGIN
 90
        5
170
     1
 91
        0
 92
        0
 62
   257
 93
        1
300
CONTENTFORMAT
  1
CONTENTFORMAT_BEGIN
 90
        0
 91
        0
 92
        4
 93
        0
300

 40
0.0
140
1.0
 94
        2
 62
     0
340
17
144
4.5
309
CONTENTFORMAT_END
171
     1
301
MARGIN
  1
CELLMARGIN_BEGIN
 40
0.06
 40
0.06
 40
0.06
 40
0.06
 40
0.18
 40
0.18
309
CELLMARGIN_END
 94
        6
 95
        1
302
GRIDFORMAT
  1
GRIDFORMAT_BEGIN
 90
        0
 91
        1
 62
     0
 92
       -2
340
0
 93
        0
 40
0.045
309
GRIDFORMAT_END
 95
        2
302
GRIDFORMAT
  1
GRIDFORMAT_BEGIN
 90
        0
 91
        1
 62
     0
 92
       -2
340
0
 93
        0
 40
0.045
309
GRIDFORMAT_END
 95
        4
302
GRIDFORMAT
  1
GRIDFORMAT_BEGIN
 90
        0
 91
        1
 62
     0
 92
       -2
340
0
 93
        0
 40
0.045
309
GRIDFORMAT_END
 95
        8
302
GRIDFORMAT
  1
GRIDFORMAT_BEGIN
 90
        0
 91
        1
 62
     0
 92
       -2
340
0
 93
        0
 40
0.045
309
GRIDFORMAT_END
 95
       16
302
GRIDFORMAT
  1
GRIDFORMAT_BEGIN
 90
        0
 91
        1
 62
     0
 92
       -2
340
0
 93
        0
 40
0.045
309
GRIDFORMAT_END
 95
       32
302
GRIDFORMAT
  1
GRIDFORMAT_BEGIN
 90
        0
 91
        1
 62
     0
 92
       -2
340
0
 93
        0
 40
0.045
309
GRIDFORMAT_END
309
TABLEFORMAT_END
  1
CELLSTYLE_BEGIN
 90
        3
 91
        2
300
_DATA
309
CELLSTYLE_END
  0
ENDSEC
  0
EOF
