  0
SECTION
  2
HEADER
  9
$ACADVER
  1
AC1021
  9
$ACADMAINTVER
 70
    25
  9
$DWGCODEPAGE
  3
ANSI_932
  9
$LASTSAVEDBY
  1
tform
  9
$INSBASE
 10
0.0
 20
0.0
 30
0.0
  9
$EXTMIN
 10
0.0
 20
0.0
 30
-0.0000000000000142
  9
$EXTMAX
 10
2100.0
 20
2970.0
 30
34.99521132346014
  9
$LIMMIN
 10
0.0
 20
0.0
  9
$LIMMAX
 10
2100.0
 20
2970.0
  9
$ORTHOMODE
 70
     1
  9
$REGENMODE
 70
     1
  9
$FILLMODE
 70
     1
  9
$QTEXTMODE
 70
     0
  9
$MIRRTEXT
 70
     1
  9
$LTSCALE
 40
5.0
  9
$ATTMODE
 70
     1
  9
$TEXTSIZE
 40
2.5
  9
$TRACEWID
 40
1.0
  9
$TEXTSTYLE
  7
ＭＳ ゴシック
  9
$CLAYER
  8
DIM
  9
$CELTYPE
  6
ByLayer
  9
$CECOLOR
 62
   256
  9
$CELTSCALE
 40
1.0
  9
$DISPSILH
 70
     0
  9
$DIMSCALE
 40
1.0
  9
$DIMASZ
 40
10.0
  9
$DIMEXO
 40
30.0
  9
$DIMDLI
 40
0.9999999999999999
  9
$DIMRND
 40
0.0
  9
$DIMDLE
 40
0.0
  9
$DIMEXE
 40
0.0
  9
$DIMTP
 40
0.0
  9
$DIMTM
 40
0.0
  9
$DIMTXT
 40
24.0
  9
$DIMCEN
 40
0.0
  9
$DIMTSZ
 40
0.0
  9
$DIMTOL
 70
     0
  9
$DIMLIM
 70
     0
  9
$DIMTIH
 70
     0
  9
$DIMTOH
 70
     0
  9
$DIMSE1
 70
     0
  9
$DIMSE2
 70
     0
  9
$DIMTAD
 70
     1
  9
$DIMZIN
 70
    11
  9
$DIMBLK
  1
DOT
  9
$DIMASO
 70
     1
  9
$DIMSHO
 70
     1
  9
$DIMPOST
  1
<>
  9
$DIMAPOST
  1
[]
  9
$DIMALT
 70
     0
  9
$DIMALTD
 70
     1
  9
$DIMALTF
 40
1.0
  9
$DIMLFAC
 40
1.0
  9
$DIMTOFL
 70
     0
  9
$DIMTVP
 40
0.0
  9
$DIMTIX
 70
     1
  9
$DIMSOXD
 70
     0
  9
$DIMSAH
 70
     0
  9
$DIMBLK1
  1

  9
$DIMBLK2
  1

  9
$DIMSTYLE
  2
tfrom線あり
  9
$DIMCLRD
 70
     0
  9
$DIMCLRE
 70
     0
  9
$DIMCLRT
 70
     0
  9
$DIMTFAC
 40
1.0
  9
$DIMGAP
 40
20.0
  9
$DIMJUST
 70
     0
  9
$DIMSD1
 70
     0
  9
$DIMSD2
 70
     0
  9
$DIMTOLJ
 70
     1
  9
$DIMTZIN
 70
    11
  9
$DIMALTZ
 70
    11
  9
$DIMALTTZ
 70
    11
  9
$DIMUPT
 70
     0
  9
$DIMDEC
 70
     0
  9
$DIMTDEC
 70
     1
  9
$DIMALTU
 70
     2
  9
$DIMALTTD
 70
     2
  9
$DIMTXSTY
  7
ＭＳ ゴシック
  9
$DIMAUNIT
 70
     0
  9
$DIMADEC
 70
     2
  9
$DIMALTRND
 40
0.0
  9
$DIMAZIN
 70
     0
  9
$DIMDSEP
 70
    46
  9
$DIMATFIT
 70
     0
  9
$DIMFRAC
 70
     2
  9
$DIMLDRBLK
  1
DOT
  9
$DIMLUNIT
 70
     2
  9
$DIMLWD
 70
    -2
  9
$DIMLWE
 70
    -2
  9
$DIMTMOVE
 70
     0
  9
$DIMFXL
 40
1.0
  9
$DIMFXLON
 70
     0
  9
$DIMJOGANG
 40
0.7853981633974483
  9
$DIMTFILL
 70
     0
  9
$DIMTFILLCLR
 70
     0
  9
$DIMARCSYM
 70
     0
  9
$DIMLTYPE
  6

  9
$DIMLTEX1
  6

  9
$DIMLTEX2
  6

  9
$LUNITS
 70
     2
  9
$LUPREC
 70
     0
  9
$SKETCHINC
 40
0.1
  9
$FILLETRAD
 40
0.0
  9
$AUNITS
 70
     0
  9
$AUPREC
 70
     0
  9
$MENU
  1
acad
  9
$ELEVATION
 40
0.0
  9
$PELEVATION
 40
0.0
  9
$THICKNESS
 40
0.0
  9
$LIMCHECK
 70
     0
  9
$CHAMFERA
 40
0.0
  9
$CHAMFERB
 40
0.0
  9
$CHAMFERC
 40
0.0
  9
$CHAMFERD
 40
0.0
  9
$SKPOLY
 70
     0
  9
$TDCREATE
 40
2447893.375
  9
$TDUCREATE
 40
0.0
  9
$TDUPDATE
 40
2459741.504544792
  9
$TDUUPDATE
 40
2459741.129544792
  9
$TDINDWG
 40
0.1679990625
  9
$TDUSRTIMER
 40
0.0003961574
  9
$USRTIMER
 70
     1
  9
$ANGBASE
 50
0.0
  9
$ANGDIR
 70
     0
  9
$PDMODE
 70
     1
  9
$PDSIZE
 40
-2.0
  9
$PLINEWID
 40
0.0
  9
$SPLFRAME
 70
     0
  9
$SPLINETYPE
 70
     6
  9
$SPLINESEGS
 70
     8
  9
$HANDSEED
  5
4009
  9
$SURFTAB1
 70
     6
  9
$SURFTAB2
 70
     6
  9
$SURFTYPE
 70
     6
  9
$SURFU
 70
     6
  9
$SURFV
 70
     6
  9
$UCSBASE
  2

  9
$UCSNAME
  2

  9
$UCSORG
 10
0.0
 20
0.0
 30
0.0
  9
$UCSXDIR
 10
1.0
 20
0.0
 30
0.0
  9
$UCSYDIR
 10
0.0
 20
1.0
 30
0.0
  9
$UCSORTHOREF
  2

  9
$UCSORTHOVIEW
 70
     0
  9
$UCSORGTOP
 10
0.0
 20
0.0
 30
0.0
  9
$UCSORGBOTTOM
 10
0.0
 20
0.0
 30
0.0
  9
$UCSORGLEFT
 10
0.0
 20
0.0
 30
0.0
  9
$UCSORGRIGHT
 10
0.0
 20
0.0
 30
0.0
  9
$UCSORGFRONT
 10
0.0
 20
0.0
 30
0.0
  9
$UCSORGBACK
 10
0.0
 20
0.0
 30
0.0
  9
$PUCSBASE
  2

  9
$PUCSNAME
  2

  9
$PUCSORG
 10
0.0
 20
0.0
 30
0.0
  9
$PUCSXDIR
 10
1.0
 20
0.0
 30
0.0
  9
$PUCSYDIR
 10
0.0
 20
1.0
 30
0.0
  9
$PUCSORTHOREF
  2

  9
$PUCSORTHOVIEW
 70
     0
  9
$PUCSORGTOP
 10
0.0
 20
0.0
 30
0.0
  9
$PUCSORGBOTTOM
 10
0.0
 20
0.0
 30
0.0
  9
$PUCSORGLEFT
 10
0.0
 20
0.0
 30
0.0
  9
$PUCSORGRIGHT
 10
0.0
 20
0.0
 30
0.0
  9
$PUCSORGFRONT
 10
0.0
 20
0.0
 30
0.0
  9
$PUCSORGBACK
 10
0.0
 20
0.0
 30
0.0
  9
$USERI1
 70
     0
  9
$USERI2
 70
     0
  9
$USERI3
 70
     0
  9
$USERI4
 70
     0
  9
$USERI5
 70
     0
  9
$USERR1
 40
0.0
  9
$USERR2
 40
0.0
  9
$USERR3
 40
0.0
  9
$USERR4
 40
0.0
  9
$USERR5
 40
0.0
  9
$WORLDVIEW
 70
     1
  9
$SHADEDGE
 70
     3
  9
$SHADEDIF
 70
    70
  9
$TILEMODE
 70
     1
  9
$MAXACTVP
 70
    64
  9
$PINSBASE
 10
0.0
 20
0.0
 30
0.0
  9
$PLIMCHECK
 70
     0
  9
$PEXTMIN
 10
0.0
 20
0.0
 30
0.0
  9
$PEXTMAX
 10
0.0
 20
0.0
 30
0.0
  9
$PLIMMIN
 10
-7.5
 20
-20.0
  9
$PLIMMAX
 10
412.5
 20
277.0
  9
$UNITMODE
 70
     0
  9
$VISRETAIN
 70
     0
  9
$PLINEGEN
 70
     1
  9
$PSLTSCALE
 70
     0
  9
$TREEDEPTH
 70
  3020
  9
$CMLSTYLE
  2
Standard
  9
$CMLJUST
 70
     0
  9
$CMLSCALE
 40
1.0
  9
$PROXYGRAPHICS
 70
     0
  9
$MEASUREMENT
 70
     1
  9
$CELWEIGHT
370
    -1
  9
$ENDCAPS
280
     0
  9
$JOINSTYLE
280
     0
  9
$LWDISPLAY
290
     1
  9
$INSUNITS
 70
     4
  9
$HYPERLINKBASE
  1

  9
$STYLESHEET
  1

  9
$XEDIT
290
     1
  9
$CEPSNTYPE
380
     0
  9
$PSTYLEMODE
290
     1
  9
$FINGERPRINTGUID
  2

  9
$VERSIONGUID
  2

  9
$EXTNAMES
290
     1
  9
$PSVPSCALE
 40
0.0
  9
$OLESTARTUP
290
     0
  9
$SORTENTS
280
   127
  9
$INDEXCTL
280
     0
  9
$HIDETEXT
280
     1
  9
$XCLIPFRAME
290
     0
  9
$HALOGAP
280
     0
  9
$OBSCOLOR
 70
   257
  9
$OBSLTYPE
280
     0
  9
$INTERSECTIONDISPLAY
280
     0
  9
$INTERSECTIONCOLOR
 70
   257
  9
$DIMASSOC
280
     2
  9
$PROJECTNAME
  1

  9
$CAMERADISPLAY
290
     0
  9
$LENSLENGTH
 40
50.0
  9
$CAMERAHEIGHT
 40
0.0
  9
$STEPSPERSEC
 40
2.0
  9
$STEPSIZE
 40
6.0
  9
$3DDWFPREC
 40
2.0
  9
$PSOLWIDTH
 40
0.25
  9
$PSOLHEIGHT
 40
4.0
  9
$LOFTANG1
 40
1.570796326794897
  9
$LOFTANG2
 40
1.570796326794897
  9
$LOFTMAG1
 40
0.0
  9
$LOFTMAG2
 40
0.0
  9
$LOFTPARAM
 70
     7
  9
$LOFTNORMALS
280
     1
  9
$LATITUDE
 40
37.795
  9
$LONGITUDE
 40
-122.394
  9
$NORTHDIRECTION
 40
0.0
  9
$TIMEZONE
 70
 -8000
  9
$LIGHTGLYPHDISPLAY
280
     1
  9
$TILEMODELIGHTSYNCH
280
     1
  9
$SOLIDHIST
280
     1
  9
$SHOWHIST
280
     1
  9
$DWFFRAME
280
     2
  9
$DGNFRAME
280
     2
  9
$REALWORLDSCALE
290
     1
  9
$INTERFERECOLOR
 62
   256
  9
$CSHADOW
280
     0
  9
$SHADOWPLANELOCATION
 40
0.0
  0
ENDSEC
  0
SECTION
  2
CLASSES
  0
CLASS
  1
LWPOLYLINE
  2
AcDbPolyline
  3
ObjectDBX Classes
 90
        0
 91
        1
280
     0
281
     1
  0
CLASS
  1
IMAGE
  2
AcDbRasterImage
  3
ISM
 90
      127
 91
        4
280
     0
281
     1
  0
CLASS
  1
OLE2FRAME
  2
AcDbOle2Frame
  3
ObjectDBX Classes
 90
        0
 91
        1
280
     0
281
     1
  0
CLASS
  1
HATCH
  2
AcDbHatch
  3
ObjectDBX Classes
 90
        0
 91
        1
280
     0
281
     1
  0
CLASS
  1
DICTIONARYVAR
  2
AcDbDictionaryVar
  3
ObjectDBX Classes
 90
        0
 91
        3
280
     0
281
     0
  0
CLASS
  1
RASTERVARIABLES
  2
AcDbRasterVariables
  3
ISM
 90
        0
 91
        3
280
     0
281
     0
  0
CLASS
  1
IMAGEDEF
  2
AcDbRasterImageDef
  3
ISM
 90
        0
 91
        3
280
     0
281
     0
  0
CLASS
  1
IMAGEDEF_REACTOR
  2
AcDbRasterImageDefReactor
  3
ISM
 90
        1
 91
        3
280
     0
281
     0
  0
CLASS
  1
IDBUFFER
  2
AcDbIdBuffer
  3
ObjectDBX Classes
 90
        0
 91
        3
280
     0
281
     0
  0
CLASS
  1
SPATIAL_FILTER
  2
AcDbSpatialFilter
  3
ObjectDBX Classes
 90
        0
 91
        3
280
     0
281
     0
  0
CLASS
  1
XRECORD
  2
AcDbXrecord
  3
ObjectDBX Classes
 90
        0
 91
        1
280
     0
281
     0
  0
CLASS
  1
SORTENTSTABLE
  2
AcDbSortentsTable
  3
ObjectDBX Classes
 90
        0
 91
        3
280
     0
281
     0
  0
CLASS
  1
LAYER_INDEX
  2
AcDbLayerIndex
  3
ObjectDBX Classes
 90
        0
 91
        3
280
     0
281
     0
  0
CLASS
  1
SPATIAL_INDEX
  2
AcDbSpatialIndex
  3
AutoCAD 2000
 90
        0
 91
        3
280
     0
281
     0
  0
CLASS
  1
OBJECT_PTR
  2
CAseDLPNTableRecord
  3
ASE-LPNTableRecord
 90
        1
 91
        3
280
     0
281
     0
  0
CLASS
  1
LAYOUT
  2
AcDbLayout
  3
ObjectDBX Classes
 90
        0
 91
        1
280
     0
281
     0
  0
CLASS
  1
PLOTSETTINGS
  2
AcDbPlotSettings
  3
ObjectDBX Classes
 90
        0
 91
        3
280
     0
281
     0
  0
CLASS
  1
ACDBDICTIONARYWDFLT
  2
AcDbDictionaryWithDefault
  3
ObjectDBX Classes
 90
        0
 91
        3
280
     0
281
     0
  0
CLASS
  1
ACDBPLACEHOLDER
  2
AcDbPlaceHolder
  3
ObjectDBX Classes
 90
        0
 91
        1
280
     0
281
     0
  0
CLASS
  1
SCALE
  2
AcDbScale
  3
ObjectDBX Classes
 90
     1153
 91
        3
280
     0
281
     0
  0
CLASS
  1
MATERIAL
  2
AcDbMaterial
  3
ObjectDBX Classes
 90
     1153
 91
        3
280
     0
281
     0
  0
CLASS
  1
VISUALSTYLE
  2
AcDbVisualStyle
  3
ObjectDBX Classes
 90
     4095
 91
        3
280
     0
281
     0
  0
CLASS
  1
TABLESTYLE
  2
AcDbTableStyle
  3
ObjectDBX Classes
 90
     4095
 91
        3
280
     0
281
     0
  0
CLASS
  1
DIMASSOC
  2
AcDbDimAssoc
  3
"AcDbDimAssoc|Product Desc:     AcDim ARX App For Dimension|Company:          Autodesk, Inc.|WEB Address:      www.autodesk.com"
 90
        0
 91
        3
280
     0
281
     0
  0
CLASS
  1
CELLSTYLEMAP
  2
AcDbCellStyleMap
  3
ObjectDBX Classes
 90
     1152
 91
        3
280
     0
281
     0
  0
CLASS
  1
SUN
  2
AcDbSun
  3
SCENEOE
 90
     1153
 91
        3
280
     0
281
     0
  0
CLASS
  1
MLEADERSTYLE
  2
AcDbMLeaderStyle
  3
ACDB_MLEADERSTYLE_CLASS
 90
     4095
 91
        3
280
     0
281
     0
  0
CLASS
  1
FIELD
  2
AcDbField
  3
ObjectDBX Classes
 90
     1152
 91
        3
280
     0
281
     0
  0
CLASS
  1
FIELDLIST
  2
AcDbFieldList
  3
ObjectDBX Classes
 90
     1152
 91
        3
280
     0
281
     0
  0
CLASS
  1
MULTILEADER
  2
AcDbMLeader
  3
ACDB_MLEADER_CLASS
 90
     1025
 91
        3
280
     0
281
     1
  0
ENDSEC
  0
SECTION
  2
TABLES
  0
TABLE
  2
VPORT
  5
7
330
0
100
AcDbSymbolTable
 70
     1
  0
VPORT
  5
15
330
7
100
AcDbSymbolTableRecord
100
AcDbViewportTableRecord
  2
*ACTIVE
 70
     0
 10
0.0
 20
0.0
 11
1.0
 21
1.0
 12
1141.020135670899
 22
1411.401285469834
 13
0.0
 23
0.0
 14
1.0
 24
1.0
 15
0.0
 25
0.0
 16
0.0
 26
0.0
 36
1.0
 17
-91.02013567089853
 27
73.59871453016603
 37
-46.86809886248109
 40
3029.4
 41
2.338709677419355
 42
50.0
 43
0.0
 44
0.0
 50
0.0
 51
0.0
 71
    16
 72
  2000
 73
     1
 74
     1
 75
     0
 76
     0
 77
     0
 78
     0
281
     0
 65
     1
110
0.0
120
0.0
130
0.0
111
1.0
121
0.0
131
0.0
112
0.0
122
1.0
132
0.0
 79
     0
146
0.0
348
26C
 60
     3
 61
     5
292
     1
282
     1
141
0.0
142
0.0
 63
   256
361
904
  0
ENDTAB
  0
TABLE
  2
LTYPE
  5
4
330
0
100
AcDbSymbolTable
 70
     7
  0
LTYPE
  5
11
330
4
100
AcDbSymbolTableRecord
100
AcDbLinetypeTableRecord
  2
ByBlock
 70
     0
  3

 72
    65
 73
     0
 40
0.0
  0
LTYPE
  5
12
330
4
100
AcDbSymbolTableRecord
100
AcDbLinetypeTableRecord
  2
ByLayer
 70
     0
  3

 72
    65
 73
     0
 40
0.0
  0
LTYPE
  5
13
330
4
100
AcDbSymbolTableRecord
100
AcDbLinetypeTableRecord
  2
Continuous
 70
     0
  3
Solid line
 72
    65
 73
     0
 40
0.0
  0
LTYPE
  5
DAF
330
4
100
AcDbSymbolTableRecord
100
AcDbLinetypeTableRecord
  2
BORDER
 70
     0
  3
Border __  __  . __  __  . __  __  . __  __  . 
 72
    65
 73
     6
 40
44.45
 49
12.7
 74
     0
 49
-6.35
 74
     0
 49
12.7
 74
     0
 49
-6.35
 74
     0
 49
0.0
 74
     0
 49
-6.35
 74
     0
  0
LTYPE
  5
33DD
330
4
100
AcDbSymbolTableRecord
100
AcDbLinetypeTableRecord
  2
HIDDEN
 70
     0
  3
Hidden _ _ _ _ _ _ _ _ _ _ _ _ _ _ _ _ _ _ _ _ 
 72
    65
 73
     2
 40
9.524999999999999
 49
6.35
 74
     0
 49
-3.175
 74
     0
  0
LTYPE
  5
377E
330
4
100
AcDbSymbolTableRecord
100
AcDbLinetypeTableRecord
  2
JIS_02_1.0
 70
     0
  3
HIDDEN01 _ _ _ _ _ _ _ _ _ _ _ _ _ _ _ _ _
 72
    65
 73
     2
 40
2.0
 49
1.0
 74
     0
 49
-1.0
 74
     0
  0
LTYPE
  5
3782
330
4
100
AcDbSymbolTableRecord
100
AcDbLinetypeTableRecord
  2
HIDDEN2
 70
     0
  3
Hidden (.5x) _ _ _ _ _ _ _ _ _ _ _ _ _ _ _ _ _ 
 72
    65
 73
     2
 40
4.762499999999999
 49
3.175
 74
     0
 49
-1.5875
 74
     0
  0
LTYPE
  5
3786
330
4
100
AcDbSymbolTableRecord
100
AcDbLinetypeTableRecord
  2
TRATTEGGIATA
 70
     0
  3
Tratteggiata __ __ __ __ __ __ __ __ __ __ __ _
 72
    65
 73
     2
 40
19.05
 49
12.7
 74
     0
 49
-6.35
 74
     0
  0
LTYPE
  5
3ACA
330
4
100
AcDbSymbolTableRecord
100
AcDbLinetypeTableRecord
  2
STYLE_23
 70
     0
  3

 72
    65
 73
     2
 40
3.937007874015748
 49
1.968503937007874
 74
     0
 49
-1.968503937007874
 74
     0
  0
ENDTAB
  0
TABLE
  2
LAYER
  5
2
102
{ACAD_XDICTIONARY
360
2E1
102
}
330
0
100
AcDbSymbolTable
 70
    20
  0
LAYER
  5
14
330
2
100
AcDbSymbolTableRecord
100
AcDbLayerTableRecord
  2
0
 70
     0
 62
     7
  6
Continuous
370
    -3
390
1D
347
266
  0
LAYER
  5
4B
330
2
100
AcDbSymbolTableRecord
100
AcDbLayerTableRecord
  2
TEMPLATE
 70
     0
 62
     7
  6
Continuous
370
    20
390
1D
347
266
  0
LAYER
  5
4C
330
2
100
AcDbSymbolTableRecord
100
AcDbLayerTableRecord
  2
DIM
 70
     0
 62
     3
  6
Continuous
370
    13
390
1D
347
266
  0
LAYER
  5
4D
330
2
100
AcDbSymbolTableRecord
100
AcDbLayerTableRecord
  2
MODEL
 70
     0
 62
     7
  6
Continuous
370
    20
390
1D
347
266
  0
LAYER
  5
D5D
330
2
100
AcDbSymbolTableRecord
100
AcDbLayerTableRecord
  2
Defpoints
 70
     0
 62
     7
  6
Continuous
290
     0
370
    -3
390
1D
347
266
  0
LAYER
  5
DAE
330
2
100
AcDbSymbolTableRecord
100
AcDbLayerTableRecord
  2
BORDER
 70
     0
 62
     4
  6
BORDER
290
     0
370
    20
390
1D
347
266
1001
AcAecLayerStandard
1000

1000

  0
LAYER
  5
157B
330
2
100
AcDbSymbolTableRecord
100
AcDbLayerTableRecord
  2
Layer3
 70
     0
 62
     7
  6
Continuous
370
    -3
390
1D
347
266
  0
LAYER
  5
157F
330
2
100
AcDbSymbolTableRecord
100
AcDbLayerTableRecord
  2
Layer9
 70
     0
 62
     7
  6
Continuous
370
    -3
390
1D
347
266
  0
LAYER
  5
1582
330
2
100
AcDbSymbolTableRecord
100
AcDbLayerTableRecord
  2
Standard
 70
     0
 62
     7
  6
Continuous
370
    -3
390
1D
347
266
  0
LAYER
  5
33DC
330
2
100
AcDbSymbolTableRecord
100
AcDbLayerTableRecord
  2
HIDDEN
 70
     0
 62
     8
  6
HIDDEN
370
    20
390
1D
347
266
1001
AcAecLayerStandard
1000

1000

  0
LAYER
  5
3777
330
2
100
AcDbSymbolTableRecord
100
AcDbLayerTableRecord
  2
quote
 70
     0
 62
    52
  6
Continuous
370
     9
390
1D
347
266
1001
AcAecLayerStandard
1000

1000

1001
AcCmTransparency
1071
        0
  0
LAYER
  5
377D
330
2
100
AcDbSymbolTableRecord
100
AcDbLayerTableRecord
  2
retino
 70
     0
 62
   252
  6
JIS_02_1.0
370
    20
390
1D
347
266
1001
AcAecLayerStandard
1000

1000

1001
AcCmTransparency
1071
        0
  0
LAYER
  5
377F
330
2
100
AcDbSymbolTableRecord
100
AcDbLayerTableRecord
  2
Cartiglio e testi
 70
     0
 62
    40
  6
Continuous
370
    15
390
1D
347
266
  0
LAYER
  5
3780
330
2
100
AcDbSymbolTableRecord
100
AcDbLayerTableRecord
  2
Hatch
 70
     0
 62
   253
  6
Continuous
370
    25
390
1D
347
266
1001
AcAecLayerStandard
1000

1000

1001
AcCmTransparency
1071
        0
  0
LAYER
  5
3781
330
2
100
AcDbSymbolTableRecord
100
AcDbLayerTableRecord
  2
Tratteggio
 70
     0
 62
    64
  6
HIDDEN2
370
    18
390
1D
347
266
  0
LAYER
  5
3783
330
2
100
AcDbSymbolTableRecord
100
AcDbLayerTableRecord
  2
ORINAT COMPACT
 70
     0
 62
    42
  6
Continuous
370
    30
390
1D
347
266
1001
AcAecLayerStandard
1000

1000

1001
AcCmTransparency
1071
        0
  0
LAYER
  5
3784
330
2
100
AcDbSymbolTableRecord
100
AcDbLayerTableRecord
  2
idraulica
 70
     0
 62
     4
  6
Continuous
370
    -3
390
1D
347
266
  0
LAYER
  5
3785
330
2
100
AcDbSymbolTableRecord
100
AcDbLayerTableRecord
  2
Lines [0.10]
 70
     0
 62
   132
  6
Continuous
370
     9
390
1D
347
266
  0
LAYER
  5
3AC8
330
2
100
AcDbSymbolTableRecord
100
AcDbLayerTableRecord
  2
notes
 70
     0
 62
     7
  6
Continuous
370
    -3
390
1D
347
266
  0
LAYER
  5
3AC9
330
2
100
AcDbSymbolTableRecord
100
AcDbLayerTableRecord
  2
ADF70-0001
 70
     0
 62
     7
  6
Continuous
370
    -3
390
1D
347
266
  0
ENDTAB
  0
TABLE
  2
STYLE
  5
3
330
0
100
AcDbSymbolTable
 70
     2
  0
STYLE
  5
17
330
3
100
AcDbSymbolTableRecord
100
AcDbTextStyleTableRecord
  2
Standard
 70
     0
 40
0.0
 41
1.0
 50
0.0
 71
     0
 42
2.5
  3
txt
  4
BIGFONT.SHX
  0
STYLE
  5
39
330
3
100
AcDbSymbolTableRecord
100
AcDbTextStyleTableRecord
  2
ＭＳ ゴシック
 70
     0
 40
0.0
 41
1.0
 50
0.0
 71
     0
 42
2.5
  3
msgothic.ttc
  4
ＭＳ ゴシック
1001
ACAD
1000
ＭＳ ゴシック
1071
        0
  0
ENDTAB
  0
TABLE
  2
VIEW
  5
5
330
0
100
AcDbSymbolTable
 70
     0
  0
ENDTAB
  0
TABLE
  2
UCS
  5
6
330
0
100
AcDbSymbolTable
 70
     0
  0
ENDTAB
  0
TABLE
  2
APPID
  5
8
330
0
100
AcDbSymbolTable
 70
    13
  0
APPID
  5
16
330
8
100
AcDbSymbolTableRecord
100
AcDbRegAppTableRecord
  2
ACAD
 70
     0
  0
APPID
  5
7AC
330
8
100
AcDbSymbolTableRecord
100
AcDbRegAppTableRecord
  2
AcAecLayerStandard
 70
     0
  0
APPID
  5
F3A
330
8
100
AcDbSymbolTableRecord
100
AcDbRegAppTableRecord
  2
ACAD_MLEADERVER
 70
     0
  0
APPID
  5
377C
330
8
100
AcDbSymbolTableRecord
100
AcDbRegAppTableRecord
  2
AcCmTransparency
 70
     0
  0
APPID
  5
3789
330
8
100
AcDbSymbolTableRecord
100
AcDbRegAppTableRecord
  2
ACAD_DSTYLE_DIMJAG
 70
     0
  0
APPID
  5
378A
330
8
100
AcDbSymbolTableRecord
100
AcDbRegAppTableRecord
  2
ACAD_DSTYLE_DIMTALN
 70
     0
  0
APPID
  5
378C
330
8
100
AcDbSymbolTableRecord
100
AcDbRegAppTableRecord
  2
ACAD_NAV_VCDISPLAY
 70
     0
  0
APPID
  5
378D
330
8
100
AcDbSymbolTableRecord
100
AcDbRegAppTableRecord
  2
ACAD_PSEXT
 70
     0
  0
APPID
  5
378E
330
8
100
AcDbSymbolTableRecord
100
AcDbRegAppTableRecord
  2
GradientColor1ACI
 70
     0
  0
APPID
  5
378F
330
8
100
AcDbSymbolTableRecord
100
AcDbRegAppTableRecord
  2
GradientColor2ACI
 70
     0
  0
APPID
  5
3790
330
8
100
AcDbSymbolTableRecord
100
AcDbRegAppTableRecord
  2
AcLayerTools
 70
     0
  0
APPID
  5
3F18
330
8
100
AcDbSymbolTableRecord
100
AcDbRegAppTableRecord
  2
AcadAnnotative
 70
     0
  0
APPID
  5
4005
330
8
100
AcDbSymbolTableRecord
100
AcDbRegAppTableRecord
  2
PLOTTRANSPARENCY
 70
     0
  0
ENDTAB
  0
TABLE
  2
DIMSTYLE
  5
9
330
0
100
AcDbSymbolTable
 70
     7
100
AcDbDimStyleTable
  0
DIMSTYLE
105
18
330
9
100
AcDbSymbolTableRecord
100
AcDbDimStyleTableRecord
  2
Standard
 70
     0
178
     0
340
17
  0
DIMSTYLE
105
57
102
{ACAD_REACTORS
330
3D0C
330
3D0F
330
3D12
330
3D15
330
3D4B
330
3D58
330
3D5B
330
3D5F
330
3D60
330
3D64
330
3D67
330
3D6D
330
3E96
330
3F2B
330
3F43
330
3F8E
330
3F9C
330
3FAB
330
3FCC
330
3FCE
330
3FD1
102
}
330
9
100
AcDbSymbolTableRecord
100
AcDbDimStyleTableRecord
  2
tfrom線あり
 70
     0
  3
<>
  4
[]
 41
10.0
 42
30.0
 43
0.9999999999999999
 44
0.0
 73
     0
 74
     0
 77
     1
 78
    11
140
24.0
141
0.0
143
1.0
147
20.0
171
     1
174
     1
178
     0
179
     2
271
     0
272
     1
276
     2
284
    11
285
    11
286
    11
289
     0
340
39
341
4E
342
4E
  0
DIMSTYLE
105
3787
330
9
100
AcDbSymbolTableRecord
100
AcDbDimStyleTableRecord
  2
ISO-25
 70
     0
 41
6.0
 42
0.645
 43
3.75
 44
1.25
 49
25.0
290
     1
 73
     0
 74
     0
 77
     1
 78
     8
140
10.0
141
0.0
143
0.03937007874016
147
2.0
171
     3
172
     1
176
   256
178
     0
271
     0
272
     0
274
     3
278
    44
283
     0
284
     8
340
17
346
377E
347
377E
1001
ACAD_DSTYLE_DIMJAG
1070
   388
1040
1.5
1001
ACAD_DSTYLE_DIMTALN
1070
   392
1070
     0
  0
DIMSTYLE
105
3F06
330
9
100
AcDbSymbolTableRecord
100
AcDbDimStyleTableRecord
  2
tform線あり
 70
     0
  3
<>
  4
[]
 41
9.999389648437498
 42
25.0
 43
0.9999999999999999
 44
0.0
 73
     0
 74
     0
 77
     1
 78
    11
140
24.4326171875
141
0.0
143
1.0
146
0.8
147
10.0
171
     1
172
     1
174
     1
178
     0
179
     2
271
     1
272
     1
276
     2
284
    11
285
    11
286
    11
289
     0
340
39
341
4E
342
4E
  0
DIMSTYLE
105
3F10
330
9
100
AcDbSymbolTableRecord
100
AcDbDimStyleTableRecord
  2
scala  A3
 70
     0
 41
5.0
 42
0.625
 43
0.0
 44
1.25
 49
10.0
 90
        2
290
     1
 73
     0
 74
     0
 77
     1
 78
     8
140
6.0
141
2.5
143
0.03937007874016
147
2.0
171
     3
176
   256
177
   256
178
     0
271
     0
272
     0
274
     3
278
    44
283
     0
284
     8
340
17
371
    -1
372
     0
345
12
346
12
347
12
1001
ACAD_DSTYLE_DIMJAG
1070
   388
1040
1.5
1001
ACAD_DSTYLE_DIMTALN
1070
   392
1070
     0
  0
DIMSTYLE
105
3F13
330
9
100
AcDbSymbolTableRecord
100
AcDbDimStyleTableRecord
  2
Standard1
 70
     0
 41
0.0
 42
5.0
 44
0.0
 73
     0
 74
     0
 77
     2
140
20.0
141
0.0
147
2.0
178
     0
271
     0
272
     0
340
17
341
37D9
342
37D9
1001
ACAD_DSTYLE_DIMJAG
1070
   388
1040
1.5
1001
ACAD_DSTYLE_DIMTALN
1070
   392
1070
     0
  0
DIMSTYLE
105
3F17
330
9
100
AcDbSymbolTableRecord
100
AcDbDimStyleTableRecord
  2
scala 1a 1 ass
 70
     0
 41
1.3
 42
0.625
 43
0.0
 44
1.25
 45
0.5
 49
2.0
290
     1
 73
     0
 74
     0
 77
     1
 78
     9
 79
     1
140
2.0
141
0.0
143
0.03937007874016
147
0.5
171
     3
174
     1
176
   256
177
   256
178
     0
179
     1
271
     0
272
     0
274
     3
278
    44
279
     2
283
     0
284
     8
340
17
371
    15
372
     5
345
12
346
3782
347
3782
1001
AcadAnnotative
1000
AnnotativeData
1002
{
1070
     1
1070
     1
1002
}
1001
ACAD_DSTYLE_DIMJAG
1070
   388
1040
1.5
1001
ACAD_DSTYLE_DIMTALN
1070
   392
1070
     0
  0
ENDTAB
  0
TABLE
  2
BLOCK_RECORD
  5
1
330
0
100
AcDbSymbolTable
 70
    95
  0
BLOCK_RECORD
  5
A
102
{ACAD_XDICTIONARY
360
374D
102
}
330
1
100
AcDbSymbolTableRecord
100
AcDbBlockTableRecord
  2
*MODEL_SPACE
340
20
 70
     0
280
     1
281
     0
  0
BLOCK_RECORD
  5
B
330
1
100
AcDbSymbolTableRecord
100
AcDbBlockTableRecord
  2
*PAPER_SPACE
340
21
 70
     0
280
     1
281
     0
  0
BLOCK_RECORD
  5
4E
330
1
100
AcDbSymbolTableRecord
100
AcDbBlockTableRecord
  2
_DOT
340
0
102
{BLKREFS
331
373A
331
373B
331
3746
331
3747
331
3ABB
331
3ABC
331
3B46
331
3B47
331
3B55
331
3B56
331
3B64
331
3B65
331
3B73
331
3B74
331
3B84
331
3B85
331
3B93
331
3B94
331
3BA2
331
3BA3
331
3BD9
331
3BDA
331
3BE8
331
3BE9
331
3BF7
331
3BF8
331
3C06
331
3C07
331
3C13
331
3C14
331
3C22
331
3C23
331
3C31
331
3C32
331
3C3E
331
3C3F
331
3C4B
331
3C4C
331
3C58
331
3C59
331
3C67
331
3C68
331
3C76
331
3C77
331
3C85
331
3C86
331
3C94
331
3C95
331
3CA3
331
3CA4
331
3D76
331
3D77
331
3D82
331
3D83
331
3D8E
331
3D8F
331
3D9A
331
3D9B
331
3DA6
331
3DA7
331
3DB2
331
3DB3
331
3DBE
331
3DBF
331
3DCA
331
3DCB
331
3DD6
331
3DD7
331
3DE2
331
3DE3
331
3DEE
331
3DEF
331
3DFA
331
3DFB
331
3E06
331
3E07
331
3E12
331
3E13
331
3E1E
331
3E1F
331
3E2A
331
3E2B
331
3E36
331
3E37
331
3E42
331
3E43
331
3E4E
331
3E4F
331
3E5A
331
3E5B
331
3E66
331
3E67
331
3E72
331
3E73
331
3E9F
331
3EA0
331
3F34
331
3F35
331
3F4C
331
3F4D
331
3FDA
331
3FDB
331
3FE6
331
3FE7
331
3FF2
331
3FF3
102
}
 70
     0
280
     1
281
     0
  0
BLOCK_RECORD
  5
68D
330
1
100
AcDbSymbolTableRecord
100
AcDbBlockTableRecord
  2
block 2
340
0
102
{BLKREFS
331
68C
102
}
 70
     0
280
     1
281
     0
  0
BLOCK_RECORD
  5
199A
330
1
100
AcDbSymbolTableRecord
100
AcDbBlockTableRecord
  2
SEANNOT_GROUP
340
0
102
{BLKREFS
331
28CA
102
}
 70
     0
280
     1
281
     0
  0
BLOCK_RECORD
  5
1F2F
330
1
100
AcDbSymbolTableRecord
100
AcDbBlockTableRecord
  2
SEANNOT_GROUP1
340
0
102
{BLKREFS
331
2B9B
102
}
 70
     0
280
     1
281
     0
  0
BLOCK_RECORD
  5
3734
330
1
100
AcDbSymbolTableRecord
100
AcDbBlockTableRecord
  2
*D4
340
0
 70
     0
280
     1
281
     0
  0
BLOCK_RECORD
  5
3740
330
1
100
AcDbSymbolTableRecord
100
AcDbBlockTableRecord
  2
*D5
340
0
 70
     0
280
     1
281
     0
  0
BLOCK_RECORD
  5
37CF
330
1
100
AcDbSymbolTableRecord
100
AcDbBlockTableRecord
  2
*D6
340
0
 70
     0
280
     1
281
     0
  0
BLOCK_RECORD
  5
37D9
330
1
100
AcDbSymbolTableRecord
100
AcDbBlockTableRecord
  2
_None
340
0
 70
     0
280
     1
281
     0
  0
BLOCK_RECORD
  5
37DD
330
1
100
AcDbSymbolTableRecord
100
AcDbBlockTableRecord
  2
*D8
340
0
 70
     0
280
     1
281
     0
  0
BLOCK_RECORD
  5
37E8
330
1
100
AcDbSymbolTableRecord
100
AcDbBlockTableRecord
  2
*D9
340
0
 70
     0
280
     1
281
     0
  0
BLOCK_RECORD
  5
37F5
330
1
100
AcDbSymbolTableRecord
100
AcDbBlockTableRecord
  2
*D10
340
0
 70
     0
280
     1
281
     0
  0
BLOCK_RECORD
  5
3802
330
1
100
AcDbSymbolTableRecord
100
AcDbBlockTableRecord
  2
*D11
340
0
 70
     0
280
     1
281
     0
  0
BLOCK_RECORD
  5
3810
330
1
100
AcDbSymbolTableRecord
100
AcDbBlockTableRecord
  2
*D12
340
0
 70
     0
280
     1
281
     0
  0
BLOCK_RECORD
  5
381B
330
1
100
AcDbSymbolTableRecord
100
AcDbBlockTableRecord
  2
*D13
340
0
 70
     0
280
     1
281
     0
  0
BLOCK_RECORD
  5
383B
330
1
100
AcDbSymbolTableRecord
100
AcDbBlockTableRecord
  2
*D14
340
0
 70
     0
280
     1
281
     0
  0
BLOCK_RECORD
  5
3846
330
1
100
AcDbSymbolTableRecord
100
AcDbBlockTableRecord
  2
*D15
340
0
 70
     0
280
     1
281
     0
  0
BLOCK_RECORD
  5
3853
330
1
100
AcDbSymbolTableRecord
100
AcDbBlockTableRecord
  2
*D16
340
0
 70
     0
280
     1
281
     0
  0
BLOCK_RECORD
  5
38D9
330
1
100
AcDbSymbolTableRecord
100
AcDbBlockTableRecord
  2
*D17
340
0
 70
     0
280
     1
281
     0
  0
BLOCK_RECORD
  5
38E4
330
1
100
AcDbSymbolTableRecord
100
AcDbBlockTableRecord
  2
*D18
340
0
 70
     0
280
     1
281
     0
  0
BLOCK_RECORD
  5
38EF
330
1
100
AcDbSymbolTableRecord
100
AcDbBlockTableRecord
  2
*D19
340
0
 70
     0
280
     1
281
     0
  0
BLOCK_RECORD
  5
38FB
330
1
100
AcDbSymbolTableRecord
100
AcDbBlockTableRecord
  2
*D20
340
0
 70
     0
280
     1
281
     0
  0
BLOCK_RECORD
  5
3906
330
1
100
AcDbSymbolTableRecord
100
AcDbBlockTableRecord
  2
*D21
340
0
 70
     0
280
     1
281
     0
  0
BLOCK_RECORD
  5
3913
330
1
100
AcDbSymbolTableRecord
100
AcDbBlockTableRecord
  2
*D22
340
0
 70
     0
280
     1
281
     0
  0
BLOCK_RECORD
  5
391E
330
1
100
AcDbSymbolTableRecord
100
AcDbBlockTableRecord
  2
*D23
340
0
 70
     0
280
     1
281
     0
  0
BLOCK_RECORD
  5
3A08
330
1
100
AcDbSymbolTableRecord
100
AcDbBlockTableRecord
  2
*D24
340
0
 70
     0
280
     1
281
     0
  0
BLOCK_RECORD
  5
3A12
330
1
100
AcDbSymbolTableRecord
100
AcDbBlockTableRecord
  2
*D25
340
0
 70
     0
280
     1
281
     0
  0
BLOCK_RECORD
  5
3A1C
330
1
100
AcDbSymbolTableRecord
100
AcDbBlockTableRecord
  2
*D26
340
0
 70
     0
280
     1
281
     0
  0
BLOCK_RECORD
  5
3A26
330
1
100
AcDbSymbolTableRecord
100
AcDbBlockTableRecord
  2
*D27
340
0
 70
     0
280
     1
281
     0
  0
BLOCK_RECORD
  5
3A30
330
1
100
AcDbSymbolTableRecord
100
AcDbBlockTableRecord
  2
*D28
340
0
 70
     0
280
     1
281
     0
  0
BLOCK_RECORD
  5
3A3A
330
1
100
AcDbSymbolTableRecord
100
AcDbBlockTableRecord
  2
*D29
340
0
 70
     0
280
     1
281
     0
  0
BLOCK_RECORD
  5
3A44
330
1
100
AcDbSymbolTableRecord
100
AcDbBlockTableRecord
  2
*D30
340
0
 70
     0
280
     1
281
     0
  0
BLOCK_RECORD
  5
3A4E
330
1
100
AcDbSymbolTableRecord
100
AcDbBlockTableRecord
  2
*D31
340
0
 70
     0
280
     1
281
     0
  0
BLOCK_RECORD
  5
3A58
330
1
100
AcDbSymbolTableRecord
100
AcDbBlockTableRecord
  2
*D32
340
0
 70
     0
280
     1
281
     0
  0
BLOCK_RECORD
  5
3A62
330
1
100
AcDbSymbolTableRecord
100
AcDbBlockTableRecord
  2
*D33
340
0
 70
     0
280
     1
281
     0
  0
BLOCK_RECORD
  5
3A6C
330
1
100
AcDbSymbolTableRecord
100
AcDbBlockTableRecord
  2
*D34
340
0
 70
     0
280
     1
281
     0
  0
BLOCK_RECORD
  5
3A76
330
1
100
AcDbSymbolTableRecord
100
AcDbBlockTableRecord
  2
*D35
340
0
 70
     0
280
     1
281
     0
  0
BLOCK_RECORD
  5
3A80
330
1
100
AcDbSymbolTableRecord
100
AcDbBlockTableRecord
  2
*D36
340
0
 70
     0
280
     1
281
     0
  0
BLOCK_RECORD
  5
3A8A
330
1
100
AcDbSymbolTableRecord
100
AcDbBlockTableRecord
  2
*D37
340
0
 70
     0
280
     1
281
     0
  0
BLOCK_RECORD
  5
3A94
330
1
100
AcDbSymbolTableRecord
100
AcDbBlockTableRecord
  2
*D38
340
0
 70
     0
280
     1
281
     0
  0
BLOCK_RECORD
  5
3A9E
330
1
100
AcDbSymbolTableRecord
100
AcDbBlockTableRecord
  2
*D39
340
0
 70
     0
280
     1
281
     0
  0
BLOCK_RECORD
  5
3AA8
330
1
100
AcDbSymbolTableRecord
100
AcDbBlockTableRecord
  2
*D40
340
0
 70
     0
280
     1
281
     0
  0
BLOCK_RECORD
  5
3AB5
330
1
100
AcDbSymbolTableRecord
100
AcDbBlockTableRecord
  2
*D41
340
0
 70
     0
280
     1
281
     0
  0
BLOCK_RECORD
  5
3B41
330
1
100
AcDbSymbolTableRecord
100
AcDbBlockTableRecord
  2
*D42
340
0
 70
     0
280
     1
281
     0
  0
BLOCK_RECORD
  5
3B50
330
1
100
AcDbSymbolTableRecord
100
AcDbBlockTableRecord
  2
*D43
340
0
 70
     0
280
     1
281
     0
  0
BLOCK_RECORD
  5
3B5F
330
1
100
AcDbSymbolTableRecord
100
AcDbBlockTableRecord
  2
*D44
340
0
 70
     0
280
     1
281
     0
  0
BLOCK_RECORD
  5
3B6E
330
1
100
AcDbSymbolTableRecord
100
AcDbBlockTableRecord
  2
*D45
340
0
 70
     0
280
     1
281
     0
  0
BLOCK_RECORD
  5
3B7F
330
1
100
AcDbSymbolTableRecord
100
AcDbBlockTableRecord
  2
*D46
340
0
 70
     0
280
     1
281
     0
  0
BLOCK_RECORD
  5
3B8E
330
1
100
AcDbSymbolTableRecord
100
AcDbBlockTableRecord
  2
*D47
340
0
 70
     0
280
     1
281
     0
  0
BLOCK_RECORD
  5
3B9D
330
1
100
AcDbSymbolTableRecord
100
AcDbBlockTableRecord
  2
*D48
340
0
 70
     0
280
     1
281
     0
  0
BLOCK_RECORD
  5
3BD4
330
1
100
AcDbSymbolTableRecord
100
AcDbBlockTableRecord
  2
*D49
340
0
 70
     0
280
     1
281
     0
  0
BLOCK_RECORD
  5
3BE3
330
1
100
AcDbSymbolTableRecord
100
AcDbBlockTableRecord
  2
*D50
340
0
 70
     0
280
     1
281
     0
  0
BLOCK_RECORD
  5
3BF2
330
1
100
AcDbSymbolTableRecord
100
AcDbBlockTableRecord
  2
*D51
340
0
 70
     0
280
     1
281
     0
  0
BLOCK_RECORD
  5
3C01
330
1
100
AcDbSymbolTableRecord
100
AcDbBlockTableRecord
  2
*D52
340
0
 70
     0
280
     1
281
     0
  0
BLOCK_RECORD
  5
3C0E
330
1
100
AcDbSymbolTableRecord
100
AcDbBlockTableRecord
  2
*D53
340
0
 70
     0
280
     1
281
     0
  0
BLOCK_RECORD
  5
3C1D
330
1
100
AcDbSymbolTableRecord
100
AcDbBlockTableRecord
  2
*D54
340
0
 70
     0
280
     1
281
     0
  0
BLOCK_RECORD
  5
3C2C
330
1
100
AcDbSymbolTableRecord
100
AcDbBlockTableRecord
  2
*D55
340
0
 70
     0
280
     1
281
     0
  0
BLOCK_RECORD
  5
3C39
330
1
100
AcDbSymbolTableRecord
100
AcDbBlockTableRecord
  2
*D56
340
0
 70
     0
280
     1
281
     0
  0
BLOCK_RECORD
  5
3C46
330
1
100
AcDbSymbolTableRecord
100
AcDbBlockTableRecord
  2
*D57
340
0
 70
     0
280
     1
281
     0
  0
BLOCK_RECORD
  5
3C53
330
1
100
AcDbSymbolTableRecord
100
AcDbBlockTableRecord
  2
*D58
340
0
 70
     0
280
     1
281
     0
  0
BLOCK_RECORD
  5
3C62
330
1
100
AcDbSymbolTableRecord
100
AcDbBlockTableRecord
  2
*D59
340
0
 70
     0
280
     1
281
     0
  0
BLOCK_RECORD
  5
3C71
330
1
100
AcDbSymbolTableRecord
100
AcDbBlockTableRecord
  2
*D60
340
0
 70
     0
280
     1
281
     0
  0
BLOCK_RECORD
  5
3C80
330
1
100
AcDbSymbolTableRecord
100
AcDbBlockTableRecord
  2
*D61
340
0
 70
     0
280
     1
281
     0
  0
BLOCK_RECORD
  5
3C8F
330
1
100
AcDbSymbolTableRecord
100
AcDbBlockTableRecord
  2
*D62
340
0
 70
     0
280
     1
281
     0
  0
BLOCK_RECORD
  5
3C9E
330
1
100
AcDbSymbolTableRecord
100
AcDbBlockTableRecord
  2
*D63
340
0
 70
     0
280
     1
281
     0
  0
BLOCK_RECORD
  5
3D70
330
1
100
AcDbSymbolTableRecord
100
AcDbBlockTableRecord
  2
*D64
340
0
 70
     0
280
     1
281
     0
  0
BLOCK_RECORD
  5
3D7C
330
1
100
AcDbSymbolTableRecord
100
AcDbBlockTableRecord
  2
*D65
340
0
 70
     0
280
     1
281
     0
  0
BLOCK_RECORD
  5
3D88
330
1
100
AcDbSymbolTableRecord
100
AcDbBlockTableRecord
  2
*D66
340
0
 70
     0
280
     1
281
     0
  0
BLOCK_RECORD
  5
3D94
330
1
100
AcDbSymbolTableRecord
100
AcDbBlockTableRecord
  2
*D67
340
0
 70
     0
280
     1
281
     0
  0
BLOCK_RECORD
  5
3DA0
330
1
100
AcDbSymbolTableRecord
100
AcDbBlockTableRecord
  2
*D68
340
0
 70
     0
280
     1
281
     0
  0
BLOCK_RECORD
  5
3DAC
330
1
100
AcDbSymbolTableRecord
100
AcDbBlockTableRecord
  2
*D69
340
0
 70
     0
280
     1
281
     0
  0
BLOCK_RECORD
  5
3DB8
330
1
100
AcDbSymbolTableRecord
100
AcDbBlockTableRecord
  2
*D70
340
0
 70
     0
280
     1
281
     0
  0
BLOCK_RECORD
  5
3DC4
330
1
100
AcDbSymbolTableRecord
100
AcDbBlockTableRecord
  2
*D71
340
0
 70
     0
280
     1
281
     0
  0
BLOCK_RECORD
  5
3DD0
330
1
100
AcDbSymbolTableRecord
100
AcDbBlockTableRecord
  2
*D72
340
0
 70
     0
280
     1
281
     0
  0
BLOCK_RECORD
  5
3DDC
330
1
100
AcDbSymbolTableRecord
100
AcDbBlockTableRecord
  2
*D73
340
0
 70
     0
280
     1
281
     0
  0
BLOCK_RECORD
  5
3DE8
330
1
100
AcDbSymbolTableRecord
100
AcDbBlockTableRecord
  2
*D74
340
0
 70
     0
280
     1
281
     0
  0
BLOCK_RECORD
  5
3DF4
330
1
100
AcDbSymbolTableRecord
100
AcDbBlockTableRecord
  2
*D75
340
0
 70
     0
280
     1
281
     0
  0
BLOCK_RECORD
  5
3E00
330
1
100
AcDbSymbolTableRecord
100
AcDbBlockTableRecord
  2
*D76
340
0
 70
     0
280
     1
281
     0
  0
BLOCK_RECORD
  5
3E0C
330
1
100
AcDbSymbolTableRecord
100
AcDbBlockTableRecord
  2
*D77
340
0
 70
     0
280
     1
281
     0
  0
BLOCK_RECORD
  5
3E18
330
1
100
AcDbSymbolTableRecord
100
AcDbBlockTableRecord
  2
*D78
340
0
 70
     0
280
     1
281
     0
  0
BLOCK_RECORD
  5
3E24
330
1
100
AcDbSymbolTableRecord
100
AcDbBlockTableRecord
  2
*D79
340
0
 70
     0
280
     1
281
     0
  0
BLOCK_RECORD
  5
3E30
330
1
100
AcDbSymbolTableRecord
100
AcDbBlockTableRecord
  2
*D80
340
0
 70
     0
280
     1
281
     0
  0
BLOCK_RECORD
  5
3E3C
330
1
100
AcDbSymbolTableRecord
100
AcDbBlockTableRecord
  2
*D81
340
0
 70
     0
280
     1
281
     0
  0
BLOCK_RECORD
  5
3E48
330
1
100
AcDbSymbolTableRecord
100
AcDbBlockTableRecord
  2
*D82
340
0
 70
     0
280
     1
281
     0
  0
BLOCK_RECORD
  5
3E54
330
1
100
AcDbSymbolTableRecord
100
AcDbBlockTableRecord
  2
*D83
340
0
 70
     0
280
     1
281
     0
  0
BLOCK_RECORD
  5
3E60
330
1
100
AcDbSymbolTableRecord
100
AcDbBlockTableRecord
  2
*D84
340
0
 70
     0
280
     1
281
     0
  0
BLOCK_RECORD
  5
3E6C
330
1
100
AcDbSymbolTableRecord
100
AcDbBlockTableRecord
  2
*D85
340
0
 70
     0
280
     1
281
     0
  0
BLOCK_RECORD
  5
3E99
330
1
100
AcDbSymbolTableRecord
100
AcDbBlockTableRecord
  2
*D86
340
0
 70
     0
280
     1
281
     0
  0
BLOCK_RECORD
  5
3F2E
330
1
100
AcDbSymbolTableRecord
100
AcDbBlockTableRecord
  2
*D87
340
0
 70
     0
280
     1
281
     0
  0
BLOCK_RECORD
  5
3F46
330
1
100
AcDbSymbolTableRecord
100
AcDbBlockTableRecord
  2
*D88
340
0
 70
     0
280
     1
281
     0
  0
BLOCK_RECORD
  5
3F90
330
1
100
AcDbSymbolTableRecord
100
AcDbBlockTableRecord
  2
*D90
340
0
 70
     0
280
     1
281
     0
  0
BLOCK_RECORD
  5
3F9D
330
1
100
AcDbSymbolTableRecord
100
AcDbBlockTableRecord
  2
*D91
340
0
 70
     0
280
     1
281
     0
  0
BLOCK_RECORD
  5
3FAE
330
1
100
AcDbSymbolTableRecord
100
AcDbBlockTableRecord
  2
*D92
340
0
 70
     0
280
     1
281
     0
  0
BLOCK_RECORD
  5
3FD4
330
1
100
AcDbSymbolTableRecord
100
AcDbBlockTableRecord
  2
*D93
340
0
 70
     0
280
     1
281
     0
  0
BLOCK_RECORD
  5
3FE0
330
1
100
AcDbSymbolTableRecord
100
AcDbBlockTableRecord
  2
*D94
340
0
 70
     0
280
     1
281
     0
  0
BLOCK_RECORD
  5
3FEC
330
1
100
AcDbSymbolTableRecord
100
AcDbBlockTableRecord
  2
*D95
340
0
 70
     0
280
     1
281
     0
  0
ENDTAB
  0
ENDSEC
  0
SECTION
  2
BLOCKS
  0
BLOCK
  5
D
330
A
100
AcDbEntity
  8
0
390
1D
100
AcDbBlockBegin
  2
*MODEL_SPACE
 70
     0
 10
0.0
 20
0.0
 30
0.0
  3
*MODEL_SPACE
  1
*MODEL_SPACE
  0
ENDBLK
  5
E
330
A
100
AcDbEntity
  8
0
390
1D
100
AcDbBlockEnd
  0
BLOCK
  5
F
330
B
100
AcDbEntity
 67
     1
  8
0
390
1D
100
AcDbBlockBegin
  2
*PAPER_SPACE
 70
     0
 10
0.0
 20
0.0
 30
0.0
  3
*PAPER_SPACE
  1
*PAPER_SPACE
  0
ENDBLK
  5
10
330
B
100
AcDbEntity
 67
     1
  8
0
390
1D
100
AcDbBlockEnd
  0
BLOCK
  5
EC4
330
4E
100
AcDbEntity
  8
0
390
1D
100
AcDbBlockBegin
  2
_DOT
 70
     0
 10
0.0
 20
0.0
 30
0.0
  3
_DOT
  1
_DOT
  0
POLYLINE
  5
EC6
330
4E
100
AcDbEntity
  8
0
  6
ByBlock
 62
     0
370
    -2
390
1D
100
AcDb2dPolyline
 66
     1
 10
0.0
 20
0.0
 30
0.0
 70
     1
 40
0.5
 41
0.5
  0
VERTEX
  5
EC7
330
EC6
100
AcDbEntity
  8
0
  6
ByBlock
 62
     0
370
    -2
390
1D
100
AcDbVertex
100
AcDb2dVertex
 10
-0.25
 20
0.0
 30
0.0
 42
1.0
  0
VERTEX
  5
EC8
330
EC6
100
AcDbEntity
  8
0
  6
ByBlock
 62
     0
370
    -2
390
1D
100
AcDbVertex
100
AcDb2dVertex
 10
0.25
 20
0.0
 30
0.0
 42
1.0
  0
SEQEND
  5
EC9
330
EC6
100
AcDbEntity
  8
0
390
1D
  0
LINE
  5
ECA
330
4E
100
AcDbEntity
  8
0
  6
ByBlock
 62
     0
370
    -2
390
1D
100
AcDbLine
 10
-0.5
 20
0.0
 30
0.0
 11
-1.0
 21
0.0
 31
0.0
  0
ENDBLK
  5
ECB
330
4E
100
AcDbEntity
  8
0
390
1D
100
AcDbBlockEnd
  0
BLOCK
  5
68E
330
68D
100
AcDbEntity
  8
0
100
AcDbBlockBegin
  2
block 2
 70
     0
 10
0.0
 20
0.0
 30
0.0
  3
block 2
  1
block 2
  0
ENDBLK
  5
6B0
330
68D
100
AcDbEntity
  8
0
100
AcDbBlockEnd
  0
BLOCK
  5
199B
330
199A
100
AcDbEntity
  8
0
100
AcDbBlockBegin
  2
SEANNOT_GROUP
 70
     0
 10
0.0
 20
0.0
 30
0.0
  3
SEANNOT_GROUP
  1
SEANNOT_GROUP
  0
ENDBLK
  5
199C
330
199A
100
AcDbEntity
  8
0
100
AcDbBlockEnd
  0
BLOCK
  5
1F30
330
1F2F
100
AcDbEntity
  8
0
100
AcDbBlockBegin
  2
SEANNOT_GROUP1
 70
     0
 10
0.0
 20
0.0
 30
0.0
  3
SEANNOT_GROUP1
  1
SEANNOT_GROUP1
  0
ENDBLK
  5
1F31
330
1F2F
100
AcDbEntity
  8
0
100
AcDbBlockEnd
  0
BLOCK
  5
3735
330
3734
100
AcDbEntity
  8
0
100
AcDbBlockBegin
  2
*D4
 70
     1
 10
0.0
 20
0.0
 30
0.0
  3
*D4
  1

  0
LINE
  5
3737
330
3734
100
AcDbEntity
  8
DIM
 62
     0
370
    -2
100
AcDbLine
 10
792.5747720364734
 20
1624.375151854103
 30
0.0
 11
792.5747720364734
 21
1945.106376948328
 31
0.0
  0
LINE
  5
3738
330
3734
100
AcDbEntity
  8
DIM
 62
     0
370
    -2
100
AcDbLine
 10
1363.464741641327
 20
1624.375151854103
 30
0.0
 11
1363.464741641327
 21
1945.106376948328
 31
0.0
  0
LINE
  5
3739
330
3734
100
AcDbEntity
  8
DIM
 62
     0
370
    -2
100
AcDbLine
 10
802.5747720364734
 20
1945.106376948328
 30
0.0
 11
1353.464741641327
 21
1945.106376948328
 31
0.0
  0
INSERT
  5
373A
330
3734
100
AcDbEntity
  8
DIM
 62
     0
370
    -2
100
AcDbBlockReference
  2
_DOT
 10
792.5747720364734
 20
1945.106376948328
 30
0.0
 41
10.0
 42
10.0
 43
10.0
 50
180.0
  0
INSERT
  5
373B
330
3734
100
AcDbEntity
  8
DIM
 62
     0
370
    -2
100
AcDbBlockReference
  2
_DOT
 10
1363.464741641327
 20
1945.106376948328
 30
0.0
 41
10.0
 42
10.0
 43
10.0
  0
MTEXT
  5
373C
330
3734
100
AcDbEntity
  8
DIM
 62
     0
100
AcDbMText
 10
1078.019756838897
 20
1977.106376948328
 30
0.0
 40
24.0
 41
0.0
 46
0.0
 71
     5
 72
     1
  1
\A1;571
  7
ＭＳ ゴシック
 73
     1
 44
1.0
  0
POINT
  5
373D
330
3734
100
AcDbEntity
  8
Defpoints
 62
     0
100
AcDbPoint
 10
792.5747720364734
 20
1594.375151854103
 30
0.0
  0
POINT
  5
373E
330
3734
100
AcDbEntity
  8
Defpoints
 62
     0
100
AcDbPoint
 10
1363.464741641327
 20
1594.375151854103
 30
0.0
  0
POINT
  5
373F
330
3734
100
AcDbEntity
  8
Defpoints
 62
     0
100
AcDbPoint
 10
1363.464741641327
 20
1945.106376948328
 30
0.0
  0
ENDBLK
  5
3736
330
3734
100
AcDbEntity
  8
0
100
AcDbBlockEnd
  0
BLOCK
  5
3741
330
3740
100
AcDbEntity
  8
0
100
AcDbBlockBegin
  2
*D5
 70
     1
 10
0.0
 20
0.0
 30
0.0
  3
*D5
  1

  0
LINE
  5
3743
330
3740
100
AcDbEntity
  8
DIM
 62
     0
370
    -2
100
AcDbLine
 10
888.5851999139768
 20
1564.375151854103
 30
0.0
 11
888.5851999139768
 21
1160.881823708206
 31
0.0
  0
LINE
  5
3744
330
3740
100
AcDbEntity
  8
DIM
 62
     0
370
    -2
100
AcDbLine
 10
1267.454313763824
 20
1564.375151854103
 30
0.0
 11
1267.454313763824
 21
1160.881823708206
 31
0.0
  0
LINE
  5
3745
330
3740
100
AcDbEntity
  8
DIM
 62
     0
370
    -2
100
AcDbLine
 10
898.5851999139768
 20
1160.881823708206
 30
0.0
 11
1257.454313763824
 21
1160.881823708206
 31
0.0
  0
INSERT
  5
3746
330
3740
100
AcDbEntity
  8
DIM
 62
     0
370
    -2
100
AcDbBlockReference
  2
_DOT
 10
888.5851999139768
 20
1160.881823708206
 30
0.0
 41
10.0
 42
10.0
 43
10.0
 50
180.0
  0
INSERT
  5
3747
330
3740
100
AcDbEntity
  8
DIM
 62
     0
370
    -2
100
AcDbBlockReference
  2
_DOT
 10
1267.454313763824
 20
1160.881823708206
 30
0.0
 41
10.0
 42
10.0
 43
10.0
  0
MTEXT
  5
3748
330
3740
100
AcDbEntity
  8
DIM
 62
     0
100
AcDbMText
 10
1078.0197568389
 20
1192.881823708206
 30
0.0
 40
24.0
 41
0.0
 46
0.0
 71
     5
 72
     1
  1
\A1;379
  7
ＭＳ ゴシック
 73
     1
 44
1.0
  0
POINT
  5
3749
330
3740
100
AcDbEntity
  8
Defpoints
 62
     0
100
AcDbPoint
 10
888.5851999139768
 20
1594.375151854103
 30
0.0
  0
POINT
  5
374A
330
3740
100
AcDbEntity
  8
Defpoints
 62
     0
100
AcDbPoint
 10
1267.454313763824
 20
1594.375151854103
 30
0.0
  0
POINT
  5
374B
330
3740
100
AcDbEntity
  8
Defpoints
 62
     0
100
AcDbPoint
 10
1267.454313763824
 20
1160.881823708206
 30
0.0
  0
ENDBLK
  5
3742
330
3740
100
AcDbEntity
  8
0
100
AcDbBlockEnd
  0
BLOCK
  5
37D0
330
37CF
100
AcDbEntity
  8
0
100
AcDbBlockBegin
  2
*D6
 70
     1
 10
0.0
 20
0.0
 30
0.0
  3
*D6
  1

  0
LINE
  5
37D1
330
37CF
100
AcDbEntity
  8
quote
 62
     0
370
    -2
100
AcDbLine
 10
411.9236766241847
 20
1705.804609406293
 30
0.0
 11
411.9236766241847
 21
1719.54324635285
 31
0.0
  0
LINE
  5
37D2
330
37CF
100
AcDbEntity
  8
quote
 62
     0
370
    -2
100
AcDbLine
 10
691.9236766241847
 20
1705.804609406293
 30
0.0
 11
691.9236766241847
 21
1719.54324635285
 31
0.0
  0
LINE
  5
37D3
330
37CF
100
AcDbEntity
  8
quote
370
    -2
100
AcDbLine
 10
411.9236766241847
 20
1719.54324635285
 30
0.0
 11
691.9236766241847
 21
1719.54324635285
 31
0.0
  0
MTEXT
  5
37D4
330
37CF
100
AcDbEntity
  8
quote
 62
     0
100
AcDbMText
 10
551.9236766241847
 20
1726.54324635285
 30
0.0
 40
10.0
 41
0.0
 46
0.0
 71
     5
 72
     1
  1
280
 73
     1
 44
1.0
  0
POINT
  5
37D5
330
37CF
100
AcDbEntity
  8
Defpoints
 62
     0
100
AcDbPoint
 10
411.9236766241847
 20
1705.804609406293
 30
0.0
  0
POINT
  5
37D6
330
37CF
100
AcDbEntity
  8
Defpoints
 62
     0
100
AcDbPoint
 10
691.9236766241847
 20
1705.804609406293
 30
0.0
  0
POINT
  5
37D7
330
37CF
100
AcDbEntity
  8
Defpoints
 62
     0
100
AcDbPoint
 10
691.9236766241847
 20
1719.54324635285
 30
0.0
  0
ENDBLK
  5
37D8
330
37CF
100
AcDbEntity
  8
0
100
AcDbBlockEnd
  0
BLOCK
  5
37DA
330
37D9
100
AcDbEntity
  8
0
100
AcDbBlockBegin
  2
_None
 70
     0
 10
0.0
 20
0.0
 30
0.0
  3
_None
  1

  0
ENDBLK
  5
37DB
330
37D9
100
AcDbEntity
  8
0
100
AcDbBlockEnd
  0
BLOCK
  5
37DE
330
37DD
100
AcDbEntity
  8
0
100
AcDbBlockBegin
  2
*D8
 70
     1
 10
0.0
 20
0.0
 30
0.0
  3
*D8
  1

  0
LINE
  5
37DF
330
37DD
100
AcDbEntity
  8
quote
 62
     0
370
    -2
100
AcDbLine
 10
971.9766236144387
 20
1693.175216047777
 30
0.0
 11
991.9766818063254
 21
1693.175216047777
 31
0.0
  0
LINE
  5
37E0
330
37DD
100
AcDbEntity
  8
quote
 62
     0
370
    -2
100
AcDbLine
 10
971.9766236144351
 20
1568.175074869754
 30
0.0
 11
991.9766818063217
 21
1568.175074869753
 31
0.0
  0
LINE
  5
37E1
330
37DD
100
AcDbEntity
  8
quote
370
    -2
100
AcDbLine
 10
991.9766818063254
 20
1693.175216047777
 30
0.0
 11
991.9766818063217
 21
1568.175074869753
 31
0.0
  0
MTEXT
  5
37E2
330
37DD
100
AcDbEntity
  8
quote
 62
     0
100
AcDbMText
 10
984.9766818063235
 20
1630.675145458765
 30
0.0
 40
10.0
 41
0.0
 46
0.0
 71
     5
 72
     1
  1
125
 11
2.910379758620073E-14
 21
1.0
 31
0.0
 73
     1
 44
1.0
  0
POINT
  5
37E3
330
37DD
100
AcDbEntity
  8
Defpoints
 62
     0
100
AcDbPoint
 10
971.9766236144387
 20
1693.175216047777
 30
0.0
  0
POINT
  5
37E4
330
37DD
100
AcDbEntity
  8
Defpoints
 62
     0
100
AcDbPoint
 10
971.9766236144351
 20
1568.175074869754
 30
0.0
  0
POINT
  5
37E5
330
37DD
100
AcDbEntity
  8
Defpoints
 62
     0
100
AcDbPoint
 10
991.9766818063217
 20
1568.175074869753
 30
0.0
  0
ENDBLK
  5
37E6
330
37DD
100
AcDbEntity
  8
0
100
AcDbBlockEnd
  0
BLOCK
  5
37E9
330
37E8
100
AcDbEntity
  8
0
100
AcDbBlockBegin
  2
*D9
 70
     1
 10
0.0
 20
0.0
 30
0.0
  3
*D9
  1

  0
LINE
  5
37EA
330
37E8
100
AcDbEntity
  8
quote
 62
     0
370
    -2
100
AcDbLine
 10
971.9766236144387
 20
1568.175074869753
 30
0.0
 11
991.9766818063072
 21
1568.175074869753
 31
0.0
  0
LINE
  5
37EB
330
37E8
100
AcDbEntity
  8
quote
 62
     0
370
    -2
100
AcDbLine
 10
971.9766236144424
 20
1223.175216047777
 30
0.0
 11
991.9766818063108
 21
1223.175216047777
 31
0.0
  0
LINE
  5
37EC
330
37E8
100
AcDbEntity
  8
quote
370
    -2
100
AcDbLine
 10
991.9766818063072
 20
1568.175074869753
 30
0.0
 11
991.9766818063108
 21
1223.175216047777
 31
0.0
  0
MTEXT
  5
37ED
330
37E8
100
AcDbEntity
  8
quote
 62
     0
100
AcDbMText
 10
984.976681806309
 20
1395.675145458765
 30
0.0
 40
10.0
 41
0.0
 46
0.0
 71
     5
 72
     1
  1
345
 11
-1.054487042259618E-14
 21
1.0
 31
0.0
 73
     1
 44
1.0
  0
POINT
  5
37EE
330
37E8
100
AcDbEntity
  8
Defpoints
 62
     0
100
AcDbPoint
 10
971.9766236144387
 20
1568.175074869753
 30
0.0
  0
POINT
  5
37EF
330
37E8
100
AcDbEntity
  8
Defpoints
 62
     0
100
AcDbPoint
 10
971.9766236144424
 20
1223.175216047777
 30
0.0
  0
POINT
  5
37F0
330
37E8
100
AcDbEntity
  8
Defpoints
 62
     0
100
AcDbPoint
 10
991.9766818063108
 20
1223.175216047777
 30
0.0
  0
ENDBLK
  5
37F1
330
37E8
100
AcDbEntity
  8
0
100
AcDbBlockEnd
  0
BLOCK
  5
37F6
330
37F5
100
AcDbEntity
  8
0
100
AcDbBlockBegin
  2
*D10
 70
     1
 10
0.0
 20
0.0
 30
0.0
  3
*D10
  1

  0
LINE
  5
37F7
330
37F5
100
AcDbEntity
  8
quote
 62
     0
370
    -2
100
AcDbLine
 10
117.8334683589746
 20
1223.309056931997
 30
0.0
 11
92.83346835897461
 21
1223.309056931997
 31
0.0
  0
LINE
  5
37F8
330
37F5
100
AcDbEntity
  8
quote
 62
     0
370
    -2
100
AcDbLine
 10
117.8334683589746
 20
1693.175216047778
 30
0.0
 11
92.83346835897464
 21
1693.175216047778
 31
0.0
  0
LINE
  5
37F9
330
37F5
100
AcDbEntity
  8
quote
370
    -2
100
AcDbLine
 10
92.83346835897461
 20
1223.309056931997
 30
0.0
 11
92.83346835897464
 21
1693.175216047778
 31
0.0
  0
MTEXT
  5
37FA
330
37F5
100
AcDbEntity
  8
quote
 62
     0
100
AcDbMText
 10
85.83346835897463
 20
1458.242136489888
 30
0.0
 40
10.0
 41
0.0
 46
0.0
 71
     5
 72
     1
  1
470
 11
6.048894749919750E-17
 21
1.0
 31
0.0
 73
     1
 44
1.0
  0
POINT
  5
37FB
330
37F5
100
AcDbEntity
  8
Defpoints
 62
     0
100
AcDbPoint
 10
177.736373826152
 20
1223.309056931997
 30
0.0
  0
POINT
  5
37FC
330
37F5
100
AcDbEntity
  8
Defpoints
 62
     0
100
AcDbPoint
 10
177.736373826152
 20
1693.175216047778
 30
0.0
  0
POINT
  5
37FD
330
37F5
100
AcDbEntity
  8
Defpoints
 62
     0
100
AcDbPoint
 10
92.83346835897464
 20
1693.175216047778
 30
0.0
  0
ENDBLK
  5
37FE
330
37F5
100
AcDbEntity
  8
0
100
AcDbBlockEnd
  0
BLOCK
  5
3803
330
3802
100
AcDbEntity
  8
0
100
AcDbBlockBegin
  2
*D11
 70
     1
 10
0.0
 20
0.0
 30
0.0
  3
*D11
  1

  0
LINE
  5
3804
330
3802
100
AcDbEntity
  8
quote
 62
     0
370
    -2
100
AcDbLine
 10
151.9769556873071
 20
1180.91089481478
 30
0.0
 11
151.9769556873071
 21
1155.91089481478
 31
0.0
  0
LINE
  5
3805
330
3802
100
AcDbEntity
  8
quote
 62
     0
370
    -2
100
AcDbLine
 10
951.8703975004355
 20
1180.91089481478
 30
0.0
 11
951.8703975004355
 21
1155.91089481478
 31
0.0
  0
LINE
  5
3806
330
3802
100
AcDbEntity
  8
quote
370
    -2
100
AcDbLine
 10
151.9769556873071
 20
1155.91089481478
 30
0.0
 11
951.8703975004355
 21
1155.91089481478
 31
0.0
  0
MTEXT
  5
3807
330
3802
100
AcDbEntity
  8
quote
 62
     0
100
AcDbMText
 10
551.9236765938713
 20
1162.91089481478
 30
0.0
 40
10.0
 41
0.0
 46
0.0
 71
     5
 72
     1
  1
800
 73
     1
 44
1.0
  0
POINT
  5
3808
330
3802
100
AcDbEntity
  8
Defpoints
 62
     0
100
AcDbPoint
 10
151.9769556873071
 20
1230.714018097955
 30
0.0
  0
POINT
  5
3809
330
3802
100
AcDbEntity
  8
Defpoints
 62
     0
100
AcDbPoint
 10
951.8703975004355
 20
1230.714018097955
 30
0.0
  0
POINT
  5
380A
330
3802
100
AcDbEntity
  8
Defpoints
 62
     0
100
AcDbPoint
 10
951.8703975004355
 20
1155.91089481478
 30
0.0
  0
ENDBLK
  5
380B
330
3802
100
AcDbEntity
  8
0
100
AcDbBlockEnd
  0
BLOCK
  5
3811
330
3810
100
AcDbEntity
  8
0
100
AcDbBlockBegin
  2
*D12
 70
     1
 10
0.0
 20
0.0
 30
0.0
  3
*D12
  1

  0
LINE
  5
3812
330
3810
100
AcDbEntity
  8
quote
 62
     0
370
    -2
100
AcDbLine
 10
142.9698609418192
 20
1693.175216047777
 30
0.0
 11
124.9963363565221
 21
1693.175216047777
 31
0.0
  0
LINE
  5
3813
330
3810
100
AcDbEntity
  8
quote
 62
     0
370
    -2
100
AcDbLine
 10
142.9698609418192
 20
1393.175216047777
 30
0.0
 11
124.9963363565221
 21
1393.175216047777
 31
0.0
  0
LINE
  5
3814
330
3810
100
AcDbEntity
  8
quote
 62
    20
370
    -2
100
AcDbLine
 10
124.9963363565221
 20
1693.175216047777
 30
0.0
 11
124.9963363565221
 21
1393.175216047777
 31
0.0
  0
MTEXT
  5
3815
330
3810
100
AcDbEntity
  8
quote
 62
     0
100
AcDbMText
 10
117.9963363565221
 20
1543.175216047777
 30
0.0
 40
10.0
 41
0.0
 46
0.0
 71
     5
 72
     1
  1
300
 11
4.736951571734002E-17
 21
1.0
 31
0.0
 73
     1
 44
1.0
  0
POINT
  5
3816
330
3810
100
AcDbEntity
  8
Defpoints
 62
     0
100
AcDbPoint
 10
142.9698609418192
 20
1693.175216047777
 30
0.0
  0
POINT
  5
3817
330
3810
100
AcDbEntity
  8
Defpoints
 62
     0
100
AcDbPoint
 10
142.9698609418192
 20
1393.175216047777
 30
0.0
  0
POINT
  5
3818
330
3810
100
AcDbEntity
  8
Defpoints
 62
     0
100
AcDbPoint
 10
124.9963363565221
 20
1393.175216047777
 30
0.0
  0
ENDBLK
  5
3819
330
3810
100
AcDbEntity
  8
0
100
AcDbBlockEnd
  0
BLOCK
  5
381C
330
381B
100
AcDbEntity
  8
0
100
AcDbBlockBegin
  2
*D13
 70
     1
 10
0.0
 20
0.0
 30
0.0
  3
*D13
  1

  0
LINE
  5
381D
330
381B
100
AcDbEntity
  8
quote
 62
     0
370
    -2
100
AcDbLine
 10
386.9236765938513
 20
1216.324670514958
 30
0.0
 11
386.9236765938513
 21
1191.324670514958
 31
0.0
  0
LINE
  5
381E
330
381B
100
AcDbEntity
  8
quote
 62
     0
370
    -2
100
AcDbLine
 10
716.9236765938476
 20
1216.324670514958
 30
0.0
 11
716.9236765938476
 21
1191.324670514958
 31
0.0
  0
LINE
  5
381F
330
381B
100
AcDbEntity
  8
quote
 62
    20
370
    -2
100
AcDbLine
 10
386.9236765938513
 20
1191.324670514958
 30
0.0
 11
716.9236765938476
 21
1191.324670514958
 31
0.0
  0
MTEXT
  5
3820
330
381B
100
AcDbEntity
  8
quote
 62
     0
100
AcDbMText
 10
551.9236765938495
 20
1198.324670514958
 30
0.0
 40
10.0
 41
0.0
 46
0.0
 71
     5
 72
     1
  1
330
 73
     1
 44
1.0
  0
POINT
  5
3821
330
381B
100
AcDbEntity
  8
Defpoints
 62
     0
100
AcDbPoint
 10
386.9236765938513
 20
1216.774458047241
 30
0.0
  0
POINT
  5
3822
330
381B
100
AcDbEntity
  8
Defpoints
 62
     0
100
AcDbPoint
 10
716.9236765938476
 20
1216.774458047241
 30
0.0
  0
POINT
  5
3823
330
381B
100
AcDbEntity
  8
Defpoints
 62
     0
100
AcDbPoint
 10
716.9236765938476
 20
1191.324670514958
 30
0.0
  0
ENDBLK
  5
3824
330
381B
100
AcDbEntity
  8
0
100
AcDbBlockEnd
  0
BLOCK
  5
383C
330
383B
100
AcDbEntity
  8
0
100
AcDbBlockBegin
  2
*D14
 70
     1
 10
0.0
 20
0.0
 30
0.0
  3
*D14
  1

  0
LINE
  5
383D
330
383B
100
AcDbEntity
  8
quote
 62
     0
370
    -2
100
AcDbLine
 10
117.8334683590038
 20
999.6888474006637
 30
0.0
 11
92.8334683590038
 21
999.6888474006637
 31
0.0
  0
LINE
  5
383E
330
383B
100
AcDbEntity
  8
quote
 62
     0
370
    -2
100
AcDbLine
 10
117.8334683590037
 20
129.6888474006637
 30
0.0
 11
92.83346835900375
 21
129.6888474006637
 31
0.0
  0
LINE
  5
383F
330
383B
100
AcDbEntity
  8
quote
370
    -2
100
AcDbLine
 10
92.8334683590038
 20
999.6888474006637
 30
0.0
 11
92.83346835900375
 21
129.6888474006637
 31
0.0
  0
MTEXT
  5
3840
330
383B
100
AcDbEntity
  8
quote
 62
     0
100
AcDbMText
 10
85.83346835900377
 20
564.6888474006637
 30
0.0
 40
10.0
 41
0.0
 46
0.0
 71
     5
 72
     1
  1
870
 11
6.533726305840002E-17
 21
1.0
 31
0.0
 73
     1
 44
1.0
  0
POINT
  5
3841
330
383B
100
AcDbEntity
  8
Defpoints
 62
     0
100
AcDbPoint
 10
155.9758897215979
 20
999.6888474006637
 30
0.0
  0
POINT
  5
3842
330
383B
100
AcDbEntity
  8
Defpoints
 62
     0
100
AcDbPoint
 10
155.9758897215979
 20
129.6888474006637
 30
0.0
  0
POINT
  5
3843
330
383B
100
AcDbEntity
  8
Defpoints
 62
     0
100
AcDbPoint
 10
92.83346835900375
 20
129.6888474006637
 30
0.0
  0
ENDBLK
  5
3844
330
383B
100
AcDbEntity
  8
0
100
AcDbBlockEnd
  0
BLOCK
  5
3847
330
3846
100
AcDbEntity
  8
0
100
AcDbBlockBegin
  2
*D15
 70
     1
 10
0.0
 20
0.0
 30
0.0
  3
*D15
  1

  0
LINE
  5
3848
330
3846
100
AcDbEntity
  8
quote
 62
     0
370
    -2
100
AcDbLine
 10
393.863877359112
 20
729.5254205672632
 30
0.0
 11
368.863877359112
 21
729.5254205672632
 31
0.0
  0
LINE
  5
3849
330
3846
100
AcDbEntity
  8
quote
 62
     0
370
    -2
100
AcDbLine
 10
393.8638773591119
 20
129.6888474006641
 30
0.0
 11
368.8638773591119
 21
129.6888474006641
 31
0.0
  0
LINE
  5
384A
330
3846
100
AcDbEntity
  8
quote
370
    -2
100
AcDbLine
 10
368.863877359112
 20
729.5254205672632
 30
0.0
 11
368.8638773591119
 21
129.6888474006641
 31
0.0
  0
MTEXT
  5
384B
330
3846
100
AcDbEntity
  8
quote
 62
     0
100
AcDbMText
 10
361.8638773591119
 20
429.6071339839636
 30
0.0
 40
10.0
 41
0.0
 46
0.0
 71
     5
 72
     1
  1
600
 11
9.476484329844337E-17
 21
1.0
 31
0.0
 73
     1
 44
1.0
  0
POINT
  5
384C
330
3846
100
AcDbEntity
  8
Defpoints
 62
     0
100
AcDbPoint
 10
476.710837660823
 20
729.5254205672632
 30
0.0
  0
POINT
  5
384D
330
3846
100
AcDbEntity
  8
Defpoints
 62
     0
100
AcDbPoint
 10
454.2872001343821
 20
129.6888474006641
 30
0.0
  0
POINT
  5
384E
330
3846
100
AcDbEntity
  8
Defpoints
 62
     0
100
AcDbPoint
 10
368.8638773591119
 20
129.6888474006641
 30
0.0
  0
ENDBLK
  5
384F
330
3846
100
AcDbEntity
  8
0
100
AcDbBlockEnd
  0
BLOCK
  5
3854
330
3853
100
AcDbEntity
  8
0
100
AcDbBlockBegin
  2
*D16
 70
     1
 10
0.0
 20
0.0
 30
0.0
  3
*D16
  1

  0
LINE
  5
3855
330
3853
100
AcDbEntity
  8
quote
 62
     0
370
    -2
100
AcDbLine
 10
476.710837660823
 20
692.2107484441767
 30
0.0
 11
476.710837660823
 21
667.2107484441767
 31
0.0
  0
LINE
  5
3856
330
3853
100
AcDbEntity
  8
quote
 62
     0
370
    -2
100
AcDbLine
 10
626.710837660823
 20
692.2107484441767
 30
0.0
 11
626.710837660823
 21
667.2107484441767
 31
0.0
  0
LINE
  5
3857
330
3853
100
AcDbEntity
  8
quote
370
    -2
100
AcDbLine
 10
476.710837660823
 20
667.2107484441767
 30
0.0
 11
626.710837660823
 21
667.2107484441767
 31
0.0
  0
MTEXT
  5
3858
330
3853
100
AcDbEntity
  8
quote
 62
     0
100
AcDbMText
 10
551.710837660823
 20
674.2107484441767
 30
0.0
 40
10.0
 41
0.0
 46
0.0
 71
     5
 72
     1
  1
150
 73
     1
 44
1.0
  0
POINT
  5
3859
330
3853
100
AcDbEntity
  8
Defpoints
 62
     0
100
AcDbPoint
 10
476.710837660823
 20
729.5254205672632
 30
0.0
  0
POINT
  5
385A
330
3853
100
AcDbEntity
  8
Defpoints
 62
     0
100
AcDbPoint
 10
626.710837660823
 20
729.4747503102044
 30
0.0
  0
POINT
  5
385B
330
3853
100
AcDbEntity
  8
Defpoints
 62
     0
100
AcDbPoint
 10
626.710837660823
 20
667.2107484441767
 30
0.0
  0
ENDBLK
  5
385C
330
3853
100
AcDbEntity
  8
0
100
AcDbBlockEnd
  0
BLOCK
  5
38DA
330
38D9
100
AcDbEntity
  8
0
100
AcDbBlockBegin
  2
*D17
 70
     1
 10
0.0
 20
0.0
 30
0.0
  3
*D17
  1

  0
LINE
  5
38DB
330
38D9
100
AcDbEntity
  8
quote
 62
     0
370
    -2
100
AcDbLine
 10
1097.139050418631
 20
1693.175216047784
 30
0.0
 11
1076.442977315139
 21
1693.175216047784
 31
0.0
  0
LINE
  5
38DC
330
38D9
100
AcDbEntity
  8
quote
 62
     0
370
    -2
100
AcDbLine
 10
1097.139050418627
 20
1483.175216047777
 30
0.0
 11
1076.442977315139
 21
1483.175216047777
 31
0.0
  0
LINE
  5
38DD
330
38D9
100
AcDbEntity
  8
quote
370
    -2
100
AcDbLine
 10
1076.442977315139
 20
1693.175216047784
 30
0.0
 11
1076.442977315139
 21
1483.175216047777
 31
0.0
  0
MTEXT
  5
38DE
330
38D9
100
AcDbEntity
  8
quote
 62
     0
100
AcDbMText
 10
1069.442977315139
 20
1588.175216047781
 30
0.0
 40
10.0
 41
0.0
 46
0.0
 71
     5
 72
     1
  1
210
 11
0.0
 21
1.0
 31
0.0
 73
     1
 44
1.0
  0
POINT
  5
38DF
330
38D9
100
AcDbEntity
  8
Defpoints
 62
     0
100
AcDbPoint
 10
1097.139050418631
 20
1693.175216047784
 30
0.0
  0
POINT
  5
38E0
330
38D9
100
AcDbEntity
  8
Defpoints
 62
     0
100
AcDbPoint
 10
1097.139050418627
 20
1483.175216047777
 30
0.0
  0
POINT
  5
38E1
330
38D9
100
AcDbEntity
  8
Defpoints
 62
     0
100
AcDbPoint
 10
1076.442977315139
 20
1483.175216047777
 30
0.0
  0
ENDBLK
  5
38E2
330
38D9
100
AcDbEntity
  8
0
100
AcDbBlockEnd
  0
BLOCK
  5
38E5
330
38E4
100
AcDbEntity
  8
0
100
AcDbBlockBegin
  2
*D18
 70
     1
 10
0.0
 20
0.0
 30
0.0
  3
*D18
  1

  0
LINE
  5
38E6
330
38E4
100
AcDbEntity
  8
quote
 62
     0
370
    -2
100
AcDbLine
 10
1262.906053821993
 20
1212.91669848444
 30
0.0
 11
1262.906053821993
 21
1199.349768936635
 31
0.0
  0
LINE
  5
38E7
330
38E4
100
AcDbEntity
  8
quote
 62
     0
370
    -2
100
AcDbLine
 10
1142.906051702306
 20
1212.91669848444
 30
0.0
 11
1142.906051702306
 21
1199.349768936635
 31
0.0
  0
LINE
  5
38E8
330
38E4
100
AcDbEntity
  8
quote
370
    -2
100
AcDbLine
 10
1262.906053821993
 20
1199.349768936635
 30
0.0
 11
1142.906051702306
 21
1199.349768936635
 31
0.0
  0
MTEXT
  5
38E9
330
38E4
100
AcDbEntity
  8
quote
 62
     0
100
AcDbMText
 10
1202.90605276215
 20
1206.349768936635
 30
0.0
 40
10.0
 41
0.0
 46
0.0
 71
     5
 72
     1
  1
120
 73
     1
 44
1.0
  0
POINT
  5
38EA
330
38E4
100
AcDbEntity
  8
Defpoints
 62
     0
100
AcDbPoint
 10
1262.906053821993
 20
1212.91669848444
 30
0.0
  0
POINT
  5
38EB
330
38E4
100
AcDbEntity
  8
Defpoints
 62
     0
100
AcDbPoint
 10
1142.906051702306
 20
1212.91669848444
 30
0.0
  0
POINT
  5
38EC
330
38E4
100
AcDbEntity
  8
Defpoints
 62
     0
100
AcDbPoint
 10
1142.906051702306
 20
1199.349768936635
 30
0.0
  0
ENDBLK
  5
38ED
330
38E4
100
AcDbEntity
  8
0
100
AcDbBlockEnd
  0
BLOCK
  5
38F0
330
38EF
100
AcDbEntity
  8
0
100
AcDbBlockBegin
  2
*D19
 70
     1
 10
0.0
 20
0.0
 30
0.0
  3
*D19
  1

  0
LINE
  5
38F1
330
38EF
100
AcDbEntity
  8
quote
 62
     0
370
    -2
100
AcDbLine
 10
1262.906053821993
 20
1212.91669848444
 30
0.0
 11
1262.906053821993
 21
1199.349768936635
 31
0.0
  0
LINE
  5
38F2
330
38EF
100
AcDbEntity
  8
quote
 62
     0
370
    -2
100
AcDbLine
 10
1296.906053821982
 20
1212.91669848444
 30
0.0
 11
1296.906053821982
 21
1199.349768936635
 31
0.0
  0
LINE
  5
38F3
330
38EF
100
AcDbEntity
  8
quote
370
    -2
100
AcDbLine
 10
1262.906053821993
 20
1199.349768936635
 30
0.0
 11
1296.906053821982
 21
1199.349768936635
 31
0.0
  0
MTEXT
  5
38F4
330
38EF
100
AcDbEntity
  8
quote
 62
     0
100
AcDbMText
 10
1279.906053821986
 20
1206.349768936635
 30
0.0
 40
10.0
 41
0.0
 46
0.0
 71
     5
 72
     1
  1
35
 73
     1
 44
1.0
  0
POINT
  5
38F5
330
38EF
100
AcDbEntity
  8
Defpoints
 62
     0
100
AcDbPoint
 10
1262.906053821993
 20
1212.91669848444
 30
0.0
  0
POINT
  5
38F6
330
38EF
100
AcDbEntity
  8
Defpoints
 62
     0
100
AcDbPoint
 10
1296.906053821982
 20
1212.91669848444
 30
0.0
  0
POINT
  5
38F7
330
38EF
100
AcDbEntity
  8
Defpoints
 62
     0
100
AcDbPoint
 10
1296.906053821982
 20
1199.349768936635
 30
0.0
  0
ENDBLK
  5
38F8
330
38EF
100
AcDbEntity
  8
0
100
AcDbBlockEnd
  0
BLOCK
  5
38FC
330
38FB
100
AcDbEntity
  8
0
100
AcDbBlockBegin
  2
*D20
 70
     1
 10
0.0
 20
0.0
 30
0.0
  3
*D20
  1

  0
LINE
  5
38FD
330
38FB
100
AcDbEntity
  8
quote
 62
     0
370
    -2
100
AcDbLine
 10
451.9236765938695
 20
1739.455898494833
 30
0.0
 11
451.9236765938695
 21
1752.374469530498
 31
0.0
  0
LINE
  5
38FE
330
38FB
100
AcDbEntity
  8
quote
 62
     0
370
    -2
100
AcDbLine
 10
551.9236765938695
 20
1739.455898494833
 30
0.0
 11
551.9236765938695
 21
1752.374469530498
 31
0.0
  0
LINE
  5
38FF
330
38FB
100
AcDbEntity
  8
quote
370
    -2
100
AcDbLine
 10
451.9236765938695
 20
1752.374469530498
 30
0.0
 11
551.9236765938695
 21
1752.374469530498
 31
0.0
  0
MTEXT
  5
3900
330
38FB
100
AcDbEntity
  8
quote
 62
     0
100
AcDbMText
 10
501.9236765938695
 20
1759.374469530498
 30
0.0
 40
10.0
 41
0.0
 46
0.0
 71
     5
 72
     1
  1
100
 73
     1
 44
1.0
  0
POINT
  5
3901
330
38FB
100
AcDbEntity
  8
Defpoints
 62
     0
100
AcDbPoint
 10
451.9236765938695
 20
1739.455898494833
 30
0.0
  0
POINT
  5
3902
330
38FB
100
AcDbEntity
  8
Defpoints
 62
     0
100
AcDbPoint
 10
551.9236765938695
 20
1739.455898494833
 30
0.0
  0
POINT
  5
3903
330
38FB
100
AcDbEntity
  8
Defpoints
 62
     0
100
AcDbPoint
 10
551.9236765938695
 20
1752.374469530498
 30
0.0
  0
ENDBLK
  5
3904
330
38FB
100
AcDbEntity
  8
0
100
AcDbBlockEnd
  0
BLOCK
  5
3907
330
3906
100
AcDbEntity
  8
0
100
AcDbBlockBegin
  2
*D21
 70
     1
 10
0.0
 20
0.0
 30
0.0
  3
*D21
  1

  0
LINE
  5
3908
330
3906
100
AcDbEntity
  8
quote
 62
     0
370
    -2
100
AcDbLine
 10
551.9236765938695
 20
1739.455898494833
 30
0.0
 11
551.9236765938695
 21
1752.374469530498
 31
0.0
  0
LINE
  5
3909
330
3906
100
AcDbEntity
  8
quote
 62
     0
370
    -2
100
AcDbLine
 10
651.9237049156982
 20
1739.455898494833
 30
0.0
 11
651.9237049156982
 21
1752.374469530498
 31
0.0
  0
LINE
  5
390A
330
3906
100
AcDbEntity
  8
quote
370
    -2
100
AcDbLine
 10
551.9236765938695
 20
1752.374469530498
 30
0.0
 11
651.9237049156982
 21
1752.374469530498
 31
0.0
  0
MTEXT
  5
390B
330
3906
100
AcDbEntity
  8
quote
 62
     0
100
AcDbMText
 10
601.9236907547838
 20
1759.374469530498
 30
0.0
 40
10.0
 41
0.0
 46
0.0
 71
     5
 72
     1
  1
100
 73
     1
 44
1.0
  0
POINT
  5
390C
330
3906
100
AcDbEntity
  8
Defpoints
 62
     0
100
AcDbPoint
 10
551.9236765938695
 20
1739.455898494833
 30
0.0
  0
POINT
  5
390D
330
3906
100
AcDbEntity
  8
Defpoints
 62
     0
100
AcDbPoint
 10
651.9237049156982
 20
1739.455898494833
 30
0.0
  0
POINT
  5
390E
330
3906
100
AcDbEntity
  8
Defpoints
 62
     0
100
AcDbPoint
 10
651.9237049156982
 20
1752.374469530498
 30
0.0
  0
ENDBLK
  5
390F
330
3906
100
AcDbEntity
  8
0
100
AcDbBlockEnd
  0
BLOCK
  5
3914
330
3913
100
AcDbEntity
  8
0
100
AcDbBlockBegin
  2
*D22
 70
     1
 10
0.0
 20
0.0
 30
0.0
  3
*D22
  1

  0
LINE
  5
3915
330
3913
100
AcDbEntity
  8
quote
 62
     0
370
    -2
100
AcDbLine
 10
1142.906051702303
 20
1698.362389540503
 30
0.0
 11
1142.906051702303
 21
1709.998139046727
 31
0.0
  0
LINE
  5
3916
330
3913
100
AcDbEntity
  8
quote
 62
     0
370
    -2
100
AcDbLine
 10
1187.892764943859
 20
1698.362389540503
 30
0.0
 11
1187.892764943859
 21
1709.998139046727
 31
0.0
  0
LINE
  5
3917
330
3913
100
AcDbEntity
  8
quote
370
    -2
100
AcDbLine
 10
1142.906051702303
 20
1709.998139046727
 30
0.0
 11
1187.892764943859
 21
1709.998139046727
 31
0.0
  0
MTEXT
  5
3918
330
3913
100
AcDbEntity
  8
quote
 62
     0
100
AcDbMText
 10
1165.399408323081
 20
1716.998139046727
 30
0.0
 40
10.0
 41
0.0
 46
0.0
 71
     5
 72
     1
  1
45
 73
     1
 44
1.0
  0
POINT
  5
3919
330
3913
100
AcDbEntity
  8
Defpoints
 62
     0
100
AcDbPoint
 10
1142.906051702303
 20
1698.362389540503
 30
0.0
  0
POINT
  5
391A
330
3913
100
AcDbEntity
  8
Defpoints
 62
     0
100
AcDbPoint
 10
1187.892764943859
 20
1698.362389540503
 30
0.0
  0
POINT
  5
391B
330
3913
100
AcDbEntity
  8
Defpoints
 62
     0
100
AcDbPoint
 10
1187.892764943859
 20
1709.998139046727
 30
0.0
  0
ENDBLK
  5
391C
330
3913
100
AcDbEntity
  8
0
100
AcDbBlockEnd
  0
BLOCK
  5
391F
330
391E
100
AcDbEntity
  8
0
100
AcDbBlockBegin
  2
*D23
 70
     1
 10
0.0
 20
0.0
 30
0.0
  3
*D23
  1

  0
LINE
  5
3920
330
391E
100
AcDbEntity
  8
quote
 62
     0
370
    -2
100
AcDbLine
 10
1187.892764943859
 20
1698.362389540503
 30
0.0
 11
1187.892764943859
 21
1709.998139046727
 31
0.0
  0
LINE
  5
3921
330
391E
100
AcDbEntity
  8
quote
 62
     0
370
    -2
100
AcDbLine
 10
1262.906053821993
 20
1698.362389540503
 30
0.0
 11
1262.906053821993
 21
1709.998139046727
 31
0.0
  0
LINE
  5
3922
330
391E
100
AcDbEntity
  8
quote
370
    -2
100
AcDbLine
 10
1187.892764943859
 20
1709.998139046727
 30
0.0
 11
1262.906053821993
 21
1709.998139046727
 31
0.0
  0
MTEXT
  5
3923
330
391E
100
AcDbEntity
  8
quote
 62
     0
100
AcDbMText
 10
1225.399409382926
 20
1716.998139046727
 30
0.0
 40
10.0
 41
0.0
 46
0.0
 71
     5
 72
     1
  1
75
 73
     1
 44
1.0
  0
POINT
  5
3924
330
391E
100
AcDbEntity
  8
Defpoints
 62
     0
100
AcDbPoint
 10
1187.892764943859
 20
1698.362389540503
 30
0.0
  0
POINT
  5
3925
330
391E
100
AcDbEntity
  8
Defpoints
 62
     0
100
AcDbPoint
 10
1262.906053821993
 20
1698.362389540503
 30
0.0
  0
POINT
  5
3926
330
391E
100
AcDbEntity
  8
Defpoints
 62
     0
100
AcDbPoint
 10
1262.906053821993
 20
1709.998139046727
 30
0.0
  0
ENDBLK
  5
3927
330
391E
100
AcDbEntity
  8
0
100
AcDbBlockEnd
  0
BLOCK
  5
3A09
330
3A08
100
AcDbEntity
  8
0
100
AcDbBlockBegin
  2
*D24
 70
     1
 10
0.0
 20
0.0
 30
0.0
  3
*D24
  1

  0
LINE
  5
3A0B
330
3A08
100
AcDbEntity
  8
quote
 62
     0
370
    -2
100
AcDbLine
 10
2896.162997746418
 20
2296.203828840084
 30
0.0
 11
2896.162997746418
 21
2309.942465786641
 31
0.0
  0
LINE
  5
3A0C
330
3A08
100
AcDbEntity
  8
quote
 62
     0
370
    -2
100
AcDbLine
 10
3176.162997746418
 20
2296.203828840084
 30
0.0
 11
3176.162997746418
 21
2309.942465786641
 31
0.0
  0
LINE
  5
3A0D
330
3A08
100
AcDbEntity
  8
quote
370
    -2
100
AcDbLine
 10
2896.162997746418
 20
2309.942465786641
 30
0.0
 11
3176.162997746418
 21
2309.942465786641
 31
0.0
  0
MTEXT
  5
3A0E
330
3A08
100
AcDbEntity
  8
quote
 62
     0
100
AcDbMText
 10
3036.162997746418
 20
2316.942465786641
 30
0.0
 40
10.0
 41
0.0
 46
0.0
 71
     5
 72
     1
  1
280
 73
     1
 44
1.0
  0
POINT
  5
3A0F
330
3A08
100
AcDbEntity
  8
Defpoints
 62
     0
100
AcDbPoint
 10
2896.162997746418
 20
2296.203828840084
 30
0.0
  0
POINT
  5
3A10
330
3A08
100
AcDbEntity
  8
Defpoints
 62
     0
100
AcDbPoint
 10
3176.162997746418
 20
2296.203828840084
 30
0.0
  0
POINT
  5
3A11
330
3A08
100
AcDbEntity
  8
Defpoints
 62
     0
100
AcDbPoint
 10
3176.162997746418
 20
2309.942465786641
 30
0.0
  0
ENDBLK
  5
3A0A
330
3A08
100
AcDbEntity
  8
0
100
AcDbBlockEnd
  0
BLOCK
  5
3A13
330
3A12
100
AcDbEntity
  8
0
100
AcDbBlockBegin
  2
*D25
 70
     1
 10
0.0
 20
0.0
 30
0.0
  3
*D25
  1

  0
LINE
  5
3A15
330
3A12
100
AcDbEntity
  8
quote
 62
     0
370
    -2
100
AcDbLine
 10
3456.215944736672
 20
2283.574435481568
 30
0.0
 11
3476.216002928558
 21
2283.574435481567
 31
0.0
  0
LINE
  5
3A16
330
3A12
100
AcDbEntity
  8
quote
 62
     0
370
    -2
100
AcDbLine
 10
3456.215944736668
 20
2158.574294303545
 30
0.0
 11
3476.216002928555
 21
2158.574294303544
 31
0.0
  0
LINE
  5
3A17
330
3A12
100
AcDbEntity
  8
quote
370
    -2
100
AcDbLine
 10
3476.216002928558
 20
2283.574435481567
 30
0.0
 11
3476.216002928555
 21
2158.574294303544
 31
0.0
  0
MTEXT
  5
3A18
330
3A12
100
AcDbEntity
  8
quote
 62
     0
100
AcDbMText
 10
3469.216002928556
 20
2221.074364892556
 30
0.0
 40
10.0
 41
0.0
 46
0.0
 71
     5
 72
     1
  1
125
 11
2.910379758620084E-14
 21
1.0
 31
0.0
 73
     1
 44
1.0
  0
POINT
  5
3A19
330
3A12
100
AcDbEntity
  8
Defpoints
 62
     0
100
AcDbPoint
 10
3456.215944736672
 20
2283.574435481568
 30
0.0
  0
POINT
  5
3A1A
330
3A12
100
AcDbEntity
  8
Defpoints
 62
     0
100
AcDbPoint
 10
3456.215944736668
 20
2158.574294303545
 30
0.0
  0
POINT
  5
3A1B
330
3A12
100
AcDbEntity
  8
Defpoints
 62
     0
100
AcDbPoint
 10
3476.216002928555
 20
2158.574294303544
 30
0.0
  0
ENDBLK
  5
3A14
330
3A12
100
AcDbEntity
  8
0
100
AcDbBlockEnd
  0
BLOCK
  5
3A1D
330
3A1C
100
AcDbEntity
  8
0
100
AcDbBlockBegin
  2
*D26
 70
     1
 10
0.0
 20
0.0
 30
0.0
  3
*D26
  1

  0
LINE
  5
3A1F
330
3A1C
100
AcDbEntity
  8
quote
 62
     0
370
    -2
100
AcDbLine
 10
3456.215944736672
 20
2158.574294303544
 30
0.0
 11
3476.21600292854
 21
2158.574294303544
 31
0.0
  0
LINE
  5
3A20
330
3A1C
100
AcDbEntity
  8
quote
 62
     0
370
    -2
100
AcDbLine
 10
3456.215944736675
 20
1813.574435481568
 30
0.0
 11
3476.216002928544
 21
1813.574435481568
 31
0.0
  0
LINE
  5
3A21
330
3A1C
100
AcDbEntity
  8
quote
370
    -2
100
AcDbLine
 10
3476.21600292854
 20
2158.574294303544
 30
0.0
 11
3476.216002928544
 21
1813.574435481568
 31
0.0
  0
MTEXT
  5
3A22
330
3A1C
100
AcDbEntity
  8
quote
 62
     0
100
AcDbMText
 10
3469.216002928542
 20
1986.074364892556
 30
0.0
 40
10.0
 41
0.0
 46
0.0
 71
     5
 72
     1
  1
345
 11
-1.054487042259617E-14
 21
1.0
 31
0.0
 73
     1
 44
1.0
  0
POINT
  5
3A23
330
3A1C
100
AcDbEntity
  8
Defpoints
 62
     0
100
AcDbPoint
 10
3456.215944736672
 20
2158.574294303544
 30
0.0
  0
POINT
  5
3A24
330
3A1C
100
AcDbEntity
  8
Defpoints
 62
     0
100
AcDbPoint
 10
3456.215944736675
 20
1813.574435481568
 30
0.0
  0
POINT
  5
3A25
330
3A1C
100
AcDbEntity
  8
Defpoints
 62
     0
100
AcDbPoint
 10
3476.216002928544
 20
1813.574435481568
 30
0.0
  0
ENDBLK
  5
3A1E
330
3A1C
100
AcDbEntity
  8
0
100
AcDbBlockEnd
  0
BLOCK
  5
3A27
330
3A26
100
AcDbEntity
  8
0
100
AcDbBlockBegin
  2
*D27
 70
     1
 10
0.0
 20
0.0
 30
0.0
  3
*D27
  1

  0
LINE
  5
3A29
330
3A26
100
AcDbEntity
  8
quote
 62
     0
370
    -2
100
AcDbLine
 10
2602.072789481208
 20
1813.708276365788
 30
0.0
 11
2577.072789481208
 21
1813.708276365788
 31
0.0
  0
LINE
  5
3A2A
330
3A26
100
AcDbEntity
  8
quote
 62
     0
370
    -2
100
AcDbLine
 10
2602.072789481208
 20
2283.574435481569
 30
0.0
 11
2577.072789481208
 21
2283.574435481569
 31
0.0
  0
LINE
  5
3A2B
330
3A26
100
AcDbEntity
  8
quote
370
    -2
100
AcDbLine
 10
2577.072789481208
 20
1813.708276365788
 30
0.0
 11
2577.072789481208
 21
2283.574435481569
 31
0.0
  0
MTEXT
  5
3A2C
330
3A26
100
AcDbEntity
  8
quote
 62
     0
100
AcDbMText
 10
2570.072789481208
 20
2048.641355923678
 30
0.0
 40
10.0
 41
0.0
 46
0.0
 71
     5
 72
     1
  1
470
 11
0.0
 21
1.0
 31
0.0
 73
     1
 44
1.0
  0
POINT
  5
3A2D
330
3A26
100
AcDbEntity
  8
Defpoints
 62
     0
100
AcDbPoint
 10
2661.975694948385
 20
1813.708276365788
 30
0.0
  0
POINT
  5
3A2E
330
3A26
100
AcDbEntity
  8
Defpoints
 62
     0
100
AcDbPoint
 10
2661.975694948385
 20
2283.574435481569
 30
0.0
  0
POINT
  5
3A2F
330
3A26
100
AcDbEntity
  8
Defpoints
 62
     0
100
AcDbPoint
 10
2577.072789481208
 20
2283.574435481569
 30
0.0
  0
ENDBLK
  5
3A28
330
3A26
100
AcDbEntity
  8
0
100
AcDbBlockEnd
  0
BLOCK
  5
3A31
330
3A30
100
AcDbEntity
  8
0
100
AcDbBlockBegin
  2
*D28
 70
     1
 10
0.0
 20
0.0
 30
0.0
  3
*D28
  1

  0
LINE
  5
3A33
330
3A30
100
AcDbEntity
  8
quote
 62
     0
370
    -2
100
AcDbLine
 10
2636.21627680954
 20
1771.310114248571
 30
0.0
 11
2636.21627680954
 21
1746.310114248571
 31
0.0
  0
LINE
  5
3A34
330
3A30
100
AcDbEntity
  8
quote
 62
     0
370
    -2
100
AcDbLine
 10
3436.109718622668
 20
1771.310114248571
 30
0.0
 11
3436.109718622668
 21
1746.310114248571
 31
0.0
  0
LINE
  5
3A35
330
3A30
100
AcDbEntity
  8
quote
370
    -2
100
AcDbLine
 10
2636.21627680954
 20
1746.310114248571
 30
0.0
 11
3436.109718622668
 21
1746.310114248571
 31
0.0
  0
MTEXT
  5
3A36
330
3A30
100
AcDbEntity
  8
quote
 62
     0
100
AcDbMText
 10
3036.162997716104
 20
1753.310114248571
 30
0.0
 40
10.0
 41
0.0
 46
0.0
 71
     5
 72
     1
  1
800
 73
     1
 44
1.0
  0
POINT
  5
3A37
330
3A30
100
AcDbEntity
  8
Defpoints
 62
     0
100
AcDbPoint
 10
2636.21627680954
 20
1821.113237531746
 30
0.0
  0
POINT
  5
3A38
330
3A30
100
AcDbEntity
  8
Defpoints
 62
     0
100
AcDbPoint
 10
3436.109718622668
 20
1821.113237531746
 30
0.0
  0
POINT
  5
3A39
330
3A30
100
AcDbEntity
  8
Defpoints
 62
     0
100
AcDbPoint
 10
3436.109718622668
 20
1746.310114248571
 30
0.0
  0
ENDBLK
  5
3A32
330
3A30
100
AcDbEntity
  8
0
100
AcDbBlockEnd
  0
BLOCK
  5
3A3B
330
3A3A
100
AcDbEntity
  8
0
100
AcDbBlockBegin
  2
*D29
 70
     1
 10
0.0
 20
0.0
 30
0.0
  3
*D29
  1

  0
LINE
  5
3A3D
330
3A3A
100
AcDbEntity
  8
quote
 62
     0
370
    -2
100
AcDbLine
 10
2627.209182064052
 20
2283.574435481568
 30
0.0
 11
2609.235657478755
 21
2283.574435481568
 31
0.0
  0
LINE
  5
3A3E
330
3A3A
100
AcDbEntity
  8
quote
 62
     0
370
    -2
100
AcDbLine
 10
2627.209182064052
 20
1983.574435481568
 30
0.0
 11
2609.235657478755
 21
1983.574435481568
 31
0.0
  0
LINE
  5
3A3F
330
3A3A
100
AcDbEntity
  8
quote
 62
    20
370
    -2
100
AcDbLine
 10
2609.235657478755
 20
2283.574435481568
 30
0.0
 11
2609.235657478755
 21
1983.574435481568
 31
0.0
  0
MTEXT
  5
3A40
330
3A3A
100
AcDbEntity
  8
quote
 62
     0
100
AcDbMText
 10
2602.235657478755
 20
2133.574435481568
 30
0.0
 40
10.0
 41
0.0
 46
0.0
 71
     5
 72
     1
  1
300
 11
0.0
 21
1.0
 31
0.0
 73
     1
 44
1.0
  0
POINT
  5
3A41
330
3A3A
100
AcDbEntity
  8
Defpoints
 62
     0
100
AcDbPoint
 10
2627.209182064052
 20
2283.574435481568
 30
0.0
  0
POINT
  5
3A42
330
3A3A
100
AcDbEntity
  8
Defpoints
 62
     0
100
AcDbPoint
 10
2627.209182064052
 20
1983.574435481568
 30
0.0
  0
POINT
  5
3A43
330
3A3A
100
AcDbEntity
  8
Defpoints
 62
     0
100
AcDbPoint
 10
2609.235657478755
 20
1983.574435481568
 30
0.0
  0
ENDBLK
  5
3A3C
330
3A3A
100
AcDbEntity
  8
0
100
AcDbBlockEnd
  0
BLOCK
  5
3A45
330
3A44
100
AcDbEntity
  8
0
100
AcDbBlockBegin
  2
*D30
 70
     1
 10
0.0
 20
0.0
 30
0.0
  3
*D30
  1

  0
LINE
  5
3A47
330
3A44
100
AcDbEntity
  8
quote
 62
     0
370
    -2
100
AcDbLine
 10
2871.162997716084
 20
1806.723889948749
 30
0.0
 11
2871.162997716084
 21
1781.723889948749
 31
0.0
  0
LINE
  5
3A48
330
3A44
100
AcDbEntity
  8
quote
 62
     0
370
    -2
100
AcDbLine
 10
3201.162997716081
 20
1806.723889948749
 30
0.0
 11
3201.162997716081
 21
1781.723889948749
 31
0.0
  0
LINE
  5
3A49
330
3A44
100
AcDbEntity
  8
quote
 62
    20
370
    -2
100
AcDbLine
 10
2871.162997716084
 20
1781.723889948749
 30
0.0
 11
3201.162997716081
 21
1781.723889948749
 31
0.0
  0
MTEXT
  5
3A4A
330
3A44
100
AcDbEntity
  8
quote
 62
     0
100
AcDbMText
 10
3036.162997716082
 20
1788.723889948749
 30
0.0
 40
10.0
 41
0.0
 46
0.0
 71
     5
 72
     1
  1
330
 73
     1
 44
1.0
  0
POINT
  5
3A4B
330
3A44
100
AcDbEntity
  8
Defpoints
 62
     0
100
AcDbPoint
 10
2871.162997716084
 20
1807.173677481032
 30
0.0
  0
POINT
  5
3A4C
330
3A44
100
AcDbEntity
  8
Defpoints
 62
     0
100
AcDbPoint
 10
3201.162997716081
 20
1807.173677481032
 30
0.0
  0
POINT
  5
3A4D
330
3A44
100
AcDbEntity
  8
Defpoints
 62
     0
100
AcDbPoint
 10
3201.162997716081
 20
1781.723889948749
 30
0.0
  0
ENDBLK
  5
3A46
330
3A44
100
AcDbEntity
  8
0
100
AcDbBlockEnd
  0
BLOCK
  5
3A4F
330
3A4E
100
AcDbEntity
  8
0
100
AcDbBlockBegin
  2
*D31
 70
     1
 10
0.0
 20
0.0
 30
0.0
  3
*D31
  1

  0
LINE
  5
3A51
330
3A4E
100
AcDbEntity
  8
quote
 62
     0
370
    -2
100
AcDbLine
 10
2602.072789481237
 20
1590.088066834455
 30
0.0
 11
2577.072789481237
 21
1590.088066834455
 31
0.0
  0
LINE
  5
3A52
330
3A4E
100
AcDbEntity
  8
quote
 62
     0
370
    -2
100
AcDbLine
 10
2602.072789481237
 20
720.0880668344546
 30
0.0
 11
2577.072789481237
 21
720.0880668344546
 31
0.0
  0
LINE
  5
3A53
330
3A4E
100
AcDbEntity
  8
quote
370
    -2
100
AcDbLine
 10
2577.072789481237
 20
1590.088066834455
 30
0.0
 11
2577.072789481237
 21
720.0880668344546
 31
0.0
  0
MTEXT
  5
3A54
330
3A4E
100
AcDbEntity
  8
quote
 62
     0
100
AcDbMText
 10
2570.072789481237
 20
1155.088066834455
 30
0.0
 40
10.0
 41
0.0
 46
0.0
 71
     5
 72
     1
  1
870
 11
0.0
 21
1.0
 31
0.0
 73
     1
 44
1.0
  0
POINT
  5
3A55
330
3A4E
100
AcDbEntity
  8
Defpoints
 62
     0
100
AcDbPoint
 10
2640.215210843831
 20
1590.088066834455
 30
0.0
  0
POINT
  5
3A56
330
3A4E
100
AcDbEntity
  8
Defpoints
 62
     0
100
AcDbPoint
 10
2640.215210843831
 20
720.0880668344546
 30
0.0
  0
POINT
  5
3A57
330
3A4E
100
AcDbEntity
  8
Defpoints
 62
     0
100
AcDbPoint
 10
2577.072789481237
 20
720.0880668344546
 30
0.0
  0
ENDBLK
  5
3A50
330
3A4E
100
AcDbEntity
  8
0
100
AcDbBlockEnd
  0
BLOCK
  5
3A59
330
3A58
100
AcDbEntity
  8
0
100
AcDbBlockBegin
  2
*D32
 70
     1
 10
0.0
 20
0.0
 30
0.0
  3
*D32
  1

  0
LINE
  5
3A5B
330
3A58
100
AcDbEntity
  8
quote
 62
     0
370
    -2
100
AcDbLine
 10
2878.103198481345
 20
1319.924640001054
 30
0.0
 11
2853.103198481345
 21
1319.924640001054
 31
0.0
  0
LINE
  5
3A5C
330
3A58
100
AcDbEntity
  8
quote
 62
     0
370
    -2
100
AcDbLine
 10
2878.103198481345
 20
720.088066834455
 30
0.0
 11
2853.103198481345
 21
720.088066834455
 31
0.0
  0
LINE
  5
3A5D
330
3A58
100
AcDbEntity
  8
quote
370
    -2
100
AcDbLine
 10
2853.103198481345
 20
1319.924640001054
 30
0.0
 11
2853.103198481345
 21
720.088066834455
 31
0.0
  0
MTEXT
  5
3A5E
330
3A58
100
AcDbEntity
  8
quote
 62
     0
100
AcDbMText
 10
2846.103198481345
 20
1020.006353417755
 30
0.0
 40
10.0
 41
0.0
 46
0.0
 71
     5
 72
     1
  1
600
 11
0.0
 21
1.0
 31
0.0
 73
     1
 44
1.0
  0
POINT
  5
3A5F
330
3A58
100
AcDbEntity
  8
Defpoints
 62
     0
100
AcDbPoint
 10
2960.950158783056
 20
1319.924640001054
 30
0.0
  0
POINT
  5
3A60
330
3A58
100
AcDbEntity
  8
Defpoints
 62
     0
100
AcDbPoint
 10
2938.526521256615
 20
720.088066834455
 30
0.0
  0
POINT
  5
3A61
330
3A58
100
AcDbEntity
  8
Defpoints
 62
     0
100
AcDbPoint
 10
2853.103198481345
 20
720.088066834455
 30
0.0
  0
ENDBLK
  5
3A5A
330
3A58
100
AcDbEntity
  8
0
100
AcDbBlockEnd
  0
BLOCK
  5
3A63
330
3A62
100
AcDbEntity
  8
0
100
AcDbBlockBegin
  2
*D33
 70
     1
 10
0.0
 20
0.0
 30
0.0
  3
*D33
  1

  0
LINE
  5
3A65
330
3A62
100
AcDbEntity
  8
quote
 62
     0
370
    -2
100
AcDbLine
 10
2960.950158783056
 20
1282.609967877968
 30
0.0
 11
2960.950158783056
 21
1257.609967877968
 31
0.0
  0
LINE
  5
3A66
330
3A62
100
AcDbEntity
  8
quote
 62
     0
370
    -2
100
AcDbLine
 10
3110.950158783056
 20
1282.609967877968
 30
0.0
 11
3110.950158783056
 21
1257.609967877968
 31
0.0
  0
LINE
  5
3A67
330
3A62
100
AcDbEntity
  8
quote
370
    -2
100
AcDbLine
 10
2960.950158783056
 20
1257.609967877968
 30
0.0
 11
3110.950158783056
 21
1257.609967877968
 31
0.0
  0
MTEXT
  5
3A68
330
3A62
100
AcDbEntity
  8
quote
 62
     0
100
AcDbMText
 10
3035.950158783056
 20
1264.609967877968
 30
0.0
 40
10.0
 41
0.0
 46
0.0
 71
     5
 72
     1
  1
150
 73
     1
 44
1.0
  0
POINT
  5
3A69
330
3A62
100
AcDbEntity
  8
Defpoints
 62
     0
100
AcDbPoint
 10
2960.950158783056
 20
1319.924640001054
 30
0.0
  0
POINT
  5
3A6A
330
3A62
100
AcDbEntity
  8
Defpoints
 62
     0
100
AcDbPoint
 10
3110.950158783056
 20
1319.873969743995
 30
0.0
  0
POINT
  5
3A6B
330
3A62
100
AcDbEntity
  8
Defpoints
 62
     0
100
AcDbPoint
 10
3110.950158783056
 20
1257.609967877968
 30
0.0
  0
ENDBLK
  5
3A64
330
3A62
100
AcDbEntity
  8
0
100
AcDbBlockEnd
  0
BLOCK
  5
3A6D
330
3A6C
100
AcDbEntity
  8
0
100
AcDbBlockBegin
  2
*D34
 70
     1
 10
0.0
 20
0.0
 30
0.0
  3
*D34
  1

  0
LINE
  5
3A6F
330
3A6C
100
AcDbEntity
  8
quote
 62
     0
370
    -2
100
AcDbLine
 10
3581.378371540864
 20
2283.574435481575
 30
0.0
 11
3560.682298437372
 21
2283.574435481575
 31
0.0
  0
LINE
  5
3A70
330
3A6C
100
AcDbEntity
  8
quote
 62
     0
370
    -2
100
AcDbLine
 10
3581.37837154086
 20
2073.574435481568
 30
0.0
 11
3560.682298437372
 21
2073.574435481568
 31
0.0
  0
LINE
  5
3A71
330
3A6C
100
AcDbEntity
  8
quote
370
    -2
100
AcDbLine
 10
3560.682298437372
 20
2283.574435481575
 30
0.0
 11
3560.682298437372
 21
2073.574435481568
 31
0.0
  0
MTEXT
  5
3A72
330
3A6C
100
AcDbEntity
  8
quote
 62
     0
100
AcDbMText
 10
3553.682298437372
 20
2178.574435481572
 30
0.0
 40
10.0
 41
0.0
 46
0.0
 71
     5
 72
     1
  1
210
 11
0.0
 21
1.0
 31
0.0
 73
     1
 44
1.0
  0
POINT
  5
3A73
330
3A6C
100
AcDbEntity
  8
Defpoints
 62
     0
100
AcDbPoint
 10
3581.378371540864
 20
2283.574435481575
 30
0.0
  0
POINT
  5
3A74
330
3A6C
100
AcDbEntity
  8
Defpoints
 62
     0
100
AcDbPoint
 10
3581.37837154086
 20
2073.574435481568
 30
0.0
  0
POINT
  5
3A75
330
3A6C
100
AcDbEntity
  8
Defpoints
 62
     0
100
AcDbPoint
 10
3560.682298437372
 20
2073.574435481568
 30
0.0
  0
ENDBLK
  5
3A6E
330
3A6C
100
AcDbEntity
  8
0
100
AcDbBlockEnd
  0
BLOCK
  5
3A77
330
3A76
100
AcDbEntity
  8
0
100
AcDbBlockBegin
  2
*D35
 70
     1
 10
0.0
 20
0.0
 30
0.0
  3
*D35
  1

  0
LINE
  5
3A79
330
3A76
100
AcDbEntity
  8
quote
 62
     0
370
    -2
100
AcDbLine
 10
3747.145374944226
 20
1803.315917918231
 30
0.0
 11
3747.145374944226
 21
1789.748988370425
 31
0.0
  0
LINE
  5
3A7A
330
3A76
100
AcDbEntity
  8
quote
 62
     0
370
    -2
100
AcDbLine
 10
3627.145372824539
 20
1803.315917918231
 30
0.0
 11
3627.145372824539
 21
1789.748988370425
 31
0.0
  0
LINE
  5
3A7B
330
3A76
100
AcDbEntity
  8
quote
370
    -2
100
AcDbLine
 10
3747.145374944226
 20
1789.748988370425
 30
0.0
 11
3627.145372824539
 21
1789.748988370425
 31
0.0
  0
MTEXT
  5
3A7C
330
3A76
100
AcDbEntity
  8
quote
 62
     0
100
AcDbMText
 10
3687.145373884382
 20
1796.748988370425
 30
0.0
 40
10.0
 41
0.0
 46
0.0
 71
     5
 72
     1
  1
120
 73
     1
 44
1.0
  0
POINT
  5
3A7D
330
3A76
100
AcDbEntity
  8
Defpoints
 62
     0
100
AcDbPoint
 10
3747.145374944226
 20
1803.315917918231
 30
0.0
  0
POINT
  5
3A7E
330
3A76
100
AcDbEntity
  8
Defpoints
 62
     0
100
AcDbPoint
 10
3627.145372824539
 20
1803.315917918231
 30
0.0
  0
POINT
  5
3A7F
330
3A76
100
AcDbEntity
  8
Defpoints
 62
     0
100
AcDbPoint
 10
3627.145372824539
 20
1789.748988370425
 30
0.0
  0
ENDBLK
  5
3A78
330
3A76
100
AcDbEntity
  8
0
100
AcDbBlockEnd
  0
BLOCK
  5
3A81
330
3A80
100
AcDbEntity
  8
0
100
AcDbBlockBegin
  2
*D36
 70
     1
 10
0.0
 20
0.0
 30
0.0
  3
*D36
  1

  0
LINE
  5
3A83
330
3A80
100
AcDbEntity
  8
quote
 62
     0
370
    -2
100
AcDbLine
 10
3747.145374944226
 20
1803.315917918231
 30
0.0
 11
3747.145374944226
 21
1789.748988370425
 31
0.0
  0
LINE
  5
3A84
330
3A80
100
AcDbEntity
  8
quote
 62
     0
370
    -2
100
AcDbLine
 10
3781.145374944215
 20
1803.315917918231
 30
0.0
 11
3781.145374944215
 21
1789.748988370425
 31
0.0
  0
LINE
  5
3A85
330
3A80
100
AcDbEntity
  8
quote
370
    -2
100
AcDbLine
 10
3747.145374944226
 20
1789.748988370425
 30
0.0
 11
3781.145374944215
 21
1789.748988370425
 31
0.0
  0
MTEXT
  5
3A86
330
3A80
100
AcDbEntity
  8
quote
 62
     0
100
AcDbMText
 10
3764.145374944218
 20
1796.748988370425
 30
0.0
 40
10.0
 41
0.0
 46
0.0
 71
     5
 72
     1
  1
35
 73
     1
 44
1.0
  0
POINT
  5
3A87
330
3A80
100
AcDbEntity
  8
Defpoints
 62
     0
100
AcDbPoint
 10
3747.145374944226
 20
1803.315917918231
 30
0.0
  0
POINT
  5
3A88
330
3A80
100
AcDbEntity
  8
Defpoints
 62
     0
100
AcDbPoint
 10
3781.145374944215
 20
1803.315917918231
 30
0.0
  0
POINT
  5
3A89
330
3A80
100
AcDbEntity
  8
Defpoints
 62
     0
100
AcDbPoint
 10
3781.145374944215
 20
1789.748988370425
 30
0.0
  0
ENDBLK
  5
3A82
330
3A80
100
AcDbEntity
  8
0
100
AcDbBlockEnd
  0
BLOCK
  5
3A8B
330
3A8A
100
AcDbEntity
  8
0
100
AcDbBlockBegin
  2
*D37
 70
     1
 10
0.0
 20
0.0
 30
0.0
  3
*D37
  1

  0
LINE
  5
3A8D
330
3A8A
100
AcDbEntity
  8
quote
 62
     0
370
    -2
100
AcDbLine
 10
2936.162997716102
 20
2329.855117928623
 30
0.0
 11
2936.162997716102
 21
2342.773688964288
 31
0.0
  0
LINE
  5
3A8E
330
3A8A
100
AcDbEntity
  8
quote
 62
     0
370
    -2
100
AcDbLine
 10
3036.162997716102
 20
2329.855117928623
 30
0.0
 11
3036.162997716102
 21
2342.773688964288
 31
0.0
  0
LINE
  5
3A8F
330
3A8A
100
AcDbEntity
  8
quote
370
    -2
100
AcDbLine
 10
2936.162997716102
 20
2342.773688964288
 30
0.0
 11
3036.162997716102
 21
2342.773688964288
 31
0.0
  0
MTEXT
  5
3A90
330
3A8A
100
AcDbEntity
  8
quote
 62
     0
100
AcDbMText
 10
2986.162997716102
 20
2349.773688964288
 30
0.0
 40
10.0
 41
0.0
 46
0.0
 71
     5
 72
     1
  1
100
 73
     1
 44
1.0
  0
POINT
  5
3A91
330
3A8A
100
AcDbEntity
  8
Defpoints
 62
     0
100
AcDbPoint
 10
2936.162997716102
 20
2329.855117928623
 30
0.0
  0
POINT
  5
3A92
330
3A8A
100
AcDbEntity
  8
Defpoints
 62
     0
100
AcDbPoint
 10
3036.162997716102
 20
2329.855117928623
 30
0.0
  0
POINT
  5
3A93
330
3A8A
100
AcDbEntity
  8
Defpoints
 62
     0
100
AcDbPoint
 10
3036.162997716102
 20
2342.773688964288
 30
0.0
  0
ENDBLK
  5
3A8C
330
3A8A
100
AcDbEntity
  8
0
100
AcDbBlockEnd
  0
BLOCK
  5
3A95
330
3A94
100
AcDbEntity
  8
0
100
AcDbBlockBegin
  2
*D38
 70
     1
 10
0.0
 20
0.0
 30
0.0
  3
*D38
  1

  0
LINE
  5
3A97
330
3A94
100
AcDbEntity
  8
quote
 62
     0
370
    -2
100
AcDbLine
 10
3036.162997716102
 20
2329.855117928623
 30
0.0
 11
3036.162997716102
 21
2342.773688964288
 31
0.0
  0
LINE
  5
3A98
330
3A94
100
AcDbEntity
  8
quote
 62
     0
370
    -2
100
AcDbLine
 10
3136.163026037931
 20
2329.855117928623
 30
0.0
 11
3136.163026037931
 21
2342.773688964288
 31
0.0
  0
LINE
  5
3A99
330
3A94
100
AcDbEntity
  8
quote
370
    -2
100
AcDbLine
 10
3036.162997716102
 20
2342.773688964288
 30
0.0
 11
3136.163026037931
 21
2342.773688964288
 31
0.0
  0
MTEXT
  5
3A9A
330
3A94
100
AcDbEntity
  8
quote
 62
     0
100
AcDbMText
 10
3086.163011877017
 20
2349.773688964288
 30
0.0
 40
10.0
 41
0.0
 46
0.0
 71
     5
 72
     1
  1
100
 73
     1
 44
1.0
  0
POINT
  5
3A9B
330
3A94
100
AcDbEntity
  8
Defpoints
 62
     0
100
AcDbPoint
 10
3036.162997716102
 20
2329.855117928623
 30
0.0
  0
POINT
  5
3A9C
330
3A94
100
AcDbEntity
  8
Defpoints
 62
     0
100
AcDbPoint
 10
3136.163026037931
 20
2329.855117928623
 30
0.0
  0
POINT
  5
3A9D
330
3A94
100
AcDbEntity
  8
Defpoints
 62
     0
100
AcDbPoint
 10
3136.163026037931
 20
2342.773688964288
 30
0.0
  0
ENDBLK
  5
3A96
330
3A94
100
AcDbEntity
  8
0
100
AcDbBlockEnd
  0
BLOCK
  5
3A9F
330
3A9E
100
AcDbEntity
  8
0
100
AcDbBlockBegin
  2
*D39
 70
     1
 10
0.0
 20
0.0
 30
0.0
  3
*D39
  1

  0
LINE
  5
3AA1
330
3A9E
100
AcDbEntity
  8
quote
 62
     0
370
    -2
100
AcDbLine
 10
3627.145372824536
 20
2288.761608974294
 30
0.0
 11
3627.145372824536
 21
2300.397358480518
 31
0.0
  0
LINE
  5
3AA2
330
3A9E
100
AcDbEntity
  8
quote
 62
     0
370
    -2
100
AcDbLine
 10
3672.132086066092
 20
2288.761608974294
 30
0.0
 11
3672.132086066092
 21
2300.397358480518
 31
0.0
  0
LINE
  5
3AA3
330
3A9E
100
AcDbEntity
  8
quote
370
    -2
100
AcDbLine
 10
3627.145372824536
 20
2300.397358480518
 30
0.0
 11
3672.132086066092
 21
2300.397358480518
 31
0.0
  0
MTEXT
  5
3AA4
330
3A9E
100
AcDbEntity
  8
quote
 62
     0
100
AcDbMText
 10
3649.638729445314
 20
2307.397358480518
 30
0.0
 40
10.0
 41
0.0
 46
0.0
 71
     5
 72
     1
  1
45
 73
     1
 44
1.0
  0
POINT
  5
3AA5
330
3A9E
100
AcDbEntity
  8
Defpoints
 62
     0
100
AcDbPoint
 10
3627.145372824536
 20
2288.761608974294
 30
0.0
  0
POINT
  5
3AA6
330
3A9E
100
AcDbEntity
  8
Defpoints
 62
     0
100
AcDbPoint
 10
3672.132086066092
 20
2288.761608974294
 30
0.0
  0
POINT
  5
3AA7
330
3A9E
100
AcDbEntity
  8
Defpoints
 62
     0
100
AcDbPoint
 10
3672.132086066092
 20
2300.397358480518
 30
0.0
  0
ENDBLK
  5
3AA0
330
3A9E
100
AcDbEntity
  8
0
100
AcDbBlockEnd
  0
BLOCK
  5
3AA9
330
3AA8
100
AcDbEntity
  8
0
100
AcDbBlockBegin
  2
*D40
 70
     1
 10
0.0
 20
0.0
 30
0.0
  3
*D40
  1

  0
LINE
  5
3AAB
330
3AA8
100
AcDbEntity
  8
quote
 62
     0
370
    -2
100
AcDbLine
 10
3672.132086066092
 20
2288.761608974294
 30
0.0
 11
3672.132086066092
 21
2300.397358480518
 31
0.0
  0
LINE
  5
3AAC
330
3AA8
100
AcDbEntity
  8
quote
 62
     0
370
    -2
100
AcDbLine
 10
3747.145374944226
 20
2288.761608974293
 30
0.0
 11
3747.145374944226
 21
2300.397358480518
 31
0.0
  0
LINE
  5
3AAD
330
3AA8
100
AcDbEntity
  8
quote
370
    -2
100
AcDbLine
 10
3672.132086066092
 20
2300.397358480518
 30
0.0
 11
3747.145374944226
 21
2300.397358480518
 31
0.0
  0
MTEXT
  5
3AAE
330
3AA8
100
AcDbEntity
  8
quote
 62
     0
100
AcDbMText
 10
3709.638730505159
 20
2307.397358480518
 30
0.0
 40
10.0
 41
0.0
 46
0.0
 71
     5
 72
     1
  1
75
 73
     1
 44
1.0
  0
POINT
  5
3AAF
330
3AA8
100
AcDbEntity
  8
Defpoints
 62
     0
100
AcDbPoint
 10
3672.132086066092
 20
2288.761608974294
 30
0.0
  0
POINT
  5
3AB0
330
3AA8
100
AcDbEntity
  8
Defpoints
 62
     0
100
AcDbPoint
 10
3747.145374944226
 20
2288.761608974293
 30
0.0
  0
POINT
  5
3AB1
330
3AA8
100
AcDbEntity
  8
Defpoints
 62
     0
100
AcDbPoint
 10
3747.145374944226
 20
2300.397358480518
 30
0.0
  0
ENDBLK
  5
3AAA
330
3AA8
100
AcDbEntity
  8
0
100
AcDbBlockEnd
  0
BLOCK
  5
3AB6
330
3AB5
100
AcDbEntity
  8
0
100
AcDbBlockBegin
  2
*D41
 70
     1
 10
0.0
 20
0.0
 30
0.0
  3
*D41
  1

  0
LINE
  5
3AB8
330
3AB5
100
AcDbEntity
  8
DIM
 62
     0
370
    -2
100
AcDbLine
 10
2636.21627680954
 20
1728.810114248571
 30
0.0
 11
2636.21627680954
 21
1692.365377637294
 31
0.0
  0
LINE
  5
3AB9
330
3AB5
100
AcDbEntity
  8
DIM
 62
     0
370
    -2
100
AcDbLine
 10
3436.109718622668
 20
1728.810114248571
 30
0.0
 11
3436.109718622668
 21
1692.365377637294
 31
0.0
  0
LINE
  5
3ABA
330
3AB5
100
AcDbEntity
  8
DIM
 62
     0
370
    -2
100
AcDbLine
 10
2646.21627680954
 20
1692.365377637294
 30
0.0
 11
3426.109718622668
 21
1692.365377637294
 31
0.0
  0
INSERT
  5
3ABB
330
3AB5
100
AcDbEntity
  8
DIM
 62
     0
370
    -2
100
AcDbBlockReference
  2
_DOT
 10
2636.21627680954
 20
1692.365377637294
 30
0.0
 41
10.0
 42
10.0
 43
10.0
 50
180.0
  0
INSERT
  5
3ABC
330
3AB5
100
AcDbEntity
  8
DIM
 62
     0
370
    -2
100
AcDbBlockReference
  2
_DOT
 10
3436.109718622668
 20
1692.365377637294
 30
0.0
 41
10.0
 42
10.0
 43
10.0
  0
MTEXT
  5
3ABD
330
3AB5
100
AcDbEntity
  8
DIM
 62
     0
100
AcDbMText
 10
3036.162997716104
 20
1724.365377637294
 30
0.0
 40
24.0
 41
0.0
 46
0.0
 71
     5
 72
     1
  1
\A1;800
  7
ＭＳ ゴシック
 73
     1
 44
1.0
  0
POINT
  5
3ABE
330
3AB5
100
AcDbEntity
  8
Defpoints
 62
     0
100
AcDbPoint
 10
2636.21627680954
 20
1758.810114248571
 30
0.0
  0
POINT
  5
3ABF
330
3AB5
100
AcDbEntity
  8
Defpoints
 62
     0
100
AcDbPoint
 10
3436.109718622668
 20
1758.810114248571
 30
0.0
  0
POINT
  5
3AC0
330
3AB5
100
AcDbEntity
  8
Defpoints
 62
     0
100
AcDbPoint
 10
3436.109718622668
 20
1692.365377637294
 30
0.0
  0
ENDBLK
  5
3AB7
330
3AB5
100
AcDbEntity
  8
0
100
AcDbBlockEnd
  0
BLOCK
  5
3B42
330
3B41
100
AcDbEntity
  8
0
100
AcDbBlockBegin
  2
*D42
 70
     1
 10
0.0
 20
0.0
 30
0.0
  3
*D42
  1

  0
LINE
  5
3B43
330
3B41
100
AcDbEntity
  8
DIM
 62
     0
370
    -2
100
AcDbLine
 10
1378.599637882406
 20
1522.981075886336
 30
0.0
 11
1378.599637882406
 21
1458.79682572114
 31
0.0
  0
LINE
  5
3B44
330
3B41
100
AcDbEntity
  8
DIM
 62
     0
370
    -2
100
AcDbLine
 10
1498.604040210291
 20
1526.647360102778
 30
0.0
 11
1498.604040210291
 21
1458.79682572114
 31
0.0
  0
LINE
  5
3B45
330
3B41
100
AcDbEntity
  8
DIM
 62
     0
370
    -2
100
AcDbLine
 10
1388.599637882406
 20
1458.79682572114
 30
0.0
 11
1488.604040210291
 21
1458.79682572114
 31
0.0
  0
INSERT
  5
3B46
330
3B41
100
AcDbEntity
  8
DIM
 62
     0
370
    -2
100
AcDbBlockReference
  2
_DOT
 10
1378.599637882406
 20
1458.79682572114
 30
0.0
 41
10.0
 42
10.0
 43
10.0
 50
180.0
  0
INSERT
  5
3B47
330
3B41
100
AcDbEntity
  8
DIM
 62
     0
370
    -2
100
AcDbBlockReference
  2
_DOT
 10
1498.604040210291
 20
1458.79682572114
 30
0.0
 41
10.0
 42
10.0
 43
10.0
  0
MTEXT
  5
3B48
330
3B41
100
AcDbEntity
  8
DIM
 62
     0
100
AcDbMText
 10
1438.601839046348
 20
1490.801327409273
 30
0.0
 40
24.0
 41
0.0
 46
0.0
 71
     5
 72
     1
  1
\A1;120
  7
ＭＳ ゴシック
 73
     1
 44
1.0
  0
POINT
  5
3B49
330
3B41
100
AcDbEntity
  8
Defpoints
 62
     0
100
AcDbPoint
 10
1378.599637882406
 20
1552.981075886336
 30
0.0
  0
POINT
  5
3B4A
330
3B41
100
AcDbEntity
  8
Defpoints
 62
     0
100
AcDbPoint
 10
1498.604040210291
 20
1556.647360102778
 30
0.0
  0
POINT
  5
3B4B
330
3B41
100
AcDbEntity
  8
Defpoints
 62
     0
100
AcDbPoint
 10
1498.604040210291
 20
1458.79682572114
 30
0.0
  0
ENDBLK
  5
3B4C
330
3B41
100
AcDbEntity
  8
0
100
AcDbBlockEnd
  0
BLOCK
  5
3B51
330
3B50
100
AcDbEntity
  8
0
100
AcDbBlockBegin
  2
*D43
 70
     1
 10
0.0
 20
0.0
 30
0.0
  3
*D43
  1

  0
LINE
  5
3B52
330
3B50
100
AcDbEntity
  8
DIM
 62
     0
370
    -2
100
AcDbLine
 10
1352.147041293866
 20
2017.649044656107
 30
0.0
 11
1295.949498758106
 21
2017.649044656107
 31
0.0
  0
LINE
  5
3B53
330
3B50
100
AcDbEntity
  8
DIM
 62
     0
370
    -2
100
AcDbLine
 10
1352.147041293866
 20
1952.626246499369
 30
0.0
 11
1295.949498758106
 21
1952.626246499369
 31
0.0
  0
LINE
  5
3B54
330
3B50
100
AcDbEntity
  8
DIM
 62
     0
370
    -2
100
AcDbLine
 10
1295.949498758106
 20
2007.649044656107
 30
0.0
 11
1295.949498758106
 21
1962.626246499369
 31
0.0
  0
INSERT
  5
3B55
330
3B50
100
AcDbEntity
  8
DIM
 62
     0
370
    -2
100
AcDbBlockReference
  2
_DOT
 10
1295.949498758106
 20
2017.649044656107
 30
0.0
 41
10.0
 42
10.0
 43
10.0
 50
90.0
  0
INSERT
  5
3B56
330
3B50
100
AcDbEntity
  8
DIM
 62
     0
370
    -2
100
AcDbBlockReference
  2
_DOT
 10
1295.949498758106
 20
1952.626246499369
 30
0.0
 41
10.0
 42
10.0
 43
10.0
 50
270.0
  0
MTEXT
  5
3B57
330
3B50
100
AcDbEntity
  8
DIM
 62
     0
100
AcDbMText
 10
1263.944997069973
 20
1985.137645577738
 30
0.0
 40
24.0
 41
0.0
 46
0.0
 71
     5
 72
     1
  1
\A1;65
  7
ＭＳ ゴシック
 11
0.0
 21
1.0
 31
0.0
 73
     1
 44
1.0
  0
POINT
  5
3B58
330
3B50
100
AcDbEntity
  8
Defpoints
 62
     0
100
AcDbPoint
 10
1382.147041293866
 20
2017.649044656107
 30
0.0
  0
POINT
  5
3B59
330
3B50
100
AcDbEntity
  8
Defpoints
 62
     0
100
AcDbPoint
 10
1382.147041293866
 20
1952.626246499369
 30
0.0
  0
POINT
  5
3B5A
330
3B50
100
AcDbEntity
  8
Defpoints
 62
     0
100
AcDbPoint
 10
1295.949498758106
 20
1952.626246499369
 30
0.0
  0
ENDBLK
  5
3B5B
330
3B50
100
AcDbEntity
  8
0
100
AcDbBlockEnd
  0
BLOCK
  5
3B60
330
3B5F
100
AcDbEntity
  8
0
100
AcDbBlockBegin
  2
*D44
 70
     1
 10
0.0
 20
0.0
 30
0.0
  3
*D44
  1

  0
LINE
  5
3B61
330
3B5F
100
AcDbEntity
  8
DIM
 62
     0
370
    -2
100
AcDbLine
 10
1378.907318923738
 20
1808.794445039798
 30
0.0
 11
1213.220811483448
 21
1808.794445039798
 31
0.0
  0
LINE
  5
3B62
330
3B5F
100
AcDbEntity
  8
DIM
 62
     0
370
    -2
100
AcDbLine
 10
1473.991864053967
 20
1808.794445039798
 30
0.0
 11
1388.907318923738
 21
1808.794445039798
 31
0.0
  0
LINE
  5
3B63
330
3B5F
100
AcDbEntity
  8
DIM
 62
     0
370
    -2
100
AcDbLine
 10
1388.907318923738
 20
1808.794445039798
 30
0.0
 11
1398.907318923738
 21
1808.794445039798
 31
0.0
  0
INSERT
  5
3B64
330
3B5F
100
AcDbEntity
  8
DIM
 62
     0
370
    -2
100
AcDbBlockReference
  2
_DOT
 10
1483.991864053967
 20
1808.794445039798
 30
0.0
 41
10.0
 42
10.0
 43
10.0
  0
INSERT
  5
3B65
330
3B5F
100
AcDbEntity
  8
DIM
 62
     0
370
    -2
100
AcDbBlockReference
  2
_DOT
 10
1378.907318923738
 20
1808.794445039798
 30
0.0
 41
10.0
 42
10.0
 43
10.0
 50
180.0
  0
MTEXT
  5
3B66
330
3B5F
100
AcDbEntity
  8
DIM
 62
     0
100
AcDbMText
 10
1286.064065203593
 20
1842.498333998157
 30
0.0
 40
24.0
 41
0.0
 46
0.0
 71
     5
 72
     1
  1
\A1;深さ105
  7
ＭＳ ゴシック
 73
     1
 44
1.0
  0
POINT
  5
3B67
330
3B5F
100
AcDbEntity
  8
Defpoints
 62
     0
100
AcDbPoint
 10
1483.991864053967
 20
1844.035902328067
 30
0.0
  0
POINT
  5
3B68
330
3B5F
100
AcDbEntity
  8
Defpoints
 62
     0
100
AcDbPoint
 10
1378.907318923738
 20
1814.159697002131
 30
0.0
  0
POINT
  5
3B69
330
3B5F
100
AcDbEntity
  8
Defpoints
 62
     0
100
AcDbPoint
 10
1378.907318923738
 20
1808.794445039798
 30
0.0
  0
ENDBLK
  5
3B6A
330
3B5F
100
AcDbEntity
  8
0
100
AcDbBlockEnd
  0
BLOCK
  5
3B6F
330
3B6E
100
AcDbEntity
  8
0
100
AcDbBlockBegin
  2
*D45
 70
     1
 10
0.0
 20
0.0
 30
0.0
  3
*D45
  1

  0
LINE
  5
3B70
330
3B6E
100
AcDbEntity
  8
DIM
 62
     0
370
    -2
100
AcDbLine
 10
1526.146962189468
 20
2017.514747238403
 30
0.0
 11
1644.510104131828
 21
2017.514747238403
 31
0.0
  0
LINE
  5
3B71
330
3B6E
100
AcDbEntity
  8
DIM
 62
     0
370
    -2
100
AcDbLine
 10
1562.899546535256
 20
1807.471305198659
 30
0.0
 11
1644.510104131828
 21
1807.471305198659
 31
0.0
  0
LINE
  5
3B72
330
3B6E
100
AcDbEntity
  8
DIM
 62
     0
370
    -2
100
AcDbLine
 10
1644.510104131828
 20
2007.514747238403
 30
0.0
 11
1644.510104131828
 21
1817.471305198659
 31
0.0
  0
INSERT
  5
3B73
330
3B6E
100
AcDbEntity
  8
DIM
 62
     0
370
    -2
100
AcDbBlockReference
  2
_DOT
 10
1644.510104131828
 20
2017.514747238403
 30
0.0
 41
10.0
 42
10.0
 43
10.0
 50
90.0
  0
INSERT
  5
3B74
330
3B6E
100
AcDbEntity
  8
DIM
 62
     0
370
    -2
100
AcDbBlockReference
  2
_DOT
 10
1644.510104131828
 20
1807.471305198659
 30
0.0
 41
10.0
 42
10.0
 43
10.0
 50
270.0
  0
MTEXT
  5
3B75
330
3B6E
100
AcDbEntity
  8
DIM
 62
     0
100
AcDbMText
 10
1612.505602443695
 20
1912.493026218531
 30
0.0
 40
24.0
 41
0.0
 46
0.0
 71
     5
 72
     1
  1
\A1;210
  7
ＭＳ ゴシック
 11
0.0
 21
1.0
 31
0.0
 73
     1
 44
1.0
  0
POINT
  5
3B76
330
3B6E
100
AcDbEntity
  8
Defpoints
 62
     0
100
AcDbPoint
 10
1496.146962189468
 20
2017.514747238403
 30
0.0
  0
POINT
  5
3B77
330
3B6E
100
AcDbEntity
  8
Defpoints
 62
     0
100
AcDbPoint
 10
1532.899546535256
 20
1807.471305198659
 30
0.0
  0
POINT
  5
3B78
330
3B6E
100
AcDbEntity
  8
Defpoints
 62
     0
100
AcDbPoint
 10
1644.510104131828
 20
1807.471305198659
 30
0.0
  0
ENDBLK
  5
3B79
330
3B6E
100
AcDbEntity
  8
0
100
AcDbBlockEnd
  0
BLOCK
  5
3B80
330
3B7F
100
AcDbEntity
  8
0
100
AcDbBlockBegin
  2
*D46
 70
     1
 10
0.0
 20
0.0
 30
0.0
  3
*D46
  1

  0
LINE
  5
3B81
330
3B7F
100
AcDbEntity
  8
DIM
 62
     0
370
    -2
100
AcDbLine
 10
553.0882618548046
 20
2096.190496648465
 30
0.0
 11
820.3764789666468
 21
2096.190496648465
 31
0.0
  0
LINE
  5
3B82
330
3B7F
100
AcDbEntity
  8
DIM
 62
     0
370
    -2
100
AcDbLine
 10
553.0882618547992
 20
1466.190496648464
 30
0.0
 11
820.3764789666468
 21
1466.190496648464
 31
0.0
  0
LINE
  5
3B83
330
3B7F
100
AcDbEntity
  8
DIM
 62
     0
370
    -2
100
AcDbLine
 10
820.3764789666468
 20
2086.190496648465
 30
0.0
 11
820.3764789666468
 21
1476.190496648464
 31
0.0
  0
INSERT
  5
3B84
330
3B7F
100
AcDbEntity
  8
DIM
 62
     0
370
    -2
100
AcDbBlockReference
  2
_DOT
 10
820.3764789666468
 20
2096.190496648465
 30
0.0
 41
10.0
 42
10.0
 43
10.0
 50
90.0
  0
INSERT
  5
3B85
330
3B7F
100
AcDbEntity
  8
DIM
 62
     0
370
    -2
100
AcDbBlockReference
  2
_DOT
 10
820.3764789666468
 20
1466.190496648464
 30
0.0
 41
10.0
 42
10.0
 43
10.0
 50
270.0
  0
MTEXT
  5
3B86
330
3B7F
100
AcDbEntity
  8
DIM
 62
     0
100
AcDbMText
 10
788.3719772785137
 20
1781.190496648465
 30
0.0
 40
24.0
 41
0.0
 46
0.0
 71
     5
 72
     1
  1
\A1;630
  7
ＭＳ ゴシック
 11
0.0
 21
1.0
 31
0.0
 73
     1
 44
1.0
  0
POINT
  5
3B87
330
3B7F
100
AcDbEntity
  8
Defpoints
 62
     0
100
AcDbPoint
 10
523.0882618548046
 20
2096.190496648465
 30
0.0
  0
POINT
  5
3B88
330
3B7F
100
AcDbEntity
  8
Defpoints
 62
     0
100
AcDbPoint
 10
523.0882618547992
 20
1466.190496648464
 30
0.0
  0
POINT
  5
3B89
330
3B7F
100
AcDbEntity
  8
Defpoints
 62
     0
100
AcDbPoint
 10
820.3764789666468
 20
1466.190496648464
 30
0.0
  0
ENDBLK
  5
3B8A
330
3B7F
100
AcDbEntity
  8
0
100
AcDbBlockEnd
  0
BLOCK
  5
3B8F
330
3B8E
100
AcDbEntity
  8
0
100
AcDbBlockBegin
  2
*D47
 70
     1
 10
0.0
 20
0.0
 30
0.0
  3
*D47
  1

  0
LINE
  5
3B90
330
3B8E
100
AcDbEntity
  8
DIM
 62
     0
370
    -2
100
AcDbLine
 10
553.0882618548007
 20
1946.19049664845
 30
0.0
 11
691.5504718930213
 21
1946.19049664845
 31
0.0
  0
LINE
  5
3B91
330
3B8E
100
AcDbEntity
  8
DIM
 62
     0
370
    -2
100
AcDbLine
 10
553.0882618548026
 20
1616.19049664845
 30
0.0
 11
691.5504718930213
 21
1616.19049664845
 31
0.0
  0
LINE
  5
3B92
330
3B8E
100
AcDbEntity
  8
DIM
 62
     0
370
    -2
100
AcDbLine
 10
691.5504718930213
 20
1936.19049664845
 30
0.0
 11
691.5504718930213
 21
1626.19049664845
 31
0.0
  0
INSERT
  5
3B93
330
3B8E
100
AcDbEntity
  8
DIM
 62
     0
370
    -2
100
AcDbBlockReference
  2
_DOT
 10
691.5504718930213
 20
1946.19049664845
 30
0.0
 41
10.0
 42
10.0
 43
10.0
 50
90.0
  0
INSERT
  5
3B94
330
3B8E
100
AcDbEntity
  8
DIM
 62
     0
370
    -2
100
AcDbBlockReference
  2
_DOT
 10
691.5504718930213
 20
1616.19049664845
 30
0.0
 41
10.0
 42
10.0
 43
10.0
 50
270.0
  0
MTEXT
  5
3B95
330
3B8E
100
AcDbEntity
  8
DIM
 62
     0
100
AcDbMText
 10
659.5459702048881
 20
1781.19049664845
 30
0.0
 40
24.0
 41
0.0
 46
0.0
 71
     5
 72
     1
  1
\A1;330
  7
ＭＳ ゴシック
 11
0.0
 21
1.0
 31
0.0
 73
     1
 44
1.0
  0
POINT
  5
3B96
330
3B8E
100
AcDbEntity
  8
Defpoints
 62
     0
100
AcDbPoint
 10
523.0882618548007
 20
1946.19049664845
 30
0.0
  0
POINT
  5
3B97
330
3B8E
100
AcDbEntity
  8
Defpoints
 62
     0
100
AcDbPoint
 10
523.0882618548026
 20
1616.19049664845
 30
0.0
  0
POINT
  5
3B98
330
3B8E
100
AcDbEntity
  8
Defpoints
 62
     0
100
AcDbPoint
 10
691.5504718930213
 20
1616.19049664845
 30
0.0
  0
ENDBLK
  5
3B99
330
3B8E
100
AcDbEntity
  8
0
100
AcDbBlockEnd
  0
BLOCK
  5
3B9E
330
3B9D
100
AcDbEntity
  8
0
100
AcDbBlockBegin
  2
*D48
 70
     1
 10
0.0
 20
0.0
 30
0.0
  3
*D48
  1

  0
LINE
  5
3B9F
330
3B9D
100
AcDbEntity
  8
DIM
 62
     0
370
    -2
100
AcDbLine
 10
223.7929032925567
 20
2126.190496648464
 30
0.0
 11
223.7929032925567
 21
2220.631947381068
 31
0.0
  0
LINE
  5
3BA0
330
3B9D
100
AcDbEntity
  8
DIM
 62
     0
370
    -2
100
AcDbLine
 10
523.0882618548007
 20
2166.190496648447
 30
0.0
 11
523.0882618548007
 21
2220.631947381068
 31
0.0
  0
LINE
  5
3BA1
330
3B9D
100
AcDbEntity
  8
DIM
 62
     0
370
    -2
100
AcDbLine
 10
233.7929032925567
 20
2220.631947381068
 30
0.0
 11
513.0882618548007
 21
2220.631947381068
 31
0.0
  0
INSERT
  5
3BA2
330
3B9D
100
AcDbEntity
  8
DIM
 62
     0
370
    -2
100
AcDbBlockReference
  2
_DOT
 10
223.7929032925567
 20
2220.631947381068
 30
0.0
 41
10.0
 42
10.0
 43
10.0
 50
180.0
  0
INSERT
  5
3BA3
330
3B9D
100
AcDbEntity
  8
DIM
 62
     0
370
    -2
100
AcDbBlockReference
  2
_DOT
 10
523.0882618548007
 20
2220.631947381068
 30
0.0
 41
10.0
 42
10.0
 43
10.0
  0
MTEXT
  5
3BA4
330
3B9D
100
AcDbEntity
  8
DIM
 62
     0
100
AcDbMText
 10
373.4405825736787
 20
2252.636449069201
 30
0.0
 40
24.0
 41
0.0
 46
0.0
 71
     5
 72
     1
  1
\A1;300
  7
ＭＳ ゴシック
 73
     1
 44
1.0
  0
POINT
  5
3BA5
330
3B9D
100
AcDbEntity
  8
Defpoints
 62
     0
100
AcDbPoint
 10
223.7929032925567
 20
2096.190496648464
 30
0.0
  0
POINT
  5
3BA6
330
3B9D
100
AcDbEntity
  8
Defpoints
 62
     0
100
AcDbPoint
 10
523.0882618548007
 20
2136.190496648447
 30
0.0
  0
POINT
  5
3BA7
330
3B9D
100
AcDbEntity
  8
Defpoints
 62
     0
100
AcDbPoint
 10
523.0882618548007
 20
2220.631947381068
 30
0.0
  0
ENDBLK
  5
3BA8
330
3B9D
100
AcDbEntity
  8
0
100
AcDbBlockEnd
  0
BLOCK
  5
3BD5
330
3BD4
100
AcDbEntity
  8
0
100
AcDbBlockBegin
  2
*D49
 70
     1
 10
0.0
 20
0.0
 30
0.0
  3
*D49
  1

  0
LINE
  5
3BD6
330
3BD4
100
AcDbEntity
  8
DIM
 62
     0
370
    -2
100
AcDbLine
 10
1393.922021813914
 20
742.821553241668
 30
0.0
 11
1293.507848757016
 21
742.821553241668
 31
0.0
  0
LINE
  5
3BD7
330
3BD4
100
AcDbEntity
  8
DIM
 62
     0
370
    -2
100
AcDbLine
 10
1393.95310174487
 20
462.5977084214911
 30
0.0
 11
1293.507848757016
 21
462.5977084214911
 31
0.0
  0
LINE
  5
3BD8
330
3BD4
100
AcDbEntity
  8
DIM
 62
     0
370
    -2
100
AcDbLine
 10
1293.507848757016
 20
732.821553241668
 30
0.0
 11
1293.507848757016
 21
472.5977084214911
 31
0.0
  0
INSERT
  5
3BD9
330
3BD4
100
AcDbEntity
  8
DIM
 62
     0
370
    -2
100
AcDbBlockReference
  2
_DOT
 10
1293.507848757016
 20
742.821553241668
 30
0.0
 41
10.0
 42
10.0
 43
10.0
 50
90.0
  0
INSERT
  5
3BDA
330
3BD4
100
AcDbEntity
  8
DIM
 62
     0
370
    -2
100
AcDbBlockReference
  2
_DOT
 10
1293.507848757016
 20
462.5977084214911
 30
0.0
 41
10.0
 42
10.0
 43
10.0
 50
270.0
  0
MTEXT
  5
3BDB
330
3BD4
100
AcDbEntity
  8
DIM
 62
     0
100
AcDbMText
 10
1261.503347068883
 20
602.7096308315795
 30
0.0
 40
24.0
 41
0.0
 46
0.0
 71
     5
 72
     1
  1
\A1;280
  7
ＭＳ ゴシック
 11
0.0
 21
1.0
 31
0.0
 73
     1
 44
1.0
  0
POINT
  5
3BDC
330
3BD4
100
AcDbEntity
  8
Defpoints
 62
     0
100
AcDbPoint
 10
1423.922021813914
 20
742.821553241668
 30
0.0
  0
POINT
  5
3BDD
330
3BD4
100
AcDbEntity
  8
Defpoints
 62
     0
100
AcDbPoint
 10
1423.95310174487
 20
462.5977084214911
 30
0.0
  0
POINT
  5
3BDE
330
3BD4
100
AcDbEntity
  8
Defpoints
 62
     0
100
AcDbPoint
 10
1293.507848757016
 20
462.5977084214911
 30
0.0
  0
ENDBLK
  5
3BDF
330
3BD4
100
AcDbEntity
  8
0
100
AcDbBlockEnd
  0
BLOCK
  5
3BE4
330
3BE3
100
AcDbEntity
  8
0
100
AcDbBlockBegin
  2
*D50
 70
     1
 10
0.0
 20
0.0
 30
0.0
  3
*D50
  1

  0
LINE
  5
3BE5
330
3BE3
100
AcDbEntity
  8
DIM
 62
     0
370
    -2
100
AcDbLine
 10
1393.953101744871
 20
322.5977084214911
 30
0.0
 11
1293.507848757016
 21
322.5977084214911
 31
0.0
  0
LINE
  5
3BE6
330
3BE3
100
AcDbEntity
  8
DIM
 62
     0
370
    -2
100
AcDbLine
 10
1393.95310174487
 20
462.5977084214911
 30
0.0
 11
1293.507848757016
 21
462.5977084214911
 31
0.0
  0
LINE
  5
3BE7
330
3BE3
100
AcDbEntity
  8
DIM
 62
     0
370
    -2
100
AcDbLine
 10
1293.507848757016
 20
332.5977084214911
 30
0.0
 11
1293.507848757016
 21
452.5977084214911
 31
0.0
  0
INSERT
  5
3BE8
330
3BE3
100
AcDbEntity
  8
DIM
 62
     0
370
    -2
100
AcDbBlockReference
  2
_DOT
 10
1293.507848757016
 20
322.5977084214911
 30
0.0
 41
10.0
 42
10.0
 43
10.0
 50
270.0
  0
INSERT
  5
3BE9
330
3BE3
100
AcDbEntity
  8
DIM
 62
     0
370
    -2
100
AcDbBlockReference
  2
_DOT
 10
1293.507848757016
 20
462.5977084214911
 30
0.0
 41
10.0
 42
10.0
 43
10.0
 50
90.0
  0
MTEXT
  5
3BEA
330
3BE3
100
AcDbEntity
  8
DIM
 62
     0
100
AcDbMText
 10
1261.503347068883
 20
392.5977084214911
 30
0.0
 40
24.0
 41
0.0
 46
0.0
 71
     5
 72
     1
  1
\A1;140
  7
ＭＳ ゴシック
 11
0.0
 21
1.0
 31
0.0
 73
     1
 44
1.0
  0
POINT
  5
3BEB
330
3BE3
100
AcDbEntity
  8
Defpoints
 62
     0
100
AcDbPoint
 10
1423.953101744871
 20
322.5977084214911
 30
0.0
  0
POINT
  5
3BEC
330
3BE3
100
AcDbEntity
  8
Defpoints
 62
     0
100
AcDbPoint
 10
1423.95310174487
 20
462.5977084214911
 30
0.0
  0
POINT
  5
3BED
330
3BE3
100
AcDbEntity
  8
Defpoints
 62
     0
100
AcDbPoint
 10
1293.507848757016
 20
462.5977084214911
 30
0.0
  0
ENDBLK
  5
3BEE
330
3BE3
100
AcDbEntity
  8
0
100
AcDbBlockEnd
  0
BLOCK
  5
3BF3
330
3BF2
100
AcDbEntity
  8
0
100
AcDbBlockBegin
  2
*D51
 70
     1
 10
0.0
 20
0.0
 30
0.0
  3
*D51
  1

  0
LINE
  5
3BF4
330
3BF2
100
AcDbEntity
  8
DIM
 62
     0
370
    -2
100
AcDbLine
 10
1393.95310174487
 20
743.0453980618452
 30
0.0
 11
1293.507848757016
 21
743.0453980618452
 31
0.0
  0
LINE
  5
3BF5
330
3BF2
100
AcDbEntity
  8
DIM
 62
     0
370
    -2
100
AcDbLine
 10
1393.953101744871
 20
883.0453980618452
 30
0.0
 11
1293.507848757016
 21
883.0453980618452
 31
0.0
  0
LINE
  5
3BF6
330
3BF2
100
AcDbEntity
  8
DIM
 62
     0
370
    -2
100
AcDbLine
 10
1293.507848757016
 20
753.0453980618452
 30
0.0
 11
1293.507848757016
 21
873.0453980618452
 31
0.0
  0
INSERT
  5
3BF7
330
3BF2
100
AcDbEntity
  8
DIM
 62
     0
370
    -2
100
AcDbBlockReference
  2
_DOT
 10
1293.507848757016
 20
743.0453980618452
 30
0.0
 41
10.0
 42
10.0
 43
10.0
 50
270.0
  0
INSERT
  5
3BF8
330
3BF2
100
AcDbEntity
  8
DIM
 62
     0
370
    -2
100
AcDbBlockReference
  2
_DOT
 10
1293.507848757016
 20
883.0453980618452
 30
0.0
 41
10.0
 42
10.0
 43
10.0
 50
90.0
  0
MTEXT
  5
3BF9
330
3BF2
100
AcDbEntity
  8
DIM
 62
     0
100
AcDbMText
 10
1261.503347068883
 20
813.0453980618452
 30
0.0
 40
24.0
 41
0.0
 46
0.0
 71
     5
 72
     1
  1
\A1;140
  7
ＭＳ ゴシック
 11
0.0
 21
1.0
 31
0.0
 73
     1
 44
1.0
  0
POINT
  5
3BFA
330
3BF2
100
AcDbEntity
  8
Defpoints
 62
     0
100
AcDbPoint
 10
1423.95310174487
 20
743.0453980618452
 30
0.0
  0
POINT
  5
3BFB
330
3BF2
100
AcDbEntity
  8
Defpoints
 62
     0
100
AcDbPoint
 10
1423.953101744871
 20
883.0453980618452
 30
0.0
  0
POINT
  5
3BFC
330
3BF2
100
AcDbEntity
  8
Defpoints
 62
     0
100
AcDbPoint
 10
1293.507848757016
 20
883.0453980618452
 30
0.0
  0
ENDBLK
  5
3BFD
330
3BF2
100
AcDbEntity
  8
0
100
AcDbBlockEnd
  0
BLOCK
  5
3C02
330
3C01
100
AcDbEntity
  8
0
100
AcDbBlockBegin
  2
*D52
 70
     1
 10
0.0
 20
0.0
 30
0.0
  3
*D52
  1

  0
LINE
  5
3C03
330
3C01
100
AcDbEntity
  8
DIM
 62
     0
370
    -2
100
AcDbLine
 10
1519.137998280873
 20
102.972490995964
 30
0.0
 11
1673.072412695016
 21
102.972490995964
 31
0.0
  0
LINE
  5
3C04
330
3C01
100
AcDbEntity
  8
DIM
 62
     0
370
    -2
100
AcDbLine
 10
1560.183489042156
 20
602.8215532416681
 30
0.0
 11
1673.072412695016
 21
602.8215532416681
 31
0.0
  0
LINE
  5
3C05
330
3C01
100
AcDbEntity
  8
DIM
 62
     0
370
    -2
100
AcDbLine
 10
1673.072412695016
 20
112.972490995964
 30
0.0
 11
1673.072412695016
 21
592.8215532416681
 31
0.0
  0
INSERT
  5
3C06
330
3C01
100
AcDbEntity
  8
DIM
 62
     0
370
    -2
100
AcDbBlockReference
  2
_DOT
 10
1673.072412695016
 20
102.972490995964
 30
0.0
 41
10.0
 42
10.0
 43
10.0
 50
270.0
  0
INSERT
  5
3C07
330
3C01
100
AcDbEntity
  8
DIM
 62
     0
370
    -2
100
AcDbBlockReference
  2
_DOT
 10
1673.072412695016
 20
602.8215532416681
 30
0.0
 41
10.0
 42
10.0
 43
10.0
 50
90.0
  0
MTEXT
  5
3C08
330
3C01
100
AcDbEntity
  8
DIM
 62
     0
100
AcDbMText
 10
1641.067911006883
 20
352.897022118816
 30
0.0
 40
24.0
 41
0.0
 46
0.0
 71
     5
 72
     1
  1
\A1;500
  7
ＭＳ ゴシック
 11
0.0
 21
1.0
 31
0.0
 73
     1
 44
1.0
  0
POINT
  5
3C09
330
3C01
100
AcDbEntity
  8
Defpoints
 62
     0
100
AcDbPoint
 10
1489.137998280873
 20
102.972490995964
 30
0.0
  0
POINT
  5
3C0A
330
3C01
100
AcDbEntity
  8
Defpoints
 62
     0
100
AcDbPoint
 10
1530.183489042156
 20
602.8215532416681
 30
0.0
  0
POINT
  5
3C0B
330
3C01
100
AcDbEntity
  8
Defpoints
 62
     0
100
AcDbPoint
 10
1673.072412695016
 20
602.8215532416681
 30
0.0
  0
ENDBLK
  5
3C0C
330
3C01
100
AcDbEntity
  8
0
100
AcDbBlockEnd
  0
BLOCK
  5
3C0F
330
3C0E
100
AcDbEntity
  8
0
100
AcDbBlockBegin
  2
*D53
 70
     1
 10
0.0
 20
0.0
 30
0.0
  3
*D53
  1

  0
LINE
  5
3C10
330
3C0E
100
AcDbEntity
  8
DIM
 62
     0
370
    -2
100
AcDbLine
 10
1423.953101744871
 20
84.7105130309177
 30
0.0
 11
1423.953101744871
 21
35.69615892725744
 31
0.0
  0
LINE
  5
3C11
330
3C0E
100
AcDbEntity
  8
DIM
 62
     0
370
    -2
100
AcDbLine
 10
1378.922021813914
 20
84.4280452116177
 30
0.0
 11
1378.922021813914
 21
35.69615892725744
 31
0.0
  0
LINE
  5
3C12
330
3C0E
100
AcDbEntity
  8
DIM
 62
     0
370
    -2
100
AcDbLine
 10
1413.953101744871
 20
35.69615892725744
 30
0.0
 11
1388.922021813914
 21
35.69615892725744
 31
0.0
  0
INSERT
  5
3C13
330
3C0E
100
AcDbEntity
  8
DIM
 62
     0
370
    -2
100
AcDbBlockReference
  2
_DOT
 10
1423.953101744871
 20
35.69615892725744
 30
0.0
 41
10.0
 42
10.0
 43
10.0
  0
INSERT
  5
3C14
330
3C0E
100
AcDbEntity
  8
DIM
 62
     0
370
    -2
100
AcDbBlockReference
  2
_DOT
 10
1378.922021813914
 20
35.69615892725744
 30
0.0
 41
10.0
 42
10.0
 43
10.0
 50
180.0
  0
MTEXT
  5
3C15
330
3C0E
100
AcDbEntity
  8
DIM
 62
     0
100
AcDbMText
 10
1401.437561779392
 20
67.70066061539049
 30
0.0
 40
24.0
 41
0.0
 46
0.0
 71
     5
 72
     1
  1
\A1;45
  7
ＭＳ ゴシック
 73
     1
 44
1.0
  0
POINT
  5
3C16
330
3C0E
100
AcDbEntity
  8
Defpoints
 62
     0
100
AcDbPoint
 10
1423.953101744871
 20
114.7105130309177
 30
0.0
  0
POINT
  5
3C17
330
3C0E
100
AcDbEntity
  8
Defpoints
 62
     0
100
AcDbPoint
 10
1378.922021813914
 20
114.4280452116177
 30
0.0
  0
POINT
  5
3C18
330
3C0E
100
AcDbEntity
  8
Defpoints
 62
     0
100
AcDbPoint
 10
1378.922021813914
 20
35.69615892725744
 30
0.0
  0
ENDBLK
  5
3C19
330
3C0E
100
AcDbEntity
  8
0
100
AcDbBlockEnd
  0
BLOCK
  5
3C1E
330
3C1D
100
AcDbEntity
  8
0
100
AcDbBlockBegin
  2
*D54
 70
     1
 10
0.0
 20
0.0
 30
0.0
  3
*D54
  1

  0
LINE
  5
3C1F
330
3C1D
100
AcDbEntity
  8
DIM
 62
     0
370
    -2
100
AcDbLine
 10
1379.058051043461
 20
1130.76595455971
 30
0.0
 11
1379.058051043461
 21
1216.225945679749
 31
0.0
  0
LINE
  5
3C20
330
3C1D
100
AcDbEntity
  8
DIM
 62
     0
370
    -2
100
AcDbLine
 10
1532.922021813913
 20
668.4262722588539
 30
0.0
 11
1532.922021813913
 21
1216.225945679749
 31
0.0
  0
LINE
  5
3C21
330
3C1D
100
AcDbEntity
  8
DIM
 62
     0
370
    -2
100
AcDbLine
 10
1389.058051043461
 20
1216.225945679749
 30
0.0
 11
1522.922021813913
 21
1216.225945679749
 31
0.0
  0
INSERT
  5
3C22
330
3C1D
100
AcDbEntity
  8
DIM
 62
     0
370
    -2
100
AcDbBlockReference
  2
_DOT
 10
1379.058051043461
 20
1216.225945679749
 30
0.0
 41
10.0
 42
10.0
 43
10.0
 50
180.0
  0
INSERT
  5
3C23
330
3C1D
100
AcDbEntity
  8
DIM
 62
     0
370
    -2
100
AcDbBlockReference
  2
_DOT
 10
1532.922021813913
 20
1216.225945679749
 30
0.0
 41
10.0
 42
10.0
 43
10.0
  0
MTEXT
  5
3C24
330
3C1D
100
AcDbEntity
  8
DIM
 62
     0
100
AcDbMText
 10
1455.990036428687
 20
1248.230447367882
 30
0.0
 40
24.0
 41
0.0
 46
0.0
 71
     5
 72
     1
  1
\A1;154
  7
ＭＳ ゴシック
 73
     1
 44
1.0
  0
POINT
  5
3C25
330
3C1D
100
AcDbEntity
  8
Defpoints
 62
     0
100
AcDbPoint
 10
1379.058051043461
 20
1100.76595455971
 30
0.0
  0
POINT
  5
3C26
330
3C1D
100
AcDbEntity
  8
Defpoints
 62
     0
100
AcDbPoint
 10
1532.922021813913
 20
638.4262722588539
 30
0.0
  0
POINT
  5
3C27
330
3C1D
100
AcDbEntity
  8
Defpoints
 62
     0
100
AcDbPoint
 10
1532.922021813913
 20
1216.225945679749
 30
0.0
  0
ENDBLK
  5
3C28
330
3C1D
100
AcDbEntity
  8
0
100
AcDbBlockEnd
  0
BLOCK
  5
3C2D
330
3C2C
100
AcDbEntity
  8
0
100
AcDbBlockBegin
  2
*D55
 70
     1
 10
0.0
 20
0.0
 30
0.0
  3
*D55
  1

  0
LINE
  5
3C2E
330
3C2C
100
AcDbEntity
  8
DIM
 62
     0
370
    -2
100
AcDbLine
 10
223.7929032925542
 20
1129.872830029773
 30
0.0
 11
223.7929032925542
 21
1209.980988064886
 31
0.0
  0
LINE
  5
3C2F
330
3C2C
100
AcDbEntity
  8
DIM
 62
     0
370
    -2
100
AcDbLine
 10
693.6590624083412
 20
1129.872830029772
 30
0.0
 11
693.6590624083412
 21
1209.980988064886
 31
0.0
  0
LINE
  5
3C30
330
3C2C
100
AcDbEntity
  8
DIM
 62
     0
370
    -2
100
AcDbLine
 10
233.7929032925542
 20
1209.980988064886
 30
0.0
 11
683.6590624083412
 21
1209.980988064886
 31
0.0
  0
INSERT
  5
3C31
330
3C2C
100
AcDbEntity
  8
DIM
 62
     0
370
    -2
100
AcDbBlockReference
  2
_DOT
 10
223.7929032925542
 20
1209.980988064886
 30
0.0
 41
10.0
 42
10.0
 43
10.0
 50
180.0
  0
INSERT
  5
3C32
330
3C2C
100
AcDbEntity
  8
DIM
 62
     0
370
    -2
100
AcDbBlockReference
  2
_DOT
 10
693.6590624083412
 20
1209.980988064886
 30
0.0
 41
10.0
 42
10.0
 43
10.0
  0
MTEXT
  5
3C33
330
3C2C
100
AcDbEntity
  8
DIM
 62
     0
100
AcDbMText
 10
458.7259828504478
 20
1241.985489753019
 30
0.0
 40
24.0
 41
0.0
 46
0.0
 71
     5
 72
     1
  1
\A1;470
  7
ＭＳ ゴシック
 73
     1
 44
1.0
  0
POINT
  5
3C34
330
3C2C
100
AcDbEntity
  8
Defpoints
 62
     0
100
AcDbPoint
 10
223.7929032925542
 20
1099.872830029773
 30
0.0
  0
POINT
  5
3C35
330
3C2C
100
AcDbEntity
  8
Defpoints
 62
     0
100
AcDbPoint
 10
693.6590624083412
 20
1099.872830029772
 30
0.0
  0
POINT
  5
3C36
330
3C2C
100
AcDbEntity
  8
Defpoints
 62
     0
100
AcDbPoint
 10
693.6590624083412
 20
1209.980988064886
 30
0.0
  0
ENDBLK
  5
3C37
330
3C2C
100
AcDbEntity
  8
0
100
AcDbBlockEnd
  0
BLOCK
  5
3C3A
330
3C39
100
AcDbEntity
  8
0
100
AcDbBlockBegin
  2
*D56
 70
     1
 10
0.0
 20
0.0
 30
0.0
  3
*D56
  1

  0
LINE
  5
3C3B
330
3C39
100
AcDbEntity
  8
DIM
 62
     0
370
    -2
100
AcDbLine
 10
723.559372626574
 20
105.9849159604669
 30
0.0
 11
838.0855267203048
 21
105.9849159604669
 31
0.0
  0
LINE
  5
3C3C
330
3C39
100
AcDbEntity
  8
DIM
 62
     0
370
    -2
100
AcDbLine
 10
723.6590624083412
 20
1099.872830029772
 30
0.0
 11
838.0855267203049
 21
1099.872830029772
 31
0.0
  0
LINE
  5
3C3D
330
3C39
100
AcDbEntity
  8
DIM
 62
     0
370
    -2
100
AcDbLine
 10
838.0855267203048
 20
115.9849159604669
 30
0.0
 11
838.0855267203049
 21
1089.872830029772
 31
0.0
  0
INSERT
  5
3C3E
330
3C39
100
AcDbEntity
  8
DIM
 62
     0
370
    -2
100
AcDbBlockReference
  2
_DOT
 10
838.0855267203048
 20
105.9849159604669
 30
0.0
 41
10.0
 42
10.0
 43
10.0
 50
270.0
  0
INSERT
  5
3C3F
330
3C39
100
AcDbEntity
  8
DIM
 62
     0
370
    -2
100
AcDbBlockReference
  2
_DOT
 10
838.0855267203049
 20
1099.872830029772
 30
0.0
 41
10.0
 42
10.0
 43
10.0
 50
90.0
  0
MTEXT
  5
3C40
330
3C39
100
AcDbEntity
  8
DIM
 62
     0
100
AcDbMText
 10
806.0855267203049
 20
602.9288729951195
 30
0.0
 40
24.0
 41
0.0
 46
0.0
 71
     5
 72
     1
  1
\A1;994
  7
ＭＳ ゴシック
 11
1.143859746278075E-16
 21
1.0
 31
0.0
 73
     1
 44
1.0
  0
POINT
  5
3C41
330
3C39
100
AcDbEntity
  8
Defpoints
 62
     0
100
AcDbPoint
 10
693.559372626574
 20
105.9849159604669
 30
0.0
  0
POINT
  5
3C42
330
3C39
100
AcDbEntity
  8
Defpoints
 62
     0
100
AcDbPoint
 10
693.6590624083412
 20
1099.872830029772
 30
0.0
  0
POINT
  5
3C43
330
3C39
100
AcDbEntity
  8
Defpoints
 62
     0
100
AcDbPoint
 10
838.0855267203049
 20
1099.872830029772
 30
0.0
  0
ENDBLK
  5
3C44
330
3C39
100
AcDbEntity
  8
0
100
AcDbBlockEnd
  0
BLOCK
  5
3C47
330
3C46
100
AcDbEntity
  8
0
100
AcDbBlockBegin
  2
*D57
 70
     1
 10
0.0
 20
0.0
 30
0.0
  3
*D57
  1

  0
LINE
  5
3C48
330
3C46
100
AcDbEntity
  8
DIM
 62
     0
370
    -2
100
AcDbLine
 10
348.807864220684
 20
72.8723731152337
 30
0.0
 11
348.807864220684
 21
5.000000000000057
 31
0.0
  0
LINE
  5
3C49
330
3C46
100
AcDbEntity
  8
DIM
 62
     0
370
    -2
100
AcDbLine
 10
689.0863490533341
 20
72.87237311523472
 30
0.0
 11
689.0863490533341
 21
5.000000000000057
 31
0.0
  0
LINE
  5
3C4A
330
3C46
100
AcDbEntity
  8
DIM
 62
     0
370
    -2
100
AcDbLine
 10
358.807864220684
 20
5.000000000000057
 30
0.0
 11
679.0863490533341
 21
5.000000000000057
 31
0.0
  0
INSERT
  5
3C4B
330
3C46
100
AcDbEntity
  8
DIM
 62
     0
370
    -2
100
AcDbBlockReference
  2
_DOT
 10
348.807864220684
 20
5.000000000000057
 30
0.0
 41
10.0
 42
10.0
 43
10.0
 50
180.0
  0
INSERT
  5
3C4C
330
3C46
100
AcDbEntity
  8
DIM
 62
     0
370
    -2
100
AcDbBlockReference
  2
_DOT
 10
689.0863490533341
 20
5.000000000000057
 30
0.0
 41
10.0
 42
10.0
 43
10.0
  0
MTEXT
  5
3C4D
330
3C46
100
AcDbEntity
  8
DIM
 62
     0
100
AcDbMText
 10
518.947106637009
 20
37.0045016881331
 30
0.0
 40
24.0
 41
0.0
 46
0.0
 71
     5
 72
     1
  1
\A1;340
  7
ＭＳ ゴシック
 73
     1
 44
1.0
  0
POINT
  5
3C4E
330
3C46
100
AcDbEntity
  8
Defpoints
 62
     0
100
AcDbPoint
 10
348.807864220684
 20
102.8723731152337
 30
0.0
  0
POINT
  5
3C4F
330
3C46
100
AcDbEntity
  8
Defpoints
 62
     0
100
AcDbPoint
 10
689.0863490533341
 20
102.8723731152347
 30
0.0
  0
POINT
  5
3C50
330
3C46
100
AcDbEntity
  8
Defpoints
 62
     0
100
AcDbPoint
 10
689.0863490533341
 20
5.000000000000057
 30
0.0
  0
ENDBLK
  5
3C51
330
3C46
100
AcDbEntity
  8
0
100
AcDbBlockEnd
  0
BLOCK
  5
3C54
330
3C53
100
AcDbEntity
  8
0
100
AcDbBlockBegin
  2
*D58
 70
     1
 10
0.0
 20
0.0
 30
0.0
  3
*D58
  1

  0
LINE
  5
3C55
330
3C53
100
AcDbEntity
  8
DIM
 62
     0
370
    -2
100
AcDbLine
 10
348.807864220684
 20
72.8723731152337
 30
0.0
 11
348.807864220684
 21
5.000000000000057
 31
0.0
  0
LINE
  5
3C56
330
3C53
100
AcDbEntity
  8
DIM
 62
     0
370
    -2
100
AcDbLine
 10
223.7929032925614
 20
72.94911433235154
 30
0.0
 11
223.7929032925614
 21
5.000000000000057
 31
0.0
  0
LINE
  5
3C57
330
3C53
100
AcDbEntity
  8
DIM
 62
     0
370
    -2
100
AcDbLine
 10
338.807864220684
 20
5.000000000000057
 30
0.0
 11
233.7929032925614
 21
5.000000000000057
 31
0.0
  0
INSERT
  5
3C58
330
3C53
100
AcDbEntity
  8
DIM
 62
     0
370
    -2
100
AcDbBlockReference
  2
_DOT
 10
348.807864220684
 20
5.000000000000057
 30
0.0
 41
10.0
 42
10.0
 43
10.0
  0
INSERT
  5
3C59
330
3C53
100
AcDbEntity
  8
DIM
 62
     0
370
    -2
100
AcDbBlockReference
  2
_DOT
 10
223.7929032925614
 20
5.000000000000057
 30
0.0
 41
10.0
 42
10.0
 43
10.0
 50
180.0
  0
MTEXT
  5
3C5A
330
3C53
100
AcDbEntity
  8
DIM
 62
     0
100
AcDbMText
 10
286.3003837566228
 20
37.0045016881331
 30
0.0
 40
24.0
 41
0.0
 46
0.0
 71
     5
 72
     1
  1
\A1;125
  7
ＭＳ ゴシック
 73
     1
 44
1.0
  0
POINT
  5
3C5B
330
3C53
100
AcDbEntity
  8
Defpoints
 62
     0
100
AcDbPoint
 10
348.807864220684
 20
102.8723731152337
 30
0.0
  0
POINT
  5
3C5C
330
3C53
100
AcDbEntity
  8
Defpoints
 62
     0
100
AcDbPoint
 10
223.7929032925614
 20
102.9491143323515
 30
0.0
  0
POINT
  5
3C5D
330
3C53
100
AcDbEntity
  8
Defpoints
 62
     0
100
AcDbPoint
 10
223.7929032925614
 20
5.000000000000057
 30
0.0
  0
ENDBLK
  5
3C5E
330
3C53
100
AcDbEntity
  8
0
100
AcDbBlockEnd
  0
BLOCK
  5
3C63
330
3C62
100
AcDbEntity
  8
0
100
AcDbBlockBegin
  2
*D59
 70
     1
 10
0.0
 20
0.0
 30
0.0
  3
*D59
  1

  0
LINE
  5
3C64
330
3C62
100
AcDbEntity
  8
DIM
 62
     0
370
    -2
100
AcDbLine
 10
260.794463378082
 20
352.8723731152338
 30
0.0
 11
139.5306115041917
 21
352.8723731152338
 31
0.0
  0
LINE
  5
3C65
330
3C62
100
AcDbEntity
  8
DIM
 62
     0
370
    -2
100
AcDbLine
 10
260.794463378082
 20
502.8723731152338
 30
0.0
 11
139.5306115041917
 21
502.8723731152338
 31
0.0
  0
LINE
  5
3C66
330
3C62
100
AcDbEntity
  8
DIM
 62
     0
370
    -2
100
AcDbLine
 10
139.5306115041917
 20
362.8723731152338
 30
0.0
 11
139.5306115041917
 21
492.8723731152338
 31
0.0
  0
INSERT
  5
3C67
330
3C62
100
AcDbEntity
  8
DIM
 62
     0
370
    -2
100
AcDbBlockReference
  2
_DOT
 10
139.5306115041917
 20
352.8723731152338
 30
0.0
 41
10.0
 42
10.0
 43
10.0
 50
270.0
  0
INSERT
  5
3C68
330
3C62
100
AcDbEntity
  8
DIM
 62
     0
370
    -2
100
AcDbBlockReference
  2
_DOT
 10
139.5306115041917
 20
502.8723731152338
 30
0.0
 41
10.0
 42
10.0
 43
10.0
 50
90.0
  0
MTEXT
  5
3C69
330
3C62
100
AcDbEntity
  8
DIM
 62
     0
100
AcDbMText
 10
107.5261098160586
 20
427.8723731152338
 30
0.0
 40
24.0
 41
0.0
 46
0.0
 71
     5
 72
     1
  1
\A1;150
  7
ＭＳ ゴシック
 11
0.0
 21
1.0
 31
0.0
 73
     1
 44
1.0
  0
POINT
  5
3C6A
330
3C62
100
AcDbEntity
  8
Defpoints
 62
     0
100
AcDbPoint
 10
290.794463378082
 20
352.8723731152338
 30
0.0
  0
POINT
  5
3C6B
330
3C62
100
AcDbEntity
  8
Defpoints
 62
     0
100
AcDbPoint
 10
290.794463378082
 20
502.8723731152338
 30
0.0
  0
POINT
  5
3C6C
330
3C62
100
AcDbEntity
  8
Defpoints
 62
     0
100
AcDbPoint
 10
139.5306115041917
 20
502.8723731152338
 30
0.0
  0
ENDBLK
  5
3C6D
330
3C62
100
AcDbEntity
  8
0
100
AcDbBlockEnd
  0
BLOCK
  5
3C72
330
3C71
100
AcDbEntity
  8
0
100
AcDbBlockBegin
  2
*D60
 70
     1
 10
0.0
 20
0.0
 30
0.0
  3
*D60
  1

  0
LINE
  5
3C73
330
3C71
100
AcDbEntity
  8
DIM
 62
     0
370
    -2
100
AcDbLine
 10
260.794463378082
 20
502.8723731152338
 30
0.0
 11
139.5306115041917
 21
502.8723731152338
 31
0.0
  0
LINE
  5
3C74
330
3C71
100
AcDbEntity
  8
DIM
 62
     0
370
    -2
100
AcDbLine
 10
260.794463378082
 20
602.872373115234
 30
0.0
 11
139.5306115041917
 21
602.872373115234
 31
0.0
  0
LINE
  5
3C75
330
3C71
100
AcDbEntity
  8
DIM
 62
     0
370
    -2
100
AcDbLine
 10
139.5306115041917
 20
512.8723731152338
 30
0.0
 11
139.5306115041917
 21
592.872373115234
 31
0.0
  0
INSERT
  5
3C76
330
3C71
100
AcDbEntity
  8
DIM
 62
     0
370
    -2
100
AcDbBlockReference
  2
_DOT
 10
139.5306115041917
 20
502.8723731152338
 30
0.0
 41
10.0
 42
10.0
 43
10.0
 50
270.0
  0
INSERT
  5
3C77
330
3C71
100
AcDbEntity
  8
DIM
 62
     0
370
    -2
100
AcDbBlockReference
  2
_DOT
 10
139.5306115041917
 20
602.872373115234
 30
0.0
 41
10.0
 42
10.0
 43
10.0
 50
90.0
  0
MTEXT
  5
3C78
330
3C71
100
AcDbEntity
  8
DIM
 62
     0
100
AcDbMText
 10
107.5261098160587
 20
552.8723731152339
 30
0.0
 40
24.0
 41
0.0
 46
0.0
 71
     5
 72
     1
  1
\A1;100
  7
ＭＳ ゴシック
 11
0.0
 21
1.0
 31
0.0
 73
     1
 44
1.0
  0
POINT
  5
3C79
330
3C71
100
AcDbEntity
  8
Defpoints
 62
     0
100
AcDbPoint
 10
290.794463378082
 20
502.8723731152338
 30
0.0
  0
POINT
  5
3C7A
330
3C71
100
AcDbEntity
  8
Defpoints
 62
     0
100
AcDbPoint
 10
290.794463378082
 20
602.872373115234
 30
0.0
  0
POINT
  5
3C7B
330
3C71
100
AcDbEntity
  8
Defpoints
 62
     0
100
AcDbPoint
 10
139.5306115041917
 20
602.872373115234
 30
0.0
  0
ENDBLK
  5
3C7C
330
3C71
100
AcDbEntity
  8
0
100
AcDbBlockEnd
  0
BLOCK
  5
3C81
330
3C80
100
AcDbEntity
  8
0
100
AcDbBlockBegin
  2
*D61
 70
     1
 10
0.0
 20
0.0
 30
0.0
  3
*D61
  1

  0
LINE
  5
3C82
330
3C80
100
AcDbEntity
  8
DIM
 62
     0
370
    -2
100
AcDbLine
 10
260.794463378082
 20
602.872373115234
 30
0.0
 11
139.5306115041917
 21
602.872373115234
 31
0.0
  0
LINE
  5
3C83
330
3C80
100
AcDbEntity
  8
DIM
 62
     0
370
    -2
100
AcDbLine
 10
260.794463378082
 20
702.872373115234
 30
0.0
 11
139.5306115041917
 21
702.872373115234
 31
0.0
  0
LINE
  5
3C84
330
3C80
100
AcDbEntity
  8
DIM
 62
     0
370
    -2
100
AcDbLine
 10
139.5306115041917
 20
612.872373115234
 30
0.0
 11
139.5306115041917
 21
692.872373115234
 31
0.0
  0
INSERT
  5
3C85
330
3C80
100
AcDbEntity
  8
DIM
 62
     0
370
    -2
100
AcDbBlockReference
  2
_DOT
 10
139.5306115041917
 20
602.872373115234
 30
0.0
 41
10.0
 42
10.0
 43
10.0
 50
270.0
  0
INSERT
  5
3C86
330
3C80
100
AcDbEntity
  8
DIM
 62
     0
370
    -2
100
AcDbBlockReference
  2
_DOT
 10
139.5306115041917
 20
702.872373115234
 30
0.0
 41
10.0
 42
10.0
 43
10.0
 50
90.0
  0
MTEXT
  5
3C87
330
3C80
100
AcDbEntity
  8
DIM
 62
     0
100
AcDbMText
 10
107.5261098160587
 20
652.872373115234
 30
0.0
 40
24.0
 41
0.0
 46
0.0
 71
     5
 72
     1
  1
\A1;100
  7
ＭＳ ゴシック
 11
0.0
 21
1.0
 31
0.0
 73
     1
 44
1.0
  0
POINT
  5
3C88
330
3C80
100
AcDbEntity
  8
Defpoints
 62
     0
100
AcDbPoint
 10
290.794463378082
 20
602.872373115234
 30
0.0
  0
POINT
  5
3C89
330
3C80
100
AcDbEntity
  8
Defpoints
 62
     0
100
AcDbPoint
 10
290.794463378082
 20
702.872373115234
 30
0.0
  0
POINT
  5
3C8A
330
3C80
100
AcDbEntity
  8
Defpoints
 62
     0
100
AcDbPoint
 10
139.5306115041917
 20
702.872373115234
 30
0.0
  0
ENDBLK
  5
3C8B
330
3C80
100
AcDbEntity
  8
0
100
AcDbBlockEnd
  0
BLOCK
  5
3C90
330
3C8F
100
AcDbEntity
  8
0
100
AcDbBlockBegin
  2
*D62
 70
     1
 10
0.0
 20
0.0
 30
0.0
  3
*D62
  1

  0
LINE
  5
3C91
330
3C8F
100
AcDbEntity
  8
DIM
 62
     0
370
    -2
100
AcDbLine
 10
260.794463378082
 20
702.872373115234
 30
0.0
 11
139.5306115041917
 21
702.872373115234
 31
0.0
  0
LINE
  5
3C92
330
3C8F
100
AcDbEntity
  8
DIM
 62
     0
370
    -2
100
AcDbLine
 10
260.794463378082
 20
852.872373115234
 30
0.0
 11
139.5306115041917
 21
852.872373115234
 31
0.0
  0
LINE
  5
3C93
330
3C8F
100
AcDbEntity
  8
DIM
 62
     0
370
    -2
100
AcDbLine
 10
139.5306115041917
 20
712.872373115234
 30
0.0
 11
139.5306115041917
 21
842.872373115234
 31
0.0
  0
INSERT
  5
3C94
330
3C8F
100
AcDbEntity
  8
DIM
 62
     0
370
    -2
100
AcDbBlockReference
  2
_DOT
 10
139.5306115041917
 20
702.872373115234
 30
0.0
 41
10.0
 42
10.0
 43
10.0
 50
270.0
  0
INSERT
  5
3C95
330
3C8F
100
AcDbEntity
  8
DIM
 62
     0
370
    -2
100
AcDbBlockReference
  2
_DOT
 10
139.5306115041917
 20
852.872373115234
 30
0.0
 41
10.0
 42
10.0
 43
10.0
 50
90.0
  0
MTEXT
  5
3C96
330
3C8F
100
AcDbEntity
  8
DIM
 62
     0
100
AcDbMText
 10
107.5261098160587
 20
777.872373115234
 30
0.0
 40
24.0
 41
0.0
 46
0.0
 71
     5
 72
     1
  1
\A1;150
  7
ＭＳ ゴシック
 11
0.0
 21
1.0
 31
0.0
 73
     1
 44
1.0
  0
POINT
  5
3C97
330
3C8F
100
AcDbEntity
  8
Defpoints
 62
     0
100
AcDbPoint
 10
290.794463378082
 20
702.872373115234
 30
0.0
  0
POINT
  5
3C98
330
3C8F
100
AcDbEntity
  8
Defpoints
 62
     0
100
AcDbPoint
 10
290.794463378082
 20
852.872373115234
 30
0.0
  0
POINT
  5
3C99
330
3C8F
100
AcDbEntity
  8
Defpoints
 62
     0
100
AcDbPoint
 10
139.5306115041917
 20
852.872373115234
 30
0.0
  0
ENDBLK
  5
3C9A
330
3C8F
100
AcDbEntity
  8
0
100
AcDbBlockEnd
  0
BLOCK
  5
3C9F
330
3C9E
100
AcDbEntity
  8
0
100
AcDbBlockBegin
  2
*D63
 70
     1
 10
0.0
 20
0.0
 30
0.0
  3
*D63
  1

  0
LINE
  5
3CA0
330
3C9E
100
AcDbEntity
  8
DIM
 62
     0
370
    -2
100
AcDbLine
 10
193.7929032925614
 20
102.9491143323515
 30
0.0
 11
44.01350506439928
 21
102.9491143323515
 31
0.0
  0
LINE
  5
3CA1
330
3C9E
100
AcDbEntity
  8
DIM
 62
     0
370
    -2
100
AcDbLine
 10
193.7929032925614
 20
1102.963980569486
 30
0.0
 11
44.01350506439934
 21
1102.963980569486
 31
0.0
  0
LINE
  5
3CA2
330
3C9E
100
AcDbEntity
  8
DIM
 62
     0
370
    -2
100
AcDbLine
 10
44.01350506439928
 20
112.9491143323515
 30
0.0
 11
44.01350506439934
 21
1092.963980569486
 31
0.0
  0
INSERT
  5
3CA3
330
3C9E
100
AcDbEntity
  8
DIM
 62
     0
370
    -2
100
AcDbBlockReference
  2
_DOT
 10
44.01350506439928
 20
102.9491143323515
 30
0.0
 41
10.0
 42
10.0
 43
10.0
 50
270.0
  0
INSERT
  5
3CA4
330
3C9E
100
AcDbEntity
  8
DIM
 62
     0
370
    -2
100
AcDbBlockReference
  2
_DOT
 10
44.01350506439934
 20
1102.963980569486
 30
0.0
 41
10.0
 42
10.0
 43
10.0
 50
90.0
  0
MTEXT
  5
3CA5
330
3C9E
100
AcDbEntity
  8
DIM
 62
     0
100
AcDbMText
 10
12.00900337626629
 20
602.9565474509188
 30
0.0
 40
24.0
 41
0.0
 46
0.0
 71
     5
 72
     1
  1
\A1;1000
  7
ＭＳ ゴシック
 11
6.394789555382947E-17
 21
1.0
 31
0.0
 73
     1
 44
1.0
  0
POINT
  5
3CA6
330
3C9E
100
AcDbEntity
  8
Defpoints
 62
     0
100
AcDbPoint
 10
223.7929032925614
 20
102.9491143323515
 30
0.0
  0
POINT
  5
3CA7
330
3C9E
100
AcDbEntity
  8
Defpoints
 62
     0
100
AcDbPoint
 10
223.7929032925614
 20
1102.963980569486
 30
0.0
  0
POINT
  5
3CA8
330
3C9E
100
AcDbEntity
  8
Defpoints
 62
     0
100
AcDbPoint
 10
44.01350506439934
 20
1102.963980569486
 30
0.0
  0
ENDBLK
  5
3CA9
330
3C9E
100
AcDbEntity
  8
0
100
AcDbBlockEnd
  0
BLOCK
  5
3D71
330
3D70
100
AcDbEntity
  8
0
100
AcDbBlockBegin
  2
*D64
 70
     1
 10
0.0
 20
0.0
 30
0.0
  3
*D64
  1

  0
LINE
  5
3D73
330
3D70
100
AcDbEntity
  8
DIM
 62
     0
370
    -2
100
AcDbLine
 10
1568.802738784773
 20
2069.907001906164
 30
0.0
 11
1568.802738784773
 21
2005.722751740968
 31
0.0
  0
LINE
  5
3D74
330
3D70
100
AcDbEntity
  8
DIM
 62
     0
370
    -2
100
AcDbLine
 10
1688.807141112658
 20
2073.573286122607
 30
0.0
 11
1688.807141112658
 21
2005.722751740968
 31
0.0
  0
LINE
  5
3D75
330
3D70
100
AcDbEntity
  8
DIM
 62
     0
370
    -2
100
AcDbLine
 10
1578.802738784773
 20
2005.722751740968
 30
0.0
 11
1678.807141112658
 21
2005.722751740968
 31
0.0
  0
INSERT
  5
3D76
330
3D70
100
AcDbEntity
  8
DIM
 62
     0
370
    -2
100
AcDbBlockReference
  2
_DOT
 10
1568.802738784773
 20
2005.722751740968
 30
0.0
 41
10.0
 42
10.0
 43
10.0
 50
180.0
  0
INSERT
  5
3D77
330
3D70
100
AcDbEntity
  8
DIM
 62
     0
370
    -2
100
AcDbBlockReference
  2
_DOT
 10
1688.807141112658
 20
2005.722751740968
 30
0.0
 41
10.0
 42
10.0
 43
10.0
  0
MTEXT
  5
3D78
330
3D70
100
AcDbEntity
  8
DIM
 62
     0
100
AcDbMText
 10
1628.804939948715
 20
2037.727253429101
 30
0.0
 40
24.0
 41
0.0
 46
0.0
 71
     5
 72
     1
  1
\A1;120
  7
ＭＳ ゴシック
 73
     1
 44
1.0
  0
POINT
  5
3D79
330
3D70
100
AcDbEntity
  8
Defpoints
 62
     0
100
AcDbPoint
 10
1568.802738784773
 20
2099.907001906164
 30
0.0
  0
POINT
  5
3D7A
330
3D70
100
AcDbEntity
  8
Defpoints
 62
     0
100
AcDbPoint
 10
1688.807141112658
 20
2103.573286122607
 30
0.0
  0
POINT
  5
3D7B
330
3D70
100
AcDbEntity
  8
Defpoints
 62
     0
100
AcDbPoint
 10
1688.807141112658
 20
2005.722751740968
 30
0.0
  0
ENDBLK
  5
3D72
330
3D70
100
AcDbEntity
  8
0
100
AcDbBlockEnd
  0
BLOCK
  5
3D7D
330
3D7C
100
AcDbEntity
  8
0
100
AcDbBlockBegin
  2
*D65
 70
     1
 10
0.0
 20
0.0
 30
0.0
  3
*D65
  1

  0
LINE
  5
3D7F
330
3D7C
100
AcDbEntity
  8
DIM
 62
     0
370
    -2
100
AcDbLine
 10
1542.350142196233
 20
2564.574970675936
 30
0.0
 11
1486.152599660473
 21
2564.574970675936
 31
0.0
  0
LINE
  5
3D80
330
3D7C
100
AcDbEntity
  8
DIM
 62
     0
370
    -2
100
AcDbLine
 10
1542.350142196233
 20
2499.552172519197
 30
0.0
 11
1486.152599660473
 21
2499.552172519197
 31
0.0
  0
LINE
  5
3D81
330
3D7C
100
AcDbEntity
  8
DIM
 62
     0
370
    -2
100
AcDbLine
 10
1486.152599660473
 20
2554.574970675936
 30
0.0
 11
1486.152599660473
 21
2509.552172519197
 31
0.0
  0
INSERT
  5
3D82
330
3D7C
100
AcDbEntity
  8
DIM
 62
     0
370
    -2
100
AcDbBlockReference
  2
_DOT
 10
1486.152599660473
 20
2564.574970675936
 30
0.0
 41
10.0
 42
10.0
 43
10.0
 50
90.0
  0
INSERT
  5
3D83
330
3D7C
100
AcDbEntity
  8
DIM
 62
     0
370
    -2
100
AcDbBlockReference
  2
_DOT
 10
1486.152599660473
 20
2499.552172519197
 30
0.0
 41
10.0
 42
10.0
 43
10.0
 50
270.0
  0
MTEXT
  5
3D84
330
3D7C
100
AcDbEntity
  8
DIM
 62
     0
100
AcDbMText
 10
1454.14809797234
 20
2532.063571597566
 30
0.0
 40
24.0
 41
0.0
 46
0.0
 71
     5
 72
     1
  1
\A1;65
  7
ＭＳ ゴシック
 11
0.0
 21
1.0
 31
0.0
 73
     1
 44
1.0
  0
POINT
  5
3D85
330
3D7C
100
AcDbEntity
  8
Defpoints
 62
     0
100
AcDbPoint
 10
1572.350142196233
 20
2564.574970675936
 30
0.0
  0
POINT
  5
3D86
330
3D7C
100
AcDbEntity
  8
Defpoints
 62
     0
100
AcDbPoint
 10
1572.350142196233
 20
2499.552172519197
 30
0.0
  0
POINT
  5
3D87
330
3D7C
100
AcDbEntity
  8
Defpoints
 62
     0
100
AcDbPoint
 10
1486.152599660473
 20
2499.552172519197
 30
0.0
  0
ENDBLK
  5
3D7E
330
3D7C
100
AcDbEntity
  8
0
100
AcDbBlockEnd
  0
BLOCK
  5
3D89
330
3D88
100
AcDbEntity
  8
0
100
AcDbBlockBegin
  2
*D66
 70
     1
 10
0.0
 20
0.0
 30
0.0
  3
*D66
  1

  0
LINE
  5
3D8B
330
3D88
100
AcDbEntity
  8
DIM
 62
     0
370
    -2
100
AcDbLine
 10
1569.110419826105
 20
2355.720371059626
 30
0.0
 11
1403.423912385815
 21
2355.720371059626
 31
0.0
  0
LINE
  5
3D8C
330
3D88
100
AcDbEntity
  8
DIM
 62
     0
370
    -2
100
AcDbLine
 10
1664.194964956334
 20
2355.720371059626
 30
0.0
 11
1579.110419826105
 21
2355.720371059626
 31
0.0
  0
LINE
  5
3D8D
330
3D88
100
AcDbEntity
  8
DIM
 62
     0
370
    -2
100
AcDbLine
 10
1579.110419826105
 20
2355.720371059626
 30
0.0
 11
1589.110419826105
 21
2355.720371059626
 31
0.0
  0
INSERT
  5
3D8E
330
3D88
100
AcDbEntity
  8
DIM
 62
     0
370
    -2
100
AcDbBlockReference
  2
_DOT
 10
1674.194964956334
 20
2355.720371059626
 30
0.0
 41
10.0
 42
10.0
 43
10.0
  0
INSERT
  5
3D8F
330
3D88
100
AcDbEntity
  8
DIM
 62
     0
370
    -2
100
AcDbBlockReference
  2
_DOT
 10
1569.110419826105
 20
2355.720371059626
 30
0.0
 41
10.0
 42
10.0
 43
10.0
 50
180.0
  0
MTEXT
  5
3D90
330
3D88
100
AcDbEntity
  8
DIM
 62
     0
100
AcDbMText
 10
1476.26716610596
 20
2389.424260017986
 30
0.0
 40
24.0
 41
0.0
 46
0.0
 71
     5
 72
     1
  1
\A1;深さ105
  7
ＭＳ ゴシック
 73
     1
 44
1.0
  0
POINT
  5
3D91
330
3D88
100
AcDbEntity
  8
Defpoints
 62
     0
100
AcDbPoint
 10
1674.194964956334
 20
2390.961828347895
 30
0.0
  0
POINT
  5
3D92
330
3D88
100
AcDbEntity
  8
Defpoints
 62
     0
100
AcDbPoint
 10
1569.110419826105
 20
2361.085623021959
 30
0.0
  0
POINT
  5
3D93
330
3D88
100
AcDbEntity
  8
Defpoints
 62
     0
100
AcDbPoint
 10
1569.110419826105
 20
2355.720371059626
 30
0.0
  0
ENDBLK
  5
3D8A
330
3D88
100
AcDbEntity
  8
0
100
AcDbBlockEnd
  0
BLOCK
  5
3D95
330
3D94
100
AcDbEntity
  8
0
100
AcDbBlockBegin
  2
*D67
 70
     1
 10
0.0
 20
0.0
 30
0.0
  3
*D67
  1

  0
LINE
  5
3D97
330
3D94
100
AcDbEntity
  8
DIM
 62
     0
370
    -2
100
AcDbLine
 10
1716.350063091835
 20
2564.440673258232
 30
0.0
 11
1834.713205034195
 21
2564.440673258232
 31
0.0
  0
LINE
  5
3D98
330
3D94
100
AcDbEntity
  8
DIM
 62
     0
370
    -2
100
AcDbLine
 10
1753.102647437623
 20
2354.397231218487
 30
0.0
 11
1834.713205034195
 21
2354.397231218487
 31
0.0
  0
LINE
  5
3D99
330
3D94
100
AcDbEntity
  8
DIM
 62
     0
370
    -2
100
AcDbLine
 10
1834.713205034195
 20
2554.440673258232
 30
0.0
 11
1834.713205034195
 21
2364.397231218487
 31
0.0
  0
INSERT
  5
3D9A
330
3D94
100
AcDbEntity
  8
DIM
 62
     0
370
    -2
100
AcDbBlockReference
  2
_DOT
 10
1834.713205034195
 20
2564.440673258232
 30
0.0
 41
10.0
 42
10.0
 43
10.0
 50
90.0
  0
INSERT
  5
3D9B
330
3D94
100
AcDbEntity
  8
DIM
 62
     0
370
    -2
100
AcDbBlockReference
  2
_DOT
 10
1834.713205034195
 20
2354.397231218487
 30
0.0
 41
10.0
 42
10.0
 43
10.0
 50
270.0
  0
MTEXT
  5
3D9C
330
3D94
100
AcDbEntity
  8
DIM
 62
     0
100
AcDbMText
 10
1802.708703346062
 20
2459.418952238359
 30
0.0
 40
24.0
 41
0.0
 46
0.0
 71
     5
 72
     1
  1
\A1;210
  7
ＭＳ ゴシック
 11
0.0
 21
1.0
 31
0.0
 73
     1
 44
1.0
  0
POINT
  5
3D9D
330
3D94
100
AcDbEntity
  8
Defpoints
 62
     0
100
AcDbPoint
 10
1686.350063091835
 20
2564.440673258232
 30
0.0
  0
POINT
  5
3D9E
330
3D94
100
AcDbEntity
  8
Defpoints
 62
     0
100
AcDbPoint
 10
1723.102647437623
 20
2354.397231218487
 30
0.0
  0
POINT
  5
3D9F
330
3D94
100
AcDbEntity
  8
Defpoints
 62
     0
100
AcDbPoint
 10
1834.713205034195
 20
2354.397231218487
 30
0.0
  0
ENDBLK
  5
3D96
330
3D94
100
AcDbEntity
  8
0
100
AcDbBlockEnd
  0
BLOCK
  5
3DA1
330
3DA0
100
AcDbEntity
  8
0
100
AcDbBlockBegin
  2
*D68
 70
     1
 10
0.0
 20
0.0
 30
0.0
  3
*D68
  1

  0
LINE
  5
3DA3
330
3DA0
100
AcDbEntity
  8
DIM
 62
     0
370
    -2
100
AcDbLine
 10
-1424.782134680821
 20
2643.116422668294
 30
0.0
 11
-1157.493917568979
 21
2643.116422668294
 31
0.0
  0
LINE
  5
3DA4
330
3DA0
100
AcDbEntity
  8
DIM
 62
     0
370
    -2
100
AcDbLine
 10
-1424.782134680827
 20
2013.116422668293
 30
0.0
 11
-1157.493917568979
 21
2013.116422668293
 31
0.0
  0
LINE
  5
3DA5
330
3DA0
100
AcDbEntity
  8
DIM
 62
     0
370
    -2
100
AcDbLine
 10
-1157.493917568979
 20
2633.116422668294
 30
0.0
 11
-1157.493917568979
 21
2023.116422668293
 31
0.0
  0
INSERT
  5
3DA6
330
3DA0
100
AcDbEntity
  8
DIM
 62
     0
370
    -2
100
AcDbBlockReference
  2
_DOT
 10
-1157.493917568979
 20
2643.116422668294
 30
0.0
 41
10.0
 42
10.0
 43
10.0
 50
90.0
  0
INSERT
  5
3DA7
330
3DA0
100
AcDbEntity
  8
DIM
 62
     0
370
    -2
100
AcDbBlockReference
  2
_DOT
 10
-1157.493917568979
 20
2013.116422668293
 30
0.0
 41
10.0
 42
10.0
 43
10.0
 50
270.0
  0
MTEXT
  5
3DA8
330
3DA0
100
AcDbEntity
  8
DIM
 62
     0
100
AcDbMText
 10
-1189.498419257112
 20
2328.116422668294
 30
0.0
 40
24.0
 41
0.0
 46
0.0
 71
     5
 72
     1
  1
\A1;630
  7
ＭＳ ゴシック
 11
0.0
 21
1.0
 31
0.0
 73
     1
 44
1.0
  0
POINT
  5
3DA9
330
3DA0
100
AcDbEntity
  8
Defpoints
 62
     0
100
AcDbPoint
 10
-1454.782134680821
 20
2643.116422668294
 30
0.0
  0
POINT
  5
3DAA
330
3DA0
100
AcDbEntity
  8
Defpoints
 62
     0
100
AcDbPoint
 10
-1454.782134680827
 20
2013.116422668293
 30
0.0
  0
POINT
  5
3DAB
330
3DA0
100
AcDbEntity
  8
Defpoints
 62
     0
100
AcDbPoint
 10
-1157.493917568979
 20
2013.116422668293
 30
0.0
  0
ENDBLK
  5
3DA2
330
3DA0
100
AcDbEntity
  8
0
100
AcDbBlockEnd
  0
BLOCK
  5
3DAD
330
3DAC
100
AcDbEntity
  8
0
100
AcDbBlockBegin
  2
*D69
 70
     1
 10
0.0
 20
0.0
 30
0.0
  3
*D69
  1

  0
LINE
  5
3DAF
330
3DAC
100
AcDbEntity
  8
DIM
 62
     0
370
    -2
100
AcDbLine
 10
743.2913627571679
 20
2493.116422668278
 30
0.0
 11
881.7535727953884
 21
2493.116422668278
 31
0.0
  0
LINE
  5
3DB0
330
3DAC
100
AcDbEntity
  8
DIM
 62
     0
370
    -2
100
AcDbLine
 10
743.2913627571697
 20
2163.116422668278
 30
0.0
 11
881.7535727953884
 21
2163.116422668278
 31
0.0
  0
LINE
  5
3DB1
330
3DAC
100
AcDbEntity
  8
DIM
 62
     0
370
    -2
100
AcDbLine
 10
881.7535727953884
 20
2483.116422668278
 30
0.0
 11
881.7535727953884
 21
2173.116422668278
 31
0.0
  0
INSERT
  5
3DB2
330
3DAC
100
AcDbEntity
  8
DIM
 62
     0
370
    -2
100
AcDbBlockReference
  2
_DOT
 10
881.7535727953884
 20
2493.116422668278
 30
0.0
 41
10.0
 42
10.0
 43
10.0
 50
90.0
  0
INSERT
  5
3DB3
330
3DAC
100
AcDbEntity
  8
DIM
 62
     0
370
    -2
100
AcDbBlockReference
  2
_DOT
 10
881.7535727953884
 20
2163.116422668278
 30
0.0
 41
10.0
 42
10.0
 43
10.0
 50
270.0
  0
MTEXT
  5
3DB4
330
3DAC
100
AcDbEntity
  8
DIM
 62
     0
100
AcDbMText
 10
849.7490711072553
 20
2328.116422668278
 30
0.0
 40
24.0
 41
0.0
 46
0.0
 71
     5
 72
     1
  1
\A1;330
  7
ＭＳ ゴシック
 11
0.0
 21
1.0
 31
0.0
 73
     1
 44
1.0
  0
POINT
  5
3DB5
330
3DAC
100
AcDbEntity
  8
Defpoints
 62
     0
100
AcDbPoint
 10
713.2913627571679
 20
2493.116422668278
 30
0.0
  0
POINT
  5
3DB6
330
3DAC
100
AcDbEntity
  8
Defpoints
 62
     0
100
AcDbPoint
 10
713.2913627571697
 20
2163.116422668278
 30
0.0
  0
POINT
  5
3DB7
330
3DAC
100
AcDbEntity
  8
Defpoints
 62
     0
100
AcDbPoint
 10
881.7535727953884
 20
2163.116422668278
 30
0.0
  0
ENDBLK
  5
3DAE
330
3DAC
100
AcDbEntity
  8
0
100
AcDbBlockEnd
  0
BLOCK
  5
3DB9
330
3DB8
100
AcDbEntity
  8
0
100
AcDbBlockBegin
  2
*D70
 70
     1
 10
0.0
 20
0.0
 30
0.0
  3
*D70
  1

  0
LINE
  5
3DBB
330
3DB8
100
AcDbEntity
  8
DIM
 62
     0
370
    -2
100
AcDbLine
 10
413.9960041949239
 20
2484.210795227994
 30
0.0
 11
413.9960041949239
 21
2578.652245960598
 31
0.0
  0
LINE
  5
3DBC
330
3DB8
100
AcDbEntity
  8
DIM
 62
     0
370
    -2
100
AcDbLine
 10
713.2913627571679
 20
2524.210795227977
 30
0.0
 11
713.2913627571679
 21
2578.652245960598
 31
0.0
  0
LINE
  5
3DBD
330
3DB8
100
AcDbEntity
  8
DIM
 62
     0
370
    -2
100
AcDbLine
 10
423.9960041949239
 20
2578.652245960598
 30
0.0
 11
703.2913627571679
 21
2578.652245960598
 31
0.0
  0
INSERT
  5
3DBE
330
3DB8
100
AcDbEntity
  8
DIM
 62
     0
370
    -2
100
AcDbBlockReference
  2
_DOT
 10
413.9960041949239
 20
2578.652245960598
 30
0.0
 41
10.0
 42
10.0
 43
10.0
 50
180.0
  0
INSERT
  5
3DBF
330
3DB8
100
AcDbEntity
  8
DIM
 62
     0
370
    -2
100
AcDbBlockReference
  2
_DOT
 10
713.2913627571679
 20
2578.652245960598
 30
0.0
 41
10.0
 42
10.0
 43
10.0
  0
MTEXT
  5
3DC0
330
3DB8
100
AcDbEntity
  8
DIM
 62
     0
100
AcDbMText
 10
563.6436834760459
 20
2610.656747648731
 30
0.0
 40
24.0
 41
0.0
 46
0.0
 71
     5
 72
     1
  1
\A1;300
  7
ＭＳ ゴシック
 73
     1
 44
1.0
  0
POINT
  5
3DC1
330
3DB8
100
AcDbEntity
  8
Defpoints
 62
     0
100
AcDbPoint
 10
413.9960041949239
 20
2454.210795227994
 30
0.0
  0
POINT
  5
3DC2
330
3DB8
100
AcDbEntity
  8
Defpoints
 62
     0
100
AcDbPoint
 10
713.2913627571679
 20
2494.210795227977
 30
0.0
  0
POINT
  5
3DC3
330
3DB8
100
AcDbEntity
  8
Defpoints
 62
     0
100
AcDbPoint
 10
713.2913627571679
 20
2578.652245960598
 30
0.0
  0
ENDBLK
  5
3DBA
330
3DB8
100
AcDbEntity
  8
0
100
AcDbBlockEnd
  0
BLOCK
  5
3DC5
330
3DC4
100
AcDbEntity
  8
0
100
AcDbBlockBegin
  2
*D71
 70
     1
 10
0.0
 20
0.0
 30
0.0
  3
*D71
  1

  0
LINE
  5
3DC7
330
3DC4
100
AcDbEntity
  8
DIM
 62
     0
370
    -2
100
AcDbLine
 10
1584.125122716281
 20
1289.747479261496
 30
0.0
 11
1483.710949659383
 21
1289.747479261496
 31
0.0
  0
LINE
  5
3DC8
330
3DC4
100
AcDbEntity
  8
DIM
 62
     0
370
    -2
100
AcDbLine
 10
1584.156202647237
 20
1009.523634441319
 30
0.0
 11
1483.710949659383
 21
1009.523634441319
 31
0.0
  0
LINE
  5
3DC9
330
3DC4
100
AcDbEntity
  8
DIM
 62
     0
370
    -2
100
AcDbLine
 10
1483.710949659383
 20
1279.747479261496
 30
0.0
 11
1483.710949659383
 21
1019.523634441319
 31
0.0
  0
INSERT
  5
3DCA
330
3DC4
100
AcDbEntity
  8
DIM
 62
     0
370
    -2
100
AcDbBlockReference
  2
_DOT
 10
1483.710949659383
 20
1289.747479261496
 30
0.0
 41
10.0
 42
10.0
 43
10.0
 50
90.0
  0
INSERT
  5
3DCB
330
3DC4
100
AcDbEntity
  8
DIM
 62
     0
370
    -2
100
AcDbBlockReference
  2
_DOT
 10
1483.710949659383
 20
1009.523634441319
 30
0.0
 41
10.0
 42
10.0
 43
10.0
 50
270.0
  0
MTEXT
  5
3DCC
330
3DC4
100
AcDbEntity
  8
DIM
 62
     0
100
AcDbMText
 10
1451.70644797125
 20
1149.635556851408
 30
0.0
 40
24.0
 41
0.0
 46
0.0
 71
     5
 72
     1
  1
\A1;280
  7
ＭＳ ゴシック
 11
0.0
 21
1.0
 31
0.0
 73
     1
 44
1.0
  0
POINT
  5
3DCD
330
3DC4
100
AcDbEntity
  8
Defpoints
 62
     0
100
AcDbPoint
 10
1614.125122716281
 20
1289.747479261496
 30
0.0
  0
POINT
  5
3DCE
330
3DC4
100
AcDbEntity
  8
Defpoints
 62
     0
100
AcDbPoint
 10
1614.156202647237
 20
1009.523634441319
 30
0.0
  0
POINT
  5
3DCF
330
3DC4
100
AcDbEntity
  8
Defpoints
 62
     0
100
AcDbPoint
 10
1483.710949659383
 20
1009.523634441319
 30
0.0
  0
ENDBLK
  5
3DC6
330
3DC4
100
AcDbEntity
  8
0
100
AcDbBlockEnd
  0
BLOCK
  5
3DD1
330
3DD0
100
AcDbEntity
  8
0
100
AcDbBlockBegin
  2
*D72
 70
     1
 10
0.0
 20
0.0
 30
0.0
  3
*D72
  1

  0
LINE
  5
3DD3
330
3DD0
100
AcDbEntity
  8
DIM
 62
     0
370
    -2
100
AcDbLine
 10
1584.156202647238
 20
869.5236344413194
 30
0.0
 11
1483.710949659383
 21
869.5236344413194
 31
0.0
  0
LINE
  5
3DD4
330
3DD0
100
AcDbEntity
  8
DIM
 62
     0
370
    -2
100
AcDbLine
 10
1584.156202647237
 20
1009.523634441319
 30
0.0
 11
1483.710949659383
 21
1009.523634441319
 31
0.0
  0
LINE
  5
3DD5
330
3DD0
100
AcDbEntity
  8
DIM
 62
     0
370
    -2
100
AcDbLine
 10
1483.710949659383
 20
879.5236344413194
 30
0.0
 11
1483.710949659383
 21
999.5236344413194
 31
0.0
  0
INSERT
  5
3DD6
330
3DD0
100
AcDbEntity
  8
DIM
 62
     0
370
    -2
100
AcDbBlockReference
  2
_DOT
 10
1483.710949659383
 20
869.5236344413194
 30
0.0
 41
10.0
 42
10.0
 43
10.0
 50
270.0
  0
INSERT
  5
3DD7
330
3DD0
100
AcDbEntity
  8
DIM
 62
     0
370
    -2
100
AcDbBlockReference
  2
_DOT
 10
1483.710949659383
 20
1009.523634441319
 30
0.0
 41
10.0
 42
10.0
 43
10.0
 50
90.0
  0
MTEXT
  5
3DD8
330
3DD0
100
AcDbEntity
  8
DIM
 62
     0
100
AcDbMText
 10
1451.70644797125
 20
939.5236344413194
 30
0.0
 40
24.0
 41
0.0
 46
0.0
 71
     5
 72
     1
  1
\A1;140
  7
ＭＳ ゴシック
 11
0.0
 21
1.0
 31
0.0
 73
     1
 44
1.0
  0
POINT
  5
3DD9
330
3DD0
100
AcDbEntity
  8
Defpoints
 62
     0
100
AcDbPoint
 10
1614.156202647238
 20
869.5236344413194
 30
0.0
  0
POINT
  5
3DDA
330
3DD0
100
AcDbEntity
  8
Defpoints
 62
     0
100
AcDbPoint
 10
1614.156202647237
 20
1009.523634441319
 30
0.0
  0
POINT
  5
3DDB
330
3DD0
100
AcDbEntity
  8
Defpoints
 62
     0
100
AcDbPoint
 10
1483.710949659383
 20
1009.523634441319
 30
0.0
  0
ENDBLK
  5
3DD2
330
3DD0
100
AcDbEntity
  8
0
100
AcDbBlockEnd
  0
BLOCK
  5
3DDD
330
3DDC
100
AcDbEntity
  8
0
100
AcDbBlockBegin
  2
*D73
 70
     1
 10
0.0
 20
0.0
 30
0.0
  3
*D73
  1

  0
LINE
  5
3DDF
330
3DDC
100
AcDbEntity
  8
DIM
 62
     0
370
    -2
100
AcDbLine
 10
1584.156202647237
 20
1289.971324081673
 30
0.0
 11
1483.710949659383
 21
1289.971324081673
 31
0.0
  0
LINE
  5
3DE0
330
3DDC
100
AcDbEntity
  8
DIM
 62
     0
370
    -2
100
AcDbLine
 10
1584.156202647238
 20
1429.971324081673
 30
0.0
 11
1483.710949659383
 21
1429.971324081673
 31
0.0
  0
LINE
  5
3DE1
330
3DDC
100
AcDbEntity
  8
DIM
 62
     0
370
    -2
100
AcDbLine
 10
1483.710949659383
 20
1299.971324081673
 30
0.0
 11
1483.710949659383
 21
1419.971324081673
 31
0.0
  0
INSERT
  5
3DE2
330
3DDC
100
AcDbEntity
  8
DIM
 62
     0
370
    -2
100
AcDbBlockReference
  2
_DOT
 10
1483.710949659383
 20
1289.971324081673
 30
0.0
 41
10.0
 42
10.0
 43
10.0
 50
270.0
  0
INSERT
  5
3DE3
330
3DDC
100
AcDbEntity
  8
DIM
 62
     0
370
    -2
100
AcDbBlockReference
  2
_DOT
 10
1483.710949659383
 20
1429.971324081673
 30
0.0
 41
10.0
 42
10.0
 43
10.0
 50
90.0
  0
MTEXT
  5
3DE4
330
3DDC
100
AcDbEntity
  8
DIM
 62
     0
100
AcDbMText
 10
1451.70644797125
 20
1359.971324081673
 30
0.0
 40
24.0
 41
0.0
 46
0.0
 71
     5
 72
     1
  1
\A1;140
  7
ＭＳ ゴシック
 11
0.0
 21
1.0
 31
0.0
 73
     1
 44
1.0
  0
POINT
  5
3DE5
330
3DDC
100
AcDbEntity
  8
Defpoints
 62
     0
100
AcDbPoint
 10
1614.156202647237
 20
1289.971324081673
 30
0.0
  0
POINT
  5
3DE6
330
3DDC
100
AcDbEntity
  8
Defpoints
 62
     0
100
AcDbPoint
 10
1614.156202647238
 20
1429.971324081673
 30
0.0
  0
POINT
  5
3DE7
330
3DDC
100
AcDbEntity
  8
Defpoints
 62
     0
100
AcDbPoint
 10
1483.710949659383
 20
1429.971324081673
 30
0.0
  0
ENDBLK
  5
3DDE
330
3DDC
100
AcDbEntity
  8
0
100
AcDbBlockEnd
  0
BLOCK
  5
3DE9
330
3DE8
100
AcDbEntity
  8
0
100
AcDbBlockBegin
  2
*D74
 70
     1
 10
0.0
 20
0.0
 30
0.0
  3
*D74
  1

  0
LINE
  5
3DEB
330
3DE8
100
AcDbEntity
  8
DIM
 62
     0
370
    -2
100
AcDbLine
 10
-567.4608697677378
 20
742.6536223239389
 30
0.0
 11
-304.79798384061
 21
742.6536223239389
 31
0.0
  0
LINE
  5
3DEC
330
3DE8
100
AcDbEntity
  8
DIM
 62
     0
370
    -2
100
AcDbLine
 10
-417.68690749347
 20
1149.747479261497
 30
0.0
 11
-304.79798384061
 21
1149.747479261497
 31
0.0
  0
LINE
  5
3DED
330
3DE8
100
AcDbEntity
  8
DIM
 62
     0
370
    -2
100
AcDbLine
 10
-304.79798384061
 20
752.6536223239389
 30
0.0
 11
-304.79798384061
 21
1139.747479261497
 31
0.0
  0
INSERT
  5
3DEE
330
3DE8
100
AcDbEntity
  8
DIM
 62
     0
370
    -2
100
AcDbBlockReference
  2
_DOT
 10
-304.79798384061
 20
742.6536223239389
 30
0.0
 41
10.0
 42
10.0
 43
10.0
 50
270.0
  0
INSERT
  5
3DEF
330
3DE8
100
AcDbEntity
  8
DIM
 62
     0
370
    -2
100
AcDbBlockReference
  2
_DOT
 10
-304.79798384061
 20
1149.747479261497
 30
0.0
 41
10.0
 42
10.0
 43
10.0
 50
90.0
  0
MTEXT
  5
3DF0
330
3DE8
100
AcDbEntity
  8
DIM
 62
     0
100
AcDbMText
 10
-336.802485528743
 20
946.2005507927178
 30
0.0
 40
24.0
 41
0.0
 46
0.0
 71
     5
 72
     1
  1
\A1;407
  7
ＭＳ ゴシック
 11
0.0
 21
1.0
 31
0.0
 73
     1
 44
1.0
  0
POINT
  5
3DF1
330
3DE8
100
AcDbEntity
  8
Defpoints
 62
     0
100
AcDbPoint
 10
-597.4608697677378
 20
742.6536223239389
 30
0.0
  0
POINT
  5
3DF2
330
3DE8
100
AcDbEntity
  8
Defpoints
 62
     0
100
AcDbPoint
 10
-447.68690749347
 20
1149.747479261497
 30
0.0
  0
POINT
  5
3DF3
330
3DE8
100
AcDbEntity
  8
Defpoints
 62
     0
100
AcDbPoint
 10
-304.79798384061
 20
1149.747479261497
 30
0.0
  0
ENDBLK
  5
3DEA
330
3DE8
100
AcDbEntity
  8
0
100
AcDbBlockEnd
  0
BLOCK
  5
3DF5
330
3DF4
100
AcDbEntity
  8
0
100
AcDbBlockBegin
  2
*D75
 70
     1
 10
0.0
 20
0.0
 30
0.0
  3
*D75
  1

  0
LINE
  5
3DF7
330
3DF4
100
AcDbEntity
  8
DIM
 62
     0
370
    -2
100
AcDbLine
 10
-554.4761211050728
 20
712.967888238726
 30
0.0
 11
-554.4761211050728
 21
664.3728067114274
 31
0.0
  0
LINE
  5
3DF8
330
3DF4
100
AcDbEntity
  8
DIM
 62
     0
370
    -2
100
AcDbLine
 10
-598.9097901694495
 20
714.7648418558683
 30
0.0
 11
-598.9097901694495
 21
664.3728067114274
 31
0.0
  0
LINE
  5
3DF9
330
3DF4
100
AcDbEntity
  8
DIM
 62
     0
370
    -2
100
AcDbLine
 10
-564.4761211050728
 20
664.3728067114274
 30
0.0
 11
-588.9097901694495
 21
664.3728067114274
 31
0.0
  0
INSERT
  5
3DFA
330
3DF4
100
AcDbEntity
  8
DIM
 62
     0
370
    -2
100
AcDbBlockReference
  2
_DOT
 10
-554.4761211050728
 20
664.3728067114274
 30
0.0
 41
10.0
 42
10.0
 43
10.0
  0
INSERT
  5
3DFB
330
3DF4
100
AcDbEntity
  8
DIM
 62
     0
370
    -2
100
AcDbBlockReference
  2
_DOT
 10
-598.9097901694495
 20
664.3728067114274
 30
0.0
 41
10.0
 42
10.0
 43
10.0
 50
180.0
  0
MTEXT
  5
3DFC
330
3DF4
100
AcDbEntity
  8
DIM
 62
     0
100
AcDbMText
 10
-576.6929556372611
 20
696.3728067114274
 30
0.0
 40
24.0
 41
0.0
 46
0.0
 71
     5
 72
     1
  1
\A1;44
  7
ＭＳ ゴシック
 73
     1
 44
1.0
  0
POINT
  5
3DFD
330
3DF4
100
AcDbEntity
  8
Defpoints
 62
     0
100
AcDbPoint
 10
-554.4761211050728
 20
742.967888238726
 30
0.0
  0
POINT
  5
3DFE
330
3DF4
100
AcDbEntity
  8
Defpoints
 62
     0
100
AcDbPoint
 10
-598.9097901694495
 20
744.7648418558683
 30
0.0
  0
POINT
  5
3DFF
330
3DF4
100
AcDbEntity
  8
Defpoints
 62
     0
100
AcDbPoint
 10
-598.9097901694495
 20
664.3728067114274
 30
0.0
  0
ENDBLK
  5
3DF6
330
3DF4
100
AcDbEntity
  8
0
100
AcDbBlockEnd
  0
BLOCK
  5
3E01
330
3E00
100
AcDbEntity
  8
0
100
AcDbBlockBegin
  2
*D76
 70
     1
 10
0.0
 20
0.0
 30
0.0
  3
*D76
  1

  0
LINE
  5
3E03
330
3E00
100
AcDbEntity
  8
DIM
 62
     0
370
    -2
100
AcDbLine
 10
1569.261151945827
 20
1577.708041943384
 30
0.0
 11
1569.261151945827
 21
1671.159775909274
 31
0.0
  0
LINE
  5
3E04
330
3E00
100
AcDbEntity
  8
DIM
 62
     0
370
    -2
100
AcDbLine
 10
1723.12512271628
 20
1215.352198278682
 30
0.0
 11
1723.12512271628
 21
1671.159775909274
 31
0.0
  0
LINE
  5
3E05
330
3E00
100
AcDbEntity
  8
DIM
 62
     0
370
    -2
100
AcDbLine
 10
1579.261151945827
 20
1671.159775909274
 30
0.0
 11
1713.12512271628
 21
1671.159775909274
 31
0.0
  0
INSERT
  5
3E06
330
3E00
100
AcDbEntity
  8
DIM
 62
     0
370
    -2
100
AcDbBlockReference
  2
_DOT
 10
1569.261151945827
 20
1671.159775909274
 30
0.0
 41
10.0
 42
10.0
 43
10.0
 50
180.0
  0
INSERT
  5
3E07
330
3E00
100
AcDbEntity
  8
DIM
 62
     0
370
    -2
100
AcDbBlockReference
  2
_DOT
 10
1723.12512271628
 20
1671.159775909274
 30
0.0
 41
10.0
 42
10.0
 43
10.0
  0
MTEXT
  5
3E08
330
3E00
100
AcDbEntity
  8
DIM
 62
     0
100
AcDbMText
 10
1646.193137331054
 20
1703.164277597407
 30
0.0
 40
24.0
 41
0.0
 46
0.0
 71
     5
 72
     1
  1
\A1;154
  7
ＭＳ ゴシック
 73
     1
 44
1.0
  0
POINT
  5
3E09
330
3E00
100
AcDbEntity
  8
Defpoints
 62
     0
100
AcDbPoint
 10
1569.261151945827
 20
1547.708041943384
 30
0.0
  0
POINT
  5
3E0A
330
3E00
100
AcDbEntity
  8
Defpoints
 62
     0
100
AcDbPoint
 10
1723.12512271628
 20
1185.352198278682
 30
0.0
  0
POINT
  5
3E0B
330
3E00
100
AcDbEntity
  8
Defpoints
 62
     0
100
AcDbPoint
 10
1723.12512271628
 20
1671.159775909274
 30
0.0
  0
ENDBLK
  5
3E02
330
3E00
100
AcDbEntity
  8
0
100
AcDbBlockEnd
  0
BLOCK
  5
3E0D
330
3E0C
100
AcDbEntity
  8
0
100
AcDbBlockBegin
  2
*D77
 70
     1
 10
0.0
 20
0.0
 30
0.0
  3
*D77
  1

  0
LINE
  5
3E0F
330
3E0C
100
AcDbEntity
  8
DIM
 62
     0
370
    -2
100
AcDbLine
 10
413.9960041949212
 20
1576.798756049601
 30
0.0
 11
413.9960041949212
 21
1671.159775909274
 31
0.0
  0
LINE
  5
3E10
330
3E0C
100
AcDbEntity
  8
DIM
 62
     0
370
    -2
100
AcDbLine
 10
883.8621633107082
 20
1575.798299135061
 30
0.0
 11
883.8621633107082
 21
1671.159775909274
 31
0.0
  0
LINE
  5
3E11
330
3E0C
100
AcDbEntity
  8
DIM
 62
     0
370
    -2
100
AcDbLine
 10
423.9960041949212
 20
1671.159775909274
 30
0.0
 11
873.8621633107082
 21
1671.159775909274
 31
0.0
  0
INSERT
  5
3E12
330
3E0C
100
AcDbEntity
  8
DIM
 62
     0
370
    -2
100
AcDbBlockReference
  2
_DOT
 10
413.9960041949212
 20
1671.159775909274
 30
0.0
 41
10.0
 42
10.0
 43
10.0
 50
180.0
  0
INSERT
  5
3E13
330
3E0C
100
AcDbEntity
  8
DIM
 62
     0
370
    -2
100
AcDbBlockReference
  2
_DOT
 10
883.8621633107082
 20
1671.159775909274
 30
0.0
 41
10.0
 42
10.0
 43
10.0
  0
MTEXT
  5
3E14
330
3E0C
100
AcDbEntity
  8
DIM
 62
     0
100
AcDbMText
 10
648.9290837528151
 20
1703.164277597407
 30
0.0
 40
24.0
 41
0.0
 46
0.0
 71
     5
 72
     1
  1
\A1;470
  7
ＭＳ ゴシック
 73
     1
 44
1.0
  0
POINT
  5
3E15
330
3E0C
100
AcDbEntity
  8
Defpoints
 62
     0
100
AcDbPoint
 10
413.9960041949212
 20
1546.798756049601
 30
0.0
  0
POINT
  5
3E16
330
3E0C
100
AcDbEntity
  8
Defpoints
 62
     0
100
AcDbPoint
 10
883.8621633107082
 20
1545.798299135061
 30
0.0
  0
POINT
  5
3E17
330
3E0C
100
AcDbEntity
  8
Defpoints
 62
     0
100
AcDbPoint
 10
883.8621633107082
 20
1671.159775909274
 30
0.0
  0
ENDBLK
  5
3E0E
330
3E0C
100
AcDbEntity
  8
0
100
AcDbBlockEnd
  0
BLOCK
  5
3E19
330
3E18
100
AcDbEntity
  8
0
100
AcDbBlockBegin
  2
*D78
 70
     1
 10
0.0
 20
0.0
 30
0.0
  3
*D78
  1

  0
LINE
  5
3E1B
330
3E18
100
AcDbEntity
  8
DIM
 62
     0
370
    -2
100
AcDbLine
 10
-1254.311023909052
 20
652.9108419802956
 30
0.0
 11
-1139.784869815321
 21
652.9108419802956
 31
0.0
  0
LINE
  5
3E1C
330
3E18
100
AcDbEntity
  8
DIM
 62
     0
370
    -2
100
AcDbLine
 10
-1254.211334127285
 20
1646.798756049601
 30
0.0
 11
-1139.784869815321
 21
1646.798756049601
 31
0.0
  0
LINE
  5
3E1D
330
3E18
100
AcDbEntity
  8
DIM
 62
     0
370
    -2
100
AcDbLine
 10
-1139.784869815321
 20
662.9108419802956
 30
0.0
 11
-1139.784869815321
 21
1636.798756049601
 31
0.0
  0
INSERT
  5
3E1E
330
3E18
100
AcDbEntity
  8
DIM
 62
     0
370
    -2
100
AcDbBlockReference
  2
_DOT
 10
-1139.784869815321
 20
652.9108419802956
 30
0.0
 41
10.0
 42
10.0
 43
10.0
 50
270.0
  0
INSERT
  5
3E1F
330
3E18
100
AcDbEntity
  8
DIM
 62
     0
370
    -2
100
AcDbBlockReference
  2
_DOT
 10
-1139.784869815321
 20
1646.798756049601
 30
0.0
 41
10.0
 42
10.0
 43
10.0
 50
90.0
  0
MTEXT
  5
3E20
330
3E18
100
AcDbEntity
  8
DIM
 62
     0
100
AcDbMText
 10
-1171.784869815321
 20
1149.854799014948
 30
0.0
 40
24.0
 41
0.0
 46
0.0
 71
     5
 72
     1
  1
\A1;994
  7
ＭＳ ゴシック
 11
0.0
 21
1.0
 31
0.0
 73
     1
 44
1.0
  0
POINT
  5
3E21
330
3E18
100
AcDbEntity
  8
Defpoints
 62
     0
100
AcDbPoint
 10
-1284.311023909052
 20
652.9108419802956
 30
0.0
  0
POINT
  5
3E22
330
3E18
100
AcDbEntity
  8
Defpoints
 62
     0
100
AcDbPoint
 10
-1284.211334127285
 20
1646.798756049601
 30
0.0
  0
POINT
  5
3E23
330
3E18
100
AcDbEntity
  8
Defpoints
 62
     0
100
AcDbPoint
 10
-1139.784869815321
 20
1646.798756049601
 30
0.0
  0
ENDBLK
  5
3E1A
330
3E18
100
AcDbEntity
  8
0
100
AcDbBlockEnd
  0
BLOCK
  5
3E25
330
3E24
100
AcDbEntity
  8
0
100
AcDbBlockBegin
  2
*D79
 70
     1
 10
0.0
 20
0.0
 30
0.0
  3
*D79
  1

  0
LINE
  5
3E27
330
3E24
100
AcDbEntity
  8
DIM
 62
     0
370
    -2
100
AcDbLine
 10
539.0109651230437
 20
722.7211010034055
 30
0.0
 11
539.0109651230437
 21
654.8487278881718
 31
0.0
  0
LINE
  5
3E28
330
3E24
100
AcDbEntity
  8
DIM
 62
     0
370
    -2
100
AcDbLine
 10
879.2894499556937
 20
722.7211010034065
 30
0.0
 11
879.2894499556937
 21
654.8487278881718
 31
0.0
  0
LINE
  5
3E29
330
3E24
100
AcDbEntity
  8
DIM
 62
     0
370
    -2
100
AcDbLine
 10
549.0109651230437
 20
654.8487278881718
 30
0.0
 11
869.2894499556937
 21
654.8487278881718
 31
0.0
  0
INSERT
  5
3E2A
330
3E24
100
AcDbEntity
  8
DIM
 62
     0
370
    -2
100
AcDbBlockReference
  2
_DOT
 10
539.0109651230437
 20
654.8487278881718
 30
0.0
 41
10.0
 42
10.0
 43
10.0
 50
180.0
  0
INSERT
  5
3E2B
330
3E24
100
AcDbEntity
  8
DIM
 62
     0
370
    -2
100
AcDbBlockReference
  2
_DOT
 10
879.2894499556937
 20
654.8487278881718
 30
0.0
 41
10.0
 42
10.0
 43
10.0
  0
MTEXT
  5
3E2C
330
3E24
100
AcDbEntity
  8
DIM
 62
     0
100
AcDbMText
 10
709.1502075393687
 20
686.8532295763048
 30
0.0
 40
24.0
 41
0.0
 46
0.0
 71
     5
 72
     1
  1
\A1;340
  7
ＭＳ ゴシック
 73
     1
 44
1.0
  0
POINT
  5
3E2D
330
3E24
100
AcDbEntity
  8
Defpoints
 62
     0
100
AcDbPoint
 10
539.0109651230437
 20
752.7211010034055
 30
0.0
  0
POINT
  5
3E2E
330
3E24
100
AcDbEntity
  8
Defpoints
 62
     0
100
AcDbPoint
 10
879.2894499556937
 20
752.7211010034065
 30
0.0
  0
POINT
  5
3E2F
330
3E24
100
AcDbEntity
  8
Defpoints
 62
     0
100
AcDbPoint
 10
879.2894499556937
 20
654.8487278881718
 30
0.0
  0
ENDBLK
  5
3E26
330
3E24
100
AcDbEntity
  8
0
100
AcDbBlockEnd
  0
BLOCK
  5
3E31
330
3E30
100
AcDbEntity
  8
0
100
AcDbBlockBegin
  2
*D80
 70
     1
 10
0.0
 20
0.0
 30
0.0
  3
*D80
  1

  0
LINE
  5
3E33
330
3E30
100
AcDbEntity
  8
DIM
 62
     0
370
    -2
100
AcDbLine
 10
539.0109651230437
 20
722.7211010034055
 30
0.0
 11
539.0109651230437
 21
654.8487278881718
 31
0.0
  0
LINE
  5
3E34
330
3E30
100
AcDbEntity
  8
DIM
 62
     0
370
    -2
100
AcDbLine
 10
413.9960041949212
 20
722.7978422205233
 30
0.0
 11
413.9960041949212
 21
654.8487278881718
 31
0.0
  0
LINE
  5
3E35
330
3E30
100
AcDbEntity
  8
DIM
 62
     0
370
    -2
100
AcDbLine
 10
529.0109651230437
 20
654.8487278881718
 30
0.0
 11
423.9960041949212
 21
654.8487278881718
 31
0.0
  0
INSERT
  5
3E36
330
3E30
100
AcDbEntity
  8
DIM
 62
     0
370
    -2
100
AcDbBlockReference
  2
_DOT
 10
539.0109651230437
 20
654.8487278881718
 30
0.0
 41
10.0
 42
10.0
 43
10.0
  0
INSERT
  5
3E37
330
3E30
100
AcDbEntity
  8
DIM
 62
     0
370
    -2
100
AcDbBlockReference
  2
_DOT
 10
413.9960041949212
 20
654.8487278881718
 30
0.0
 41
10.0
 42
10.0
 43
10.0
 50
180.0
  0
MTEXT
  5
3E38
330
3E30
100
AcDbEntity
  8
DIM
 62
     0
100
AcDbMText
 10
476.5034846589824
 20
686.8532295763048
 30
0.0
 40
24.0
 41
0.0
 46
0.0
 71
     5
 72
     1
  1
\A1;125
  7
ＭＳ ゴシック
 73
     1
 44
1.0
  0
POINT
  5
3E39
330
3E30
100
AcDbEntity
  8
Defpoints
 62
     0
100
AcDbPoint
 10
539.0109651230437
 20
752.7211010034055
 30
0.0
  0
POINT
  5
3E3A
330
3E30
100
AcDbEntity
  8
Defpoints
 62
     0
100
AcDbPoint
 10
413.9960041949212
 20
752.7978422205233
 30
0.0
  0
POINT
  5
3E3B
330
3E30
100
AcDbEntity
  8
Defpoints
 62
     0
100
AcDbPoint
 10
413.9960041949212
 20
654.8487278881718
 30
0.0
  0
ENDBLK
  5
3E32
330
3E30
100
AcDbEntity
  8
0
100
AcDbBlockEnd
  0
BLOCK
  5
3E3D
330
3E3C
100
AcDbEntity
  8
0
100
AcDbBlockBegin
  2
*D81
 70
     1
 10
0.0
 20
0.0
 30
0.0
  3
*D81
  1

  0
LINE
  5
3E3F
330
3E3C
100
AcDbEntity
  8
DIM
 62
     0
370
    -2
100
AcDbLine
 10
-1717.075933157544
 20
899.7982991350625
 30
0.0
 11
-1838.339785031434
 21
899.7982991350625
 31
0.0
  0
LINE
  5
3E40
330
3E3C
100
AcDbEntity
  8
DIM
 62
     0
370
    -2
100
AcDbLine
 10
-1717.075933157544
 20
1049.798299135063
 30
0.0
 11
-1838.339785031434
 21
1049.798299135063
 31
0.0
  0
LINE
  5
3E41
330
3E3C
100
AcDbEntity
  8
DIM
 62
     0
370
    -2
100
AcDbLine
 10
-1838.339785031434
 20
909.7982991350625
 30
0.0
 11
-1838.339785031434
 21
1039.798299135063
 31
0.0
  0
INSERT
  5
3E42
330
3E3C
100
AcDbEntity
  8
DIM
 62
     0
370
    -2
100
AcDbBlockReference
  2
_DOT
 10
-1838.339785031434
 20
899.7982991350625
 30
0.0
 41
10.0
 42
10.0
 43
10.0
 50
270.0
  0
INSERT
  5
3E43
330
3E3C
100
AcDbEntity
  8
DIM
 62
     0
370
    -2
100
AcDbBlockReference
  2
_DOT
 10
-1838.339785031434
 20
1049.798299135063
 30
0.0
 41
10.0
 42
10.0
 43
10.0
 50
90.0
  0
MTEXT
  5
3E44
330
3E3C
100
AcDbEntity
  8
DIM
 62
     0
100
AcDbMText
 10
-1870.344286719567
 20
974.7982991350625
 30
0.0
 40
24.0
 41
0.0
 46
0.0
 71
     5
 72
     1
  1
\A1;150
  7
ＭＳ ゴシック
 11
0.0
 21
1.0
 31
0.0
 73
     1
 44
1.0
  0
POINT
  5
3E45
330
3E3C
100
AcDbEntity
  8
Defpoints
 62
     0
100
AcDbPoint
 10
-1687.075933157544
 20
899.7982991350625
 30
0.0
  0
POINT
  5
3E46
330
3E3C
100
AcDbEntity
  8
Defpoints
 62
     0
100
AcDbPoint
 10
-1687.075933157544
 20
1049.798299135063
 30
0.0
  0
POINT
  5
3E47
330
3E3C
100
AcDbEntity
  8
Defpoints
 62
     0
100
AcDbPoint
 10
-1838.339785031434
 20
1049.798299135063
 30
0.0
  0
ENDBLK
  5
3E3E
330
3E3C
100
AcDbEntity
  8
0
100
AcDbBlockEnd
  0
BLOCK
  5
3E49
330
3E48
100
AcDbEntity
  8
0
100
AcDbBlockBegin
  2
*D82
 70
     1
 10
0.0
 20
0.0
 30
0.0
  3
*D82
  1

  0
LINE
  5
3E4B
330
3E48
100
AcDbEntity
  8
DIM
 62
     0
370
    -2
100
AcDbLine
 10
450.9975642804491
 20
1049.798299135062
 30
0.0
 11
329.7337124065589
 21
1049.798299135062
 31
0.0
  0
LINE
  5
3E4C
330
3E48
100
AcDbEntity
  8
DIM
 62
     0
370
    -2
100
AcDbLine
 10
450.9975642804491
 20
1149.798299135062
 30
0.0
 11
329.7337124065589
 21
1149.798299135062
 31
0.0
  0
LINE
  5
3E4D
330
3E48
100
AcDbEntity
  8
DIM
 62
     0
370
    -2
100
AcDbLine
 10
329.7337124065589
 20
1059.798299135062
 30
0.0
 11
329.7337124065589
 21
1139.798299135062
 31
0.0
  0
INSERT
  5
3E4E
330
3E48
100
AcDbEntity
  8
DIM
 62
     0
370
    -2
100
AcDbBlockReference
  2
_DOT
 10
329.7337124065589
 20
1049.798299135062
 30
0.0
 41
10.0
 42
10.0
 43
10.0
 50
270.0
  0
INSERT
  5
3E4F
330
3E48
100
AcDbEntity
  8
DIM
 62
     0
370
    -2
100
AcDbBlockReference
  2
_DOT
 10
329.7337124065589
 20
1149.798299135062
 30
0.0
 41
10.0
 42
10.0
 43
10.0
 50
90.0
  0
MTEXT
  5
3E50
330
3E48
100
AcDbEntity
  8
DIM
 62
     0
100
AcDbMText
 10
297.7292107184257
 20
1099.798299135062
 30
0.0
 40
24.0
 41
0.0
 46
0.0
 71
     5
 72
     1
  1
\A1;100
  7
ＭＳ ゴシック
 11
0.0
 21
1.0
 31
0.0
 73
     1
 44
1.0
  0
POINT
  5
3E51
330
3E48
100
AcDbEntity
  8
Defpoints
 62
     0
100
AcDbPoint
 10
480.9975642804491
 20
1049.798299135062
 30
0.0
  0
POINT
  5
3E52
330
3E48
100
AcDbEntity
  8
Defpoints
 62
     0
100
AcDbPoint
 10
480.9975642804491
 20
1149.798299135062
 30
0.0
  0
POINT
  5
3E53
330
3E48
100
AcDbEntity
  8
Defpoints
 62
     0
100
AcDbPoint
 10
329.7337124065589
 20
1149.798299135062
 30
0.0
  0
ENDBLK
  5
3E4A
330
3E48
100
AcDbEntity
  8
0
100
AcDbBlockEnd
  0
BLOCK
  5
3E55
330
3E54
100
AcDbEntity
  8
0
100
AcDbBlockBegin
  2
*D83
 70
     1
 10
0.0
 20
0.0
 30
0.0
  3
*D83
  1

  0
LINE
  5
3E57
330
3E54
100
AcDbEntity
  8
DIM
 62
     0
370
    -2
100
AcDbLine
 10
450.9975642804491
 20
1149.798299135062
 30
0.0
 11
329.7337124065589
 21
1149.798299135062
 31
0.0
  0
LINE
  5
3E58
330
3E54
100
AcDbEntity
  8
DIM
 62
     0
370
    -2
100
AcDbLine
 10
450.9975642804491
 20
1249.798299135062
 30
0.0
 11
329.7337124065589
 21
1249.798299135062
 31
0.0
  0
LINE
  5
3E59
330
3E54
100
AcDbEntity
  8
DIM
 62
     0
370
    -2
100
AcDbLine
 10
329.7337124065589
 20
1159.798299135062
 30
0.0
 11
329.7337124065589
 21
1239.798299135062
 31
0.0
  0
INSERT
  5
3E5A
330
3E54
100
AcDbEntity
  8
DIM
 62
     0
370
    -2
100
AcDbBlockReference
  2
_DOT
 10
329.7337124065589
 20
1149.798299135062
 30
0.0
 41
10.0
 42
10.0
 43
10.0
 50
270.0
  0
INSERT
  5
3E5B
330
3E54
100
AcDbEntity
  8
DIM
 62
     0
370
    -2
100
AcDbBlockReference
  2
_DOT
 10
329.7337124065589
 20
1249.798299135062
 30
0.0
 41
10.0
 42
10.0
 43
10.0
 50
90.0
  0
MTEXT
  5
3E5C
330
3E54
100
AcDbEntity
  8
DIM
 62
     0
100
AcDbMText
 10
297.7292107184257
 20
1199.798299135062
 30
0.0
 40
24.0
 41
0.0
 46
0.0
 71
     5
 72
     1
  1
\A1;100
  7
ＭＳ ゴシック
 11
0.0
 21
1.0
 31
0.0
 73
     1
 44
1.0
  0
POINT
  5
3E5D
330
3E54
100
AcDbEntity
  8
Defpoints
 62
     0
100
AcDbPoint
 10
480.9975642804491
 20
1149.798299135062
 30
0.0
  0
POINT
  5
3E5E
330
3E54
100
AcDbEntity
  8
Defpoints
 62
     0
100
AcDbPoint
 10
480.9975642804491
 20
1249.798299135062
 30
0.0
  0
POINT
  5
3E5F
330
3E54
100
AcDbEntity
  8
Defpoints
 62
     0
100
AcDbPoint
 10
329.7337124065589
 20
1249.798299135062
 30
0.0
  0
ENDBLK
  5
3E56
330
3E54
100
AcDbEntity
  8
0
100
AcDbBlockEnd
  0
BLOCK
  5
3E61
330
3E60
100
AcDbEntity
  8
0
100
AcDbBlockBegin
  2
*D84
 70
     1
 10
0.0
 20
0.0
 30
0.0
  3
*D84
  1

  0
LINE
  5
3E63
330
3E60
100
AcDbEntity
  8
DIM
 62
     0
370
    -2
100
AcDbLine
 10
-1717.075933157544
 20
1249.798299135063
 30
0.0
 11
-1838.339785031434
 21
1249.798299135063
 31
0.0
  0
LINE
  5
3E64
330
3E60
100
AcDbEntity
  8
DIM
 62
     0
370
    -2
100
AcDbLine
 10
-1717.075933157544
 20
1399.798299135063
 30
0.0
 11
-1838.339785031434
 21
1399.798299135063
 31
0.0
  0
LINE
  5
3E65
330
3E60
100
AcDbEntity
  8
DIM
 62
     0
370
    -2
100
AcDbLine
 10
-1838.339785031434
 20
1259.798299135063
 30
0.0
 11
-1838.339785031434
 21
1389.798299135063
 31
0.0
  0
INSERT
  5
3E66
330
3E60
100
AcDbEntity
  8
DIM
 62
     0
370
    -2
100
AcDbBlockReference
  2
_DOT
 10
-1838.339785031434
 20
1249.798299135063
 30
0.0
 41
10.0
 42
10.0
 43
10.0
 50
270.0
  0
INSERT
  5
3E67
330
3E60
100
AcDbEntity
  8
DIM
 62
     0
370
    -2
100
AcDbBlockReference
  2
_DOT
 10
-1838.339785031434
 20
1399.798299135063
 30
0.0
 41
10.0
 42
10.0
 43
10.0
 50
90.0
  0
MTEXT
  5
3E68
330
3E60
100
AcDbEntity
  8
DIM
 62
     0
100
AcDbMText
 10
-1870.344286719567
 20
1324.798299135063
 30
0.0
 40
24.0
 41
0.0
 46
0.0
 71
     5
 72
     1
  1
\A1;150
  7
ＭＳ ゴシック
 11
0.0
 21
1.0
 31
0.0
 73
     1
 44
1.0
  0
POINT
  5
3E69
330
3E60
100
AcDbEntity
  8
Defpoints
 62
     0
100
AcDbPoint
 10
-1687.075933157544
 20
1249.798299135063
 30
0.0
  0
POINT
  5
3E6A
330
3E60
100
AcDbEntity
  8
Defpoints
 62
     0
100
AcDbPoint
 10
-1687.075933157544
 20
1399.798299135063
 30
0.0
  0
POINT
  5
3E6B
330
3E60
100
AcDbEntity
  8
Defpoints
 62
     0
100
AcDbPoint
 10
-1838.339785031434
 20
1399.798299135063
 30
0.0
  0
ENDBLK
  5
3E62
330
3E60
100
AcDbEntity
  8
0
100
AcDbBlockEnd
  0
BLOCK
  5
3E6D
330
3E6C
100
AcDbEntity
  8
0
100
AcDbBlockBegin
  2
*D85
 70
     1
 10
0.0
 20
0.0
 30
0.0
  3
*D85
  1

  0
LINE
  5
3E6F
330
3E6C
100
AcDbEntity
  8
DIM
 62
     0
370
    -2
100
AcDbLine
 10
386.9960041949212
 20
749.7982991350541
 30
0.0
 11
234.2166059667665
 21
749.7982991350541
 31
0.0
  0
LINE
  5
3E70
330
3E6C
100
AcDbEntity
  8
DIM
 62
     0
370
    -2
100
AcDbLine
 10
386.9960041949212
 20
1549.79829913507
 30
0.0
 11
234.2166059667666
 21
1549.79829913507
 31
0.0
  0
LINE
  5
3E71
330
3E6C
100
AcDbEntity
  8
DIM
 62
     0
370
    -2
100
AcDbLine
 10
234.2166059667665
 20
759.7982991350541
 30
0.0
 11
234.2166059667666
 21
1539.79829913507
 31
0.0
  0
INSERT
  5
3E72
330
3E6C
100
AcDbEntity
  8
DIM
 62
     0
370
    -2
100
AcDbBlockReference
  2
_DOT
 10
234.2166059667665
 20
749.7982991350541
 30
0.0
 41
10.0
 42
10.0
 43
10.0
 50
270.0
  0
INSERT
  5
3E73
330
3E6C
100
AcDbEntity
  8
DIM
 62
     0
370
    -2
100
AcDbBlockReference
  2
_DOT
 10
234.2166059667666
 20
1549.79829913507
 30
0.0
 41
10.0
 42
10.0
 43
10.0
 50
90.0
  0
MTEXT
  5
3E74
330
3E6C
100
AcDbEntity
  8
DIM
 62
     0
100
AcDbMText
 10
202.2166059667665
 20
1149.798299135062
 30
0.0
 40
24.0
 41
0.0
 46
0.0
 71
     5
 72
     1
  1
\A1;800
  7
ＭＳ ゴシック
 11
7.105427357600859E-17
 21
1.0
 31
0.0
 73
     1
 44
1.0
  0
POINT
  5
3E75
330
3E6C
100
AcDbEntity
  8
Defpoints
 62
     0
100
AcDbPoint
 10
416.9960041949212
 20
749.7982991350541
 30
0.0
  0
POINT
  5
3E76
330
3E6C
100
AcDbEntity
  8
Defpoints
 62
     0
100
AcDbPoint
 10
416.9960041949212
 20
1549.79829913507
 30
0.0
  0
POINT
  5
3E77
330
3E6C
100
AcDbEntity
  8
Defpoints
 62
     0
100
AcDbPoint
 10
234.2166059667666
 20
1549.79829913507
 30
0.0
  0
ENDBLK
  5
3E6E
330
3E6C
100
AcDbEntity
  8
0
100
AcDbBlockEnd
  0
BLOCK
  5
3E9A
330
3E99
100
AcDbEntity
  8
0
100
AcDbBlockBegin
  2
*D86
 70
     1
 10
0.0
 20
0.0
 30
0.0
  3
*D86
  1

  0
LINE
  5
3E9C
330
3E99
100
AcDbEntity
  8
DIM
 62
     0
370
    -2
100
AcDbLine
 10
1702.829788836621
 20
749.7982991350622
 30
0.0
 11
1814.558307350867
 21
749.7982991350622
 31
0.0
  0
LINE
  5
3E9D
330
3E99
100
AcDbEntity
  8
DIM
 62
     0
370
    -2
100
AcDbLine
 10
1753.12512271628
 20
1149.747479261496
 30
0.0
 11
1814.558307350867
 21
1149.747479261496
 31
0.0
  0
LINE
  5
3E9E
330
3E99
100
AcDbEntity
  8
DIM
 62
     0
370
    -2
100
AcDbLine
 10
1814.558307350867
 20
759.7982991350622
 30
0.0
 11
1814.558307350867
 21
1139.747479261496
 31
0.0
  0
INSERT
  5
3E9F
330
3E99
100
AcDbEntity
  8
DIM
 62
     0
370
    -2
100
AcDbBlockReference
  2
_DOT
 10
1814.558307350867
 20
749.7982991350622
 30
0.0
 41
10.0
 42
10.0
 43
10.0
 50
270.0
  0
INSERT
  5
3EA0
330
3E99
100
AcDbEntity
  8
DIM
 62
     0
370
    -2
100
AcDbBlockReference
  2
_DOT
 10
1814.558307350867
 20
1149.747479261496
 30
0.0
 41
10.0
 42
10.0
 43
10.0
 50
90.0
  0
MTEXT
  5
3EA1
330
3E99
100
AcDbEntity
  8
DIM
 62
     0
100
AcDbMText
 10
1782.558307350867
 20
949.7728891982792
 30
0.0
 40
24.0
 41
0.0
 46
0.0
 71
     5
 72
     1
  1
\A1;400
  7
ＭＳ ゴシック
 11
0.0
 21
1.0
 31
0.0
 73
     1
 44
1.0
  0
POINT
  5
3EA2
330
3E99
100
AcDbEntity
  8
Defpoints
 62
     0
100
AcDbPoint
 10
1672.829788836621
 20
749.7982991350622
 30
0.0
  0
POINT
  5
3EA3
330
3E99
100
AcDbEntity
  8
Defpoints
 62
     0
100
AcDbPoint
 10
1723.12512271628
 20
1149.747479261496
 30
0.0
  0
POINT
  5
3EA4
330
3E99
100
AcDbEntity
  8
Defpoints
 62
     0
100
AcDbPoint
 10
1814.558307350867
 20
1149.747479261496
 30
0.0
  0
ENDBLK
  5
3E9B
330
3E99
100
AcDbEntity
  8
0
100
AcDbBlockEnd
  0
BLOCK
  5
3F2F
330
3F2E
100
AcDbEntity
  8
0
100
AcDbBlockBegin
  2
*D87
 70
     1
 10
0.0
 20
0.0
 30
0.0
  3
*D87
  1

  0
LINE
  5
3F31
330
3F2E
100
AcDbEntity
  8
DIM
 62
     0
370
    -2
100
AcDbLine
 10
913.8621633107082
 20
1545.798299135061
 30
0.0
 11
995.7375332031042
 21
1545.798299135061
 31
0.0
  0
LINE
  5
3F32
330
3F2E
100
AcDbEntity
  8
DIM
 62
     0
370
    -2
100
AcDbLine
 10
913.8621633107082
 20
753.7982991350632
 30
0.0
 11
995.7375332031042
 21
753.7982991350632
 31
0.0
  0
LINE
  5
3F33
330
3F2E
100
AcDbEntity
  8
DIM
 62
     0
370
    -2
100
AcDbLine
 10
995.7375332031042
 20
1535.798299135061
 30
0.0
 11
995.7375332031042
 21
763.7982991350632
 31
0.0
  0
INSERT
  5
3F34
330
3F2E
100
AcDbEntity
  8
DIM
 62
     0
370
    -2
100
AcDbBlockReference
  2
_DOT
 10
995.7375332031042
 20
1545.798299135061
 30
0.0
 41
10.0
 42
10.0
 43
10.0
 50
90.0
  0
INSERT
  5
3F35
330
3F2E
100
AcDbEntity
  8
DIM
 62
     0
370
    -2
100
AcDbBlockReference
  2
_DOT
 10
995.7375332031042
 20
753.7982991350632
 30
0.0
 41
10.0
 42
10.0
 43
10.0
 50
270.0
  0
MTEXT
  5
3F36
330
3F2E
100
AcDbEntity
  8
DIM
 62
     0
100
AcDbMText
 10
963.7330315149711
 20
1149.798299135062
 30
0.0
 40
24.0
 41
0.0
 46
0.0
 71
     5
 72
     1
  1
\A1;790
  7
ＭＳ ゴシック
 11
0.0
 21
1.0
 31
0.0
 73
     1
 44
1.0
  0
POINT
  5
3F37
330
3F2E
100
AcDbEntity
  8
Defpoints
 62
     0
100
AcDbPoint
 10
883.8621633107082
 20
1545.798299135061
 30
0.0
  0
POINT
  5
3F38
330
3F2E
100
AcDbEntity
  8
Defpoints
 62
     0
100
AcDbPoint
 10
883.8621633107082
 20
753.7982991350632
 30
0.0
  0
POINT
  5
3F39
330
3F2E
100
AcDbEntity
  8
Defpoints
 62
     0
100
AcDbPoint
 10
995.7375332031042
 20
753.7982991350632
 30
0.0
  0
ENDBLK
  5
3F30
330
3F2E
100
AcDbEntity
  8
0
100
AcDbBlockEnd
  0
BLOCK
  5
3F47
330
3F46
100
AcDbEntity
  8
0
100
AcDbBlockBegin
  2
*D88
 70
     1
 10
0.0
 20
0.0
 30
0.0
  3
*D88
  1

  0
LINE
  5
3F49
330
3F46
100
AcDbEntity
  8
DIM
 62
     0
370
    -2
100
AcDbLine
 10
1569.125122716281
 20
735.4055987612909
 30
0.0
 11
1569.125122716281
 21
667.7003708036126
 31
0.0
  0
LINE
  5
3F4A
330
3F46
100
AcDbEntity
  8
DIM
 62
     0
370
    -2
100
AcDbLine
 10
1614.156202647237
 20
737.4327929310962
 30
0.0
 11
1614.156202647237
 21
667.7003708036126
 31
0.0
  0
LINE
  5
3F4B
330
3F46
100
AcDbEntity
  8
DIM
 62
     0
370
    -2
100
AcDbLine
 10
1579.125122716281
 20
667.7003708036126
 30
0.0
 11
1604.156202647237
 21
667.7003708036126
 31
0.0
  0
INSERT
  5
3F4C
330
3F46
100
AcDbEntity
  8
DIM
 62
     0
370
    -2
100
AcDbBlockReference
  2
_DOT
 10
1569.125122716281
 20
667.7003708036126
 30
0.0
 41
10.0
 42
10.0
 43
10.0
 50
180.0
  0
INSERT
  5
3F4D
330
3F46
100
AcDbEntity
  8
DIM
 62
     0
370
    -2
100
AcDbBlockReference
  2
_DOT
 10
1614.156202647237
 20
667.7003708036126
 30
0.0
 41
10.0
 42
10.0
 43
10.0
  0
MTEXT
  5
3F4E
330
3F46
100
AcDbEntity
  8
DIM
 62
     0
100
AcDbMText
 10
1591.64066268176
 20
699.7048724917456
 30
0.0
 40
24.0
 41
0.0
 46
0.0
 71
     5
 72
     1
  1
\A1;45
  7
ＭＳ ゴシック
 73
     1
 44
1.0
  0
POINT
  5
3F4F
330
3F46
100
AcDbEntity
  8
Defpoints
 62
     0
100
AcDbPoint
 10
1569.125122716281
 20
765.4055987612909
 30
0.0
  0
POINT
  5
3F50
330
3F46
100
AcDbEntity
  8
Defpoints
 62
     0
100
AcDbPoint
 10
1614.156202647237
 20
767.4327929310962
 30
0.0
  0
POINT
  5
3F51
330
3F46
100
AcDbEntity
  8
Defpoints
 62
     0
100
AcDbPoint
 10
1614.156202647237
 20
667.7003708036126
 30
0.0
  0
ENDBLK
  5
3F48
330
3F46
100
AcDbEntity
  8
0
100
AcDbBlockEnd
  0
BLOCK
  5
3F91
330
3F90
100
AcDbEntity
  8
0
100
AcDbBlockBegin
  2
*D90
 70
     1
 10
0.0
 20
0.0
 30
0.0
  3
*D90
  1

  0
LINE
  5
3F92
330
3F90
100
AcDbEntity
  8
DIM
 62
     0
370
    -2
100
AcDbLine
 10
542.1622499313381
 20
488.535947844078
 30
0.0
 11
680.6244599695586
 21
488.535947844078
 31
0.0
  0
LINE
  5
3F93
330
3F90
100
AcDbEntity
  8
DIM
 62
     0
370
    -2
100
AcDbLine
 10
542.1622499313399
 20
158.535947844078
 30
0.0
 11
680.6244599695586
 21
158.535947844078
 31
0.0
  0
LINE
  5
3F94
330
3F90
100
AcDbEntity
  8
DIM
 62
     0
370
    -2
100
AcDbLine
 10
680.6244599695586
 20
478.535947844078
 30
0.0
 11
680.6244599695586
 21
168.535947844078
 31
0.0
  0
INSERT
  5
3F95
330
3F90
100
AcDbEntity
  8
DIM
 62
     0
370
    -2
100
AcDbBlockReference
  2
_DOT
 10
680.6244599695586
 20
488.535947844078
 30
0.0
 41
10.0
 42
10.0
 43
10.0
 50
90.0
  0
INSERT
  5
3F96
330
3F90
100
AcDbEntity
  8
DIM
 62
     0
370
    -2
100
AcDbBlockReference
  2
_DOT
 10
680.6244599695586
 20
158.535947844078
 30
0.0
 41
10.0
 42
10.0
 43
10.0
 50
270.0
  0
MTEXT
  5
3F97
330
3F90
100
AcDbEntity
  8
DIM
 62
     0
100
AcDbMText
 10
648.6199582814256
 20
323.535947844078
 30
0.0
 40
24.0
 41
0.0
 46
0.0
 71
     5
 72
     1
  1
\A1;330
  7
ＭＳ ゴシック
 11
0.0
 21
1.0
 31
0.0
 73
     1
 44
1.0
  0
POINT
  5
3F98
330
3F90
100
AcDbEntity
  8
Defpoints
 62
     0
100
AcDbPoint
 10
512.1622499313381
 20
488.535947844078
 30
0.0
  0
POINT
  5
3F99
330
3F90
100
AcDbEntity
  8
Defpoints
 62
     0
100
AcDbPoint
 10
512.1622499313399
 20
158.535947844078
 30
0.0
  0
POINT
  5
3F9A
330
3F90
100
AcDbEntity
  8
Defpoints
 62
     0
100
AcDbPoint
 10
680.6244599695586
 20
158.535947844078
 30
0.0
  0
ENDBLK
  5
3F9B
330
3F90
100
AcDbEntity
  8
0
100
AcDbBlockEnd
  0
BLOCK
  5
3F9E
330
3F9D
100
AcDbEntity
  8
0
100
AcDbBlockBegin
  2
*D91
 70
     1
 10
0.0
 20
0.0
 30
0.0
  3
*D91
  1

  0
LINE
  5
3F9F
330
3F9D
100
AcDbEntity
  8
DIM
 62
     0
370
    -2
100
AcDbLine
 10
242.8668913690939
 20
518.5359478440735
 30
0.0
 11
242.8668913690939
 21
574.071771136398
 31
0.0
  0
LINE
  5
3FA0
330
3F9D
100
AcDbEntity
  8
DIM
 62
     0
370
    -2
100
AcDbLine
 10
512.1622499313381
 20
519.630320403777
 30
0.0
 11
512.1622499313381
 21
574.071771136398
 31
0.0
  0
LINE
  5
3FA1
330
3F9D
100
AcDbEntity
  8
DIM
 62
     0
370
    -2
100
AcDbLine
 10
252.8668913690939
 20
574.071771136398
 30
0.0
 11
502.1622499313381
 21
574.071771136398
 31
0.0
  0
INSERT
  5
3FA2
330
3F9D
100
AcDbEntity
  8
DIM
 62
     0
370
    -2
100
AcDbBlockReference
  2
_DOT
 10
242.8668913690939
 20
574.071771136398
 30
0.0
 41
10.0
 42
10.0
 43
10.0
 50
180.0
  0
INSERT
  5
3FA3
330
3F9D
100
AcDbEntity
  8
DIM
 62
     0
370
    -2
100
AcDbBlockReference
  2
_DOT
 10
512.1622499313381
 20
574.071771136398
 30
0.0
 41
10.0
 42
10.0
 43
10.0
  0
MTEXT
  5
3FA4
330
3F9D
100
AcDbEntity
  8
DIM
 62
     0
100
AcDbMText
 10
377.514570650216
 20
606.076272824531
 30
0.0
 40
24.0
 41
0.0
 46
0.0
 71
     5
 72
     1
  1
\A1;270
  7
ＭＳ ゴシック
 73
     1
 44
1.0
  0
POINT
  5
3FA5
330
3F9D
100
AcDbEntity
  8
Defpoints
 62
     0
100
AcDbPoint
 10
242.8668913690939
 20
488.5359478440735
 30
0.0
  0
POINT
  5
3FA6
330
3F9D
100
AcDbEntity
  8
Defpoints
 62
     0
100
AcDbPoint
 10
512.1622499313381
 20
489.630320403777
 30
0.0
  0
POINT
  5
3FA7
330
3F9D
100
AcDbEntity
  8
Defpoints
 62
     0
100
AcDbPoint
 10
512.1622499313381
 20
574.071771136398
 30
0.0
  0
ENDBLK
  5
3FA8
330
3F9D
100
AcDbEntity
  8
0
100
AcDbBlockEnd
  0
BLOCK
  5
3FAF
330
3FAE
100
AcDbEntity
  8
0
100
AcDbBlockBegin
  2
*D92
 70
     1
 10
0.0
 20
0.0
 30
0.0
  3
*D92
  1

  0
LINE
  5
3FB0
330
3FAE
100
AcDbEntity
  8
DIM
 62
     0
370
    -2
100
AcDbLine
 10
242.8668913690939
 20
518.5359478440735
 30
0.0
 11
242.8668913690939
 21
574.071771136398
 31
0.0
  0
LINE
  5
3FB1
330
3FAE
100
AcDbEntity
  8
DIM
 62
     0
370
    -2
100
AcDbLine
 10
212.8668913690941
 20
518.5359478440735
 30
0.0
 11
212.8668913690941
 21
574.071771136398
 31
0.0
  0
LINE
  5
3FB2
330
3FAE
100
AcDbEntity
  8
DIM
 62
     0
370
    -2
100
AcDbLine
 10
232.8668913690939
 20
574.071771136398
 30
0.0
 11
222.8668913690941
 21
574.071771136398
 31
0.0
  0
INSERT
  5
3FB3
330
3FAE
100
AcDbEntity
  8
DIM
 62
     0
370
    -2
100
AcDbBlockReference
  2
_DOT
 10
242.8668913690939
 20
574.071771136398
 30
0.0
 41
10.0
 42
10.0
 43
10.0
  0
INSERT
  5
3FB4
330
3FAE
100
AcDbEntity
  8
DIM
 62
     0
370
    -2
100
AcDbBlockReference
  2
_DOT
 10
212.8668913690941
 20
574.071771136398
 30
0.0
 41
10.0
 42
10.0
 43
10.0
 50
180.0
  0
MTEXT
  5
3FB5
330
3FAE
100
AcDbEntity
  8
DIM
 62
     0
100
AcDbMText
 10
227.866891369094
 20
606.076272824531
 30
0.0
 40
24.0
 41
0.0
 46
0.0
 71
     5
 72
     1
  1
\A1;30
  7
ＭＳ ゴシック
 73
     1
 44
1.0
  0
POINT
  5
3FB6
330
3FAE
100
AcDbEntity
  8
Defpoints
 62
     0
100
AcDbPoint
 10
242.8668913690939
 20
488.5359478440735
 30
0.0
  0
POINT
  5
3FB7
330
3FAE
100
AcDbEntity
  8
Defpoints
 62
     0
100
AcDbPoint
 10
212.8668913690941
 20
488.5359478440735
 30
0.0
  0
POINT
  5
3FB8
330
3FAE
100
AcDbEntity
  8
Defpoints
 62
     0
100
AcDbPoint
 10
212.8668913690941
 20
574.071771136398
 30
0.0
  0
ENDBLK
  5
3FB9
330
3FAE
100
AcDbEntity
  8
0
100
AcDbBlockEnd
  0
BLOCK
  5
3FD5
330
3FD4
100
AcDbEntity
  8
0
100
AcDbBlockBegin
  2
*D93
 70
     1
 10
0.0
 20
0.0
 30
0.0
  3
*D93
  1

  0
LINE
  5
3FD7
330
3FD4
100
AcDbEntity
  8
DIM
 62
     0
370
    -2
100
AcDbLine
 10
743.2913627571722
 20
2480.208197186015
 30
0.0
 11
881.7535727953928
 21
2480.208197186015
 31
0.0
  0
LINE
  5
3FD8
330
3FD4
100
AcDbEntity
  8
DIM
 62
     0
370
    -2
100
AcDbLine
 10
743.291362757174
 20
2150.208197186015
 30
0.0
 11
881.7535727953928
 21
2150.208197186015
 31
0.0
  0
LINE
  5
3FD9
330
3FD4
100
AcDbEntity
  8
DIM
 62
     0
370
    -2
100
AcDbLine
 10
881.7535727953928
 20
2470.208197186015
 30
0.0
 11
881.7535727953928
 21
2160.208197186015
 31
0.0
  0
INSERT
  5
3FDA
330
3FD4
100
AcDbEntity
  8
DIM
 62
     0
370
    -2
100
AcDbBlockReference
  2
_DOT
 10
881.7535727953928
 20
2480.208197186015
 30
0.0
 41
10.0
 42
10.0
 43
10.0
 50
90.0
  0
INSERT
  5
3FDB
330
3FD4
100
AcDbEntity
  8
DIM
 62
     0
370
    -2
100
AcDbBlockReference
  2
_DOT
 10
881.7535727953928
 20
2150.208197186015
 30
0.0
 41
10.0
 42
10.0
 43
10.0
 50
270.0
  0
MTEXT
  5
3FDC
330
3FD4
100
AcDbEntity
  8
DIM
 62
     0
100
AcDbMText
 10
849.7490711072596
 20
2315.208197186015
 30
0.0
 40
24.0
 41
0.0
 46
0.0
 71
     5
 72
     1
  1
\A1;330
  7
ＭＳ ゴシック
 11
0.0
 21
1.0
 31
0.0
 73
     1
 44
1.0
  0
POINT
  5
3FDD
330
3FD4
100
AcDbEntity
  8
Defpoints
 62
     0
100
AcDbPoint
 10
713.2913627571722
 20
2480.208197186015
 30
0.0
  0
POINT
  5
3FDE
330
3FD4
100
AcDbEntity
  8
Defpoints
 62
     0
100
AcDbPoint
 10
713.291362757174
 20
2150.208197186015
 30
0.0
  0
POINT
  5
3FDF
330
3FD4
100
AcDbEntity
  8
Defpoints
 62
     0
100
AcDbPoint
 10
881.7535727953928
 20
2150.208197186015
 30
0.0
  0
ENDBLK
  5
3FD6
330
3FD4
100
AcDbEntity
  8
0
100
AcDbBlockEnd
  0
BLOCK
  5
3FE1
330
3FE0
100
AcDbEntity
  8
0
100
AcDbBlockBegin
  2
*D94
 70
     1
 10
0.0
 20
0.0
 30
0.0
  3
*D94
  1

  0
LINE
  5
3FE3
330
3FE0
100
AcDbEntity
  8
DIM
 62
     0
370
    -2
100
AcDbLine
 10
443.996004194928
 20
2510.20819718601
 30
0.0
 11
443.996004194928
 21
2565.744020478335
 31
0.0
  0
LINE
  5
3FE4
330
3FE0
100
AcDbEntity
  8
DIM
 62
     0
370
    -2
100
AcDbLine
 10
713.2913627571722
 20
2511.302569745714
 30
0.0
 11
713.2913627571722
 21
2565.744020478335
 31
0.0
  0
LINE
  5
3FE5
330
3FE0
100
AcDbEntity
  8
DIM
 62
     0
370
    -2
100
AcDbLine
 10
453.996004194928
 20
2565.744020478335
 30
0.0
 11
703.2913627571722
 21
2565.744020478335
 31
0.0
  0
INSERT
  5
3FE6
330
3FE0
100
AcDbEntity
  8
DIM
 62
     0
370
    -2
100
AcDbBlockReference
  2
_DOT
 10
443.996004194928
 20
2565.744020478335
 30
0.0
 41
10.0
 42
10.0
 43
10.0
 50
180.0
  0
INSERT
  5
3FE7
330
3FE0
100
AcDbEntity
  8
DIM
 62
     0
370
    -2
100
AcDbBlockReference
  2
_DOT
 10
713.2913627571722
 20
2565.744020478335
 30
0.0
 41
10.0
 42
10.0
 43
10.0
  0
MTEXT
  5
3FE8
330
3FE0
100
AcDbEntity
  8
DIM
 62
     0
100
AcDbMText
 10
578.6436834760501
 20
2597.748522166468
 30
0.0
 40
24.0
 41
0.0
 46
0.0
 71
     5
 72
     1
  1
\A1;270
  7
ＭＳ ゴシック
 73
     1
 44
1.0
  0
POINT
  5
3FE9
330
3FE0
100
AcDbEntity
  8
Defpoints
 62
     0
100
AcDbPoint
 10
443.996004194928
 20
2480.20819718601
 30
0.0
  0
POINT
  5
3FEA
330
3FE0
100
AcDbEntity
  8
Defpoints
 62
     0
100
AcDbPoint
 10
713.2913627571722
 20
2481.302569745714
 30
0.0
  0
POINT
  5
3FEB
330
3FE0
100
AcDbEntity
  8
Defpoints
 62
     0
100
AcDbPoint
 10
713.2913627571722
 20
2565.744020478335
 30
0.0
  0
ENDBLK
  5
3FE2
330
3FE0
100
AcDbEntity
  8
0
100
AcDbBlockEnd
  0
BLOCK
  5
3FED
330
3FEC
100
AcDbEntity
  8
0
100
AcDbBlockBegin
  2
*D95
 70
     1
 10
0.0
 20
0.0
 30
0.0
  3
*D95
  1

  0
LINE
  5
3FEF
330
3FEC
100
AcDbEntity
  8
DIM
 62
     0
370
    -2
100
AcDbLine
 10
443.996004194928
 20
2510.20819718601
 30
0.0
 11
443.996004194928
 21
2565.744020478335
 31
0.0
  0
LINE
  5
3FF0
330
3FEC
100
AcDbEntity
  8
DIM
 62
     0
370
    -2
100
AcDbLine
 10
413.9960041949282
 20
2510.20819718601
 30
0.0
 11
413.9960041949282
 21
2565.744020478335
 31
0.0
  0
LINE
  5
3FF1
330
3FEC
100
AcDbEntity
  8
DIM
 62
     0
370
    -2
100
AcDbLine
 10
433.996004194928
 20
2565.744020478335
 30
0.0
 11
423.9960041949282
 21
2565.744020478335
 31
0.0
  0
INSERT
  5
3FF2
330
3FEC
100
AcDbEntity
  8
DIM
 62
     0
370
    -2
100
AcDbBlockReference
  2
_DOT
 10
443.996004194928
 20
2565.744020478335
 30
0.0
 41
10.0
 42
10.0
 43
10.0
  0
INSERT
  5
3FF3
330
3FEC
100
AcDbEntity
  8
DIM
 62
     0
370
    -2
100
AcDbBlockReference
  2
_DOT
 10
413.9960041949282
 20
2565.744020478335
 30
0.0
 41
10.0
 42
10.0
 43
10.0
 50
180.0
  0
MTEXT
  5
3FF4
330
3FEC
100
AcDbEntity
  8
DIM
 62
     0
100
AcDbMText
 10
428.9960041949281
 20
2597.748522166468
 30
0.0
 40
24.0
 41
0.0
 46
0.0
 71
     5
 72
     1
  1
\A1;30
  7
ＭＳ ゴシック
 73
     1
 44
1.0
  0
POINT
  5
3FF5
330
3FEC
100
AcDbEntity
  8
Defpoints
 62
     0
100
AcDbPoint
 10
443.996004194928
 20
2480.20819718601
 30
0.0
  0
POINT
  5
3FF6
330
3FEC
100
AcDbEntity
  8
Defpoints
 62
     0
100
AcDbPoint
 10
413.9960041949282
 20
2480.20819718601
 30
0.0
  0
POINT
  5
3FF7
330
3FEC
100
AcDbEntity
  8
Defpoints
 62
     0
100
AcDbPoint
 10
413.9960041949282
 20
2565.744020478335
 30
0.0
  0
ENDBLK
  5
3FEE
330
3FEC
100
AcDbEntity
  8
0
100
AcDbBlockEnd
  0
ENDSEC
  0
SECTION
  2
ENTITIES
  0
MTEXT
  5
177
330
A
100
AcDbEntity
  8
TEMPLATE
390
1D
100
AcDbMText
 10
79.20214454773075
 20
343.7317516314282
 30
0.0
 40
16.28841145833333
 41
0.0
 46
0.0
 71
     1
 72
     1
  1
品名
  7
ＭＳ ゴシック
 73
     1
 44
0.7828267384257843
  0
MTEXT
  5
178
330
A
100
AcDbEntity
  8
TEMPLATE
390
1D
100
AcDbMText
 10
79.20214454773075
 20
258.731751631428
 30
0.0
 40
16.28841145833333
 41
0.0
 46
0.0
 71
     1
 72
     1
  1
仕様
  7
ＭＳ ゴシック
 73
     1
 44
0.7828267384257843
  0
LINE
  5
179
330
A
100
AcDbEntity
  8
TEMPLATE
390
1D
100
AcDbLine
 10
2022.202144547248
 20
267.1466735064284
 30
0.0
 11
72.20214454724874
 21
267.1466735064284
 31
0.0
  0
LWPOLYLINE
  5
17A
330
A
100
AcDbEntity
  8
TEMPLATE
390
1D
100
AcDbPolyline
 90
        5
 70
   128
 43
0.0
 10
2022.202144547248
 20
2897.146673506426
 10
72.20214454724874
 20
2897.146673506426
 10
72.20214454724874
 20
97.14667350642826
 10
2022.202144547248
 20
97.14667350642826
 10
2022.202144547248
 20
2897.146673506426
  0
LINE
  5
17B
330
A
100
AcDbEntity
  8
TEMPLATE
390
1D
100
AcDbLine
 10
2022.202144547248
 20
352.1466735064282
 30
0.0
 11
72.20214454724874
 21
352.1466735064282
 31
0.0
  0
LINE
  5
17C
330
A
100
AcDbEntity
  8
TEMPLATE
390
1D
100
AcDbLine
 10
2022.202144547732
 20
182.1466735064282
 30
0.0
 11
1269.20214454773
 21
182.1466735064282
 31
0.0
  0
MTEXT
  5
17E
330
A
100
AcDbEntity
  8
TEMPLATE
390
1D
100
AcDbMText
 10
1299.073550799991
 20
152.2362790331201
 30
0.0
 40
24.4326171875
 41
0.0
 46
0.0
 71
     1
 72
     1
  1
大洋金物株式会社 ティーフォルム事業部
  7
ＭＳ ゴシック
 73
     1
 44
0.7828267384257843
  0
MTEXT
  5
180
330
A
100
AcDbEntity
  8
TEMPLATE
390
1D
100
AcDbMText
 10
1831.20214454799
 20
230.1492906939282
 30
0.0
 40
24.4326171875
 41
0.0
 46
24.4326171875
 71
     1
 72
     1
  1
{1:10}
  7
ＭＳ ゴシック
 73
     1
 44
0.7828267384257843
1001
ACAD
1000
ACAD_MTEXT_DEFINED_HEIGHT_BEGIN
1070
    46
1040
24.4326171875
1000
ACAD_MTEXT_DEFINED_HEIGHT_END
  0
MTEXT
  5
181
330
A
100
AcDbEntity
  8
TEMPLATE
390
1D
100
AcDbMText
 10
1778.20214454799
 20
258.731751631428
 30
0.0
 40
16.28841145833333
 41
0.0
 46
0.0
 71
     1
 72
     1
  1
縮尺
  7
ＭＳ ゴシック
 73
     1
 44
0.7828267384257843
  0
LINE
  5
182
330
A
100
AcDbEntity
  8
TEMPLATE
390
1D
100
AcDbLine
 10
1771.20214454799
 20
182.1466735064282
 30
0.0
 11
1771.20214454799
 21
267.1466735064284
 31
0.0
  0
MTEXT
  5
183
330
A
100
AcDbEntity
  8
TEMPLATE
390
1D
100
AcDbMText
 10
1527.20214454799
 20
258.731751631428
 30
0.0
 40
16.28841145833333
 41
0.0
 46
0.0
 71
     1
 72
     1
  1
容量
  7
ＭＳ ゴシック
 73
     1
 44
0.7828267384257843
  0
LINE
  5
184
330
A
100
AcDbEntity
  8
TEMPLATE
390
1D
100
AcDbLine
 10
1520.20214454799
 20
182.1466735064282
 30
0.0
 11
1520.20214454799
 21
267.1466735064284
 31
0.0
  0
MTEXT
  5
185
330
A
100
AcDbEntity
  8
TEMPLATE
390
1D
100
AcDbMText
 10
1276.20214454799
 20
343.7317516314282
 30
0.0
 40
16.28841145833333
 41
0.0
 46
0.0
 71
     1
 72
     1
  1
品番
  7
ＭＳ ゴシック
 73
     1
 44
0.7828267384257843
  0
MTEXT
  5
186
330
A
100
AcDbEntity
  8
TEMPLATE
390
1D
100
AcDbMText
 10
1276.20214454799
 20
258.731751631428
 30
0.0
 40
16.28841145833333
 41
0.0
 46
0.0
 71
     1
 72
     1
  1
重量
  7
ＭＳ ゴシック
 73
     1
 44
0.7828267384257843
  0
MTEXT
  5
187
330
A
100
AcDbEntity
  8
TEMPLATE
390
1D
100
AcDbMText
 10
1329.20214454799
 20
315.1492906939282
 30
0.0
 40
24.4326171875
 41
0.0
 46
24.4326171875
 71
     1
 72
     1
  1
{ADF70-3103-FC1}
  7
ＭＳ ゴシック
 73
     1
 44
0.7828267384257843
1001
ACAD
1000
ACAD_MTEXT_DEFINED_HEIGHT_BEGIN
1070
    46
1040
24.4326171875
1000
ACAD_MTEXT_DEFINED_HEIGHT_END
  0
LINE
  5
188
330
A
100
AcDbEntity
  8
TEMPLATE
390
1D
100
AcDbLine
 10
1269.20214454799
 20
97.14667350642826
 30
0.0
 11
1269.20214454799
 21
352.1466735064282
 31
0.0
  0
INSERT
  5
68C
330
A
100
AcDbEntity
  8
TEMPLATE
100
AcDbBlockReference
  2
block 2
 10
919.2743017702577
 20
8.373076514336368
 30
0.0
 41
0.3809999999999999
 42
0.3809999999999999
 43
0.3809999999999999
  0
LWPOLYLINE
  5
DAC
330
A
100
AcDbEntity
  8
BORDER
100
AcDbPolyline
 90
        4
 70
     1
 43
0.0
 10
0.0
 20
0.0
 10
0.0
 20
2970.0
 10
2100.0
 20
2970.0
 10
2100.0
 20
0.0
  0
MTEXT
  5
121B
330
A
100
AcDbEntity
  8
TEMPLATE
390
1D
100
AcDbMText
 10
1329.20214454799
 20
227.1688729773101
 30
0.0
 40
24.4326171875
 41
0.0
 46
28.40135167875453
 71
     1
 72
     1
  1
{21.5kg}
  7
ＭＳ ゴシック
 73
     1
 44
0.7828267384257843
1001
ACAD
1000
ACAD_MTEXT_DEFINED_HEIGHT_BEGIN
1070
    46
1040
28.40135167875453
1000
ACAD_MTEXT_DEFINED_HEIGHT_END
  0
MTEXT
  5
1466
102
{ACAD_XDICTIONARY
360
1468
102
}
330
A
100
AcDbEntity
  8
TEMPLATE
 48
0.05
100
AcDbMText
 10
74.728656548571
 20
83.86172105142839
 30
0.0
 40
22.0
 41
0.0
 46
22.0
 71
     1
 72
     1
  1
{20220602M}
  7
ＭＳ ゴシック
 73
     1
 44
1.0
1001
ACAD
1000
ACAD_MTEXT_DEFINED_HEIGHT_BEGIN
1070
    46
1040
22.0
1000
ACAD_MTEXT_DEFINED_HEIGHT_END
  0
MTEXT
  5
146D
330
A
100
AcDbEntity
  8
TEMPLATE
390
1D
100
AcDbMText
 10
1583.904999862276
 20
227.1688729773101
 30
0.0
 40
24.4326171875
 41
0.0
 46
24.4326171875
 71
     1
 72
     1
  1
{10.5L}
  7
ＭＳ ゴシック
 73
     1
 44
0.7828267384257843
1001
ACAD
1000
ACAD_MTEXT_DEFINED_HEIGHT_BEGIN
1070
    46
1040
24.4326171875
1000
ACAD_MTEXT_DEFINED_HEIGHT_END
  0
POINT
  5
262A
330
A
100
AcDbEntity
  8
Layer9
  6
Continuous
 62
     7
100
AcDbPoint
 10
1037.460145007193
 20
1010.220672371878
 30
0.0
  0
POINT
  5
262B
330
A
100
AcDbEntity
  8
Layer9
  6
Continuous
 62
     7
100
AcDbPoint
 10
1037.460146257193
 20
1010.220672788578
 30
0.0
  0
POINT
  5
262C
330
A
100
AcDbEntity
  8
Layer9
  6
Continuous
 62
     7
100
AcDbPoint
 10
1037.853693340493
 20
1015.267975288578
 30
0.0
  0
POINT
  5
2812
330
A
100
AcDbEntity
  8
Layer9
  6
Continuous
 62
     7
100
AcDbPoint
 10
925.7934783404928
 20
1010.220672371878
 30
0.0
  0
POINT
  5
2813
330
A
100
AcDbEntity
  8
Layer9
  6
Continuous
 62
     7
100
AcDbPoint
 10
925.7934795904928
 20
1010.220672788578
 30
0.0
  0
POINT
  5
2814
330
A
100
AcDbEntity
  8
Layer9
  6
Continuous
 62
     7
100
AcDbPoint
 10
926.1870266737928
 20
1015.267975288578
 30
0.0
  0
INSERT
  5
28CA
330
A
100
AcDbEntity
  8
Layer3
100
AcDbBlockReference
  2
SEANNOT_GROUP
 10
859.7083018867928
 20
826.1905269541776
 30
0.0
  0
POINT
  5
2A52
330
A
100
AcDbEntity
  8
Standard
  6
Continuous
 62
     7
100
AcDbPoint
 10
1036.111241014893
 20
1018.794321538578
 30
0.0
  0
INSERT
  5
2B9B
330
A
100
AcDbEntity
  8
Layer3
100
AcDbBlockReference
  2
SEANNOT_GROUP1
 10
859.7083018867928
 20
826.1905269541776
 30
0.0
  0
HATCH
  5
369B
102
{ACAD_REACTORS
330
36AC
102
}
330
A
100
AcDbEntity
  8
TEMPLATE
100
AcDbHatch
 10
0.0
 20
0.0
 30
0.0
210
0.0
220
0.0
230
1.0
  2
SOLID
 70
     1
 71
     1
 91
        6
 92
        1
 93
        8
 72
     1
 10
1934.476782902687
 20
153.1053194253001
 11
1934.476782902687
 21
147.1959117946397
 72
     1
 10
1934.476782902687
 20
147.1959117946397
 11
1925.116191352377
 21
147.1959117946397
 72
     1
 10
1925.116191352377
 20
147.1959117946397
 11
1925.116191352377
 21
123.105319426746
 72
     1
 10
1925.116191352377
 20
123.105319426746
 11
1916.883578199102
 21
123.105319426746
 72
     1
 10
1916.883578199102
 20
123.105319426746
 11
1916.883578199102
 21
147.1959117946397
 72
     1
 10
1916.883578199102
 20
147.1959117946397
 11
1907.688876764557
 21
147.1959117946397
 72
     1
 10
1907.688876764557
 20
147.1959117946397
 11
1907.688876764557
 21
153.1053194253001
 72
     1
 10
1907.688876764557
 20
153.1053194253001
 11
1934.476782902687
 21
153.1053194253001
 97
        1
330
369C
 92
        1
 93
        1
 72
     4
 94
        3
 73
     0
 74
     1
 95
       56
 96
       52
 40
0.0
 40
0.0
 40
0.0
 40
0.0
 40
1.0
 40
1.0
 40
1.0
 40
2.0
 40
2.0
 40
2.0
 40
3.0
 40
3.0
 40
3.0
 40
4.0
 40
4.0
 40
4.0
 40
5.0
 40
5.0
 40
5.0
 40
6.0
 40
6.0
 40
6.0
 40
7.0
 40
7.0
 40
7.0
 40
8.0
 40
8.0
 40
8.0
 40
9.0
 40
9.0
 40
9.0
 40
10.0
 40
10.0
 40
10.0
 40
11.0
 40
11.0
 40
11.0
 40
12.0
 40
12.0
 40
12.0
 40
13.0
 40
13.0
 40
13.0
 40
14.0
 40
14.0
 40
14.0
 40
15.0
 40
15.0
 40
15.0
 40
16.0
 40
16.0
 40
16.0
 40
17.0
 40
17.0
 40
17.0
 40
17.0
 10
1947.01896833698
 20
152.3909504648878
 10
1948.1728345189
 20
152.715738018898
 10
1949.662423612235
 20
152.4440650580081
 10
1949.662423612235
 20
152.4440650580081
 10
1949.662423612235
 20
152.4440650580081
 10
1948.946790018651
 20
150.2964947655846
 10
1948.946790018651
 20
150.2964947655846
 10
1948.946790018651
 20
150.2964947655846
 10
1947.484427733556
 20
150.6348957237139
 10
1946.356523726704
 20
149.7454866546012
 10
1945.480058550036
 20
149.0499384113589
 10
1944.912238256914
 20
147.2017886193686
 10
1944.69442379101
 20
146.4990989182278
 10
1944.69442379101
 20
146.4990989182278
 10
1943.723334297183
 20
143.518432927829
 10
1943.723334297183
 20
143.518432927829
 10
1943.723334297183
 20
143.518432927829
 10
1946.907457447503
 20
143.518432927829
 10
1946.907457447503
 20
143.518432927829
 10
1946.907457447503
 20
143.518432927829
 10
1946.412241976351
 20
141.642461206109
 10
1946.412241976351
 20
141.642461206109
 10
1946.412241976351
 20
141.642461206109
 10
1943.202156650962
 20
141.642461206109
 10
1943.202156650962
 20
141.642461206109
 10
1943.202156650962
 20
141.642461206109
 10
1937.458713526257
 20
123.105319426746
 10
1937.458713526257
 20
123.105319426746
 10
1937.458713526257
 20
123.105319426746
 10
1935.660479549369
 20
123.105319426746
 10
1935.660479549369
 20
123.105319426746
 10
1935.660479549369
 20
123.105319426746
 10
1941.409129987127
 20
141.642461206109
 10
1941.409129987127
 20
141.642461206109
 10
1941.409129987127
 20
141.642461206109
 10
1939.040397670409
 20
141.642461206109
 10
1939.040397670409
 20
141.642461206109
 10
1939.040397670409
 20
141.642461206109
 10
1939.536952164915
 20
143.518432927829
 10
1939.536952164915
 20
143.518432927829
 10
1939.536952164915
 20
143.518432927829
 10
1941.930307633347
 20
143.518432927829
 10
1941.930307633347
 20
143.518432927829
 10
1941.930307633347
 20
143.518432927829
 10
1942.77686795507
 20
146.1179236028939
 10
1942.77686795507
 20
146.1179236028939
 10
1943.461406450716
 20
148.2973328951149
 10
1944.042245026465
 20
149.4674161376772
 10
1944.540138544327
 20
150.3496093587049
 10
1945.032750358952
 20
151.232546481597
 10
1946.007708142475
 20
152.0998616653363
 10
1947.01896833698
 20
152.3909504648878
 97
        1
330
36A7
 92
        1
 93
        1
 72
     4
 94
        3
 73
     0
 74
     1
 95
       32
 96
       28
 40
0.0
 40
0.0
 40
0.0
 40
0.0
 40
1.0
 40
1.0
 40
1.0
 40
2.0
 40
2.0
 40
2.0
 40
3.0
 40
3.0
 40
3.0
 40
4.0
 40
4.0
 40
4.0
 40
5.0
 40
5.0
 40
5.0
 40
6.0
 40
6.0
 40
6.0
 40
7.0
 40
7.0
 40
7.0
 40
8.0
 40
8.0
 40
8.0
 40
9.0
 40
9.0
 40
9.0
 40
9.0
 10
1951.394524713372
 20
142.3847264864374
 10
1950.311998720255
 20
140.9844800070205
 10
1949.478382290974
 20
139.7243102486757
 10
1948.128795528524
 20
135.7635535518901
 10
1946.888041608841
 20
132.1406026917421
 10
1946.098464169936
 20
129.5048096056932
 10
1945.979216701069
 20
126.2947242803041
 10
1945.888460673606
 20
123.9059066132458
 10
1947.343086379314
 20
123.105319426746
 10
1949.475853024634
 20
123.105319426746
 10
1950.395018168326
 20
123.105319426746
 10
1952.714504181618
 20
123.1637901132903
 10
1954.3662638814
 20
125.2056519507783
 10
1955.522584939468
 20
126.6401923061455
 10
1956.588298750451
 20
128.1272521331414
 10
1958.017036671275
 20
133.0053142189559
 10
1959.205940631009
 20
137.0833842397621
 10
1960.029142434186
 20
139.7191029356247
 10
1959.968291261677
 20
141.2197761667398
 10
1959.968291261677
 20
141.2197761667398
 10
1959.968291261677
 20
141.2197761667398
 10
1959.968291261677
 20
141.2197761667398
 10
1959.580569609936
 20
143.7233035012931
 10
1957.762919794387
 20
144.2522921170894
 10
1956.724432791643
 20
144.2522921170894
 10
1955.70156772805
 20
144.2522921170894
 10
1952.960735698745
 20
144.4292663706373
 10
1951.394524713372
 20
142.3847264864374
 97
        1
330
36AA
 92
        1
 93
        1
 72
     4
 94
        3
 73
     0
 74
     1
 95
       38
 96
       34
 40
0.0
 40
0.0
 40
0.0
 40
0.0
 40
1.0
 40
1.0
 40
1.0
 40
2.0
 40
2.0
 40
2.0
 40
3.0
 40
3.0
 40
3.0
 40
4.0
 40
4.0
 40
4.0
 40
5.0
 40
5.0
 40
5.0
 40
6.0
 40
6.0
 40
6.0
 40
7.0
 40
7.0
 40
7.0
 40
8.0
 40
8.0
 40
8.0
 40
9.0
 40
9.0
 40
9.0
 40
10.0
 40
10.0
 40
10.0
 40
11.0
 40
11.0
 40
11.0
 40
11.0
 10
1966.542747159137
 20
143.4464976175386
 10
1966.542747159137
 20
143.4464976175386
 10
1968.39149207262
 20
143.4464976175386
 10
1968.39149207262
 20
143.4464976175386
 10
1968.39149207262
 20
143.4464976175386
 10
1967.56561222273
 20
140.8022984404216
 10
1967.56561222273
 20
140.8022984404216
 10
1968.193167835563
 20
141.54456372075
 10
1969.183598777865
 20
142.5331349083912
 10
1970.034176169654
 20
143.0316235477459
 10
1971.304760554101
 20
143.7738888280742
 10
1972.030808773784
 20
143.8717863134333
 10
1972.829313035064
 20
143.8522960845852
 10
1972.829313035064
 20
143.8522960845852
 10
1972.048959979278
 20
141.3520419182353
 10
1972.048959979278
 20
141.3520419182353
 10
1971.540726225497
 20
141.5672527276151
 10
1969.974515240128
 20
141.1575859708734
 10
1969.076030568268
 20
140.5112840310564
 10
1968.265772657532
 20
139.9285113104618
 10
1967.705614553615
 20
139.4326263276327
 10
1967.04190531017
 20
138.1859955832205
 10
1966.383254599404
 20
136.9375050841474
 10
1965.86341597654
 20
134.9467493047458
 10
1964.968799594376
 20
132.058773486655
 10
1964.968799594376
 20
132.058773486655
 10
1962.174852971949
 20
123.105319426746
 10
1962.174852971949
 20
123.105319426746
 10
1962.174852971949
 20
123.105319426746
 10
1960.380561674943
 20
123.105319426746
 10
1960.380561674943
 20
123.105319426746
 10
1960.380561674943
 20
123.105319426746
 10
1966.542747159137
 20
143.4464976175386
 10
1966.542747159137
 20
143.4464976175386
 97
        1
330
36A8
 92
        1
 93
        1
 72
     4
 94
        3
 73
     0
 74
     1
 95
      104
 96
      100
 40
0.0
 40
0.0
 40
0.0
 40
0.0
 40
1.0
 40
1.0
 40
1.0
 40
2.0
 40
2.0
 40
2.0
 40
3.0
 40
3.0
 40
3.0
 40
4.0
 40
4.0
 40
4.0
 40
5.0
 40
5.0
 40
5.0
 40
6.0
 40
6.0
 40
6.0
 40
7.0
 40
7.0
 40
7.0
 40
8.0
 40
8.0
 40
8.0
 40
9.0
 40
9.0
 40
9.0
 40
10.0
 40
10.0
 40
10.0
 40
11.0
 40
11.0
 40
11.0
 40
12.0
 40
12.0
 40
12.0
 40
13.0
 40
13.0
 40
13.0
 40
14.0
 40
14.0
 40
14.0
 40
15.0
 40
15.0
 40
15.0
 40
16.0
 40
16.0
 40
16.0
 40
17.0
 40
17.0
 40
17.0
 40
18.0
 40
18.0
 40
18.0
 40
19.0
 40
19.0
 40
19.0
 40
20.0
 40
20.0
 40
20.0
 40
21.0
 40
21.0
 40
21.0
 40
22.0
 40
22.0
 40
22.0
 40
23.0
 40
23.0
 40
23.0
 40
24.0
 40
24.0
 40
24.0
 40
25.0
 40
25.0
 40
25.0
 40
26.0
 40
26.0
 40
26.0
 40
27.0
 40
27.0
 40
27.0
 40
28.0
 40
28.0
 40
28.0
 40
29.0
 40
29.0
 40
29.0
 40
30.0
 40
30.0
 40
30.0
 40
31.0
 40
31.0
 40
31.0
 40
32.0
 40
32.0
 40
32.0
 40
33.0
 40
33.0
 40
33.0
 40
33.0
 10
1976.718878323425
 20
143.4575073651321
 10
1976.718878323425
 20
143.4575073651321
 10
1978.332996588864
 20
143.4575073651321
 10
1978.332996588864
 20
143.4575073651321
 10
1978.332996588864
 20
143.4575073651321
 10
1977.517531365076
 20
140.810778921676
 10
1977.517531365076
 20
140.810778921676
 10
1978.225279598895
 20
141.920531723033
 10
1978.860571791119
 20
142.4151520726926
 10
1979.704602846502
 20
143.054312554611
 10
1980.551163168223
 20
143.6843974337833
 10
1981.556025806694
 20
143.812794895584
 10
1982.253508194784
 20
143.812794895584
 10
1983.117029479015
 20
143.812794895584
 10
1983.950645908296
 20
143.6422925882567
 10
1984.388804106443
 20
142.6958262461422
 10
1984.72460140805
 20
141.9536353560001
 10
1984.740223347202
 20
141.8660781065566
 10
1984.644260006691
 20
140.4010377747479
 10
1985.521915426345
 20
141.9030500292188
 10
1986.170151511008
 20
142.5500214807137
 10
1987.272167732975
 20
143.1716258786317
 10
1988.42863757142
 20
143.812794895584
 10
1989.102761440966
 20
143.8607765658398
 10
1989.885941323838
 20
143.7453229964802
 10
1991.039733115569
 20
143.5748950793392
 10
1991.776195961356
 20
143.1632197875635
 10
1992.161239566385
 20
141.9121256319649
 10
1992.54762219477
 20
140.6648997660613
 10
1992.338883331611
 20
139.9959088193793
 10
1991.861744675765
 20
138.0103603530286
 10
1991.64393020986
 20
137.1060732466272
 10
1991.328813380087
 20
136.0111240923725
 10
1990.916542966819
 20
134.7082543670094
 10
1990.916542966819
 20
134.7082543670094
 10
1987.272167732975
 20
123.105319426746
 10
1987.272167732975
 20
123.105319426746
 10
1987.272167732975
 20
123.105319426746
 10
1985.376705782409
 20
123.105319426746
 10
1985.376705782409
 20
123.105319426746
 10
1985.376705782409
 20
123.105319426746
 10
1988.567449659321
 20
133.2490164697431
 10
1988.567449659321
 20
133.2490164697431
 10
1989.233836949479
 20
135.3713684889626
 10
1989.684939040069
 20
136.9212880235028
 10
1989.918375445127
 20
137.893047029008
 10
1990.211323999339
 20
139.1052351170969
 10
1990.327967811683
 20
139.505231149601
 10
1990.189304504152
 20
140.3874987608153
 10
1990.062246065708
 20
141.2087664191461
 10
1989.647297605728
 20
141.7435574694851
 10
1988.936871325198
 20
141.7435574694851
 10
1988.17972800758
 20
141.7435574694851
 10
1987.566455310545
 20
141.659273388245
 10
1986.708290119737
 20
140.7971655175569
 10
1985.84997614856
 20
139.9285113104618
 10
1985.140740111011
 20
138.9088450248874
 10
1984.584599077163
 20
137.7361581257997
 10
1984.029648286297
 20
136.5563297688134
 10
1983.466960916042
 20
135.0608638507494
 10
1982.896536966398
 20
133.2490164697431
 10
1982.896536966398
 20
133.2490164697431
 10
1979.704602846502
 20
123.105319426746
 10
1979.704602846502
 20
123.105319426746
 10
1979.704602846502
 20
123.105319426746
 10
1977.921916418581
 20
123.105319426746
 10
1977.921916418581
 20
123.105319426746
 10
1977.921916418581
 20
123.105319426746
 10
1981.571498965475
 20
134.7030470539584
 10
1981.571498965475
 20
134.7030470539584
 10
1981.956542570504
 20
135.9373290274211
 10
1982.245771615394
 20
136.9433819088763
 10
1982.436359273062
 20
137.729686179579
 10
1982.760402925207
 20
139.0832156219098
 10
1982.851158952669
 20
139.9985124759046
 10
1982.606117678524
 20
140.810778921676
 10
1982.364944694076
 20
141.6204417109219
 10
1981.941069411725
 20
141.8272464292334
 10
1981.233172397533
 20
141.8272464292334
 10
1980.639389929345
 20
141.8272464292334
 10
1980.059890376953
 20
141.5724600406662
 10
1979.398710399847
 20
141.0654909200569
 10
1978.566284213549
 20
140.4276694614944
 10
1978.233164958657
 20
139.9038881587491
 10
1977.824762835085
 20
139.2815398589669
 10
1977.273680333915
 20
138.458263665602
 10
1977.015695167332
 20
137.9040567766015
 10
1976.550310160944
 20
136.687926008631
 10
1976.084776374184
 20
135.4646537827621
 10
1975.644088909695
 20
134.0411231749885
 10
1975.336708659311
 20
133.0564946672286
 10
1975.336708659311
 20
133.0564946672286
 10
1972.205774492298
 20
123.105319426746
 10
1972.205774492298
 20
123.105319426746
 10
1972.205774492298
 20
123.105319426746
 10
1970.338878373326
 20
123.105319426746
 10
1970.338878373326
 20
123.105319426746
 10
1970.338878373326
 20
123.105319426746
 10
1976.718878323425
 20
143.4575073651321
 10
1976.718878323425
 20
143.4575073651321
 97
        1
330
36A9
 92
       16
 93
        1
 72
     4
 94
        3
 73
     0
 74
     1
 95
       29
 96
       25
 40
0.0
 40
0.0
 40
0.0
 40
0.0
 40
1.0
 40
1.0
 40
1.0
 40
2.0
 40
2.0
 40
2.0
 40
3.0
 40
3.0
 40
3.0
 40
4.0
 40
4.0
 40
4.0
 40
5.0
 40
5.0
 40
5.0
 40
6.0
 40
6.0
 40
6.0
 40
7.0
 40
7.0
 40
7.0
 40
8.0
 40
8.0
 40
8.0
 40
8.0
 10
1947.916188375669
 20
126.8949043045264
 10
1947.908303015907
 20
128.3120373562658
 10
1948.355685597176
 20
130.8298476066162
 10
1949.501740809517
 20
134.1986815898748
 10
1951.062744481836
 20
138.7603622127471
 10
1951.998870588036
 20
140.4276694614944
 10
1952.818055321147
 20
141.2392663955878
 10
1954.014844640642
 20
142.4210288974216
 10
1955.623755593032
 20
142.4799459250845
 10
1956.098364982539
 20
142.4210288974216
 10
1956.77382787544
 20
142.3399435941987
 10
1957.727956406759
 20
141.8978427161679
 10
1957.784939289575
 20
140.4095182560024
 10
1957.830466083678
 20
139.1357350935386
 10
1957.463424903768
 20
136.7501905946838
 10
1956.178706383896
 20
133.0053142189559
 10
1954.698044112936
 20
128.6536370924121
 10
1953.808635043822
 20
126.9429603649685
 10
1953.095679496951
 20
126.1974219164366
 10
1951.752490290537
 20
124.7997790935452
 10
1950.311998720255
 20
124.9339789898883
 10
1950.0993915674
 20
124.9339789898883
 10
1949.823255195324
 20
124.9339789898883
 10
1947.920056665365
 20
125.2336226608809
 10
1947.916188375669
 20
126.8949043045264
 97
        1
330
36AB
 75
     0
 76
     1
 98
        1
 10
1859.334883625664
 20
72.26751235270598
1001
ACAD
1010
0.0
1020
0.0
1030
0.0
  0
POLYLINE
  5
369C
102
{ACAD_REACTORS
330
369B
330
36AC
102
}
330
A
100
AcDbEntity
  8
TEMPLATE
100
AcDb2dPolyline
 66
     1
 10
0.0
 20
0.0
 30
0.0
  0
VERTEX
  5
369D
330
369C
100
AcDbEntity
  8
TEMPLATE
100
AcDbVertex
100
AcDb2dVertex
 10
1934.476782902687
 20
153.1053194253001
 30
0.0
  0
VERTEX
  5
369E
330
369C
100
AcDbEntity
  8
TEMPLATE
100
AcDbVertex
100
AcDb2dVertex
 10
1934.476782902687
 20
147.1959117946397
 30
0.0
  0
VERTEX
  5
369F
330
369C
100
AcDbEntity
  8
TEMPLATE
100
AcDbVertex
100
AcDb2dVertex
 10
1925.116191352377
 20
147.1959117946397
 30
0.0
  0
VERTEX
  5
36A0
330
369C
100
AcDbEntity
  8
TEMPLATE
100
AcDbVertex
100
AcDb2dVertex
 10
1925.116191352377
 20
123.105319426746
 30
0.0
  0
VERTEX
  5
36A1
330
369C
100
AcDbEntity
  8
TEMPLATE
100
AcDbVertex
100
AcDb2dVertex
 10
1916.883578199102
 20
123.105319426746
 30
0.0
  0
VERTEX
  5
36A2
330
369C
100
AcDbEntity
  8
TEMPLATE
100
AcDbVertex
100
AcDb2dVertex
 10
1916.883578199102
 20
147.1959117946397
 30
0.0
  0
VERTEX
  5
36A3
330
369C
100
AcDbEntity
  8
TEMPLATE
100
AcDbVertex
100
AcDb2dVertex
 10
1907.688876764557
 20
147.1959117946397
 30
0.0
  0
VERTEX
  5
36A4
330
369C
100
AcDbEntity
  8
TEMPLATE
100
AcDbVertex
100
AcDb2dVertex
 10
1907.688876764557
 20
153.1053194253001
 30
0.0
  0
VERTEX
  5
36A5
330
369C
100
AcDbEntity
  8
TEMPLATE
100
AcDbVertex
100
AcDb2dVertex
 10
1934.476782902687
 20
153.1053194253001
 30
0.0
  0
SEQEND
  5
36A6
330
369C
100
AcDbEntity
  8
TEMPLATE
  0
SPLINE
  5
36A7
102
{ACAD_REACTORS
330
369B
330
36AC
102
}
330
A
100
AcDbEntity
  8
TEMPLATE
100
AcDbSpline
210
0.0
220
0.0
230
1.0
 70
    11
 71
     3
 72
    56
 73
    52
 74
     0
 42
0.000000001
 43
0.0000000001
 40
0.0
 40
0.0
 40
0.0
 40
0.0
 40
1.0
 40
1.0
 40
1.0
 40
2.0
 40
2.0
 40
2.0
 40
3.0
 40
3.0
 40
3.0
 40
4.0
 40
4.0
 40
4.0
 40
5.0
 40
5.0
 40
5.0
 40
6.0
 40
6.0
 40
6.0
 40
7.0
 40
7.0
 40
7.0
 40
8.0
 40
8.0
 40
8.0
 40
9.0
 40
9.0
 40
9.0
 40
10.0
 40
10.0
 40
10.0
 40
11.0
 40
11.0
 40
11.0
 40
12.0
 40
12.0
 40
12.0
 40
13.0
 40
13.0
 40
13.0
 40
14.0
 40
14.0
 40
14.0
 40
15.0
 40
15.0
 40
15.0
 40
16.0
 40
16.0
 40
16.0
 40
17.0
 40
17.0
 40
17.0
 40
17.0
 10
1947.01896833698
 20
152.3909504648878
 30
0.0
 10
1948.1728345189
 20
152.715738018898
 30
0.0
 10
1949.662423612235
 20
152.4440650580081
 30
0.0
 10
1949.662423612235
 20
152.4440650580081
 30
0.0
 10
1949.662423612235
 20
152.4440650580081
 30
0.0
 10
1948.946790018651
 20
150.2964947655846
 30
0.0
 10
1948.946790018651
 20
150.2964947655846
 30
0.0
 10
1948.946790018651
 20
150.2964947655846
 30
0.0
 10
1947.484427733556
 20
150.6348957237139
 30
0.0
 10
1946.356523726704
 20
149.7454866546012
 30
0.0
 10
1945.480058550036
 20
149.0499384113589
 30
0.0
 10
1944.912238256914
 20
147.2017886193686
 30
0.0
 10
1944.69442379101
 20
146.4990989182278
 30
0.0
 10
1944.69442379101
 20
146.4990989182278
 30
0.0
 10
1943.723334297183
 20
143.518432927829
 30
0.0
 10
1943.723334297183
 20
143.518432927829
 30
0.0
 10
1943.723334297183
 20
143.518432927829
 30
0.0
 10
1946.907457447503
 20
143.518432927829
 30
0.0
 10
1946.907457447503
 20
143.518432927829
 30
0.0
 10
1946.907457447503
 20
143.518432927829
 30
0.0
 10
1946.412241976351
 20
141.642461206109
 30
0.0
 10
1946.412241976351
 20
141.642461206109
 30
0.0
 10
1946.412241976351
 20
141.642461206109
 30
0.0
 10
1943.202156650962
 20
141.642461206109
 30
0.0
 10
1943.202156650962
 20
141.642461206109
 30
0.0
 10
1943.202156650962
 20
141.642461206109
 30
0.0
 10
1937.458713526257
 20
123.105319426746
 30
0.0
 10
1937.458713526257
 20
123.105319426746
 30
0.0
 10
1937.458713526257
 20
123.105319426746
 30
0.0
 10
1935.660479549369
 20
123.105319426746
 30
0.0
 10
1935.660479549369
 20
123.105319426746
 30
0.0
 10
1935.660479549369
 20
123.105319426746
 30
0.0
 10
1941.409129987127
 20
141.642461206109
 30
0.0
 10
1941.409129987127
 20
141.642461206109
 30
0.0
 10
1941.409129987127
 20
141.642461206109
 30
0.0
 10
1939.040397670409
 20
141.642461206109
 30
0.0
 10
1939.040397670409
 20
141.642461206109
 30
0.0
 10
1939.040397670409
 20
141.642461206109
 30
0.0
 10
1939.536952164915
 20
143.518432927829
 30
0.0
 10
1939.536952164915
 20
143.518432927829
 30
0.0
 10
1939.536952164915
 20
143.518432927829
 30
0.0
 10
1941.930307633347
 20
143.518432927829
 30
0.0
 10
1941.930307633347
 20
143.518432927829
 30
0.0
 10
1941.930307633347
 20
143.518432927829
 30
0.0
 10
1942.77686795507
 20
146.1179236028939
 30
0.0
 10
1942.77686795507
 20
146.1179236028939
 30
0.0
 10
1943.461406450716
 20
148.2973328951149
 30
0.0
 10
1944.042245026465
 20
149.4674161376772
 30
0.0
 10
1944.540138544327
 20
150.3496093587049
 30
0.0
 10
1945.032750358952
 20
151.232546481597
 30
0.0
 10
1946.007708142475
 20
152.0998616653363
 30
0.0
 10
1947.01896833698
 20
152.3909504648878
 30
0.0
  0
SPLINE
  5
36A8
102
{ACAD_REACTORS
330
369B
330
36AC
102
}
330
A
100
AcDbEntity
  8
TEMPLATE
100
AcDbSpline
210
0.0
220
0.0
230
1.0
 70
    11
 71
     3
 72
    38
 73
    34
 74
     0
 42
0.000000001
 43
0.0000000001
 40
0.0
 40
0.0
 40
0.0
 40
0.0
 40
1.0
 40
1.0
 40
1.0
 40
2.0
 40
2.0
 40
2.0
 40
3.0
 40
3.0
 40
3.0
 40
4.0
 40
4.0
 40
4.0
 40
5.0
 40
5.0
 40
5.0
 40
6.0
 40
6.0
 40
6.0
 40
7.0
 40
7.0
 40
7.0
 40
8.0
 40
8.0
 40
8.0
 40
9.0
 40
9.0
 40
9.0
 40
10.0
 40
10.0
 40
10.0
 40
11.0
 40
11.0
 40
11.0
 40
11.0
 10
1966.542747159137
 20
143.4464976175386
 30
0.0
 10
1966.542747159137
 20
143.4464976175386
 30
0.0
 10
1968.39149207262
 20
143.4464976175386
 30
0.0
 10
1968.39149207262
 20
143.4464976175386
 30
0.0
 10
1968.39149207262
 20
143.4464976175386
 30
0.0
 10
1967.56561222273
 20
140.8022984404216
 30
0.0
 10
1967.56561222273
 20
140.8022984404216
 30
0.0
 10
1968.193167835563
 20
141.54456372075
 30
0.0
 10
1969.183598777865
 20
142.5331349083912
 30
0.0
 10
1970.034176169654
 20
143.0316235477459
 30
0.0
 10
1971.304760554101
 20
143.7738888280742
 30
0.0
 10
1972.030808773784
 20
143.8717863134333
 30
0.0
 10
1972.829313035064
 20
143.8522960845852
 30
0.0
 10
1972.829313035064
 20
143.8522960845852
 30
0.0
 10
1972.048959979278
 20
141.3520419182353
 30
0.0
 10
1972.048959979278
 20
141.3520419182353
 30
0.0
 10
1971.540726225497
 20
141.5672527276151
 30
0.0
 10
1969.974515240128
 20
141.1575859708734
 30
0.0
 10
1969.076030568268
 20
140.5112840310564
 30
0.0
 10
1968.265772657532
 20
139.9285113104618
 30
0.0
 10
1967.705614553615
 20
139.4326263276327
 30
0.0
 10
1967.04190531017
 20
138.1859955832205
 30
0.0
 10
1966.383254599404
 20
136.9375050841474
 30
0.0
 10
1965.86341597654
 20
134.9467493047458
 30
0.0
 10
1964.968799594376
 20
132.058773486655
 30
0.0
 10
1964.968799594376
 20
132.058773486655
 30
0.0
 10
1962.174852971949
 20
123.105319426746
 30
0.0
 10
1962.174852971949
 20
123.105319426746
 30
0.0
 10
1962.174852971949
 20
123.105319426746
 30
0.0
 10
1960.380561674943
 20
123.105319426746
 30
0.0
 10
1960.380561674943
 20
123.105319426746
 30
0.0
 10
1960.380561674943
 20
123.105319426746
 30
0.0
 10
1966.542747159137
 20
143.4464976175386
 30
0.0
 10
1966.542747159137
 20
143.4464976175386
 30
0.0
  0
SPLINE
  5
36A9
102
{ACAD_REACTORS
330
369B
330
36AC
102
}
330
A
100
AcDbEntity
  8
TEMPLATE
100
AcDbSpline
210
0.0
220
0.0
230
1.0
 70
    11
 71
     3
 72
   104
 73
   100
 74
     0
 42
0.000000001
 43
0.0000000001
 40
0.0
 40
0.0
 40
0.0
 40
0.0
 40
1.0
 40
1.0
 40
1.0
 40
2.0
 40
2.0
 40
2.0
 40
3.0
 40
3.0
 40
3.0
 40
4.0
 40
4.0
 40
4.0
 40
5.0
 40
5.0
 40
5.0
 40
6.0
 40
6.0
 40
6.0
 40
7.0
 40
7.0
 40
7.0
 40
8.0
 40
8.0
 40
8.0
 40
9.0
 40
9.0
 40
9.0
 40
10.0
 40
10.0
 40
10.0
 40
11.0
 40
11.0
 40
11.0
 40
12.0
 40
12.0
 40
12.0
 40
13.0
 40
13.0
 40
13.0
 40
14.0
 40
14.0
 40
14.0
 40
15.0
 40
15.0
 40
15.0
 40
16.0
 40
16.0
 40
16.0
 40
17.0
 40
17.0
 40
17.0
 40
18.0
 40
18.0
 40
18.0
 40
19.0
 40
19.0
 40
19.0
 40
20.0
 40
20.0
 40
20.0
 40
21.0
 40
21.0
 40
21.0
 40
22.0
 40
22.0
 40
22.0
 40
23.0
 40
23.0
 40
23.0
 40
24.0
 40
24.0
 40
24.0
 40
25.0
 40
25.0
 40
25.0
 40
26.0
 40
26.0
 40
26.0
 40
27.0
 40
27.0
 40
27.0
 40
28.0
 40
28.0
 40
28.0
 40
29.0
 40
29.0
 40
29.0
 40
30.0
 40
30.0
 40
30.0
 40
31.0
 40
31.0
 40
31.0
 40
32.0
 40
32.0
 40
32.0
 40
33.0
 40
33.0
 40
33.0
 40
33.0
 10
1976.718878323425
 20
143.4575073651321
 30
0.0
 10
1976.718878323425
 20
143.4575073651321
 30
0.0
 10
1978.332996588864
 20
143.4575073651321
 30
0.0
 10
1978.332996588864
 20
143.4575073651321
 30
0.0
 10
1978.332996588864
 20
143.4575073651321
 30
0.0
 10
1977.517531365076
 20
140.810778921676
 30
0.0
 10
1977.517531365076
 20
140.810778921676
 30
0.0
 10
1978.225279598895
 20
141.920531723033
 30
0.0
 10
1978.860571791119
 20
142.4151520726926
 30
0.0
 10
1979.704602846502
 20
143.054312554611
 30
0.0
 10
1980.551163168223
 20
143.6843974337833
 30
0.0
 10
1981.556025806694
 20
143.812794895584
 30
0.0
 10
1982.253508194784
 20
143.812794895584
 30
0.0
 10
1983.117029479015
 20
143.812794895584
 30
0.0
 10
1983.950645908296
 20
143.6422925882567
 30
0.0
 10
1984.388804106443
 20
142.6958262461422
 30
0.0
 10
1984.72460140805
 20
141.9536353560001
 30
0.0
 10
1984.740223347202
 20
141.8660781065566
 30
0.0
 10
1984.644260006691
 20
140.4010377747479
 30
0.0
 10
1985.521915426345
 20
141.9030500292188
 30
0.0
 10
1986.170151511008
 20
142.5500214807137
 30
0.0
 10
1987.272167732975
 20
143.1716258786317
 30
0.0
 10
1988.42863757142
 20
143.812794895584
 30
0.0
 10
1989.102761440966
 20
143.8607765658398
 30
0.0
 10
1989.885941323838
 20
143.7453229964802
 30
0.0
 10
1991.039733115569
 20
143.5748950793392
 30
0.0
 10
1991.776195961356
 20
143.1632197875635
 30
0.0
 10
1992.161239566385
 20
141.9121256319649
 30
0.0
 10
1992.54762219477
 20
140.6648997660613
 30
0.0
 10
1992.338883331611
 20
139.9959088193793
 30
0.0
 10
1991.861744675765
 20
138.0103603530286
 30
0.0
 10
1991.64393020986
 20
137.1060732466272
 30
0.0
 10
1991.328813380087
 20
136.0111240923725
 30
0.0
 10
1990.916542966819
 20
134.7082543670094
 30
0.0
 10
1990.916542966819
 20
134.7082543670094
 30
0.0
 10
1987.272167732975
 20
123.105319426746
 30
0.0
 10
1987.272167732975
 20
123.105319426746
 30
0.0
 10
1987.272167732975
 20
123.105319426746
 30
0.0
 10
1985.376705782409
 20
123.105319426746
 30
0.0
 10
1985.376705782409
 20
123.105319426746
 30
0.0
 10
1985.376705782409
 20
123.105319426746
 30
0.0
 10
1988.567449659321
 20
133.2490164697431
 30
0.0
 10
1988.567449659321
 20
133.2490164697431
 30
0.0
 10
1989.233836949479
 20
135.3713684889626
 30
0.0
 10
1989.684939040069
 20
136.9212880235028
 30
0.0
 10
1989.918375445127
 20
137.893047029008
 30
0.0
 10
1990.211323999339
 20
139.1052351170969
 30
0.0
 10
1990.327967811683
 20
139.505231149601
 30
0.0
 10
1990.189304504152
 20
140.3874987608153
 30
0.0
 10
1990.062246065708
 20
141.2087664191461
 30
0.0
 10
1989.647297605728
 20
141.7435574694851
 30
0.0
 10
1988.936871325198
 20
141.7435574694851
 30
0.0
 10
1988.17972800758
 20
141.7435574694851
 30
0.0
 10
1987.566455310545
 20
141.659273388245
 30
0.0
 10
1986.708290119737
 20
140.7971655175569
 30
0.0
 10
1985.84997614856
 20
139.9285113104618
 30
0.0
 10
1985.140740111011
 20
138.9088450248874
 30
0.0
 10
1984.584599077163
 20
137.7361581257997
 30
0.0
 10
1984.029648286297
 20
136.5563297688134
 30
0.0
 10
1983.466960916042
 20
135.0608638507494
 30
0.0
 10
1982.896536966398
 20
133.2490164697431
 30
0.0
 10
1982.896536966398
 20
133.2490164697431
 30
0.0
 10
1979.704602846502
 20
123.105319426746
 30
0.0
 10
1979.704602846502
 20
123.105319426746
 30
0.0
 10
1979.704602846502
 20
123.105319426746
 30
0.0
 10
1977.921916418581
 20
123.105319426746
 30
0.0
 10
1977.921916418581
 20
123.105319426746
 30
0.0
 10
1977.921916418581
 20
123.105319426746
 30
0.0
 10
1981.571498965475
 20
134.7030470539584
 30
0.0
 10
1981.571498965475
 20
134.7030470539584
 30
0.0
 10
1981.956542570504
 20
135.9373290274211
 30
0.0
 10
1982.245771615394
 20
136.9433819088763
 30
0.0
 10
1982.436359273062
 20
137.729686179579
 30
0.0
 10
1982.760402925207
 20
139.0832156219098
 30
0.0
 10
1982.851158952669
 20
139.9985124759046
 30
0.0
 10
1982.606117678524
 20
140.810778921676
 30
0.0
 10
1982.364944694076
 20
141.6204417109219
 30
0.0
 10
1981.941069411725
 20
141.8272464292334
 30
0.0
 10
1981.233172397533
 20
141.8272464292334
 30
0.0
 10
1980.639389929345
 20
141.8272464292334
 30
0.0
 10
1980.059890376953
 20
141.5724600406662
 30
0.0
 10
1979.398710399847
 20
141.0654909200569
 30
0.0
 10
1978.566284213549
 20
140.4276694614944
 30
0.0
 10
1978.233164958657
 20
139.9038881587491
 30
0.0
 10
1977.824762835085
 20
139.2815398589669
 30
0.0
 10
1977.273680333915
 20
138.458263665602
 30
0.0
 10
1977.015695167332
 20
137.9040567766015
 30
0.0
 10
1976.550310160944
 20
136.687926008631
 30
0.0
 10
1976.084776374184
 20
135.4646537827621
 30
0.0
 10
1975.644088909695
 20
134.0411231749885
 30
0.0
 10
1975.336708659311
 20
133.0564946672286
 30
0.0
 10
1975.336708659311
 20
133.0564946672286
 30
0.0
 10
1972.205774492298
 20
123.105319426746
 30
0.0
 10
1972.205774492298
 20
123.105319426746
 30
0.0
 10
1972.205774492298
 20
123.105319426746
 30
0.0
 10
1970.338878373326
 20
123.105319426746
 30
0.0
 10
1970.338878373326
 20
123.105319426746
 30
0.0
 10
1970.338878373326
 20
123.105319426746
 30
0.0
 10
1976.718878323425
 20
143.4575073651321
 30
0.0
 10
1976.718878323425
 20
143.4575073651321
 30
0.0
  0
SPLINE
  5
36AA
102
{ACAD_REACTORS
330
369B
330
36AC
102
}
330
A
100
AcDbEntity
  8
TEMPLATE
100
AcDbSpline
210
0.0
220
0.0
230
1.0
 70
    11
 71
     3
 72
    32
 73
    28
 74
     0
 42
0.000000001
 43
0.0000000001
 40
0.0
 40
0.0
 40
0.0
 40
0.0
 40
1.0
 40
1.0
 40
1.0
 40
2.0
 40
2.0
 40
2.0
 40
3.0
 40
3.0
 40
3.0
 40
4.0
 40
4.0
 40
4.0
 40
5.0
 40
5.0
 40
5.0
 40
6.0
 40
6.0
 40
6.0
 40
7.0
 40
7.0
 40
7.0
 40
8.0
 40
8.0
 40
8.0
 40
9.0
 40
9.0
 40
9.0
 40
9.0
 10
1951.394524713372
 20
142.3847264864374
 30
0.0
 10
1950.311998720255
 20
140.9844800070205
 30
0.0
 10
1949.478382290974
 20
139.7243102486757
 30
0.0
 10
1948.128795528524
 20
135.7635535518901
 30
0.0
 10
1946.888041608841
 20
132.1406026917421
 30
0.0
 10
1946.098464169936
 20
129.5048096056932
 30
0.0
 10
1945.979216701069
 20
126.2947242803041
 30
0.0
 10
1945.888460673606
 20
123.9059066132458
 30
0.0
 10
1947.343086379314
 20
123.105319426746
 30
0.0
 10
1949.475853024634
 20
123.105319426746
 30
0.0
 10
1950.395018168326
 20
123.105319426746
 30
0.0
 10
1952.714504181618
 20
123.1637901132903
 30
0.0
 10
1954.3662638814
 20
125.2056519507783
 30
0.0
 10
1955.522584939468
 20
126.6401923061455
 30
0.0
 10
1956.588298750451
 20
128.1272521331414
 30
0.0
 10
1958.017036671275
 20
133.0053142189559
 30
0.0
 10
1959.205940631009
 20
137.0833842397621
 30
0.0
 10
1960.029142434186
 20
139.7191029356247
 30
0.0
 10
1959.968291261677
 20
141.2197761667398
 30
0.0
 10
1959.968291261677
 20
141.2197761667398
 30
0.0
 10
1959.968291261677
 20
141.2197761667398
 30
0.0
 10
1959.968291261677
 20
141.2197761667398
 30
0.0
 10
1959.580569609936
 20
143.7233035012931
 30
0.0
 10
1957.762919794387
 20
144.2522921170894
 30
0.0
 10
1956.724432791643
 20
144.2522921170894
 30
0.0
 10
1955.70156772805
 20
144.2522921170894
 30
0.0
 10
1952.960735698745
 20
144.4292663706373
 30
0.0
 10
1951.394524713372
 20
142.3847264864374
 30
0.0
  0
SPLINE
  5
36AB
102
{ACAD_REACTORS
330
369B
330
36AC
102
}
330
A
100
AcDbEntity
  8
TEMPLATE
100
AcDbSpline
210
0.0
220
0.0
230
1.0
 70
    11
 71
     3
 72
    29
 73
    25
 74
     0
 42
0.000000001
 43
0.0000000001
 40
0.0
 40
0.0
 40
0.0
 40
0.0
 40
1.0
 40
1.0
 40
1.0
 40
2.0
 40
2.0
 40
2.0
 40
3.0
 40
3.0
 40
3.0
 40
4.0
 40
4.0
 40
4.0
 40
5.0
 40
5.0
 40
5.0
 40
6.0
 40
6.0
 40
6.0
 40
7.0
 40
7.0
 40
7.0
 40
8.0
 40
8.0
 40
8.0
 40
8.0
 10
1947.916188375669
 20
126.8949043045264
 30
0.0
 10
1947.908303015907
 20
128.3120373562658
 30
0.0
 10
1948.355685597176
 20
130.8298476066162
 30
0.0
 10
1949.501740809517
 20
134.1986815898748
 30
0.0
 10
1951.062744481836
 20
138.7603622127471
 30
0.0
 10
1951.998870588036
 20
140.4276694614944
 30
0.0
 10
1952.818055321147
 20
141.2392663955878
 30
0.0
 10
1954.014844640642
 20
142.4210288974216
 30
0.0
 10
1955.623755593032
 20
142.4799459250845
 30
0.0
 10
1956.098364982539
 20
142.4210288974216
 30
0.0
 10
1956.77382787544
 20
142.3399435941987
 30
0.0
 10
1957.727956406759
 20
141.8978427161679
 30
0.0
 10
1957.784939289575
 20
140.4095182560024
 30
0.0
 10
1957.830466083678
 20
139.1357350935386
 30
0.0
 10
1957.463424903768
 20
136.7501905946838
 30
0.0
 10
1956.178706383896
 20
133.0053142189559
 30
0.0
 10
1954.698044112936
 20
128.6536370924121
 30
0.0
 10
1953.808635043822
 20
126.9429603649685
 30
0.0
 10
1953.095679496951
 20
126.1974219164366
 30
0.0
 10
1951.752490290537
 20
124.7997790935452
 30
0.0
 10
1950.311998720255
 20
124.9339789898883
 30
0.0
 10
1950.0993915674
 20
124.9339789898883
 30
0.0
 10
1949.823255195324
 20
124.9339789898883
 30
0.0
 10
1947.920056665365
 20
125.2336226608809
 30
0.0
 10
1947.916188375669
 20
126.8949043045264
 30
0.0
  0
ARC
  5
3CAD
102
{ACAD_REACTORS
330
3D66
330
3D69
102
}
330
A
100
AcDbEntity
  8
MODEL
 48
0.5
100
AcDbCircle
 10
480.9975642804491
 20
1149.798299135062
 30
0.0
 40
17.5
100
AcDbArc
 50
180.0
 51
0.0
  0
CIRCLE
  5
3CAE
102
{ACAD_REACTORS
330
3D66
102
}
330
A
100
AcDbEntity
  8
MODEL
  6
HIDDEN
 48
0.5
100
AcDbCircle
 10
480.9975642804491
 20
1049.798299135062
 30
0.0
 40
16.0
  0
LINE
  5
3CAF
330
A
100
AcDbEntity
  8
MODEL
100
AcDbLine
 10
883.8621633107082
 20
753.7982991350632
 30
0.0
 11
883.862163310708
 21
849.7450200416245
 31
0.0
  0
LINE
  5
3CB0
330
A
100
AcDbEntity
  8
MODEL
100
AcDbLine
 10
883.8621633107082
 20
753.7982991350632
 30
0.0
 11
883.8621633107075
 21
1002.801889352348
 31
0.0
  0
LINE
  5
3CB1
330
A
100
AcDbEntity
  8
MODEL
100
AcDbLine
 10
413.9960041949284
 20
752.7978422205233
 30
0.0
 11
413.9960041949282
 21
849.7450200416245
 31
0.0
  0
LINE
  5
3CB2
330
A
100
AcDbEntity
  8
MODEL
100
AcDbLine
 10
413.9960041949284
 20
752.7978422205233
 30
0.0
 11
413.9960041949278
 21
1002.801889352348
 31
0.0
  0
LINE
  5
3CB3
330
A
100
AcDbEntity
  8
MODEL
100
AcDbLine
 10
879.8621633107091
 20
749.7982991350632
 30
0.0
 11
416.9960041949212
 21
749.7982991350618
 31
0.0
  0
ARC
  5
3CB4
330
A
100
AcDbEntity
  8
MODEL
100
AcDbCircle
 10
879.8621633107082
 20
753.7982991350632
 30
0.0
 40
4.0
100
AcDbArc
 50
270.000000000013
 51
0.0
  0
LINE
  5
3CB5
330
A
100
AcDbEntity
  8
MODEL
100
AcDbLine
 10
1689.125122716281
 20
755.7871105711652
 30
0.0
 11
1689.125122716281
 21
754.7877196223685
 31
0.0
  0
LINE
  5
3CB6
330
A
100
AcDbEntity
  8
MODEL
100
AcDbLine
 10
1686.177479935594
 20
751.7881765368925
 30
0.0
 11
1572.177479935594
 21
749.79829913507
 31
0.0
  0
LINE
  5
3CB7
330
A
100
AcDbEntity
  8
MODEL
100
AcDbLine
 10
1569.125122716281
 20
752.7978422205315
 30
0.0
 11
1569.125122716281
 21
753.7972331693572
 31
0.0
  0
LINE
  5
3CB8
102
{ACAD_REACTORS
330
3F45
102
}
330
A
100
AcDbEntity
  8
MODEL
100
AcDbLine
 10
1569.125122716281
 20
752.7978422205315
 30
0.0
 11
1569.125122716281
 21
789.0584610721103
 31
0.0
  0
LINE
  5
3CB9
330
A
100
AcDbEntity
  8
MODEL
100
AcDbLine
 10
1569.12512271628
 20
1097.827036173027
 30
0.0
 11
1569.12512271628
 21
1149.747479261496
 31
0.0
  0
LINE
  5
3CBA
330
A
100
AcDbEntity
  8
MODEL
100
AcDbLine
 10
1723.12512271628
 20
1118.496472783533
 30
0.0
 11
1723.12512271628
 21
1149.747479261496
 31
0.0
  0
LINE
  5
3CBB
330
A
100
AcDbEntity
  8
MODEL
100
AcDbLine
 10
1720.386589944523
 20
1115.507888689259
 30
0.0
 11
1720.386589944523
 21
1149.747479261496
 31
0.0
  0
LINE
  5
3CBC
330
A
100
AcDbEntity
  8
MODEL
100
AcDbLine
 10
1693.011485138544
 20
1113.112877355903
 30
0.0
 11
1720.386589944523
 21
1115.507888689259
 31
0.0
  0
LINE
  5
3CBD
330
A
100
AcDbEntity
  8
MODEL
100
AcDbLine
 10
1689.12512271628
 20
1149.747479261496
 30
0.0
 11
1689.12512271628
 21
1097.827036173027
 31
0.0
  0
LINE
  5
3CBE
330
A
100
AcDbEntity
  8
MODEL
100
AcDbLine
 10
1689.12512271628
 20
1097.827036173027
 30
0.0
 11
1689.125122716281
 21
754.7877196223685
 31
0.0
  0
ARC
  5
3CBF
330
A
100
AcDbEntity
  8
MODEL
100
AcDbCircle
 10
1686.125122716281
 20
754.7877196223685
 30
0.0
 40
3.0
100
AcDbArc
 50
270.9999999999931
 51
0.0
  0
ARC
  5
3CC0
330
A
100
AcDbEntity
  8
MODEL
100
AcDbCircle
 10
1572.125122716281
 20
752.7978422205315
 30
0.0
 40
3.0
100
AcDbArc
 50
180.0
 51
270.9999999999931
  0
ARC
  5
3CC1
330
A
100
AcDbEntity
  8
MODEL
100
AcDbCircle
 10
1720.12512271628
 20
1118.496472783533
 30
0.0
 40
3.0
100
AcDbArc
 50
274.9999999999912
 51
0.0
  0
ELLIPSE
  5
3CC2
330
A
100
AcDbEntity
  8
MODEL
100
AcDbEllipse
 10
416.9960041949212
 20
752.7978422205233
 30
0.0
 11
-3.0
 21
-8.476042572204118E-15
 31
0.0
210
0.0
220
0.0
230
1.0
 40
0.999847695156391
 41
0.0
 42
1.570796326794894
  0
SPLINE
  5
3CC3
330
A
100
AcDbEntity
  8
MODEL
100
AcDbSpline
210
0.0
220
0.0
230
1.0
 70
     8
 71
     3
 72
    30
 73
    26
 74
     0
 42
0.000000001
 43
0.0000000001
 40
0.0
 40
0.0
 40
0.0
 40
0.0
 40
0.0625
 40
0.125
 40
0.1875
 40
0.21875
 40
0.25
 40
0.28125
 40
0.3125
 40
0.34375
 40
0.375
 40
0.40625
 40
0.4375
 40
0.453125
 40
0.46875
 40
0.484375
 40
0.5
 40
0.53125
 40
0.5625
 40
0.59375
 40
0.625
 40
0.65625
 40
0.6875
 40
0.75
 40
0.7553931851320355
 40
0.7553931851320355
 40
0.7553931851320355
 40
0.7553931851320355
 10
825.7094618127935
 20
752.9169966197269
 30
0.0
 10
827.8074272555364
 20
752.9428412453899
 30
0.0
 10
832.003098100698
 20
753.0139420939277
 30
0.0
 10
838.2959987112022
 20
753.1508514880743
 30
0.0
 10
843.5394562907218
 20
753.290570924587
 30
0.0
 10
847.7333245684181
 20
753.4342938993695
 30
0.0
 10
850.8775904234985
 20
753.5699772087291
 30
0.0
 10
854.0199287817645
 20
753.7464785883103
 30
0.0
 10
857.1580988928667
 20
753.9880081530764
 30
0.0
 10
860.2871027694687
 20
754.3311974142025
 30
0.0
 10
863.3954176588863
 20
754.8344896236426
 30
0.0
 10
866.4544330408658
 20
755.5914904262804
 30
0.0
 10
868.9032807628951
 20
756.555869828449
 30
0.0
 10
870.7206330788517
 20
757.6112907380207
 30
0.0
 10
871.9827774351993
 20
758.5559602868211
 30
0.0
 10
873.117351919243
 20
759.6508354857265
 30
0.0
 10
874.43895444492
 20
761.2856962643032
 30
0.0
 10
875.72729838445
 20
763.584117114418
 30
0.0
 10
876.8168625633748
 20
766.5433352956074
 30
0.0
 10
877.600250430803
 20
769.594082115223
 30
0.0
 10
878.1803059947829
 20
772.6884094225729
 30
0.0
 10
878.6231839409934
 20
775.8048070250129
 30
0.0
 10
879.087054447858
 20
779.9756821659153
 30
0.0
 10
879.3500383011244
 20
783.2939604826738
 30
0.0
 10
879.502656000717
 20
844.5694562363017
 30
0.0
 10
879.514611952821
 20
849.7450200416245
 30
0.0
  0
SPLINE
  5
3CC4
330
A
100
AcDbEntity
  8
MODEL
100
AcDbSpline
210
0.0
220
0.0
230
1.0
 70
     8
 71
     3
 72
    10
 73
     6
 74
     0
 42
0.000000001
 43
0.0000000001
 40
0.7978064071919668
 40
0.7978064071919668
 40
0.7978064071919668
 40
0.7978064071919668
 40
0.8125
 40
0.875
 40
0.9243805097177306
 40
0.9243805097177306
 40
0.9243805097177306
 40
0.9243805097177306
 10
879.7685001495752
 20
897.8100013417667
 30
0.0
 10
879.7948970390371
 20
914.2851113359528
 30
0.0
 10
879.9288619127717
 20
993.146325938525
 30
0.0
 10
880.1133496943546
 20
997.3914609894546
 30
0.0
 10
880.2446894985712
 20
1001.145010934218
 30
0.0
 10
880.2969823301412
 20
1002.801889352357
 30
0.0
  0
SPLINE
  5
3CC5
330
A
100
AcDbEntity
  8
MODEL
100
AcDbSpline
210
0.0
220
0.0
230
1.0
 70
     8
 71
     3
 72
    12
 73
     8
 74
     0
 42
0.000000001
 43
0.0000000001
 40
0.0
 40
0.0
 40
0.0
 40
0.0
 40
0.3302631184266158
 40
0.3302631184266158
 40
0.665131559213308
 40
0.665131559213308
 40
1.0
 40
1.0
 40
1.0
 40
1.0
 10
1689.050693540849
 20
1111.647384526092
 30
0.0
 10
1689.433212920449
 20
1111.921329739984
 30
0.0
 10
1689.839952657574
 20
1112.161443346326
 30
0.0
 10
1690.695201045084
 20
1112.569376647676
 30
0.0
 10
1691.144198370414
 20
1112.736134556617
 30
0.0
 10
1692.064716550645
 20
1112.987096968675
 30
0.0
 10
1692.536221715367
 20
1113.071297194198
 30
0.0
 10
1693.011463976967
 20
1113.112875504521
 30
0.0
  0
LINE
  5
3CC6
330
A
100
AcDbEntity
  8
MODEL
100
AcDbLine
 10
539.011274195916
 20
772.7972118633479
 30
0.0
 11
539.0101100327586
 21
849.7450200416245
 31
0.0
  0
LINE
  5
3CC7
330
A
100
AcDbEntity
  8
MODEL
100
AcDbLine
 10
539.0112741959163
 20
772.7972118633515
 30
0.0
 11
539.0074644037818
 21
1002.801889352348
 31
0.0
  0
ARC
  5
3CC8
330
A
100
AcDbEntity
  8
MODEL
100
AcDbCircle
 10
559.0112741859825
 20
772.7978422205238
 30
0.0
 40
20.0
100
AcDbArc
 50
180.001805840278
 51
270.0
  0
LINE
  5
3CC9
330
A
100
AcDbEntity
  8
MODEL
100
AcDbLine
 10
825.7094618127935
 20
752.9169966197269
 30
0.0
 11
558.7657280896142
 21
752.7993495994638
 31
0.0
  0
LINE
  5
3CCA
330
A
100
AcDbEntity
  8
MODEL
100
AcDbLine
 10
880.4964206415145
 20
1002.801889352348
 30
0.0
 11
880.4964206415141
 21
1149.798299135062
 31
0.0
  0
ELLIPSE
  5
3CCB
330
A
100
AcDbEntity
  8
MODEL
100
AcDbEllipse
 10
542.064648637255
 20
1149.79765358695
 30
0.0
 11
3.390417028881647E-14
 21
-12.0
 31
0.0
210
0.0
220
0.0
230
1.0
 40
0.0874886635259221
 41
4.712335184708659
 42
7.854035429650514
  0
ARC
  5
3CCC
330
A
100
AcDbEntity
  8
MODEL
100
AcDbCircle
 10
623.9960041949278
 20
1149.798299135062
 30
0.0
 40
22.5
100
AcDbArc
 50
179.9999999997869
 51
359.9999999993701
  0
ARC
  5
3CCD
330
A
100
AcDbEntity
  8
MODEL
100
AcDbCircle
 10
623.9960041949278
 20
1149.798299135062
 30
0.0
 40
37.5
100
AcDbArc
 50
179.9999999997888
 51
359.9999999993719
  0
ARC
  5
3CCE
330
A
100
AcDbEntity
  8
MODEL
100
AcDbCircle
 10
623.9960041949278
 20
1149.798299135062
 30
0.0
 40
22.5
100
AcDbArc
 50
0.0000000002038088
 51
179.9999999997869
  0
ARC
  5
3CCF
330
A
100
AcDbEntity
  8
MODEL
100
AcDbCircle
 10
623.9960041949278
 20
1149.798299135062
 30
0.0
 40
37.5
100
AcDbArc
 50
0.0000000002056616
 51
179.9999999997888
  0
MTEXT
  5
3CE6
330
A
100
AcDbEntity
  8
notes
 62
     7
390
1D
100
AcDbMText
 10
1050.451347910501
 20
755.5379051482171
 30
0.0
 40
24.4326171875
 41
842.8831565639147
 46
0.0
 71
     1
 72
     1
  1
＝φ30もしくはφ35の水栓取付用穴あけ加工を承ります。\P   必要な場合、ご注文の際にご指示ください。
  7
ＭＳ ゴシック
 11
0.0
 21
1.0
 31
0.0
 73
     1
 44
1.043768984567712
  0
CIRCLE
  5
3CE7
330
A
100
AcDbEntity
  8
notes
  6
STYLE_23
 62
     7
370
    15
390
1D
100
AcDbCircle
 10
1062.995692012399
 20
731.0754359696723
 30
0.0
 40
17.50000000000011
  0
CIRCLE
  5
3CE8
330
A
100
AcDbEntity
  8
ADF70-0001
  6
STYLE_23
 62
     7
370
    15
390
1D
100
AcDbCircle
 10
1614.125122716281
 20
1009.747479261496
 30
0.0
 40
10.0
  0
LINE
  5
3CE9
102
{ACAD_REACTORS
330
3D4D
102
}
330
A
100
AcDbEntity
  8
0
  6
STYLE_23
 62
     7
370
    15
390
1D
100
AcDbLine
 10
1599.156202647238
 20
1009.523634441319
 30
0.0
 11
1629.156202647237
 21
1009.523634441319
 31
0.0
  0
MTEXT
  5
3CEC
330
A
100
AcDbEntity
  8
notes
 62
     7
390
1D
100
AcDbMText
 10
1484.716735785393
 20
1371.43948151937
 30
0.0
 40
24.4326171875
 41
0.0
 46
27.0478879530996
 71
     1
 72
     1
  1
{壁取付ボルト穴(2ヶ所）}
  7
ＭＳ ゴシック
 11
0.0
 21
1.0
 31
0.0
 73
     1
 44
0.7828267384257843
1001
ACAD
1000
ACAD_MTEXT_DEFINED_HEIGHT_BEGIN
1070
    46
1040
27.0478879530996
1000
ACAD_MTEXT_DEFINED_HEIGHT_END
  0
LINE
  5
3CED
330
A
100
AcDbEntity
  8
notes
  6
Continuous
 62
     7
370
     5
390
1D
100
AcDbLine
 10
1614.156202647237
 20
1289.971324081673
 30
0.0
 11
1516.820160893433
 21
1387.307365835478
 31
0.0
  0
LINE
  5
3CEE
330
A
100
AcDbEntity
  8
MODEL
100
AcDbLine
 10
1642.16337162305
 20
2564.492727316815
 30
0.0
 11
1572.350142196233
 21
2564.574970675927
 31
0.0
  0
LINE
  5
3CEF
330
A
100
AcDbEntity
  8
MODEL
100
AcDbLine
 10
1569.346610135357
 20
2561.578506900199
 30
0.0
 11
1569.207206264154
 21
2443.243913708352
 31
0.0
  0
LINE
  5
3CF0
330
A
100
AcDbEntity
  8
MODEL
100
AcDbLine
 10
1692.881152895058
 20
2317.792544534219
 30
0.0
 11
1720.323780701253
 21
2320.160890526809
 31
0.0
  0
LINE
  5
3CF1
330
A
100
AcDbEntity
  8
MODEL
100
AcDbLine
 10
1723.065832266831
 20
2323.146246425561
 30
0.0
 11
1723.076730392104
 21
2332.397246484244
 31
0.0
  0
LINE
  5
3CF2
330
A
100
AcDbEntity
  8
MODEL
100
AcDbLine
 10
1568.800231693893
 20
2097.778828730193
 30
0.0
 11
1568.800186151019
 21
2097.740169132859
 31
0.0
  0
LINE
  5
3CF3
102
{ACAD_REACTORS
330
3D17
102
}
330
A
100
AcDbEntity
  8
MODEL
100
AcDbLine
 10
1723.128564483143
 20
2376.397215952731
 30
0.0
 11
1723.076730392104
 21
2332.397246484244
 31
0.0
  0
LINE
  5
3CF4
330
A
100
AcDbEntity
  8
MODEL
100
AcDbLine
 10
1689.213066451546
 20
2448.14771887965
 30
0.0
 11
1689.34652686757
 21
2561.437141197362
 31
0.0
  0
LINE
  5
3CF5
330
A
100
AcDbEntity
  8
MODEL
100
AcDbLine
 10
1688.807141112657
 20
2103.573286122607
 30
0.0
 11
1689.057895397915
 21
2316.428969980047
 31
0.0
  0
LINE
  5
3CF6
330
A
100
AcDbEntity
  8
MODEL
100
AcDbLine
 10
1689.213070875586
 20
2448.151474277898
 30
0.0
 11
1689.34652686757
 21
2561.437141197362
 31
0.0
  0
LINE
  5
3CF7
102
{ACAD_REACTORS
330
3D17
102
}
330
A
100
AcDbEntity
  8
MODEL
100
AcDbLine
 10
1686.350063091835
 20
2564.440673258232
 30
0.0
 11
1681.350066561326
 21
2564.446563495848
 31
0.0
  0
ARC
  5
3CF8
102
{ACAD_REACTORS
330
3D11
102
}
330
A
100
AcDbEntity
  8
MODEL
100
AcDbCircle
 10
1572.346608053662
 20
2561.574972757629
 30
0.0
 40
3.000000000000001
100
AcDbArc
 50
89.93250283319921
 51
179.9325028332339
  0
ARC
  5
3CF9
330
A
100
AcDbEntity
  8
MODEL
100
AcDbCircle
 10
1720.06583434854
 20
2323.149780568132
 30
0.0
 40
3.000000000000001
100
AcDbArc
 50
274.9325028332887
 51
359.9325028332165
  0
ARC
  5
3CFA
330
A
100
AcDbEntity
  8
MODEL
100
AcDbCircle
 10
1686.346528949265
 20
2561.440675339933
 30
0.0
 40
3.000000000000001
100
AcDbArc
 50
359.9325028332165
 51
89.93250283323394
  0
SPLINE
  5
3CFB
330
A
100
AcDbEntity
  8
MODEL
100
AcDbSpline
210
0.0
220
0.0
230
1.0
 70
     8
 71
     3
 72
    12
 73
     8
 74
     0
 42
0.000000001
 43
0.0000000001
 40
0.6393546353257522
 40
0.6393546353257522
 40
0.6393546353257522
 40
0.6393546353257522
 40
0.75
 40
0.75
 40
0.875
 40
0.875
 40
1.0
 40
1.0
 40
1.0
 40
1.0
 10
1689.057895397921
 20
2316.428969980052
 30
0.0
 10
1689.404512389406
 20
2316.665621037996
 30
0.0
 10
1689.76977051627
 20
2316.874966876289
 30
0.0
 10
1690.577833485549
 20
2317.257067317064
 30
0.0
 10
1691.024536860634
 20
2317.421544428913
 30
0.0
 10
1691.940007336963
 20
2317.668900900846
 30
0.0
 10
1692.40875921084
 20
2317.751776146551
 30
0.0
 10
1692.881152895058
 20
2317.792544534219
 30
0.0
  0
LINE
  5
3CFC
330
A
100
AcDbEntity
  8
MODEL
100
AcDbLine
 10
1642.16337162305
 20
2564.492727316822
 30
0.0
 11
1681.350066561326
 21
2564.446563495856
 31
0.0
  0
LINE
  5
3CFD
102
{ACAD_REACTORS
330
3D0E
330
3D14
102
}
330
A
100
AcDbEntity
  8
MODEL
100
AcDbLine
 10
1569.207206264154
 20
2443.243913708352
 30
0.0
 11
1568.800153755311
 21
2097.712669660316
 31
0.0
  0
LINE
  5
3CFE
330
A
100
AcDbEntity
  8
HIDDEN
 48
0.5
100
AcDbLine
 10
1674.111105235617
 20
2393.83071696125
 30
0.0
 11
1674.313869289751
 21
2314.357174083423
 31
0.0
  0
LINE
  5
3CFF
330
A
100
AcDbEntity
  8
HIDDEN
 48
0.5
100
AcDbLine
 10
1686.631435615761
 20
2376.721288168768
 30
0.0
 11
1686.578939281444
 21
2332.159165812588
 31
0.0
  0
LINE
  5
3D00
330
A
100
AcDbEntity
  8
MODEL
100
AcDbLine
 10
1685.960621654983
 20
2100.580748777026
 30
0.0
 11
1571.953662529955
 21
2094.740563502138
 31
0.0
  0
ARC
  5
3D01
330
A
100
AcDbEntity
  8
MODEL
100
AcDbCircle
 10
1571.800184069325
 20
2097.736634990288
 30
0.0
 40
3.000000000000001
100
AcDbArc
 50
179.9325028332166
 51
272.9325028332205
  0
ARC
  5
3D02
102
{ACAD_REACTORS
330
3D0E
102
}
330
A
100
AcDbEntity
  8
MODEL
100
AcDbCircle
 10
1685.807143194352
 20
2103.576820265178
 30
0.0
 40
3.000000000000001
100
AcDbArc
 50
272.9325028332205
 51
359.9325028332165
  0
SOLID
  5
3D03
330
A
100
AcDbEntity
  8
MODEL
 48
0.5
100
AcDbTrace
 10
1569.207206252765
 20
2443.243904039935
 30
0.0
 11
1569.207204481852
 21
2443.243913710452
 31
0.0
 12
1569.346610135357
 22
2561.578506900199
 32
0.0
 13
1569.346610135357
 23
2561.578506900199
 33
0.0
1001
GradientColor1ACI
1070
     5
1001
GradientColor2ACI
1070
     2
1001
ACAD
1010
0.0
1020
0.0
1030
0.0
  0
SOLID
  5
3D04
330
A
100
AcDbEntity
  8
MODEL
 48
0.5
100
AcDbTrace
 10
1569.207206252765
 20
2443.243904039935
 30
0.0
 11
1569.346610135357
 21
2561.578506900199
 31
0.0
 12
1569.237546766868
 22
2443.078222008381
 32
0.0
 13
1569.237546766868
 23
2443.078222008381
 33
0.0
1001
GradientColor1ACI
1070
     5
1001
GradientColor2ACI
1070
     2
1001
ACAD
1010
0.0
1020
0.0
1030
0.0
  0
SOLID
  5
3D05
330
A
100
AcDbEntity
  8
MODEL
 48
0.5
100
AcDbTrace
 10
1569.237546766868
 20
2443.078222008381
 30
0.0
 11
1569.346610135357
 21
2561.578506900199
 31
0.0
 12
1569.377648749454
 22
2562.005415146289
 32
0.0
 13
1569.377648749454
 23
2562.005415146289
 33
0.0
1001
GradientColor1ACI
1070
     5
1001
GradientColor2ACI
1070
     2
1001
ACAD
1010
0.0
1020
0.0
1030
0.0
  0
SOLID
  5
3D06
330
A
100
AcDbEntity
  8
MODEL
  6
Continuous
 48
0.5
100
AcDbTrace
 10
1568.827295354938
 20
2097.334226377218
 30
0.0
 11
1568.800486605355
 21
2097.779239270013
 31
0.0
 12
1568.828053928694
 22
2097.978150509191
 32
0.0
 13
1568.828053928694
 23
2097.978150509191
 33
0.0
1001
GradientColor1ACI
1070
     5
1001
GradientColor2ACI
1070
     2
1001
ACAD
1010
0.0
1020
0.0
1030
0.0
  0
SPLINE
  5
3D07
330
A
100
AcDbEntity
  8
MODEL
100
AcDbSpline
210
0.0
220
0.0
230
1.0
 70
  1064
 71
     3
 72
    58
 73
    54
 74
    52
 42
0.000000001
 43
0.0000000001
 44
0.0
 40
0.0
 40
0.0
 40
0.0
 40
0.0
 40
2.181573269524199
 40
4.774863402890878
 40
8.118776497863998
 40
11.58365721046656
 40
13.74254796859302
 40
16.52919689786652
 40
18.42378080363168
 40
21.20544413753572
 40
23.85496459340485
 40
27.26665500511476
 40
30.65300899261229
 40
34.9011973263831
 40
38.72284017638936
 40
41.63285502458648
 40
44.71714675299511
 40
46.68974261672283
 40
49.51118396705833
 40
52.84771193670227
 40
57.26302001683031
 40
60.32261489449319
 40
62.58208794505075
 40
63.60468620595913
 40
64.52638590047441
 40
65.47876748352641
 40
66.25703850728199
 40
66.69298633206883
 40
67.00030225984986
 40
67.5646808414378
 40
67.78265475383104
 40
68.21745033220066
 40
68.58028931301364
 40
68.87121874852576
 40
69.35719106627683
 40
69.66803657332369
 40
70.06521938640171
 40
70.59182187430791
 40
70.9521650644558
 40
71.39559329784338
 40
71.75345925573284
 40
72.2837384342689
 40
72.72716666765707
 40
73.17059490104432
 40
73.67260682595227
 40
73.93965906185622
 40
74.28175489097553
 40
74.85700241525183
 40
75.66892483654331
 40
77.89647328592243
 40
79.9838323722506
 40
83.13511486935182
 40
83.53319378272793
 40
83.53319378272793
 40
83.53319378272793
 40
83.53319378272793
 10
1689.294527098989
 20
2448.085622418251
 30
0.0
 10
1689.85581771647
 20
2447.623163448006
 30
0.0
 10
1691.084328381336
 20
2446.610968055256
 30
0.0
 10
1693.091939112115
 20
2444.79486789197
 30
0.0
 10
1695.338484136224
 20
2442.608340383235
 30
0.0
 10
1697.374575956691
 20
2440.417845220046
 30
0.0
 10
1699.201365138406
 20
2438.290811280856
 30
0.0
 10
1700.623230043191
 20
2436.507544868511
 30
0.0
 10
1702.110153948763
 20
2434.512890355665
 30
0.0
 10
1703.503238086492
 20
2432.506624483503
 30
0.0
 10
1705.099262927292
 20
2430.027502149032
 30
0.0
 10
1706.664479878569
 20
2427.293242075735
 30
0.0
 10
1708.366770679308
 20
2424.027187325218
 30
0.0
 10
1709.933322050321
 20
2420.541122378168
 30
0.0
 10
1711.224913464843
 20
2417.1150258977
 30
0.0
 10
1712.25373224742
 20
2414.007982259357
 30
0.0
 10
1712.959277906266
 20
2411.446722745554
 30
0.0
 10
1713.580204786015
 20
2408.894818891583
 30
0.0
 10
1714.119646488552
 20
2406.238070775739
 30
0.0
 10
1714.717645602291
 20
2402.76466176876
 30
0.0
 10
1715.342754918451
 20
2399.215579865469
 30
0.0
 10
1715.901447694865
 20
2396.019027609304
 30
0.0
 10
1716.266879214217
 20
2393.937425168297
 30
0.0
 10
1716.507370223152
 20
2392.556181106205
 30
0.0
 10
1716.677123038652
 20
2391.607734105802
 30
0.0
 10
1716.81821848164
 20
2390.727469403059
 30
0.0
 10
1717.161723089968
 20
2390.079081131884
 30
0.0
 10
1717.481697855894
 20
2389.683766502202
 30
0.0
 10
1717.797609179231
 20
2389.383147225803
 30
0.0
 10
1718.091626745622
 20
2389.163336969871
 30
0.0
 10
1718.459324581195
 20
2388.990703720134
 30
0.0
 10
1718.772981220833
 20
2388.862998703561
 30
0.0
 10
1719.12293161157
 20
2388.761356399371
 30
0.0
 10
1719.500950424478
 20
2388.716922757425
 30
0.0
 10
1719.862188020977
 20
2388.687981400405
 30
0.0
 10
1720.258843004748
 20
2388.654713865859
 30
0.0
 10
1720.667629139058
 20
2388.605600051457
 30
0.0
 10
1721.085782930937
 20
2388.503985952459
 30
0.0
 10
1721.494933106636
 20
2388.32920795118
 30
0.0
 10
1721.826744697795
 20
2388.128317607323
 30
0.0
 10
1722.187902032078
 20
2387.867550960004
 30
0.0
 10
1722.480772301682
 20
2387.529273558242
 30
0.0
 10
1722.749488425134
 20
2387.139552109253
 30
0.0
 10
1722.944925398783
 20
2386.718096548045
 30
0.0
 10
1723.071197686255
 20
2386.332176666232
 30
0.0
 10
1723.128668594152
 20
2385.965404616913
 30
0.0
 10
1723.145140127436
 20
2385.570443241348
 30
0.0
 10
1723.136182240455
 20
2384.994101848108
 30
0.0
 10
1723.138318083017
 20
2383.789158395266
 30
0.0
 10
1723.1495458867
 20
2382.08013080789
 30
0.0
 10
1723.070789914201
 20
2379.591936479974
 30
0.0
 10
1723.131835070092
 20
2377.713028411905
 30
0.0
 10
1723.128894304899
 20
2376.529908824816
 30
0.0
 10
1723.128564483143
 20
2376.397215952731
 30
0.0
 11
1689.294527098989
 21
2448.085622418251
 31
0.0
 11
1690.968424528728
 21
2446.686576555881
 31
0.0
 11
1692.89687964105
 21
2444.952732677218
 31
0.0
 11
1695.290047840508
 21
2442.617245414175
 31
0.0
 11
1697.65008717708
 21
2440.080394476024
 31
0.0
 11
1699.056215816618
 21
2438.442221238972
 31
0.0
 11
1700.794350536255
 21
2436.264079840574
 31
0.0
 11
1701.926440551746
 21
2434.744928639143
 31
0.0
 11
1703.514582844019
 21
2432.461191578385
 31
0.0
 11
1704.944544989306
 21
2430.23068336071
 31
0.0
 11
1706.648870516235
 21
2427.275195928219
 31
0.0
 11
1708.207876659642
 21
2424.269053354511
 31
0.0
 11
1709.94891229808
 21
2420.394017996624
 31
0.0
 11
1711.30433242662
 21
2416.820813503714
 31
0.0
 11
1712.212507786411
 21
2414.056142830271
 31
0.0
 11
1713.039397156949
 21
2411.084761091951
 31
0.0
 11
1713.503184307
 21
2409.167461970519
 31
0.0
 11
1714.072816383749
 21
2406.404121493755
 31
0.0
 11
1714.658444328994
 21
2403.119390332463
 31
0.0
 11
1715.420031571874
 21
2398.770260498355
 31
0.0
 11
1715.947774684002
 21
2395.756523943342
 31
0.0
 11
1716.337506458028
 21
2393.530916698002
 31
0.0
 11
1716.513892290221
 21
2392.523645512365
 31
0.0
 11
1716.672874340028
 21
2391.61576058865
 31
0.0
 11
1716.88269372098
 21
2390.68677915336
 31
0.0
 11
1717.241813013999
 21
2389.996316178394
 31
0.0
 11
1717.516749856211
 21
2389.657996449837
 31
0.0
 11
1717.738564847614
 21
2389.445296687127
 31
0.0
 11
1718.198234926522
 21
2389.117841954512
 31
0.0
 11
1718.394313674882
 21
2389.022627717522
 31
0.0
 11
1718.798200477721
 21
2388.861622607472
 31
0.0
 11
1719.148101411383
 21
2388.765594160542
 31
0.0
 11
1719.436306803218
 21
2388.725875291416
 31
0.0
 11
1719.920379617118
 21
2388.68294972254
 31
0.0
 11
1720.23001013266
 21
2388.65549297298
 31
0.0
 11
1720.623844610355
 21
2388.604028507732
 31
0.0
 11
1721.134267268182
 21
2388.474495150461
 31
0.0
 11
1721.465842166633
 21
2388.33340900159
 31
0.0
 11
1721.847647470312
 21
2388.107902220655
 31
0.0
 11
1722.133744218118
 21
2387.892921536148
 31
0.0
 11
1722.49111737366
 21
2387.50115574529
 31
0.0
 11
1722.738646050648
 21
2387.133245223241
 31
0.0
 11
1722.929075201215
 21
2386.732788812655
 31
0.0
 11
1723.078489037876
 21
2386.253527424513
 31
0.0
 11
1723.120360045477
 21
2385.989778082478
 31
0.0
 11
1723.13946260843
 21
2385.648216011414
 31
0.0
 11
1723.138784939494
 21
2385.072968886301
 31
0.0
 11
1723.137828456297
 21
2384.261047028401
 31
0.0
 11
1723.135204298362
 21
2382.033500124714
 31
0.0
 11
1723.099793209559
 21
2379.946441426434
 31
0.0
 11
1723.129033439021
 21
2376.795294589881
 31
0.0
 11
1723.128564483143
 21
2376.397215952731
 31
0.0
  0
LINE
  5
3D08
330
A
100
AcDbEntity
  8
MODEL
100
AcDbLine
 10
1569.595675643332
 20
2513.576620095243
 30
0.0
 11
1577.968052023104
 21
2513.566757031138
 31
0.0
  0
LINE
  5
3D09
330
A
100
AcDbEntity
  8
MODEL
100
AcDbLine
 10
1569.252363290664
 20
2481.57700232903
 30
0.0
 11
1578.511912141596
 21
2481.566094132867
 31
0.0
  0
SPLINE
  5
3D0A
330
A
100
AcDbEntity
  8
HIDDEN
 48
0.5
100
AcDbSpline
210
0.0
220
0.0
230
1.0
 70
  1064
 71
     3
 72
    76
 73
    72
 74
    70
 42
0.000000001
 43
0.0000000001
 44
0.0
 40
0.0
 40
0.0
 40
0.0
 40
0.0
 40
0.8699984819625878
 40
1.672368215577311
 40
2.698297178397293
 40
3.436685089751806
 40
4.371828940302937
 40
5.30145552856997
 40
6.424750254830125
 40
9.692795139278179
 40
13.06492036044209
 40
59.3172728978149
 40
64.96719174310996
 40
66.70412478714537
 40
69.43669115622296
 40
72.03340624955047
 40
76.2099787496605
 40
79.2704726932567
 40
83.73627183253339
 40
87.70771895645076
 40
90.2431889250338
 40
93.35746234660668
 40
96.45350750935398
 40
98.69662244723081
 40
100.206687736877
 40
103.343465133522
 40
104.997508363578
 40
106.7131273950184
 40
108.3110461903928
 40
110.761155658582
 40
113.9037164111698
 40
116.0868943184493
 40
118.0048753075617
 40
121.6458347318245
 40
125.3662611099484
 40
129.0664477721172
 40
131.9753057074662
 40
134.6009552320293
 40
136.8432022987666
 40
139.3473174993042
 40
141.7502953429203
 40
143.3921777384333
 40
145.2581426941951
 40
147.1696986293324
 40
149.1673363770934
 40
150.8172063010676
 40
151.4106588934416
 40
152.1660984627554
 40
152.7932822505888
 40
153.3026637511368
 40
153.7371056786042
 40
154.0602912614615
 40
154.2799672440211
 40
154.9848165430025
 40
156.1633973611908
 40
157.4336930576846
 40
159.6860905833662
 40
161.0349285085856
 40
162.9075561329916
 40
164.4135556514039
 40
166.1553052731808
 40
168.0540776438156
 40
169.5600925893767
 40
172.3363260956893
 40
175.0863685743289
 40
178.1769715484727
 40
181.3068610641286
 40
183.9520931506265
 40
186.6235934005386
 40
188.7058109549318
 40
189.8402696973127
 40
189.8402696973127
 40
189.8402696973127
 40
189.8402696973127
 10
1569.237546766868
 20
2443.078222008381
 30
0.0
 10
1569.256322177942
 20
2442.787065626354
 30
0.0
 10
1569.292413506105
 20
2442.227385708333
 30
0.0
 10
1569.629709095222
 20
2441.381631156147
 30
0.0
 10
1570.105694949619
 20
2440.661763507082
 30
0.0
 10
1570.760906714517
 20
2440.037131880486
 30
0.0
 10
1571.50674582855
 20
2439.578744273499
 30
0.0
 10
1572.463016385664
 20
2439.263664711267
 30
0.0
 10
1574.240743636919
 20
2439.155584954111
 30
0.0
 10
1576.81126239281
 20
2438.89539192766
 30
0.0
 10
1594.38354129026
 20
2437.382651523193
 30
0.0
 10
1612.733022014746
 20
2435.776907145422
 30
0.0
 10
1630.53053546542
 20
2434.059867860053
 30
0.0
 10
1633.885876774379
 20
2433.7138283051
 30
0.0
 10
1636.227733933736
 20
2433.461281601847
 30
0.0
 10
1639.375185486346
 20
2433.095658278659
 30
0.0
 10
1642.625605705669
 20
2432.668332426945
 30
0.0
 10
1646.477229069534
 20
2432.047818625402
 30
0.0
 10
1650.2317186969
 20
2431.26073901766
 30
0.0
 10
1653.734944283871
 20
2430.185405392208
 30
0.0
 10
1656.700514977228
 20
2428.956476888591
 30
0.0
 10
1659.286443647407
 20
2427.599352888195
 30
0.0
 10
1661.640376083781
 20
2426.041649235673
 30
0.0
 10
1663.428362525111
 20
2424.618125145814
 30
0.0
 10
1665.129073332621
 20
2423.074233621382
 30
0.0
 10
1666.561353820349
 20
2421.526088286597
 30
0.0
 10
1667.81583345568
 20
2419.752936357888
 30
0.0
 10
1668.62906119715
 20
2418.306988522508
 30
0.0
 10
1669.411256579283
 20
2416.549990835288
 30
0.0
 10
1670.186075644092
 20
2414.278233505302
 30
0.0
 10
1670.832643448377
 20
2411.766580463132
 30
0.0
 10
1671.350730271847
 20
2409.408153785953
 30
0.0
 10
1671.858242923851
 20
2406.877744333775
 30
0.0
 10
1672.418874834247
 20
2403.835667817521
 30
0.0
 10
1673.039873453455
 20
2400.201252527414
 30
0.0
 10
1673.639989949189
 20
2396.810361526332
 30
0.0
 10
1674.058569190245
 20
2393.760162832464
 30
0.0
 10
1674.747736950482
 20
2391.244800386301
 30
0.0
 10
1675.915289682479
 20
2389.057886991541
 30
0.0
 10
1677.466324972447
 20
2387.239466012707
 30
0.0
 10
1678.862226710572
 20
2385.56331533859
 30
0.0
 10
1680.127874599686
 20
2384.052896858093
 30
0.0
 10
1681.287250481281
 20
2382.66766862933
 30
0.0
 10
1682.522620373098
 20
2381.191238417628
 30
0.0
 10
1683.713377976475
 20
2379.771541967652
 30
0.0
 10
1684.617379796081
 20
2378.68450337498
 30
0.0
 10
1685.264483036643
 20
2377.922929531474
 30
0.0
 10
1685.66938721373
 20
2377.401812991346
 30
0.0
 10
1686.147067223938
 20
2376.982568385545
 30
0.0
 10
1686.603676609307
 20
2376.720850039839
 30
0.0
 10
1686.999480850024
 20
2376.569332353595
 30
0.0
 10
1687.316612886485
 20
2376.492359479776
 30
0.0
 10
1687.728456853191
 20
2376.430299438635
 30
0.0
 10
1688.432061051031
 20
2376.44372012438
 30
0.0
 10
1689.481937652895
 20
2376.434915142193
 30
0.0
 10
1691.049561247729
 20
2376.436026311089
 30
0.0
 10
1692.673185954107
 20
2376.432905214607
 30
0.0
 10
1694.49785008195
 20
2376.431001743887
 30
0.0
 10
1696.073657862572
 20
2376.429074292049
 30
0.0
 10
1697.780452096397
 20
2376.427081149759
 30
0.0
 10
1699.49595715299
 20
2376.425055081226
 30
0.0
 10
1701.211468542525
 20
2376.423035608173
 30
0.0
 10
1703.271807318545
 20
2376.420608049682
 30
0.0
 10
1705.615902698231
 20
2376.417846755131
 30
0.0
 10
1708.488193682057
 20
2376.414463005036
 30
0.0
 10
1711.478369932827
 20
2376.4109404486
 30
0.0
 10
1714.433609406849
 20
2376.407459029349
 30
0.0
 10
1717.249148070684
 20
2376.40414218968
 30
0.0
 10
1719.715462989535
 20
2376.401236751245
 30
0.0
 10
1721.678187143174
 20
2376.398924567355
 30
0.0
 10
1722.750411831416
 20
2376.397661434836
 30
0.0
 10
1723.128564483143
 20
2376.397215952731
 30
0.0
 11
1569.237546766868
 21
2443.078222008381
 31
0.0
 11
1569.340680848967
 21
2442.214358176677
 31
0.0
 11
1569.623047747639
 21
2441.463314819769
 31
0.0
 11
1570.193185179796
 21
2440.610394222523
 31
0.0
 11
1570.727417661138
 21
2440.100676297084
 31
0.0
 11
1571.524044509005
 21
2439.610901158392
 31
0.0
 11
1572.40695912178
 21
2439.319924561117
 31
0.0
 11
1573.523325369669
 21
2439.195355533595
 31
0.0
 11
1576.7786048547
 21
2438.906785193637
 31
0.0
 11
1580.137550140276
 21
2438.608934432825
 31
0.0
 11
1626.204824055852
 21
2434.475365850025
 31
0.0
 11
1631.827889594628
 21
2433.925168698951
 31
0.0
 11
1633.555643179728
 21
2433.746832082866
 31
0.0
 11
1636.272323690059
 21
2433.452611134936
 31
0.0
 11
1638.851516218012
 21
2433.151454730942
 31
0.0
 11
1642.991091734497
 21
2432.596772486777
 31
0.0
 11
1646.011511439325
 21
2432.103124853868
 31
0.0
 11
1650.375950022069
 21
2431.157060474547
 31
0.0
 11
1654.166659250243
 21
2429.972613006101
 31
0.0
 11
1656.507821315358
 21
2428.999181885552
 31
0.0
 11
1659.264943416348
 21
2427.55108773649
 31
0.0
 11
1661.846626710458
 21
2425.842167896742
 31
0.0
 11
1663.600674124986
 21
2424.443996844219
 31
0.0
 11
1664.717955940258
 21
2423.42813340642
 31
0.0
 11
1666.827527243942
 21
2421.106693906718
 31
0.0
 11
1667.780335654548
 21
2419.75465280543
 31
0.0
 11
1668.623462054129
 21
2418.260502031455
 31
0.0
 11
1669.277969785874
 21
2416.80277636944
 31
0.0
 11
1670.085051680174
 21
2414.489411888429
 31
0.0
 11
1670.890853649875
 21
2411.451917646569
 31
0.0
 11
1671.362759509336
 21
2409.32035234505
 31
0.0
 11
1671.741899759607
 21
2407.440218375031
 31
0.0
 11
1672.406371773888
 21
2403.86040518558
 31
0.0
 11
1673.044660696553
 21
2400.195141254259
 31
0.0
 11
1673.659508241619
 21
2396.546395739535
 31
0.0
 11
1674.137593476422
 21
2393.677094605756
 31
0.0
 11
1674.880505914336
 21
2391.158738686623
 31
0.0
 11
1675.935859028885
 21
2389.180380349035
 31
0.0
 11
1677.483410739421
 21
2387.211706521104
 31
0.0
 11
1679.025845516312
 21
2385.369100357013
 31
0.0
 11
1680.079744749355
 21
2384.110103054678
 31
0.0
 11
1681.277479155385
 21
2382.679278988364
 31
0.0
 11
1682.504477714761
 21
2381.213495706822
 31
0.0
 11
1683.786730874924
 21
2379.681704792718
 31
0.0
 11
1684.845757180492
 21
2378.416582644406
 31
0.0
 11
1685.226685335675
 21
2377.961522516528
 31
0.0
 11
1685.715302039183
 21
2377.385377864606
 31
0.0
 11
1686.190021152793
 21
2376.975498288518
 31
0.0
 11
1686.631435615761
 21
2376.721288168768
 31
0.0
 11
1687.037251946873
 21
2376.56619821505
 31
0.0
 11
1687.351275568907
 21
2376.489790847791
 31
0.0
 11
1687.568544602949
 21
2376.4573608592
 31
0.0
 11
1688.27313551497
 21
2376.438277333003
 31
0.0
 11
1689.451715515343
 21
2376.43688890879
 31
0.0
 11
1690.722010330381
 21
2376.435392440089
 31
0.0
 11
1692.974406293128
 21
2376.432739008762
 31
0.0
 11
1694.323243282391
 21
2376.431150013584
 31
0.0
 11
1696.195869607384
 21
2376.428943969249
 31
0.0
 11
1697.701868080786
 21
2376.427169830246
 31
0.0
 11
1699.443616493966
 21
2376.425117966417
 31
0.0
 11
1701.342387547046
 21
2376.422881122328
 31
0.0
 11
1702.848401447586
 21
2376.421106965151
 31
0.0
 11
1705.624633027475
 21
2376.417836430145
 31
0.0
 11
1708.374673597865
 21
2376.414596749412
 31
0.0
 11
1711.465274427445
 21
2376.410955872233
 31
0.0
 11
1714.595161771276
 21
2376.407268713638
 31
0.0
 11
1717.240392022252
 21
2376.40415250453
 31
0.0
 11
1719.911890418415
 21
2376.401005350278
 31
0.0
 11
1721.994106527961
 21
2376.398552399043
 31
0.0
 11
1723.128564483143
 21
2376.397215952731
 31
0.0
  0
SPLINE
  5
3D0B
330
A
100
AcDbEntity
  8
HIDDEN
 48
0.5
100
AcDbSpline
210
0.0
220
0.0
230
1.0
 70
  1064
 71
     3
 72
   115
 73
   111
 74
   109
 42
0.000000001
 43
0.0000000001
 44
0.0
 40
0.0
 40
0.0
 40
0.0
 40
0.0
 40
1.23851985319168
 40
2.753480723600278
 40
4.697681517061802
 40
6.626118664190327
 40
9.03329948093083
 40
11.75278478249973
 40
14.46682092119824
 40
16.97959824418783
 40
20.00908945355699
 40
21.73848426254264
 40
24.54065993616273
 40
28.46434622185161
 40
31.91308499197213
 40
35.48788630809087
 40
40.66251397919721
 40
46.63947757179996
 40
52.54204007846657
 40
57.38234100219998
 40
63.51884155407366
 40
67.4124711471395
 40
73.44491016545777
 40
76.89606337634473
 40
81.42515697834784
 40
86.20339566590623
 40
91.31086527315934
 40
96.92714473054053
 40
99.79564326263376
 40
103.8287110517656
 40
107.1449350887361
 40
109.1551790690721
 40
114.4272007459513
 40
117.6234751242963
 40
119.8798248934962
 40
123.8953047411012
 40
126.6120912053291
 40
128.9839134165177
 40
134.1128805108797
 40
137.402364594781
 40
141.6464696675508
 40
146.2921110543978
 40
149.3336799653936
 40
154.4213682144174
 40
160.1118058169546
 40
164.9022949377396
 40
171.1126177124866
 40
178.7341963198227
 40
186.5455533986007
 40
193.5221117014487
 40
199.4030800482434
 40
203.8000153087155
 40
215.2795763937146
 40
228.9657337137482
 40
238.9850901999267
 40
246.4330713145823
 40
252.390002945217
 40
259.0087025230354
 40
264.3722021969954
 40
265.2601762230001
 40
266.3698421556836
 40
266.9948183628713
 40
267.3768103820256
 40
267.7560326174614
 40
268.03873223095
 40
268.6222139934872
 40
269.5399415241112
 40
269.986986556789
 40
270.6090353751217
 40
271.5130108655396
 40
272.0534367848539
 40
272.7933674673964
 40
274.0130316554763
 40
275.118742032799
 40
276.9465436778856
 40
278.1722901198629
 40
279.6157996155595
 40
281.3629590614632
 40
282.5871131261351
 40
283.9836982303196
 40
285.8953268292051
 40
286.3979321402979
 40
287.1257998126275
 40
287.4683524391639
 40
288.0382327439652
 40
288.2738629594184
 40
288.4336705436298
 40
288.7330334005122
 40
289.1443438621594
 40
289.4403849687148
 40
289.8595062522101
 40
290.8024202736354
 40
292.2586660957569
 40
293.4738680712443
 40
295.6215199988061
 40
297.7796853625952
 40
300.1159373728493
 40
301.6769226222291
 40
305.2074854944244
 40
307.3566811927615
 40
309.3246903613656
 40
310.7076136477176
 40
313.6724503221516
 40
314.6153273184212
 40
316.5953813523074
 40
318.1458655071795
 40
319.6754215233516
 40
321.9907330531842
 40
323.72980494903
 40
324.9714964574327
 40
324.9714964574327
 40
324.9714964574327
 40
324.9714964574327
 10
1568.813890980147
 20
2097.556732823615
 30
0.0
 10
1568.822513961241
 20
2097.970354753645
 30
0.0
 10
1568.841684596382
 20
2098.889920159283
 30
0.0
 10
1569.191523308486
 20
2100.425271757454
 30
0.0
 10
1569.773279566484
 20
2102.12684993565
 30
0.0
 10
1570.691656954925
 20
2104.013518916847
 30
0.0
 10
1571.952793813159
 20
2106.004285366677
 30
0.0
 10
1573.59274394432
 20
2108.0460068658
 30
0.0
 10
1575.446040734638
 20
2109.94306442628
 30
0.0
 10
1577.514632733382
 20
2111.761193355422
 30
0.0
 10
1579.440294960662
 20
2113.236490525338
 30
0.0
 10
1581.510105920247
 20
2114.67506427715
 30
0.0
 10
1583.886243215776
 20
2116.192654498337
 30
0.0
 10
1586.828888963731
 20
2117.881635274799
 30
0.0
 10
1590.062733375631
 20
2119.573408655112
 30
0.0
 10
1593.718667311079
 20
2121.354023327156
 30
0.0
 10
1598.188105476767
 20
2123.385255896745
 30
0.0
 10
1603.410434287296
 20
2125.631405306794
 30
0.0
 10
1608.547087517446
 20
2127.793849197919
 30
0.0
 10
1613.724489008069
 20
2129.996446666447
 30
0.0
 10
1618.261614101691
 20
2131.993603900352
 30
0.0
 10
1623.114878886528
 20
2134.255305936701
 30
0.0
 10
1627.104258351979
 20
2136.250459597066
 30
0.0
 10
1631.203513404921
 20
2138.490662741583
 30
0.0
 10
1634.861520119316
 20
2140.662627681835
 30
0.0
 10
1638.868978654926
 20
2143.317990424301
 30
0.0
 10
1642.997617729731
 20
2146.431417185999
 30
0.0
 10
1646.401893537602
 20
2149.430606519533
 30
0.0
 10
1649.337419683348
 20
2152.397733222014
 30
0.0
 10
1651.587944146241
 20
2154.958342537159
 30
0.0
 10
1653.487133335246
 20
2157.436169387938
 30
0.0
 10
1655.493206302083
 20
2160.344806058958
 30
0.0
 10
1657.275014491849
 20
2163.35711412842
 30
0.0
 10
1658.846114916329
 20
2166.57018654527
 30
0.0
 10
1660.093874514798
 20
2169.469876674454
 30
0.0
 10
1661.132135204384
 20
2172.282898053475
 30
0.0
 10
1662.040543183574
 20
2175.179081482501
 30
0.0
 10
1662.950342938078
 20
2178.461653146529
 30
0.0
 10
1663.758298684131
 20
2181.968514842093
 30
0.0
 10
1664.55198999423
 20
2186.114390177437
 30
0.0
 10
1665.205318736421
 20
2190.121795352241
 30
0.0
 10
1665.749246995375
 20
2194.061845465788
 30
0.0
 10
1666.264092038655
 20
2198.288985221346
 30
0.0
 10
1666.756979626997
 20
2202.869294528751
 30
0.0
 10
1667.246473603008
 20
2208.035799378595
 30
0.0
 10
1667.721791617116
 20
2213.579250227913
 30
0.0
 10
1668.210404389486
 20
2219.767497594589
 30
0.0
 10
1668.736471547651
 20
2226.962742150186
 30
0.0
 10
1669.251514985119
 20
2234.414807705703
 30
0.0
 10
1669.709878795098
 20
2241.289175441398
 30
0.0
 10
1670.083676548097
 20
2247.028504277138
 30
0.0
 10
1670.549299052134
 20
2254.26603045902
 30
0.0
 10
1671.173805335966
 20
2264.100441285244
 30
0.0
 10
1671.908128152765
 20
2275.80578930966
 30
0.0
 10
1672.555799807781
 20
2286.170070085266
 30
0.0
 10
1673.042326655898
 20
2293.962988405419
 30
0.0
 10
1673.457463431106
 20
2300.624599728211
 30
0.0
 10
1673.830912182615
 20
2306.592650120615
 30
0.0
 10
1674.094679448431
 20
2310.874562996652
 30
0.0
 10
1674.250617369386
 20
2313.323349158496
 30
0.0
 10
1674.298892932067
 20
2314.196184378844
 30
0.0
 10
1674.355907612397
 20
2314.899668180112
 30
0.0
 10
1674.41659512824
 20
2315.357840491894
 30
0.0
 10
1674.472589028856
 20
2315.701327854354
 30
0.0
 10
1674.550852909293
 20
2316.109055922411
 30
0.0
 10
1674.683926814098
 20
2316.688830294263
 30
0.0
 10
1674.868741772838
 20
2317.312163688699
 30
0.0
 10
1675.092819362238
 20
2317.935502088926
 30
0.0
 10
1675.342770340485
 20
2318.544143306979
 30
0.0
 10
1675.644624632949
 20
2319.164144213307
 30
0.0
 10
1676.002611614091
 20
2319.798346170851
 30
0.0
 10
1676.448903213755
 20
2320.50295229657
 30
0.0
 10
1677.075953725708
 20
2321.311631496768
 30
0.0
 10
1677.97691671173
 20
2322.362502359607
 30
0.0
 10
1678.865636348287
 20
2323.426741409226
 30
0.0
 10
1679.831342495908
 20
2324.573220475289
 30
0.0
 10
1680.77870658453
 20
2325.700034025826
 30
0.0
 10
1681.726069762134
 20
2326.826145966607
 30
0.0
 10
1682.663149336001
 20
2327.940469854992
 30
0.0
 10
1683.63605564182
 20
2329.096302953942
 30
0.0
 10
1684.452100105955
 20
2330.069765199591
 30
0.0
 10
1685.128808713176
 20
2330.869206748125
 30
0.0
 10
1685.459274134533
 20
2331.276315441366
 30
0.0
 10
1685.828755501104
 20
2331.680228569837
 30
0.0
 10
1686.134542431297
 20
2331.91564988756
 30
0.0
 10
1686.412545596003
 20
2332.077967418407
 30
0.0
 10
1686.620009542446
 20
2332.181169899194
 30
0.0
 10
1686.889324907703
 20
2332.29050926936
 30
0.0
 10
1687.21413363389
 20
2332.378744975254
 30
0.0
 10
1687.586077032537
 20
2332.436129668235
 30
0.0
 10
1688.139798682665
 20
2332.44055810103
 30
0.0
 10
1689.07854292852
 20
2332.43608702042
 30
0.0
 10
1690.283636844979
 20
2332.436184236559
 30
0.0
 10
1691.889911349207
 20
2332.433843257395
 30
0.0
 10
1693.73028830816
 20
2332.431865037805
 30
0.0
 10
1695.944297513853
 20
2332.429195860109
 30
0.0
 10
1697.962766964353
 20
2332.426834334449
 30
0.0
 10
1700.438697869668
 20
2332.423913848898
 30
0.0
 10
1702.852277793796
 20
2332.421072141357
 30
0.0
 10
1705.401531871608
 20
2332.418068669705
 30
0.0
 10
1707.234906663052
 20
2332.41590892734
 30
0.0
 10
1709.340161575886
 20
2332.413428821494
 30
0.0
 10
1711.103706005595
 20
2332.41135128623
 30
0.0
 10
1713.066293878496
 20
2332.409039262217
 30
0.0
 10
1714.557431238846
 20
2332.407282630521
 30
0.0
 10
1716.24412813675
 20
2332.405295619986
 30
0.0
 10
1718.04257745577
 20
2332.403176959765
 30
0.0
 10
1719.903889311491
 20
2332.400984244415
 30
0.0
 10
1721.669246397871
 20
2332.398904568428
 30
0.0
 10
1722.662833509839
 20
2332.39773407478
 30
0.0
 10
1723.076730392104
 20
2332.397246484244
 30
0.0
 11
1568.813890980147
 21
2097.556732823615
 31
0.0
 11
1568.877367927328
 21
2098.793624938525
 31
0.0
 11
1569.181791097912
 21
2100.277684564039
 31
0.0
 11
1569.812327678793
 21
2102.116798575042
 31
0.0
 11
1570.64953184845
 21
2103.854025966242
 31
0.0
 11
1571.931331708645
 21
2105.89155108336
 31
0.0
 11
1573.62664428466
 21
2108.017936649304
 31
0.0
 11
1575.517387404439
 21
2109.965006914387
 31
0.0
 11
1577.401429181003
 21
2111.627666368121
 31
0.0
 11
1579.801802696376
 21
2113.475915262167
 31
0.0
 11
1581.221240315057
 21
2114.463844030864
 31
0.0
 11
1583.580632384322
 21
2115.975617019549
 31
0.0
 11
1586.979173266372
 21
2117.936543826326
 31
0.0
 11
1590.03279045519
 21
2119.539422851296
 31
0.0
 11
1593.244711468387
 21
2121.108743677229
 31
0.0
 11
1597.951133288428
 21
2123.259642369967
 31
0.0
 11
1603.43622141827
 21
2125.634069036589
 31
0.0
 11
1608.87184684897
 21
2127.934986315031
 31
0.0
 11
1613.323450336263
 21
2129.83544400312
 31
0.0
 11
1618.934813314753
 21
2132.319240401132
 31
0.0
 11
1622.462647247857
 21
2133.966886949527
 31
0.0
 11
1627.852247494966
 21
2136.676597208225
 31
0.0
 11
1630.879476933617
 21
2138.333805828399
 31
0.0
 11
1634.77090937463
 21
2140.651011562195
 31
0.0
 11
1638.750472896336
 21
2143.295749570389
 31
0.0
 11
1642.823495667954
 21
2146.377426271618
 31
0.0
 11
1647.030800500225
 21
2150.097800042054
 31
0.0
 11
1649.047328212912
 21
2152.137873524208
 31
0.0
 11
1651.707454266609
 21
2155.169270095126
 31
0.0
 11
1653.723982946234
 21
2157.801940592479
 31
0.0
 11
1654.865145614852
 21
2159.456881263388
 31
0.0
 11
1657.550690058552
 21
2163.993627189974
 31
0.0
 11
1658.95624981899
 21
2166.864266780989
 31
0.0
 11
1659.848833645468
 21
2168.936562221721
 31
0.0
 11
1661.244475508615
 21
2172.701699961081
 31
0.0
 11
1662.059389113564
 21
2175.293387540378
 31
0.0
 11
1662.694216268016
 21
2177.578674193176
 31
0.0
 11
1663.85791907501
 21
2182.573881819696
 31
0.0
 11
1664.479173619539
 21
2185.804167926087
 31
0.0
 11
1665.167458991311
 21
2189.992089978336
 31
0.0
 11
1665.807530601204
 21
2194.59342589624
 31
0.0
 11
1666.176355300345
 21
2197.612549905227
 31
0.0
 11
1666.725336682298
 21
2202.670532819544
 31
0.0
 11
1667.265611611459
 21
2208.335264332095
 31
0.0
 11
1667.676687795191
 21
2213.108083455792
 31
0.0
 11
1668.167989905624
 21
2219.298942136365
 31
0.0
 11
1668.72687901162
 21
2226.900001499046
 31
0.0
 11
1669.267372592835
 21
2234.692636874889
 31
0.0
 11
1669.732234390354
 21
2241.653690621431
 31
0.0
 11
1670.114940555016
 21
2247.522193385129
 31
0.0
 11
1670.397390923605
 21
2251.910047242548
 31
0.0
 11
1671.125858418285
 21
2263.366471545681
 31
0.0
 11
1671.984018509373
 21
2277.02569785784
 31
0.0
 11
1672.609145899359
 21
2287.025533863666
 31
0.0
 11
1673.073139458927
 21
2294.459048016538
 31
0.0
 11
1673.443983796283
 21
2300.404425122282
 31
0.0
 11
1673.855861149657
 21
2307.010296839716
 31
0.0
 11
1674.189575667042
 21
2312.363404663537
 31
0.0
 11
1674.244825124474
 21
2313.249658221111
 31
0.0
 11
1674.313869289755
 21
2314.35717408348
 31
0.0
 11
1674.368986250278
 21
2314.97971515057
 31
0.0
 11
1674.418606148093
 21
2315.358470702923
 31
0.0
 11
1674.479765963004
 21
2315.732728609839
 31
0.0
 11
1674.533035654514
 21
2316.010364002815
 31
0.0
 11
1674.663588939474
 21
2316.579052675992
 31
0.0
 11
1674.924450380479
 21
2317.458924899137
 31
0.0
 11
1675.075680344678
 21
2317.879613333932
 31
0.0
 11
1675.311972751546
 21
2318.455035466671
 31
0.0
 11
1675.707808399424
 21
2319.267738258068
 31
0.0
 11
1675.973251527638
 21
2319.738482477311
 31
0.0
 11
1676.370541327825
 21
2320.362708581888
 31
0.0
 11
1677.1071776389
 21
2321.334792774173
 31
0.0
 11
1677.818911909853
 21
2322.180978194793
 31
0.0
 11
1678.995448820421
 21
2323.57977044236
 31
0.0
 11
1679.784449057869
 21
2324.517817864043
 31
0.0
 11
1680.713621108352
 21
2325.622516449526
 31
0.0
 11
1681.83824947395
 21
2326.959594296438
 31
0.0
 11
1682.626224714686
 21
2327.896423092985
 31
0.0
 11
1683.525192022347
 21
2328.965211066807
 31
0.0
 11
1684.755687471309
 21
2330.428154965308
 31
0.0
 11
1685.079209283173
 21
2330.812792113783
 31
0.0
 11
1685.547730134333
 21
2331.369819546187
 31
0.0
 11
1685.78283479755
 21
2331.618954247264
 31
0.0
 11
1686.232295183613
 21
2331.969309671313
 31
0.0
 11
1686.43587066296
 21
2332.087963043128
 31
0.0
 11
1686.578939281438
 21
2332.159165812585
 31
0.0
 11
1686.856361347368
 21
2332.271660778765
 31
0.0
 11
1687.253128151626
 21
2332.380069260441
 31
0.0
 11
1687.545899936759
 21
2332.423944294351
 31
0.0
 11
1687.964764551029
 21
2332.438610077356
 31
0.0
 11
1688.907677918168
 21
2332.437499279828
 31
0.0
 11
1690.363922729803
 21
2332.435783753045
 31
0.0
 11
1691.579123862064
 21
2332.434352187367
 31
0.0
 11
1693.726774299374
 21
2332.431822151332
 31
0.0
 11
1695.884938165616
 21
2332.429279729968
 31
0.0
 11
1698.221188554749
 21
2332.426527514073
 31
0.0
 11
1699.782172720964
 21
2332.424688599267
 31
0.0
 11
1703.312733143308
 21
2332.420529428417
 31
0.0
 11
1705.461927350322
 21
2332.417997573747
 31
0.0
 11
1707.429935153328
 21
2332.415679165418
 31
0.0
 11
1708.812857480072
 21
2332.414050016066
 31
0.0
 11
1711.777692097211
 21
2332.410557297565
 31
0.0
 11
1712.72056843922
 21
2332.409446543653
 31
0.0
 11
1714.70062109915
 21
2332.407113945902
 31
0.0
 11
1716.251104178144
 21
2332.405287401882
 31
0.0
 11
1717.78065913296
 21
2332.403485512206
 31
0.0
 11
1720.095969056202
 21
2332.400757965191
 31
0.0
 11
1721.835039745309
 21
2332.398709255851
 31
0.0
 11
1723.076730392104
 21
2332.397246484244
 31
0.0
  0
DIMENSION
  5
3D0C
102
{ACAD_REACTORS
330
3D0E
102
}
102
{ACAD_XDICTIONARY
360
3D0D
102
}
330
A
100
AcDbEntity
  8
DIM
100
AcDbDimension
  2
*D64
 10
1688.807141112658
 20
2005.722751740968
 30
0.0
 11
1628.804939948715
 21
2037.727253429101
 31
0.0
 70
    32
 71
     5
 42
120.0044023278849
 73
     0
 74
     0
 75
     0
  3
tfrom線あり
100
AcDbAlignedDimension
 13
1568.802738784773
 23
2099.907001906164
 33
0.0
 14
1688.807141112658
 24
2103.573286122607
 34
0.0
100
AcDbRotatedDimension
  0
DIMENSION
  5
3D0F
102
{ACAD_REACTORS
330
3D11
102
}
102
{ACAD_XDICTIONARY
360
3D10
102
}
330
A
100
AcDbEntity
  8
DIM
100
AcDbDimension
  2
*D65
 10
1486.152599660473
 20
2499.552172519197
 30
0.0
 11
1454.14809797234
 21
2532.063571597566
 31
0.0
 70
    32
 71
     5
 42
65.02279815673865
 73
     0
 74
     1
 75
     1
  3
tfrom線あり
100
AcDbAlignedDimension
 13
1572.350142196233
 23
2564.574970675936
 33
0.0
 14
1572.350142196233
 24
2499.552172519197
 34
0.0
 50
90.0
100
AcDbRotatedDimension
1001
ACAD
1000
DSTYLE
1002
{
1070
   172
1070
     1
1002
}
  0
DIMENSION
  5
3D12
102
{ACAD_REACTORS
330
3D14
102
}
102
{ACAD_XDICTIONARY
360
3D13
102
}
330
A
100
AcDbEntity
  8
DIM
100
AcDbDimension
  2
*D66
 10
1569.110419826105
 20
2355.720371059626
 30
0.0
 11
1476.26716610596
 21
2355.720371059626
 31
0.0
 70
   160
 71
     5
 42
105.0845451302289
 73
     0
 74
     1
 75
     1
  3
tfrom線あり
100
AcDbAlignedDimension
 13
1674.194964956334
 23
2390.961828347895
 33
0.0
 14
1569.110419826105
 24
2361.085623021959
 34
0.0
100
AcDbRotatedDimension
1001
ACAD
1000
DSTYLE
1002
{
1070
     3
1000
深さ<>
1070
   172
1070
     1
1070
    76
1070
     1
1070
    75
1070
     1
1070
   174
1070
     0
1070
   175
1070
     1
1002
}
  0
DIMENSION
  5
3D15
102
{ACAD_REACTORS
330
3D17
102
}
102
{ACAD_XDICTIONARY
360
3D16
102
}
330
A
100
AcDbEntity
  8
DIM
100
AcDbDimension
  2
*D67
 10
1834.713205034195
 20
2354.397231218487
 30
0.0
 11
1802.708703346062
 21
2459.418952238359
 31
0.0
 70
    32
 71
     5
 42
210.0434420397441
 73
     0
 74
     0
 75
     0
  3
tfrom線あり
100
AcDbAlignedDimension
 13
1686.350063091835
 23
2564.440673258232
 33
0.0
 14
1723.102647437623
 24
2354.397231218487
 34
0.0
 50
90.0
100
AcDbRotatedDimension
  0
MTEXT
  5
3D18
330
A
100
AcDbEntity
  8
notes
 62
     7
390
1D
100
AcDbMText
 10
1047.336429850747
 20
1984.955833562279
 30
0.0
 40
24.4326171875
 41
764.7717154610109
 46
0.0
 71
     1
 72
     1
  1
※陶器製品には寸法公差があります。\P  洗面器の収め方をご確認の上、必ず現物を合わせて\P  カウンターに切込を行ってください。
  7
ＭＳ ゴシック
 11
0.0
 21
1.0
 31
0.0
 73
     1
 44
1.043768984567712
  0
LINE
  5
3D23
330
A
100
AcDbEntity
  8
MODEL
100
AcDbLine
 10
879.514611952821
 20
849.7450200416245
 30
0.0
 11
879.7685001495752
 21
897.8100013417667
 31
0.0
  0
ARC
  5
3D24
330
A
100
AcDbEntity
  8
MODEL
 48
0.5
100
AcDbCircle
 10
480.9975642804491
 20
1149.798299135062
 30
0.0
 40
17.5
100
AcDbArc
 50
0.0
 51
180.0
  0
CIRCLE
  5
3D25
102
{ACAD_REACTORS
330
3D69
102
}
330
A
100
AcDbEntity
  8
MODEL
  6
HIDDEN
 48
0.5
100
AcDbCircle
 10
480.9975642804491
 20
1249.798299135062
 30
0.0
 40
16.0
  0
LINE
  5
3D26
330
A
100
AcDbEntity
  8
MODEL
100
AcDbLine
 10
883.8621633107082
 20
1545.798299135061
 30
0.0
 11
883.862163310708
 21
1449.8515782285
 31
0.0
  0
LINE
  5
3D27
330
A
100
AcDbEntity
  8
MODEL
100
AcDbLine
 10
883.8621633107082
 20
1545.798299135061
 30
0.0
 11
883.862163310708
 21
1417.472596237199
 31
0.0
  0
LINE
  5
3D28
330
A
100
AcDbEntity
  8
MODEL
100
AcDbLine
 10
413.9960041949284
 20
1546.798756049601
 30
0.0
 11
413.9960041949282
 21
1449.8515782285
 31
0.0
  0
LINE
  5
3D29
330
A
100
AcDbEntity
  8
MODEL
100
AcDbLine
 10
413.9960041949284
 20
1546.798756049601
 30
0.0
 11
413.9960041949282
 21
1417.472596237199
 31
0.0
  0
LINE
  5
3D2A
330
A
100
AcDbEntity
  8
MODEL
100
AcDbLine
 10
879.8621633107091
 20
1549.798299135061
 30
0.0
 11
416.9960041949212
 21
1549.798299135063
 31
0.0
  0
ARC
  5
3D2B
330
A
100
AcDbEntity
  8
MODEL
100
AcDbCircle
 10
879.8621633107082
 20
1545.798299135061
 30
0.0
 40
4.0
100
AcDbArc
 50
0.0
 51
89.99999999998697
  0
ELLIPSE
  5
3D2C
102
{ACAD_REACTORS
330
3D5D
102
}
330
A
100
AcDbEntity
  8
MODEL
100
AcDbEllipse
 10
416.9960041949212
 20
1546.798756049601
 30
0.0
 11
-3.0
 21
8.476042572204118E-15
 31
0.0
210
0.0
220
0.0
230
-1.0
 40
0.999847695156391
 41
0.0
 42
1.570796326794894
  0
SPLINE
  5
3D2D
330
A
100
AcDbEntity
  8
MODEL
100
AcDbSpline
210
0.0
220
0.0
230
1.0
 70
     8
 71
     3
 72
    30
 73
    26
 74
     0
 42
0.000000001
 43
0.0000000001
 40
0.0
 40
0.0
 40
0.0
 40
0.0
 40
0.0625
 40
0.125
 40
0.1875
 40
0.21875
 40
0.25
 40
0.28125
 40
0.3125
 40
0.34375
 40
0.375
 40
0.40625
 40
0.4375
 40
0.453125
 40
0.46875
 40
0.484375
 40
0.5
 40
0.53125
 40
0.5625
 40
0.59375
 40
0.625
 40
0.65625
 40
0.6875
 40
0.75
 40
0.7553931851320355
 40
0.7553931851320355
 40
0.7553931851320355
 40
0.7553931851320355
 10
825.7094618127935
 20
1546.679601650398
 30
0.0
 10
827.8074272555364
 20
1546.653757024735
 30
0.0
 10
832.003098100698
 20
1546.582656176197
 30
0.0
 10
838.2959987112022
 20
1546.44574678205
 30
0.0
 10
843.5394562907218
 20
1546.306027345538
 30
0.0
 10
847.7333245684181
 20
1546.162304370755
 30
0.0
 10
850.8775904234985
 20
1546.026621061395
 30
0.0
 10
854.0199287817645
 20
1545.850119681814
 30
0.0
 10
857.1580988928667
 20
1545.608590117048
 30
0.0
 10
860.2871027694687
 20
1545.265400855922
 30
0.0
 10
863.3954176588863
 20
1544.762108646482
 30
0.0
 10
866.4544330408658
 20
1544.005107843844
 30
0.0
 10
868.9032807628951
 20
1543.040728441676
 30
0.0
 10
870.7206330788517
 20
1541.985307532104
 30
0.0
 10
871.9827774351993
 20
1541.040637983303
 30
0.0
 10
873.117351919243
 20
1539.945762784398
 30
0.0
 10
874.43895444492
 20
1538.310902005821
 30
0.0
 10
875.72729838445
 20
1536.012481155707
 30
0.0
 10
876.8168625633748
 20
1533.053262974517
 30
0.0
 10
877.600250430803
 20
1530.002516154901
 30
0.0
 10
878.1803059947829
 20
1526.908188847552
 30
0.0
 10
878.6231839409934
 20
1523.791791245112
 30
0.0
 10
879.087054447858
 20
1519.620916104209
 30
0.0
 10
879.3500383011244
 20
1516.302637787451
 30
0.0
 10
879.502656000717
 20
1455.027142033823
 30
0.0
 10
879.514611952821
 20
1449.8515782285
 30
0.0
  0
SPLINE
  5
3D2E
330
A
100
AcDbEntity
  8
MODEL
100
AcDbSpline
210
0.0
220
0.0
230
1.0
 70
     8
 71
     3
 72
    10
 73
     6
 74
     0
 42
0.000000001
 43
0.0000000001
 40
0.8363554444020789
 40
0.8363554444020789
 40
0.8363554444020789
 40
0.8363554444020789
 40
0.875
 40
0.9375
 40
1.0
 40
1.0
 40
1.0
 40
1.0
 10
879.9596183514454
 20
1417.472596237199
 30
0.0
 10
880.0183767863987
 20
1404.357249636346
 30
0.0
 10
880.1596831946977
 20
1400.964754324051
 30
0.0
 10
880.3463478273022
 20
1395.474330535889
 30
0.0
 10
880.4534183782941
 20
1391.279407410623
 30
0.0
 10
880.496420641515
 20
1389.181724640049
 30
0.0
  0
LINE
  5
3D2F
330
A
100
AcDbEntity
  8
MODEL
100
AcDbLine
 10
539.011274195916
 20
1526.799386406777
 30
0.0
 11
539.0101100327586
 21
1449.8515782285
 31
0.0
  0
LINE
  5
3D30
330
A
100
AcDbEntity
  8
MODEL
100
AcDbLine
 10
539.0112741959163
 20
1526.799386406773
 30
0.0
 11
539.0094633095039
 21
1417.472596237199
 31
0.0
  0
ARC
  5
3D31
330
A
100
AcDbEntity
  8
MODEL
100
AcDbCircle
 10
559.0112741859825
 20
1526.798756049601
 30
0.0
 40
20.0
100
AcDbArc
 50
90.0
 51
179.998194159722
  0
LINE
  5
3D32
330
A
100
AcDbEntity
  8
MODEL
100
AcDbLine
 10
825.7094618127935
 20
1546.679601650398
 30
0.0
 11
558.7657280896142
 21
1546.797248670661
 31
0.0
  0
LINE
  5
3D33
330
A
100
AcDbEntity
  8
MODEL
100
AcDbLine
 10
880.496420641515
 20
1389.181724640049
 30
0.0
 11
880.4964206415141
 21
1149.798299135062
 31
0.0
  0
ELLIPSE
  5
3D34
330
A
100
AcDbEntity
  8
MODEL
100
AcDbEllipse
 10
542.064648637255
 20
1149.798944683174
 30
0.0
 11
3.390417028881647E-14
 21
12.0
 31
0.0
210
0.0
220
0.0
230
-1.0
 40
0.0874886635259221
 41
4.712335184708677
 42
7.854035429650494
  0
ARC
  5
3D35
330
A
100
AcDbEntity
  8
MODEL
100
AcDbCircle
 10
623.9960041949278
 20
1149.798299135062
 30
0.0
 40
22.5
100
AcDbArc
 50
180.0000000002131
 51
359.9999999997962
  0
ARC
  5
3D36
330
A
100
AcDbEntity
  8
MODEL
100
AcDbCircle
 10
623.9960041949278
 20
1149.798299135062
 30
0.0
 40
37.5
100
AcDbArc
 50
180.0000000002112
 51
359.9999999997943
  0
LINE
  5
3D38
330
A
100
AcDbEntity
  8
MODEL
100
AcDbLine
 10
879.514611952821
 20
1449.8515782285
 30
0.0
 11
879.6856437753277
 21
1417.472596237199
 31
0.0
  0
LINE
  5
3D39
330
A
100
AcDbEntity
  8
MODEL
100
AcDbLine
 10
1689.125122716281
 20
1543.825649062806
 30
0.0
 11
1689.125122716281
 21
1544.825040011602
 31
0.0
  0
LINE
  5
3D3A
330
A
100
AcDbEntity
  8
MODEL
100
AcDbLine
 10
1686.177479935594
 20
1547.824583097078
 30
0.0
 11
1572.177479935594
 21
1549.814460498901
 31
0.0
  0
LINE
  5
3D3B
330
A
100
AcDbEntity
  8
MODEL
100
AcDbLine
 10
1569.125122716281
 20
1546.814917413439
 30
0.0
 11
1569.125122716281
 21
1545.815526464613
 31
0.0
  0
LINE
  5
3D3C
330
A
100
AcDbEntity
  8
MODEL
100
AcDbLine
 10
1569.125122716281
 20
1546.814917413439
 30
0.0
 11
1569.12512271628
 21
1201.667922349965
 31
0.0
  0
LINE
  5
3D3D
330
A
100
AcDbEntity
  8
MODEL
100
AcDbLine
 10
1569.12512271628
 20
1201.667922349965
 30
0.0
 11
1569.12512271628
 21
1149.747479261496
 31
0.0
  0
LINE
  5
3D3E
102
{ACAD_REACTORS
330
3E98
102
}
330
A
100
AcDbEntity
  8
MODEL
100
AcDbLine
 10
1723.12512271628
 20
1180.998485739459
 30
0.0
 11
1723.12512271628
 21
1149.747479261496
 31
0.0
  0
LINE
  5
3D3F
330
A
100
AcDbEntity
  8
MODEL
100
AcDbLine
 10
1720.386589944523
 20
1183.987069833734
 30
0.0
 11
1720.386589944523
 21
1149.747479261496
 31
0.0
  0
LINE
  5
3D40
330
A
100
AcDbEntity
  8
MODEL
100
AcDbLine
 10
1693.011485138544
 20
1186.382081167089
 30
0.0
 11
1720.386589944523
 21
1183.987069833734
 31
0.0
  0
LINE
  5
3D41
330
A
100
AcDbEntity
  8
MODEL
100
AcDbLine
 10
1689.12512271628
 20
1149.747479261496
 30
0.0
 11
1689.12512271628
 21
1201.667922349966
 31
0.0
  0
LINE
  5
3D42
330
A
100
AcDbEntity
  8
MODEL
100
AcDbLine
 10
1689.12512271628
 20
1201.667922349966
 30
0.0
 11
1689.125122716281
 21
1544.825040011602
 31
0.0
  0
ARC
  5
3D43
330
A
100
AcDbEntity
  8
MODEL
100
AcDbCircle
 10
1686.125122716281
 20
1544.825040011602
 30
0.0
 40
3.0
100
AcDbArc
 50
0.0
 51
89.00000000000692
  0
ARC
  5
3D44
102
{ACAD_REACTORS
330
3D5A
102
}
330
A
100
AcDbEntity
  8
MODEL
100
AcDbCircle
 10
1572.125122716281
 20
1546.814917413439
 30
0.0
 40
3.0
100
AcDbArc
 50
89.00000000000692
 51
180.0
  0
ARC
  5
3D45
330
A
100
AcDbEntity
  8
MODEL
100
AcDbCircle
 10
1720.12512271628
 20
1180.998485739459
 30
0.0
 40
3.0
100
AcDbArc
 50
0.0
 51
85.00000000000882
  0
SPLINE
  5
3D46
330
A
100
AcDbEntity
  8
MODEL
100
AcDbSpline
210
0.0
220
0.0
230
1.0
 70
     8
 71
     3
 72
    12
 73
     8
 74
     0
 42
0.000000001
 43
0.0000000001
 40
0.0
 40
0.0
 40
0.0
 40
0.0
 40
0.3302631184266158
 40
0.3302631184266158
 40
0.665131559213308
 40
0.665131559213308
 40
1.0
 40
1.0
 40
1.0
 40
1.0
 10
1689.050693540849
 20
1187.847573996901
 30
0.0
 10
1689.433212920449
 20
1187.573628783008
 30
0.0
 10
1689.839952657574
 20
1187.333515176666
 30
0.0
 10
1690.695201045084
 20
1186.925581875316
 30
0.0
 10
1691.144198370414
 20
1186.758823966375
 30
0.0
 10
1692.064716550645
 20
1186.507861554317
 30
0.0
 10
1692.536221715367
 20
1186.423661328794
 30
0.0
 10
1693.011463976967
 20
1186.382083018472
 30
0.0
  0
CIRCLE
  5
3D47
102
{ACAD_REACTORS
330
3D4D
102
}
330
A
100
AcDbEntity
  8
ADF70-0001
  6
STYLE_23
 62
     7
370
    15
390
1D
100
AcDbCircle
 10
1614.125122716281
 20
1289.747479261496
 30
0.0
 40
10.0
  0
LINE
  5
3D48
330
A
100
AcDbEntity
  8
0
  6
STYLE_23
 62
     7
370
    15
390
1D
100
AcDbLine
 10
1599.156202647238
 20
1289.971324081673
 30
0.0
 11
1629.156202647237
 21
1289.971324081673
 31
0.0
  0
DIMENSION
  5
3D4B
102
{ACAD_REACTORS
330
3D4D
102
}
102
{ACAD_XDICTIONARY
360
3D4C
102
}
330
A
100
AcDbEntity
  8
DIM
100
AcDbDimension
  2
*D71
 10
1483.710949659383
 20
1009.523634441319
 30
0.0
 11
1451.70644797125
 21
1149.635556851408
 31
0.0
 70
    32
 71
     5
 42
280.2238448201769
 73
     0
 74
     0
 75
     0
  3
tfrom線あり
100
AcDbAlignedDimension
 13
1614.125122716281
 23
1289.747479261496
 33
0.0
 14
1614.156202647237
 24
1009.523634441319
 34
0.0
 50
90.0
100
AcDbRotatedDimension
  0
DIMENSION
  5
3D58
102
{ACAD_REACTORS
330
3D5A
102
}
102
{ACAD_XDICTIONARY
360
3D59
102
}
330
A
100
AcDbEntity
  8
DIM
100
AcDbDimension
  2
*D76
 10
1723.12512271628
 20
1671.159775909274
 30
0.0
 11
1646.193137331054
 21
1671.159775909274
 31
0.0
 70
   160
 71
     5
 42
153.8639707704526
 73
     0
 74
     0
 75
     0
  3
tfrom線あり
100
AcDbAlignedDimension
 13
1569.261151945827
 23
1547.708041943384
 33
0.0
 14
1723.12512271628
 24
1185.352198278682
 34
0.0
100
AcDbRotatedDimension
  0
DIMENSION
  5
3D5B
102
{ACAD_REACTORS
330
3D5D
102
}
102
{ACAD_XDICTIONARY
360
3D5C
102
}
330
A
100
AcDbEntity
  8
DIM
100
AcDbDimension
  2
*D77
 10
883.8621633107082
 20
1671.159775909274
 30
0.0
 11
648.9290837528151
 21
1671.159775909274
 31
0.0
 70
   160
 71
     5
 42
469.866159115787
 73
     0
 74
     0
 75
     0
  3
tfrom線あり
100
AcDbAlignedDimension
 13
413.9960041949212
 23
1546.798756049601
 33
0.0
 14
883.8621633107082
 24
1545.798299135061
 34
0.0
100
AcDbRotatedDimension
  0
DIMENSION
  5
3D5F
330
A
100
AcDbEntity
  8
DIM
100
AcDbDimension
  2
*D79
 10
879.2894499556937
 20
654.8487278881718
 30
0.0
 11
709.1502075393687
 21
686.8532295763048
 31
0.0
 70
    32
 71
     5
 42
340.2784848326501
 73
     0
 74
     0
 75
     0
  3
tfrom線あり
100
AcDbAlignedDimension
 13
539.0109651230437
 23
752.7211010034055
 33
0.0
 14
879.2894499556937
 24
752.7211010034065
 34
0.0
100
AcDbRotatedDimension
  0
DIMENSION
  5
3D60
330
A
100
AcDbEntity
  8
DIM
100
AcDbDimension
  2
*D80
 10
413.9960041949212
 20
654.8487278881718
 30
0.0
 11
476.5034846589824
 21
686.8532295763048
 31
0.0
 70
    32
 71
     5
 42
125.0149609281225
 73
     0
 74
     0
 75
     0
  3
tfrom線あり
100
AcDbAlignedDimension
 13
539.0109651230437
 23
752.7211010034055
 33
0.0
 14
413.9960041949212
 24
752.7978422205233
 34
0.0
100
AcDbRotatedDimension
  0
DIMENSION
  5
3D64
102
{ACAD_REACTORS
330
3D66
102
}
102
{ACAD_XDICTIONARY
360
3D65
102
}
330
A
100
AcDbEntity
  8
DIM
100
AcDbDimension
  2
*D82
 10
329.7337124065589
 20
1149.798299135062
 30
0.0
 11
297.7292107184257
 21
1099.798299135062
 31
0.0
 70
    32
 71
     5
 42
100.0000000000002
 73
     0
 74
     0
 75
     0
  3
tfrom線あり
100
AcDbAlignedDimension
 13
480.9975642804491
 23
1049.798299135062
 33
0.0
 14
480.9975642804491
 24
1149.798299135062
 34
0.0
 50
90.0
100
AcDbRotatedDimension
  0
DIMENSION
  5
3D67
102
{ACAD_REACTORS
330
3D69
102
}
102
{ACAD_XDICTIONARY
360
3D68
102
}
330
A
100
AcDbEntity
  8
DIM
100
AcDbDimension
  2
*D83
 10
329.7337124065589
 20
1249.798299135062
 30
0.0
 11
297.7292107184257
 21
1199.798299135062
 31
0.0
 70
    32
 71
     5
 42
100.0
 73
     0
 74
     0
 75
     0
  3
tfrom線あり
100
AcDbAlignedDimension
 13
480.9975642804491
 23
1149.798299135062
 33
0.0
 14
480.9975642804491
 24
1249.798299135062
 34
0.0
 50
90.0
100
AcDbRotatedDimension
  0
DIMENSION
  5
3D6D
102
{ACAD_REACTORS
330
3D6F
102
}
102
{ACAD_XDICTIONARY
360
3D6E
102
}
330
A
100
AcDbEntity
  8
DIM
100
AcDbDimension
  2
*D85
 10
234.2166059667666
 20
1549.79829913507
 30
0.0
 11
202.2166059667665
 21
1149.798299135062
 31
0.0
 70
    32
 71
     5
 42
800.0000000000161
 73
     0
 74
     0
 75
     0
  3
tfrom線あり
100
AcDbAlignedDimension
 13
416.9960041949212
 23
749.7982991350541
 33
0.0
 14
416.9960041949212
 24
1549.79829913507
 34
0.0
 50
90.0
100
AcDbRotatedDimension
  0
LINE
  5
3E80
330
A
100
AcDbEntity
  8
MODEL
100
AcDbLine
 10
413.9960041949282
 20
1417.472596237199
 30
0.0
 11
413.9960041949275
 21
1149.798299135062
 31
0.0
  0
LINE
  5
3E81
330
A
100
AcDbEntity
  8
MODEL
100
AcDbLine
 10
539.0078069118272
 20
1417.472596237199
 30
0.0
 11
539.0033731609888
 21
1149.798299135062
 31
0.0
  0
LINE
  5
3E82
330
A
100
AcDbEntity
  8
MODEL
100
AcDbLine
 10
883.862163310708
 20
1417.472596237199
 30
0.0
 11
883.8621633107073
 21
1149.798299135062
 31
0.0
  0
LINE
  5
3E86
330
A
100
AcDbEntity
  8
MODEL
100
AcDbLine
 10
413.9960041949278
 20
1002.801889352348
 30
0.0
 11
413.9960041949275
 21
1149.798299135062
 31
0.0
  0
LINE
  5
3E87
330
A
100
AcDbEntity
  8
MODEL
100
AcDbLine
 10
539.0058080061053
 20
1002.801889352348
 30
0.0
 11
539.0033731609888
 21
1149.798299135062
 31
0.0
  0
LINE
  5
3E88
330
A
100
AcDbEntity
  8
MODEL
100
AcDbLine
 10
883.8621633107075
 20
1002.801889352348
 30
0.0
 11
883.8621633107073
 21
1149.798299135062
 31
0.0
  0
LINE
  5
3E8C
330
A
100
AcDbEntity
  8
MODEL
100
AcDbLine
 10
1569.125122716281
 20
752.7978422205315
 30
0.0
 11
1569.12512271628
 21
1097.827036173027
 31
0.0
  0
LINE
  5
3E8D
330
A
100
AcDbEntity
  8
MODEL
100
AcDbLine
 10
1689.125122716281
 20
789.0584610721103
 30
0.0
 11
1689.125122716281
 21
754.6626547791357
 31
0.0
  0
DIMENSION
  5
3E96
102
{ACAD_REACTORS
330
3E98
102
}
102
{ACAD_XDICTIONARY
360
3E97
102
}
330
A
100
AcDbEntity
  8
DIM
100
AcDbDimension
  2
*D86
 10
1814.558307350867
 20
1149.747479261496
 30
0.0
 11
1782.558307350867
 21
949.7728891982792
 31
0.0
 70
    32
 71
     5
 42
399.949180126434
 73
     0
 74
     0
 75
     0
  3
tfrom線あり
100
AcDbAlignedDimension
 13
1672.829788836621
 23
749.7982991350622
 33
0.0
 14
1723.12512271628
 24
1149.747479261496
 34
0.0
 50
90.0
100
AcDbRotatedDimension
  0
MTEXT
  5
3EC2
330
A
100
AcDbEntity
  8
TEMPLATE
 62
     7
390
1D
100
AcDbMText
 10
123.5785308214819
 20
313.3916035914501
 30
0.0
 40
24.4326171875
 41
0.0
 46
27.53672361022102
 71
     1
 72
     1
  1
{洗面器 -CATALANO,New Premium-}
  7
ＭＳ ゴシック
 73
     1
 44
0.7828267384257843
1001
ACAD
1000
ACAD_MTEXT_DEFINED_HEIGHT_BEGIN
1070
    46
1040
27.53672361022102
1000
ACAD_MTEXT_DEFINED_HEIGHT_END
  0
MTEXT
  5
3EC3
330
A
100
AcDbEntity
  8
TEMPLATE
 62
     7
390
1D
100
AcDbMText
 10
119.8529735505567
 20
220.2104974182104
 30
0.0
 40
24.4326171875
 41
0.0
 46
75.57584750198176
 71
     1
 72
     1
  1
{壁掛け,カウンター置き/オーバーフロー付き/壁取付ボルト付属/\P陶器/ホワイト}
  7
ＭＳ ゴシック
 73
     1
 44
1.130749733281688
1001
ACAD
1000
ACAD_MTEXT_DEFINED_HEIGHT_BEGIN
1070
    46
1040
75.57584750198176
1000
ACAD_MTEXT_DEFINED_HEIGHT_END
  0
LINE
  5
3EDD
330
A
100
AcDbEntity
  8
DIM
100
AcDbLine
 10
465.3168104216692
 20
1157.56772372253
 30
0.0
 11
350.1622091577316
 21
1288.837934630973
 31
0.0
  0
LINE
  5
3EDE
330
A
100
AcDbEntity
  8
DIM
100
AcDbLine
 10
350.1622091577316
 20
1288.837934630973
 30
0.0
 11
350.1622091577316
 21
1381.074435684108
 31
0.0
  0
MTEXT
  5
3F24
330
A
100
AcDbEntity
  8
DIM
390
1D
100
AcDbMText
 10
316.5323644255521
 20
1316.027837930078
 30
34.99521132346015
 40
24.4326171875
 41
833.9297986418393
 46
28.390701171875
 71
     1
 72
     1
  1
{φ35}
  7
ＭＳ ゴシック
 11
3.467977603302107E-15
 21
1.0
 31
0.0
 73
     1
 44
0.9822934569727008
1001
ACAD
1000
ACAD_MTEXT_DEFINED_HEIGHT_BEGIN
1070
    46
1040
28.390701171875
1000
ACAD_MTEXT_DEFINED_HEIGHT_END
  0
DIMENSION
  5
3F2B
330
A
100
AcDbEntity
  8
DIM
100
AcDbDimension
  2
*D87
 10
995.7375332031042
 20
753.7982991350632
 30
0.0
 11
963.7330315149711
 21
1149.798299135062
 31
0.0
 70
    32
  1
790
 71
     5
 42
791.9999999999977
 73
     0
 74
     0
 75
     0
  3
tfrom線あり
100
AcDbAlignedDimension
 13
883.8621633107082
 23
1545.798299135061
 33
0.0
 14
883.8621633107082
 24
753.7982991350632
 34
0.0
 50
90.0
100
AcDbRotatedDimension
  0
DIMENSION
  5
3F43
102
{ACAD_REACTORS
330
3F45
102
}
102
{ACAD_XDICTIONARY
360
3F44
102
}
330
A
100
AcDbEntity
  8
DIM
100
AcDbDimension
  2
*D88
 10
1614.156202647237
 20
667.7003708036126
 30
0.0
 11
1591.64066268176
 21
667.7003708036126
 31
0.0
 70
   160
 71
     5
 42
45.03107993095614
 73
     0
 74
     0
 75
     0
  3
tfrom線あり
100
AcDbAlignedDimension
 13
1569.125122716281
 23
765.4055987612909
 33
0.0
 14
1614.156202647237
 24
767.4327929310962
 34
0.0
100
AcDbRotatedDimension
  0
CIRCLE
  5
3FBD
330
A
100
AcDbEntity
  8
HIDDEN
 48
0.3
100
AcDbCircle
 10
480.2929228426943
 20
2315.20819718603
 30
0.0
 40
17.5
  0
CIRCLE
  5
3FBE
330
A
100
AcDbEntity
  8
HIDDEN
 48
0.3
100
AcDbCircle
 10
480.2929228426943
 20
2215.20819718603
 30
0.0
 40
16.0
  0
CIRCLE
  5
3FBF
330
A
100
AcDbEntity
  8
HIDDEN
 48
0.3
100
AcDbCircle
 10
480.2929228426943
 20
2415.208225507858
 30
0.0
 40
16.0
  0
ARC
  5
3FC0
330
A
100
AcDbEntity
  8
HIDDEN
 48
0.5
100
AcDbCircle
 10
623.2913627571722
 20
2315.20819718603
 30
0.0
 40
22.5
100
AcDbArc
 50
179.9999999997869
 51
359.9999999993723
  0
ARC
  5
3FC1
330
A
100
AcDbEntity
  8
HIDDEN
 48
0.5
100
AcDbCircle
 10
623.2913627571722
 20
2315.20819718603
 30
0.0
 40
37.5
100
AcDbArc
 50
179.9999999997888
 51
359.9999999993733
  0
ARC
  5
3FC2
330
A
100
AcDbEntity
  8
HIDDEN
 48
0.5
100
AcDbCircle
 10
623.2913627571722
 20
2315.20819718603
 30
0.0
 40
22.5
100
AcDbArc
 50
0.0000000002061248
 51
179.9999999997869
  0
ARC
  5
3FC3
330
A
100
AcDbEntity
  8
HIDDEN
 48
0.5
100
AcDbCircle
 10
623.2913627571722
 20
2315.20819718603
 30
0.0
 40
37.5
100
AcDbArc
 50
0.0000000002070512
 51
179.9999999997888
  0
HATCH
  5
3FC4
330
A
100
AcDbEntity
  8
DIM
100
AcDbHatch
 10
0.0
 20
0.0
 30
0.0
210
0.0
220
0.0
230
1.0
  2
ANSI31
 70
     0
 71
     1
 91
        1
 92
        1
 93
        4
 72
     1
 10
443.9960041949289
 20
2150.20819718601
 11
713.291362757174
 21
2150.208197186015
 72
     1
 10
713.291362757174
 20
2150.208197186015
 11
713.2913627571722
 21
2480.208197186015
 72
     1
 10
443.996004194928
 20
2480.20819718601
 11
713.2913627571722
 21
2480.208197186015
 72
     1
 10
443.996004194928
 20
2480.20819718601
 11
443.9960041949289
 21
2150.20819718601
 97
        4
330
3FC5
330
3FCF
330
3FC6
330
3FD0
 75
     0
 76
     1
 52
0.0
 41
6.0
 77
     0
 78
     1
 53
45.0
 43
0.0000000000044338
 44
-12.90822548226311
 45
-13.47038418160373
 46
13.47038418160373
 79
     0
 98
        1
 10
0.0000000000044338
 20
-12.90822548226311
1001
ACAD
1010
0.0
1020
0.0
1030
0.0
  0
LINE
  5
3FC5
102
{ACAD_REACTORS
330
3FC4
102
}
330
A
100
AcDbEntity
  8
MODEL
100
AcDbLine
 10
443.9960041949289
 20
2150.20819718601
 30
0.0
 11
713.291362757174
 21
2150.208197186015
 31
0.0
  0
LINE
  5
3FC6
102
{ACAD_REACTORS
330
3FC4
102
}
330
A
100
AcDbEntity
  8
MODEL
100
AcDbLine
 10
443.996004194928
 20
2480.20819718601
 30
0.0
 11
713.2913627571722
 21
2480.208197186015
 31
0.0
  0
MTEXT
  5
3FC7
330
A
100
AcDbEntity
  8
notes
 62
     7
390
1D
100
AcDbMText
 10
201.129112825834
 20
2160.944666947094
 30
0.0
 40
24.4326171875
 41
0.0
 46
0.0
 71
     1
 72
     1
  1
カウンター切込寸法
  7
ＭＳ ゴシック
 11
0.0
 21
1.0
 31
0.0
 73
     1
 44
0.7828267384257843
  0
LINE
  5
3FC8
102
{ACAD_REACTORS
330
3FD3
102
}
330
A
100
AcDbEntity
  8
ADF70-0001
  6
Continuous
 62
     7
370
     5
390
1D
100
AcDbLine
 10
413.9960041949282
 20
1991.672249341937
 30
0.0
 11
413.9960041949282
 21
2704.715497865857
 31
0.0
  0
LINE
  5
3FC9
330
A
100
AcDbEntity
  8
ADF70-0001
  6
Continuous
 62
     7
370
    15
390
1D
100
AcDbLine
 10
413.3052014212335
 20
2623.50493050881
 30
0.0
 11
376.3052014212335
 21
2660.50493050881
 31
0.0
  0
LINE
  5
3FCA
330
A
100
AcDbEntity
  8
ADF70-0001
  6
Continuous
 62
     7
370
    15
390
1D
100
AcDbLine
 10
413.3052014212335
 20
2643.50493050881
 30
0.0
 11
376.3052014212335
 21
2680.50493050881
 31
0.0
  0
LINE
  5
3FCB
330
A
100
AcDbEntity
  8
ADF70-0001
  6
Continuous
 62
     7
370
    15
390
1D
100
AcDbLine
 10
413.3052014212335
 20
2663.50493050881
 30
0.0
 11
376.3052014212335
 21
2700.50493050881
 31
0.0
  0
DIMENSION
  5
3FCC
102
{ACAD_XDICTIONARY
360
3FCD
102
}
330
A
100
AcDbEntity
  8
DIM
100
AcDbDimension
  2
*D93
 10
881.7535727953928
 20
2150.208197186015
 30
0.0
 11
881.7535727953928
 21
2315.208197186015
 31
0.0
 70
   160
 71
     5
 42
330.0
 73
     0
 74
     0
 75
     0
  3
tfrom線あり
100
AcDbAlignedDimension
 13
713.2913627571722
 23
2480.208197186015
 33
0.0
 14
713.291362757174
 24
2150.208197186015
 34
0.0
 50
90.0
100
AcDbRotatedDimension
  0
DIMENSION
  5
3FCE
330
A
100
AcDbEntity
  8
DIM
100
AcDbDimension
  2
*D94
 10
713.2913627571722
 20
2565.744020478335
 30
0.0
 11
578.6436834760501
 21
2597.748522166468
 31
0.0
 70
    32
  1
270
 71
     5
 42
269.2953585622442
 73
     0
 74
     0
 75
     0
  3
tfrom線あり
100
AcDbAlignedDimension
 13
443.996004194928
 23
2480.20819718601
 33
0.0
 14
713.2913627571722
 24
2481.302569745714
 34
0.0
100
AcDbRotatedDimension
  0
LINE
  5
3FCF
102
{ACAD_REACTORS
330
3FC4
102
}
330
A
100
AcDbEntity
  8
MODEL
100
AcDbLine
 10
713.291362757174
 20
2150.208197186015
 30
0.0
 11
713.2913627571722
 21
2480.208197186015
 31
0.0
  0
LINE
  5
3FD0
102
{ACAD_REACTORS
330
3FD3
330
3FC4
102
}
330
A
100
AcDbEntity
  8
MODEL
100
AcDbLine
 10
443.996004194928
 20
2480.20819718601
 30
0.0
 11
443.9960041949289
 21
2150.20819718601
 31
0.0
  0
DIMENSION
  5
3FD1
102
{ACAD_REACTORS
330
3FD3
102
}
102
{ACAD_XDICTIONARY
360
3FD2
102
}
330
A
100
AcDbEntity
  8
DIM
100
AcDbDimension
  2
*D95
 10
413.9960041949282
 20
2565.744020478335
 30
0.0
 11
428.9960041949281
 21
2597.748522166468
 31
0.0
 70
    32
 71
     5
 42
29.99999999999977
 73
     0
 74
     1
 75
     1
  3
tfrom線あり
100
AcDbAlignedDimension
 13
443.996004194928
 23
2480.20819718601
 33
0.0
 14
413.9960041949282
 24
2480.20819718601
 34
0.0
100
AcDbRotatedDimension
1001
ACAD
1000
DSTYLE
1002
{
1070
   172
1070
     1
1002
}
  0
VIEWPORT
  5
349
330
B
100
AcDbEntity
 67
     1
  8
0
100
AcDbViewport
 10
202.5
 20
128.5
 30
0.0
 40
486.0
 41
308.4
 68
     1
 69
     1
 12
202.5
 22
128.5
 13
0.0
 23
0.0
 14
0.5
 24
0.5
 15
0.0
 25
0.0
 16
0.0
 26
0.0
 36
1.0
 17
0.0
 27
0.0
 37
0.0
 42
50.0
 43
0.0
 44
0.0
 45
308.4
 50
0.0
 51
0.0
 72
   100
 90
   557152
  1

281
     0
 71
     1
 74
     0
110
0.0
120
0.0
130
0.0
111
1.0
121
0.0
131
0.0
112
0.0
122
1.0
132
0.0
 79
     0
146
0.0
170
     0
 61
     5
348
26C
292
     1
282
     1
141
0.0
142
0.0
 63
   256
  0
VIEWPORT
  5
34A
330
B
100
AcDbEntity
 67
     1
  8
0
100
AcDbViewport
 10
202.5
 20
128.5
 30
0.0
 40
324.0
 41
205.6
 68
     2
 69
     2
 12
986.6781359294573
 22
1427.077061889956
 13
0.0
 23
0.0
 14
0.5
 24
0.5
 15
0.0
 25
0.0
 16
0.0
 26
0.0
 36
1.0
 17
0.0
 27
0.0
 37
0.0
 42
50.0
 43
0.0
 44
0.0
 45
2890.021615685494
 50
0.0
 51
0.0
 72
   100
 90
   557152
  1

281
     0
 71
     1
 74
     0
110
0.0
120
0.0
130
0.0
111
1.0
121
0.0
131
0.0
112
0.0
122
1.0
132
0.0
 79
     0
146
0.0
170
     0
 61
     5
348
26C
292
     1
282
     1
141
0.0
142
0.0
 63
   256
  0
ENDSEC
  0
SECTION
  2
OBJECTS
  0
DICTIONARY
  5
19
330
0
100
AcDbDictionary
281
     1
  3
ACAD_COLOR
350
674
  3
ACAD_DETAILVIEWSTYLE
350
BBF
  3
ACAD_FIELDLIST
350
146A
  3
ACAD_GROUP
350
1A
  3
ACAD_IMAGE_VARS
350
27B
  3
ACAD_LAYOUT
350
1E
  3
ACAD_MATERIAL
350
263
  3
ACAD_MLEADERSTYLE
350
336
  3
ACAD_MLINESTYLE
350
1B
  3
ACAD_PLOTSETTINGS
350
22
  3
ACAD_PLOTSTYLENAME
350
1F
  3
ACAD_SCALELIST
350
241
  3
ACAD_SECTIONVIEWSTYLE
350
BC0
  3
ACAD_TABLESTYLE
350
278
  3
ACAD_VISUALSTYLE
350
267
  3
ACDB_RECOMPOSE_DATA
350
4008
  3
AcDbVariableDictionary
350
330
  3
APPDATA
350
27A
  3
DimOffsetDictionary
350
E3E
  0
SUN
  5
904
330
15
100
AcDbSun
 90
        1
290
     0
 63
     7
421
 16777215
 40
1.0
291
     1
 91
  2455826
 92
 54000000
292
     0
 70
     2
 71
   256
280
     1
  0
DICTIONARY
  5
2E1
330
2
100
AcDbDictionary
280
     1
281
     1
  3
ACAD_LAYERSTATES
360
2E2
  3
ACLYDICTIONARY
360
DF9
  0
DICTIONARY
  5
374D
330
A
100
AcDbDictionary
280
     1
281
     1
  3
ACAD_SORTENTS
360
374E
  0
DICTIONARY
  5
1468
330
1466
100
AcDbDictionary
280
     1
281
     1
  0
DICTIONARY
  5
3D0D
330
3D0C
100
AcDbDictionary
280
     1
281
     1
  3
ACAD_DIMASSOC
360
3D0E
  0
DICTIONARY
  5
3D10
330
3D0F
100
AcDbDictionary
280
     1
281
     1
  3
ACAD_DIMASSOC
360
3D11
  0
DICTIONARY
  5
3D13
330
3D12
100
AcDbDictionary
280
     1
281
     1
  3
ACAD_DIMASSOC
360
3D14
  0
DICTIONARY
  5
3D16
330
3D15
100
AcDbDictionary
280
     1
281
     1
  3
ACAD_DIMASSOC
360
3D17
  0
DICTIONARY
  5
3D4C
330
3D4B
100
AcDbDictionary
280
     1
281
     1
  3
ACAD_DIMASSOC
360
3D4D
  0
DICTIONARY
  5
3D59
330
3D58
100
AcDbDictionary
280
     1
281
     1
  3
ACAD_DIMASSOC
360
3D5A
  0
DICTIONARY
  5
3D5C
330
3D5B
100
AcDbDictionary
280
     1
281
     1
  3
ACAD_DIMASSOC
360
3D5D
  0
DICTIONARY
  5
3D65
330
3D64
100
AcDbDictionary
280
     1
281
     1
  3
ACAD_DIMASSOC
360
3D66
  0
DICTIONARY
  5
3D68
330
3D67
100
AcDbDictionary
280
     1
281
     1
  3
ACAD_DIMASSOC
360
3D69
  0
DICTIONARY
  5
3D6E
330
3D6D
100
AcDbDictionary
280
     1
281
     1
  3
ACAD_DIMASSOC
360
3D6F
  0
DICTIONARY
  5
3E97
330
3E96
100
AcDbDictionary
280
     1
281
     1
  3
ACAD_DIMASSOC
360
3E98
  0
DICTIONARY
  5
3F44
330
3F43
100
AcDbDictionary
280
     1
281
     1
  3
ACAD_DIMASSOC
360
3F45
  0
DICTIONARY
  5
3FCD
330
3FCC
100
AcDbDictionary
280
     1
281
     1
  0
DICTIONARY
  5
3FD2
330
3FD1
100
AcDbDictionary
280
     1
281
     1
  3
ACAD_DIMASSOC
360
3FD3
  0
DICTIONARY
  5
674
102
{ACAD_REACTORS
330
19
102
}
330
19
100
AcDbDictionary
281
     1
  0
DICTIONARY
  5
BBF
102
{ACAD_REACTORS
330
19
102
}
330
19
100
AcDbDictionary
281
     1
  0
FIELDLIST
  5
146A
102
{ACAD_REACTORS
330
19
102
}
330
19
100
AcDbIdSet
 90
        0
100
AcDbFieldList
  0
DICTIONARY
  5
1A
102
{ACAD_REACTORS
330
19
102
}
330
19
100
AcDbDictionary
281
     1
  3
*A1
350
36AC
  0
RASTERVARIABLES
  5
27B
102
{ACAD_REACTORS
330
19
102
}
330
19
100
AcDbRasterVariables
 90
        0
 70
     1
 71
     1
 72
     1
  0
DICTIONARY
  5
1E
102
{ACAD_REACTORS
330
19
102
}
330
19
100
AcDbDictionary
281
     1
  3
Layout1
350
21
  3
Model
350
20
  0
DICTIONARY
  5
263
102
{ACAD_REACTORS
330
19
102
}
330
19
100
AcDbDictionary
281
     1
  3
ByBlock
350
265
  3
ByLayer
350
264
  3
Global
350
266
  0
DICTIONARY
  5
336
102
{ACAD_REACTORS
330
19
102
}
330
19
100
AcDbDictionary
281
     1
  3
Standard
350
DAB
  0
DICTIONARY
  5
1B
102
{ACAD_REACTORS
330
19
102
}
330
19
100
AcDbDictionary
281
     1
  3
Standard
350
1C
  0
DICTIONARY
  5
22
102
{ACAD_REACTORS
330
19
102
}
330
19
100
AcDbDictionary
281
     1
  0
ACDBDICTIONARYWDFLT
  5
1F
102
{ACAD_REACTORS
330
19
102
}
330
19
100
AcDbDictionary
281
     1
  3
Normal
350
1D
100
AcDbDictionaryWithDefault
340
1D
  0
DICTIONARY
  5
241
102
{ACAD_REACTORS
330
19
102
}
330
19
100
AcDbDictionary
281
     1
  3
A0
350
242
  3
A1
350
243
  3
A2
350
244
  3
A3
350
245
  3
A4
350
246
  3
A5
350
247
  3
A6
350
248
  3
A7
350
249
  3
A8
350
24A
  3
A9
350
24B
  3
B0
350
24C
  3
B1
350
24D
  3
B2
350
24E
  3
B3
350
24F
  3
B4
350
250
  3
B5
350
251
  3
B6
350
252
  3
B7
350
253
  3
B8
350
254
  3
B9
350
255
  3
C0
350
256
  3
C1
350
257
  3
C2
350
258
  3
C3
350
259
  3
C4
350
25A
  3
C5
350
25B
  3
C6
350
25C
  3
C7
350
25D
  3
C8
350
25E
  3
C9
350
25F
  3
D0
350
260
  3
D1
350
261
  3
D2
350
262
  0
DICTIONARY
  5
BC0
102
{ACAD_REACTORS
330
19
102
}
330
19
100
AcDbDictionary
281
     1
  0
DICTIONARY
  5
278
102
{ACAD_REACTORS
330
19
102
}
330
19
100
AcDbDictionary
281
     1
  3
Standard
350
279
  0
DICTIONARY
  5
267
102
{ACAD_REACTORS
330
19
102
}
330
19
100
AcDbDictionary
281
     1
  3
2dWireframe
350
26C
  3
3D Hidden
350
26E
  3
3dWireframe
350
26D
  3
Basic
350
26F
  3
Brighten
350
273
  3
ColorChange
350
277
  3
Conceptual
350
271
  3
Dim
350
272
  3
EdgeColorOff
350
8FE
  3
Facepattern
350
276
  3
Flat
350
268
  3
FlatWithEdges
350
269
  3
Gouraud
350
26A
  3
GouraudWithEdges
350
26B
  3
Hidden
350
8FB
  3
JitterOff
350
8FC
  3
Linepattern
350
275
  3
OverhangOff
350
8FD
  3
Realistic
350
270
  3
Shaded
350
903
  3
Shaded with edges
350
902
  3
Shades of Gray
350
8FF
  3
Sketchy
350
900
  3
Thicken
350
274
  3
Wireframe
350
8FA
  3
X-Ray
350
901
  0
XRECORD
  5
4008
102
{ACAD_REACTORS
330
19
102
}
330
19
100
AcDbXrecord
280
     1
 90
        1
330
279
  0
DICTIONARY
  5
330
102
{ACAD_REACTORS
330
19
102
}
330
19
100
AcDbDictionary
281
     1
  3
CANNOSCALE
350
331
  3
CMLEADERSTYLE
350
DB1
  3
CTABLESTYLE
350
335
  3
HPTRANSPARENCY
350
D52
  3
XCLIPFRAME
350
896
  0
DICTIONARY
  5
27A
102
{ACAD_REACTORS
330
19
102
}
330
19
100
AcDbDictionary
281
     1
  0
DICTIONARY
  5
E3E
102
{ACAD_REACTORS
330
19
102
}
330
19
100
AcDbDictionary
281
     1
  3
DIMRAILANGLE
350
ECE
  3
DIMRAILFIRSTOFFSET
350
ECC
  3
DIMRAILOFFSET
350
ECD
  3
DIMRAILSENABLED
350
ECF
  0
DICTIONARY
  5
2E2
102
{ACAD_REACTORS
330
2E1
102
}
330
2E1
100
AcDbDictionary
281
     1
  0
DICTIONARY
  5
DF9
102
{ACAD_REACTORS
330
2E1
102
}
330
2E1
100
AcDbDictionary
281
     1
1001
ACAD
1000
<All
  0
SORTENTSTABLE
  5
374E
102
{ACAD_REACTORS
330
374D
102
}
330
374D
100
AcDbSortentsTable
330
A
331
369B
  5
35AE
331
369C
  5
369A
331
36A7
  5
369B
331
36A8
  5
369C
331
36A9
  5
36A7
331
36AA
  5
36A8
331
36AB
  5
36A9
331
3CB1
  5
3CB2
331
3CB2
  5
3CB3
331
3CB3
  5
3CB5
331
3CB4
  5
3CB6
331
3CB5
  5
3CB7
331
3CB6
  5
3CB8
331
3CB7
  5
3CB9
331
3CB8
  5
3CBA
331
3CB9
  5
3CBC
331
3CBA
  5
3CBD
331
3CBB
  5
3CBE
331
3CBC
  5
3CBF
331
3CBD
  5
3CC0
331
3CBE
  5
3CC1
331
3CBF
  5
3CC3
331
3CC0
  5
3CC4
331
3CC1
  5
3CC5
331
3CC2
  5
3CC6
331
3CC3
  5
3CC7
331
3CC4
  5
3CC8
331
3CC5
  5
3CC9
331
3CC6
  5
3CCA
331
3CC7
  5
3CCB
331
3CC8
  5
3CCD
331
3CC9
  5
3CCE
331
3CCA
  5
3CCF
331
3CCB
  5
3CD0
331
3CCC
  5
3CD1
331
3CCD
  5
3CD2
331
3CCE
  5
3CD3
331
3CCF
  5
3CD4
331
0
  5
3CD6
331
0
  5
3CD7
331
0
  5
3CD8
331
0
  5
3CD9
331
0
  5
3CDA
331
0
  5
3CDB
331
0
  5
3CDC
331
0
  5
3CE2
331
0
  5
3CE5
331
0
  5
3CEB
331
0
  5
3CEE
331
0
  5
3CEF
331
0
  5
3CF0
331
0
  5
3CF1
331
3CE6
  5
3CF2
331
3CE7
  5
3CF3
331
3CE8
  5
3CF4
331
3CE9
  5
3CF5
331
3CEC
  5
3CF8
331
3CED
  5
3CF9
331
3CEE
  5
3CFA
331
3CEF
  5
3CFB
331
3CF0
  5
3CFC
331
3CF1
  5
3CFD
331
3CF2
  5
3CFE
331
3CF3
  5
3CFF
331
3CF4
  5
3D00
331
3CF5
  5
3D01
331
3CF6
  5
3D02
331
3CF7
  5
3D03
331
3CF8
  5
3D04
331
3CF9
  5
3D05
331
3CFA
  5
3D06
331
3CFB
  5
3D07
331
3CFC
  5
3D08
331
3CFD
  5
3D09
331
3CFE
  5
3D0A
331
3CFF
  5
3D0B
331
3D00
  5
3D0C
331
3D01
  5
3D0F
331
3D02
  5
3D12
331
3D03
  5
3D15
331
3D04
  5
3D18
331
3D05
  5
3D19
331
3D06
  5
3D1A
331
3D07
  5
3D1D
331
3D08
  5
3D20
331
3D09
  5
3D23
331
3D0A
  5
3D24
331
3D0B
  5
3D25
331
3D0C
  5
3D26
331
3D0F
  5
3D27
331
3D12
  5
3D28
331
3D15
  5
3D29
331
3D18
  5
3D2A
331
0
  5
3D2B
331
0
  5
3D2D
331
0
  5
3D2E
331
3D23
  5
3D2F
331
3D24
  5
3D30
331
3D25
  5
3D31
331
3D26
  5
3D32
331
3D27
  5
3D33
331
3D28
  5
3D35
331
3D29
  5
3D36
331
3D2A
  5
3D38
331
3D2B
  5
3D39
331
3D2C
  5
3D3A
331
3D2D
  5
3D3B
331
3D2E
  5
3D3C
331
3D2F
  5
3D3D
331
3D30
  5
3D3E
331
3D31
  5
3D40
331
3D32
  5
3D41
331
3D33
  5
3D42
331
3D34
  5
3D43
331
3D35
  5
3D44
331
3D36
  5
3D45
331
3D38
  5
3D47
331
3D39
  5
3D48
331
3D3A
  5
3D49
331
3D3B
  5
3D4A
331
3D3C
  5
3D4B
331
3D3D
  5
3D4E
331
3D3E
  5
3D51
331
3D3F
  5
3D54
331
3D40
  5
3D57
331
3D41
  5
3D58
331
3D42
  5
3D5B
331
3D43
  5
3D5E
331
3D44
  5
3D5F
331
3D45
  5
3D60
331
3D46
  5
3D61
331
3D47
  5
3D64
331
3D48
  5
3D67
331
3D4B
  5
3E78
331
3D58
  5
3E7D
331
3D5B
  5
3E7E
331
3D5F
  5
3E80
331
3D60
  5
3E81
331
3D64
  5
3E83
331
3D67
  5
3E84
331
3D6D
  5
3E86
331
0
  5
3E87
331
3E80
  5
3D37
331
3E81
  5
3D3F
331
3E82
  5
3D34
331
3E86
  5
3CB4
331
3E87
  5
3CCC
331
3E88
  5
3CB1
331
3E8C
  5
3CBB
331
3E8D
  5
3CC2
331
3E96
  5
3ECA
331
3EC2
  5
3ECE
331
3EC3
  5
3ECF
331
0
  5
3ED3
331
0
  5
3CE1
  0
DIMASSOC
  5
3D0E
102
{ACAD_REACTORS
330
3D0D
102
}
330
3D0D
100
AcDbDimAssoc
330
3D0C
 90
        3
 70
     0
 71
     1
  1
AcDbOsnapPointRef
 72
    10
331
3CFD
 73
     0
 91
        0
 40
0.9936493955795695
 10
0.0
 20
0.0
 30
0.0
 75
     0
  1
AcDbOsnapPointRef
 72
     1
331
3D02
 73
     0
 91
        0
 40
0.0
 10
0.0
 20
0.0
 30
0.0
 75
     0
  0
DIMASSOC
  5
3D11
102
{ACAD_REACTORS
330
3D10
102
}
330
3D10
100
AcDbDimAssoc
330
3D0F
 90
        1
 70
     0
 71
     1
  1
AcDbOsnapPointRef
 72
    13
331
3CF8
 73
     0
 91
        0
 40
0.0
 10
0.0
 20
0.0
 30
0.0
 75
     0
  0
DIMASSOC
  5
3D14
102
{ACAD_REACTORS
330
3D13
102
}
330
3D13
100
AcDbDimAssoc
330
3D12
 90
        2
 70
     0
 71
     1
  1
AcDbOsnapPointRef
 72
     8
331
3CFD
 73
     0
 91
        0
 40
0.2377738398527303
 10
0.0
 20
0.0
 30
0.0
 75
     1
  1
AcDbOsnapPointRef
 72
    10
331
3CFE
 73
     0
 91
        0
 40
0.4135827776532307
 10
0.0
 20
0.0
 30
0.0
 75
     0
  0
DIMASSOC
  5
3D17
102
{ACAD_REACTORS
330
3D16
102
}
330
3D16
100
AcDbDimAssoc
330
3D15
 90
        3
 70
     0
 71
     1
  1
AcDbOsnapPointRef
 72
    13
331
3CF7
 73
     0
 91
        0
 40
0.0
 10
0.0
 20
0.0
 30
0.0
 75
     0
  1
AcDbOsnapPointRef
 72
     2
331
3CF3
 73
     0
 91
        0
 40
0.5
 10
0.0
 20
0.0
 30
0.0
 75
     0
  0
DIMASSOC
  5
3D4D
102
{ACAD_REACTORS
330
3D4C
102
}
330
3D4C
100
AcDbDimAssoc
330
3D4B
 90
        3
 70
     0
 71
     1
  1
AcDbOsnapPointRef
 72
     3
331
3D47
 73
     0
 91
        0
 40
0.0
 10
0.0
 20
0.0
 30
0.0
 75
     0
  1
AcDbOsnapPointRef
 72
     2
331
3CE9
 73
     0
 91
        0
 40
0.5
 10
0.0
 20
0.0
 30
0.0
 75
     0
  0
DIMASSOC
  5
3D5A
102
{ACAD_REACTORS
330
3D59
102
}
330
3D59
100
AcDbDimAssoc
330
3D58
 90
        1
 70
     0
 71
     1
  1
AcDbOsnapPointRef
 72
    10
331
3D44
 73
     0
 91
        0
 40
2.839301578641143
 10
0.0
 20
0.0
 30
0.0
 75
     0
  0
DIMASSOC
  5
3D5D
102
{ACAD_REACTORS
330
3D5C
102
}
330
3D5C
100
AcDbDimAssoc
330
3D5B
 90
        1
 70
     0
 71
     1
  1
AcDbOsnapPointRef
 72
    13
331
3D2C
 73
     0
 91
        0
 40
0.0
 10
0.0
 20
0.0
 30
0.0
 75
     0
  0
DIMASSOC
  5
3D66
102
{ACAD_REACTORS
330
3D65
102
}
330
3D65
100
AcDbDimAssoc
330
3D64
 90
        3
 70
     0
 71
     1
  1
AcDbOsnapPointRef
 72
     3
331
3CAE
 73
     0
 91
        0
 40
0.0
 10
0.0
 20
0.0
 30
0.0
 75
     0
  1
AcDbOsnapPointRef
 72
     3
331
3CAD
 73
     0
 91
        0
 40
0.0
 10
0.0
 20
0.0
 30
0.0
 75
     0
  0
DIMASSOC
  5
3D69
102
{ACAD_REACTORS
330
3D68
102
}
330
3D68
100
AcDbDimAssoc
330
3D67
 90
        3
 70
     0
 71
     1
  1
AcDbOsnapPointRef
 72
     3
331
3CAD
 73
     0
 91
        0
 40
0.0
 10
0.0
 20
0.0
 30
0.0
 75
     0
  1
AcDbOsnapPointRef
 72
     3
331
3D25
 73
     0
 91
        0
 40
0.0
 10
0.0
 20
0.0
 30
0.0
 75
     0
  0
DIMASSOC
  5
3D6F
102
{ACAD_REACTORS
330
3D6E
102
}
330
3D6E
100
AcDbDimAssoc
330
3D6D
 90
        0
 70
     0
 71
     1
  0
DIMASSOC
  5
3E98
102
{ACAD_REACTORS
330
3E97
102
}
330
3E97
100
AcDbDimAssoc
330
3E96
 90
        2
 70
     0
 71
     1
  1
AcDbOsnapPointRef
 72
     1
331
3D3E
 73
     0
 91
        0
 40
0.0
 10
0.0
 20
0.0
 30
0.0
 75
     0
  0
DIMASSOC
  5
3F45
102
{ACAD_REACTORS
330
3F44
102
}
330
3F44
100
AcDbDimAssoc
330
3F43
 90
        1
 70
     0
 71
     1
  1
AcDbOsnapPointRef
 72
     8
331
3CB8
 73
     0
 91
        0
 40
0.3476983278295719
 10
0.0
 20
0.0
 30
0.0
 75
     1
  1
AcDbOsnapPointRef
 72
     1
 40
0.0
 10
1295.086668696774
 20
765.4055987612909
 30
0.0
 75
     0
  0
DIMASSOC
  5
3FD3
102
{ACAD_REACTORS
330
3FD2
102
}
330
3FD2
100
AcDbDimAssoc
330
3FD1
 90
        3
 70
     0
 71
     1
  1
AcDbOsnapPointRef
 72
    13
331
3FD0
 73
     0
 91
        0
 40
0.0
 10
0.0
 20
0.0
 30
0.0
 75
     0
  1
AcDbOsnapPointRef
 72
     8
331
3FC8
 73
     0
 91
        0
 40
0.685142098821352
 10
0.0
 20
0.0
 30
0.0
 75
     1
  1
AcDbOsnapPointRef
 72
    13
331
3FD0
 73
     0
 91
        0
 40
0.0
 10
0.0
 20
0.0
 30
0.0
 75
     0
  0
GROUP
  5
36AC
102
{ACAD_REACTORS
330
1A
102
}
330
1A
100
AcDbGroup
300

 70
     1
 71
     1
340
369B
340
369C
340
36A7
340
36A8
340
36A9
340
36AA
340
36AB
  0
LAYOUT
  5
21
102
{ACAD_REACTORS
330
1E
102
}
330
1E
100
AcDbPlotSettings
  1

  2
none_device
  4
ISO_A3_(420.00_x_297.00_MM)
  6

 40
7.5
 41
20.0
 42
7.5
 43
20.0
 44
420.0
 45
297.0
 46
0.0
 47
0.0
 48
0.0
 49
0.0
140
0.0
141
0.0
142
1.0
143
1.0
 70
     0
 72
     1
 73
     0
 74
     0
  7

 75
     0
 76
     0
 77
     2
 78
   300
147
1.0
148
0.0
149
0.0
100
AcDbLayout
  1
Layout1
 70
     0
 71
     0
 10
-7.5
 20
-20.0
 11
412.5
 21
277.0
 12
0.0
 22
0.0
 32
0.0
 14
0.0
 24
0.0
 34
0.0
 15
0.0
 25
0.0
 35
0.0
146
0.0
 13
0.0
 23
0.0
 33
0.0
 16
0.0
 26
0.0
 36
0.0
 17
0.0
 27
0.0
 37
0.0
 76
     0
330
B
331
349
  0
LAYOUT
  5
20
102
{ACAD_REACTORS
330
1E
102
}
330
1E
100
AcDbPlotSettings
  1

  2
none_device
  4
ISO_A3_(420.00_x_297.00_MM)
  6

 40
7.5
 41
20.0
 42
7.5
 43
20.0
 44
420.0
 45
297.0
 46
0.0
 47
0.0
 48
0.0
 49
0.0
140
0.0
141
0.0
142
1.0
143
1.0
 70
  1024
 72
     1
 73
     0
 74
     0
  7

 75
     0
 76
     0
 77
     2
 78
   300
147
1.0
148
0.0
149
0.0
100
AcDbLayout
  1
Model
 70
     0
 71
     1
 10
0.0
 20
0.0
 11
2100.0
 21
2970.0
 12
0.0
 22
0.0
 32
0.0
 14
0.0
 24
0.0
 34
-0.0000000000000142
 15
2100.0
 25
2970.0
 35
34.99521132346014
146
0.0
 13
0.0
 23
0.0
 33
0.0
 16
0.0
 26
0.0
 36
0.0
 17
0.0
 27
0.0
 37
0.0
 76
     0
330
A
331
15
  0
MATERIAL
  5
265
102
{ACAD_REACTORS
330
263
102
}
330
263
100
AcDbMaterial
  1
ByBlock
 72
     1
 94
      127
  0
MATERIAL
  5
264
102
{ACAD_REACTORS
330
263
102
}
330
263
100
AcDbMaterial
  1
ByLayer
 72
     1
 94
      127
  0
MATERIAL
  5
266
102
{ACAD_REACTORS
330
263
102
}
330
263
100
AcDbMaterial
  1
Global
 72
     1
 94
      127
  0
MLEADERSTYLE
  5
DAB
102
{ACAD_REACTORS
330
336
102
}
330
336
100
AcDbMLeaderStyle
170
     2
171
     1
172
     0
 90
        2
 40
0.0
 41
0.0
173
     1
 91
-1056964608
340
11
 92
       -2
290
     1
 42
2.0
291
     1
 43
8.0
  3
Standard
341
0
 44
4.0
300

342
17
174
     1
178
     6
175
     1
176
     0
 93
-1056964608
 45
4.0
292
     0
297
     0
 46
4.0
343
0
 94
-1056964608
 47
1.0
 49
1.0
140
1.0
293
     1
141
0.0
294
     1
177
     0
142
1.0
295
     0
296
     0
143
3.75
1001
ACAD_MLEADERVER
1070
     2
  0
MLINESTYLE
  5
1C
102
{ACAD_REACTORS
330
1B
102
}
330
1B
100
AcDbMlineStyle
  2
Standard
 70
     0
  3

 62
     0
 51
90.0
 52
90.0
 71
     2
 49
0.5
 62
   256
  6
BYLAYER
 49
-0.5
 62
   256
  6
BYLAYER
  0
ACDBPLACEHOLDER
  5
1D
102
{ACAD_REACTORS
330
1F
102
}
330
1F
  0
SCALE
  5
242
102
{ACAD_REACTORS
330
241
102
}
330
241
100
AcDbScale
 70
     0
300
1:1
140
1.0
141
1.0
290
     1
  0
SCALE
  5
243
102
{ACAD_REACTORS
330
241
102
}
330
241
100
AcDbScale
 70
     0
300
1:2
140
1.0
141
2.0
290
     0
  0
SCALE
  5
244
102
{ACAD_REACTORS
330
241
102
}
330
241
100
AcDbScale
 70
     0
300
1:4
140
1.0
141
4.0
290
     0
  0
SCALE
  5
245
102
{ACAD_REACTORS
330
241
102
}
330
241
100
AcDbScale
 70
     0
300
1:5
140
1.0
141
5.0
290
     0
  0
SCALE
  5
246
102
{ACAD_REACTORS
330
241
102
}
330
241
100
AcDbScale
 70
     0
300
1:8
140
1.0
141
8.0
290
     0
  0
SCALE
  5
247
102
{ACAD_REACTORS
330
241
102
}
330
241
100
AcDbScale
 70
     0
300
1:10
140
1.0
141
10.0
290
     0
  0
SCALE
  5
248
102
{ACAD_REACTORS
330
241
102
}
330
241
100
AcDbScale
 70
     0
300
1:16
140
1.0
141
16.0
290
     0
  0
SCALE
  5
249
102
{ACAD_REACTORS
330
241
102
}
330
241
100
AcDbScale
 70
     0
300
1:20
140
1.0
141
20.0
290
     0
  0
SCALE
  5
24A
102
{ACAD_REACTORS
330
241
102
}
330
241
100
AcDbScale
 70
     0
300
1:30
140
1.0
141
30.0
290
     0
  0
SCALE
  5
24B
102
{ACAD_REACTORS
330
241
102
}
330
241
100
AcDbScale
 70
     0
300
1:40
140
1.0
141
40.0
290
     0
  0
SCALE
  5
24C
102
{ACAD_REACTORS
330
241
102
}
330
241
100
AcDbScale
 70
     0
300
1:50
140
1.0
141
50.0
290
     0
  0
SCALE
  5
24D
102
{ACAD_REACTORS
330
241
102
}
330
241
100
AcDbScale
 70
     0
300
1:100
140
1.0
141
100.0
290
     0
  0
SCALE
  5
24E
102
{ACAD_REACTORS
330
241
102
}
330
241
100
AcDbScale
 70
     0
300
2:1
140
2.0
141
1.0
290
     0
  0
SCALE
  5
24F
102
{ACAD_REACTORS
330
241
102
}
330
241
100
AcDbScale
 70
     0
300
4:1
140
4.0
141
1.0
290
     0
  0
SCALE
  5
250
102
{ACAD_REACTORS
330
241
102
}
330
241
100
AcDbScale
 70
     0
300
8:1
140
8.0
141
1.0
290
     0
  0
SCALE
  5
251
102
{ACAD_REACTORS
330
241
102
}
330
241
100
AcDbScale
 70
     0
300
10:1
140
10.0
141
1.0
290
     0
  0
SCALE
  5
252
102
{ACAD_REACTORS
330
241
102
}
330
241
100
AcDbScale
 70
     0
300
100:1
140
100.0
141
1.0
290
     0
  0
SCALE
  5
253
102
{ACAD_REACTORS
330
241
102
}
330
241
100
AcDbScale
 70
     0
300
1/128" = 1'-0"
140
0.0078125
141
12.0
290
     0
  0
SCALE
  5
254
102
{ACAD_REACTORS
330
241
102
}
330
241
100
AcDbScale
 70
     0
300
1/64" = 1'-0"
140
0.015625
141
12.0
290
     0
  0
SCALE
  5
255
102
{ACAD_REACTORS
330
241
102
}
330
241
100
AcDbScale
 70
     0
300
1/32" = 1'-0"
140
0.03125
141
12.0
290
     0
  0
SCALE
  5
256
102
{ACAD_REACTORS
330
241
102
}
330
241
100
AcDbScale
 70
     0
300
1/16" = 1'-0"
140
0.0625
141
12.0
290
     0
  0
SCALE
  5
257
102
{ACAD_REACTORS
330
241
102
}
330
241
100
AcDbScale
 70
     0
300
3/32" = 1'-0"
140
0.09375
141
12.0
290
     0
  0
SCALE
  5
258
102
{ACAD_REACTORS
330
241
102
}
330
241
100
AcDbScale
 70
     0
300
1/8" = 1'-0"
140
0.125
141
12.0
290
     0
  0
SCALE
  5
259
102
{ACAD_REACTORS
330
241
102
}
330
241
100
AcDbScale
 70
     0
300
3/16" = 1'-0"
140
0.1875
141
12.0
290
     0
  0
SCALE
  5
25A
102
{ACAD_REACTORS
330
241
102
}
330
241
100
AcDbScale
 70
     0
300
1/4" = 1'-0"
140
0.25
141
12.0
290
     0
  0
SCALE
  5
25B
102
{ACAD_REACTORS
330
241
102
}
330
241
100
AcDbScale
 70
     0
300
3/8" = 1'-0"
140
0.375
141
12.0
290
     0
  0
SCALE
  5
25C
102
{ACAD_REACTORS
330
241
102
}
330
241
100
AcDbScale
 70
     0
300
1/2" = 1'-0"
140
0.5
141
12.0
290
     0
  0
SCALE
  5
25D
102
{ACAD_REACTORS
330
241
102
}
330
241
100
AcDbScale
 70
     0
300
3/4" = 1'-0"
140
0.75
141
12.0
290
     0
  0
SCALE
  5
25E
102
{ACAD_REACTORS
330
241
102
}
330
241
100
AcDbScale
 70
     0
300
1" = 1'-0"
140
1.0
141
12.0
290
     0
  0
SCALE
  5
25F
102
{ACAD_REACTORS
330
241
102
}
330
241
100
AcDbScale
 70
     0
300
1-1/2" = 1'-0"
140
1.5
141
12.0
290
     0
  0
SCALE
  5
260
102
{ACAD_REACTORS
330
241
102
}
330
241
100
AcDbScale
 70
     0
300
3" = 1'-0"
140
3.0
141
12.0
290
     0
  0
SCALE
  5
261
102
{ACAD_REACTORS
330
241
102
}
330
241
100
AcDbScale
 70
     0
300
6" = 1'-0"
140
6.0
141
12.0
290
     0
  0
SCALE
  5
262
102
{ACAD_REACTORS
330
241
102
}
330
241
100
AcDbScale
 70
     0
300
1'-0" = 1'-0"
140
12.0
141
12.0
290
     0
  0
TABLESTYLE
  5
279
102
{ACAD_REACTORS
330
278
102
}
102
{ACAD_XDICTIONARY
360
4006
102
}
330
278
100
AcDbTableStyle
  3
Standard
 70
     0
 71
     0
 40
0.06
 41
0.06
280
     0
281
     0
  7
Standard
140
4.5
170
     2
 62
     0
 63
   257
283
     0
 90
        4
 91
        0
  1

274
    -2
284
     1
 64
     0
275
    -2
285
     1
 65
     0
276
    -2
286
     1
 66
     0
277
    -2
287
     1
 67
     0
278
    -2
288
     1
 68
     0
279
    -2
289
     1
 69
     0
  7
Standard
140
6.0
170
     5
 62
     0
 63
   257
283
     0
 90
        4
 91
        0
  1

274
    -2
284
     1
 64
     0
275
    -2
285
     1
 65
     0
276
    -2
286
     1
 66
     0
277
    -2
287
     1
 67
     0
278
    -2
288
     1
 68
     0
279
    -2
289
     1
 69
     0
  7
Standard
140
4.5
170
     5
 62
     0
 63
   257
283
     0
 90
        4
 91
        0
  1

274
    -2
284
     1
 64
     0
275
    -2
285
     1
 65
     0
276
    -2
286
     1
 66
     0
277
    -2
287
     1
 67
     0
278
    -2
288
     1
 68
     0
279
    -2
289
     1
 69
     0
  0
VISUALSTYLE
  5
26C
102
{ACAD_REACTORS
330
267
102
}
330
267
100
AcDbVisualStyle
  2
2dWireframe
 70
     4
 71
     0
 72
     2
 73
     0
 90
        0
 40
-0.6
 41
-30.0
 62
     5
 63
     7
421
 16777215
 74
     1
 91
        4
 64
     7
 65
   257
 75
     1
175
     1
 42
1.0
 92
        0
 66
   257
 43
1.0
 76
     1
 77
     6
 78
     2
 67
     7
 79
     5
170
     0
171
     0
290
     0
174
     0
 93
        1
 44
0.0
173
     0
291
     0
 45
0.0
  0
VISUALSTYLE
  5
26E
102
{ACAD_REACTORS
330
267
102
}
330
267
100
AcDbVisualStyle
  2
3D Hidden
 70
     6
 71
     1
 72
     2
 73
     2
 90
        0
 40
-0.6
 41
-30.0
 62
     5
 63
     7
421
 16777215
 74
     2
 91
        2
 64
     7
 65
   257
 75
     2
175
     1
 42
40.0
 92
        0
 66
   257
 43
1.0
 76
     1
 77
     6
 78
     2
 67
     7
 79
     3
170
     0
171
     0
290
     0
174
     0
 93
        1
 44
0.0
173
     0
291
     0
 45
0.0
  0
VISUALSTYLE
  5
26D
102
{ACAD_REACTORS
330
267
102
}
330
267
100
AcDbVisualStyle
  2
3dWireframe
 70
     5
 71
     0
 72
     2
 73
     0
 90
        0
 40
-0.6
 41
-30.0
 62
     5
 63
     7
421
 16777215
 74
     1
 91
        4
 64
     7
 65
   257
 75
     1
175
     1
 42
1.0
 92
        0
 66
   257
 43
1.0
 76
     1
 77
     6
 78
     2
 67
     7
 79
     5
170
     0
171
     0
290
     0
174
     0
 93
        1
 44
0.0
173
     0
291
     0
 45
0.0
  0
VISUALSTYLE
  5
26F
102
{ACAD_REACTORS
330
267
102
}
330
267
100
AcDbVisualStyle
  2
Basic
 70
     7
 71
     1
 72
     0
 73
     1
 90
        0
 40
-0.6
 41
-30.0
 62
     5
 63
     7
421
 16777215
 74
     0
 91
        4
 64
     7
 65
   257
 75
     1
175
     1
 42
1.0
 92
        8
 66
     7
 43
1.0
 76
     1
 77
     6
 78
     2
 67
     7
 79
     5
170
     0
171
     0
290
     0
174
     0
 93
        1
 44
0.0
173
     0
291
     1
 45
0.0
  0
VISUALSTYLE
  5
273
102
{ACAD_REACTORS
330
267
102
}
330
267
100
AcDbVisualStyle
  2
Brighten
 70
    12
 71
     2
 72
     2
 73
     0
 90
        0
 40
-0.6
 41
-30.0
 62
     5
 63
     7
421
 16777215
 74
     1
 91
        4
 64
     7
 65
   257
 75
     1
175
     1
 42
1.0
 92
        8
 66
     7
 43
1.0
 76
     1
 77
     6
 78
     2
 67
     7
 79
     5
170
     0
171
     0
290
     0
174
     0
 93
        1
 44
50.0
173
     0
291
     1
 45
0.0
  0
VISUALSTYLE
  5
277
102
{ACAD_REACTORS
330
267
102
}
330
267
100
AcDbVisualStyle
  2
ColorChange
 70
    16
 71
     2
 72
     2
 73
     3
 90
        0
 40
-0.6
 41
-30.0
 62
     5
 63
     8
421
  8421504
 74
     1
 91
        4
 64
     7
 65
   257
 75
     1
175
     1
 42
1.0
 92
        8
 66
     8
424
  8421504
 43
1.0
 76
     1
 77
     6
 78
     2
 67
     7
 79
     5
170
     0
171
     0
290
     0
174
     0
 93
        1
 44
0.0
173
     0
291
     1
 45
0.0
  0
VISUALSTYLE
  5
271
102
{ACAD_REACTORS
330
267
102
}
330
267
100
AcDbVisualStyle
  2
Conceptual
 70
     9
 71
     3
 72
     2
 73
     0
 90
        0
 40
-0.6
 41
-30.0
 62
     5
 63
     7
421
 16777215
 74
     2
 91
        2
 64
     7
 65
   257
 75
     1
175
     1
 42
40.0
 92
        8
 66
     7
 43
1.0
 76
     1
 77
     6
 78
     2
 67
     7
 79
     3
170
     0
171
     0
290
     0
174
     0
 93
        1
 44
0.0
173
     0
291
     0
 45
0.0
  0
VISUALSTYLE
  5
272
102
{ACAD_REACTORS
330
267
102
}
330
267
100
AcDbVisualStyle
  2
Dim
 70
    11
 71
     2
 72
     2
 73
     0
 90
        0
 40
-0.6
 41
-30.0
 62
     5
 63
     7
421
 16777215
 74
     1
 91
        4
 64
     7
 65
   257
 75
     1
175
     1
 42
1.0
 92
        8
 66
     7
 43
1.0
 76
     1
 77
     6
 78
     2
 67
     7
 79
     5
170
     0
171
     0
290
     0
174
     0
 93
        1
 44
-50.0
173
     0
291
     1
 45
0.0
  0
VISUALSTYLE
  5
8FE
102
{ACAD_REACTORS
330
267
102
}
330
267
100
AcDbVisualStyle
  2
EdgeColorOff
 70
    22
 71
     2
 72
     2
 73
     0
 90
        0
 40
0.6
 41
30.0
 62
     5
 63
     7
421
 16777215
 74
     1
 91
        4
 64
     7
 65
   257
 75
     1
175
     1
 42
1.0
 92
        8
 66
     7
 43
1.0
 76
     1
 77
     6
 78
     2
 67
     7
 79
     5
170
     0
171
     0
290
     0
174
     0
 93
        1
 44
0.0
173
     0
291
     1
 45
0.0
  0
VISUALSTYLE
  5
276
102
{ACAD_REACTORS
330
267
102
}
330
267
100
AcDbVisualStyle
  2
Facepattern
 70
    15
 71
     2
 72
     2
 73
     0
 90
        0
 40
-0.6
 41
-30.0
 62
     5
 63
     7
421
 16777215
 74
     1
 91
        4
 64
     7
 65
   257
 75
     1
175
     1
 42
1.0
 92
        8
 66
     7
 43
1.0
 76
     1
 77
     6
 78
     2
 67
     7
 79
     5
170
     0
171
     0
290
     0
174
     0
 93
        1
 44
0.0
173
     0
291
     1
 45
0.0
  0
VISUALSTYLE
  5
268
102
{ACAD_REACTORS
330
267
102
}
330
267
100
AcDbVisualStyle
  2
Flat
 70
     0
 71
     2
 72
     1
 73
     1
 90
        2
 40
-0.6
 41
30.0
 62
     5
 63
     7
421
 16777215
 74
     0
 91
        4
 64
     7
 65
   257
 75
     1
175
     1
 42
1.0
 92
        8
 66
     7
 43
1.0
 76
     1
 77
     6
 78
     2
 67
     7
 79
     5
170
     0
171
     0
290
     0
174
     0
 93
       13
 44
0.0
173
     0
291
     1
 45
0.0
  0
VISUALSTYLE
  5
269
102
{ACAD_REACTORS
330
267
102
}
330
267
100
AcDbVisualStyle
  2
FlatWithEdges
 70
     1
 71
     2
 72
     1
 73
     1
 90
        2
 40
-0.6
 41
30.0
 62
     5
 63
     7
421
 16777215
 74
     1
 91
        4
 64
     7
 65
   257
 75
     1
175
     1
 42
1.0
 92
        0
 66
   257
 43
1.0
 76
     1
 77
     6
 78
     2
 67
     7
 79
     5
170
     0
171
     0
290
     0
174
     0
 93
       13
 44
0.0
173
     0
291
     1
 45
0.0
  0
VISUALSTYLE
  5
26A
102
{ACAD_REACTORS
330
267
102
}
330
267
100
AcDbVisualStyle
  2
Gouraud
 70
     2
 71
     2
 72
     2
 73
     1
 90
        2
 40
-0.6
 41
30.0
 62
     5
 63
     7
421
 16777215
 74
     0
 91
        4
 64
     7
 65
   257
 75
     1
175
     1
 42
1.0
 92
        0
 66
     7
 43
1.0
 76
     1
 77
     6
 78
     2
 67
     7
 79
     5
170
     0
171
     0
290
     0
174
     0
 93
       13
 44
0.0
173
     0
291
     1
 45
0.0
  0
VISUALSTYLE
  5
26B
102
{ACAD_REACTORS
330
267
102
}
330
267
100
AcDbVisualStyle
  2
GouraudWithEdges
 70
     3
 71
     2
 72
     2
 73
     1
 90
        2
 40
-0.6
 41
30.0
 62
     5
 63
     7
421
 16777215
 74
     1
 91
        4
 64
     7
 65
   257
 75
     1
175
     1
 42
1.0
 92
        0
 66
   257
 43
1.0
 76
     1
 77
     6
 78
     2
 67
     7
 79
     5
170
     0
171
     0
290
     0
174
     0
 93
       13
 44
0.0
173
     0
291
     1
 45
0.0
  0
VISUALSTYLE
  5
8FB
102
{ACAD_REACTORS
330
267
102
}
330
267
100
AcDbVisualStyle
  2
Hidden
 70
     6
 71
     1
 72
     2
 73
     2
 90
        0
 40
0.6
 41
30.0
 62
     5
 63
     7
421
 16777215
 74
     2
 91
        2
 64
     7
 65
   257
 75
     2
175
     1
 42
40.0
 92
        0
 66
   257
 43
1.0
 76
     1
 77
     6
 78
     2
 67
     7
 79
     3
170
     0
171
     0
290
     0
174
     0
 93
        1
 44
0.0
173
     0
291
     0
 45
0.0
  0
VISUALSTYLE
  5
8FC
102
{ACAD_REACTORS
330
267
102
}
330
267
100
AcDbVisualStyle
  2
JitterOff
 70
    20
 71
     2
 72
     2
 73
     0
 90
        0
 40
0.6
 41
30.0
 62
     5
 63
     7
421
 16777215
 74
     1
 91
        4
 64
     7
 65
   257
 75
     1
175
     1
 42
1.0
 92
       10
 66
     7
 43
1.0
 76
     1
 77
     6
 78
     2
 67
     7
 79
     5
170
     0
171
     0
290
     0
174
     0
 93
        1
 44
0.0
173
     0
291
     1
 45
0.0
  0
VISUALSTYLE
  5
275
102
{ACAD_REACTORS
330
267
102
}
330
267
100
AcDbVisualStyle
  2
Linepattern
 70
    14
 71
     2
 72
     2
 73
     0
 90
        0
 40
-0.6
 41
-30.0
 62
     5
 63
     7
421
 16777215
 74
     1
 91
        4
 64
     7
 65
   257
 75
     7
175
     7
 42
1.0
 92
        8
 66
     7
 43
1.0
 76
     1
 77
     6
 78
     2
 67
     7
 79
     5
170
     0
171
     0
290
     0
174
     0
 93
        1
 44
0.0
173
     0
291
     1
 45
0.0
  0
VISUALSTYLE
  5
8FD
102
{ACAD_REACTORS
330
267
102
}
330
267
100
AcDbVisualStyle
  2
OverhangOff
 70
    21
 71
     2
 72
     2
 73
     0
 90
        0
 40
0.6
 41
30.0
 62
     5
 63
     7
421
 16777215
 74
     1
 91
        4
 64
     7
 65
   257
 75
     1
175
     1
 42
1.0
 92
        9
 66
     7
 43
1.0
 76
     1
 77
     6
 78
     2
 67
     7
 79
     5
170
     0
171
     0
290
     0
174
     0
 93
        1
 44
0.0
173
     0
291
     1
 45
0.0
  0
VISUALSTYLE
  5
270
102
{ACAD_REACTORS
330
267
102
}
330
267
100
AcDbVisualStyle
  2
Realistic
 70
     8
 71
     2
 72
     2
 73
     0
 90
        0
 40
-0.6
 41
-30.0
 62
     5
 63
     7
421
 16777215
 74
     1
 91
        0
 64
     7
 65
   257
 75
     1
175
     1
 42
1.0
 92
        8
 66
     8
424
  7895160
 43
1.0
 76
     1
 77
     6
 78
     2
 67
     7
 79
     5
170
     0
171
     0
290
     0
174
     0
 93
       13
 44
0.0
173
     0
291
     0
 45
0.0
  0
VISUALSTYLE
  5
903
102
{ACAD_REACTORS
330
267
102
}
330
267
100
AcDbVisualStyle
  2
Shaded
 70
    27
 71
     2
 72
     2
 73
     1
 90
        2
 40
0.6
 41
30.0
 62
     5
 63
     7
421
 16777215
 74
     0
 91
        4
 64
     7
 65
   257
 75
     1
175
     1
 42
1.0
 92
        8
 66
   257
 43
1.0
 76
     1
 77
     6
 78
     2
 67
     8
425
  7895160
 79
     3
170
     0
171
     0
290
     0
174
     0
 93
        5
 44
0.0
173
     0
291
     0
 45
0.0
  0
VISUALSTYLE
  5
902
102
{ACAD_REACTORS
330
267
102
}
330
267
100
AcDbVisualStyle
  2
Shaded with edges
 70
    26
 71
     2
 72
     2
 73
     1
 90
        2
 40
0.6
 41
30.0
 62
     5
 63
     7
421
 16777215
 74
     1
 91
       10
 64
     7
 65
   257
 75
     2
175
     1
 42
1.0
 92
        8
 66
   257
 43
1.0
 76
     1
 77
     6
 78
     2
 67
     7
 79
     3
170
     0
171
     0
290
     0
174
     0
 93
        5
 44
0.0
173
     0
291
     0
 45
0.0
  0
VISUALSTYLE
  5
8FF
102
{ACAD_REACTORS
330
267
102
}
330
267
100
AcDbVisualStyle
  2
Shades of Gray
 70
    23
 71
     2
 72
     2
 73
     3
 90
        0
 40
0.6
 41
30.0
 62
     5
 63
     7
421
 16777215
 74
     2
 91
        2
 64
     7
 65
     7
 75
     1
175
     1
 42
40.0
 92
        8
 66
     7
 43
1.0
 76
     1
 77
     6
 78
     2
 67
     7
 79
     3
170
     0
171
     0
290
     0
174
     0
 93
        1
 44
0.0
173
     0
291
     0
 45
0.0
  0
VISUALSTYLE
  5
900
102
{ACAD_REACTORS
330
267
102
}
330
267
100
AcDbVisualStyle
  2
Sketchy
 70
    24
 71
     1
 72
     2
 73
     2
 90
        0
 40
0.6
 41
30.0
 62
     5
 63
     7
421
 16777215
 74
     2
 91
        2
 64
     7
 65
     7
 75
     1
175
     1
 42
40.0
 92
       11
 66
     7
 43
1.0
 76
     1
 77
     6
 78
     2
 67
     7
 79
     6
170
     0
171
     0
290
     0
174
     0
 93
        1
 44
0.0
173
     0
291
     0
 45
0.0
  0
VISUALSTYLE
  5
274
102
{ACAD_REACTORS
330
267
102
}
330
267
100
AcDbVisualStyle
  2
Thicken
 70
    13
 71
     2
 72
     2
 73
     0
 90
        0
 40
-0.6
 41
-30.0
 62
     5
 63
     7
421
 16777215
 74
     1
 91
        4
 64
     7
 65
   257
 75
     1
175
     1
 42
1.0
 92
       12
 66
     7
 43
1.0
 76
     1
 77
     6
 78
     2
 67
     7
 79
     5
170
     0
171
     0
290
     0
174
     0
 93
        1
 44
0.0
173
     0
291
     1
 45
0.0
  0
VISUALSTYLE
  5
8FA
102
{ACAD_REACTORS
330
267
102
}
330
267
100
AcDbVisualStyle
  2
Wireframe
 70
     5
 71
     0
 72
     2
 73
     0
 90
        0
 40
0.6
 41
30.0
 62
     5
 63
     7
421
 16777215
 74
     1
 91
        4
 64
     7
 65
   257
 75
     1
175
     1
 42
1.0
 92
        0
 66
   257
 43
1.0
 76
     1
 77
     6
 78
     2
 67
     7
 79
     3
170
     0
171
     0
290
     0
174
     0
 93
        1
 44
0.0
173
     0
291
     0
 45
0.0
  0
VISUALSTYLE
  5
901
102
{ACAD_REACTORS
330
267
102
}
330
267
100
AcDbVisualStyle
  2
X-Ray
 70
    25
 71
     2
 72
     2
 73
     1
 90
        1
 40
0.5
 41
30.0
 62
     5
 63
     7
421
 16777215
 74
     1
 91
        0
 64
     7
 65
   257
 75
     1
175
     1
 42
1.0
 92
        8
 66
     7
 43
1.0
 76
     1
 77
     6
 78
     2
 67
     7
 79
     3
170
     0
171
     0
290
     0
174
     0
 93
       13
 44
0.0
173
     0
291
     0
 45
0.0
  0
DICTIONARYVAR
  5
331
102
{ACAD_REACTORS
330
330
102
}
330
330
100
DictionaryVariables
280
     0
  1
1:1
  0
DICTIONARYVAR
  5
DB1
102
{ACAD_REACTORS
330
330
102
}
330
330
100
DictionaryVariables
280
     0
  1
Standard
  0
DICTIONARYVAR
  5
335
102
{ACAD_REACTORS
330
330
102
}
330
330
100
DictionaryVariables
280
     0
  1
Standard
  0
DICTIONARYVAR
  5
D52
102
{ACAD_REACTORS
330
330
102
}
330
330
100
DictionaryVariables
280
     0
  1
ByLayer
  0
DICTIONARYVAR
  5
896
102
{ACAD_REACTORS
330
330
102
}
330
330
100
DictionaryVariables
280
     0
  1
0
  0
DICTIONARYVAR
  5
ECE
102
{ACAD_REACTORS
330
E3E
102
}
330
E3E
100
DictionaryVariables
280
     0
  1
0.261799
  0
DICTIONARYVAR
  5
ECC
102
{ACAD_REACTORS
330
E3E
102
}
330
E3E
100
DictionaryVariables
280
     0
  1
0.400000
  0
DICTIONARYVAR
  5
ECD
102
{ACAD_REACTORS
330
E3E
102
}
330
E3E
100
DictionaryVariables
280
     0
  1
0.250000
  0
DICTIONARYVAR
  5
ECF
102
{ACAD_REACTORS
330
E3E
102
}
330
E3E
100
DictionaryVariables
280
     0
  1
1
  0
DICTIONARY
  5
4006
330
279
100
AcDbDictionary
280
     1
281
     1
  3
ACAD_ROUNDTRIP_2008_TABLESTYLE_CELLSTYLEMAP
360
4007
  0
CELLSTYLEMAP
  5
4007
102
{ACAD_REACTORS
330
4006
102
}
330
4006
100
AcDbCellStyleMap
 90
        3
300
CELLSTYLE
  1
TABLEFORMAT_BEGIN
 90
        5
170
     1
 91
        0
 92
    32768
 62
   257
 93
        1
300
CONTENTFORMAT
  1
CONTENTFORMAT_BEGIN
 90
        0
 91
        0
 92
        4
 93
        0
300

 40
0.0
140
1.0
 94
        5
 62
     0
340
17
144
6.0
309
CONTENTFORMAT_END
171
     1
301
MARGIN
  1
CELLMARGIN_BEGIN
 40
0.06
 40
0.06
 40
0.06
 40
0.06
 40
0.18
 40
0.18
309
CELLMARGIN_END
 94
        6
 95
        1
302
GRIDFORMAT
  1
GRIDFORMAT_BEGIN
 90
        0
 91
        1
 62
     0
 92
       -2
340
0
 93
        0
 40
0.045
309
GRIDFORMAT_END
 95
        2
302
GRIDFORMAT
  1
GRIDFORMAT_BEGIN
 90
        0
 91
        1
 62
     0
 92
       -2
340
0
 93
        0
 40
0.045
309
GRIDFORMAT_END
 95
        4
302
GRIDFORMAT
  1
GRIDFORMAT_BEGIN
 90
        0
 91
        1
 62
     0
 92
       -2
340
0
 93
        0
 40
0.045
309
GRIDFORMAT_END
 95
        8
302
GRIDFORMAT
  1
GRIDFORMAT_BEGIN
 90
        0
 91
        1
 62
     0
 92
       -2
340
0
 93
        0
 40
0.045
309
GRIDFORMAT_END
 95
       16
302
GRIDFORMAT
  1
GRIDFORMAT_BEGIN
 90
        0
 91
        1
 62
     0
 92
       -2
340
0
 93
        0
 40
0.045
309
GRIDFORMAT_END
 95
       32
302
GRIDFORMAT
  1
GRIDFORMAT_BEGIN
 90
        0
 91
        1
 62
     0
 92
       -2
340
0
 93
        0
 40
0.045
309
GRIDFORMAT_END
309
TABLEFORMAT_END
  1
CELLSTYLE_BEGIN
 90
        1
 91
        1
300
_TITLE
309
CELLSTYLE_END
300
CELLSTYLE
  1
TABLEFORMAT_BEGIN
 90
        5
170
     1
 91
        0
 92
        0
 62
   257
 93
        1
300
CONTENTFORMAT
  1
CONTENTFORMAT_BEGIN
 90
        0
 91
        0
 92
        4
 93
        0
300

 40
0.0
140
1.0
 94
        5
 62
     0
340
17
144
4.5
309
CONTENTFORMAT_END
171
     1
301
MARGIN
  1
CELLMARGIN_BEGIN
 40
0.06
 40
0.06
 40
0.06
 40
0.06
 40
0.18
 40
0.18
309
CELLMARGIN_END
 94
        6
 95
        1
302
GRIDFORMAT
  1
GRIDFORMAT_BEGIN
 90
        0
 91
        1
 62
     0
 92
       -2
340
0
 93
        0
 40
0.045
309
GRIDFORMAT_END
 95
        2
302
GRIDFORMAT
  1
GRIDFORMAT_BEGIN
 90
        0
 91
        1
 62
     0
 92
       -2
340
0
 93
        0
 40
0.045
309
GRIDFORMAT_END
 95
        4
302
GRIDFORMAT
  1
GRIDFORMAT_BEGIN
 90
        0
 91
        1
 62
     0
 92
       -2
340
0
 93
        0
 40
0.045
309
GRIDFORMAT_END
 95
        8
302
GRIDFORMAT
  1
GRIDFORMAT_BEGIN
 90
        0
 91
        1
 62
     0
 92
       -2
340
0
 93
        0
 40
0.045
309
GRIDFORMAT_END
 95
       16
302
GRIDFORMAT
  1
GRIDFORMAT_BEGIN
 90
        0
 91
        1
 62
     0
 92
       -2
340
0
 93
        0
 40
0.045
309
GRIDFORMAT_END
 95
       32
302
GRIDFORMAT
  1
GRIDFORMAT_BEGIN
 90
        0
 91
        1
 62
     0
 92
       -2
340
0
 93
        0
 40
0.045
309
GRIDFORMAT_END
309
TABLEFORMAT_END
  1
CELLSTYLE_BEGIN
 90
        2
 91
        1
300
_HEADER
309
CELLSTYLE_END
300
CELLSTYLE
  1
TABLEFORMAT_BEGIN
 90
        5
170
     1
 91
        0
 92
        0
 62
   257
 93
        1
300
CONTENTFORMAT
  1
CONTENTFORMAT_BEGIN
 90
        0
 91
        0
 92
        4
 93
        0
300

 40
0.0
140
1.0
 94
        2
 62
     0
340
17
144
4.5
309
CONTENTFORMAT_END
171
     1
301
MARGIN
  1
CELLMARGIN_BEGIN
 40
0.06
 40
0.06
 40
0.06
 40
0.06
 40
0.18
 40
0.18
309
CELLMARGIN_END
 94
        6
 95
        1
302
GRIDFORMAT
  1
GRIDFORMAT_BEGIN
 90
        0
 91
        1
 62
     0
 92
       -2
340
0
 93
        0
 40
0.045
309
GRIDFORMAT_END
 95
        2
302
GRIDFORMAT
  1
GRIDFORMAT_BEGIN
 90
        0
 91
        1
 62
     0
 92
       -2
340
0
 93
        0
 40
0.045
309
GRIDFORMAT_END
 95
        4
302
GRIDFORMAT
  1
GRIDFORMAT_BEGIN
 90
        0
 91
        1
 62
     0
 92
       -2
340
0
 93
        0
 40
0.045
309
GRIDFORMAT_END
 95
        8
302
GRIDFORMAT
  1
GRIDFORMAT_BEGIN
 90
        0
 91
        1
 62
     0
 92
       -2
340
0
 93
        0
 40
0.045
309
GRIDFORMAT_END
 95
       16
302
GRIDFORMAT
  1
GRIDFORMAT_BEGIN
 90
        0
 91
        1
 62
     0
 92
       -2
340
0
 93
        0
 40
0.045
309
GRIDFORMAT_END
 95
       32
302
GRIDFORMAT
  1
GRIDFORMAT_BEGIN
 90
        0
 91
        1
 62
     0
 92
       -2
340
0
 93
        0
 40
0.045
309
GRIDFORMAT_END
309
TABLEFORMAT_END
  1
CELLSTYLE_BEGIN
 90
        3
 91
        2
300
_DATA
309
CELLSTYLE_END
  0
ENDSEC
  0
EOF
