  0
SECTION
  2
HEADER
  9
$ACADVER
  1
AC1021
  9
$ACADMAINTVER
 70
    25
  9
$DWGCODEPAGE
  3
ANSI_932
  9
$LASTSAVEDBY
  1
tform
  9
$INSBASE
 10
0.0
 20
0.0
 30
0.0
  9
$EXTMIN
 10
0.0
 20
0.0
 30
-0.0000000000000142
  9
$EXTMAX
 10
2100.0
 20
2970.0
 30
0.0000000000000071
  9
$LIMMIN
 10
0.0
 20
0.0
  9
$LIMMAX
 10
2100.0
 20
2970.0
  9
$ORTHOMODE
 70
     1
  9
$REGENMODE
 70
     1
  9
$FILLMODE
 70
     1
  9
$QTEXTMODE
 70
     0
  9
$MIRRTEXT
 70
     1
  9
$LTSCALE
 40
5.0
  9
$ATTMODE
 70
     1
  9
$TEXTSIZE
 40
2.5
  9
$TRACEWID
 40
1.0
  9
$TEXTSTYLE
  7
ＭＳ ゴシック
  9
$CLAYER
  8
DIM
  9
$CELTYPE
  6
ByLayer
  9
$CECOLOR
 62
   256
  9
$CELTSCALE
 40
1.0
  9
$DISPSILH
 70
     0
  9
$DIMSCALE
 40
1.0
  9
$DIMASZ
 40
10.0
  9
$DIMEXO
 40
30.0
  9
$DIMDLI
 40
0.9999999999999999
  9
$DIMRND
 40
0.0
  9
$DIMDLE
 40
0.0
  9
$DIMEXE
 40
0.0
  9
$DIMTP
 40
0.0
  9
$DIMTM
 40
0.0
  9
$DIMTXT
 40
24.0
  9
$DIMCEN
 40
0.0
  9
$DIMTSZ
 40
0.0
  9
$DIMTOL
 70
     0
  9
$DIMLIM
 70
     0
  9
$DIMTIH
 70
     0
  9
$DIMTOH
 70
     0
  9
$DIMSE1
 70
     0
  9
$DIMSE2
 70
     0
  9
$DIMTAD
 70
     1
  9
$DIMZIN
 70
    11
  9
$DIMBLK
  1
DOT
  9
$DIMASO
 70
     1
  9
$DIMSHO
 70
     1
  9
$DIMPOST
  1
<>
  9
$DIMAPOST
  1
[]
  9
$DIMALT
 70
     0
  9
$DIMALTD
 70
     1
  9
$DIMALTF
 40
1.0
  9
$DIMLFAC
 40
1.0
  9
$DIMTOFL
 70
     0
  9
$DIMTVP
 40
0.0
  9
$DIMTIX
 70
     1
  9
$DIMSOXD
 70
     0
  9
$DIMSAH
 70
     0
  9
$DIMBLK1
  1

  9
$DIMBLK2
  1

  9
$DIMSTYLE
  2
tfrom線あり
  9
$DIMCLRD
 70
     0
  9
$DIMCLRE
 70
     0
  9
$DIMCLRT
 70
     0
  9
$DIMTFAC
 40
1.0
  9
$DIMGAP
 40
20.0
  9
$DIMJUST
 70
     0
  9
$DIMSD1
 70
     0
  9
$DIMSD2
 70
     0
  9
$DIMTOLJ
 70
     1
  9
$DIMTZIN
 70
    11
  9
$DIMALTZ
 70
    11
  9
$DIMALTTZ
 70
    11
  9
$DIMUPT
 70
     0
  9
$DIMDEC
 70
     0
  9
$DIMTDEC
 70
     1
  9
$DIMALTU
 70
     2
  9
$DIMALTTD
 70
     2
  9
$DIMTXSTY
  7
ＭＳ ゴシック
  9
$DIMAUNIT
 70
     0
  9
$DIMADEC
 70
     2
  9
$DIMALTRND
 40
0.0
  9
$DIMAZIN
 70
     0
  9
$DIMDSEP
 70
    46
  9
$DIMATFIT
 70
     0
  9
$DIMFRAC
 70
     2
  9
$DIMLDRBLK
  1
DOT
  9
$DIMLUNIT
 70
     2
  9
$DIMLWD
 70
    -2
  9
$DIMLWE
 70
    -2
  9
$DIMTMOVE
 70
     0
  9
$DIMFXL
 40
1.0
  9
$DIMFXLON
 70
     0
  9
$DIMJOGANG
 40
0.7853981633974483
  9
$DIMTFILL
 70
     0
  9
$DIMTFILLCLR
 70
     0
  9
$DIMARCSYM
 70
     0
  9
$DIMLTYPE
  6

  9
$DIMLTEX1
  6

  9
$DIMLTEX2
  6

  9
$LUNITS
 70
     2
  9
$LUPREC
 70
     0
  9
$SKETCHINC
 40
0.1
  9
$FILLETRAD
 40
0.0
  9
$AUNITS
 70
     0
  9
$AUPREC
 70
     0
  9
$MENU
  1
acad
  9
$ELEVATION
 40
0.0
  9
$PELEVATION
 40
0.0
  9
$THICKNESS
 40
0.0
  9
$LIMCHECK
 70
     0
  9
$CHAMFERA
 40
0.0
  9
$CHAMFERB
 40
0.0
  9
$CHAMFERC
 40
0.0
  9
$CHAMFERD
 40
0.0
  9
$SKPOLY
 70
     0
  9
$TDCREATE
 40
2447893.375
  9
$TDUCREATE
 40
0.0
  9
$TDUPDATE
 40
2459741.505149676
  9
$TDUUPDATE
 40
2459741.130149676
  9
$TDINDWG
 40
0.1659327778
  9
$TDUSRTIMER
 40
0.0004388773
  9
$USRTIMER
 70
     1
  9
$ANGBASE
 50
0.0
  9
$ANGDIR
 70
     0
  9
$PDMODE
 70
     1
  9
$PDSIZE
 40
-2.0
  9
$PLINEWID
 40
0.0
  9
$SPLFRAME
 70
     0
  9
$SPLINETYPE
 70
     6
  9
$SPLINESEGS
 70
     8
  9
$HANDSEED
  5
3B8C
  9
$SURFTAB1
 70
     6
  9
$SURFTAB2
 70
     6
  9
$SURFTYPE
 70
     6
  9
$SURFU
 70
     6
  9
$SURFV
 70
     6
  9
$UCSBASE
  2

  9
$UCSNAME
  2

  9
$UCSORG
 10
0.0
 20
0.0
 30
0.0
  9
$UCSXDIR
 10
1.0
 20
0.0
 30
0.0
  9
$UCSYDIR
 10
0.0
 20
1.0
 30
0.0
  9
$UCSORTHOREF
  2

  9
$UCSORTHOVIEW
 70
     0
  9
$UCSORGTOP
 10
0.0
 20
0.0
 30
0.0
  9
$UCSORGBOTTOM
 10
0.0
 20
0.0
 30
0.0
  9
$UCSORGLEFT
 10
0.0
 20
0.0
 30
0.0
  9
$UCSORGRIGHT
 10
0.0
 20
0.0
 30
0.0
  9
$UCSORGFRONT
 10
0.0
 20
0.0
 30
0.0
  9
$UCSORGBACK
 10
0.0
 20
0.0
 30
0.0
  9
$PUCSBASE
  2

  9
$PUCSNAME
  2

  9
$PUCSORG
 10
0.0
 20
0.0
 30
0.0
  9
$PUCSXDIR
 10
1.0
 20
0.0
 30
0.0
  9
$PUCSYDIR
 10
0.0
 20
1.0
 30
0.0
  9
$PUCSORTHOREF
  2

  9
$PUCSORTHOVIEW
 70
     0
  9
$PUCSORGTOP
 10
0.0
 20
0.0
 30
0.0
  9
$PUCSORGBOTTOM
 10
0.0
 20
0.0
 30
0.0
  9
$PUCSORGLEFT
 10
0.0
 20
0.0
 30
0.0
  9
$PUCSORGRIGHT
 10
0.0
 20
0.0
 30
0.0
  9
$PUCSORGFRONT
 10
0.0
 20
0.0
 30
0.0
  9
$PUCSORGBACK
 10
0.0
 20
0.0
 30
0.0
  9
$USERI1
 70
     0
  9
$USERI2
 70
     0
  9
$USERI3
 70
     0
  9
$USERI4
 70
     0
  9
$USERI5
 70
     0
  9
$USERR1
 40
0.0
  9
$USERR2
 40
0.0
  9
$USERR3
 40
0.0
  9
$USERR4
 40
0.0
  9
$USERR5
 40
0.0
  9
$WORLDVIEW
 70
     1
  9
$SHADEDGE
 70
     3
  9
$SHADEDIF
 70
    70
  9
$TILEMODE
 70
     1
  9
$MAXACTVP
 70
    64
  9
$PINSBASE
 10
0.0
 20
0.0
 30
0.0
  9
$PLIMCHECK
 70
     0
  9
$PEXTMIN
 10
0.0
 20
0.0
 30
0.0
  9
$PEXTMAX
 10
0.0
 20
0.0
 30
0.0
  9
$PLIMMIN
 10
-7.5
 20
-20.0
  9
$PLIMMAX
 10
412.5
 20
277.0
  9
$UNITMODE
 70
     0
  9
$VISRETAIN
 70
     0
  9
$PLINEGEN
 70
     1
  9
$PSLTSCALE
 70
     0
  9
$TREEDEPTH
 70
  3020
  9
$CMLSTYLE
  2
Standard
  9
$CMLJUST
 70
     0
  9
$CMLSCALE
 40
1.0
  9
$PROXYGRAPHICS
 70
     0
  9
$MEASUREMENT
 70
     1
  9
$CELWEIGHT
370
    -1
  9
$ENDCAPS
280
     0
  9
$JOINSTYLE
280
     0
  9
$LWDISPLAY
290
     1
  9
$INSUNITS
 70
     4
  9
$HYPERLINKBASE
  1

  9
$STYLESHEET
  1

  9
$XEDIT
290
     1
  9
$CEPSNTYPE
380
     0
  9
$PSTYLEMODE
290
     1
  9
$FINGERPRINTGUID
  2

  9
$VERSIONGUID
  2

  9
$EXTNAMES
290
     1
  9
$PSVPSCALE
 40
0.0
  9
$OLESTARTUP
290
     0
  9
$SORTENTS
280
   127
  9
$INDEXCTL
280
     0
  9
$HIDETEXT
280
     1
  9
$XCLIPFRAME
290
     0
  9
$HALOGAP
280
     0
  9
$OBSCOLOR
 70
   257
  9
$OBSLTYPE
280
     0
  9
$INTERSECTIONDISPLAY
280
     0
  9
$INTERSECTIONCOLOR
 70
   257
  9
$DIMASSOC
280
     2
  9
$PROJECTNAME
  1

  9
$CAMERADISPLAY
290
     0
  9
$LENSLENGTH
 40
50.0
  9
$CAMERAHEIGHT
 40
0.0
  9
$STEPSPERSEC
 40
2.0
  9
$STEPSIZE
 40
6.0
  9
$3DDWFPREC
 40
2.0
  9
$PSOLWIDTH
 40
0.25
  9
$PSOLHEIGHT
 40
4.0
  9
$LOFTANG1
 40
1.570796326794897
  9
$LOFTANG2
 40
1.570796326794897
  9
$LOFTMAG1
 40
0.0
  9
$LOFTMAG2
 40
0.0
  9
$LOFTPARAM
 70
     7
  9
$LOFTNORMALS
280
     1
  9
$LATITUDE
 40
37.795
  9
$LONGITUDE
 40
-122.394
  9
$NORTHDIRECTION
 40
0.0
  9
$TIMEZONE
 70
 -8000
  9
$LIGHTGLYPHDISPLAY
280
     1
  9
$TILEMODELIGHTSYNCH
280
     1
  9
$SOLIDHIST
280
     1
  9
$SHOWHIST
280
     1
  9
$DWFFRAME
280
     2
  9
$DGNFRAME
280
     2
  9
$REALWORLDSCALE
290
     1
  9
$INTERFERECOLOR
 62
   256
  9
$CSHADOW
280
     0
  9
$SHADOWPLANELOCATION
 40
0.0
  0
ENDSEC
  0
SECTION
  2
CLASSES
  0
CLASS
  1
LWPOLYLINE
  2
AcDbPolyline
  3
ObjectDBX Classes
 90
        0
 91
        1
280
     0
281
     1
  0
CLASS
  1
IMAGE
  2
AcDbRasterImage
  3
ISM
 90
      127
 91
        4
280
     0
281
     1
  0
CLASS
  1
OLE2FRAME
  2
AcDbOle2Frame
  3
ObjectDBX Classes
 90
        0
 91
        1
280
     0
281
     1
  0
CLASS
  1
HATCH
  2
AcDbHatch
  3
ObjectDBX Classes
 90
        0
 91
        1
280
     0
281
     1
  0
CLASS
  1
DICTIONARYVAR
  2
AcDbDictionaryVar
  3
ObjectDBX Classes
 90
        0
 91
        3
280
     0
281
     0
  0
CLASS
  1
RASTERVARIABLES
  2
AcDbRasterVariables
  3
ISM
 90
        0
 91
        3
280
     0
281
     0
  0
CLASS
  1
IMAGEDEF
  2
AcDbRasterImageDef
  3
ISM
 90
        0
 91
        3
280
     0
281
     0
  0
CLASS
  1
IMAGEDEF_REACTOR
  2
AcDbRasterImageDefReactor
  3
ISM
 90
        1
 91
        3
280
     0
281
     0
  0
CLASS
  1
IDBUFFER
  2
AcDbIdBuffer
  3
ObjectDBX Classes
 90
        0
 91
        3
280
     0
281
     0
  0
CLASS
  1
SPATIAL_FILTER
  2
AcDbSpatialFilter
  3
ObjectDBX Classes
 90
        0
 91
        3
280
     0
281
     0
  0
CLASS
  1
XRECORD
  2
AcDbXrecord
  3
ObjectDBX Classes
 90
        0
 91
        1
280
     0
281
     0
  0
CLASS
  1
SORTENTSTABLE
  2
AcDbSortentsTable
  3
ObjectDBX Classes
 90
        0
 91
        3
280
     0
281
     0
  0
CLASS
  1
LAYER_INDEX
  2
AcDbLayerIndex
  3
ObjectDBX Classes
 90
        0
 91
        3
280
     0
281
     0
  0
CLASS
  1
SPATIAL_INDEX
  2
AcDbSpatialIndex
  3
AutoCAD 2000
 90
        0
 91
        3
280
     0
281
     0
  0
CLASS
  1
OBJECT_PTR
  2
CAseDLPNTableRecord
  3
ASE-LPNTableRecord
 90
        1
 91
        3
280
     0
281
     0
  0
CLASS
  1
LAYOUT
  2
AcDbLayout
  3
ObjectDBX Classes
 90
        0
 91
        1
280
     0
281
     0
  0
CLASS
  1
PLOTSETTINGS
  2
AcDbPlotSettings
  3
ObjectDBX Classes
 90
        0
 91
        3
280
     0
281
     0
  0
CLASS
  1
ACDBDICTIONARYWDFLT
  2
AcDbDictionaryWithDefault
  3
ObjectDBX Classes
 90
        0
 91
        3
280
     0
281
     0
  0
CLASS
  1
ACDBPLACEHOLDER
  2
AcDbPlaceHolder
  3
ObjectDBX Classes
 90
        0
 91
        1
280
     0
281
     0
  0
CLASS
  1
SCALE
  2
AcDbScale
  3
ObjectDBX Classes
 90
     1153
 91
        3
280
     0
281
     0
  0
CLASS
  1
MATERIAL
  2
AcDbMaterial
  3
ObjectDBX Classes
 90
     1153
 91
        3
280
     0
281
     0
  0
CLASS
  1
VISUALSTYLE
  2
AcDbVisualStyle
  3
ObjectDBX Classes
 90
     4095
 91
        3
280
     0
281
     0
  0
CLASS
  1
TABLESTYLE
  2
AcDbTableStyle
  3
ObjectDBX Classes
 90
     4095
 91
        3
280
     0
281
     0
  0
CLASS
  1
DIMASSOC
  2
AcDbDimAssoc
  3
"AcDbDimAssoc|Product Desc:     AcDim ARX App For Dimension|Company:          Autodesk, Inc.|WEB Address:      www.autodesk.com"
 90
        0
 91
        3
280
     0
281
     0
  0
CLASS
  1
CELLSTYLEMAP
  2
AcDbCellStyleMap
  3
ObjectDBX Classes
 90
     1152
 91
        3
280
     0
281
     0
  0
CLASS
  1
SUN
  2
AcDbSun
  3
SCENEOE
 90
     1153
 91
        3
280
     0
281
     0
  0
CLASS
  1
MLEADERSTYLE
  2
AcDbMLeaderStyle
  3
ACDB_MLEADERSTYLE_CLASS
 90
     4095
 91
        3
280
     0
281
     0
  0
CLASS
  1
FIELD
  2
AcDbField
  3
ObjectDBX Classes
 90
     1152
 91
        3
280
     0
281
     0
  0
CLASS
  1
FIELDLIST
  2
AcDbFieldList
  3
ObjectDBX Classes
 90
     1152
 91
        3
280
     0
281
     0
  0
CLASS
  1
MULTILEADER
  2
AcDbMLeader
  3
ACDB_MLEADER_CLASS
 90
     1025
 91
        3
280
     0
281
     1
  0
ENDSEC
  0
SECTION
  2
TABLES
  0
TABLE
  2
VPORT
  5
7
330
0
100
AcDbSymbolTable
 70
     1
  0
VPORT
  5
15
330
7
100
AcDbSymbolTableRecord
100
AcDbViewportTableRecord
  2
*ACTIVE
 70
     0
 10
0.0
 20
0.0
 11
1.0
 21
1.0
 12
1141.0201356709
 22
1411.401285469834
 13
0.0
 23
0.0
 14
1.0
 24
1.0
 15
0.0
 25
0.0
 16
0.0
 26
0.0
 36
1.0
 17
-91.02013567090034
 27
73.59871453016603
 37
-46.86809886248109
 40
3029.4
 41
2.338709677419355
 42
50.0
 43
0.0
 44
0.0
 50
0.0
 51
0.0
 71
    16
 72
  2000
 73
     1
 74
     1
 75
     0
 76
     0
 77
     0
 78
     0
281
     0
 65
     1
110
0.0
120
0.0
130
0.0
111
1.0
121
0.0
131
0.0
112
0.0
122
1.0
132
0.0
 79
     0
146
0.0
348
26C
 60
     3
 61
     5
292
     1
282
     1
141
0.0
142
0.0
 63
   256
361
904
  0
ENDTAB
  0
TABLE
  2
LTYPE
  5
4
330
0
100
AcDbSymbolTable
 70
     6
  0
LTYPE
  5
11
330
4
100
AcDbSymbolTableRecord
100
AcDbLinetypeTableRecord
  2
ByBlock
 70
     0
  3

 72
    65
 73
     0
 40
0.0
  0
LTYPE
  5
12
330
4
100
AcDbSymbolTableRecord
100
AcDbLinetypeTableRecord
  2
ByLayer
 70
     0
  3

 72
    65
 73
     0
 40
0.0
  0
LTYPE
  5
13
330
4
100
AcDbSymbolTableRecord
100
AcDbLinetypeTableRecord
  2
Continuous
 70
     0
  3
Solid line
 72
    65
 73
     0
 40
0.0
  0
LTYPE
  5
DAF
330
4
100
AcDbSymbolTableRecord
100
AcDbLinetypeTableRecord
  2
BORDER
 70
     0
  3
Border __  __  . __  __  . __  __  . __  __  . 
 72
    65
 73
     6
 40
44.45
 49
12.7
 74
     0
 49
-6.35
 74
     0
 49
12.7
 74
     0
 49
-6.35
 74
     0
 49
0.0
 74
     0
 49
-6.35
 74
     0
  0
LTYPE
  5
33DD
330
4
100
AcDbSymbolTableRecord
100
AcDbLinetypeTableRecord
  2
HIDDEN
 70
     0
  3
Hidden _ _ _ _ _ _ _ _ _ _ _ _ _ _ _ _ _ _ _ _ 
 72
    65
 73
     2
 40
9.524999999999999
 49
6.35
 74
     0
 49
-3.175
 74
     0
  0
LTYPE
  5
377F
330
4
100
AcDbSymbolTableRecord
100
AcDbLinetypeTableRecord
  2
JIS_02_1.0
 70
     0
  3
HIDDEN01 _ _ _ _ _ _ _ _ _ _ _ _ _ _ _ _ _
 72
    65
 73
     2
 40
2.0
 49
1.0
 74
     0
 49
-1.0
 74
     0
  0
LTYPE
  5
3780
330
4
100
AcDbSymbolTableRecord
100
AcDbLinetypeTableRecord
  2
STYLE_23
 70
     0
  3

 72
    65
 73
     2
 40
3.937007874015748
 49
1.968503937007874
 74
     0
 49
-1.968503937007874
 74
     0
  0
LTYPE
  5
3AEC
330
4
100
AcDbSymbolTableRecord
100
AcDbLinetypeTableRecord
  2
HIDDEN2
 70
     0
  3
Hidden (.5x) _ _ _ _ _ _ _ _ _ _ _ _ _ _ _ _ _ 
 72
    65
 73
     2
 40
4.762499999999999
 49
3.175
 74
     0
 49
-1.5875
 74
     0
  0
ENDTAB
  0
TABLE
  2
LAYER
  5
2
102
{ACAD_XDICTIONARY
360
2E1
102
}
330
0
100
AcDbSymbolTable
 70
    12
  0
LAYER
  5
14
330
2
100
AcDbSymbolTableRecord
100
AcDbLayerTableRecord
  2
0
 70
     0
 62
     7
  6
Continuous
370
    -3
390
1D
347
266
  0
LAYER
  5
4B
330
2
100
AcDbSymbolTableRecord
100
AcDbLayerTableRecord
  2
TEMPLATE
 70
     0
 62
     7
  6
Continuous
370
    20
390
1D
347
266
  0
LAYER
  5
4C
330
2
100
AcDbSymbolTableRecord
100
AcDbLayerTableRecord
  2
DIM
 70
     0
 62
     3
  6
Continuous
370
    13
390
1D
347
266
  0
LAYER
  5
4D
330
2
100
AcDbSymbolTableRecord
100
AcDbLayerTableRecord
  2
MODEL
 70
     0
 62
     7
  6
Continuous
370
    20
390
1D
347
266
  0
LAYER
  5
D5D
330
2
100
AcDbSymbolTableRecord
100
AcDbLayerTableRecord
  2
Defpoints
 70
     0
 62
     7
  6
Continuous
290
     0
370
    -3
390
1D
347
266
  0
LAYER
  5
DAE
330
2
100
AcDbSymbolTableRecord
100
AcDbLayerTableRecord
  2
BORDER
 70
     0
 62
     4
  6
BORDER
290
     0
370
    20
390
1D
347
266
1001
AcAecLayerStandard
1000

1000

  0
LAYER
  5
157B
330
2
100
AcDbSymbolTableRecord
100
AcDbLayerTableRecord
  2
Layer3
 70
     0
 62
     7
  6
Continuous
370
    -3
390
1D
347
266
  0
LAYER
  5
157F
330
2
100
AcDbSymbolTableRecord
100
AcDbLayerTableRecord
  2
Layer9
 70
     0
 62
     7
  6
Continuous
370
    -3
390
1D
347
266
  0
LAYER
  5
1582
330
2
100
AcDbSymbolTableRecord
100
AcDbLayerTableRecord
  2
Standard
 70
     0
 62
     7
  6
Continuous
370
    -3
390
1D
347
266
  0
LAYER
  5
33DC
330
2
100
AcDbSymbolTableRecord
100
AcDbLayerTableRecord
  2
HIDDEN
 70
     0
 62
     8
  6
HIDDEN
370
    20
390
1D
347
266
1001
AcAecLayerStandard
1000

1000

  0
LAYER
  5
377D
330
2
100
AcDbSymbolTableRecord
100
AcDbLayerTableRecord
  2
notes
 70
     0
 62
     7
  6
Continuous
370
    -3
390
1D
347
266
  0
LAYER
  5
377E
330
2
100
AcDbSymbolTableRecord
100
AcDbLayerTableRecord
  2
ADF70-0001
 70
     0
 62
     7
  6
Continuous
370
    -3
390
1D
347
266
  0
ENDTAB
  0
TABLE
  2
STYLE
  5
3
330
0
100
AcDbSymbolTable
 70
     2
  0
STYLE
  5
17
330
3
100
AcDbSymbolTableRecord
100
AcDbTextStyleTableRecord
  2
Standard
 70
     0
 40
0.0
 41
1.0
 50
0.0
 71
     0
 42
2.5
  3
txt
  4
BIGFONT.SHX
  0
STYLE
  5
39
330
3
100
AcDbSymbolTableRecord
100
AcDbTextStyleTableRecord
  2
ＭＳ ゴシック
 70
     0
 40
0.0
 41
1.0
 50
0.0
 71
     0
 42
2.5
  3
msgothic.ttc
  4
ＭＳ ゴシック
1001
ACAD
1000
ＭＳ ゴシック
1071
        0
  0
ENDTAB
  0
TABLE
  2
VIEW
  5
5
330
0
100
AcDbSymbolTable
 70
     0
  0
ENDTAB
  0
TABLE
  2
UCS
  5
6
330
0
100
AcDbSymbolTable
 70
     0
  0
ENDTAB
  0
TABLE
  2
APPID
  5
8
330
0
100
AcDbSymbolTable
 70
     9
  0
APPID
  5
16
330
8
100
AcDbSymbolTableRecord
100
AcDbRegAppTableRecord
  2
ACAD
 70
     0
  0
APPID
  5
7AC
330
8
100
AcDbSymbolTableRecord
100
AcDbRegAppTableRecord
  2
AcAecLayerStandard
 70
     0
  0
APPID
  5
F3A
330
8
100
AcDbSymbolTableRecord
100
AcDbRegAppTableRecord
  2
ACAD_MLEADERVER
 70
     0
  0
APPID
  5
378F
330
8
100
AcDbSymbolTableRecord
100
AcDbRegAppTableRecord
  2
ACAD_DSTYLE_DIMJAG
 70
     0
  0
APPID
  5
3790
330
8
100
AcDbSymbolTableRecord
100
AcDbRegAppTableRecord
  2
ACAD_DSTYLE_DIMTALN
 70
     0
  0
APPID
  5
3791
330
8
100
AcDbSymbolTableRecord
100
AcDbRegAppTableRecord
  2
GradientColor1ACI
 70
     0
  0
APPID
  5
3792
330
8
100
AcDbSymbolTableRecord
100
AcDbRegAppTableRecord
  2
GradientColor2ACI
 70
     0
  0
APPID
  5
3B02
330
8
100
AcDbSymbolTableRecord
100
AcDbRegAppTableRecord
  2
AcadAnnotative
 70
     0
  0
APPID
  5
3B88
330
8
100
AcDbSymbolTableRecord
100
AcDbRegAppTableRecord
  2
PLOTTRANSPARENCY
 70
     0
  0
ENDTAB
  0
TABLE
  2
DIMSTYLE
  5
9
330
0
100
AcDbSymbolTable
 70
     7
100
AcDbDimStyleTable
  0
DIMSTYLE
105
18
330
9
100
AcDbSymbolTableRecord
100
AcDbDimStyleTableRecord
  2
Standard
 70
     0
178
     0
340
17
  0
DIMSTYLE
105
57
102
{ACAD_REACTORS
330
395D
330
3960
330
3963
330
3966
330
3997
330
399A
330
399D
330
39A0
330
39A1
330
39A2
330
39A5
330
39A8
330
39AC
330
3AB9
330
3AC8
330
3B56
330
3B58
330
3B5B
102
}
330
9
100
AcDbSymbolTableRecord
100
AcDbDimStyleTableRecord
  2
tfrom線あり
 70
     0
  3
<>
  4
[]
 41
10.0
 42
30.0
 43
0.9999999999999999
 44
0.0
 73
     0
 74
     0
 77
     1
 78
    11
140
24.0
141
0.0
143
1.0
147
20.0
171
     1
174
     1
178
     0
179
     2
271
     0
272
     1
276
     2
284
    11
285
    11
286
    11
289
     0
340
39
341
4E
342
4E
  0
DIMSTYLE
105
378E
330
9
100
AcDbSymbolTableRecord
100
AcDbDimStyleTableRecord
  2
ISO-25
 70
     0
 41
6.0
 42
0.645
 43
3.75
 44
1.25
 49
25.0
290
     1
 73
     0
 74
     0
 77
     1
 78
     8
140
10.0
141
0.0
143
0.03937007874016
147
2.0
171
     3
172
     1
176
   256
178
     0
271
     0
272
     0
274
     3
278
    44
283
     0
284
     8
340
17
346
377F
347
377F
1001
ACAD_DSTYLE_DIMJAG
1070
   388
1040
1.5
1001
ACAD_DSTYLE_DIMTALN
1070
   392
1070
     0
  0
DIMSTYLE
105
3AF8
330
9
100
AcDbSymbolTableRecord
100
AcDbDimStyleTableRecord
  2
tform線あり
 70
     0
  3
<>
  4
[]
 41
9.999389648437498
 42
25.0
 43
0.9999999999999999
 44
0.0
 73
     0
 74
     0
 77
     1
 78
    11
140
24.4326171875
141
0.0
143
1.0
146
0.8
147
10.0
171
     1
172
     1
174
     1
178
     0
179
     2
271
     1
272
     1
276
     2
284
    11
285
    11
286
    11
289
     0
340
39
341
4E
342
4E
  0
DIMSTYLE
105
3AF9
330
9
100
AcDbSymbolTableRecord
100
AcDbDimStyleTableRecord
  2
scala  A3
 70
     0
 41
5.0
 42
0.625
 43
0.0
 44
1.25
 49
10.0
 90
        2
290
     1
 73
     0
 74
     0
 77
     1
 78
     8
140
6.0
141
2.5
143
0.03937007874016
147
2.0
171
     3
176
   256
177
   256
178
     0
271
     0
272
     0
274
     3
278
    44
283
     0
284
     8
340
17
371
    -1
372
     0
345
12
346
12
347
12
1001
ACAD_DSTYLE_DIMJAG
1070
   388
1040
1.5
1001
ACAD_DSTYLE_DIMTALN
1070
   392
1070
     0
  0
DIMSTYLE
105
3AFD
330
9
100
AcDbSymbolTableRecord
100
AcDbDimStyleTableRecord
  2
Standard1
 70
     0
 41
0.0
 42
5.0
 44
0.0
 73
     0
 74
     0
 77
     2
140
20.0
141
0.0
147
2.0
178
     0
271
     0
272
     0
340
17
341
3AFE
342
3AFE
1001
ACAD_DSTYLE_DIMJAG
1070
   388
1040
1.5
1001
ACAD_DSTYLE_DIMTALN
1070
   392
1070
     0
  0
DIMSTYLE
105
3B01
330
9
100
AcDbSymbolTableRecord
100
AcDbDimStyleTableRecord
  2
scala 1a 1 ass
 70
     0
 41
1.3
 42
0.625
 43
0.0
 44
1.25
 45
0.5
 49
2.0
290
     1
 73
     0
 74
     0
 77
     1
 78
     9
 79
     1
140
2.0
141
0.0
143
0.03937007874016
147
0.5
171
     3
174
     1
176
   256
177
   256
178
     0
179
     1
271
     0
272
     0
274
     3
278
    44
279
     2
283
     0
284
     8
340
17
371
    15
372
     5
345
12
346
3AEC
347
3AEC
1001
AcadAnnotative
1000
AnnotativeData
1002
{
1070
     1
1070
     1
1002
}
1001
ACAD_DSTYLE_DIMJAG
1070
   388
1040
1.5
1001
ACAD_DSTYLE_DIMTALN
1070
   392
1070
     0
  0
ENDTAB
  0
TABLE
  2
BLOCK_RECORD
  5
1
330
0
100
AcDbSymbolTable
 70
    45
  0
BLOCK_RECORD
  5
A
102
{ACAD_XDICTIONARY
360
374D
102
}
330
1
100
AcDbSymbolTableRecord
100
AcDbBlockTableRecord
  2
*MODEL_SPACE
340
20
 70
     0
280
     1
281
     0
  0
BLOCK_RECORD
  5
B
330
1
100
AcDbSymbolTableRecord
100
AcDbBlockTableRecord
  2
*PAPER_SPACE
340
21
 70
     0
280
     1
281
     0
  0
BLOCK_RECORD
  5
4E
330
1
100
AcDbSymbolTableRecord
100
AcDbBlockTableRecord
  2
_DOT
340
0
102
{BLKREFS
331
373A
331
373B
331
3746
331
3747
331
37FE
331
37FF
331
380D
331
380E
331
381C
331
381D
331
382B
331
382C
331
383C
331
383D
331
3849
331
384A
331
3880
331
3881
331
388F
331
3890
331
389E
331
389F
331
38AB
331
38AC
331
38B8
331
38B9
331
38C7
331
38C8
331
38D6
331
38D7
331
38E5
331
38E6
331
38F5
331
38F6
331
39B6
331
39B7
331
39C2
331
39C3
331
39CE
331
39CF
331
39DA
331
39DB
331
39E6
331
39E7
331
39F2
331
39F3
331
39FE
331
39FF
331
3A0A
331
3A0B
331
3A16
331
3A17
331
3A22
331
3A23
331
3A2E
331
3A2F
331
3A3A
331
3A3B
331
3A46
331
3A47
331
3A52
331
3A53
331
3A5E
331
3A5F
331
3AC2
331
3AC3
331
3ACF
331
3AD0
331
3B1F
331
3B20
331
3B2C
331
3B2D
331
3B3D
331
3B3E
331
3B64
331
3B65
331
3B70
331
3B71
331
3B7C
331
3B7D
102
}
 70
     0
280
     1
281
     0
  0
BLOCK_RECORD
  5
68D
330
1
100
AcDbSymbolTableRecord
100
AcDbBlockTableRecord
  2
block 2
340
0
102
{BLKREFS
331
68C
102
}
 70
     0
280
     1
281
     0
  0
BLOCK_RECORD
  5
199A
330
1
100
AcDbSymbolTableRecord
100
AcDbBlockTableRecord
  2
SEANNOT_GROUP
340
0
102
{BLKREFS
331
28CA
102
}
 70
     0
280
     1
281
     0
  0
BLOCK_RECORD
  5
1F2F
330
1
100
AcDbSymbolTableRecord
100
AcDbBlockTableRecord
  2
SEANNOT_GROUP1
340
0
102
{BLKREFS
331
2B9B
102
}
 70
     0
280
     1
281
     0
  0
BLOCK_RECORD
  5
3734
330
1
100
AcDbSymbolTableRecord
100
AcDbBlockTableRecord
  2
*D4
340
0
 70
     0
280
     1
281
     0
  0
BLOCK_RECORD
  5
3740
330
1
100
AcDbSymbolTableRecord
100
AcDbBlockTableRecord
  2
*D5
340
0
 70
     0
280
     1
281
     0
  0
BLOCK_RECORD
  5
37F9
330
1
100
AcDbSymbolTableRecord
100
AcDbBlockTableRecord
  2
*D6
340
0
 70
     0
280
     1
281
     0
  0
BLOCK_RECORD
  5
3808
330
1
100
AcDbSymbolTableRecord
100
AcDbBlockTableRecord
  2
*D7
340
0
 70
     0
280
     1
281
     0
  0
BLOCK_RECORD
  5
3817
330
1
100
AcDbSymbolTableRecord
100
AcDbBlockTableRecord
  2
*D8
340
0
 70
     0
280
     1
281
     0
  0
BLOCK_RECORD
  5
3826
330
1
100
AcDbSymbolTableRecord
100
AcDbBlockTableRecord
  2
*D9
340
0
 70
     0
280
     1
281
     0
  0
BLOCK_RECORD
  5
3837
330
1
100
AcDbSymbolTableRecord
100
AcDbBlockTableRecord
  2
*D10
340
0
 70
     0
280
     1
281
     0
  0
BLOCK_RECORD
  5
3844
330
1
100
AcDbSymbolTableRecord
100
AcDbBlockTableRecord
  2
*D11
340
0
 70
     0
280
     1
281
     0
  0
BLOCK_RECORD
  5
387B
330
1
100
AcDbSymbolTableRecord
100
AcDbBlockTableRecord
  2
*D12
340
0
 70
     0
280
     1
281
     0
  0
BLOCK_RECORD
  5
388A
330
1
100
AcDbSymbolTableRecord
100
AcDbBlockTableRecord
  2
*D13
340
0
 70
     0
280
     1
281
     0
  0
BLOCK_RECORD
  5
3899
330
1
100
AcDbSymbolTableRecord
100
AcDbBlockTableRecord
  2
*D14
340
0
 70
     0
280
     1
281
     0
  0
BLOCK_RECORD
  5
38A6
330
1
100
AcDbSymbolTableRecord
100
AcDbBlockTableRecord
  2
*D15
340
0
 70
     0
280
     1
281
     0
  0
BLOCK_RECORD
  5
38B3
330
1
100
AcDbSymbolTableRecord
100
AcDbBlockTableRecord
  2
*D16
340
0
 70
     0
280
     1
281
     0
  0
BLOCK_RECORD
  5
38C2
330
1
100
AcDbSymbolTableRecord
100
AcDbBlockTableRecord
  2
*D17
340
0
 70
     0
280
     1
281
     0
  0
BLOCK_RECORD
  5
38D1
330
1
100
AcDbSymbolTableRecord
100
AcDbBlockTableRecord
  2
*D18
340
0
 70
     0
280
     1
281
     0
  0
BLOCK_RECORD
  5
38E0
330
1
100
AcDbSymbolTableRecord
100
AcDbBlockTableRecord
  2
*D19
340
0
 70
     0
280
     1
281
     0
  0
BLOCK_RECORD
  5
38F0
330
1
100
AcDbSymbolTableRecord
100
AcDbBlockTableRecord
  2
*D20
340
0
 70
     0
280
     1
281
     0
  0
BLOCK_RECORD
  5
39B0
330
1
100
AcDbSymbolTableRecord
100
AcDbBlockTableRecord
  2
*D21
340
0
 70
     0
280
     1
281
     0
  0
BLOCK_RECORD
  5
39BC
330
1
100
AcDbSymbolTableRecord
100
AcDbBlockTableRecord
  2
*D22
340
0
 70
     0
280
     1
281
     0
  0
BLOCK_RECORD
  5
39C8
330
1
100
AcDbSymbolTableRecord
100
AcDbBlockTableRecord
  2
*D23
340
0
 70
     0
280
     1
281
     0
  0
BLOCK_RECORD
  5
39D4
330
1
100
AcDbSymbolTableRecord
100
AcDbBlockTableRecord
  2
*D24
340
0
 70
     0
280
     1
281
     0
  0
BLOCK_RECORD
  5
39E0
330
1
100
AcDbSymbolTableRecord
100
AcDbBlockTableRecord
  2
*D25
340
0
 70
     0
280
     1
281
     0
  0
BLOCK_RECORD
  5
39EC
330
1
100
AcDbSymbolTableRecord
100
AcDbBlockTableRecord
  2
*D26
340
0
 70
     0
280
     1
281
     0
  0
BLOCK_RECORD
  5
39F8
330
1
100
AcDbSymbolTableRecord
100
AcDbBlockTableRecord
  2
*D27
340
0
 70
     0
280
     1
281
     0
  0
BLOCK_RECORD
  5
3A04
330
1
100
AcDbSymbolTableRecord
100
AcDbBlockTableRecord
  2
*D28
340
0
 70
     0
280
     1
281
     0
  0
BLOCK_RECORD
  5
3A10
330
1
100
AcDbSymbolTableRecord
100
AcDbBlockTableRecord
  2
*D29
340
0
 70
     0
280
     1
281
     0
  0
BLOCK_RECORD
  5
3A1C
330
1
100
AcDbSymbolTableRecord
100
AcDbBlockTableRecord
  2
*D30
340
0
 70
     0
280
     1
281
     0
  0
BLOCK_RECORD
  5
3A28
330
1
100
AcDbSymbolTableRecord
100
AcDbBlockTableRecord
  2
*D31
340
0
 70
     0
280
     1
281
     0
  0
BLOCK_RECORD
  5
3A34
330
1
100
AcDbSymbolTableRecord
100
AcDbBlockTableRecord
  2
*D32
340
0
 70
     0
280
     1
281
     0
  0
BLOCK_RECORD
  5
3A40
330
1
100
AcDbSymbolTableRecord
100
AcDbBlockTableRecord
  2
*D33
340
0
 70
     0
280
     1
281
     0
  0
BLOCK_RECORD
  5
3A4C
330
1
100
AcDbSymbolTableRecord
100
AcDbBlockTableRecord
  2
*D34
340
0
 70
     0
280
     1
281
     0
  0
BLOCK_RECORD
  5
3A58
330
1
100
AcDbSymbolTableRecord
100
AcDbBlockTableRecord
  2
*D35
340
0
 70
     0
280
     1
281
     0
  0
BLOCK_RECORD
  5
3ABC
330
1
100
AcDbSymbolTableRecord
100
AcDbBlockTableRecord
  2
*D36
340
0
 70
     0
280
     1
281
     0
  0
BLOCK_RECORD
  5
3AC9
330
1
100
AcDbSymbolTableRecord
100
AcDbBlockTableRecord
  2
*D37
340
0
 70
     0
280
     1
281
     0
  0
BLOCK_RECORD
  5
3AFE
330
1
100
AcDbSymbolTableRecord
100
AcDbBlockTableRecord
  2
_None
340
0
 70
     0
280
     1
281
     0
  0
BLOCK_RECORD
  5
3B1A
330
1
100
AcDbSymbolTableRecord
100
AcDbBlockTableRecord
  2
*D39
340
0
 70
     0
280
     1
281
     0
  0
BLOCK_RECORD
  5
3B27
330
1
100
AcDbSymbolTableRecord
100
AcDbBlockTableRecord
  2
*D40
340
0
 70
     0
280
     1
281
     0
  0
BLOCK_RECORD
  5
3B38
330
1
100
AcDbSymbolTableRecord
100
AcDbBlockTableRecord
  2
*D41
340
0
 70
     0
280
     1
281
     0
  0
BLOCK_RECORD
  5
3B5E
330
1
100
AcDbSymbolTableRecord
100
AcDbBlockTableRecord
  2
*D42
340
0
 70
     0
280
     1
281
     0
  0
BLOCK_RECORD
  5
3B6A
330
1
100
AcDbSymbolTableRecord
100
AcDbBlockTableRecord
  2
*D43
340
0
 70
     0
280
     1
281
     0
  0
BLOCK_RECORD
  5
3B76
330
1
100
AcDbSymbolTableRecord
100
AcDbBlockTableRecord
  2
*D44
340
0
 70
     0
280
     1
281
     0
  0
ENDTAB
  0
ENDSEC
  0
SECTION
  2
BLOCKS
  0
BLOCK
  5
D
330
A
100
AcDbEntity
  8
0
390
1D
100
AcDbBlockBegin
  2
*MODEL_SPACE
 70
     0
 10
0.0
 20
0.0
 30
0.0
  3
*MODEL_SPACE
  1
*MODEL_SPACE
  0
ENDBLK
  5
E
330
A
100
AcDbEntity
  8
0
390
1D
100
AcDbBlockEnd
  0
BLOCK
  5
F
330
B
100
AcDbEntity
 67
     1
  8
0
390
1D
100
AcDbBlockBegin
  2
*PAPER_SPACE
 70
     0
 10
0.0
 20
0.0
 30
0.0
  3
*PAPER_SPACE
  1
*PAPER_SPACE
  0
ENDBLK
  5
10
330
B
100
AcDbEntity
 67
     1
  8
0
390
1D
100
AcDbBlockEnd
  0
BLOCK
  5
EC4
330
4E
100
AcDbEntity
  8
0
390
1D
100
AcDbBlockBegin
  2
_DOT
 70
     0
 10
0.0
 20
0.0
 30
0.0
  3
_DOT
  1
_DOT
  0
POLYLINE
  5
EC6
330
4E
100
AcDbEntity
  8
0
  6
ByBlock
 62
     0
370
    -2
390
1D
100
AcDb2dPolyline
 66
     1
 10
0.0
 20
0.0
 30
0.0
 70
     1
 40
0.5
 41
0.5
  0
VERTEX
  5
EC7
330
EC6
100
AcDbEntity
  8
0
  6
ByBlock
 62
     0
370
    -2
390
1D
100
AcDbVertex
100
AcDb2dVertex
 10
-0.25
 20
0.0
 30
0.0
 42
1.0
  0
VERTEX
  5
EC8
330
EC6
100
AcDbEntity
  8
0
  6
ByBlock
 62
     0
370
    -2
390
1D
100
AcDbVertex
100
AcDb2dVertex
 10
0.25
 20
0.0
 30
0.0
 42
1.0
  0
SEQEND
  5
EC9
330
EC6
100
AcDbEntity
  8
0
390
1D
  0
LINE
  5
ECA
330
4E
100
AcDbEntity
  8
0
  6
ByBlock
 62
     0
370
    -2
390
1D
100
AcDbLine
 10
-0.5
 20
0.0
 30
0.0
 11
-1.0
 21
0.0
 31
0.0
  0
ENDBLK
  5
ECB
330
4E
100
AcDbEntity
  8
0
390
1D
100
AcDbBlockEnd
  0
BLOCK
  5
68E
330
68D
100
AcDbEntity
  8
0
100
AcDbBlockBegin
  2
block 2
 70
     0
 10
0.0
 20
0.0
 30
0.0
  3
block 2
  1
block 2
  0
ENDBLK
  5
6B0
330
68D
100
AcDbEntity
  8
0
100
AcDbBlockEnd
  0
BLOCK
  5
199B
330
199A
100
AcDbEntity
  8
0
100
AcDbBlockBegin
  2
SEANNOT_GROUP
 70
     0
 10
0.0
 20
0.0
 30
0.0
  3
SEANNOT_GROUP
  1
SEANNOT_GROUP
  0
ENDBLK
  5
199C
330
199A
100
AcDbEntity
  8
0
100
AcDbBlockEnd
  0
BLOCK
  5
1F30
330
1F2F
100
AcDbEntity
  8
0
100
AcDbBlockBegin
  2
SEANNOT_GROUP1
 70
     0
 10
0.0
 20
0.0
 30
0.0
  3
SEANNOT_GROUP1
  1
SEANNOT_GROUP1
  0
ENDBLK
  5
1F31
330
1F2F
100
AcDbEntity
  8
0
100
AcDbBlockEnd
  0
BLOCK
  5
3735
330
3734
100
AcDbEntity
  8
0
100
AcDbBlockBegin
  2
*D4
 70
     1
 10
0.0
 20
0.0
 30
0.0
  3
*D4
  1

  0
LINE
  5
3737
330
3734
100
AcDbEntity
  8
DIM
 62
     0
370
    -2
100
AcDbLine
 10
792.5747720364734
 20
1624.375151854103
 30
0.0
 11
792.5747720364734
 21
1945.106376948328
 31
0.0
  0
LINE
  5
3738
330
3734
100
AcDbEntity
  8
DIM
 62
     0
370
    -2
100
AcDbLine
 10
1363.464741641327
 20
1624.375151854103
 30
0.0
 11
1363.464741641327
 21
1945.106376948328
 31
0.0
  0
LINE
  5
3739
330
3734
100
AcDbEntity
  8
DIM
 62
     0
370
    -2
100
AcDbLine
 10
802.5747720364734
 20
1945.106376948328
 30
0.0
 11
1353.464741641327
 21
1945.106376948328
 31
0.0
  0
INSERT
  5
373A
330
3734
100
AcDbEntity
  8
DIM
 62
     0
370
    -2
100
AcDbBlockReference
  2
_DOT
 10
792.5747720364734
 20
1945.106376948328
 30
0.0
 41
10.0
 42
10.0
 43
10.0
 50
180.0
  0
INSERT
  5
373B
330
3734
100
AcDbEntity
  8
DIM
 62
     0
370
    -2
100
AcDbBlockReference
  2
_DOT
 10
1363.464741641327
 20
1945.106376948328
 30
0.0
 41
10.0
 42
10.0
 43
10.0
  0
MTEXT
  5
373C
330
3734
100
AcDbEntity
  8
DIM
 62
     0
100
AcDbMText
 10
1078.019756838897
 20
1977.106376948328
 30
0.0
 40
24.0
 41
0.0
 46
0.0
 71
     5
 72
     1
  1
\A1;571
  7
ＭＳ ゴシック
 73
     1
 44
1.0
  0
POINT
  5
373D
330
3734
100
AcDbEntity
  8
Defpoints
 62
     0
100
AcDbPoint
 10
792.5747720364734
 20
1594.375151854103
 30
0.0
  0
POINT
  5
373E
330
3734
100
AcDbEntity
  8
Defpoints
 62
     0
100
AcDbPoint
 10
1363.464741641327
 20
1594.375151854103
 30
0.0
  0
POINT
  5
373F
330
3734
100
AcDbEntity
  8
Defpoints
 62
     0
100
AcDbPoint
 10
1363.464741641327
 20
1945.106376948328
 30
0.0
  0
ENDBLK
  5
3736
330
3734
100
AcDbEntity
  8
0
100
AcDbBlockEnd
  0
BLOCK
  5
3741
330
3740
100
AcDbEntity
  8
0
100
AcDbBlockBegin
  2
*D5
 70
     1
 10
0.0
 20
0.0
 30
0.0
  3
*D5
  1

  0
LINE
  5
3743
330
3740
100
AcDbEntity
  8
DIM
 62
     0
370
    -2
100
AcDbLine
 10
888.5851999139768
 20
1564.375151854103
 30
0.0
 11
888.5851999139768
 21
1160.881823708206
 31
0.0
  0
LINE
  5
3744
330
3740
100
AcDbEntity
  8
DIM
 62
     0
370
    -2
100
AcDbLine
 10
1267.454313763824
 20
1564.375151854103
 30
0.0
 11
1267.454313763824
 21
1160.881823708206
 31
0.0
  0
LINE
  5
3745
330
3740
100
AcDbEntity
  8
DIM
 62
     0
370
    -2
100
AcDbLine
 10
898.5851999139768
 20
1160.881823708206
 30
0.0
 11
1257.454313763824
 21
1160.881823708206
 31
0.0
  0
INSERT
  5
3746
330
3740
100
AcDbEntity
  8
DIM
 62
     0
370
    -2
100
AcDbBlockReference
  2
_DOT
 10
888.5851999139768
 20
1160.881823708206
 30
0.0
 41
10.0
 42
10.0
 43
10.0
 50
180.0
  0
INSERT
  5
3747
330
3740
100
AcDbEntity
  8
DIM
 62
     0
370
    -2
100
AcDbBlockReference
  2
_DOT
 10
1267.454313763824
 20
1160.881823708206
 30
0.0
 41
10.0
 42
10.0
 43
10.0
  0
MTEXT
  5
3748
330
3740
100
AcDbEntity
  8
DIM
 62
     0
100
AcDbMText
 10
1078.0197568389
 20
1192.881823708206
 30
0.0
 40
24.0
 41
0.0
 46
0.0
 71
     5
 72
     1
  1
\A1;379
  7
ＭＳ ゴシック
 73
     1
 44
1.0
  0
POINT
  5
3749
330
3740
100
AcDbEntity
  8
Defpoints
 62
     0
100
AcDbPoint
 10
888.5851999139768
 20
1594.375151854103
 30
0.0
  0
POINT
  5
374A
330
3740
100
AcDbEntity
  8
Defpoints
 62
     0
100
AcDbPoint
 10
1267.454313763824
 20
1594.375151854103
 30
0.0
  0
POINT
  5
374B
330
3740
100
AcDbEntity
  8
Defpoints
 62
     0
100
AcDbPoint
 10
1267.454313763824
 20
1160.881823708206
 30
0.0
  0
ENDBLK
  5
3742
330
3740
100
AcDbEntity
  8
0
100
AcDbBlockEnd
  0
BLOCK
  5
37FA
330
37F9
100
AcDbEntity
  8
0
100
AcDbBlockBegin
  2
*D6
 70
     1
 10
0.0
 20
0.0
 30
0.0
  3
*D6
  1

  0
LINE
  5
37FB
330
37F9
100
AcDbEntity
  8
DIM
 62
     0
370
    -2
100
AcDbLine
 10
1378.586132818006
 20
1420.058274017993
 30
0.0
 11
1378.586132818006
 21
1355.874023852796
 31
0.0
  0
LINE
  5
37FC
330
37F9
100
AcDbEntity
  8
DIM
 62
     0
370
    -2
100
AcDbLine
 10
1498.590535145891
 20
1423.724558234435
 30
0.0
 11
1498.590535145891
 21
1355.874023852796
 31
0.0
  0
LINE
  5
37FD
330
37F9
100
AcDbEntity
  8
DIM
 62
     0
370
    -2
100
AcDbLine
 10
1388.586132818006
 20
1355.874023852796
 30
0.0
 11
1488.590535145891
 21
1355.874023852796
 31
0.0
  0
INSERT
  5
37FE
330
37F9
100
AcDbEntity
  8
DIM
 62
     0
370
    -2
100
AcDbBlockReference
  2
_DOT
 10
1378.586132818006
 20
1355.874023852796
 30
0.0
 41
10.0
 42
10.0
 43
10.0
 50
180.0
  0
INSERT
  5
37FF
330
37F9
100
AcDbEntity
  8
DIM
 62
     0
370
    -2
100
AcDbBlockReference
  2
_DOT
 10
1498.590535145891
 20
1355.874023852796
 30
0.0
 41
10.0
 42
10.0
 43
10.0
  0
MTEXT
  5
3800
330
37F9
100
AcDbEntity
  8
DIM
 62
     0
100
AcDbMText
 10
1438.588333981949
 20
1387.878525540929
 30
0.0
 40
24.0
 41
0.0
 46
0.0
 71
     5
 72
     1
  1
\A1;120
  7
ＭＳ ゴシック
 73
     1
 44
1.0
  0
POINT
  5
3801
330
37F9
100
AcDbEntity
  8
Defpoints
 62
     0
100
AcDbPoint
 10
1378.586132818006
 20
1450.058274017993
 30
0.0
  0
POINT
  5
3802
330
37F9
100
AcDbEntity
  8
Defpoints
 62
     0
100
AcDbPoint
 10
1498.590535145891
 20
1453.724558234435
 30
0.0
  0
POINT
  5
3803
330
37F9
100
AcDbEntity
  8
Defpoints
 62
     0
100
AcDbPoint
 10
1498.590535145891
 20
1355.874023852796
 30
0.0
  0
ENDBLK
  5
3804
330
37F9
100
AcDbEntity
  8
0
100
AcDbBlockEnd
  0
BLOCK
  5
3809
330
3808
100
AcDbEntity
  8
0
100
AcDbBlockBegin
  2
*D7
 70
     1
 10
0.0
 20
0.0
 30
0.0
  3
*D7
  1

  0
LINE
  5
380A
330
3808
100
AcDbEntity
  8
DIM
 62
     0
370
    -2
100
AcDbLine
 10
1352.133536229466
 20
1914.726242787764
 30
0.0
 11
1295.935993693706
 21
1914.726242787764
 31
0.0
  0
LINE
  5
380B
330
3808
100
AcDbEntity
  8
DIM
 62
     0
370
    -2
100
AcDbLine
 10
1352.133536229466
 20
1849.703444631025
 30
0.0
 11
1295.935993693706
 21
1849.703444631025
 31
0.0
  0
LINE
  5
380C
330
3808
100
AcDbEntity
  8
DIM
 62
     0
370
    -2
100
AcDbLine
 10
1295.935993693706
 20
1904.726242787764
 30
0.0
 11
1295.935993693706
 21
1859.703444631025
 31
0.0
  0
INSERT
  5
380D
330
3808
100
AcDbEntity
  8
DIM
 62
     0
370
    -2
100
AcDbBlockReference
  2
_DOT
 10
1295.935993693706
 20
1914.726242787764
 30
0.0
 41
10.0
 42
10.0
 43
10.0
 50
90.0
  0
INSERT
  5
380E
330
3808
100
AcDbEntity
  8
DIM
 62
     0
370
    -2
100
AcDbBlockReference
  2
_DOT
 10
1295.935993693706
 20
1849.703444631025
 30
0.0
 41
10.0
 42
10.0
 43
10.0
 50
270.0
  0
MTEXT
  5
380F
330
3808
100
AcDbEntity
  8
DIM
 62
     0
100
AcDbMText
 10
1263.931492005573
 20
1882.214843709395
 30
0.0
 40
24.0
 41
0.0
 46
0.0
 71
     5
 72
     1
  1
\A1;65
  7
ＭＳ ゴシック
 11
0.0
 21
1.0
 31
0.0
 73
     1
 44
1.0
  0
POINT
  5
3810
330
3808
100
AcDbEntity
  8
Defpoints
 62
     0
100
AcDbPoint
 10
1382.133536229466
 20
1914.726242787764
 30
0.0
  0
POINT
  5
3811
330
3808
100
AcDbEntity
  8
Defpoints
 62
     0
100
AcDbPoint
 10
1382.133536229466
 20
1849.703444631025
 30
0.0
  0
POINT
  5
3812
330
3808
100
AcDbEntity
  8
Defpoints
 62
     0
100
AcDbPoint
 10
1295.935993693706
 20
1849.703444631025
 30
0.0
  0
ENDBLK
  5
3813
330
3808
100
AcDbEntity
  8
0
100
AcDbBlockEnd
  0
BLOCK
  5
3818
330
3817
100
AcDbEntity
  8
0
100
AcDbBlockBegin
  2
*D8
 70
     1
 10
0.0
 20
0.0
 30
0.0
  3
*D8
  1

  0
LINE
  5
3819
330
3817
100
AcDbEntity
  8
DIM
 62
     0
370
    -2
100
AcDbLine
 10
1378.893813859338
 20
1705.871643171454
 30
0.0
 11
1213.207306419049
 21
1705.871643171454
 31
0.0
  0
LINE
  5
381A
330
3817
100
AcDbEntity
  8
DIM
 62
     0
370
    -2
100
AcDbLine
 10
1473.978358989567
 20
1705.871643171454
 30
0.0
 11
1388.893813859338
 21
1705.871643171454
 31
0.0
  0
LINE
  5
381B
330
3817
100
AcDbEntity
  8
DIM
 62
     0
370
    -2
100
AcDbLine
 10
1388.893813859338
 20
1705.871643171454
 30
0.0
 11
1398.893813859338
 21
1705.871643171454
 31
0.0
  0
INSERT
  5
381C
330
3817
100
AcDbEntity
  8
DIM
 62
     0
370
    -2
100
AcDbBlockReference
  2
_DOT
 10
1483.978358989567
 20
1705.871643171454
 30
0.0
 41
10.0
 42
10.0
 43
10.0
  0
INSERT
  5
381D
330
3817
100
AcDbEntity
  8
DIM
 62
     0
370
    -2
100
AcDbBlockReference
  2
_DOT
 10
1378.893813859338
 20
1705.871643171454
 30
0.0
 41
10.0
 42
10.0
 43
10.0
 50
180.0
  0
MTEXT
  5
381E
330
3817
100
AcDbEntity
  8
DIM
 62
     0
100
AcDbMText
 10
1286.050560139194
 20
1739.575532129814
 30
0.0
 40
24.0
 41
0.0
 46
0.0
 71
     5
 72
     1
  1
\A1;深さ105
  7
ＭＳ ゴシック
 73
     1
 44
1.0
  0
POINT
  5
381F
330
3817
100
AcDbEntity
  8
Defpoints
 62
     0
100
AcDbPoint
 10
1483.978358989567
 20
1741.113100459723
 30
0.0
  0
POINT
  5
3820
330
3817
100
AcDbEntity
  8
Defpoints
 62
     0
100
AcDbPoint
 10
1378.893813859338
 20
1711.236895133787
 30
0.0
  0
POINT
  5
3821
330
3817
100
AcDbEntity
  8
Defpoints
 62
     0
100
AcDbPoint
 10
1378.893813859338
 20
1705.871643171454
 30
0.0
  0
ENDBLK
  5
3822
330
3817
100
AcDbEntity
  8
0
100
AcDbBlockEnd
  0
BLOCK
  5
3827
330
3826
100
AcDbEntity
  8
0
100
AcDbBlockBegin
  2
*D9
 70
     1
 10
0.0
 20
0.0
 30
0.0
  3
*D9
  1

  0
LINE
  5
3828
330
3826
100
AcDbEntity
  8
DIM
 62
     0
370
    -2
100
AcDbLine
 10
1526.133457125068
 20
1914.59194537006
 30
0.0
 11
1644.496599067428
 21
1914.59194537006
 31
0.0
  0
LINE
  5
3829
330
3826
100
AcDbEntity
  8
DIM
 62
     0
370
    -2
100
AcDbLine
 10
1562.886041470857
 20
1704.548503330315
 30
0.0
 11
1644.496599067428
 21
1704.548503330315
 31
0.0
  0
LINE
  5
382A
330
3826
100
AcDbEntity
  8
DIM
 62
     0
370
    -2
100
AcDbLine
 10
1644.496599067428
 20
1904.59194537006
 30
0.0
 11
1644.496599067428
 21
1714.548503330315
 31
0.0
  0
INSERT
  5
382B
330
3826
100
AcDbEntity
  8
DIM
 62
     0
370
    -2
100
AcDbBlockReference
  2
_DOT
 10
1644.496599067428
 20
1914.59194537006
 30
0.0
 41
10.0
 42
10.0
 43
10.0
 50
90.0
  0
INSERT
  5
382C
330
3826
100
AcDbEntity
  8
DIM
 62
     0
370
    -2
100
AcDbBlockReference
  2
_DOT
 10
1644.496599067428
 20
1704.548503330315
 30
0.0
 41
10.0
 42
10.0
 43
10.0
 50
270.0
  0
MTEXT
  5
382D
330
3826
100
AcDbEntity
  8
DIM
 62
     0
100
AcDbMText
 10
1612.492097379295
 20
1809.570224350188
 30
0.0
 40
24.0
 41
0.0
 46
0.0
 71
     5
 72
     1
  1
\A1;210
  7
ＭＳ ゴシック
 11
0.0
 21
1.0
 31
0.0
 73
     1
 44
1.0
  0
POINT
  5
382E
330
3826
100
AcDbEntity
  8
Defpoints
 62
     0
100
AcDbPoint
 10
1496.133457125068
 20
1914.59194537006
 30
0.0
  0
POINT
  5
382F
330
3826
100
AcDbEntity
  8
Defpoints
 62
     0
100
AcDbPoint
 10
1532.886041470857
 20
1704.548503330315
 30
0.0
  0
POINT
  5
3830
330
3826
100
AcDbEntity
  8
Defpoints
 62
     0
100
AcDbPoint
 10
1644.496599067428
 20
1704.548503330315
 30
0.0
  0
ENDBLK
  5
3831
330
3826
100
AcDbEntity
  8
0
100
AcDbBlockEnd
  0
BLOCK
  5
3838
330
3837
100
AcDbEntity
  8
0
100
AcDbBlockBegin
  2
*D10
 70
     1
 10
0.0
 20
0.0
 30
0.0
  3
*D10
  1

  0
LINE
  5
3839
330
3837
100
AcDbEntity
  8
DIM
 62
     0
370
    -2
100
AcDbLine
 10
553.0747567904014
 20
1843.267694780106
 30
0.0
 11
691.5369668286219
 21
1843.267694780106
 31
0.0
  0
LINE
  5
383A
330
3837
100
AcDbEntity
  8
DIM
 62
     0
370
    -2
100
AcDbLine
 10
553.0747567904032
 20
1513.267694780106
 30
0.0
 11
691.5369668286219
 21
1513.267694780106
 31
0.0
  0
LINE
  5
383B
330
3837
100
AcDbEntity
  8
DIM
 62
     0
370
    -2
100
AcDbLine
 10
691.5369668286219
 20
1833.267694780106
 30
0.0
 11
691.5369668286219
 21
1523.267694780106
 31
0.0
  0
INSERT
  5
383C
330
3837
100
AcDbEntity
  8
DIM
 62
     0
370
    -2
100
AcDbBlockReference
  2
_DOT
 10
691.5369668286219
 20
1843.267694780106
 30
0.0
 41
10.0
 42
10.0
 43
10.0
 50
90.0
  0
INSERT
  5
383D
330
3837
100
AcDbEntity
  8
DIM
 62
     0
370
    -2
100
AcDbBlockReference
  2
_DOT
 10
691.5369668286219
 20
1513.267694780106
 30
0.0
 41
10.0
 42
10.0
 43
10.0
 50
270.0
  0
MTEXT
  5
383E
330
3837
100
AcDbEntity
  8
DIM
 62
     0
100
AcDbMText
 10
659.5324651404887
 20
1678.267694780106
 30
0.0
 40
24.0
 41
0.0
 46
0.0
 71
     5
 72
     1
  1
\A1;330
  7
ＭＳ ゴシック
 11
0.0
 21
1.0
 31
0.0
 73
     1
 44
1.0
  0
POINT
  5
383F
330
3837
100
AcDbEntity
  8
Defpoints
 62
     0
100
AcDbPoint
 10
523.0747567904014
 20
1843.267694780106
 30
0.0
  0
POINT
  5
3840
330
3837
100
AcDbEntity
  8
Defpoints
 62
     0
100
AcDbPoint
 10
523.0747567904032
 20
1513.267694780106
 30
0.0
  0
POINT
  5
3841
330
3837
100
AcDbEntity
  8
Defpoints
 62
     0
100
AcDbPoint
 10
691.5369668286219
 20
1513.267694780106
 30
0.0
  0
ENDBLK
  5
3842
330
3837
100
AcDbEntity
  8
0
100
AcDbBlockEnd
  0
BLOCK
  5
3845
330
3844
100
AcDbEntity
  8
0
100
AcDbBlockBegin
  2
*D11
 70
     1
 10
0.0
 20
0.0
 30
0.0
  3
*D11
  1

  0
LINE
  5
3846
330
3844
100
AcDbEntity
  8
DIM
 62
     0
370
    -2
100
AcDbLine
 10
223.7793982281573
 20
1834.362067339822
 30
0.0
 11
223.7793982281573
 21
1928.803518072426
 31
0.0
  0
LINE
  5
3847
330
3844
100
AcDbEntity
  8
DIM
 62
     0
370
    -2
100
AcDbLine
 10
523.0747567904014
 20
1874.362067339805
 30
0.0
 11
523.0747567904014
 21
1928.803518072426
 31
0.0
  0
LINE
  5
3848
330
3844
100
AcDbEntity
  8
DIM
 62
     0
370
    -2
100
AcDbLine
 10
233.7793982281573
 20
1928.803518072426
 30
0.0
 11
513.0747567904014
 21
1928.803518072426
 31
0.0
  0
INSERT
  5
3849
330
3844
100
AcDbEntity
  8
DIM
 62
     0
370
    -2
100
AcDbBlockReference
  2
_DOT
 10
223.7793982281573
 20
1928.803518072426
 30
0.0
 41
10.0
 42
10.0
 43
10.0
 50
180.0
  0
INSERT
  5
384A
330
3844
100
AcDbEntity
  8
DIM
 62
     0
370
    -2
100
AcDbBlockReference
  2
_DOT
 10
523.0747567904014
 20
1928.803518072426
 30
0.0
 41
10.0
 42
10.0
 43
10.0
  0
MTEXT
  5
384B
330
3844
100
AcDbEntity
  8
DIM
 62
     0
100
AcDbMText
 10
373.4270775092793
 20
1960.80801976056
 30
0.0
 40
24.0
 41
0.0
 46
0.0
 71
     5
 72
     1
  1
\A1;300
  7
ＭＳ ゴシック
 73
     1
 44
1.0
  0
POINT
  5
384C
330
3844
100
AcDbEntity
  8
Defpoints
 62
     0
100
AcDbPoint
 10
223.7793982281573
 20
1804.362067339822
 30
0.0
  0
POINT
  5
384D
330
3844
100
AcDbEntity
  8
Defpoints
 62
     0
100
AcDbPoint
 10
523.0747567904014
 20
1844.362067339805
 30
0.0
  0
POINT
  5
384E
330
3844
100
AcDbEntity
  8
Defpoints
 62
     0
100
AcDbPoint
 10
523.0747567904014
 20
1928.803518072426
 30
0.0
  0
ENDBLK
  5
384F
330
3844
100
AcDbEntity
  8
0
100
AcDbBlockEnd
  0
BLOCK
  5
387C
330
387B
100
AcDbEntity
  8
0
100
AcDbBlockBegin
  2
*D12
 70
     1
 10
0.0
 20
0.0
 30
0.0
  3
*D12
  1

  0
LINE
  5
387D
330
387B
100
AcDbEntity
  8
DIM
 62
     0
370
    -2
100
AcDbLine
 10
1393.908516749515
 20
639.8987513733242
 30
0.0
 11
1293.494343692616
 21
639.8987513733242
 31
0.0
  0
LINE
  5
387E
330
387B
100
AcDbEntity
  8
DIM
 62
     0
370
    -2
100
AcDbLine
 10
1393.93959668047
 20
359.6749065531473
 30
0.0
 11
1293.494343692616
 21
359.6749065531473
 31
0.0
  0
LINE
  5
387F
330
387B
100
AcDbEntity
  8
DIM
 62
     0
370
    -2
100
AcDbLine
 10
1293.494343692616
 20
629.8987513733242
 30
0.0
 11
1293.494343692616
 21
369.6749065531473
 31
0.0
  0
INSERT
  5
3880
330
387B
100
AcDbEntity
  8
DIM
 62
     0
370
    -2
100
AcDbBlockReference
  2
_DOT
 10
1293.494343692616
 20
639.8987513733242
 30
0.0
 41
10.0
 42
10.0
 43
10.0
 50
90.0
  0
INSERT
  5
3881
330
387B
100
AcDbEntity
  8
DIM
 62
     0
370
    -2
100
AcDbBlockReference
  2
_DOT
 10
1293.494343692616
 20
359.6749065531473
 30
0.0
 41
10.0
 42
10.0
 43
10.0
 50
270.0
  0
MTEXT
  5
3882
330
387B
100
AcDbEntity
  8
DIM
 62
     0
100
AcDbMText
 10
1261.489842004483
 20
499.7868289632357
 30
0.0
 40
24.0
 41
0.0
 46
0.0
 71
     5
 72
     1
  1
\A1;280
  7
ＭＳ ゴシック
 11
0.0
 21
1.0
 31
0.0
 73
     1
 44
1.0
  0
POINT
  5
3883
330
387B
100
AcDbEntity
  8
Defpoints
 62
     0
100
AcDbPoint
 10
1423.908516749515
 20
639.8987513733242
 30
0.0
  0
POINT
  5
3884
330
387B
100
AcDbEntity
  8
Defpoints
 62
     0
100
AcDbPoint
 10
1423.93959668047
 20
359.6749065531473
 30
0.0
  0
POINT
  5
3885
330
387B
100
AcDbEntity
  8
Defpoints
 62
     0
100
AcDbPoint
 10
1293.494343692616
 20
359.6749065531473
 30
0.0
  0
ENDBLK
  5
3886
330
387B
100
AcDbEntity
  8
0
100
AcDbBlockEnd
  0
BLOCK
  5
388B
330
388A
100
AcDbEntity
  8
0
100
AcDbBlockBegin
  2
*D13
 70
     1
 10
0.0
 20
0.0
 30
0.0
  3
*D13
  1

  0
LINE
  5
388C
330
388A
100
AcDbEntity
  8
DIM
 62
     0
370
    -2
100
AcDbLine
 10
1379.04454597906
 20
927.8593140552122
 30
0.0
 11
1379.04454597906
 21
1021.311048021102
 31
0.0
  0
LINE
  5
388D
330
388A
100
AcDbEntity
  8
DIM
 62
     0
370
    -2
100
AcDbLine
 10
1532.908516749513
 20
565.5034703905102
 30
0.0
 11
1532.908516749513
 21
1021.311048021102
 31
0.0
  0
LINE
  5
388E
330
388A
100
AcDbEntity
  8
DIM
 62
     0
370
    -2
100
AcDbLine
 10
1389.04454597906
 20
1021.311048021102
 30
0.0
 11
1522.908516749513
 21
1021.311048021102
 31
0.0
  0
INSERT
  5
388F
330
388A
100
AcDbEntity
  8
DIM
 62
     0
370
    -2
100
AcDbBlockReference
  2
_DOT
 10
1379.04454597906
 20
1021.311048021102
 30
0.0
 41
10.0
 42
10.0
 43
10.0
 50
180.0
  0
INSERT
  5
3890
330
388A
100
AcDbEntity
  8
DIM
 62
     0
370
    -2
100
AcDbBlockReference
  2
_DOT
 10
1532.908516749513
 20
1021.311048021102
 30
0.0
 41
10.0
 42
10.0
 43
10.0
  0
MTEXT
  5
3891
330
388A
100
AcDbEntity
  8
DIM
 62
     0
100
AcDbMText
 10
1455.976531364287
 20
1053.315549709235
 30
0.0
 40
24.0
 41
0.0
 46
0.0
 71
     5
 72
     1
  1
\A1;154
  7
ＭＳ ゴシック
 73
     1
 44
1.0
  0
POINT
  5
3892
330
388A
100
AcDbEntity
  8
Defpoints
 62
     0
100
AcDbPoint
 10
1379.04454597906
 20
897.8593140552122
 30
0.0
  0
POINT
  5
3893
330
388A
100
AcDbEntity
  8
Defpoints
 62
     0
100
AcDbPoint
 10
1532.908516749513
 20
535.5034703905102
 30
0.0
  0
POINT
  5
3894
330
388A
100
AcDbEntity
  8
Defpoints
 62
     0
100
AcDbPoint
 10
1532.908516749513
 20
1021.311048021102
 30
0.0
  0
ENDBLK
  5
3895
330
388A
100
AcDbEntity
  8
0
100
AcDbBlockEnd
  0
BLOCK
  5
389A
330
3899
100
AcDbEntity
  8
0
100
AcDbBlockBegin
  2
*D14
 70
     1
 10
0.0
 20
0.0
 30
0.0
  3
*D14
  1

  0
LINE
  5
389B
330
3899
100
AcDbEntity
  8
DIM
 62
     0
370
    -2
100
AcDbLine
 10
223.7793982281547
 20
926.9500281614293
 30
0.0
 11
223.7793982281547
 21
1021.311048021102
 31
0.0
  0
LINE
  5
389C
330
3899
100
AcDbEntity
  8
DIM
 62
     0
370
    -2
100
AcDbLine
 10
693.6455573439416
 20
925.9495712468891
 30
0.0
 11
693.6455573439416
 21
1021.311048021102
 31
0.0
  0
LINE
  5
389D
330
3899
100
AcDbEntity
  8
DIM
 62
     0
370
    -2
100
AcDbLine
 10
233.7793982281547
 20
1021.311048021102
 30
0.0
 11
683.6455573439416
 21
1021.311048021102
 31
0.0
  0
INSERT
  5
389E
330
3899
100
AcDbEntity
  8
DIM
 62
     0
370
    -2
100
AcDbBlockReference
  2
_DOT
 10
223.7793982281547
 20
1021.311048021102
 30
0.0
 41
10.0
 42
10.0
 43
10.0
 50
180.0
  0
INSERT
  5
389F
330
3899
100
AcDbEntity
  8
DIM
 62
     0
370
    -2
100
AcDbBlockReference
  2
_DOT
 10
693.6455573439416
 20
1021.311048021102
 30
0.0
 41
10.0
 42
10.0
 43
10.0
  0
MTEXT
  5
38A0
330
3899
100
AcDbEntity
  8
DIM
 62
     0
100
AcDbMText
 10
458.7124777860486
 20
1053.315549709235
 30
0.0
 40
24.0
 41
0.0
 46
0.0
 71
     5
 72
     1
  1
\A1;470
  7
ＭＳ ゴシック
 73
     1
 44
1.0
  0
POINT
  5
38A1
330
3899
100
AcDbEntity
  8
Defpoints
 62
     0
100
AcDbPoint
 10
223.7793982281547
 20
896.9500281614293
 30
0.0
  0
POINT
  5
38A2
330
3899
100
AcDbEntity
  8
Defpoints
 62
     0
100
AcDbPoint
 10
693.6455573439416
 20
895.9495712468891
 30
0.0
  0
POINT
  5
38A3
330
3899
100
AcDbEntity
  8
Defpoints
 62
     0
100
AcDbPoint
 10
693.6455573439416
 20
1021.311048021102
 30
0.0
  0
ENDBLK
  5
38A4
330
3899
100
AcDbEntity
  8
0
100
AcDbBlockEnd
  0
BLOCK
  5
38A7
330
38A6
100
AcDbEntity
  8
0
100
AcDbBlockBegin
  2
*D15
 70
     1
 10
0.0
 20
0.0
 30
0.0
  3
*D15
  1

  0
LINE
  5
38A8
330
38A6
100
AcDbEntity
  8
DIM
 62
     0
370
    -2
100
AcDbLine
 10
348.7943591562771
 20
72.8723731152337
 30
0.0
 11
348.7943591562771
 21
5.0
 31
0.0
  0
LINE
  5
38A9
330
38A6
100
AcDbEntity
  8
DIM
 62
     0
370
    -2
100
AcDbLine
 10
689.0728439889272
 20
72.87237311523472
 30
0.0
 11
689.0728439889272
 21
5.0
 31
0.0
  0
LINE
  5
38AA
330
38A6
100
AcDbEntity
  8
DIM
 62
     0
370
    -2
100
AcDbLine
 10
358.7943591562771
 20
5.0
 30
0.0
 11
679.0728439889272
 21
5.0
 31
0.0
  0
INSERT
  5
38AB
330
38A6
100
AcDbEntity
  8
DIM
 62
     0
370
    -2
100
AcDbBlockReference
  2
_DOT
 10
348.7943591562771
 20
5.0
 30
0.0
 41
10.0
 42
10.0
 43
10.0
 50
180.0
  0
INSERT
  5
38AC
330
38A6
100
AcDbEntity
  8
DIM
 62
     0
370
    -2
100
AcDbBlockReference
  2
_DOT
 10
689.0728439889272
 20
5.0
 30
0.0
 41
10.0
 42
10.0
 43
10.0
  0
MTEXT
  5
38AD
330
38A6
100
AcDbEntity
  8
DIM
 62
     0
100
AcDbMText
 10
518.9336015726021
 20
37.00450168813305
 30
0.0
 40
24.0
 41
0.0
 46
0.0
 71
     5
 72
     1
  1
\A1;340
  7
ＭＳ ゴシック
 73
     1
 44
1.0
  0
POINT
  5
38AE
330
38A6
100
AcDbEntity
  8
Defpoints
 62
     0
100
AcDbPoint
 10
348.7943591562771
 20
102.8723731152337
 30
0.0
  0
POINT
  5
38AF
330
38A6
100
AcDbEntity
  8
Defpoints
 62
     0
100
AcDbPoint
 10
689.0728439889272
 20
102.8723731152347
 30
0.0
  0
POINT
  5
38B0
330
38A6
100
AcDbEntity
  8
Defpoints
 62
     0
100
AcDbPoint
 10
689.0728439889272
 20
5.0
 30
0.0
  0
ENDBLK
  5
38B1
330
38A6
100
AcDbEntity
  8
0
100
AcDbBlockEnd
  0
BLOCK
  5
38B4
330
38B3
100
AcDbEntity
  8
0
100
AcDbBlockBegin
  2
*D16
 70
     1
 10
0.0
 20
0.0
 30
0.0
  3
*D16
  1

  0
LINE
  5
38B5
330
38B3
100
AcDbEntity
  8
DIM
 62
     0
370
    -2
100
AcDbLine
 10
348.7943591562771
 20
72.8723731152337
 30
0.0
 11
348.7943591562771
 21
5.0
 31
0.0
  0
LINE
  5
38B6
330
38B3
100
AcDbEntity
  8
DIM
 62
     0
370
    -2
100
AcDbLine
 10
223.7793982281547
 20
72.94911433235154
 30
0.0
 11
223.7793982281547
 21
5.0
 31
0.0
  0
LINE
  5
38B7
330
38B3
100
AcDbEntity
  8
DIM
 62
     0
370
    -2
100
AcDbLine
 10
338.7943591562771
 20
5.0
 30
0.0
 11
233.7793982281547
 21
5.0
 31
0.0
  0
INSERT
  5
38B8
330
38B3
100
AcDbEntity
  8
DIM
 62
     0
370
    -2
100
AcDbBlockReference
  2
_DOT
 10
348.7943591562771
 20
5.0
 30
0.0
 41
10.0
 42
10.0
 43
10.0
  0
INSERT
  5
38B9
330
38B3
100
AcDbEntity
  8
DIM
 62
     0
370
    -2
100
AcDbBlockReference
  2
_DOT
 10
223.7793982281547
 20
5.0
 30
0.0
 41
10.0
 42
10.0
 43
10.0
 50
180.0
  0
MTEXT
  5
38BA
330
38B3
100
AcDbEntity
  8
DIM
 62
     0
100
AcDbMText
 10
286.2868786922159
 20
37.00450168813305
 30
0.0
 40
24.0
 41
0.0
 46
0.0
 71
     5
 72
     1
  1
\A1;125
  7
ＭＳ ゴシック
 73
     1
 44
1.0
  0
POINT
  5
38BB
330
38B3
100
AcDbEntity
  8
Defpoints
 62
     0
100
AcDbPoint
 10
348.7943591562771
 20
102.8723731152337
 30
0.0
  0
POINT
  5
38BC
330
38B3
100
AcDbEntity
  8
Defpoints
 62
     0
100
AcDbPoint
 10
223.7793982281547
 20
102.9491143323515
 30
0.0
  0
POINT
  5
38BD
330
38B3
100
AcDbEntity
  8
Defpoints
 62
     0
100
AcDbPoint
 10
223.7793982281547
 20
5.0
 30
0.0
  0
ENDBLK
  5
38BE
330
38B3
100
AcDbEntity
  8
0
100
AcDbBlockEnd
  0
BLOCK
  5
38C3
330
38C2
100
AcDbEntity
  8
0
100
AcDbBlockBegin
  2
*D17
 70
     1
 10
0.0
 20
0.0
 30
0.0
  3
*D17
  1

  0
LINE
  5
38C4
330
38C2
100
AcDbEntity
  8
DIM
 62
     0
370
    -2
100
AcDbLine
 10
260.7809583136826
 20
399.9495712468903
 30
0.0
 11
139.5171064397923
 21
399.9495712468903
 31
0.0
  0
LINE
  5
38C5
330
38C2
100
AcDbEntity
  8
DIM
 62
     0
370
    -2
100
AcDbLine
 10
260.7809583136826
 20
499.9495712468903
 30
0.0
 11
139.5171064397923
 21
499.9495712468903
 31
0.0
  0
LINE
  5
38C6
330
38C2
100
AcDbEntity
  8
DIM
 62
     0
370
    -2
100
AcDbLine
 10
139.5171064397923
 20
409.9495712468903
 30
0.0
 11
139.5171064397923
 21
489.9495712468903
 31
0.0
  0
INSERT
  5
38C7
330
38C2
100
AcDbEntity
  8
DIM
 62
     0
370
    -2
100
AcDbBlockReference
  2
_DOT
 10
139.5171064397923
 20
399.9495712468903
 30
0.0
 41
10.0
 42
10.0
 43
10.0
 50
270.0
  0
INSERT
  5
38C8
330
38C2
100
AcDbEntity
  8
DIM
 62
     0
370
    -2
100
AcDbBlockReference
  2
_DOT
 10
139.5171064397923
 20
499.9495712468903
 30
0.0
 41
10.0
 42
10.0
 43
10.0
 50
90.0
  0
MTEXT
  5
38C9
330
38C2
100
AcDbEntity
  8
DIM
 62
     0
100
AcDbMText
 10
107.5126047516592
 20
449.9495712468903
 30
0.0
 40
24.0
 41
0.0
 46
0.0
 71
     5
 72
     1
  1
\A1;100
  7
ＭＳ ゴシック
 11
0.0
 21
1.0
 31
0.0
 73
     1
 44
1.0
  0
POINT
  5
38CA
330
38C2
100
AcDbEntity
  8
Defpoints
 62
     0
100
AcDbPoint
 10
290.7809583136826
 20
399.9495712468903
 30
0.0
  0
POINT
  5
38CB
330
38C2
100
AcDbEntity
  8
Defpoints
 62
     0
100
AcDbPoint
 10
290.7809583136826
 20
499.9495712468903
 30
0.0
  0
POINT
  5
38CC
330
38C2
100
AcDbEntity
  8
Defpoints
 62
     0
100
AcDbPoint
 10
139.5171064397923
 20
499.9495712468903
 30
0.0
  0
ENDBLK
  5
38CD
330
38C2
100
AcDbEntity
  8
0
100
AcDbBlockEnd
  0
BLOCK
  5
38D2
330
38D1
100
AcDbEntity
  8
0
100
AcDbBlockBegin
  2
*D18
 70
     1
 10
0.0
 20
0.0
 30
0.0
  3
*D18
  1

  0
LINE
  5
38D3
330
38D1
100
AcDbEntity
  8
DIM
 62
     0
370
    -2
100
AcDbLine
 10
260.7809583136826
 20
499.9495712468903
 30
0.0
 11
139.5171064397923
 21
499.9495712468903
 31
0.0
  0
LINE
  5
38D4
330
38D1
100
AcDbEntity
  8
DIM
 62
     0
370
    -2
100
AcDbLine
 10
260.7809583136826
 20
599.9495712468903
 30
0.0
 11
139.5171064397923
 21
599.9495712468903
 31
0.0
  0
LINE
  5
38D5
330
38D1
100
AcDbEntity
  8
DIM
 62
     0
370
    -2
100
AcDbLine
 10
139.5171064397923
 20
509.9495712468903
 30
0.0
 11
139.5171064397923
 21
589.9495712468903
 31
0.0
  0
INSERT
  5
38D6
330
38D1
100
AcDbEntity
  8
DIM
 62
     0
370
    -2
100
AcDbBlockReference
  2
_DOT
 10
139.5171064397923
 20
499.9495712468903
 30
0.0
 41
10.0
 42
10.0
 43
10.0
 50
270.0
  0
INSERT
  5
38D7
330
38D1
100
AcDbEntity
  8
DIM
 62
     0
370
    -2
100
AcDbBlockReference
  2
_DOT
 10
139.5171064397923
 20
599.9495712468903
 30
0.0
 41
10.0
 42
10.0
 43
10.0
 50
90.0
  0
MTEXT
  5
38D8
330
38D1
100
AcDbEntity
  8
DIM
 62
     0
100
AcDbMText
 10
107.5126047516593
 20
549.9495712468903
 30
0.0
 40
24.0
 41
0.0
 46
0.0
 71
     5
 72
     1
  1
\A1;100
  7
ＭＳ ゴシック
 11
0.0
 21
1.0
 31
0.0
 73
     1
 44
1.0
  0
POINT
  5
38D9
330
38D1
100
AcDbEntity
  8
Defpoints
 62
     0
100
AcDbPoint
 10
290.7809583136826
 20
499.9495712468903
 30
0.0
  0
POINT
  5
38DA
330
38D1
100
AcDbEntity
  8
Defpoints
 62
     0
100
AcDbPoint
 10
290.7809583136826
 20
599.9495712468903
 30
0.0
  0
POINT
  5
38DB
330
38D1
100
AcDbEntity
  8
Defpoints
 62
     0
100
AcDbPoint
 10
139.5171064397923
 20
599.9495712468903
 30
0.0
  0
ENDBLK
  5
38DC
330
38D1
100
AcDbEntity
  8
0
100
AcDbBlockEnd
  0
BLOCK
  5
38E1
330
38E0
100
AcDbEntity
  8
0
100
AcDbBlockBegin
  2
*D19
 70
     1
 10
0.0
 20
0.0
 30
0.0
  3
*D19
  1

  0
LINE
  5
38E2
330
38E0
100
AcDbEntity
  8
DIM
 62
     0
370
    -2
100
AcDbLine
 10
196.7793982281547
 20
99.94957124688233
 30
0.0
 11
43.99999999999998
 21
99.94957124688233
 31
0.0
  0
LINE
  5
38E3
330
38E0
100
AcDbEntity
  8
DIM
 62
     0
370
    -2
100
AcDbLine
 10
196.7793982281547
 20
899.9495712468982
 30
0.0
 11
44.00000000000003
 21
899.9495712468982
 31
0.0
  0
LINE
  5
38E4
330
38E0
100
AcDbEntity
  8
DIM
 62
     0
370
    -2
100
AcDbLine
 10
43.99999999999998
 20
109.9495712468823
 30
0.0
 11
44.00000000000003
 21
889.9495712468982
 31
0.0
  0
INSERT
  5
38E5
330
38E0
100
AcDbEntity
  8
DIM
 62
     0
370
    -2
100
AcDbBlockReference
  2
_DOT
 10
43.99999999999998
 20
99.94957124688233
 30
0.0
 41
10.0
 42
10.0
 43
10.0
 50
270.0
  0
INSERT
  5
38E6
330
38E0
100
AcDbEntity
  8
DIM
 62
     0
370
    -2
100
AcDbBlockReference
  2
_DOT
 10
44.00000000000003
 20
899.9495712468982
 30
0.0
 41
10.0
 42
10.0
 43
10.0
 50
90.0
  0
MTEXT
  5
38E7
330
38E0
100
AcDbEntity
  8
DIM
 62
     0
100
AcDbMText
 10
12.0
 20
499.9495712468903
 30
0.0
 40
24.0
 41
0.0
 46
0.0
 71
     5
 72
     1
  1
\A1;800
  7
ＭＳ ゴシック
 11
6.217248937900753E-17
 21
1.0
 31
0.0
 73
     1
 44
1.0
  0
POINT
  5
38E8
330
38E0
100
AcDbEntity
  8
Defpoints
 62
     0
100
AcDbPoint
 10
226.7793982281547
 20
99.94957124688233
 30
0.0
  0
POINT
  5
38E9
330
38E0
100
AcDbEntity
  8
Defpoints
 62
     0
100
AcDbPoint
 10
226.7793982281547
 20
899.9495712468982
 30
0.0
  0
POINT
  5
38EA
330
38E0
100
AcDbEntity
  8
Defpoints
 62
     0
100
AcDbPoint
 10
44.00000000000003
 20
899.9495712468982
 30
0.0
  0
ENDBLK
  5
38EB
330
38E0
100
AcDbEntity
  8
0
100
AcDbBlockEnd
  0
BLOCK
  5
38F1
330
38F0
100
AcDbEntity
  8
0
100
AcDbBlockBegin
  2
*D20
 70
     1
 10
0.0
 20
0.0
 30
0.0
  3
*D20
  1

  0
LINE
  5
38F2
330
38F0
100
AcDbEntity
  8
DIM
 62
     0
370
    -2
100
AcDbLine
 10
1512.613182869854
 20
99.9495712468904
 30
0.0
 11
1624.3417013841
 21
99.9495712468904
 31
0.0
  0
LINE
  5
38F3
330
38F0
100
AcDbEntity
  8
DIM
 62
     0
370
    -2
100
AcDbLine
 10
1562.908516749513
 20
499.8987513733242
 30
0.0
 11
1624.3417013841
 21
499.8987513733242
 31
0.0
  0
LINE
  5
38F4
330
38F0
100
AcDbEntity
  8
DIM
 62
     0
370
    -2
100
AcDbLine
 10
1624.3417013841
 20
109.9495712468904
 30
0.0
 11
1624.3417013841
 21
489.8987513733242
 31
0.0
  0
INSERT
  5
38F5
330
38F0
100
AcDbEntity
  8
DIM
 62
     0
370
    -2
100
AcDbBlockReference
  2
_DOT
 10
1624.3417013841
 20
99.9495712468904
 30
0.0
 41
10.0
 42
10.0
 43
10.0
 50
270.0
  0
INSERT
  5
38F6
330
38F0
100
AcDbEntity
  8
DIM
 62
     0
370
    -2
100
AcDbBlockReference
  2
_DOT
 10
1624.3417013841
 20
499.8987513733242
 30
0.0
 41
10.0
 42
10.0
 43
10.0
 50
90.0
  0
MTEXT
  5
38F7
330
38F0
100
AcDbEntity
  8
DIM
 62
     0
100
AcDbMText
 10
1592.3417013841
 20
299.9241613101073
 30
0.0
 40
24.0
 41
0.0
 46
0.0
 71
     5
 72
     1
  1
\A1;400
  7
ＭＳ ゴシック
 11
0.0
 21
1.0
 31
0.0
 73
     1
 44
1.0
  0
POINT
  5
38F8
330
38F0
100
AcDbEntity
  8
Defpoints
 62
     0
100
AcDbPoint
 10
1482.613182869854
 20
99.9495712468904
 30
0.0
  0
POINT
  5
38F9
330
38F0
100
AcDbEntity
  8
Defpoints
 62
     0
100
AcDbPoint
 10
1532.908516749513
 20
499.8987513733242
 30
0.0
  0
POINT
  5
38FA
330
38F0
100
AcDbEntity
  8
Defpoints
 62
     0
100
AcDbPoint
 10
1624.3417013841
 20
499.8987513733242
 30
0.0
  0
ENDBLK
  5
38FB
330
38F0
100
AcDbEntity
  8
0
100
AcDbBlockEnd
  0
BLOCK
  5
39B1
330
39B0
100
AcDbEntity
  8
0
100
AcDbBlockBegin
  2
*D21
 70
     1
 10
0.0
 20
0.0
 30
0.0
  3
*D21
  1

  0
LINE
  5
39B3
330
39B0
100
AcDbEntity
  8
DIM
 62
     0
370
    -2
100
AcDbLine
 10
1589.148403064188
 20
1967.286410207302
 30
0.0
 11
1589.148403064188
 21
1903.102160042105
 31
0.0
  0
LINE
  5
39B4
330
39B0
100
AcDbEntity
  8
DIM
 62
     0
370
    -2
100
AcDbLine
 10
1709.152805392073
 20
1970.952694423745
 30
0.0
 11
1709.152805392073
 21
1903.102160042105
 31
0.0
  0
LINE
  5
39B5
330
39B0
100
AcDbEntity
  8
DIM
 62
     0
370
    -2
100
AcDbLine
 10
1599.148403064188
 20
1903.102160042105
 30
0.0
 11
1699.152805392073
 21
1903.102160042105
 31
0.0
  0
INSERT
  5
39B6
330
39B0
100
AcDbEntity
  8
DIM
 62
     0
370
    -2
100
AcDbBlockReference
  2
_DOT
 10
1589.148403064188
 20
1903.102160042105
 30
0.0
 41
10.0
 42
10.0
 43
10.0
 50
180.0
  0
INSERT
  5
39B7
330
39B0
100
AcDbEntity
  8
DIM
 62
     0
370
    -2
100
AcDbBlockReference
  2
_DOT
 10
1709.152805392073
 20
1903.102160042105
 30
0.0
 41
10.0
 42
10.0
 43
10.0
  0
MTEXT
  5
39B8
330
39B0
100
AcDbEntity
  8
DIM
 62
     0
100
AcDbMText
 10
1649.15060422813
 20
1935.106661730239
 30
0.0
 40
24.0
 41
0.0
 46
0.0
 71
     5
 72
     1
  1
\A1;120
  7
ＭＳ ゴシック
 73
     1
 44
1.0
  0
POINT
  5
39B9
330
39B0
100
AcDbEntity
  8
Defpoints
 62
     0
100
AcDbPoint
 10
1589.148403064188
 20
1997.286410207302
 30
0.0
  0
POINT
  5
39BA
330
39B0
100
AcDbEntity
  8
Defpoints
 62
     0
100
AcDbPoint
 10
1709.152805392073
 20
2000.952694423745
 30
0.0
  0
POINT
  5
39BB
330
39B0
100
AcDbEntity
  8
Defpoints
 62
     0
100
AcDbPoint
 10
1709.152805392073
 20
1903.102160042105
 30
0.0
  0
ENDBLK
  5
39B2
330
39B0
100
AcDbEntity
  8
0
100
AcDbBlockEnd
  0
BLOCK
  5
39BD
330
39BC
100
AcDbEntity
  8
0
100
AcDbBlockBegin
  2
*D22
 70
     1
 10
0.0
 20
0.0
 30
0.0
  3
*D22
  1

  0
LINE
  5
39BF
330
39BC
100
AcDbEntity
  8
DIM
 62
     0
370
    -2
100
AcDbLine
 10
1562.695806475648
 20
2461.954378977073
 30
0.0
 11
1506.498263939888
 21
2461.954378977073
 31
0.0
  0
LINE
  5
39C0
330
39BC
100
AcDbEntity
  8
DIM
 62
     0
370
    -2
100
AcDbLine
 10
1562.695806475648
 20
2396.931580820335
 30
0.0
 11
1506.498263939888
 21
2396.931580820335
 31
0.0
  0
LINE
  5
39C1
330
39BC
100
AcDbEntity
  8
DIM
 62
     0
370
    -2
100
AcDbLine
 10
1506.498263939888
 20
2451.954378977073
 30
0.0
 11
1506.498263939888
 21
2406.931580820335
 31
0.0
  0
INSERT
  5
39C2
330
39BC
100
AcDbEntity
  8
DIM
 62
     0
370
    -2
100
AcDbBlockReference
  2
_DOT
 10
1506.498263939888
 20
2461.954378977073
 30
0.0
 41
10.0
 42
10.0
 43
10.0
 50
90.0
  0
INSERT
  5
39C3
330
39BC
100
AcDbEntity
  8
DIM
 62
     0
370
    -2
100
AcDbBlockReference
  2
_DOT
 10
1506.498263939888
 20
2396.931580820335
 30
0.0
 41
10.0
 42
10.0
 43
10.0
 50
270.0
  0
MTEXT
  5
39C4
330
39BC
100
AcDbEntity
  8
DIM
 62
     0
100
AcDbMText
 10
1474.493762251755
 20
2429.442979898704
 30
0.0
 40
24.0
 41
0.0
 46
0.0
 71
     5
 72
     1
  1
\A1;65
  7
ＭＳ ゴシック
 11
0.0
 21
1.0
 31
0.0
 73
     1
 44
1.0
  0
POINT
  5
39C5
330
39BC
100
AcDbEntity
  8
Defpoints
 62
     0
100
AcDbPoint
 10
1592.695806475648
 20
2461.954378977073
 30
0.0
  0
POINT
  5
39C6
330
39BC
100
AcDbEntity
  8
Defpoints
 62
     0
100
AcDbPoint
 10
1592.695806475648
 20
2396.931580820335
 30
0.0
  0
POINT
  5
39C7
330
39BC
100
AcDbEntity
  8
Defpoints
 62
     0
100
AcDbPoint
 10
1506.498263939888
 20
2396.931580820335
 30
0.0
  0
ENDBLK
  5
39BE
330
39BC
100
AcDbEntity
  8
0
100
AcDbBlockEnd
  0
BLOCK
  5
39C9
330
39C8
100
AcDbEntity
  8
0
100
AcDbBlockBegin
  2
*D23
 70
     1
 10
0.0
 20
0.0
 30
0.0
  3
*D23
  1

  0
LINE
  5
39CB
330
39C8
100
AcDbEntity
  8
DIM
 62
     0
370
    -2
100
AcDbLine
 10
1589.45608410552
 20
2253.099779360763
 30
0.0
 11
1423.76957666523
 21
2253.099779360763
 31
0.0
  0
LINE
  5
39CC
330
39C8
100
AcDbEntity
  8
DIM
 62
     0
370
    -2
100
AcDbLine
 10
1684.540629235749
 20
2253.099779360763
 30
0.0
 11
1599.45608410552
 21
2253.099779360763
 31
0.0
  0
LINE
  5
39CD
330
39C8
100
AcDbEntity
  8
DIM
 62
     0
370
    -2
100
AcDbLine
 10
1599.45608410552
 20
2253.099779360763
 30
0.0
 11
1609.45608410552
 21
2253.099779360763
 31
0.0
  0
INSERT
  5
39CE
330
39C8
100
AcDbEntity
  8
DIM
 62
     0
370
    -2
100
AcDbBlockReference
  2
_DOT
 10
1694.540629235749
 20
2253.099779360763
 30
0.0
 41
10.0
 42
10.0
 43
10.0
  0
INSERT
  5
39CF
330
39C8
100
AcDbEntity
  8
DIM
 62
     0
370
    -2
100
AcDbBlockReference
  2
_DOT
 10
1589.45608410552
 20
2253.099779360763
 30
0.0
 41
10.0
 42
10.0
 43
10.0
 50
180.0
  0
MTEXT
  5
39D0
330
39C8
100
AcDbEntity
  8
DIM
 62
     0
100
AcDbMText
 10
1496.612830385375
 20
2286.803668319123
 30
0.0
 40
24.0
 41
0.0
 46
0.0
 71
     5
 72
     1
  1
\A1;深さ105
  7
ＭＳ ゴシック
 73
     1
 44
1.0
  0
POINT
  5
39D1
330
39C8
100
AcDbEntity
  8
Defpoints
 62
     0
100
AcDbPoint
 10
1694.540629235749
 20
2288.341236649032
 30
0.0
  0
POINT
  5
39D2
330
39C8
100
AcDbEntity
  8
Defpoints
 62
     0
100
AcDbPoint
 10
1589.45608410552
 20
2258.465031323096
 30
0.0
  0
POINT
  5
39D3
330
39C8
100
AcDbEntity
  8
Defpoints
 62
     0
100
AcDbPoint
 10
1589.45608410552
 20
2253.099779360763
 30
0.0
  0
ENDBLK
  5
39CA
330
39C8
100
AcDbEntity
  8
0
100
AcDbBlockEnd
  0
BLOCK
  5
39D5
330
39D4
100
AcDbEntity
  8
0
100
AcDbBlockBegin
  2
*D24
 70
     1
 10
0.0
 20
0.0
 30
0.0
  3
*D24
  1

  0
LINE
  5
39D7
330
39D4
100
AcDbEntity
  8
DIM
 62
     0
370
    -2
100
AcDbLine
 10
1736.69572737125
 20
2461.820081559369
 30
0.0
 11
1855.05886931361
 21
2461.820081559369
 31
0.0
  0
LINE
  5
39D8
330
39D4
100
AcDbEntity
  8
DIM
 62
     0
370
    -2
100
AcDbLine
 10
1773.448311717038
 20
2251.776639519624
 30
0.0
 11
1855.05886931361
 21
2251.776639519624
 31
0.0
  0
LINE
  5
39D9
330
39D4
100
AcDbEntity
  8
DIM
 62
     0
370
    -2
100
AcDbLine
 10
1855.05886931361
 20
2451.820081559369
 30
0.0
 11
1855.05886931361
 21
2261.776639519624
 31
0.0
  0
INSERT
  5
39DA
330
39D4
100
AcDbEntity
  8
DIM
 62
     0
370
    -2
100
AcDbBlockReference
  2
_DOT
 10
1855.05886931361
 20
2461.820081559369
 30
0.0
 41
10.0
 42
10.0
 43
10.0
 50
90.0
  0
INSERT
  5
39DB
330
39D4
100
AcDbEntity
  8
DIM
 62
     0
370
    -2
100
AcDbBlockReference
  2
_DOT
 10
1855.05886931361
 20
2251.776639519624
 30
0.0
 41
10.0
 42
10.0
 43
10.0
 50
270.0
  0
MTEXT
  5
39DC
330
39D4
100
AcDbEntity
  8
DIM
 62
     0
100
AcDbMText
 10
1823.054367625477
 20
2356.798360539497
 30
0.0
 40
24.0
 41
0.0
 46
0.0
 71
     5
 72
     1
  1
\A1;210
  7
ＭＳ ゴシック
 11
0.0
 21
1.0
 31
0.0
 73
     1
 44
1.0
  0
POINT
  5
39DD
330
39D4
100
AcDbEntity
  8
Defpoints
 62
     0
100
AcDbPoint
 10
1706.69572737125
 20
2461.820081559369
 30
0.0
  0
POINT
  5
39DE
330
39D4
100
AcDbEntity
  8
Defpoints
 62
     0
100
AcDbPoint
 10
1743.448311717038
 20
2251.776639519624
 30
0.0
  0
POINT
  5
39DF
330
39D4
100
AcDbEntity
  8
Defpoints
 62
     0
100
AcDbPoint
 10
1855.05886931361
 20
2251.776639519624
 30
0.0
  0
ENDBLK
  5
39D6
330
39D4
100
AcDbEntity
  8
0
100
AcDbBlockEnd
  0
BLOCK
  5
39E1
330
39E0
100
AcDbEntity
  8
0
100
AcDbBlockBegin
  2
*D25
 70
     1
 10
0.0
 20
0.0
 30
0.0
  3
*D25
  1

  0
LINE
  5
39E3
330
39E0
100
AcDbEntity
  8
DIM
 62
     0
370
    -2
100
AcDbLine
 10
763.6370270365828
 20
2390.495830969416
 30
0.0
 11
902.0992370748033
 21
2390.495830969416
 31
0.0
  0
LINE
  5
39E4
330
39E0
100
AcDbEntity
  8
DIM
 62
     0
370
    -2
100
AcDbLine
 10
763.6370270365846
 20
2060.495830969416
 30
0.0
 11
902.0992370748033
 21
2060.495830969416
 31
0.0
  0
LINE
  5
39E5
330
39E0
100
AcDbEntity
  8
DIM
 62
     0
370
    -2
100
AcDbLine
 10
902.0992370748033
 20
2380.495830969416
 30
0.0
 11
902.0992370748033
 21
2070.495830969416
 31
0.0
  0
INSERT
  5
39E6
330
39E0
100
AcDbEntity
  8
DIM
 62
     0
370
    -2
100
AcDbBlockReference
  2
_DOT
 10
902.0992370748033
 20
2390.495830969416
 30
0.0
 41
10.0
 42
10.0
 43
10.0
 50
90.0
  0
INSERT
  5
39E7
330
39E0
100
AcDbEntity
  8
DIM
 62
     0
370
    -2
100
AcDbBlockReference
  2
_DOT
 10
902.0992370748033
 20
2060.495830969416
 30
0.0
 41
10.0
 42
10.0
 43
10.0
 50
270.0
  0
MTEXT
  5
39E8
330
39E0
100
AcDbEntity
  8
DIM
 62
     0
100
AcDbMText
 10
870.0947353866702
 20
2225.495830969416
 30
0.0
 40
24.0
 41
0.0
 46
0.0
 71
     5
 72
     1
  1
\A1;330
  7
ＭＳ ゴシック
 11
0.0
 21
1.0
 31
0.0
 73
     1
 44
1.0
  0
POINT
  5
39E9
330
39E0
100
AcDbEntity
  8
Defpoints
 62
     0
100
AcDbPoint
 10
733.6370270365828
 20
2390.495830969416
 30
0.0
  0
POINT
  5
39EA
330
39E0
100
AcDbEntity
  8
Defpoints
 62
     0
100
AcDbPoint
 10
733.6370270365846
 20
2060.495830969416
 30
0.0
  0
POINT
  5
39EB
330
39E0
100
AcDbEntity
  8
Defpoints
 62
     0
100
AcDbPoint
 10
902.0992370748033
 20
2060.495830969416
 30
0.0
  0
ENDBLK
  5
39E2
330
39E0
100
AcDbEntity
  8
0
100
AcDbBlockEnd
  0
BLOCK
  5
39ED
330
39EC
100
AcDbEntity
  8
0
100
AcDbBlockBegin
  2
*D26
 70
     1
 10
0.0
 20
0.0
 30
0.0
  3
*D26
  1

  0
LINE
  5
39EF
330
39EC
100
AcDbEntity
  8
DIM
 62
     0
370
    -2
100
AcDbLine
 10
434.3416684743388
 20
2381.590203529131
 30
0.0
 11
434.3416684743388
 21
2476.031654261736
 31
0.0
  0
LINE
  5
39F0
330
39EC
100
AcDbEntity
  8
DIM
 62
     0
370
    -2
100
AcDbLine
 10
733.6370270365828
 20
2421.590203529115
 30
0.0
 11
733.6370270365828
 21
2476.031654261736
 31
0.0
  0
LINE
  5
39F1
330
39EC
100
AcDbEntity
  8
DIM
 62
     0
370
    -2
100
AcDbLine
 10
444.3416684743388
 20
2476.031654261736
 30
0.0
 11
723.6370270365828
 21
2476.031654261736
 31
0.0
  0
INSERT
  5
39F2
330
39EC
100
AcDbEntity
  8
DIM
 62
     0
370
    -2
100
AcDbBlockReference
  2
_DOT
 10
434.3416684743388
 20
2476.031654261736
 30
0.0
 41
10.0
 42
10.0
 43
10.0
 50
180.0
  0
INSERT
  5
39F3
330
39EC
100
AcDbEntity
  8
DIM
 62
     0
370
    -2
100
AcDbBlockReference
  2
_DOT
 10
733.6370270365828
 20
2476.031654261736
 30
0.0
 41
10.0
 42
10.0
 43
10.0
  0
MTEXT
  5
39F4
330
39EC
100
AcDbEntity
  8
DIM
 62
     0
100
AcDbMText
 10
583.9893477554608
 20
2508.036155949869
 30
0.0
 40
24.0
 41
0.0
 46
0.0
 71
     5
 72
     1
  1
\A1;300
  7
ＭＳ ゴシック
 73
     1
 44
1.0
  0
POINT
  5
39F5
330
39EC
100
AcDbEntity
  8
Defpoints
 62
     0
100
AcDbPoint
 10
434.3416684743388
 20
2351.590203529131
 30
0.0
  0
POINT
  5
39F6
330
39EC
100
AcDbEntity
  8
Defpoints
 62
     0
100
AcDbPoint
 10
733.6370270365828
 20
2391.590203529115
 30
0.0
  0
POINT
  5
39F7
330
39EC
100
AcDbEntity
  8
Defpoints
 62
     0
100
AcDbPoint
 10
733.6370270365828
 20
2476.031654261736
 30
0.0
  0
ENDBLK
  5
39EE
330
39EC
100
AcDbEntity
  8
0
100
AcDbBlockEnd
  0
BLOCK
  5
39F9
330
39F8
100
AcDbEntity
  8
0
100
AcDbBlockBegin
  2
*D27
 70
     1
 10
0.0
 20
0.0
 30
0.0
  3
*D27
  1

  0
LINE
  5
39FB
330
39F8
100
AcDbEntity
  8
DIM
 62
     0
370
    -2
100
AcDbLine
 10
1604.470786995696
 20
1187.126887562634
 30
0.0
 11
1504.056613938798
 21
1187.126887562634
 31
0.0
  0
LINE
  5
39FC
330
39F8
100
AcDbEntity
  8
DIM
 62
     0
370
    -2
100
AcDbLine
 10
1604.501866926652
 20
906.9030427424565
 30
0.0
 11
1504.056613938798
 21
906.9030427424565
 31
0.0
  0
LINE
  5
39FD
330
39F8
100
AcDbEntity
  8
DIM
 62
     0
370
    -2
100
AcDbLine
 10
1504.056613938798
 20
1177.126887562634
 30
0.0
 11
1504.056613938798
 21
916.9030427424565
 31
0.0
  0
INSERT
  5
39FE
330
39F8
100
AcDbEntity
  8
DIM
 62
     0
370
    -2
100
AcDbBlockReference
  2
_DOT
 10
1504.056613938798
 20
1187.126887562634
 30
0.0
 41
10.0
 42
10.0
 43
10.0
 50
90.0
  0
INSERT
  5
39FF
330
39F8
100
AcDbEntity
  8
DIM
 62
     0
370
    -2
100
AcDbBlockReference
  2
_DOT
 10
1504.056613938798
 20
906.9030427424565
 30
0.0
 41
10.0
 42
10.0
 43
10.0
 50
270.0
  0
MTEXT
  5
3A00
330
39F8
100
AcDbEntity
  8
DIM
 62
     0
100
AcDbMText
 10
1472.052112250665
 20
1047.014965152545
 30
0.0
 40
24.0
 41
0.0
 46
0.0
 71
     5
 72
     1
  1
\A1;280
  7
ＭＳ ゴシック
 11
0.0
 21
1.0
 31
0.0
 73
     1
 44
1.0
  0
POINT
  5
3A01
330
39F8
100
AcDbEntity
  8
Defpoints
 62
     0
100
AcDbPoint
 10
1634.470786995696
 20
1187.126887562634
 30
0.0
  0
POINT
  5
3A02
330
39F8
100
AcDbEntity
  8
Defpoints
 62
     0
100
AcDbPoint
 10
1634.501866926652
 20
906.9030427424565
 30
0.0
  0
POINT
  5
3A03
330
39F8
100
AcDbEntity
  8
Defpoints
 62
     0
100
AcDbPoint
 10
1504.056613938798
 20
906.9030427424565
 30
0.0
  0
ENDBLK
  5
39FA
330
39F8
100
AcDbEntity
  8
0
100
AcDbBlockEnd
  0
BLOCK
  5
3A05
330
3A04
100
AcDbEntity
  8
0
100
AcDbBlockBegin
  2
*D28
 70
     1
 10
0.0
 20
0.0
 30
0.0
  3
*D28
  1

  0
LINE
  5
3A07
330
3A04
100
AcDbEntity
  8
DIM
 62
     0
370
    -2
100
AcDbLine
 10
1589.606816225243
 20
1375.086567203156
 30
0.0
 11
1589.606816225243
 21
1470.660181466608
 31
0.0
  0
LINE
  5
3A08
330
3A04
100
AcDbEntity
  8
DIM
 62
     0
370
    -2
100
AcDbLine
 10
1743.470786995695
 20
1112.731606579819
 30
0.0
 11
1743.470786995695
 21
1470.660181466608
 31
0.0
  0
LINE
  5
3A09
330
3A04
100
AcDbEntity
  8
DIM
 62
     0
370
    -2
100
AcDbLine
 10
1599.606816225243
 20
1470.660181466608
 30
0.0
 11
1733.470786995695
 21
1470.660181466608
 31
0.0
  0
INSERT
  5
3A0A
330
3A04
100
AcDbEntity
  8
DIM
 62
     0
370
    -2
100
AcDbBlockReference
  2
_DOT
 10
1589.606816225243
 20
1470.660181466608
 30
0.0
 41
10.0
 42
10.0
 43
10.0
 50
180.0
  0
INSERT
  5
3A0B
330
3A04
100
AcDbEntity
  8
DIM
 62
     0
370
    -2
100
AcDbBlockReference
  2
_DOT
 10
1743.470786995695
 20
1470.660181466608
 30
0.0
 41
10.0
 42
10.0
 43
10.0
  0
MTEXT
  5
3A0C
330
3A04
100
AcDbEntity
  8
DIM
 62
     0
100
AcDbMText
 10
1666.538801610469
 20
1502.664683154741
 30
0.0
 40
24.0
 41
0.0
 46
0.0
 71
     5
 72
     1
  1
\A1;154
  7
ＭＳ ゴシック
 73
     1
 44
1.0
  0
POINT
  5
3A0D
330
3A04
100
AcDbEntity
  8
Defpoints
 62
     0
100
AcDbPoint
 10
1589.606816225243
 20
1345.086567203156
 30
0.0
  0
POINT
  5
3A0E
330
3A04
100
AcDbEntity
  8
Defpoints
 62
     0
100
AcDbPoint
 10
1743.470786995695
 20
1082.731606579819
 30
0.0
  0
POINT
  5
3A0F
330
3A04
100
AcDbEntity
  8
Defpoints
 62
     0
100
AcDbPoint
 10
1743.470786995695
 20
1470.660181466608
 30
0.0
  0
ENDBLK
  5
3A06
330
3A04
100
AcDbEntity
  8
0
100
AcDbBlockEnd
  0
BLOCK
  5
3A11
330
3A10
100
AcDbEntity
  8
0
100
AcDbBlockBegin
  2
*D29
 70
     1
 10
0.0
 20
0.0
 30
0.0
  3
*D29
  1

  0
LINE
  5
3A13
330
3A10
100
AcDbEntity
  8
DIM
 62
     0
370
    -2
100
AcDbLine
 10
434.3416684743361
 20
1374.178164350739
 30
0.0
 11
434.3416684743361
 21
1470.660181466608
 31
0.0
  0
LINE
  5
3A14
330
3A10
100
AcDbEntity
  8
DIM
 62
     0
370
    -2
100
AcDbLine
 10
904.2078275901231
 20
1373.177707436199
 30
0.0
 11
904.2078275901231
 21
1470.660181466608
 31
0.0
  0
LINE
  5
3A15
330
3A10
100
AcDbEntity
  8
DIM
 62
     0
370
    -2
100
AcDbLine
 10
444.3416684743361
 20
1470.660181466608
 30
0.0
 11
894.2078275901231
 21
1470.660181466608
 31
0.0
  0
INSERT
  5
3A16
330
3A10
100
AcDbEntity
  8
DIM
 62
     0
370
    -2
100
AcDbBlockReference
  2
_DOT
 10
434.3416684743361
 20
1470.660181466608
 30
0.0
 41
10.0
 42
10.0
 43
10.0
 50
180.0
  0
INSERT
  5
3A17
330
3A10
100
AcDbEntity
  8
DIM
 62
     0
370
    -2
100
AcDbBlockReference
  2
_DOT
 10
904.2078275901231
 20
1470.660181466608
 30
0.0
 41
10.0
 42
10.0
 43
10.0
  0
MTEXT
  5
3A18
330
3A10
100
AcDbEntity
  8
DIM
 62
     0
100
AcDbMText
 10
670.1534276886705
 20
1502.664683154741
 30
0.0
 40
24.0
 41
0.0
 46
0.0
 71
     5
 72
     1
  1
\A1;470
  7
ＭＳ ゴシック
 73
     1
 44
1.0
  0
POINT
  5
3A19
330
3A10
100
AcDbEntity
  8
Defpoints
 62
     0
100
AcDbPoint
 10
434.3416684743361
 20
1344.178164350739
 30
0.0
  0
POINT
  5
3A1A
330
3A10
100
AcDbEntity
  8
Defpoints
 62
     0
100
AcDbPoint
 10
904.2078275901231
 20
1343.177707436199
 30
0.0
  0
POINT
  5
3A1B
330
3A10
100
AcDbEntity
  8
Defpoints
 62
     0
100
AcDbPoint
 10
904.2078275901231
 20
1470.660181466608
 30
0.0
  0
ENDBLK
  5
3A12
330
3A10
100
AcDbEntity
  8
0
100
AcDbBlockEnd
  0
BLOCK
  5
3A1D
330
3A1C
100
AcDbEntity
  8
0
100
AcDbBlockBegin
  2
*D30
 70
     1
 10
0.0
 20
0.0
 30
0.0
  3
*D30
  1

  0
LINE
  5
3A1F
330
3A1C
100
AcDbEntity
  8
DIM
 62
     0
370
    -2
100
AcDbLine
 10
559.3566294024583
 20
717.1777074361994
 30
0.0
 11
559.3566294024583
 21
649.3053343209657
 31
0.0
  0
LINE
  5
3A20
330
3A1C
100
AcDbEntity
  8
DIM
 62
     0
370
    -2
100
AcDbLine
 10
899.6351142351084
 20
717.1777074362004
 30
0.0
 11
899.6351142351084
 21
649.3053343209657
 31
0.0
  0
LINE
  5
3A21
330
3A1C
100
AcDbEntity
  8
DIM
 62
     0
370
    -2
100
AcDbLine
 10
569.3566294024583
 20
649.3053343209657
 30
0.0
 11
889.6351142351084
 21
649.3053343209657
 31
0.0
  0
INSERT
  5
3A22
330
3A1C
100
AcDbEntity
  8
DIM
 62
     0
370
    -2
100
AcDbBlockReference
  2
_DOT
 10
559.3566294024583
 20
649.3053343209657
 30
0.0
 41
10.0
 42
10.0
 43
10.0
 50
180.0
  0
INSERT
  5
3A23
330
3A1C
100
AcDbEntity
  8
DIM
 62
     0
370
    -2
100
AcDbBlockReference
  2
_DOT
 10
899.6351142351084
 20
649.3053343209657
 30
0.0
 41
10.0
 42
10.0
 43
10.0
  0
MTEXT
  5
3A24
330
3A1C
100
AcDbEntity
  8
DIM
 62
     0
100
AcDbMText
 10
729.4958718187834
 20
681.3098360090987
 30
0.0
 40
24.0
 41
0.0
 46
0.0
 71
     5
 72
     1
  1
\A1;340
  7
ＭＳ ゴシック
 73
     1
 44
1.0
  0
POINT
  5
3A25
330
3A1C
100
AcDbEntity
  8
Defpoints
 62
     0
100
AcDbPoint
 10
559.3566294024583
 20
747.1777074361994
 30
0.0
  0
POINT
  5
3A26
330
3A1C
100
AcDbEntity
  8
Defpoints
 62
     0
100
AcDbPoint
 10
899.6351142351084
 20
747.1777074362004
 30
0.0
  0
POINT
  5
3A27
330
3A1C
100
AcDbEntity
  8
Defpoints
 62
     0
100
AcDbPoint
 10
899.6351142351084
 20
649.3053343209657
 30
0.0
  0
ENDBLK
  5
3A1E
330
3A1C
100
AcDbEntity
  8
0
100
AcDbBlockEnd
  0
BLOCK
  5
3A29
330
3A28
100
AcDbEntity
  8
0
100
AcDbBlockBegin
  2
*D31
 70
     1
 10
0.0
 20
0.0
 30
0.0
  3
*D31
  1

  0
LINE
  5
3A2B
330
3A28
100
AcDbEntity
  8
DIM
 62
     0
370
    -2
100
AcDbLine
 10
559.3566294024583
 20
717.1777074361994
 30
0.0
 11
559.3566294024583
 21
649.3053343209657
 31
0.0
  0
LINE
  5
3A2C
330
3A28
100
AcDbEntity
  8
DIM
 62
     0
370
    -2
100
AcDbLine
 10
434.3416684743358
 20
717.2544486533172
 30
0.0
 11
434.3416684743358
 21
649.3053343209657
 31
0.0
  0
LINE
  5
3A2D
330
3A28
100
AcDbEntity
  8
DIM
 62
     0
370
    -2
100
AcDbLine
 10
549.3566294024583
 20
649.3053343209657
 30
0.0
 11
444.3416684743358
 21
649.3053343209657
 31
0.0
  0
INSERT
  5
3A2E
330
3A28
100
AcDbEntity
  8
DIM
 62
     0
370
    -2
100
AcDbBlockReference
  2
_DOT
 10
559.3566294024583
 20
649.3053343209657
 30
0.0
 41
10.0
 42
10.0
 43
10.0
  0
INSERT
  5
3A2F
330
3A28
100
AcDbEntity
  8
DIM
 62
     0
370
    -2
100
AcDbBlockReference
  2
_DOT
 10
434.3416684743358
 20
649.3053343209657
 30
0.0
 41
10.0
 42
10.0
 43
10.0
 50
180.0
  0
MTEXT
  5
3A30
330
3A28
100
AcDbEntity
  8
DIM
 62
     0
100
AcDbMText
 10
496.8491489383971
 20
681.3098360090987
 30
0.0
 40
24.0
 41
0.0
 46
0.0
 71
     5
 72
     1
  1
\A1;125
  7
ＭＳ ゴシック
 73
     1
 44
1.0
  0
POINT
  5
3A31
330
3A28
100
AcDbEntity
  8
Defpoints
 62
     0
100
AcDbPoint
 10
559.3566294024583
 20
747.1777074361994
 30
0.0
  0
POINT
  5
3A32
330
3A28
100
AcDbEntity
  8
Defpoints
 62
     0
100
AcDbPoint
 10
434.3416684743358
 20
747.2544486533172
 30
0.0
  0
POINT
  5
3A33
330
3A28
100
AcDbEntity
  8
Defpoints
 62
     0
100
AcDbPoint
 10
434.3416684743358
 20
649.3053343209657
 30
0.0
  0
ENDBLK
  5
3A2A
330
3A28
100
AcDbEntity
  8
0
100
AcDbBlockEnd
  0
BLOCK
  5
3A35
330
3A34
100
AcDbEntity
  8
0
100
AcDbBlockBegin
  2
*D32
 70
     1
 10
0.0
 20
0.0
 30
0.0
  3
*D32
  1

  0
LINE
  5
3A37
330
3A34
100
AcDbEntity
  8
DIM
 62
     0
370
    -2
100
AcDbLine
 10
471.343228559864
 20
947.1777074361995
 30
0.0
 11
350.0793766859738
 21
947.1777074361995
 31
0.0
  0
LINE
  5
3A38
330
3A34
100
AcDbEntity
  8
DIM
 62
     0
370
    -2
100
AcDbLine
 10
471.343228559864
 20
1047.1777074362
 30
0.0
 11
350.0793766859738
 21
1047.1777074362
 31
0.0
  0
LINE
  5
3A39
330
3A34
100
AcDbEntity
  8
DIM
 62
     0
370
    -2
100
AcDbLine
 10
350.0793766859738
 20
957.1777074361995
 30
0.0
 11
350.0793766859738
 21
1037.1777074362
 31
0.0
  0
INSERT
  5
3A3A
330
3A34
100
AcDbEntity
  8
DIM
 62
     0
370
    -2
100
AcDbBlockReference
  2
_DOT
 10
350.0793766859738
 20
947.1777074361995
 30
0.0
 41
10.0
 42
10.0
 43
10.0
 50
270.0
  0
INSERT
  5
3A3B
330
3A34
100
AcDbEntity
  8
DIM
 62
     0
370
    -2
100
AcDbBlockReference
  2
_DOT
 10
350.0793766859738
 20
1047.1777074362
 30
0.0
 41
10.0
 42
10.0
 43
10.0
 50
90.0
  0
MTEXT
  5
3A3C
330
3A34
100
AcDbEntity
  8
DIM
 62
     0
100
AcDbMText
 10
318.0748749978408
 20
997.1777074361996
 30
0.0
 40
24.0
 41
0.0
 46
0.0
 71
     5
 72
     1
  1
\A1;100
  7
ＭＳ ゴシック
 11
0.0
 21
1.0
 31
0.0
 73
     1
 44
1.0
  0
POINT
  5
3A3D
330
3A34
100
AcDbEntity
  8
Defpoints
 62
     0
100
AcDbPoint
 10
501.343228559864
 20
947.1777074361995
 30
0.0
  0
POINT
  5
3A3E
330
3A34
100
AcDbEntity
  8
Defpoints
 62
     0
100
AcDbPoint
 10
501.343228559864
 20
1047.1777074362
 30
0.0
  0
POINT
  5
3A3F
330
3A34
100
AcDbEntity
  8
Defpoints
 62
     0
100
AcDbPoint
 10
350.0793766859738
 20
1047.1777074362
 30
0.0
  0
ENDBLK
  5
3A36
330
3A34
100
AcDbEntity
  8
0
100
AcDbBlockEnd
  0
BLOCK
  5
3A41
330
3A40
100
AcDbEntity
  8
0
100
AcDbBlockBegin
  2
*D33
 70
     1
 10
0.0
 20
0.0
 30
0.0
  3
*D33
  1

  0
LINE
  5
3A43
330
3A40
100
AcDbEntity
  8
DIM
 62
     0
370
    -2
100
AcDbLine
 10
471.343228559864
 20
1047.1777074362
 30
0.0
 11
350.0793766859738
 21
1047.1777074362
 31
0.0
  0
LINE
  5
3A44
330
3A40
100
AcDbEntity
  8
DIM
 62
     0
370
    -2
100
AcDbLine
 10
471.343228559864
 20
1147.1777074362
 30
0.0
 11
350.0793766859738
 21
1147.1777074362
 31
0.0
  0
LINE
  5
3A45
330
3A40
100
AcDbEntity
  8
DIM
 62
     0
370
    -2
100
AcDbLine
 10
350.0793766859738
 20
1057.1777074362
 30
0.0
 11
350.0793766859738
 21
1137.1777074362
 31
0.0
  0
INSERT
  5
3A46
330
3A40
100
AcDbEntity
  8
DIM
 62
     0
370
    -2
100
AcDbBlockReference
  2
_DOT
 10
350.0793766859738
 20
1047.1777074362
 30
0.0
 41
10.0
 42
10.0
 43
10.0
 50
270.0
  0
INSERT
  5
3A47
330
3A40
100
AcDbEntity
  8
DIM
 62
     0
370
    -2
100
AcDbBlockReference
  2
_DOT
 10
350.0793766859738
 20
1147.1777074362
 30
0.0
 41
10.0
 42
10.0
 43
10.0
 50
90.0
  0
MTEXT
  5
3A48
330
3A40
100
AcDbEntity
  8
DIM
 62
     0
100
AcDbMText
 10
318.0748749978407
 20
1097.1777074362
 30
0.0
 40
24.0
 41
0.0
 46
0.0
 71
     5
 72
     1
  1
\A1;100
  7
ＭＳ ゴシック
 11
0.0
 21
1.0
 31
0.0
 73
     1
 44
1.0
  0
POINT
  5
3A49
330
3A40
100
AcDbEntity
  8
Defpoints
 62
     0
100
AcDbPoint
 10
501.343228559864
 20
1047.1777074362
 30
0.0
  0
POINT
  5
3A4A
330
3A40
100
AcDbEntity
  8
Defpoints
 62
     0
100
AcDbPoint
 10
501.343228559864
 20
1147.1777074362
 30
0.0
  0
POINT
  5
3A4B
330
3A40
100
AcDbEntity
  8
Defpoints
 62
     0
100
AcDbPoint
 10
350.0793766859738
 20
1147.1777074362
 30
0.0
  0
ENDBLK
  5
3A42
330
3A40
100
AcDbEntity
  8
0
100
AcDbBlockEnd
  0
BLOCK
  5
3A4D
330
3A4C
100
AcDbEntity
  8
0
100
AcDbBlockBegin
  2
*D34
 70
     1
 10
0.0
 20
0.0
 30
0.0
  3
*D34
  1

  0
LINE
  5
3A4F
330
3A4C
100
AcDbEntity
  8
DIM
 62
     0
370
    -2
100
AcDbLine
 10
407.3416684743361
 20
747.1777074361913
 30
0.0
 11
254.5622702461814
 21
747.1777074361913
 31
0.0
  0
LINE
  5
3A50
330
3A4C
100
AcDbEntity
  8
DIM
 62
     0
370
    -2
100
AcDbLine
 10
407.3416684743361
 20
1347.177707436208
 30
0.0
 11
254.5622702461815
 21
1347.177707436208
 31
0.0
  0
LINE
  5
3A51
330
3A4C
100
AcDbEntity
  8
DIM
 62
     0
370
    -2
100
AcDbLine
 10
254.5622702461814
 20
757.1777074361913
 30
0.0
 11
254.5622702461815
 21
1337.177707436208
 31
0.0
  0
INSERT
  5
3A52
330
3A4C
100
AcDbEntity
  8
DIM
 62
     0
370
    -2
100
AcDbBlockReference
  2
_DOT
 10
254.5622702461814
 20
747.1777074361913
 30
0.0
 41
10.0
 42
10.0
 43
10.0
 50
270.0
  0
INSERT
  5
3A53
330
3A4C
100
AcDbEntity
  8
DIM
 62
     0
370
    -2
100
AcDbBlockReference
  2
_DOT
 10
254.5622702461815
 20
1347.177707436208
 30
0.0
 41
10.0
 42
10.0
 43
10.0
 50
90.0
  0
MTEXT
  5
3A54
330
3A4C
100
AcDbEntity
  8
DIM
 62
     0
100
AcDbMText
 10
222.5622702461815
 20
1047.1777074362
 30
0.0
 40
24.0
 41
0.0
 46
0.0
 71
     5
 72
     1
  1
\A1;600
  7
ＭＳ ゴシック
 11
4.736951571733871E-17
 21
1.0
 31
0.0
 73
     1
 44
1.0
  0
POINT
  5
3A55
330
3A4C
100
AcDbEntity
  8
Defpoints
 62
     0
100
AcDbPoint
 10
437.3416684743361
 20
747.1777074361913
 30
0.0
  0
POINT
  5
3A56
330
3A4C
100
AcDbEntity
  8
Defpoints
 62
     0
100
AcDbPoint
 10
437.3416684743361
 20
1347.177707436208
 30
0.0
  0
POINT
  5
3A57
330
3A4C
100
AcDbEntity
  8
Defpoints
 62
     0
100
AcDbPoint
 10
254.5622702461815
 20
1347.177707436208
 30
0.0
  0
ENDBLK
  5
3A4E
330
3A4C
100
AcDbEntity
  8
0
100
AcDbBlockEnd
  0
BLOCK
  5
3A59
330
3A58
100
AcDbEntity
  8
0
100
AcDbBlockBegin
  2
*D35
 70
     1
 10
0.0
 20
0.0
 30
0.0
  3
*D35
  1

  0
LINE
  5
3A5B
330
3A58
100
AcDbEntity
  8
DIM
 62
     0
370
    -2
100
AcDbLine
 10
1718.405124292218
 20
747.1777074362
 30
0.0
 11
1834.903971630282
 21
747.1777074362
 31
0.0
  0
LINE
  5
3A5C
330
3A58
100
AcDbEntity
  8
DIM
 62
     0
370
    -2
100
AcDbLine
 10
1773.470786995695
 20
1047.126887562634
 30
0.0
 11
1834.903971630282
 21
1047.126887562634
 31
0.0
  0
LINE
  5
3A5D
330
3A58
100
AcDbEntity
  8
DIM
 62
     0
370
    -2
100
AcDbLine
 10
1834.903971630282
 20
757.1777074362
 30
0.0
 11
1834.903971630282
 21
1037.126887562634
 31
0.0
  0
INSERT
  5
3A5E
330
3A58
100
AcDbEntity
  8
DIM
 62
     0
370
    -2
100
AcDbBlockReference
  2
_DOT
 10
1834.903971630282
 20
747.1777074362
 30
0.0
 41
10.0
 42
10.0
 43
10.0
 50
270.0
  0
INSERT
  5
3A5F
330
3A58
100
AcDbEntity
  8
DIM
 62
     0
370
    -2
100
AcDbBlockReference
  2
_DOT
 10
1834.903971630282
 20
1047.126887562634
 30
0.0
 41
10.0
 42
10.0
 43
10.0
 50
90.0
  0
MTEXT
  5
3A60
330
3A58
100
AcDbEntity
  8
DIM
 62
     0
100
AcDbMText
 10
1802.899469942149
 20
897.152297499417
 30
0.0
 40
24.0
 41
0.0
 46
0.0
 71
     5
 72
     1
  1
\A1;300
  7
ＭＳ ゴシック
 11
0.0
 21
1.0
 31
0.0
 73
     1
 44
1.0
  0
POINT
  5
3A61
330
3A58
100
AcDbEntity
  8
Defpoints
 62
     0
100
AcDbPoint
 10
1688.405124292218
 20
747.1777074362
 30
0.0
  0
POINT
  5
3A62
330
3A58
100
AcDbEntity
  8
Defpoints
 62
     0
100
AcDbPoint
 10
1743.470786995695
 20
1047.126887562634
 30
0.0
  0
POINT
  5
3A63
330
3A58
100
AcDbEntity
  8
Defpoints
 62
     0
100
AcDbPoint
 10
1834.903971630282
 20
1047.126887562634
 30
0.0
  0
ENDBLK
  5
3A5A
330
3A58
100
AcDbEntity
  8
0
100
AcDbBlockEnd
  0
BLOCK
  5
3ABD
330
3ABC
100
AcDbEntity
  8
0
100
AcDbBlockBegin
  2
*D36
 70
     1
 10
0.0
 20
0.0
 30
0.0
  3
*D36
  1

  0
LINE
  5
3ABF
330
3ABC
100
AcDbEntity
  8
DIM
 62
     0
370
    -2
100
AcDbLine
 10
934.1086056022344
 20
750.2923087123316
 30
0.0
 11
1052.765737909557
 21
750.2923087123316
 31
0.0
  0
LINE
  5
3AC0
330
3ABC
100
AcDbEntity
  8
DIM
 62
     0
370
    -2
100
AcDbLine
 10
934.1086317779803
 20
1344.06299083037
 30
0.0
 11
1052.765737909557
 21
1344.06299083037
 31
0.0
  0
LINE
  5
3AC1
330
3ABC
100
AcDbEntity
  8
DIM
 62
     0
370
    -2
100
AcDbLine
 10
1052.765737909557
 20
760.2923087123316
 30
0.0
 11
1052.765737909557
 21
1334.06299083037
 31
0.0
  0
INSERT
  5
3AC2
330
3ABC
100
AcDbEntity
  8
DIM
 62
     0
370
    -2
100
AcDbBlockReference
  2
_DOT
 10
1052.765737909557
 20
750.2923087123316
 30
0.0
 41
10.0
 42
10.0
 43
10.0
 50
270.0
  0
INSERT
  5
3AC3
330
3ABC
100
AcDbEntity
  8
DIM
 62
     0
370
    -2
100
AcDbBlockReference
  2
_DOT
 10
1052.765737909557
 20
1344.06299083037
 30
0.0
 41
10.0
 42
10.0
 43
10.0
 50
90.0
  0
MTEXT
  5
3AC4
330
3ABC
100
AcDbEntity
  8
DIM
 62
     0
100
AcDbMText
 10
1020.761236221424
 20
1047.177649771351
 30
0.0
 40
24.0
 41
0.0
 46
0.0
 71
     5
 72
     1
  1
\A1;590
  7
ＭＳ ゴシック
 11
0.0
 21
1.0
 31
0.0
 73
     1
 44
1.0
  0
POINT
  5
3AC5
330
3ABC
100
AcDbEntity
  8
Defpoints
 62
     0
100
AcDbPoint
 10
904.1086056022344
 20
750.2923087123316
 30
0.0
  0
POINT
  5
3AC6
330
3ABC
100
AcDbEntity
  8
Defpoints
 62
     0
100
AcDbPoint
 10
904.1086317779803
 20
1344.06299083037
 30
0.0
  0
POINT
  5
3AC7
330
3ABC
100
AcDbEntity
  8
Defpoints
 62
     0
100
AcDbPoint
 10
1052.765737909557
 20
1344.06299083037
 30
0.0
  0
ENDBLK
  5
3ABE
330
3ABC
100
AcDbEntity
  8
0
100
AcDbBlockEnd
  0
BLOCK
  5
3ACA
330
3AC9
100
AcDbEntity
  8
0
100
AcDbBlockBegin
  2
*D37
 70
     1
 10
0.0
 20
0.0
 30
0.0
  3
*D37
  1

  0
LINE
  5
3ACC
330
3AC9
100
AcDbEntity
  8
DIM
 62
     0
370
    -2
100
AcDbLine
 10
1589.567803591081
 20
717.3404045066521
 30
0.0
 11
1589.567803591081
 21
651.8053343209657
 31
0.0
  0
LINE
  5
3ACD
330
3AC9
100
AcDbEntity
  8
DIM
 62
     0
370
    -2
100
AcDbLine
 10
1634.470786995696
 20
717.9099062645324
 30
0.0
 11
1634.470786995696
 21
651.8053343209657
 31
0.0
  0
LINE
  5
3ACE
330
3AC9
100
AcDbEntity
  8
DIM
 62
     0
370
    -2
100
AcDbLine
 10
1599.567803591081
 20
651.8053343209657
 30
0.0
 11
1624.470786995696
 21
651.8053343209657
 31
0.0
  0
INSERT
  5
3ACF
330
3AC9
100
AcDbEntity
  8
DIM
 62
     0
370
    -2
100
AcDbBlockReference
  2
_DOT
 10
1589.567803591081
 20
651.8053343209657
 30
0.0
 41
10.0
 42
10.0
 43
10.0
 50
180.0
  0
INSERT
  5
3AD0
330
3AC9
100
AcDbEntity
  8
DIM
 62
     0
370
    -2
100
AcDbBlockReference
  2
_DOT
 10
1634.470786995696
 20
651.8053343209657
 30
0.0
 41
10.0
 42
10.0
 43
10.0
  0
MTEXT
  5
3AD1
330
3AC9
100
AcDbEntity
  8
DIM
 62
     0
100
AcDbMText
 10
1612.019295293389
 20
683.8098360090987
 30
0.0
 40
24.0
 41
0.0
 46
0.0
 71
     5
 72
     1
  1
\A1;45
  7
ＭＳ ゴシック
 73
     1
 44
1.0
  0
POINT
  5
3AD2
330
3AC9
100
AcDbEntity
  8
Defpoints
 62
     0
100
AcDbPoint
 10
1589.567803591081
 20
747.3404045066521
 30
0.0
  0
POINT
  5
3AD3
330
3AC9
100
AcDbEntity
  8
Defpoints
 62
     0
100
AcDbPoint
 10
1634.470786995696
 20
747.9099062645324
 30
0.0
  0
POINT
  5
3AD4
330
3AC9
100
AcDbEntity
  8
Defpoints
 62
     0
100
AcDbPoint
 10
1634.470786995696
 20
651.8053343209657
 30
0.0
  0
ENDBLK
  5
3ACB
330
3AC9
100
AcDbEntity
  8
0
100
AcDbBlockEnd
  0
BLOCK
  5
3AFF
330
3AFE
100
AcDbEntity
  8
0
100
AcDbBlockBegin
  2
_None
 70
     0
 10
0.0
 20
0.0
 30
0.0
  3
_None
  1

  0
ENDBLK
  5
3B00
330
3AFE
100
AcDbEntity
  8
0
100
AcDbBlockEnd
  0
BLOCK
  5
3B1B
330
3B1A
100
AcDbEntity
  8
0
100
AcDbBlockBegin
  2
*D39
 70
     1
 10
0.0
 20
0.0
 30
0.0
  3
*D39
  1

  0
LINE
  5
3B1C
330
3B1A
100
AcDbEntity
  8
DIM
 62
     0
370
    -2
100
AcDbLine
 10
542.1622499313384
 20
488.5359478440778
 30
0.0
 11
680.6244599695589
 21
488.5359478440778
 31
0.0
  0
LINE
  5
3B1D
330
3B1A
100
AcDbEntity
  8
DIM
 62
     0
370
    -2
100
AcDbLine
 10
542.1622499313402
 20
158.5359478440778
 30
0.0
 11
680.6244599695589
 21
158.5359478440778
 31
0.0
  0
LINE
  5
3B1E
330
3B1A
100
AcDbEntity
  8
DIM
 62
     0
370
    -2
100
AcDbLine
 10
680.6244599695589
 20
478.5359478440778
 30
0.0
 11
680.6244599695589
 21
168.5359478440778
 31
0.0
  0
INSERT
  5
3B1F
330
3B1A
100
AcDbEntity
  8
DIM
 62
     0
370
    -2
100
AcDbBlockReference
  2
_DOT
 10
680.6244599695589
 20
488.5359478440778
 30
0.0
 41
10.0
 42
10.0
 43
10.0
 50
90.0
  0
INSERT
  5
3B20
330
3B1A
100
AcDbEntity
  8
DIM
 62
     0
370
    -2
100
AcDbBlockReference
  2
_DOT
 10
680.6244599695589
 20
158.5359478440778
 30
0.0
 41
10.0
 42
10.0
 43
10.0
 50
270.0
  0
MTEXT
  5
3B21
330
3B1A
100
AcDbEntity
  8
DIM
 62
     0
100
AcDbMText
 10
648.6199582814259
 20
323.5359478440778
 30
0.0
 40
24.0
 41
0.0
 46
0.0
 71
     5
 72
     1
  1
\A1;330
  7
ＭＳ ゴシック
 11
0.0
 21
1.0
 31
0.0
 73
     1
 44
1.0
  0
POINT
  5
3B22
330
3B1A
100
AcDbEntity
  8
Defpoints
 62
     0
100
AcDbPoint
 10
512.1622499313384
 20
488.5359478440778
 30
0.0
  0
POINT
  5
3B23
330
3B1A
100
AcDbEntity
  8
Defpoints
 62
     0
100
AcDbPoint
 10
512.1622499313402
 20
158.5359478440778
 30
0.0
  0
POINT
  5
3B24
330
3B1A
100
AcDbEntity
  8
Defpoints
 62
     0
100
AcDbPoint
 10
680.6244599695589
 20
158.5359478440778
 30
0.0
  0
ENDBLK
  5
3B25
330
3B1A
100
AcDbEntity
  8
0
100
AcDbBlockEnd
  0
BLOCK
  5
3B28
330
3B27
100
AcDbEntity
  8
0
100
AcDbBlockBegin
  2
*D40
 70
     1
 10
0.0
 20
0.0
 30
0.0
  3
*D40
  1

  0
LINE
  5
3B29
330
3B27
100
AcDbEntity
  8
DIM
 62
     0
370
    -2
100
AcDbLine
 10
242.8668913690941
 20
518.5359478440732
 30
0.0
 11
242.8668913690941
 21
574.0717711363977
 31
0.0
  0
LINE
  5
3B2A
330
3B27
100
AcDbEntity
  8
DIM
 62
     0
370
    -2
100
AcDbLine
 10
512.1622499313384
 20
519.6303204037768
 30
0.0
 11
512.1622499313384
 21
574.0717711363977
 31
0.0
  0
LINE
  5
3B2B
330
3B27
100
AcDbEntity
  8
DIM
 62
     0
370
    -2
100
AcDbLine
 10
252.8668913690941
 20
574.0717711363977
 30
0.0
 11
502.1622499313384
 21
574.0717711363977
 31
0.0
  0
INSERT
  5
3B2C
330
3B27
100
AcDbEntity
  8
DIM
 62
     0
370
    -2
100
AcDbBlockReference
  2
_DOT
 10
242.8668913690941
 20
574.0717711363977
 30
0.0
 41
10.0
 42
10.0
 43
10.0
 50
180.0
  0
INSERT
  5
3B2D
330
3B27
100
AcDbEntity
  8
DIM
 62
     0
370
    -2
100
AcDbBlockReference
  2
_DOT
 10
512.1622499313384
 20
574.0717711363977
 30
0.0
 41
10.0
 42
10.0
 43
10.0
  0
MTEXT
  5
3B2E
330
3B27
100
AcDbEntity
  8
DIM
 62
     0
100
AcDbMText
 10
377.5145706502162
 20
606.0762728245307
 30
0.0
 40
24.0
 41
0.0
 46
0.0
 71
     5
 72
     1
  1
\A1;270
  7
ＭＳ ゴシック
 73
     1
 44
1.0
  0
POINT
  5
3B2F
330
3B27
100
AcDbEntity
  8
Defpoints
 62
     0
100
AcDbPoint
 10
242.8668913690941
 20
488.5359478440732
 30
0.0
  0
POINT
  5
3B30
330
3B27
100
AcDbEntity
  8
Defpoints
 62
     0
100
AcDbPoint
 10
512.1622499313384
 20
489.6303204037768
 30
0.0
  0
POINT
  5
3B31
330
3B27
100
AcDbEntity
  8
Defpoints
 62
     0
100
AcDbPoint
 10
512.1622499313384
 20
574.0717711363977
 30
0.0
  0
ENDBLK
  5
3B32
330
3B27
100
AcDbEntity
  8
0
100
AcDbBlockEnd
  0
BLOCK
  5
3B39
330
3B38
100
AcDbEntity
  8
0
100
AcDbBlockBegin
  2
*D41
 70
     1
 10
0.0
 20
0.0
 30
0.0
  3
*D41
  1

  0
LINE
  5
3B3A
330
3B38
100
AcDbEntity
  8
DIM
 62
     0
370
    -2
100
AcDbLine
 10
242.8668913690941
 20
518.5359478440732
 30
0.0
 11
242.8668913690941
 21
574.0717711363977
 31
0.0
  0
LINE
  5
3B3B
330
3B38
100
AcDbEntity
  8
DIM
 62
     0
370
    -2
100
AcDbLine
 10
212.8668913690943
 20
518.5359478440732
 30
0.0
 11
212.8668913690943
 21
574.0717711363977
 31
0.0
  0
LINE
  5
3B3C
330
3B38
100
AcDbEntity
  8
DIM
 62
     0
370
    -2
100
AcDbLine
 10
232.8668913690941
 20
574.0717711363977
 30
0.0
 11
222.8668913690943
 21
574.0717711363977
 31
0.0
  0
INSERT
  5
3B3D
330
3B38
100
AcDbEntity
  8
DIM
 62
     0
370
    -2
100
AcDbBlockReference
  2
_DOT
 10
242.8668913690941
 20
574.0717711363977
 30
0.0
 41
10.0
 42
10.0
 43
10.0
  0
INSERT
  5
3B3E
330
3B38
100
AcDbEntity
  8
DIM
 62
     0
370
    -2
100
AcDbBlockReference
  2
_DOT
 10
212.8668913690943
 20
574.0717711363977
 30
0.0
 41
10.0
 42
10.0
 43
10.0
 50
180.0
  0
MTEXT
  5
3B3F
330
3B38
100
AcDbEntity
  8
DIM
 62
     0
100
AcDbMText
 10
227.8668913690942
 20
606.0762728245307
 30
0.0
 40
24.0
 41
0.0
 46
0.0
 71
     5
 72
     1
  1
\A1;30
  7
ＭＳ ゴシック
 73
     1
 44
1.0
  0
POINT
  5
3B40
330
3B38
100
AcDbEntity
  8
Defpoints
 62
     0
100
AcDbPoint
 10
242.8668913690941
 20
488.5359478440732
 30
0.0
  0
POINT
  5
3B41
330
3B38
100
AcDbEntity
  8
Defpoints
 62
     0
100
AcDbPoint
 10
212.8668913690943
 20
488.5359478440732
 30
0.0
  0
POINT
  5
3B42
330
3B38
100
AcDbEntity
  8
Defpoints
 62
     0
100
AcDbPoint
 10
212.8668913690943
 20
574.0717711363977
 30
0.0
  0
ENDBLK
  5
3B43
330
3B38
100
AcDbEntity
  8
0
100
AcDbBlockEnd
  0
BLOCK
  5
3B5F
330
3B5E
100
AcDbEntity
  8
0
100
AcDbBlockBegin
  2
*D42
 70
     1
 10
0.0
 20
0.0
 30
0.0
  3
*D42
  1

  0
LINE
  5
3B61
330
3B5E
100
AcDbEntity
  8
DIM
 62
     0
370
    -2
100
AcDbLine
 10
763.6370270365869
 20
2380.20429249027
 30
0.0
 11
902.0992370748074
 21
2380.20429249027
 31
0.0
  0
LINE
  5
3B62
330
3B5E
100
AcDbEntity
  8
DIM
 62
     0
370
    -2
100
AcDbLine
 10
763.6370270365887
 20
2050.20429249027
 30
0.0
 11
902.0992370748074
 21
2050.20429249027
 31
0.0
  0
LINE
  5
3B63
330
3B5E
100
AcDbEntity
  8
DIM
 62
     0
370
    -2
100
AcDbLine
 10
902.0992370748074
 20
2370.20429249027
 30
0.0
 11
902.0992370748074
 21
2060.20429249027
 31
0.0
  0
INSERT
  5
3B64
330
3B5E
100
AcDbEntity
  8
DIM
 62
     0
370
    -2
100
AcDbBlockReference
  2
_DOT
 10
902.0992370748074
 20
2380.20429249027
 30
0.0
 41
10.0
 42
10.0
 43
10.0
 50
90.0
  0
INSERT
  5
3B65
330
3B5E
100
AcDbEntity
  8
DIM
 62
     0
370
    -2
100
AcDbBlockReference
  2
_DOT
 10
902.0992370748074
 20
2050.20429249027
 30
0.0
 41
10.0
 42
10.0
 43
10.0
 50
270.0
  0
MTEXT
  5
3B66
330
3B5E
100
AcDbEntity
  8
DIM
 62
     0
100
AcDbMText
 10
870.0947353866743
 20
2215.20429249027
 30
0.0
 40
24.0
 41
0.0
 46
0.0
 71
     5
 72
     1
  1
\A1;330
  7
ＭＳ ゴシック
 11
0.0
 21
1.0
 31
0.0
 73
     1
 44
1.0
  0
POINT
  5
3B67
330
3B5E
100
AcDbEntity
  8
Defpoints
 62
     0
100
AcDbPoint
 10
733.6370270365869
 20
2380.20429249027
 30
0.0
  0
POINT
  5
3B68
330
3B5E
100
AcDbEntity
  8
Defpoints
 62
     0
100
AcDbPoint
 10
733.6370270365887
 20
2050.20429249027
 30
0.0
  0
POINT
  5
3B69
330
3B5E
100
AcDbEntity
  8
Defpoints
 62
     0
100
AcDbPoint
 10
902.0992370748074
 20
2050.20429249027
 30
0.0
  0
ENDBLK
  5
3B60
330
3B5E
100
AcDbEntity
  8
0
100
AcDbBlockEnd
  0
BLOCK
  5
3B6B
330
3B6A
100
AcDbEntity
  8
0
100
AcDbBlockBegin
  2
*D43
 70
     1
 10
0.0
 20
0.0
 30
0.0
  3
*D43
  1

  0
LINE
  5
3B6D
330
3B6A
100
AcDbEntity
  8
DIM
 62
     0
370
    -2
100
AcDbLine
 10
464.3416684743427
 20
2410.204292490266
 30
0.0
 11
464.3416684743427
 21
2514.908258626065
 31
0.0
  0
LINE
  5
3B6E
330
3B6A
100
AcDbEntity
  8
DIM
 62
     0
370
    -2
100
AcDbLine
 10
733.6370270365869
 20
2411.298665049969
 30
0.0
 11
733.6370270365869
 21
2514.908258626065
 31
0.0
  0
LINE
  5
3B6F
330
3B6A
100
AcDbEntity
  8
DIM
 62
     0
370
    -2
100
AcDbLine
 10
474.3416684743427
 20
2514.908258626065
 30
0.0
 11
723.6370270365869
 21
2514.908258626065
 31
0.0
  0
INSERT
  5
3B70
330
3B6A
100
AcDbEntity
  8
DIM
 62
     0
370
    -2
100
AcDbBlockReference
  2
_DOT
 10
464.3416684743427
 20
2514.908258626065
 30
0.0
 41
10.0
 42
10.0
 43
10.0
 50
180.0
  0
INSERT
  5
3B71
330
3B6A
100
AcDbEntity
  8
DIM
 62
     0
370
    -2
100
AcDbBlockReference
  2
_DOT
 10
733.6370270365869
 20
2514.908258626065
 30
0.0
 41
10.0
 42
10.0
 43
10.0
  0
MTEXT
  5
3B72
330
3B6A
100
AcDbEntity
  8
DIM
 62
     0
100
AcDbMText
 10
598.9893477554648
 20
2546.912760314198
 30
0.0
 40
24.0
 41
0.0
 46
0.0
 71
     5
 72
     1
  1
\A1;270
  7
ＭＳ ゴシック
 73
     1
 44
1.0
  0
POINT
  5
3B73
330
3B6A
100
AcDbEntity
  8
Defpoints
 62
     0
100
AcDbPoint
 10
464.3416684743427
 20
2380.204292490266
 30
0.0
  0
POINT
  5
3B74
330
3B6A
100
AcDbEntity
  8
Defpoints
 62
     0
100
AcDbPoint
 10
733.6370270365869
 20
2381.298665049969
 30
0.0
  0
POINT
  5
3B75
330
3B6A
100
AcDbEntity
  8
Defpoints
 62
     0
100
AcDbPoint
 10
733.6370270365869
 20
2514.908258626065
 30
0.0
  0
ENDBLK
  5
3B6C
330
3B6A
100
AcDbEntity
  8
0
100
AcDbBlockEnd
  0
BLOCK
  5
3B77
330
3B76
100
AcDbEntity
  8
0
100
AcDbBlockBegin
  2
*D44
 70
     1
 10
0.0
 20
0.0
 30
0.0
  3
*D44
  1

  0
LINE
  5
3B79
330
3B76
100
AcDbEntity
  8
DIM
 62
     0
370
    -2
100
AcDbLine
 10
464.3416684743427
 20
2410.204292490266
 30
0.0
 11
464.3416684743427
 21
2514.908258626065
 31
0.0
  0
LINE
  5
3B7A
330
3B76
100
AcDbEntity
  8
DIM
 62
     0
370
    -2
100
AcDbLine
 10
434.3416684743429
 20
2410.204292490266
 30
0.0
 11
434.3416684743429
 21
2514.908258626065
 31
0.0
  0
LINE
  5
3B7B
330
3B76
100
AcDbEntity
  8
DIM
 62
     0
370
    -2
100
AcDbLine
 10
454.3416684743427
 20
2514.908258626065
 30
0.0
 11
444.3416684743429
 21
2514.908258626065
 31
0.0
  0
INSERT
  5
3B7C
330
3B76
100
AcDbEntity
  8
DIM
 62
     0
370
    -2
100
AcDbBlockReference
  2
_DOT
 10
464.3416684743427
 20
2514.908258626065
 30
0.0
 41
10.0
 42
10.0
 43
10.0
  0
INSERT
  5
3B7D
330
3B76
100
AcDbEntity
  8
DIM
 62
     0
370
    -2
100
AcDbBlockReference
  2
_DOT
 10
434.3416684743429
 20
2514.908258626065
 30
0.0
 41
10.0
 42
10.0
 43
10.0
 50
180.0
  0
MTEXT
  5
3B7E
330
3B76
100
AcDbEntity
  8
DIM
 62
     0
100
AcDbMText
 10
449.3416684743428
 20
2546.912760314198
 30
0.0
 40
24.0
 41
0.0
 46
0.0
 71
     5
 72
     1
  1
\A1;30
  7
ＭＳ ゴシック
 73
     1
 44
1.0
  0
POINT
  5
3B7F
330
3B76
100
AcDbEntity
  8
Defpoints
 62
     0
100
AcDbPoint
 10
464.3416684743427
 20
2380.204292490266
 30
0.0
  0
POINT
  5
3B80
330
3B76
100
AcDbEntity
  8
Defpoints
 62
     0
100
AcDbPoint
 10
434.3416684743429
 20
2380.204292490266
 30
0.0
  0
POINT
  5
3B81
330
3B76
100
AcDbEntity
  8
Defpoints
 62
     0
100
AcDbPoint
 10
434.3416684743429
 20
2514.908258626065
 30
0.0
  0
ENDBLK
  5
3B78
330
3B76
100
AcDbEntity
  8
0
100
AcDbBlockEnd
  0
ENDSEC
  0
SECTION
  2
ENTITIES
  0
MTEXT
  5
177
330
A
100
AcDbEntity
  8
TEMPLATE
390
1D
100
AcDbMText
 10
79.20214454773075
 20
343.7317516314282
 30
0.0
 40
16.28841145833333
 41
0.0
 46
0.0
 71
     1
 72
     1
  1
品名
  7
ＭＳ ゴシック
 73
     1
 44
0.7828267384257843
  0
MTEXT
  5
178
330
A
100
AcDbEntity
  8
TEMPLATE
390
1D
100
AcDbMText
 10
79.20214454773075
 20
258.731751631428
 30
0.0
 40
16.28841145833333
 41
0.0
 46
0.0
 71
     1
 72
     1
  1
仕様
  7
ＭＳ ゴシック
 73
     1
 44
0.7828267384257843
  0
LINE
  5
179
330
A
100
AcDbEntity
  8
TEMPLATE
390
1D
100
AcDbLine
 10
2022.202144547248
 20
267.1466735064284
 30
0.0
 11
72.20214454724874
 21
267.1466735064284
 31
0.0
  0
LWPOLYLINE
  5
17A
330
A
100
AcDbEntity
  8
TEMPLATE
390
1D
100
AcDbPolyline
 90
        5
 70
   128
 43
0.0
 10
2022.202144547248
 20
2897.146673506426
 10
72.20214454724874
 20
2897.146673506426
 10
72.20214454724874
 20
97.14667350642826
 10
2022.202144547248
 20
97.14667350642826
 10
2022.202144547248
 20
2897.146673506426
  0
LINE
  5
17B
330
A
100
AcDbEntity
  8
TEMPLATE
390
1D
100
AcDbLine
 10
2022.202144547248
 20
352.1466735064282
 30
0.0
 11
72.20214454724874
 21
352.1466735064282
 31
0.0
  0
LINE
  5
17C
330
A
100
AcDbEntity
  8
TEMPLATE
390
1D
100
AcDbLine
 10
2022.202144547732
 20
182.1466735064282
 30
0.0
 11
1269.20214454773
 21
182.1466735064282
 31
0.0
  0
MTEXT
  5
17E
330
A
100
AcDbEntity
  8
TEMPLATE
390
1D
100
AcDbMText
 10
1299.073550799991
 20
152.2362790331201
 30
0.0
 40
24.4326171875
 41
0.0
 46
0.0
 71
     1
 72
     1
  1
大洋金物株式会社 ティーフォルム事業部
  7
ＭＳ ゴシック
 73
     1
 44
0.7828267384257843
  0
MTEXT
  5
180
330
A
100
AcDbEntity
  8
TEMPLATE
390
1D
100
AcDbMText
 10
1831.20214454799
 20
230.1492906939282
 30
0.0
 40
24.4326171875
 41
0.0
 46
24.4326171875
 71
     1
 72
     1
  1
{1:10}
  7
ＭＳ ゴシック
 73
     1
 44
0.7828267384257843
1001
ACAD
1000
ACAD_MTEXT_DEFINED_HEIGHT_BEGIN
1070
    46
1040
24.4326171875
1000
ACAD_MTEXT_DEFINED_HEIGHT_END
  0
MTEXT
  5
181
330
A
100
AcDbEntity
  8
TEMPLATE
390
1D
100
AcDbMText
 10
1778.20214454799
 20
258.731751631428
 30
0.0
 40
16.28841145833333
 41
0.0
 46
0.0
 71
     1
 72
     1
  1
縮尺
  7
ＭＳ ゴシック
 73
     1
 44
0.7828267384257843
  0
LINE
  5
182
330
A
100
AcDbEntity
  8
TEMPLATE
390
1D
100
AcDbLine
 10
1771.20214454799
 20
182.1466735064282
 30
0.0
 11
1771.20214454799
 21
267.1466735064284
 31
0.0
  0
MTEXT
  5
183
330
A
100
AcDbEntity
  8
TEMPLATE
390
1D
100
AcDbMText
 10
1527.20214454799
 20
258.731751631428
 30
0.0
 40
16.28841145833333
 41
0.0
 46
0.0
 71
     1
 72
     1
  1
容量
  7
ＭＳ ゴシック
 73
     1
 44
0.7828267384257843
  0
LINE
  5
184
330
A
100
AcDbEntity
  8
TEMPLATE
390
1D
100
AcDbLine
 10
1520.20214454799
 20
182.1466735064282
 30
0.0
 11
1520.20214454799
 21
267.1466735064284
 31
0.0
  0
MTEXT
  5
185
330
A
100
AcDbEntity
  8
TEMPLATE
390
1D
100
AcDbMText
 10
1276.20214454799
 20
343.7317516314282
 30
0.0
 40
16.28841145833333
 41
0.0
 46
0.0
 71
     1
 72
     1
  1
品番
  7
ＭＳ ゴシック
 73
     1
 44
0.7828267384257843
  0
MTEXT
  5
186
330
A
100
AcDbEntity
  8
TEMPLATE
390
1D
100
AcDbMText
 10
1276.20214454799
 20
258.731751631428
 30
0.0
 40
16.28841145833333
 41
0.0
 46
0.0
 71
     1
 72
     1
  1
重量
  7
ＭＳ ゴシック
 73
     1
 44
0.7828267384257843
  0
MTEXT
  5
187
330
A
100
AcDbEntity
  8
TEMPLATE
390
1D
100
AcDbMText
 10
1329.20214454799
 20
315.1492906939282
 30
0.0
 40
24.4326171875
 41
0.0
 46
24.4326171875
 71
     1
 72
     1
  1
{ADF70-3104-001}
  7
ＭＳ ゴシック
 73
     1
 44
0.7828267384257843
1001
ACAD
1000
ACAD_MTEXT_DEFINED_HEIGHT_BEGIN
1070
    46
1040
24.4326171875
1000
ACAD_MTEXT_DEFINED_HEIGHT_END
  0
LINE
  5
188
330
A
100
AcDbEntity
  8
TEMPLATE
390
1D
100
AcDbLine
 10
1269.20214454799
 20
97.14667350642826
 30
0.0
 11
1269.20214454799
 21
352.1466735064282
 31
0.0
  0
INSERT
  5
68C
330
A
100
AcDbEntity
  8
TEMPLATE
100
AcDbBlockReference
  2
block 2
 10
919.2743017702577
 20
8.373076514336368
 30
0.0
 41
0.3809999999999999
 42
0.3809999999999999
 43
0.3809999999999999
  0
LWPOLYLINE
  5
DAC
330
A
100
AcDbEntity
  8
BORDER
100
AcDbPolyline
 90
        4
 70
     1
 43
0.0
 10
0.0
 20
0.0
 10
0.0
 20
2970.0
 10
2100.0
 20
2970.0
 10
2100.0
 20
0.0
  0
MTEXT
  5
121B
330
A
100
AcDbEntity
  8
TEMPLATE
390
1D
100
AcDbMText
 10
1329.20214454799
 20
227.1688729773101
 30
0.0
 40
24.4326171875
 41
0.0
 46
28.40135167875453
 71
     1
 72
     1
  1
{16.5kg}
  7
ＭＳ ゴシック
 73
     1
 44
0.7828267384257843
1001
ACAD
1000
ACAD_MTEXT_DEFINED_HEIGHT_BEGIN
1070
    46
1040
28.40135167875453
1000
ACAD_MTEXT_DEFINED_HEIGHT_END
  0
MTEXT
  5
1466
102
{ACAD_XDICTIONARY
360
1468
102
}
330
A
100
AcDbEntity
  8
TEMPLATE
 48
0.05
100
AcDbMText
 10
74.728656548571
 20
83.86172105142839
 30
0.0
 40
22.0
 41
0.0
 46
22.0
 71
     1
 72
     1
  1
{20220117M}
  7
ＭＳ ゴシック
 73
     1
 44
1.0
1001
ACAD
1000
ACAD_MTEXT_DEFINED_HEIGHT_BEGIN
1070
    46
1040
22.0
1000
ACAD_MTEXT_DEFINED_HEIGHT_END
  0
MTEXT
  5
146D
330
A
100
AcDbEntity
  8
TEMPLATE
390
1D
100
AcDbMText
 10
1583.904999862276
 20
227.1688729773101
 30
0.0
 40
24.4326171875
 41
0.0
 46
24.4326171875
 71
     1
 72
     1
  1
{8L}
  7
ＭＳ ゴシック
 73
     1
 44
0.7828267384257843
1001
ACAD
1000
ACAD_MTEXT_DEFINED_HEIGHT_BEGIN
1070
    46
1040
24.4326171875
1000
ACAD_MTEXT_DEFINED_HEIGHT_END
  0
POINT
  5
262A
330
A
100
AcDbEntity
  8
Layer9
  6
Continuous
 62
     7
100
AcDbPoint
 10
1037.460145007193
 20
1010.220672371878
 30
0.0
  0
POINT
  5
262B
330
A
100
AcDbEntity
  8
Layer9
  6
Continuous
 62
     7
100
AcDbPoint
 10
1037.460146257193
 20
1010.220672788578
 30
0.0
  0
POINT
  5
262C
330
A
100
AcDbEntity
  8
Layer9
  6
Continuous
 62
     7
100
AcDbPoint
 10
1037.853693340493
 20
1015.267975288578
 30
0.0
  0
POINT
  5
2812
330
A
100
AcDbEntity
  8
Layer9
  6
Continuous
 62
     7
100
AcDbPoint
 10
925.7934783404928
 20
1010.220672371878
 30
0.0
  0
POINT
  5
2813
330
A
100
AcDbEntity
  8
Layer9
  6
Continuous
 62
     7
100
AcDbPoint
 10
925.7934795904928
 20
1010.220672788578
 30
0.0
  0
POINT
  5
2814
330
A
100
AcDbEntity
  8
Layer9
  6
Continuous
 62
     7
100
AcDbPoint
 10
926.1870266737928
 20
1015.267975288578
 30
0.0
  0
INSERT
  5
28CA
330
A
100
AcDbEntity
  8
Layer3
100
AcDbBlockReference
  2
SEANNOT_GROUP
 10
859.7083018867928
 20
826.1905269541776
 30
0.0
  0
POINT
  5
2A52
330
A
100
AcDbEntity
  8
Standard
  6
Continuous
 62
     7
100
AcDbPoint
 10
1036.111241014893
 20
1018.794321538578
 30
0.0
  0
INSERT
  5
2B9B
330
A
100
AcDbEntity
  8
Layer3
100
AcDbBlockReference
  2
SEANNOT_GROUP1
 10
859.7083018867928
 20
826.1905269541776
 30
0.0
  0
HATCH
  5
369B
102
{ACAD_REACTORS
330
36AC
102
}
330
A
100
AcDbEntity
  8
TEMPLATE
100
AcDbHatch
 10
0.0
 20
0.0
 30
0.0
210
0.0
220
0.0
230
1.0
  2
SOLID
 70
     1
 71
     1
 91
        6
 92
        1
 93
        8
 72
     1
 10
1934.476782902687
 20
153.1053194253001
 11
1934.476782902687
 21
147.1959117946397
 72
     1
 10
1934.476782902687
 20
147.1959117946397
 11
1925.116191352377
 21
147.1959117946397
 72
     1
 10
1925.116191352377
 20
147.1959117946397
 11
1925.116191352377
 21
123.105319426746
 72
     1
 10
1925.116191352377
 20
123.105319426746
 11
1916.883578199102
 21
123.105319426746
 72
     1
 10
1916.883578199102
 20
123.105319426746
 11
1916.883578199102
 21
147.1959117946397
 72
     1
 10
1916.883578199102
 20
147.1959117946397
 11
1907.688876764557
 21
147.1959117946397
 72
     1
 10
1907.688876764557
 20
147.1959117946397
 11
1907.688876764557
 21
153.1053194253001
 72
     1
 10
1907.688876764557
 20
153.1053194253001
 11
1934.476782902687
 21
153.1053194253001
 97
        1
330
369C
 92
        1
 93
        1
 72
     4
 94
        3
 73
     0
 74
     1
 95
       56
 96
       52
 40
0.0
 40
0.0
 40
0.0
 40
0.0
 40
1.0
 40
1.0
 40
1.0
 40
2.0
 40
2.0
 40
2.0
 40
3.0
 40
3.0
 40
3.0
 40
4.0
 40
4.0
 40
4.0
 40
5.0
 40
5.0
 40
5.0
 40
6.0
 40
6.0
 40
6.0
 40
7.0
 40
7.0
 40
7.0
 40
8.0
 40
8.0
 40
8.0
 40
9.0
 40
9.0
 40
9.0
 40
10.0
 40
10.0
 40
10.0
 40
11.0
 40
11.0
 40
11.0
 40
12.0
 40
12.0
 40
12.0
 40
13.0
 40
13.0
 40
13.0
 40
14.0
 40
14.0
 40
14.0
 40
15.0
 40
15.0
 40
15.0
 40
16.0
 40
16.0
 40
16.0
 40
17.0
 40
17.0
 40
17.0
 40
17.0
 10
1947.01896833698
 20
152.3909504648878
 10
1948.1728345189
 20
152.715738018898
 10
1949.662423612235
 20
152.4440650580081
 10
1949.662423612235
 20
152.4440650580081
 10
1949.662423612235
 20
152.4440650580081
 10
1948.946790018651
 20
150.2964947655846
 10
1948.946790018651
 20
150.2964947655846
 10
1948.946790018651
 20
150.2964947655846
 10
1947.484427733556
 20
150.6348957237139
 10
1946.356523726704
 20
149.7454866546012
 10
1945.480058550036
 20
149.0499384113589
 10
1944.912238256914
 20
147.2017886193686
 10
1944.69442379101
 20
146.4990989182278
 10
1944.69442379101
 20
146.4990989182278
 10
1943.723334297183
 20
143.518432927829
 10
1943.723334297183
 20
143.518432927829
 10
1943.723334297183
 20
143.518432927829
 10
1946.907457447503
 20
143.518432927829
 10
1946.907457447503
 20
143.518432927829
 10
1946.907457447503
 20
143.518432927829
 10
1946.412241976351
 20
141.642461206109
 10
1946.412241976351
 20
141.642461206109
 10
1946.412241976351
 20
141.642461206109
 10
1943.202156650962
 20
141.642461206109
 10
1943.202156650962
 20
141.642461206109
 10
1943.202156650962
 20
141.642461206109
 10
1937.458713526257
 20
123.105319426746
 10
1937.458713526257
 20
123.105319426746
 10
1937.458713526257
 20
123.105319426746
 10
1935.660479549369
 20
123.105319426746
 10
1935.660479549369
 20
123.105319426746
 10
1935.660479549369
 20
123.105319426746
 10
1941.409129987127
 20
141.642461206109
 10
1941.409129987127
 20
141.642461206109
 10
1941.409129987127
 20
141.642461206109
 10
1939.040397670409
 20
141.642461206109
 10
1939.040397670409
 20
141.642461206109
 10
1939.040397670409
 20
141.642461206109
 10
1939.536952164915
 20
143.518432927829
 10
1939.536952164915
 20
143.518432927829
 10
1939.536952164915
 20
143.518432927829
 10
1941.930307633347
 20
143.518432927829
 10
1941.930307633347
 20
143.518432927829
 10
1941.930307633347
 20
143.518432927829
 10
1942.77686795507
 20
146.1179236028939
 10
1942.77686795507
 20
146.1179236028939
 10
1943.461406450716
 20
148.2973328951149
 10
1944.042245026465
 20
149.4674161376772
 10
1944.540138544327
 20
150.3496093587049
 10
1945.032750358952
 20
151.232546481597
 10
1946.007708142475
 20
152.0998616653363
 10
1947.01896833698
 20
152.3909504648878
 97
        1
330
36A7
 92
        1
 93
        1
 72
     4
 94
        3
 73
     0
 74
     1
 95
       32
 96
       28
 40
0.0
 40
0.0
 40
0.0
 40
0.0
 40
1.0
 40
1.0
 40
1.0
 40
2.0
 40
2.0
 40
2.0
 40
3.0
 40
3.0
 40
3.0
 40
4.0
 40
4.0
 40
4.0
 40
5.0
 40
5.0
 40
5.0
 40
6.0
 40
6.0
 40
6.0
 40
7.0
 40
7.0
 40
7.0
 40
8.0
 40
8.0
 40
8.0
 40
9.0
 40
9.0
 40
9.0
 40
9.0
 10
1951.394524713372
 20
142.3847264864374
 10
1950.311998720255
 20
140.9844800070205
 10
1949.478382290974
 20
139.7243102486757
 10
1948.128795528524
 20
135.7635535518901
 10
1946.888041608841
 20
132.1406026917421
 10
1946.098464169936
 20
129.5048096056932
 10
1945.979216701069
 20
126.2947242803041
 10
1945.888460673606
 20
123.9059066132458
 10
1947.343086379314
 20
123.105319426746
 10
1949.475853024634
 20
123.105319426746
 10
1950.395018168326
 20
123.105319426746
 10
1952.714504181618
 20
123.1637901132903
 10
1954.3662638814
 20
125.2056519507783
 10
1955.522584939468
 20
126.6401923061455
 10
1956.588298750451
 20
128.1272521331414
 10
1958.017036671275
 20
133.0053142189559
 10
1959.205940631009
 20
137.0833842397621
 10
1960.029142434186
 20
139.7191029356247
 10
1959.968291261677
 20
141.2197761667398
 10
1959.968291261677
 20
141.2197761667398
 10
1959.968291261677
 20
141.2197761667398
 10
1959.968291261677
 20
141.2197761667398
 10
1959.580569609936
 20
143.7233035012931
 10
1957.762919794387
 20
144.2522921170894
 10
1956.724432791643
 20
144.2522921170894
 10
1955.70156772805
 20
144.2522921170894
 10
1952.960735698745
 20
144.4292663706373
 10
1951.394524713372
 20
142.3847264864374
 97
        1
330
36AA
 92
        1
 93
        1
 72
     4
 94
        3
 73
     0
 74
     1
 95
       38
 96
       34
 40
0.0
 40
0.0
 40
0.0
 40
0.0
 40
1.0
 40
1.0
 40
1.0
 40
2.0
 40
2.0
 40
2.0
 40
3.0
 40
3.0
 40
3.0
 40
4.0
 40
4.0
 40
4.0
 40
5.0
 40
5.0
 40
5.0
 40
6.0
 40
6.0
 40
6.0
 40
7.0
 40
7.0
 40
7.0
 40
8.0
 40
8.0
 40
8.0
 40
9.0
 40
9.0
 40
9.0
 40
10.0
 40
10.0
 40
10.0
 40
11.0
 40
11.0
 40
11.0
 40
11.0
 10
1966.542747159137
 20
143.4464976175386
 10
1966.542747159137
 20
143.4464976175386
 10
1968.39149207262
 20
143.4464976175386
 10
1968.39149207262
 20
143.4464976175386
 10
1968.39149207262
 20
143.4464976175386
 10
1967.56561222273
 20
140.8022984404216
 10
1967.56561222273
 20
140.8022984404216
 10
1968.193167835563
 20
141.54456372075
 10
1969.183598777865
 20
142.5331349083912
 10
1970.034176169654
 20
143.0316235477459
 10
1971.304760554101
 20
143.7738888280742
 10
1972.030808773784
 20
143.8717863134333
 10
1972.829313035064
 20
143.8522960845852
 10
1972.829313035064
 20
143.8522960845852
 10
1972.048959979278
 20
141.3520419182353
 10
1972.048959979278
 20
141.3520419182353
 10
1971.540726225497
 20
141.5672527276151
 10
1969.974515240128
 20
141.1575859708734
 10
1969.076030568268
 20
140.5112840310564
 10
1968.265772657532
 20
139.9285113104618
 10
1967.705614553615
 20
139.4326263276327
 10
1967.04190531017
 20
138.1859955832205
 10
1966.383254599404
 20
136.9375050841474
 10
1965.86341597654
 20
134.9467493047458
 10
1964.968799594376
 20
132.058773486655
 10
1964.968799594376
 20
132.058773486655
 10
1962.174852971949
 20
123.105319426746
 10
1962.174852971949
 20
123.105319426746
 10
1962.174852971949
 20
123.105319426746
 10
1960.380561674943
 20
123.105319426746
 10
1960.380561674943
 20
123.105319426746
 10
1960.380561674943
 20
123.105319426746
 10
1966.542747159137
 20
143.4464976175386
 10
1966.542747159137
 20
143.4464976175386
 97
        1
330
36A8
 92
        1
 93
        1
 72
     4
 94
        3
 73
     0
 74
     1
 95
      104
 96
      100
 40
0.0
 40
0.0
 40
0.0
 40
0.0
 40
1.0
 40
1.0
 40
1.0
 40
2.0
 40
2.0
 40
2.0
 40
3.0
 40
3.0
 40
3.0
 40
4.0
 40
4.0
 40
4.0
 40
5.0
 40
5.0
 40
5.0
 40
6.0
 40
6.0
 40
6.0
 40
7.0
 40
7.0
 40
7.0
 40
8.0
 40
8.0
 40
8.0
 40
9.0
 40
9.0
 40
9.0
 40
10.0
 40
10.0
 40
10.0
 40
11.0
 40
11.0
 40
11.0
 40
12.0
 40
12.0
 40
12.0
 40
13.0
 40
13.0
 40
13.0
 40
14.0
 40
14.0
 40
14.0
 40
15.0
 40
15.0
 40
15.0
 40
16.0
 40
16.0
 40
16.0
 40
17.0
 40
17.0
 40
17.0
 40
18.0
 40
18.0
 40
18.0
 40
19.0
 40
19.0
 40
19.0
 40
20.0
 40
20.0
 40
20.0
 40
21.0
 40
21.0
 40
21.0
 40
22.0
 40
22.0
 40
22.0
 40
23.0
 40
23.0
 40
23.0
 40
24.0
 40
24.0
 40
24.0
 40
25.0
 40
25.0
 40
25.0
 40
26.0
 40
26.0
 40
26.0
 40
27.0
 40
27.0
 40
27.0
 40
28.0
 40
28.0
 40
28.0
 40
29.0
 40
29.0
 40
29.0
 40
30.0
 40
30.0
 40
30.0
 40
31.0
 40
31.0
 40
31.0
 40
32.0
 40
32.0
 40
32.0
 40
33.0
 40
33.0
 40
33.0
 40
33.0
 10
1976.718878323425
 20
143.4575073651321
 10
1976.718878323425
 20
143.4575073651321
 10
1978.332996588864
 20
143.4575073651321
 10
1978.332996588864
 20
143.4575073651321
 10
1978.332996588864
 20
143.4575073651321
 10
1977.517531365076
 20
140.810778921676
 10
1977.517531365076
 20
140.810778921676
 10
1978.225279598895
 20
141.920531723033
 10
1978.860571791119
 20
142.4151520726926
 10
1979.704602846502
 20
143.054312554611
 10
1980.551163168223
 20
143.6843974337833
 10
1981.556025806694
 20
143.812794895584
 10
1982.253508194784
 20
143.812794895584
 10
1983.117029479015
 20
143.812794895584
 10
1983.950645908296
 20
143.6422925882567
 10
1984.388804106443
 20
142.6958262461422
 10
1984.72460140805
 20
141.9536353560001
 10
1984.740223347202
 20
141.8660781065566
 10
1984.644260006691
 20
140.4010377747479
 10
1985.521915426345
 20
141.9030500292188
 10
1986.170151511008
 20
142.5500214807137
 10
1987.272167732975
 20
143.1716258786317
 10
1988.42863757142
 20
143.812794895584
 10
1989.102761440966
 20
143.8607765658398
 10
1989.885941323838
 20
143.7453229964802
 10
1991.039733115569
 20
143.5748950793392
 10
1991.776195961356
 20
143.1632197875635
 10
1992.161239566385
 20
141.9121256319649
 10
1992.54762219477
 20
140.6648997660613
 10
1992.338883331611
 20
139.9959088193793
 10
1991.861744675765
 20
138.0103603530286
 10
1991.64393020986
 20
137.1060732466272
 10
1991.328813380087
 20
136.0111240923725
 10
1990.916542966819
 20
134.7082543670094
 10
1990.916542966819
 20
134.7082543670094
 10
1987.272167732975
 20
123.105319426746
 10
1987.272167732975
 20
123.105319426746
 10
1987.272167732975
 20
123.105319426746
 10
1985.376705782409
 20
123.105319426746
 10
1985.376705782409
 20
123.105319426746
 10
1985.376705782409
 20
123.105319426746
 10
1988.567449659321
 20
133.2490164697431
 10
1988.567449659321
 20
133.2490164697431
 10
1989.233836949479
 20
135.3713684889626
 10
1989.684939040069
 20
136.9212880235028
 10
1989.918375445127
 20
137.893047029008
 10
1990.211323999339
 20
139.1052351170969
 10
1990.327967811683
 20
139.505231149601
 10
1990.189304504152
 20
140.3874987608153
 10
1990.062246065708
 20
141.2087664191461
 10
1989.647297605728
 20
141.7435574694851
 10
1988.936871325198
 20
141.7435574694851
 10
1988.17972800758
 20
141.7435574694851
 10
1987.566455310545
 20
141.659273388245
 10
1986.708290119737
 20
140.7971655175569
 10
1985.84997614856
 20
139.9285113104618
 10
1985.140740111011
 20
138.9088450248874
 10
1984.584599077163
 20
137.7361581257997
 10
1984.029648286297
 20
136.5563297688134
 10
1983.466960916042
 20
135.0608638507494
 10
1982.896536966398
 20
133.2490164697431
 10
1982.896536966398
 20
133.2490164697431
 10
1979.704602846502
 20
123.105319426746
 10
1979.704602846502
 20
123.105319426746
 10
1979.704602846502
 20
123.105319426746
 10
1977.921916418581
 20
123.105319426746
 10
1977.921916418581
 20
123.105319426746
 10
1977.921916418581
 20
123.105319426746
 10
1981.571498965475
 20
134.7030470539584
 10
1981.571498965475
 20
134.7030470539584
 10
1981.956542570504
 20
135.9373290274211
 10
1982.245771615394
 20
136.9433819088763
 10
1982.436359273062
 20
137.729686179579
 10
1982.760402925207
 20
139.0832156219098
 10
1982.851158952669
 20
139.9985124759046
 10
1982.606117678524
 20
140.810778921676
 10
1982.364944694076
 20
141.6204417109219
 10
1981.941069411725
 20
141.8272464292334
 10
1981.233172397533
 20
141.8272464292334
 10
1980.639389929345
 20
141.8272464292334
 10
1980.059890376953
 20
141.5724600406662
 10
1979.398710399847
 20
141.0654909200569
 10
1978.566284213549
 20
140.4276694614944
 10
1978.233164958657
 20
139.9038881587491
 10
1977.824762835085
 20
139.2815398589669
 10
1977.273680333915
 20
138.458263665602
 10
1977.015695167332
 20
137.9040567766015
 10
1976.550310160944
 20
136.687926008631
 10
1976.084776374184
 20
135.4646537827621
 10
1975.644088909695
 20
134.0411231749885
 10
1975.336708659311
 20
133.0564946672286
 10
1975.336708659311
 20
133.0564946672286
 10
1972.205774492298
 20
123.105319426746
 10
1972.205774492298
 20
123.105319426746
 10
1972.205774492298
 20
123.105319426746
 10
1970.338878373326
 20
123.105319426746
 10
1970.338878373326
 20
123.105319426746
 10
1970.338878373326
 20
123.105319426746
 10
1976.718878323425
 20
143.4575073651321
 10
1976.718878323425
 20
143.4575073651321
 97
        1
330
36A9
 92
       16
 93
        1
 72
     4
 94
        3
 73
     0
 74
     1
 95
       29
 96
       25
 40
0.0
 40
0.0
 40
0.0
 40
0.0
 40
1.0
 40
1.0
 40
1.0
 40
2.0
 40
2.0
 40
2.0
 40
3.0
 40
3.0
 40
3.0
 40
4.0
 40
4.0
 40
4.0
 40
5.0
 40
5.0
 40
5.0
 40
6.0
 40
6.0
 40
6.0
 40
7.0
 40
7.0
 40
7.0
 40
8.0
 40
8.0
 40
8.0
 40
8.0
 10
1947.916188375669
 20
126.8949043045264
 10
1947.908303015907
 20
128.3120373562658
 10
1948.355685597176
 20
130.8298476066162
 10
1949.501740809517
 20
134.1986815898748
 10
1951.062744481836
 20
138.7603622127471
 10
1951.998870588036
 20
140.4276694614944
 10
1952.818055321147
 20
141.2392663955878
 10
1954.014844640642
 20
142.4210288974216
 10
1955.623755593032
 20
142.4799459250845
 10
1956.098364982539
 20
142.4210288974216
 10
1956.77382787544
 20
142.3399435941987
 10
1957.727956406759
 20
141.8978427161679
 10
1957.784939289575
 20
140.4095182560024
 10
1957.830466083678
 20
139.1357350935386
 10
1957.463424903768
 20
136.7501905946838
 10
1956.178706383896
 20
133.0053142189559
 10
1954.698044112936
 20
128.6536370924121
 10
1953.808635043822
 20
126.9429603649685
 10
1953.095679496951
 20
126.1974219164366
 10
1951.752490290537
 20
124.7997790935452
 10
1950.311998720255
 20
124.9339789898883
 10
1950.0993915674
 20
124.9339789898883
 10
1949.823255195324
 20
124.9339789898883
 10
1947.920056665365
 20
125.2336226608809
 10
1947.916188375669
 20
126.8949043045264
 97
        1
330
36AB
 75
     0
 76
     1
 98
        1
 10
1859.334883625664
 20
72.26751235270598
1001
ACAD
1010
0.0
1020
0.0
1030
0.0
  0
POLYLINE
  5
369C
102
{ACAD_REACTORS
330
369B
330
36AC
102
}
330
A
100
AcDbEntity
  8
TEMPLATE
100
AcDb2dPolyline
 66
     1
 10
0.0
 20
0.0
 30
0.0
  0
VERTEX
  5
369D
330
369C
100
AcDbEntity
  8
TEMPLATE
100
AcDbVertex
100
AcDb2dVertex
 10
1934.476782902687
 20
153.1053194253001
 30
0.0
  0
VERTEX
  5
369E
330
369C
100
AcDbEntity
  8
TEMPLATE
100
AcDbVertex
100
AcDb2dVertex
 10
1934.476782902687
 20
147.1959117946397
 30
0.0
  0
VERTEX
  5
369F
330
369C
100
AcDbEntity
  8
TEMPLATE
100
AcDbVertex
100
AcDb2dVertex
 10
1925.116191352377
 20
147.1959117946397
 30
0.0
  0
VERTEX
  5
36A0
330
369C
100
AcDbEntity
  8
TEMPLATE
100
AcDbVertex
100
AcDb2dVertex
 10
1925.116191352377
 20
123.105319426746
 30
0.0
  0
VERTEX
  5
36A1
330
369C
100
AcDbEntity
  8
TEMPLATE
100
AcDbVertex
100
AcDb2dVertex
 10
1916.883578199102
 20
123.105319426746
 30
0.0
  0
VERTEX
  5
36A2
330
369C
100
AcDbEntity
  8
TEMPLATE
100
AcDbVertex
100
AcDb2dVertex
 10
1916.883578199102
 20
147.1959117946397
 30
0.0
  0
VERTEX
  5
36A3
330
369C
100
AcDbEntity
  8
TEMPLATE
100
AcDbVertex
100
AcDb2dVertex
 10
1907.688876764557
 20
147.1959117946397
 30
0.0
  0
VERTEX
  5
36A4
330
369C
100
AcDbEntity
  8
TEMPLATE
100
AcDbVertex
100
AcDb2dVertex
 10
1907.688876764557
 20
153.1053194253001
 30
0.0
  0
VERTEX
  5
36A5
330
369C
100
AcDbEntity
  8
TEMPLATE
100
AcDbVertex
100
AcDb2dVertex
 10
1934.476782902687
 20
153.1053194253001
 30
0.0
  0
SEQEND
  5
36A6
330
369C
100
AcDbEntity
  8
TEMPLATE
  0
SPLINE
  5
36A7
102
{ACAD_REACTORS
330
369B
330
36AC
102
}
330
A
100
AcDbEntity
  8
TEMPLATE
100
AcDbSpline
210
0.0
220
0.0
230
1.0
 70
    11
 71
     3
 72
    56
 73
    52
 74
     0
 42
0.000000001
 43
0.0000000001
 40
0.0
 40
0.0
 40
0.0
 40
0.0
 40
1.0
 40
1.0
 40
1.0
 40
2.0
 40
2.0
 40
2.0
 40
3.0
 40
3.0
 40
3.0
 40
4.0
 40
4.0
 40
4.0
 40
5.0
 40
5.0
 40
5.0
 40
6.0
 40
6.0
 40
6.0
 40
7.0
 40
7.0
 40
7.0
 40
8.0
 40
8.0
 40
8.0
 40
9.0
 40
9.0
 40
9.0
 40
10.0
 40
10.0
 40
10.0
 40
11.0
 40
11.0
 40
11.0
 40
12.0
 40
12.0
 40
12.0
 40
13.0
 40
13.0
 40
13.0
 40
14.0
 40
14.0
 40
14.0
 40
15.0
 40
15.0
 40
15.0
 40
16.0
 40
16.0
 40
16.0
 40
17.0
 40
17.0
 40
17.0
 40
17.0
 10
1947.01896833698
 20
152.3909504648878
 30
0.0
 10
1948.1728345189
 20
152.715738018898
 30
0.0
 10
1949.662423612235
 20
152.4440650580081
 30
0.0
 10
1949.662423612235
 20
152.4440650580081
 30
0.0
 10
1949.662423612235
 20
152.4440650580081
 30
0.0
 10
1948.946790018651
 20
150.2964947655846
 30
0.0
 10
1948.946790018651
 20
150.2964947655846
 30
0.0
 10
1948.946790018651
 20
150.2964947655846
 30
0.0
 10
1947.484427733556
 20
150.6348957237139
 30
0.0
 10
1946.356523726704
 20
149.7454866546012
 30
0.0
 10
1945.480058550036
 20
149.0499384113589
 30
0.0
 10
1944.912238256914
 20
147.2017886193686
 30
0.0
 10
1944.69442379101
 20
146.4990989182278
 30
0.0
 10
1944.69442379101
 20
146.4990989182278
 30
0.0
 10
1943.723334297183
 20
143.518432927829
 30
0.0
 10
1943.723334297183
 20
143.518432927829
 30
0.0
 10
1943.723334297183
 20
143.518432927829
 30
0.0
 10
1946.907457447503
 20
143.518432927829
 30
0.0
 10
1946.907457447503
 20
143.518432927829
 30
0.0
 10
1946.907457447503
 20
143.518432927829
 30
0.0
 10
1946.412241976351
 20
141.642461206109
 30
0.0
 10
1946.412241976351
 20
141.642461206109
 30
0.0
 10
1946.412241976351
 20
141.642461206109
 30
0.0
 10
1943.202156650962
 20
141.642461206109
 30
0.0
 10
1943.202156650962
 20
141.642461206109
 30
0.0
 10
1943.202156650962
 20
141.642461206109
 30
0.0
 10
1937.458713526257
 20
123.105319426746
 30
0.0
 10
1937.458713526257
 20
123.105319426746
 30
0.0
 10
1937.458713526257
 20
123.105319426746
 30
0.0
 10
1935.660479549369
 20
123.105319426746
 30
0.0
 10
1935.660479549369
 20
123.105319426746
 30
0.0
 10
1935.660479549369
 20
123.105319426746
 30
0.0
 10
1941.409129987127
 20
141.642461206109
 30
0.0
 10
1941.409129987127
 20
141.642461206109
 30
0.0
 10
1941.409129987127
 20
141.642461206109
 30
0.0
 10
1939.040397670409
 20
141.642461206109
 30
0.0
 10
1939.040397670409
 20
141.642461206109
 30
0.0
 10
1939.040397670409
 20
141.642461206109
 30
0.0
 10
1939.536952164915
 20
143.518432927829
 30
0.0
 10
1939.536952164915
 20
143.518432927829
 30
0.0
 10
1939.536952164915
 20
143.518432927829
 30
0.0
 10
1941.930307633347
 20
143.518432927829
 30
0.0
 10
1941.930307633347
 20
143.518432927829
 30
0.0
 10
1941.930307633347
 20
143.518432927829
 30
0.0
 10
1942.77686795507
 20
146.1179236028939
 30
0.0
 10
1942.77686795507
 20
146.1179236028939
 30
0.0
 10
1943.461406450716
 20
148.2973328951149
 30
0.0
 10
1944.042245026465
 20
149.4674161376772
 30
0.0
 10
1944.540138544327
 20
150.3496093587049
 30
0.0
 10
1945.032750358952
 20
151.232546481597
 30
0.0
 10
1946.007708142475
 20
152.0998616653363
 30
0.0
 10
1947.01896833698
 20
152.3909504648878
 30
0.0
  0
SPLINE
  5
36A8
102
{ACAD_REACTORS
330
369B
330
36AC
102
}
330
A
100
AcDbEntity
  8
TEMPLATE
100
AcDbSpline
210
0.0
220
0.0
230
1.0
 70
    11
 71
     3
 72
    38
 73
    34
 74
     0
 42
0.000000001
 43
0.0000000001
 40
0.0
 40
0.0
 40
0.0
 40
0.0
 40
1.0
 40
1.0
 40
1.0
 40
2.0
 40
2.0
 40
2.0
 40
3.0
 40
3.0
 40
3.0
 40
4.0
 40
4.0
 40
4.0
 40
5.0
 40
5.0
 40
5.0
 40
6.0
 40
6.0
 40
6.0
 40
7.0
 40
7.0
 40
7.0
 40
8.0
 40
8.0
 40
8.0
 40
9.0
 40
9.0
 40
9.0
 40
10.0
 40
10.0
 40
10.0
 40
11.0
 40
11.0
 40
11.0
 40
11.0
 10
1966.542747159137
 20
143.4464976175386
 30
0.0
 10
1966.542747159137
 20
143.4464976175386
 30
0.0
 10
1968.39149207262
 20
143.4464976175386
 30
0.0
 10
1968.39149207262
 20
143.4464976175386
 30
0.0
 10
1968.39149207262
 20
143.4464976175386
 30
0.0
 10
1967.56561222273
 20
140.8022984404216
 30
0.0
 10
1967.56561222273
 20
140.8022984404216
 30
0.0
 10
1968.193167835563
 20
141.54456372075
 30
0.0
 10
1969.183598777865
 20
142.5331349083912
 30
0.0
 10
1970.034176169654
 20
143.0316235477459
 30
0.0
 10
1971.304760554101
 20
143.7738888280742
 30
0.0
 10
1972.030808773784
 20
143.8717863134333
 30
0.0
 10
1972.829313035064
 20
143.8522960845852
 30
0.0
 10
1972.829313035064
 20
143.8522960845852
 30
0.0
 10
1972.048959979278
 20
141.3520419182353
 30
0.0
 10
1972.048959979278
 20
141.3520419182353
 30
0.0
 10
1971.540726225497
 20
141.5672527276151
 30
0.0
 10
1969.974515240128
 20
141.1575859708734
 30
0.0
 10
1969.076030568268
 20
140.5112840310564
 30
0.0
 10
1968.265772657532
 20
139.9285113104618
 30
0.0
 10
1967.705614553615
 20
139.4326263276327
 30
0.0
 10
1967.04190531017
 20
138.1859955832205
 30
0.0
 10
1966.383254599404
 20
136.9375050841474
 30
0.0
 10
1965.86341597654
 20
134.9467493047458
 30
0.0
 10
1964.968799594376
 20
132.058773486655
 30
0.0
 10
1964.968799594376
 20
132.058773486655
 30
0.0
 10
1962.174852971949
 20
123.105319426746
 30
0.0
 10
1962.174852971949
 20
123.105319426746
 30
0.0
 10
1962.174852971949
 20
123.105319426746
 30
0.0
 10
1960.380561674943
 20
123.105319426746
 30
0.0
 10
1960.380561674943
 20
123.105319426746
 30
0.0
 10
1960.380561674943
 20
123.105319426746
 30
0.0
 10
1966.542747159137
 20
143.4464976175386
 30
0.0
 10
1966.542747159137
 20
143.4464976175386
 30
0.0
  0
SPLINE
  5
36A9
102
{ACAD_REACTORS
330
369B
330
36AC
102
}
330
A
100
AcDbEntity
  8
TEMPLATE
100
AcDbSpline
210
0.0
220
0.0
230
1.0
 70
    11
 71
     3
 72
   104
 73
   100
 74
     0
 42
0.000000001
 43
0.0000000001
 40
0.0
 40
0.0
 40
0.0
 40
0.0
 40
1.0
 40
1.0
 40
1.0
 40
2.0
 40
2.0
 40
2.0
 40
3.0
 40
3.0
 40
3.0
 40
4.0
 40
4.0
 40
4.0
 40
5.0
 40
5.0
 40
5.0
 40
6.0
 40
6.0
 40
6.0
 40
7.0
 40
7.0
 40
7.0
 40
8.0
 40
8.0
 40
8.0
 40
9.0
 40
9.0
 40
9.0
 40
10.0
 40
10.0
 40
10.0
 40
11.0
 40
11.0
 40
11.0
 40
12.0
 40
12.0
 40
12.0
 40
13.0
 40
13.0
 40
13.0
 40
14.0
 40
14.0
 40
14.0
 40
15.0
 40
15.0
 40
15.0
 40
16.0
 40
16.0
 40
16.0
 40
17.0
 40
17.0
 40
17.0
 40
18.0
 40
18.0
 40
18.0
 40
19.0
 40
19.0
 40
19.0
 40
20.0
 40
20.0
 40
20.0
 40
21.0
 40
21.0
 40
21.0
 40
22.0
 40
22.0
 40
22.0
 40
23.0
 40
23.0
 40
23.0
 40
24.0
 40
24.0
 40
24.0
 40
25.0
 40
25.0
 40
25.0
 40
26.0
 40
26.0
 40
26.0
 40
27.0
 40
27.0
 40
27.0
 40
28.0
 40
28.0
 40
28.0
 40
29.0
 40
29.0
 40
29.0
 40
30.0
 40
30.0
 40
30.0
 40
31.0
 40
31.0
 40
31.0
 40
32.0
 40
32.0
 40
32.0
 40
33.0
 40
33.0
 40
33.0
 40
33.0
 10
1976.718878323425
 20
143.4575073651321
 30
0.0
 10
1976.718878323425
 20
143.4575073651321
 30
0.0
 10
1978.332996588864
 20
143.4575073651321
 30
0.0
 10
1978.332996588864
 20
143.4575073651321
 30
0.0
 10
1978.332996588864
 20
143.4575073651321
 30
0.0
 10
1977.517531365076
 20
140.810778921676
 30
0.0
 10
1977.517531365076
 20
140.810778921676
 30
0.0
 10
1978.225279598895
 20
141.920531723033
 30
0.0
 10
1978.860571791119
 20
142.4151520726926
 30
0.0
 10
1979.704602846502
 20
143.054312554611
 30
0.0
 10
1980.551163168223
 20
143.6843974337833
 30
0.0
 10
1981.556025806694
 20
143.812794895584
 30
0.0
 10
1982.253508194784
 20
143.812794895584
 30
0.0
 10
1983.117029479015
 20
143.812794895584
 30
0.0
 10
1983.950645908296
 20
143.6422925882567
 30
0.0
 10
1984.388804106443
 20
142.6958262461422
 30
0.0
 10
1984.72460140805
 20
141.9536353560001
 30
0.0
 10
1984.740223347202
 20
141.8660781065566
 30
0.0
 10
1984.644260006691
 20
140.4010377747479
 30
0.0
 10
1985.521915426345
 20
141.9030500292188
 30
0.0
 10
1986.170151511008
 20
142.5500214807137
 30
0.0
 10
1987.272167732975
 20
143.1716258786317
 30
0.0
 10
1988.42863757142
 20
143.812794895584
 30
0.0
 10
1989.102761440966
 20
143.8607765658398
 30
0.0
 10
1989.885941323838
 20
143.7453229964802
 30
0.0
 10
1991.039733115569
 20
143.5748950793392
 30
0.0
 10
1991.776195961356
 20
143.1632197875635
 30
0.0
 10
1992.161239566385
 20
141.9121256319649
 30
0.0
 10
1992.54762219477
 20
140.6648997660613
 30
0.0
 10
1992.338883331611
 20
139.9959088193793
 30
0.0
 10
1991.861744675765
 20
138.0103603530286
 30
0.0
 10
1991.64393020986
 20
137.1060732466272
 30
0.0
 10
1991.328813380087
 20
136.0111240923725
 30
0.0
 10
1990.916542966819
 20
134.7082543670094
 30
0.0
 10
1990.916542966819
 20
134.7082543670094
 30
0.0
 10
1987.272167732975
 20
123.105319426746
 30
0.0
 10
1987.272167732975
 20
123.105319426746
 30
0.0
 10
1987.272167732975
 20
123.105319426746
 30
0.0
 10
1985.376705782409
 20
123.105319426746
 30
0.0
 10
1985.376705782409
 20
123.105319426746
 30
0.0
 10
1985.376705782409
 20
123.105319426746
 30
0.0
 10
1988.567449659321
 20
133.2490164697431
 30
0.0
 10
1988.567449659321
 20
133.2490164697431
 30
0.0
 10
1989.233836949479
 20
135.3713684889626
 30
0.0
 10
1989.684939040069
 20
136.9212880235028
 30
0.0
 10
1989.918375445127
 20
137.893047029008
 30
0.0
 10
1990.211323999339
 20
139.1052351170969
 30
0.0
 10
1990.327967811683
 20
139.505231149601
 30
0.0
 10
1990.189304504152
 20
140.3874987608153
 30
0.0
 10
1990.062246065708
 20
141.2087664191461
 30
0.0
 10
1989.647297605728
 20
141.7435574694851
 30
0.0
 10
1988.936871325198
 20
141.7435574694851
 30
0.0
 10
1988.17972800758
 20
141.7435574694851
 30
0.0
 10
1987.566455310545
 20
141.659273388245
 30
0.0
 10
1986.708290119737
 20
140.7971655175569
 30
0.0
 10
1985.84997614856
 20
139.9285113104618
 30
0.0
 10
1985.140740111011
 20
138.9088450248874
 30
0.0
 10
1984.584599077163
 20
137.7361581257997
 30
0.0
 10
1984.029648286297
 20
136.5563297688134
 30
0.0
 10
1983.466960916042
 20
135.0608638507494
 30
0.0
 10
1982.896536966398
 20
133.2490164697431
 30
0.0
 10
1982.896536966398
 20
133.2490164697431
 30
0.0
 10
1979.704602846502
 20
123.105319426746
 30
0.0
 10
1979.704602846502
 20
123.105319426746
 30
0.0
 10
1979.704602846502
 20
123.105319426746
 30
0.0
 10
1977.921916418581
 20
123.105319426746
 30
0.0
 10
1977.921916418581
 20
123.105319426746
 30
0.0
 10
1977.921916418581
 20
123.105319426746
 30
0.0
 10
1981.571498965475
 20
134.7030470539584
 30
0.0
 10
1981.571498965475
 20
134.7030470539584
 30
0.0
 10
1981.956542570504
 20
135.9373290274211
 30
0.0
 10
1982.245771615394
 20
136.9433819088763
 30
0.0
 10
1982.436359273062
 20
137.729686179579
 30
0.0
 10
1982.760402925207
 20
139.0832156219098
 30
0.0
 10
1982.851158952669
 20
139.9985124759046
 30
0.0
 10
1982.606117678524
 20
140.810778921676
 30
0.0
 10
1982.364944694076
 20
141.6204417109219
 30
0.0
 10
1981.941069411725
 20
141.8272464292334
 30
0.0
 10
1981.233172397533
 20
141.8272464292334
 30
0.0
 10
1980.639389929345
 20
141.8272464292334
 30
0.0
 10
1980.059890376953
 20
141.5724600406662
 30
0.0
 10
1979.398710399847
 20
141.0654909200569
 30
0.0
 10
1978.566284213549
 20
140.4276694614944
 30
0.0
 10
1978.233164958657
 20
139.9038881587491
 30
0.0
 10
1977.824762835085
 20
139.2815398589669
 30
0.0
 10
1977.273680333915
 20
138.458263665602
 30
0.0
 10
1977.015695167332
 20
137.9040567766015
 30
0.0
 10
1976.550310160944
 20
136.687926008631
 30
0.0
 10
1976.084776374184
 20
135.4646537827621
 30
0.0
 10
1975.644088909695
 20
134.0411231749885
 30
0.0
 10
1975.336708659311
 20
133.0564946672286
 30
0.0
 10
1975.336708659311
 20
133.0564946672286
 30
0.0
 10
1972.205774492298
 20
123.105319426746
 30
0.0
 10
1972.205774492298
 20
123.105319426746
 30
0.0
 10
1972.205774492298
 20
123.105319426746
 30
0.0
 10
1970.338878373326
 20
123.105319426746
 30
0.0
 10
1970.338878373326
 20
123.105319426746
 30
0.0
 10
1970.338878373326
 20
123.105319426746
 30
0.0
 10
1976.718878323425
 20
143.4575073651321
 30
0.0
 10
1976.718878323425
 20
143.4575073651321
 30
0.0
  0
SPLINE
  5
36AA
102
{ACAD_REACTORS
330
369B
330
36AC
102
}
330
A
100
AcDbEntity
  8
TEMPLATE
100
AcDbSpline
210
0.0
220
0.0
230
1.0
 70
    11
 71
     3
 72
    32
 73
    28
 74
     0
 42
0.000000001
 43
0.0000000001
 40
0.0
 40
0.0
 40
0.0
 40
0.0
 40
1.0
 40
1.0
 40
1.0
 40
2.0
 40
2.0
 40
2.0
 40
3.0
 40
3.0
 40
3.0
 40
4.0
 40
4.0
 40
4.0
 40
5.0
 40
5.0
 40
5.0
 40
6.0
 40
6.0
 40
6.0
 40
7.0
 40
7.0
 40
7.0
 40
8.0
 40
8.0
 40
8.0
 40
9.0
 40
9.0
 40
9.0
 40
9.0
 10
1951.394524713372
 20
142.3847264864374
 30
0.0
 10
1950.311998720255
 20
140.9844800070205
 30
0.0
 10
1949.478382290974
 20
139.7243102486757
 30
0.0
 10
1948.128795528524
 20
135.7635535518901
 30
0.0
 10
1946.888041608841
 20
132.1406026917421
 30
0.0
 10
1946.098464169936
 20
129.5048096056932
 30
0.0
 10
1945.979216701069
 20
126.2947242803041
 30
0.0
 10
1945.888460673606
 20
123.9059066132458
 30
0.0
 10
1947.343086379314
 20
123.105319426746
 30
0.0
 10
1949.475853024634
 20
123.105319426746
 30
0.0
 10
1950.395018168326
 20
123.105319426746
 30
0.0
 10
1952.714504181618
 20
123.1637901132903
 30
0.0
 10
1954.3662638814
 20
125.2056519507783
 30
0.0
 10
1955.522584939468
 20
126.6401923061455
 30
0.0
 10
1956.588298750451
 20
128.1272521331414
 30
0.0
 10
1958.017036671275
 20
133.0053142189559
 30
0.0
 10
1959.205940631009
 20
137.0833842397621
 30
0.0
 10
1960.029142434186
 20
139.7191029356247
 30
0.0
 10
1959.968291261677
 20
141.2197761667398
 30
0.0
 10
1959.968291261677
 20
141.2197761667398
 30
0.0
 10
1959.968291261677
 20
141.2197761667398
 30
0.0
 10
1959.968291261677
 20
141.2197761667398
 30
0.0
 10
1959.580569609936
 20
143.7233035012931
 30
0.0
 10
1957.762919794387
 20
144.2522921170894
 30
0.0
 10
1956.724432791643
 20
144.2522921170894
 30
0.0
 10
1955.70156772805
 20
144.2522921170894
 30
0.0
 10
1952.960735698745
 20
144.4292663706373
 30
0.0
 10
1951.394524713372
 20
142.3847264864374
 30
0.0
  0
SPLINE
  5
36AB
102
{ACAD_REACTORS
330
369B
330
36AC
102
}
330
A
100
AcDbEntity
  8
TEMPLATE
100
AcDbSpline
210
0.0
220
0.0
230
1.0
 70
    11
 71
     3
 72
    29
 73
    25
 74
     0
 42
0.000000001
 43
0.0000000001
 40
0.0
 40
0.0
 40
0.0
 40
0.0
 40
1.0
 40
1.0
 40
1.0
 40
2.0
 40
2.0
 40
2.0
 40
3.0
 40
3.0
 40
3.0
 40
4.0
 40
4.0
 40
4.0
 40
5.0
 40
5.0
 40
5.0
 40
6.0
 40
6.0
 40
6.0
 40
7.0
 40
7.0
 40
7.0
 40
8.0
 40
8.0
 40
8.0
 40
8.0
 10
1947.916188375669
 20
126.8949043045264
 30
0.0
 10
1947.908303015907
 20
128.3120373562658
 30
0.0
 10
1948.355685597176
 20
130.8298476066162
 30
0.0
 10
1949.501740809517
 20
134.1986815898748
 30
0.0
 10
1951.062744481836
 20
138.7603622127471
 30
0.0
 10
1951.998870588036
 20
140.4276694614944
 30
0.0
 10
1952.818055321147
 20
141.2392663955878
 30
0.0
 10
1954.014844640642
 20
142.4210288974216
 30
0.0
 10
1955.623755593032
 20
142.4799459250845
 30
0.0
 10
1956.098364982539
 20
142.4210288974216
 30
0.0
 10
1956.77382787544
 20
142.3399435941987
 30
0.0
 10
1957.727956406759
 20
141.8978427161679
 30
0.0
 10
1957.784939289575
 20
140.4095182560024
 30
0.0
 10
1957.830466083678
 20
139.1357350935386
 30
0.0
 10
1957.463424903768
 20
136.7501905946838
 30
0.0
 10
1956.178706383896
 20
133.0053142189559
 30
0.0
 10
1954.698044112936
 20
128.6536370924121
 30
0.0
 10
1953.808635043822
 20
126.9429603649685
 30
0.0
 10
1953.095679496951
 20
126.1974219164366
 30
0.0
 10
1951.752490290537
 20
124.7997790935452
 30
0.0
 10
1950.311998720255
 20
124.9339789898883
 30
0.0
 10
1950.0993915674
 20
124.9339789898883
 30
0.0
 10
1949.823255195324
 20
124.9339789898883
 30
0.0
 10
1947.920056665365
 20
125.2336226608809
 30
0.0
 10
1947.916188375669
 20
126.8949043045264
 30
0.0
  0
ARC
  5
3900
102
{ACAD_REACTORS
330
39A4
330
39A7
102
}
330
A
100
AcDbEntity
  8
HIDDEN
  6
HIDDEN
 48
0.5
100
AcDbCircle
 10
501.343228559864
 20
1047.1777074362
 30
0.0
 40
17.5
100
AcDbArc
 50
180.0
 51
0.0
  0
CIRCLE
  5
3901
102
{ACAD_REACTORS
330
39A4
102
}
330
A
100
AcDbEntity
  8
HIDDEN
  6
HIDDEN
 48
0.5
100
AcDbCircle
 10
501.343228559864
 20
947.1777074361995
 30
0.0
 40
16.0
  0
LINE
  5
3902
330
A
100
AcDbEntity
  8
MODEL
100
AcDbLine
 10
904.2078275901231
 20
751.1777074362004
 30
0.0
 11
904.2078275901229
 21
829.0866275136291
 31
0.0
  0
LINE
  5
3903
330
A
100
AcDbEntity
  8
MODEL
100
AcDbLine
 10
904.2078275901231
 20
751.1777074362004
 30
0.0
 11
904.2078275901229
 21
829.0866275136291
 31
0.0
  0
LINE
  5
3904
330
A
100
AcDbEntity
  8
MODEL
100
AcDbLine
 10
904.2078275901226
 20
792.3300671410864
 30
0.0
 11
904.2078275901222
 21
1047.1777074362
 31
0.0
  0
LINE
  5
3905
330
A
100
AcDbEntity
  8
MODEL
100
AcDbLine
 10
434.3416684743434
 20
750.1772505216605
 30
0.0
 11
434.3416684743431
 21
829.0866275136291
 31
0.0
  0
LINE
  5
3906
330
A
100
AcDbEntity
  8
MODEL
100
AcDbLine
 10
434.3416684743434
 20
750.1772505216605
 30
0.0
 11
434.3416684743431
 21
829.0866275136291
 31
0.0
  0
LINE
  5
3907
330
A
100
AcDbEntity
  8
MODEL
100
AcDbLine
 10
434.3416684743429
 20
792.3300671410864
 30
0.0
 11
434.3416684743431
 21
1265.26878735877
 31
0.0
  0
LINE
  5
3908
330
A
100
AcDbEntity
  8
MODEL
100
AcDbLine
 10
900.207827590124
 20
747.1777074362004
 30
0.0
 11
437.3416684743361
 21
747.1777074361991
 31
0.0
  0
ARC
  5
3909
330
A
100
AcDbEntity
  8
MODEL
100
AcDbCircle
 10
900.2078275901231
 20
751.1777074362004
 30
0.0
 40
4.0
100
AcDbArc
 50
270.000000000013
 51
0.0
  0
LINE
  5
390A
330
A
100
AcDbEntity
  8
MODEL
100
AcDbLine
 10
1709.470786995696
 20
753.166518872303
 30
0.0
 11
1709.470786995696
 21
752.1671279235063
 31
0.0
  0
LINE
  5
390B
330
A
100
AcDbEntity
  8
MODEL
100
AcDbLine
 10
1706.523144215009
 20
749.1675848380303
 30
0.0
 11
1592.523144215009
 21
747.1777074362078
 31
0.0
  0
LINE
  5
390C
330
A
100
AcDbEntity
  8
MODEL
100
AcDbLine
 10
1589.470786995696
 20
750.1772505216693
 30
0.0
 11
1589.470786995696
 21
751.176641470495
 31
0.0
  0
LINE
  5
390F
330
A
100
AcDbEntity
  8
MODEL
100
AcDbLine
 10
1589.470786995695
 20
995.2064444741644
 30
0.0
 11
1589.470786995695
 21
1047.126887562634
 31
0.0
  0
LINE
  5
3910
330
A
100
AcDbEntity
  8
MODEL
100
AcDbLine
 10
1743.470786995695
 20
1015.87588108467
 30
0.0
 11
1743.470786995695
 21
1047.126887562634
 31
0.0
  0
LINE
  5
3911
330
A
100
AcDbEntity
  8
MODEL
100
AcDbLine
 10
1740.732254223938
 20
1012.887296990397
 30
0.0
 11
1740.732254223938
 21
1047.126887562634
 31
0.0
  0
LINE
  5
3912
330
A
100
AcDbEntity
  8
MODEL
100
AcDbLine
 10
1713.357149417959
 20
1010.49228565704
 30
0.0
 11
1740.732254223938
 21
1012.887296990397
 31
0.0
  0
LINE
  5
3913
330
A
100
AcDbEntity
  8
MODEL
100
AcDbLine
 10
1709.470786995695
 20
1047.126887562634
 30
0.0
 11
1709.470786995695
 21
995.2064444741644
 31
0.0
  0
LINE
  5
3914
330
A
100
AcDbEntity
  8
MODEL
100
AcDbLine
 10
1709.470786995695
 20
995.2064444741644
 30
0.0
 11
1709.470786995696
 21
752.1671279235063
 31
0.0
  0
ARC
  5
3916
330
A
100
AcDbEntity
  8
MODEL
100
AcDbCircle
 10
1706.470786995696
 20
752.1671279235063
 30
0.0
 40
3.0
100
AcDbArc
 50
270.9999999999931
 51
0.0
  0
ARC
  5
3917
330
A
100
AcDbEntity
  8
MODEL
100
AcDbCircle
 10
1592.470786995696
 20
750.1772505216693
 30
0.0
 40
3.0
100
AcDbArc
 50
180.0
 51
270.9999999999931
  0
ARC
  5
3918
330
A
100
AcDbEntity
  8
MODEL
100
AcDbCircle
 10
1740.470786995695
 20
1015.87588108467
 30
0.0
 40
3.0
100
AcDbArc
 50
274.999999999991
 51
0.0
  0
ELLIPSE
  5
3919
330
A
100
AcDbEntity
  8
MODEL
100
AcDbEllipse
 10
437.3416684743361
 20
750.1772505216605
 30
0.0
 11
-3.0
 21
-8.476042572204118E-15
 31
0.0
210
0.0
220
0.0
230
1.0
 40
0.999847695156391
 41
0.0
 42
1.570796326794894
  0
SPLINE
  5
391A
330
A
100
AcDbEntity
  8
MODEL
100
AcDbSpline
210
0.0
220
0.0
230
1.0
 70
     8
 71
     3
 72
    29
 73
    25
 74
     0
 42
0.000000001
 43
0.0000000001
 40
0.0
 40
0.0
 40
0.0
 40
0.0
 40
0.0625
 40
0.125
 40
0.1875
 40
0.21875
 40
0.25
 40
0.28125
 40
0.3125
 40
0.34375
 40
0.375
 40
0.40625
 40
0.4375
 40
0.453125
 40
0.46875
 40
0.484375
 40
0.5
 40
0.53125
 40
0.5625
 40
0.59375
 40
0.625
 40
0.65625
 40
0.6875
 40
0.7485692490388592
 40
0.7485692490388592
 40
0.7485692490388592
 40
0.7485692490388592
 10
846.0551260922084
 20
750.2964049208641
 30
0.0
 10
848.1530915349513
 20
750.3222495465271
 30
0.0
 10
852.3487623801129
 20
750.3933503950649
 30
0.0
 10
858.6416629906171
 20
750.5302597892115
 30
0.0
 10
863.8851205701367
 20
750.6699792257242
 30
0.0
 10
868.078988847833
 20
750.8137022005068
 30
0.0
 10
871.2232547029134
 20
750.9493855098664
 30
0.0
 10
874.3655930611794
 20
751.1258868894475
 30
0.0
 10
877.5037631722817
 20
751.3674164542136
 30
0.0
 10
880.6327670488836
 20
751.7106057153397
 30
0.0
 10
883.7410819383012
 20
752.2138979247799
 30
0.0
 10
886.8000973202807
 20
752.9708987274176
 30
0.0
 10
889.24894504231
 20
753.9352781295862
 30
0.0
 10
891.0662973582666
 20
754.9906990391579
 30
0.0
 10
892.3284417146142
 20
755.9353685879584
 30
0.0
 10
893.4630161986579
 20
757.0302437868637
 30
0.0
 10
894.7846187243349
 20
758.6651045654404
 30
0.0
 10
896.0729626638649
 20
760.9635254155552
 30
0.0
 10
897.1625268427897
 20
763.9227435967447
 30
0.0
 10
897.945914710218
 20
766.9734904163603
 30
0.0
 10
898.5259702741978
 20
770.0678177237102
 30
0.0
 10
898.9688482204083
 20
773.1842153261501
 30
0.0
 10
899.4274092618846
 20
777.3073505981193
 30
0.0
 10
899.67378336707
 20
780.3970903183042
 30
0.0
 10
899.8140767224168
 20
829.086627513629
 30
0.0
  0
SPLINE
  5
391C
330
A
100
AcDbEntity
  8
MODEL
100
AcDbSpline
210
0.0
220
0.0
230
1.0
 70
     8
 71
     3
 72
    12
 73
     8
 74
     0
 42
0.000000001
 43
0.0000000001
 40
0.0
 40
0.0
 40
0.0
 40
0.0
 40
0.3302631184266158
 40
0.3302631184266158
 40
0.665131559213308
 40
0.665131559213308
 40
1.0
 40
1.0
 40
1.0
 40
1.0
 10
1709.396357820264
 20
1009.02679282723
 30
0.0
 10
1709.778877199864
 20
1009.300738041121
 30
0.0
 10
1710.185616936989
 20
1009.540851647463
 30
0.0
 10
1711.040865324499
 20
1009.948784948814
 30
0.0
 10
1711.489862649829
 20
1010.115542857754
 30
0.0
 10
1712.41038083006
 20
1010.366505269812
 30
0.0
 10
1712.881885994782
 20
1010.450705495335
 30
0.0
 10
1713.357128256382
 20
1010.492283805659
 30
0.0
  0
LINE
  5
391D
330
A
100
AcDbEntity
  8
MODEL
100
AcDbLine
 10
559.3569384753309
 20
770.1766201644851
 30
0.0
 11
559.356047210696
 21
829.0866275136291
 31
0.0
  0
LINE
  5
391E
330
A
100
AcDbEntity
  8
MODEL
100
AcDbLine
 10
559.3569384753312
 20
770.1766201644888
 30
0.0
 11
559.3559626913379
 21
829.0866275136291
 31
0.0
  0
LINE
  5
391F
330
A
100
AcDbEntity
  8
MODEL
100
AcDbLine
 10
559.3532587307968
 20
792.3300671410864
 30
0.0
 11
559.3490374404037
 21
1047.1777074362
 31
0.0
  0
ARC
  5
3920
330
A
100
AcDbEntity
  8
MODEL
100
AcDbCircle
 10
579.3569384653974
 20
770.177250521661
 30
0.0
 40
20.0
100
AcDbArc
 50
180.001805840278
 51
270.0
  0
LINE
  5
3921
330
A
100
AcDbEntity
  8
MODEL
100
AcDbLine
 10
846.0551260922084
 20
750.2964049208641
 30
0.0
 11
579.1113923690291
 21
750.178757900601
 31
0.0
  0
LINE
  5
3922
330
A
100
AcDbEntity
  8
MODEL
100
AcDbLine
 10
899.8140767224168
 20
829.086627513629
 30
0.0
 11
900.842084920929
 21
1047.1777074362
 31
0.0
  0
ELLIPSE
  5
3923
330
A
100
AcDbEntity
  8
MODEL
100
AcDbEllipse
 10
562.4103129166699
 20
1047.177061888088
 30
0.0
 11
3.390417028881647E-14
 21
-12.0
 31
0.0
210
0.0
220
0.0
230
1.0
 40
0.0874886635259221
 41
4.712335184708659
 42
7.854035429650514
  0
MTEXT
  5
3939
330
A
100
AcDbEntity
  8
notes
 62
     7
390
1D
100
AcDbMText
 10
1144.083025760028
 20
652.9173134493547
 30
0.0
 40
24.4326171875
 41
842.8831565639147
 46
0.0
 71
     1
 72
     1
  1
＝φ30もしくはφ35の水栓取付用穴あけ加工を承ります。\P   必要な場合、ご注文の際にご指示ください。
  7
ＭＳ ゴシック
 11
0.0
 21
1.0
 31
0.0
 73
     1
 44
1.043768984567712
  0
CIRCLE
  5
393A
330
A
100
AcDbEntity
  8
notes
  6
STYLE_23
 62
     7
370
    15
390
1D
100
AcDbCircle
 10
1156.627369861926
 20
628.4548442708099
 30
0.0
 40
17.50000000000011
  0
CIRCLE
  5
393B
330
A
100
AcDbEntity
  8
ADF70-0001
  6
STYLE_23
 62
     7
370
    15
390
1D
100
AcDbCircle
 10
1634.470786995696
 20
907.1268875626334
 30
0.0
 40
10.0
  0
LINE
  5
393C
102
{ACAD_REACTORS
330
3999
102
}
330
A
100
AcDbEntity
  8
0
  6
STYLE_23
 62
     7
370
    15
390
1D
100
AcDbLine
 10
1619.501866926653
 20
906.9030427424565
 30
0.0
 11
1649.501866926652
 21
906.9030427424565
 31
0.0
  0
MTEXT
  5
393D
330
A
100
AcDbEntity
  8
notes
 62
     7
390
1D
100
AcDbMText
 10
1505.062400064807
 20
1268.818889820507
 30
0.0
 40
24.4326171875
 41
0.0
 46
27.0478879530996
 71
     1
 72
     1
  1
{壁取付ボルト穴(2ヶ所）}
  7
ＭＳ ゴシック
 11
0.0
 21
1.0
 31
0.0
 73
     1
 44
0.7828267384257843
1001
ACAD
1000
ACAD_MTEXT_DEFINED_HEIGHT_BEGIN
1070
    46
1040
27.0478879530996
1000
ACAD_MTEXT_DEFINED_HEIGHT_END
  0
LINE
  5
393E
330
A
100
AcDbEntity
  8
notes
  6
Continuous
 62
     7
370
     5
390
1D
100
AcDbLine
 10
1634.501866926652
 20
1187.350732382811
 30
0.0
 11
1537.165825172847
 21
1284.686774136616
 31
0.0
  0
LINE
  5
393F
330
A
100
AcDbEntity
  8
MODEL
100
AcDbLine
 10
1662.509035902465
 20
2461.872135617952
 30
0.0
 11
1592.695806475648
 21
2461.954378977064
 31
0.0
  0
LINE
  5
3940
330
A
100
AcDbEntity
  8
MODEL
100
AcDbLine
 10
1589.692274414772
 20
2458.957915201337
 30
0.0
 11
1589.552870543569
 21
2340.623322009489
 31
0.0
  0
LINE
  5
3941
330
A
100
AcDbEntity
  8
MODEL
100
AcDbLine
 10
1713.226817174473
 20
2215.171952835356
 30
0.0
 11
1740.669444980668
 21
2217.540298827947
 31
0.0
  0
LINE
  5
3942
330
A
100
AcDbEntity
  8
MODEL
100
AcDbLine
 10
1743.411496546246
 20
2220.525654726698
 30
0.0
 11
1743.422394671519
 21
2229.776654785382
 31
0.0
  0
LINE
  5
3943
330
A
100
AcDbEntity
  8
MODEL
100
AcDbLine
 10
1589.145895973308
 20
1995.15823703133
 30
0.0
 11
1589.145850430434
 21
1995.119577433997
 31
0.0
  0
LINE
  5
3944
102
{ACAD_REACTORS
330
3968
102
}
330
A
100
AcDbEntity
  8
MODEL
100
AcDbLine
 10
1743.474228762558
 20
2273.776624253868
 30
0.0
 11
1743.422394671519
 21
2229.776654785382
 31
0.0
  0
LINE
  5
3945
330
A
100
AcDbEntity
  8
MODEL
100
AcDbLine
 10
1709.558730730961
 20
2345.527127180787
 30
0.0
 11
1709.692191146985
 21
2458.8165494985
 31
0.0
  0
LINE
  5
3946
330
A
100
AcDbEntity
  8
MODEL
100
AcDbLine
 10
1709.152805392072
 20
2000.952694423745
 30
0.0
 11
1709.40355967733
 21
2213.808378281185
 31
0.0
  0
LINE
  5
3947
330
A
100
AcDbEntity
  8
MODEL
100
AcDbLine
 10
1709.558735155001
 20
2345.530882579035
 30
0.0
 11
1709.692191146985
 21
2458.8165494985
 31
0.0
  0
LINE
  5
3948
102
{ACAD_REACTORS
330
3968
102
}
330
A
100
AcDbEntity
  8
MODEL
100
AcDbLine
 10
1706.69572737125
 20
2461.820081559369
 30
0.0
 11
1701.695730840741
 21
2461.825971796985
 31
0.0
  0
ARC
  5
3949
102
{ACAD_REACTORS
330
3962
102
}
330
A
100
AcDbEntity
  8
MODEL
100
AcDbCircle
 10
1592.692272333077
 20
2458.954381058767
 30
0.0
 40
3.000000000000001
100
AcDbArc
 50
89.93250283319922
 51
179.9325028332339
  0
ARC
  5
394A
330
A
100
AcDbEntity
  8
MODEL
100
AcDbCircle
 10
1740.411498627955
 20
2220.529188869269
 30
0.0
 40
3.000000000000001
100
AcDbArc
 50
274.9325028332887
 51
359.9325028332165
  0
ARC
  5
394B
330
A
100
AcDbEntity
  8
MODEL
100
AcDbCircle
 10
1706.69219322868
 20
2458.820083641071
 30
0.0
 40
3.000000000000001
100
AcDbArc
 50
359.9325028332165
 51
89.93250283323394
  0
SPLINE
  5
394C
330
A
100
AcDbEntity
  8
MODEL
100
AcDbSpline
210
0.0
220
0.0
230
1.0
 70
     8
 71
     3
 72
    12
 73
     8
 74
     0
 42
0.000000001
 43
0.0000000001
 40
0.6393546353257522
 40
0.6393546353257522
 40
0.6393546353257522
 40
0.6393546353257522
 40
0.75
 40
0.75
 40
0.875
 40
0.875
 40
1.0
 40
1.0
 40
1.0
 40
1.0
 10
1709.403559677336
 20
2213.808378281189
 30
0.0
 10
1709.750176668821
 20
2214.045029339133
 30
0.0
 10
1710.115434795685
 20
2214.254375177426
 30
0.0
 10
1710.923497764964
 20
2214.636475618201
 30
0.0
 10
1711.370201140049
 20
2214.80095273005
 30
0.0
 10
1712.285671616378
 20
2215.048309201983
 30
0.0
 10
1712.754423490255
 20
2215.131184447689
 30
0.0
 10
1713.226817174473
 20
2215.171952835356
 30
0.0
  0
LINE
  5
394D
330
A
100
AcDbEntity
  8
MODEL
100
AcDbLine
 10
1662.509035902465
 20
2461.872135617959
 30
0.0
 11
1701.695730840741
 21
2461.825971796993
 31
0.0
  0
LINE
  5
394E
102
{ACAD_REACTORS
330
395F
330
3965
102
}
330
A
100
AcDbEntity
  8
MODEL
100
AcDbLine
 10
1589.552870543569
 20
2340.623322009489
 30
0.0
 11
1589.145818034726
 21
1995.092077961453
 31
0.0
  0
LINE
  5
394F
330
A
100
AcDbEntity
  8
HIDDEN
 48
0.5
100
AcDbLine
 10
1694.456769515032
 20
2291.210125262387
 30
0.0
 11
1694.659533569166
 21
2211.73658238456
 31
0.0
  0
LINE
  5
3950
330
A
100
AcDbEntity
  8
HIDDEN
 48
0.5
100
AcDbLine
 10
1706.977099895176
 20
2274.100696469905
 30
0.0
 11
1706.924603560859
 21
2229.538574113725
 31
0.0
  0
LINE
  5
3951
330
A
100
AcDbEntity
  8
MODEL
100
AcDbLine
 10
1706.306285934398
 20
1997.960157078164
 30
0.0
 11
1592.29932680937
 21
1992.119971803275
 31
0.0
  0
ARC
  5
3952
330
A
100
AcDbEntity
  8
MODEL
100
AcDbCircle
 10
1592.14584834874
 20
1995.116043291426
 30
0.0
 40
3.000000000000001
100
AcDbArc
 50
179.9325028332166
 51
272.9325028332203
  0
ARC
  5
3953
102
{ACAD_REACTORS
330
395F
102
}
330
A
100
AcDbEntity
  8
MODEL
100
AcDbCircle
 10
1706.152807473767
 20
2000.956228566316
 30
0.0
 40
3.000000000000001
100
AcDbArc
 50
272.9325028332203
 51
359.9325028332165
  0
SOLID
  5
3954
330
A
100
AcDbEntity
  8
MODEL
 48
0.5
100
AcDbTrace
 10
1589.55287053218
 20
2340.623312341072
 30
0.0
 11
1589.552868761267
 21
2340.623322011589
 31
0.0
 12
1589.692274414772
 22
2458.957915201337
 32
0.0
 13
1589.692274414772
 23
2458.957915201337
 33
0.0
1001
GradientColor1ACI
1070
     5
1001
GradientColor2ACI
1070
     2
1001
ACAD
1010
0.0
1020
0.0
1030
0.0
  0
SOLID
  5
3955
330
A
100
AcDbEntity
  8
MODEL
 48
0.5
100
AcDbTrace
 10
1589.55287053218
 20
2340.623312341072
 30
0.0
 11
1589.692274414772
 21
2458.957915201337
 31
0.0
 12
1589.583211046283
 22
2340.457630309518
 32
0.0
 13
1589.583211046283
 23
2340.457630309518
 33
0.0
1001
GradientColor1ACI
1070
     5
1001
GradientColor2ACI
1070
     2
1001
ACAD
1010
0.0
1020
0.0
1030
0.0
  0
SOLID
  5
3956
330
A
100
AcDbEntity
  8
MODEL
 48
0.5
100
AcDbTrace
 10
1589.583211046283
 20
2340.457630309518
 30
0.0
 11
1589.692274414772
 21
2458.957915201337
 31
0.0
 12
1589.723313028869
 22
2459.384823447426
 32
0.0
 13
1589.723313028869
 23
2459.384823447426
 33
0.0
1001
GradientColor1ACI
1070
     5
1001
GradientColor2ACI
1070
     2
1001
ACAD
1010
0.0
1020
0.0
1030
0.0
  0
SOLID
  5
3957
330
A
100
AcDbEntity
  8
MODEL
  6
Continuous
 48
0.5
100
AcDbTrace
 10
1589.172959634353
 20
1994.713634678355
 30
0.0
 11
1589.14615088477
 21
1995.158647571151
 31
0.0
 12
1589.173718208109
 22
1995.357558810329
 32
0.0
 13
1589.173718208109
 23
1995.357558810329
 33
0.0
1001
GradientColor1ACI
1070
     5
1001
GradientColor2ACI
1070
     2
1001
ACAD
1010
0.0
1020
0.0
1030
0.0
  0
SPLINE
  5
3958
330
A
100
AcDbEntity
  8
MODEL
100
AcDbSpline
210
0.0
220
0.0
230
1.0
 70
  1064
 71
     3
 72
    58
 73
    54
 74
    52
 42
0.000000001
 43
0.0000000001
 44
0.0
 40
0.0
 40
0.0
 40
0.0
 40
0.0
 40
2.181573269523733
 40
4.774863402890581
 40
8.118776497864653
 40
11.58365721046622
 40
13.74254796859322
 40
16.529196897866
 40
18.4237808036319
 40
21.20544413753593
 40
23.85496459340507
 40
27.2666550051142
 40
30.65300899261263
 40
34.90119732638345
 40
38.72284017638962
 40
41.63285502458681
 40
44.71714675299538
 40
46.6897426167231
 40
49.51118396705909
 40
52.84771193670258
 40
57.26302001683103
 40
60.32261489449256
 40
62.58208794505106
 40
63.6046862059594
 40
64.52638590047513
 40
65.47876748352586
 40
66.25703850728134
 40
66.69298633206901
 40
67.00030225984956
 40
67.56468084143803
 40
67.78265475383087
 40
68.21745033220083
 40
68.58028931301335
 40
68.87121874852559
 40
69.35719106627666
 40
69.66803657332352
 40
70.06521938640142
 40
70.59182187430808
 40
70.9521650644556
 40
71.39559329784345
 40
71.75345925573255
 40
72.28373843426913
 40
72.72716666765743
 40
73.17059490104376
 40
73.67260682595264
 40
73.93965906185569
 40
74.28175489097545
 40
74.85700241525265
 40
75.66892483654323
 40
77.8964732859228
 40
79.98383237225097
 40
83.13511486935128
 40
83.53319378272876
 40
83.53319378272876
 40
83.53319378272876
 40
83.53319378272876
 10
1709.640191378404
 20
2345.465030719389
 30
0.0
 10
1710.201481995885
 20
2345.002571749144
 30
0.0
 10
1711.429992660752
 20
2343.990376356394
 30
0.0
 10
1713.43760339153
 20
2342.174276193107
 30
0.0
 10
1715.684148415639
 20
2339.987748684372
 30
0.0
 10
1717.720240236108
 20
2337.797253521183
 30
0.0
 10
1719.547029417821
 20
2335.670219581994
 30
0.0
 10
1720.968894322606
 20
2333.886953169648
 30
0.0
 10
1722.455818228178
 20
2331.892298656801
 30
0.0
 10
1723.848902365907
 20
2329.886032784641
 30
0.0
 10
1725.444927206706
 20
2327.406910450167
 30
0.0
 10
1727.010144157984
 20
2324.672650376872
 30
0.0
 10
1728.712434958724
 20
2321.406595626357
 30
0.0
 10
1730.278986329736
 20
2317.920530679306
 30
0.0
 10
1731.570577744257
 20
2314.494434198838
 30
0.0
 10
1732.599396526835
 20
2311.387390560494
 30
0.0
 10
1733.304942185681
 20
2308.826131046691
 30
0.0
 10
1733.92586906543
 20
2306.27422719272
 30
0.0
 10
1734.465310767967
 20
2303.617479076876
 30
0.0
 10
1735.063309881707
 20
2300.144070069897
 30
0.0
 10
1735.688419197866
 20
2296.594988166607
 30
0.0
 10
1736.24711197428
 20
2293.398435910441
 30
0.0
 10
1736.612543493633
 20
2291.316833469435
 30
0.0
 10
1736.853034502567
 20
2289.935589407342
 30
0.0
 10
1737.022787318067
 20
2288.987142406938
 30
0.0
 10
1737.163882761056
 20
2288.106877704197
 30
0.0
 10
1737.507387369383
 20
2287.458489433021
 30
0.0
 10
1737.827362135309
 20
2287.063174803339
 30
0.0
 10
1738.143273458647
 20
2286.762555526941
 30
0.0
 10
1738.437291025036
 20
2286.542745271006
 30
0.0
 10
1738.804988860611
 20
2286.370112021273
 30
0.0
 10
1739.118645500247
 20
2286.242407004696
 30
0.0
 10
1739.468595890987
 20
2286.140764700511
 30
0.0
 10
1739.846614703892
 20
2286.096331058561
 30
0.0
 10
1740.207852300392
 20
2286.067389701542
 30
0.0
 10
1740.604507284163
 20
2286.034122166995
 30
0.0
 10
1741.013293418473
 20
2285.985008352596
 30
0.0
 10
1741.431447210352
 20
2285.883394253596
 30
0.0
 10
1741.840597386051
 20
2285.708616252318
 30
0.0
 10
1742.17240897721
 20
2285.507725908459
 30
0.0
 10
1742.533566311494
 20
2285.246959261143
 30
0.0
 10
1742.826436581097
 20
2284.908681859379
 30
0.0
 10
1743.095152704548
 20
2284.51896041039
 30
0.0
 10
1743.290589678199
 20
2284.097504849183
 30
0.0
 10
1743.41686196567
 20
2283.711584967369
 30
0.0
 10
1743.474332873568
 20
2283.344812918051
 30
0.0
 10
1743.49080440685
 20
2282.949851542485
 30
0.0
 10
1743.481846519871
 20
2282.373510149246
 30
0.0
 10
1743.483982362431
 20
2281.168566696403
 30
0.0
 10
1743.495210166115
 20
2279.459539109028
 30
0.0
 10
1743.416454193614
 20
2276.97134478111
 30
0.0
 10
1743.477499349509
 20
2275.092436713043
 30
0.0
 10
1743.474558584314
 20
2273.909317125953
 30
0.0
 10
1743.474228762558
 20
2273.776624253868
 30
0.0
 11
1709.640191378404
 21
2345.465030719389
 31
0.0
 11
1711.314088808143
 21
2344.065984857019
 31
0.0
 11
1713.242543920465
 21
2342.332140978356
 31
0.0
 11
1715.635712119923
 21
2339.996653715312
 31
0.0
 11
1717.995751456495
 21
2337.459802777162
 31
0.0
 11
1719.401880096033
 21
2335.821629540109
 31
0.0
 11
1721.14001481567
 21
2333.643488141712
 31
0.0
 11
1722.272104831161
 21
2332.12433694028
 31
0.0
 11
1723.860247123434
 21
2329.840599879522
 31
0.0
 11
1725.290209268721
 21
2327.610091661847
 31
0.0
 11
1726.99453479565
 21
2324.654604229357
 31
0.0
 11
1728.553540939057
 21
2321.648461655648
 31
0.0
 11
1730.294576577495
 21
2317.773426297761
 31
0.0
 11
1731.649996706035
 21
2314.200221804851
 31
0.0
 11
1732.558172065826
 21
2311.435551131408
 31
0.0
 11
1733.385061436364
 21
2308.464169393088
 31
0.0
 11
1733.848848586415
 21
2306.546870271656
 31
0.0
 11
1734.418480663164
 21
2303.783529794892
 31
0.0
 11
1735.004108608409
 21
2300.4987986336
 31
0.0
 11
1735.765695851289
 21
2296.149668799492
 31
0.0
 11
1736.293438963417
 21
2293.13593224448
 31
0.0
 11
1736.683170737443
 21
2290.910324999139
 31
0.0
 11
1736.859556569636
 21
2289.903053813502
 31
0.0
 11
1737.018538619443
 21
2288.995168889787
 31
0.0
 11
1737.228358000395
 21
2288.066187454498
 31
0.0
 11
1737.587477293414
 21
2287.375724479532
 31
0.0
 11
1737.862414135626
 21
2287.037404750974
 31
0.0
 11
1738.084229127029
 21
2286.824704988265
 31
0.0
 11
1738.543899205937
 21
2286.497250255649
 31
0.0
 11
1738.739977954297
 21
2286.40203601866
 31
0.0
 11
1739.143864757136
 21
2286.241030908609
 31
0.0
 11
1739.493765690798
 21
2286.14500246168
 31
0.0
 11
1739.781971082633
 21
2286.105283592553
 31
0.0
 11
1740.266043896533
 21
2286.062358023677
 31
0.0
 11
1740.575674412075
 21
2286.034901274117
 31
0.0
 11
1740.96950888977
 21
2285.98343680887
 31
0.0
 11
1741.479931547597
 21
2285.853903451598
 31
0.0
 11
1741.811506446048
 21
2285.712817302728
 31
0.0
 11
1742.193311749727
 21
2285.487310521792
 31
0.0
 11
1742.479408497533
 21
2285.272329837286
 31
0.0
 11
1742.836781653075
 21
2284.880564046427
 31
0.0
 11
1743.084310330063
 21
2284.512653524378
 31
0.0
 11
1743.27473948063
 21
2284.112197113793
 31
0.0
 11
1743.424153317291
 21
2283.63293572565
 31
0.0
 11
1743.466024324892
 21
2283.369186383616
 31
0.0
 11
1743.485126887845
 21
2283.027624312552
 31
0.0
 11
1743.484449218909
 21
2282.452377187438
 31
0.0
 11
1743.483492735712
 21
2281.640455329539
 31
0.0
 11
1743.480868577777
 21
2279.412908425851
 31
0.0
 11
1743.445457488974
 21
2277.325849727571
 31
0.0
 11
1743.474697718436
 21
2274.174702891019
 31
0.0
 11
1743.474228762558
 21
2273.776624253868
 31
0.0
  0
LINE
  5
3959
330
A
100
AcDbEntity
  8
MODEL
100
AcDbLine
 10
1589.941339922747
 20
2410.95602839638
 30
0.0
 11
1598.313716302519
 21
2410.946165332275
 31
0.0
  0
LINE
  5
395A
330
A
100
AcDbEntity
  8
MODEL
100
AcDbLine
 10
1589.598027570079
 20
2378.956410630168
 30
0.0
 11
1598.857576421011
 21
2378.945502434004
 31
0.0
  0
SPLINE
  5
395B
330
A
100
AcDbEntity
  8
HIDDEN
 48
0.5
100
AcDbSpline
210
0.0
220
0.0
230
1.0
 70
  1064
 71
     3
 72
    76
 73
    72
 74
    70
 42
0.000000001
 43
0.0000000001
 44
0.0
 40
0.0
 40
0.0
 40
0.0
 40
0.0
 40
0.8699984819626146
 40
1.672368215577258
 40
2.698297178396484
 40
3.436685089751162
 40
4.371828940302813
 40
5.301455528569777
 40
6.424750254829757
 40
9.692795139277811
 40
13.06492036044168
 40
59.31727289781452
 40
64.96719174310958
 40
66.70412478714512
 40
69.43669115622258
 40
72.03340624955021
 40
76.20997874966014
 40
79.27047269325644
 40
83.7362718325329
 40
87.70771895645076
 40
90.24318892503345
 40
93.35746234660633
 40
96.45350750935363
 40
98.69662244723102
 40
100.2066877368772
 40
103.3434651335214
 40
104.9975083635781
 40
106.7131273950185
 40
108.3110461903931
 40
110.7611556585813
 40
113.9037164111704
 40
116.08689431845
 40
118.0048753075619
 40
121.6458347318248
 40
125.3662611099478
 40
129.0664477721174
 40
131.9753057074664
 40
134.6009552320299
 40
136.8432022987664
 40
139.3473174993048
 40
141.7502953429205
 40
143.3921777384335
 40
145.2581426941954
 40
147.1696986293327
 40
149.1673363770937
 40
150.8172063010678
 40
151.4106588934418
 40
152.1660984627561
 40
152.7932822505891
 40
153.3026637511372
 40
153.737105678604
 40
154.0602912614613
 40
154.2799672440211
 40
154.9848165430026
 40
156.1633973611907
 40
157.4336930576847
 40
159.6860905833663
 40
161.0349285085856
 40
162.9075561329915
 40
164.413555651404
 40
166.1553052731809
 40
168.0540776438158
 40
169.5600925893769
 40
172.3363260956892
 40
175.0863685743288
 40
178.1769715484728
 40
181.3068610641285
 40
183.9520931506264
 40
186.6235934005388
 40
188.7058109549318
 40
189.8402696973126
 40
189.8402696973126
 40
189.8402696973126
 40
189.8402696973126
 10
1589.583211046283
 20
2340.457630309518
 30
0.0
 10
1589.601986457357
 20
2340.166473927492
 30
0.0
 10
1589.63807778552
 20
2339.60679400947
 30
0.0
 10
1589.975373374637
 20
2338.761039457285
 30
0.0
 10
1590.451359229034
 20
2338.041171808219
 30
0.0
 10
1591.106570993932
 20
2337.416540181624
 30
0.0
 10
1591.852410107964
 20
2336.958152574634
 30
0.0
 10
1592.808680665079
 20
2336.643073012405
 30
0.0
 10
1594.586407916333
 20
2336.534993255247
 30
0.0
 10
1597.156926672226
 20
2336.274800228798
 30
0.0
 10
1614.729205569671
 20
2334.762059824327
 30
0.0
 10
1633.07868629416
 20
2333.156315446555
 30
0.0
 10
1650.876199744835
 20
2331.439276161191
 30
0.0
 10
1654.231541053794
 20
2331.093236606238
 30
0.0
 10
1656.573398213151
 20
2330.840689902983
 30
0.0
 10
1659.720849765761
 20
2330.475066579798
 30
0.0
 10
1662.971269985084
 20
2330.047740728082
 30
0.0
 10
1666.822893348949
 20
2329.42722692654
 30
0.0
 10
1670.577382976317
 20
2328.640147318799
 30
0.0
 10
1674.080608563284
 20
2327.564813693344
 30
0.0
 10
1677.046179256644
 20
2326.33588518973
 30
0.0
 10
1679.632107926822
 20
2324.978761189332
 30
0.0
 10
1681.986040363197
 20
2323.421057536812
 30
0.0
 10
1683.774026804525
 20
2321.997533446952
 30
0.0
 10
1685.474737612036
 20
2320.453641922518
 30
0.0
 10
1686.907018099765
 20
2318.905496587735
 30
0.0
 10
1688.161497735094
 20
2317.132344659025
 30
0.0
 10
1688.974725476565
 20
2315.686396823645
 30
0.0
 10
1689.756920858698
 20
2313.929399136425
 30
0.0
 10
1690.531739923508
 20
2311.65764180644
 30
0.0
 10
1691.178307727792
 20
2309.14598876427
 30
0.0
 10
1691.696394551262
 20
2306.787562087089
 30
0.0
 10
1692.203907203267
 20
2304.257152634911
 30
0.0
 10
1692.764539113662
 20
2301.215076118659
 30
0.0
 10
1693.38553773287
 20
2297.580660828552
 30
0.0
 10
1693.985654228604
 20
2294.189769827469
 30
0.0
 10
1694.40423346966
 20
2291.1395711336
 30
0.0
 10
1695.093401229896
 20
2288.624208687438
 30
0.0
 10
1696.260953961894
 20
2286.437295292678
 30
0.0
 10
1697.811989251861
 20
2284.618874313844
 30
0.0
 10
1699.207890989987
 20
2282.942723639728
 30
0.0
 10
1700.473538879101
 20
2281.43230515923
 30
0.0
 10
1701.632914760697
 20
2280.047076930469
 30
0.0
 10
1702.868284652512
 20
2278.570646718765
 30
0.0
 10
1704.059042255891
 20
2277.15095026879
 30
0.0
 10
1704.963044075496
 20
2276.063911676116
 30
0.0
 10
1705.610147316059
 20
2275.302337832612
 30
0.0
 10
1706.015051493144
 20
2274.781221292482
 30
0.0
 10
1706.492731503354
 20
2274.361976686682
 30
0.0
 10
1706.949340888721
 20
2274.100258340975
 30
0.0
 10
1707.34514512944
 20
2273.948740654734
 30
0.0
 10
1707.662277165899
 20
2273.871767780915
 30
0.0
 10
1708.074121132606
 20
2273.80970773977
 30
0.0
 10
1708.777725330446
 20
2273.82312842552
 30
0.0
 10
1709.82760193231
 20
2273.814323443331
 30
0.0
 10
1711.395225527144
 20
2273.815434612227
 30
0.0
 10
1713.018850233522
 20
2273.812313515743
 30
0.0
 10
1714.843514361364
 20
2273.810410045026
 30
0.0
 10
1716.419322141987
 20
2273.808482593186
 30
0.0
 10
1718.126116375813
 20
2273.806489450897
 30
0.0
 10
1719.841621432404
 20
2273.804463382362
 30
0.0
 10
1721.557132821941
 20
2273.802443909311
 30
0.0
 10
1723.617471597961
 20
2273.80001635082
 30
0.0
 10
1725.961566977645
 20
2273.797255056267
 30
0.0
 10
1728.833857961472
 20
2273.793871306174
 30
0.0
 10
1731.824034212242
 20
2273.790348749737
 30
0.0
 10
1734.779273686265
 20
2273.786867330487
 30
0.0
 10
1737.594812350098
 20
2273.783550490818
 30
0.0
 10
1740.06112726895
 20
2273.780645052382
 30
0.0
 10
1742.023851422589
 20
2273.778332868491
 30
0.0
 10
1743.096076110831
 20
2273.777069735973
 30
0.0
 10
1743.474228762558
 20
2273.776624253868
 30
0.0
 11
1589.583211046283
 21
2340.457630309518
 31
0.0
 11
1589.686345128382
 21
2339.593766477814
 31
0.0
 11
1589.968712027054
 21
2338.842723120906
 31
0.0
 11
1590.538849459211
 21
2337.989802523661
 31
0.0
 11
1591.073081940553
 21
2337.480084598222
 31
0.0
 11
1591.86970878842
 21
2336.990309459529
 31
0.0
 11
1592.752623401195
 21
2336.699332862255
 31
0.0
 11
1593.868989649084
 21
2336.574763834732
 31
0.0
 11
1597.124269134115
 21
2336.286193494774
 31
0.0
 11
1600.483214419691
 21
2335.988342733963
 31
0.0
 11
1646.550488335267
 21
2331.854774151162
 31
0.0
 11
1652.173553874043
 21
2331.304577000088
 31
0.0
 11
1653.901307459143
 21
2331.126240384004
 31
0.0
 11
1656.617987969474
 21
2330.832019436073
 31
0.0
 11
1659.197180497427
 21
2330.53086303208
 31
0.0
 11
1663.336756013912
 21
2329.976180787914
 31
0.0
 11
1666.35717571874
 21
2329.482533155006
 31
0.0
 11
1670.721614301484
 21
2328.536468775685
 31
0.0
 11
1674.512323529658
 21
2327.352021307238
 31
0.0
 11
1676.853485594773
 21
2326.37859018669
 31
0.0
 11
1679.610607695763
 21
2324.930496037628
 31
0.0
 11
1682.192290989873
 21
2323.22157619788
 31
0.0
 11
1683.946338404401
 21
2321.823405145356
 31
0.0
 11
1685.063620219673
 21
2320.807541707557
 31
0.0
 11
1687.173191523357
 21
2318.486102207856
 31
0.0
 11
1688.125999933963
 21
2317.134061106567
 31
0.0
 11
1688.969126333544
 21
2315.639910332592
 31
0.0
 11
1689.623634065289
 21
2314.182184670577
 31
0.0
 11
1690.430715959589
 21
2311.868820189567
 31
0.0
 11
1691.23651792929
 21
2308.831325947706
 31
0.0
 11
1691.708423788751
 21
2306.699760646187
 31
0.0
 11
1692.087564039022
 21
2304.819626676168
 31
0.0
 11
1692.752036053303
 21
2301.239813486717
 31
0.0
 11
1693.390324975968
 21
2297.574549555397
 31
0.0
 11
1694.005172521034
 21
2293.925804040672
 31
0.0
 11
1694.483257755837
 21
2291.056502906893
 31
0.0
 11
1695.226170193751
 21
2288.53814698776
 31
0.0
 11
1696.2815233083
 21
2286.559788650173
 31
0.0
 11
1697.829075018836
 21
2284.591114822241
 31
0.0
 11
1699.371509795727
 21
2282.74850865815
 31
0.0
 11
1700.42540902877
 21
2281.489511355815
 31
0.0
 11
1701.6231434348
 21
2280.058687289501
 31
0.0
 11
1702.850141994176
 21
2278.592904007959
 31
0.0
 11
1704.132395154339
 21
2277.061113093855
 31
0.0
 11
1705.191421459907
 21
2275.795990945543
 31
0.0
 11
1705.57234961509
 21
2275.340930817665
 31
0.0
 11
1706.060966318598
 21
2274.764786165743
 31
0.0
 11
1706.535685432208
 21
2274.354906589655
 31
0.0
 11
1706.977099895176
 21
2274.100696469905
 31
0.0
 11
1707.382916226288
 21
2273.945606516188
 31
0.0
 11
1707.696939848322
 21
2273.869199148929
 31
0.0
 11
1707.914208882364
 21
2273.836769160337
 31
0.0
 11
1708.618799794385
 21
2273.817685634141
 31
0.0
 11
1709.797379794758
 21
2273.816297209927
 31
0.0
 11
1711.067674609796
 21
2273.814800741226
 31
0.0
 11
1713.320070572543
 21
2273.812147309899
 31
0.0
 11
1714.668907561806
 21
2273.810558314722
 31
0.0
 11
1716.541533886799
 21
2273.808352270386
 31
0.0
 11
1718.047532360201
 21
2273.806578131384
 31
0.0
 11
1719.789280773381
 21
2273.804526267554
 31
0.0
 11
1721.688051826461
 21
2273.802289423465
 31
0.0
 11
1723.194065727001
 21
2273.800515266288
 31
0.0
 11
1725.97029730689
 21
2273.797244731282
 31
0.0
 11
1728.72033787728
 21
2273.794005050549
 31
0.0
 11
1731.81093870686
 21
2273.79036417337
 31
0.0
 11
1734.940826050691
 21
2273.786677014776
 31
0.0
 11
1737.586056301667
 21
2273.783560805668
 31
0.0
 11
1740.25755469783
 21
2273.780413651415
 31
0.0
 11
1742.339770807376
 21
2273.77796070018
 31
0.0
 11
1743.474228762558
 21
2273.776624253868
 31
0.0
  0
SPLINE
  5
395C
330
A
100
AcDbEntity
  8
HIDDEN
 48
0.5
100
AcDbSpline
210
0.0
220
0.0
230
1.0
 70
  1064
 71
     3
 72
   115
 73
   111
 74
   109
 42
0.000000001
 43
0.0000000001
 44
0.0
 40
0.0
 40
0.0
 40
0.0
 40
0.0
 40
1.238519853191691
 40
2.753480723600244
 40
4.697681517061768
 40
6.626118664189777
 40
9.033299480930161
 40
11.7527847824992
 40
14.46682092119771
 40
16.97959824418774
 40
20.00908945355652
 40
21.73848426254251
 40
24.54065993616267
 40
28.46434622185135
 40
31.91308499197198
 40
35.48788630809062
 40
40.66251397919706
 40
46.63947757179992
 40
52.54204007846641
 40
57.38234100219947
 40
63.51884155407352
 40
67.41247114713947
 40
73.44491016545744
 40
76.8960633763442
 40
81.42515697834779
 40
86.20339566590617
 40
91.31086527315891
 40
96.92714473054039
 40
99.79564326263329
 40
103.8287110517648
 40
107.1449350887357
 40
109.1551790690715
 40
114.4272007459504
 40
117.6234751242958
 40
119.8798248934958
 40
123.8953047411015
 40
126.6120912053286
 40
128.9839134165172
 40
134.1128805108792
 40
137.4023645947805
 40
141.6464696675512
 40
146.2921110543977
 40
149.3336799653931
 40
154.4213682144169
 40
160.111805816954
 40
164.9022949377399
 40
171.112617712487
 40
178.7341963198221
 40
186.5455533986001
 40
193.522111701449
 40
199.4030800482428
 40
203.8000153087149
 40
215.279576393715
 40
228.9657337137476
 40
238.9850901999257
 40
246.4330713145817
 40
252.390002945216
 40
259.0087025230348
 40
264.3722021969947
 40
265.2601762230004
 40
266.3698421556838
 40
266.9948183628707
 40
267.3768103820245
 40
267.7560326174607
 40
268.0387322309502
 40
268.6222139934866
 40
269.5399415241106
 40
269.9869865567885
 40
270.6090353751212
 40
271.5130108655394
 40
272.0534367848537
 40
272.7933674673959
 40
274.0130316554757
 40
275.1187420327981
 40
276.9465436778852
 40
278.1722901198629
 40
279.6157996155588
 40
281.3629590614626
 40
282.5871131261345
 40
283.9836982303196
 40
285.8953268292044
 40
286.3979321402973
 40
287.1257998126275
 40
287.4683524391634
 40
288.0382327439654
 40
288.2738629594177
 40
288.4336705436294
 40
288.7330334005117
 40
289.1443438621587
 40
289.4403849687142
 40
289.8595062522094
 40
290.8024202736348
 40
292.2586660957563
 40
293.4738680712437
 40
295.6215199988055
 40
297.7796853625948
 40
300.1159373728487
 40
301.6769226222287
 40
305.207485494424
 40
307.3566811927611
 40
309.3246903613652
 40
310.7076136477172
 40
313.672450322151
 40
314.6153273184208
 40
316.5953813523067
 40
318.1458655071789
 40
319.6754215233512
 40
321.9907330531838
 40
323.7298049490296
 40
324.9714964574321
 40
324.9714964574321
 40
324.9714964574321
 40
324.9714964574321
 10
1589.159555259562
 20
1994.936141124753
 30
0.0
 10
1589.168178240656
 20
1995.349763054782
 30
0.0
 10
1589.187348875797
 20
1996.269328460422
 30
0.0
 10
1589.5371875879
 20
1997.804680058591
 30
0.0
 10
1590.1189438459
 20
1999.506258236789
 30
0.0
 10
1591.03732123434
 20
2001.392927217984
 30
0.0
 10
1592.298458092573
 20
2003.383693667815
 30
0.0
 10
1593.938408223736
 20
2005.425415166937
 30
0.0
 10
1595.791705014053
 20
2007.322472727416
 30
0.0
 10
1597.860297012796
 20
2009.14060165656
 30
0.0
 10
1599.785959240077
 20
2010.615898826474
 30
0.0
 10
1601.855770199661
 20
2012.054472578289
 30
0.0
 10
1604.231907495192
 20
2013.572062799474
 30
0.0
 10
1607.174553243145
 20
2015.261043575936
 30
0.0
 10
1610.408397655046
 20
2016.952816956251
 30
0.0
 10
1614.064331590494
 20
2018.733431628293
 30
0.0
 10
1618.533769756182
 20
2020.764664197883
 30
0.0
 10
1623.756098566711
 20
2023.010813607931
 30
0.0
 10
1628.89275179686
 20
2025.173257499057
 30
0.0
 10
1634.070153287483
 20
2027.375854967584
 30
0.0
 10
1638.607278381106
 20
2029.37301220149
 30
0.0
 10
1643.460543165943
 20
2031.634714237838
 30
0.0
 10
1647.449922631393
 20
2033.629867898203
 30
0.0
 10
1651.549177684336
 20
2035.87007104272
 30
0.0
 10
1655.207184398731
 20
2038.042035982973
 30
0.0
 10
1659.214642934341
 20
2040.69739872544
 30
0.0
 10
1663.343282009147
 20
2043.810825487134
 30
0.0
 10
1666.747557817016
 20
2046.810014820672
 30
0.0
 10
1669.683083962763
 20
2049.777141523151
 30
0.0
 10
1671.933608425657
 20
2052.337750838296
 30
0.0
 10
1673.83279761466
 20
2054.815577689075
 30
0.0
 10
1675.838870581498
 20
2057.724214360095
 30
0.0
 10
1677.620678771264
 20
2060.736522429557
 30
0.0
 10
1679.191779195744
 20
2063.949594846406
 30
0.0
 10
1680.439538794214
 20
2066.849284975592
 30
0.0
 10
1681.477799483798
 20
2069.662306354612
 30
0.0
 10
1682.38620746299
 20
2072.558489783639
 30
0.0
 10
1683.296007217493
 20
2075.841061447666
 30
0.0
 10
1684.103962963546
 20
2079.34792314323
 30
0.0
 10
1684.897654273645
 20
2083.493798478574
 30
0.0
 10
1685.550983015836
 20
2087.501203653379
 30
0.0
 10
1686.094911274789
 20
2091.441253766925
 30
0.0
 10
1686.609756318071
 20
2095.668393522484
 30
0.0
 10
1687.102643906413
 20
2100.248702829888
 30
0.0
 10
1687.592137882423
 20
2105.415207679733
 30
0.0
 10
1688.067455896531
 20
2110.95865852905
 30
0.0
 10
1688.556068668902
 20
2117.146905895727
 30
0.0
 10
1689.082135827065
 20
2124.342150451323
 30
0.0
 10
1689.597179264534
 20
2131.79421600684
 30
0.0
 10
1690.055543074513
 20
2138.668583742535
 30
0.0
 10
1690.429340827512
 20
2144.407912578275
 30
0.0
 10
1690.89496333155
 20
2151.645438760158
 30
0.0
 10
1691.519469615381
 20
2161.479849586382
 30
0.0
 10
1692.25379243218
 20
2173.185197610797
 30
0.0
 10
1692.901464087196
 20
2183.549478386403
 30
0.0
 10
1693.387990935312
 20
2191.342396706555
 30
0.0
 10
1693.803127710522
 20
2198.004008029348
 30
0.0
 10
1694.176576462029
 20
2203.972058421752
 30
0.0
 10
1694.440343727847
 20
2208.253971297789
 30
0.0
 10
1694.5962816488
 20
2210.702757459635
 30
0.0
 10
1694.644557211483
 20
2211.575592679983
 30
0.0
 10
1694.701571891811
 20
2212.279076481249
 30
0.0
 10
1694.762259407655
 20
2212.73724879303
 30
0.0
 10
1694.818253308271
 20
2213.080736155492
 30
0.0
 10
1694.896517188708
 20
2213.48846422355
 30
0.0
 10
1695.029591093513
 20
2214.068238595399
 30
0.0
 10
1695.214406052253
 20
2214.691571989836
 30
0.0
 10
1695.438483641653
 20
2215.314910390063
 30
0.0
 10
1695.6884346199
 20
2215.923551608117
 30
0.0
 10
1695.990288912364
 20
2216.543552514445
 30
0.0
 10
1696.348275893505
 20
2217.177754471988
 30
0.0
 10
1696.79456749317
 20
2217.882360597707
 30
0.0
 10
1697.421618005123
 20
2218.691039797905
 30
0.0
 10
1698.322580991145
 20
2219.741910660744
 30
0.0
 10
1699.211300627704
 20
2220.806149710363
 30
0.0
 10
1700.177006775322
 20
2221.952628776427
 30
0.0
 10
1701.124370863945
 20
2223.079442326964
 30
0.0
 10
1702.071734041549
 20
2224.205554267744
 30
0.0
 10
1703.008813615416
 20
2225.319878156128
 30
0.0
 10
1703.981719921235
 20
2226.47571125508
 30
0.0
 10
1704.797764385371
 20
2227.449173500728
 30
0.0
 10
1705.474472992591
 20
2228.248615049262
 30
0.0
 10
1705.804938413947
 20
2228.655723742504
 30
0.0
 10
1706.174419780519
 20
2229.059636870974
 30
0.0
 10
1706.480206710712
 20
2229.295058188699
 30
0.0
 10
1706.758209875418
 20
2229.457375719544
 30
0.0
 10
1706.96567382186
 20
2229.56057820033
 30
0.0
 10
1707.234989187118
 20
2229.669917570497
 30
0.0
 10
1707.559797913305
 20
2229.758153276391
 30
0.0
 10
1707.931741311952
 20
2229.815537969373
 30
0.0
 10
1708.48546296208
 20
2229.819966402168
 30
0.0
 10
1709.424207207935
 20
2229.815495321559
 30
0.0
 10
1710.629301124393
 20
2229.815592537695
 30
0.0
 10
1712.235575628622
 20
2229.813251558533
 30
0.0
 10
1714.075952587574
 20
2229.811273338941
 30
0.0
 10
1716.289961793269
 20
2229.808604161249
 30
0.0
 10
1718.308431243767
 20
2229.806242635585
 30
0.0
 10
1720.784362149083
 20
2229.803322150035
 30
0.0
 10
1723.197942073212
 20
2229.800480442497
 30
0.0
 10
1725.747196151024
 20
2229.797476970842
 30
0.0
 10
1727.580570942467
 20
2229.795317228479
 30
0.0
 10
1729.6858258553
 20
2229.792837122632
 30
0.0
 10
1731.44937028501
 20
2229.790759587368
 30
0.0
 10
1733.411958157911
 20
2229.788447563354
 30
0.0
 10
1734.903095518261
 20
2229.786690931657
 30
0.0
 10
1736.589792416165
 20
2229.784703921125
 30
0.0
 10
1738.388241735185
 20
2229.782585260901
 30
0.0
 10
1740.249553590905
 20
2229.780392545554
 30
0.0
 10
1742.014910677287
 20
2229.778312869566
 30
0.0
 10
1743.008497789254
 20
2229.777142375917
 30
0.0
 10
1743.422394671519
 20
2229.776654785382
 30
0.0
 11
1589.159555259562
 21
1994.936141124753
 31
0.0
 11
1589.223032206743
 21
1996.173033239663
 31
0.0
 11
1589.527455377327
 21
1997.657092865177
 31
0.0
 11
1590.157991958208
 21
1999.49620687618
 31
0.0
 11
1590.995196127865
 21
2001.233434267379
 31
0.0
 11
1592.27699598806
 21
2003.270959384497
 31
0.0
 11
1593.972308564075
 21
2005.397344950441
 31
0.0
 11
1595.863051683854
 21
2007.344415215524
 31
0.0
 11
1597.747093460418
 21
2009.007074669259
 31
0.0
 11
1600.147466975791
 21
2010.855323563304
 31
0.0
 11
1601.566904594472
 21
2011.843252332002
 31
0.0
 11
1603.926296663737
 21
2013.355025320687
 31
0.0
 11
1607.324837545787
 21
2015.315952127464
 31
0.0
 11
1610.378454734605
 21
2016.918831152434
 31
0.0
 11
1613.590375747802
 21
2018.488151978367
 31
0.0
 11
1618.296797567843
 21
2020.639050671105
 31
0.0
 11
1623.781885697685
 21
2023.013477337727
 31
0.0
 11
1629.217511128385
 21
2025.314394616169
 31
0.0
 11
1633.669114615678
 21
2027.214852304257
 31
0.0
 11
1639.280477594168
 21
2029.69864870227
 31
0.0
 11
1642.808311527272
 21
2031.346295250665
 31
0.0
 11
1648.197911774381
 21
2034.056005509362
 31
0.0
 11
1651.225141213032
 21
2035.713214129536
 31
0.0
 11
1655.116573654045
 21
2038.030419863333
 31
0.0
 11
1659.096137175751
 21
2040.675157871527
 31
0.0
 11
1663.169159947369
 21
2043.756834572755
 31
0.0
 11
1667.37646477964
 21
2047.477208343192
 31
0.0
 11
1669.392992492327
 21
2049.517281825345
 31
0.0
 11
1672.053118546024
 21
2052.548678396263
 31
0.0
 11
1674.069647225649
 21
2055.181348893616
 31
0.0
 11
1675.210809894267
 21
2056.836289564525
 31
0.0
 11
1677.896354337967
 21
2061.373035491111
 31
0.0
 11
1679.301914098405
 21
2064.243675082126
 31
0.0
 11
1680.194497924883
 21
2066.315970522858
 31
0.0
 11
1681.59013978803
 21
2070.081108262219
 31
0.0
 11
1682.405053392979
 21
2072.672795841515
 31
0.0
 11
1683.039880547431
 21
2074.958082494313
 31
0.0
 11
1684.203583354425
 21
2079.953290120833
 31
0.0
 11
1684.824837898954
 21
2083.183576227224
 31
0.0
 11
1685.513123270726
 21
2087.371498279474
 31
0.0
 11
1686.153194880619
 21
2091.972834197378
 31
0.0
 11
1686.52201957976
 21
2094.991958206364
 31
0.0
 11
1687.071000961713
 21
2100.049941120681
 31
0.0
 11
1687.611275890874
 21
2105.714672633232
 31
0.0
 11
1688.022352074606
 21
2110.48749175693
 31
0.0
 11
1688.513654185039
 21
2116.678350437503
 31
0.0
 11
1689.072543291035
 21
2124.279409800183
 31
0.0
 11
1689.61303687225
 21
2132.072045176026
 31
0.0
 11
1690.077898669769
 21
2139.033098922569
 31
0.0
 11
1690.460604834431
 21
2144.901601686266
 31
0.0
 11
1690.74305520302
 21
2149.289455543685
 31
0.0
 11
1691.4715226977
 21
2160.745879846819
 31
0.0
 11
1692.329682788788
 21
2174.405106158977
 31
0.0
 11
1692.954810178774
 21
2184.404942164803
 31
0.0
 11
1693.418803738342
 21
2191.838456317675
 31
0.0
 11
1693.789648075698
 21
2197.783833423419
 31
0.0
 11
1694.201525429072
 21
2204.389705140853
 31
0.0
 11
1694.535239946457
 21
2209.742812964674
 31
0.0
 11
1694.590489403889
 21
2210.629066522249
 31
0.0
 11
1694.65953356917
 21
2211.736582384618
 31
0.0
 11
1694.714650529693
 21
2212.359123451707
 31
0.0
 11
1694.764270427508
 21
2212.73787900406
 31
0.0
 11
1694.825430242419
 21
2213.112136910976
 31
0.0
 11
1694.878699933929
 21
2213.389772303953
 31
0.0
 11
1695.009253218889
 21
2213.958460977129
 31
0.0
 11
1695.270114659894
 21
2214.838333200274
 31
0.0
 11
1695.421344624093
 21
2215.259021635069
 31
0.0
 11
1695.657637030961
 21
2215.834443767808
 31
0.0
 11
1696.053472678839
 21
2216.647146559206
 31
0.0
 11
1696.318915807053
 21
2217.117890778449
 31
0.0
 11
1696.71620560724
 21
2217.742116883025
 31
0.0
 11
1697.452841918315
 21
2218.71420107531
 31
0.0
 11
1698.164576189268
 21
2219.56038649593
 31
0.0
 11
1699.341113099836
 21
2220.959178743497
 31
0.0
 11
1700.130113337284
 21
2221.897226165181
 31
0.0
 11
1701.059285387767
 21
2223.001924750663
 31
0.0
 11
1702.183913753365
 21
2224.339002597575
 31
0.0
 11
1702.971888994101
 21
2225.275831394122
 31
0.0
 11
1703.870856301762
 21
2226.344619367945
 31
0.0
 11
1705.101351750724
 21
2227.807563266445
 31
0.0
 11
1705.424873562588
 21
2228.19220041492
 31
0.0
 11
1705.893394413748
 21
2228.749227847325
 31
0.0
 11
1706.128499076965
 21
2228.998362548401
 31
0.0
 11
1706.577959463028
 21
2229.348717972451
 31
0.0
 11
1706.781534942375
 21
2229.467371344265
 31
0.0
 11
1706.924603560853
 21
2229.538574113722
 31
0.0
 11
1707.202025626783
 21
2229.651069079902
 31
0.0
 11
1707.598792431041
 21
2229.759477561578
 31
0.0
 11
1707.891564216174
 21
2229.803352595488
 31
0.0
 11
1708.310428830444
 21
2229.818018378493
 31
0.0
 11
1709.253342197583
 21
2229.816907580966
 31
0.0
 11
1710.709587009218
 21
2229.815192054182
 31
0.0
 11
1711.924788141479
 21
2229.813760488504
 31
0.0
 11
1714.072438578789
 21
2229.811230452469
 31
0.0
 11
1716.230602445031
 21
2229.808688031106
 31
0.0
 11
1718.566852834164
 21
2229.80593581521
 31
0.0
 11
1720.127837000379
 21
2229.804096900404
 31
0.0
 11
1723.658397422723
 21
2229.799937729555
 31
0.0
 11
1725.807591629737
 21
2229.797405874884
 31
0.0
 11
1727.775599432743
 21
2229.795087466556
 31
0.0
 11
1729.158521759487
 21
2229.793458317204
 31
0.0
 11
1732.123356376626
 21
2229.789965598702
 31
0.0
 11
1733.066232718635
 21
2229.78885484479
 31
0.0
 11
1735.046285378565
 21
2229.786522247039
 31
0.0
 11
1736.596768457559
 21
2229.78469570302
 31
0.0
 11
1738.126323412375
 21
2229.782893813343
 31
0.0
 11
1740.441633335617
 21
2229.780166266329
 31
0.0
 11
1742.180704024724
 21
2229.778117556988
 31
0.0
 11
1743.422394671519
 21
2229.776654785382
 31
0.0
  0
DIMENSION
  5
395D
102
{ACAD_REACTORS
330
395F
102
}
102
{ACAD_XDICTIONARY
360
395E
102
}
330
A
100
AcDbEntity
  8
DIM
100
AcDbDimension
  2
*D21
 10
1709.152805392073
 20
1903.102160042105
 30
0.0
 11
1649.15060422813
 21
1935.106661730239
 31
0.0
 70
    32
 71
     5
 42
120.0044023278849
 73
     0
 74
     0
 75
     0
  3
tfrom線あり
100
AcDbAlignedDimension
 13
1589.148403064188
 23
1997.286410207302
 33
0.0
 14
1709.152805392073
 24
2000.952694423745
 34
0.0
100
AcDbRotatedDimension
  0
DIMENSION
  5
3960
102
{ACAD_REACTORS
330
3962
102
}
102
{ACAD_XDICTIONARY
360
3961
102
}
330
A
100
AcDbEntity
  8
DIM
100
AcDbDimension
  2
*D22
 10
1506.498263939888
 20
2396.931580820335
 30
0.0
 11
1474.493762251755
 21
2429.442979898704
 31
0.0
 70
    32
 71
     5
 42
65.02279815673865
 73
     0
 74
     1
 75
     1
  3
tfrom線あり
100
AcDbAlignedDimension
 13
1592.695806475648
 23
2461.954378977073
 33
0.0
 14
1592.695806475648
 24
2396.931580820335
 34
0.0
 50
90.0
100
AcDbRotatedDimension
1001
ACAD
1000
DSTYLE
1002
{
1070
   172
1070
     1
1002
}
  0
DIMENSION
  5
3963
102
{ACAD_REACTORS
330
3965
102
}
102
{ACAD_XDICTIONARY
360
3964
102
}
330
A
100
AcDbEntity
  8
DIM
100
AcDbDimension
  2
*D23
 10
1589.45608410552
 20
2253.099779360763
 30
0.0
 11
1496.612830385375
 21
2253.099779360763
 31
0.0
 70
   160
 71
     5
 42
105.0845451302289
 73
     0
 74
     1
 75
     1
  3
tfrom線あり
100
AcDbAlignedDimension
 13
1694.540629235749
 23
2288.341236649032
 33
0.0
 14
1589.45608410552
 24
2258.465031323096
 34
0.0
100
AcDbRotatedDimension
1001
ACAD
1000
DSTYLE
1002
{
1070
     3
1000
深さ<>
1070
   172
1070
     1
1070
    76
1070
     1
1070
    75
1070
     1
1070
   174
1070
     0
1070
   175
1070
     1
1002
}
  0
DIMENSION
  5
3966
102
{ACAD_REACTORS
330
3968
102
}
102
{ACAD_XDICTIONARY
360
3967
102
}
330
A
100
AcDbEntity
  8
DIM
100
AcDbDimension
  2
*D24
 10
1855.05886931361
 20
2251.776639519624
 30
0.0
 11
1823.054367625477
 21
2356.798360539497
 31
0.0
 70
    32
 71
     5
 42
210.0434420397451
 73
     0
 74
     0
 75
     0
  3
tfrom線あり
100
AcDbAlignedDimension
 13
1706.69572737125
 23
2461.820081559369
 33
0.0
 14
1743.448311717038
 24
2251.776639519624
 34
0.0
 50
90.0
100
AcDbRotatedDimension
  0
MTEXT
  5
3969
330
A
100
AcDbEntity
  8
notes
 62
     7
390
1D
100
AcDbMText
 10
1067.682094130162
 20
1882.335241863416
 30
0.0
 40
24.4326171875
 41
764.7717154610109
 46
0.0
 71
     1
 72
     1
  1
※陶器製品には寸法公差があります。\P  洗面器の収め方をご確認の上、必ず現物を合わせて\P  カウンターに切込を行ってください。
  7
ＭＳ ゴシック
 11
0.0
 21
1.0
 31
0.0
 73
     1
 44
1.043768984567712
  0
ARC
  5
3984
330
A
100
AcDbEntity
  8
HIDDEN
100
AcDbCircle
 10
644.3416684743427
 20
1047.1777074362
 30
0.0
 40
22.5
100
AcDbArc
 50
180.0000000002131
 51
359.9999999997962
  0
ARC
  5
3985
330
A
100
AcDbEntity
  8
HIDDEN
100
AcDbCircle
 10
644.3416684743427
 20
1047.1777074362
 30
0.0
 40
37.5
100
AcDbArc
 50
180.0000000002112
 51
359.9999999997943
  0
LINE
  5
3987
330
A
100
AcDbEntity
  8
MODEL
100
AcDbLine
 10
1709.470786995696
 20
1341.204174322578
 30
0.0
 11
1709.470786995696
 21
1342.203565271374
 31
0.0
  0
LINE
  5
3988
330
A
100
AcDbEntity
  8
MODEL
100
AcDbLine
 10
1706.523144215009
 20
1345.20310835685
 30
0.0
 11
1592.523144215009
 21
1347.192985758673
 31
0.0
  0
LINE
  5
3989
330
A
100
AcDbEntity
  8
MODEL
100
AcDbLine
 10
1589.470786995696
 20
1344.193442673211
 30
0.0
 11
1589.470786995696
 21
1343.194051724385
 31
0.0
  0
LINE
  5
398A
330
A
100
AcDbEntity
  8
MODEL
100
AcDbLine
 10
1589.470786995696
 20
1344.193442673211
 30
0.0
 11
1589.470786995695
 21
1099.047330651102
 31
0.0
  0
LINE
  5
398B
330
A
100
AcDbEntity
  8
MODEL
100
AcDbLine
 10
1589.470786995695
 20
1099.047330651102
 30
0.0
 11
1589.470786995695
 21
1047.126887562634
 31
0.0
  0
LINE
  5
398C
102
{ACAD_REACTORS
330
39AE
102
}
330
A
100
AcDbEntity
  8
MODEL
100
AcDbLine
 10
1743.470786995695
 20
1078.377894040597
 30
0.0
 11
1743.470786995695
 21
1047.126887562634
 31
0.0
  0
LINE
  5
398D
330
A
100
AcDbEntity
  8
MODEL
100
AcDbLine
 10
1740.732254223938
 20
1081.366478134871
 30
0.0
 11
1740.732254223938
 21
1047.126887562634
 31
0.0
  0
LINE
  5
398E
330
A
100
AcDbEntity
  8
MODEL
100
AcDbLine
 10
1713.357149417959
 20
1083.761489468226
 30
0.0
 11
1740.732254223938
 21
1081.366478134871
 31
0.0
  0
LINE
  5
398F
330
A
100
AcDbEntity
  8
MODEL
100
AcDbLine
 10
1709.470786995695
 20
1047.126887562634
 30
0.0
 11
1709.470786995695
 21
1099.047330651103
 31
0.0
  0
LINE
  5
3990
330
A
100
AcDbEntity
  8
MODEL
100
AcDbLine
 10
1709.470786995695
 20
1099.047330651103
 30
0.0
 11
1709.470786995696
 21
1342.203565271374
 31
0.0
  0
ARC
  5
3991
330
A
100
AcDbEntity
  8
MODEL
100
AcDbCircle
 10
1706.470786995696
 20
1342.203565271374
 30
0.0
 40
3.0
100
AcDbArc
 50
0.0
 51
89.00000000000692
  0
ARC
  5
3992
102
{ACAD_REACTORS
330
399C
102
}
330
A
100
AcDbEntity
  8
MODEL
100
AcDbCircle
 10
1592.470786995696
 20
1344.193442673211
 30
0.0
 40
3.0
100
AcDbArc
 50
89.00000000000692
 51
180.0
  0
ARC
  5
3993
330
A
100
AcDbEntity
  8
MODEL
100
AcDbCircle
 10
1740.470786995695
 20
1078.377894040597
 30
0.0
 40
3.0
100
AcDbArc
 50
0.0
 51
85.00000000000882
  0
SPLINE
  5
3994
330
A
100
AcDbEntity
  8
MODEL
100
AcDbSpline
210
0.0
220
0.0
230
1.0
 70
     8
 71
     3
 72
    12
 73
     8
 74
     0
 42
0.000000001
 43
0.0000000001
 40
0.0
 40
0.0
 40
0.0
 40
0.0
 40
0.3302631184266158
 40
0.3302631184266158
 40
0.665131559213308
 40
0.665131559213308
 40
1.0
 40
1.0
 40
1.0
 40
1.0
 10
1709.396357820264
 20
1085.226982298039
 30
0.0
 10
1709.778877199864
 20
1084.953037084146
 30
0.0
 10
1710.185616936989
 20
1084.712923477803
 30
0.0
 10
1711.040865324499
 20
1084.304990176454
 30
0.0
 10
1711.489862649829
 20
1084.138232267512
 30
0.0
 10
1712.41038083006
 20
1083.887269855454
 30
0.0
 10
1712.881885994782
 20
1083.803069629931
 30
0.0
 10
1713.357128256382
 20
1083.76149131961
 30
0.0
  0
CIRCLE
  5
3995
102
{ACAD_REACTORS
330
3999
102
}
330
A
100
AcDbEntity
  8
ADF70-0001
  6
STYLE_23
 62
     7
370
    15
390
1D
100
AcDbCircle
 10
1634.470786995696
 20
1187.126887562634
 30
0.0
 40
10.0
  0
LINE
  5
3996
330
A
100
AcDbEntity
  8
0
  6
STYLE_23
 62
     7
370
    15
390
1D
100
AcDbLine
 10
1619.501866926653
 20
1187.350732382811
 30
0.0
 11
1649.501866926652
 21
1187.350732382811
 31
0.0
  0
DIMENSION
  5
3997
102
{ACAD_REACTORS
330
3999
102
}
102
{ACAD_XDICTIONARY
360
3998
102
}
330
A
100
AcDbEntity
  8
DIM
100
AcDbDimension
  2
*D27
 10
1504.056613938798
 20
906.9030427424565
 30
0.0
 11
1472.052112250665
 21
1047.014965152545
 31
0.0
 70
    32
 71
     5
 42
280.2238448201771
 73
     0
 74
     0
 75
     0
  3
tfrom線あり
100
AcDbAlignedDimension
 13
1634.470786995696
 23
1187.126887562634
 33
0.0
 14
1634.501866926652
 24
906.9030427424565
 34
0.0
 50
90.0
100
AcDbRotatedDimension
  0
DIMENSION
  5
399A
102
{ACAD_REACTORS
330
399C
102
}
102
{ACAD_XDICTIONARY
360
399B
102
}
330
A
100
AcDbEntity
  8
DIM
100
AcDbDimension
  2
*D28
 10
1743.470786995695
 20
1470.660181466608
 30
0.0
 11
1666.538801610469
 21
1470.660181466608
 31
0.0
 70
   160
 71
     5
 42
153.8639707704522
 73
     0
 74
     0
 75
     0
  3
tfrom線あり
100
AcDbAlignedDimension
 13
1589.606816225243
 23
1345.086567203156
 33
0.0
 14
1743.470786995695
 24
1082.731606579819
 34
0.0
100
AcDbRotatedDimension
  0
DIMENSION
  5
399D
330
A
100
AcDbEntity
  8
DIM
100
AcDbDimension
  2
*D29
 10
904.2078275901231
 20
1470.660181466608
 30
0.0
 11
670.1534276886705
 21
1470.660181466608
 31
0.0
 70
   160
 71
     5
 42
469.866159115787
 73
     0
 74
     0
 75
     0
  3
tfrom線あり
100
AcDbAlignedDimension
 13
434.3416684743361
 23
1344.178164350739
 33
0.0
 14
904.2078275901231
 24
1343.177707436199
 34
0.0
100
AcDbRotatedDimension
  0
DIMENSION
  5
39A0
330
A
100
AcDbEntity
  8
DIM
100
AcDbDimension
  2
*D30
 10
899.6351142351084
 20
649.3053343209657
 30
0.0
 11
729.4958718187834
 21
681.3098360090987
 31
0.0
 70
    32
 71
     5
 42
340.2784848326501
 73
     0
 74
     0
 75
     0
  3
tfrom線あり
100
AcDbAlignedDimension
 13
559.3566294024583
 23
747.1777074361994
 33
0.0
 14
899.6351142351084
 24
747.1777074362004
 34
0.0
100
AcDbRotatedDimension
  0
DIMENSION
  5
39A1
330
A
100
AcDbEntity
  8
DIM
100
AcDbDimension
  2
*D31
 10
434.3416684743358
 20
649.3053343209657
 30
0.0
 11
496.8491489383971
 21
681.3098360090987
 31
0.0
 70
    32
 71
     5
 42
125.0149609281225
 73
     0
 74
     0
 75
     0
  3
tfrom線あり
100
AcDbAlignedDimension
 13
559.3566294024583
 23
747.1777074361994
 33
0.0
 14
434.3416684743358
 24
747.2544486533172
 34
0.0
100
AcDbRotatedDimension
  0
DIMENSION
  5
39A2
102
{ACAD_REACTORS
330
39A4
102
}
102
{ACAD_XDICTIONARY
360
39A3
102
}
330
A
100
AcDbEntity
  8
DIM
100
AcDbDimension
  2
*D32
 10
350.0793766859738
 20
1047.1777074362
 30
0.0
 11
318.0748749978408
 21
997.1777074361996
 31
0.0
 70
    32
 71
     5
 42
100.0000000000001
 73
     0
 74
     0
 75
     0
  3
tfrom線あり
100
AcDbAlignedDimension
 13
501.343228559864
 23
947.1777074361995
 33
0.0
 14
501.343228559864
 24
1047.1777074362
 34
0.0
 50
90.0
100
AcDbRotatedDimension
  0
DIMENSION
  5
39A5
102
{ACAD_REACTORS
330
39A7
102
}
102
{ACAD_XDICTIONARY
360
39A6
102
}
330
A
100
AcDbEntity
  8
DIM
100
AcDbDimension
  2
*D33
 10
350.0793766859738
 20
1147.1777074362
 30
0.0
 11
318.0748749978407
 21
1097.1777074362
 31
0.0
 70
    32
 71
     5
 42
100.0
 73
     0
 74
     0
 75
     0
  3
tfrom線あり
100
AcDbAlignedDimension
 13
501.343228559864
 23
1047.1777074362
 33
0.0
 14
501.343228559864
 24
1147.1777074362
 34
0.0
 50
90.0
100
AcDbRotatedDimension
  0
DIMENSION
  5
39A8
102
{ACAD_REACTORS
330
39AA
102
}
102
{ACAD_XDICTIONARY
360
39A9
102
}
330
A
100
AcDbEntity
  8
DIM
100
AcDbDimension
  2
*D34
 10
254.5622702461815
 20
1347.177707436208
 30
0.0
 11
222.5622702461815
 21
1047.1777074362
 31
0.0
 70
    32
 71
     5
 42
600.0000000000165
 73
     0
 74
     0
 75
     0
  3
tfrom線あり
100
AcDbAlignedDimension
 13
437.3416684743361
 23
747.1777074361913
 33
0.0
 14
437.3416684743361
 24
1347.177707436208
 34
0.0
 50
90.0
100
AcDbRotatedDimension
  0
DIMENSION
  5
39AC
102
{ACAD_REACTORS
330
39AE
102
}
102
{ACAD_XDICTIONARY
360
39AD
102
}
330
A
100
AcDbEntity
  8
DIM
100
AcDbDimension
  2
*D35
 10
1834.903971630282
 20
1047.126887562634
 30
0.0
 11
1802.899469942149
 21
897.152297499417
 31
0.0
 70
    32
 71
     5
 42
299.949180126434
 73
     0
 74
     0
 75
     0
  3
tfrom線あり
100
AcDbAlignedDimension
 13
1688.405124292218
 23
747.1777074362
 33
0.0
 14
1743.470786995695
 24
1047.126887562634
 34
0.0
 50
90.0
100
AcDbRotatedDimension
  0
ARC
  5
3A6E
102
{ACAD_REACTORS
330
39A4
330
39A7
102
}
330
A
100
AcDbEntity
  8
HIDDEN
  6
HIDDEN
 48
0.5
100
AcDbCircle
 10
501.343228559864
 20
1047.1777074362
 30
0.0
 40
17.5
100
AcDbArc
 50
0.0
 51
180.0
  0
CIRCLE
  5
3A6F
102
{ACAD_REACTORS
330
39A4
102
}
330
A
100
AcDbEntity
  8
HIDDEN
  6
HIDDEN
 48
0.5
100
AcDbCircle
 10
501.343228559864
 20
1147.1777074362
 30
0.0
 40
16.0
  0
LINE
  5
3A70
330
A
100
AcDbEntity
  8
MODEL
100
AcDbLine
 10
904.2078275901231
 20
1343.177707436199
 30
0.0
 11
904.2078275901229
 21
1265.26878735877
 31
0.0
  0
LINE
  5
3A71
330
A
100
AcDbEntity
  8
MODEL
100
AcDbLine
 10
904.2078275901231
 20
1343.177707436199
 30
0.0
 11
904.2078275901229
 21
1265.26878735877
 31
0.0
  0
LINE
  5
3A72
330
A
100
AcDbEntity
  8
MODEL
100
AcDbLine
 10
904.2078275901226
 20
1302.025347731313
 30
0.0
 11
904.2078275901222
 21
1047.1777074362
 31
0.0
  0
LINE
  5
3A73
330
A
100
AcDbEntity
  8
MODEL
100
AcDbLine
 10
434.3416684743434
 20
1344.178164350739
 30
0.0
 11
434.3416684743431
 21
1265.26878735877
 31
0.0
  0
LINE
  5
3A74
330
A
100
AcDbEntity
  8
MODEL
100
AcDbLine
 10
434.3416684743434
 20
1344.178164350739
 30
0.0
 11
434.3416684743431
 21
1265.26878735877
 31
0.0
  0
LINE
  5
3A76
330
A
100
AcDbEntity
  8
MODEL
100
AcDbLine
 10
900.207827590124
 20
1347.177707436199
 30
0.0
 11
437.3416684743361
 21
1347.1777074362
 31
0.0
  0
ARC
  5
3A77
330
A
100
AcDbEntity
  8
MODEL
100
AcDbCircle
 10
900.2078275901231
 20
1343.177707436199
 30
0.0
 40
4.0
100
AcDbArc
 50
0.0
 51
89.99999999998697
  0
ELLIPSE
  5
3A78
330
A
100
AcDbEntity
  8
MODEL
100
AcDbEllipse
 10
437.3416684743361
 20
1344.178164350739
 30
0.0
 11
-3.0
 21
8.476042572204118E-15
 31
0.0
210
0.0
220
0.0
230
-1.0
 40
0.999847695156391
 41
0.0
 42
1.570796326794894
  0
SPLINE
  5
3A79
330
A
100
AcDbEntity
  8
MODEL
100
AcDbSpline
210
0.0
220
0.0
230
1.0
 70
     8
 71
     3
 72
    29
 73
    25
 74
     0
 42
0.000000001
 43
0.0000000001
 40
0.0
 40
0.0
 40
0.0
 40
0.0
 40
0.0625
 40
0.125
 40
0.1875
 40
0.21875
 40
0.25
 40
0.28125
 40
0.3125
 40
0.34375
 40
0.375
 40
0.40625
 40
0.4375
 40
0.453125
 40
0.46875
 40
0.484375
 40
0.5
 40
0.53125
 40
0.5625
 40
0.59375
 40
0.625
 40
0.65625
 40
0.6875
 40
0.7485692490388592
 40
0.7485692490388592
 40
0.7485692490388592
 40
0.7485692490388592
 10
846.0551260922084
 20
1344.059009951535
 30
0.0
 10
848.1530915349513
 20
1344.033165325872
 30
0.0
 10
852.3487623801129
 20
1343.962064477334
 30
0.0
 10
858.6416629906171
 20
1343.825155083188
 30
0.0
 10
863.8851205701367
 20
1343.685435646675
 30
0.0
 10
868.078988847833
 20
1343.541712671892
 30
0.0
 10
871.2232547029134
 20
1343.406029362533
 30
0.0
 10
874.3655930611794
 20
1343.229527982952
 30
0.0
 10
877.5037631722817
 20
1342.987998418185
 30
0.0
 10
880.6327670488836
 20
1342.644809157059
 30
0.0
 10
883.7410819383012
 20
1342.141516947619
 30
0.0
 10
886.8000973202807
 20
1341.384516144981
 30
0.0
 10
889.24894504231
 20
1340.420136742813
 30
0.0
 10
891.0662973582666
 20
1339.364715833241
 30
0.0
 10
892.3284417146142
 20
1338.420046284441
 30
0.0
 10
893.4630161986579
 20
1337.325171085535
 30
0.0
 10
894.7846187243349
 20
1335.690310306959
 30
0.0
 10
896.0729626638649
 20
1333.391889456844
 30
0.0
 10
897.1625268427897
 20
1330.432671275654
 30
0.0
 10
897.945914710218
 20
1327.381924456039
 30
0.0
 10
898.5259702741978
 20
1324.287597148689
 30
0.0
 10
898.9688482204083
 20
1321.171199546249
 30
0.0
 10
899.4274092618846
 20
1317.04806427428
 30
0.0
 10
899.67378336707
 20
1313.958324554095
 30
0.0
 10
899.8140767224168
 20
1265.26878735877
 30
0.0
  0
LINE
  5
3A7A
330
A
100
AcDbEntity
  8
MODEL
100
AcDbLine
 10
559.3569384753309
 20
1324.178794707914
 30
0.0
 11
559.356047210696
 21
1265.26878735877
 31
0.0
  0
LINE
  5
3A7B
330
A
100
AcDbEntity
  8
MODEL
100
AcDbLine
 10
559.3569384753312
 20
1324.17879470791
 30
0.0
 11
559.3559626913379
 21
1265.26878735877
 31
0.0
  0
LINE
  5
3A7C
330
A
100
AcDbEntity
  8
MODEL
100
AcDbLine
 10
559.3532587307968
 20
1302.025347731313
 30
0.0
 11
559.3490374404037
 21
1047.1777074362
 31
0.0
  0
ARC
  5
3A7D
330
A
100
AcDbEntity
  8
MODEL
100
AcDbCircle
 10
579.3569384653974
 20
1324.178164350738
 30
0.0
 40
20.0
100
AcDbArc
 50
90.0
 51
179.998194159722
  0
LINE
  5
3A7E
330
A
100
AcDbEntity
  8
MODEL
100
AcDbLine
 10
846.0551260922084
 20
1344.059009951535
 30
0.0
 11
579.1113923690291
 21
1344.176656971798
 31
0.0
  0
LINE
  5
3A7F
330
A
100
AcDbEntity
  8
MODEL
100
AcDbLine
 10
899.8140767224168
 20
1265.26878735877
 30
0.0
 11
900.842084920929
 21
1047.1777074362
 31
0.0
  0
ELLIPSE
  5
3A80
330
A
100
AcDbEntity
  8
MODEL
100
AcDbEllipse
 10
562.4103129166699
 20
1047.178352984312
 30
0.0
 11
3.390417028881647E-14
 21
12.0
 31
0.0
210
0.0
220
0.0
230
-1.0
 40
0.0874886635259221
 41
4.712335184708659
 42
7.854035429650514
  0
ARC
  5
3A83
330
A
100
AcDbEntity
  8
HIDDEN
100
AcDbCircle
 10
644.3416684743427
 20
1047.1777074362
 30
0.0
 40
22.5
100
AcDbArc
 50
0.0000000002038088
 51
179.9999999997869
  0
ARC
  5
3A84
330
A
100
AcDbEntity
  8
HIDDEN
100
AcDbCircle
 10
644.3416684743427
 20
1047.1777074362
 30
0.0
 40
37.5
100
AcDbArc
 50
0.0000000002056616
 51
179.9999999997888
  0
MTEXT
  5
3AAB
330
A
100
AcDbEntity
  8
TEMPLATE
 62
     7
390
1D
100
AcDbMText
 10
122.3510371515223
 20
319.0801397462339
 30
0.0
 40
24.4326171875
 41
0.0
 46
27.53672361022102
 71
     1
 72
     1
  1
{洗面器 -CATALANO,New Premium-}
  7
ＭＳ ゴシック
 73
     1
 44
0.7828267384257843
1001
ACAD
1000
ACAD_MTEXT_DEFINED_HEIGHT_BEGIN
1070
    46
1040
27.53672361022102
1000
ACAD_MTEXT_DEFINED_HEIGHT_END
  0
MTEXT
  5
3AAC
330
A
100
AcDbEntity
  8
TEMPLATE
 62
     7
390
1D
100
AcDbMText
 10
118.6254798805971
 20
225.8990335729942
 30
0.0
 40
24.4326171875
 41
0.0
 46
75.57584750198177
 71
     1
 72
     1
  1
{壁掛け,カウンタ ー置き/オーバーフロー付き/壁取付ボルト付属/\P陶器/ホワイト}
  7
ＭＳ ゴシック
 73
     1
 44
1.130749733281688
1001
ACAD
1000
ACAD_MTEXT_DEFINED_HEIGHT_BEGIN
1070
    46
1040
75.57584750198177
1000
ACAD_MTEXT_DEFINED_HEIGHT_END
  0
LINE
  5
3AB4
330
A
100
AcDbEntity
  8
MODEL
100
AcDbLine
 10
1589.470786995696
 20
750.1772505216693
 30
0.0
 11
1589.470786995695
 21
995.2064444741644
 31
0.0
  0
DIMENSION
  5
3AB9
330
A
100
AcDbEntity
  8
DIM
100
AcDbDimension
  2
*D36
 10
1052.765737909557
 20
1344.06299083037
 30
0.0
 11
1052.765737909557
 21
1047.177649771351
 31
0.0
 70
   160
  1
590
 71
     5
 42
593.7706821180383
 73
     0
 74
     0
 75
     0
  3
tfrom線あり
100
AcDbAlignedDimension
 13
904.1086056022344
 23
750.2923087123316
 33
0.0
 14
904.1086317779803
 24
1344.06299083037
 34
0.0
 50
90.0
100
AcDbRotatedDimension
  0
DIMENSION
  5
3AC8
330
A
100
AcDbEntity
  8
DIM
100
AcDbDimension
  2
*D37
 10
1634.470786995696
 20
651.8053343209657
 30
0.0
 11
1612.019295293389
 21
683.8098360090987
 31
0.0
 70
    32
 71
     5
 42
44.90298340461459
 73
     0
 74
     1
 75
     1
  3
tfrom線あり
100
AcDbAlignedDimension
 13
1589.567803591081
 23
747.3404045066521
 33
0.0
 14
1634.470786995696
 24
747.9099062645324
 34
0.0
100
AcDbRotatedDimension
1001
ACAD
1000
DSTYLE
1002
{
1070
   172
1070
     1
1002
}
  0
CIRCLE
  5
3B47
330
A
100
AcDbEntity
  8
HIDDEN
 48
0.3
100
AcDbCircle
 10
500.638587122109
 20
2215.204292490286
 30
0.0
 40
17.5
  0
CIRCLE
  5
3B48
330
A
100
AcDbEntity
  8
HIDDEN
 48
0.3
100
AcDbCircle
 10
500.638587122109
 20
2115.204292490285
 30
0.0
 40
16.0
  0
CIRCLE
  5
3B49
330
A
100
AcDbEntity
  8
HIDDEN
 48
0.3
100
AcDbCircle
 10
500.638587122109
 20
2315.204320812114
 30
0.0
 40
16.0
  0
ARC
  5
3B4A
330
A
100
AcDbEntity
  8
HIDDEN
 48
0.5
100
AcDbCircle
 10
643.6370270365869
 20
2215.204292490286
 30
0.0
 40
22.5
100
AcDbArc
 50
179.9999999997869
 51
359.9999999993723
  0
ARC
  5
3B4B
330
A
100
AcDbEntity
  8
HIDDEN
 48
0.5
100
AcDbCircle
 10
643.6370270365869
 20
2215.204292490286
 30
0.0
 40
37.5
100
AcDbArc
 50
179.9999999997888
 51
359.9999999993733
  0
ARC
  5
3B4C
330
A
100
AcDbEntity
  8
HIDDEN
 48
0.5
100
AcDbCircle
 10
643.6370270365869
 20
2215.204292490286
 30
0.0
 40
22.5
100
AcDbArc
 50
0.0000000002061248
 51
179.9999999997869
  0
ARC
  5
3B4D
330
A
100
AcDbEntity
  8
HIDDEN
 48
0.5
100
AcDbCircle
 10
643.6370270365869
 20
2215.204292490286
 30
0.0
 40
37.5
100
AcDbArc
 50
0.0000000002070512
 51
179.9999999997888
  0
HATCH
  5
3B4E
330
A
100
AcDbEntity
  8
DIM
100
AcDbHatch
 10
0.0
 20
0.0
 30
0.0
210
0.0
220
0.0
230
1.0
  2
ANSI31
 70
     0
 71
     1
 91
        1
 92
        1
 93
        4
 72
     1
 10
464.3416684743436
 20
2050.204292490265
 11
733.6370270365887
 21
2050.20429249027
 72
     1
 10
733.6370270365887
 20
2050.20429249027
 11
733.6370270365869
 21
2380.20429249027
 72
     1
 10
464.3416684743427
 20
2380.204292490266
 11
733.6370270365869
 21
2380.20429249027
 72
     1
 10
464.3416684743427
 20
2380.204292490266
 11
464.3416684743436
 21
2050.204292490265
 97
        4
330
3B4F
330
3B59
330
3B50
330
3B5A
 75
     0
 76
     1
 52
0.0
 41
6.0
 77
     0
 78
     1
 53
45.0
 43
20.345664279419
 44
-112.9121301780078
 45
-13.47038418160373
 46
13.47038418160373
 79
     0
 98
        1
 10
20.345664279419
 20
-112.9121301780078
1001
ACAD
1010
0.0
1020
0.0
1030
0.0
  0
LINE
  5
3B4F
102
{ACAD_REACTORS
330
3B4E
102
}
330
A
100
AcDbEntity
  8
MODEL
100
AcDbLine
 10
464.3416684743436
 20
2050.204292490265
 30
0.0
 11
733.6370270365887
 21
2050.20429249027
 31
0.0
  0
LINE
  5
3B50
102
{ACAD_REACTORS
330
3B4E
102
}
330
A
100
AcDbEntity
  8
MODEL
100
AcDbLine
 10
464.3416684743427
 20
2380.204292490266
 30
0.0
 11
733.6370270365869
 21
2380.20429249027
 31
0.0
  0
MTEXT
  5
3B51
330
A
100
AcDbEntity
  8
notes
 62
     7
390
1D
100
AcDbMText
 10
221.4747771052487
 20
2060.940762251349
 30
0.0
 40
24.4326171875
 41
0.0
 46
0.0
 71
     1
 72
     1
  1
カウンター切込寸法
  7
ＭＳ ゴシック
 11
0.0
 21
1.0
 31
0.0
 73
     1
 44
0.7828267384257843
  0
LINE
  5
3B52
102
{ACAD_REACTORS
330
3B5D
102
}
330
A
100
AcDbEntity
  8
ADF70-0001
  6
Continuous
 62
     7
370
     5
390
1D
100
AcDbLine
 10
434.3416684743429
 20
1891.668344646192
 30
0.0
 11
434.3416684743429
 21
2604.711593170112
 31
0.0
  0
LINE
  5
3B53
330
A
100
AcDbEntity
  8
ADF70-0001
  6
Continuous
 62
     7
370
    15
390
1D
100
AcDbLine
 10
433.6508657006482
 20
2523.501025813066
 30
0.0
 11
396.6508657006482
 21
2560.501025813066
 31
0.0
  0
LINE
  5
3B54
330
A
100
AcDbEntity
  8
ADF70-0001
  6
Continuous
 62
     7
370
    15
390
1D
100
AcDbLine
 10
433.6508657006482
 20
2543.501025813066
 30
0.0
 11
396.6508657006482
 21
2580.501025813066
 31
0.0
  0
LINE
  5
3B55
330
A
100
AcDbEntity
  8
ADF70-0001
  6
Continuous
 62
     7
370
    15
390
1D
100
AcDbLine
 10
433.6508657006482
 20
2563.501025813066
 30
0.0
 11
396.6508657006482
 21
2600.501025813066
 31
0.0
  0
DIMENSION
  5
3B56
330
A
100
AcDbEntity
  8
DIM
100
AcDbDimension
  2
*D42
 10
902.0992370748074
 20
2050.20429249027
 30
0.0
 11
902.0992370748074
 21
2215.20429249027
 31
0.0
 70
   160
 71
     5
 42
330.0000000000005
 73
     0
 74
     0
 75
     0
  3
tfrom線あり
100
AcDbAlignedDimension
 13
733.6370270365869
 23
2380.20429249027
 33
0.0
 14
733.6370270365887
 24
2050.20429249027
 34
0.0
 50
90.0
100
AcDbRotatedDimension
  0
DIMENSION
  5
3B58
330
A
100
AcDbEntity
  8
DIM
100
AcDbDimension
  2
*D43
 10
733.6370270365869
 20
2514.908258626065
 30
0.0
 11
598.9893477554648
 21
2514.908258626065
 31
0.0
 70
   160
  1
270
 71
     5
 42
269.2953585622442
 73
     0
 74
     0
 75
     0
  3
tfrom線あり
100
AcDbAlignedDimension
 13
464.3416684743427
 23
2380.204292490266
 33
0.0
 14
733.6370270365869
 24
2381.298665049969
 34
0.0
100
AcDbRotatedDimension
  0
LINE
  5
3B59
102
{ACAD_REACTORS
330
3B4E
102
}
330
A
100
AcDbEntity
  8
MODEL
100
AcDbLine
 10
733.6370270365887
 20
2050.20429249027
 30
0.0
 11
733.6370270365869
 21
2380.20429249027
 31
0.0
  0
LINE
  5
3B5A
102
{ACAD_REACTORS
330
3B5D
330
3B4E
102
}
330
A
100
AcDbEntity
  8
MODEL
100
AcDbLine
 10
464.3416684743427
 20
2380.204292490266
 30
0.0
 11
464.3416684743436
 21
2050.204292490265
 31
0.0
  0
DIMENSION
  5
3B5B
102
{ACAD_REACTORS
330
3B5D
102
}
102
{ACAD_XDICTIONARY
360
3B5C
102
}
330
A
100
AcDbEntity
  8
DIM
100
AcDbDimension
  2
*D44
 10
434.3416684743429
 20
2514.908258626065
 30
0.0
 11
449.3416684743428
 21
2546.912760314198
 31
0.0
 70
    32
 71
     5
 42
29.99999999999977
 73
     0
 74
     1
 75
     1
  3
tfrom線あり
100
AcDbAlignedDimension
 13
464.3416684743427
 23
2380.204292490266
 33
0.0
 14
434.3416684743429
 24
2380.204292490266
 34
0.0
100
AcDbRotatedDimension
1001
ACAD
1000
DSTYLE
1002
{
1070
   172
1070
     1
1002
}
  0
VIEWPORT
  5
349
330
B
100
AcDbEntity
 67
     1
  8
0
100
AcDbViewport
 10
202.5
 20
128.5
 30
0.0
 40
486.0
 41
308.4
 68
     1
 69
     1
 12
202.5
 22
128.5
 13
0.0
 23
0.0
 14
0.5
 24
0.5
 15
0.0
 25
0.0
 16
0.0
 26
0.0
 36
1.0
 17
0.0
 27
0.0
 37
0.0
 42
50.0
 43
0.0
 44
0.0
 45
308.4
 50
0.0
 51
0.0
 72
   100
 90
   557152
  1

281
     0
 71
     1
 74
     0
110
0.0
120
0.0
130
0.0
111
1.0
121
0.0
131
0.0
112
0.0
122
1.0
132
0.0
 79
     0
146
0.0
170
     0
 61
     5
348
26C
292
     1
282
     1
141
0.0
142
0.0
 63
   256
  0
VIEWPORT
  5
34A
330
B
100
AcDbEntity
 67
     1
  8
0
100
AcDbViewport
 10
202.5
 20
128.5
 30
0.0
 40
324.0
 41
205.6
 68
     2
 69
     2
 12
986.6781359294573
 22
1427.077061889956
 13
0.0
 23
0.0
 14
0.5
 24
0.5
 15
0.0
 25
0.0
 16
0.0
 26
0.0
 36
1.0
 17
0.0
 27
0.0
 37
0.0
 42
50.0
 43
0.0
 44
0.0
 45
2890.021615685494
 50
0.0
 51
0.0
 72
   100
 90
   557152
  1

281
     0
 71
     1
 74
     0
110
0.0
120
0.0
130
0.0
111
1.0
121
0.0
131
0.0
112
0.0
122
1.0
132
0.0
 79
     0
146
0.0
170
     0
 61
     5
348
26C
292
     1
282
     1
141
0.0
142
0.0
 63
   256
  0
ENDSEC
  0
SECTION
  2
OBJECTS
  0
DICTIONARY
  5
19
330
0
100
AcDbDictionary
281
     1
  3
ACAD_COLOR
350
674
  3
ACAD_DETAILVIEWSTYLE
350
BBF
  3
ACAD_FIELDLIST
350
146A
  3
ACAD_GROUP
350
1A
  3
ACAD_IMAGE_VARS
350
27B
  3
ACAD_LAYOUT
350
1E
  3
ACAD_MATERIAL
350
263
  3
ACAD_MLEADERSTYLE
350
336
  3
ACAD_MLINESTYLE
350
1B
  3
ACAD_PLOTSETTINGS
350
22
  3
ACAD_PLOTSTYLENAME
350
1F
  3
ACAD_SCALELIST
350
241
  3
ACAD_SECTIONVIEWSTYLE
350
BC0
  3
ACAD_TABLESTYLE
350
278
  3
ACAD_VISUALSTYLE
350
267
  3
ACDB_RECOMPOSE_DATA
350
3B8B
  3
AcDbVariableDictionary
350
330
  3
APPDATA
350
27A
  3
DimOffsetDictionary
350
E3E
  0
SUN
  5
904
330
15
100
AcDbSun
 90
        1
290
     0
 63
     7
421
 16777215
 40
1.0
291
     1
 91
  2455826
 92
 54000000
292
     0
 70
     2
 71
   256
280
     1
  0
DICTIONARY
  5
2E1
330
2
100
AcDbDictionary
280
     1
281
     1
  3
ACAD_LAYERSTATES
360
2E2
  3
ACLYDICTIONARY
360
DF9
  0
DICTIONARY
  5
374D
330
A
100
AcDbDictionary
280
     1
281
     1
  3
ACAD_SORTENTS
360
374E
  0
DICTIONARY
  5
1468
330
1466
100
AcDbDictionary
280
     1
281
     1
  3
ACAD_FIELD
360
3A87
  0
DICTIONARY
  5
395E
330
395D
100
AcDbDictionary
280
     1
281
     1
  3
ACAD_DIMASSOC
360
395F
  0
DICTIONARY
  5
3961
330
3960
100
AcDbDictionary
280
     1
281
     1
  3
ACAD_DIMASSOC
360
3962
  0
DICTIONARY
  5
3964
330
3963
100
AcDbDictionary
280
     1
281
     1
  3
ACAD_DIMASSOC
360
3965
  0
DICTIONARY
  5
3967
330
3966
100
AcDbDictionary
280
     1
281
     1
  3
ACAD_DIMASSOC
360
3968
  0
DICTIONARY
  5
3998
330
3997
100
AcDbDictionary
280
     1
281
     1
  3
ACAD_DIMASSOC
360
3999
  0
DICTIONARY
  5
399B
330
399A
100
AcDbDictionary
280
     1
281
     1
  3
ACAD_DIMASSOC
360
399C
  0
DICTIONARY
  5
39A3
330
39A2
100
AcDbDictionary
280
     1
281
     1
  3
ACAD_DIMASSOC
360
39A4
  0
DICTIONARY
  5
39A6
330
39A5
100
AcDbDictionary
280
     1
281
     1
  3
ACAD_DIMASSOC
360
39A7
  0
DICTIONARY
  5
39A9
330
39A8
100
AcDbDictionary
280
     1
281
     1
  3
ACAD_DIMASSOC
360
39AA
  0
DICTIONARY
  5
39AD
330
39AC
100
AcDbDictionary
280
     1
281
     1
  3
ACAD_DIMASSOC
360
39AE
  0
DICTIONARY
  5
3B5C
330
3B5B
100
AcDbDictionary
280
     1
281
     1
  3
ACAD_DIMASSOC
360
3B5D
  0
DICTIONARY
  5
674
102
{ACAD_REACTORS
330
19
102
}
330
19
100
AcDbDictionary
281
     1
  0
DICTIONARY
  5
BBF
102
{ACAD_REACTORS
330
19
102
}
330
19
100
AcDbDictionary
281
     1
  0
FIELDLIST
  5
146A
102
{ACAD_REACTORS
330
19
102
}
330
19
100
AcDbIdSet
 90
        2
330
146B
330
1467
100
AcDbFieldList
  0
DICTIONARY
  5
1A
102
{ACAD_REACTORS
330
19
102
}
330
19
100
AcDbDictionary
281
     1
  3
*A1
350
36AC
  0
RASTERVARIABLES
  5
27B
102
{ACAD_REACTORS
330
19
102
}
330
19
100
AcDbRasterVariables
 90
        0
 70
     1
 71
     1
 72
     1
  0
DICTIONARY
  5
1E
102
{ACAD_REACTORS
330
19
102
}
330
19
100
AcDbDictionary
281
     1
  3
Layout1
350
21
  3
Model
350
20
  0
DICTIONARY
  5
263
102
{ACAD_REACTORS
330
19
102
}
330
19
100
AcDbDictionary
281
     1
  3
ByBlock
350
265
  3
ByLayer
350
264
  3
Global
350
266
  0
DICTIONARY
  5
336
102
{ACAD_REACTORS
330
19
102
}
330
19
100
AcDbDictionary
281
     1
  3
Standard
350
DAB
  0
DICTIONARY
  5
1B
102
{ACAD_REACTORS
330
19
102
}
330
19
100
AcDbDictionary
281
     1
  3
Standard
350
1C
  0
DICTIONARY
  5
22
102
{ACAD_REACTORS
330
19
102
}
330
19
100
AcDbDictionary
281
     1
  0
ACDBDICTIONARYWDFLT
  5
1F
102
{ACAD_REACTORS
330
19
102
}
330
19
100
AcDbDictionary
281
     1
  3
Normal
350
1D
100
AcDbDictionaryWithDefault
340
1D
  0
DICTIONARY
  5
241
102
{ACAD_REACTORS
330
19
102
}
330
19
100
AcDbDictionary
281
     1
  3
A0
350
242
  3
A1
350
243
  3
A2
350
244
  3
A3
350
245
  3
A4
350
246
  3
A5
350
247
  3
A6
350
248
  3
A7
350
249
  3
A8
350
24A
  3
A9
350
24B
  3
B0
350
24C
  3
B1
350
24D
  3
B2
350
24E
  3
B3
350
24F
  3
B4
350
250
  3
B5
350
251
  3
B6
350
252
  3
B7
350
253
  3
B8
350
254
  3
B9
350
255
  3
C0
350
256
  3
C1
350
257
  3
C2
350
258
  3
C3
350
259
  3
C4
350
25A
  3
C5
350
25B
  3
C6
350
25C
  3
C7
350
25D
  3
C8
350
25E
  3
C9
350
25F
  3
D0
350
260
  3
D1
350
261
  3
D2
350
262
  0
DICTIONARY
  5
BC0
102
{ACAD_REACTORS
330
19
102
}
330
19
100
AcDbDictionary
281
     1
  0
DICTIONARY
  5
278
102
{ACAD_REACTORS
330
19
102
}
330
19
100
AcDbDictionary
281
     1
  3
Standard
350
279
  0
DICTIONARY
  5
267
102
{ACAD_REACTORS
330
19
102
}
330
19
100
AcDbDictionary
281
     1
  3
2dWireframe
350
26C
  3
3D Hidden
350
26E
  3
3dWireframe
350
26D
  3
Basic
350
26F
  3
Brighten
350
273
  3
ColorChange
350
277
  3
Conceptual
350
271
  3
Dim
350
272
  3
EdgeColorOff
350
8FE
  3
Facepattern
350
276
  3
Flat
350
268
  3
FlatWithEdges
350
269
  3
Gouraud
350
26A
  3
GouraudWithEdges
350
26B
  3
Hidden
350
8FB
  3
JitterOff
350
8FC
  3
Linepattern
350
275
  3
OverhangOff
350
8FD
  3
Realistic
350
270
  3
Shaded
350
903
  3
Shaded with edges
350
902
  3
Shades of Gray
350
8FF
  3
Sketchy
350
900
  3
Thicken
350
274
  3
Wireframe
350
8FA
  3
X-Ray
350
901
  0
XRECORD
  5
3B8B
102
{ACAD_REACTORS
330
19
102
}
330
19
100
AcDbXrecord
280
     1
 90
        1
330
279
  0
DICTIONARY
  5
330
102
{ACAD_REACTORS
330
19
102
}
330
19
100
AcDbDictionary
281
     1
  3
CANNOSCALE
350
331
  3
CMLEADERSTYLE
350
DB1
  3
CTABLESTYLE
350
335
  3
HPTRANSPARENCY
350
D52
  3
XCLIPFRAME
350
896
  0
DICTIONARY
  5
27A
102
{ACAD_REACTORS
330
19
102
}
330
19
100
AcDbDictionary
281
     1
  0
DICTIONARY
  5
E3E
102
{ACAD_REACTORS
330
19
102
}
330
19
100
AcDbDictionary
281
     1
  3
DIMRAILANGLE
350
ECE
  3
DIMRAILFIRSTOFFSET
350
ECC
  3
DIMRAILOFFSET
350
ECD
  3
DIMRAILSENABLED
350
ECF
  0
DICTIONARY
  5
2E2
102
{ACAD_REACTORS
330
2E1
102
}
330
2E1
100
AcDbDictionary
281
     1
  0
DICTIONARY
  5
DF9
102
{ACAD_REACTORS
330
2E1
102
}
330
2E1
100
AcDbDictionary
281
     1
1001
ACAD
1000
<All
  0
SORTENTSTABLE
  5
374E
102
{ACAD_REACTORS
330
374D
102
}
330
374D
100
AcDbSortentsTable
330
A
331
369B
  5
35AE
331
369C
  5
369A
331
36A7
  5
369B
331
36A8
  5
369C
331
36A9
  5
36A7
331
36AA
  5
36A8
331
36AB
  5
36A9
331
390F
  5
3910
331
3910
  5
3911
331
3911
  5
3912
331
3912
  5
3913
331
3913
  5
3914
331
3914
  5
3915
331
3916
  5
3918
331
3917
  5
3919
331
3918
  5
391A
331
3919
  5
391C
331
391A
  5
391D
331
391C
  5
391E
331
391D
  5
391F
331
391E
  5
3920
331
391F
  5
3921
331
3920
  5
3922
331
3921
  5
3923
331
3922
  5
3928
331
3923
  5
3929
331
3939
  5
393B
331
393A
  5
393C
331
393B
  5
393D
331
393C
  5
393E
331
393D
  5
393F
331
393E
  5
3940
331
393F
  5
3941
331
3940
  5
3942
331
3941
  5
3943
331
3942
  5
3944
331
3943
  5
3945
331
3944
  5
3946
331
3945
  5
3947
331
3946
  5
3948
331
3947
  5
3949
331
3948
  5
394A
331
3949
  5
394B
331
394A
  5
394C
331
394B
  5
394D
331
394C
  5
394E
331
394D
  5
394F
331
394E
  5
3950
331
394F
  5
3951
331
3950
  5
3952
331
3951
  5
3953
331
3952
  5
3954
331
3953
  5
3955
331
3954
  5
3956
331
3955
  5
3957
331
3956
  5
3958
331
3957
  5
3959
331
3958
  5
395A
331
3959
  5
395B
331
395A
  5
395C
331
395B
  5
395D
331
395C
  5
3960
331
395D
  5
3963
331
3960
  5
3966
331
3963
  5
3969
331
3966
  5
396A
331
3969
  5
396B
331
3984
  5
3987
331
3985
  5
3988
331
3987
  5
3989
331
3988
  5
398A
331
3989
  5
398B
331
398A
  5
398C
331
398B
  5
398D
331
398C
  5
398E
331
398D
  5
398F
331
398E
  5
3990
331
398F
  5
3991
331
3990
  5
3992
331
3991
  5
3993
331
3992
  5
3994
331
3993
  5
3995
331
3994
  5
3996
331
3995
  5
3997
331
3996
  5
399A
331
3997
  5
399D
331
399A
  5
39A0
331
399D
  5
39A1
331
39A0
  5
39A2
331
39A1
  5
39A5
331
39A2
  5
39A8
331
39A5
  5
39AB
331
39A8
  5
39AC
331
39AC
  5
3A6E
331
3A6E
  5
3A70
331
3A6F
  5
3A71
331
3A70
  5
3A72
331
3A71
  5
3A73
331
3A72
  5
3A74
331
3A73
  5
3A75
331
3A74
  5
3A76
331
3A76
  5
3A78
331
3A77
  5
3A79
331
3A78
  5
3A7A
331
3A79
  5
3A7B
331
3A7A
  5
3A7C
331
3A7B
  5
3A7D
331
3A7C
  5
3A7E
331
3A7D
  5
3A7F
331
3A7E
  5
3A80
331
3A7F
  5
3A83
331
3A80
  5
3A84
331
3A83
  5
3AAB
331
3A84
  5
3AAC
331
3AAB
  5
3AB3
331
3AAC
  5
3AB4
331
3AB4
  5
390F
  0
DICTIONARY
  5
3A87
102
{ACAD_REACTORS
330
1468
102
}
330
1468
100
AcDbDictionary
280
     1
281
     1
  3
TEXT
360
1467
  0
DIMASSOC
  5
395F
102
{ACAD_REACTORS
330
395E
102
}
330
395E
100
AcDbDimAssoc
330
395D
 90
        3
 70
     0
 71
     1
  1
AcDbOsnapPointRef
 72
    10
331
394E
 73
     0
 91
        0
 40
0.9936493955795695
 10
0.0
 20
0.0
 30
0.0
 75
     0
  1
AcDbOsnapPointRef
 72
     1
331
3953
 73
     0
 91
        0
 40
0.0
 10
0.0
 20
0.0
 30
0.0
 75
     0
  0
DIMASSOC
  5
3962
102
{ACAD_REACTORS
330
3961
102
}
330
3961
100
AcDbDimAssoc
330
3960
 90
        1
 70
     0
 71
     1
  1
AcDbOsnapPointRef
 72
    13
331
3949
 73
     0
 91
        0
 40
0.0
 10
0.0
 20
0.0
 30
0.0
 75
     0
  0
DIMASSOC
  5
3965
102
{ACAD_REACTORS
330
3964
102
}
330
3964
100
AcDbDimAssoc
330
3963
 90
        2
 70
     0
 71
     1
  1
AcDbOsnapPointRef
 72
     8
331
394E
 73
     0
 91
        0
 40
0.2377738398527303
 10
0.0
 20
0.0
 30
0.0
 75
     1
  1
AcDbOsnapPointRef
 72
    10
331
394F
 73
     0
 91
        0
 40
0.4135827776532307
 10
0.0
 20
0.0
 30
0.0
 75
     0
  0
DIMASSOC
  5
3968
102
{ACAD_REACTORS
330
3967
102
}
330
3967
100
AcDbDimAssoc
330
3966
 90
        3
 70
     0
 71
     1
  1
AcDbOsnapPointRef
 72
    13
331
3948
 73
     0
 91
        0
 40
0.0
 10
0.0
 20
0.0
 30
0.0
 75
     0
  1
AcDbOsnapPointRef
 72
     2
331
3944
 73
     0
 91
        0
 40
0.5
 10
0.0
 20
0.0
 30
0.0
 75
     0
  0
DIMASSOC
  5
3999
102
{ACAD_REACTORS
330
3998
102
}
330
3998
100
AcDbDimAssoc
330
3997
 90
        3
 70
     0
 71
     1
  1
AcDbOsnapPointRef
 72
     3
331
3995
 73
     0
 91
        0
 40
0.0
 10
0.0
 20
0.0
 30
0.0
 75
     0
  1
AcDbOsnapPointRef
 72
     2
331
393C
 73
     0
 91
        0
 40
0.5
 10
0.0
 20
0.0
 30
0.0
 75
     0
  0
DIMASSOC
  5
399C
102
{ACAD_REACTORS
330
399B
102
}
330
399B
100
AcDbDimAssoc
330
399A
 90
        1
 70
     0
 71
     1
  1
AcDbOsnapPointRef
 72
    10
331
3992
 73
     0
 91
        0
 40
2.839301578641143
 10
0.0
 20
0.0
 30
0.0
 75
     0
  0
DIMASSOC
  5
39A4
102
{ACAD_REACTORS
330
39A3
102
}
330
39A3
100
AcDbDimAssoc
330
39A2
 90
        3
 70
     0
 71
     1
  1
AcDbOsnapPointRef
 72
     3
331
3901
 73
     0
 91
        0
 40
0.0
 10
0.0
 20
0.0
 30
0.0
 75
     0
  1
AcDbOsnapPointRef
 72
     3
331
3900
 73
     0
 91
        0
 40
0.0
 10
0.0
 20
0.0
 30
0.0
 75
     0
  0
DIMASSOC
  5
39A7
102
{ACAD_REACTORS
330
39A6
102
}
330
39A6
100
AcDbDimAssoc
330
39A5
 90
        1
 70
     0
 71
     1
  1
AcDbOsnapPointRef
 72
     3
331
3900
 73
     0
 91
        0
 40
0.0
 10
0.0
 20
0.0
 30
0.0
 75
     0
  0
DIMASSOC
  5
39AA
102
{ACAD_REACTORS
330
39A9
102
}
330
39A9
100
AcDbDimAssoc
330
39A8
 90
        0
 70
     0
 71
     1
  0
DIMASSOC
  5
39AE
102
{ACAD_REACTORS
330
39AD
102
}
330
39AD
100
AcDbDimAssoc
330
39AC
 90
        2
 70
     0
 71
     1
  1
AcDbOsnapPointRef
 72
     1
331
398C
 73
     0
 91
        0
 40
0.0
 10
0.0
 20
0.0
 30
0.0
 75
     0
  0
DIMASSOC
  5
3B5D
102
{ACAD_REACTORS
330
3B5C
102
}
330
3B5C
100
AcDbDimAssoc
330
3B5B
 90
        3
 70
     0
 71
     1
  1
AcDbOsnapPointRef
 72
    13
331
3B5A
 73
     0
 91
        0
 40
0.0
 10
0.0
 20
0.0
 30
0.0
 75
     0
  1
AcDbOsnapPointRef
 72
     8
331
3B52
 73
     0
 91
        0
 40
0.685142098821352
 10
0.0
 20
0.0
 30
0.0
 75
     1
  1
AcDbOsnapPointRef
 72
    13
331
3B5A
 73
     0
 91
        0
 40
0.0
 10
0.0
 20
0.0
 30
0.0
 75
     0
  0
GROUP
  5
36AC
102
{ACAD_REACTORS
330
1A
102
}
330
1A
100
AcDbGroup
300

 70
     1
 71
     1
340
369B
340
369C
340
36A7
340
36A8
340
36A9
340
36AA
340
36AB
  0
LAYOUT
  5
21
102
{ACAD_REACTORS
330
1E
102
}
330
1E
100
AcDbPlotSettings
  1

  2
none_device
  4
ISO_A3_(420.00_x_297.00_MM)
  6

 40
7.5
 41
20.0
 42
7.5
 43
20.0
 44
420.0
 45
297.0
 46
0.0
 47
0.0
 48
0.0
 49
0.0
140
0.0
141
0.0
142
1.0
143
1.0
 70
     0
 72
     1
 73
     0
 74
     0
  7

 75
     0
 76
     0
 77
     2
 78
   300
147
1.0
148
0.0
149
0.0
100
AcDbLayout
  1
Layout1
 70
     0
 71
     0
 10
-7.5
 20
-20.0
 11
412.5
 21
277.0
 12
0.0
 22
0.0
 32
0.0
 14
0.0
 24
0.0
 34
0.0
 15
0.0
 25
0.0
 35
0.0
146
0.0
 13
0.0
 23
0.0
 33
0.0
 16
0.0
 26
0.0
 36
0.0
 17
0.0
 27
0.0
 37
0.0
 76
     0
330
B
331
349
  0
LAYOUT
  5
20
102
{ACAD_REACTORS
330
1E
102
}
330
1E
100
AcDbPlotSettings
  1

  2
none_device
  4
ISO_A3_(420.00_x_297.00_MM)
  6

 40
7.5
 41
20.0
 42
7.5
 43
20.0
 44
420.0
 45
297.0
 46
0.0
 47
0.0
 48
0.0
 49
0.0
140
0.0
141
0.0
142
1.0
143
1.0
 70
  1024
 72
     1
 73
     0
 74
     0
  7

 75
     0
 76
     0
 77
     2
 78
   300
147
1.0
148
0.0
149
0.0
100
AcDbLayout
  1
Model
 70
     0
 71
     1
 10
0.0
 20
0.0
 11
2100.0
 21
2970.0
 12
0.0
 22
0.0
 32
0.0
 14
0.0
 24
0.0
 34
-0.0000000000000142
 15
2100.0
 25
2970.0
 35
0.0000000000000071
146
0.0
 13
0.0
 23
0.0
 33
0.0
 16
0.0
 26
0.0
 36
0.0
 17
0.0
 27
0.0
 37
0.0
 76
     0
330
A
331
15
  0
MATERIAL
  5
265
102
{ACAD_REACTORS
330
263
102
}
330
263
100
AcDbMaterial
  1
ByBlock
 72
     1
 94
      127
  0
MATERIAL
  5
264
102
{ACAD_REACTORS
330
263
102
}
330
263
100
AcDbMaterial
  1
ByLayer
 72
     1
 94
      127
  0
MATERIAL
  5
266
102
{ACAD_REACTORS
330
263
102
}
330
263
100
AcDbMaterial
  1
Global
 72
     1
 94
      127
  0
MLEADERSTYLE
  5
DAB
102
{ACAD_REACTORS
330
336
102
}
330
336
100
AcDbMLeaderStyle
170
     2
171
     1
172
     0
 90
        2
 40
0.0
 41
0.0
173
     1
 91
-1056964608
340
11
 92
       -2
290
     1
 42
2.0
291
     1
 43
8.0
  3
Standard
341
0
 44
4.0
300

342
17
174
     1
178
     6
175
     1
176
     0
 93
-1056964608
 45
4.0
292
     0
297
     0
 46
4.0
343
0
 94
-1056964608
 47
1.0
 49
1.0
140
1.0
293
     1
141
0.0
294
     1
177
     0
142
1.0
295
     0
296
     0
143
3.75
1001
ACAD_MLEADERVER
1070
     2
  0
MLINESTYLE
  5
1C
102
{ACAD_REACTORS
330
1B
102
}
330
1B
100
AcDbMlineStyle
  2
Standard
 70
     0
  3

 62
     0
 51
90.0
 52
90.0
 71
     2
 49
0.5
 62
   256
  6
BYLAYER
 49
-0.5
 62
   256
  6
BYLAYER
  0
ACDBPLACEHOLDER
  5
1D
102
{ACAD_REACTORS
330
1F
102
}
330
1F
  0
SCALE
  5
242
102
{ACAD_REACTORS
330
241
102
}
330
241
100
AcDbScale
 70
     0
300
1:1
140
1.0
141
1.0
290
     1
  0
SCALE
  5
243
102
{ACAD_REACTORS
330
241
102
}
330
241
100
AcDbScale
 70
     0
300
1:2
140
1.0
141
2.0
290
     0
  0
SCALE
  5
244
102
{ACAD_REACTORS
330
241
102
}
330
241
100
AcDbScale
 70
     0
300
1:4
140
1.0
141
4.0
290
     0
  0
SCALE
  5
245
102
{ACAD_REACTORS
330
241
102
}
330
241
100
AcDbScale
 70
     0
300
1:5
140
1.0
141
5.0
290
     0
  0
SCALE
  5
246
102
{ACAD_REACTORS
330
241
102
}
330
241
100
AcDbScale
 70
     0
300
1:8
140
1.0
141
8.0
290
     0
  0
SCALE
  5
247
102
{ACAD_REACTORS
330
241
102
}
330
241
100
AcDbScale
 70
     0
300
1:10
140
1.0
141
10.0
290
     0
  0
SCALE
  5
248
102
{ACAD_REACTORS
330
241
102
}
330
241
100
AcDbScale
 70
     0
300
1:16
140
1.0
141
16.0
290
     0
  0
SCALE
  5
249
102
{ACAD_REACTORS
330
241
102
}
330
241
100
AcDbScale
 70
     0
300
1:20
140
1.0
141
20.0
290
     0
  0
SCALE
  5
24A
102
{ACAD_REACTORS
330
241
102
}
330
241
100
AcDbScale
 70
     0
300
1:30
140
1.0
141
30.0
290
     0
  0
SCALE
  5
24B
102
{ACAD_REACTORS
330
241
102
}
330
241
100
AcDbScale
 70
     0
300
1:40
140
1.0
141
40.0
290
     0
  0
SCALE
  5
24C
102
{ACAD_REACTORS
330
241
102
}
330
241
100
AcDbScale
 70
     0
300
1:50
140
1.0
141
50.0
290
     0
  0
SCALE
  5
24D
102
{ACAD_REACTORS
330
241
102
}
330
241
100
AcDbScale
 70
     0
300
1:100
140
1.0
141
100.0
290
     0
  0
SCALE
  5
24E
102
{ACAD_REACTORS
330
241
102
}
330
241
100
AcDbScale
 70
     0
300
2:1
140
2.0
141
1.0
290
     0
  0
SCALE
  5
24F
102
{ACAD_REACTORS
330
241
102
}
330
241
100
AcDbScale
 70
     0
300
4:1
140
4.0
141
1.0
290
     0
  0
SCALE
  5
250
102
{ACAD_REACTORS
330
241
102
}
330
241
100
AcDbScale
 70
     0
300
8:1
140
8.0
141
1.0
290
     0
  0
SCALE
  5
251
102
{ACAD_REACTORS
330
241
102
}
330
241
100
AcDbScale
 70
     0
300
10:1
140
10.0
141
1.0
290
     0
  0
SCALE
  5
252
102
{ACAD_REACTORS
330
241
102
}
330
241
100
AcDbScale
 70
     0
300
100:1
140
100.0
141
1.0
290
     0
  0
SCALE
  5
253
102
{ACAD_REACTORS
330
241
102
}
330
241
100
AcDbScale
 70
     0
300
1/128" = 1'-0"
140
0.0078125
141
12.0
290
     0
  0
SCALE
  5
254
102
{ACAD_REACTORS
330
241
102
}
330
241
100
AcDbScale
 70
     0
300
1/64" = 1'-0"
140
0.015625
141
12.0
290
     0
  0
SCALE
  5
255
102
{ACAD_REACTORS
330
241
102
}
330
241
100
AcDbScale
 70
     0
300
1/32" = 1'-0"
140
0.03125
141
12.0
290
     0
  0
SCALE
  5
256
102
{ACAD_REACTORS
330
241
102
}
330
241
100
AcDbScale
 70
     0
300
1/16" = 1'-0"
140
0.0625
141
12.0
290
     0
  0
SCALE
  5
257
102
{ACAD_REACTORS
330
241
102
}
330
241
100
AcDbScale
 70
     0
300
3/32" = 1'-0"
140
0.09375
141
12.0
290
     0
  0
SCALE
  5
258
102
{ACAD_REACTORS
330
241
102
}
330
241
100
AcDbScale
 70
     0
300
1/8" = 1'-0"
140
0.125
141
12.0
290
     0
  0
SCALE
  5
259
102
{ACAD_REACTORS
330
241
102
}
330
241
100
AcDbScale
 70
     0
300
3/16" = 1'-0"
140
0.1875
141
12.0
290
     0
  0
SCALE
  5
25A
102
{ACAD_REACTORS
330
241
102
}
330
241
100
AcDbScale
 70
     0
300
1/4" = 1'-0"
140
0.25
141
12.0
290
     0
  0
SCALE
  5
25B
102
{ACAD_REACTORS
330
241
102
}
330
241
100
AcDbScale
 70
     0
300
3/8" = 1'-0"
140
0.375
141
12.0
290
     0
  0
SCALE
  5
25C
102
{ACAD_REACTORS
330
241
102
}
330
241
100
AcDbScale
 70
     0
300
1/2" = 1'-0"
140
0.5
141
12.0
290
     0
  0
SCALE
  5
25D
102
{ACAD_REACTORS
330
241
102
}
330
241
100
AcDbScale
 70
     0
300
3/4" = 1'-0"
140
0.75
141
12.0
290
     0
  0
SCALE
  5
25E
102
{ACAD_REACTORS
330
241
102
}
330
241
100
AcDbScale
 70
     0
300
1" = 1'-0"
140
1.0
141
12.0
290
     0
  0
SCALE
  5
25F
102
{ACAD_REACTORS
330
241
102
}
330
241
100
AcDbScale
 70
     0
300
1-1/2" = 1'-0"
140
1.5
141
12.0
290
     0
  0
SCALE
  5
260
102
{ACAD_REACTORS
330
241
102
}
330
241
100
AcDbScale
 70
     0
300
3" = 1'-0"
140
3.0
141
12.0
290
     0
  0
SCALE
  5
261
102
{ACAD_REACTORS
330
241
102
}
330
241
100
AcDbScale
 70
     0
300
6" = 1'-0"
140
6.0
141
12.0
290
     0
  0
SCALE
  5
262
102
{ACAD_REACTORS
330
241
102
}
330
241
100
AcDbScale
 70
     0
300
1'-0" = 1'-0"
140
12.0
141
12.0
290
     0
  0
TABLESTYLE
  5
279
102
{ACAD_REACTORS
330
278
102
}
102
{ACAD_XDICTIONARY
360
3B89
102
}
330
278
100
AcDbTableStyle
  3
Standard
 70
     0
 71
     0
 40
0.06
 41
0.06
280
     0
281
     0
  7
Standard
140
4.5
170
     2
 62
     0
 63
   257
283
     0
 90
        4
 91
        0
  1

274
    -2
284
     1
 64
     0
275
    -2
285
     1
 65
     0
276
    -2
286
     1
 66
     0
277
    -2
287
     1
 67
     0
278
    -2
288
     1
 68
     0
279
    -2
289
     1
 69
     0
  7
Standard
140
6.0
170
     5
 62
     0
 63
   257
283
     0
 90
        4
 91
        0
  1

274
    -2
284
     1
 64
     0
275
    -2
285
     1
 65
     0
276
    -2
286
     1
 66
     0
277
    -2
287
     1
 67
     0
278
    -2
288
     1
 68
     0
279
    -2
289
     1
 69
     0
  7
Standard
140
4.5
170
     5
 62
     0
 63
   257
283
     0
 90
        4
 91
        0
  1

274
    -2
284
     1
 64
     0
275
    -2
285
     1
 65
     0
276
    -2
286
     1
 66
     0
277
    -2
287
     1
 67
     0
278
    -2
288
     1
 68
     0
279
    -2
289
     1
 69
     0
  0
VISUALSTYLE
  5
26C
102
{ACAD_REACTORS
330
267
102
}
330
267
100
AcDbVisualStyle
  2
2dWireframe
 70
     4
 71
     0
 72
     2
 73
     0
 90
        0
 40
-0.6
 41
-30.0
 62
     5
 63
     7
421
 16777215
 74
     1
 91
        4
 64
     7
 65
   257
 75
     1
175
     1
 42
1.0
 92
        0
 66
   257
 43
1.0
 76
     1
 77
     6
 78
     2
 67
     7
 79
     5
170
     0
171
     0
290
     0
174
     0
 93
        1
 44
0.0
173
     0
291
     0
 45
0.0
  0
VISUALSTYLE
  5
26E
102
{ACAD_REACTORS
330
267
102
}
330
267
100
AcDbVisualStyle
  2
3D Hidden
 70
     6
 71
     1
 72
     2
 73
     2
 90
        0
 40
-0.6
 41
-30.0
 62
     5
 63
     7
421
 16777215
 74
     2
 91
        2
 64
     7
 65
   257
 75
     2
175
     1
 42
40.0
 92
        0
 66
   257
 43
1.0
 76
     1
 77
     6
 78
     2
 67
     7
 79
     3
170
     0
171
     0
290
     0
174
     0
 93
        1
 44
0.0
173
     0
291
     0
 45
0.0
  0
VISUALSTYLE
  5
26D
102
{ACAD_REACTORS
330
267
102
}
330
267
100
AcDbVisualStyle
  2
3dWireframe
 70
     5
 71
     0
 72
     2
 73
     0
 90
        0
 40
-0.6
 41
-30.0
 62
     5
 63
     7
421
 16777215
 74
     1
 91
        4
 64
     7
 65
   257
 75
     1
175
     1
 42
1.0
 92
        0
 66
   257
 43
1.0
 76
     1
 77
     6
 78
     2
 67
     7
 79
     5
170
     0
171
     0
290
     0
174
     0
 93
        1
 44
0.0
173
     0
291
     0
 45
0.0
  0
VISUALSTYLE
  5
26F
102
{ACAD_REACTORS
330
267
102
}
330
267
100
AcDbVisualStyle
  2
Basic
 70
     7
 71
     1
 72
     0
 73
     1
 90
        0
 40
-0.6
 41
-30.0
 62
     5
 63
     7
421
 16777215
 74
     0
 91
        4
 64
     7
 65
   257
 75
     1
175
     1
 42
1.0
 92
        8
 66
     7
 43
1.0
 76
     1
 77
     6
 78
     2
 67
     7
 79
     5
170
     0
171
     0
290
     0
174
     0
 93
        1
 44
0.0
173
     0
291
     1
 45
0.0
  0
VISUALSTYLE
  5
273
102
{ACAD_REACTORS
330
267
102
}
330
267
100
AcDbVisualStyle
  2
Brighten
 70
    12
 71
     2
 72
     2
 73
     0
 90
        0
 40
-0.6
 41
-30.0
 62
     5
 63
     7
421
 16777215
 74
     1
 91
        4
 64
     7
 65
   257
 75
     1
175
     1
 42
1.0
 92
        8
 66
     7
 43
1.0
 76
     1
 77
     6
 78
     2
 67
     7
 79
     5
170
     0
171
     0
290
     0
174
     0
 93
        1
 44
50.0
173
     0
291
     1
 45
0.0
  0
VISUALSTYLE
  5
277
102
{ACAD_REACTORS
330
267
102
}
330
267
100
AcDbVisualStyle
  2
ColorChange
 70
    16
 71
     2
 72
     2
 73
     3
 90
        0
 40
-0.6
 41
-30.0
 62
     5
 63
     8
421
  8421504
 74
     1
 91
        4
 64
     7
 65
   257
 75
     1
175
     1
 42
1.0
 92
        8
 66
     8
424
  8421504
 43
1.0
 76
     1
 77
     6
 78
     2
 67
     7
 79
     5
170
     0
171
     0
290
     0
174
     0
 93
        1
 44
0.0
173
     0
291
     1
 45
0.0
  0
VISUALSTYLE
  5
271
102
{ACAD_REACTORS
330
267
102
}
330
267
100
AcDbVisualStyle
  2
Conceptual
 70
     9
 71
     3
 72
     2
 73
     0
 90
        0
 40
-0.6
 41
-30.0
 62
     5
 63
     7
421
 16777215
 74
     2
 91
        2
 64
     7
 65
   257
 75
     1
175
     1
 42
40.0
 92
        8
 66
     7
 43
1.0
 76
     1
 77
     6
 78
     2
 67
     7
 79
     3
170
     0
171
     0
290
     0
174
     0
 93
        1
 44
0.0
173
     0
291
     0
 45
0.0
  0
VISUALSTYLE
  5
272
102
{ACAD_REACTORS
330
267
102
}
330
267
100
AcDbVisualStyle
  2
Dim
 70
    11
 71
     2
 72
     2
 73
     0
 90
        0
 40
-0.6
 41
-30.0
 62
     5
 63
     7
421
 16777215
 74
     1
 91
        4
 64
     7
 65
   257
 75
     1
175
     1
 42
1.0
 92
        8
 66
     7
 43
1.0
 76
     1
 77
     6
 78
     2
 67
     7
 79
     5
170
     0
171
     0
290
     0
174
     0
 93
        1
 44
-50.0
173
     0
291
     1
 45
0.0
  0
VISUALSTYLE
  5
8FE
102
{ACAD_REACTORS
330
267
102
}
330
267
100
AcDbVisualStyle
  2
EdgeColorOff
 70
    22
 71
     2
 72
     2
 73
     0
 90
        0
 40
0.6
 41
30.0
 62
     5
 63
     7
421
 16777215
 74
     1
 91
        4
 64
     7
 65
   257
 75
     1
175
     1
 42
1.0
 92
        8
 66
     7
 43
1.0
 76
     1
 77
     6
 78
     2
 67
     7
 79
     5
170
     0
171
     0
290
     0
174
     0
 93
        1
 44
0.0
173
     0
291
     1
 45
0.0
  0
VISUALSTYLE
  5
276
102
{ACAD_REACTORS
330
267
102
}
330
267
100
AcDbVisualStyle
  2
Facepattern
 70
    15
 71
     2
 72
     2
 73
     0
 90
        0
 40
-0.6
 41
-30.0
 62
     5
 63
     7
421
 16777215
 74
     1
 91
        4
 64
     7
 65
   257
 75
     1
175
     1
 42
1.0
 92
        8
 66
     7
 43
1.0
 76
     1
 77
     6
 78
     2
 67
     7
 79
     5
170
     0
171
     0
290
     0
174
     0
 93
        1
 44
0.0
173
     0
291
     1
 45
0.0
  0
VISUALSTYLE
  5
268
102
{ACAD_REACTORS
330
267
102
}
330
267
100
AcDbVisualStyle
  2
Flat
 70
     0
 71
     2
 72
     1
 73
     1
 90
        2
 40
-0.6
 41
30.0
 62
     5
 63
     7
421
 16777215
 74
     0
 91
        4
 64
     7
 65
   257
 75
     1
175
     1
 42
1.0
 92
        8
 66
     7
 43
1.0
 76
     1
 77
     6
 78
     2
 67
     7
 79
     5
170
     0
171
     0
290
     0
174
     0
 93
       13
 44
0.0
173
     0
291
     1
 45
0.0
  0
VISUALSTYLE
  5
269
102
{ACAD_REACTORS
330
267
102
}
330
267
100
AcDbVisualStyle
  2
FlatWithEdges
 70
     1
 71
     2
 72
     1
 73
     1
 90
        2
 40
-0.6
 41
30.0
 62
     5
 63
     7
421
 16777215
 74
     1
 91
        4
 64
     7
 65
   257
 75
     1
175
     1
 42
1.0
 92
        0
 66
   257
 43
1.0
 76
     1
 77
     6
 78
     2
 67
     7
 79
     5
170
     0
171
     0
290
     0
174
     0
 93
       13
 44
0.0
173
     0
291
     1
 45
0.0
  0
VISUALSTYLE
  5
26A
102
{ACAD_REACTORS
330
267
102
}
330
267
100
AcDbVisualStyle
  2
Gouraud
 70
     2
 71
     2
 72
     2
 73
     1
 90
        2
 40
-0.6
 41
30.0
 62
     5
 63
     7
421
 16777215
 74
     0
 91
        4
 64
     7
 65
   257
 75
     1
175
     1
 42
1.0
 92
        0
 66
     7
 43
1.0
 76
     1
 77
     6
 78
     2
 67
     7
 79
     5
170
     0
171
     0
290
     0
174
     0
 93
       13
 44
0.0
173
     0
291
     1
 45
0.0
  0
VISUALSTYLE
  5
26B
102
{ACAD_REACTORS
330
267
102
}
330
267
100
AcDbVisualStyle
  2
GouraudWithEdges
 70
     3
 71
     2
 72
     2
 73
     1
 90
        2
 40
-0.6
 41
30.0
 62
     5
 63
     7
421
 16777215
 74
     1
 91
        4
 64
     7
 65
   257
 75
     1
175
     1
 42
1.0
 92
        0
 66
   257
 43
1.0
 76
     1
 77
     6
 78
     2
 67
     7
 79
     5
170
     0
171
     0
290
     0
174
     0
 93
       13
 44
0.0
173
     0
291
     1
 45
0.0
  0
VISUALSTYLE
  5
8FB
102
{ACAD_REACTORS
330
267
102
}
330
267
100
AcDbVisualStyle
  2
Hidden
 70
     6
 71
     1
 72
     2
 73
     2
 90
        0
 40
0.6
 41
30.0
 62
     5
 63
     7
421
 16777215
 74
     2
 91
        2
 64
     7
 65
   257
 75
     2
175
     1
 42
40.0
 92
        0
 66
   257
 43
1.0
 76
     1
 77
     6
 78
     2
 67
     7
 79
     3
170
     0
171
     0
290
     0
174
     0
 93
        1
 44
0.0
173
     0
291
     0
 45
0.0
  0
VISUALSTYLE
  5
8FC
102
{ACAD_REACTORS
330
267
102
}
330
267
100
AcDbVisualStyle
  2
JitterOff
 70
    20
 71
     2
 72
     2
 73
     0
 90
        0
 40
0.6
 41
30.0
 62
     5
 63
     7
421
 16777215
 74
     1
 91
        4
 64
     7
 65
   257
 75
     1
175
     1
 42
1.0
 92
       10
 66
     7
 43
1.0
 76
     1
 77
     6
 78
     2
 67
     7
 79
     5
170
     0
171
     0
290
     0
174
     0
 93
        1
 44
0.0
173
     0
291
     1
 45
0.0
  0
VISUALSTYLE
  5
275
102
{ACAD_REACTORS
330
267
102
}
330
267
100
AcDbVisualStyle
  2
Linepattern
 70
    14
 71
     2
 72
     2
 73
     0
 90
        0
 40
-0.6
 41
-30.0
 62
     5
 63
     7
421
 16777215
 74
     1
 91
        4
 64
     7
 65
   257
 75
     7
175
     7
 42
1.0
 92
        8
 66
     7
 43
1.0
 76
     1
 77
     6
 78
     2
 67
     7
 79
     5
170
     0
171
     0
290
     0
174
     0
 93
        1
 44
0.0
173
     0
291
     1
 45
0.0
  0
VISUALSTYLE
  5
8FD
102
{ACAD_REACTORS
330
267
102
}
330
267
100
AcDbVisualStyle
  2
OverhangOff
 70
    21
 71
     2
 72
     2
 73
     0
 90
        0
 40
0.6
 41
30.0
 62
     5
 63
     7
421
 16777215
 74
     1
 91
        4
 64
     7
 65
   257
 75
     1
175
     1
 42
1.0
 92
        9
 66
     7
 43
1.0
 76
     1
 77
     6
 78
     2
 67
     7
 79
     5
170
     0
171
     0
290
     0
174
     0
 93
        1
 44
0.0
173
     0
291
     1
 45
0.0
  0
VISUALSTYLE
  5
270
102
{ACAD_REACTORS
330
267
102
}
330
267
100
AcDbVisualStyle
  2
Realistic
 70
     8
 71
     2
 72
     2
 73
     0
 90
        0
 40
-0.6
 41
-30.0
 62
     5
 63
     7
421
 16777215
 74
     1
 91
        0
 64
     7
 65
   257
 75
     1
175
     1
 42
1.0
 92
        8
 66
     8
424
  7895160
 43
1.0
 76
     1
 77
     6
 78
     2
 67
     7
 79
     5
170
     0
171
     0
290
     0
174
     0
 93
       13
 44
0.0
173
     0
291
     0
 45
0.0
  0
VISUALSTYLE
  5
903
102
{ACAD_REACTORS
330
267
102
}
330
267
100
AcDbVisualStyle
  2
Shaded
 70
    27
 71
     2
 72
     2
 73
     1
 90
        2
 40
0.6
 41
30.0
 62
     5
 63
     7
421
 16777215
 74
     0
 91
        4
 64
     7
 65
   257
 75
     1
175
     1
 42
1.0
 92
        8
 66
   257
 43
1.0
 76
     1
 77
     6
 78
     2
 67
     8
425
  7895160
 79
     3
170
     0
171
     0
290
     0
174
     0
 93
        5
 44
0.0
173
     0
291
     0
 45
0.0
  0
VISUALSTYLE
  5
902
102
{ACAD_REACTORS
330
267
102
}
330
267
100
AcDbVisualStyle
  2
Shaded with edges
 70
    26
 71
     2
 72
     2
 73
     1
 90
        2
 40
0.6
 41
30.0
 62
     5
 63
     7
421
 16777215
 74
     1
 91
       10
 64
     7
 65
   257
 75
     2
175
     1
 42
1.0
 92
        8
 66
   257
 43
1.0
 76
     1
 77
     6
 78
     2
 67
     7
 79
     3
170
     0
171
     0
290
     0
174
     0
 93
        5
 44
0.0
173
     0
291
     0
 45
0.0
  0
VISUALSTYLE
  5
8FF
102
{ACAD_REACTORS
330
267
102
}
330
267
100
AcDbVisualStyle
  2
Shades of Gray
 70
    23
 71
     2
 72
     2
 73
     3
 90
        0
 40
0.6
 41
30.0
 62
     5
 63
     7
421
 16777215
 74
     2
 91
        2
 64
     7
 65
     7
 75
     1
175
     1
 42
40.0
 92
        8
 66
     7
 43
1.0
 76
     1
 77
     6
 78
     2
 67
     7
 79
     3
170
     0
171
     0
290
     0
174
     0
 93
        1
 44
0.0
173
     0
291
     0
 45
0.0
  0
VISUALSTYLE
  5
900
102
{ACAD_REACTORS
330
267
102
}
330
267
100
AcDbVisualStyle
  2
Sketchy
 70
    24
 71
     1
 72
     2
 73
     2
 90
        0
 40
0.6
 41
30.0
 62
     5
 63
     7
421
 16777215
 74
     2
 91
        2
 64
     7
 65
     7
 75
     1
175
     1
 42
40.0
 92
       11
 66
     7
 43
1.0
 76
     1
 77
     6
 78
     2
 67
     7
 79
     6
170
     0
171
     0
290
     0
174
     0
 93
        1
 44
0.0
173
     0
291
     0
 45
0.0
  0
VISUALSTYLE
  5
274
102
{ACAD_REACTORS
330
267
102
}
330
267
100
AcDbVisualStyle
  2
Thicken
 70
    13
 71
     2
 72
     2
 73
     0
 90
        0
 40
-0.6
 41
-30.0
 62
     5
 63
     7
421
 16777215
 74
     1
 91
        4
 64
     7
 65
   257
 75
     1
175
     1
 42
1.0
 92
       12
 66
     7
 43
1.0
 76
     1
 77
     6
 78
     2
 67
     7
 79
     5
170
     0
171
     0
290
     0
174
     0
 93
        1
 44
0.0
173
     0
291
     1
 45
0.0
  0
VISUALSTYLE
  5
8FA
102
{ACAD_REACTORS
330
267
102
}
330
267
100
AcDbVisualStyle
  2
Wireframe
 70
     5
 71
     0
 72
     2
 73
     0
 90
        0
 40
0.6
 41
30.0
 62
     5
 63
     7
421
 16777215
 74
     1
 91
        4
 64
     7
 65
   257
 75
     1
175
     1
 42
1.0
 92
        0
 66
   257
 43
1.0
 76
     1
 77
     6
 78
     2
 67
     7
 79
     3
170
     0
171
     0
290
     0
174
     0
 93
        1
 44
0.0
173
     0
291
     0
 45
0.0
  0
VISUALSTYLE
  5
901
102
{ACAD_REACTORS
330
267
102
}
330
267
100
AcDbVisualStyle
  2
X-Ray
 70
    25
 71
     2
 72
     2
 73
     1
 90
        1
 40
0.5
 41
30.0
 62
     5
 63
     7
421
 16777215
 74
     1
 91
        0
 64
     7
 65
   257
 75
     1
175
     1
 42
1.0
 92
        8
 66
     7
 43
1.0
 76
     1
 77
     6
 78
     2
 67
     7
 79
     3
170
     0
171
     0
290
     0
174
     0
 93
       13
 44
0.0
173
     0
291
     0
 45
0.0
  0
DICTIONARYVAR
  5
331
102
{ACAD_REACTORS
330
330
102
}
330
330
100
DictionaryVariables
280
     0
  1
1:1
  0
DICTIONARYVAR
  5
DB1
102
{ACAD_REACTORS
330
330
102
}
330
330
100
DictionaryVariables
280
     0
  1
Standard
  0
DICTIONARYVAR
  5
335
102
{ACAD_REACTORS
330
330
102
}
330
330
100
DictionaryVariables
280
     0
  1
Standard
  0
DICTIONARYVAR
  5
D52
102
{ACAD_REACTORS
330
330
102
}
330
330
100
DictionaryVariables
280
     0
  1
ByLayer
  0
DICTIONARYVAR
  5
896
102
{ACAD_REACTORS
330
330
102
}
330
330
100
DictionaryVariables
280
     0
  1
0
  0
DICTIONARYVAR
  5
ECE
102
{ACAD_REACTORS
330
E3E
102
}
330
E3E
100
DictionaryVariables
280
     0
  1
0.261799
  0
DICTIONARYVAR
  5
ECC
102
{ACAD_REACTORS
330
E3E
102
}
330
E3E
100
DictionaryVariables
280
     0
  1
0.400000
  0
DICTIONARYVAR
  5
ECD
102
{ACAD_REACTORS
330
E3E
102
}
330
E3E
100
DictionaryVariables
280
     0
  1
0.250000
  0
DICTIONARYVAR
  5
ECF
102
{ACAD_REACTORS
330
E3E
102
}
330
E3E
100
DictionaryVariables
280
     0
  1
1
  0
FIELD
  5
1467
102
{ACAD_REACTORS
330
3A87
102
}
330
3A87
100
AcDbField
  1
_text
  2
{%<\_FldIdx 0>%M}
 90
        1
360
146B
 97
        0
 91
       63
 92
        0
 94
       11
 95
        2
 96
        0
300

 93
        1
  6
ACFD_FIELDTEXT_CHECKSUM
 93
        2
 90
        2
140
4480.0
 94
        0
300

302

304
ACVALUE_END
  7
ACFD_FIELD_VALUE
 93
        6
 90
        4
  1
{20220117M}
 94
        0
300

302

304
ACVALUE_END
301
{20220117M}
 98
       11
  0
DICTIONARY
  5
3B89
330
279
100
AcDbDictionary
280
     1
281
     1
  3
ACAD_ROUNDTRIP_2008_TABLESTYLE_CELLSTYLEMAP
360
3B8A
  0
FIELD
  5
146B
330
1467
100
AcDbField
  1
AcVar
  2
\AcVar Date \f "yyyyMMdd"
 90
        0
 97
        0
 91
       63
 92
        0
 94
        8
 95
       64
 96
        0
300
Variable not supported
 93
        1
  6
Variable
 93
        2
 90
        4
  1
Date
 94
        0
300

302

304
ACVALUE_END
  7
ACFD_FIELD_VALUE
 93
        6
 90
        8
 92
       16
310
E60701000000110007002E001D000000
 94
        0
300
yyyyMMdd
302

304
ACVALUE_END
301
20220117
 98
        8
  0
CELLSTYLEMAP
  5
3B8A
102
{ACAD_REACTORS
330
3B89
102
}
330
3B89
100
AcDbCellStyleMap
 90
        3
300
CELLSTYLE
  1
TABLEFORMAT_BEGIN
 90
        5
170
     1
 91
        0
 92
    32768
 62
   257
 93
        1
300
CONTENTFORMAT
  1
CONTENTFORMAT_BEGIN
 90
        0
 91
        0
 92
        4
 93
        0
300

 40
0.0
140
1.0
 94
        5
 62
     0
340
17
144
6.0
309
CONTENTFORMAT_END
171
     1
301
MARGIN
  1
CELLMARGIN_BEGIN
 40
0.06
 40
0.06
 40
0.06
 40
0.06
 40
0.18
 40
0.18
309
CELLMARGIN_END
 94
        6
 95
        1
302
GRIDFORMAT
  1
GRIDFORMAT_BEGIN
 90
        0
 91
        1
 62
     0
 92
       -2
340
0
 93
        0
 40
0.045
309
GRIDFORMAT_END
 95
        2
302
GRIDFORMAT
  1
GRIDFORMAT_BEGIN
 90
        0
 91
        1
 62
     0
 92
       -2
340
0
 93
        0
 40
0.045
309
GRIDFORMAT_END
 95
        4
302
GRIDFORMAT
  1
GRIDFORMAT_BEGIN
 90
        0
 91
        1
 62
     0
 92
       -2
340
0
 93
        0
 40
0.045
309
GRIDFORMAT_END
 95
        8
302
GRIDFORMAT
  1
GRIDFORMAT_BEGIN
 90
        0
 91
        1
 62
     0
 92
       -2
340
0
 93
        0
 40
0.045
309
GRIDFORMAT_END
 95
       16
302
GRIDFORMAT
  1
GRIDFORMAT_BEGIN
 90
        0
 91
        1
 62
     0
 92
       -2
340
0
 93
        0
 40
0.045
309
GRIDFORMAT_END
 95
       32
302
GRIDFORMAT
  1
GRIDFORMAT_BEGIN
 90
        0
 91
        1
 62
     0
 92
       -2
340
0
 93
        0
 40
0.045
309
GRIDFORMAT_END
309
TABLEFORMAT_END
  1
CELLSTYLE_BEGIN
 90
        1
 91
        1
300
_TITLE
309
CELLSTYLE_END
300
CELLSTYLE
  1
TABLEFORMAT_BEGIN
 90
        5
170
     1
 91
        0
 92
        0
 62
   257
 93
        1
300
CONTENTFORMAT
  1
CONTENTFORMAT_BEGIN
 90
        0
 91
        0
 92
        4
 93
        0
300

 40
0.0
140
1.0
 94
        5
 62
     0
340
17
144
4.5
309
CONTENTFORMAT_END
171
     1
301
MARGIN
  1
CELLMARGIN_BEGIN
 40
0.06
 40
0.06
 40
0.06
 40
0.06
 40
0.18
 40
0.18
309
CELLMARGIN_END
 94
        6
 95
        1
302
GRIDFORMAT
  1
GRIDFORMAT_BEGIN
 90
        0
 91
        1
 62
     0
 92
       -2
340
0
 93
        0
 40
0.045
309
GRIDFORMAT_END
 95
        2
302
GRIDFORMAT
  1
GRIDFORMAT_BEGIN
 90
        0
 91
        1
 62
     0
 92
       -2
340
0
 93
        0
 40
0.045
309
GRIDFORMAT_END
 95
        4
302
GRIDFORMAT
  1
GRIDFORMAT_BEGIN
 90
        0
 91
        1
 62
     0
 92
       -2
340
0
 93
        0
 40
0.045
309
GRIDFORMAT_END
 95
        8
302
GRIDFORMAT
  1
GRIDFORMAT_BEGIN
 90
        0
 91
        1
 62
     0
 92
       -2
340
0
 93
        0
 40
0.045
309
GRIDFORMAT_END
 95
       16
302
GRIDFORMAT
  1
GRIDFORMAT_BEGIN
 90
        0
 91
        1
 62
     0
 92
       -2
340
0
 93
        0
 40
0.045
309
GRIDFORMAT_END
 95
       32
302
GRIDFORMAT
  1
GRIDFORMAT_BEGIN
 90
        0
 91
        1
 62
     0
 92
       -2
340
0
 93
        0
 40
0.045
309
GRIDFORMAT_END
309
TABLEFORMAT_END
  1
CELLSTYLE_BEGIN
 90
        2
 91
        1
300
_HEADER
309
CELLSTYLE_END
300
CELLSTYLE
  1
TABLEFORMAT_BEGIN
 90
        5
170
     1
 91
        0
 92
        0
 62
   257
 93
        1
300
CONTENTFORMAT
  1
CONTENTFORMAT_BEGIN
 90
        0
 91
        0
 92
        4
 93
        0
300

 40
0.0
140
1.0
 94
        2
 62
     0
340
17
144
4.5
309
CONTENTFORMAT_END
171
     1
301
MARGIN
  1
CELLMARGIN_BEGIN
 40
0.06
 40
0.06
 40
0.06
 40
0.06
 40
0.18
 40
0.18
309
CELLMARGIN_END
 94
        6
 95
        1
302
GRIDFORMAT
  1
GRIDFORMAT_BEGIN
 90
        0
 91
        1
 62
     0
 92
       -2
340
0
 93
        0
 40
0.045
309
GRIDFORMAT_END
 95
        2
302
GRIDFORMAT
  1
GRIDFORMAT_BEGIN
 90
        0
 91
        1
 62
     0
 92
       -2
340
0
 93
        0
 40
0.045
309
GRIDFORMAT_END
 95
        4
302
GRIDFORMAT
  1
GRIDFORMAT_BEGIN
 90
        0
 91
        1
 62
     0
 92
       -2
340
0
 93
        0
 40
0.045
309
GRIDFORMAT_END
 95
        8
302
GRIDFORMAT
  1
GRIDFORMAT_BEGIN
 90
        0
 91
        1
 62
     0
 92
       -2
340
0
 93
        0
 40
0.045
309
GRIDFORMAT_END
 95
       16
302
GRIDFORMAT
  1
GRIDFORMAT_BEGIN
 90
        0
 91
        1
 62
     0
 92
       -2
340
0
 93
        0
 40
0.045
309
GRIDFORMAT_END
 95
       32
302
GRIDFORMAT
  1
GRIDFORMAT_BEGIN
 90
        0
 91
        1
 62
     0
 92
       -2
340
0
 93
        0
 40
0.045
309
GRIDFORMAT_END
309
TABLEFORMAT_END
  1
CELLSTYLE_BEGIN
 90
        3
 91
        2
300
_DATA
309
CELLSTYLE_END
  0
ENDSEC
  0
EOF
