  0
SECTION
  2
HEADER
  9
$ACADVER
  1
AC1021
  9
$ACADMAINTVER
 70
    25
  9
$DWGCODEPAGE
  3
ANSI_932
  9
$LASTSAVEDBY
  1
tform
  9
$INSBASE
 10
0.0
 20
0.0
 30
0.0
  9
$EXTMIN
 10
0.0
 20
0.0
 30
-0.0000000000000142
  9
$EXTMAX
 10
2100.0
 20
2970.0
 30
34.99521132346014
  9
$LIMMIN
 10
0.0
 20
0.0
  9
$LIMMAX
 10
2100.0
 20
2970.0
  9
$ORTHOMODE
 70
     1
  9
$REGENMODE
 70
     1
  9
$FILLMODE
 70
     1
  9
$QTEXTMODE
 70
     0
  9
$MIRRTEXT
 70
     1
  9
$LTSCALE
 40
5.0
  9
$ATTMODE
 70
     1
  9
$TEXTSIZE
 40
2.5
  9
$TRACEWID
 40
1.0
  9
$TEXTSTYLE
  7
ＭＳ ゴシック
  9
$CLAYER
  8
DIM
  9
$CELTYPE
  6
ByLayer
  9
$CECOLOR
 62
   256
  9
$CELTSCALE
 40
1.0
  9
$DISPSILH
 70
     0
  9
$DIMSCALE
 40
1.0
  9
$DIMASZ
 40
10.0
  9
$DIMEXO
 40
30.0
  9
$DIMDLI
 40
0.9999999999999999
  9
$DIMRND
 40
0.0
  9
$DIMDLE
 40
0.0
  9
$DIMEXE
 40
0.0
  9
$DIMTP
 40
0.0
  9
$DIMTM
 40
0.0
  9
$DIMTXT
 40
24.0
  9
$DIMCEN
 40
0.0
  9
$DIMTSZ
 40
0.0
  9
$DIMTOL
 70
     0
  9
$DIMLIM
 70
     0
  9
$DIMTIH
 70
     0
  9
$DIMTOH
 70
     0
  9
$DIMSE1
 70
     0
  9
$DIMSE2
 70
     0
  9
$DIMTAD
 70
     1
  9
$DIMZIN
 70
    11
  9
$DIMBLK
  1
DOT
  9
$DIMASO
 70
     1
  9
$DIMSHO
 70
     1
  9
$DIMPOST
  1
<>
  9
$DIMAPOST
  1
[]
  9
$DIMALT
 70
     0
  9
$DIMALTD
 70
     1
  9
$DIMALTF
 40
1.0
  9
$DIMLFAC
 40
1.0
  9
$DIMTOFL
 70
     0
  9
$DIMTVP
 40
0.0
  9
$DIMTIX
 70
     1
  9
$DIMSOXD
 70
     0
  9
$DIMSAH
 70
     0
  9
$DIMBLK1
  1

  9
$DIMBLK2
  1

  9
$DIMSTYLE
  2
tfrom線あり
  9
$DIMCLRD
 70
     0
  9
$DIMCLRE
 70
     0
  9
$DIMCLRT
 70
     0
  9
$DIMTFAC
 40
1.0
  9
$DIMGAP
 40
20.0
  9
$DIMJUST
 70
     0
  9
$DIMSD1
 70
     0
  9
$DIMSD2
 70
     0
  9
$DIMTOLJ
 70
     1
  9
$DIMTZIN
 70
    11
  9
$DIMALTZ
 70
    11
  9
$DIMALTTZ
 70
    11
  9
$DIMUPT
 70
     0
  9
$DIMDEC
 70
     0
  9
$DIMTDEC
 70
     1
  9
$DIMALTU
 70
     2
  9
$DIMALTTD
 70
     2
  9
$DIMTXSTY
  7
ＭＳ ゴシック
  9
$DIMAUNIT
 70
     0
  9
$DIMADEC
 70
     2
  9
$DIMALTRND
 40
0.0
  9
$DIMAZIN
 70
     0
  9
$DIMDSEP
 70
    46
  9
$DIMATFIT
 70
     0
  9
$DIMFRAC
 70
     2
  9
$DIMLDRBLK
  1
DOT
  9
$DIMLUNIT
 70
     2
  9
$DIMLWD
 70
    -2
  9
$DIMLWE
 70
    -2
  9
$DIMTMOVE
 70
     0
  9
$DIMFXL
 40
1.0
  9
$DIMFXLON
 70
     0
  9
$DIMJOGANG
 40
0.7853981633974483
  9
$DIMTFILL
 70
     0
  9
$DIMTFILLCLR
 70
     0
  9
$DIMARCSYM
 70
     0
  9
$DIMLTYPE
  6

  9
$DIMLTEX1
  6

  9
$DIMLTEX2
  6

  9
$LUNITS
 70
     2
  9
$LUPREC
 70
     0
  9
$SKETCHINC
 40
0.1
  9
$FILLETRAD
 40
0.0
  9
$AUNITS
 70
     0
  9
$AUPREC
 70
     0
  9
$MENU
  1
acad
  9
$ELEVATION
 40
0.0
  9
$PELEVATION
 40
0.0
  9
$THICKNESS
 40
0.0
  9
$LIMCHECK
 70
     0
  9
$CHAMFERA
 40
0.0
  9
$CHAMFERB
 40
0.0
  9
$CHAMFERC
 40
0.0
  9
$CHAMFERD
 40
0.0
  9
$SKPOLY
 70
     0
  9
$TDCREATE
 40
2447893.375
  9
$TDUCREATE
 40
0.0
  9
$TDUPDATE
 40
2459741.506550706
  9
$TDUUPDATE
 40
2459741.131550706
  9
$TDINDWG
 40
0.1669815625
  9
$TDUSRTIMER
 40
0.0008483912
  9
$USRTIMER
 70
     1
  9
$ANGBASE
 50
0.0
  9
$ANGDIR
 70
     0
  9
$PDMODE
 70
     1
  9
$PDSIZE
 40
-2.0
  9
$PLINEWID
 40
0.0
  9
$SPLFRAME
 70
     0
  9
$SPLINETYPE
 70
     6
  9
$SPLINESEGS
 70
     8
  9
$HANDSEED
  5
3B97
  9
$SURFTAB1
 70
     6
  9
$SURFTAB2
 70
     6
  9
$SURFTYPE
 70
     6
  9
$SURFU
 70
     6
  9
$SURFV
 70
     6
  9
$UCSBASE
  2

  9
$UCSNAME
  2

  9
$UCSORG
 10
0.0
 20
0.0
 30
0.0
  9
$UCSXDIR
 10
1.0
 20
0.0
 30
0.0
  9
$UCSYDIR
 10
0.0
 20
1.0
 30
0.0
  9
$UCSORTHOREF
  2

  9
$UCSORTHOVIEW
 70
     0
  9
$UCSORGTOP
 10
0.0
 20
0.0
 30
0.0
  9
$UCSORGBOTTOM
 10
0.0
 20
0.0
 30
0.0
  9
$UCSORGLEFT
 10
0.0
 20
0.0
 30
0.0
  9
$UCSORGRIGHT
 10
0.0
 20
0.0
 30
0.0
  9
$UCSORGFRONT
 10
0.0
 20
0.0
 30
0.0
  9
$UCSORGBACK
 10
0.0
 20
0.0
 30
0.0
  9
$PUCSBASE
  2

  9
$PUCSNAME
  2

  9
$PUCSORG
 10
0.0
 20
0.0
 30
0.0
  9
$PUCSXDIR
 10
1.0
 20
0.0
 30
0.0
  9
$PUCSYDIR
 10
0.0
 20
1.0
 30
0.0
  9
$PUCSORTHOREF
  2

  9
$PUCSORTHOVIEW
 70
     0
  9
$PUCSORGTOP
 10
0.0
 20
0.0
 30
0.0
  9
$PUCSORGBOTTOM
 10
0.0
 20
0.0
 30
0.0
  9
$PUCSORGLEFT
 10
0.0
 20
0.0
 30
0.0
  9
$PUCSORGRIGHT
 10
0.0
 20
0.0
 30
0.0
  9
$PUCSORGFRONT
 10
0.0
 20
0.0
 30
0.0
  9
$PUCSORGBACK
 10
0.0
 20
0.0
 30
0.0
  9
$USERI1
 70
     0
  9
$USERI2
 70
     0
  9
$USERI3
 70
     0
  9
$USERI4
 70
     0
  9
$USERI5
 70
     0
  9
$USERR1
 40
0.0
  9
$USERR2
 40
0.0
  9
$USERR3
 40
0.0
  9
$USERR4
 40
0.0
  9
$USERR5
 40
0.0
  9
$WORLDVIEW
 70
     1
  9
$SHADEDGE
 70
     3
  9
$SHADEDIF
 70
    70
  9
$TILEMODE
 70
     1
  9
$MAXACTVP
 70
    64
  9
$PINSBASE
 10
0.0
 20
0.0
 30
0.0
  9
$PLIMCHECK
 70
     0
  9
$PEXTMIN
 10
0.0
 20
0.0
 30
0.0
  9
$PEXTMAX
 10
0.0
 20
0.0
 30
0.0
  9
$PLIMMIN
 10
-7.5
 20
-20.0
  9
$PLIMMAX
 10
412.5
 20
277.0
  9
$UNITMODE
 70
     0
  9
$VISRETAIN
 70
     0
  9
$PLINEGEN
 70
     1
  9
$PSLTSCALE
 70
     0
  9
$TREEDEPTH
 70
  3020
  9
$CMLSTYLE
  2
Standard
  9
$CMLJUST
 70
     0
  9
$CMLSCALE
 40
1.0
  9
$PROXYGRAPHICS
 70
     0
  9
$MEASUREMENT
 70
     1
  9
$CELWEIGHT
370
    -1
  9
$ENDCAPS
280
     0
  9
$JOINSTYLE
280
     0
  9
$LWDISPLAY
290
     1
  9
$INSUNITS
 70
     4
  9
$HYPERLINKBASE
  1

  9
$STYLESHEET
  1

  9
$XEDIT
290
     1
  9
$CEPSNTYPE
380
     0
  9
$PSTYLEMODE
290
     1
  9
$FINGERPRINTGUID
  2

  9
$VERSIONGUID
  2

  9
$EXTNAMES
290
     1
  9
$PSVPSCALE
 40
0.0
  9
$OLESTARTUP
290
     0
  9
$SORTENTS
280
   127
  9
$INDEXCTL
280
     0
  9
$HIDETEXT
280
     1
  9
$XCLIPFRAME
290
     0
  9
$HALOGAP
280
     0
  9
$OBSCOLOR
 70
   257
  9
$OBSLTYPE
280
     0
  9
$INTERSECTIONDISPLAY
280
     0
  9
$INTERSECTIONCOLOR
 70
   257
  9
$DIMASSOC
280
     2
  9
$PROJECTNAME
  1

  9
$CAMERADISPLAY
290
     0
  9
$LENSLENGTH
 40
50.0
  9
$CAMERAHEIGHT
 40
0.0
  9
$STEPSPERSEC
 40
2.0
  9
$STEPSIZE
 40
6.0
  9
$3DDWFPREC
 40
2.0
  9
$PSOLWIDTH
 40
0.25
  9
$PSOLHEIGHT
 40
4.0
  9
$LOFTANG1
 40
1.570796326794897
  9
$LOFTANG2
 40
1.570796326794897
  9
$LOFTMAG1
 40
0.0
  9
$LOFTMAG2
 40
0.0
  9
$LOFTPARAM
 70
     7
  9
$LOFTNORMALS
280
     1
  9
$LATITUDE
 40
37.795
  9
$LONGITUDE
 40
-122.394
  9
$NORTHDIRECTION
 40
0.0
  9
$TIMEZONE
 70
 -8000
  9
$LIGHTGLYPHDISPLAY
280
     1
  9
$TILEMODELIGHTSYNCH
280
     1
  9
$SOLIDHIST
280
     1
  9
$SHOWHIST
280
     1
  9
$DWFFRAME
280
     2
  9
$DGNFRAME
280
     2
  9
$REALWORLDSCALE
290
     1
  9
$INTERFERECOLOR
 62
   256
  9
$CSHADOW
280
     0
  9
$SHADOWPLANELOCATION
 40
0.0
  0
ENDSEC
  0
SECTION
  2
CLASSES
  0
CLASS
  1
LWPOLYLINE
  2
AcDbPolyline
  3
ObjectDBX Classes
 90
        0
 91
        1
280
     0
281
     1
  0
CLASS
  1
IMAGE
  2
AcDbRasterImage
  3
ISM
 90
      127
 91
        4
280
     0
281
     1
  0
CLASS
  1
OLE2FRAME
  2
AcDbOle2Frame
  3
ObjectDBX Classes
 90
        0
 91
        1
280
     0
281
     1
  0
CLASS
  1
HATCH
  2
AcDbHatch
  3
ObjectDBX Classes
 90
        0
 91
        1
280
     0
281
     1
  0
CLASS
  1
DICTIONARYVAR
  2
AcDbDictionaryVar
  3
ObjectDBX Classes
 90
        0
 91
        3
280
     0
281
     0
  0
CLASS
  1
RASTERVARIABLES
  2
AcDbRasterVariables
  3
ISM
 90
        0
 91
        3
280
     0
281
     0
  0
CLASS
  1
IMAGEDEF
  2
AcDbRasterImageDef
  3
ISM
 90
        0
 91
        3
280
     0
281
     0
  0
CLASS
  1
IMAGEDEF_REACTOR
  2
AcDbRasterImageDefReactor
  3
ISM
 90
        1
 91
        3
280
     0
281
     0
  0
CLASS
  1
IDBUFFER
  2
AcDbIdBuffer
  3
ObjectDBX Classes
 90
        0
 91
        3
280
     0
281
     0
  0
CLASS
  1
SPATIAL_FILTER
  2
AcDbSpatialFilter
  3
ObjectDBX Classes
 90
        0
 91
        3
280
     0
281
     0
  0
CLASS
  1
XRECORD
  2
AcDbXrecord
  3
ObjectDBX Classes
 90
        0
 91
        1
280
     0
281
     0
  0
CLASS
  1
SORTENTSTABLE
  2
AcDbSortentsTable
  3
ObjectDBX Classes
 90
        0
 91
        3
280
     0
281
     0
  0
CLASS
  1
LAYER_INDEX
  2
AcDbLayerIndex
  3
ObjectDBX Classes
 90
        0
 91
        3
280
     0
281
     0
  0
CLASS
  1
SPATIAL_INDEX
  2
AcDbSpatialIndex
  3
AutoCAD 2000
 90
        0
 91
        3
280
     0
281
     0
  0
CLASS
  1
OBJECT_PTR
  2
CAseDLPNTableRecord
  3
ASE-LPNTableRecord
 90
        1
 91
        3
280
     0
281
     0
  0
CLASS
  1
LAYOUT
  2
AcDbLayout
  3
ObjectDBX Classes
 90
        0
 91
        1
280
     0
281
     0
  0
CLASS
  1
PLOTSETTINGS
  2
AcDbPlotSettings
  3
ObjectDBX Classes
 90
        0
 91
        3
280
     0
281
     0
  0
CLASS
  1
ACDBDICTIONARYWDFLT
  2
AcDbDictionaryWithDefault
  3
ObjectDBX Classes
 90
        0
 91
        3
280
     0
281
     0
  0
CLASS
  1
ACDBPLACEHOLDER
  2
AcDbPlaceHolder
  3
ObjectDBX Classes
 90
        0
 91
        1
280
     0
281
     0
  0
CLASS
  1
SCALE
  2
AcDbScale
  3
ObjectDBX Classes
 90
     1153
 91
        3
280
     0
281
     0
  0
CLASS
  1
MATERIAL
  2
AcDbMaterial
  3
ObjectDBX Classes
 90
     1153
 91
        3
280
     0
281
     0
  0
CLASS
  1
VISUALSTYLE
  2
AcDbVisualStyle
  3
ObjectDBX Classes
 90
     4095
 91
        3
280
     0
281
     0
  0
CLASS
  1
TABLESTYLE
  2
AcDbTableStyle
  3
ObjectDBX Classes
 90
     4095
 91
        3
280
     0
281
     0
  0
CLASS
  1
DIMASSOC
  2
AcDbDimAssoc
  3
"AcDbDimAssoc|Product Desc:     AcDim ARX App For Dimension|Company:          Autodesk, Inc.|WEB Address:      www.autodesk.com"
 90
        0
 91
        3
280
     0
281
     0
  0
CLASS
  1
CELLSTYLEMAP
  2
AcDbCellStyleMap
  3
ObjectDBX Classes
 90
     1152
 91
        3
280
     0
281
     0
  0
CLASS
  1
SUN
  2
AcDbSun
  3
SCENEOE
 90
     1153
 91
        3
280
     0
281
     0
  0
CLASS
  1
MLEADERSTYLE
  2
AcDbMLeaderStyle
  3
ACDB_MLEADERSTYLE_CLASS
 90
     4095
 91
        3
280
     0
281
     0
  0
CLASS
  1
FIELD
  2
AcDbField
  3
ObjectDBX Classes
 90
     1152
 91
        3
280
     0
281
     0
  0
CLASS
  1
FIELDLIST
  2
AcDbFieldList
  3
ObjectDBX Classes
 90
     1152
 91
        3
280
     0
281
     0
  0
CLASS
  1
MULTILEADER
  2
AcDbMLeader
  3
ACDB_MLEADER_CLASS
 90
     1025
 91
        3
280
     0
281
     1
  0
ENDSEC
  0
SECTION
  2
TABLES
  0
TABLE
  2
VPORT
  5
7
330
0
100
AcDbSymbolTable
 70
     1
  0
VPORT
  5
15
330
7
100
AcDbSymbolTableRecord
100
AcDbViewportTableRecord
  2
*ACTIVE
 70
     0
 10
0.0
 20
0.0
 11
1.0
 21
1.0
 12
1141.020135670901
 22
1411.401285469834
 13
0.0
 23
0.0
 14
1.0
 24
1.0
 15
0.0
 25
0.0
 16
0.0
 26
0.0
 36
1.0
 17
-91.02013567090057
 27
73.59871453016603
 37
-46.86809886248109
 40
3029.4
 41
2.338709677419355
 42
50.0
 43
0.0
 44
0.0
 50
0.0
 51
0.0
 71
    16
 72
  2000
 73
     1
 74
     1
 75
     0
 76
     0
 77
     0
 78
     0
281
     0
 65
     1
110
0.0
120
0.0
130
0.0
111
1.0
121
0.0
131
0.0
112
0.0
122
1.0
132
0.0
 79
     0
146
0.0
348
26C
 60
     3
 61
     5
292
     1
282
     1
141
0.0
142
0.0
 63
   256
361
904
  0
ENDTAB
  0
TABLE
  2
LTYPE
  5
4
330
0
100
AcDbSymbolTable
 70
     6
  0
LTYPE
  5
11
330
4
100
AcDbSymbolTableRecord
100
AcDbLinetypeTableRecord
  2
ByBlock
 70
     0
  3

 72
    65
 73
     0
 40
0.0
  0
LTYPE
  5
12
330
4
100
AcDbSymbolTableRecord
100
AcDbLinetypeTableRecord
  2
ByLayer
 70
     0
  3

 72
    65
 73
     0
 40
0.0
  0
LTYPE
  5
13
330
4
100
AcDbSymbolTableRecord
100
AcDbLinetypeTableRecord
  2
Continuous
 70
     0
  3
Solid line
 72
    65
 73
     0
 40
0.0
  0
LTYPE
  5
DAF
330
4
100
AcDbSymbolTableRecord
100
AcDbLinetypeTableRecord
  2
BORDER
 70
     0
  3
Border __  __  . __  __  . __  __  . __  __  . 
 72
    65
 73
     6
 40
44.45
 49
12.7
 74
     0
 49
-6.35
 74
     0
 49
12.7
 74
     0
 49
-6.35
 74
     0
 49
0.0
 74
     0
 49
-6.35
 74
     0
  0
LTYPE
  5
33DD
330
4
100
AcDbSymbolTableRecord
100
AcDbLinetypeTableRecord
  2
HIDDEN
 70
     0
  3
Hidden _ _ _ _ _ _ _ _ _ _ _ _ _ _ _ _ _ _ _ _ 
 72
    65
 73
     2
 40
9.524999999999999
 49
6.35
 74
     0
 49
-3.175
 74
     0
  0
LTYPE
  5
377F
330
4
100
AcDbSymbolTableRecord
100
AcDbLinetypeTableRecord
  2
JIS_02_1.0
 70
     0
  3
HIDDEN01 _ _ _ _ _ _ _ _ _ _ _ _ _ _ _ _ _
 72
    65
 73
     2
 40
2.0
 49
1.0
 74
     0
 49
-1.0
 74
     0
  0
LTYPE
  5
3780
330
4
100
AcDbSymbolTableRecord
100
AcDbLinetypeTableRecord
  2
STYLE_23
 70
     0
  3

 72
    65
 73
     2
 40
3.937007874015748
 49
1.968503937007874
 74
     0
 49
-1.968503937007874
 74
     0
  0
LTYPE
  5
3AAB
330
4
100
AcDbSymbolTableRecord
100
AcDbLinetypeTableRecord
  2
HIDDEN2
 70
     0
  3
Hidden (.5x) _ _ _ _ _ _ _ _ _ _ _ _ _ _ _ _ _ 
 72
    65
 73
     2
 40
4.762499999999999
 49
3.175
 74
     0
 49
-1.5875
 74
     0
  0
ENDTAB
  0
TABLE
  2
LAYER
  5
2
102
{ACAD_XDICTIONARY
360
2E1
102
}
330
0
100
AcDbSymbolTable
 70
    12
  0
LAYER
  5
14
330
2
100
AcDbSymbolTableRecord
100
AcDbLayerTableRecord
  2
0
 70
     0
 62
     7
  6
Continuous
370
    -3
390
1D
347
266
  0
LAYER
  5
4B
330
2
100
AcDbSymbolTableRecord
100
AcDbLayerTableRecord
  2
TEMPLATE
 70
     0
 62
     7
  6
Continuous
370
    20
390
1D
347
266
  0
LAYER
  5
4C
330
2
100
AcDbSymbolTableRecord
100
AcDbLayerTableRecord
  2
DIM
 70
     0
 62
     3
  6
Continuous
370
    13
390
1D
347
266
  0
LAYER
  5
4D
330
2
100
AcDbSymbolTableRecord
100
AcDbLayerTableRecord
  2
MODEL
 70
     0
 62
     7
  6
Continuous
370
    20
390
1D
347
266
  0
LAYER
  5
D5D
330
2
100
AcDbSymbolTableRecord
100
AcDbLayerTableRecord
  2
Defpoints
 70
     0
 62
     7
  6
Continuous
290
     0
370
    -3
390
1D
347
266
  0
LAYER
  5
DAE
330
2
100
AcDbSymbolTableRecord
100
AcDbLayerTableRecord
  2
BORDER
 70
     0
 62
     4
  6
BORDER
290
     0
370
    20
390
1D
347
266
1001
AcAecLayerStandard
1000

1000

  0
LAYER
  5
157B
330
2
100
AcDbSymbolTableRecord
100
AcDbLayerTableRecord
  2
Layer3
 70
     0
 62
     7
  6
Continuous
370
    -3
390
1D
347
266
  0
LAYER
  5
157F
330
2
100
AcDbSymbolTableRecord
100
AcDbLayerTableRecord
  2
Layer9
 70
     0
 62
     7
  6
Continuous
370
    -3
390
1D
347
266
  0
LAYER
  5
1582
330
2
100
AcDbSymbolTableRecord
100
AcDbLayerTableRecord
  2
Standard
 70
     0
 62
     7
  6
Continuous
370
    -3
390
1D
347
266
  0
LAYER
  5
33DC
330
2
100
AcDbSymbolTableRecord
100
AcDbLayerTableRecord
  2
HIDDEN
 70
     0
 62
     8
  6
HIDDEN
370
    20
390
1D
347
266
1001
AcAecLayerStandard
1000

1000

  0
LAYER
  5
377D
330
2
100
AcDbSymbolTableRecord
100
AcDbLayerTableRecord
  2
notes
 70
     0
 62
     7
  6
Continuous
370
    -3
390
1D
347
266
  0
LAYER
  5
377E
330
2
100
AcDbSymbolTableRecord
100
AcDbLayerTableRecord
  2
ADF70-0001
 70
     0
 62
     7
  6
Continuous
370
    -3
390
1D
347
266
  0
ENDTAB
  0
TABLE
  2
STYLE
  5
3
330
0
100
AcDbSymbolTable
 70
     2
  0
STYLE
  5
17
330
3
100
AcDbSymbolTableRecord
100
AcDbTextStyleTableRecord
  2
Standard
 70
     0
 40
0.0
 41
1.0
 50
0.0
 71
     0
 42
2.5
  3
txt
  4
BIGFONT.SHX
  0
STYLE
  5
39
330
3
100
AcDbSymbolTableRecord
100
AcDbTextStyleTableRecord
  2
ＭＳ ゴシック
 70
     0
 40
0.0
 41
1.0
 50
0.0
 71
     0
 42
2.5
  3
msgothic.ttc
  4
ＭＳ ゴシック
1001
ACAD
1000
ＭＳ ゴシック
1071
        0
  0
ENDTAB
  0
TABLE
  2
VIEW
  5
5
330
0
100
AcDbSymbolTable
 70
     0
  0
ENDTAB
  0
TABLE
  2
UCS
  5
6
330
0
100
AcDbSymbolTable
 70
     0
  0
ENDTAB
  0
TABLE
  2
APPID
  5
8
330
0
100
AcDbSymbolTable
 70
     9
  0
APPID
  5
16
330
8
100
AcDbSymbolTableRecord
100
AcDbRegAppTableRecord
  2
ACAD
 70
     0
  0
APPID
  5
7AC
330
8
100
AcDbSymbolTableRecord
100
AcDbRegAppTableRecord
  2
AcAecLayerStandard
 70
     0
  0
APPID
  5
F3A
330
8
100
AcDbSymbolTableRecord
100
AcDbRegAppTableRecord
  2
ACAD_MLEADERVER
 70
     0
  0
APPID
  5
378F
330
8
100
AcDbSymbolTableRecord
100
AcDbRegAppTableRecord
  2
ACAD_DSTYLE_DIMJAG
 70
     0
  0
APPID
  5
3790
330
8
100
AcDbSymbolTableRecord
100
AcDbRegAppTableRecord
  2
ACAD_DSTYLE_DIMTALN
 70
     0
  0
APPID
  5
3791
330
8
100
AcDbSymbolTableRecord
100
AcDbRegAppTableRecord
  2
GradientColor1ACI
 70
     0
  0
APPID
  5
3792
330
8
100
AcDbSymbolTableRecord
100
AcDbRegAppTableRecord
  2
GradientColor2ACI
 70
     0
  0
APPID
  5
3AC0
330
8
100
AcDbSymbolTableRecord
100
AcDbRegAppTableRecord
  2
AcadAnnotative
 70
     0
  0
APPID
  5
3B93
330
8
100
AcDbSymbolTableRecord
100
AcDbRegAppTableRecord
  2
PLOTTRANSPARENCY
 70
     0
  0
ENDTAB
  0
TABLE
  2
DIMSTYLE
  5
9
330
0
100
AcDbSymbolTable
 70
     7
100
AcDbDimStyleTable
  0
DIMSTYLE
105
18
330
9
100
AcDbSymbolTableRecord
100
AcDbDimStyleTableRecord
  2
Standard
 70
     0
178
     0
340
17
  0
DIMSTYLE
105
57
102
{ACAD_REACTORS
330
3950
330
3953
330
3956
330
3959
330
3974
330
3977
330
397A
330
397B
330
397C
330
397D
330
3980
330
3983
330
3987
330
3A96
330
3AD4
330
3B61
330
3B63
330
3B66
102
}
330
9
100
AcDbSymbolTableRecord
100
AcDbDimStyleTableRecord
  2
tfrom線あり
 70
     0
  3
<>
  4
[]
 41
10.0
 42
30.0
 43
0.9999999999999999
 44
0.0
 73
     0
 74
     0
 77
     1
 78
    11
140
24.0
141
0.0
143
1.0
147
20.0
171
     1
174
     1
178
     0
179
     2
271
     0
272
     1
276
     2
284
    11
285
    11
286
    11
289
     0
340
39
341
4E
342
4E
  0
DIMSTYLE
105
378E
330
9
100
AcDbSymbolTableRecord
100
AcDbDimStyleTableRecord
  2
ISO-25
 70
     0
 41
6.0
 42
0.645
 43
3.75
 44
1.25
 49
25.0
290
     1
 73
     0
 74
     0
 77
     1
 78
     8
140
10.0
141
0.0
143
0.03937007874016
147
2.0
171
     3
172
     1
176
   256
178
     0
271
     0
272
     0
274
     3
278
    44
283
     0
284
     8
340
17
346
377F
347
377F
1001
ACAD_DSTYLE_DIMJAG
1070
   388
1040
1.5
1001
ACAD_DSTYLE_DIMTALN
1070
   392
1070
     0
  0
DIMSTYLE
105
3AB6
330
9
100
AcDbSymbolTableRecord
100
AcDbDimStyleTableRecord
  2
tform線あり
 70
     0
  3
<>
  4
[]
 41
9.999389648437498
 42
25.0
 43
0.9999999999999999
 44
0.0
 73
     0
 74
     0
 77
     1
 78
    11
140
24.4326171875
141
0.0
143
1.0
146
0.8
147
10.0
171
     1
172
     1
174
     1
178
     0
179
     2
271
     1
272
     1
276
     2
284
    11
285
    11
286
    11
289
     0
340
39
341
4E
342
4E
  0
DIMSTYLE
105
3AB7
330
9
100
AcDbSymbolTableRecord
100
AcDbDimStyleTableRecord
  2
scala  A3
 70
     0
 41
5.0
 42
0.625
 43
0.0
 44
1.25
 49
10.0
 90
        2
290
     1
 73
     0
 74
     0
 77
     1
 78
     8
140
6.0
141
2.5
143
0.03937007874016
147
2.0
171
     3
176
   256
177
   256
178
     0
271
     0
272
     0
274
     3
278
    44
283
     0
284
     8
340
17
371
    -1
372
     0
345
12
346
12
347
12
1001
ACAD_DSTYLE_DIMJAG
1070
   388
1040
1.5
1001
ACAD_DSTYLE_DIMTALN
1070
   392
1070
     0
  0
DIMSTYLE
105
3ABB
330
9
100
AcDbSymbolTableRecord
100
AcDbDimStyleTableRecord
  2
Standard1
 70
     0
 41
0.0
 42
5.0
 44
0.0
 73
     0
 74
     0
 77
     2
140
20.0
141
0.0
147
2.0
178
     0
271
     0
272
     0
340
17
341
3ABC
342
3ABC
1001
ACAD_DSTYLE_DIMJAG
1070
   388
1040
1.5
1001
ACAD_DSTYLE_DIMTALN
1070
   392
1070
     0
  0
DIMSTYLE
105
3ABF
330
9
100
AcDbSymbolTableRecord
100
AcDbDimStyleTableRecord
  2
scala 1a 1 ass
 70
     0
 41
1.3
 42
0.625
 43
0.0
 44
1.25
 45
0.5
 49
2.0
290
     1
 73
     0
 74
     0
 77
     1
 78
     9
 79
     1
140
2.0
141
0.0
143
0.03937007874016
147
0.5
171
     3
174
     1
176
   256
177
   256
178
     0
179
     1
271
     0
272
     0
274
     3
278
    44
279
     2
283
     0
284
     8
340
17
371
    15
372
     5
345
12
346
3AAB
347
3AAB
1001
AcadAnnotative
1000
AnnotativeData
1002
{
1070
     1
1070
     1
1002
}
1001
ACAD_DSTYLE_DIMJAG
1070
   388
1040
1.5
1001
ACAD_DSTYLE_DIMTALN
1070
   392
1070
     0
  0
ENDTAB
  0
TABLE
  2
BLOCK_RECORD
  5
1
330
0
100
AcDbSymbolTable
 70
    45
  0
BLOCK_RECORD
  5
A
102
{ACAD_XDICTIONARY
360
374D
102
}
330
1
100
AcDbSymbolTableRecord
100
AcDbBlockTableRecord
  2
*MODEL_SPACE
340
20
 70
     0
280
     1
281
     0
  0
BLOCK_RECORD
  5
B
330
1
100
AcDbSymbolTableRecord
100
AcDbBlockTableRecord
  2
*PAPER_SPACE
340
21
 70
     0
280
     1
281
     0
  0
BLOCK_RECORD
  5
4E
330
1
100
AcDbSymbolTableRecord
100
AcDbBlockTableRecord
  2
_DOT
340
0
102
{BLKREFS
331
373A
331
373B
331
3746
331
3747
331
37F9
331
37FA
331
3808
331
3809
331
3817
331
3818
331
3826
331
3827
331
3837
331
3838
331
3844
331
3845
331
3865
331
3866
331
3874
331
3875
331
3881
331
3882
331
388E
331
388F
331
389B
331
389C
331
38AA
331
38AB
331
38B9
331
38BA
331
38C8
331
38C9
331
38D8
331
38D9
331
39A6
331
39A7
331
39B2
331
39B3
331
39BE
331
39BF
331
39CA
331
39CB
331
39D6
331
39D7
331
39E2
331
39E3
331
39EE
331
39EF
331
39FA
331
39FB
331
3A06
331
3A07
331
3A12
331
3A13
331
3A1E
331
3A1F
331
3A2A
331
3A2B
331
3A36
331
3A37
331
3A42
331
3A43
331
3A4E
331
3A4F
331
3A9F
331
3AA0
331
3ADD
331
3ADE
331
3B2A
331
3B2B
331
3B37
331
3B38
331
3B48
331
3B49
331
3B6F
331
3B70
331
3B7B
331
3B7C
331
3B87
331
3B88
102
}
 70
     0
280
     1
281
     0
  0
BLOCK_RECORD
  5
68D
330
1
100
AcDbSymbolTableRecord
100
AcDbBlockTableRecord
  2
block 2
340
0
102
{BLKREFS
331
68C
102
}
 70
     0
280
     1
281
     0
  0
BLOCK_RECORD
  5
199A
330
1
100
AcDbSymbolTableRecord
100
AcDbBlockTableRecord
  2
SEANNOT_GROUP
340
0
102
{BLKREFS
331
28CA
102
}
 70
     0
280
     1
281
     0
  0
BLOCK_RECORD
  5
1F2F
330
1
100
AcDbSymbolTableRecord
100
AcDbBlockTableRecord
  2
SEANNOT_GROUP1
340
0
102
{BLKREFS
331
2B9B
102
}
 70
     0
280
     1
281
     0
  0
BLOCK_RECORD
  5
3734
330
1
100
AcDbSymbolTableRecord
100
AcDbBlockTableRecord
  2
*D4
340
0
 70
     0
280
     1
281
     0
  0
BLOCK_RECORD
  5
3740
330
1
100
AcDbSymbolTableRecord
100
AcDbBlockTableRecord
  2
*D5
340
0
 70
     0
280
     1
281
     0
  0
BLOCK_RECORD
  5
37F4
330
1
100
AcDbSymbolTableRecord
100
AcDbBlockTableRecord
  2
*D6
340
0
 70
     0
280
     1
281
     0
  0
BLOCK_RECORD
  5
3803
330
1
100
AcDbSymbolTableRecord
100
AcDbBlockTableRecord
  2
*D7
340
0
 70
     0
280
     1
281
     0
  0
BLOCK_RECORD
  5
3812
330
1
100
AcDbSymbolTableRecord
100
AcDbBlockTableRecord
  2
*D8
340
0
 70
     0
280
     1
281
     0
  0
BLOCK_RECORD
  5
3821
330
1
100
AcDbSymbolTableRecord
100
AcDbBlockTableRecord
  2
*D9
340
0
 70
     0
280
     1
281
     0
  0
BLOCK_RECORD
  5
3832
330
1
100
AcDbSymbolTableRecord
100
AcDbBlockTableRecord
  2
*D10
340
0
 70
     0
280
     1
281
     0
  0
BLOCK_RECORD
  5
383F
330
1
100
AcDbSymbolTableRecord
100
AcDbBlockTableRecord
  2
*D11
340
0
 70
     0
280
     1
281
     0
  0
BLOCK_RECORD
  5
3860
330
1
100
AcDbSymbolTableRecord
100
AcDbBlockTableRecord
  2
*D12
340
0
 70
     0
280
     1
281
     0
  0
BLOCK_RECORD
  5
386F
330
1
100
AcDbSymbolTableRecord
100
AcDbBlockTableRecord
  2
*D13
340
0
 70
     0
280
     1
281
     0
  0
BLOCK_RECORD
  5
387C
330
1
100
AcDbSymbolTableRecord
100
AcDbBlockTableRecord
  2
*D14
340
0
 70
     0
280
     1
281
     0
  0
BLOCK_RECORD
  5
3889
330
1
100
AcDbSymbolTableRecord
100
AcDbBlockTableRecord
  2
*D15
340
0
 70
     0
280
     1
281
     0
  0
BLOCK_RECORD
  5
3896
330
1
100
AcDbSymbolTableRecord
100
AcDbBlockTableRecord
  2
*D16
340
0
 70
     0
280
     1
281
     0
  0
BLOCK_RECORD
  5
38A5
330
1
100
AcDbSymbolTableRecord
100
AcDbBlockTableRecord
  2
*D17
340
0
 70
     0
280
     1
281
     0
  0
BLOCK_RECORD
  5
38B4
330
1
100
AcDbSymbolTableRecord
100
AcDbBlockTableRecord
  2
*D18
340
0
 70
     0
280
     1
281
     0
  0
BLOCK_RECORD
  5
38C3
330
1
100
AcDbSymbolTableRecord
100
AcDbBlockTableRecord
  2
*D19
340
0
 70
     0
280
     1
281
     0
  0
BLOCK_RECORD
  5
38D3
330
1
100
AcDbSymbolTableRecord
100
AcDbBlockTableRecord
  2
*D20
340
0
 70
     0
280
     1
281
     0
  0
BLOCK_RECORD
  5
39A0
330
1
100
AcDbSymbolTableRecord
100
AcDbBlockTableRecord
  2
*D21
340
0
 70
     0
280
     1
281
     0
  0
BLOCK_RECORD
  5
39AC
330
1
100
AcDbSymbolTableRecord
100
AcDbBlockTableRecord
  2
*D22
340
0
 70
     0
280
     1
281
     0
  0
BLOCK_RECORD
  5
39B8
330
1
100
AcDbSymbolTableRecord
100
AcDbBlockTableRecord
  2
*D23
340
0
 70
     0
280
     1
281
     0
  0
BLOCK_RECORD
  5
39C4
330
1
100
AcDbSymbolTableRecord
100
AcDbBlockTableRecord
  2
*D24
340
0
 70
     0
280
     1
281
     0
  0
BLOCK_RECORD
  5
39D0
330
1
100
AcDbSymbolTableRecord
100
AcDbBlockTableRecord
  2
*D25
340
0
 70
     0
280
     1
281
     0
  0
BLOCK_RECORD
  5
39DC
330
1
100
AcDbSymbolTableRecord
100
AcDbBlockTableRecord
  2
*D26
340
0
 70
     0
280
     1
281
     0
  0
BLOCK_RECORD
  5
39E8
330
1
100
AcDbSymbolTableRecord
100
AcDbBlockTableRecord
  2
*D27
340
0
 70
     0
280
     1
281
     0
  0
BLOCK_RECORD
  5
39F4
330
1
100
AcDbSymbolTableRecord
100
AcDbBlockTableRecord
  2
*D28
340
0
 70
     0
280
     1
281
     0
  0
BLOCK_RECORD
  5
3A00
330
1
100
AcDbSymbolTableRecord
100
AcDbBlockTableRecord
  2
*D29
340
0
 70
     0
280
     1
281
     0
  0
BLOCK_RECORD
  5
3A0C
330
1
100
AcDbSymbolTableRecord
100
AcDbBlockTableRecord
  2
*D30
340
0
 70
     0
280
     1
281
     0
  0
BLOCK_RECORD
  5
3A18
330
1
100
AcDbSymbolTableRecord
100
AcDbBlockTableRecord
  2
*D31
340
0
 70
     0
280
     1
281
     0
  0
BLOCK_RECORD
  5
3A24
330
1
100
AcDbSymbolTableRecord
100
AcDbBlockTableRecord
  2
*D32
340
0
 70
     0
280
     1
281
     0
  0
BLOCK_RECORD
  5
3A30
330
1
100
AcDbSymbolTableRecord
100
AcDbBlockTableRecord
  2
*D33
340
0
 70
     0
280
     1
281
     0
  0
BLOCK_RECORD
  5
3A3C
330
1
100
AcDbSymbolTableRecord
100
AcDbBlockTableRecord
  2
*D34
340
0
 70
     0
280
     1
281
     0
  0
BLOCK_RECORD
  5
3A48
330
1
100
AcDbSymbolTableRecord
100
AcDbBlockTableRecord
  2
*D35
340
0
 70
     0
280
     1
281
     0
  0
BLOCK_RECORD
  5
3A99
330
1
100
AcDbSymbolTableRecord
100
AcDbBlockTableRecord
  2
*D36
340
0
 70
     0
280
     1
281
     0
  0
BLOCK_RECORD
  5
3ABC
330
1
100
AcDbSymbolTableRecord
100
AcDbBlockTableRecord
  2
_None
340
0
 70
     0
280
     1
281
     0
  0
BLOCK_RECORD
  5
3AD7
330
1
100
AcDbSymbolTableRecord
100
AcDbBlockTableRecord
  2
*D38
340
0
 70
     0
280
     1
281
     0
  0
BLOCK_RECORD
  5
3B25
330
1
100
AcDbSymbolTableRecord
100
AcDbBlockTableRecord
  2
*D39
340
0
 70
     0
280
     1
281
     0
  0
BLOCK_RECORD
  5
3B32
330
1
100
AcDbSymbolTableRecord
100
AcDbBlockTableRecord
  2
*D40
340
0
 70
     0
280
     1
281
     0
  0
BLOCK_RECORD
  5
3B43
330
1
100
AcDbSymbolTableRecord
100
AcDbBlockTableRecord
  2
*D41
340
0
 70
     0
280
     1
281
     0
  0
BLOCK_RECORD
  5
3B69
330
1
100
AcDbSymbolTableRecord
100
AcDbBlockTableRecord
  2
*D42
340
0
 70
     0
280
     1
281
     0
  0
BLOCK_RECORD
  5
3B75
330
1
100
AcDbSymbolTableRecord
100
AcDbBlockTableRecord
  2
*D43
340
0
 70
     0
280
     1
281
     0
  0
BLOCK_RECORD
  5
3B81
330
1
100
AcDbSymbolTableRecord
100
AcDbBlockTableRecord
  2
*D44
340
0
 70
     0
280
     1
281
     0
  0
ENDTAB
  0
ENDSEC
  0
SECTION
  2
BLOCKS
  0
BLOCK
  5
D
330
A
100
AcDbEntity
  8
0
390
1D
100
AcDbBlockBegin
  2
*MODEL_SPACE
 70
     0
 10
0.0
 20
0.0
 30
0.0
  3
*MODEL_SPACE
  1
*MODEL_SPACE
  0
ENDBLK
  5
E
330
A
100
AcDbEntity
  8
0
390
1D
100
AcDbBlockEnd
  0
BLOCK
  5
F
330
B
100
AcDbEntity
 67
     1
  8
0
390
1D
100
AcDbBlockBegin
  2
*PAPER_SPACE
 70
     0
 10
0.0
 20
0.0
 30
0.0
  3
*PAPER_SPACE
  1
*PAPER_SPACE
  0
ENDBLK
  5
10
330
B
100
AcDbEntity
 67
     1
  8
0
390
1D
100
AcDbBlockEnd
  0
BLOCK
  5
EC4
330
4E
100
AcDbEntity
  8
0
390
1D
100
AcDbBlockBegin
  2
_DOT
 70
     0
 10
0.0
 20
0.0
 30
0.0
  3
_DOT
  1
_DOT
  0
POLYLINE
  5
EC6
330
4E
100
AcDbEntity
  8
0
  6
ByBlock
 62
     0
370
    -2
390
1D
100
AcDb2dPolyline
 66
     1
 10
0.0
 20
0.0
 30
0.0
 70
     1
 40
0.5
 41
0.5
  0
VERTEX
  5
EC7
330
EC6
100
AcDbEntity
  8
0
  6
ByBlock
 62
     0
370
    -2
390
1D
100
AcDbVertex
100
AcDb2dVertex
 10
-0.25
 20
0.0
 30
0.0
 42
1.0
  0
VERTEX
  5
EC8
330
EC6
100
AcDbEntity
  8
0
  6
ByBlock
 62
     0
370
    -2
390
1D
100
AcDbVertex
100
AcDb2dVertex
 10
0.25
 20
0.0
 30
0.0
 42
1.0
  0
SEQEND
  5
EC9
330
EC6
100
AcDbEntity
  8
0
390
1D
  0
LINE
  5
ECA
330
4E
100
AcDbEntity
  8
0
  6
ByBlock
 62
     0
370
    -2
390
1D
100
AcDbLine
 10
-0.5
 20
0.0
 30
0.0
 11
-1.0
 21
0.0
 31
0.0
  0
ENDBLK
  5
ECB
330
4E
100
AcDbEntity
  8
0
390
1D
100
AcDbBlockEnd
  0
BLOCK
  5
68E
330
68D
100
AcDbEntity
  8
0
100
AcDbBlockBegin
  2
block 2
 70
     0
 10
0.0
 20
0.0
 30
0.0
  3
block 2
  1
block 2
  0
ENDBLK
  5
6B0
330
68D
100
AcDbEntity
  8
0
100
AcDbBlockEnd
  0
BLOCK
  5
199B
330
199A
100
AcDbEntity
  8
0
100
AcDbBlockBegin
  2
SEANNOT_GROUP
 70
     0
 10
0.0
 20
0.0
 30
0.0
  3
SEANNOT_GROUP
  1
SEANNOT_GROUP
  0
ENDBLK
  5
199C
330
199A
100
AcDbEntity
  8
0
100
AcDbBlockEnd
  0
BLOCK
  5
1F30
330
1F2F
100
AcDbEntity
  8
0
100
AcDbBlockBegin
  2
SEANNOT_GROUP1
 70
     0
 10
0.0
 20
0.0
 30
0.0
  3
SEANNOT_GROUP1
  1
SEANNOT_GROUP1
  0
ENDBLK
  5
1F31
330
1F2F
100
AcDbEntity
  8
0
100
AcDbBlockEnd
  0
BLOCK
  5
3735
330
3734
100
AcDbEntity
  8
0
100
AcDbBlockBegin
  2
*D4
 70
     1
 10
0.0
 20
0.0
 30
0.0
  3
*D4
  1

  0
LINE
  5
3737
330
3734
100
AcDbEntity
  8
DIM
 62
     0
370
    -2
100
AcDbLine
 10
792.5747720364734
 20
1624.375151854103
 30
0.0
 11
792.5747720364734
 21
1945.106376948328
 31
0.0
  0
LINE
  5
3738
330
3734
100
AcDbEntity
  8
DIM
 62
     0
370
    -2
100
AcDbLine
 10
1363.464741641327
 20
1624.375151854103
 30
0.0
 11
1363.464741641327
 21
1945.106376948328
 31
0.0
  0
LINE
  5
3739
330
3734
100
AcDbEntity
  8
DIM
 62
     0
370
    -2
100
AcDbLine
 10
802.5747720364734
 20
1945.106376948328
 30
0.0
 11
1353.464741641327
 21
1945.106376948328
 31
0.0
  0
INSERT
  5
373A
330
3734
100
AcDbEntity
  8
DIM
 62
     0
370
    -2
100
AcDbBlockReference
  2
_DOT
 10
792.5747720364734
 20
1945.106376948328
 30
0.0
 41
10.0
 42
10.0
 43
10.0
 50
180.0
  0
INSERT
  5
373B
330
3734
100
AcDbEntity
  8
DIM
 62
     0
370
    -2
100
AcDbBlockReference
  2
_DOT
 10
1363.464741641327
 20
1945.106376948328
 30
0.0
 41
10.0
 42
10.0
 43
10.0
  0
MTEXT
  5
373C
330
3734
100
AcDbEntity
  8
DIM
 62
     0
100
AcDbMText
 10
1078.019756838897
 20
1977.106376948328
 30
0.0
 40
24.0
 41
0.0
 46
0.0
 71
     5
 72
     1
  1
\A1;571
  7
ＭＳ ゴシック
 73
     1
 44
1.0
  0
POINT
  5
373D
330
3734
100
AcDbEntity
  8
Defpoints
 62
     0
100
AcDbPoint
 10
792.5747720364734
 20
1594.375151854103
 30
0.0
  0
POINT
  5
373E
330
3734
100
AcDbEntity
  8
Defpoints
 62
     0
100
AcDbPoint
 10
1363.464741641327
 20
1594.375151854103
 30
0.0
  0
POINT
  5
373F
330
3734
100
AcDbEntity
  8
Defpoints
 62
     0
100
AcDbPoint
 10
1363.464741641327
 20
1945.106376948328
 30
0.0
  0
ENDBLK
  5
3736
330
3734
100
AcDbEntity
  8
0
100
AcDbBlockEnd
  0
BLOCK
  5
3741
330
3740
100
AcDbEntity
  8
0
100
AcDbBlockBegin
  2
*D5
 70
     1
 10
0.0
 20
0.0
 30
0.0
  3
*D5
  1

  0
LINE
  5
3743
330
3740
100
AcDbEntity
  8
DIM
 62
     0
370
    -2
100
AcDbLine
 10
888.5851999139768
 20
1564.375151854103
 30
0.0
 11
888.5851999139768
 21
1160.881823708206
 31
0.0
  0
LINE
  5
3744
330
3740
100
AcDbEntity
  8
DIM
 62
     0
370
    -2
100
AcDbLine
 10
1267.454313763824
 20
1564.375151854103
 30
0.0
 11
1267.454313763824
 21
1160.881823708206
 31
0.0
  0
LINE
  5
3745
330
3740
100
AcDbEntity
  8
DIM
 62
     0
370
    -2
100
AcDbLine
 10
898.5851999139768
 20
1160.881823708206
 30
0.0
 11
1257.454313763824
 21
1160.881823708206
 31
0.0
  0
INSERT
  5
3746
330
3740
100
AcDbEntity
  8
DIM
 62
     0
370
    -2
100
AcDbBlockReference
  2
_DOT
 10
888.5851999139768
 20
1160.881823708206
 30
0.0
 41
10.0
 42
10.0
 43
10.0
 50
180.0
  0
INSERT
  5
3747
330
3740
100
AcDbEntity
  8
DIM
 62
     0
370
    -2
100
AcDbBlockReference
  2
_DOT
 10
1267.454313763824
 20
1160.881823708206
 30
0.0
 41
10.0
 42
10.0
 43
10.0
  0
MTEXT
  5
3748
330
3740
100
AcDbEntity
  8
DIM
 62
     0
100
AcDbMText
 10
1078.0197568389
 20
1192.881823708206
 30
0.0
 40
24.0
 41
0.0
 46
0.0
 71
     5
 72
     1
  1
\A1;379
  7
ＭＳ ゴシック
 73
     1
 44
1.0
  0
POINT
  5
3749
330
3740
100
AcDbEntity
  8
Defpoints
 62
     0
100
AcDbPoint
 10
888.5851999139768
 20
1594.375151854103
 30
0.0
  0
POINT
  5
374A
330
3740
100
AcDbEntity
  8
Defpoints
 62
     0
100
AcDbPoint
 10
1267.454313763824
 20
1594.375151854103
 30
0.0
  0
POINT
  5
374B
330
3740
100
AcDbEntity
  8
Defpoints
 62
     0
100
AcDbPoint
 10
1267.454313763824
 20
1160.881823708206
 30
0.0
  0
ENDBLK
  5
3742
330
3740
100
AcDbEntity
  8
0
100
AcDbBlockEnd
  0
BLOCK
  5
37F5
330
37F4
100
AcDbEntity
  8
0
100
AcDbBlockBegin
  2
*D6
 70
     1
 10
0.0
 20
0.0
 30
0.0
  3
*D6
  1

  0
LINE
  5
37F6
330
37F4
100
AcDbEntity
  8
DIM
 62
     0
370
    -2
100
AcDbLine
 10
1378.586132818006
 20
1356.331565936492
 30
0.0
 11
1378.586132818006
 21
1292.147315771295
 31
0.0
  0
LINE
  5
37F7
330
37F4
100
AcDbEntity
  8
DIM
 62
     0
370
    -2
100
AcDbLine
 10
1498.590535145892
 20
1359.997850152935
 30
0.0
 11
1498.590535145892
 21
1292.147315771295
 31
0.0
  0
LINE
  5
37F8
330
37F4
100
AcDbEntity
  8
DIM
 62
     0
370
    -2
100
AcDbLine
 10
1388.586132818006
 20
1292.147315771295
 30
0.0
 11
1488.590535145892
 21
1292.147315771295
 31
0.0
  0
INSERT
  5
37F9
330
37F4
100
AcDbEntity
  8
DIM
 62
     0
370
    -2
100
AcDbBlockReference
  2
_DOT
 10
1378.586132818006
 20
1292.147315771295
 30
0.0
 41
10.0
 42
10.0
 43
10.0
 50
180.0
  0
INSERT
  5
37FA
330
37F4
100
AcDbEntity
  8
DIM
 62
     0
370
    -2
100
AcDbBlockReference
  2
_DOT
 10
1498.590535145892
 20
1292.147315771295
 30
0.0
 41
10.0
 42
10.0
 43
10.0
  0
MTEXT
  5
37FB
330
37F4
100
AcDbEntity
  8
DIM
 62
     0
100
AcDbMText
 10
1438.588333981949
 20
1324.151817459428
 30
0.0
 40
24.0
 41
0.0
 46
0.0
 71
     5
 72
     1
  1
\A1;120
  7
ＭＳ ゴシック
 73
     1
 44
1.0
  0
POINT
  5
37FC
330
37F4
100
AcDbEntity
  8
Defpoints
 62
     0
100
AcDbPoint
 10
1378.586132818006
 20
1386.331565936492
 30
0.0
  0
POINT
  5
37FD
330
37F4
100
AcDbEntity
  8
Defpoints
 62
     0
100
AcDbPoint
 10
1498.590535145892
 20
1389.997850152935
 30
0.0
  0
POINT
  5
37FE
330
37F4
100
AcDbEntity
  8
Defpoints
 62
     0
100
AcDbPoint
 10
1498.590535145892
 20
1292.147315771295
 30
0.0
  0
ENDBLK
  5
37FF
330
37F4
100
AcDbEntity
  8
0
100
AcDbBlockEnd
  0
BLOCK
  5
3804
330
3803
100
AcDbEntity
  8
0
100
AcDbBlockBegin
  2
*D7
 70
     1
 10
0.0
 20
0.0
 30
0.0
  3
*D7
  1

  0
LINE
  5
3805
330
3803
100
AcDbEntity
  8
DIM
 62
     0
370
    -2
100
AcDbLine
 10
1352.133536229466
 20
1850.999534706263
 30
0.0
 11
1295.935993693706
 21
1850.999534706263
 31
0.0
  0
LINE
  5
3806
330
3803
100
AcDbEntity
  8
DIM
 62
     0
370
    -2
100
AcDbLine
 10
1352.133536229466
 20
1785.976736549525
 30
0.0
 11
1295.935993693706
 21
1785.976736549525
 31
0.0
  0
LINE
  5
3807
330
3803
100
AcDbEntity
  8
DIM
 62
     0
370
    -2
100
AcDbLine
 10
1295.935993693706
 20
1840.999534706263
 30
0.0
 11
1295.935993693706
 21
1795.976736549525
 31
0.0
  0
INSERT
  5
3808
330
3803
100
AcDbEntity
  8
DIM
 62
     0
370
    -2
100
AcDbBlockReference
  2
_DOT
 10
1295.935993693706
 20
1850.999534706263
 30
0.0
 41
10.0
 42
10.0
 43
10.0
 50
90.0
  0
INSERT
  5
3809
330
3803
100
AcDbEntity
  8
DIM
 62
     0
370
    -2
100
AcDbBlockReference
  2
_DOT
 10
1295.935993693706
 20
1785.976736549525
 30
0.0
 41
10.0
 42
10.0
 43
10.0
 50
270.0
  0
MTEXT
  5
380A
330
3803
100
AcDbEntity
  8
DIM
 62
     0
100
AcDbMText
 10
1263.931492005573
 20
1818.488135627894
 30
0.0
 40
24.0
 41
0.0
 46
0.0
 71
     5
 72
     1
  1
\A1;65
  7
ＭＳ ゴシック
 11
0.0
 21
1.0
 31
0.0
 73
     1
 44
1.0
  0
POINT
  5
380B
330
3803
100
AcDbEntity
  8
Defpoints
 62
     0
100
AcDbPoint
 10
1382.133536229466
 20
1850.999534706263
 30
0.0
  0
POINT
  5
380C
330
3803
100
AcDbEntity
  8
Defpoints
 62
     0
100
AcDbPoint
 10
1382.133536229466
 20
1785.976736549525
 30
0.0
  0
POINT
  5
380D
330
3803
100
AcDbEntity
  8
Defpoints
 62
     0
100
AcDbPoint
 10
1295.935993693706
 20
1785.976736549525
 30
0.0
  0
ENDBLK
  5
380E
330
3803
100
AcDbEntity
  8
0
100
AcDbBlockEnd
  0
BLOCK
  5
3813
330
3812
100
AcDbEntity
  8
0
100
AcDbBlockBegin
  2
*D8
 70
     1
 10
0.0
 20
0.0
 30
0.0
  3
*D8
  1

  0
LINE
  5
3814
330
3812
100
AcDbEntity
  8
DIM
 62
     0
370
    -2
100
AcDbLine
 10
1378.893813859338
 20
1642.144935089953
 30
0.0
 11
1213.207306419049
 21
1642.144935089953
 31
0.0
  0
LINE
  5
3815
330
3812
100
AcDbEntity
  8
DIM
 62
     0
370
    -2
100
AcDbLine
 10
1473.978358989568
 20
1642.144935089953
 30
0.0
 11
1388.893813859338
 21
1642.144935089953
 31
0.0
  0
LINE
  5
3816
330
3812
100
AcDbEntity
  8
DIM
 62
     0
370
    -2
100
AcDbLine
 10
1388.893813859338
 20
1642.144935089953
 30
0.0
 11
1398.893813859338
 21
1642.144935089953
 31
0.0
  0
INSERT
  5
3817
330
3812
100
AcDbEntity
  8
DIM
 62
     0
370
    -2
100
AcDbBlockReference
  2
_DOT
 10
1483.978358989568
 20
1642.144935089953
 30
0.0
 41
10.0
 42
10.0
 43
10.0
  0
INSERT
  5
3818
330
3812
100
AcDbEntity
  8
DIM
 62
     0
370
    -2
100
AcDbBlockReference
  2
_DOT
 10
1378.893813859338
 20
1642.144935089953
 30
0.0
 41
10.0
 42
10.0
 43
10.0
 50
180.0
  0
MTEXT
  5
3819
330
3812
100
AcDbEntity
  8
DIM
 62
     0
100
AcDbMText
 10
1286.050560139194
 20
1675.848824048313
 30
0.0
 40
24.0
 41
0.0
 46
0.0
 71
     5
 72
     1
  1
\A1;深さ105
  7
ＭＳ ゴシック
 73
     1
 44
1.0
  0
POINT
  5
381A
330
3812
100
AcDbEntity
  8
Defpoints
 62
     0
100
AcDbPoint
 10
1483.978358989568
 20
1677.386392378222
 30
0.0
  0
POINT
  5
381B
330
3812
100
AcDbEntity
  8
Defpoints
 62
     0
100
AcDbPoint
 10
1378.893813859338
 20
1647.510187052286
 30
0.0
  0
POINT
  5
381C
330
3812
100
AcDbEntity
  8
Defpoints
 62
     0
100
AcDbPoint
 10
1378.893813859338
 20
1642.144935089953
 30
0.0
  0
ENDBLK
  5
381D
330
3812
100
AcDbEntity
  8
0
100
AcDbBlockEnd
  0
BLOCK
  5
3822
330
3821
100
AcDbEntity
  8
0
100
AcDbBlockBegin
  2
*D9
 70
     1
 10
0.0
 20
0.0
 30
0.0
  3
*D9
  1

  0
LINE
  5
3823
330
3821
100
AcDbEntity
  8
DIM
 62
     0
370
    -2
100
AcDbLine
 10
1526.133457125069
 20
1850.865237288559
 30
0.0
 11
1644.496599067429
 21
1850.865237288559
 31
0.0
  0
LINE
  5
3824
330
3821
100
AcDbEntity
  8
DIM
 62
     0
370
    -2
100
AcDbLine
 10
1562.886041470857
 20
1640.821795248814
 30
0.0
 11
1644.496599067429
 21
1640.821795248814
 31
0.0
  0
LINE
  5
3825
330
3821
100
AcDbEntity
  8
DIM
 62
     0
370
    -2
100
AcDbLine
 10
1644.496599067429
 20
1840.865237288559
 30
0.0
 11
1644.496599067429
 21
1650.821795248814
 31
0.0
  0
INSERT
  5
3826
330
3821
100
AcDbEntity
  8
DIM
 62
     0
370
    -2
100
AcDbBlockReference
  2
_DOT
 10
1644.496599067429
 20
1850.865237288559
 30
0.0
 41
10.0
 42
10.0
 43
10.0
 50
90.0
  0
INSERT
  5
3827
330
3821
100
AcDbEntity
  8
DIM
 62
     0
370
    -2
100
AcDbBlockReference
  2
_DOT
 10
1644.496599067429
 20
1640.821795248814
 30
0.0
 41
10.0
 42
10.0
 43
10.0
 50
270.0
  0
MTEXT
  5
3828
330
3821
100
AcDbEntity
  8
DIM
 62
     0
100
AcDbMText
 10
1612.492097379296
 20
1745.843516268687
 30
0.0
 40
24.0
 41
0.0
 46
0.0
 71
     5
 72
     1
  1
\A1;210
  7
ＭＳ ゴシック
 11
0.0
 21
1.0
 31
0.0
 73
     1
 44
1.0
  0
POINT
  5
3829
330
3821
100
AcDbEntity
  8
Defpoints
 62
     0
100
AcDbPoint
 10
1496.133457125069
 20
1850.865237288559
 30
0.0
  0
POINT
  5
382A
330
3821
100
AcDbEntity
  8
Defpoints
 62
     0
100
AcDbPoint
 10
1532.886041470857
 20
1640.821795248814
 30
0.0
  0
POINT
  5
382B
330
3821
100
AcDbEntity
  8
Defpoints
 62
     0
100
AcDbPoint
 10
1644.496599067429
 20
1640.821795248814
 30
0.0
  0
ENDBLK
  5
382C
330
3821
100
AcDbEntity
  8
0
100
AcDbBlockEnd
  0
BLOCK
  5
3833
330
3832
100
AcDbEntity
  8
0
100
AcDbBlockBegin
  2
*D10
 70
     1
 10
0.0
 20
0.0
 30
0.0
  3
*D10
  1

  0
LINE
  5
3834
330
3832
100
AcDbEntity
  8
DIM
 62
     0
370
    -2
100
AcDbLine
 10
553.0747567904014
 20
1779.540986698607
 30
0.0
 11
691.5369668286219
 21
1779.540986698607
 31
0.0
  0
LINE
  5
3835
330
3832
100
AcDbEntity
  8
DIM
 62
     0
370
    -2
100
AcDbLine
 10
553.0747567904032
 20
1449.540986698607
 30
0.0
 11
691.5369668286219
 21
1449.540986698607
 31
0.0
  0
LINE
  5
3836
330
3832
100
AcDbEntity
  8
DIM
 62
     0
370
    -2
100
AcDbLine
 10
691.5369668286219
 20
1769.540986698607
 30
0.0
 11
691.5369668286219
 21
1459.540986698607
 31
0.0
  0
INSERT
  5
3837
330
3832
100
AcDbEntity
  8
DIM
 62
     0
370
    -2
100
AcDbBlockReference
  2
_DOT
 10
691.5369668286219
 20
1779.540986698607
 30
0.0
 41
10.0
 42
10.0
 43
10.0
 50
90.0
  0
INSERT
  5
3838
330
3832
100
AcDbEntity
  8
DIM
 62
     0
370
    -2
100
AcDbBlockReference
  2
_DOT
 10
691.5369668286219
 20
1449.540986698607
 30
0.0
 41
10.0
 42
10.0
 43
10.0
 50
270.0
  0
MTEXT
  5
3839
330
3832
100
AcDbEntity
  8
DIM
 62
     0
100
AcDbMText
 10
659.5324651404887
 20
1614.540986698607
 30
0.0
 40
24.0
 41
0.0
 46
0.0
 71
     5
 72
     1
  1
\A1;330
  7
ＭＳ ゴシック
 11
0.0
 21
1.0
 31
0.0
 73
     1
 44
1.0
  0
POINT
  5
383A
330
3832
100
AcDbEntity
  8
Defpoints
 62
     0
100
AcDbPoint
 10
523.0747567904014
 20
1779.540986698607
 30
0.0
  0
POINT
  5
383B
330
3832
100
AcDbEntity
  8
Defpoints
 62
     0
100
AcDbPoint
 10
523.0747567904032
 20
1449.540986698607
 30
0.0
  0
POINT
  5
383C
330
3832
100
AcDbEntity
  8
Defpoints
 62
     0
100
AcDbPoint
 10
691.5369668286219
 20
1449.540986698607
 30
0.0
  0
ENDBLK
  5
383D
330
3832
100
AcDbEntity
  8
0
100
AcDbBlockEnd
  0
BLOCK
  5
3840
330
383F
100
AcDbEntity
  8
0
100
AcDbBlockBegin
  2
*D11
 70
     1
 10
0.0
 20
0.0
 30
0.0
  3
*D11
  1

  0
LINE
  5
3841
330
383F
100
AcDbEntity
  8
DIM
 62
     0
370
    -2
100
AcDbLine
 10
223.7793982281573
 20
1770.635359258321
 30
0.0
 11
223.7793982281573
 21
1865.076809990926
 31
0.0
  0
LINE
  5
3842
330
383F
100
AcDbEntity
  8
DIM
 62
     0
370
    -2
100
AcDbLine
 10
523.0747567904014
 20
1810.635359258305
 30
0.0
 11
523.0747567904014
 21
1865.076809990926
 31
0.0
  0
LINE
  5
3843
330
383F
100
AcDbEntity
  8
DIM
 62
     0
370
    -2
100
AcDbLine
 10
233.7793982281573
 20
1865.076809990926
 30
0.0
 11
513.0747567904014
 21
1865.076809990926
 31
0.0
  0
INSERT
  5
3844
330
383F
100
AcDbEntity
  8
DIM
 62
     0
370
    -2
100
AcDbBlockReference
  2
_DOT
 10
223.7793982281573
 20
1865.076809990926
 30
0.0
 41
10.0
 42
10.0
 43
10.0
 50
180.0
  0
INSERT
  5
3845
330
383F
100
AcDbEntity
  8
DIM
 62
     0
370
    -2
100
AcDbBlockReference
  2
_DOT
 10
523.0747567904014
 20
1865.076809990926
 30
0.0
 41
10.0
 42
10.0
 43
10.0
  0
MTEXT
  5
3846
330
383F
100
AcDbEntity
  8
DIM
 62
     0
100
AcDbMText
 10
373.4270775092793
 20
1897.08131167906
 30
0.0
 40
24.0
 41
0.0
 46
0.0
 71
     5
 72
     1
  1
\A1;300
  7
ＭＳ ゴシック
 73
     1
 44
1.0
  0
POINT
  5
3847
330
383F
100
AcDbEntity
  8
Defpoints
 62
     0
100
AcDbPoint
 10
223.7793982281573
 20
1740.635359258321
 30
0.0
  0
POINT
  5
3848
330
383F
100
AcDbEntity
  8
Defpoints
 62
     0
100
AcDbPoint
 10
523.0747567904014
 20
1780.635359258305
 30
0.0
  0
POINT
  5
3849
330
383F
100
AcDbEntity
  8
Defpoints
 62
     0
100
AcDbPoint
 10
523.0747567904014
 20
1865.076809990926
 30
0.0
  0
ENDBLK
  5
384A
330
383F
100
AcDbEntity
  8
0
100
AcDbBlockEnd
  0
BLOCK
  5
3861
330
3860
100
AcDbEntity
  8
0
100
AcDbBlockBegin
  2
*D12
 70
     1
 10
0.0
 20
0.0
 30
0.0
  3
*D12
  1

  0
LINE
  5
3862
330
3860
100
AcDbEntity
  8
DIM
 62
     0
370
    -2
100
AcDbLine
 10
1393.908516749515
 20
576.1720432918244
 30
0.0
 11
1293.494343692616
 21
576.1720432918244
 31
0.0
  0
LINE
  5
3863
330
3860
100
AcDbEntity
  8
DIM
 62
     0
370
    -2
100
AcDbLine
 10
1393.93959668047
 20
295.9481984716468
 30
0.0
 11
1293.494343692616
 21
295.9481984716468
 31
0.0
  0
LINE
  5
3864
330
3860
100
AcDbEntity
  8
DIM
 62
     0
370
    -2
100
AcDbLine
 10
1293.494343692616
 20
566.1720432918244
 30
0.0
 11
1293.494343692616
 21
305.9481984716468
 31
0.0
  0
INSERT
  5
3865
330
3860
100
AcDbEntity
  8
DIM
 62
     0
370
    -2
100
AcDbBlockReference
  2
_DOT
 10
1293.494343692616
 20
576.1720432918244
 30
0.0
 41
10.0
 42
10.0
 43
10.0
 50
90.0
  0
INSERT
  5
3866
330
3860
100
AcDbEntity
  8
DIM
 62
     0
370
    -2
100
AcDbBlockReference
  2
_DOT
 10
1293.494343692616
 20
295.9481984716468
 30
0.0
 41
10.0
 42
10.0
 43
10.0
 50
270.0
  0
MTEXT
  5
3867
330
3860
100
AcDbEntity
  8
DIM
 62
     0
100
AcDbMText
 10
1261.489842004483
 20
436.0601208817356
 30
0.0
 40
24.0
 41
0.0
 46
0.0
 71
     5
 72
     1
  1
\A1;280
  7
ＭＳ ゴシック
 11
0.0
 21
1.0
 31
0.0
 73
     1
 44
1.0
  0
POINT
  5
3868
330
3860
100
AcDbEntity
  8
Defpoints
 62
     0
100
AcDbPoint
 10
1423.908516749515
 20
576.1720432918244
 30
0.0
  0
POINT
  5
3869
330
3860
100
AcDbEntity
  8
Defpoints
 62
     0
100
AcDbPoint
 10
1423.93959668047
 20
295.9481984716468
 30
0.0
  0
POINT
  5
386A
330
3860
100
AcDbEntity
  8
Defpoints
 62
     0
100
AcDbPoint
 10
1293.494343692616
 20
295.9481984716468
 30
0.0
  0
ENDBLK
  5
386B
330
3860
100
AcDbEntity
  8
0
100
AcDbBlockEnd
  0
BLOCK
  5
3870
330
386F
100
AcDbEntity
  8
0
100
AcDbBlockBegin
  2
*D13
 70
     1
 10
0.0
 20
0.0
 30
0.0
  3
*D13
  1

  0
LINE
  5
3871
330
386F
100
AcDbEntity
  8
DIM
 62
     0
370
    -2
100
AcDbLine
 10
1379.044545979061
 20
764.1317229323463
 30
0.0
 11
1379.044545979061
 21
859.7053371957984
 31
0.0
  0
LINE
  5
3872
330
386F
100
AcDbEntity
  8
DIM
 62
     0
370
    -2
100
AcDbLine
 10
1532.908516749514
 20
501.7767623090094
 30
0.0
 11
1532.908516749514
 21
859.7053371957984
 31
0.0
  0
LINE
  5
3873
330
386F
100
AcDbEntity
  8
DIM
 62
     0
370
    -2
100
AcDbLine
 10
1389.044545979061
 20
859.7053371957984
 30
0.0
 11
1522.908516749514
 21
859.7053371957984
 31
0.0
  0
INSERT
  5
3874
330
386F
100
AcDbEntity
  8
DIM
 62
     0
370
    -2
100
AcDbBlockReference
  2
_DOT
 10
1379.044545979061
 20
859.7053371957984
 30
0.0
 41
10.0
 42
10.0
 43
10.0
 50
180.0
  0
INSERT
  5
3875
330
386F
100
AcDbEntity
  8
DIM
 62
     0
370
    -2
100
AcDbBlockReference
  2
_DOT
 10
1532.908516749514
 20
859.7053371957984
 30
0.0
 41
10.0
 42
10.0
 43
10.0
  0
MTEXT
  5
3876
330
386F
100
AcDbEntity
  8
DIM
 62
     0
100
AcDbMText
 10
1455.976531364287
 20
891.7098388839314
 30
0.0
 40
24.0
 41
0.0
 46
0.0
 71
     5
 72
     1
  1
\A1;154
  7
ＭＳ ゴシック
 73
     1
 44
1.0
  0
POINT
  5
3877
330
386F
100
AcDbEntity
  8
Defpoints
 62
     0
100
AcDbPoint
 10
1379.044545979061
 20
734.1317229323463
 30
0.0
  0
POINT
  5
3878
330
386F
100
AcDbEntity
  8
Defpoints
 62
     0
100
AcDbPoint
 10
1532.908516749514
 20
471.7767623090094
 30
0.0
  0
POINT
  5
3879
330
386F
100
AcDbEntity
  8
Defpoints
 62
     0
100
AcDbPoint
 10
1532.908516749514
 20
859.7053371957984
 30
0.0
  0
ENDBLK
  5
387A
330
386F
100
AcDbEntity
  8
0
100
AcDbBlockEnd
  0
BLOCK
  5
387D
330
387C
100
AcDbEntity
  8
0
100
AcDbBlockBegin
  2
*D14
 70
     1
 10
0.0
 20
0.0
 30
0.0
  3
*D14
  1

  0
LINE
  5
387E
330
387C
100
AcDbEntity
  8
DIM
 62
     0
370
    -2
100
AcDbLine
 10
223.7793982281546
 20
763.2233200799294
 30
0.0
 11
223.7793982281546
 21
859.7053371957984
 31
0.0
  0
LINE
  5
387F
330
387C
100
AcDbEntity
  8
DIM
 62
     0
370
    -2
100
AcDbLine
 10
694.5242370003821
 20
764.3438604215853
 30
0.0
 11
694.5242370003821
 21
859.7053371957984
 31
0.0
  0
LINE
  5
3880
330
387C
100
AcDbEntity
  8
DIM
 62
     0
370
    -2
100
AcDbLine
 10
233.7793982281546
 20
859.7053371957984
 30
0.0
 11
684.5242370003821
 21
859.7053371957984
 31
0.0
  0
INSERT
  5
3881
330
387C
100
AcDbEntity
  8
DIM
 62
     0
370
    -2
100
AcDbBlockReference
  2
_DOT
 10
223.7793982281546
 20
859.7053371957984
 30
0.0
 41
10.0
 42
10.0
 43
10.0
 50
180.0
  0
INSERT
  5
3882
330
387C
100
AcDbEntity
  8
DIM
 62
     0
370
    -2
100
AcDbBlockReference
  2
_DOT
 10
694.5242370003821
 20
859.7053371957984
 30
0.0
 41
10.0
 42
10.0
 43
10.0
  0
MTEXT
  5
3883
330
387C
100
AcDbEntity
  8
DIM
 62
     0
100
AcDbMText
 10
459.591157442489
 20
891.7098388839314
 30
0.0
 40
24.0
 41
0.0
 46
0.0
 71
     5
 72
     1
  1
\A1;471
  7
ＭＳ ゴシック
 73
     1
 44
1.0
  0
POINT
  5
3884
330
387C
100
AcDbEntity
  8
Defpoints
 62
     0
100
AcDbPoint
 10
223.7793982281546
 20
733.2233200799294
 30
0.0
  0
POINT
  5
3885
330
387C
100
AcDbEntity
  8
Defpoints
 62
     0
100
AcDbPoint
 10
694.5242370003821
 20
734.3438604215853
 30
0.0
  0
POINT
  5
3886
330
387C
100
AcDbEntity
  8
Defpoints
 62
     0
100
AcDbPoint
 10
694.5242370003821
 20
859.7053371957984
 30
0.0
  0
ENDBLK
  5
3887
330
387C
100
AcDbEntity
  8
0
100
AcDbBlockEnd
  0
BLOCK
  5
388A
330
3889
100
AcDbEntity
  8
0
100
AcDbBlockBegin
  2
*D15
 70
     1
 10
0.0
 20
0.0
 30
0.0
  3
*D15
  1

  0
LINE
  5
388B
330
3889
100
AcDbEntity
  8
DIM
 62
     0
370
    -2
100
AcDbLine
 10
348.7943591562769
 20
106.2228631653898
 30
0.0
 11
348.7943591562769
 21
38.35049005015605
 31
0.0
  0
LINE
  5
388C
330
3889
100
AcDbEntity
  8
DIM
 62
     0
370
    -2
100
AcDbLine
 10
689.0728439889269
 20
106.2228631653908
 30
0.0
 11
689.0728439889269
 21
38.35049005015605
 31
0.0
  0
LINE
  5
388D
330
3889
100
AcDbEntity
  8
DIM
 62
     0
370
    -2
100
AcDbLine
 10
358.7943591562769
 20
38.35049005015605
 30
0.0
 11
679.0728439889269
 21
38.35049005015605
 31
0.0
  0
INSERT
  5
388E
330
3889
100
AcDbEntity
  8
DIM
 62
     0
370
    -2
100
AcDbBlockReference
  2
_DOT
 10
348.7943591562769
 20
38.35049005015605
 30
0.0
 41
10.0
 42
10.0
 43
10.0
 50
180.0
  0
INSERT
  5
388F
330
3889
100
AcDbEntity
  8
DIM
 62
     0
370
    -2
100
AcDbBlockReference
  2
_DOT
 10
689.0728439889269
 20
38.35049005015605
 30
0.0
 41
10.0
 42
10.0
 43
10.0
  0
MTEXT
  5
3890
330
3889
100
AcDbEntity
  8
DIM
 62
     0
100
AcDbMText
 10
518.9336015726019
 20
70.3549917382891
 30
0.0
 40
24.0
 41
0.0
 46
0.0
 71
     5
 72
     1
  1
\A1;340
  7
ＭＳ ゴシック
 73
     1
 44
1.0
  0
POINT
  5
3891
330
3889
100
AcDbEntity
  8
Defpoints
 62
     0
100
AcDbPoint
 10
348.7943591562769
 20
136.2228631653898
 30
0.0
  0
POINT
  5
3892
330
3889
100
AcDbEntity
  8
Defpoints
 62
     0
100
AcDbPoint
 10
689.0728439889269
 20
136.2228631653908
 30
0.0
  0
POINT
  5
3893
330
3889
100
AcDbEntity
  8
Defpoints
 62
     0
100
AcDbPoint
 10
689.0728439889269
 20
38.35049005015605
 30
0.0
  0
ENDBLK
  5
3894
330
3889
100
AcDbEntity
  8
0
100
AcDbBlockEnd
  0
BLOCK
  5
3897
330
3896
100
AcDbEntity
  8
0
100
AcDbBlockBegin
  2
*D16
 70
     1
 10
0.0
 20
0.0
 30
0.0
  3
*D16
  1

  0
LINE
  5
3898
330
3896
100
AcDbEntity
  8
DIM
 62
     0
370
    -2
100
AcDbLine
 10
348.7943591562769
 20
106.2228631653898
 30
0.0
 11
348.7943591562769
 21
38.35049005015605
 31
0.0
  0
LINE
  5
3899
330
3896
100
AcDbEntity
  8
DIM
 62
     0
370
    -2
100
AcDbLine
 10
223.7793982281543
 20
106.2996043825076
 30
0.0
 11
223.7793982281543
 21
38.35049005015605
 31
0.0
  0
LINE
  5
389A
330
3896
100
AcDbEntity
  8
DIM
 62
     0
370
    -2
100
AcDbLine
 10
338.7943591562769
 20
38.35049005015605
 30
0.0
 11
233.7793982281543
 21
38.35049005015605
 31
0.0
  0
INSERT
  5
389B
330
3896
100
AcDbEntity
  8
DIM
 62
     0
370
    -2
100
AcDbBlockReference
  2
_DOT
 10
348.7943591562769
 20
38.35049005015605
 30
0.0
 41
10.0
 42
10.0
 43
10.0
  0
INSERT
  5
389C
330
3896
100
AcDbEntity
  8
DIM
 62
     0
370
    -2
100
AcDbBlockReference
  2
_DOT
 10
223.7793982281543
 20
38.35049005015605
 30
0.0
 41
10.0
 42
10.0
 43
10.0
 50
180.0
  0
MTEXT
  5
389D
330
3896
100
AcDbEntity
  8
DIM
 62
     0
100
AcDbMText
 10
286.2868786922156
 20
70.3549917382891
 30
0.0
 40
24.0
 41
0.0
 46
0.0
 71
     5
 72
     1
  1
\A1;125
  7
ＭＳ ゴシック
 73
     1
 44
1.0
  0
POINT
  5
389E
330
3896
100
AcDbEntity
  8
Defpoints
 62
     0
100
AcDbPoint
 10
348.7943591562769
 20
136.2228631653898
 30
0.0
  0
POINT
  5
389F
330
3896
100
AcDbEntity
  8
Defpoints
 62
     0
100
AcDbPoint
 10
223.7793982281543
 20
136.2996043825076
 30
0.0
  0
POINT
  5
38A0
330
3896
100
AcDbEntity
  8
Defpoints
 62
     0
100
AcDbPoint
 10
223.7793982281543
 20
38.35049005015605
 30
0.0
  0
ENDBLK
  5
38A1
330
3896
100
AcDbEntity
  8
0
100
AcDbBlockEnd
  0
BLOCK
  5
38A6
330
38A5
100
AcDbEntity
  8
0
100
AcDbBlockBegin
  2
*D17
 70
     1
 10
0.0
 20
0.0
 30
0.0
  3
*D17
  1

  0
LINE
  5
38A7
330
38A5
100
AcDbEntity
  8
DIM
 62
     0
370
    -2
100
AcDbLine
 10
260.7809583136825
 20
336.2228631653899
 30
0.0
 11
139.5171064397923
 21
336.2228631653899
 31
0.0
  0
LINE
  5
38A8
330
38A5
100
AcDbEntity
  8
DIM
 62
     0
370
    -2
100
AcDbLine
 10
260.7809583136825
 20
436.2228631653904
 30
0.0
 11
139.5171064397923
 21
436.2228631653904
 31
0.0
  0
LINE
  5
38A9
330
38A5
100
AcDbEntity
  8
DIM
 62
     0
370
    -2
100
AcDbLine
 10
139.5171064397923
 20
346.2228631653899
 30
0.0
 11
139.5171064397923
 21
426.2228631653904
 31
0.0
  0
INSERT
  5
38AA
330
38A5
100
AcDbEntity
  8
DIM
 62
     0
370
    -2
100
AcDbBlockReference
  2
_DOT
 10
139.5171064397923
 20
336.2228631653899
 30
0.0
 41
10.0
 42
10.0
 43
10.0
 50
270.0
  0
INSERT
  5
38AB
330
38A5
100
AcDbEntity
  8
DIM
 62
     0
370
    -2
100
AcDbBlockReference
  2
_DOT
 10
139.5171064397923
 20
436.2228631653904
 30
0.0
 41
10.0
 42
10.0
 43
10.0
 50
90.0
  0
MTEXT
  5
38AC
330
38A5
100
AcDbEntity
  8
DIM
 62
     0
100
AcDbMText
 10
107.5126047516592
 20
386.2228631653902
 30
0.0
 40
24.0
 41
0.0
 46
0.0
 71
     5
 72
     1
  1
\A1;100
  7
ＭＳ ゴシック
 11
0.0
 21
1.0
 31
0.0
 73
     1
 44
1.0
  0
POINT
  5
38AD
330
38A5
100
AcDbEntity
  8
Defpoints
 62
     0
100
AcDbPoint
 10
290.7809583136825
 20
336.2228631653899
 30
0.0
  0
POINT
  5
38AE
330
38A5
100
AcDbEntity
  8
Defpoints
 62
     0
100
AcDbPoint
 10
290.7809583136825
 20
436.2228631653904
 30
0.0
  0
POINT
  5
38AF
330
38A5
100
AcDbEntity
  8
Defpoints
 62
     0
100
AcDbPoint
 10
139.5171064397923
 20
436.2228631653904
 30
0.0
  0
ENDBLK
  5
38B0
330
38A5
100
AcDbEntity
  8
0
100
AcDbBlockEnd
  0
BLOCK
  5
38B5
330
38B4
100
AcDbEntity
  8
0
100
AcDbBlockBegin
  2
*D18
 70
     1
 10
0.0
 20
0.0
 30
0.0
  3
*D18
  1

  0
LINE
  5
38B6
330
38B4
100
AcDbEntity
  8
DIM
 62
     0
370
    -2
100
AcDbLine
 10
260.7809583136825
 20
436.2228631653904
 30
0.0
 11
139.5171064397923
 21
436.2228631653904
 31
0.0
  0
LINE
  5
38B7
330
38B4
100
AcDbEntity
  8
DIM
 62
     0
370
    -2
100
AcDbLine
 10
260.7809583136825
 20
536.2228631653904
 30
0.0
 11
139.5171064397923
 21
536.2228631653904
 31
0.0
  0
LINE
  5
38B8
330
38B4
100
AcDbEntity
  8
DIM
 62
     0
370
    -2
100
AcDbLine
 10
139.5171064397923
 20
446.2228631653904
 30
0.0
 11
139.5171064397923
 21
526.2228631653904
 31
0.0
  0
INSERT
  5
38B9
330
38B4
100
AcDbEntity
  8
DIM
 62
     0
370
    -2
100
AcDbBlockReference
  2
_DOT
 10
139.5171064397923
 20
436.2228631653904
 30
0.0
 41
10.0
 42
10.0
 43
10.0
 50
270.0
  0
INSERT
  5
38BA
330
38B4
100
AcDbEntity
  8
DIM
 62
     0
370
    -2
100
AcDbBlockReference
  2
_DOT
 10
139.5171064397923
 20
536.2228631653904
 30
0.0
 41
10.0
 42
10.0
 43
10.0
 50
90.0
  0
MTEXT
  5
38BB
330
38B4
100
AcDbEntity
  8
DIM
 62
     0
100
AcDbMText
 10
107.5126047516592
 20
486.2228631653904
 30
0.0
 40
24.0
 41
0.0
 46
0.0
 71
     5
 72
     1
  1
\A1;100
  7
ＭＳ ゴシック
 11
0.0
 21
1.0
 31
0.0
 73
     1
 44
1.0
  0
POINT
  5
38BC
330
38B4
100
AcDbEntity
  8
Defpoints
 62
     0
100
AcDbPoint
 10
290.7809583136825
 20
436.2228631653904
 30
0.0
  0
POINT
  5
38BD
330
38B4
100
AcDbEntity
  8
Defpoints
 62
     0
100
AcDbPoint
 10
290.7809583136825
 20
536.2228631653904
 30
0.0
  0
POINT
  5
38BE
330
38B4
100
AcDbEntity
  8
Defpoints
 62
     0
100
AcDbPoint
 10
139.5171064397923
 20
536.2228631653904
 30
0.0
  0
ENDBLK
  5
38BF
330
38B4
100
AcDbEntity
  8
0
100
AcDbBlockEnd
  0
BLOCK
  5
38C4
330
38C3
100
AcDbEntity
  8
0
100
AcDbBlockBegin
  2
*D19
 70
     1
 10
0.0
 20
0.0
 30
0.0
  3
*D19
  1

  0
LINE
  5
38C5
330
38C3
100
AcDbEntity
  8
DIM
 62
     0
370
    -2
100
AcDbLine
 10
196.7793982281546
 20
136.2228631653817
 30
0.0
 11
43.99999999999999
 21
136.2228631653817
 31
0.0
  0
LINE
  5
38C6
330
38C3
100
AcDbEntity
  8
DIM
 62
     0
370
    -2
100
AcDbLine
 10
196.7793982281546
 20
736.2228631653984
 30
0.0
 11
44.00000000000003
 21
736.2228631653984
 31
0.0
  0
LINE
  5
38C7
330
38C3
100
AcDbEntity
  8
DIM
 62
     0
370
    -2
100
AcDbLine
 10
43.99999999999999
 20
146.2228631653817
 30
0.0
 11
44.00000000000003
 21
726.2228631653984
 31
0.0
  0
INSERT
  5
38C8
330
38C3
100
AcDbEntity
  8
DIM
 62
     0
370
    -2
100
AcDbBlockReference
  2
_DOT
 10
43.99999999999999
 20
136.2228631653817
 30
0.0
 41
10.0
 42
10.0
 43
10.0
 50
270.0
  0
INSERT
  5
38C9
330
38C3
100
AcDbEntity
  8
DIM
 62
     0
370
    -2
100
AcDbBlockReference
  2
_DOT
 10
44.00000000000003
 20
736.2228631653984
 30
0.0
 41
10.0
 42
10.0
 43
10.0
 50
90.0
  0
MTEXT
  5
38CA
330
38C3
100
AcDbEntity
  8
DIM
 62
     0
100
AcDbMText
 10
12.00000000000001
 20
436.22286316539
 30
0.0
 40
24.0
 41
0.0
 46
0.0
 71
     5
 72
     1
  1
\A1;600
  7
ＭＳ ゴシック
 11
5.921189464667336E-17
 21
1.0
 31
0.0
 73
     1
 44
1.0
  0
POINT
  5
38CB
330
38C3
100
AcDbEntity
  8
Defpoints
 62
     0
100
AcDbPoint
 10
226.7793982281546
 20
136.2228631653817
 30
0.0
  0
POINT
  5
38CC
330
38C3
100
AcDbEntity
  8
Defpoints
 62
     0
100
AcDbPoint
 10
226.7793982281546
 20
736.2228631653984
 30
0.0
  0
POINT
  5
38CD
330
38C3
100
AcDbEntity
  8
Defpoints
 62
     0
100
AcDbPoint
 10
44.00000000000003
 20
736.2228631653984
 30
0.0
  0
ENDBLK
  5
38CE
330
38C3
100
AcDbEntity
  8
0
100
AcDbBlockEnd
  0
BLOCK
  5
38D4
330
38D3
100
AcDbEntity
  8
0
100
AcDbBlockBegin
  2
*D20
 70
     1
 10
0.0
 20
0.0
 30
0.0
  3
*D20
  1

  0
LINE
  5
38D5
330
38D3
100
AcDbEntity
  8
DIM
 62
     0
370
    -2
100
AcDbLine
 10
1512.613182869854
 20
36.22286316538998
 30
0.0
 11
1624.341701384101
 21
36.22286316538998
 31
0.0
  0
LINE
  5
38D6
330
38D3
100
AcDbEntity
  8
DIM
 62
     0
370
    -2
100
AcDbLine
 10
1562.908516749514
 20
436.1720432918244
 30
0.0
 11
1624.341701384101
 21
436.1720432918244
 31
0.0
  0
LINE
  5
38D7
330
38D3
100
AcDbEntity
  8
DIM
 62
     0
370
    -2
100
AcDbLine
 10
1624.341701384101
 20
46.22286316538998
 30
0.0
 11
1624.341701384101
 21
426.1720432918244
 31
0.0
  0
INSERT
  5
38D8
330
38D3
100
AcDbEntity
  8
DIM
 62
     0
370
    -2
100
AcDbBlockReference
  2
_DOT
 10
1624.341701384101
 20
36.22286316538998
 30
0.0
 41
10.0
 42
10.0
 43
10.0
 50
270.0
  0
INSERT
  5
38D9
330
38D3
100
AcDbEntity
  8
DIM
 62
     0
370
    -2
100
AcDbBlockReference
  2
_DOT
 10
1624.341701384101
 20
436.1720432918244
 30
0.0
 41
10.0
 42
10.0
 43
10.0
 50
90.0
  0
MTEXT
  5
38DA
330
38D3
100
AcDbEntity
  8
DIM
 62
     0
100
AcDbMText
 10
1592.341701384101
 20
236.1974532286072
 30
0.0
 40
24.0
 41
0.0
 46
0.0
 71
     5
 72
     1
  1
\A1;400
  7
ＭＳ ゴシック
 11
0.0
 21
1.0
 31
0.0
 73
     1
 44
1.0
  0
POINT
  5
38DB
330
38D3
100
AcDbEntity
  8
Defpoints
 62
     0
100
AcDbPoint
 10
1482.613182869854
 20
36.22286316538998
 30
0.0
  0
POINT
  5
38DC
330
38D3
100
AcDbEntity
  8
Defpoints
 62
     0
100
AcDbPoint
 10
1532.908516749514
 20
436.1720432918244
 30
0.0
  0
POINT
  5
38DD
330
38D3
100
AcDbEntity
  8
Defpoints
 62
     0
100
AcDbPoint
 10
1624.341701384101
 20
436.1720432918244
 30
0.0
  0
ENDBLK
  5
38DE
330
38D3
100
AcDbEntity
  8
0
100
AcDbBlockEnd
  0
BLOCK
  5
39A1
330
39A0
100
AcDbEntity
  8
0
100
AcDbBlockBegin
  2
*D21
 70
     1
 10
0.0
 20
0.0
 30
0.0
  3
*D21
  1

  0
LINE
  5
39A3
330
39A0
100
AcDbEntity
  8
DIM
 62
     0
370
    -2
100
AcDbLine
 10
1622.91778373543
 20
2067.609818454832
 30
0.0
 11
1622.91778373543
 21
2003.425568289635
 31
0.0
  0
LINE
  5
39A4
330
39A0
100
AcDbEntity
  8
DIM
 62
     0
370
    -2
100
AcDbLine
 10
1742.922186063315
 20
2071.276102671275
 30
0.0
 11
1742.922186063315
 21
2003.425568289635
 31
0.0
  0
LINE
  5
39A5
330
39A0
100
AcDbEntity
  8
DIM
 62
     0
370
    -2
100
AcDbLine
 10
1632.91778373543
 20
2003.425568289635
 30
0.0
 11
1732.922186063315
 21
2003.425568289635
 31
0.0
  0
INSERT
  5
39A6
330
39A0
100
AcDbEntity
  8
DIM
 62
     0
370
    -2
100
AcDbBlockReference
  2
_DOT
 10
1622.91778373543
 20
2003.425568289635
 30
0.0
 41
10.0
 42
10.0
 43
10.0
 50
180.0
  0
INSERT
  5
39A7
330
39A0
100
AcDbEntity
  8
DIM
 62
     0
370
    -2
100
AcDbBlockReference
  2
_DOT
 10
1742.922186063315
 20
2003.425568289635
 30
0.0
 41
10.0
 42
10.0
 43
10.0
  0
MTEXT
  5
39A8
330
39A0
100
AcDbEntity
  8
DIM
 62
     0
100
AcDbMText
 10
1682.919984899372
 20
2035.430069977768
 30
0.0
 40
24.0
 41
0.0
 46
0.0
 71
     5
 72
     1
  1
\A1;120
  7
ＭＳ ゴシック
 73
     1
 44
1.0
  0
POINT
  5
39A9
330
39A0
100
AcDbEntity
  8
Defpoints
 62
     0
100
AcDbPoint
 10
1622.91778373543
 20
2097.609818454832
 30
0.0
  0
POINT
  5
39AA
330
39A0
100
AcDbEntity
  8
Defpoints
 62
     0
100
AcDbPoint
 10
1742.922186063315
 20
2101.276102671275
 30
0.0
  0
POINT
  5
39AB
330
39A0
100
AcDbEntity
  8
Defpoints
 62
     0
100
AcDbPoint
 10
1742.922186063315
 20
2003.425568289635
 30
0.0
  0
ENDBLK
  5
39A2
330
39A0
100
AcDbEntity
  8
0
100
AcDbBlockEnd
  0
BLOCK
  5
39AD
330
39AC
100
AcDbEntity
  8
0
100
AcDbBlockBegin
  2
*D22
 70
     1
 10
0.0
 20
0.0
 30
0.0
  3
*D22
  1

  0
LINE
  5
39AF
330
39AC
100
AcDbEntity
  8
DIM
 62
     0
370
    -2
100
AcDbLine
 10
1596.46518714689
 20
2562.277787224603
 30
0.0
 11
1540.26764461113
 21
2562.277787224603
 31
0.0
  0
LINE
  5
39B0
330
39AC
100
AcDbEntity
  8
DIM
 62
     0
370
    -2
100
AcDbLine
 10
1596.46518714689
 20
2497.254989067866
 30
0.0
 11
1540.26764461113
 21
2497.254989067866
 31
0.0
  0
LINE
  5
39B1
330
39AC
100
AcDbEntity
  8
DIM
 62
     0
370
    -2
100
AcDbLine
 10
1540.26764461113
 20
2552.277787224603
 30
0.0
 11
1540.26764461113
 21
2507.254989067866
 31
0.0
  0
INSERT
  5
39B2
330
39AC
100
AcDbEntity
  8
DIM
 62
     0
370
    -2
100
AcDbBlockReference
  2
_DOT
 10
1540.26764461113
 20
2562.277787224603
 30
0.0
 41
10.0
 42
10.0
 43
10.0
 50
90.0
  0
INSERT
  5
39B3
330
39AC
100
AcDbEntity
  8
DIM
 62
     0
370
    -2
100
AcDbBlockReference
  2
_DOT
 10
1540.26764461113
 20
2497.254989067866
 30
0.0
 41
10.0
 42
10.0
 43
10.0
 50
270.0
  0
MTEXT
  5
39B4
330
39AC
100
AcDbEntity
  8
DIM
 62
     0
100
AcDbMText
 10
1508.263142922997
 20
2529.766388146234
 30
0.0
 40
24.0
 41
0.0
 46
0.0
 71
     5
 72
     1
  1
\A1;65
  7
ＭＳ ゴシック
 11
0.0
 21
1.0
 31
0.0
 73
     1
 44
1.0
  0
POINT
  5
39B5
330
39AC
100
AcDbEntity
  8
Defpoints
 62
     0
100
AcDbPoint
 10
1626.46518714689
 20
2562.277787224603
 30
0.0
  0
POINT
  5
39B6
330
39AC
100
AcDbEntity
  8
Defpoints
 62
     0
100
AcDbPoint
 10
1626.46518714689
 20
2497.254989067866
 30
0.0
  0
POINT
  5
39B7
330
39AC
100
AcDbEntity
  8
Defpoints
 62
     0
100
AcDbPoint
 10
1540.26764461113
 20
2497.254989067866
 30
0.0
  0
ENDBLK
  5
39AE
330
39AC
100
AcDbEntity
  8
0
100
AcDbBlockEnd
  0
BLOCK
  5
39B9
330
39B8
100
AcDbEntity
  8
0
100
AcDbBlockBegin
  2
*D23
 70
     1
 10
0.0
 20
0.0
 30
0.0
  3
*D23
  1

  0
LINE
  5
39BB
330
39B8
100
AcDbEntity
  8
DIM
 62
     0
370
    -2
100
AcDbLine
 10
1623.225464776762
 20
2353.423187608293
 30
0.0
 11
1457.538957336472
 21
2353.423187608293
 31
0.0
  0
LINE
  5
39BC
330
39B8
100
AcDbEntity
  8
DIM
 62
     0
370
    -2
100
AcDbLine
 10
1718.310009906991
 20
2353.423187608293
 30
0.0
 11
1633.225464776762
 21
2353.423187608293
 31
0.0
  0
LINE
  5
39BD
330
39B8
100
AcDbEntity
  8
DIM
 62
     0
370
    -2
100
AcDbLine
 10
1633.225464776762
 20
2353.423187608293
 30
0.0
 11
1643.225464776762
 21
2353.423187608293
 31
0.0
  0
INSERT
  5
39BE
330
39B8
100
AcDbEntity
  8
DIM
 62
     0
370
    -2
100
AcDbBlockReference
  2
_DOT
 10
1728.310009906991
 20
2353.423187608293
 30
0.0
 41
10.0
 42
10.0
 43
10.0
  0
INSERT
  5
39BF
330
39B8
100
AcDbEntity
  8
DIM
 62
     0
370
    -2
100
AcDbBlockReference
  2
_DOT
 10
1623.225464776762
 20
2353.423187608293
 30
0.0
 41
10.0
 42
10.0
 43
10.0
 50
180.0
  0
MTEXT
  5
39C0
330
39B8
100
AcDbEntity
  8
DIM
 62
     0
100
AcDbMText
 10
1530.382211056617
 20
2387.127076566653
 30
0.0
 40
24.0
 41
0.0
 46
0.0
 71
     5
 72
     1
  1
\A1;深さ105
  7
ＭＳ ゴシック
 73
     1
 44
1.0
  0
POINT
  5
39C1
330
39B8
100
AcDbEntity
  8
Defpoints
 62
     0
100
AcDbPoint
 10
1728.310009906991
 20
2388.664644896562
 30
0.0
  0
POINT
  5
39C2
330
39B8
100
AcDbEntity
  8
Defpoints
 62
     0
100
AcDbPoint
 10
1623.225464776762
 20
2358.788439570626
 30
0.0
  0
POINT
  5
39C3
330
39B8
100
AcDbEntity
  8
Defpoints
 62
     0
100
AcDbPoint
 10
1623.225464776762
 20
2353.423187608293
 30
0.0
  0
ENDBLK
  5
39BA
330
39B8
100
AcDbEntity
  8
0
100
AcDbBlockEnd
  0
BLOCK
  5
39C5
330
39C4
100
AcDbEntity
  8
0
100
AcDbBlockBegin
  2
*D24
 70
     1
 10
0.0
 20
0.0
 30
0.0
  3
*D24
  1

  0
LINE
  5
39C7
330
39C4
100
AcDbEntity
  8
DIM
 62
     0
370
    -2
100
AcDbLine
 10
1770.465108042492
 20
2562.143489806899
 30
0.0
 11
1888.828249984852
 21
2562.143489806899
 31
0.0
  0
LINE
  5
39C8
330
39C4
100
AcDbEntity
  8
DIM
 62
     0
370
    -2
100
AcDbLine
 10
1807.21769238828
 20
2352.100047767154
 30
0.0
 11
1888.828249984852
 21
2352.100047767154
 31
0.0
  0
LINE
  5
39C9
330
39C4
100
AcDbEntity
  8
DIM
 62
     0
370
    -2
100
AcDbLine
 10
1888.828249984852
 20
2552.143489806899
 30
0.0
 11
1888.828249984852
 21
2362.100047767154
 31
0.0
  0
INSERT
  5
39CA
330
39C4
100
AcDbEntity
  8
DIM
 62
     0
370
    -2
100
AcDbBlockReference
  2
_DOT
 10
1888.828249984852
 20
2562.143489806899
 30
0.0
 41
10.0
 42
10.0
 43
10.0
 50
90.0
  0
INSERT
  5
39CB
330
39C4
100
AcDbEntity
  8
DIM
 62
     0
370
    -2
100
AcDbBlockReference
  2
_DOT
 10
1888.828249984852
 20
2352.100047767154
 30
0.0
 41
10.0
 42
10.0
 43
10.0
 50
270.0
  0
MTEXT
  5
39CC
330
39C4
100
AcDbEntity
  8
DIM
 62
     0
100
AcDbMText
 10
1856.823748296719
 20
2457.121768787027
 30
0.0
 40
24.0
 41
0.0
 46
0.0
 71
     5
 72
     1
  1
\A1;210
  7
ＭＳ ゴシック
 11
0.0
 21
1.0
 31
0.0
 73
     1
 44
1.0
  0
POINT
  5
39CD
330
39C4
100
AcDbEntity
  8
Defpoints
 62
     0
100
AcDbPoint
 10
1740.465108042492
 20
2562.143489806899
 30
0.0
  0
POINT
  5
39CE
330
39C4
100
AcDbEntity
  8
Defpoints
 62
     0
100
AcDbPoint
 10
1777.21769238828
 20
2352.100047767154
 30
0.0
  0
POINT
  5
39CF
330
39C4
100
AcDbEntity
  8
Defpoints
 62
     0
100
AcDbPoint
 10
1888.828249984852
 20
2352.100047767154
 30
0.0
  0
ENDBLK
  5
39C6
330
39C4
100
AcDbEntity
  8
0
100
AcDbBlockEnd
  0
BLOCK
  5
39D1
330
39D0
100
AcDbEntity
  8
0
100
AcDbBlockBegin
  2
*D25
 70
     1
 10
0.0
 20
0.0
 30
0.0
  3
*D25
  1

  0
LINE
  5
39D3
330
39D0
100
AcDbEntity
  8
DIM
 62
     0
370
    -2
100
AcDbLine
 10
797.4064077078247
 20
2490.819239216947
 30
0.0
 11
935.8686177460452
 21
2490.819239216947
 31
0.0
  0
LINE
  5
39D4
330
39D0
100
AcDbEntity
  8
DIM
 62
     0
370
    -2
100
AcDbLine
 10
797.4064077078265
 20
2160.819239216947
 30
0.0
 11
935.8686177460452
 21
2160.819239216947
 31
0.0
  0
LINE
  5
39D5
330
39D0
100
AcDbEntity
  8
DIM
 62
     0
370
    -2
100
AcDbLine
 10
935.8686177460452
 20
2480.819239216947
 30
0.0
 11
935.8686177460452
 21
2170.819239216947
 31
0.0
  0
INSERT
  5
39D6
330
39D0
100
AcDbEntity
  8
DIM
 62
     0
370
    -2
100
AcDbBlockReference
  2
_DOT
 10
935.8686177460452
 20
2490.819239216947
 30
0.0
 41
10.0
 42
10.0
 43
10.0
 50
90.0
  0
INSERT
  5
39D7
330
39D0
100
AcDbEntity
  8
DIM
 62
     0
370
    -2
100
AcDbBlockReference
  2
_DOT
 10
935.8686177460452
 20
2160.819239216947
 30
0.0
 41
10.0
 42
10.0
 43
10.0
 50
270.0
  0
MTEXT
  5
39D8
330
39D0
100
AcDbEntity
  8
DIM
 62
     0
100
AcDbMText
 10
903.864116057912
 20
2325.819239216947
 30
0.0
 40
24.0
 41
0.0
 46
0.0
 71
     5
 72
     1
  1
\A1;330
  7
ＭＳ ゴシック
 11
0.0
 21
1.0
 31
0.0
 73
     1
 44
1.0
  0
POINT
  5
39D9
330
39D0
100
AcDbEntity
  8
Defpoints
 62
     0
100
AcDbPoint
 10
767.4064077078247
 20
2490.819239216947
 30
0.0
  0
POINT
  5
39DA
330
39D0
100
AcDbEntity
  8
Defpoints
 62
     0
100
AcDbPoint
 10
767.4064077078265
 20
2160.819239216947
 30
0.0
  0
POINT
  5
39DB
330
39D0
100
AcDbEntity
  8
Defpoints
 62
     0
100
AcDbPoint
 10
935.8686177460452
 20
2160.819239216947
 30
0.0
  0
ENDBLK
  5
39D2
330
39D0
100
AcDbEntity
  8
0
100
AcDbBlockEnd
  0
BLOCK
  5
39DD
330
39DC
100
AcDbEntity
  8
0
100
AcDbBlockBegin
  2
*D26
 70
     1
 10
0.0
 20
0.0
 30
0.0
  3
*D26
  1

  0
LINE
  5
39DF
330
39DC
100
AcDbEntity
  8
DIM
 62
     0
370
    -2
100
AcDbLine
 10
468.1110491455806
 20
2481.913611776661
 30
0.0
 11
468.1110491455806
 21
2576.355062509267
 31
0.0
  0
LINE
  5
39E0
330
39DC
100
AcDbEntity
  8
DIM
 62
     0
370
    -2
100
AcDbLine
 10
767.4064077078247
 20
2521.913611776646
 30
0.0
 11
767.4064077078247
 21
2576.355062509267
 31
0.0
  0
LINE
  5
39E1
330
39DC
100
AcDbEntity
  8
DIM
 62
     0
370
    -2
100
AcDbLine
 10
478.1110491455806
 20
2576.355062509267
 30
0.0
 11
757.4064077078247
 21
2576.355062509267
 31
0.0
  0
INSERT
  5
39E2
330
39DC
100
AcDbEntity
  8
DIM
 62
     0
370
    -2
100
AcDbBlockReference
  2
_DOT
 10
468.1110491455806
 20
2576.355062509267
 30
0.0
 41
10.0
 42
10.0
 43
10.0
 50
180.0
  0
INSERT
  5
39E3
330
39DC
100
AcDbEntity
  8
DIM
 62
     0
370
    -2
100
AcDbBlockReference
  2
_DOT
 10
767.4064077078247
 20
2576.355062509267
 30
0.0
 41
10.0
 42
10.0
 43
10.0
  0
MTEXT
  5
39E4
330
39DC
100
AcDbEntity
  8
DIM
 62
     0
100
AcDbMText
 10
617.7587284267026
 20
2608.3595641974
 30
0.0
 40
24.0
 41
0.0
 46
0.0
 71
     5
 72
     1
  1
\A1;300
  7
ＭＳ ゴシック
 73
     1
 44
1.0
  0
POINT
  5
39E5
330
39DC
100
AcDbEntity
  8
Defpoints
 62
     0
100
AcDbPoint
 10
468.1110491455806
 20
2451.913611776661
 30
0.0
  0
POINT
  5
39E6
330
39DC
100
AcDbEntity
  8
Defpoints
 62
     0
100
AcDbPoint
 10
767.4064077078247
 20
2491.913611776646
 30
0.0
  0
POINT
  5
39E7
330
39DC
100
AcDbEntity
  8
Defpoints
 62
     0
100
AcDbPoint
 10
767.4064077078247
 20
2576.355062509267
 30
0.0
  0
ENDBLK
  5
39DE
330
39DC
100
AcDbEntity
  8
0
100
AcDbBlockEnd
  0
BLOCK
  5
39E9
330
39E8
100
AcDbEntity
  8
0
100
AcDbBlockBegin
  2
*D27
 70
     1
 10
0.0
 20
0.0
 30
0.0
  3
*D27
  1

  0
LINE
  5
39EB
330
39E8
100
AcDbEntity
  8
DIM
 62
     0
370
    -2
100
AcDbLine
 10
1638.240167666938
 20
1287.450295810164
 30
0.0
 11
1537.82599461004
 21
1287.450295810164
 31
0.0
  0
LINE
  5
39EC
330
39E8
100
AcDbEntity
  8
DIM
 62
     0
370
    -2
100
AcDbLine
 10
1638.271247597894
 20
1007.226450989987
 30
0.0
 11
1537.82599461004
 21
1007.226450989987
 31
0.0
  0
LINE
  5
39ED
330
39E8
100
AcDbEntity
  8
DIM
 62
     0
370
    -2
100
AcDbLine
 10
1537.82599461004
 20
1277.450295810164
 30
0.0
 11
1537.82599461004
 21
1017.226450989987
 31
0.0
  0
INSERT
  5
39EE
330
39E8
100
AcDbEntity
  8
DIM
 62
     0
370
    -2
100
AcDbBlockReference
  2
_DOT
 10
1537.82599461004
 20
1287.450295810164
 30
0.0
 41
10.0
 42
10.0
 43
10.0
 50
90.0
  0
INSERT
  5
39EF
330
39E8
100
AcDbEntity
  8
DIM
 62
     0
370
    -2
100
AcDbBlockReference
  2
_DOT
 10
1537.82599461004
 20
1007.226450989987
 30
0.0
 41
10.0
 42
10.0
 43
10.0
 50
270.0
  0
MTEXT
  5
39F0
330
39E8
100
AcDbEntity
  8
DIM
 62
     0
100
AcDbMText
 10
1505.821492921907
 20
1147.338373400076
 30
0.0
 40
24.0
 41
0.0
 46
0.0
 71
     5
 72
     1
  1
\A1;280
  7
ＭＳ ゴシック
 11
0.0
 21
1.0
 31
0.0
 73
     1
 44
1.0
  0
POINT
  5
39F1
330
39E8
100
AcDbEntity
  8
Defpoints
 62
     0
100
AcDbPoint
 10
1668.240167666938
 20
1287.450295810164
 30
0.0
  0
POINT
  5
39F2
330
39E8
100
AcDbEntity
  8
Defpoints
 62
     0
100
AcDbPoint
 10
1668.271247597894
 20
1007.226450989987
 30
0.0
  0
POINT
  5
39F3
330
39E8
100
AcDbEntity
  8
Defpoints
 62
     0
100
AcDbPoint
 10
1537.82599461004
 20
1007.226450989987
 30
0.0
  0
ENDBLK
  5
39EA
330
39E8
100
AcDbEntity
  8
0
100
AcDbBlockEnd
  0
BLOCK
  5
39F5
330
39F4
100
AcDbEntity
  8
0
100
AcDbBlockBegin
  2
*D28
 70
     1
 10
0.0
 20
0.0
 30
0.0
  3
*D28
  1

  0
LINE
  5
39F7
330
39F4
100
AcDbEntity
  8
DIM
 62
     0
370
    -2
100
AcDbLine
 10
1623.376196896485
 20
1425.394697128212
 30
0.0
 11
1623.376196896485
 21
1521.733202328529
 31
0.0
  0
LINE
  5
39F8
330
39F4
100
AcDbEntity
  8
DIM
 62
     0
370
    -2
100
AcDbLine
 10
1777.240167666937
 20
1213.055014827349
 30
0.0
 11
1777.240167666937
 21
1521.733202328529
 31
0.0
  0
LINE
  5
39F9
330
39F4
100
AcDbEntity
  8
DIM
 62
     0
370
    -2
100
AcDbLine
 10
1633.376196896485
 20
1521.733202328529
 30
0.0
 11
1767.240167666937
 21
1521.733202328529
 31
0.0
  0
INSERT
  5
39FA
330
39F4
100
AcDbEntity
  8
DIM
 62
     0
370
    -2
100
AcDbBlockReference
  2
_DOT
 10
1623.376196896485
 20
1521.733202328529
 30
0.0
 41
10.0
 42
10.0
 43
10.0
 50
180.0
  0
INSERT
  5
39FB
330
39F4
100
AcDbEntity
  8
DIM
 62
     0
370
    -2
100
AcDbBlockReference
  2
_DOT
 10
1777.240167666937
 20
1521.733202328529
 30
0.0
 41
10.0
 42
10.0
 43
10.0
  0
MTEXT
  5
39FC
330
39F4
100
AcDbEntity
  8
DIM
 62
     0
100
AcDbMText
 10
1700.308182281711
 20
1553.737704016663
 30
0.0
 40
24.0
 41
0.0
 46
0.0
 71
     5
 72
     1
  1
\A1;154
  7
ＭＳ ゴシック
 73
     1
 44
1.0
  0
POINT
  5
39FD
330
39F4
100
AcDbEntity
  8
Defpoints
 62
     0
100
AcDbPoint
 10
1623.376196896485
 20
1395.394697128212
 30
0.0
  0
POINT
  5
39FE
330
39F4
100
AcDbEntity
  8
Defpoints
 62
     0
100
AcDbPoint
 10
1777.240167666937
 20
1183.055014827349
 30
0.0
  0
POINT
  5
39FF
330
39F4
100
AcDbEntity
  8
Defpoints
 62
     0
100
AcDbPoint
 10
1777.240167666937
 20
1521.733202328529
 30
0.0
  0
ENDBLK
  5
39F6
330
39F4
100
AcDbEntity
  8
0
100
AcDbBlockEnd
  0
BLOCK
  5
3A01
330
3A00
100
AcDbEntity
  8
0
100
AcDbBlockBegin
  2
*D29
 70
     1
 10
0.0
 20
0.0
 30
0.0
  3
*D29
  1

  0
LINE
  5
3A03
330
3A00
100
AcDbEntity
  8
DIM
 62
     0
370
    -2
100
AcDbLine
 10
468.111049145578
 20
1425.251185212661
 30
0.0
 11
468.111049145578
 21
1521.73320232853
 31
0.0
  0
LINE
  5
3A04
330
3A00
100
AcDbEntity
  8
DIM
 62
     0
370
    -2
100
AcDbLine
 10
937.972926621457
 20
1427.765777204358
 30
0.0
 11
937.972926621457
 21
1521.73320232853
 31
0.0
  0
LINE
  5
3A05
330
3A00
100
AcDbEntity
  8
DIM
 62
     0
370
    -2
100
AcDbLine
 10
478.111049145578
 20
1521.73320232853
 30
0.0
 11
927.972926621457
 21
1521.73320232853
 31
0.0
  0
INSERT
  5
3A06
330
3A00
100
AcDbEntity
  8
DIM
 62
     0
370
    -2
100
AcDbBlockReference
  2
_DOT
 10
468.111049145578
 20
1521.73320232853
 30
0.0
 41
10.0
 42
10.0
 43
10.0
 50
180.0
  0
INSERT
  5
3A07
330
3A00
100
AcDbEntity
  8
DIM
 62
     0
370
    -2
100
AcDbBlockReference
  2
_DOT
 10
937.972926621457
 20
1521.73320232853
 30
0.0
 41
10.0
 42
10.0
 43
10.0
  0
MTEXT
  5
3A08
330
3A00
100
AcDbEntity
  8
DIM
 62
     0
100
AcDbMText
 10
703.9228083599124
 20
1553.737704016663
 30
0.0
 40
24.0
 41
0.0
 46
0.0
 71
     5
 72
     1
  1
\A1;470
  7
ＭＳ ゴシック
 73
     1
 44
1.0
  0
POINT
  5
3A09
330
3A00
100
AcDbEntity
  8
Defpoints
 62
     0
100
AcDbPoint
 10
468.111049145578
 20
1395.251185212661
 30
0.0
  0
POINT
  5
3A0A
330
3A00
100
AcDbEntity
  8
Defpoints
 62
     0
100
AcDbPoint
 10
937.972926621457
 20
1397.765777204358
 30
0.0
  0
POINT
  5
3A0B
330
3A00
100
AcDbEntity
  8
Defpoints
 62
     0
100
AcDbPoint
 10
937.972926621457
 20
1521.73320232853
 30
0.0
  0
ENDBLK
  5
3A02
330
3A00
100
AcDbEntity
  8
0
100
AcDbBlockEnd
  0
BLOCK
  5
3A0D
330
3A0C
100
AcDbEntity
  8
0
100
AcDbBlockBegin
  2
*D30
 70
     1
 10
0.0
 20
0.0
 30
0.0
  3
*D30
  1

  0
LINE
  5
3A0F
330
3A0C
100
AcDbEntity
  8
DIM
 62
     0
370
    -2
100
AcDbLine
 10
593.1260100737001
 20
867.5011156837307
 30
0.0
 11
593.1260100737001
 21
799.628742568497
 31
0.0
  0
LINE
  5
3A10
330
3A0C
100
AcDbEntity
  8
DIM
 62
     0
370
    -2
100
AcDbLine
 10
933.4044949063501
 20
867.5011156837318
 30
0.0
 11
933.4044949063501
 21
799.628742568497
 31
0.0
  0
LINE
  5
3A11
330
3A0C
100
AcDbEntity
  8
DIM
 62
     0
370
    -2
100
AcDbLine
 10
603.1260100737001
 20
799.628742568497
 30
0.0
 11
923.4044949063501
 21
799.628742568497
 31
0.0
  0
INSERT
  5
3A12
330
3A0C
100
AcDbEntity
  8
DIM
 62
     0
370
    -2
100
AcDbBlockReference
  2
_DOT
 10
593.1260100737001
 20
799.628742568497
 30
0.0
 41
10.0
 42
10.0
 43
10.0
 50
180.0
  0
INSERT
  5
3A13
330
3A0C
100
AcDbEntity
  8
DIM
 62
     0
370
    -2
100
AcDbBlockReference
  2
_DOT
 10
933.4044949063501
 20
799.628742568497
 30
0.0
 41
10.0
 42
10.0
 43
10.0
  0
MTEXT
  5
3A14
330
3A0C
100
AcDbEntity
  8
DIM
 62
     0
100
AcDbMText
 10
763.2652524900251
 20
831.6332442566301
 30
0.0
 40
24.0
 41
0.0
 46
0.0
 71
     5
 72
     1
  1
\A1;340
  7
ＭＳ ゴシック
 73
     1
 44
1.0
  0
POINT
  5
3A15
330
3A0C
100
AcDbEntity
  8
Defpoints
 62
     0
100
AcDbPoint
 10
593.1260100737001
 20
897.5011156837307
 30
0.0
  0
POINT
  5
3A16
330
3A0C
100
AcDbEntity
  8
Defpoints
 62
     0
100
AcDbPoint
 10
933.4044949063501
 20
897.5011156837318
 30
0.0
  0
POINT
  5
3A17
330
3A0C
100
AcDbEntity
  8
Defpoints
 62
     0
100
AcDbPoint
 10
933.4044949063501
 20
799.628742568497
 30
0.0
  0
ENDBLK
  5
3A0E
330
3A0C
100
AcDbEntity
  8
0
100
AcDbBlockEnd
  0
BLOCK
  5
3A19
330
3A18
100
AcDbEntity
  8
0
100
AcDbBlockBegin
  2
*D31
 70
     1
 10
0.0
 20
0.0
 30
0.0
  3
*D31
  1

  0
LINE
  5
3A1B
330
3A18
100
AcDbEntity
  8
DIM
 62
     0
370
    -2
100
AcDbLine
 10
593.1260100737001
 20
867.5011156837307
 30
0.0
 11
593.1260100737001
 21
799.628742568497
 31
0.0
  0
LINE
  5
3A1C
330
3A18
100
AcDbEntity
  8
DIM
 62
     0
370
    -2
100
AcDbLine
 10
468.1110491455775
 20
867.5778569008486
 30
0.0
 11
468.1110491455775
 21
799.628742568497
 31
0.0
  0
LINE
  5
3A1D
330
3A18
100
AcDbEntity
  8
DIM
 62
     0
370
    -2
100
AcDbLine
 10
583.1260100737001
 20
799.628742568497
 30
0.0
 11
478.1110491455775
 21
799.628742568497
 31
0.0
  0
INSERT
  5
3A1E
330
3A18
100
AcDbEntity
  8
DIM
 62
     0
370
    -2
100
AcDbBlockReference
  2
_DOT
 10
593.1260100737001
 20
799.628742568497
 30
0.0
 41
10.0
 42
10.0
 43
10.0
  0
INSERT
  5
3A1F
330
3A18
100
AcDbEntity
  8
DIM
 62
     0
370
    -2
100
AcDbBlockReference
  2
_DOT
 10
468.1110491455775
 20
799.628742568497
 30
0.0
 41
10.0
 42
10.0
 43
10.0
 50
180.0
  0
MTEXT
  5
3A20
330
3A18
100
AcDbEntity
  8
DIM
 62
     0
100
AcDbMText
 10
530.6185296096388
 20
831.6332442566301
 30
0.0
 40
24.0
 41
0.0
 46
0.0
 71
     5
 72
     1
  1
\A1;125
  7
ＭＳ ゴシック
 73
     1
 44
1.0
  0
POINT
  5
3A21
330
3A18
100
AcDbEntity
  8
Defpoints
 62
     0
100
AcDbPoint
 10
593.1260100737001
 20
897.5011156837307
 30
0.0
  0
POINT
  5
3A22
330
3A18
100
AcDbEntity
  8
Defpoints
 62
     0
100
AcDbPoint
 10
468.1110491455775
 20
897.5778569008486
 30
0.0
  0
POINT
  5
3A23
330
3A18
100
AcDbEntity
  8
Defpoints
 62
     0
100
AcDbPoint
 10
468.1110491455775
 20
799.628742568497
 30
0.0
  0
ENDBLK
  5
3A1A
330
3A18
100
AcDbEntity
  8
0
100
AcDbBlockEnd
  0
BLOCK
  5
3A25
330
3A24
100
AcDbEntity
  8
0
100
AcDbBlockBegin
  2
*D32
 70
     1
 10
0.0
 20
0.0
 30
0.0
  3
*D32
  1

  0
LINE
  5
3A27
330
3A24
100
AcDbEntity
  8
DIM
 62
     0
370
    -2
100
AcDbLine
 10
505.1126092311058
 20
1047.50111568373
 30
0.0
 11
383.8487573572156
 21
1047.50111568373
 31
0.0
  0
LINE
  5
3A28
330
3A24
100
AcDbEntity
  8
DIM
 62
     0
370
    -2
100
AcDbLine
 10
505.1126092311058
 20
1147.50111568373
 30
0.0
 11
383.8487573572156
 21
1147.50111568373
 31
0.0
  0
LINE
  5
3A29
330
3A24
100
AcDbEntity
  8
DIM
 62
     0
370
    -2
100
AcDbLine
 10
383.8487573572156
 20
1057.50111568373
 30
0.0
 11
383.8487573572156
 21
1137.50111568373
 31
0.0
  0
INSERT
  5
3A2A
330
3A24
100
AcDbEntity
  8
DIM
 62
     0
370
    -2
100
AcDbBlockReference
  2
_DOT
 10
383.8487573572156
 20
1047.50111568373
 30
0.0
 41
10.0
 42
10.0
 43
10.0
 50
270.0
  0
INSERT
  5
3A2B
330
3A24
100
AcDbEntity
  8
DIM
 62
     0
370
    -2
100
AcDbBlockReference
  2
_DOT
 10
383.8487573572156
 20
1147.50111568373
 30
0.0
 41
10.0
 42
10.0
 43
10.0
 50
90.0
  0
MTEXT
  5
3A2C
330
3A24
100
AcDbEntity
  8
DIM
 62
     0
100
AcDbMText
 10
351.8442556690825
 20
1097.50111568373
 30
0.0
 40
24.0
 41
0.0
 46
0.0
 71
     5
 72
     1
  1
\A1;100
  7
ＭＳ ゴシック
 11
0.0
 21
1.0
 31
0.0
 73
     1
 44
1.0
  0
POINT
  5
3A2D
330
3A24
100
AcDbEntity
  8
Defpoints
 62
     0
100
AcDbPoint
 10
535.1126092311058
 20
1047.50111568373
 30
0.0
  0
POINT
  5
3A2E
330
3A24
100
AcDbEntity
  8
Defpoints
 62
     0
100
AcDbPoint
 10
535.1126092311058
 20
1147.50111568373
 30
0.0
  0
POINT
  5
3A2F
330
3A24
100
AcDbEntity
  8
Defpoints
 62
     0
100
AcDbPoint
 10
383.8487573572156
 20
1147.50111568373
 30
0.0
  0
ENDBLK
  5
3A26
330
3A24
100
AcDbEntity
  8
0
100
AcDbBlockEnd
  0
BLOCK
  5
3A31
330
3A30
100
AcDbEntity
  8
0
100
AcDbBlockBegin
  2
*D33
 70
     1
 10
0.0
 20
0.0
 30
0.0
  3
*D33
  1

  0
LINE
  5
3A33
330
3A30
100
AcDbEntity
  8
DIM
 62
     0
370
    -2
100
AcDbLine
 10
505.1126092311058
 20
1147.50111568373
 30
0.0
 11
383.8487573572156
 21
1147.50111568373
 31
0.0
  0
LINE
  5
3A34
330
3A30
100
AcDbEntity
  8
DIM
 62
     0
370
    -2
100
AcDbLine
 10
505.1126092311058
 20
1247.50111568373
 30
0.0
 11
383.8487573572156
 21
1247.50111568373
 31
0.0
  0
LINE
  5
3A35
330
3A30
100
AcDbEntity
  8
DIM
 62
     0
370
    -2
100
AcDbLine
 10
383.8487573572156
 20
1157.50111568373
 30
0.0
 11
383.8487573572156
 21
1237.50111568373
 31
0.0
  0
INSERT
  5
3A36
330
3A30
100
AcDbEntity
  8
DIM
 62
     0
370
    -2
100
AcDbBlockReference
  2
_DOT
 10
383.8487573572156
 20
1147.50111568373
 30
0.0
 41
10.0
 42
10.0
 43
10.0
 50
270.0
  0
INSERT
  5
3A37
330
3A30
100
AcDbEntity
  8
DIM
 62
     0
370
    -2
100
AcDbBlockReference
  2
_DOT
 10
383.8487573572156
 20
1247.50111568373
 30
0.0
 41
10.0
 42
10.0
 43
10.0
 50
90.0
  0
MTEXT
  5
3A38
330
3A30
100
AcDbEntity
  8
DIM
 62
     0
100
AcDbMText
 10
351.8442556690825
 20
1197.50111568373
 30
0.0
 40
24.0
 41
0.0
 46
0.0
 71
     5
 72
     1
  1
\A1;100
  7
ＭＳ ゴシック
 11
0.0
 21
1.0
 31
0.0
 73
     1
 44
1.0
  0
POINT
  5
3A39
330
3A30
100
AcDbEntity
  8
Defpoints
 62
     0
100
AcDbPoint
 10
535.1126092311058
 20
1147.50111568373
 30
0.0
  0
POINT
  5
3A3A
330
3A30
100
AcDbEntity
  8
Defpoints
 62
     0
100
AcDbPoint
 10
535.1126092311058
 20
1247.50111568373
 30
0.0
  0
POINT
  5
3A3B
330
3A30
100
AcDbEntity
  8
Defpoints
 62
     0
100
AcDbPoint
 10
383.8487573572156
 20
1247.50111568373
 30
0.0
  0
ENDBLK
  5
3A32
330
3A30
100
AcDbEntity
  8
0
100
AcDbBlockEnd
  0
BLOCK
  5
3A3D
330
3A3C
100
AcDbEntity
  8
0
100
AcDbBlockBegin
  2
*D34
 70
     1
 10
0.0
 20
0.0
 30
0.0
  3
*D34
  1

  0
LINE
  5
3A3F
330
3A3C
100
AcDbEntity
  8
DIM
 62
     0
370
    -2
100
AcDbLine
 10
441.1109497120649
 20
897.5011156837227
 30
0.0
 11
302.3243062446276
 21
897.5011156837227
 31
0.0
  0
LINE
  5
3A40
330
3A3C
100
AcDbEntity
  8
DIM
 62
     0
370
    -2
100
AcDbLine
 10
441.1109497120649
 20
1397.501115683738
 30
0.0
 11
302.3243062446277
 21
1397.501115683738
 31
0.0
  0
LINE
  5
3A41
330
3A3C
100
AcDbEntity
  8
DIM
 62
     0
370
    -2
100
AcDbLine
 10
302.3243062446276
 20
907.5011156837227
 30
0.0
 11
302.3243062446277
 21
1387.501115683738
 31
0.0
  0
INSERT
  5
3A42
330
3A3C
100
AcDbEntity
  8
DIM
 62
     0
370
    -2
100
AcDbBlockReference
  2
_DOT
 10
302.3243062446276
 20
897.5011156837227
 30
0.0
 41
10.0
 42
10.0
 43
10.0
 50
270.0
  0
INSERT
  5
3A43
330
3A3C
100
AcDbEntity
  8
DIM
 62
     0
370
    -2
100
AcDbBlockReference
  2
_DOT
 10
302.3243062446277
 20
1397.501115683738
 30
0.0
 41
10.0
 42
10.0
 43
10.0
 50
90.0
  0
MTEXT
  5
3A44
330
3A3C
100
AcDbEntity
  8
DIM
 62
     0
100
AcDbMText
 10
270.3198045564945
 20
1147.501115683731
 30
0.0
 40
24.0
 41
0.0
 46
0.0
 71
     5
 72
     1
  1
\A1;500
  7
ＭＳ ゴシック
 11
1.136868377216125E-16
 21
1.0
 31
0.0
 73
     1
 44
1.0
  0
POINT
  5
3A45
330
3A3C
100
AcDbEntity
  8
Defpoints
 62
     0
100
AcDbPoint
 10
471.1109497120649
 20
897.5011156837227
 30
0.0
  0
POINT
  5
3A46
330
3A3C
100
AcDbEntity
  8
Defpoints
 62
     0
100
AcDbPoint
 10
471.1109497120649
 20
1397.501115683738
 30
0.0
  0
POINT
  5
3A47
330
3A3C
100
AcDbEntity
  8
Defpoints
 62
     0
100
AcDbPoint
 10
302.3243062446277
 20
1397.501115683738
 30
0.0
  0
ENDBLK
  5
3A3E
330
3A3C
100
AcDbEntity
  8
0
100
AcDbBlockEnd
  0
BLOCK
  5
3A49
330
3A48
100
AcDbEntity
  8
0
100
AcDbBlockBegin
  2
*D35
 70
     1
 10
0.0
 20
0.0
 30
0.0
  3
*D35
  1

  0
LINE
  5
3A4B
330
3A48
100
AcDbEntity
  8
DIM
 62
     0
370
    -2
100
AcDbLine
 10
1755.261751435402
 20
897.5011156837315
 30
0.0
 11
1868.673352301524
 21
897.5011156837315
 31
0.0
  0
LINE
  5
3A4C
330
3A48
100
AcDbEntity
  8
DIM
 62
     0
370
    -2
100
AcDbLine
 10
1807.240167666937
 20
1147.450295810164
 30
0.0
 11
1868.673352301524
 21
1147.450295810164
 31
0.0
  0
LINE
  5
3A4D
330
3A48
100
AcDbEntity
  8
DIM
 62
     0
370
    -2
100
AcDbLine
 10
1868.673352301524
 20
907.5011156837315
 30
0.0
 11
1868.673352301524
 21
1137.450295810164
 31
0.0
  0
INSERT
  5
3A4E
330
3A48
100
AcDbEntity
  8
DIM
 62
     0
370
    -2
100
AcDbBlockReference
  2
_DOT
 10
1868.673352301524
 20
897.5011156837315
 30
0.0
 41
10.0
 42
10.0
 43
10.0
 50
270.0
  0
INSERT
  5
3A4F
330
3A48
100
AcDbEntity
  8
DIM
 62
     0
370
    -2
100
AcDbBlockReference
  2
_DOT
 10
1868.673352301524
 20
1147.450295810164
 30
0.0
 41
10.0
 42
10.0
 43
10.0
 50
90.0
  0
MTEXT
  5
3A50
330
3A48
100
AcDbEntity
  8
DIM
 62
     0
100
AcDbMText
 10
1836.668850613391
 20
1022.475705746948
 30
0.0
 40
24.0
 41
0.0
 46
0.0
 71
     5
 72
     1
  1
\A1;250
  7
ＭＳ ゴシック
 11
0.0
 21
1.0
 31
0.0
 73
     1
 44
1.0
  0
POINT
  5
3A51
330
3A48
100
AcDbEntity
  8
Defpoints
 62
     0
100
AcDbPoint
 10
1725.261751435402
 20
897.5011156837315
 30
0.0
  0
POINT
  5
3A52
330
3A48
100
AcDbEntity
  8
Defpoints
 62
     0
100
AcDbPoint
 10
1777.240167666937
 20
1147.450295810164
 30
0.0
  0
POINT
  5
3A53
330
3A48
100
AcDbEntity
  8
Defpoints
 62
     0
100
AcDbPoint
 10
1868.673352301524
 20
1147.450295810164
 30
0.0
  0
ENDBLK
  5
3A4A
330
3A48
100
AcDbEntity
  8
0
100
AcDbBlockEnd
  0
BLOCK
  5
3A9A
330
3A99
100
AcDbEntity
  8
0
100
AcDbBlockBegin
  2
*D36
 70
     1
 10
0.0
 20
0.0
 30
0.0
  3
*D36
  1

  0
LINE
  5
3A9C
330
3A99
100
AcDbEntity
  8
DIM
 62
     0
370
    -2
100
AcDbLine
 10
967.8772993706414
 20
900.6131327278504
 30
0.0
 11
1031.554267678567
 21
900.6131327278504
 31
0.0
  0
LINE
  5
3A9D
330
3A99
100
AcDbEntity
  8
DIM
 62
     0
370
    -2
100
AcDbLine
 10
967.8773212052998
 20
1394.389002732177
 30
0.0
 11
1031.554267678567
 21
1394.389002732177
 31
0.0
  0
LINE
  5
3A9E
330
3A99
100
AcDbEntity
  8
DIM
 62
     0
370
    -2
100
AcDbLine
 10
1031.554267678567
 20
910.6131327278504
 30
0.0
 11
1031.554267678567
 21
1384.389002732177
 31
0.0
  0
INSERT
  5
3A9F
330
3A99
100
AcDbEntity
  8
DIM
 62
     0
370
    -2
100
AcDbBlockReference
  2
_DOT
 10
1031.554267678567
 20
900.6131327278504
 30
0.0
 41
10.0
 42
10.0
 43
10.0
 50
270.0
  0
INSERT
  5
3AA0
330
3A99
100
AcDbEntity
  8
DIM
 62
     0
370
    -2
100
AcDbBlockReference
  2
_DOT
 10
1031.554267678567
 20
1394.389002732177
 30
0.0
 41
10.0
 42
10.0
 43
10.0
 50
90.0
  0
MTEXT
  5
3AA1
330
3A99
100
AcDbEntity
  8
DIM
 62
     0
100
AcDbMText
 10
999.5542676785669
 20
1147.501067730014
 30
0.0
 40
24.0
 41
0.0
 46
0.0
 71
     5
 72
     1
  1
\A1;490
  7
ＭＳ ゴシック
 11
0.0
 21
1.0
 31
0.0
 73
     1
 44
1.0
  0
POINT
  5
3AA2
330
3A99
100
AcDbEntity
  8
Defpoints
 62
     0
100
AcDbPoint
 10
937.8772993706414
 20
900.6131327278504
 30
0.0
  0
POINT
  5
3AA3
330
3A99
100
AcDbEntity
  8
Defpoints
 62
     0
100
AcDbPoint
 10
937.8773212052998
 20
1394.389002732177
 30
0.0
  0
POINT
  5
3AA4
330
3A99
100
AcDbEntity
  8
Defpoints
 62
     0
100
AcDbPoint
 10
1031.554267678567
 20
1394.389002732177
 30
0.0
  0
ENDBLK
  5
3A9B
330
3A99
100
AcDbEntity
  8
0
100
AcDbBlockEnd
  0
BLOCK
  5
3ABD
330
3ABC
100
AcDbEntity
  8
0
100
AcDbBlockBegin
  2
_None
 70
     0
 10
0.0
 20
0.0
 30
0.0
  3
_None
  1

  0
ENDBLK
  5
3ABE
330
3ABC
100
AcDbEntity
  8
0
100
AcDbBlockEnd
  0
BLOCK
  5
3AD8
330
3AD7
100
AcDbEntity
  8
0
100
AcDbBlockBegin
  2
*D38
 70
     1
 10
0.0
 20
0.0
 30
0.0
  3
*D38
  1

  0
LINE
  5
3ADA
330
3AD7
100
AcDbEntity
  8
DIM
 62
     0
370
    -2
100
AcDbLine
 10
1668.271247597894
 20
868.2338570142767
 30
0.0
 11
1668.271247597894
 21
802.128742568497
 31
0.0
  0
LINE
  5
3ADB
330
3AD7
100
AcDbEntity
  8
DIM
 62
     0
370
    -2
100
AcDbLine
 10
1623.240167666938
 20
866.9955604286974
 30
0.0
 11
1623.240167666938
 21
802.128742568497
 31
0.0
  0
LINE
  5
3ADC
330
3AD7
100
AcDbEntity
  8
DIM
 62
     0
370
    -2
100
AcDbLine
 10
1658.271247597894
 20
802.128742568497
 30
0.0
 11
1633.240167666938
 21
802.128742568497
 31
0.0
  0
INSERT
  5
3ADD
330
3AD7
100
AcDbEntity
  8
DIM
 62
     0
370
    -2
100
AcDbBlockReference
  2
_DOT
 10
1668.271247597894
 20
802.128742568497
 30
0.0
 41
10.0
 42
10.0
 43
10.0
  0
INSERT
  5
3ADE
330
3AD7
100
AcDbEntity
  8
DIM
 62
     0
370
    -2
100
AcDbBlockReference
  2
_DOT
 10
1623.240167666938
 20
802.128742568497
 30
0.0
 41
10.0
 42
10.0
 43
10.0
 50
180.0
  0
MTEXT
  5
3ADF
330
3AD7
100
AcDbEntity
  8
DIM
 62
     0
100
AcDbMText
 10
1645.755707632416
 20
834.1332442566301
 30
0.0
 40
24.0
 41
0.0
 46
0.0
 71
     5
 72
     1
  1
\A1;45
  7
ＭＳ ゴシック
 73
     1
 44
1.0
  0
POINT
  5
3AE0
330
3AD7
100
AcDbEntity
  8
Defpoints
 62
     0
100
AcDbPoint
 10
1668.271247597894
 20
898.2338570142767
 30
0.0
  0
POINT
  5
3AE1
330
3AD7
100
AcDbEntity
  8
Defpoints
 62
     0
100
AcDbPoint
 10
1623.240167666938
 20
896.9955604286974
 30
0.0
  0
POINT
  5
3AE2
330
3AD7
100
AcDbEntity
  8
Defpoints
 62
     0
100
AcDbPoint
 10
1623.240167666938
 20
802.128742568497
 30
0.0
  0
ENDBLK
  5
3AD9
330
3AD7
100
AcDbEntity
  8
0
100
AcDbBlockEnd
  0
BLOCK
  5
3B26
330
3B25
100
AcDbEntity
  8
0
100
AcDbBlockBegin
  2
*D39
 70
     1
 10
0.0
 20
0.0
 30
0.0
  3
*D39
  1

  0
LINE
  5
3B27
330
3B25
100
AcDbEntity
  8
DIM
 62
     0
370
    -2
100
AcDbLine
 10
542.1622499313384
 20
488.5359478440778
 30
0.0
 11
680.6244599695589
 21
488.5359478440778
 31
0.0
  0
LINE
  5
3B28
330
3B25
100
AcDbEntity
  8
DIM
 62
     0
370
    -2
100
AcDbLine
 10
542.1622499313402
 20
158.5359478440778
 30
0.0
 11
680.6244599695589
 21
158.5359478440778
 31
0.0
  0
LINE
  5
3B29
330
3B25
100
AcDbEntity
  8
DIM
 62
     0
370
    -2
100
AcDbLine
 10
680.6244599695589
 20
478.5359478440778
 30
0.0
 11
680.6244599695589
 21
168.5359478440778
 31
0.0
  0
INSERT
  5
3B2A
330
3B25
100
AcDbEntity
  8
DIM
 62
     0
370
    -2
100
AcDbBlockReference
  2
_DOT
 10
680.6244599695589
 20
488.5359478440778
 30
0.0
 41
10.0
 42
10.0
 43
10.0
 50
90.0
  0
INSERT
  5
3B2B
330
3B25
100
AcDbEntity
  8
DIM
 62
     0
370
    -2
100
AcDbBlockReference
  2
_DOT
 10
680.6244599695589
 20
158.5359478440778
 30
0.0
 41
10.0
 42
10.0
 43
10.0
 50
270.0
  0
MTEXT
  5
3B2C
330
3B25
100
AcDbEntity
  8
DIM
 62
     0
100
AcDbMText
 10
648.6199582814259
 20
323.5359478440778
 30
0.0
 40
24.0
 41
0.0
 46
0.0
 71
     5
 72
     1
  1
\A1;330
  7
ＭＳ ゴシック
 11
0.0
 21
1.0
 31
0.0
 73
     1
 44
1.0
  0
POINT
  5
3B2D
330
3B25
100
AcDbEntity
  8
Defpoints
 62
     0
100
AcDbPoint
 10
512.1622499313384
 20
488.5359478440778
 30
0.0
  0
POINT
  5
3B2E
330
3B25
100
AcDbEntity
  8
Defpoints
 62
     0
100
AcDbPoint
 10
512.1622499313402
 20
158.5359478440778
 30
0.0
  0
POINT
  5
3B2F
330
3B25
100
AcDbEntity
  8
Defpoints
 62
     0
100
AcDbPoint
 10
680.6244599695589
 20
158.5359478440778
 30
0.0
  0
ENDBLK
  5
3B30
330
3B25
100
AcDbEntity
  8
0
100
AcDbBlockEnd
  0
BLOCK
  5
3B33
330
3B32
100
AcDbEntity
  8
0
100
AcDbBlockBegin
  2
*D40
 70
     1
 10
0.0
 20
0.0
 30
0.0
  3
*D40
  1

  0
LINE
  5
3B34
330
3B32
100
AcDbEntity
  8
DIM
 62
     0
370
    -2
100
AcDbLine
 10
242.8668913690941
 20
518.5359478440732
 30
0.0
 11
242.8668913690941
 21
574.0717711363977
 31
0.0
  0
LINE
  5
3B35
330
3B32
100
AcDbEntity
  8
DIM
 62
     0
370
    -2
100
AcDbLine
 10
512.1622499313384
 20
519.6303204037768
 30
0.0
 11
512.1622499313384
 21
574.0717711363977
 31
0.0
  0
LINE
  5
3B36
330
3B32
100
AcDbEntity
  8
DIM
 62
     0
370
    -2
100
AcDbLine
 10
252.8668913690941
 20
574.0717711363977
 30
0.0
 11
502.1622499313384
 21
574.0717711363977
 31
0.0
  0
INSERT
  5
3B37
330
3B32
100
AcDbEntity
  8
DIM
 62
     0
370
    -2
100
AcDbBlockReference
  2
_DOT
 10
242.8668913690941
 20
574.0717711363977
 30
0.0
 41
10.0
 42
10.0
 43
10.0
 50
180.0
  0
INSERT
  5
3B38
330
3B32
100
AcDbEntity
  8
DIM
 62
     0
370
    -2
100
AcDbBlockReference
  2
_DOT
 10
512.1622499313384
 20
574.0717711363977
 30
0.0
 41
10.0
 42
10.0
 43
10.0
  0
MTEXT
  5
3B39
330
3B32
100
AcDbEntity
  8
DIM
 62
     0
100
AcDbMText
 10
377.5145706502162
 20
606.0762728245307
 30
0.0
 40
24.0
 41
0.0
 46
0.0
 71
     5
 72
     1
  1
\A1;270
  7
ＭＳ ゴシック
 73
     1
 44
1.0
  0
POINT
  5
3B3A
330
3B32
100
AcDbEntity
  8
Defpoints
 62
     0
100
AcDbPoint
 10
242.8668913690941
 20
488.5359478440732
 30
0.0
  0
POINT
  5
3B3B
330
3B32
100
AcDbEntity
  8
Defpoints
 62
     0
100
AcDbPoint
 10
512.1622499313384
 20
489.6303204037768
 30
0.0
  0
POINT
  5
3B3C
330
3B32
100
AcDbEntity
  8
Defpoints
 62
     0
100
AcDbPoint
 10
512.1622499313384
 20
574.0717711363977
 30
0.0
  0
ENDBLK
  5
3B3D
330
3B32
100
AcDbEntity
  8
0
100
AcDbBlockEnd
  0
BLOCK
  5
3B44
330
3B43
100
AcDbEntity
  8
0
100
AcDbBlockBegin
  2
*D41
 70
     1
 10
0.0
 20
0.0
 30
0.0
  3
*D41
  1

  0
LINE
  5
3B45
330
3B43
100
AcDbEntity
  8
DIM
 62
     0
370
    -2
100
AcDbLine
 10
242.8668913690941
 20
518.5359478440732
 30
0.0
 11
242.8668913690941
 21
574.0717711363977
 31
0.0
  0
LINE
  5
3B46
330
3B43
100
AcDbEntity
  8
DIM
 62
     0
370
    -2
100
AcDbLine
 10
212.8668913690943
 20
518.5359478440732
 30
0.0
 11
212.8668913690943
 21
574.0717711363977
 31
0.0
  0
LINE
  5
3B47
330
3B43
100
AcDbEntity
  8
DIM
 62
     0
370
    -2
100
AcDbLine
 10
232.8668913690941
 20
574.0717711363977
 30
0.0
 11
222.8668913690943
 21
574.0717711363977
 31
0.0
  0
INSERT
  5
3B48
330
3B43
100
AcDbEntity
  8
DIM
 62
     0
370
    -2
100
AcDbBlockReference
  2
_DOT
 10
242.8668913690941
 20
574.0717711363977
 30
0.0
 41
10.0
 42
10.0
 43
10.0
  0
INSERT
  5
3B49
330
3B43
100
AcDbEntity
  8
DIM
 62
     0
370
    -2
100
AcDbBlockReference
  2
_DOT
 10
212.8668913690943
 20
574.0717711363977
 30
0.0
 41
10.0
 42
10.0
 43
10.0
 50
180.0
  0
MTEXT
  5
3B4A
330
3B43
100
AcDbEntity
  8
DIM
 62
     0
100
AcDbMText
 10
227.8668913690942
 20
606.0762728245307
 30
0.0
 40
24.0
 41
0.0
 46
0.0
 71
     5
 72
     1
  1
\A1;30
  7
ＭＳ ゴシック
 73
     1
 44
1.0
  0
POINT
  5
3B4B
330
3B43
100
AcDbEntity
  8
Defpoints
 62
     0
100
AcDbPoint
 10
242.8668913690941
 20
488.5359478440732
 30
0.0
  0
POINT
  5
3B4C
330
3B43
100
AcDbEntity
  8
Defpoints
 62
     0
100
AcDbPoint
 10
212.8668913690943
 20
488.5359478440732
 30
0.0
  0
POINT
  5
3B4D
330
3B43
100
AcDbEntity
  8
Defpoints
 62
     0
100
AcDbPoint
 10
212.8668913690943
 20
574.0717711363977
 30
0.0
  0
ENDBLK
  5
3B4E
330
3B43
100
AcDbEntity
  8
0
100
AcDbBlockEnd
  0
BLOCK
  5
3B6A
330
3B69
100
AcDbEntity
  8
0
100
AcDbBlockBegin
  2
*D42
 70
     1
 10
0.0
 20
0.0
 30
0.0
  3
*D42
  1

  0
LINE
  5
3B6C
330
3B69
100
AcDbEntity
  8
DIM
 62
     0
370
    -2
100
AcDbLine
 10
797.4064077078245
 20
2490.819239216945
 30
0.0
 11
935.8686177460451
 21
2490.819239216945
 31
0.0
  0
LINE
  5
3B6D
330
3B69
100
AcDbEntity
  8
DIM
 62
     0
370
    -2
100
AcDbLine
 10
797.4064077078264
 20
2160.819239216945
 30
0.0
 11
935.8686177460451
 21
2160.819239216945
 31
0.0
  0
LINE
  5
3B6E
330
3B69
100
AcDbEntity
  8
DIM
 62
     0
370
    -2
100
AcDbLine
 10
935.8686177460451
 20
2480.819239216945
 30
0.0
 11
935.8686177460451
 21
2170.819239216945
 31
0.0
  0
INSERT
  5
3B6F
330
3B69
100
AcDbEntity
  8
DIM
 62
     0
370
    -2
100
AcDbBlockReference
  2
_DOT
 10
935.8686177460451
 20
2490.819239216945
 30
0.0
 41
10.0
 42
10.0
 43
10.0
 50
90.0
  0
INSERT
  5
3B70
330
3B69
100
AcDbEntity
  8
DIM
 62
     0
370
    -2
100
AcDbBlockReference
  2
_DOT
 10
935.8686177460451
 20
2160.819239216945
 30
0.0
 41
10.0
 42
10.0
 43
10.0
 50
270.0
  0
MTEXT
  5
3B71
330
3B69
100
AcDbEntity
  8
DIM
 62
     0
100
AcDbMText
 10
903.8641160579119
 20
2325.819239216945
 30
0.0
 40
24.0
 41
0.0
 46
0.0
 71
     5
 72
     1
  1
\A1;330
  7
ＭＳ ゴシック
 11
0.0
 21
1.0
 31
0.0
 73
     1
 44
1.0
  0
POINT
  5
3B72
330
3B69
100
AcDbEntity
  8
Defpoints
 62
     0
100
AcDbPoint
 10
767.4064077078245
 20
2490.819239216945
 30
0.0
  0
POINT
  5
3B73
330
3B69
100
AcDbEntity
  8
Defpoints
 62
     0
100
AcDbPoint
 10
767.4064077078264
 20
2160.819239216945
 30
0.0
  0
POINT
  5
3B74
330
3B69
100
AcDbEntity
  8
Defpoints
 62
     0
100
AcDbPoint
 10
935.8686177460451
 20
2160.819239216945
 30
0.0
  0
ENDBLK
  5
3B6B
330
3B69
100
AcDbEntity
  8
0
100
AcDbBlockEnd
  0
BLOCK
  5
3B76
330
3B75
100
AcDbEntity
  8
0
100
AcDbBlockBegin
  2
*D43
 70
     1
 10
0.0
 20
0.0
 30
0.0
  3
*D43
  1

  0
LINE
  5
3B78
330
3B75
100
AcDbEntity
  8
DIM
 62
     0
370
    -2
100
AcDbLine
 10
498.1110491455803
 20
2520.81923921694
 30
0.0
 11
498.1110491455803
 21
2576.355062509265
 31
0.0
  0
LINE
  5
3B79
330
3B75
100
AcDbEntity
  8
DIM
 62
     0
370
    -2
100
AcDbLine
 10
767.4064077078245
 20
2521.913611776644
 30
0.0
 11
767.4064077078245
 21
2576.355062509265
 31
0.0
  0
LINE
  5
3B7A
330
3B75
100
AcDbEntity
  8
DIM
 62
     0
370
    -2
100
AcDbLine
 10
508.1110491455803
 20
2576.355062509265
 30
0.0
 11
757.4064077078245
 21
2576.355062509265
 31
0.0
  0
INSERT
  5
3B7B
330
3B75
100
AcDbEntity
  8
DIM
 62
     0
370
    -2
100
AcDbBlockReference
  2
_DOT
 10
498.1110491455803
 20
2576.355062509265
 30
0.0
 41
10.0
 42
10.0
 43
10.0
 50
180.0
  0
INSERT
  5
3B7C
330
3B75
100
AcDbEntity
  8
DIM
 62
     0
370
    -2
100
AcDbBlockReference
  2
_DOT
 10
767.4064077078245
 20
2576.355062509265
 30
0.0
 41
10.0
 42
10.0
 43
10.0
  0
MTEXT
  5
3B7D
330
3B75
100
AcDbEntity
  8
DIM
 62
     0
100
AcDbMText
 10
632.7587284267024
 20
2608.359564197398
 30
0.0
 40
24.0
 41
0.0
 46
0.0
 71
     5
 72
     1
  1
\A1;270
  7
ＭＳ ゴシック
 73
     1
 44
1.0
  0
POINT
  5
3B7E
330
3B75
100
AcDbEntity
  8
Defpoints
 62
     0
100
AcDbPoint
 10
498.1110491455803
 20
2490.81923921694
 30
0.0
  0
POINT
  5
3B7F
330
3B75
100
AcDbEntity
  8
Defpoints
 62
     0
100
AcDbPoint
 10
767.4064077078245
 20
2491.913611776644
 30
0.0
  0
POINT
  5
3B80
330
3B75
100
AcDbEntity
  8
Defpoints
 62
     0
100
AcDbPoint
 10
767.4064077078245
 20
2576.355062509265
 30
0.0
  0
ENDBLK
  5
3B77
330
3B75
100
AcDbEntity
  8
0
100
AcDbBlockEnd
  0
BLOCK
  5
3B82
330
3B81
100
AcDbEntity
  8
0
100
AcDbBlockBegin
  2
*D44
 70
     1
 10
0.0
 20
0.0
 30
0.0
  3
*D44
  1

  0
LINE
  5
3B84
330
3B81
100
AcDbEntity
  8
DIM
 62
     0
370
    -2
100
AcDbLine
 10
498.1110491455803
 20
2520.81923921694
 30
0.0
 11
498.1110491455803
 21
2576.355062509265
 31
0.0
  0
LINE
  5
3B85
330
3B81
100
AcDbEntity
  8
DIM
 62
     0
370
    -2
100
AcDbLine
 10
468.1110491455805
 20
2520.81923921694
 30
0.0
 11
468.1110491455805
 21
2576.355062509265
 31
0.0
  0
LINE
  5
3B86
330
3B81
100
AcDbEntity
  8
DIM
 62
     0
370
    -2
100
AcDbLine
 10
488.1110491455803
 20
2576.355062509265
 30
0.0
 11
478.1110491455805
 21
2576.355062509265
 31
0.0
  0
INSERT
  5
3B87
330
3B81
100
AcDbEntity
  8
DIM
 62
     0
370
    -2
100
AcDbBlockReference
  2
_DOT
 10
498.1110491455803
 20
2576.355062509265
 30
0.0
 41
10.0
 42
10.0
 43
10.0
  0
INSERT
  5
3B88
330
3B81
100
AcDbEntity
  8
DIM
 62
     0
370
    -2
100
AcDbBlockReference
  2
_DOT
 10
468.1110491455805
 20
2576.355062509265
 30
0.0
 41
10.0
 42
10.0
 43
10.0
 50
180.0
  0
MTEXT
  5
3B89
330
3B81
100
AcDbEntity
  8
DIM
 62
     0
100
AcDbMText
 10
483.1110491455804
 20
2608.359564197398
 30
0.0
 40
24.0
 41
0.0
 46
0.0
 71
     5
 72
     1
  1
\A1;30
  7
ＭＳ ゴシック
 73
     1
 44
1.0
  0
POINT
  5
3B8A
330
3B81
100
AcDbEntity
  8
Defpoints
 62
     0
100
AcDbPoint
 10
498.1110491455803
 20
2490.81923921694
 30
0.0
  0
POINT
  5
3B8B
330
3B81
100
AcDbEntity
  8
Defpoints
 62
     0
100
AcDbPoint
 10
468.1110491455805
 20
2490.81923921694
 30
0.0
  0
POINT
  5
3B8C
330
3B81
100
AcDbEntity
  8
Defpoints
 62
     0
100
AcDbPoint
 10
468.1110491455805
 20
2576.355062509265
 30
0.0
  0
ENDBLK
  5
3B83
330
3B81
100
AcDbEntity
  8
0
100
AcDbBlockEnd
  0
ENDSEC
  0
SECTION
  2
ENTITIES
  0
MTEXT
  5
177
330
A
100
AcDbEntity
  8
TEMPLATE
390
1D
100
AcDbMText
 10
79.20214454773075
 20
343.7317516314282
 30
0.0
 40
16.28841145833333
 41
0.0
 46
0.0
 71
     1
 72
     1
  1
品名
  7
ＭＳ ゴシック
 73
     1
 44
0.7828267384257843
  0
MTEXT
  5
178
330
A
100
AcDbEntity
  8
TEMPLATE
390
1D
100
AcDbMText
 10
79.20214454773075
 20
258.731751631428
 30
0.0
 40
16.28841145833333
 41
0.0
 46
0.0
 71
     1
 72
     1
  1
仕様
  7
ＭＳ ゴシック
 73
     1
 44
0.7828267384257843
  0
LINE
  5
179
330
A
100
AcDbEntity
  8
TEMPLATE
390
1D
100
AcDbLine
 10
2022.202144547248
 20
267.1466735064284
 30
0.0
 11
72.20214454724874
 21
267.1466735064284
 31
0.0
  0
LWPOLYLINE
  5
17A
330
A
100
AcDbEntity
  8
TEMPLATE
390
1D
100
AcDbPolyline
 90
        5
 70
   128
 43
0.0
 10
2022.202144547248
 20
2897.146673506426
 10
72.20214454724874
 20
2897.146673506426
 10
72.20214454724874
 20
97.14667350642826
 10
2022.202144547248
 20
97.14667350642826
 10
2022.202144547248
 20
2897.146673506426
  0
LINE
  5
17B
330
A
100
AcDbEntity
  8
TEMPLATE
390
1D
100
AcDbLine
 10
2022.202144547248
 20
352.1466735064282
 30
0.0
 11
72.20214454724874
 21
352.1466735064282
 31
0.0
  0
LINE
  5
17C
330
A
100
AcDbEntity
  8
TEMPLATE
390
1D
100
AcDbLine
 10
2022.202144547732
 20
182.1466735064282
 30
0.0
 11
1269.20214454773
 21
182.1466735064282
 31
0.0
  0
MTEXT
  5
17E
330
A
100
AcDbEntity
  8
TEMPLATE
390
1D
100
AcDbMText
 10
1299.073550799991
 20
152.2362790331201
 30
0.0
 40
24.4326171875
 41
0.0
 46
0.0
 71
     1
 72
     1
  1
大洋金物株式会社 ティーフォルム事業部
  7
ＭＳ ゴシック
 73
     1
 44
0.7828267384257843
  0
MTEXT
  5
180
330
A
100
AcDbEntity
  8
TEMPLATE
390
1D
100
AcDbMText
 10
1831.20214454799
 20
230.1492906939282
 30
0.0
 40
24.4326171875
 41
0.0
 46
24.4326171875
 71
     1
 72
     1
  1
{1:10}
  7
ＭＳ ゴシック
 73
     1
 44
0.7828267384257843
1001
ACAD
1000
ACAD_MTEXT_DEFINED_HEIGHT_BEGIN
1070
    46
1040
24.4326171875
1000
ACAD_MTEXT_DEFINED_HEIGHT_END
  0
MTEXT
  5
181
330
A
100
AcDbEntity
  8
TEMPLATE
390
1D
100
AcDbMText
 10
1778.20214454799
 20
258.731751631428
 30
0.0
 40
16.28841145833333
 41
0.0
 46
0.0
 71
     1
 72
     1
  1
縮尺
  7
ＭＳ ゴシック
 73
     1
 44
0.7828267384257843
  0
LINE
  5
182
330
A
100
AcDbEntity
  8
TEMPLATE
390
1D
100
AcDbLine
 10
1771.20214454799
 20
182.1466735064282
 30
0.0
 11
1771.20214454799
 21
267.1466735064284
 31
0.0
  0
MTEXT
  5
183
330
A
100
AcDbEntity
  8
TEMPLATE
390
1D
100
AcDbMText
 10
1527.20214454799
 20
258.731751631428
 30
0.0
 40
16.28841145833333
 41
0.0
 46
0.0
 71
     1
 72
     1
  1
容量
  7
ＭＳ ゴシック
 73
     1
 44
0.7828267384257843
  0
LINE
  5
184
330
A
100
AcDbEntity
  8
TEMPLATE
390
1D
100
AcDbLine
 10
1520.20214454799
 20
182.1466735064282
 30
0.0
 11
1520.20214454799
 21
267.1466735064284
 31
0.0
  0
MTEXT
  5
185
330
A
100
AcDbEntity
  8
TEMPLATE
390
1D
100
AcDbMText
 10
1276.20214454799
 20
343.7317516314282
 30
0.0
 40
16.28841145833333
 41
0.0
 46
0.0
 71
     1
 72
     1
  1
品番
  7
ＭＳ ゴシック
 73
     1
 44
0.7828267384257843
  0
MTEXT
  5
186
330
A
100
AcDbEntity
  8
TEMPLATE
390
1D
100
AcDbMText
 10
1276.20214454799
 20
258.731751631428
 30
0.0
 40
16.28841145833333
 41
0.0
 46
0.0
 71
     1
 72
     1
  1
重量
  7
ＭＳ ゴシック
 73
     1
 44
0.7828267384257843
  0
MTEXT
  5
187
330
A
100
AcDbEntity
  8
TEMPLATE
390
1D
100
AcDbMText
 10
1329.20214454799
 20
315.1492906939282
 30
0.0
 40
24.4326171875
 41
0.0
 46
24.4326171875
 71
     1
 72
     1
  1
{ADF70-3105-FC1}
  7
ＭＳ ゴシック
 73
     1
 44
0.7828267384257843
1001
ACAD
1000
ACAD_MTEXT_DEFINED_HEIGHT_BEGIN
1070
    46
1040
24.4326171875
1000
ACAD_MTEXT_DEFINED_HEIGHT_END
  0
LINE
  5
188
330
A
100
AcDbEntity
  8
TEMPLATE
390
1D
100
AcDbLine
 10
1269.20214454799
 20
97.14667350642826
 30
0.0
 11
1269.20214454799
 21
352.1466735064282
 31
0.0
  0
INSERT
  5
68C
330
A
100
AcDbEntity
  8
TEMPLATE
100
AcDbBlockReference
  2
block 2
 10
919.2743017702577
 20
8.373076514336368
 30
0.0
 41
0.3809999999999999
 42
0.3809999999999999
 43
0.3809999999999999
  0
LWPOLYLINE
  5
DAC
330
A
100
AcDbEntity
  8
BORDER
100
AcDbPolyline
 90
        4
 70
     1
 43
0.0
 10
0.0
 20
0.0
 10
0.0
 20
2970.0
 10
2100.0
 20
2970.0
 10
2100.0
 20
0.0
  0
MTEXT
  5
121B
330
A
100
AcDbEntity
  8
TEMPLATE
390
1D
100
AcDbMText
 10
1329.20214454799
 20
227.1688729773101
 30
0.0
 40
24.4326171875
 41
0.0
 46
28.40135167875453
 71
     1
 72
     1
  1
{15kg}
  7
ＭＳ ゴシック
 73
     1
 44
0.7828267384257843
1001
ACAD
1000
ACAD_MTEXT_DEFINED_HEIGHT_BEGIN
1070
    46
1040
28.40135167875453
1000
ACAD_MTEXT_DEFINED_HEIGHT_END
  0
MTEXT
  5
1466
102
{ACAD_XDICTIONARY
360
1468
102
}
330
A
100
AcDbEntity
  8
TEMPLATE
 48
0.05
100
AcDbMText
 10
74.728656548571
 20
83.86172105142839
 30
0.0
 40
22.0
 41
0.0
 46
22.0
 71
     1
 72
     1
  1
{20220602M}
  7
ＭＳ ゴシック
 73
     1
 44
1.0
1001
ACAD
1000
ACAD_MTEXT_DEFINED_HEIGHT_BEGIN
1070
    46
1040
22.0
1000
ACAD_MTEXT_DEFINED_HEIGHT_END
  0
MTEXT
  5
146D
330
A
100
AcDbEntity
  8
TEMPLATE
390
1D
100
AcDbMText
 10
1583.904999862276
 20
227.1688729773101
 30
0.0
 40
24.4326171875
 41
0.0
 46
24.4326171875
 71
     1
 72
     1
  1
{5.5L}
  7
ＭＳ ゴシック
 73
     1
 44
0.7828267384257843
1001
ACAD
1000
ACAD_MTEXT_DEFINED_HEIGHT_BEGIN
1070
    46
1040
24.4326171875
1000
ACAD_MTEXT_DEFINED_HEIGHT_END
  0
POINT
  5
262A
330
A
100
AcDbEntity
  8
Layer9
  6
Continuous
 62
     7
100
AcDbPoint
 10
1037.460145007193
 20
1010.220672371878
 30
0.0
  0
POINT
  5
262B
330
A
100
AcDbEntity
  8
Layer9
  6
Continuous
 62
     7
100
AcDbPoint
 10
1037.460146257193
 20
1010.220672788578
 30
0.0
  0
POINT
  5
262C
330
A
100
AcDbEntity
  8
Layer9
  6
Continuous
 62
     7
100
AcDbPoint
 10
1037.853693340493
 20
1015.267975288578
 30
0.0
  0
POINT
  5
2812
330
A
100
AcDbEntity
  8
Layer9
  6
Continuous
 62
     7
100
AcDbPoint
 10
925.7934783404928
 20
1010.220672371878
 30
0.0
  0
POINT
  5
2813
330
A
100
AcDbEntity
  8
Layer9
  6
Continuous
 62
     7
100
AcDbPoint
 10
925.7934795904928
 20
1010.220672788578
 30
0.0
  0
POINT
  5
2814
330
A
100
AcDbEntity
  8
Layer9
  6
Continuous
 62
     7
100
AcDbPoint
 10
926.1870266737928
 20
1015.267975288578
 30
0.0
  0
INSERT
  5
28CA
330
A
100
AcDbEntity
  8
Layer3
100
AcDbBlockReference
  2
SEANNOT_GROUP
 10
859.7083018867928
 20
826.1905269541776
 30
0.0
  0
POINT
  5
2A52
330
A
100
AcDbEntity
  8
Standard
  6
Continuous
 62
     7
100
AcDbPoint
 10
1036.111241014893
 20
1018.794321538578
 30
0.0
  0
INSERT
  5
2B9B
330
A
100
AcDbEntity
  8
Layer3
100
AcDbBlockReference
  2
SEANNOT_GROUP1
 10
859.7083018867928
 20
826.1905269541776
 30
0.0
  0
HATCH
  5
369B
102
{ACAD_REACTORS
330
36AC
102
}
330
A
100
AcDbEntity
  8
TEMPLATE
100
AcDbHatch
 10
0.0
 20
0.0
 30
0.0
210
0.0
220
0.0
230
1.0
  2
SOLID
 70
     1
 71
     1
 91
        6
 92
        1
 93
        8
 72
     1
 10
1934.476782902687
 20
153.1053194253001
 11
1934.476782902687
 21
147.1959117946397
 72
     1
 10
1934.476782902687
 20
147.1959117946397
 11
1925.116191352377
 21
147.1959117946397
 72
     1
 10
1925.116191352377
 20
147.1959117946397
 11
1925.116191352377
 21
123.105319426746
 72
     1
 10
1925.116191352377
 20
123.105319426746
 11
1916.883578199102
 21
123.105319426746
 72
     1
 10
1916.883578199102
 20
123.105319426746
 11
1916.883578199102
 21
147.1959117946397
 72
     1
 10
1916.883578199102
 20
147.1959117946397
 11
1907.688876764557
 21
147.1959117946397
 72
     1
 10
1907.688876764557
 20
147.1959117946397
 11
1907.688876764557
 21
153.1053194253001
 72
     1
 10
1907.688876764557
 20
153.1053194253001
 11
1934.476782902687
 21
153.1053194253001
 97
        1
330
369C
 92
        1
 93
        1
 72
     4
 94
        3
 73
     0
 74
     1
 95
       56
 96
       52
 40
0.0
 40
0.0
 40
0.0
 40
0.0
 40
1.0
 40
1.0
 40
1.0
 40
2.0
 40
2.0
 40
2.0
 40
3.0
 40
3.0
 40
3.0
 40
4.0
 40
4.0
 40
4.0
 40
5.0
 40
5.0
 40
5.0
 40
6.0
 40
6.0
 40
6.0
 40
7.0
 40
7.0
 40
7.0
 40
8.0
 40
8.0
 40
8.0
 40
9.0
 40
9.0
 40
9.0
 40
10.0
 40
10.0
 40
10.0
 40
11.0
 40
11.0
 40
11.0
 40
12.0
 40
12.0
 40
12.0
 40
13.0
 40
13.0
 40
13.0
 40
14.0
 40
14.0
 40
14.0
 40
15.0
 40
15.0
 40
15.0
 40
16.0
 40
16.0
 40
16.0
 40
17.0
 40
17.0
 40
17.0
 40
17.0
 10
1947.01896833698
 20
152.3909504648878
 10
1948.1728345189
 20
152.715738018898
 10
1949.662423612235
 20
152.4440650580081
 10
1949.662423612235
 20
152.4440650580081
 10
1949.662423612235
 20
152.4440650580081
 10
1948.946790018651
 20
150.2964947655846
 10
1948.946790018651
 20
150.2964947655846
 10
1948.946790018651
 20
150.2964947655846
 10
1947.484427733556
 20
150.6348957237139
 10
1946.356523726704
 20
149.7454866546012
 10
1945.480058550036
 20
149.0499384113589
 10
1944.912238256914
 20
147.2017886193686
 10
1944.69442379101
 20
146.4990989182278
 10
1944.69442379101
 20
146.4990989182278
 10
1943.723334297183
 20
143.518432927829
 10
1943.723334297183
 20
143.518432927829
 10
1943.723334297183
 20
143.518432927829
 10
1946.907457447503
 20
143.518432927829
 10
1946.907457447503
 20
143.518432927829
 10
1946.907457447503
 20
143.518432927829
 10
1946.412241976351
 20
141.642461206109
 10
1946.412241976351
 20
141.642461206109
 10
1946.412241976351
 20
141.642461206109
 10
1943.202156650962
 20
141.642461206109
 10
1943.202156650962
 20
141.642461206109
 10
1943.202156650962
 20
141.642461206109
 10
1937.458713526257
 20
123.105319426746
 10
1937.458713526257
 20
123.105319426746
 10
1937.458713526257
 20
123.105319426746
 10
1935.660479549369
 20
123.105319426746
 10
1935.660479549369
 20
123.105319426746
 10
1935.660479549369
 20
123.105319426746
 10
1941.409129987127
 20
141.642461206109
 10
1941.409129987127
 20
141.642461206109
 10
1941.409129987127
 20
141.642461206109
 10
1939.040397670409
 20
141.642461206109
 10
1939.040397670409
 20
141.642461206109
 10
1939.040397670409
 20
141.642461206109
 10
1939.536952164915
 20
143.518432927829
 10
1939.536952164915
 20
143.518432927829
 10
1939.536952164915
 20
143.518432927829
 10
1941.930307633347
 20
143.518432927829
 10
1941.930307633347
 20
143.518432927829
 10
1941.930307633347
 20
143.518432927829
 10
1942.77686795507
 20
146.1179236028939
 10
1942.77686795507
 20
146.1179236028939
 10
1943.461406450716
 20
148.2973328951149
 10
1944.042245026465
 20
149.4674161376772
 10
1944.540138544327
 20
150.3496093587049
 10
1945.032750358952
 20
151.232546481597
 10
1946.007708142475
 20
152.0998616653363
 10
1947.01896833698
 20
152.3909504648878
 97
        1
330
36A7
 92
        1
 93
        1
 72
     4
 94
        3
 73
     0
 74
     1
 95
       32
 96
       28
 40
0.0
 40
0.0
 40
0.0
 40
0.0
 40
1.0
 40
1.0
 40
1.0
 40
2.0
 40
2.0
 40
2.0
 40
3.0
 40
3.0
 40
3.0
 40
4.0
 40
4.0
 40
4.0
 40
5.0
 40
5.0
 40
5.0
 40
6.0
 40
6.0
 40
6.0
 40
7.0
 40
7.0
 40
7.0
 40
8.0
 40
8.0
 40
8.0
 40
9.0
 40
9.0
 40
9.0
 40
9.0
 10
1951.394524713372
 20
142.3847264864374
 10
1950.311998720255
 20
140.9844800070205
 10
1949.478382290974
 20
139.7243102486757
 10
1948.128795528524
 20
135.7635535518901
 10
1946.888041608841
 20
132.1406026917421
 10
1946.098464169936
 20
129.5048096056932
 10
1945.979216701069
 20
126.2947242803041
 10
1945.888460673606
 20
123.9059066132458
 10
1947.343086379314
 20
123.105319426746
 10
1949.475853024634
 20
123.105319426746
 10
1950.395018168326
 20
123.105319426746
 10
1952.714504181618
 20
123.1637901132903
 10
1954.3662638814
 20
125.2056519507783
 10
1955.522584939468
 20
126.6401923061455
 10
1956.588298750451
 20
128.1272521331414
 10
1958.017036671275
 20
133.0053142189559
 10
1959.205940631009
 20
137.0833842397621
 10
1960.029142434186
 20
139.7191029356247
 10
1959.968291261677
 20
141.2197761667398
 10
1959.968291261677
 20
141.2197761667398
 10
1959.968291261677
 20
141.2197761667398
 10
1959.968291261677
 20
141.2197761667398
 10
1959.580569609936
 20
143.7233035012931
 10
1957.762919794387
 20
144.2522921170894
 10
1956.724432791643
 20
144.2522921170894
 10
1955.70156772805
 20
144.2522921170894
 10
1952.960735698745
 20
144.4292663706373
 10
1951.394524713372
 20
142.3847264864374
 97
        1
330
36AA
 92
        1
 93
        1
 72
     4
 94
        3
 73
     0
 74
     1
 95
       38
 96
       34
 40
0.0
 40
0.0
 40
0.0
 40
0.0
 40
1.0
 40
1.0
 40
1.0
 40
2.0
 40
2.0
 40
2.0
 40
3.0
 40
3.0
 40
3.0
 40
4.0
 40
4.0
 40
4.0
 40
5.0
 40
5.0
 40
5.0
 40
6.0
 40
6.0
 40
6.0
 40
7.0
 40
7.0
 40
7.0
 40
8.0
 40
8.0
 40
8.0
 40
9.0
 40
9.0
 40
9.0
 40
10.0
 40
10.0
 40
10.0
 40
11.0
 40
11.0
 40
11.0
 40
11.0
 10
1966.542747159137
 20
143.4464976175386
 10
1966.542747159137
 20
143.4464976175386
 10
1968.39149207262
 20
143.4464976175386
 10
1968.39149207262
 20
143.4464976175386
 10
1968.39149207262
 20
143.4464976175386
 10
1967.56561222273
 20
140.8022984404216
 10
1967.56561222273
 20
140.8022984404216
 10
1968.193167835563
 20
141.54456372075
 10
1969.183598777865
 20
142.5331349083912
 10
1970.034176169654
 20
143.0316235477459
 10
1971.304760554101
 20
143.7738888280742
 10
1972.030808773784
 20
143.8717863134333
 10
1972.829313035064
 20
143.8522960845852
 10
1972.829313035064
 20
143.8522960845852
 10
1972.048959979278
 20
141.3520419182353
 10
1972.048959979278
 20
141.3520419182353
 10
1971.540726225497
 20
141.5672527276151
 10
1969.974515240128
 20
141.1575859708734
 10
1969.076030568268
 20
140.5112840310564
 10
1968.265772657532
 20
139.9285113104618
 10
1967.705614553615
 20
139.4326263276327
 10
1967.04190531017
 20
138.1859955832205
 10
1966.383254599404
 20
136.9375050841474
 10
1965.86341597654
 20
134.9467493047458
 10
1964.968799594376
 20
132.058773486655
 10
1964.968799594376
 20
132.058773486655
 10
1962.174852971949
 20
123.105319426746
 10
1962.174852971949
 20
123.105319426746
 10
1962.174852971949
 20
123.105319426746
 10
1960.380561674943
 20
123.105319426746
 10
1960.380561674943
 20
123.105319426746
 10
1960.380561674943
 20
123.105319426746
 10
1966.542747159137
 20
143.4464976175386
 10
1966.542747159137
 20
143.4464976175386
 97
        1
330
36A8
 92
        1
 93
        1
 72
     4
 94
        3
 73
     0
 74
     1
 95
      104
 96
      100
 40
0.0
 40
0.0
 40
0.0
 40
0.0
 40
1.0
 40
1.0
 40
1.0
 40
2.0
 40
2.0
 40
2.0
 40
3.0
 40
3.0
 40
3.0
 40
4.0
 40
4.0
 40
4.0
 40
5.0
 40
5.0
 40
5.0
 40
6.0
 40
6.0
 40
6.0
 40
7.0
 40
7.0
 40
7.0
 40
8.0
 40
8.0
 40
8.0
 40
9.0
 40
9.0
 40
9.0
 40
10.0
 40
10.0
 40
10.0
 40
11.0
 40
11.0
 40
11.0
 40
12.0
 40
12.0
 40
12.0
 40
13.0
 40
13.0
 40
13.0
 40
14.0
 40
14.0
 40
14.0
 40
15.0
 40
15.0
 40
15.0
 40
16.0
 40
16.0
 40
16.0
 40
17.0
 40
17.0
 40
17.0
 40
18.0
 40
18.0
 40
18.0
 40
19.0
 40
19.0
 40
19.0
 40
20.0
 40
20.0
 40
20.0
 40
21.0
 40
21.0
 40
21.0
 40
22.0
 40
22.0
 40
22.0
 40
23.0
 40
23.0
 40
23.0
 40
24.0
 40
24.0
 40
24.0
 40
25.0
 40
25.0
 40
25.0
 40
26.0
 40
26.0
 40
26.0
 40
27.0
 40
27.0
 40
27.0
 40
28.0
 40
28.0
 40
28.0
 40
29.0
 40
29.0
 40
29.0
 40
30.0
 40
30.0
 40
30.0
 40
31.0
 40
31.0
 40
31.0
 40
32.0
 40
32.0
 40
32.0
 40
33.0
 40
33.0
 40
33.0
 40
33.0
 10
1976.718878323425
 20
143.4575073651321
 10
1976.718878323425
 20
143.4575073651321
 10
1978.332996588864
 20
143.4575073651321
 10
1978.332996588864
 20
143.4575073651321
 10
1978.332996588864
 20
143.4575073651321
 10
1977.517531365076
 20
140.810778921676
 10
1977.517531365076
 20
140.810778921676
 10
1978.225279598895
 20
141.920531723033
 10
1978.860571791119
 20
142.4151520726926
 10
1979.704602846502
 20
143.054312554611
 10
1980.551163168223
 20
143.6843974337833
 10
1981.556025806694
 20
143.812794895584
 10
1982.253508194784
 20
143.812794895584
 10
1983.117029479015
 20
143.812794895584
 10
1983.950645908296
 20
143.6422925882567
 10
1984.388804106443
 20
142.6958262461422
 10
1984.72460140805
 20
141.9536353560001
 10
1984.740223347202
 20
141.8660781065566
 10
1984.644260006691
 20
140.4010377747479
 10
1985.521915426345
 20
141.9030500292188
 10
1986.170151511008
 20
142.5500214807137
 10
1987.272167732975
 20
143.1716258786317
 10
1988.42863757142
 20
143.812794895584
 10
1989.102761440966
 20
143.8607765658398
 10
1989.885941323838
 20
143.7453229964802
 10
1991.039733115569
 20
143.5748950793392
 10
1991.776195961356
 20
143.1632197875635
 10
1992.161239566385
 20
141.9121256319649
 10
1992.54762219477
 20
140.6648997660613
 10
1992.338883331611
 20
139.9959088193793
 10
1991.861744675765
 20
138.0103603530286
 10
1991.64393020986
 20
137.1060732466272
 10
1991.328813380087
 20
136.0111240923725
 10
1990.916542966819
 20
134.7082543670094
 10
1990.916542966819
 20
134.7082543670094
 10
1987.272167732975
 20
123.105319426746
 10
1987.272167732975
 20
123.105319426746
 10
1987.272167732975
 20
123.105319426746
 10
1985.376705782409
 20
123.105319426746
 10
1985.376705782409
 20
123.105319426746
 10
1985.376705782409
 20
123.105319426746
 10
1988.567449659321
 20
133.2490164697431
 10
1988.567449659321
 20
133.2490164697431
 10
1989.233836949479
 20
135.3713684889626
 10
1989.684939040069
 20
136.9212880235028
 10
1989.918375445127
 20
137.893047029008
 10
1990.211323999339
 20
139.1052351170969
 10
1990.327967811683
 20
139.505231149601
 10
1990.189304504152
 20
140.3874987608153
 10
1990.062246065708
 20
141.2087664191461
 10
1989.647297605728
 20
141.7435574694851
 10
1988.936871325198
 20
141.7435574694851
 10
1988.17972800758
 20
141.7435574694851
 10
1987.566455310545
 20
141.659273388245
 10
1986.708290119737
 20
140.7971655175569
 10
1985.84997614856
 20
139.9285113104618
 10
1985.140740111011
 20
138.9088450248874
 10
1984.584599077163
 20
137.7361581257997
 10
1984.029648286297
 20
136.5563297688134
 10
1983.466960916042
 20
135.0608638507494
 10
1982.896536966398
 20
133.2490164697431
 10
1982.896536966398
 20
133.2490164697431
 10
1979.704602846502
 20
123.105319426746
 10
1979.704602846502
 20
123.105319426746
 10
1979.704602846502
 20
123.105319426746
 10
1977.921916418581
 20
123.105319426746
 10
1977.921916418581
 20
123.105319426746
 10
1977.921916418581
 20
123.105319426746
 10
1981.571498965475
 20
134.7030470539584
 10
1981.571498965475
 20
134.7030470539584
 10
1981.956542570504
 20
135.9373290274211
 10
1982.245771615394
 20
136.9433819088763
 10
1982.436359273062
 20
137.729686179579
 10
1982.760402925207
 20
139.0832156219098
 10
1982.851158952669
 20
139.9985124759046
 10
1982.606117678524
 20
140.810778921676
 10
1982.364944694076
 20
141.6204417109219
 10
1981.941069411725
 20
141.8272464292334
 10
1981.233172397533
 20
141.8272464292334
 10
1980.639389929345
 20
141.8272464292334
 10
1980.059890376953
 20
141.5724600406662
 10
1979.398710399847
 20
141.0654909200569
 10
1978.566284213549
 20
140.4276694614944
 10
1978.233164958657
 20
139.9038881587491
 10
1977.824762835085
 20
139.2815398589669
 10
1977.273680333915
 20
138.458263665602
 10
1977.015695167332
 20
137.9040567766015
 10
1976.550310160944
 20
136.687926008631
 10
1976.084776374184
 20
135.4646537827621
 10
1975.644088909695
 20
134.0411231749885
 10
1975.336708659311
 20
133.0564946672286
 10
1975.336708659311
 20
133.0564946672286
 10
1972.205774492298
 20
123.105319426746
 10
1972.205774492298
 20
123.105319426746
 10
1972.205774492298
 20
123.105319426746
 10
1970.338878373326
 20
123.105319426746
 10
1970.338878373326
 20
123.105319426746
 10
1970.338878373326
 20
123.105319426746
 10
1976.718878323425
 20
143.4575073651321
 10
1976.718878323425
 20
143.4575073651321
 97
        1
330
36A9
 92
       16
 93
        1
 72
     4
 94
        3
 73
     0
 74
     1
 95
       29
 96
       25
 40
0.0
 40
0.0
 40
0.0
 40
0.0
 40
1.0
 40
1.0
 40
1.0
 40
2.0
 40
2.0
 40
2.0
 40
3.0
 40
3.0
 40
3.0
 40
4.0
 40
4.0
 40
4.0
 40
5.0
 40
5.0
 40
5.0
 40
6.0
 40
6.0
 40
6.0
 40
7.0
 40
7.0
 40
7.0
 40
8.0
 40
8.0
 40
8.0
 40
8.0
 10
1947.916188375669
 20
126.8949043045264
 10
1947.908303015907
 20
128.3120373562658
 10
1948.355685597176
 20
130.8298476066162
 10
1949.501740809517
 20
134.1986815898748
 10
1951.062744481836
 20
138.7603622127471
 10
1951.998870588036
 20
140.4276694614944
 10
1952.818055321147
 20
141.2392663955878
 10
1954.014844640642
 20
142.4210288974216
 10
1955.623755593032
 20
142.4799459250845
 10
1956.098364982539
 20
142.4210288974216
 10
1956.77382787544
 20
142.3399435941987
 10
1957.727956406759
 20
141.8978427161679
 10
1957.784939289575
 20
140.4095182560024
 10
1957.830466083678
 20
139.1357350935386
 10
1957.463424903768
 20
136.7501905946838
 10
1956.178706383896
 20
133.0053142189559
 10
1954.698044112936
 20
128.6536370924121
 10
1953.808635043822
 20
126.9429603649685
 10
1953.095679496951
 20
126.1974219164366
 10
1951.752490290537
 20
124.7997790935452
 10
1950.311998720255
 20
124.9339789898883
 10
1950.0993915674
 20
124.9339789898883
 10
1949.823255195324
 20
124.9339789898883
 10
1947.920056665365
 20
125.2336226608809
 10
1947.916188375669
 20
126.8949043045264
 97
        1
330
36AB
 75
     0
 76
     1
 98
        1
 10
1859.334883625664
 20
72.26751235270598
1001
ACAD
1010
0.0
1020
0.0
1030
0.0
  0
POLYLINE
  5
369C
102
{ACAD_REACTORS
330
369B
330
36AC
102
}
330
A
100
AcDbEntity
  8
TEMPLATE
100
AcDb2dPolyline
 66
     1
 10
0.0
 20
0.0
 30
0.0
  0
VERTEX
  5
369D
330
369C
100
AcDbEntity
  8
TEMPLATE
100
AcDbVertex
100
AcDb2dVertex
 10
1934.476782902687
 20
153.1053194253001
 30
0.0
  0
VERTEX
  5
369E
330
369C
100
AcDbEntity
  8
TEMPLATE
100
AcDbVertex
100
AcDb2dVertex
 10
1934.476782902687
 20
147.1959117946397
 30
0.0
  0
VERTEX
  5
369F
330
369C
100
AcDbEntity
  8
TEMPLATE
100
AcDbVertex
100
AcDb2dVertex
 10
1925.116191352377
 20
147.1959117946397
 30
0.0
  0
VERTEX
  5
36A0
330
369C
100
AcDbEntity
  8
TEMPLATE
100
AcDbVertex
100
AcDb2dVertex
 10
1925.116191352377
 20
123.105319426746
 30
0.0
  0
VERTEX
  5
36A1
330
369C
100
AcDbEntity
  8
TEMPLATE
100
AcDbVertex
100
AcDb2dVertex
 10
1916.883578199102
 20
123.105319426746
 30
0.0
  0
VERTEX
  5
36A2
330
369C
100
AcDbEntity
  8
TEMPLATE
100
AcDbVertex
100
AcDb2dVertex
 10
1916.883578199102
 20
147.1959117946397
 30
0.0
  0
VERTEX
  5
36A3
330
369C
100
AcDbEntity
  8
TEMPLATE
100
AcDbVertex
100
AcDb2dVertex
 10
1907.688876764557
 20
147.1959117946397
 30
0.0
  0
VERTEX
  5
36A4
330
369C
100
AcDbEntity
  8
TEMPLATE
100
AcDbVertex
100
AcDb2dVertex
 10
1907.688876764557
 20
153.1053194253001
 30
0.0
  0
VERTEX
  5
36A5
330
369C
100
AcDbEntity
  8
TEMPLATE
100
AcDbVertex
100
AcDb2dVertex
 10
1934.476782902687
 20
153.1053194253001
 30
0.0
  0
SEQEND
  5
36A6
330
369C
100
AcDbEntity
  8
TEMPLATE
  0
SPLINE
  5
36A7
102
{ACAD_REACTORS
330
369B
330
36AC
102
}
330
A
100
AcDbEntity
  8
TEMPLATE
100
AcDbSpline
210
0.0
220
0.0
230
1.0
 70
    11
 71
     3
 72
    56
 73
    52
 74
     0
 42
0.000000001
 43
0.0000000001
 40
0.0
 40
0.0
 40
0.0
 40
0.0
 40
1.0
 40
1.0
 40
1.0
 40
2.0
 40
2.0
 40
2.0
 40
3.0
 40
3.0
 40
3.0
 40
4.0
 40
4.0
 40
4.0
 40
5.0
 40
5.0
 40
5.0
 40
6.0
 40
6.0
 40
6.0
 40
7.0
 40
7.0
 40
7.0
 40
8.0
 40
8.0
 40
8.0
 40
9.0
 40
9.0
 40
9.0
 40
10.0
 40
10.0
 40
10.0
 40
11.0
 40
11.0
 40
11.0
 40
12.0
 40
12.0
 40
12.0
 40
13.0
 40
13.0
 40
13.0
 40
14.0
 40
14.0
 40
14.0
 40
15.0
 40
15.0
 40
15.0
 40
16.0
 40
16.0
 40
16.0
 40
17.0
 40
17.0
 40
17.0
 40
17.0
 10
1947.01896833698
 20
152.3909504648878
 30
0.0
 10
1948.1728345189
 20
152.715738018898
 30
0.0
 10
1949.662423612235
 20
152.4440650580081
 30
0.0
 10
1949.662423612235
 20
152.4440650580081
 30
0.0
 10
1949.662423612235
 20
152.4440650580081
 30
0.0
 10
1948.946790018651
 20
150.2964947655846
 30
0.0
 10
1948.946790018651
 20
150.2964947655846
 30
0.0
 10
1948.946790018651
 20
150.2964947655846
 30
0.0
 10
1947.484427733556
 20
150.6348957237139
 30
0.0
 10
1946.356523726704
 20
149.7454866546012
 30
0.0
 10
1945.480058550036
 20
149.0499384113589
 30
0.0
 10
1944.912238256914
 20
147.2017886193686
 30
0.0
 10
1944.69442379101
 20
146.4990989182278
 30
0.0
 10
1944.69442379101
 20
146.4990989182278
 30
0.0
 10
1943.723334297183
 20
143.518432927829
 30
0.0
 10
1943.723334297183
 20
143.518432927829
 30
0.0
 10
1943.723334297183
 20
143.518432927829
 30
0.0
 10
1946.907457447503
 20
143.518432927829
 30
0.0
 10
1946.907457447503
 20
143.518432927829
 30
0.0
 10
1946.907457447503
 20
143.518432927829
 30
0.0
 10
1946.412241976351
 20
141.642461206109
 30
0.0
 10
1946.412241976351
 20
141.642461206109
 30
0.0
 10
1946.412241976351
 20
141.642461206109
 30
0.0
 10
1943.202156650962
 20
141.642461206109
 30
0.0
 10
1943.202156650962
 20
141.642461206109
 30
0.0
 10
1943.202156650962
 20
141.642461206109
 30
0.0
 10
1937.458713526257
 20
123.105319426746
 30
0.0
 10
1937.458713526257
 20
123.105319426746
 30
0.0
 10
1937.458713526257
 20
123.105319426746
 30
0.0
 10
1935.660479549369
 20
123.105319426746
 30
0.0
 10
1935.660479549369
 20
123.105319426746
 30
0.0
 10
1935.660479549369
 20
123.105319426746
 30
0.0
 10
1941.409129987127
 20
141.642461206109
 30
0.0
 10
1941.409129987127
 20
141.642461206109
 30
0.0
 10
1941.409129987127
 20
141.642461206109
 30
0.0
 10
1939.040397670409
 20
141.642461206109
 30
0.0
 10
1939.040397670409
 20
141.642461206109
 30
0.0
 10
1939.040397670409
 20
141.642461206109
 30
0.0
 10
1939.536952164915
 20
143.518432927829
 30
0.0
 10
1939.536952164915
 20
143.518432927829
 30
0.0
 10
1939.536952164915
 20
143.518432927829
 30
0.0
 10
1941.930307633347
 20
143.518432927829
 30
0.0
 10
1941.930307633347
 20
143.518432927829
 30
0.0
 10
1941.930307633347
 20
143.518432927829
 30
0.0
 10
1942.77686795507
 20
146.1179236028939
 30
0.0
 10
1942.77686795507
 20
146.1179236028939
 30
0.0
 10
1943.461406450716
 20
148.2973328951149
 30
0.0
 10
1944.042245026465
 20
149.4674161376772
 30
0.0
 10
1944.540138544327
 20
150.3496093587049
 30
0.0
 10
1945.032750358952
 20
151.232546481597
 30
0.0
 10
1946.007708142475
 20
152.0998616653363
 30
0.0
 10
1947.01896833698
 20
152.3909504648878
 30
0.0
  0
SPLINE
  5
36A8
102
{ACAD_REACTORS
330
369B
330
36AC
102
}
330
A
100
AcDbEntity
  8
TEMPLATE
100
AcDbSpline
210
0.0
220
0.0
230
1.0
 70
    11
 71
     3
 72
    38
 73
    34
 74
     0
 42
0.000000001
 43
0.0000000001
 40
0.0
 40
0.0
 40
0.0
 40
0.0
 40
1.0
 40
1.0
 40
1.0
 40
2.0
 40
2.0
 40
2.0
 40
3.0
 40
3.0
 40
3.0
 40
4.0
 40
4.0
 40
4.0
 40
5.0
 40
5.0
 40
5.0
 40
6.0
 40
6.0
 40
6.0
 40
7.0
 40
7.0
 40
7.0
 40
8.0
 40
8.0
 40
8.0
 40
9.0
 40
9.0
 40
9.0
 40
10.0
 40
10.0
 40
10.0
 40
11.0
 40
11.0
 40
11.0
 40
11.0
 10
1966.542747159137
 20
143.4464976175386
 30
0.0
 10
1966.542747159137
 20
143.4464976175386
 30
0.0
 10
1968.39149207262
 20
143.4464976175386
 30
0.0
 10
1968.39149207262
 20
143.4464976175386
 30
0.0
 10
1968.39149207262
 20
143.4464976175386
 30
0.0
 10
1967.56561222273
 20
140.8022984404216
 30
0.0
 10
1967.56561222273
 20
140.8022984404216
 30
0.0
 10
1968.193167835563
 20
141.54456372075
 30
0.0
 10
1969.183598777865
 20
142.5331349083912
 30
0.0
 10
1970.034176169654
 20
143.0316235477459
 30
0.0
 10
1971.304760554101
 20
143.7738888280742
 30
0.0
 10
1972.030808773784
 20
143.8717863134333
 30
0.0
 10
1972.829313035064
 20
143.8522960845852
 30
0.0
 10
1972.829313035064
 20
143.8522960845852
 30
0.0
 10
1972.048959979278
 20
141.3520419182353
 30
0.0
 10
1972.048959979278
 20
141.3520419182353
 30
0.0
 10
1971.540726225497
 20
141.5672527276151
 30
0.0
 10
1969.974515240128
 20
141.1575859708734
 30
0.0
 10
1969.076030568268
 20
140.5112840310564
 30
0.0
 10
1968.265772657532
 20
139.9285113104618
 30
0.0
 10
1967.705614553615
 20
139.4326263276327
 30
0.0
 10
1967.04190531017
 20
138.1859955832205
 30
0.0
 10
1966.383254599404
 20
136.9375050841474
 30
0.0
 10
1965.86341597654
 20
134.9467493047458
 30
0.0
 10
1964.968799594376
 20
132.058773486655
 30
0.0
 10
1964.968799594376
 20
132.058773486655
 30
0.0
 10
1962.174852971949
 20
123.105319426746
 30
0.0
 10
1962.174852971949
 20
123.105319426746
 30
0.0
 10
1962.174852971949
 20
123.105319426746
 30
0.0
 10
1960.380561674943
 20
123.105319426746
 30
0.0
 10
1960.380561674943
 20
123.105319426746
 30
0.0
 10
1960.380561674943
 20
123.105319426746
 30
0.0
 10
1966.542747159137
 20
143.4464976175386
 30
0.0
 10
1966.542747159137
 20
143.4464976175386
 30
0.0
  0
SPLINE
  5
36A9
102
{ACAD_REACTORS
330
369B
330
36AC
102
}
330
A
100
AcDbEntity
  8
TEMPLATE
100
AcDbSpline
210
0.0
220
0.0
230
1.0
 70
    11
 71
     3
 72
   104
 73
   100
 74
     0
 42
0.000000001
 43
0.0000000001
 40
0.0
 40
0.0
 40
0.0
 40
0.0
 40
1.0
 40
1.0
 40
1.0
 40
2.0
 40
2.0
 40
2.0
 40
3.0
 40
3.0
 40
3.0
 40
4.0
 40
4.0
 40
4.0
 40
5.0
 40
5.0
 40
5.0
 40
6.0
 40
6.0
 40
6.0
 40
7.0
 40
7.0
 40
7.0
 40
8.0
 40
8.0
 40
8.0
 40
9.0
 40
9.0
 40
9.0
 40
10.0
 40
10.0
 40
10.0
 40
11.0
 40
11.0
 40
11.0
 40
12.0
 40
12.0
 40
12.0
 40
13.0
 40
13.0
 40
13.0
 40
14.0
 40
14.0
 40
14.0
 40
15.0
 40
15.0
 40
15.0
 40
16.0
 40
16.0
 40
16.0
 40
17.0
 40
17.0
 40
17.0
 40
18.0
 40
18.0
 40
18.0
 40
19.0
 40
19.0
 40
19.0
 40
20.0
 40
20.0
 40
20.0
 40
21.0
 40
21.0
 40
21.0
 40
22.0
 40
22.0
 40
22.0
 40
23.0
 40
23.0
 40
23.0
 40
24.0
 40
24.0
 40
24.0
 40
25.0
 40
25.0
 40
25.0
 40
26.0
 40
26.0
 40
26.0
 40
27.0
 40
27.0
 40
27.0
 40
28.0
 40
28.0
 40
28.0
 40
29.0
 40
29.0
 40
29.0
 40
30.0
 40
30.0
 40
30.0
 40
31.0
 40
31.0
 40
31.0
 40
32.0
 40
32.0
 40
32.0
 40
33.0
 40
33.0
 40
33.0
 40
33.0
 10
1976.718878323425
 20
143.4575073651321
 30
0.0
 10
1976.718878323425
 20
143.4575073651321
 30
0.0
 10
1978.332996588864
 20
143.4575073651321
 30
0.0
 10
1978.332996588864
 20
143.4575073651321
 30
0.0
 10
1978.332996588864
 20
143.4575073651321
 30
0.0
 10
1977.517531365076
 20
140.810778921676
 30
0.0
 10
1977.517531365076
 20
140.810778921676
 30
0.0
 10
1978.225279598895
 20
141.920531723033
 30
0.0
 10
1978.860571791119
 20
142.4151520726926
 30
0.0
 10
1979.704602846502
 20
143.054312554611
 30
0.0
 10
1980.551163168223
 20
143.6843974337833
 30
0.0
 10
1981.556025806694
 20
143.812794895584
 30
0.0
 10
1982.253508194784
 20
143.812794895584
 30
0.0
 10
1983.117029479015
 20
143.812794895584
 30
0.0
 10
1983.950645908296
 20
143.6422925882567
 30
0.0
 10
1984.388804106443
 20
142.6958262461422
 30
0.0
 10
1984.72460140805
 20
141.9536353560001
 30
0.0
 10
1984.740223347202
 20
141.8660781065566
 30
0.0
 10
1984.644260006691
 20
140.4010377747479
 30
0.0
 10
1985.521915426345
 20
141.9030500292188
 30
0.0
 10
1986.170151511008
 20
142.5500214807137
 30
0.0
 10
1987.272167732975
 20
143.1716258786317
 30
0.0
 10
1988.42863757142
 20
143.812794895584
 30
0.0
 10
1989.102761440966
 20
143.8607765658398
 30
0.0
 10
1989.885941323838
 20
143.7453229964802
 30
0.0
 10
1991.039733115569
 20
143.5748950793392
 30
0.0
 10
1991.776195961356
 20
143.1632197875635
 30
0.0
 10
1992.161239566385
 20
141.9121256319649
 30
0.0
 10
1992.54762219477
 20
140.6648997660613
 30
0.0
 10
1992.338883331611
 20
139.9959088193793
 30
0.0
 10
1991.861744675765
 20
138.0103603530286
 30
0.0
 10
1991.64393020986
 20
137.1060732466272
 30
0.0
 10
1991.328813380087
 20
136.0111240923725
 30
0.0
 10
1990.916542966819
 20
134.7082543670094
 30
0.0
 10
1990.916542966819
 20
134.7082543670094
 30
0.0
 10
1987.272167732975
 20
123.105319426746
 30
0.0
 10
1987.272167732975
 20
123.105319426746
 30
0.0
 10
1987.272167732975
 20
123.105319426746
 30
0.0
 10
1985.376705782409
 20
123.105319426746
 30
0.0
 10
1985.376705782409
 20
123.105319426746
 30
0.0
 10
1985.376705782409
 20
123.105319426746
 30
0.0
 10
1988.567449659321
 20
133.2490164697431
 30
0.0
 10
1988.567449659321
 20
133.2490164697431
 30
0.0
 10
1989.233836949479
 20
135.3713684889626
 30
0.0
 10
1989.684939040069
 20
136.9212880235028
 30
0.0
 10
1989.918375445127
 20
137.893047029008
 30
0.0
 10
1990.211323999339
 20
139.1052351170969
 30
0.0
 10
1990.327967811683
 20
139.505231149601
 30
0.0
 10
1990.189304504152
 20
140.3874987608153
 30
0.0
 10
1990.062246065708
 20
141.2087664191461
 30
0.0
 10
1989.647297605728
 20
141.7435574694851
 30
0.0
 10
1988.936871325198
 20
141.7435574694851
 30
0.0
 10
1988.17972800758
 20
141.7435574694851
 30
0.0
 10
1987.566455310545
 20
141.659273388245
 30
0.0
 10
1986.708290119737
 20
140.7971655175569
 30
0.0
 10
1985.84997614856
 20
139.9285113104618
 30
0.0
 10
1985.140740111011
 20
138.9088450248874
 30
0.0
 10
1984.584599077163
 20
137.7361581257997
 30
0.0
 10
1984.029648286297
 20
136.5563297688134
 30
0.0
 10
1983.466960916042
 20
135.0608638507494
 30
0.0
 10
1982.896536966398
 20
133.2490164697431
 30
0.0
 10
1982.896536966398
 20
133.2490164697431
 30
0.0
 10
1979.704602846502
 20
123.105319426746
 30
0.0
 10
1979.704602846502
 20
123.105319426746
 30
0.0
 10
1979.704602846502
 20
123.105319426746
 30
0.0
 10
1977.921916418581
 20
123.105319426746
 30
0.0
 10
1977.921916418581
 20
123.105319426746
 30
0.0
 10
1977.921916418581
 20
123.105319426746
 30
0.0
 10
1981.571498965475
 20
134.7030470539584
 30
0.0
 10
1981.571498965475
 20
134.7030470539584
 30
0.0
 10
1981.956542570504
 20
135.9373290274211
 30
0.0
 10
1982.245771615394
 20
136.9433819088763
 30
0.0
 10
1982.436359273062
 20
137.729686179579
 30
0.0
 10
1982.760402925207
 20
139.0832156219098
 30
0.0
 10
1982.851158952669
 20
139.9985124759046
 30
0.0
 10
1982.606117678524
 20
140.810778921676
 30
0.0
 10
1982.364944694076
 20
141.6204417109219
 30
0.0
 10
1981.941069411725
 20
141.8272464292334
 30
0.0
 10
1981.233172397533
 20
141.8272464292334
 30
0.0
 10
1980.639389929345
 20
141.8272464292334
 30
0.0
 10
1980.059890376953
 20
141.5724600406662
 30
0.0
 10
1979.398710399847
 20
141.0654909200569
 30
0.0
 10
1978.566284213549
 20
140.4276694614944
 30
0.0
 10
1978.233164958657
 20
139.9038881587491
 30
0.0
 10
1977.824762835085
 20
139.2815398589669
 30
0.0
 10
1977.273680333915
 20
138.458263665602
 30
0.0
 10
1977.015695167332
 20
137.9040567766015
 30
0.0
 10
1976.550310160944
 20
136.687926008631
 30
0.0
 10
1976.084776374184
 20
135.4646537827621
 30
0.0
 10
1975.644088909695
 20
134.0411231749885
 30
0.0
 10
1975.336708659311
 20
133.0564946672286
 30
0.0
 10
1975.336708659311
 20
133.0564946672286
 30
0.0
 10
1972.205774492298
 20
123.105319426746
 30
0.0
 10
1972.205774492298
 20
123.105319426746
 30
0.0
 10
1972.205774492298
 20
123.105319426746
 30
0.0
 10
1970.338878373326
 20
123.105319426746
 30
0.0
 10
1970.338878373326
 20
123.105319426746
 30
0.0
 10
1970.338878373326
 20
123.105319426746
 30
0.0
 10
1976.718878323425
 20
143.4575073651321
 30
0.0
 10
1976.718878323425
 20
143.4575073651321
 30
0.0
  0
SPLINE
  5
36AA
102
{ACAD_REACTORS
330
369B
330
36AC
102
}
330
A
100
AcDbEntity
  8
TEMPLATE
100
AcDbSpline
210
0.0
220
0.0
230
1.0
 70
    11
 71
     3
 72
    32
 73
    28
 74
     0
 42
0.000000001
 43
0.0000000001
 40
0.0
 40
0.0
 40
0.0
 40
0.0
 40
1.0
 40
1.0
 40
1.0
 40
2.0
 40
2.0
 40
2.0
 40
3.0
 40
3.0
 40
3.0
 40
4.0
 40
4.0
 40
4.0
 40
5.0
 40
5.0
 40
5.0
 40
6.0
 40
6.0
 40
6.0
 40
7.0
 40
7.0
 40
7.0
 40
8.0
 40
8.0
 40
8.0
 40
9.0
 40
9.0
 40
9.0
 40
9.0
 10
1951.394524713372
 20
142.3847264864374
 30
0.0
 10
1950.311998720255
 20
140.9844800070205
 30
0.0
 10
1949.478382290974
 20
139.7243102486757
 30
0.0
 10
1948.128795528524
 20
135.7635535518901
 30
0.0
 10
1946.888041608841
 20
132.1406026917421
 30
0.0
 10
1946.098464169936
 20
129.5048096056932
 30
0.0
 10
1945.979216701069
 20
126.2947242803041
 30
0.0
 10
1945.888460673606
 20
123.9059066132458
 30
0.0
 10
1947.343086379314
 20
123.105319426746
 30
0.0
 10
1949.475853024634
 20
123.105319426746
 30
0.0
 10
1950.395018168326
 20
123.105319426746
 30
0.0
 10
1952.714504181618
 20
123.1637901132903
 30
0.0
 10
1954.3662638814
 20
125.2056519507783
 30
0.0
 10
1955.522584939468
 20
126.6401923061455
 30
0.0
 10
1956.588298750451
 20
128.1272521331414
 30
0.0
 10
1958.017036671275
 20
133.0053142189559
 30
0.0
 10
1959.205940631009
 20
137.0833842397621
 30
0.0
 10
1960.029142434186
 20
139.7191029356247
 30
0.0
 10
1959.968291261677
 20
141.2197761667398
 30
0.0
 10
1959.968291261677
 20
141.2197761667398
 30
0.0
 10
1959.968291261677
 20
141.2197761667398
 30
0.0
 10
1959.968291261677
 20
141.2197761667398
 30
0.0
 10
1959.580569609936
 20
143.7233035012931
 30
0.0
 10
1957.762919794387
 20
144.2522921170894
 30
0.0
 10
1956.724432791643
 20
144.2522921170894
 30
0.0
 10
1955.70156772805
 20
144.2522921170894
 30
0.0
 10
1952.960735698745
 20
144.4292663706373
 30
0.0
 10
1951.394524713372
 20
142.3847264864374
 30
0.0
  0
SPLINE
  5
36AB
102
{ACAD_REACTORS
330
369B
330
36AC
102
}
330
A
100
AcDbEntity
  8
TEMPLATE
100
AcDbSpline
210
0.0
220
0.0
230
1.0
 70
    11
 71
     3
 72
    29
 73
    25
 74
     0
 42
0.000000001
 43
0.0000000001
 40
0.0
 40
0.0
 40
0.0
 40
0.0
 40
1.0
 40
1.0
 40
1.0
 40
2.0
 40
2.0
 40
2.0
 40
3.0
 40
3.0
 40
3.0
 40
4.0
 40
4.0
 40
4.0
 40
5.0
 40
5.0
 40
5.0
 40
6.0
 40
6.0
 40
6.0
 40
7.0
 40
7.0
 40
7.0
 40
8.0
 40
8.0
 40
8.0
 40
8.0
 10
1947.916188375669
 20
126.8949043045264
 30
0.0
 10
1947.908303015907
 20
128.3120373562658
 30
0.0
 10
1948.355685597176
 20
130.8298476066162
 30
0.0
 10
1949.501740809517
 20
134.1986815898748
 30
0.0
 10
1951.062744481836
 20
138.7603622127471
 30
0.0
 10
1951.998870588036
 20
140.4276694614944
 30
0.0
 10
1952.818055321147
 20
141.2392663955878
 30
0.0
 10
1954.014844640642
 20
142.4210288974216
 30
0.0
 10
1955.623755593032
 20
142.4799459250845
 30
0.0
 10
1956.098364982539
 20
142.4210288974216
 30
0.0
 10
1956.77382787544
 20
142.3399435941987
 30
0.0
 10
1957.727956406759
 20
141.8978427161679
 30
0.0
 10
1957.784939289575
 20
140.4095182560024
 30
0.0
 10
1957.830466083678
 20
139.1357350935386
 30
0.0
 10
1957.463424903768
 20
136.7501905946838
 30
0.0
 10
1956.178706383896
 20
133.0053142189559
 30
0.0
 10
1954.698044112936
 20
128.6536370924121
 30
0.0
 10
1953.808635043822
 20
126.9429603649685
 30
0.0
 10
1953.095679496951
 20
126.1974219164366
 30
0.0
 10
1951.752490290537
 20
124.7997790935452
 30
0.0
 10
1950.311998720255
 20
124.9339789898883
 30
0.0
 10
1950.0993915674
 20
124.9339789898883
 30
0.0
 10
1949.823255195324
 20
124.9339789898883
 30
0.0
 10
1947.920056665365
 20
125.2336226608809
 30
0.0
 10
1947.916188375669
 20
126.8949043045264
 30
0.0
  0
ARC
  5
38F8
102
{ACAD_REACTORS
330
397F
330
3982
102
}
330
A
100
AcDbEntity
  8
MODEL
 48
0.5
100
AcDbCircle
 10
535.1126092311058
 20
1147.50111568373
 30
0.0
 40
17.5
100
AcDbArc
 50
180.0
 51
0.0
  0
CIRCLE
  5
38F9
102
{ACAD_REACTORS
330
397F
102
}
330
A
100
AcDbEntity
  8
HIDDEN
  6
HIDDEN
 48
0.5
100
AcDbCircle
 10
535.1126092311058
 20
1047.50111568373
 30
0.0
 40
16.0
  0
LINE
  5
38FA
330
A
100
AcDbEntity
  8
MODEL
100
AcDbLine
 10
937.9771088278519
 20
901.5011156837318
 30
0.0
 11
937.9771088278517
 21
979.4100357611604
 31
0.0
  0
LINE
  5
38FB
330
A
100
AcDbEntity
  8
MODEL
100
AcDbLine
 10
937.9771088278519
 20
901.5011156837318
 30
0.0
 11
937.9771088278517
 21
979.4100357611604
 31
0.0
  0
LINE
  5
38FC
330
A
100
AcDbEntity
  8
MODEL
100
AcDbLine
 10
937.9771088278519
 20
901.5011156837318
 30
0.0
 11
937.977208261364
 21
1147.50111568373
 31
0.0
  0
LINE
  5
38FD
330
A
100
AcDbEntity
  8
MODEL
100
AcDbLine
 10
468.1109497120722
 20
900.5006587691919
 30
0.0
 11
468.1109497120719
 21
979.4100357611604
 31
0.0
  0
LINE
  5
38FE
330
A
100
AcDbEntity
  8
MODEL
100
AcDbLine
 10
468.1109497120722
 20
900.5006587691919
 30
0.0
 11
468.1109497120719
 21
979.4100357611604
 31
0.0
  0
LINE
  5
38FF
330
A
100
AcDbEntity
  8
MODEL
100
AcDbLine
 10
468.1109497120722
 20
900.5006587691919
 30
0.0
 11
468.1110491455842
 21
1147.50111568373
 31
0.0
  0
LINE
  5
3900
330
A
100
AcDbEntity
  8
MODEL
100
AcDbLine
 10
933.9771088278528
 20
897.5011156837318
 30
0.0
 11
471.1109497120649
 21
897.5011156837304
 31
0.0
  0
ARC
  5
3901
330
A
100
AcDbEntity
  8
MODEL
100
AcDbCircle
 10
933.9771088278519
 20
901.5011156837318
 30
0.0
 40
4.0
100
AcDbArc
 50
270.000000000013
 51
0.0
  0
LINE
  5
3902
330
A
100
AcDbEntity
  8
MODEL
100
AcDbLine
 10
1743.240167666938
 20
903.4899271198344
 30
0.0
 11
1743.240167666938
 21
902.4905361710378
 31
0.0
  0
LINE
  5
3903
330
A
100
AcDbEntity
  8
MODEL
100
AcDbLine
 10
1740.292524886251
 20
899.4909930855617
 30
0.0
 11
1626.292524886251
 21
897.5011156837393
 31
0.0
  0
LINE
  5
3904
330
A
100
AcDbEntity
  8
MODEL
100
AcDbLine
 10
1623.240167666938
 20
900.5006587692008
 30
0.0
 11
1623.240167666938
 21
901.5000497180265
 31
0.0
  0
LINE
  5
3906
330
A
100
AcDbEntity
  8
MODEL
100
AcDbLine
 10
1623.253567623696
 20
900.2174270942342
 30
0.0
 11
1623.240167666937
 21
1095.529852721695
 31
0.0
  0
LINE
  5
3907
330
A
100
AcDbEntity
  8
MODEL
100
AcDbLine
 10
1623.240167666937
 20
1095.529852721695
 30
0.0
 11
1623.240167666937
 21
1147.450295810164
 31
0.0
  0
LINE
  5
3908
330
A
100
AcDbEntity
  8
MODEL
100
AcDbLine
 10
1777.240167666937
 20
1116.1992893322
 30
0.0
 11
1777.240167666937
 21
1147.450295810164
 31
0.0
  0
LINE
  5
3909
330
A
100
AcDbEntity
  8
MODEL
100
AcDbLine
 10
1774.50163489518
 20
1113.210705237927
 30
0.0
 11
1774.50163489518
 21
1147.450295810164
 31
0.0
  0
LINE
  5
390A
330
A
100
AcDbEntity
  8
MODEL
100
AcDbLine
 10
1747.126530089201
 20
1110.81569390457
 30
0.0
 11
1774.50163489518
 21
1113.210705237927
 31
0.0
  0
LINE
  5
390B
330
A
100
AcDbEntity
  8
MODEL
100
AcDbLine
 10
1743.240167666937
 20
1147.450295810164
 30
0.0
 11
1743.240167666937
 21
1095.529852721695
 31
0.0
  0
LINE
  5
390C
330
A
100
AcDbEntity
  8
MODEL
100
AcDbLine
 10
1743.240167666937
 20
1095.529852721695
 30
0.0
 11
1743.240167666938
 21
902.4905361710378
 31
0.0
  0
ARC
  5
390E
330
A
100
AcDbEntity
  8
MODEL
100
AcDbCircle
 10
1740.240167666938
 20
902.4905361710378
 30
0.0
 40
3.0
100
AcDbArc
 50
270.9999999999931
 51
0.0
  0
ARC
  5
390F
330
A
100
AcDbEntity
  8
MODEL
100
AcDbCircle
 10
1626.240167666938
 20
900.5006587692008
 30
0.0
 40
3.0
100
AcDbArc
 50
180.0
 51
270.9999999999931
  0
ARC
  5
3910
330
A
100
AcDbEntity
  8
MODEL
100
AcDbCircle
 10
1774.240167666937
 20
1116.1992893322
 30
0.0
 40
3.0
100
AcDbArc
 50
274.9999999999912
 51
0.0
  0
ELLIPSE
  5
3911
330
A
100
AcDbEntity
  8
MODEL
100
AcDbEllipse
 10
471.1109497120649
 20
900.5006587691919
 30
0.0
 11
-3.0
 21
-8.476042572204118E-15
 31
0.0
210
0.0
220
0.0
230
1.0
 40
0.999847695156391
 41
0.0
 42
1.570796326794894
  0
SPLINE
  5
3912
330
A
100
AcDbEntity
  8
MODEL
100
AcDbSpline
210
0.0
220
0.0
230
1.0
 70
     8
 71
     3
 72
    29
 73
    25
 74
     0
 42
0.000000001
 43
0.0000000001
 40
0.0
 40
0.0
 40
0.0
 40
0.0
 40
0.0625
 40
0.125
 40
0.1875
 40
0.21875
 40
0.25
 40
0.28125
 40
0.3125
 40
0.34375
 40
0.375
 40
0.40625
 40
0.4375
 40
0.453125
 40
0.46875
 40
0.484375
 40
0.5
 40
0.53125
 40
0.5625
 40
0.59375
 40
0.625
 40
0.65625
 40
0.6875
 40
0.7485692490388592
 40
0.7485692490388592
 40
0.7485692490388592
 40
0.7485692490388592
 10
879.8244073299372
 20
900.6198131683955
 30
0.0
 10
881.9223727726801
 20
900.6456577940585
 30
0.0
 10
886.1180436178417
 20
900.7167586425962
 30
0.0
 10
892.4109442283459
 20
900.8536680367429
 30
0.0
 10
897.6544018078655
 20
900.9933874732556
 30
0.0
 10
901.8482700855618
 20
901.1371104480381
 30
0.0
 10
904.9925359406423
 20
901.2727937573977
 30
0.0
 10
908.1348742989082
 20
901.4492951369789
 30
0.0
 10
911.2730444100105
 20
901.690824701745
 30
0.0
 10
914.4020482866124
 20
902.0340139628711
 30
0.0
 10
917.5103631760301
 20
902.5373061723112
 30
0.0
 10
920.5693785580095
 20
903.294306974949
 30
0.0
 10
923.0182262800388
 20
904.2586863771176
 30
0.0
 10
924.8355785959955
 20
905.3141072866893
 30
0.0
 10
926.097722952343
 20
906.2587768354897
 30
0.0
 10
927.2322974363867
 20
907.353652034395
 30
0.0
 10
928.5538999620637
 20
908.9885128129717
 30
0.0
 10
929.8422439015937
 20
911.2869336630865
 30
0.0
 10
930.9318080805185
 20
914.246151844276
 30
0.0
 10
931.7151959479468
 20
917.2968986638916
 30
0.0
 10
932.2952515119266
 20
920.3912259712415
 30
0.0
 10
932.7381294581371
 20
923.5076235736815
 30
0.0
 10
933.1966904996134
 20
927.6307588456507
 30
0.0
 10
933.4430646047988
 20
930.7204985658356
 30
0.0
 10
933.5833579601456
 20
979.4100357611603
 30
0.0
  0
SPLINE
  5
3913
330
A
100
AcDbEntity
  8
MODEL
100
AcDbSpline
210
0.0
220
0.0
230
1.0
 70
     8
 71
     3
 72
    12
 73
     8
 74
     0
 42
0.000000001
 43
0.0000000001
 40
0.0
 40
0.0
 40
0.0
 40
0.0
 40
0.3302631184266158
 40
0.3302631184266158
 40
0.665131559213308
 40
0.665131559213308
 40
1.0
 40
1.0
 40
1.0
 40
1.0
 10
1743.165738491506
 20
1109.35020107476
 30
0.0
 10
1743.548257871106
 20
1109.624146288651
 30
0.0
 10
1743.954997608231
 20
1109.864259894993
 30
0.0
 10
1744.810245995741
 20
1110.272193196344
 30
0.0
 10
1745.259243321071
 20
1110.438951105284
 30
0.0
 10
1746.179761501302
 20
1110.689913517342
 30
0.0
 10
1746.651266666024
 20
1110.774113742865
 30
0.0
 10
1747.126508927624
 20
1110.815692053189
 30
0.0
  0
LINE
  5
3914
330
A
100
AcDbEntity
  8
MODEL
100
AcDbLine
 10
593.1262197130598
 20
920.5000284120165
 30
0.0
 11
593.1253284484249
 21
979.4100357611604
 31
0.0
  0
LINE
  5
3915
330
A
100
AcDbEntity
  8
MODEL
100
AcDbLine
 10
593.12621971306
 20
920.5000284120201
 30
0.0
 11
593.1252439290668
 21
979.4100357611604
 31
0.0
  0
LINE
  5
3916
330
A
100
AcDbEntity
  8
MODEL
100
AcDbLine
 10
593.12621971306
 20
920.5000284120201
 30
0.0
 11
593.1184181116455
 21
1147.50111568373
 31
0.0
  0
ARC
  5
3917
330
A
100
AcDbEntity
  8
MODEL
100
AcDbCircle
 10
613.1262197031263
 20
920.5006587691923
 30
0.0
 40
20.0
100
AcDbArc
 50
180.001805840278
 51
270.0
  0
LINE
  5
3918
330
A
100
AcDbEntity
  8
MODEL
100
AcDbLine
 10
879.8244073299372
 20
900.6198131683955
 30
0.0
 11
612.8806736067579
 21
900.5021661481323
 31
0.0
  0
LINE
  5
3919
330
A
100
AcDbEntity
  8
MODEL
100
AcDbLine
 10
933.5833579601456
 20
979.4100357611603
 30
0.0
 11
934.6114655921708
 21
1147.50111568373
 31
0.0
  0
ELLIPSE
  5
391A
330
A
100
AcDbEntity
  8
MODEL
100
AcDbEllipse
 10
596.1796935879117
 20
1147.500470135618
 30
0.0
 11
3.390417028881647E-14
 21
-12.0
 31
0.0
210
0.0
220
0.0
230
1.0
 40
0.0874886635259221
 41
4.712335184708659
 42
7.854035429650514
  0
LINE
  5
3928
330
A
100
AcDbEntity
  8
ADF70-0001
  6
Continuous
 62
     7
370
     5
390
1D
100
AcDbLine
 10
468.1110491455806
 20
2002.283291372867
 30
0.0
 11
468.1110491455806
 21
2715.326539896789
 31
0.0
  0
MTEXT
  5
392C
330
A
100
AcDbEntity
  8
notes
 62
     7
390
1D
100
AcDbMText
 10
1104.566392861158
 20
753.2407216968849
 30
0.0
 40
24.4326171875
 41
842.8831565639147
 46
0.0
 71
     1
 72
     1
  1
＝φ30もしくはφ35の水栓取付用穴あけ加工を承ります。\P   必要な場合、ご注文の際にご指示ください。
  7
ＭＳ ゴシック
 11
0.0
 21
1.0
 31
0.0
 73
     1
 44
1.043768984567712
  0
CIRCLE
  5
392D
330
A
100
AcDbEntity
  8
notes
  6
STYLE_23
 62
     7
370
    15
390
1D
100
AcDbCircle
 10
1117.110736963056
 20
728.7782525183401
 30
0.0
 40
17.50000000000011
  0
CIRCLE
  5
392E
330
A
100
AcDbEntity
  8
ADF70-0001
  6
STYLE_23
 62
     7
370
    15
390
1D
100
AcDbCircle
 10
1668.240167666938
 20
1007.450295810164
 30
0.0
 40
10.0
  0
LINE
  5
392F
102
{ACAD_REACTORS
330
3976
102
}
330
A
100
AcDbEntity
  8
0
  6
STYLE_23
 62
     7
370
    15
390
1D
100
AcDbLine
 10
1653.271247597895
 20
1007.226450989987
 30
0.0
 11
1683.271247597894
 21
1007.226450989987
 31
0.0
  0
MTEXT
  5
3930
330
A
100
AcDbEntity
  8
notes
 62
     7
390
1D
100
AcDbMText
 10
1538.831780736049
 20
1369.142298068037
 30
0.0
 40
24.4326171875
 41
0.0
 46
27.0478879530996
 71
     1
 72
     1
  1
{壁取付ボルト穴(2ヶ所）}
  7
ＭＳ ゴシック
 11
0.0
 21
1.0
 31
0.0
 73
     1
 44
0.7828267384257843
1001
ACAD
1000
ACAD_MTEXT_DEFINED_HEIGHT_BEGIN
1070
    46
1040
27.0478879530996
1000
ACAD_MTEXT_DEFINED_HEIGHT_END
  0
LINE
  5
3931
330
A
100
AcDbEntity
  8
notes
  6
Continuous
 62
     7
370
     5
390
1D
100
AcDbLine
 10
1668.271247597894
 20
1287.674140630341
 30
0.0
 11
1570.935205844089
 21
1385.010182384146
 31
0.0
  0
LINE
  5
3932
330
A
100
AcDbEntity
  8
MODEL
100
AcDbLine
 10
1696.278416573707
 20
2562.195543865482
 30
0.0
 11
1626.46518714689
 21
2562.277787224594
 31
0.0
  0
LINE
  5
3933
330
A
100
AcDbEntity
  8
MODEL
100
AcDbLine
 10
1623.461655086014
 20
2559.281323448868
 30
0.0
 11
1623.322251214811
 21
2440.946730257019
 31
0.0
  0
LINE
  5
3934
330
A
100
AcDbEntity
  8
MODEL
100
AcDbLine
 10
1746.996197845715
 20
2315.495361082886
 30
0.0
 11
1774.43882565191
 21
2317.863707075478
 31
0.0
  0
LINE
  5
3935
330
A
100
AcDbEntity
  8
MODEL
100
AcDbLine
 10
1777.180877217488
 20
2320.849062974228
 30
0.0
 11
1777.191775342761
 21
2330.100063032913
 31
0.0
  0
LINE
  5
3936
330
A
100
AcDbEntity
  8
MODEL
100
AcDbLine
 10
1622.91527664455
 20
2095.48164527886
 30
0.0
 11
1622.915231101676
 21
2095.442985681527
 31
0.0
  0
LINE
  5
3937
102
{ACAD_REACTORS
330
395B
102
}
330
A
100
AcDbEntity
  8
MODEL
100
AcDbLine
 10
1777.2436094338
 20
2374.100032501398
 30
0.0
 11
1777.191775342761
 21
2330.100063032913
 31
0.0
  0
LINE
  5
3938
330
A
100
AcDbEntity
  8
MODEL
100
AcDbLine
 10
1743.328111402203
 20
2445.850535428317
 30
0.0
 11
1743.461571818227
 21
2559.139957746031
 31
0.0
  0
LINE
  5
3939
330
A
100
AcDbEntity
  8
MODEL
100
AcDbLine
 10
1742.922186063314
 20
2101.276102671275
 30
0.0
 11
1743.172940348572
 21
2314.131786528716
 31
0.0
  0
LINE
  5
393A
330
A
100
AcDbEntity
  8
MODEL
100
AcDbLine
 10
1743.328115826243
 20
2445.854290826565
 30
0.0
 11
1743.461571818227
 21
2559.139957746031
 31
0.0
  0
LINE
  5
393B
102
{ACAD_REACTORS
330
395B
102
}
330
A
100
AcDbEntity
  8
MODEL
100
AcDbLine
 10
1740.465108042492
 20
2562.143489806899
 30
0.0
 11
1735.465111511983
 21
2562.149380044515
 31
0.0
  0
ARC
  5
393C
102
{ACAD_REACTORS
330
3955
102
}
330
A
100
AcDbEntity
  8
MODEL
100
AcDbCircle
 10
1626.461653004319
 20
2559.277789306298
 30
0.0
 40
3.000000000000001
100
AcDbArc
 50
89.93250283319918
 51
179.9325028332339
  0
ARC
  5
393D
330
A
100
AcDbEntity
  8
MODEL
100
AcDbCircle
 10
1774.180879299197
 20
2320.852597116799
 30
0.0
 40
3.000000000000001
100
AcDbArc
 50
274.9325028332887
 51
359.9325028332165
  0
ARC
  5
393E
330
A
100
AcDbEntity
  8
MODEL
100
AcDbCircle
 10
1740.461573899922
 20
2559.143491888602
 30
0.0
 40
3.000000000000001
100
AcDbArc
 50
359.9325028332165
 51
89.93250283323394
  0
SPLINE
  5
393F
330
A
100
AcDbEntity
  8
MODEL
100
AcDbSpline
210
0.0
220
0.0
230
1.0
 70
     8
 71
     3
 72
    12
 73
     8
 74
     0
 42
0.000000001
 43
0.0000000001
 40
0.6393546353257522
 40
0.6393546353257522
 40
0.6393546353257522
 40
0.6393546353257522
 40
0.75
 40
0.75
 40
0.875
 40
0.875
 40
1.0
 40
1.0
 40
1.0
 40
1.0
 10
1743.172940348578
 20
2314.131786528719
 30
0.0
 10
1743.519557340063
 20
2314.368437586663
 30
0.0
 10
1743.884815466927
 20
2314.577783424957
 30
0.0
 10
1744.692878436206
 20
2314.959883865731
 30
0.0
 10
1745.139581811291
 20
2315.12436097758
 30
0.0
 10
1746.05505228762
 20
2315.371717449513
 30
0.0
 10
1746.523804161497
 20
2315.45459269522
 30
0.0
 10
1746.996197845715
 20
2315.495361082886
 30
0.0
  0
LINE
  5
3940
330
A
100
AcDbEntity
  8
MODEL
100
AcDbLine
 10
1696.278416573707
 20
2562.19554386549
 30
0.0
 11
1735.465111511983
 21
2562.149380044523
 31
0.0
  0
LINE
  5
3941
102
{ACAD_REACTORS
330
3952
330
3958
102
}
330
A
100
AcDbEntity
  8
MODEL
100
AcDbLine
 10
1623.322251214811
 20
2440.946730257019
 30
0.0
 11
1622.915198705968
 21
2095.415486208984
 31
0.0
  0
LINE
  5
3942
330
A
100
AcDbEntity
  8
HIDDEN
 48
0.5
100
AcDbLine
 10
1728.226150186274
 20
2391.533533509917
 30
0.0
 11
1728.428914240408
 21
2312.05999063209
 31
0.0
  0
LINE
  5
3943
330
A
100
AcDbEntity
  8
HIDDEN
 48
0.5
100
AcDbLine
 10
1740.746480566418
 20
2374.424104717436
 30
0.0
 11
1740.693984232101
 21
2329.861982361255
 31
0.0
  0
LINE
  5
3944
330
A
100
AcDbEntity
  8
MODEL
100
AcDbLine
 10
1740.07566660564
 20
2098.283565325694
 30
0.0
 11
1626.068707480612
 21
2092.443380050805
 31
0.0
  0
ARC
  5
3945
330
A
100
AcDbEntity
  8
MODEL
100
AcDbCircle
 10
1625.915229019982
 20
2095.439451538956
 30
0.0
 40
3.000000000000001
100
AcDbArc
 50
179.9325028332166
 51
272.9325028332201
  0
ARC
  5
3946
102
{ACAD_REACTORS
330
3952
102
}
330
A
100
AcDbEntity
  8
MODEL
100
AcDbCircle
 10
1739.922188145009
 20
2101.279636813846
 30
0.0
 40
3.000000000000001
100
AcDbArc
 50
272.9325028332205
 51
359.9325028332165
  0
SOLID
  5
3947
330
A
100
AcDbEntity
  8
MODEL
 48
0.5
100
AcDbTrace
 10
1623.322251203422
 20
2440.946720588602
 30
0.0
 11
1623.322249432509
 21
2440.946730259119
 31
0.0
 12
1623.461655086014
 22
2559.281323448868
 32
0.0
 13
1623.461655086014
 23
2559.281323448868
 33
0.0
1001
GradientColor1ACI
1070
     5
1001
GradientColor2ACI
1070
     2
1001
ACAD
1010
0.0
1020
0.0
1030
0.0
  0
SOLID
  5
3948
330
A
100
AcDbEntity
  8
MODEL
 48
0.5
100
AcDbTrace
 10
1623.322251203422
 20
2440.946720588602
 30
0.0
 11
1623.461655086014
 21
2559.281323448868
 31
0.0
 12
1623.352591717525
 22
2440.781038557048
 32
0.0
 13
1623.352591717525
 23
2440.781038557048
 33
0.0
1001
GradientColor1ACI
1070
     5
1001
GradientColor2ACI
1070
     2
1001
ACAD
1010
0.0
1020
0.0
1030
0.0
  0
SOLID
  5
3949
330
A
100
AcDbEntity
  8
MODEL
 48
0.5
100
AcDbTrace
 10
1623.352591717525
 20
2440.781038557048
 30
0.0
 11
1623.461655086014
 21
2559.281323448868
 31
0.0
 12
1623.492693700111
 22
2559.708231694956
 32
0.0
 13
1623.492693700111
 23
2559.708231694956
 33
0.0
1001
GradientColor1ACI
1070
     5
1001
GradientColor2ACI
1070
     2
1001
ACAD
1010
0.0
1020
0.0
1030
0.0
  0
SOLID
  5
394A
330
A
100
AcDbEntity
  8
MODEL
  6
Continuous
 48
0.5
100
AcDbTrace
 10
1622.942340305595
 20
2095.037042925886
 30
0.0
 11
1622.915531556012
 21
2095.482055818681
 31
0.0
 12
1622.943098879351
 22
2095.68096705786
 32
0.0
 13
1622.943098879351
 23
2095.68096705786
 33
0.0
1001
GradientColor1ACI
1070
     5
1001
GradientColor2ACI
1070
     2
1001
ACAD
1010
0.0
1020
0.0
1030
0.0
  0
SPLINE
  5
394B
330
A
100
AcDbEntity
  8
MODEL
100
AcDbSpline
210
0.0
220
0.0
230
1.0
 70
  1064
 71
     3
 72
    58
 73
    54
 74
    52
 42
0.000000001
 43
0.0000000001
 44
0.0
 40
0.0
 40
0.0
 40
0.0
 40
0.0
 40
2.181573269523324
 40
4.774863402890002
 40
8.118776497864872
 40
11.58365721046562
 40
13.74254796859346
 40
16.52919689786553
 40
18.42378080363215
 40
21.20544413753544
 40
23.85496459340534
 40
27.26665500511368
 40
30.65300899261333
 40
34.90119732638372
 40
38.7228401763899
 40
41.63285502458702
 40
44.71714675299565
 40
46.68974261672382
 40
49.51118396705936
 40
52.84771193670282
 40
57.26302001683131
 40
60.32261489449194
 40
62.5820879450504
 40
63.60468620595967
 40
64.5263859004754
 40
65.47876748352525
 40
66.25703850728073
 40
66.69298633206897
 40
67.00030225984969
 40
67.56468084143816
 40
67.7826547538306
 40
68.21745033220088
 40
68.58028931301317
 40
68.87121874852554
 40
69.3571910662766
 40
69.6680365733235
 40
70.06521938640122
 40
70.59182187430788
 40
70.95216506445526
 40
71.39559329784358
 40
71.75345925573195
 40
72.28373843426935
 40
72.72716666765753
 40
73.17059490104313
 40
73.67260682595288
 40
73.93965906185504
 40
74.2817548909757
 40
74.85700241525291
 40
75.66892483654348
 40
77.89647328592305
 40
79.98383237225123
 40
83.13511486935063
 40
83.53319378272901
 40
83.53319378272901
 40
83.53319378272901
 40
83.53319378272901
 10
1743.409572049646
 20
2445.788438966919
 30
0.0
 10
1743.970862667127
 20
2445.325979996675
 30
0.0
 10
1745.199373331994
 20
2444.313784603925
 30
0.0
 10
1747.206984062773
 20
2442.497684440639
 30
0.0
 10
1749.453529086879
 20
2440.311156931902
 30
0.0
 10
1751.48962090735
 20
2438.120661768715
 30
0.0
 10
1753.316410089062
 20
2435.993627829524
 30
0.0
 10
1754.738274993849
 20
2434.210361417179
 30
0.0
 10
1756.225198899419
 20
2432.215706904332
 30
0.0
 10
1757.61828303715
 20
2430.209441032171
 30
0.0
 10
1759.214307877948
 20
2427.730318697699
 30
0.0
 10
1760.779524829226
 20
2424.996058624403
 30
0.0
 10
1762.481815629964
 20
2421.730003873886
 30
0.0
 10
1764.048367000978
 20
2418.243938926836
 30
0.0
 10
1765.3399584155
 20
2414.817842446368
 30
0.0
 10
1766.368777198077
 20
2411.710798808024
 30
0.0
 10
1767.074322856923
 20
2409.149539294222
 30
0.0
 10
1767.695249736672
 20
2406.59763544025
 30
0.0
 10
1768.23469143921
 20
2403.940887324407
 30
0.0
 10
1768.832690552948
 20
2400.467478317427
 30
0.0
 10
1769.457799869107
 20
2396.918396414137
 30
0.0
 10
1770.016492645522
 20
2393.721844157973
 30
0.0
 10
1770.381924164875
 20
2391.640241716966
 30
0.0
 10
1770.622415173808
 20
2390.258997654872
 30
0.0
 10
1770.792167989309
 20
2389.310550654469
 30
0.0
 10
1770.933263432298
 20
2388.430285951728
 30
0.0
 10
1771.276768040625
 20
2387.781897680552
 30
0.0
 10
1771.596742806551
 20
2387.386583050869
 30
0.0
 10
1771.912654129889
 20
2387.085963774471
 30
0.0
 10
1772.206671696278
 20
2386.866153518536
 30
0.0
 10
1772.574369531853
 20
2386.693520268804
 30
0.0
 10
1772.888026171489
 20
2386.565815252226
 30
0.0
 10
1773.237976562228
 20
2386.464172948042
 30
0.0
 10
1773.615995375134
 20
2386.41973930609
 30
0.0
 10
1773.977232971633
 20
2386.390797949073
 30
0.0
 10
1774.373887955405
 20
2386.357530414523
 30
0.0
 10
1774.782674089715
 20
2386.308416600129
 30
0.0
 10
1775.200827881593
 20
2386.206802501125
 30
0.0
 10
1775.609978057294
 20
2386.03202449985
 30
0.0
 10
1775.941789648451
 20
2385.831134155989
 30
0.0
 10
1776.302946982736
 20
2385.570367508673
 30
0.0
 10
1776.595817252339
 20
2385.232090106908
 30
0.0
 10
1776.86453337579
 20
2384.842368657921
 30
0.0
 10
1777.059970349441
 20
2384.420913096713
 30
0.0
 10
1777.186242636912
 20
2384.0349932149
 30
0.0
 10
1777.24371354481
 20
2383.668221165581
 30
0.0
 10
1777.260185078092
 20
2383.273259790016
 30
0.0
 10
1777.251227191113
 20
2382.696918396775
 30
0.0
 10
1777.253363033673
 20
2381.491974943933
 30
0.0
 10
1777.264590837357
 20
2379.782947356558
 30
0.0
 10
1777.185834864857
 20
2377.294753028642
 30
0.0
 10
1777.246880020752
 20
2375.415844960571
 30
0.0
 10
1777.243939255556
 20
2374.232725373483
 30
0.0
 10
1777.2436094338
 20
2374.100032501398
 30
0.0
 11
1743.409572049646
 21
2445.788438966919
 31
0.0
 11
1745.083469479385
 21
2444.38939310455
 31
0.0
 11
1747.011924591707
 21
2442.655549225887
 31
0.0
 11
1749.405092791165
 21
2440.320061962842
 31
0.0
 11
1751.765132127737
 21
2437.783211024693
 31
0.0
 11
1753.171260767275
 21
2436.145037787639
 31
0.0
 11
1754.909395486912
 21
2433.966896389243
 31
0.0
 11
1756.041485502403
 21
2432.44774518781
 31
0.0
 11
1757.629627794676
 21
2430.164008127053
 31
0.0
 11
1759.059589939963
 21
2427.933499909377
 31
0.0
 11
1760.763915466892
 21
2424.978012476888
 31
0.0
 11
1762.322921610299
 21
2421.971869903178
 31
0.0
 11
1764.063957248737
 21
2418.096834545291
 31
0.0
 11
1765.419377377277
 21
2414.523630052381
 31
0.0
 11
1766.327552737068
 21
2411.758959378938
 31
0.0
 11
1767.154442107606
 21
2408.787577640618
 31
0.0
 11
1767.618229257657
 21
2406.870278519186
 31
0.0
 11
1768.187861334406
 21
2404.106938042422
 31
0.0
 11
1768.773489279651
 21
2400.82220688113
 31
0.0
 11
1769.535076522531
 21
2396.473077047022
 31
0.0
 11
1770.062819634659
 21
2393.459340492011
 31
0.0
 11
1770.452551408685
 21
2391.23373324667
 31
0.0
 11
1770.628937240878
 21
2390.226462061032
 31
0.0
 11
1770.787919290685
 21
2389.318577137317
 31
0.0
 11
1770.997738671637
 21
2388.389595702029
 31
0.0
 11
1771.356857964656
 21
2387.699132727063
 31
0.0
 11
1771.631794806868
 21
2387.360812998504
 31
0.0
 11
1771.853609798271
 21
2387.148113235795
 31
0.0
 11
1772.313279877179
 21
2386.820658503179
 31
0.0
 11
1772.509358625539
 21
2386.725444266191
 31
0.0
 11
1772.913245428378
 21
2386.564439156139
 31
0.0
 11
1773.26314636204
 21
2386.468410709211
 31
0.0
 11
1773.551351753875
 21
2386.428691840083
 31
0.0
 11
1774.035424567775
 21
2386.385766271207
 31
0.0
 11
1774.345055083317
 21
2386.358309521647
 31
0.0
 11
1774.738889561012
 21
2386.306845056401
 31
0.0
 11
1775.249312218839
 21
2386.177311699128
 31
0.0
 11
1775.58088711729
 21
2386.036225550259
 31
0.0
 11
1775.962692420969
 21
2385.810718769322
 31
0.0
 11
1776.248789168775
 21
2385.595738084817
 31
0.0
 11
1776.606162324317
 21
2385.203972293957
 31
0.0
 11
1776.853691001305
 21
2384.836061771908
 31
0.0
 11
1777.044120151872
 21
2384.435605361324
 31
0.0
 11
1777.193533988533
 21
2383.95634397318
 31
0.0
 11
1777.235404996134
 21
2383.692594631147
 31
0.0
 11
1777.254507559087
 21
2383.351032560082
 31
0.0
 11
1777.253829890151
 21
2382.775785434968
 31
0.0
 11
1777.252873406954
 21
2381.963863577069
 31
0.0
 11
1777.250249249019
 21
2379.736316673381
 31
0.0
 11
1777.214838160216
 21
2377.649257975101
 31
0.0
 11
1777.244078389678
 21
2374.49811113855
 31
0.0
 11
1777.2436094338
 21
2374.100032501398
 31
0.0
  0
LINE
  5
394C
330
A
100
AcDbEntity
  8
MODEL
100
AcDbLine
 10
1623.710720593989
 20
2511.27943664391
 30
0.0
 11
1632.083096973761
 21
2511.269573579805
 31
0.0
  0
LINE
  5
394D
330
A
100
AcDbEntity
  8
MODEL
100
AcDbLine
 10
1623.367408241321
 20
2479.279818877699
 30
0.0
 11
1632.626957092253
 21
2479.268910681534
 31
0.0
  0
SPLINE
  5
394E
330
A
100
AcDbEntity
  8
HIDDEN
 48
0.5
100
AcDbSpline
210
0.0
220
0.0
230
1.0
 70
  1064
 71
     3
 72
    76
 73
    72
 74
    70
 42
0.000000001
 43
0.0000000001
 44
0.0
 40
0.0
 40
0.0
 40
0.0
 40
0.0
 40
0.8699984819621361
 40
1.672368215577285
 40
2.698297178395376
 40
3.436685089750054
 40
4.371828940302182
 40
5.301455528569146
 40
6.424750254829124
 40
9.692795139277179
 40
13.06492036044105
 40
59.31727289781389
 40
64.96719174310894
 40
66.7041247871444
 40
69.43669115622195
 40
72.03340624954926
 40
76.20997874965953
 40
79.27047269325544
 40
83.73627183253213
 40
87.70771895645026
 40
90.24318892503261
 40
93.35746234660529
 40
96.45350750935259
 40
98.69662244722998
 40
100.2066877368768
 40
103.3434651335204
 40
104.9975083635779
 40
106.7131273950183
 40
108.3110461903929
 40
110.7611556585802
 40
113.9037164111703
 40
116.0868943184498
 40
118.0048753075618
 40
121.645834731825
 40
125.3662611099467
 40
129.0664477721172
 40
131.9753057074662
 40
134.6009552320297
 40
136.8432022987662
 40
139.3473174993046
 40
141.7502953429203
 40
143.3921777384333
 40
145.2581426941951
 40
147.1696986293323
 40
149.1673363770934
 40
150.8172063010676
 40
151.4106588934419
 40
152.1660984627559
 40
152.7932822505888
 40
153.3026637511366
 40
153.7371056786034
 40
154.0602912614607
 40
154.2799672440206
 40
154.9848165430022
 40
156.1633973611902
 40
157.433693057684
 40
159.6860905833659
 40
161.0349285085851
 40
162.9075561329911
 40
164.4135556514033
 40
166.1553052731805
 40
168.054077643815
 40
169.5600925893761
 40
172.3363260956887
 40
175.0863685743283
 40
178.1769715484723
 40
181.306861064128
 40
183.9520931506259
 40
186.623593400538
 40
188.7058109549313
 40
189.8402696973121
 40
189.8402696973121
 40
189.8402696973121
 40
189.8402696973121
 10
1623.352591717525
 20
2440.781038557048
 30
0.0
 10
1623.371367128599
 20
2440.489882175022
 30
0.0
 10
1623.407458456762
 20
2439.930202257
 30
0.0
 10
1623.744754045878
 20
2439.084447704814
 30
0.0
 10
1624.220739900277
 20
2438.36458005575
 30
0.0
 10
1624.875951665175
 20
2437.739948429155
 30
0.0
 10
1625.621790779206
 20
2437.281560822164
 30
0.0
 10
1626.578061336321
 20
2436.966481259935
 30
0.0
 10
1628.355788587575
 20
2436.858401502776
 30
0.0
 10
1630.926307343468
 20
2436.598208476329
 30
0.0
 10
1648.49858624091
 20
2435.085468071854
 30
0.0
 10
1666.848066965405
 20
2433.479723694098
 30
0.0
 10
1684.645580416076
 20
2431.762684408718
 30
0.0
 10
1688.000921725036
 20
2431.41664485377
 30
0.0
 10
1690.342778884393
 20
2431.164098150513
 30
0.0
 10
1693.490230437003
 20
2430.798474827331
 30
0.0
 10
1696.740650656325
 20
2430.37114897561
 30
0.0
 10
1700.592274020192
 20
2429.750635174072
 30
0.0
 10
1704.346763647558
 20
2428.96355556633
 30
0.0
 10
1707.849989234526
 20
2427.888221940874
 30
0.0
 10
1710.815559927886
 20
2426.659293437261
 30
0.0
 10
1713.401488598063
 20
2425.302169436864
 30
0.0
 10
1715.755421034439
 20
2423.744465784342
 30
0.0
 10
1717.543407475768
 20
2422.320941694484
 30
0.0
 10
1719.244118283277
 20
2420.777050170047
 30
0.0
 10
1720.676398771007
 20
2419.228904835267
 30
0.0
 10
1721.930878406336
 20
2417.455752906556
 30
0.0
 10
1722.744106147807
 20
2416.009805071175
 30
0.0
 10
1723.52630152994
 20
2414.252807383955
 30
0.0
 10
1724.301120594751
 20
2411.981050053971
 30
0.0
 10
1724.947688399033
 20
2409.4693970118
 30
0.0
 10
1725.465775222504
 20
2407.11097033462
 30
0.0
 10
1725.973287874509
 20
2404.580560882441
 30
0.0
 10
1726.533919784903
 20
2401.538484366189
 30
0.0
 10
1727.154918404113
 20
2397.904069076082
 30
0.0
 10
1727.755034899845
 20
2394.513178074999
 30
0.0
 10
1728.173614140903
 20
2391.462979381131
 30
0.0
 10
1728.862781901138
 20
2388.947616934968
 30
0.0
 10
1730.030334633137
 20
2386.760703540208
 30
0.0
 10
1731.581369923103
 20
2384.942282561373
 30
0.0
 10
1732.97727166123
 20
2383.266131887259
 30
0.0
 10
1734.242919550343
 20
2381.75571340676
 30
0.0
 10
1735.402295431938
 20
2380.370485177998
 30
0.0
 10
1736.637665323755
 20
2378.894054966295
 30
0.0
 10
1737.828422927133
 20
2377.47435851632
 30
0.0
 10
1738.732424746737
 20
2376.387319923645
 30
0.0
 10
1739.379527987301
 20
2375.625746080142
 30
0.0
 10
1739.784432164386
 20
2375.104629540012
 30
0.0
 10
1740.262112174595
 20
2374.685384934211
 30
0.0
 10
1740.718721559963
 20
2374.423666588507
 30
0.0
 10
1741.114525800681
 20
2374.272148902263
 30
0.0
 10
1741.431657837141
 20
2374.195176028446
 30
0.0
 10
1741.843501803847
 20
2374.133115987299
 30
0.0
 10
1742.547106001689
 20
2374.146536673054
 30
0.0
 10
1743.596982603552
 20
2374.137731690858
 30
0.0
 10
1745.164606198387
 20
2374.13884285976
 30
0.0
 10
1746.788230904764
 20
2374.135721763272
 30
0.0
 10
1748.612895032607
 20
2374.133818292558
 30
0.0
 10
1750.18870281323
 20
2374.131890840717
 30
0.0
 10
1751.895497047054
 20
2374.129897698428
 30
0.0
 10
1753.611002103647
 20
2374.127871629891
 30
0.0
 10
1755.326513493183
 20
2374.125852156842
 30
0.0
 10
1757.386852269203
 20
2374.12342459835
 30
0.0
 10
1759.730947648887
 20
2374.120663303797
 30
0.0
 10
1762.603238632714
 20
2374.117279553706
 30
0.0
 10
1765.593414883484
 20
2374.113756997266
 30
0.0
 10
1768.548654357507
 20
2374.110275578019
 30
0.0
 10
1771.364193021341
 20
2374.106958738349
 30
0.0
 10
1773.830507940192
 20
2374.104053299911
 30
0.0
 10
1775.793232093831
 20
2374.101741116022
 30
0.0
 10
1776.865456782073
 20
2374.100477983503
 30
0.0
 10
1777.2436094338
 20
2374.100032501398
 30
0.0
 11
1623.352591717525
 21
2440.781038557048
 31
0.0
 11
1623.455725799624
 21
2439.917174725344
 31
0.0
 11
1623.738092698296
 21
2439.166131368436
 31
0.0
 11
1624.308230130453
 21
2438.313210771192
 31
0.0
 11
1624.842462611795
 21
2437.803492845753
 31
0.0
 11
1625.639089459662
 21
2437.313717707059
 31
0.0
 11
1626.522004072437
 21
2437.022741109785
 31
0.0
 11
1627.638370320326
 21
2436.898172082262
 31
0.0
 11
1630.893649805357
 21
2436.609601742304
 31
0.0
 11
1634.252595090933
 21
2436.311750981493
 31
0.0
 11
1680.319869006509
 21
2432.178182398692
 31
0.0
 11
1685.942934545285
 21
2431.627985247618
 31
0.0
 11
1687.670688130385
 21
2431.449648631535
 31
0.0
 11
1690.387368640716
 21
2431.155427683603
 31
0.0
 11
1692.966561168669
 21
2430.854271279611
 31
0.0
 11
1697.106136685154
 21
2430.299589035444
 31
0.0
 11
1700.126556389982
 21
2429.805941402537
 31
0.0
 11
1704.490994972726
 21
2428.859877023216
 31
0.0
 11
1708.2817042009
 21
2427.675429554768
 31
0.0
 11
1710.622866266015
 21
2426.701998434221
 31
0.0
 11
1713.379988367005
 21
2425.253904285159
 31
0.0
 11
1715.961671661115
 21
2423.544984445411
 31
0.0
 11
1717.715719075643
 21
2422.146813392887
 31
0.0
 11
1718.833000890915
 21
2421.130949955087
 31
0.0
 11
1720.942572194599
 21
2418.809510455387
 31
0.0
 11
1721.895380605205
 21
2417.457469354097
 31
0.0
 11
1722.738507004786
 21
2415.963318580122
 31
0.0
 11
1723.393014736531
 21
2414.505592918107
 31
0.0
 11
1724.200096630831
 21
2412.192228437098
 31
0.0
 11
1725.005898600532
 21
2409.154734195236
 31
0.0
 11
1725.477804459993
 21
2407.023168893717
 31
0.0
 11
1725.856944710264
 21
2405.143034923698
 31
0.0
 11
1726.521416724545
 21
2401.563221734247
 31
0.0
 11
1727.15970564721
 21
2397.897957802928
 31
0.0
 11
1727.774553192276
 21
2394.249212288202
 31
0.0
 11
1728.252638427079
 21
2391.379911154423
 31
0.0
 11
1728.995550864993
 21
2388.86155523529
 31
0.0
 11
1730.050903979542
 21
2386.883196897703
 31
0.0
 11
1731.598455690078
 21
2384.914523069771
 31
0.0
 11
1733.140890466969
 21
2383.07191690568
 31
0.0
 11
1734.194789700012
 21
2381.812919603345
 31
0.0
 11
1735.392524106042
 21
2380.382095537031
 31
0.0
 11
1736.619522665418
 21
2378.916312255489
 31
0.0
 11
1737.901775825581
 21
2377.384521341385
 31
0.0
 11
1738.960802131149
 21
2376.119399193073
 31
0.0
 11
1739.341730286332
 21
2375.664339065195
 31
0.0
 11
1739.83034698984
 21
2375.088194413273
 31
0.0
 11
1740.30506610345
 21
2374.678314837185
 31
0.0
 11
1740.746480566418
 21
2374.424104717436
 31
0.0
 11
1741.15229689753
 21
2374.269014763719
 31
0.0
 11
1741.466320519564
 21
2374.19260739646
 31
0.0
 11
1741.683589553606
 21
2374.160177407867
 31
0.0
 11
1742.388180465627
 21
2374.141093881672
 31
0.0
 11
1743.566760466
 21
2374.139705457457
 31
0.0
 11
1744.837055281038
 21
2374.138208988757
 31
0.0
 11
1747.089451243785
 21
2374.135555557429
 31
0.0
 11
1748.438288233048
 21
2374.133966562253
 31
0.0
 11
1750.310914558041
 21
2374.131760517917
 31
0.0
 11
1751.816913031443
 21
2374.129986378915
 31
0.0
 11
1753.558661444623
 21
2374.127934515084
 31
0.0
 11
1755.457432497703
 21
2374.125697670996
 31
0.0
 11
1756.963446398243
 21
2374.123923513818
 31
0.0
 11
1759.739677978132
 21
2374.120652978812
 31
0.0
 11
1762.489718548522
 21
2374.11741329808
 31
0.0
 11
1765.580319378102
 21
2374.1137724209
 31
0.0
 11
1768.710206721933
 21
2374.110085262307
 31
0.0
 11
1771.355436972909
 21
2374.106969053199
 31
0.0
 11
1774.026935369072
 21
2374.103821898945
 31
0.0
 11
1776.109151478618
 21
2374.10136894771
 31
0.0
 11
1777.2436094338
 21
2374.100032501398
 31
0.0
  0
SPLINE
  5
394F
330
A
100
AcDbEntity
  8
HIDDEN
 48
0.5
100
AcDbSpline
210
0.0
220
0.0
230
1.0
 70
  1064
 71
     3
 72
   115
 73
   111
 74
   109
 42
0.000000001
 43
0.0000000001
 44
0.0
 40
0.0
 40
0.0
 40
0.0
 40
0.0
 40
1.238519853191691
 40
2.753480723600244
 40
4.697681517061768
 40
6.626118664189982
 40
9.033299480931134
 40
11.75278478249932
 40
14.46682092119783
 40
16.97959824418803
 40
20.00908945355718
 40
21.73848426254336
 40
24.5406599361629
 40
28.46434622185159
 40
31.91308499197232
 40
35.48788630809106
 40
40.66251397919741
 40
46.63947757179997
 40
52.54204007846676
 40
57.38234100219982
 40
63.51884155407424
 40
67.4124711471395
 40
73.44491016545757
 40
76.89606337634453
 40
81.42515697834811
 40
86.203395665907
 40
91.31086527315901
 40
96.9271447305405
 40
99.79564326263356
 40
103.8287110517651
 40
107.1449350887358
 40
109.1551790690717
 40
114.4272007459506
 40
117.6234751242956
 40
119.8798248934955
 40
123.8953047411026
 40
126.6120912053288
 40
128.983913416517
 40
134.1128805108794
 40
137.4023645947807
 40
141.6464696675523
 40
146.292111054398
 40
149.3336799653933
 40
154.4213682144171
 40
160.1118058169543
 40
164.9022949377411
 40
171.1126177124881
 40
178.734196319822
 40
186.5455533985999
 40
193.5221117014502
 40
199.4030800482431
 40
203.8000153087152
 40
215.2795763937162
 40
228.9657337137479
 40
238.985090199926
 40
246.433071314582
 40
252.3900029452163
 40
259.0087025230351
 40
264.3722021969946
 40
265.2601762230017
 40
266.3698421556851
 40
266.9948183628711
 40
267.3768103820249
 40
267.7560326174611
 40
268.0387322309516
 40
268.622213993487
 40
269.5399415241111
 40
269.9869865567888
 40
270.6090353751217
 40
271.5130108655399
 40
272.0534367848542
 40
272.7933674673963
 40
274.0130316554769
 40
275.1187420327986
 40
276.9465436778862
 40
278.1722901198641
 40
279.61579961556
 40
281.3629590614631
 40
282.5871131261347
 40
283.9836982303209
 40
285.895326829205
 40
286.3979321402978
 40
287.1257998126288
 40
287.4683524391639
 40
288.0382327439665
 40
288.2738629594184
 40
288.4336705436305
 40
288.7330334005122
 40
289.1443438621595
 40
289.4403849687149
 40
289.8595062522102
 40
290.8024202736355
 40
292.258666095757
 40
293.4738680712445
 40
295.6215199988063
 40
297.7796853625953
 40
300.1159373728494
 40
301.6769226222294
 40
305.2074854944245
 40
307.3566811927616
 40
309.3246903613657
 40
310.7076136477179
 40
313.6724503221517
 40
314.6153273184214
 40
316.5953813523075
 40
318.1458655071796
 40
319.6754215233517
 40
321.9907330531843
 40
323.7298049490303
 40
324.9714964574328
 40
324.9714964574328
 40
324.9714964574328
 40
324.9714964574328
 10
1622.928935930804
 20
2095.259549372283
 30
0.0
 10
1622.937558911898
 20
2095.673171302312
 30
0.0
 10
1622.956729547039
 20
2096.592736707951
 30
0.0
 10
1623.306568259143
 20
2098.128088306121
 30
0.0
 10
1623.888324517141
 20
2099.829666484318
 30
0.0
 10
1624.806701905582
 20
2101.716335465514
 30
0.0
 10
1626.067838763815
 20
2103.707101915346
 30
0.0
 10
1627.707788894978
 20
2105.748823414468
 30
0.0
 10
1629.561085685295
 20
2107.645880974947
 30
0.0
 10
1631.629677684039
 20
2109.46400990409
 30
0.0
 10
1633.555339911319
 20
2110.939307074006
 30
0.0
 10
1635.625150870903
 20
2112.37788082582
 30
0.0
 10
1638.001288166434
 20
2113.895471047003
 30
0.0
 10
1640.943933914388
 20
2115.584451823467
 30
0.0
 10
1644.177778326288
 20
2117.276225203781
 30
0.0
 10
1647.833712261736
 20
2119.056839875824
 30
0.0
 10
1652.303150427424
 20
2121.088072445414
 30
0.0
 10
1657.525479237953
 20
2123.334221855461
 30
0.0
 10
1662.662132468102
 20
2125.496665746587
 30
0.0
 10
1667.839533958726
 20
2127.699263215114
 30
0.0
 10
1672.376659052347
 20
2129.696420449021
 30
0.0
 10
1677.229923837185
 20
2131.958122485367
 30
0.0
 10
1681.219303302636
 20
2133.953276145734
 30
0.0
 10
1685.318558355578
 20
2136.193479290249
 30
0.0
 10
1688.976565069974
 20
2138.365444230503
 30
0.0
 10
1692.984023605582
 20
2141.020806972971
 30
0.0
 10
1697.112662680389
 20
2144.134233734665
 30
0.0
 10
1700.516938488258
 20
2147.133423068201
 30
0.0
 10
1703.452464634005
 20
2150.100549770681
 30
0.0
 10
1705.702989096899
 20
2152.661159085827
 30
0.0
 10
1707.602178285902
 20
2155.138985936605
 30
0.0
 10
1709.60825125274
 20
2158.047622607624
 30
0.0
 10
1711.390059442506
 20
2161.059930677087
 30
0.0
 10
1712.961159866986
 20
2164.273003093936
 30
0.0
 10
1714.208919465455
 20
2167.172693223121
 30
0.0
 10
1715.24718015504
 20
2169.985714602143
 30
0.0
 10
1716.155588134231
 20
2172.881898031168
 30
0.0
 10
1717.065387888735
 20
2176.164469695196
 30
0.0
 10
1717.873343634787
 20
2179.67133139076
 30
0.0
 10
1718.667034944887
 20
2183.817206726104
 30
0.0
 10
1719.320363687077
 20
2187.824611900909
 30
0.0
 10
1719.864291946031
 20
2191.764662014456
 30
0.0
 10
1720.379136989313
 20
2195.991801770014
 30
0.0
 10
1720.872024577654
 20
2200.572111077418
 30
0.0
 10
1721.361518553665
 20
2205.738615927264
 30
0.0
 10
1721.836836567773
 20
2211.282066776581
 30
0.0
 10
1722.325449340143
 20
2217.470314143258
 30
0.0
 10
1722.851516498308
 20
2224.665558698854
 30
0.0
 10
1723.366559935776
 20
2232.11762425437
 30
0.0
 10
1723.824923745755
 20
2238.991991990065
 30
0.0
 10
1724.198721498754
 20
2244.731320825805
 30
0.0
 10
1724.664344002792
 20
2251.968847007688
 30
0.0
 10
1725.288850286622
 20
2261.803257833912
 30
0.0
 10
1726.023173103422
 20
2273.508605858328
 30
0.0
 10
1726.670844758438
 20
2283.872886633933
 30
0.0
 10
1727.157371606555
 20
2291.665804954086
 30
0.0
 10
1727.572508381763
 20
2298.327416276878
 30
0.0
 10
1727.945957133272
 20
2304.295466669282
 30
0.0
 10
1728.209724399087
 20
2308.577379545319
 30
0.0
 10
1728.365662320043
 20
2311.026165707165
 30
0.0
 10
1728.413937882725
 20
2311.899000927514
 30
0.0
 10
1728.470952563054
 20
2312.602484728779
 30
0.0
 10
1728.531640078897
 20
2313.06065704056
 30
0.0
 10
1728.587633979512
 20
2313.404144403022
 30
0.0
 10
1728.66589785995
 20
2313.81187247108
 30
0.0
 10
1728.798971764755
 20
2314.39164684293
 30
0.0
 10
1728.983786723495
 20
2315.014980237366
 30
0.0
 10
1729.207864312895
 20
2315.638318637593
 30
0.0
 10
1729.457815291142
 20
2316.246959855646
 30
0.0
 10
1729.759669583606
 20
2316.866960761975
 30
0.0
 10
1730.117656564748
 20
2317.501162719519
 30
0.0
 10
1730.563948164412
 20
2318.205768845236
 30
0.0
 10
1731.190998676364
 20
2319.014448045436
 30
0.0
 10
1732.091961662388
 20
2320.065318908274
 30
0.0
 10
1732.980681298945
 20
2321.129557957894
 30
0.0
 10
1733.946387446564
 20
2322.276037023957
 30
0.0
 10
1734.893751535187
 20
2323.402850574495
 30
0.0
 10
1735.84111471279
 20
2324.528962515274
 30
0.0
 10
1736.778194286659
 20
2325.643286403657
 30
0.0
 10
1737.751100592476
 20
2326.799119502612
 30
0.0
 10
1738.567145056612
 20
2327.772581748258
 30
0.0
 10
1739.243853663834
 20
2328.572023296793
 30
0.0
 10
1739.574319085189
 20
2328.979131990036
 30
0.0
 10
1739.943800451761
 20
2329.383045118503
 30
0.0
 10
1740.249587381954
 20
2329.618466436234
 30
0.0
 10
1740.52759054666
 20
2329.780783967072
 30
0.0
 10
1740.735054493102
 20
2329.883986447863
 30
0.0
 10
1741.00436985836
 20
2329.993325818025
 30
0.0
 10
1741.329178584546
 20
2330.081561523921
 30
0.0
 10
1741.701121983194
 20
2330.138946216903
 30
0.0
 10
1742.254843633322
 20
2330.143374649699
 30
0.0
 10
1743.193587879177
 20
2330.13890356909
 30
0.0
 10
1744.398681795636
 20
2330.139000785225
 30
0.0
 10
1746.004956299864
 20
2330.136659806062
 30
0.0
 10
1747.845333258817
 20
2330.134681586471
 30
0.0
 10
1750.05934246451
 20
2330.132012408779
 30
0.0
 10
1752.07781191501
 20
2330.129650883118
 30
0.0
 10
1754.553742820324
 20
2330.126730397563
 30
0.0
 10
1756.967322744454
 20
2330.123888690029
 30
0.0
 10
1759.516576822266
 20
2330.12088521837
 30
0.0
 10
1761.349951613709
 20
2330.118725476011
 30
0.0
 10
1763.455206526543
 20
2330.116245370163
 30
0.0
 10
1765.218750956252
 20
2330.114167834898
 30
0.0
 10
1767.181338829153
 20
2330.111855810884
 30
0.0
 10
1768.672476189503
 20
2330.110099179188
 30
0.0
 10
1770.359173087407
 20
2330.108112168655
 30
0.0
 10
1772.157622406427
 20
2330.105993508433
 30
0.0
 10
1774.018934262147
 20
2330.103800793085
 30
0.0
 10
1775.784291348528
 20
2330.101721117095
 30
0.0
 10
1776.777878460496
 20
2330.100550623448
 30
0.0
 10
1777.191775342761
 20
2330.100063032913
 30
0.0
 11
1622.928935930804
 21
2095.259549372283
 31
0.0
 11
1622.992412877985
 21
2096.496441487193
 31
0.0
 11
1623.296836048569
 21
2097.980501112707
 31
0.0
 11
1623.92737262945
 21
2099.81961512371
 31
0.0
 11
1624.764576799107
 21
2101.556842514909
 31
0.0
 11
1626.046376659302
 21
2103.594367632028
 31
0.0
 11
1627.741689235317
 21
2105.720753197971
 31
0.0
 11
1629.632432355096
 21
2107.667823463054
 31
0.0
 11
1631.51647413166
 21
2109.330482916789
 31
0.0
 11
1633.916847647033
 21
2111.178731810835
 31
0.0
 11
1635.336285265714
 21
2112.166660579533
 31
0.0
 11
1637.695677334979
 21
2113.678433568217
 31
0.0
 11
1641.094218217029
 21
2115.639360374994
 31
0.0
 11
1644.147835405847
 21
2117.242239399964
 31
0.0
 11
1647.359756419044
 21
2118.811560225897
 31
0.0
 11
1652.066178239085
 21
2120.962458918635
 31
0.0
 11
1657.551266368927
 21
2123.336885585257
 31
0.0
 11
1662.986891799627
 21
2125.637802863699
 31
0.0
 11
1667.43849528692
 21
2127.538260551787
 31
0.0
 11
1673.04985826541
 21
2130.022056949801
 31
0.0
 11
1676.577692198514
 21
2131.669703498195
 31
0.0
 11
1681.967292445623
 21
2134.379413756892
 31
0.0
 11
1684.994521884274
 21
2136.036622377066
 31
0.0
 11
1688.885954325287
 21
2138.353828110863
 31
0.0
 11
1692.865517846993
 21
2140.998566119058
 31
0.0
 11
1696.938540618611
 21
2144.080242820285
 31
0.0
 11
1701.145845450882
 21
2147.800616590722
 31
0.0
 11
1703.162373163569
 21
2149.840690072875
 31
0.0
 11
1705.822499217266
 21
2152.872086643793
 31
0.0
 11
1707.839027896891
 21
2155.504757141146
 31
0.0
 11
1708.980190565509
 21
2157.159697812055
 31
0.0
 11
1711.665735009209
 21
2161.696443738641
 31
0.0
 11
1713.071294769647
 21
2164.567083329656
 31
0.0
 11
1713.963878596125
 21
2166.639378770388
 31
0.0
 11
1715.359520459272
 21
2170.40451650975
 31
0.0
 11
1716.174434064221
 21
2172.996204089045
 31
0.0
 11
1716.809261218673
 21
2175.281490741843
 31
0.0
 11
1717.972964025667
 21
2180.276698368363
 31
0.0
 11
1718.594218570196
 21
2183.506984474754
 31
0.0
 11
1719.282503941968
 21
2187.694906527005
 31
0.0
 11
1719.922575551861
 21
2192.296242444908
 31
0.0
 11
1720.291400251002
 21
2195.315366453894
 31
0.0
 11
1720.840381632955
 21
2200.373349368211
 31
0.0
 11
1721.380656562116
 21
2206.038080880762
 31
0.0
 11
1721.791732745848
 21
2210.810900004461
 31
0.0
 11
1722.283034856281
 21
2217.001758685034
 31
0.0
 11
1722.841923962277
 21
2224.602818047713
 31
0.0
 11
1723.382417543492
 21
2232.395453423556
 31
0.0
 11
1723.847279341011
 21
2239.3565071701
 31
0.0
 11
1724.229985505673
 21
2245.225009933796
 31
0.0
 11
1724.512435874262
 21
2249.612863791215
 31
0.0
 11
1725.240903368942
 21
2261.06928809435
 31
0.0
 11
1726.09906346003
 21
2274.728514406507
 31
0.0
 11
1726.724190850016
 21
2284.728350412333
 31
0.0
 11
1727.188184409584
 21
2292.161864565205
 31
0.0
 11
1727.55902874694
 21
2298.107241670949
 31
0.0
 11
1727.970906100314
 21
2304.713113388383
 31
0.0
 11
1728.304620617699
 21
2310.066221212204
 31
0.0
 11
1728.359870075131
 21
2310.95247476978
 31
0.0
 11
1728.428914240412
 21
2312.059990632149
 31
0.0
 11
1728.484031200935
 21
2312.682531699237
 31
0.0
 11
1728.53365109875
 21
2313.06128725159
 31
0.0
 11
1728.594810913661
 21
2313.435545158506
 31
0.0
 11
1728.648080605171
 21
2313.713180551484
 31
0.0
 11
1728.778633890131
 21
2314.281869224659
 31
0.0
 11
1729.039495331136
 21
2315.161741447804
 31
0.0
 11
1729.190725295335
 21
2315.582429882599
 31
0.0
 11
1729.427017702203
 21
2316.157852015338
 31
0.0
 11
1729.822853350081
 21
2316.970554806736
 31
0.0
 11
1730.088296478295
 21
2317.441299025979
 31
0.0
 11
1730.485586278482
 21
2318.065525130555
 31
0.0
 11
1731.222222589557
 21
2319.037609322841
 31
0.0
 11
1731.93395686051
 21
2319.88379474346
 31
0.0
 11
1733.110493771078
 21
2321.282586991028
 31
0.0
 11
1733.899494008526
 21
2322.220634412712
 31
0.0
 11
1734.828666059009
 21
2323.325332998194
 31
0.0
 11
1735.953294424607
 21
2324.662410845105
 31
0.0
 11
1736.741269665343
 21
2325.599239641652
 31
0.0
 11
1737.640236973004
 21
2326.668027615476
 31
0.0
 11
1738.870732421966
 21
2328.130971513975
 31
0.0
 11
1739.19425423383
 21
2328.51560866245
 31
0.0
 11
1739.66277508499
 21
2329.072636094856
 31
0.0
 11
1739.897879748207
 21
2329.321770795931
 31
0.0
 11
1740.34734013427
 21
2329.672126219982
 31
0.0
 11
1740.550915613617
 21
2329.790779591795
 31
0.0
 11
1740.693984232095
 21
2329.861982361253
 31
0.0
 11
1740.971406298025
 21
2329.974477327432
 31
0.0
 11
1741.368173102283
 21
2330.082885809108
 31
0.0
 11
1741.660944887416
 21
2330.126760843018
 31
0.0
 11
1742.079809501686
 21
2330.141426626024
 31
0.0
 11
1743.022722868825
 21
2330.140315828497
 31
0.0
 11
1744.47896768046
 21
2330.138600301712
 31
0.0
 11
1745.694168812721
 21
2330.137168736034
 31
0.0
 11
1747.841819250031
 21
2330.134638699999
 31
0.0
 11
1749.999983116273
 21
2330.132096278637
 31
0.0
 11
1752.336233505406
 21
2330.129344062741
 31
0.0
 11
1753.897217671621
 21
2330.127505147934
 31
0.0
 11
1757.427778093965
 21
2330.123345977086
 31
0.0
 11
1759.576972300979
 21
2330.120814122414
 31
0.0
 11
1761.544980103985
 21
2330.118495714087
 31
0.0
 11
1762.927902430729
 21
2330.116866564735
 31
0.0
 11
1765.892737047868
 21
2330.113373846232
 31
0.0
 11
1766.835613389877
 21
2330.11226309232
 31
0.0
 11
1768.815666049807
 21
2330.109930494569
 31
0.0
 11
1770.366149128801
 21
2330.108103950551
 31
0.0
 11
1771.895704083617
 21
2330.106302060874
 31
0.0
 11
1774.211014006859
 21
2330.10357451386
 31
0.0
 11
1775.950084695966
 21
2330.101525804518
 31
0.0
 11
1777.191775342761
 21
2330.100063032913
 31
0.0
  0
DIMENSION
  5
3950
102
{ACAD_REACTORS
330
3952
102
}
102
{ACAD_XDICTIONARY
360
3951
102
}
330
A
100
AcDbEntity
  8
DIM
100
AcDbDimension
  2
*D21
 10
1742.922186063315
 20
2003.425568289635
 30
0.0
 11
1682.919984899372
 21
2035.430069977768
 31
0.0
 70
    32
 71
     5
 42
120.0044023278851
 73
     0
 74
     0
 75
     0
  3
tfrom線あり
100
AcDbAlignedDimension
 13
1622.91778373543
 23
2097.609818454832
 33
0.0
 14
1742.922186063315
 24
2101.276102671275
 34
0.0
100
AcDbRotatedDimension
  0
DIMENSION
  5
3953
102
{ACAD_REACTORS
330
3955
102
}
102
{ACAD_XDICTIONARY
360
3954
102
}
330
A
100
AcDbEntity
  8
DIM
100
AcDbDimension
  2
*D22
 10
1540.26764461113
 20
2497.254989067866
 30
0.0
 11
1508.263142922997
 21
2529.766388146234
 31
0.0
 70
    32
 71
     5
 42
65.02279815673774
 73
     0
 74
     1
 75
     1
  3
tfrom線あり
100
AcDbAlignedDimension
 13
1626.46518714689
 23
2562.277787224603
 33
0.0
 14
1626.46518714689
 24
2497.254989067866
 34
0.0
 50
90.0
100
AcDbRotatedDimension
1001
ACAD
1000
DSTYLE
1002
{
1070
   172
1070
     1
1002
}
  0
DIMENSION
  5
3956
102
{ACAD_REACTORS
330
3958
102
}
102
{ACAD_XDICTIONARY
360
3957
102
}
330
A
100
AcDbEntity
  8
DIM
100
AcDbDimension
  2
*D23
 10
1623.225464776762
 20
2353.423187608293
 30
0.0
 11
1530.382211056617
 21
2353.423187608293
 31
0.0
 70
   160
 71
     5
 42
105.0845451302291
 73
     0
 74
     1
 75
     1
  3
tfrom線あり
100
AcDbAlignedDimension
 13
1728.310009906991
 23
2388.664644896562
 33
0.0
 14
1623.225464776762
 24
2358.788439570626
 34
0.0
100
AcDbRotatedDimension
1001
ACAD
1000
DSTYLE
1002
{
1070
     3
1000
深さ<>
1070
   172
1070
     1
1070
    76
1070
     1
1070
    75
1070
     1
1070
   174
1070
     0
1070
   175
1070
     1
1002
}
  0
DIMENSION
  5
3959
102
{ACAD_REACTORS
330
395B
102
}
102
{ACAD_XDICTIONARY
360
395A
102
}
330
A
100
AcDbEntity
  8
DIM
100
AcDbDimension
  2
*D24
 10
1888.828249984852
 20
2352.100047767154
 30
0.0
 11
1856.823748296719
 21
2457.121768787027
 31
0.0
 70
    32
 71
     5
 42
210.0434420397451
 73
     0
 74
     0
 75
     0
  3
tfrom線あり
100
AcDbAlignedDimension
 13
1740.465108042492
 23
2562.143489806899
 33
0.0
 14
1777.21769238828
 24
2352.100047767154
 34
0.0
 50
90.0
100
AcDbRotatedDimension
  0
MTEXT
  5
395C
330
A
100
AcDbEntity
  8
notes
 62
     7
390
1D
100
AcDbMText
 10
1101.451474801404
 20
1982.658650110946
 30
0.0
 40
24.4326171875
 41
764.7717154610109
 46
0.0
 71
     1
 72
     1
  1
※陶器製品には寸法公差があります。\P  洗面器の収め方をご確認の上、必ず現物を合わせて\P  カウンターに切込を行ってください。
  7
ＭＳ ゴシック
 11
0.0
 21
1.0
 31
0.0
 73
     1
 44
1.043768984567712
  0
ARC
  5
3962
330
A
100
AcDbEntity
  8
HIDDEN
100
AcDbCircle
 10
678.1110491455845
 20
1147.50111568373
 30
0.0
 40
22.5
100
AcDbArc
 50
180.0000000002131
 51
359.9999999997962
  0
ARC
  5
3963
330
A
100
AcDbEntity
  8
HIDDEN
100
AcDbCircle
 10
678.1110491455845
 20
1147.50111568373
 30
0.0
 40
37.5
100
AcDbArc
 50
180.0000000002112
 51
359.9999999997943
  0
LINE
  5
3964
330
A
100
AcDbEntity
  8
MODEL
100
AcDbLine
 10
1743.240167666938
 20
1391.512304247634
 30
0.0
 11
1743.240167666938
 21
1392.51169519643
 31
0.0
  0
LINE
  5
3965
330
A
100
AcDbEntity
  8
MODEL
100
AcDbLine
 10
1740.292524886251
 20
1395.511238281906
 30
0.0
 11
1626.292524886251
 21
1397.501115683729
 31
0.0
  0
LINE
  5
3966
330
A
100
AcDbEntity
  8
MODEL
100
AcDbLine
 10
1623.240167666938
 20
1394.501572598267
 30
0.0
 11
1623.240167666938
 21
1393.502181649441
 31
0.0
  0
LINE
  5
3967
330
A
100
AcDbEntity
  8
MODEL
100
AcDbLine
 10
1623.240167666938
 20
1393.502181649441
 30
0.0
 11
1623.240167666937
 21
1199.370738898632
 31
0.0
  0
LINE
  5
3968
330
A
100
AcDbEntity
  8
MODEL
100
AcDbLine
 10
1623.240167666937
 20
1199.370738898632
 30
0.0
 11
1623.240167666937
 21
1147.450295810164
 31
0.0
  0
LINE
  5
3969
102
{ACAD_REACTORS
330
3989
102
}
330
A
100
AcDbEntity
  8
MODEL
100
AcDbLine
 10
1777.240167666937
 20
1178.701302288127
 30
0.0
 11
1777.240167666937
 21
1147.450295810164
 31
0.0
  0
LINE
  5
396A
330
A
100
AcDbEntity
  8
MODEL
100
AcDbLine
 10
1774.50163489518
 20
1181.689886382401
 30
0.0
 11
1774.50163489518
 21
1147.450295810164
 31
0.0
  0
LINE
  5
396B
330
A
100
AcDbEntity
  8
MODEL
100
AcDbLine
 10
1747.126530089201
 20
1184.084897715756
 30
0.0
 11
1774.50163489518
 21
1181.689886382401
 31
0.0
  0
LINE
  5
396C
330
A
100
AcDbEntity
  8
MODEL
100
AcDbLine
 10
1743.240167666937
 20
1147.450295810164
 30
0.0
 11
1743.240167666937
 21
1199.370738898633
 31
0.0
  0
LINE
  5
396D
330
A
100
AcDbEntity
  8
MODEL
100
AcDbLine
 10
1743.240167666937
 20
1199.370738898633
 30
0.0
 11
1743.240167666938
 21
1392.51169519643
 31
0.0
  0
ARC
  5
396E
330
A
100
AcDbEntity
  8
MODEL
100
AcDbCircle
 10
1740.240167666938
 20
1392.51169519643
 30
0.0
 40
3.0
100
AcDbArc
 50
0.0
 51
89.00000000000692
  0
ARC
  5
396F
102
{ACAD_REACTORS
330
3979
102
}
330
A
100
AcDbEntity
  8
MODEL
100
AcDbCircle
 10
1626.240167666938
 20
1394.501572598267
 30
0.0
 40
3.0
100
AcDbArc
 50
89.00000000000692
 51
180.0
  0
ARC
  5
3970
330
A
100
AcDbEntity
  8
MODEL
100
AcDbCircle
 10
1774.240167666937
 20
1178.701302288127
 30
0.0
 40
3.0
100
AcDbArc
 50
0.0
 51
85.00000000000882
  0
SPLINE
  5
3971
330
A
100
AcDbEntity
  8
MODEL
100
AcDbSpline
210
0.0
220
0.0
230
1.0
 70
     8
 71
     3
 72
    12
 73
     8
 74
     0
 42
0.000000001
 43
0.0000000001
 40
0.0
 40
0.0
 40
0.0
 40
0.0
 40
0.3302631184266158
 40
0.3302631184266158
 40
0.665131559213308
 40
0.665131559213308
 40
1.0
 40
1.0
 40
1.0
 40
1.0
 10
1743.165738491506
 20
1185.550390545569
 30
0.0
 10
1743.548257871106
 20
1185.276445331676
 30
0.0
 10
1743.954997608231
 20
1185.036331725333
 30
0.0
 10
1744.810245995741
 20
1184.628398423984
 30
0.0
 10
1745.259243321071
 20
1184.461640515042
 30
0.0
 10
1746.179761501302
 20
1184.210678102984
 30
0.0
 10
1746.651266666024
 20
1184.126477877461
 30
0.0
 10
1747.126508927624
 20
1184.08489956714
 30
0.0
  0
CIRCLE
  5
3972
102
{ACAD_REACTORS
330
3976
102
}
330
A
100
AcDbEntity
  8
ADF70-0001
  6
STYLE_23
 62
     7
370
    15
390
1D
100
AcDbCircle
 10
1668.240167666938
 20
1287.450295810164
 30
0.0
 40
10.0
  0
LINE
  5
3973
330
A
100
AcDbEntity
  8
0
  6
STYLE_23
 62
     7
370
    15
390
1D
100
AcDbLine
 10
1653.271247597895
 20
1287.674140630341
 30
0.0
 11
1683.271247597894
 21
1287.674140630341
 31
0.0
  0
DIMENSION
  5
3974
102
{ACAD_REACTORS
330
3976
102
}
102
{ACAD_XDICTIONARY
360
3975
102
}
330
A
100
AcDbEntity
  8
DIM
100
AcDbDimension
  2
*D27
 10
1537.82599461004
 20
1007.226450989987
 30
0.0
 11
1505.821492921907
 21
1147.338373400076
 31
0.0
 70
    32
 71
     5
 42
280.2238448201775
 73
     0
 74
     0
 75
     0
  3
tfrom線あり
100
AcDbAlignedDimension
 13
1668.240167666938
 23
1287.450295810164
 33
0.0
 14
1668.271247597894
 24
1007.226450989987
 34
0.0
 50
90.0
100
AcDbRotatedDimension
  0
DIMENSION
  5
3977
102
{ACAD_REACTORS
330
3979
102
}
102
{ACAD_XDICTIONARY
360
3978
102
}
330
A
100
AcDbEntity
  8
DIM
100
AcDbDimension
  2
*D28
 10
1777.240167666937
 20
1521.733202328529
 30
0.0
 11
1700.308182281711
 21
1521.733202328529
 31
0.0
 70
   160
 71
     5
 42
153.8639707704524
 73
     0
 74
     0
 75
     0
  3
tfrom線あり
100
AcDbAlignedDimension
 13
1623.376196896485
 23
1395.394697128212
 33
0.0
 14
1777.240167666937
 24
1183.055014827349
 34
0.0
100
AcDbRotatedDimension
  0
DIMENSION
  5
397A
330
A
100
AcDbEntity
  8
DIM
100
AcDbDimension
  2
*D29
 10
937.972926621457
 20
1521.73320232853
 30
0.0
 11
703.9228083599124
 21
1521.73320232853
 31
0.0
 70
   160
 71
     5
 42
469.8618774758789
 73
     0
 74
     0
 75
     0
  3
tfrom線あり
100
AcDbAlignedDimension
 13
468.111049145578
 23
1395.251185212661
 33
0.0
 14
937.972926621457
 24
1397.765777204358
 34
0.0
100
AcDbRotatedDimension
  0
DIMENSION
  5
397B
330
A
100
AcDbEntity
  8
DIM
100
AcDbDimension
  2
*D30
 10
933.4044949063501
 20
799.628742568497
 30
0.0
 11
763.2652524900251
 21
831.6332442566301
 31
0.0
 70
    32
 71
     5
 42
340.2784848326501
 73
     0
 74
     0
 75
     0
  3
tfrom線あり
100
AcDbAlignedDimension
 13
593.1260100737001
 23
897.5011156837307
 33
0.0
 14
933.4044949063501
 24
897.5011156837318
 34
0.0
100
AcDbRotatedDimension
  0
DIMENSION
  5
397C
330
A
100
AcDbEntity
  8
DIM
100
AcDbDimension
  2
*D31
 10
468.1110491455775
 20
799.628742568497
 30
0.0
 11
530.6185296096388
 21
831.6332442566301
 31
0.0
 70
    32
 71
     5
 42
125.0149609281225
 73
     0
 74
     0
 75
     0
  3
tfrom線あり
100
AcDbAlignedDimension
 13
593.1260100737001
 23
897.5011156837307
 33
0.0
 14
468.1110491455775
 24
897.5778569008486
 34
0.0
100
AcDbRotatedDimension
  0
DIMENSION
  5
397D
102
{ACAD_REACTORS
330
397F
102
}
102
{ACAD_XDICTIONARY
360
397E
102
}
330
A
100
AcDbEntity
  8
DIM
100
AcDbDimension
  2
*D32
 10
383.8487573572156
 20
1147.50111568373
 30
0.0
 11
351.8442556690825
 21
1097.50111568373
 31
0.0
 70
    32
 71
     5
 42
100.0000000000005
 73
     0
 74
     0
 75
     0
  3
tfrom線あり
100
AcDbAlignedDimension
 13
535.1126092311058
 23
1047.50111568373
 33
0.0
 14
535.1126092311058
 24
1147.50111568373
 34
0.0
 50
90.0
100
AcDbRotatedDimension
  0
DIMENSION
  5
3980
102
{ACAD_REACTORS
330
3982
102
}
102
{ACAD_XDICTIONARY
360
3981
102
}
330
A
100
AcDbEntity
  8
DIM
100
AcDbDimension
  2
*D33
 10
383.8487573572156
 20
1247.50111568373
 30
0.0
 11
351.8442556690825
 21
1197.50111568373
 31
0.0
 70
    32
 71
     5
 42
100.0
 73
     0
 74
     0
 75
     0
  3
tfrom線あり
100
AcDbAlignedDimension
 13
535.1126092311058
 23
1147.50111568373
 33
0.0
 14
535.1126092311058
 24
1247.50111568373
 34
0.0
 50
90.0
100
AcDbRotatedDimension
  0
DIMENSION
  5
3983
102
{ACAD_REACTORS
330
3985
102
}
102
{ACAD_XDICTIONARY
360
3984
102
}
330
A
100
AcDbEntity
  8
DIM
100
AcDbDimension
  2
*D34
 10
302.3243062446277
 20
1397.501115683738
 30
0.0
 11
302.3243062446277
 21
1147.501115683731
 31
0.0
 70
   160
 71
     5
 42
500.0000000000155
 73
     0
 74
     0
 75
     0
  3
tfrom線あり
100
AcDbAlignedDimension
 13
471.1109497120649
 23
897.5011156837227
 33
0.0
 14
471.1109497120649
 24
1397.501115683738
 34
0.0
 50
90.0
100
AcDbRotatedDimension
  0
DIMENSION
  5
3987
102
{ACAD_REACTORS
330
3989
102
}
102
{ACAD_XDICTIONARY
360
3988
102
}
330
A
100
AcDbEntity
  8
DIM
100
AcDbDimension
  2
*D35
 10
1868.673352301524
 20
1147.450295810164
 30
0.0
 11
1836.668850613391
 21
1022.475705746948
 31
0.0
 70
    32
 71
     5
 42
249.9491801264328
 73
     0
 74
     0
 75
     0
  3
tfrom線あり
100
AcDbAlignedDimension
 13
1725.261751435402
 23
897.5011156837315
 33
0.0
 14
1777.240167666937
 24
1147.450295810164
 34
0.0
 50
90.0
100
AcDbRotatedDimension
  0
ARC
  5
3A57
102
{ACAD_REACTORS
330
397F
330
3982
102
}
330
A
100
AcDbEntity
  8
MODEL
 48
0.5
100
AcDbCircle
 10
535.1126092311058
 20
1147.50111568373
 30
0.0
 40
17.5
100
AcDbArc
 50
0.0
 51
180.0
  0
CIRCLE
  5
3A58
102
{ACAD_REACTORS
330
397F
102
}
330
A
100
AcDbEntity
  8
HIDDEN
  6
HIDDEN
 48
0.5
100
AcDbCircle
 10
535.1126092311058
 20
1247.501115683731
 30
0.0
 40
16.0
  0
LINE
  5
3A59
330
A
100
AcDbEntity
  8
MODEL
100
AcDbLine
 10
937.9771088278519
 20
1393.501115683729
 30
0.0
 11
937.9771088278517
 21
1315.5921956063
 31
0.0
  0
LINE
  5
3A5A
330
A
100
AcDbEntity
  8
MODEL
100
AcDbLine
 10
937.9771088278519
 20
1393.501115683729
 30
0.0
 11
937.9771088278517
 21
1315.5921956063
 31
0.0
  0
LINE
  5
3A5B
330
A
100
AcDbEntity
  8
MODEL
100
AcDbLine
 10
937.9771088278519
 20
1393.501115683729
 30
0.0
 11
937.977208261364
 21
1147.50111568373
 31
0.0
  0
LINE
  5
3A5C
330
A
100
AcDbEntity
  8
MODEL
100
AcDbLine
 10
468.1109497120722
 20
1394.501572598269
 30
0.0
 11
468.1109497120719
 21
1315.5921956063
 31
0.0
  0
LINE
  5
3A5D
330
A
100
AcDbEntity
  8
MODEL
100
AcDbLine
 10
468.1109497120722
 20
1394.501572598269
 30
0.0
 11
468.1109497120719
 21
1315.5921956063
 31
0.0
  0
LINE
  5
3A5E
330
A
100
AcDbEntity
  8
MODEL
100
AcDbLine
 10
468.1109497120722
 20
1394.501572598269
 30
0.0
 11
468.1110491455842
 21
1147.50111568373
 31
0.0
  0
LINE
  5
3A5F
330
A
100
AcDbEntity
  8
MODEL
100
AcDbLine
 10
933.9771088278528
 20
1397.501115683729
 30
0.0
 11
471.1109497120649
 21
1397.50111568373
 31
0.0
  0
ARC
  5
3A60
330
A
100
AcDbEntity
  8
MODEL
100
AcDbCircle
 10
933.9771088278519
 20
1393.501115683729
 30
0.0
 40
4.0
100
AcDbArc
 50
0.0
 51
89.99999999998697
  0
ELLIPSE
  5
3A61
330
A
100
AcDbEntity
  8
MODEL
100
AcDbEllipse
 10
471.1109497120649
 20
1394.501572598269
 30
0.0
 11
-3.0
 21
8.476042572204118E-15
 31
0.0
210
0.0
220
0.0
230
-1.0
 40
0.999847695156391
 41
0.0
 42
1.570796326794894
  0
SPLINE
  5
3A62
330
A
100
AcDbEntity
  8
MODEL
100
AcDbSpline
210
0.0
220
0.0
230
1.0
 70
     8
 71
     3
 72
    29
 73
    25
 74
     0
 42
0.000000001
 43
0.0000000001
 40
0.0
 40
0.0
 40
0.0
 40
0.0
 40
0.0625
 40
0.125
 40
0.1875
 40
0.21875
 40
0.25
 40
0.28125
 40
0.3125
 40
0.34375
 40
0.375
 40
0.40625
 40
0.4375
 40
0.453125
 40
0.46875
 40
0.484375
 40
0.5
 40
0.53125
 40
0.5625
 40
0.59375
 40
0.625
 40
0.65625
 40
0.6875
 40
0.7485692490388592
 40
0.7485692490388592
 40
0.7485692490388592
 40
0.7485692490388592
 10
879.8244073299372
 20
1394.382418199065
 30
0.0
 10
881.9223727726801
 20
1394.356573573402
 30
0.0
 10
886.1180436178417
 20
1394.285472724865
 30
0.0
 10
892.4109442283459
 20
1394.148563330718
 30
0.0
 10
897.6544018078655
 20
1394.008843894205
 30
0.0
 10
901.8482700855618
 20
1393.865120919423
 30
0.0
 10
904.9925359406423
 20
1393.729437610063
 30
0.0
 10
908.1348742989082
 20
1393.552936230482
 30
0.0
 10
911.2730444100105
 20
1393.311406665716
 30
0.0
 10
914.4020482866124
 20
1392.96821740459
 30
0.0
 10
917.5103631760301
 20
1392.46492519515
 30
0.0
 10
920.5693785580095
 20
1391.707924392512
 30
0.0
 10
923.0182262800388
 20
1390.743544990343
 30
0.0
 10
924.8355785959955
 20
1389.688124080772
 30
0.0
 10
926.097722952343
 20
1388.743454531971
 30
0.0
 10
927.2322974363867
 20
1387.648579333066
 30
0.0
 10
928.5538999620637
 20
1386.013718554489
 30
0.0
 10
929.8422439015937
 20
1383.715297704374
 30
0.0
 10
930.9318080805185
 20
1380.756079523185
 30
0.0
 10
931.7151959479468
 20
1377.705332703569
 30
0.0
 10
932.2952515119266
 20
1374.611005396219
 30
0.0
 10
932.7381294581371
 20
1371.494607793779
 30
0.0
 10
933.1966904996134
 20
1367.37147252181
 30
0.0
 10
933.4430646047988
 20
1364.281732801625
 30
0.0
 10
933.5833579601456
 20
1315.5921956063
 30
0.0
  0
LINE
  5
3A63
330
A
100
AcDbEntity
  8
MODEL
100
AcDbLine
 10
593.1262197130598
 20
1374.502202955444
 30
0.0
 11
593.1253284484249
 21
1315.5921956063
 31
0.0
  0
LINE
  5
3A64
330
A
100
AcDbEntity
  8
MODEL
100
AcDbLine
 10
593.12621971306
 20
1374.502202955441
 30
0.0
 11
593.1252439290668
 21
1315.5921956063
 31
0.0
  0
LINE
  5
3A65
330
A
100
AcDbEntity
  8
MODEL
100
AcDbLine
 10
593.12621971306
 20
1374.502202955441
 30
0.0
 11
593.1184181116455
 21
1147.50111568373
 31
0.0
  0
ARC
  5
3A66
330
A
100
AcDbEntity
  8
MODEL
100
AcDbCircle
 10
613.1262197031263
 20
1374.501572598268
 30
0.0
 40
20.0
100
AcDbArc
 50
90.0
 51
179.998194159722
  0
LINE
  5
3A67
330
A
100
AcDbEntity
  8
MODEL
100
AcDbLine
 10
879.8244073299372
 20
1394.382418199065
 30
0.0
 11
612.8806736067579
 21
1394.500065219328
 31
0.0
  0
LINE
  5
3A68
330
A
100
AcDbEntity
  8
MODEL
100
AcDbLine
 10
933.5833579601456
 20
1315.5921956063
 30
0.0
 11
934.6114655921708
 21
1147.50111568373
 31
0.0
  0
ELLIPSE
  5
3A69
330
A
100
AcDbEntity
  8
MODEL
100
AcDbEllipse
 10
596.1796935879117
 20
1147.501761231842
 30
0.0
 11
3.390417028881647E-14
 21
12.0
 31
0.0
210
0.0
220
0.0
230
-1.0
 40
0.0874886635259221
 41
4.712335184708659
 42
7.854035429650514
  0
ARC
  5
3A6A
330
A
100
AcDbEntity
  8
HIDDEN
100
AcDbCircle
 10
678.1110491455845
 20
1147.50111568373
 30
0.0
 40
22.5
100
AcDbArc
 50
0.0000000002038088
 51
179.9999999997869
  0
ARC
  5
3A6B
330
A
100
AcDbEntity
  8
HIDDEN
100
AcDbCircle
 10
678.1110491455845
 20
1147.50111568373
 30
0.0
 40
37.5
100
AcDbArc
 50
0.0000000002056616
 51
179.9999999997888
  0
MTEXT
  5
3A8C
330
A
100
AcDbEntity
  8
TEMPLATE
 62
     7
390
1D
100
AcDbMText
 10
131.0148745246561
 20
313.234425358175
 30
0.0
 40
24.4326171875
 41
0.0
 46
27.53672361022102
 71
     1
 72
     1
  1
{洗面器 -CATALANO,New Premium-}
  7
ＭＳ ゴシック
 73
     1
 44
0.7828267384257843
1001
ACAD
1000
ACAD_MTEXT_DEFINED_HEIGHT_BEGIN
1070
    46
1040
27.53672361022102
1000
ACAD_MTEXT_DEFINED_HEIGHT_END
  0
MTEXT
  5
3A8D
330
A
100
AcDbEntity
  8
TEMPLATE
 62
     7
390
1D
100
AcDbMText
 10
127.2893172537309
 20
220.0533191849353
 30
0.0
 40
24.4326171875
 41
0.0
 46
75.57584750198177
 71
     1
 72
     1
  1
{壁掛け,カウンタ ー置き/オーバーフロー付き/壁取付ボルト付属/\P陶器/ホワイト}
  7
ＭＳ ゴシック
 73
     1
 44
1.130749733281688
1001
ACAD
1000
ACAD_MTEXT_DEFINED_HEIGHT_BEGIN
1070
    46
1040
75.57584750198177
1000
ACAD_MTEXT_DEFINED_HEIGHT_END
  0
DIMENSION
  5
3A96
330
A
100
AcDbEntity
  8
DIM
100
AcDbDimension
  2
*D36
 10
1031.554267678567
 20
1394.389002732177
 30
0.0
 11
999.5542676785669
 21
1147.501067730014
 31
0.0
 70
    32
  1
490
 71
     5
 42
493.7758700043266
 73
     0
 74
     0
 75
     0
  3
tfrom線あり
100
AcDbAlignedDimension
 13
937.8772993706414
 23
900.6131327278504
 33
0.0
 14
937.8773212052998
 24
1394.389002732177
 34
0.0
 50
90.0
100
AcDbRotatedDimension
  0
LINE
  5
3ACE
330
A
100
AcDbEntity
  8
DIM
100
AcDbLine
 10
517.6835240844845
 20
1148.560499684031
 30
0.0
 11
402.5289228205469
 21
1279.830710592474
 31
0.0
  0
LINE
  5
3ACF
330
A
100
AcDbEntity
  8
DIM
100
AcDbLine
 10
402.5289228205469
 20
1279.830710592474
 30
0.0
 11
402.5289228205469
 21
1372.067211645608
 31
0.0
  0
MTEXT
  5
3AD0
330
A
100
AcDbEntity
  8
DIM
390
1D
100
AcDbMText
 10
368.8990780883675
 20
1307.020613891578
 30
34.99521132346015
 40
24.4326171875
 41
833.9297986418393
 46
28.390701171875
 71
     1
 72
     1
  1
{φ35}
  7
ＭＳ ゴシック
 11
3.467977603302107E-15
 21
1.0
 31
0.0
 73
     1
 44
0.9822934569727008
1001
ACAD
1000
ACAD_MTEXT_DEFINED_HEIGHT_BEGIN
1070
    46
1040
28.390701171875
1000
ACAD_MTEXT_DEFINED_HEIGHT_END
  0
DIMENSION
  5
3AD4
330
A
100
AcDbEntity
  8
DIM
100
AcDbDimension
  2
*D38
 10
1623.240167666938
 20
802.128742568497
 30
0.0
 11
1645.755707632416
 21
834.1332442566301
 31
0.0
 70
    32
 71
     5
 42
45.03107993095637
 73
     0
 74
     1
 75
     1
  3
tfrom線あり
100
AcDbAlignedDimension
 13
1668.271247597894
 23
898.2338570142767
 33
0.0
 14
1623.240167666938
 24
896.9955604286974
 34
0.0
100
AcDbRotatedDimension
1001
ACAD
1000
DSTYLE
1002
{
1070
   172
1070
     1
1002
}
  0
CIRCLE
  5
3B52
330
A
100
AcDbEntity
  8
HIDDEN
 48
0.3
100
AcDbCircle
 10
534.4079677933466
 20
2325.81923921696
 30
0.0
 40
17.5
  0
CIRCLE
  5
3B53
330
A
100
AcDbEntity
  8
HIDDEN
 48
0.3
100
AcDbCircle
 10
534.4079677933466
 20
2225.81923921696
 30
0.0
 40
16.0
  0
CIRCLE
  5
3B54
330
A
100
AcDbEntity
  8
HIDDEN
 48
0.3
100
AcDbCircle
 10
534.4079677933466
 20
2425.819267538788
 30
0.0
 40
16.0
  0
ARC
  5
3B55
330
A
100
AcDbEntity
  8
HIDDEN
 48
0.5
100
AcDbCircle
 10
677.4064077078245
 20
2325.81923921696
 30
0.0
 40
22.5
100
AcDbArc
 50
179.9999999997869
 51
359.9999999993723
  0
ARC
  5
3B56
330
A
100
AcDbEntity
  8
HIDDEN
 48
0.5
100
AcDbCircle
 10
677.4064077078245
 20
2325.81923921696
 30
0.0
 40
37.5
100
AcDbArc
 50
179.9999999997888
 51
359.9999999993733
  0
ARC
  5
3B57
330
A
100
AcDbEntity
  8
HIDDEN
 48
0.5
100
AcDbCircle
 10
677.4064077078245
 20
2325.81923921696
 30
0.0
 40
22.5
100
AcDbArc
 50
0.0000000002061248
 51
179.9999999997869
  0
ARC
  5
3B58
330
A
100
AcDbEntity
  8
HIDDEN
 48
0.5
100
AcDbCircle
 10
677.4064077078245
 20
2325.81923921696
 30
0.0
 40
37.5
100
AcDbArc
 50
0.0000000002070512
 51
179.9999999997888
  0
HATCH
  5
3B59
330
A
100
AcDbEntity
  8
DIM
100
AcDbHatch
 10
0.0
 20
0.0
 30
0.0
210
0.0
220
0.0
230
1.0
  2
ANSI31
 70
     0
 71
     1
 91
        1
 92
        1
 93
        4
 72
     1
 10
498.1110491455812
 20
2160.81923921694
 11
767.4064077078264
 21
2160.819239216945
 72
     1
 10
767.4064077078264
 20
2160.819239216945
 11
767.4064077078245
 21
2490.819239216945
 72
     1
 10
498.1110491455803
 20
2490.81923921694
 11
767.4064077078245
 21
2490.819239216945
 72
     1
 10
498.1110491455803
 20
2490.81923921694
 11
498.1110491455812
 21
2160.81923921694
 97
        4
330
3B5A
330
3B64
330
3B5B
330
3B65
 75
     0
 76
     1
 52
0.0
 41
6.0
 77
     0
 78
     1
 53
45.0
 43
54.11504495065674
 44
-2.297183451333012
 45
-13.47038418160373
 46
13.47038418160373
 79
     0
 98
        1
 10
54.11504495065674
 20
-2.297183451333012
1001
ACAD
1010
0.0
1020
0.0
1030
0.0
  0
LINE
  5
3B5A
102
{ACAD_REACTORS
330
3B59
102
}
330
A
100
AcDbEntity
  8
MODEL
100
AcDbLine
 10
498.1110491455812
 20
2160.81923921694
 30
0.0
 11
767.4064077078264
 21
2160.819239216945
 31
0.0
  0
LINE
  5
3B5B
102
{ACAD_REACTORS
330
3B59
102
}
330
A
100
AcDbEntity
  8
MODEL
100
AcDbLine
 10
498.1110491455803
 20
2490.81923921694
 30
0.0
 11
767.4064077078245
 21
2490.819239216945
 31
0.0
  0
MTEXT
  5
3B5C
330
A
100
AcDbEntity
  8
notes
 62
     7
390
1D
100
AcDbMText
 10
255.2441577764862
 20
2171.555708978024
 30
0.0
 40
24.4326171875
 41
0.0
 46
0.0
 71
     1
 72
     1
  1
カウンター切込寸法
  7
ＭＳ ゴシック
 11
0.0
 21
1.0
 31
0.0
 73
     1
 44
0.7828267384257843
  0
LINE
  5
3B5E
330
A
100
AcDbEntity
  8
ADF70-0001
  6
Continuous
 62
     7
370
    15
390
1D
100
AcDbLine
 10
467.4202463718858
 20
2634.11597253974
 30
0.0
 11
430.4202463718858
 21
2671.11597253974
 31
0.0
  0
LINE
  5
3B5F
330
A
100
AcDbEntity
  8
ADF70-0001
  6
Continuous
 62
     7
370
    15
390
1D
100
AcDbLine
 10
467.4202463718858
 20
2654.11597253974
 30
0.0
 11
430.4202463718858
 21
2691.11597253974
 31
0.0
  0
LINE
  5
3B60
330
A
100
AcDbEntity
  8
ADF70-0001
  6
Continuous
 62
     7
370
    15
390
1D
100
AcDbLine
 10
467.4202463718858
 20
2674.11597253974
 30
0.0
 11
430.4202463718858
 21
2711.11597253974
 31
0.0
  0
DIMENSION
  5
3B61
330
A
100
AcDbEntity
  8
DIM
100
AcDbDimension
  2
*D42
 10
935.8686177460451
 20
2160.819239216945
 30
0.0
 11
935.8686177460451
 21
2325.819239216945
 31
0.0
 70
   160
 71
     5
 42
330.0
 73
     0
 74
     0
 75
     0
  3
tfrom線あり
100
AcDbAlignedDimension
 13
767.4064077078245
 23
2490.819239216945
 33
0.0
 14
767.4064077078264
 24
2160.819239216945
 34
0.0
 50
90.0
100
AcDbRotatedDimension
  0
DIMENSION
  5
3B63
330
A
100
AcDbEntity
  8
DIM
100
AcDbDimension
  2
*D43
 10
767.4064077078245
 20
2576.355062509265
 30
0.0
 11
632.7587284267024
 21
2608.359564197398
 31
0.0
 70
    32
  1
270
 71
     5
 42
269.2953585622442
 73
     0
 74
     0
 75
     0
  3
tfrom線あり
100
AcDbAlignedDimension
 13
498.1110491455803
 23
2490.81923921694
 33
0.0
 14
767.4064077078245
 24
2491.913611776644
 34
0.0
100
AcDbRotatedDimension
  0
LINE
  5
3B64
102
{ACAD_REACTORS
330
3B59
102
}
330
A
100
AcDbEntity
  8
MODEL
100
AcDbLine
 10
767.4064077078264
 20
2160.819239216945
 30
0.0
 11
767.4064077078245
 21
2490.819239216945
 31
0.0
  0
LINE
  5
3B65
102
{ACAD_REACTORS
330
3B68
330
3B59
102
}
330
A
100
AcDbEntity
  8
MODEL
100
AcDbLine
 10
498.1110491455803
 20
2490.81923921694
 30
0.0
 11
498.1110491455812
 21
2160.81923921694
 31
0.0
  0
DIMENSION
  5
3B66
102
{ACAD_REACTORS
330
3B68
102
}
102
{ACAD_XDICTIONARY
360
3B67
102
}
330
A
100
AcDbEntity
  8
DIM
100
AcDbDimension
  2
*D44
 10
468.1110491455805
 20
2576.355062509265
 30
0.0
 11
483.1110491455804
 21
2608.359564197398
 31
0.0
 70
    32
 71
     5
 42
29.99999999999977
 73
     0
 74
     1
 75
     1
  3
tfrom線あり
100
AcDbAlignedDimension
 13
498.1110491455803
 23
2490.81923921694
 33
0.0
 14
468.1110491455805
 24
2490.81923921694
 34
0.0
100
AcDbRotatedDimension
1001
ACAD
1000
DSTYLE
1002
{
1070
   172
1070
     1
1002
}
  0
VIEWPORT
  5
349
330
B
100
AcDbEntity
 67
     1
  8
0
100
AcDbViewport
 10
202.5
 20
128.5
 30
0.0
 40
486.0
 41
308.4
 68
     1
 69
     1
 12
202.5
 22
128.5
 13
0.0
 23
0.0
 14
0.5
 24
0.5
 15
0.0
 25
0.0
 16
0.0
 26
0.0
 36
1.0
 17
0.0
 27
0.0
 37
0.0
 42
50.0
 43
0.0
 44
0.0
 45
308.4
 50
0.0
 51
0.0
 72
   100
 90
   557152
  1

281
     0
 71
     1
 74
     0
110
0.0
120
0.0
130
0.0
111
1.0
121
0.0
131
0.0
112
0.0
122
1.0
132
0.0
 79
     0
146
0.0
170
     0
 61
     5
348
26C
292
     1
282
     1
141
0.0
142
0.0
 63
   256
  0
VIEWPORT
  5
34A
330
B
100
AcDbEntity
 67
     1
  8
0
100
AcDbViewport
 10
202.5
 20
128.5
 30
0.0
 40
324.0
 41
205.6
 68
     2
 69
     2
 12
986.6781359294573
 22
1427.077061889956
 13
0.0
 23
0.0
 14
0.5
 24
0.5
 15
0.0
 25
0.0
 16
0.0
 26
0.0
 36
1.0
 17
0.0
 27
0.0
 37
0.0
 42
50.0
 43
0.0
 44
0.0
 45
2890.021615685494
 50
0.0
 51
0.0
 72
   100
 90
   557152
  1

281
     0
 71
     1
 74
     0
110
0.0
120
0.0
130
0.0
111
1.0
121
0.0
131
0.0
112
0.0
122
1.0
132
0.0
 79
     0
146
0.0
170
     0
 61
     5
348
26C
292
     1
282
     1
141
0.0
142
0.0
 63
   256
  0
ENDSEC
  0
SECTION
  2
OBJECTS
  0
DICTIONARY
  5
19
330
0
100
AcDbDictionary
281
     1
  3
ACAD_COLOR
350
674
  3
ACAD_DETAILVIEWSTYLE
350
BBF
  3
ACAD_FIELDLIST
350
146A
  3
ACAD_GROUP
350
1A
  3
ACAD_IMAGE_VARS
350
27B
  3
ACAD_LAYOUT
350
1E
  3
ACAD_MATERIAL
350
263
  3
ACAD_MLEADERSTYLE
350
336
  3
ACAD_MLINESTYLE
350
1B
  3
ACAD_PLOTSETTINGS
350
22
  3
ACAD_PLOTSTYLENAME
350
1F
  3
ACAD_SCALELIST
350
241
  3
ACAD_SECTIONVIEWSTYLE
350
BC0
  3
ACAD_TABLESTYLE
350
278
  3
ACAD_VISUALSTYLE
350
267
  3
ACDB_RECOMPOSE_DATA
350
3B96
  3
AcDbVariableDictionary
350
330
  3
APPDATA
350
27A
  3
DimOffsetDictionary
350
E3E
  0
SUN
  5
904
330
15
100
AcDbSun
 90
        1
290
     0
 63
     7
421
 16777215
 40
1.0
291
     1
 91
  2455826
 92
 54000000
292
     0
 70
     2
 71
   256
280
     1
  0
DICTIONARY
  5
2E1
330
2
100
AcDbDictionary
280
     1
281
     1
  3
ACAD_LAYERSTATES
360
2E2
  3
ACLYDICTIONARY
360
DF9
  0
DICTIONARY
  5
374D
330
A
100
AcDbDictionary
280
     1
281
     1
  3
ACAD_SORTENTS
360
374E
  0
DICTIONARY
  5
1468
330
1466
100
AcDbDictionary
280
     1
281
     1
  0
DICTIONARY
  5
3951
330
3950
100
AcDbDictionary
280
     1
281
     1
  3
ACAD_DIMASSOC
360
3952
  0
DICTIONARY
  5
3954
330
3953
100
AcDbDictionary
280
     1
281
     1
  3
ACAD_DIMASSOC
360
3955
  0
DICTIONARY
  5
3957
330
3956
100
AcDbDictionary
280
     1
281
     1
  3
ACAD_DIMASSOC
360
3958
  0
DICTIONARY
  5
395A
330
3959
100
AcDbDictionary
280
     1
281
     1
  3
ACAD_DIMASSOC
360
395B
  0
DICTIONARY
  5
3975
330
3974
100
AcDbDictionary
280
     1
281
     1
  3
ACAD_DIMASSOC
360
3976
  0
DICTIONARY
  5
3978
330
3977
100
AcDbDictionary
280
     1
281
     1
  3
ACAD_DIMASSOC
360
3979
  0
DICTIONARY
  5
397E
330
397D
100
AcDbDictionary
280
     1
281
     1
  3
ACAD_DIMASSOC
360
397F
  0
DICTIONARY
  5
3981
330
3980
100
AcDbDictionary
280
     1
281
     1
  3
ACAD_DIMASSOC
360
3982
  0
DICTIONARY
  5
3984
330
3983
100
AcDbDictionary
280
     1
281
     1
  3
ACAD_DIMASSOC
360
3985
  0
DICTIONARY
  5
3988
330
3987
100
AcDbDictionary
280
     1
281
     1
  3
ACAD_DIMASSOC
360
3989
  0
DICTIONARY
  5
3B67
330
3B66
100
AcDbDictionary
280
     1
281
     1
  3
ACAD_DIMASSOC
360
3B68
  0
DICTIONARY
  5
674
102
{ACAD_REACTORS
330
19
102
}
330
19
100
AcDbDictionary
281
     1
  0
DICTIONARY
  5
BBF
102
{ACAD_REACTORS
330
19
102
}
330
19
100
AcDbDictionary
281
     1
  0
FIELDLIST
  5
146A
102
{ACAD_REACTORS
330
19
102
}
330
19
100
AcDbIdSet
 90
        0
100
AcDbFieldList
  0
DICTIONARY
  5
1A
102
{ACAD_REACTORS
330
19
102
}
330
19
100
AcDbDictionary
281
     1
  3
*A1
350
36AC
  0
RASTERVARIABLES
  5
27B
102
{ACAD_REACTORS
330
19
102
}
330
19
100
AcDbRasterVariables
 90
        0
 70
     1
 71
     1
 72
     1
  0
DICTIONARY
  5
1E
102
{ACAD_REACTORS
330
19
102
}
330
19
100
AcDbDictionary
281
     1
  3
Layout1
350
21
  3
Model
350
20
  0
DICTIONARY
  5
263
102
{ACAD_REACTORS
330
19
102
}
330
19
100
AcDbDictionary
281
     1
  3
ByBlock
350
265
  3
ByLayer
350
264
  3
Global
350
266
  0
DICTIONARY
  5
336
102
{ACAD_REACTORS
330
19
102
}
330
19
100
AcDbDictionary
281
     1
  3
Standard
350
DAB
  0
DICTIONARY
  5
1B
102
{ACAD_REACTORS
330
19
102
}
330
19
100
AcDbDictionary
281
     1
  3
Standard
350
1C
  0
DICTIONARY
  5
22
102
{ACAD_REACTORS
330
19
102
}
330
19
100
AcDbDictionary
281
     1
  0
ACDBDICTIONARYWDFLT
  5
1F
102
{ACAD_REACTORS
330
19
102
}
330
19
100
AcDbDictionary
281
     1
  3
Normal
350
1D
100
AcDbDictionaryWithDefault
340
1D
  0
DICTIONARY
  5
241
102
{ACAD_REACTORS
330
19
102
}
330
19
100
AcDbDictionary
281
     1
  3
A0
350
242
  3
A1
350
243
  3
A2
350
244
  3
A3
350
245
  3
A4
350
246
  3
A5
350
247
  3
A6
350
248
  3
A7
350
249
  3
A8
350
24A
  3
A9
350
24B
  3
B0
350
24C
  3
B1
350
24D
  3
B2
350
24E
  3
B3
350
24F
  3
B4
350
250
  3
B5
350
251
  3
B6
350
252
  3
B7
350
253
  3
B8
350
254
  3
B9
350
255
  3
C0
350
256
  3
C1
350
257
  3
C2
350
258
  3
C3
350
259
  3
C4
350
25A
  3
C5
350
25B
  3
C6
350
25C
  3
C7
350
25D
  3
C8
350
25E
  3
C9
350
25F
  3
D0
350
260
  3
D1
350
261
  3
D2
350
262
  0
DICTIONARY
  5
BC0
102
{ACAD_REACTORS
330
19
102
}
330
19
100
AcDbDictionary
281
     1
  0
DICTIONARY
  5
278
102
{ACAD_REACTORS
330
19
102
}
330
19
100
AcDbDictionary
281
     1
  3
Standard
350
279
  0
DICTIONARY
  5
267
102
{ACAD_REACTORS
330
19
102
}
330
19
100
AcDbDictionary
281
     1
  3
2dWireframe
350
26C
  3
3D Hidden
350
26E
  3
3dWireframe
350
26D
  3
Basic
350
26F
  3
Brighten
350
273
  3
ColorChange
350
277
  3
Conceptual
350
271
  3
Dim
350
272
  3
EdgeColorOff
350
8FE
  3
Facepattern
350
276
  3
Flat
350
268
  3
FlatWithEdges
350
269
  3
Gouraud
350
26A
  3
GouraudWithEdges
350
26B
  3
Hidden
350
8FB
  3
JitterOff
350
8FC
  3
Linepattern
350
275
  3
OverhangOff
350
8FD
  3
Realistic
350
270
  3
Shaded
350
903
  3
Shaded with edges
350
902
  3
Shades of Gray
350
8FF
  3
Sketchy
350
900
  3
Thicken
350
274
  3
Wireframe
350
8FA
  3
X-Ray
350
901
  0
XRECORD
  5
3B96
102
{ACAD_REACTORS
330
19
102
}
330
19
100
AcDbXrecord
280
     1
 90
        1
330
279
  0
DICTIONARY
  5
330
102
{ACAD_REACTORS
330
19
102
}
330
19
100
AcDbDictionary
281
     1
  3
CANNOSCALE
350
331
  3
CMLEADERSTYLE
350
DB1
  3
CTABLESTYLE
350
335
  3
HPTRANSPARENCY
350
D52
  3
XCLIPFRAME
350
896
  0
DICTIONARY
  5
27A
102
{ACAD_REACTORS
330
19
102
}
330
19
100
AcDbDictionary
281
     1
  0
DICTIONARY
  5
E3E
102
{ACAD_REACTORS
330
19
102
}
330
19
100
AcDbDictionary
281
     1
  3
DIMRAILANGLE
350
ECE
  3
DIMRAILFIRSTOFFSET
350
ECC
  3
DIMRAILOFFSET
350
ECD
  3
DIMRAILSENABLED
350
ECF
  0
DICTIONARY
  5
2E2
102
{ACAD_REACTORS
330
2E1
102
}
330
2E1
100
AcDbDictionary
281
     1
  0
DICTIONARY
  5
DF9
102
{ACAD_REACTORS
330
2E1
102
}
330
2E1
100
AcDbDictionary
281
     1
1001
ACAD
1000
<All
  0
SORTENTSTABLE
  5
374E
102
{ACAD_REACTORS
330
374D
102
}
330
374D
100
AcDbSortentsTable
330
A
331
369B
  5
35AE
331
369C
  5
369A
331
36A7
  5
369B
331
36A8
  5
369C
331
36A9
  5
36A7
331
36AA
  5
36A8
331
36AB
  5
36A9
  0
DIMASSOC
  5
3952
102
{ACAD_REACTORS
330
3951
102
}
330
3951
100
AcDbDimAssoc
330
3950
 90
        3
 70
     0
 71
     1
  1
AcDbOsnapPointRef
 72
    10
331
3941
 73
     0
 91
        0
 40
0.9936493955795695
 10
0.0
 20
0.0
 30
0.0
 75
     0
  1
AcDbOsnapPointRef
 72
     1
331
3946
 73
     0
 91
        0
 40
0.0
 10
0.0
 20
0.0
 30
0.0
 75
     0
  0
DIMASSOC
  5
3955
102
{ACAD_REACTORS
330
3954
102
}
330
3954
100
AcDbDimAssoc
330
3953
 90
        1
 70
     0
 71
     1
  1
AcDbOsnapPointRef
 72
    13
331
393C
 73
     0
 91
        0
 40
0.0
 10
0.0
 20
0.0
 30
0.0
 75
     0
  0
DIMASSOC
  5
3958
102
{ACAD_REACTORS
330
3957
102
}
330
3957
100
AcDbDimAssoc
330
3956
 90
        2
 70
     0
 71
     1
  1
AcDbOsnapPointRef
 72
     8
331
3941
 73
     0
 91
        0
 40
0.2377738398527303
 10
0.0
 20
0.0
 30
0.0
 75
     1
  1
AcDbOsnapPointRef
 72
    10
331
3942
 73
     0
 91
        0
 40
0.4135827776532307
 10
0.0
 20
0.0
 30
0.0
 75
     0
  0
DIMASSOC
  5
395B
102
{ACAD_REACTORS
330
395A
102
}
330
395A
100
AcDbDimAssoc
330
3959
 90
        3
 70
     0
 71
     1
  1
AcDbOsnapPointRef
 72
    13
331
393B
 73
     0
 91
        0
 40
0.0
 10
0.0
 20
0.0
 30
0.0
 75
     0
  1
AcDbOsnapPointRef
 72
     2
331
3937
 73
     0
 91
        0
 40
0.5
 10
0.0
 20
0.0
 30
0.0
 75
     0
  0
DIMASSOC
  5
3976
102
{ACAD_REACTORS
330
3975
102
}
330
3975
100
AcDbDimAssoc
330
3974
 90
        3
 70
     0
 71
     1
  1
AcDbOsnapPointRef
 72
     3
331
3972
 73
     0
 91
        0
 40
0.0
 10
0.0
 20
0.0
 30
0.0
 75
     0
  1
AcDbOsnapPointRef
 72
     2
331
392F
 73
     0
 91
        0
 40
0.5
 10
0.0
 20
0.0
 30
0.0
 75
     0
  0
DIMASSOC
  5
3979
102
{ACAD_REACTORS
330
3978
102
}
330
3978
100
AcDbDimAssoc
330
3977
 90
        1
 70
     0
 71
     1
  1
AcDbOsnapPointRef
 72
    10
331
396F
 73
     0
 91
        0
 40
2.839301578641143
 10
0.0
 20
0.0
 30
0.0
 75
     0
  0
DIMASSOC
  5
397F
102
{ACAD_REACTORS
330
397E
102
}
330
397E
100
AcDbDimAssoc
330
397D
 90
        3
 70
     0
 71
     1
  1
AcDbOsnapPointRef
 72
     3
331
38F9
 73
     0
 91
        0
 40
0.0
 10
0.0
 20
0.0
 30
0.0
 75
     0
  1
AcDbOsnapPointRef
 72
     3
331
38F8
 73
     0
 91
        0
 40
0.0
 10
0.0
 20
0.0
 30
0.0
 75
     0
  0
DIMASSOC
  5
3982
102
{ACAD_REACTORS
330
3981
102
}
330
3981
100
AcDbDimAssoc
330
3980
 90
        1
 70
     0
 71
     1
  1
AcDbOsnapPointRef
 72
     3
331
38F8
 73
     0
 91
        0
 40
0.0
 10
0.0
 20
0.0
 30
0.0
 75
     0
  0
DIMASSOC
  5
3985
102
{ACAD_REACTORS
330
3984
102
}
330
3984
100
AcDbDimAssoc
330
3983
 90
        0
 70
     0
 71
     1
  0
DIMASSOC
  5
3989
102
{ACAD_REACTORS
330
3988
102
}
330
3988
100
AcDbDimAssoc
330
3987
 90
        2
 70
     0
 71
     1
  1
AcDbOsnapPointRef
 72
     1
331
3969
 73
     0
 91
        0
 40
0.0
 10
0.0
 20
0.0
 30
0.0
 75
     0
  0
DIMASSOC
  5
3B68
102
{ACAD_REACTORS
330
3B67
102
}
330
3B67
100
AcDbDimAssoc
330
3B66
 90
        1
 70
     0
 71
     1
  1
AcDbOsnapPointRef
 72
    13
331
3B65
 73
     0
 91
        0
 40
0.0
 10
0.0
 20
0.0
 30
0.0
 75
     0
  0
GROUP
  5
36AC
102
{ACAD_REACTORS
330
1A
102
}
330
1A
100
AcDbGroup
300

 70
     1
 71
     1
340
369B
340
369C
340
36A7
340
36A8
340
36A9
340
36AA
340
36AB
  0
LAYOUT
  5
21
102
{ACAD_REACTORS
330
1E
102
}
330
1E
100
AcDbPlotSettings
  1

  2
none_device
  4
ISO_A3_(420.00_x_297.00_MM)
  6

 40
7.5
 41
20.0
 42
7.5
 43
20.0
 44
420.0
 45
297.0
 46
0.0
 47
0.0
 48
0.0
 49
0.0
140
0.0
141
0.0
142
1.0
143
1.0
 70
     0
 72
     1
 73
     0
 74
     0
  7

 75
     0
 76
     0
 77
     2
 78
   300
147
1.0
148
0.0
149
0.0
100
AcDbLayout
  1
Layout1
 70
     0
 71
     0
 10
-7.5
 20
-20.0
 11
412.5
 21
277.0
 12
0.0
 22
0.0
 32
0.0
 14
0.0
 24
0.0
 34
0.0
 15
0.0
 25
0.0
 35
0.0
146
0.0
 13
0.0
 23
0.0
 33
0.0
 16
0.0
 26
0.0
 36
0.0
 17
0.0
 27
0.0
 37
0.0
 76
     0
330
B
331
349
  0
LAYOUT
  5
20
102
{ACAD_REACTORS
330
1E
102
}
330
1E
100
AcDbPlotSettings
  1

  2
none_device
  4
ISO_A3_(420.00_x_297.00_MM)
  6

 40
7.5
 41
20.0
 42
7.5
 43
20.0
 44
420.0
 45
297.0
 46
0.0
 47
0.0
 48
0.0
 49
0.0
140
0.0
141
0.0
142
1.0
143
1.0
 70
  1024
 72
     1
 73
     0
 74
     0
  7

 75
     0
 76
     0
 77
     2
 78
   300
147
1.0
148
0.0
149
0.0
100
AcDbLayout
  1
Model
 70
     0
 71
     1
 10
0.0
 20
0.0
 11
2100.0
 21
2970.0
 12
0.0
 22
0.0
 32
0.0
 14
0.0
 24
0.0
 34
-0.0000000000000142
 15
2100.0
 25
2970.0
 35
34.99521132346014
146
0.0
 13
0.0
 23
0.0
 33
0.0
 16
0.0
 26
0.0
 36
0.0
 17
0.0
 27
0.0
 37
0.0
 76
     0
330
A
331
15
  0
MATERIAL
  5
265
102
{ACAD_REACTORS
330
263
102
}
330
263
100
AcDbMaterial
  1
ByBlock
 72
     1
 94
      127
  0
MATERIAL
  5
264
102
{ACAD_REACTORS
330
263
102
}
330
263
100
AcDbMaterial
  1
ByLayer
 72
     1
 94
      127
  0
MATERIAL
  5
266
102
{ACAD_REACTORS
330
263
102
}
330
263
100
AcDbMaterial
  1
Global
 72
     1
 94
      127
  0
MLEADERSTYLE
  5
DAB
102
{ACAD_REACTORS
330
336
102
}
330
336
100
AcDbMLeaderStyle
170
     2
171
     1
172
     0
 90
        2
 40
0.0
 41
0.0
173
     1
 91
-1056964608
340
11
 92
       -2
290
     1
 42
2.0
291
     1
 43
8.0
  3
Standard
341
0
 44
4.0
300

342
17
174
     1
178
     6
175
     1
176
     0
 93
-1056964608
 45
4.0
292
     0
297
     0
 46
4.0
343
0
 94
-1056964608
 47
1.0
 49
1.0
140
1.0
293
     1
141
0.0
294
     1
177
     0
142
1.0
295
     0
296
     0
143
3.75
1001
ACAD_MLEADERVER
1070
     2
  0
MLINESTYLE
  5
1C
102
{ACAD_REACTORS
330
1B
102
}
330
1B
100
AcDbMlineStyle
  2
Standard
 70
     0
  3

 62
     0
 51
90.0
 52
90.0
 71
     2
 49
0.5
 62
   256
  6
BYLAYER
 49
-0.5
 62
   256
  6
BYLAYER
  0
ACDBPLACEHOLDER
  5
1D
102
{ACAD_REACTORS
330
1F
102
}
330
1F
  0
SCALE
  5
242
102
{ACAD_REACTORS
330
241
102
}
330
241
100
AcDbScale
 70
     0
300
1:1
140
1.0
141
1.0
290
     1
  0
SCALE
  5
243
102
{ACAD_REACTORS
330
241
102
}
330
241
100
AcDbScale
 70
     0
300
1:2
140
1.0
141
2.0
290
     0
  0
SCALE
  5
244
102
{ACAD_REACTORS
330
241
102
}
330
241
100
AcDbScale
 70
     0
300
1:4
140
1.0
141
4.0
290
     0
  0
SCALE
  5
245
102
{ACAD_REACTORS
330
241
102
}
330
241
100
AcDbScale
 70
     0
300
1:5
140
1.0
141
5.0
290
     0
  0
SCALE
  5
246
102
{ACAD_REACTORS
330
241
102
}
330
241
100
AcDbScale
 70
     0
300
1:8
140
1.0
141
8.0
290
     0
  0
SCALE
  5
247
102
{ACAD_REACTORS
330
241
102
}
330
241
100
AcDbScale
 70
     0
300
1:10
140
1.0
141
10.0
290
     0
  0
SCALE
  5
248
102
{ACAD_REACTORS
330
241
102
}
330
241
100
AcDbScale
 70
     0
300
1:16
140
1.0
141
16.0
290
     0
  0
SCALE
  5
249
102
{ACAD_REACTORS
330
241
102
}
330
241
100
AcDbScale
 70
     0
300
1:20
140
1.0
141
20.0
290
     0
  0
SCALE
  5
24A
102
{ACAD_REACTORS
330
241
102
}
330
241
100
AcDbScale
 70
     0
300
1:30
140
1.0
141
30.0
290
     0
  0
SCALE
  5
24B
102
{ACAD_REACTORS
330
241
102
}
330
241
100
AcDbScale
 70
     0
300
1:40
140
1.0
141
40.0
290
     0
  0
SCALE
  5
24C
102
{ACAD_REACTORS
330
241
102
}
330
241
100
AcDbScale
 70
     0
300
1:50
140
1.0
141
50.0
290
     0
  0
SCALE
  5
24D
102
{ACAD_REACTORS
330
241
102
}
330
241
100
AcDbScale
 70
     0
300
1:100
140
1.0
141
100.0
290
     0
  0
SCALE
  5
24E
102
{ACAD_REACTORS
330
241
102
}
330
241
100
AcDbScale
 70
     0
300
2:1
140
2.0
141
1.0
290
     0
  0
SCALE
  5
24F
102
{ACAD_REACTORS
330
241
102
}
330
241
100
AcDbScale
 70
     0
300
4:1
140
4.0
141
1.0
290
     0
  0
SCALE
  5
250
102
{ACAD_REACTORS
330
241
102
}
330
241
100
AcDbScale
 70
     0
300
8:1
140
8.0
141
1.0
290
     0
  0
SCALE
  5
251
102
{ACAD_REACTORS
330
241
102
}
330
241
100
AcDbScale
 70
     0
300
10:1
140
10.0
141
1.0
290
     0
  0
SCALE
  5
252
102
{ACAD_REACTORS
330
241
102
}
330
241
100
AcDbScale
 70
     0
300
100:1
140
100.0
141
1.0
290
     0
  0
SCALE
  5
253
102
{ACAD_REACTORS
330
241
102
}
330
241
100
AcDbScale
 70
     0
300
1/128" = 1'-0"
140
0.0078125
141
12.0
290
     0
  0
SCALE
  5
254
102
{ACAD_REACTORS
330
241
102
}
330
241
100
AcDbScale
 70
     0
300
1/64" = 1'-0"
140
0.015625
141
12.0
290
     0
  0
SCALE
  5
255
102
{ACAD_REACTORS
330
241
102
}
330
241
100
AcDbScale
 70
     0
300
1/32" = 1'-0"
140
0.03125
141
12.0
290
     0
  0
SCALE
  5
256
102
{ACAD_REACTORS
330
241
102
}
330
241
100
AcDbScale
 70
     0
300
1/16" = 1'-0"
140
0.0625
141
12.0
290
     0
  0
SCALE
  5
257
102
{ACAD_REACTORS
330
241
102
}
330
241
100
AcDbScale
 70
     0
300
3/32" = 1'-0"
140
0.09375
141
12.0
290
     0
  0
SCALE
  5
258
102
{ACAD_REACTORS
330
241
102
}
330
241
100
AcDbScale
 70
     0
300
1/8" = 1'-0"
140
0.125
141
12.0
290
     0
  0
SCALE
  5
259
102
{ACAD_REACTORS
330
241
102
}
330
241
100
AcDbScale
 70
     0
300
3/16" = 1'-0"
140
0.1875
141
12.0
290
     0
  0
SCALE
  5
25A
102
{ACAD_REACTORS
330
241
102
}
330
241
100
AcDbScale
 70
     0
300
1/4" = 1'-0"
140
0.25
141
12.0
290
     0
  0
SCALE
  5
25B
102
{ACAD_REACTORS
330
241
102
}
330
241
100
AcDbScale
 70
     0
300
3/8" = 1'-0"
140
0.375
141
12.0
290
     0
  0
SCALE
  5
25C
102
{ACAD_REACTORS
330
241
102
}
330
241
100
AcDbScale
 70
     0
300
1/2" = 1'-0"
140
0.5
141
12.0
290
     0
  0
SCALE
  5
25D
102
{ACAD_REACTORS
330
241
102
}
330
241
100
AcDbScale
 70
     0
300
3/4" = 1'-0"
140
0.75
141
12.0
290
     0
  0
SCALE
  5
25E
102
{ACAD_REACTORS
330
241
102
}
330
241
100
AcDbScale
 70
     0
300
1" = 1'-0"
140
1.0
141
12.0
290
     0
  0
SCALE
  5
25F
102
{ACAD_REACTORS
330
241
102
}
330
241
100
AcDbScale
 70
     0
300
1-1/2" = 1'-0"
140
1.5
141
12.0
290
     0
  0
SCALE
  5
260
102
{ACAD_REACTORS
330
241
102
}
330
241
100
AcDbScale
 70
     0
300
3" = 1'-0"
140
3.0
141
12.0
290
     0
  0
SCALE
  5
261
102
{ACAD_REACTORS
330
241
102
}
330
241
100
AcDbScale
 70
     0
300
6" = 1'-0"
140
6.0
141
12.0
290
     0
  0
SCALE
  5
262
102
{ACAD_REACTORS
330
241
102
}
330
241
100
AcDbScale
 70
     0
300
1'-0" = 1'-0"
140
12.0
141
12.0
290
     0
  0
TABLESTYLE
  5
279
102
{ACAD_REACTORS
330
278
102
}
102
{ACAD_XDICTIONARY
360
3B94
102
}
330
278
100
AcDbTableStyle
  3
Standard
 70
     0
 71
     0
 40
0.06
 41
0.06
280
     0
281
     0
  7
Standard
140
4.5
170
     2
 62
     0
 63
   257
283
     0
 90
        4
 91
        0
  1

274
    -2
284
     1
 64
     0
275
    -2
285
     1
 65
     0
276
    -2
286
     1
 66
     0
277
    -2
287
     1
 67
     0
278
    -2
288
     1
 68
     0
279
    -2
289
     1
 69
     0
  7
Standard
140
6.0
170
     5
 62
     0
 63
   257
283
     0
 90
        4
 91
        0
  1

274
    -2
284
     1
 64
     0
275
    -2
285
     1
 65
     0
276
    -2
286
     1
 66
     0
277
    -2
287
     1
 67
     0
278
    -2
288
     1
 68
     0
279
    -2
289
     1
 69
     0
  7
Standard
140
4.5
170
     5
 62
     0
 63
   257
283
     0
 90
        4
 91
        0
  1

274
    -2
284
     1
 64
     0
275
    -2
285
     1
 65
     0
276
    -2
286
     1
 66
     0
277
    -2
287
     1
 67
     0
278
    -2
288
     1
 68
     0
279
    -2
289
     1
 69
     0
  0
VISUALSTYLE
  5
26C
102
{ACAD_REACTORS
330
267
102
}
330
267
100
AcDbVisualStyle
  2
2dWireframe
 70
     4
 71
     0
 72
     2
 73
     0
 90
        0
 40
-0.6
 41
-30.0
 62
     5
 63
     7
421
 16777215
 74
     1
 91
        4
 64
     7
 65
   257
 75
     1
175
     1
 42
1.0
 92
        0
 66
   257
 43
1.0
 76
     1
 77
     6
 78
     2
 67
     7
 79
     5
170
     0
171
     0
290
     0
174
     0
 93
        1
 44
0.0
173
     0
291
     0
 45
0.0
  0
VISUALSTYLE
  5
26E
102
{ACAD_REACTORS
330
267
102
}
330
267
100
AcDbVisualStyle
  2
3D Hidden
 70
     6
 71
     1
 72
     2
 73
     2
 90
        0
 40
-0.6
 41
-30.0
 62
     5
 63
     7
421
 16777215
 74
     2
 91
        2
 64
     7
 65
   257
 75
     2
175
     1
 42
40.0
 92
        0
 66
   257
 43
1.0
 76
     1
 77
     6
 78
     2
 67
     7
 79
     3
170
     0
171
     0
290
     0
174
     0
 93
        1
 44
0.0
173
     0
291
     0
 45
0.0
  0
VISUALSTYLE
  5
26D
102
{ACAD_REACTORS
330
267
102
}
330
267
100
AcDbVisualStyle
  2
3dWireframe
 70
     5
 71
     0
 72
     2
 73
     0
 90
        0
 40
-0.6
 41
-30.0
 62
     5
 63
     7
421
 16777215
 74
     1
 91
        4
 64
     7
 65
   257
 75
     1
175
     1
 42
1.0
 92
        0
 66
   257
 43
1.0
 76
     1
 77
     6
 78
     2
 67
     7
 79
     5
170
     0
171
     0
290
     0
174
     0
 93
        1
 44
0.0
173
     0
291
     0
 45
0.0
  0
VISUALSTYLE
  5
26F
102
{ACAD_REACTORS
330
267
102
}
330
267
100
AcDbVisualStyle
  2
Basic
 70
     7
 71
     1
 72
     0
 73
     1
 90
        0
 40
-0.6
 41
-30.0
 62
     5
 63
     7
421
 16777215
 74
     0
 91
        4
 64
     7
 65
   257
 75
     1
175
     1
 42
1.0
 92
        8
 66
     7
 43
1.0
 76
     1
 77
     6
 78
     2
 67
     7
 79
     5
170
     0
171
     0
290
     0
174
     0
 93
        1
 44
0.0
173
     0
291
     1
 45
0.0
  0
VISUALSTYLE
  5
273
102
{ACAD_REACTORS
330
267
102
}
330
267
100
AcDbVisualStyle
  2
Brighten
 70
    12
 71
     2
 72
     2
 73
     0
 90
        0
 40
-0.6
 41
-30.0
 62
     5
 63
     7
421
 16777215
 74
     1
 91
        4
 64
     7
 65
   257
 75
     1
175
     1
 42
1.0
 92
        8
 66
     7
 43
1.0
 76
     1
 77
     6
 78
     2
 67
     7
 79
     5
170
     0
171
     0
290
     0
174
     0
 93
        1
 44
50.0
173
     0
291
     1
 45
0.0
  0
VISUALSTYLE
  5
277
102
{ACAD_REACTORS
330
267
102
}
330
267
100
AcDbVisualStyle
  2
ColorChange
 70
    16
 71
     2
 72
     2
 73
     3
 90
        0
 40
-0.6
 41
-30.0
 62
     5
 63
     8
421
  8421504
 74
     1
 91
        4
 64
     7
 65
   257
 75
     1
175
     1
 42
1.0
 92
        8
 66
     8
424
  8421504
 43
1.0
 76
     1
 77
     6
 78
     2
 67
     7
 79
     5
170
     0
171
     0
290
     0
174
     0
 93
        1
 44
0.0
173
     0
291
     1
 45
0.0
  0
VISUALSTYLE
  5
271
102
{ACAD_REACTORS
330
267
102
}
330
267
100
AcDbVisualStyle
  2
Conceptual
 70
     9
 71
     3
 72
     2
 73
     0
 90
        0
 40
-0.6
 41
-30.0
 62
     5
 63
     7
421
 16777215
 74
     2
 91
        2
 64
     7
 65
   257
 75
     1
175
     1
 42
40.0
 92
        8
 66
     7
 43
1.0
 76
     1
 77
     6
 78
     2
 67
     7
 79
     3
170
     0
171
     0
290
     0
174
     0
 93
        1
 44
0.0
173
     0
291
     0
 45
0.0
  0
VISUALSTYLE
  5
272
102
{ACAD_REACTORS
330
267
102
}
330
267
100
AcDbVisualStyle
  2
Dim
 70
    11
 71
     2
 72
     2
 73
     0
 90
        0
 40
-0.6
 41
-30.0
 62
     5
 63
     7
421
 16777215
 74
     1
 91
        4
 64
     7
 65
   257
 75
     1
175
     1
 42
1.0
 92
        8
 66
     7
 43
1.0
 76
     1
 77
     6
 78
     2
 67
     7
 79
     5
170
     0
171
     0
290
     0
174
     0
 93
        1
 44
-50.0
173
     0
291
     1
 45
0.0
  0
VISUALSTYLE
  5
8FE
102
{ACAD_REACTORS
330
267
102
}
330
267
100
AcDbVisualStyle
  2
EdgeColorOff
 70
    22
 71
     2
 72
     2
 73
     0
 90
        0
 40
0.6
 41
30.0
 62
     5
 63
     7
421
 16777215
 74
     1
 91
        4
 64
     7
 65
   257
 75
     1
175
     1
 42
1.0
 92
        8
 66
     7
 43
1.0
 76
     1
 77
     6
 78
     2
 67
     7
 79
     5
170
     0
171
     0
290
     0
174
     0
 93
        1
 44
0.0
173
     0
291
     1
 45
0.0
  0
VISUALSTYLE
  5
276
102
{ACAD_REACTORS
330
267
102
}
330
267
100
AcDbVisualStyle
  2
Facepattern
 70
    15
 71
     2
 72
     2
 73
     0
 90
        0
 40
-0.6
 41
-30.0
 62
     5
 63
     7
421
 16777215
 74
     1
 91
        4
 64
     7
 65
   257
 75
     1
175
     1
 42
1.0
 92
        8
 66
     7
 43
1.0
 76
     1
 77
     6
 78
     2
 67
     7
 79
     5
170
     0
171
     0
290
     0
174
     0
 93
        1
 44
0.0
173
     0
291
     1
 45
0.0
  0
VISUALSTYLE
  5
268
102
{ACAD_REACTORS
330
267
102
}
330
267
100
AcDbVisualStyle
  2
Flat
 70
     0
 71
     2
 72
     1
 73
     1
 90
        2
 40
-0.6
 41
30.0
 62
     5
 63
     7
421
 16777215
 74
     0
 91
        4
 64
     7
 65
   257
 75
     1
175
     1
 42
1.0
 92
        8
 66
     7
 43
1.0
 76
     1
 77
     6
 78
     2
 67
     7
 79
     5
170
     0
171
     0
290
     0
174
     0
 93
       13
 44
0.0
173
     0
291
     1
 45
0.0
  0
VISUALSTYLE
  5
269
102
{ACAD_REACTORS
330
267
102
}
330
267
100
AcDbVisualStyle
  2
FlatWithEdges
 70
     1
 71
     2
 72
     1
 73
     1
 90
        2
 40
-0.6
 41
30.0
 62
     5
 63
     7
421
 16777215
 74
     1
 91
        4
 64
     7
 65
   257
 75
     1
175
     1
 42
1.0
 92
        0
 66
   257
 43
1.0
 76
     1
 77
     6
 78
     2
 67
     7
 79
     5
170
     0
171
     0
290
     0
174
     0
 93
       13
 44
0.0
173
     0
291
     1
 45
0.0
  0
VISUALSTYLE
  5
26A
102
{ACAD_REACTORS
330
267
102
}
330
267
100
AcDbVisualStyle
  2
Gouraud
 70
     2
 71
     2
 72
     2
 73
     1
 90
        2
 40
-0.6
 41
30.0
 62
     5
 63
     7
421
 16777215
 74
     0
 91
        4
 64
     7
 65
   257
 75
     1
175
     1
 42
1.0
 92
        0
 66
     7
 43
1.0
 76
     1
 77
     6
 78
     2
 67
     7
 79
     5
170
     0
171
     0
290
     0
174
     0
 93
       13
 44
0.0
173
     0
291
     1
 45
0.0
  0
VISUALSTYLE
  5
26B
102
{ACAD_REACTORS
330
267
102
}
330
267
100
AcDbVisualStyle
  2
GouraudWithEdges
 70
     3
 71
     2
 72
     2
 73
     1
 90
        2
 40
-0.6
 41
30.0
 62
     5
 63
     7
421
 16777215
 74
     1
 91
        4
 64
     7
 65
   257
 75
     1
175
     1
 42
1.0
 92
        0
 66
   257
 43
1.0
 76
     1
 77
     6
 78
     2
 67
     7
 79
     5
170
     0
171
     0
290
     0
174
     0
 93
       13
 44
0.0
173
     0
291
     1
 45
0.0
  0
VISUALSTYLE
  5
8FB
102
{ACAD_REACTORS
330
267
102
}
330
267
100
AcDbVisualStyle
  2
Hidden
 70
     6
 71
     1
 72
     2
 73
     2
 90
        0
 40
0.6
 41
30.0
 62
     5
 63
     7
421
 16777215
 74
     2
 91
        2
 64
     7
 65
   257
 75
     2
175
     1
 42
40.0
 92
        0
 66
   257
 43
1.0
 76
     1
 77
     6
 78
     2
 67
     7
 79
     3
170
     0
171
     0
290
     0
174
     0
 93
        1
 44
0.0
173
     0
291
     0
 45
0.0
  0
VISUALSTYLE
  5
8FC
102
{ACAD_REACTORS
330
267
102
}
330
267
100
AcDbVisualStyle
  2
JitterOff
 70
    20
 71
     2
 72
     2
 73
     0
 90
        0
 40
0.6
 41
30.0
 62
     5
 63
     7
421
 16777215
 74
     1
 91
        4
 64
     7
 65
   257
 75
     1
175
     1
 42
1.0
 92
       10
 66
     7
 43
1.0
 76
     1
 77
     6
 78
     2
 67
     7
 79
     5
170
     0
171
     0
290
     0
174
     0
 93
        1
 44
0.0
173
     0
291
     1
 45
0.0
  0
VISUALSTYLE
  5
275
102
{ACAD_REACTORS
330
267
102
}
330
267
100
AcDbVisualStyle
  2
Linepattern
 70
    14
 71
     2
 72
     2
 73
     0
 90
        0
 40
-0.6
 41
-30.0
 62
     5
 63
     7
421
 16777215
 74
     1
 91
        4
 64
     7
 65
   257
 75
     7
175
     7
 42
1.0
 92
        8
 66
     7
 43
1.0
 76
     1
 77
     6
 78
     2
 67
     7
 79
     5
170
     0
171
     0
290
     0
174
     0
 93
        1
 44
0.0
173
     0
291
     1
 45
0.0
  0
VISUALSTYLE
  5
8FD
102
{ACAD_REACTORS
330
267
102
}
330
267
100
AcDbVisualStyle
  2
OverhangOff
 70
    21
 71
     2
 72
     2
 73
     0
 90
        0
 40
0.6
 41
30.0
 62
     5
 63
     7
421
 16777215
 74
     1
 91
        4
 64
     7
 65
   257
 75
     1
175
     1
 42
1.0
 92
        9
 66
     7
 43
1.0
 76
     1
 77
     6
 78
     2
 67
     7
 79
     5
170
     0
171
     0
290
     0
174
     0
 93
        1
 44
0.0
173
     0
291
     1
 45
0.0
  0
VISUALSTYLE
  5
270
102
{ACAD_REACTORS
330
267
102
}
330
267
100
AcDbVisualStyle
  2
Realistic
 70
     8
 71
     2
 72
     2
 73
     0
 90
        0
 40
-0.6
 41
-30.0
 62
     5
 63
     7
421
 16777215
 74
     1
 91
        0
 64
     7
 65
   257
 75
     1
175
     1
 42
1.0
 92
        8
 66
     8
424
  7895160
 43
1.0
 76
     1
 77
     6
 78
     2
 67
     7
 79
     5
170
     0
171
     0
290
     0
174
     0
 93
       13
 44
0.0
173
     0
291
     0
 45
0.0
  0
VISUALSTYLE
  5
903
102
{ACAD_REACTORS
330
267
102
}
330
267
100
AcDbVisualStyle
  2
Shaded
 70
    27
 71
     2
 72
     2
 73
     1
 90
        2
 40
0.6
 41
30.0
 62
     5
 63
     7
421
 16777215
 74
     0
 91
        4
 64
     7
 65
   257
 75
     1
175
     1
 42
1.0
 92
        8
 66
   257
 43
1.0
 76
     1
 77
     6
 78
     2
 67
     8
425
  7895160
 79
     3
170
     0
171
     0
290
     0
174
     0
 93
        5
 44
0.0
173
     0
291
     0
 45
0.0
  0
VISUALSTYLE
  5
902
102
{ACAD_REACTORS
330
267
102
}
330
267
100
AcDbVisualStyle
  2
Shaded with edges
 70
    26
 71
     2
 72
     2
 73
     1
 90
        2
 40
0.6
 41
30.0
 62
     5
 63
     7
421
 16777215
 74
     1
 91
       10
 64
     7
 65
   257
 75
     2
175
     1
 42
1.0
 92
        8
 66
   257
 43
1.0
 76
     1
 77
     6
 78
     2
 67
     7
 79
     3
170
     0
171
     0
290
     0
174
     0
 93
        5
 44
0.0
173
     0
291
     0
 45
0.0
  0
VISUALSTYLE
  5
8FF
102
{ACAD_REACTORS
330
267
102
}
330
267
100
AcDbVisualStyle
  2
Shades of Gray
 70
    23
 71
     2
 72
     2
 73
     3
 90
        0
 40
0.6
 41
30.0
 62
     5
 63
     7
421
 16777215
 74
     2
 91
        2
 64
     7
 65
     7
 75
     1
175
     1
 42
40.0
 92
        8
 66
     7
 43
1.0
 76
     1
 77
     6
 78
     2
 67
     7
 79
     3
170
     0
171
     0
290
     0
174
     0
 93
        1
 44
0.0
173
     0
291
     0
 45
0.0
  0
VISUALSTYLE
  5
900
102
{ACAD_REACTORS
330
267
102
}
330
267
100
AcDbVisualStyle
  2
Sketchy
 70
    24
 71
     1
 72
     2
 73
     2
 90
        0
 40
0.6
 41
30.0
 62
     5
 63
     7
421
 16777215
 74
     2
 91
        2
 64
     7
 65
     7
 75
     1
175
     1
 42
40.0
 92
       11
 66
     7
 43
1.0
 76
     1
 77
     6
 78
     2
 67
     7
 79
     6
170
     0
171
     0
290
     0
174
     0
 93
        1
 44
0.0
173
     0
291
     0
 45
0.0
  0
VISUALSTYLE
  5
274
102
{ACAD_REACTORS
330
267
102
}
330
267
100
AcDbVisualStyle
  2
Thicken
 70
    13
 71
     2
 72
     2
 73
     0
 90
        0
 40
-0.6
 41
-30.0
 62
     5
 63
     7
421
 16777215
 74
     1
 91
        4
 64
     7
 65
   257
 75
     1
175
     1
 42
1.0
 92
       12
 66
     7
 43
1.0
 76
     1
 77
     6
 78
     2
 67
     7
 79
     5
170
     0
171
     0
290
     0
174
     0
 93
        1
 44
0.0
173
     0
291
     1
 45
0.0
  0
VISUALSTYLE
  5
8FA
102
{ACAD_REACTORS
330
267
102
}
330
267
100
AcDbVisualStyle
  2
Wireframe
 70
     5
 71
     0
 72
     2
 73
     0
 90
        0
 40
0.6
 41
30.0
 62
     5
 63
     7
421
 16777215
 74
     1
 91
        4
 64
     7
 65
   257
 75
     1
175
     1
 42
1.0
 92
        0
 66
   257
 43
1.0
 76
     1
 77
     6
 78
     2
 67
     7
 79
     3
170
     0
171
     0
290
     0
174
     0
 93
        1
 44
0.0
173
     0
291
     0
 45
0.0
  0
VISUALSTYLE
  5
901
102
{ACAD_REACTORS
330
267
102
}
330
267
100
AcDbVisualStyle
  2
X-Ray
 70
    25
 71
     2
 72
     2
 73
     1
 90
        1
 40
0.5
 41
30.0
 62
     5
 63
     7
421
 16777215
 74
     1
 91
        0
 64
     7
 65
   257
 75
     1
175
     1
 42
1.0
 92
        8
 66
     7
 43
1.0
 76
     1
 77
     6
 78
     2
 67
     7
 79
     3
170
     0
171
     0
290
     0
174
     0
 93
       13
 44
0.0
173
     0
291
     0
 45
0.0
  0
DICTIONARYVAR
  5
331
102
{ACAD_REACTORS
330
330
102
}
330
330
100
DictionaryVariables
280
     0
  1
1:1
  0
DICTIONARYVAR
  5
DB1
102
{ACAD_REACTORS
330
330
102
}
330
330
100
DictionaryVariables
280
     0
  1
Standard
  0
DICTIONARYVAR
  5
335
102
{ACAD_REACTORS
330
330
102
}
330
330
100
DictionaryVariables
280
     0
  1
Standard
  0
DICTIONARYVAR
  5
D52
102
{ACAD_REACTORS
330
330
102
}
330
330
100
DictionaryVariables
280
     0
  1
ByLayer
  0
DICTIONARYVAR
  5
896
102
{ACAD_REACTORS
330
330
102
}
330
330
100
DictionaryVariables
280
     0
  1
0
  0
DICTIONARYVAR
  5
ECE
102
{ACAD_REACTORS
330
E3E
102
}
330
E3E
100
DictionaryVariables
280
     0
  1
0.261799
  0
DICTIONARYVAR
  5
ECC
102
{ACAD_REACTORS
330
E3E
102
}
330
E3E
100
DictionaryVariables
280
     0
  1
0.400000
  0
DICTIONARYVAR
  5
ECD
102
{ACAD_REACTORS
330
E3E
102
}
330
E3E
100
DictionaryVariables
280
     0
  1
0.250000
  0
DICTIONARYVAR
  5
ECF
102
{ACAD_REACTORS
330
E3E
102
}
330
E3E
100
DictionaryVariables
280
     0
  1
1
  0
DICTIONARY
  5
3B94
330
279
100
AcDbDictionary
280
     1
281
     1
  3
ACAD_ROUNDTRIP_2008_TABLESTYLE_CELLSTYLEMAP
360
3B95
  0
CELLSTYLEMAP
  5
3B95
102
{ACAD_REACTORS
330
3B94
102
}
330
3B94
100
AcDbCellStyleMap
 90
        3
300
CELLSTYLE
  1
TABLEFORMAT_BEGIN
 90
        5
170
     1
 91
        0
 92
    32768
 62
   257
 93
        1
300
CONTENTFORMAT
  1
CONTENTFORMAT_BEGIN
 90
        0
 91
        0
 92
        4
 93
        0
300

 40
0.0
140
1.0
 94
        5
 62
     0
340
17
144
6.0
309
CONTENTFORMAT_END
171
     1
301
MARGIN
  1
CELLMARGIN_BEGIN
 40
0.06
 40
0.06
 40
0.06
 40
0.06
 40
0.18
 40
0.18
309
CELLMARGIN_END
 94
        6
 95
        1
302
GRIDFORMAT
  1
GRIDFORMAT_BEGIN
 90
        0
 91
        1
 62
     0
 92
       -2
340
0
 93
        0
 40
0.045
309
GRIDFORMAT_END
 95
        2
302
GRIDFORMAT
  1
GRIDFORMAT_BEGIN
 90
        0
 91
        1
 62
     0
 92
       -2
340
0
 93
        0
 40
0.045
309
GRIDFORMAT_END
 95
        4
302
GRIDFORMAT
  1
GRIDFORMAT_BEGIN
 90
        0
 91
        1
 62
     0
 92
       -2
340
0
 93
        0
 40
0.045
309
GRIDFORMAT_END
 95
        8
302
GRIDFORMAT
  1
GRIDFORMAT_BEGIN
 90
        0
 91
        1
 62
     0
 92
       -2
340
0
 93
        0
 40
0.045
309
GRIDFORMAT_END
 95
       16
302
GRIDFORMAT
  1
GRIDFORMAT_BEGIN
 90
        0
 91
        1
 62
     0
 92
       -2
340
0
 93
        0
 40
0.045
309
GRIDFORMAT_END
 95
       32
302
GRIDFORMAT
  1
GRIDFORMAT_BEGIN
 90
        0
 91
        1
 62
     0
 92
       -2
340
0
 93
        0
 40
0.045
309
GRIDFORMAT_END
309
TABLEFORMAT_END
  1
CELLSTYLE_BEGIN
 90
        1
 91
        1
300
_TITLE
309
CELLSTYLE_END
300
CELLSTYLE
  1
TABLEFORMAT_BEGIN
 90
        5
170
     1
 91
        0
 92
        0
 62
   257
 93
        1
300
CONTENTFORMAT
  1
CONTENTFORMAT_BEGIN
 90
        0
 91
        0
 92
        4
 93
        0
300

 40
0.0
140
1.0
 94
        5
 62
     0
340
17
144
4.5
309
CONTENTFORMAT_END
171
     1
301
MARGIN
  1
CELLMARGIN_BEGIN
 40
0.06
 40
0.06
 40
0.06
 40
0.06
 40
0.18
 40
0.18
309
CELLMARGIN_END
 94
        6
 95
        1
302
GRIDFORMAT
  1
GRIDFORMAT_BEGIN
 90
        0
 91
        1
 62
     0
 92
       -2
340
0
 93
        0
 40
0.045
309
GRIDFORMAT_END
 95
        2
302
GRIDFORMAT
  1
GRIDFORMAT_BEGIN
 90
        0
 91
        1
 62
     0
 92
       -2
340
0
 93
        0
 40
0.045
309
GRIDFORMAT_END
 95
        4
302
GRIDFORMAT
  1
GRIDFORMAT_BEGIN
 90
        0
 91
        1
 62
     0
 92
       -2
340
0
 93
        0
 40
0.045
309
GRIDFORMAT_END
 95
        8
302
GRIDFORMAT
  1
GRIDFORMAT_BEGIN
 90
        0
 91
        1
 62
     0
 92
       -2
340
0
 93
        0
 40
0.045
309
GRIDFORMAT_END
 95
       16
302
GRIDFORMAT
  1
GRIDFORMAT_BEGIN
 90
        0
 91
        1
 62
     0
 92
       -2
340
0
 93
        0
 40
0.045
309
GRIDFORMAT_END
 95
       32
302
GRIDFORMAT
  1
GRIDFORMAT_BEGIN
 90
        0
 91
        1
 62
     0
 92
       -2
340
0
 93
        0
 40
0.045
309
GRIDFORMAT_END
309
TABLEFORMAT_END
  1
CELLSTYLE_BEGIN
 90
        2
 91
        1
300
_HEADER
309
CELLSTYLE_END
300
CELLSTYLE
  1
TABLEFORMAT_BEGIN
 90
        5
170
     1
 91
        0
 92
        0
 62
   257
 93
        1
300
CONTENTFORMAT
  1
CONTENTFORMAT_BEGIN
 90
        0
 91
        0
 92
        4
 93
        0
300

 40
0.0
140
1.0
 94
        2
 62
     0
340
17
144
4.5
309
CONTENTFORMAT_END
171
     1
301
MARGIN
  1
CELLMARGIN_BEGIN
 40
0.06
 40
0.06
 40
0.06
 40
0.06
 40
0.18
 40
0.18
309
CELLMARGIN_END
 94
        6
 95
        1
302
GRIDFORMAT
  1
GRIDFORMAT_BEGIN
 90
        0
 91
        1
 62
     0
 92
       -2
340
0
 93
        0
 40
0.045
309
GRIDFORMAT_END
 95
        2
302
GRIDFORMAT
  1
GRIDFORMAT_BEGIN
 90
        0
 91
        1
 62
     0
 92
       -2
340
0
 93
        0
 40
0.045
309
GRIDFORMAT_END
 95
        4
302
GRIDFORMAT
  1
GRIDFORMAT_BEGIN
 90
        0
 91
        1
 62
     0
 92
       -2
340
0
 93
        0
 40
0.045
309
GRIDFORMAT_END
 95
        8
302
GRIDFORMAT
  1
GRIDFORMAT_BEGIN
 90
        0
 91
        1
 62
     0
 92
       -2
340
0
 93
        0
 40
0.045
309
GRIDFORMAT_END
 95
       16
302
GRIDFORMAT
  1
GRIDFORMAT_BEGIN
 90
        0
 91
        1
 62
     0
 92
       -2
340
0
 93
        0
 40
0.045
309
GRIDFORMAT_END
 95
       32
302
GRIDFORMAT
  1
GRIDFORMAT_BEGIN
 90
        0
 91
        1
 62
     0
 92
       -2
340
0
 93
        0
 40
0.045
309
GRIDFORMAT_END
309
TABLEFORMAT_END
  1
CELLSTYLE_BEGIN
 90
        3
 91
        2
300
_DATA
309
CELLSTYLE_END
  0
ENDSEC
  0
EOF
